  0
SECTION
  2
HEADER
  9
$ACADVER
  1
AC1015
  9
$ACADMAINTVER
 70
     6
  9
$DWGCODEPAGE
  3
ANSI_1252
  9
$INSBASE
 10
0.0
 20
0.0
 30
0.0
  9
$EXTMIN
 10
0.0
 20
0.0
 30
0.0
  9
$EXTMAX
 10
297.0
 20
210.0
 30
0.0
  9
$LIMMIN
 10
0.0
 20
0.0
  9
$LIMMAX
 10
297.0
 20
210.0
  9
$ORTHOMODE
 70
     0
  9
$REGENMODE
 70
     1
  9
$FILLMODE
 70
     1
  9
$QTEXTMODE
 70
     0
  9
$MIRRTEXT
 70
     1
  9
$LTSCALE
 40
1.0
  9
$ATTMODE
 70
     1
  9
$TEXTSIZE
 40
2.0
  9
$TRACEWID
 40
1.0
  9
$TEXTSTYLE
  7
Standard
  9
$CLAYER
  8
0
  9
$CELTYPE
  6
ByLayer
  9
$CECOLOR
 62
   256
  9
$CELTSCALE
 40
1.0
  9
$DISPSILH
 70
     0
  9
$DIMSCALE
 40
1.0
  9
$DIMASZ
 40
3.0
  9
$DIMEXO
 40
0.0
  9
$DIMDLI
 40
3.75
  9
$DIMRND
 40
0.0
  9
$DIMDLE
 40
0.0
  9
$DIMEXE
 40
1.0
  9
$DIMTP
 40
0.0
  9
$DIMTM
 40
0.0
  9
$DIMTXT
 40
2.0
  9
$DIMCEN
 40
2.5
  9
$DIMTSZ
 40
0.0
  9
$DIMTOL
 70
     0
  9
$DIMLIM
 70
     0
  9
$DIMTIH
 70
     1
  9
$DIMTOH
 70
     1
  9
$DIMSE1
 70
     0
  9
$DIMSE2
 70
     0
  9
$DIMTAD
 70
     1
  9
$DIMZIN
 70
     0
  9
$DIMBLK
  1

  9
$DIMASO
 70
     1
  9
$DIMSHO
 70
     1
  9
$DIMPOST
  1

  9
$DIMAPOST
  1

  9
$DIMALT
 70
     0
  9
$DIMALTD
 70
     3
  9
$DIMALTF
 40
0.0393700787
  9
$DIMLFAC
 40
2.0
  9
$DIMTOFL
 70
     1
  9
$DIMTVP
 40
0.0
  9
$DIMTIX
 70
     0
  9
$DIMSOXD
 70
     0
  9
$DIMSAH
 70
     0
  9
$DIMBLK1
  1

  9
$DIMBLK2
  1

  9
$DIMSTYLE
  2
ISO-25
  9
$DIMCLRD
 70
     0
  9
$DIMCLRE
 70
     0
  9
$DIMCLRT
 70
     0
  9
$DIMTFAC
 40
1.0
  9
$DIMGAP
 40
1.524
  9
$DIMJUST
 70
     0
  9
$DIMSD1
 70
     0
  9
$DIMSD2
 70
     0
  9
$DIMTOLJ
 70
     0
  9
$DIMTZIN
 70
     0
  9
$DIMALTZ
 70
     0
  9
$DIMALTTZ
 70
     0
  9
$DIMUPT
 70
     0
  9
$DIMDEC
 70
     2
  9
$DIMTDEC
 70
     3
  9
$DIMALTU
 70
     2
  9
$DIMALTTD
 70
     3
  9
$DIMTXSTY
  7
Standard
  9
$DIMAUNIT
 70
     0
  9
$DIMADEC
 70
     2
  9
$DIMALTRND
 40
0.0
  9
$DIMAZIN
 70
     0
  9
$DIMDSEP
 70
    44
  9
$DIMATFIT
 70
     3
  9
$DIMFRAC
 70
     0
  9
$DIMLDRBLK
  1

  9
$DIMLUNIT
 70
     2
  9
$DIMLWD
 70
    -2
  9
$DIMLWE
 70
    -2
  9
$DIMTMOVE
 70
     0
  9
$LUNITS
 70
     2
  9
$LUPREC
 70
     2
  9
$SKETCHINC
 40
1.0
  9
$FILLETRAD
 40
10.0
  9
$AUNITS
 70
     0
  9
$AUPREC
 70
     2
  9
$MENU
  1
.
  9
$ELEVATION
 40
0.0
  9
$PELEVATION
 40
0.0
  9
$THICKNESS
 40
0.0
  9
$LIMCHECK
 70
     0
  9
$CHAMFERA
 40
0.0
  9
$CHAMFERB
 40
0.0
  9
$CHAMFERC
 40
0.0
  9
$CHAMFERD
 40
0.0
  9
$SKPOLY
 70
     0
  9
$TDCREATE
 40
2458169.45995765
  9
$TDUCREATE
 40
2458169.418290984
  9
$TDUPDATE
 40
2458169.459960081
  9
$TDUUPDATE
 40
2458169.418293414
  9
$TDINDWG
 40
0.0000000116
  9
$TDUSRTIMER
 40
0.0000000116
  9
$USRTIMER
 70
     1
  9
$ANGBASE
 50
0.0
  9
$ANGDIR
 70
     0
  9
$PDMODE
 70
     0
  9
$PDSIZE
 40
-1.0
  9
$PLINEWID
 40
0.0
  9
$SPLFRAME
 70
     0
  9
$SPLINETYPE
 70
     6
  9
$SPLINESEGS
 70
     8
  9
$HANDSEED
  5
280
  9
$SURFTAB1
 70
     6
  9
$SURFTAB2
 70
     6
  9
$SURFTYPE
 70
     6
  9
$SURFU
 70
     6
  9
$SURFV
 70
     6
  9
$UCSBASE
  2

  9
$UCSNAME
  2

  9
$UCSORG
 10
0.0
 20
0.0
 30
0.0
  9
$UCSXDIR
 10
1.0
 20
0.0
 30
0.0
  9
$UCSYDIR
 10
0.0
 20
1.0
 30
0.0
  9
$UCSORTHOREF
  2

  9
$UCSORTHOVIEW
 70
     0
  9
$UCSORGTOP
 10
0.0
 20
0.0
 30
0.0
  9
$UCSORGBOTTOM
 10
0.0
 20
0.0
 30
0.0
  9
$UCSORGLEFT
 10
0.0
 20
0.0
 30
0.0
  9
$UCSORGRIGHT
 10
0.0
 20
0.0
 30
0.0
  9
$UCSORGFRONT
 10
0.0
 20
0.0
 30
0.0
  9
$UCSORGBACK
 10
0.0
 20
0.0
 30
0.0
  9
$PUCSBASE
  2

  9
$PUCSNAME
  2

  9
$PUCSORG
 10
0.0
 20
0.0
 30
0.0
  9
$PUCSXDIR
 10
1.0
 20
0.0
 30
0.0
  9
$PUCSYDIR
 10
0.0
 20
1.0
 30
0.0
  9
$PUCSORTHOREF
  2

  9
$PUCSORTHOVIEW
 70
     0
  9
$PUCSORGTOP
 10
0.0
 20
0.0
 30
0.0
  9
$PUCSORGBOTTOM
 10
0.0
 20
0.0
 30
0.0
  9
$PUCSORGLEFT
 10
0.0
 20
0.0
 30
0.0
  9
$PUCSORGRIGHT
 10
0.0
 20
0.0
 30
0.0
  9
$PUCSORGFRONT
 10
0.0
 20
0.0
 30
0.0
  9
$PUCSORGBACK
 10
0.0
 20
0.0
 30
0.0
  9
$USERI1
 70
     0
  9
$USERI2
 70
     0
  9
$USERI3
 70
     0
  9
$USERI4
 70
     0
  9
$USERI5
 70
     0
  9
$USERR1
 40
0.0
  9
$USERR2
 40
0.0
  9
$USERR3
 40
0.0
  9
$USERR4
 40
0.0
  9
$USERR5
 40
0.0
  9
$WORLDVIEW
 70
     1
  9
$SHADEDGE
 70
     3
  9
$SHADEDIF
 70
    70
  9
$TILEMODE
 70
     1
  9
$MAXACTVP
 70
    64
  9
$PINSBASE
 10
0.0
 20
0.0
 30
0.0
  9
$PLIMCHECK
 70
     0
  9
$PEXTMIN
 10
1.0000000000E+20
 20
1.0000000000E+20
 30
1.0000000000E+20
  9
$PEXTMAX
 10
-1.0000000000E+20
 20
-1.0000000000E+20
 30
-1.0000000000E+20
  9
$PLIMMIN
 10
0.0
 20
0.0
  9
$PLIMMAX
 10
420.0
 20
297.0
  9
$UNITMODE
 70
     0
  9
$VISRETAIN
 70
     1
  9
$PLINEGEN
 70
     0
  9
$PSLTSCALE
 70
     1
  9
$TREEDEPTH
 70
  3020
  9
$CMLSTYLE
  2
Standard
  9
$CMLJUST
 70
     0
  9
$CMLSCALE
 40
20.0
  9
$PROXYGRAPHICS
 70
     1
  9
$MEASUREMENT
 70
     1
  9
$CELWEIGHT
370
    -1
  9
$ENDCAPS
280
     0
  9
$JOINSTYLE
280
     0
  9
$LWDISPLAY
290
     1
  9
$INSUNITS
 70
     4
  9
$HYPERLINKBASE
  1

  9
$STYLESHEET
  1

  9
$XEDIT
290
     1
  9
$CEPSNTYPE
380
     0
  9
$PSTYLEMODE
290
     1
  9
$FINGERPRINTGUID
  2
{37261D8C-328B-41A6-BDB1-A102F3515958}
  9
$VERSIONGUID
  2
{FAEB1C32-E019-11D5-929B-00C0DF256EC4}
  9
$EXTNAMES
290
     1
  9
$PSVPSCALE
 40
0.0
  9
$OLESTARTUP
290
     0
  0
ENDSEC
  0
SECTION
  2
CLASSES
  0
CLASS
  1
ACDBDICTIONARYWDFLT
  2
AcDbDictionaryWithDefault
  3
ObjectDBX Classes
 90
        0
280
     0
281
     0
  0
CLASS
  1
VISUALSTYLE
  2
AcDbVisualStyle
  3
ObjectDBX Classes
 90
     4095
280
     0
281
     0
  0
CLASS
  1
MATERIAL
  2
AcDbMaterial
  3
ObjectDBX Classes
 90
     1153
280
     0
281
     0
  0
CLASS
  1
SCALE
  2
AcDbScale
  3
ObjectDBX Classes
 90
     1153
280
     0
281
     0
  0
CLASS
  1
TABLESTYLE
  2
AcDbTableStyle
  3
ObjectDBX Classes
 90
     4095
280
     0
281
     0
  0
CLASS
  1
MLEADERSTYLE
  2
AcDbMLeaderStyle
  3
ACDB_MLEADERSTYLE_CLASS
 90
     4095
280
     0
281
     0
  0
CLASS
  1
SUN
  2
AcDbSun
  3
SCENEOE
 90
     1153
280
     0
281
     0
  0
CLASS
  1
ACDBPLACEHOLDER
  2
AcDbPlaceHolder
  3
ObjectDBX Classes
 90
        0
280
     0
281
     0
  0
CLASS
  1
LAYOUT
  2
AcDbLayout
  3
ObjectDBX Classes
 90
        0
280
     0
281
     0
  0
ENDSEC
  0
SECTION
  2
TABLES
  0
TABLE
  2
VPORT
  5
8
330
0
100
AcDbSymbolTable
 70
     1
  0
VPORT
  5
29
330
8
100
AcDbSymbolTableRecord
100
AcDbViewportTableRecord
  2
*Active
 70
     0
 10
0.0
 20
0.0
 11
1.0
 21
1.0
 12
148.5
 22
105.0
 13
0.0
 23
0.0
 14
10.0
 24
10.0
 15
10.0
 25
10.0
 16
0.0
 26
0.0
 36
1.0
 17
0.0
 27
0.0
 37
0.0
 40
210.0
 41
1.4142857143
 42
50.0
 43
0.0
 44
0.0
 50
0.0
 51
0.0
 71
     0
 72
  2000
 73
     1
 74
     3
 75
     0
 76
     0
 77
     0
 78
     0
281
     0
 65
     1
110
0.0
120
0.0
130
0.0
111
1.0
121
0.0
131
0.0
112
0.0
122
1.0
132
0.0
 79
     0
146
0.0
  0
ENDTAB
  0
TABLE
  2
LTYPE
  5
5
330
0
100
AcDbSymbolTable
 70
     6
  0
LTYPE
  5
14
330
5
100
AcDbSymbolTableRecord
100
AcDbLinetypeTableRecord
  2
ByBlock
 70
     0
  3

 72
    65
 73
     0
 40
0.0
  0
LTYPE
  5
15
330
5
100
AcDbSymbolTableRecord
100
AcDbLinetypeTableRecord
  2
ByLayer
 70
     0
  3

 72
    65
 73
     0
 40
0.0
  0
LTYPE
  5
16
330
5
100
AcDbSymbolTableRecord
100
AcDbLinetypeTableRecord
  2
Continuous
 70
     0
  3
Solid line
 72
    65
 73
     0
 40
0.0
  0
LTYPE
  5
6E
330
5
100
AcDbSymbolTableRecord
100
AcDbLinetypeTableRecord
  2
HIDDEN
 70
     0
  3
Hidden __ __ __ __ __ __ __ __ __ __ __ __ __ __
 72
    65
 73
     2
 40
1.905
 49
1.27
 74
     0
 49
-0.635
 74
     0
  0
LTYPE
  5
6F
330
5
100
AcDbSymbolTableRecord
100
AcDbLinetypeTableRecord
  2
PHANTOM
 70
     0
  3
Phantom ______  __  __  ______  __  __  ______
 72
    65
 73
     6
 40
12.7
 49
6.35
 74
     0
 49
-1.27
 74
     0
 49
1.27
 74
     0
 49
-1.27
 74
     0
 49
1.27
 74
     0
 49
-1.27
 74
     0
  0
LTYPE
  5
70
330
5
100
AcDbSymbolTableRecord
100
AcDbLinetypeTableRecord
  2
CENTER
 70
     0
  3
Center ____ _ ____ _ ____ _ ____ _ ____ _ ____
 72
    65
 73
     4
 40
10.16
 49
6.35
 74
     0
 49
-1.27
 74
     0
 49
1.27
 74
     0
 49
-1.27
 74
     0
  0
LTYPE
  5
71
330
5
100
AcDbSymbolTableRecord
100
AcDbLinetypeTableRecord
  2
CENTERX2
 70
     0
  3
Center (2x) ________  __  ________  __  _____
 72
    65
 73
     4
 40
20.32
 49
12.7
 74
     0
 49
-2.54
 74
     0
 49
2.54
 74
     0
 49
-2.54
 74
     0
  0
LTYPE
  5
72
330
5
100
AcDbSymbolTableRecord
100
AcDbLinetypeTableRecord
  2
DOT2
 70
     0
  3
Dot (.5x) ........................................
 72
    65
 73
     2
 40
0.635
 49
0.0
 74
     0
 49
-0.635
 74
     0
  0
ENDTAB
  0
TABLE
  2
LAYER
  5
2
330
0
100
AcDbSymbolTable
 70
     5
  0
LAYER
  5
10
330
2
100
AcDbSymbolTableRecord
100
AcDbLayerTableRecord
  2
0
 70
     0
 62
     7
  6
Continuous
370
    -3
390
F
  0
LAYER
  5
73
330
2
100
AcDbSymbolTableRecord
100
AcDbLayerTableRecord
  2
FORMAT
 70
     0
 62
     7
  6
Continuous
370
    -3
390
F
  0
LAYER
  5
74
330
2
100
AcDbSymbolTableRecord
100
AcDbLayerTableRecord
  2
VERMASSUNG
 70
     0
 62
     7
  6
Continuous
370
    -3
390
F
  0
LAYER
  5
75
330
2
100
AcDbSymbolTableRecord
100
AcDbLayerTableRecord
  2
KOPF_DÜNN
 70
     0
 62
     7
  6
Continuous
370
    -3
390
F
  0
LAYER
  5
76
330
2
100
AcDbSymbolTableRecord
100
AcDbLayerTableRecord
  2
KOPF_DICK
 70
     0
 62
     7
  6
Continuous
370
    25
390
F
  0
ENDTAB
  0
TABLE
  2
STYLE
  5
3
330
0
100
AcDbSymbolTable
 70
     3
  0
STYLE
  5
11
330
3
100
AcDbSymbolTableRecord
100
AcDbTextStyleTableRecord
  2
Standard
 70
     0
 40
0.0
 41
1.0
 50
0.0
 71
     0
 42
2.0
  3
txt
  4

  0
STYLE
  5
77
330
3
100
AcDbSymbolTableRecord
100
AcDbTextStyleTableRecord
  2
SLDTEXTSTYLE0
 70
     0
 40
0.0
 41
0.7
 50
0.0
 71
     0
 42
2.0
  3
TXT
  4

  0
STYLE
  5
7B
330
3
100
AcDbSymbolTableRecord
100
AcDbTextStyleTableRecord
  2
SLDTEXTSTYLE1
 70
     0
 40
0.0
 41
0.6538461538
 50
0.0
 71
     0
 42
2.0
  3
TXT
  4

  0
ENDTAB
  0
TABLE
  2
VIEW
  5
6
330
0
100
AcDbSymbolTable
 70
     0
  0
ENDTAB
  0
TABLE
  2
UCS
  5
7
330
0
100
AcDbSymbolTable
 70
     0
  0
ENDTAB
  0
TABLE
  2
APPID
  5
9
330
0
100
AcDbSymbolTable
 70
     1
  0
APPID
  5
12
330
9
100
AcDbSymbolTableRecord
100
AcDbRegAppTableRecord
  2
ACAD
 70
     0
  0
ENDTAB
  0
TABLE
  2
DIMSTYLE
  5
A
330
0
100
AcDbSymbolTable
 70
     3
100
AcDbDimStyleTable
  0
DIMSTYLE
105
27
330
A
100
AcDbSymbolTableRecord
100
AcDbDimStyleTableRecord
  2
ISO-25
 70
     0
 41
2.5
 42
0.625
 43
3.75
 44
1.25
 73
     0
 74
     0
 77
     1
 78
     8
140
2.5
141
2.5
143
0.0393700787
147
0.625
171
     3
172
     1
178
     0
271
     2
272
     2
274
     3
278
    44
283
     0
284
     8
340
11
  0
DIMSTYLE
105
12A
102
{ACAD_REACTORS
330
129
330
181
102
}
330
A
100
AcDbSymbolTableRecord
100
AcDbDimStyleTableRecord
  2
SLDDIMSTYLE0
 70
     0
 41
3.0
 44
0.0
 45
0.000000001
 73
     0
 74
     0
 77
     1
 78
    12
 79
     3
140
2.0
147
0.5
173
     1
178
     0
271
     0
272
     3
276
     2
284
    12
340
77
  0
DIMSTYLE
105
136
102
{ACAD_REACTORS
330
135
330
141
330
14C
330
157
330
161
330
16B
330
175
102
}
330
A
100
AcDbSymbolTableRecord
100
AcDbDimStyleTableRecord
  2
SLDDIMSTYLE1
 70
     0
 41
3.0
 44
0.0
 45
0.000000001
 73
     0
 74
     0
 77
     1
 78
    12
 79
     3
140
2.0
147
0.5
173
     1
178
     0
271
     2
272
     3
276
     2
284
    12
340
77
  0
ENDTAB
  0
TABLE
  2
BLOCK_RECORD
  5
1
330
0
100
AcDbSymbolTable
 70
    10
  0
BLOCK_RECORD
  5
1F
330
1
100
AcDbSymbolTableRecord
100
AcDbBlockTableRecord
  2
*Model_Space
340
22
  0
BLOCK_RECORD
  5
1B
330
1
100
AcDbSymbolTableRecord
100
AcDbBlockTableRecord
  2
*Paper_Space
340
1E
  0
BLOCK_RECORD
  5
23
330
1
100
AcDbSymbolTableRecord
100
AcDbBlockTableRecord
  2
*Paper_Space0
340
26
  0
BLOCK_RECORD
  5
12B
330
1
100
AcDbSymbolTableRecord
100
AcDbBlockTableRecord
  2
_D
340
0
  0
BLOCK_RECORD
  5
137
330
1
100
AcDbSymbolTableRecord
100
AcDbBlockTableRecord
  2
_D_1
340
0
  0
BLOCK_RECORD
  5
142
330
1
100
AcDbSymbolTableRecord
100
AcDbBlockTableRecord
  2
_D_2
340
0
  0
BLOCK_RECORD
  5
14D
330
1
100
AcDbSymbolTableRecord
100
AcDbBlockTableRecord
  2
_D_3
340
0
  0
BLOCK_RECORD
  5
158
330
1
100
AcDbSymbolTableRecord
100
AcDbBlockTableRecord
  2
_D_4
340
0
  0
BLOCK_RECORD
  5
162
330
1
100
AcDbSymbolTableRecord
100
AcDbBlockTableRecord
  2
_D_5
340
0
  0
BLOCK_RECORD
  5
16C
330
1
100
AcDbSymbolTableRecord
100
AcDbBlockTableRecord
  2
_D_6
340
0
  0
BLOCK_RECORD
  5
176
330
1
100
AcDbSymbolTableRecord
100
AcDbBlockTableRecord
  2
_D_7
340
0
  0
BLOCK_RECORD
  5
182
330
1
100
AcDbSymbolTableRecord
100
AcDbBlockTableRecord
  2
_D_8
340
0
  0
ENDTAB
  0
ENDSEC
  0
SECTION
  2
BLOCKS
  0
BLOCK
  5
20
330
1F
100
AcDbEntity
  8
0
100
AcDbBlockBegin
  2
*Model_Space
 70
     0
 10
0.0
 20
0.0
 30
0.0
  3
*Model_Space
  1

  0
ENDBLK
  5
21
330
1F
100
AcDbEntity
  8
0
100
AcDbBlockEnd
  0
BLOCK
  5
1C
330
1B
100
AcDbEntity
 67
     1
  8
0
100
AcDbBlockBegin
  2
*Paper_Space
 70
     0
 10
0.0
 20
0.0
 30
0.0
  3
*Paper_Space
  1

  0
ENDBLK
  5
1D
330
1B
100
AcDbEntity
 67
     1
  8
0
100
AcDbBlockEnd
  0
BLOCK
  5
24
330
23
100
AcDbEntity
  8
0
100
AcDbBlockBegin
  2
*Paper_Space0
 70
     0
 10
0.0
 20
0.0
 30
0.0
  3
*Paper_Space0
  1

  0
ENDBLK
  5
25
330
23
100
AcDbEntity
  8
0
100
AcDbBlockEnd
  0
BLOCK
  5
12C
330
12B
100
AcDbEntity
  8
0
100
AcDbBlockBegin
  2
_D
 70
     0
 10
0.0
 20
0.0
 30
0.0
  3
_D
  1

  0
SOLID
  5
12E
330
12B
100
AcDbEntity
  8
VERMASSUNG
100
AcDbTrace
 10
272.3659904502
 20
164.9388890024
 30
0.0
 11
271.9159904502
 21
161.9388890024
 31
0.0
 12
272.8159904502
 22
161.9388890024
 32
0.0
 13
272.8159904502
 23
161.9388890024
 33
0.0
  0
SOLID
  5
12F
330
12B
100
AcDbEntity
  8
VERMASSUNG
100
AcDbTrace
 10
272.3659904502
 20
84.7046087563
 30
0.0
 11
272.8159904502
 21
87.7046087563
 31
0.0
 12
271.9159904502
 22
87.7046087563
 32
0.0
 13
271.9159904502
 23
87.7046087563
 33
0.0
  0
LINE
  5
130
330
12B
100
AcDbEntity
  8
VERMASSUNG
100
AcDbLine
 10
120.1012312094
 20
164.9388890024
 30
0.0
 11
273.3659904502
 21
164.9388890024
 31
0.0
  0
LINE
  5
131
330
12B
100
AcDbEntity
  8
VERMASSUNG
100
AcDbLine
 10
120.1012312094
 20
84.7046087563
 30
0.0
 11
273.3659904502
 21
84.7046087563
 31
0.0
  0
LINE
  5
132
330
12B
100
AcDbEntity
  8
VERMASSUNG
100
AcDbLine
 10
272.3659904502
 20
164.9388890024
 30
0.0
 11
272.3659904502
 21
84.7046087563
 31
0.0
  0
MTEXT
  5
133
330
12B
100
AcDbEntity
  8
VERMASSUNG
100
AcDbMText
 10
269.7878551453
 20
121.6167489221
 30
0.0
 40
2.0
 41
0.0
 71
     1
 72
     1
  1
%%c
  7
SLDTEXTSTYLE0
 11
-6.156016597943509E-15
 21
1.0
 31
0.0
 73
     1
 44
1.0
  0
MTEXT
  5
134
330
12B
100
AcDbEntity
  8
VERMASSUNG
100
AcDbMText
 10
269.587855194
 20
125.2267489364
 30
0.0
 40
2.0
 41
0.0
 71
     1
 72
     1
  1
80
  7
SLDTEXTSTYLE0
 11
-6.156016597943509E-15
 21
1.0
 31
0.0
 73
     1
 44
1.0
  0
ENDBLK
  5
12D
330
12B
100
AcDbEntity
  8
0
100
AcDbBlockEnd
  0
BLOCK
  5
138
330
137
100
AcDbEntity
  8
0
100
AcDbBlockBegin
  2
_D_1
 70
     0
 10
0.0
 20
0.0
 30
0.0
  3
_D_1
  1

  0
SOLID
  5
13A
330
137
100
AcDbEntity
  8
VERMASSUNG
100
AcDbTrace
 10
253.6517554088
 20
108.8217488793
 30
0.0
 11
254.1017554088
 21
111.8217488793
 31
0.0
 12
253.2017554088
 22
111.8217488793
 32
0.0
 13
253.2017554088
 23
111.8217488793
 33
0.0
  0
SOLID
  5
13B
330
137
100
AcDbEntity
  8
VERMASSUNG
100
AcDbTrace
 10
253.6517554088
 20
140.8217488793
 30
0.0
 11
253.2017554088
 21
137.8217488793
 31
0.0
 12
254.1017554088
 22
137.8217488793
 32
0.0
 13
254.1017554088
 23
137.8217488793
 33
0.0
  0
LINE
  5
13C
330
137
100
AcDbEntity
  8
VERMASSUNG
100
AcDbLine
 10
211.9643153216
 20
108.8217488793
 30
0.0
 11
254.6517554088
 21
108.8217488793
 31
0.0
  0
LINE
  5
13D
330
137
100
AcDbEntity
  8
VERMASSUNG
100
AcDbLine
 10
211.9643153216
 20
140.8217488793
 30
0.0
 11
254.6517554088
 21
140.8217488793
 31
0.0
  0
LINE
  5
13E
330
137
100
AcDbEntity
  8
VERMASSUNG
100
AcDbLine
 10
253.6517554088
 20
108.8217488793
 30
0.0
 11
253.6517554088
 21
140.8217488793
 31
0.0
  0
MTEXT
  5
13F
330
137
100
AcDbEntity
  8
VERMASSUNG
100
AcDbMText
 10
251.0736201039
 20
121.6167489221
 30
0.0
 40
2.0
 41
0.0
 71
     1
 72
     1
  1
%%c
  7
SLDTEXTSTYLE0
 11
6.123233995736766E-17
 21
1.0
 31
0.0
 73
     1
 44
1.0
  0
MTEXT
  5
140
330
137
100
AcDbEntity
  8
VERMASSUNG
100
AcDbMText
 10
250.8736201526
 20
125.2267489364
 30
0.0
 40
2.0
 41
0.0
 71
     1
 72
     1
  1
32
  7
SLDTEXTSTYLE0
 11
6.123233995736766E-17
 21
1.0
 31
0.0
 73
     1
 44
1.0
  0
ENDBLK
  5
139
330
137
100
AcDbEntity
  8
0
100
AcDbBlockEnd
  0
BLOCK
  5
143
330
142
100
AcDbEntity
  8
0
100
AcDbBlockBegin
  2
_D_2
 70
     0
 10
0.0
 20
0.0
 30
0.0
  3
_D_2
  1

  0
SOLID
  5
145
330
142
100
AcDbEntity
  8
VERMASSUNG
100
AcDbTrace
 10
261.9643153216
 20
88.8217488793
 30
0.0
 11
262.4143153216
 21
91.8217488793
 31
0.0
 12
261.5143153216
 22
91.8217488793
 32
0.0
 13
261.5143153216
 23
91.8217488793
 33
0.0
  0
SOLID
  5
146
330
142
100
AcDbEntity
  8
VERMASSUNG
100
AcDbTrace
 10
261.9643153216
 20
160.8217488793
 30
0.0
 11
261.5143153216
 21
157.8217488793
 31
0.0
 12
262.4143153216
 22
157.8217488793
 32
0.0
 13
262.4143153216
 23
157.8217488793
 33
0.0
  0
LINE
  5
147
330
142
100
AcDbEntity
  8
VERMASSUNG
100
AcDbLine
 10
187.9643153216
 20
88.8217488793
 30
0.0
 11
262.9643153216
 21
88.8217488793
 31
0.0
  0
LINE
  5
148
330
142
100
AcDbEntity
  8
VERMASSUNG
100
AcDbLine
 10
187.9643153216
 20
160.8217488793
 30
0.0
 11
262.9643153216
 21
160.8217488793
 31
0.0
  0
LINE
  5
149
330
142
100
AcDbEntity
  8
VERMASSUNG
100
AcDbLine
 10
261.9643153216
 20
88.8217488793
 30
0.0
 11
261.9643153216
 21
160.8217488793
 31
0.0
  0
MTEXT
  5
14A
330
142
100
AcDbEntity
  8
VERMASSUNG
100
AcDbMText
 10
259.3861800167
 20
121.6167489221
 30
0.0
 40
2.0
 41
0.0
 71
     1
 72
     1
  1
%%c
  7
SLDTEXTSTYLE0
 11
6.123233995736766E-17
 21
1.0
 31
0.0
 73
     1
 44
1.0
  0
MTEXT
  5
14B
330
142
100
AcDbEntity
  8
VERMASSUNG
100
AcDbMText
 10
259.1861800654
 20
125.2267489364
 30
0.0
 40
2.0
 41
0.0
 71
     1
 72
     1
  1
72
  7
SLDTEXTSTYLE0
 11
6.123233995736766E-17
 21
1.0
 31
0.0
 73
     1
 44
1.0
  0
ENDBLK
  5
144
330
142
100
AcDbEntity
  8
0
100
AcDbBlockEnd
  0
BLOCK
  5
14E
330
14D
100
AcDbEntity
  8
0
100
AcDbBlockBegin
  2
_D_3
 70
     0
 10
0.0
 20
0.0
 30
0.0
  3
_D_3
  1

  0
SOLID
  5
150
330
14D
100
AcDbEntity
  8
VERMASSUNG
100
AcDbTrace
 10
28.8138459606
 20
174.8217488793
 30
0.0
 11
28.3638459606
 21
171.8217488793
 31
0.0
 12
29.2638459606
 22
171.8217488793
 32
0.0
 13
29.2638459606
 23
171.8217488793
 33
0.0
  0
SOLID
  5
151
330
14D
100
AcDbEntity
  8
VERMASSUNG
100
AcDbTrace
 10
28.8138459606
 20
74.8217488793
 30
0.0
 11
29.2638459606
 21
77.8217488793
 31
0.0
 12
28.3638459606
 22
77.8217488793
 32
0.0
 13
28.3638459606
 23
77.8217488793
 33
0.0
  0
LINE
  5
152
330
14D
100
AcDbEntity
  8
VERMASSUNG
100
AcDbLine
 10
89.4643153216
 20
174.8217488793
 30
0.0
 11
27.8138459606
 21
174.8217488793
 31
0.0
  0
LINE
  5
153
330
14D
100
AcDbEntity
  8
VERMASSUNG
100
AcDbLine
 10
89.4643153216
 20
74.8217488793
 30
0.0
 11
27.8138459606
 21
74.8217488793
 31
0.0
  0
LINE
  5
154
330
14D
100
AcDbEntity
  8
VERMASSUNG
100
AcDbLine
 10
28.8138459606
 20
174.8217488793
 30
0.0
 11
28.8138459606
 21
74.8217488793
 31
0.0
  0
MTEXT
  5
155
330
14D
100
AcDbEntity
  8
VERMASSUNG
100
AcDbMText
 10
26.2357106557
 20
121.1167488401
 30
0.0
 40
2.0
 41
0.0
 71
     1
 72
     1
  1
%%c
  7
SLDTEXTSTYLE0
 11
-7.044195017643634E-15
 21
1.0
 31
0.0
 73
     1
 44
1.0
  0
MTEXT
  5
156
330
14D
100
AcDbEntity
  8
VERMASSUNG
100
AcDbMText
 10
26.0357107044
 20
124.7267488544
 30
0.0
 40
2.0
 41
0.0
 71
     1
 72
     1
  1
100
  7
SLDTEXTSTYLE0
 11
-7.044195017643634E-15
 21
1.0
 31
0.0
 73
     1
 44
1.0
  0
ENDBLK
  5
14F
330
14D
100
AcDbEntity
  8
0
100
AcDbBlockEnd
  0
BLOCK
  5
159
330
158
100
AcDbEntity
  8
0
100
AcDbBlockBegin
  2
_D_4
 70
     0
 10
0.0
 20
0.0
 30
0.0
  3
_D_4
  1

  0
SOLID
  5
15B
330
158
100
AcDbEntity
  8
VERMASSUNG
100
AcDbTrace
 10
117.9143153216
 20
181.8231611079
 30
0.0
 11
120.9143153216
 21
181.3731611079
 31
0.0
 12
120.9143153216
 22
182.2731611079
 32
0.0
 13
120.9143153216
 23
182.2731611079
 33
0.0
  0
SOLID
  5
15C
330
158
100
AcDbEntity
  8
VERMASSUNG
100
AcDbTrace
 10
188.9643153216
 20
181.8231611079
 30
0.0
 11
185.9643153216
 21
182.2731611079
 31
0.0
 12
185.9643153216
 22
181.3731611079
 32
0.0
 13
185.9643153216
 23
181.3731611079
 33
0.0
  0
LINE
  5
15D
330
158
100
AcDbEntity
  8
VERMASSUNG
100
AcDbLine
 10
117.9143153216
 20
156.1717488793
 30
0.0
 11
117.9143153216
 21
182.8231611079
 31
0.0
  0
LINE
  5
15E
330
158
100
AcDbEntity
  8
VERMASSUNG
100
AcDbLine
 10
188.9643153216
 20
159.8217488793
 30
0.0
 11
188.9643153216
 21
182.8231611079
 31
0.0
  0
LINE
  5
15F
330
158
100
AcDbEntity
  8
VERMASSUNG
100
AcDbLine
 10
117.9143153216
 20
181.8231611079
 30
0.0
 11
188.9643153216
 21
181.8231611079
 31
0.0
  0
MTEXT
  5
160
330
158
100
AcDbEntity
  8
VERMASSUNG
100
AcDbMText
 10
150.5393153585
 20
184.4012967038
 30
0.0
 40
2.0
 41
0.0
 71
     1
 72
     1
  1
71.05
  7
SLDTEXTSTYLE0
 73
     1
 44
1.0
  0
ENDBLK
  5
15A
330
158
100
AcDbEntity
  8
0
100
AcDbBlockEnd
  0
BLOCK
  5
163
330
162
100
AcDbEntity
  8
0
100
AcDbBlockBegin
  2
_D_5
 70
     0
 10
0.0
 20
0.0
 30
0.0
  3
_D_5
  1

  0
SOLID
  5
165
330
162
100
AcDbEntity
  8
VERMASSUNG
100
AcDbTrace
 10
88.9643153216
 20
190.8217488793
 30
0.0
 11
91.9643153216
 21
190.3717488793
 31
0.0
 12
91.9643153216
 22
191.2717488793
 32
0.0
 13
91.9643153216
 23
191.2717488793
 33
0.0
  0
SOLID
  5
166
330
162
100
AcDbEntity
  8
VERMASSUNG
100
AcDbTrace
 10
188.9643153216
 20
190.8217488793
 30
0.0
 11
185.9643153216
 21
191.2717488793
 31
0.0
 12
185.9643153216
 22
190.3717488793
 32
0.0
 13
185.9643153216
 23
190.3717488793
 33
0.0
  0
LINE
  5
167
330
162
100
AcDbEntity
  8
VERMASSUNG
100
AcDbLine
 10
88.9643153216
 20
174.3217488793
 30
0.0
 11
88.9643153216
 21
191.8217488793
 31
0.0
  0
LINE
  5
168
330
162
100
AcDbEntity
  8
VERMASSUNG
100
AcDbLine
 10
188.9643153216
 20
159.8217488793
 30
0.0
 11
188.9643153216
 21
191.8217488793
 31
0.0
  0
LINE
  5
169
330
162
100
AcDbEntity
  8
VERMASSUNG
100
AcDbLine
 10
88.9643153216
 20
190.8217488793
 30
0.0
 11
188.9643153216
 21
190.8217488793
 31
0.0
  0
MTEXT
  5
16A
330
162
100
AcDbEntity
  8
VERMASSUNG
100
AcDbMText
 10
137.0643152896
 20
193.3998844753
 30
0.0
 40
2.0
 41
0.0
 71
     1
 72
     1
  1
100
  7
SLDTEXTSTYLE0
 73
     1
 44
1.0
  0
ENDBLK
  5
164
330
162
100
AcDbEntity
  8
0
100
AcDbBlockEnd
  0
BLOCK
  5
16D
330
16C
100
AcDbEntity
  8
0
100
AcDbBlockBegin
  2
_D_6
 70
     0
 10
0.0
 20
0.0
 30
0.0
  3
_D_6
  1

  0
SOLID
  5
16F
330
16C
100
AcDbEntity
  8
VERMASSUNG
100
AcDbTrace
 10
188.9643153216
 20
181.8231611079
 30
0.0
 11
191.9643153216
 21
181.3731611079
 31
0.0
 12
191.9643153216
 22
182.2731611079
 32
0.0
 13
191.9643153216
 23
182.2731611079
 33
0.0
  0
SOLID
  5
170
330
16C
100
AcDbEntity
  8
VERMASSUNG
100
AcDbTrace
 10
212.9643153216
 20
181.8231611079
 30
0.0
 11
209.9643153216
 21
182.2731611079
 31
0.0
 12
209.9643153216
 22
181.3731611079
 32
0.0
 13
209.9643153216
 23
181.3731611079
 33
0.0
  0
LINE
  5
171
330
16C
100
AcDbEntity
  8
VERMASSUNG
100
AcDbLine
 10
188.9643153216
 20
159.8217488793
 30
0.0
 11
188.9643153216
 21
182.8231611079
 31
0.0
  0
LINE
  5
172
330
16C
100
AcDbEntity
  8
VERMASSUNG
100
AcDbLine
 10
212.9643153216
 20
139.8217488793
 30
0.0
 11
212.9643153216
 21
182.8231611079
 31
0.0
  0
LINE
  5
173
330
16C
100
AcDbEntity
  8
VERMASSUNG
100
AcDbLine
 10
188.9643153216
 20
181.8231611079
 30
0.0
 11
212.9643153216
 21
181.8231611079
 31
0.0
  0
MTEXT
  5
174
330
16C
100
AcDbEntity
  8
VERMASSUNG
100
AcDbMText
 10
199.4643153086
 20
184.4012967038
 30
0.0
 40
2.0
 41
0.0
 71
     1
 72
     1
  1
24
  7
SLDTEXTSTYLE0
 73
     1
 44
1.0
  0
ENDBLK
  5
16E
330
16C
100
AcDbEntity
  8
0
100
AcDbBlockEnd
  0
BLOCK
  5
177
330
176
100
AcDbEntity
  8
0
100
AcDbBlockBegin
  2
_D_7
 70
     0
 10
0.0
 20
0.0
 30
0.0
  3
_D_7
  1

  0
ARC
  5
179
330
176
100
AcDbEntity
  8
VERMASSUNG
100
AcDbCircle
 10
126.9143154517
 20
201.8264180262
 30
0.0
 40
4.24852922888762
100
AcDbArc
 50
153.4349488229
 51
206.5650511771
  0
ARC
  5
17A
330
176
100
AcDbEntity
  8
VERMASSUNG
100
AcDbCircle
 10
125.1143152497
 20
201.8264180262
 30
0.0
 40
4.248529228887608
100
AcDbArc
 50
333.4349488229
 51
26.5650511771
  0
SOLID
  5
17B
330
176
100
AcDbEntity
  8
VERMASSUNG
100
AcDbTrace
 10
39.0643153216
 20
199.9264177614
 30
0.0
 11
42.0643153216
 21
199.4764177614
 31
0.0
 12
42.0643153216
 22
200.3764177614
 32
0.0
 13
42.0643153216
 23
200.3764177614
 33
0.0
  0
SOLID
  5
17C
330
176
100
AcDbEntity
  8
VERMASSUNG
100
AcDbTrace
 10
212.9643153216
 20
199.9264177614
 30
0.0
 11
209.9643153216
 21
200.3764177614
 31
0.0
 12
209.9643153216
 22
199.4764177614
 32
0.0
 13
209.9643153216
 23
199.4764177614
 33
0.0
  0
LINE
  5
17D
330
176
100
AcDbEntity
  8
VERMASSUNG
100
AcDbLine
 10
39.0643153216
 20
155.3244186219
 30
0.0
 11
39.0643153216
 21
200.9264177614
 31
0.0
  0
LINE
  5
17E
330
176
100
AcDbEntity
  8
VERMASSUNG
100
AcDbLine
 10
212.9643153216
 20
139.8217488793
 30
0.0
 11
212.9643153216
 21
200.9264177614
 31
0.0
  0
LINE
  5
17F
330
176
100
AcDbEntity
  8
VERMASSUNG
100
AcDbLine
 10
39.0643153216
 20
199.9264177614
 30
0.0
 11
212.9643153216
 21
199.9264177614
 31
0.0
  0
MTEXT
  5
180
330
176
100
AcDbEntity
  8
VERMASSUNG
100
AcDbMText
 10
123.1143153876
 20
202.5045535901
 30
0.0
 40
2.0
 41
0.0
 71
     1
 72
     1
  1
173.9
  7
SLDTEXTSTYLE0
 73
     1
 44
1.0
  0
ENDBLK
  5
178
330
176
100
AcDbEntity
  8
0
100
AcDbBlockEnd
  0
BLOCK
  5
183
330
182
100
AcDbEntity
  8
0
100
AcDbBlockBegin
  2
_D_8
 70
     0
 10
0.0
 20
0.0
 30
0.0
  3
_D_8
  1

  0
SOLID
  5
185
330
182
100
AcDbEntity
  8
VERMASSUNG
100
AcDbTrace
 10
245.1176777252
 20
117.7507488793
 30
0.0
 11
245.5676777252
 21
120.7507488793
 31
0.0
 12
244.6676777252
 22
120.7507488793
 32
0.0
 13
244.6676777252
 23
120.7507488793
 33
0.0
  0
SOLID
  5
186
330
182
100
AcDbEntity
  8
VERMASSUNG
100
AcDbTrace
 10
245.1176777252
 20
131.8927488793
 30
0.0
 11
244.6676777252
 21
128.8927488793
 31
0.0
 12
245.5676777252
 22
128.8927488793
 32
0.0
 13
245.5676777252
 23
128.8927488793
 33
0.0
  0
LINE
  5
187
330
182
100
AcDbEntity
  8
VERMASSUNG
100
AcDbLine
 10
233.9643153216
 20
117.7507488793
 30
0.0
 11
246.1176777252
 21
117.7507488793
 31
0.0
  0
LINE
  5
188
330
182
100
AcDbEntity
  8
VERMASSUNG
100
AcDbLine
 10
233.9643153216
 20
131.8927488793
 30
0.0
 11
246.1176777252
 21
131.8927488793
 31
0.0
  0
LINE
  5
189
330
182
100
AcDbEntity
  8
VERMASSUNG
100
AcDbLine
 10
245.1176777252
 20
117.7507488793
 30
0.0
 11
245.1176777252
 21
131.8927488793
 31
0.0
  0
MTEXT
  5
18A
330
182
100
AcDbEntity
  8
VERMASSUNG
100
AcDbMText
 10
242.5395421293
 20
121.6217487273
 30
0.0
 40
2.0
 41
0.0
 71
     1
 72
     1
  1
SW
  7
SLDTEXTSTYLE0
 11
6.123233995736766E-17
 21
1.0
 31
0.0
 73
     1
 44
1.0
  0
MTEXT
  5
18B
330
182
100
AcDbEntity
  8
VERMASSUNG
100
AcDbMText
 10
242.5395421293
 20
125.4217487914
 30
0.0
 40
2.0
 41
0.0
 71
     1
 72
     1
  1
14
  7
SLDTEXTSTYLE0
 11
6.123233995736766E-17
 21
1.0
 31
0.0
 73
     1
 44
1.0
  0
ENDBLK
  5
184
330
182
100
AcDbEntity
  8
0
100
AcDbBlockEnd
  0
ENDSEC
  0
SECTION
  2
ENTITIES
  0
MTEXT
  5
78
330
1F
100
AcDbEntity
  8
KOPF_DÜNN
100
AcDbMText
 10
13.8892156294
 20
23.8442973028
 30
0.0
 40
3.0
 41
0.0
 71
     1
 72
     1
  1
HA0.D32.K01.100
  7
SLDTEXTSTYLE0
 73
     1
 44
1.0
  0
MTEXT
  5
79
330
1F
100
AcDbEntity
  8
VERMASSUNG
100
AcDbMText
 10
13.9329988022
 20
28.8834360957
 30
0.0
 40
3.0
 41
0.0
 71
     1
 72
     1
  1
Fräsdorn Typ S_Milling arbor type S
  7
SLDTEXTSTYLE0
 73
     1
 44
1.0
  0
MTEXT
  5
7A
330
1F
100
AcDbEntity
  8
VERMASSUNG
100
AcDbMText
 10
98.8601118557
 20
13.8365368761
 30
0.0
 40
2.0
 41
0.0
 71
     1
 72
     1
  1
Datum: 19.02.2018
  7
SLDTEXTSTYLE0
 73
     1
 44
1.0
  0
MTEXT
  5
7C
330
1F
100
AcDbEntity
  8
VERMASSUNG
100
AcDbMText
 10
13.933048693
 20
18.0482802738
 30
0.0
 40
2.0
 41
0.0
 71
     1
 72
     1
  1
HSK 100 / Ø32
  7
SLDTEXTSTYLE1
 73
     1
 44
1.0
  0
MTEXT
  5
7D
330
1F
100
AcDbEntity
  8
VERMASSUNG
100
AcDbMText
 10
13.9808475933
 20
13.9090974274
 30
0.0
 40
2.0
 41
0.0
 71
     1
 72
     1
  1
Gewicht: 4475g
  7
SLDTEXTSTYLE0
 73
     1
 44
1.0
  0
ARC
  5
7E
330
1F
100
AcDbEntity
  8
0
  6
Continuous
 62
     7
370
    25
100
AcDbCircle
 10
89.4643153216
 20
75.3217488793
 30
0.0
 40
0.5
100
AcDbArc
 50
180.0
 51
270.0
  0
ARC
  5
7F
330
1F
100
AcDbEntity
  8
0
  6
Continuous
 62
     7
370
    25
100
AcDbCircle
 10
89.4643153216
 20
174.3217488793
 30
0.0
 40
0.5
100
AcDbArc
 50
90.0
 51
180.0
  0
LINE
  5
80
330
1F
100
AcDbEntity
  8
0
  6
Continuous
 62
     7
370
    25
100
AcDbLine
 10
89.4643153216
 20
74.8217488793
 30
0.0
 11
93.9143153216
 21
74.8217488793
 31
0.0
  0
LINE
  5
81
330
1F
100
AcDbEntity
  8
0
  6
Continuous
 62
     7
370
    25
100
AcDbLine
 10
93.9188966603
 20
174.8217488793
 30
0.0
 11
89.4643153216
 21
174.8217488793
 31
0.0
  0
ARC
  5
82
330
1F
100
AcDbEntity
  8
0
  6
Continuous
 62
     7
370
    25
100
AcDbCircle
 10
120.9143153216
 20
81.816894396
 30
0.0
 40
3.000000000000014
100
AcDbArc
 50
105.7254502165
 51
180.0
  0
ARC
  5
83
330
1F
100
AcDbEntity
  8
0
  6
Continuous
 62
     7
370
    25
100
AcDbCircle
 10
120.9143153216
 20
167.8266033627
 30
0.0
 40
3.000000000000014
100
AcDbArc
 50
180.0
 51
254.2745497835
  0
ARC
  5
84
330
1F
100
AcDbEntity
  8
0
  6
Continuous
 62
     7
370
    25
100
AcDbCircle
 10
149.9143153216
 20
-21.1782511207
 30
0.0
 40
110.0
100
AcDbArc
 50
90.0
 51
105.7254502165
  0
ARC
  5
85
330
1F
100
AcDbEntity
  8
0
  6
Continuous
 62
     7
370
    25
100
AcDbCircle
 10
149.9143153216
 20
270.8217488793
 30
0.0
 40
110.0
100
AcDbArc
 50
254.2745497835
 51
270.0
  0
ARC
  5
86
330
1F
100
AcDbEntity
  8
0
  6
Continuous
 62
     7
370
    25
100
AcDbCircle
 10
88.0673784031
 20
86.1932635549
 30
0.0
 40
0.9962338214386983
100
AcDbArc
 50
25.7988228126
 51
90.0
  0
ARC
  5
87
330
1F
100
AcDbEntity
  8
0
  6
Continuous
 62
     7
370
    25
100
AcDbCircle
 10
88.0673784031
 20
163.4502342038
 30
0.0
 40
0.9962338214386921
100
AcDbArc
 50
270.0
 51
334.2011771874
  0
LINE
  5
88
330
1F
100
AcDbEntity
  8
0
  6
Continuous
 62
     7
370
    25
100
AcDbLine
 10
67.483636403
 20
161.7530645648
 30
0.0
 11
49.1643153216
 21
160.8352629074
 31
0.0
  0
LINE
  5
89
330
1F
100
AcDbEntity
  8
0
  6
Continuous
 62
     7
370
    25
100
AcDbLine
 10
86.4643153216
 20
162.7040003823
 30
0.0
 11
80.3962761671
 21
162.3999904047
 31
0.0
  0
LINE
  5
8A
330
1F
100
AcDbEntity
  8
0
  6
Continuous
 62
     7
370
    25
100
AcDbLine
 10
80.3963994436
 20
87.2435011778
 30
0.0
 11
86.4643153216
 21
86.9394973763
 31
0.0
  0
LINE
  5
8B
330
1F
100
AcDbEntity
  8
0
  6
Continuous
 62
     7
370
    25
100
AcDbLine
 10
54.1643153216
 20
88.5577338493
 30
0.0
 11
67.4842664755
 21
87.8904016271
 31
0.0
  0
LINE
  5
8C
330
1F
100
AcDbEntity
  8
0
  6
Continuous
 62
     7
370
    25
100
AcDbLine
 10
86.4643153216
 20
86.9394973763
 30
0.0
 11
87.270161476
 21
87.1554232026
 31
0.0
  0
LINE
  5
8D
330
1F
100
AcDbEntity
  8
0
  6
Continuous
 62
     7
370
    25
100
AcDbLine
 10
87.270161476
 20
162.488074556
 30
0.0
 11
86.4643153216
 21
162.7040003823
 31
0.0
  0
ARC
  5
8E
330
1F
100
AcDbEntity
  8
0
  6
Continuous
 62
     7
370
    25
100
AcDbCircle
 10
87.5289805211
 20
86.1894973763
 30
0.0
 40
1.000000000000009
100
AcDbArc
 50
90.0
 51
105.0
  0
ARC
  5
8F
330
1F
100
AcDbEntity
  8
0
  6
Continuous
 62
     7
370
    25
100
AcDbCircle
 10
87.5289805211
 20
163.4540003823
 30
0.0
 40
1.0
100
AcDbArc
 50
255.0
 51
270.0
  0
LINE
  5
90
330
1F
100
AcDbEntity
  8
0
  6
Continuous
 62
     7
370
    25
100
AcDbLine
 10
87.5289805211
 20
87.1894973763
 30
0.0
 11
88.0673784031
 21
87.1894973763
 31
0.0
  0
LINE
  5
91
330
1F
100
AcDbEntity
  8
0
  6
Continuous
 62
     7
370
    25
100
AcDbLine
 10
88.0673784031
 20
162.4540003823
 30
0.0
 11
87.5289805211
 21
162.4540003823
 31
0.0
  0
ARC
  5
92
330
1F
100
AcDbEntity
  8
0
  6
Continuous
 62
     7
370
    25
100
AcDbCircle
 10
187.9643153216
 20
89.8217488793
 30
0.0
 40
1.0
100
AcDbArc
 50
270.0
 51
0.0
  0
ARC
  5
93
330
1F
100
AcDbEntity
  8
0
  6
Continuous
 62
     7
370
    25
100
AcDbCircle
 10
187.9643153216
 20
159.8217488793
 30
0.0
 40
1.0
100
AcDbArc
 50
0.0
 51
90.0
  0
LINE
  5
94
330
1F
100
AcDbEntity
  8
0
  6
Continuous
 62
     7
370
    25
100
AcDbLine
 10
149.9143153216
 20
88.8217488793
 30
0.0
 11
187.9643153216
 21
88.8217488793
 31
0.0
  0
LINE
  5
95
330
1F
100
AcDbEntity
  8
0
  6
Continuous
 62
     7
370
    25
100
AcDbLine
 10
187.9643153216
 20
160.8217488793
 30
0.0
 11
149.9143153216
 21
160.8217488793
 31
0.0
  0
LINE
  5
96
330
1F
100
AcDbEntity
  8
0
  6
Continuous
 62
     7
370
    25
100
AcDbLine
 10
40.7143153216
 20
92.5717488793
 30
0.0
 11
52.2643153216
 21
92.5717488793
 31
0.0
  0
ARC
  5
97
330
1F
100
AcDbEntity
  8
0
  6
Continuous
 62
     7
370
    25
100
AcDbCircle
 10
52.2643153216
 20
90.6717488793
 30
0.0
 40
1.899999999999993
100
AcDbArc
 50
35.6630613694
 51
90.0
  0
ARC
  5
98
330
1F
100
AcDbEntity
  8
0
  6
Continuous
 62
     7
370
    25
100
AcDbCircle
 10
47.2643153216
 20
158.9717488793
 30
0.0
 40
1.900000000000013
100
AcDbArc
 50
270.0
 51
310.9212832533
  0
ARC
  5
99
330
1F
100
AcDbEntity
  8
0
  6
Continuous
 62
     7
370
    25
100
AcDbCircle
 10
189.3643153216
 20
108.5717488793
 30
0.0
 40
0.6000000000000085
100
AcDbArc
 50
90.0
 51
131.8103148958
  0
ARC
  5
9A
330
1F
100
AcDbEntity
  8
0
  6
Continuous
 62
     7
370
    25
100
AcDbCircle
 10
189.3643153216
 20
141.0717488793
 30
0.0
 40
0.6000000000000227
100
AcDbArc
 50
228.1896851042
 51
270.0
  0
LINE
  5
9B
330
1F
100
AcDbEntity
  8
0
  6
Continuous
 62
     7
370
    25
100
AcDbLine
 10
40.7143153216
 20
157.0717488793
 30
0.0
 11
39.1210989596
 21
155.4785325174
 31
0.0
  0
LINE
  5
9C
330
1F
100
AcDbEntity
  8
0
  6
Continuous
 62
     7
370
    25
100
AcDbLine
 10
39.121838222
 20
94.1642259789
 30
0.0
 11
40.7143153216
 21
92.5717488793
 31
0.0
  0
LINE
  5
9D
330
1F
100
AcDbEntity
  8
0
  6
Continuous
 62
     7
370
    25
100
AcDbLine
 10
47.2643153216
 20
157.0717488793
 30
0.0
 11
40.7143153216
 21
157.0717488793
 31
0.0
  0
LINE
  5
9E
330
1F
100
AcDbEntity
  8
0
  6
Continuous
 62
     7
370
    25
100
AcDbLine
 10
191.4643153216
 20
108.8217488793
 30
0.0
 11
211.9643153216
 21
108.8217488793
 31
0.0
  0
LINE
  5
9F
330
1F
100
AcDbEntity
  8
0
  6
Continuous
 62
     7
370
    25
100
AcDbLine
 10
211.9643153216
 20
140.8217488793
 30
0.0
 11
191.4643153216
 21
140.8217488793
 31
0.0
  0
ARC
  5
A0
330
1F
100
AcDbEntity
  8
0
  6
Continuous
 62
     7
370
    25
100
AcDbCircle
 10
211.9643153216
 20
109.8217488793
 30
0.0
 40
1.0
100
AcDbArc
 50
270.0
 51
0.0
  0
ARC
  5
A1
330
1F
100
AcDbEntity
  8
0
  6
Continuous
 62
     7
370
    25
100
AcDbCircle
 10
211.9643153216
 20
139.8217488793
 30
0.0
 40
1.0
100
AcDbArc
 50
0.0
 51
90.0
  0
LINE
  5
A2
330
1F
100
AcDbEntity
  8
0
  6
Continuous
 62
     7
370
    25
100
AcDbLine
 10
191.4643153216
 20
140.8217488793
 30
0.0
 11
190.2343974675
 21
140.4921933836
 31
0.0
  0
LINE
  5
A3
330
1F
100
AcDbEntity
  8
0
  6
Continuous
 62
     7
370
    25
100
AcDbLine
 10
190.2343974675
 20
109.1513043751
 30
0.0
 11
191.4643153216
 21
108.8217488793
 31
0.0
  0
ARC
  5
A4
330
1F
100
AcDbEntity
  8
0
  6
Continuous
 62
     7
370
    25
100
AcDbCircle
 10
190.0791060404
 20
108.5717488793
 30
0.0
 40
0.6000000000000227
100
AcDbArc
 50
75.0
 51
90.0
  0
ARC
  5
A5
330
1F
100
AcDbEntity
  8
0
  6
Continuous
 62
     7
370
    25
100
AcDbCircle
 10
190.0791060404
 20
141.0717488793
 30
0.0
 40
0.6000000000000227
100
AcDbArc
 50
270.0
 51
285.0
  0
LINE
  5
A6
330
1F
100
AcDbEntity
  8
0
  6
Continuous
 62
     7
370
    25
100
AcDbLine
 10
189.3643153216
 20
109.1717488793
 30
0.0
 11
190.0791060404
 21
109.1717488793
 31
0.0
  0
LINE
  5
A7
330
1F
100
AcDbEntity
  8
0
  6
Continuous
 62
     7
370
    25
100
AcDbLine
 10
190.0791060404
 20
140.4717488793
 30
0.0
 11
189.3643153216
 21
140.4717488793
 31
0.0
  0
LINE
  5
A8
330
1F
100
AcDbEntity
  8
0
  6
Continuous
 62
     7
370
    25
100
AcDbLine
 10
188.9643153216
 20
144.8217488793
 30
0.0
 11
195.4643153216
 21
144.8217488793
 31
0.0
  0
LINE
  5
A9
330
1F
100
AcDbEntity
  8
0
  6
Continuous
 62
     7
370
    25
100
AcDbLine
 10
195.4643153216
 20
158.8217488793
 30
0.0
 11
188.9643153216
 21
158.8217488793
 31
0.0
  0
ARC
  5
AA
330
1F
100
AcDbEntity
  8
0
  6
Continuous
 62
     7
370
    25
100
AcDbCircle
 10
195.4643153216
 20
145.3217488793
 30
0.0
 40
0.5
100
AcDbArc
 50
270.0
 51
360.0
  0
ARC
  5
AB
330
1F
100
AcDbEntity
  8
0
  6
Continuous
 62
     7
370
    25
100
AcDbCircle
 10
195.4643153216
 20
158.3217488793
 30
0.0
 40
0.5
100
AcDbArc
 50
0.0
 51
90.0
  0
LINE
  5
AC
330
1F
100
AcDbEntity
  8
0
  6
Continuous
 62
     7
370
    25
100
AcDbLine
 10
188.9643153216
 20
90.8217488793
 30
0.0
 11
195.4643153216
 21
90.8217488793
 31
0.0
  0
LINE
  5
AD
330
1F
100
AcDbEntity
  8
0
  6
Continuous
 62
     7
370
    25
100
AcDbLine
 10
195.4643153216
 20
104.8217488793
 30
0.0
 11
188.9643153216
 21
104.8217488793
 31
0.0
  0
ARC
  5
AE
330
1F
100
AcDbEntity
  8
0
  6
Continuous
 62
     7
370
    25
100
AcDbCircle
 10
195.4643153216
 20
91.3217488793
 30
0.0
 40
0.5
100
AcDbArc
 50
270.0
 51
360.0
  0
ARC
  5
AF
330
1F
100
AcDbEntity
  8
0
  6
Continuous
 62
     7
370
    25
100
AcDbCircle
 10
195.4643153216
 20
104.3217488793
 30
0.0
 40
0.5
100
AcDbArc
 50
0.0
 51
90.0
  0
LINE
  5
B0
330
1F
100
AcDbEntity
  8
0
  6
Continuous
 62
     7
370
    25
100
AcDbLine
 10
233.1643153216
 20
136.8217488793
 30
0.0
 11
217.9643153216
 21
136.8217488793
 31
0.0
  0
LINE
  5
B1
330
1F
100
AcDbEntity
  8
0
  6
Continuous
 62
     7
370
    25
100
AcDbLine
 10
217.9643153216
 20
112.8217488793
 30
0.0
 11
233.1643153216
 21
112.8217488793
 31
0.0
  0
ARC
  5
B2
330
1F
100
AcDbEntity
  8
0
  6
Continuous
 62
     7
370
    25
100
AcDbCircle
 10
233.1643153216
 20
136.0217488793
 30
0.0
 40
0.8000000000000114
100
AcDbArc
 50
0.0
 51
90.0
  0
ARC
  5
B3
330
1F
100
AcDbEntity
  8
0
  6
Continuous
 62
     7
370
    25
100
AcDbCircle
 10
233.1643153216
 20
113.6217488793
 30
0.0
 40
0.8000000000000114
100
AcDbArc
 50
270.0
 51
0.0
  0
ARC
  5
B4
330
1F
100
AcDbEntity
  8
0
  6
Continuous
 62
     7
370
    25
100
AcDbCircle
 10
217.3643153216
 20
116.2217488793
 30
0.0
 40
0.6000000000000085
100
AcDbArc
 50
0.0
 51
90.0
  0
ARC
  5
B5
330
1F
100
AcDbEntity
  8
0
  6
Continuous
 62
     7
370
    25
100
AcDbCircle
 10
217.3643153216
 20
133.4217488793
 30
0.0
 40
0.5999999999999943
100
AcDbArc
 50
270.0
 51
0.0
  0
LINE
  5
B6
330
1F
100
AcDbEntity
  8
0
  6
Continuous
 62
     7
370
    25
100
AcDbLine
 10
217.3643153216
 20
132.8217488793
 30
0.0
 11
212.9643153216
 21
132.8217488793
 31
0.0
  0
LINE
  5
B7
330
1F
100
AcDbEntity
  8
0
  6
Continuous
 62
     7
370
    25
100
AcDbLine
 10
212.9643153216
 20
116.8217488793
 30
0.0
 11
217.3643153216
 21
116.8217488793
 31
0.0
  0
LINE
  5
B8
330
1F
100
AcDbEntity
  8
0
  6
Continuous
 62
     7
370
    25
100
AcDbLine
 10
116.9143153216
 20
76.0467552863
 30
0.0
 11
112.2263443425
 21
76.0467552863
 31
0.0
  0
LINE
  5
B9
330
1F
100
AcDbEntity
  8
0
  6
Continuous
 62
     7
370
    25
100
AcDbLine
 10
112.2263443425
 20
76.0467552863
 30
0.0
 11
112.2263443425
 21
156.1717488793
 31
0.0
  0
LINE
  5
BA
330
1F
100
AcDbEntity
  8
0
  6
Continuous
 62
     7
370
    25
100
AcDbLine
 10
112.2263443425
 20
156.1717488793
 30
0.0
 11
116.9143153216
 21
156.1717488793
 31
0.0
  0
LINE
  5
BB
330
1F
100
AcDbEntity
  8
0
  6
Continuous
 62
     7
370
    25
100
AcDbLine
 10
117.9143153216
 20
77.0724033341
 30
0.0
 11
117.9143153216
 21
156.1717488793
 31
0.0
  0
SPLINE
  5
BC
330
1F
100
AcDbEntity
  8
0
  6
Continuous
 62
     7
370
    25
100
AcDbSpline
210
0.0
220
0.0
230
1.0
 70
     8
 71
     3
 72
    14
 73
    10
 74
     0
 42
0.000000001
 43
0.00000001
 40
0.0
 40
0.0
 40
0.0
 40
0.0
 40
0.25
 40
0.25
 40
0.5
 40
0.5
 40
0.75
 40
0.75
 40
1.0
 40
1.0
 40
1.0
 40
1.0
 10
117.9143153215972
 20
77.07240333407856
 30
0.0
 10
117.9143153215972
 20
76.93897763802401
 30
0.0
 10
117.8890042216863
 20
76.80712983017965
 30
0.0
 10
117.7906694578416
 20
76.56060728148556
 30
0.0
 10
117.7175254535855
 20
76.446802093245
 30
0.0
 10
117.5340873924898
 20
76.25634491629773
 30
0.0
 10
117.4224010581512
 20
76.17871005244783
 30
0.0
 10
117.179897627845
 20
76.07441864233536
 30
0.0
 10
117.0465231991507
 20
76.046755286303
 30
0.0
 10
116.9143153215972
 20
76.046755286303
 30
0.0
  0
SPLINE
  5
BD
330
1F
100
AcDbEntity
  8
0
  6
Continuous
 62
     7
370
    25
100
AcDbSpline
210
0.0
220
0.0
230
1.0
 70
    24
 71
     3
 72
    12
 73
     8
 74
     0
 42
0.000000001
 43
0.00000001
 40
0.0
 40
0.0
 40
0.0
 40
0.0
 40
0.2500000000000032
 40
0.2500000000000032
 40
0.5000000000000064
 40
0.5000000000000064
 40
1.0
 40
1.0
 40
1.0
 40
1.0
 10
116.9143153215972
 20
156.1717488793318
 30
0.0
 10
117.0664055585422
 20
156.1717488793319
 30
0.0
 10
117.2148648196176
 20
156.1717488793318
 30
0.0
 10
117.4722684518833
 20
156.1717488793318
 30
0.0
 10
117.5813731997252
 20
156.1717488793318
 30
0.0
 10
117.8354326761328
 20
156.1717488793319
 30
0.0
 10
117.9143153215972
 20
156.1717488793318
 30
0.0
 10
117.9143153215972
 20
156.1717488793318
 30
0.0
  0
SPLINE
  5
BE
330
1F
100
AcDbEntity
  8
0
  6
Continuous
 62
     7
370
    25
100
AcDbSpline
210
0.0
220
0.0
230
1.0
 70
     8
 71
     3
 72
     8
 73
     4
 74
     0
 42
0.000000001
 43
0.00000001
 40
0.0
 40
0.0
 40
0.0
 40
0.0
 40
1.0
 40
1.0
 40
1.0
 40
1.0
 10
112.2263443425186
 20
76.04675528630302
 30
0.0
 10
111.7752396131184
 20
76.84771521812294
 30
0.0
 10
111.324541785875
 20
77.64890522968362
 30
0.0
 10
110.8743153215972
 20
78.45036059230839
 30
0.0
  0
LINE
  5
BF
330
1F
100
AcDbEntity
  8
0
  6
Continuous
 62
     7
370
    25
100
AcDbLine
 10
110.8743153216
 20
78.4503605923
 30
0.0
 11
110.8743153216
 21
156.1717488793
 31
0.0
  0
SPLINE
  5
C0
330
1F
100
AcDbEntity
  8
0
  6
Continuous
 62
     7
370
    25
100
AcDbSpline
210
0.0
220
0.0
230
1.0
 70
    24
 71
     3
 72
     8
 73
     4
 74
     0
 42
0.000000001
 43
0.00000001
 40
0.0
 40
0.0
 40
0.0
 40
0.0
 40
1.0
 40
1.0
 40
1.0
 40
1.0
 10
110.8743153215972
 20
156.1717488793318
 30
0.0
 10
111.3185282039511
 20
156.1717488793318
 30
0.0
 10
111.7695427701904
 20
156.1717488793318
 30
0.0
 10
112.2263443425186
 20
156.1717488793318
 30
0.0
  0
LINE
  5
C1
330
1F
100
AcDbEntity
  8
0
  6
Continuous
 62
     7
370
    25
100
AcDbLine
 10
88.9643153216
 20
75.3217488793
 30
0.0
 11
88.9643153216
 21
174.3217488793
 31
0.0
  0
LINE
  5
C2
330
1F
100
AcDbEntity
  8
0
  6
Continuous
 62
     7
370
    25
100
AcDbLine
 10
93.9143153216
 20
156.1717488793
 30
0.0
 11
105.7022863007
 21
156.1717488793
 31
0.0
  0
LINE
  5
C3
330
1F
100
AcDbEntity
  8
0
  6
Continuous
 62
     7
370
    25
100
AcDbLine
 10
105.7022863007
 20
76.0467552863
 30
0.0
 11
105.7022863007
 21
156.1717488793
 31
0.0
  0
LINE
  5
C4
330
1F
100
AcDbEntity
  8
0
  6
Continuous
 62
     7
370
    25
100
AcDbLine
 10
105.7022863007
 20
76.0467552863
 30
0.0
 11
103.9143153216
 21
76.0467552863
 31
0.0
  0
SPLINE
  5
C5
330
1F
100
AcDbEntity
  8
0
  6
Continuous
 62
     7
370
    25
100
AcDbSpline
210
0.0
220
0.0
230
1.0
 70
     8
 71
     3
 72
    30
 73
    26
 74
     0
 42
0.000000001
 43
0.00000001
 40
0.0
 40
0.0
 40
0.0
 40
0.0
 40
0.1250000000000002
 40
0.1250000000000002
 40
0.1875000000000003
 40
0.1875000000000003
 40
0.2500000000000004
 40
0.2500000000000004
 40
0.3750000000000001
 40
0.3750000000000001
 40
0.4374999999999998
 40
0.4374999999999998
 40
0.4999999999999996
 40
0.4999999999999996
 40
0.6249999999999996
 40
0.6249999999999996
 40
0.6874999999999997
 40
0.6874999999999997
 40
0.7499999999999997
 40
0.7499999999999997
 40
0.8124999999999998
 40
0.8124999999999998
 40
0.8749999999999999
 40
0.8749999999999999
 40
1.0
 40
1.0
 40
1.0
 40
1.0
 10
103.9143153215972
 20
76.04675528630302
 30
0.0
 10
103.2515706277522
 20
76.04675528630304
 30
0.0
 10
102.6003147686365
 20
76.03191520971423
 30
0.0
 10
101.6398642303782
 20
75.9895456454846
 30
0.0
 10
101.3224727871452
 20
75.97206754270545
 30
0.0
 10
100.6933092855904
 20
75.93073925615312
 30
0.0
 10
100.3811610991486
 20
75.90681398269544
 30
0.0
 10
99.4738537973004
 20
75.82800746622853
 30
0.0
 10
98.90042883965913
 20
75.76570144625205
 30
0.0
 10
98.08655197008447
 20
75.66257212601269
 30
0.0
 10
97.8217457735146
 20
75.62638820696618
 30
0.0
 10
97.31483836270027
 20
75.55259342276568
 30
0.0
 10
97.07344421134678
 20
75.51511956399403
 30
0.0
 10
96.38430273921445
 20
75.40240762065432
 30
0.0
 10
95.97124792435021
 20
75.32687152318051
 30
0.0
 10
95.42309310497514
 20
75.21847826616303
 30
0.0
 10
95.25363049762956
 20
75.18340603449977
 30
0.0
 10
94.94561324961417
 20
75.11717057389991
 30
0.0
 10
94.80623322900581
 20
75.08584387714521
 30
0.0
 10
94.55644771637908
 20
75.02743510556425
 30
0.0
 10
94.44604160372516
 20
75.00035187038141
 30
0.0
 10
94.25478375008743
 20
74.95109211576784
 30
0.0
 10
94.17366423180314
 20
74.92883013596018
 30
0.0
 10
93.97951731169474
 20
74.8712632287919
 30
0.0
 10
93.91431532159719
 20
74.84500362400593
 30
0.0
 10
93.9143153215972
 20
74.8317498795319
 30
0.0
  0
LINE
  5
C6
330
1F
100
AcDbEntity
  8
0
  6
Continuous
 62
     7
370
    25
100
AcDbLine
 10
93.9143153216
 20
74.8317498795
 30
0.0
 11
93.9143153216
 21
74.8217488793
 31
0.0
  0
SPLINE
  5
C7
330
1F
100
AcDbEntity
  8
0
  6
Continuous
 62
     7
370
    25
100
AcDbSpline
210
0.0
220
0.0
230
1.0
 70
     8
 71
     3
 72
    24
 73
    20
 74
     0
 42
0.000000001
 43
0.00000001
 40
0.0
 40
0.0
 40
0.0
 40
0.0
 40
0.0390267133801499
 40
0.1311139242292854
 40
0.1714054558273009
 40
0.2118643853855554
 40
0.2509821776603262
 40
0.3428979967553785
 40
0.3831646133362209
 40
0.4235921519366522
 40
0.4632042325181012
 40
0.5562805628631708
 40
0.6379674118372604
 40
0.6778017557678848
 40
0.7718001666215283
 40
0.854213004195102
 40
0.893613679072278
 40
0.9862214693235922
 40
1.0
 40
1.0
 40
1.0
 40
1.0
 10
103.9143153215972
 20
173.8115437349954
 30
0.0
 10
103.7095737406071
 20
173.8123246283186
 30
0.0
 10
103.0217250899909
 20
173.8149481130844
 30
0.0
 10
102.1269103177335
 20
173.8405689369935
 30
0.0
 10
101.2463356470947
 20
173.8828491557675
 30
0.0
 10
100.6463827315848
 20
173.9192451650497
 30
0.0
 10
99.80725242364994
 20
173.9801531192996
 30
0.0
 10
99.00408044687862
 20
174.0542501741082
 30
0.0
 10
98.24496553280034
 20
174.1375910775462
 30
0.0
 10
97.73841594427222
 20
174.1984833041726
 30
0.0
 10
97.04491058607888
 20
174.2886722111846
 30
0.0
 10
96.26273634865973
 20
174.4029538745995
 30
0.0
 10
95.59776325631226
 20
174.5115758188152
 30
0.0
 10
95.02034254013356
 20
174.611416873738
 30
0.0
 10
94.54398958991194
 20
174.6988870415803
 30
0.0
 10
94.21407567576777
 20
174.7625199938848
 30
0.0
 10
93.9948453967395
 20
174.8055927178801
 30
0.0
 10
93.908926241084
 20
174.8228281764534
 30
0.0
 10
93.91775341644424
 20
174.8210616909078
 30
0.0
 10
93.91889666028825
 20
174.8208329060878
 30
0.0
  0
LINE
  5
C8
330
1F
100
AcDbEntity
  8
0
  6
Continuous
 62
     7
370
    25
100
AcDbLine
 10
105.7022863007
 20
173.811543735
 30
0.0
 11
103.9143153216
 21
173.811543735
 31
0.0
  0
LINE
  5
C9
330
1F
100
AcDbEntity
  8
0
  6
Continuous
 62
     7
370
    25
100
AcDbLine
 10
105.7022863007
 20
163.7727116402
 30
0.0
 11
105.7022863007
 21
173.811543735
 31
0.0
  0
LINE
  5
CA
330
1F
100
AcDbEntity
  8
0
  6
Continuous
 62
     7
370
    25
100
AcDbLine
 10
103.6222821698
 20
163.7727116402
 30
0.0
 11
105.7022863007
 21
163.7727116402
 31
0.0
  0
SPLINE
  5
CB
330
1F
100
AcDbEntity
  8
0
  6
Continuous
 62
     7
370
    25
100
AcDbSpline
210
0.0
220
0.0
230
1.0
 70
     8
 71
     3
 72
    22
 73
    18
 74
     0
 42
0.000000001
 43
0.00000001
 40
0.0
 40
0.0
 40
0.0
 40
0.0
 40
0.2500000000000002
 40
0.2500000000000002
 40
0.3750000000000003
 40
0.3750000000000003
 40
0.5000000000000004
 40
0.5000000000000004
 40
0.6250000000000004
 40
0.6250000000000004
 40
0.7500000000000004
 40
0.7500000000000004
 40
0.8750000000000004
 40
0.8750000000000004
 40
0.9375000000000002
 40
0.9375000000000002
 40
1.0
 40
1.0
 40
1.0
 40
1.0
 10
93.91431532159719
 20
156.1717488793318
 30
0.0
 10
94.11704027751628
 20
157.1909952211965
 30
0.0
 10
94.43178399931166
 20
158.1501033711358
 30
0.0
 10
95.13983946898263
 20
159.492582448645
 30
0.0
 10
95.41830209920029
 20
159.9267910313851
 30
0.0
 10
96.05706950583748
 20
160.7384187468872
 30
0.0
 10
96.41748318562767
 20
161.117699039824
 30
0.0
 10
97.23501541761696
 20
161.820657618845
 30
0.0
 10
97.69618340090409
 20
162.1456864365456
 30
0.0
 10
98.69417364738788
 20
162.7107017599365
 30
0.0
 10
99.23393284138017
 20
162.954405354143
 30
0.0
 10
100.4085258054115
 20
163.358605281788
 30
0.0
 10
101.0202619914034
 20
163.5110424748335
 30
0.0
 10
101.9721712162651
 20
163.6663700224422
 30
0.0
 10
102.2954043805257
 20
163.7058748024922
 30
0.0
 10
102.954467551801
 20
163.7591839231609
 30
0.0
 10
103.288531562375
 20
163.7727116402188
 30
0.0
 10
103.6222821697765
 20
163.7727116402188
 30
0.0
  0
SPLINE
  5
CC
330
1F
100
AcDbEntity
  8
0
  6
Continuous
 62
     7
370
    25
100
AcDbSpline
210
0.0
220
0.0
230
1.0
 70
    11
 71
     3
 72
    80
 73
    76
 74
     0
 42
0.000000001
 43
0.00000001
 40
0.0
 40
0.0
 40
0.0
 40
0.0
 40
0.03125
 40
0.03125
 40
0.0468749999999999
 40
0.0468749999999999
 40
0.0624999999999998
 40
0.0624999999999998
 40
0.0937499999999996
 40
0.0937499999999996
 40
0.1249999999999994
 40
0.1249999999999994
 40
0.1562499999999992
 40
0.1562499999999992
 40
0.187499999999999
 40
0.187499999999999
 40
0.2187499999999988
 40
0.2187499999999988
 40
0.2499999999999986
 40
0.2499999999999986
 40
0.2812499999999983
 40
0.2812499999999983
 40
0.3124999999999981
 40
0.3124999999999981
 40
0.3281249999999982
 40
0.3281249999999982
 40
0.3437499999999982
 40
0.3437499999999982
 40
0.3749999999999984
 40
0.3749999999999984
 40
0.4062499999999986
 40
0.4062499999999986
 40
0.4218749999999987
 40
0.4218749999999987
 40
0.4374999999999987
 40
0.4374999999999987
 40
0.4687499999999989
 40
0.4687499999999989
 40
0.499999999999999
 40
0.499999999999999
 40
0.5312499999999991
 40
0.5312499999999991
 40
0.5624999999999992
 40
0.5624999999999992
 40
0.5937499999999993
 40
0.5937499999999993
 40
0.6249999999999994
 40
0.6249999999999994
 40
0.6562499999999997
 40
0.6562499999999997
 40
0.6874999999999998
 40
0.6874999999999998
 40
0.703125
 40
0.703125
 40
0.7187500000000002
 40
0.7187500000000002
 40
0.7500000000000003
 40
0.7500000000000003
 40
0.7812500000000004
 40
0.7812500000000004
 40
0.7968750000000006
 40
0.7968750000000006
 40
0.8125000000000007
 40
0.8125000000000007
 40
0.8437500000000006
 40
0.8437500000000006
 40
0.8750000000000006
 40
0.8750000000000006
 40
0.9062500000000004
 40
0.9062500000000004
 40
0.9375000000000003
 40
0.9375000000000003
 40
0.9687500000000002
 40
0.9687500000000002
 40
1.0
 40
1.0
 40
1.0
 40
1.0
 10
97.96431532159721
 20
168.2363783429631
 30
0.0
 10
97.6337700088209
 20
168.2363783429631
 30
0.0
 10
97.30878987956928
 20
168.2525865743453
 30
0.0
 10
96.82931646832286
 20
168.2999512063649
 30
0.0
 10
96.67083465048204
 20
168.3196054182555
 30
0.0
 10
96.35661511797775
 20
168.3667165744482
 30
0.0
 10
96.20049483429734
 20
168.3942978939428
 30
0.0
 10
95.74644080534078
 20
168.4868336807366
 30
0.0
 10
95.45933742240095
 20
168.5619041143331
 30
0.0
 10
94.91598286637392
 20
168.7371424229437
 30
0.0
 10
94.65887925516836
 20
168.838143720782
 30
0.0
 10
94.19797300022955
 20
169.0554999192428
 30
0.0
 10
93.9910752910146
 20
169.1726642510151
 30
0.0
 10
93.6255499770224
 20
169.4227341752438
 30
0.0
 10
93.47034445489643
 20
169.5536802640027
 30
0.0
 10
93.22091406829672
 20
169.8194152077151
 30
0.0
 10
93.12482411251155
 20
169.9561688010261
 30
0.0
 10
92.99630526331798
 20
170.2302343758651
 30
0.0
 10
92.9644943931402
 20
170.3651744663339
 30
0.0
 10
92.96413774336692
 20
170.6306461034026
 30
0.0
 10
92.996634995564
 20
170.7624705805439
 30
0.0
 10
93.1242604692785
 20
171.0119201801643
 30
0.0
 10
93.21868887033037
 20
171.1303528720922
 30
0.0
 10
93.40654969031594
 20
171.2992220691864
 30
0.0
 10
93.47737768911912
 20
171.3543080643065
 30
0.0
 10
93.6320995810844
 20
171.459560892795
 30
0.0
 10
93.7160760512678
 20
171.5098961215553
 30
0.0
 10
93.98739972091222
 20
171.6544719540933
 30
0.0
 10
94.19394893951457
 20
171.7423335405103
 30
0.0
 10
94.66055907970359
 20
171.9020546335099
 30
0.0
 10
94.91292464932904
 20
171.9712929299771
 30
0.0
 10
95.31882599100777
 20
172.0610803192069
 30
0.0
 10
95.45872660848525
 20
172.0886462812931
 30
0.0
 10
95.74795054373217
 20
172.1391370822194
 30
0.0
 10
95.89779000002144
 20
172.1621005210701
 30
0.0
 10
96.35190656963225
 20
172.222731037489
 30
0.0
 10
96.6635577883691
 20
172.2528050662848
 30
0.0
 10
97.30455425328147
 20
172.2933946535434
 30
0.0
 10
97.63608188123364
 20
172.3037068837594
 30
0.0
 10
98.28887292630512
 20
172.3037824509252
 30
0.0
 10
98.61340913133694
 20
172.2938808454575
 30
0.0
 10
99.25867858075335
 20
172.2533943149323
 30
0.0
 10
99.57442158691607
 20
172.2229330150476
 30
0.0
 10
100.1763108818998
 20
172.142782343611
 30
0.0
 10
100.4670601127113
 20
172.0925001118038
 30
0.0
 10
101.0139719043957
 20
171.9718299290308
 30
0.0
 10
101.2657492682327
 20
171.9026060698609
 30
0.0
 10
101.7271372608538
 20
171.7451543422202
 30
0.0
 10
101.9384065404519
 20
171.6558058675463
 30
0.0
 10
102.3017108928281
 20
171.4625579968456
 30
0.0
 10
102.4555175412709
 20
171.3584300049663
 30
0.0
 10
102.6441370108683
 20
171.1898056187828
 30
0.0
 10
102.7001674970774
 20
171.1311772171078
 30
0.0
 10
102.7957412588135
 20
171.0117223022816
 30
0.0
 10
102.8355041758386
 20
170.9508025134435
 30
0.0
 10
102.9312759261507
 20
170.7643977872695
 30
0.0
 10
102.9639987652768
 20
170.6352849694745
 30
0.0
 10
102.9646273516059
 20
170.3666280465187
 30
0.0
 10
102.9324412068711
 20
170.2312573057619
 30
0.0
 10
102.8375305050155
 20
170.0277069975259
 30
0.0
 10
102.7980637216166
 20
169.9597350734625
 30
0.0
 10
102.7031337228957
 20
169.8236428503316
 30
0.0
 10
102.6473768951323
 20
169.7552927501222
 30
0.0
 10
102.4594367771624
 20
169.5545897370801
 30
0.0
 10
102.3060753074462
 20
169.4252014632673
 30
0.0
 10
101.9438110725659
 20
169.1765360312175
 30
0.0
 10
101.7329625991
 20
169.0567263888493
 30
0.0
 10
101.2722926287811
 20
168.8392041012767
 30
0.0
 10
101.0209182491972
 20
168.7401190014407
 30
0.0
 10
100.4750103622991
 20
168.5634465275239
 30
0.0
 10
100.1841877876479
 20
168.4873894393899
 30
0.0
 10
99.58286117286784
 20
168.3645444620369
 30
0.0
 10
99.26834258825545
 20
168.3168383369837
 30
0.0
 10
98.62176113213552
 20
168.2525898018641
 30
0.0
 10
98.2948606343735
 20
168.2363783429631
 30
0.0
 10
97.96431532159721
 20
168.2363783429631
 30
0.0
  0
LINE
  5
CD
330
1F
100
AcDbEntity
  8
0
  6
Continuous
 62
     7
370
    25
100
AcDbLine
 10
107.0543153216
 20
78.4503605923
 30
0.0
 11
107.0543153216
 21
156.1717488793
 31
0.0
  0
SPLINE
  5
CE
330
1F
100
AcDbEntity
  8
0
  6
Continuous
 62
     7
370
    25
100
AcDbSpline
210
0.0
220
0.0
230
1.0
 70
     8
 71
     3
 72
     8
 73
     4
 74
     0
 42
0.000000001
 43
0.00000001
 40
0.0
 40
0.0
 40
0.0
 40
0.0
 40
1.0
 40
1.0
 40
1.0
 40
1.0
 10
107.0543153215972
 20
78.45036059230839
 30
0.0
 10
106.6040888573194
 20
77.64890522968362
 30
0.0
 10
106.153391030076
 20
76.84771521812294
 30
0.0
 10
105.7022863006758
 20
76.04675528630302
 30
0.0
  0
SPLINE
  5
CF
330
1F
100
AcDbEntity
  8
0
  6
Continuous
 62
     7
370
    25
100
AcDbSpline
210
0.0
220
0.0
230
1.0
 70
    24
 71
     3
 72
     8
 73
     4
 74
     0
 42
0.000000001
 43
0.00000001
 40
0.0
 40
0.0
 40
0.0
 40
0.0
 40
1.0
 40
1.0
 40
1.0
 40
1.0
 10
105.7022863006758
 20
156.1717488793318
 30
0.0
 10
106.159087873004
 20
156.1717488793318
 30
0.0
 10
106.6101024392433
 20
156.1717488793318
 30
0.0
 10
107.0543153215972
 20
156.1717488793318
 30
0.0
  0
SPLINE
  5
D0
330
1F
100
AcDbEntity
  8
0
  6
Continuous
 62
     7
370
    25
100
AcDbSpline
210
0.0
220
0.0
230
1.0
 70
     8
 71
     3
 72
    14
 73
    10
 74
     0
 42
0.000000001
 43
0.00000001
 40
0.0
 40
0.0
 40
0.0
 40
0.0
 40
0.25
 40
0.25
 40
0.5
 40
0.5
 40
0.75
 40
0.75
 40
1.0
 40
1.0
 40
1.0
 40
1.0
 10
110.8743153215972
 20
79.35857009693694
 30
0.0
 10
110.8743153215972
 20
79.46561417793134
 30
0.0
 10
110.854197634439
 20
79.57084931817379
 30
0.0
 10
110.7757064451734
 20
79.76869980502147
 30
0.0
 10
110.7175498203722
 20
79.85975156858639
 30
0.0
 10
110.5710345647542
 20
80.01291766251117
 30
0.0
 10
110.4823920161131
 20
80.07521210872058
 30
0.0
 10
110.2866686933127
 20
80.16000589425657
 30
0.0
 10
110.1814375022418
 20
80.1820734212822
 30
0.0
 10
110.0743153215972
 20
80.1820734212822
 30
0.0
  0
SPLINE
  5
D1
330
1F
100
AcDbEntity
  8
0
  6
Continuous
 62
     7
370
    25
100
AcDbSpline
210
0.0
220
0.0
230
1.0
 70
    24
 71
     3
 72
    14
 73
    10
 74
     0
 42
0.000000001
 43
0.00000001
 40
0.0
 40
0.0
 40
0.0
 40
0.0
 40
0.25
 40
0.25
 40
0.5
 40
0.5
 40
0.75
 40
0.75
 40
1.0
 40
1.0
 40
1.0
 40
1.0
 10
110.0743153215972
 20
156.1717488793318
 30
0.0
 10
110.1980850863624
 20
156.1717488793318
 30
0.0
 10
110.3224521903692
 20
156.1717488793318
 30
0.0
 10
110.5288086590953
 20
156.1717488793318
 30
0.0
 10
110.6141368025136
 20
156.1717488793318
 30
0.0
 10
110.7463288612289
 20
156.1717488793319
 30
0.0
 10
110.7949741049795
 20
156.1717488793318
 30
0.0
 10
110.8585098967082
 20
156.1717488793319
 30
0.0
 10
110.8743153215972
 20
156.1717488793318
 30
0.0
 10
110.8743153215972
 20
156.1717488793318
 30
0.0
  0
SPLINE
  5
D2
330
1F
100
AcDbEntity
  8
0
  6
Continuous
 62
     7
370
    25
100
AcDbSpline
210
0.0
220
0.0
230
1.0
 70
     8
 71
     3
 72
    12
 73
     8
 74
     0
 42
0.000000001
 43
0.00000001
 40
0.0
 40
0.0
 40
0.0
 40
0.0
 40
0.250000000000003
 40
0.250000000000003
 40
0.500000000000006
 40
0.500000000000006
 40
1.0
 40
1.0
 40
1.0
 40
1.0
 10
107.8543153215972
 20
80.1820734212822
 30
0.0
 10
107.7485546682483
 20
80.1820734212822
 30
0.0
 10
107.6405670400653
 20
80.1595339152818
 30
0.0
 10
107.4459723747997
 20
80.07496328328648
 30
0.0
 10
107.3571004619608
 20
80.01248163052766
 30
0.0
 10
107.137908169635
 20
79.78309267905543
 30
0.0
 10
107.0543153215971
 20
79.57050934153301
 30
0.0
 10
107.0543153215972
 20
79.3585700969368
 30
0.0
  0
SPLINE
  5
D3
330
1F
100
AcDbEntity
  8
0
  6
Continuous
 62
     7
370
    25
100
AcDbSpline
210
0.0
220
0.0
230
1.0
 70
    24
 71
     3
 72
    14
 73
    10
 74
     0
 42
0.000000001
 43
0.00000001
 40
0.0
 40
0.0
 40
0.0
 40
0.0
 40
0.25
 40
0.25
 40
0.5
 40
0.5
 40
0.75
 40
0.75
 40
1.0
 40
1.0
 40
1.0
 40
1.0
 10
107.0543153215972
 20
156.1717488793318
 30
0.0
 10
107.0543153215972
 20
156.1717488793318
 30
0.0
 10
107.0700296420631
 20
156.1717488793318
 30
0.0
 10
107.1337136205315
 20
156.1717488793318
 30
0.0
 10
107.182316814942
 20
156.1717488793318
 30
0.0
 10
107.3150003373676
 20
156.1717488793319
 30
0.0
 10
107.4001024416782
 20
156.1717488793318
 30
0.0
 10
107.6065446765883
 20
156.1717488793319
 30
0.0
 10
107.7306256182113
 20
156.1717488793318
 30
0.0
 10
107.8543153215972
 20
156.1717488793318
 30
0.0
  0
LINE
  5
D4
330
1F
100
AcDbEntity
  8
0
  6
Continuous
 62
     7
370
    25
100
AcDbLine
 10
110.0743153216
 20
80.1820734213
 30
0.0
 11
107.8543153216
 21
80.1820734213
 31
0.0
  0
LINE
  5
D5
330
1F
100
AcDbEntity
  8
0
  6
Continuous
 62
     7
370
    25
100
AcDbLine
 10
107.8543153216
 20
156.1717488793
 30
0.0
 11
110.0743153216
 21
156.1717488793
 31
0.0
  0
LINE
  5
D6
330
1F
100
AcDbEntity
  8
0
  6
Continuous
 62
     7
370
    25
100
AcDbLine
 10
54.1643153216
 20
88.5577338493
 30
0.0
 11
54.1643153216
 21
90.952415614
 31
0.0
  0
SPLINE
  5
D7
330
1F
100
AcDbEntity
  8
0
  6
Continuous
 62
     7
370
    25
100
AcDbSpline
210
0.0
220
0.0
230
1.0
 70
     8
 71
     3
 72
    14
 73
    10
 74
     0
 42
0.000000001
 43
0.00000001
 40
0.0
 40
0.0
 40
0.0
 40
0.0
 40
0.25
 40
0.25
 40
0.5
 40
0.5
 40
0.75
 40
0.75
 40
1.0
 40
1.0
 40
1.0
 40
1.0
 10
53.15989285026025
 20
92.65526753558831
 30
0.0
 10
53.24866142820557
 20
92.49673340428036
 30
0.0
 10
53.37037926688448
 20
92.34429072739181
 30
0.0
 10
53.60542887674131
 20
92.04715610356288
 30
0.0
 10
53.72105906295821
 20
91.90247345994553
 30
0.0
 10
53.92146399638603
 20
91.61918425744211
 30
0.0
 10
54.00686428837034
 20
91.48063026440525
 30
0.0
 10
54.12856992208759
 20
91.20924623437173
 30
0.0
 10
54.16431532160022
 20
91.07711036573711
 30
0.0
 10
54.16431532160021
 20
90.95241561396635
 30
0.0
  0
SPLINE
  5
D8
330
1F
100
AcDbEntity
  8
0
  6
Continuous
 62
     7
370
    25
100
AcDbSpline
210
0.0
220
0.0
230
1.0
 70
     8
 71
     3
 72
    14
 73
    10
 74
     0
 42
0.000000001
 43
0.00000001
 40
0.0
 40
0.0
 40
0.0
 40
0.0
 40
0.124999999999999
 40
0.124999999999999
 40
0.249999999999998
 40
0.249999999999998
 40
0.5000000000000007
 40
0.5000000000000007
 40
1.0
 40
1.0
 40
1.0
 40
1.0
 10
52.2643153215972
 20
93.28409747468842
 30
0.0
 10
52.3318976213817
 20
93.29125335978983
 30
0.0
 10
52.4043851991296
 20
93.2868288897508
 30
0.0
 10
52.53667630839553
 20
93.25712273198044
 30
0.0
 10
52.59395368778571
 20
93.23383845040223
 30
0.0
 10
52.74360411498599
 20
93.15635321055191
 30
0.0
 10
52.81731741050749
 20
93.09450138365054
 30
0.0
 10
53.00512539383373
 20
92.90982393100222
 30
0.0
 10
53.08916570019519
 20
92.781581007711
 30
0.0
 10
53.15989285026146
 20
92.65526753558842
 30
0.0
  0
SPLINE
  5
D9
330
1F
100
AcDbEntity
  8
0
  6
Continuous
 62
     7
370
    25
100
AcDbSpline
210
0.0
220
0.0
230
1.0
 70
     8
 71
     3
 72
     8
 73
     4
 74
     0
 42
0.000000001
 43
0.00000001
 40
0.0
 40
0.0
 40
0.0
 40
0.0
 40
1.0
 40
1.0
 40
1.0
 40
1.0
 10
48.71967493351642
 20
92.86604888989663
 30
0.0
 10
49.88497324422529
 20
93.02123636178325
 30
0.0
 10
51.06958845826511
 20
93.15759500009358
 30
0.0
 10
52.2643153215972
 20
93.28409747468844
 30
0.0
  0
SPLINE
  5
DA
330
1F
100
AcDbEntity
  8
0
  6
Continuous
 62
     7
370
    25
100
AcDbSpline
210
0.0
220
0.0
230
1.0
 70
     8
 71
     3
 72
    14
 73
    10
 74
     0
 42
0.000000001
 43
0.00000001
 40
0.0
 40
0.0
 40
0.0
 40
0.0
 40
0.5000000000000012
 40
0.5000000000000012
 40
0.7500000000000018
 40
0.7500000000000018
 40
0.8750000000000009
 40
0.8750000000000009
 40
1.0
 40
1.0
 40
1.0
 40
1.0
 10
40.96424043756686
 20
92.5759167107667
 30
0.0
 10
42.27254200010088
 20
92.58293143450783
 30
0.0
 10
43.577601374758
 20
92.59834001095231
 30
0.0
 10
45.52347742624669
 20
92.65223656641896
 30
0.0
 10
46.17017492998583
 20
92.67526813102167
 30
0.0
 10
47.13401729384038
 20
92.72621065589243
 30
0.0
 10
47.45425598577452
 20
92.74594557812563
 30
0.0
 10
48.09095121211707
 20
92.79543270659721
 30
0.0
 10
48.40766662040008
 20
92.82449748552645
 30
0.0
 10
48.71967493351645
 20
92.8660488898966
 30
0.0
  0
SPLINE
  5
DB
330
1F
100
AcDbEntity
  8
0
  6
Continuous
 62
     7
370
    25
100
AcDbSpline
210
0.0
220
0.0
230
1.0
 70
     8
 71
     3
 72
    12
 73
     8
 74
     0
 42
0.000000001
 43
0.00000001
 40
0.0
 40
0.0
 40
0.0
 40
0.0
 40
0.2500000000000001
 40
0.2500000000000001
 40
0.5000000000000001
 40
0.5000000000000001
 40
1.0
 40
1.0
 40
1.0
 40
1.0
 10
47.26431532159721
 20
156.9082717708283
 30
0.0
 10
46.74561649976902
 20
156.9407945456765
 30
0.0
 10
46.22390492656403
 20
156.964091286847
 30
0.0
 10
45.17761291006847
 20
157.0019368012691
 30
0.0
 10
44.65294128439819
 20
157.0162052757652
 30
0.0
 10
43.07609526185896
 20
157.0504147632235
 30
0.0
 10
42.02113994731207
 20
157.0619142671674
 30
0.0
 10
40.96424043756686
 20
157.067581047897
 30
0.0
  0
SPLINE
  5
DC
330
1F
100
AcDbEntity
  8
0
  6
Continuous
 62
     7
370
    25
100
AcDbSpline
210
0.0
220
0.0
230
1.0
 70
     8
 71
     3
 72
    20
 73
    16
 74
     0
 42
0.000000001
 43
0.00000001
 40
0.0
 40
0.0
 40
0.0
 40
0.0
 40
0.2500000000000011
 40
0.2500000000000011
 40
0.5000000000000021
 40
0.5000000000000021
 40
0.7500000000000031
 40
0.7500000000000031
 40
0.8750000000000008
 40
0.8750000000000008
 40
0.9375000000000006
 40
0.9375000000000006
 40
0.9687500000000003
 40
0.9687500000000003
 40
1.0
 40
1.0
 40
1.0
 40
1.0
 10
49.16431532159721
 20
158.5663576163164
 30
0.0
 10
49.16431532159721
 20
158.4306752965696
 30
0.0
 10
49.11560353238058
 20
158.2895883104296
 30
0.0
 10
48.94644210915538
 20
157.997516591699
 30
0.0
 10
48.82466169523708
 20
157.8458678496086
 30
0.0
 10
48.52711460048756
 20
157.5434594094555
 30
0.0
 10
48.3532019947848
 20
157.3908707733322
 30
0.0
 10
48.03378716090297
 20
157.1656000094899
 30
0.0
 10
47.91874638545571
 20
157.0908769149792
 30
0.0
 10
47.71166206143928
 20
156.9914665057222
 30
0.0
 10
47.63555422663291
 20
156.9599014133776
 30
0.0
 10
47.50415968707955
 20
156.9254580291847
 30
0.0
 10
47.45760646807809
 20
156.916406457417
 30
0.0
 10
47.36127311699738
 20
156.9062308085786
 30
0.0
 10
47.31201369364194
 20
156.9052810499035
 30
0.0
 10
47.26431532159523
 20
156.9082717708181
 30
0.0
  0
LINE
  5
DD
330
1F
100
AcDbEntity
  8
0
  6
Continuous
 62
     7
370
    25
100
AcDbLine
 10
49.1643153216
 20
158.5663576163
 30
0.0
 11
49.1643153216
 21
160.8352629074
 31
0.0
  0
LINE
  5
DE
330
1F
100
AcDbEntity
  8
0
  6
Continuous
 62
     7
370
    25
100
AcDbLine
 10
86.4643153216
 20
86.9394973763
 30
0.0
 11
86.4643153216
 21
162.7040003823
 31
0.0
  0
SPLINE
  5
DF
330
1F
100
AcDbEntity
  8
0
  6
Continuous
 62
     7
370
    25
100
AcDbSpline
210
0.0
220
0.0
230
1.0
 70
     8
 71
     3
 72
    24
 73
    20
 74
     0
 42
0.000000001
 43
0.00000001
 40
0.0
 40
0.0
 40
0.0
 40
0.0
 40
0.0002934293894791
 40
0.062808005175641
 40
0.1260453927228619
 40
0.18907467666103
 40
0.2513200540860133
 40
0.3133304633786588
 40
0.3759158453762907
 40
0.4383740564599686
 40
0.5000631094857209
 40
0.5616593988040849
 40
0.6245050380644152
 40
0.6872231506510951
 40
0.7494953263230465
 40
0.8117583797535242
 40
0.8747365508229858
 40
0.9378980306234599
 40
1.0
 40
1.0
 40
1.0
 40
1.0
 10
67.48427158543663
 20
87.89050362101946
 30
0.0
 10
67.48407673255186
 20
87.89047931362548
 30
0.0
 10
67.4423688415407
 20
87.88527636197126
 30
0.0
 10
67.58748723307113
 20
87.90391098530179
 30
0.0
 10
67.94256617461039
 20
87.94643076385051
 30
0.0
 10
68.54714181215354
 20
88.01456704745235
 30
0.0
 10
69.35357712096973
 20
88.08782258446823
 30
0.0
 10
70.33905454488871
 20
88.1523419252861
 30
0.0
 10
71.47072414156825
 20
88.19090615334719
 30
0.0
 10
72.69301661173053
 20
88.19460065934858
 30
0.0
 10
73.96034529318237
 20
88.15217467929959
 30
0.0
 10
75.22683082360889
 20
88.06392753851863
 30
0.0
 10
76.44296818742882
 20
87.93553426825196
 30
0.0
 10
77.5683786832696
 20
87.78289327965942
 30
0.0
 10
78.54579574482356
 20
87.62111866455508
 30
0.0
 10
79.34906122336608
 20
87.46858977145419
 30
0.0
 10
79.9375547463673
 20
87.3445760281868
 30
0.0
 10
80.32646085801935
 20
87.25965210191053
 30
0.0
 10
80.37322198875738
 20
87.24892579063173
 30
0.0
 10
80.39640479529977
 20
87.24360799794012
 30
0.0
  0
SPLINE
  5
E0
330
1F
100
AcDbEntity
  8
0
  6
Continuous
 62
     7
370
    25
100
AcDbSpline
210
0.0
220
0.0
230
1.0
 70
     8
 71
     3
 72
    27
 73
    23
 74
     0
 42
0.000000001
 43
0.00000001
 40
0.0
 40
0.0
 40
0.0
 40
0.0
 40
0.0619954689773139
 40
0.125439761560591
 40
0.1886583844574462
 40
0.2510346134497854
 40
0.3131782602022607
 40
0.3756730881128938
 40
0.4382401241790196
 40
0.499824348292253
 40
0.5615387273785309
 40
0.6240931021049618
 40
0.6867530051580139
 40
0.7488662799405181
 40
0.8111008161776784
 40
0.8742090172307965
 40
0.9448189437294151
 40
0.9756082665303353
 40
0.9877505320533716
 40
0.999943370083303
 40
0.9999501677214164
 40
1.0
 40
1.0
 40
1.0
 40
1.0
 10
80.39628346482178
 20
162.399844742772
 30
0.0
 10
80.37271181947811
 20
162.3945352631222
 30
0.0
 10
80.32501766343292
 20
162.3837922221828
 30
0.0
 10
79.93297567400839
 20
162.2985630857266
 30
0.0
 10
79.34246162473433
 20
162.1739943070886
 30
0.0
 10
78.53842417870344
 20
162.0210473609268
 30
0.0
 10
77.56234877846919
 20
161.8592908070101
 30
0.0
 10
76.44054004338652
 20
161.7070580389394
 30
0.0
 10
75.22700912286311
 20
161.5792780982534
 30
0.0
 10
73.96217841917205
 20
161.4914295446753
 30
0.0
 10
72.69413537158967
 20
161.4490440679014
 30
0.0
 10
71.47062805227297
 20
161.4527798490078
 30
0.0
 10
70.33712936838954
 20
161.4913754198702
 30
0.0
 10
69.35102408880404
 20
161.5558144192422
 30
0.0
 10
68.54239428750932
 20
161.6293256210799
 30
0.0
 10
67.92216956686988
 20
161.6992980595681
 30
0.0
 10
67.60399726403405
 20
161.7378448742932
 30
0.0
 10
67.50837004784393
 20
161.7499182328472
 30
0.0
 10
67.48670481926946
 20
161.7526768585764
 30
0.0
 10
67.4839513178751
 20
161.753020643655
 30
0.0
 10
67.4835696959894
 20
161.7530615153687
 30
0.0
 10
67.48360548989875
 20
161.7530569339128
 30
0.0
 10
67.48363698724444
 20
161.7530529023974
 30
0.0
  0
LINE
  5
E1
330
1F
100
AcDbEntity
  8
0
  6
Continuous
 62
     7
370
    25
100
AcDbLine
 10
188.9643153216
 20
89.8217488793
 30
0.0
 11
188.9643153216
 21
159.8217488703
 31
0.0
  0
SPLINE
  5
E2
330
1F
100
AcDbEntity
  8
0
  6
Continuous
 62
     7
370
    25
100
AcDbSpline
210
0.0
220
0.0
230
1.0
 70
    11
 71
     3
 72
    95
 73
    91
 74
     0
 42
0.000000001
 43
0.00000001
 40
0.0
 40
0.0
 40
0.0
 40
0.0
 40
0.0312499999999995
 40
0.0312499999999995
 40
0.0468749999999996
 40
0.0468749999999996
 40
0.0624999999999998
 40
0.0624999999999998
 40
0.0937500000000001
 40
0.0937500000000001
 40
0.1250000000000004
 40
0.1250000000000004
 40
0.1562500000000008
 40
0.1562500000000008
 40
0.1718750000000009
 40
0.1718750000000009
 40
0.1875000000000011
 40
0.1875000000000011
 40
0.2187500000000015
 40
0.2187500000000015
 40
0.2500000000000018
 40
0.2500000000000018
 40
0.2656250000000019
 40
0.2656250000000019
 40
0.2812500000000021
 40
0.2812500000000021
 40
0.3125000000000024
 40
0.3125000000000024
 40
0.3281250000000026
 40
0.3281250000000026
 40
0.3437500000000027
 40
0.3437500000000027
 40
0.3593750000000029
 40
0.3593750000000029
 40
0.3750000000000031
 40
0.3750000000000031
 40
0.4062500000000041
 40
0.4062500000000041
 40
0.437500000000005
 40
0.437500000000005
 40
0.4687500000000059
 40
0.4687500000000059
 40
0.484375000000006
 40
0.484375000000006
 40
0.500000000000006
 40
0.500000000000006
 40
0.5312500000000052
 40
0.5312500000000052
 40
0.5468750000000044
 40
0.5468750000000044
 40
0.5625000000000036
 40
0.5781250000000028
 40
0.5781250000000028
 40
0.5937500000000019
 40
0.5937500000000019
 40
0.6250000000000009
 40
0.6250000000000009
 40
0.6406250000000008
 40
0.6406250000000008
 40
0.6562500000000006
 40
0.6562500000000006
 40
0.6874999999999997
 40
0.6874999999999997
 40
0.7031249999999994
 40
0.7031249999999994
 40
0.7187499999999991
 40
0.7187499999999991
 40
0.7499999999999986
 40
0.7499999999999986
 40
0.7812499999999981
 40
0.7812499999999981
 40
0.7968749999999979
 40
0.7968749999999979
 40
0.8124999999999978
 40
0.8124999999999978
 40
0.8437499999999977
 40
0.8437499999999977
 40
0.8593749999999976
 40
0.8593749999999976
 40
0.8749999999999976
 40
0.8749999999999976
 40
0.9062499999999976
 40
0.9062499999999976
 40
0.9374999999999976
 40
0.9374999999999976
 40
0.9531249999999979
 40
0.9531249999999979
 40
0.9687499999999983
 40
0.9687499999999983
 40
1.0
 40
1.0
 40
1.0
 40
1.0
 10
176.6643153215972
 20
132.2408623516491
 30
0.0
 10
176.1639328568002
 20
132.2408623516491
 30
0.0
 10
175.6715562003037
 20
132.1946623412421
 30
0.0
 10
174.944532345419
 20
132.0586007275463
 30
0.0
 10
174.7041283209828
 20
132.0020374405667
 30
0.0
 10
174.2272808115503
 20
131.8659279522137
 30
0.0
 10
173.9897338174975
 20
131.7858712846311
 30
0.0
 10
173.296801156973
 20
131.5150594301032
 30
0.0
 10
172.8578422707136
 20
131.2935471230219
 30
0.0
 10
172.0255501787763
 20
130.7684085748165
 30
0.0
 10
171.6288711495921
 20
130.4608070168177
 30
0.0
 10
170.9142901307454
 20
129.7834687533432
 30
0.0
 10
170.5930527683767
 20
129.41278798603
 30
0.0
 10
170.1664994279298
 20
128.8070867480439
 30
0.0
 10
170.0329211302504
 20
128.5955211066389
 30
0.0
 10
169.7899380125222
 20
128.1632198530408
 30
0.0
 10
169.6801967748416
 20
127.9423133419728
 30
0.0
 10
169.3855446204201
 20
127.2655377049806
 30
0.0
 10
169.2348353325525
 20
126.7957599779518
 30
0.0
 10
169.0298059331788
 20
125.8167523663304
 30
0.0
 10
168.9790963308623
 20
125.3240530485542
 30
0.0
 10
168.9782246897353
 20
124.5833759140246
 30
0.0
 10
168.9905298694317
 20
124.3360404697015
 30
0.0
 10
169.0409973948248
 20
123.840460536708
 30
0.0
 10
169.0793504573451
 20
123.5923332902364
 30
0.0
 10
169.2305264124461
 20
122.8641515216057
 30
0.0
 10
169.3795334860565
 20
122.3941462775852
 30
0.0
 10
169.6749761639626
 20
121.7120346106176
 30
0.0
 10
169.7862184306297
 20
121.4874743089633
 30
0.0
 10
170.028579298086
 20
121.0551415582038
 30
0.0
 10
170.159931913413
 20
120.8465137809055
 30
0.0
 10
170.4424325812419
 20
120.4438520246819
 30
0.0
 10
170.5935821218165
 20
120.2498192714967
 30
0.0
 10
170.9157270391077
 20
119.8763020512426
 30
0.0
 10
171.0875601455716
 20
119.6960426817704
 30
0.0
 10
171.6276813051406
 20
119.1833205716898
 30
0.0
 10
172.0163182313437
 20
118.8817597745966
 30
0.0
 10
172.8484471499877
 20
118.3550515910377
 30
0.0
 10
173.2968090459634
 20
118.1285575753104
 30
0.0
 10
174.2173366019952
 20
117.7685528993188
 30
0.0
 10
174.6911878858704
 20
117.6328448727476
 30
0.0
 10
175.4223291635625
 20
117.495217315658
 30
0.0
 10
175.6707871663352
 20
117.4603328989111
 30
0.0
 10
176.1663846479525
 20
117.4141939763664
 30
0.0
 10
176.4137264191998
 20
117.4027495280186
 30
0.0
 10
177.1544146613665
 20
117.402409723252
 30
0.0
 10
177.6464365113734
 20
117.4471773111414
 30
0.0
 10
178.3817232386527
 20
117.584288755187
 30
0.0
 10
178.6249481776806
 20
117.6415930200359
 30
0.0
 10
179.1005814032736
 20
117.7773450342508
 30
0.0
 10
179.5675759147183
 20
117.9346242918923
 30
0.0
 10
180.0174522546549
 20
118.1347258660016
 30
0.0
 10
180.4586079411928
 20
118.3567456471727
 30
0.0
 10
180.6759000409631
 20
118.479414843614
 30
0.0
 10
181.305824968111
 20
118.8767251014116
 30
0.0
 10
181.6939240824764
 20
119.1779550165929
 30
0.0
 10
182.2290984966987
 20
119.6840542335772
 30
0.0
 10
182.3996062324044
 20
119.8618593489196
 30
0.0
 10
182.7242922445033
 20
120.2364422643543
 30
0.0
 10
182.8781794562138
 20
120.4331707153671
 30
0.0
 10
183.3044257846403
 20
121.0385314951926
 30
0.0
 10
183.5456331555794
 20
121.4664655848968
 30
0.0
 10
183.8422607371792
 20
122.1456952493785
 30
0.0
 10
183.9305991323979
 20
122.3797179166138
 30
0.0
 10
184.0821414310188
 20
122.8541513395257
 30
0.0
 10
184.1451913354562
 20
123.0935302261593
 30
0.0
 10
184.2971516884254
 20
123.8180052207983
 30
0.0
 10
184.3492641847285
 20
124.3093750533525
 30
0.0
 10
184.3509559451952
 20
125.3096345102132
 30
0.0
 10
184.3001840670938
 20
125.8036217258504
 30
0.0
 10
184.1503587245644
 20
126.5287978902143
 30
0.0
 10
184.0880417257214
 20
126.7682681015742
 30
0.0
 10
183.9381216314819
 20
127.2426131048064
 30
0.0
 10
183.8503532273937
 20
127.4773645467856
 30
0.0
 10
183.55520814482
 20
128.1586833970515
 30
0.0
 10
183.3147170763268
 20
128.5881406338906
 30
0.0
 10
182.8890531857348
 20
129.1959278146644
 30
0.0
 10
182.7353985528036
 20
129.3932925492427
 30
0.0
 10
182.4120438979087
 20
129.7681725662854
 30
0.0
 10
182.2420009759157
 20
129.9463962707009
 30
0.0
 10
181.7074652920198
 20
130.4543387363051
 30
0.0
 10
181.3172385862187
 20
130.7585552610303
 30
0.0
 10
180.4766789496941
 20
131.290728939388
 30
0.0
 10
180.0366546635885
 20
131.5126018236332
 30
0.0
 10
179.3482369307457
 20
131.7824996434756
 30
0.0
 10
179.1139996751228
 20
131.8619010595925
 30
0.0
 10
178.6357935905517
 20
131.9992103542783
 30
0.0
 10
178.3919502730523
 20
132.0569372107942
 30
0.0
 10
177.6592466286441
 20
132.1946368633693
 30
0.0
 10
177.1646977863942
 20
132.2408623516491
 30
0.0
 10
176.6643153215972
 20
132.2408623516491
 30
0.0
  0
SPLINE
  5
E3
330
1F
100
AcDbEntity
  8
0
  6
Continuous
 62
     7
370
    25
100
AcDbSpline
210
0.0
220
0.0
230
1.0
 70
    11
 71
     3
 72
    68
 73
    64
 74
     0
 42
0.000000001
 43
0.00000001
 40
0.0
 40
0.0
 40
0.0
 40
0.0
 40
0.0312500000000008
 40
0.0312500000000008
 40
0.0625000000000015
 40
0.0625000000000015
 40
0.0937500000000023
 40
0.0937500000000023
 40
0.1250000000000031
 40
0.1250000000000031
 40
0.1562500000000038
 40
0.1562500000000038
 40
0.1875000000000046
 40
0.1875000000000046
 40
0.2187500000000053
 40
0.2187500000000053
 40
0.2500000000000061
 40
0.2500000000000061
 40
0.2812500000000069
 40
0.2812500000000069
 40
0.3125000000000077
 40
0.3125000000000077
 40
0.3437500000000084
 40
0.3437500000000084
 40
0.3750000000000092
 40
0.3750000000000092
 40
0.4062500000000099
 40
0.4062500000000099
 40
0.4375000000000107
 40
0.4375000000000107
 40
0.4687500000000114
 40
0.4687500000000114
 40
0.5000000000000122
 40
0.5000000000000122
 40
0.531250000000013
 40
0.531250000000013
 40
0.5625000000000138
 40
0.5625000000000138
 40
0.6250000000000134
 40
0.6250000000000134
 40
0.6562500000000123
 40
0.6562500000000123
 40
0.6875000000000112
 40
0.6875000000000112
 40
0.7187500000000101
 40
0.7187500000000101
 40
0.750000000000009
 40
0.750000000000009
 40
0.7812500000000079
 40
0.7812500000000079
 40
0.8125000000000068
 40
0.8125000000000068
 40
0.8437500000000057
 40
0.8437500000000057
 40
0.8750000000000044
 40
0.8750000000000044
 40
0.9062500000000033
 40
0.9062500000000033
 40
0.9375000000000022
 40
0.9375000000000022
 40
0.9687500000000011
 40
0.9687500000000011
 40
1.0
 40
1.0
 40
1.0
 40
1.0
 10
155.2382457049345
 20
151.7118852762462
 30
0.0
 10
155.3879989611685
 20
151.8216823824032
 30
0.0
 10
155.5515494195662
 20
151.9189348341601
 30
0.0
 10
155.9040091425101
 20
152.0911751358055
 30
0.0
 10
156.0948764315739
 20
152.1667027124208
 30
0.0
 10
156.4928285647367
 20
152.2925222626459
 30
0.0
 10
156.6985603051015
 20
152.3427271152864
 30
0.0
 10
157.1230621974311
 20
152.4191539621996
 30
0.0
 10
157.3436052372299
 20
152.44530826494
 30
0.0
 10
157.7823619537048
 20
152.4718534453735
 30
0.0
 10
158.0020404284117
 20
152.4726962156264
 30
0.0
 10
158.4420004665471
 20
152.4494134581911
 30
0.0
 10
158.6627942944734
 20
152.4249065374864
 30
0.0
 10
159.0876260513465
 20
152.3519613125426
 30
0.0
 10
159.2939089966862
 20
152.303512879237
 30
0.0
 10
159.693730640549
 20
152.1811911124981
 30
0.0
 10
159.8863568202512
 20
152.1072032984198
 30
0.0
 10
160.2417573771722
 20
151.9383642978053
 30
0.0
 10
160.406748582749
 20
151.8429294089342
 30
0.0
 10
160.7093974551299
 20
151.6275234601492
 30
0.0
 10
160.844308838608
 20
151.5090597654551
 30
0.0
 10
161.0731294465699
 20
151.2564214857343
 30
0.0
 10
161.1688109643003
 20
151.1205823850101
 30
0.0
 10
161.316351838877
 20
150.8319939507203
 30
0.0
 10
161.3662907578052
 20
150.6834732464856
 30
0.0
 10
161.4190410242965
 20
150.3777221616368
 30
0.0
 10
161.4212388839915
 20
150.2185711254224
 30
0.0
 10
161.3765748083334
 20
149.9055854257542
 30
0.0
 10
161.3304834140541
 20
149.7506505749622
 30
0.0
 10
161.1906442101436
 20
149.4442252773146
 30
0.0
 10
161.0982705570648
 20
149.2963705671953
 30
0.0
 10
160.8747656560312
 20
149.0164484106852
 30
0.0
 10
160.7414601095947
 20
148.8822472152249
 30
0.0
 10
160.4449295663956
 20
148.6374033657568
 30
0.0
 10
160.281785890608
 20
148.5261194936019
 30
0.0
 10
159.9267392701052
 20
148.3257933822478
 30
0.0
 10
159.7358356685791
 20
148.2377251949176
 30
0.0
 10
159.1425831310105
 20
148.016916381058
 30
0.0
 10
158.7072643058154
 20
147.9236836685784
 30
0.0
 10
158.0505233365457
 20
147.8755656645256
 30
0.0
 10
157.8274747228827
 20
147.8743612073336
 30
0.0
 10
157.385820982178
 20
147.9023634504202
 30
0.0
 10
157.1691980806176
 20
147.931154069209
 30
0.0
 10
156.744252675276
 20
148.0177061234495
 30
0.0
 10
156.5338170115025
 20
148.0763080671955
 30
0.0
 10
156.1341420863196
 20
148.2201414361014
 30
0.0
 10
155.9450463059296
 20
148.3048699033489
 30
0.0
 10
155.5887306600883
 20
148.4997950359638
 30
0.0
 10
155.419924955611
 20
148.6114930190675
 30
0.0
 10
155.1192237372955
 20
148.8526033206678
 30
0.0
 10
154.9860620604245
 20
148.9822464618528
 30
0.0
 10
154.7557382176432
 20
149.2598426817037
 30
0.0
 10
154.6587770386617
 20
149.4087064507713
 30
0.0
 10
154.5130569953748
 20
149.7101834178604
 30
0.0
 10
154.4625705134431
 20
149.8644919562142
 30
0.0
 10
154.4092316277838
 20
150.1803583655588
 30
0.0
 10
154.4074169162791
 20
150.3372472256096
 30
0.0
 10
154.4518932953191
 20
150.6444018599703
 30
0.0
 10
154.499156116341
 20
150.7971749808151
 30
0.0
 10
154.6384368215984
 20
151.0859382535675
 30
0.0
 10
154.729885340666
 20
151.2226111639386
 30
0.0
 10
154.9554143994242
 20
151.4814947100023
 30
0.0
 10
155.0884924487006
 20
151.6020881700892
 30
0.0
 10
155.2382457049345
 20
151.7118852762462
 30
0.0
  0
SPLINE
  5
E4
330
1F
100
AcDbEntity
  8
0
  6
Continuous
 62
     7
370
    25
100
AcDbSpline
210
0.0
220
0.0
230
1.0
 70
    11
 71
     3
 72
    66
 73
    62
 74
     0
 42
0.000000001
 43
0.00000001
 40
0.0
 40
0.0
 40
0.0
 40
0.0
 40
0.0312499999999996
 40
0.0312499999999996
 40
0.0624999999999993
 40
0.0624999999999993
 40
0.1249999999999991
 40
0.1249999999999991
 40
0.1562499999999992
 40
0.1562499999999992
 40
0.1874999999999992
 40
0.1874999999999992
 40
0.2187499999999993
 40
0.2187499999999993
 40
0.2499999999999993
 40
0.2499999999999993
 40
0.2812499999999994
 40
0.2812499999999994
 40
0.3124999999999995
 40
0.3124999999999995
 40
0.3437499999999996
 40
0.3437499999999996
 40
0.3749999999999996
 40
0.3749999999999996
 40
0.4062499999999997
 40
0.4062499999999997
 40
0.4374999999999998
 40
0.4374999999999998
 40
0.4687499999999999
 40
0.4687499999999999
 40
0.4999999999999999
 40
0.4999999999999999
 40
0.53125
 40
0.53125
 40
0.5625
 40
0.5625
 40
0.5937500000000001
 40
0.5937500000000001
 40
0.6250000000000002
 40
0.6250000000000002
 40
0.6562500000000002
 40
0.6562500000000002
 40
0.6875000000000003
 40
0.6875000000000003
 40
0.7187500000000004
 40
0.7187500000000004
 40
0.7500000000000004
 40
0.7500000000000004
 40
0.7812500000000006
 40
0.7812500000000006
 40
0.8125000000000007
 40
0.8125000000000007
 40
0.8437500000000008
 40
0.8437500000000008
 40
0.8750000000000008
 40
0.8750000000000008
 40
0.9062500000000009
 40
0.9062500000000009
 40
0.937500000000001
 40
0.937500000000001
 40
1.0
 40
1.0
 40
1.0
 40
1.0
 10
154.4249896820118
 20
99.54521460342752
 30
0.0
 10
154.443799336593
 20
99.70351559751592
 30
0.0
 10
154.4868066785848
 20
99.858990433105
 30
0.0
 10
154.6187449406494
 20
100.1642879351603
 30
0.0
 10
154.7088086692466
 20
100.3148477331035
 30
0.0
 10
155.0352587317583
 20
100.7379799150903
 30
0.0
 10
155.3351642521245
 20
100.9917550156958
 30
0.0
 10
155.8588000351971
 20
101.2959835450227
 30
0.0
 10
156.0486661541759
 20
101.3864930247145
 30
0.0
 10
156.4425832689146
 20
101.5382361183388
 30
0.0
 10
156.647065407134
 20
101.6001099890905
 30
0.0
 10
157.070759210268
 20
101.6959795528543
 30
0.0
 10
157.290352277006
 20
101.729643205549
 30
0.0
 10
157.7276850651313
 20
101.7662648860377
 30
0.0
 10
157.9474941918795
 20
101.7697922805009
 30
0.0
 10
158.3894428292251
 20
101.7466709215756
 30
0.0
 10
158.6095783634085
 20
101.7198339937602
 30
0.0
 10
159.0354864615886
 20
101.6378592898873
 30
0.0
 10
159.2431829749923
 20
101.5826606589968
 30
0.0
 10
159.6474767345034
 20
101.4427059968908
 30
0.0
 10
159.8401135829616
 20
101.3591121875469
 30
0.0
 10
160.1991880034289
 20
101.1685759825519
 30
0.0
 10
160.3669334962164
 20
101.0611811521582
 30
0.0
 10
160.676164099194
 20
100.8209255115673
 30
0.0
 10
160.8122383745505
 20
100.6922778868536
 30
0.0
 10
161.0474081779464
 20
100.4187112575381
 30
0.0
 10
161.1473761215596
 20
100.2719964789032
 30
0.0
 10
161.3014376739895
 20
99.96983959470877
 30
0.0
 10
161.3552625584674
 20
99.81616844846704
 30
0.0
 10
161.4160250486777
 20
99.50395444553058
 30
0.0
 10
161.4222419989973
 20
99.34434374715414
 30
0.0
 10
161.3856160383328
 20
99.03616623349491
 30
0.0
 10
161.3433645245901
 20
98.8853877755575
 30
0.0
 10
161.2106233146253
 20
98.59193772958002
 30
0.0
 10
161.1224018144888
 20
98.4540324887359
 30
0.0
 10
160.905217784274
 20
98.194088395502
 30
0.0
 10
160.7747364921194
 20
98.07129759753393
 30
0.0
 10
160.484117075685
 20
97.850237934265
 30
0.0
 10
160.3233007114294
 20
97.75070210838425
 30
0.0
 10
159.9712511756947
 20
97.57237954128101
 30
0.0
 10
159.7833620161645
 20
97.4954573667317
 30
0.0
 10
159.3908429090401
 20
97.36609727632656
 30
0.0
 10
159.1835957305287
 20
97.31293117790973
 30
0.0
 10
158.7584822893604
 20
97.23190676607376
 30
0.0
 10
158.5427354685812
 20
97.20420296272161
 30
0.0
 10
158.1050675359212
 20
97.17327171323288
 30
0.0
 10
157.8809581720114
 20
97.17023826990167
 30
0.0
 10
157.4403669155414
 20
97.18943266169414
 30
0.0
 10
157.2233696098603
 20
97.21133895698372
 30
0.0
 10
156.7959875897707
 20
97.28008160272107
 30
0.0
 10
156.583919462421
 20
97.32759670903502
 30
0.0
 10
156.1827509032536
 20
97.44558054156998
 30
0.0
 10
155.9919760105078
 20
97.51608951461958
 30
0.0
 10
155.6307391314964
 20
97.6816732507855
 30
0.0
 10
155.4597094894539
 20
97.77758713174562
 30
0.0
 10
155.1546360698118
 20
97.98768666120037
 30
0.0
 10
155.0184333291846
 20
98.10263637352975
 30
0.0
 10
154.7809021587005
 20
98.35449287226294
 30
0.0
 10
154.6810400603457
 20
98.49070673500825
 30
0.0
 10
154.4517037324461
 20
98.91447632600756
 30
0.0
 10
154.3873703728493
 20
99.2286126152508
 30
0.0
 10
154.4249896820118
 20
99.54521460342755
 30
0.0
  0
SPLINE
  5
E5
330
1F
100
AcDbEntity
  8
0
  6
Continuous
 62
     7
370
    25
100
AcDbSpline
210
0.0
220
0.0
230
1.0
 70
     8
 71
     3
 72
    20
 73
    16
 74
     0
 42
0.000000001
 43
0.00000001
 40
0.0
 40
0.0
 40
0.0
 40
0.0
 40
0.249999999999986
 40
0.249999999999986
 40
0.3749999999999789
 40
0.3749999999999789
 40
0.4374999999999789
 40
0.4374999999999789
 40
0.4999999999999789
 40
0.4999999999999789
 40
0.6249999999999835
 40
0.6249999999999835
 40
0.7499999999999879
 40
0.7499999999999879
 40
1.0
 40
1.0
 40
1.0
 40
1.0
 10
39.35512955331322
 20
94.14326572663114
 30
0.0
 10
39.38140177052662
 20
94.1625836677136
 30
0.0
 10
39.41208191278146
 20
94.17697237881538
 30
0.0
 10
39.48355278316339
 20
94.17006801697936
 30
0.0
 10
39.51157982020773
 20
94.16290201363095
 30
0.0
 10
39.56666340970523
 20
94.13320298692736
 30
0.0
 10
39.58755473825766
 20
94.11972934436602
 30
0.0
 10
39.63276338570312
 20
94.08453107885
 30
0.0
 10
39.65716759809869
 20
94.06262285012275
 30
0.0
 10
39.72849991615013
 20
93.99049799012721
 30
0.0
 10
39.77039670097041
 20
93.93815744917715
 30
0.0
 10
39.84197265982628
 20
93.8406740572764
 30
0.0
 10
39.87280064964357
 20
93.79392028739798
 30
0.0
 10
39.95590058247915
 20
93.66062707155886
 30
0.0
 10
40.00075548784945
 20
93.57798967364366
 30
0.0
 10
40.04086756330202
 20
93.49888277885287
 30
0.0
  0
SPLINE
  5
E6
330
1F
100
AcDbEntity
  8
0
  6
Continuous
 62
     7
370
    25
100
AcDbSpline
210
0.0
220
0.0
230
1.0
 70
     8
 71
     3
 72
    14
 73
    10
 74
     0
 42
0.000000001
 43
0.00000001
 40
0.0
 40
0.0
 40
0.0
 40
0.0
 40
0.2499999999999994
 40
0.2499999999999994
 40
0.4999999999999988
 40
0.4999999999999988
 40
0.7499999999999982
 40
0.7499999999999982
 40
1.0
 40
1.0
 40
1.0
 40
1.0
 10
39.06431532159721
 20
94.31907913676392
 30
0.0
 10
39.06431532159721
 20
94.27783220573957
 30
0.0
 10
39.07292503797846
 20
94.24092523345709
 30
0.0
 10
39.10401121754881
 20
94.18002517355768
 30
0.0
 10
39.12640077103288
 20
94.15584425401799
 30
0.0
 10
39.18114470220899
 20
94.12187666313473
 30
0.0
 10
39.21359494179418
 20
94.11195657916655
 30
0.0
 10
39.28359645652224
 20
94.1106053702617
 30
0.0
 10
39.32180695664476
 20
94.11876364695785
 30
0.0
 10
39.35512955331787
 20
94.14326572662594
 30
0.0
  0
LINE
  5
E7
330
1F
100
AcDbEntity
  8
0
  6
Continuous
 62
     7
370
    25
100
AcDbLine
 10
39.0643153216
 20
94.3190791368
 30
0.0
 11
39.0643153216
 21
155.3244186219
 31
0.0
  0
SPLINE
  5
E8
330
1F
100
AcDbEntity
  8
0
  6
Continuous
 62
     7
370
    25
100
AcDbSpline
210
0.0
220
0.0
230
1.0
 70
     8
 71
     3
 72
    12
 73
     8
 74
     0
 42
0.000000001
 43
0.00000001
 40
0.0
 40
0.0
 40
0.0
 40
0.0
 40
0.2500000000000004
 40
0.2500000000000004
 40
0.5000000000000008
 40
0.5000000000000008
 40
1.0
 40
1.0
 40
1.0
 40
1.0
 10
39.35512955331696
 20
155.5002320320368
 30
0.0
 10
39.32162815398008
 20
155.5248655851661
 30
0.0
 10
39.28353728601635
 20
155.5328837463297
 30
0.0
 10
39.21373687529969
 20
155.5315514102202
 30
0.0
 10
39.18128427541705
 20
155.5216857448183
 30
0.0
 10
39.09901076469985
 20
155.4707023174752
 30
0.0
 10
39.06431532159721
 20
155.4066331703023
 30
0.0
 10
39.06431532159721
 20
155.3244186218998
 30
0.0
  0
SPLINE
  5
E9
330
1F
100
AcDbEntity
  8
0
  6
Continuous
 62
     7
370
    25
100
AcDbSpline
210
0.0
220
0.0
230
1.0
 70
     8
 71
     3
 72
    20
 73
    16
 74
     0
 42
0.000000001
 43
0.00000001
 40
0.0
 40
0.0
 40
0.0
 40
0.0
 40
0.2500000000000037
 40
0.2500000000000037
 40
0.3750000000000055
 40
0.3750000000000055
 40
0.5000000000000073
 40
0.5000000000000073
 40
0.5625000000000057
 40
0.5625000000000057
 40
0.625000000000004
 40
0.625000000000004
 40
0.7500000000000027
 40
0.7500000000000027
 40
1.0
 40
1.0
 40
1.0
 40
1.0
 10
40.04086756329963
 20
156.14461497981
 30
0.0
 10
40.00087134547581
 20
156.0657365732526
 30
0.0
 10
39.95575771763815
 20
155.982606926561
 30
0.0
 10
39.87250350327162
 20
155.8491182622101
 30
0.0
 10
39.84228417465112
 20
155.8032532063281
 30
0.0
 10
39.7701959395097
 20
155.7050616539232
 30
0.0
 10
39.7282786220986
 20
155.6527518343997
 30
0.0
 10
39.65702801754714
 20
155.5807459316651
 30
0.0
 10
39.63279220516782
 20
155.5589757193636
 30
0.0
 10
39.58719401498318
 20
155.5235010610346
 30
0.0
 10
39.56639152538347
 20
155.510130876857
 30
0.0
 10
39.51145052696434
 20
155.4805609647218
 30
0.0
 10
39.48338153887754
 20
155.4734344424198
 30
0.0
 10
39.4128787088147
 20
155.4665600709371
 30
0.0
 10
39.38145462102383
 20
155.4808752300243
 30
0.0
 10
39.35512955331523
 20
155.5002320320348
 30
0.0
  0
SPLINE
  5
EA
330
1F
100
AcDbEntity
  8
0
  6
Continuous
 62
     7
370
    25
100
AcDbSpline
210
0.0
220
0.0
230
1.0
 70
     8
 71
     3
 72
    10
 73
     6
 74
     0
 42
0.000000001
 43
0.00000001
 40
0.0
 40
0.0
 40
0.0
 40
0.0
 40
0.4999999999999989
 40
0.4999999999999989
 40
1.0
 40
1.0
 40
1.0
 40
1.0
 10
40.71431532159722
 20
157.0700340811518
 30
0.0
 10
40.58942705084702
 20
156.9390378030804
 30
0.0
 10
40.46797693278657
 20
156.7953249664154
 30
0.0
 10
40.23839295782913
 20
156.4847546737261
 30
0.0
 10
40.12811798243315
 20
156.316685600663
 30
0.0
 10
40.04086756329963
 20
156.14461497981
 30
0.0
  0
SPLINE
  5
EB
330
1F
100
AcDbEntity
  8
0
  6
Continuous
 62
     7
370
    25
100
AcDbSpline
210
0.0
220
0.0
230
1.0
 70
     8
 71
     3
 72
     8
 73
     4
 74
     0
 42
0.000000001
 43
0.00000001
 40
0.0
 40
0.0
 40
0.0
 40
0.0
 40
1.0
 40
1.0
 40
1.0
 40
1.0
 10
40.96424043756299
 20
157.0675810478965
 30
0.0
 10
40.8772224077146
 20
157.0680476126835
 30
0.0
 10
40.79426838133465
 20
157.0690876322597
 30
0.0
 10
40.7143153215949
 20
157.0700340811519
 30
0.0
  0
SPLINE
  5
EC
330
1F
100
AcDbEntity
  8
0
  6
Continuous
 62
     7
370
    25
100
AcDbSpline
210
0.0
220
0.0
230
1.0
 70
     8
 71
     3
 72
     8
 73
     4
 74
     0
 42
0.000000001
 43
0.00000001
 40
0.0
 40
0.0
 40
0.0
 40
0.0
 40
1.0
 40
1.0
 40
1.0
 40
1.0
 10
40.7143153215949
 20
92.57346367751177
 30
0.0
 10
40.79426838133467
 20
92.57441012640402
 30
0.0
 10
40.87722240771463
 20
92.57545014598014
 30
0.0
 10
40.964240437563
 20
92.57591671076723
 30
0.0
  0
SPLINE
  5
ED
330
1F
100
AcDbEntity
  8
0
  6
Continuous
 62
     7
370
    25
100
AcDbSpline
210
0.0
220
0.0
230
1.0
 70
     8
 71
     3
 72
    10
 73
     6
 74
     0
 42
0.000000001
 43
0.00000001
 40
0.0
 40
0.0
 40
0.0
 40
0.0
 40
0.4999999999999989
 40
0.4999999999999989
 40
1.0
 40
1.0
 40
1.0
 40
1.0
 10
40.0408675632987
 20
93.49888277885545
 30
0.0
 10
40.12811798243218
 20
93.32681215800207
 30
0.0
 10
40.23839295782835
 20
93.15874308493862
 30
0.0
 10
40.46797693278617
 20
92.84817279224883
 30
0.0
 10
40.58942705084681
 20
92.70445995558354
 30
0.0
 10
40.71431532159722
 20
92.57346367751185
 30
0.0
  0
SPLINE
  5
EE
330
1F
100
AcDbEntity
  8
0
  6
Continuous
 62
     7
370
    25
100
AcDbSpline
210
0.0
220
0.0
230
1.0
 70
     8
 71
     3
 72
    12
 73
     8
 74
     0
 42
0.000000001
 43
0.00000001
 40
0.0
 40
0.0
 40
0.0
 40
0.0
 40
0.5
 40
0.5
 40
0.75
 40
0.75
 40
1.0
 40
1.0
 40
1.0
 40
1.0
 10
117.9143153215972
 20
172.7904887001777
 30
0.0
 10
117.9143153215972
 20
173.0557581329441
 30
0.0
 10
117.8097085781107
 20
173.3182732385965
 30
0.0
 10
117.5330402263655
 20
173.6038108446338
 30
0.0
 10
117.4226749670134
 20
173.6801324614952
 30
0.0
 10
117.1786029183977
 20
173.7844746263353
 30
0.0
 10
117.046850457066
 20
173.8115437349954
 30
0.0
 10
116.9143153215972
 20
173.8115437349954
 30
0.0
  0
SPLINE
  5
EF
330
1F
100
AcDbEntity
  8
0
  6
Continuous
 62
     7
370
    25
100
AcDbSpline
210
0.0
220
0.0
230
1.0
 70
     8
 71
     3
 72
    16
 73
    12
 74
     0
 42
0.000000001
 43
0.00000001
 40
0.0
 40
0.0
 40
0.0
 40
0.0
 40
0.125
 40
0.125
 40
0.25
 40
0.25
 40
0.5
 40
0.5
 40
0.75
 40
0.75
 40
1.0
 40
1.0
 40
1.0
 40
1.0
 10
116.9143153215962
 20
163.7727116402188
 30
0.0
 10
116.9899530280075
 20
163.7727116402189
 30
0.0
 10
117.0662686924257
 20
163.761366640084
 30
0.0
 10
117.2106794303178
 20
163.7187140894456
 30
0.0
 10
117.2791258794263
 20
163.6877797647628
 30
0.0
 10
117.4740571320396
 20
163.5685233929953
 30
0.0
 10
117.5818983058206
 20
163.4583713793747
 30
0.0
 10
117.7506110540329
 20
163.2102352937166
 30
0.0
 10
117.8129754667565
 20
163.0698929697129
 30
0.0
 10
117.894279391265
 20
162.7816212782241
 30
0.0
 10
117.9143153215972
 20
162.6308163052442
 30
0.0
 10
117.9143153215972
 20
162.4804464138988
 30
0.0
  0
LINE
  5
F0
330
1F
100
AcDbEntity
  8
0
  6
Continuous
 62
     7
370
    25
100
AcDbLine
 10
117.9143153216
 20
162.4804464139
 30
0.0
 11
117.9143153216
 21
172.7904887002
 31
0.0
  0
SPLINE
  5
F1
330
1F
100
AcDbEntity
  8
0
  6
Continuous
 62
     7
370
    25
100
AcDbSpline
210
0.0
220
0.0
230
1.0
 70
     8
 71
     3
 72
    14
 73
    10
 74
     0
 42
0.000000001
 43
0.00000001
 40
0.0
 40
0.0
 40
0.0
 40
0.0
 40
0.25
 40
0.25
 40
0.5
 40
0.5
 40
0.75
 40
0.75
 40
1.0
 40
1.0
 40
1.0
 40
1.0
 10
110.8743153215972
 20
170.5153001201798
 30
0.0
 10
110.8743153215972
 20
170.4089434264275
 30
0.0
 10
110.853927765456
 20
170.3031029386673
 30
0.0
 10
110.7752934199944
 20
170.1065380251308
 30
0.0
 10
110.7165620603557
 20
170.0153672828437
 30
0.0
 10
110.5699531547531
 20
169.8634561938121
 30
0.0
 10
110.4805478347266
 20
169.8013873569925
 30
0.0
 10
110.2866571021262
 20
169.7181193092338
 30
0.0
 10
110.1801521122363
 20
169.6960246395042
 30
0.0
 10
110.0743153215969
 20
169.6960246395043
 30
0.0
  0
SPLINE
  5
F2
330
1F
100
AcDbEntity
  8
0
  6
Continuous
 62
     7
370
    25
100
AcDbSpline
210
0.0
220
0.0
230
1.0
 70
     8
 71
     3
 72
    12
 73
     8
 74
     0
 42
0.000000001
 43
0.00000001
 40
0.0
 40
0.0
 40
0.0
 40
0.0
 40
0.250000000000002
 40
0.250000000000002
 40
0.500000000000004
 40
0.500000000000004
 40
1.0
 40
1.0
 40
1.0
 40
1.0
 10
110.0743153215993
 20
158.4502802924043
 30
0.0
 10
110.1980162715791
 20
158.4502802924048
 30
0.0
 10
110.322112883849
 20
158.4922739041376
 30
0.0
 10
110.5287680469354
 20
158.6300692307822
 30
0.0
 10
110.613808813662
 20
158.7240428292471
 30
0.0
 10
110.8132873821351
 20
159.0388310354678
 30
0.0
 10
110.8743153215972
 20
159.289070027695
 30
0.0
 10
110.8743153215972
 20
159.5359840718289
 30
0.0
  0
SPLINE
  5
F3
330
1F
100
AcDbEntity
  8
0
  6
Continuous
 62
     7
370
    25
100
AcDbSpline
210
0.0
220
0.0
230
1.0
 70
     8
 71
     3
 72
     8
 73
     4
 74
     0
 42
0.000000001
 43
0.00000001
 40
0.0
 40
0.0
 40
0.0
 40
0.0
 40
1.0
 40
1.0
 40
1.0
 40
1.0
 10
112.2263443425186
 20
173.8115437349954
 30
0.0
 10
111.7753173738054
 20
173.0142331648075
 30
0.0
 10
111.3246235572818
 20
172.2167348651504
 30
0.0
 10
110.8743153215972
 20
171.4190197400367
 30
0.0
  0
LINE
  5
F4
330
1F
100
AcDbEntity
  8
0
  6
Continuous
 62
     7
370
    25
100
AcDbLine
 10
112.2263443425
 20
163.7727116402
 30
0.0
 11
112.2263443425
 21
173.811543735
 31
0.0
  0
SPLINE
  5
F5
330
1F
100
AcDbEntity
  8
0
  6
Continuous
 62
     7
370
    25
100
AcDbSpline
210
0.0
220
0.0
230
1.0
 70
     8
 71
     3
 72
     8
 73
     4
 74
     0
 42
0.000000001
 43
0.00000001
 40
0.0
 40
0.0
 40
0.0
 40
0.0
 40
1.0
 40
1.0
 40
1.0
 40
1.0
 10
110.8743153215972
 20
160.7171963854697
 30
0.0
 10
111.3184653326227
 20
161.7385796164214
 30
0.0
 10
111.7695396428806
 20
162.7570641531897
 30
0.0
 10
112.2263443425186
 20
163.7727116402188
 30
0.0
  0
LINE
  5
F6
330
1F
100
AcDbEntity
  8
0
  6
Continuous
 62
     7
370
    25
100
AcDbLine
 10
110.8743153216
 20
160.7171963855
 30
0.0
 11
110.8743153216
 21
171.41901974
 31
0.0
  0
SPLINE
  5
F7
330
1F
100
AcDbEntity
  8
0
  6
Continuous
 62
     7
370
    25
100
AcDbSpline
210
0.0
220
0.0
230
1.0
 70
     8
 71
     3
 72
    10
 73
     6
 74
     0
 42
0.000000001
 43
0.00000001
 40
0.0
 40
0.0
 40
0.0
 40
0.0
 40
0.5
 40
0.5
 40
1.0
 40
1.0
 40
1.0
 40
1.0
 10
107.8543153215972
 20
169.6960246395043
 30
0.0
 10
107.6417790077409
 20
169.6960246395043
 30
0.0
 10
107.4318428360869
 20
169.7874372261345
 30
0.0
 10
107.1381356950756
 20
170.0921820920387
 30
0.0
 10
107.0543153215972
 20
170.3043370619473
 30
0.0
 10
107.0543153215972
 20
170.5153001201798
 30
0.0
  0
SPLINE
  5
F8
330
1F
100
AcDbEntity
  8
0
  6
Continuous
 62
     7
370
    25
100
AcDbSpline
210
0.0
220
0.0
230
1.0
 70
     8
 71
     3
 72
    14
 73
    10
 74
     0
 42
0.000000001
 43
0.00000001
 40
0.0
 40
0.0
 40
0.0
 40
0.0
 40
0.25
 40
0.25
 40
0.5
 40
0.5
 40
0.75
 40
0.75
 40
1.0
 40
1.0
 40
1.0
 40
1.0
 10
107.0543153215972
 20
159.5359840718289
 30
0.0
 10
107.0543153215972
 20
159.4121171950397
 30
0.0
 10
107.0701744492248
 20
159.2878575182022
 30
0.0
 10
107.1335360947447
 20
159.0502491557963
 30
0.0
 10
107.182125802794
 20
158.9334687710438
 30
0.0
 10
107.3144114075689
 20
158.7246662424348
 30
0.0
 10
107.3997361988295
 20
158.6301555388422
 30
0.0
 10
107.6066274471357
 20
158.4921987380399
 30
0.0
 10
107.7305953930257
 20
158.4502802924043
 30
0.0
 10
107.8543153215972
 20
158.4502802924043
 30
0.0
  0
SPLINE
  5
F9
330
1F
100
AcDbEntity
  8
0
  6
Continuous
 62
     7
370
    25
100
AcDbSpline
210
0.0
220
0.0
230
1.0
 70
     8
 71
     3
 72
     8
 73
     4
 74
     0
 42
0.000000001
 43
0.00000001
 40
0.0
 40
0.0
 40
0.0
 40
0.0
 40
1.0
 40
1.0
 40
1.0
 40
1.0
 10
107.0543153215972
 20
171.4190197400367
 30
0.0
 10
106.6040070859127
 20
172.2167348651504
 30
0.0
 10
106.1533132693891
 20
173.0142331648075
 30
0.0
 10
105.7022863006758
 20
173.8115437349954
 30
0.0
  0
LINE
  5
FA
330
1F
100
AcDbEntity
  8
0
  6
Continuous
 62
     7
370
    25
100
AcDbLine
 10
107.0543153216
 20
160.7171963855
 30
0.0
 11
107.0543153216
 21
171.41901974
 31
0.0
  0
SPLINE
  5
FB
330
1F
100
AcDbEntity
  8
0
  6
Continuous
 62
     7
370
    25
100
AcDbSpline
210
0.0
220
0.0
230
1.0
 70
     8
 71
     3
 72
     8
 73
     4
 74
     0
 42
0.000000001
 43
0.00000001
 40
0.0
 40
0.0
 40
0.0
 40
0.0
 40
1.0
 40
1.0
 40
1.0
 40
1.0
 10
105.7022863006758
 20
163.7727116402188
 30
0.0
 10
106.1592126544754
 20
162.7567936705445
 30
0.0
 10
106.6104182962784
 20
161.7379978414533
 30
0.0
 10
107.0543153215972
 20
160.7171963854697
 30
0.0
  0
LINE
  5
FC
330
1F
100
AcDbEntity
  8
0
  6
Continuous
 62
     7
370
    25
100
AcDbLine
 10
116.9143153216
 20
173.811543735
 30
0.0
 11
112.2263443425
 21
173.811543735
 31
0.0
  0
LINE
  5
FD
330
1F
100
AcDbEntity
  8
0
  6
Continuous
 62
     7
370
    25
100
AcDbLine
 10
112.2263443425
 20
163.7727116402
 30
0.0
 11
116.9143153216
 21
163.7727116402
 31
0.0
  0
LINE
  5
FE
330
1F
100
AcDbEntity
  8
0
  6
Continuous
 62
     7
370
    25
100
AcDbLine
 10
107.0543153216
 20
160.7171963855
 30
0.0
 11
107.0543153216
 21
159.5359840718
 31
0.0
  0
LINE
  5
FF
330
1F
100
AcDbEntity
  8
0
  6
Continuous
 62
     7
370
    25
100
AcDbLine
 10
107.8543153216
 20
158.4502802924
 30
0.0
 11
110.0743153216
 21
158.4502802924
 31
0.0
  0
LINE
  5
100
330
1F
100
AcDbEntity
  8
0
  6
Continuous
 62
     7
370
    25
100
AcDbLine
 10
110.8743153216
 20
159.5359840718
 30
0.0
 11
110.8743153216
 21
160.7171963855
 31
0.0
  0
LINE
  5
101
330
1F
100
AcDbEntity
  8
0
  6
Continuous
 62
     7
370
    25
100
AcDbLine
 10
117.9143153216
 20
162.4804464139
 30
0.0
 11
117.9143153216
 21
156.1717488793
 31
0.0
  0
LINE
  5
102
330
1F
100
AcDbEntity
  8
0
  6
Continuous
 62
     7
370
    25
100
AcDbLine
 10
110.0743153216
 20
169.6960246395
 30
0.0
 11
107.8543153216
 21
169.6960246395
 31
0.0
  0
LWPOLYLINE
  5
103
330
1F
100
AcDbEntity
  8
0
  6
Continuous
 62
     7
370
    25
100
AcDbPolyline
 90
       21
 70
   128
 43
0.0
 10
157.9143153216
 20
148.1015777586
 10
158.6868578075
 20
148.1880984317
 10
159.3837784523
 20
148.4391912045
 10
159.9368578075
 20
148.8302773671
 10
160.2919566123
 20
149.323074681
 10
160.4143153216
 20
149.8693447116
 10
160.2919566123
 20
150.4156147421
 10
159.9368578075
 20
150.908412056
 10
159.3837784523
 20
151.2994982186
 10
158.6868578075
 20
151.5505909915
 10
157.9143153216
 20
151.6371116645
 10
157.1417728357
 20
151.5505909915
 10
156.4448521909
 20
151.2994982186
 10
155.8917728357
 20
150.908412056
 10
155.5366740309
 20
150.4156147421
 10
155.4143153216
 20
149.8693447116
 10
155.5366740309
 20
149.323074681
 10
155.8917728357
 20
148.8302773671
 10
156.4448521909
 20
148.4391912045
 10
157.1417728357
 20
148.1880984317
 10
157.9143153216
 20
148.1015777586
  0
LWPOLYLINE
  5
104
330
1F
100
AcDbEntity
  8
0
  6
Continuous
 62
     7
370
    25
100
AcDbPolyline
 90
       21
 70
   128
 43
0.0
 10
157.9143153216
 20
98.0063860941
 10
158.6868578075
 20
98.0929067672
 10
159.3837784523
 20
98.34399954
 10
159.9368578075
 20
98.7350857026
 10
160.2919566123
 20
99.2278830165
 10
160.4143153216
 20
99.7741530471
 10
160.2919566123
 20
100.3204230776
 10
159.9368578075
 20
100.8132203915
 10
159.3837784523
 20
101.2043065541
 10
158.6868578075
 20
101.455399327
 10
157.9143153216
 20
101.54192
 10
157.1417728357
 20
101.455399327
 10
156.4448521909
 20
101.2043065541
 10
155.8917728357
 20
100.8132203915
 10
155.5366740309
 20
100.3204230776
 10
155.4143153216
 20
99.7741530471
 10
155.5366740309
 20
99.2278830165
 10
155.8917728357
 20
98.7350857026
 10
156.4448521909
 20
98.34399954
 10
157.1417728357
 20
98.0929067672
 10
157.9143153216
 20
98.0063860941
  0
ARC
  5
105
330
1F
100
AcDbEntity
  8
0
  6
Continuous
 62
     7
370
    25
100
AcDbCircle
 10
97.9649101633
 20
157.5364690282
 30
0.0
 40
11.30419160086875
100
AcDbArc
 50
77.5918150229
 51
102.6218223462
  0
LINE
  5
106
330
1F
100
AcDbEntity
  8
0
  6
Continuous
 62
     7
370
    25
100
AcDbLine
 10
40.7143153216
 20
92.5717488793
 30
0.0
 11
40.7143153216
 21
92.5734636775
 31
0.0
  0
LINE
  5
107
330
1F
100
AcDbEntity
  8
0
  6
Continuous
 62
     7
370
    25
100
AcDbLine
 10
40.7143153216
 20
157.0717488793
 30
0.0
 11
40.7143153216
 21
157.0700340812
 31
0.0
  0
LINE
  5
108
330
1F
100
AcDbEntity
  8
0
  6
Continuous
 62
     7
370
    25
100
AcDbLine
 10
191.4643153216
 20
108.8217488793
 30
0.0
 11
191.4643153216
 21
140.8217488793
 31
0.0
  0
LINE
  5
109
330
1F
100
AcDbEntity
  8
0
  6
Continuous
 62
     7
370
    25
100
AcDbLine
 10
212.9643153216
 20
109.8217488793
 30
0.0
 11
212.9643153216
 21
139.8217488374
 31
0.0
  0
LINE
  5
10A
330
1F
100
AcDbEntity
  8
0
  6
Continuous
 62
     7
370
    25
100
AcDbLine
 10
195.9643153216
 20
146.8532321858
 30
0.0
 11
195.9643153216
 21
158.3217488793
 31
0.0
  0
LINE
  5
10B
330
1F
100
AcDbEntity
  8
0
  6
Continuous
 62
     7
370
    25
100
AcDbLine
 10
195.9643153216
 20
145.3217488793
 30
0.0
 11
195.9643153216
 21
146.8532321858
 31
0.0
  0
LINE
  5
10C
330
1F
100
AcDbEntity
  8
0
  6
Continuous
 62
     7
370
    25
100
AcDbLine
 10
195.9643153216
 20
91.3217488793
 30
0.0
 11
195.9643153216
 21
104.3217488793
 31
0.0
  0
LINE
  5
10D
330
1F
100
AcDbEntity
  8
0
  6
Continuous
 62
     7
370
    25
100
AcDbLine
 10
217.9643153216
 20
136.8217488793
 30
0.0
 11
217.9643153216
 21
112.8217488793
 31
0.0
  0
LINE
  5
10E
330
1F
100
AcDbEntity
  8
0
  6
Continuous
 62
     7
370
    25
100
AcDbLine
 10
233.9643153216
 20
136.0217488793
 30
0.0
 11
233.9643153216
 21
113.6217488793
 31
0.0
  0
LINE
  5
10F
330
1F
100
AcDbEntity
  8
0
  6
HIDDEN
 62
     7
370
    18
100
AcDbLine
 10
217.9643153216
 20
112.8217488793
 30
0.0
 11
217.9643153216
 21
136.8217488793
 31
0.0
  0
LINE
  5
110
330
1F
100
AcDbEntity
  8
0
  6
HIDDEN
 62
     7
370
    18
100
AcDbLine
 10
233.9643153216
 20
113.6217490545
 30
0.0
 11
233.9643153216
 21
136.0217488793
 31
0.0
  0
LINE
  5
111
330
1F
100
AcDbEntity
  8
0
  6
HIDDEN
 62
     7
370
    18
100
AcDbLine
 10
217.9643153216
 20
116.2217488793
 30
0.0
 11
217.9643153216
 21
133.3907672808
 31
0.0
  0
LINE
  5
112
330
1F
100
AcDbEntity
  8
0
  6
HIDDEN
 62
     7
370
    18
100
AcDbLine
 10
233.9643153216
 20
124.8217488793
 30
0.0
 11
233.9643153216
 21
117.7507488793
 31
0.0
  0
LINE
  5
113
330
1F
100
AcDbEntity
  8
0
  6
HIDDEN
 62
     7
370
    18
100
AcDbLine
 10
225.9643153216
 20
124.8217488793
 30
0.0
 11
225.9643153216
 21
121.2862488793
 31
0.0
  0
LINE
  5
114
330
1F
100
AcDbEntity
  8
0
  6
HIDDEN
 62
     7
370
    18
100
AcDbLine
 10
225.9643153216
 20
124.8217488793
 30
0.0
 11
225.9643153216
 21
128.3572488793
 31
0.0
  0
LINE
  5
115
330
1F
100
AcDbEntity
  8
0
  6
HIDDEN
 62
     7
370
    18
100
AcDbLine
 10
225.9643153216
 20
124.8217488793
 30
0.0
 11
233.9643153216
 21
124.8217488793
 31
0.0
  0
LINE
  5
116
330
1F
100
AcDbEntity
  8
0
  6
HIDDEN
 62
     7
370
    18
100
AcDbLine
 10
233.9643153216
 20
124.8217488793
 30
0.0
 11
233.9643153216
 21
131.8927488793
 31
0.0
  0
LINE
  5
117
330
1F
100
AcDbEntity
  8
0
  6
HIDDEN
 62
     7
370
    18
100
AcDbLine
 10
184.0658153216
 20
116.8217488793
 30
0.0
 11
184.0658153216
 21
132.8217488793
 31
0.0
  0
LINE
  5
118
330
1F
100
AcDbEntity
  8
0
  6
HIDDEN
 62
     7
370
    18
100
AcDbLine
 10
182.9643153216
 20
117.9232488793
 30
0.0
 11
182.9643153216
 21
131.7202488793
 31
0.0
  0
LINE
  5
119
330
1F
100
AcDbEntity
  8
0
  6
HIDDEN
 62
     7
370
    18
100
AcDbLine
 10
225.9643153216
 20
128.3572488793
 30
0.0
 11
225.9643153216
 21
131.8927488793
 31
0.0
  0
LINE
  5
11A
330
1F
100
AcDbEntity
  8
0
  6
HIDDEN
 62
     7
370
    18
100
AcDbLine
 10
225.9643153216
 20
121.2862488793
 30
0.0
 11
225.9643153216
 21
128.3572488793
 31
0.0
  0
LINE
  5
11B
330
1F
100
AcDbEntity
  8
0
  6
HIDDEN
 62
     7
370
    18
100
AcDbLine
 10
225.9643153216
 20
117.7507488793
 30
0.0
 11
225.9643153216
 21
121.2862488793
 31
0.0
  0
LINE
  5
11C
330
1F
100
AcDbEntity
  8
0
  6
HIDDEN
 62
     7
370
    18
100
AcDbLine
 10
225.9643153216
 20
121.2862488793
 30
0.0
 11
225.9643153216
 21
117.7507488793
 31
0.0
  0
LINE
  5
11D
330
1F
100
AcDbEntity
  8
0
  6
HIDDEN
 62
     7
370
    18
100
AcDbLine
 10
225.9643153216
 20
131.8927488793
 30
0.0
 11
225.9643153216
 21
128.3572488793
 31
0.0
  0
LINE
  5
11E
330
1F
100
AcDbEntity
  8
0
  6
HIDDEN
 62
     7
370
    18
100
AcDbLine
 10
225.9643153216
 20
128.3572488793
 30
0.0
 11
225.9643153216
 21
121.2862488793
 31
0.0
  0
LINE
  5
11F
330
1F
100
AcDbEntity
  8
0
  6
HIDDEN
 62
     7
370
    18
100
AcDbLine
 10
225.9643153216
 20
121.2862488793
 30
0.0
 11
225.9643153216
 21
117.7507488793
 31
0.0
  0
LINE
  5
120
330
1F
100
AcDbEntity
  8
0
  6
HIDDEN
 62
     7
370
    18
100
AcDbLine
 10
225.9643153216
 20
128.3572488793
 30
0.0
 11
225.9643153216
 21
131.8927488793
 31
0.0
  0
LINE
  5
121
330
1F
100
AcDbEntity
  8
0
  6
HIDDEN
 62
     7
370
    18
100
AcDbLine
 10
225.9643153216
 20
117.7507488793
 30
0.0
 11
233.9643153216
 21
117.7507488793
 31
0.0
  0
LINE
  5
122
330
1F
100
AcDbEntity
  8
0
  6
HIDDEN
 62
     7
370
    18
100
AcDbLine
 10
225.9643153216
 20
131.8927488793
 30
0.0
 11
233.9643153216
 21
131.8927488793
 31
0.0
  0
LINE
  5
123
330
1F
100
AcDbEntity
  8
0
  6
HIDDEN
 62
     7
370
    18
100
AcDbLine
 10
212.9643153216
 20
132.8217488793
 30
0.0
 11
184.0658153216
 21
132.8217488793
 31
0.0
  0
LINE
  5
124
330
1F
100
AcDbEntity
  8
0
  6
HIDDEN
 62
     7
370
    18
100
AcDbLine
 10
184.0658153216
 20
116.8217488793
 30
0.0
 11
212.9643153216
 21
116.8217488793
 31
0.0
  0
LINE
  5
125
330
1F
100
AcDbEntity
  8
0
  6
HIDDEN
 62
     7
370
    18
100
AcDbLine
 10
184.0658153216
 20
132.8217488793
 30
0.0
 11
182.9643153216
 21
131.7202488793
 31
0.0
  0
LINE
  5
126
330
1F
100
AcDbEntity
  8
0
  6
HIDDEN
 62
     7
370
    18
100
AcDbLine
 10
182.9643153216
 20
117.9232488793
 30
0.0
 11
184.0658153216
 21
116.8217488793
 31
0.0
  0
LINE
  5
127
330
1F
100
AcDbEntity
  8
0
  6
HIDDEN
 62
     7
370
    18
100
AcDbLine
 10
225.9643153216
 20
131.8927488793
 30
0.0
 11
221.8818715682
 21
124.8217488793
 31
0.0
  0
LINE
  5
128
330
1F
100
AcDbEntity
  8
0
  6
HIDDEN
 62
     7
370
    18
100
AcDbLine
 10
221.8818715682
 20
124.8217488793
 30
0.0
 11
225.9643153216
 21
117.7507488793
 31
0.0
  0
DIMENSION
  5
129
330
1F
100
AcDbEntity
  8
VERMASSUNG
100
AcDbDimension
  2
_D
 10
272.3659904502
 20
84.7046087563
 30
0.0
 11
272.3659904502
 21
124.8217488793
 31
0.0
 70
   160
  1
%%c<>
 71
     2
 42
-1.0
  3
SLDDIMSTYLE0
100
AcDbAlignedDimension
 13
120.1012312094
 23
164.9388890024
 33
0.0
 14
120.1012312094
 24
84.7046087563
 34
0.0
 50
90.0
100
AcDbRotatedDimension
  0
DIMENSION
  5
135
330
1F
100
AcDbEntity
  8
VERMASSUNG
100
AcDbDimension
  2
_D_1
 10
253.6517554088
 20
140.8217488793
 30
0.0
 11
253.6517554088
 21
124.8217488793
 31
0.0
 70
   160
  1
%%c<>
 71
     2
 42
-1.0
  3
SLDDIMSTYLE1
100
AcDbAlignedDimension
 13
211.9643153216
 23
108.8217488793
 33
0.0
 14
211.9643153216
 24
140.8217488793
 34
0.0
 50
90.0
100
AcDbRotatedDimension
  0
DIMENSION
  5
141
330
1F
100
AcDbEntity
  8
VERMASSUNG
100
AcDbDimension
  2
_D_2
 10
261.9643153216
 20
160.8217488793
 30
0.0
 11
261.9643153216
 21
124.8217488793
 31
0.0
 70
   160
  1
%%c<>
 71
     2
 42
-1.0
  3
SLDDIMSTYLE1
100
AcDbAlignedDimension
 13
187.9643153216
 23
88.8217488793
 33
0.0
 14
187.9643153216
 24
160.8217488793
 34
0.0
 50
90.0
100
AcDbRotatedDimension
  0
DIMENSION
  5
14C
330
1F
100
AcDbEntity
  8
VERMASSUNG
100
AcDbDimension
  2
_D_3
 10
28.8138459606
 20
74.8217488793
 30
0.0
 11
28.8138459606
 21
124.8217488793
 31
0.0
 70
   160
  1
%%c<>
 71
     2
 42
-1.0
  3
SLDDIMSTYLE1
100
AcDbAlignedDimension
 13
89.4643153216
 23
174.8217488793
 33
0.0
 14
89.4643153216
 24
74.8217488793
 34
0.0
 50
90.0
100
AcDbRotatedDimension
  0
DIMENSION
  5
157
330
1F
100
AcDbEntity
  8
VERMASSUNG
100
AcDbDimension
  2
_D_4
 10
188.9643153216
 20
181.8231611079
 30
0.0
 11
153.4393153216
 21
181.8231611079
 31
0.0
 70
   160
  1
<>
 71
     2
 42
-1.0
  3
SLDDIMSTYLE1
100
AcDbAlignedDimension
 13
117.9143153216
 23
156.1717488793
 33
0.0
 14
188.9643153216
 24
159.8217488793
 34
0.0
100
AcDbRotatedDimension
  0
DIMENSION
  5
161
330
1F
100
AcDbEntity
  8
VERMASSUNG
100
AcDbDimension
  2
_D_5
 10
188.9643153216
 20
190.8217488793
 30
0.0
 11
138.9643153216
 21
190.8217488793
 31
0.0
 70
   160
  1
<>
 71
     2
 42
-1.0
  3
SLDDIMSTYLE1
100
AcDbAlignedDimension
 13
88.9643153216
 23
174.3217488793
 33
0.0
 14
188.9643153216
 24
159.8217488793
 34
0.0
100
AcDbRotatedDimension
  0
DIMENSION
  5
16B
330
1F
100
AcDbEntity
  8
VERMASSUNG
100
AcDbDimension
  2
_D_6
 10
212.9643153216
 20
181.8231611079
 30
0.0
 11
200.9643153216
 21
181.8231611079
 31
0.0
 70
   160
  1
<>
 71
     2
 42
-1.0
  3
SLDDIMSTYLE1
100
AcDbAlignedDimension
 13
188.9643153216
 23
159.8217488793
 33
0.0
 14
212.9643153216
 24
139.8217488793
 34
0.0
100
AcDbRotatedDimension
  0
DIMENSION
  5
175
330
1F
100
AcDbEntity
  8
VERMASSUNG
100
AcDbDimension
  2
_D_7
 10
212.9643153216
 20
199.9264177614
 30
0.0
 11
126.0143153216
 21
199.9264177614
 31
0.0
 70
   160
  1
(<>)
 71
     2
 42
-1.0
  3
SLDDIMSTYLE1
100
AcDbAlignedDimension
 13
39.0643153216
 23
155.3244186219
 33
0.0
 14
212.9643153216
 24
139.8217488793
 34
0.0
100
AcDbRotatedDimension
  0
DIMENSION
  5
181
330
1F
100
AcDbEntity
  8
VERMASSUNG
100
AcDbDimension
  2
_D_8
 10
245.1176777252
 20
131.8927488793
 30
0.0
 11
245.1176777252
 21
124.8217488793
 31
0.0
 70
   160
  1
SW<>
 71
     2
 42
-1.0
  3
SLDDIMSTYLE0
100
AcDbAlignedDimension
 13
233.9643153216
 23
117.7507488793
 33
0.0
 14
233.9643153216
 24
131.8927488793
 34
0.0
 50
90.0
100
AcDbRotatedDimension
  0
LINE
  5
18C
330
1F
100
AcDbEntity
  8
VERMASSUNG
  6
CENTERX2
370
    18
100
AcDbLine
 10
239.8863283475
 20
124.8217488793
 30
0.0
 11
35.8059313057
 21
124.8217488793
 31
0.0
  0
SPLINE
  5
18D
330
1F
100
AcDbEntity
  8
0
  6
Continuous
 62
     7
370
    25
100
AcDbSpline
210
0.0
220
0.0
230
1.0
 70
     8
 71
     3
 72
    17
 73
    13
 74
     0
 42
0.000000001
 43
0.00000001
 40
0.0
 40
0.0
 40
0.0
 40
0.0
 40
0.0314365556674091
 40
0.1412682489236791
 40
0.2518195711014981
 40
0.3629915402402557
 40
0.4746009704077365
 40
0.5864626797810447
 40
0.6984330525198756
 40
0.8104056889691329
 40
0.9223325658410823
 40
0.9999999999999999
 40
0.9999999999999999
 40
0.9999999999999999
 40
0.9999999999999999
 10
244.1250424687532
 20
11.60898160354098
 30
0.0
 10
244.2244514068795
 20
11.59543154600204
 30
0.0
 10
244.671171040068
 20
11.53454087713897
 30
0.0
 10
245.5161464389667
 20
11.57262107229802
 30
0.0
 10
246.6510740583156
 20
11.72664256609952
 30
0.0
 10
247.8234781775753
 20
12.03622585192069
 30
0.0
 10
249.0178665562191
 20
12.48488271310823
 30
0.0
 10
250.2242848203946
 20
13.07266721545892
 30
0.0
 10
251.431643220852
 20
13.79158554828058
 30
0.0
 10
252.6274186132017
 20
14.63982234211537
 30
0.0
 10
253.6872563149514
 20
15.49429515019295
 30
0.0
 10
254.3301099537185
 20
16.10924274919184
 30
0.0
 10
254.5934553694711
 20
16.36115643740718
 30
0.0
  0
SPLINE
  5
18E
330
1F
100
AcDbEntity
  8
0
  6
Continuous
 62
     7
370
    25
100
AcDbSpline
210
0.0
220
0.0
230
1.0
 70
     8
 71
     3
 72
    13
 73
     9
 74
     0
 42
0.000000001
 43
0.00000001
 40
0.0
 40
0.0
 40
0.0
 40
0.0
 40
0.1438408092276726
 40
0.3390486246598599
 40
0.5341616772985153
 40
0.7289349699131369
 40
0.9230280008156939
 40
1.0
 40
1.0
 40
1.0
 40
1.0
 10
263.2241803647347
 20
35.6789509634873
 30
0.0
 10
263.2123447869425
 20
36.01553477495399
 30
0.0
 10
263.1844470269531
 20
36.80889987748149
 30
0.0
 10
263.0056069168002
 20
37.97418388496675
 30
0.0
 10
262.7116953208865
 20
39.1759562122315
 30
0.0
 10
262.2949327641254
 20
40.27043631102912
 30
0.0
 10
261.8945804180802
 20
41.08232097328901
 30
0.0
 10
261.5970683114708
 20
41.48380788669764
 30
0.0
 10
261.5125863640211
 20
41.59781466345337
 30
0.0
  0
LINE
  5
18F
330
1F
100
AcDbEntity
  8
0
  6
Continuous
 62
     7
370
    25
100
AcDbLine
 10
231.9668015598
 20
17.8765530364
 30
0.0
 11
241.3692869337
 21
12.4486137669
 31
0.0
  0
LINE
  5
190
330
1F
100
AcDbEntity
  8
0
  6
Continuous
 62
     7
370
    25
100
AcDbLine
 10
227.9165804217
 20
20.2146959306
 30
0.0
 11
229.5199416018
 21
19.2890952233
 31
0.0
  0
LINE
  5
191
330
1F
100
AcDbEntity
  8
0
  6
Continuous
 62
     7
370
    25
100
AcDbLine
 10
247.5193295708
 20
50.4663631233
 30
0.0
 11
245.9151176091
 21
51.3924549763
 31
0.0
  0
LINE
  5
192
330
1F
100
AcDbEntity
  8
0
  6
Continuous
 62
     7
370
    25
100
AcDbLine
 10
259.3678241212
 20
43.6263728126
 30
0.0
 11
249.9804674046
 21
49.0455784941
 31
0.0
  0
SPLINE
  5
193
330
1F
100
AcDbEntity
  8
0
  6
Continuous
 62
     7
370
    25
100
AcDbSpline
210
0.0
220
0.0
230
1.0
 70
     8
 71
     3
 72
    13
 73
     9
 74
     0
 42
0.000000001
 43
0.00000001
 40
0.0
 40
0.0
 40
0.0
 40
0.0
 40
0.1188318465417953
 40
0.3234891627867635
 40
0.5301441544962976
 40
0.740659392501129
 40
0.9548481874241129
 40
1.0
 40
1.0
 40
1.0
 40
1.0
 10
255.0882361288076
 20
16.11017443500077
 30
0.0
 10
255.2079226779145
 20
16.0513130509058
 30
0.0
 10
255.5337385487787
 20
15.89107805990402
 30
0.0
 10
256.1389976629941
 20
15.78843638961389
 30
0.0
 10
256.8774039911695
 20
15.78619404572752
 30
0.0
 10
257.6563106940137
 20
15.94534086769461
 30
0.0
 10
258.2462373767207
 20
16.13462182237215
 30
0.0
 10
258.5713882104557
 20
16.31074054079128
 30
0.0
 10
258.6279977389259
 20
16.34140322582876
 30
0.0
  0
SPLINE
  5
194
330
1F
100
AcDbEntity
  8
0
  6
Continuous
 62
     7
370
    25
100
AcDbSpline
210
0.0
220
0.0
230
1.0
 70
     8
 71
     3
 72
    13
 73
     9
 74
     0
 42
0.000000001
 43
0.00000001
 40
0.0
 40
0.0
 40
0.0
 40
0.0
 40
0.150215252039884
 40
0.3535318200899999
 40
0.5555572306520772
 40
0.7545120961189941
 40
0.9491911854279037
 40
0.9999999999999999
 40
0.9999999999999999
 40
0.9999999999999999
 40
0.9999999999999999
 10
264.6253635630151
 20
26.7352287638781
 30
0.0
 10
264.606579983312
 20
26.95899916255068
 30
0.0
 10
264.5623728004188
 20
27.48564313012844
 30
0.0
 10
264.3515659565456
 20
28.22305052372339
 30
0.0
 10
264.0189691936663
 20
28.9422066844846
 30
0.0
 10
263.5649318758079
 20
29.5274958147644
 30
0.0
 10
263.1646829399517
 20
29.90146195732512
 30
0.0
 10
262.8974316022666
 20
30.02956010784319
 30
0.0
 10
262.842118393567
 20
30.05607267760245
 30
0.0
  0
LINE
  5
195
330
1F
100
AcDbEntity
  8
0
  6
Continuous
 62
     7
370
    25
100
AcDbLine
 10
247.606317464
 20
20.3947452929
 30
0.0
 11
254.8541619712
 21
16.2106537198
 31
0.0
  0
LINE
  5
196
330
1F
100
AcDbEntity
  8
0
  6
Continuous
 62
     7
370
    25
100
AcDbLine
 10
262.8535118323
 20
30.0674355179
 30
0.0
 11
255.6056673251
 21
34.251527091
 31
0.0
  0
SPLINE
  5
197
330
1F
100
AcDbEntity
  8
0
  6
Continuous
 62
     7
370
    25
100
AcDbSpline
210
0.0
220
0.0
230
1.0
 70
     8
 71
     3
 72
    12
 73
     8
 74
     0
 42
0.000000001
 43
0.00000001
 40
0.0
 40
0.0
 40
0.0
 40
0.0
 40
0.198665284741136
 40
0.4471060767967676
 40
0.7123954286144248
 40
0.9507607155636792
 40
1.0
 40
1.0
 40
1.0
 40
1.0
 10
256.661786665589
 20
19.5192203728127
 30
0.0
 10
256.5854695223074
 20
19.57254942179762
 30
0.0
 10
256.4137140061414
 20
19.69256909157544
 30
0.0
 10
256.2053802638774
 20
20.02947535019543
 30
0.0
 10
256.0478645568905
 20
20.49675290169896
 30
0.0
 10
255.9978617099842
 20
20.92039814822807
 30
0.0
 10
255.9954863620524
 20
21.15919259642143
 30
0.0
 10
255.9950796910739
 20
21.20007535325579
 30
0.0
  0
SPLINE
  5
198
330
1F
100
AcDbEntity
  8
0
  6
Continuous
 62
     7
370
    25
100
AcDbSpline
210
0.0
220
0.0
230
1.0
 70
     8
 71
     3
 72
    21
 73
    17
 74
     0
 42
0.000000001
 43
0.00000001
 40
0.0
 40
0.0
 40
0.0
 40
0.0
 40
0.040293043487371
 40
0.1178653923806849
 40
0.1958342963506726
 40
0.2741369069813975
 40
0.3526553376313266
 40
0.4312256069626532
 40
0.5096282309524267
 40
0.587671143062327
 40
0.6651991047532566
 40
0.742160048240412
 40
0.8188333071332509
 40
0.8958985766272084
 40
0.975524513154863
 40
1.0
 40
1.0
 40
1.0
 40
1.0
 10
255.9950796910739
 20
21.20007535325579
 30
0.0
 10
255.9978272200328
 20
21.31201628085924
 30
0.0
 10
256.0058643041245
 20
21.63946638672114
 30
0.0
 10
256.0975694190698
 20
22.23327758158293
 30
0.0
 10
256.3046146414299
 20
22.97123941665094
 30
0.0
 10
256.6105437658357
 20
23.71794856117465
 30
0.0
 10
257.0032394303455
 20
24.44278381135327
 30
0.0
 10
257.4683440427809
 20
25.11770749524652
 30
0.0
 10
257.9869907266194
 20
25.71631834982309
 30
0.0
 10
258.5372146462568
 20
26.21587311384748
 30
0.0
 10
259.0948421712333
 20
26.59896069758022
 30
0.0
 10
259.6340341825182
 20
26.85386891560207
 30
0.0
 10
260.1311042186935
 20
26.98060463929053
 30
0.0
 10
260.5606444998472
 20
26.97538473081457
 30
0.0
 10
260.8447036206438
 20
26.91273580240297
 30
0.0
 10
260.9708168381291
 20
26.81310478820884
 30
0.0
 10
261.00046756043
 20
26.78968034790563
 30
0.0
  0
SPLINE
  5
199
330
1F
100
AcDbEntity
  8
0
  6
Continuous
 62
     7
370
    25
100
AcDbSpline
210
0.0
220
0.0
230
1.0
 70
     8
 71
     3
 72
    13
 73
     9
 74
     0
 42
0.000000001
 43
0.00000001
 40
0.0
 40
0.0
 40
0.0
 40
0.0
 40
0.0753849719147381
 40
0.276685956940568
 40
0.4831780392300336
 40
0.69334662588324
 40
0.905622989111426
 40
1.0
 40
1.0
 40
1.0
 40
1.0
 10
218.5623042403159
 20
23.69388124614203
 30
0.0
 10
218.7931625216323
 20
23.65422432214103
 30
0.0
 10
219.6404831859678
 20
23.50867125383258
 30
0.0
 10
221.1715107090701
 20
23.10719015058892
 30
0.0
 10
223.1321376370552
 20
22.47877893004451
 30
0.0
 10
225.1131917030992
 20
21.6680289126314
 30
0.0
 10
226.7201679934547
 20
20.90472186502857
 30
0.0
 10
227.6278981748024
 20
20.3640017863796
 30
0.0
 10
227.9072652662478
 20
20.19758736195884
 30
0.0
  0
SPLINE
  5
19A
330
1F
100
AcDbEntity
  8
0
  6
Continuous
 62
     7
370
    25
100
AcDbSpline
210
0.0
220
0.0
230
1.0
 70
     8
 71
     3
 72
    13
 73
     9
 74
     0
 42
0.000000001
 43
0.00000001
 40
0.0
 40
0.0
 40
0.0
 40
0.0
 40
0.0232849212663148
 40
0.2358944013264476
 40
0.4467125792310731
 40
0.6543091348166675
 40
0.8574676760895404
 40
0.9999999999999999
 40
0.9999999999999999
 40
0.9999999999999999
 40
0.9999999999999999
 10
245.9181415204192
 20
51.39957221312095
 30
0.0
 10
245.8475172277254
 20
51.43745927604186
 30
0.0
 10
245.1320380962496
 20
51.8212847536342
 30
0.0
 10
243.8493840624675
 20
52.67814562031576
 30
0.0
 10
242.1110358357249
 20
53.95281636488284
 30
0.0
 10
240.5309633937012
 20
55.31857931968974
 30
0.0
 10
239.224580340643
 20
56.59160582409485
 30
0.0
 10
238.5142298123573
 20
57.41476230892813
 30
0.0
 10
238.2213441107525
 20
57.75415920523614
 30
0.0
  0
LINE
  5
19B
330
1F
100
AcDbEntity
  8
0
  6
Continuous
 62
     7
370
    25
100
AcDbLine
 10
254.7752104415
 20
34.5635938156
 30
0.0
 11
254.2750917375
 21
34.6654892562
 31
0.0
  0
LINE
  5
19C
330
1F
100
AcDbEntity
  8
0
  6
Continuous
 62
     7
370
    25
100
AcDbLine
 10
246.5824392152
 20
21.339980396
 30
0.0
 11
246.9207784678
 21
20.9578443612
 31
0.0
  0
LINE
  5
19D
330
1F
100
AcDbEntity
  8
0
  6
Continuous
 62
     7
370
    25
100
AcDbLine
 10
203.0445623961
 20
26.4903214839
 30
0.0
 11
208.7855520921
 21
23.1761186772
 31
0.0
  0
LINE
  5
19E
330
1F
100
AcDbEntity
  8
0
  6
Continuous
 62
     7
370
    25
100
AcDbLine
 10
230.2289245207
 20
68.5305863234
 30
0.0
 11
228.042530712
 21
69.7927646029
 31
0.0
  0
SPLINE
  5
19F
330
1F
100
AcDbEntity
  8
0
  6
Continuous
 62
     7
370
    25
100
AcDbSpline
210
0.0
220
0.0
230
1.0
 70
     8
 71
     3
 72
    10
 73
     6
 74
     0
 42
0.000000001
 43
0.00000001
 40
0.0
 40
0.0
 40
0.0
 40
0.0
 40
0.287767159814817
 40
0.791466902037846
 40
1.0
 40
1.0
 40
1.0
 40
1.0
 10
198.0276593427688
 20
41.39206314830286
 30
0.0
 10
197.9835475723889
 20
41.06081927935723
 30
0.0
 10
197.8622237692545
 20
40.14977522922257
 30
0.0
 10
197.8024411989954
 20
39.03702620753835
 30
0.0
 10
197.7948703670266
 20
38.26463839929704
 30
0.0
 10
197.792653719667
 20
38.03849265959922
 30
0.0
  0
SPLINE
  5
1A0
330
1F
100
AcDbEntity
  8
0
  6
Continuous
 62
     7
370
    25
100
AcDbSpline
210
0.0
220
0.0
230
1.0
 70
     8
 71
     3
 72
     9
 73
     5
 74
     0
 42
0.000000001
 43
0.00000001
 40
0.0
 40
0.0
 40
0.0
 40
0.0
 40
0.569675176728022
 40
1.0
 40
1.0
 40
1.0
 40
1.0
 10
215.7347504232395
 20
68.73045925208282
 30
0.0
 10
215.505800519748
 20
68.60930343852277
 30
0.0
 10
215.1039049960454
 20
68.39662818337838
 30
0.0
 10
214.7035744703336
 20
68.12939204518374
 30
0.0
 10
214.5313023076062
 20
68.01439370124324
 30
0.0
  0
SPLINE
  5
1A1
330
1F
100
AcDbEntity
  8
0
  6
Continuous
 62
     7
370
    25
100
AcDbSpline
210
0.0
220
0.0
230
1.0
 70
     8
 71
     3
 72
     9
 73
     5
 74
     0
 42
0.000000001
 43
0.00000001
 40
0.0
 40
0.0
 40
0.0
 40
0.0
 40
0.4109279822092471
 40
1.0
 40
1.0
 40
1.0
 40
1.0
 10
197.792653719667
 20
38.03849265959922
 30
0.0
 10
197.7947575543634
 20
37.75355210838568
 30
0.0
 10
197.7998772706823
 20
37.06014459283605
 30
0.0
 10
197.8600683733774
 20
36.4008965844235
 30
0.0
 10
197.8955252676951
 20
36.01255202988338
 30
0.0
  0
LINE
  5
1A2
330
1F
100
AcDbEntity
  8
0
  6
Continuous
 62
     7
370
    25
100
AcDbLine
 10
216.3105079432
 20
68.9785991319
 30
0.0
 11
206.9751738487
 21
73.6297200533
 31
0.0
  0
LINE
  5
1A3
330
1F
100
AcDbEntity
  8
0
  6
Continuous
 62
     7
370
    25
100
AcDbLine
 10
189.1864510934
 20
42.8154096445
 30
0.0
 11
197.8147393141
 21
37.1021155491
 31
0.0
  0
SPLINE
  5
1A4
330
1F
100
AcDbEntity
  8
0
  6
Continuous
 62
     7
370
    25
100
AcDbSpline
210
0.0
220
0.0
230
1.0
 70
     8
 71
     3
 72
    14
 73
    10
 74
     0
 42
0.000000001
 43
0.00000001
 40
0.0
 40
0.0
 40
0.0
 40
0.0
 40
0.1360867766136762
 40
0.298569253099364
 40
0.4616863682979671
 40
0.6253148996730232
 40
0.7893013186830351
 40
0.9535032507130448
 40
0.9999999999999999
 40
0.9999999999999999
 40
0.9999999999999999
 40
0.9999999999999999
 10
216.5558940022684
 20
19.72411509068888
 30
0.0
 10
216.9050679400457
 20
19.69943155453974
 30
0.0
 10
217.6711423845886
 20
19.64527680758133
 30
0.0
 10
218.9108815310119
 20
19.7370516884633
 30
0.0
 10
220.2552977789908
 20
19.96455958313933
 30
0.0
 10
221.6332876306623
 20
20.33740492346671
 30
0.0
 10
223.0339607147179
 20
20.86074451234266
 30
0.0
 10
224.1101265216001
 20
21.3359778495591
 30
0.0
 10
224.7162399346999
 20
21.67784719029916
 30
0.0
 10
224.849996364651
 20
21.75329053396857
 30
0.0
  0
LINE
  5
1A5
330
1F
100
AcDbEntity
  8
0
  6
Continuous
 62
     7
370
    25
100
AcDbLine
 10
211.0921549332
 20
21.8445452003
 30
0.0
 11
212.7496029679
 21
20.8877208165
 31
0.0
  0
SPLINE
  5
1A6
330
1F
100
AcDbEntity
  8
0
  6
Continuous
 62
     7
370
    25
100
AcDbSpline
210
0.0
220
0.0
230
1.0
 70
     8
 71
     3
 72
    10
 73
     6
 74
     0
 42
0.000000001
 43
0.00000001
 40
0.0
 40
0.0
 40
0.0
 40
0.0
 40
0.0281517383999143
 40
0.6720479363698381
 40
1.0
 40
1.0
 40
1.0
 40
1.0
 10
240.3596161326282
 20
61.89173168028434
 30
0.0
 10
240.3492659656144
 20
61.90672665576191
 30
0.0
 10
240.1021832354519
 20
62.26469184364709
 30
0.0
 10
239.6681585658611
 20
62.71980259004894
 30
0.0
 10
239.2148534191813
 20
63.11364877261843
 30
0.0
 10
239.0618847262466
 20
63.24655292384249
 30
0.0
  0
SPLINE
  5
1A7
330
1F
100
AcDbEntity
  8
0
  6
Continuous
 62
     7
370
    25
100
AcDbSpline
210
0.0
220
0.0
230
1.0
 70
     8
 71
     3
 72
    12
 73
     8
 74
     0
 42
0.000000001
 43
0.00000001
 40
0.0
 40
0.0
 40
0.0
 40
0.0
 40
0.1180490774157798
 40
0.3415716021773393
 40
0.5648880963679639
 40
0.7876619124096547
 40
1.0
 40
1.0
 40
1.0
 40
1.0
 10
242.7237465048631
 20
56.38183399686621
 30
0.0
 10
242.6710747417819
 20
56.63514613178186
 30
0.0
 10
242.5186705138202
 20
57.36809749123514
 30
0.0
 10
242.1810429385093
 20
58.51242196692293
 30
0.0
 10
241.6739077294799
 20
59.77141256764818
 30
0.0
 10
241.0754114562308
 20
60.91252166430731
 30
0.0
 10
240.594368796433
 20
61.57058937591993
 30
0.0
 10
240.3596161326282
 20
61.89173168028434
 30
0.0
  0
SPLINE
  5
1A8
330
1F
100
AcDbEntity
  8
0
  6
Continuous
 62
     7
370
    25
100
AcDbSpline
210
0.0
220
0.0
230
1.0
 70
     8
 71
     3
 72
    28
 73
    24
 74
     0
 42
0.000000001
 43
0.00000001
 40
0.0
 40
0.0
 40
0.0
 40
0.0
 40
0.0173647024739162
 40
0.0666529734774649
 40
0.1160224233220817
 40
0.165777539365725
 40
0.2161025359831455
 40
0.2670303153551661
 40
0.3184683150079798
 40
0.3702610551027735
 40
0.4222524738677703
 40
0.4743219173726029
 40
0.5263766538524871
 40
0.5783840811486576
 40
0.6303339964435823
 40
0.68222870880487
 40
0.7340773973363597
 40
0.7858927879053217
 40
0.8376893487757016
 40
0.8894823912205443
 40
0.9412855250506388
 40
0.9931116201807418
 40
1.0
 40
1.0
 40
1.0
 40
1.0
 10
207.1409993157204
 20
73.52364151450091
 30
0.0
 10
207.0376972955249
 20
73.58454426639057
 30
0.0
 10
206.6411810394819
 20
73.81831443967754
 30
0.0
 10
205.8740183844178
 20
74.08166448260789
 30
0.0
 10
204.8538343705585
 20
74.30906140108193
 30
0.0
 10
203.7749871322453
 20
74.38274686383649
 30
0.0
 10
202.6506981597285
 20
74.3137317611615
 30
0.0
 10
201.4870761273067
 20
74.09803332902464
 30
0.0
 10
200.2944958837053
 20
73.73710560973785
 30
0.0
 10
199.0842138414566
 20
73.23339001840888
 30
0.0
 10
197.8682628373726
 20
72.5918504044501
 30
0.0
 10
196.6585562557305
 20
71.81926489656986
 30
0.0
 10
195.4663510094641
 20
70.92374730937789
 30
0.0
 10
194.3021707588051
 20
69.91430779350037
 30
0.0
 10
193.1758125670263
 20
68.80052086983554
 30
0.0
 10
192.0966132600765
 20
67.59259352953275
 30
0.0
 10
191.0735770023552
 20
66.3013325602063
 30
0.0
 10
190.1150150402098
 20
64.93811267812177
 30
0.0
 10
189.2297798169903
 20
63.51477267294689
 30
0.0
 10
188.4224526710047
 20
62.04371771508906
 30
0.0
 10
187.7110788249203
 20
60.53723569319637
 30
0.0
 10
187.2487956896483
 20
59.45147441738315
 30
0.0
 10
187.0505210143307
 20
58.87202704235814
 30
0.0
 10
187.0272594374656
 20
58.80404629982596
 30
0.0
  0
LINE
  5
1A9
330
1F
100
AcDbEntity
  8
0
  6
Continuous
 62
     7
370
    25
100
AcDbLine
 10
187.4111616083
 20
56.4712315214
 30
0.0
 11
191.1958401968
 21
54.286383078
 31
0.0
  0
LINE
  5
1AA
330
1F
100
AcDbEntity
  8
0
  6
Continuous
 62
     7
370
    25
100
AcDbLine
 10
186.905721916
 20
58.2384284601
 30
0.0
 11
186.905721916
 21
57.5883728492
 31
0.0
  0
LINE
  5
1AB
330
1F
100
AcDbEntity
  8
0
  6
Continuous
 62
     7
370
    25
100
AcDbLine
 10
186.905721916
 20
46.0801357712
 30
0.0
 11
186.905721916
 21
45.4300801602
 31
0.0
  0
SPLINE
  5
1AC
330
1F
100
AcDbEntity
  8
0
  6
Continuous
 62
     7
370
    25
100
AcDbSpline
210
0.0
220
0.0
230
1.0
 70
     8
 71
     3
 72
    10
 73
     6
 74
     0
 42
0.000000001
 43
0.00000001
 40
0.0
 40
0.0
 40
0.0
 40
0.0
 40
0.3295005611220418
 40
0.6892241106220431
 40
1.0
 40
1.0
 40
1.0
 40
1.0
 10
187.037957974468
 20
45.09453762488053
 30
0.0
 10
187.2207131687438
 20
44.81314374552612
 30
0.0
 10
187.6029865275733
 20
44.22454551803874
 30
0.0
 10
188.2773137055075
 20
43.49585496811694
 30
0.0
 10
188.8000949198056
 20
43.10530450494433
 30
0.0
 10
189.0424035443966
 20
42.92428471506567
 30
0.0
  0
SPLINE
  5
1AD
330
1F
100
AcDbEntity
  8
0
  6
Continuous
 62
     7
370
    25
100
AcDbSpline
210
0.0
220
0.0
230
1.0
 70
     8
 71
     3
 72
     9
 73
     5
 74
     0
 42
0.000000001
 43
0.00000001
 40
0.0
 40
0.0
 40
0.0
 40
0.0
 40
0.3746322492153843
 40
1.0
 40
1.0
 40
1.0
 40
1.0
 10
186.9494737602259
 20
45.23493973380506
 30
0.0
 10
186.9592134877847
 20
45.21612276744914
 30
0.0
 10
186.985211590135
 20
45.16589493363256
 30
0.0
 10
187.0176635594247
 20
45.12199267907042
 30
0.0
 10
187.037957974468
 20
45.09453762488053
 30
0.0
  0
LINE
  5
1AE
330
1F
100
AcDbEntity
  8
0
  6
Continuous
 62
     7
370
    25
100
AcDbLine
 10
264.3160052851
 20
35.0486538532
 30
0.0
 11
262.0179082462
 21
36.375317035
 31
0.0
  0
SPLINE
  5
1AF
330
1F
100
AcDbEntity
  8
0
  6
Continuous
 62
     7
370
    25
100
AcDbSpline
210
0.0
220
0.0
230
1.0
 70
     8
 71
     3
 72
    10
 73
     6
 74
     0
 42
0.000000001
 43
0.00000001
 40
0.0
 40
0.0
 40
0.0
 40
0.0
 40
0.0607600027272084
 40
0.5997931387908569
 40
0.9999999999999999
 40
0.9999999999999999
 40
0.9999999999999999
 40
0.9999999999999999
 10
241.5933264794395
 20
18.06143501793188
 30
0.0
 10
241.6056489609511
 20
18.04879521898366
 30
0.0
 10
241.7272904937322
 20
17.92402128309574
 30
0.0
 10
242.0089467907108
 20
17.82207564373023
 30
0.0
 10
242.2842013020181
 20
17.79235621732121
 30
0.0
 10
242.4014862817079
 20
17.77969287419845
 30
0.0
  0
LINE
  5
1B0
330
1F
100
AcDbEntity
  8
0
  6
Continuous
 62
     7
370
    25
100
AcDbLine
 10
239.4263095899
 20
19.2914654887
 30
0.0
 11
241.7244066288
 21
17.964802307
 31
0.0
  0
LINE
  5
1B1
330
1F
100
AcDbEntity
  8
0
  6
Continuous
 62
     7
370
    25
100
AcDbLine
 10
245.224122193
 20
24.0271443436
 30
0.0
 11
242.9260251542
 21
25.3538075253
 31
0.0
  0
SPLINE
  5
1B2
330
1F
100
AcDbEntity
  8
0
  6
Continuous
 62
     7
370
    25
100
AcDbSpline
210
0.0
220
0.0
230
1.0
 70
     8
 71
     3
 72
    22
 73
    18
 74
     0
 42
0.000000001
 43
0.00000001
 40
0.0
 40
0.0
 40
0.0
 40
0.0
 40
0.0372635323268886
 40
0.1031588514073574
 40
0.1693124001852365
 40
0.2368311453455492
 40
0.305825448164321
 40
0.3757086565181911
 40
0.4458577074678295
 40
0.5159241387830538
 40
0.5858652355081664
 40
0.6557178426407752
 40
0.7255468167365295
 40
0.7954192438238861
 40
0.8653956075718792
 40
0.9355550821669266
 40
1.0
 40
1.0
 40
1.0
 40
1.0
 10
263.319101055997
 20
13.65683174815973
 30
0.0
 10
263.4142242104499
 20
13.59589881255926
 30
0.0
 10
263.6775592928444
 20
13.42721454520957
 30
0.0
 10
264.1905896613545
 20
13.30668858342962
 30
0.0
 10
264.8246988028578
 20
13.28596773414641
 30
0.0
 10
265.498586996972
 20
13.41465649113185
 30
0.0
 10
266.1960154683359
 20
13.68360977533634
 30
0.0
 10
266.9010104686343
 20
14.0904606856039
 30
0.0
 10
267.5926574280924
 20
14.62332763472456
 30
0.0
 10
268.2514753583823
 20
15.26641908934698
 30
0.0
 10
268.8601703823464
 20
16.00139339220065
 30
0.0
 10
269.4036329174029
 20
16.80874479250129
 30
0.0
 10
269.8680598371615
 20
17.66752451334523
 30
0.0
 10
270.2422664241403
 20
18.55625732516891
 30
0.0
 10
270.5135171220786
 20
19.45133317037068
 30
0.0
 10
270.6792809985782
 20
20.31069958822297
 30
0.0
 10
270.699355589451
 20
20.8431172570926
 30
0.0
 10
270.7089667569321
 20
21.09802433927792
 30
0.0
  0
SPLINE
  5
1B3
330
1F
100
AcDbEntity
  8
0
  6
Continuous
 62
     7
370
    25
100
AcDbSpline
210
0.0
220
0.0
230
1.0
 70
     8
 71
     3
 72
    13
 73
     9
 74
     0
 42
0.000000001
 43
0.00000001
 40
0.0
 40
0.0
 40
0.0
 40
0.0
 40
0.1100110855496495
 40
0.318722595077934
 40
0.5273358647454132
 40
0.7332598940953903
 40
0.9341380474784776
 40
1.0
 40
1.0
 40
1.0
 40
1.0
 10
270.7089667569321
 20
21.09802433927792
 30
0.0
 10
270.7056479702129
 20
21.24093761998544
 30
0.0
 10
270.6960328272443
 20
21.65498399968094
 30
0.0
 10
270.5877194780513
 20
22.28944919234011
 30
0.0
 10
270.3456444362804
 20
22.95872562886111
 30
0.0
 10
269.9796244838305
 20
23.50503655307888
 30
0.0
 10
269.6287326596979
 20
23.85871614835436
 30
0.0
 10
269.3811181747525
 20
23.97550582359209
 30
0.0
 10
269.3199786119716
 20
24.00434286712338
 30
0.0
  0
LINE
  5
1B4
330
1F
100
AcDbEntity
  8
0
  6
Continuous
 62
     7
370
    25
100
AcDbLine
 10
269.3489249802
 20
24.0083748005
 30
0.0
 11
263.9749134432
 21
27.1107256254
 31
0.0
  0
LINE
  5
1B5
330
1F
100
AcDbEntity
  8
0
  6
Continuous
 62
     7
370
    25
100
AcDbLine
 10
257.9754010474
 20
16.7181392768
 30
0.0
 11
263.3494125844
 21
13.6157884519
 31
0.0
  0
LINE
  5
1B6
330
1F
100
AcDbEntity
  8
0
  6
Continuous
 62
     7
370
    25
100
AcDbLine
 10
260.7387450285
 20
26.6695873632
 30
0.0
 11
260.2360100361
 21
26.9598100967
 31
0.0
  0
LINE
  5
1B7
330
1F
100
AcDbEntity
  8
0
  6
Continuous
 62
     7
370
    25
100
AcDbLine
 10
256.2197359958
 20
20.0410016598
 30
0.0
 11
256.7390700979
 21
19.7411964642
 31
0.0
  0
ARC
  5
1B8
330
1F
100
AcDbEntity
  8
0
  6
Continuous
 62
     7
370
    25
100
AcDbCircle
 10
256.2234873566
 20
38.1778992645
 30
0.0
 40
6.282411631273097
100
AcDbArc
 50
34.1718093131
 51
85.0138400067
  0
ARC
  5
1B9
330
1F
100
AcDbEntity
  8
0
  6
Continuous
 62
     7
370
    25
100
AcDbCircle
 10
244.5112956635
 20
17.892129834
 30
0.0
 40
6.277434633870484
100
AcDbArc
 50
214.413678153
 51
265.222418023
  0
SPLINE
  5
1BA
330
1F
100
AcDbEntity
  8
0
  6
Continuous
 62
     7
370
    25
100
AcDbSpline
210
0.0
220
0.0
230
1.0
 70
    11
 71
     3
 72
    95
 73
    91
 74
     0
 42
0.000000001
 43
0.00000001
 40
0.0
 40
0.0
 40
0.0
 40
0.0
 40
0.0312499999999995
 40
0.0312499999999995
 40
0.0468749999999996
 40
0.0468749999999996
 40
0.0624999999999998
 40
0.0624999999999998
 40
0.0937500000000001
 40
0.0937500000000001
 40
0.1250000000000004
 40
0.1250000000000004
 40
0.1562500000000008
 40
0.1562500000000008
 40
0.1718750000000009
 40
0.1718750000000009
 40
0.1875000000000011
 40
0.1875000000000011
 40
0.2187500000000015
 40
0.2187500000000015
 40
0.2500000000000018
 40
0.2500000000000018
 40
0.2656250000000019
 40
0.2656250000000019
 40
0.2812500000000021
 40
0.2812500000000021
 40
0.3125000000000024
 40
0.3125000000000024
 40
0.3281250000000026
 40
0.3281250000000026
 40
0.3437500000000027
 40
0.3437500000000027
 40
0.3593750000000029
 40
0.3593750000000029
 40
0.3750000000000031
 40
0.3750000000000031
 40
0.4062500000000041
 40
0.4062500000000041
 40
0.437500000000005
 40
0.437500000000005
 40
0.4687500000000059
 40
0.4687500000000059
 40
0.484375000000006
 40
0.484375000000006
 40
0.500000000000006
 40
0.500000000000006
 40
0.5312500000000052
 40
0.5312500000000052
 40
0.5468750000000044
 40
0.5468750000000044
 40
0.5625000000000036
 40
0.5781250000000028
 40
0.5781250000000028
 40
0.5937500000000019
 40
0.5937500000000019
 40
0.6250000000000009
 40
0.6250000000000009
 40
0.6406250000000008
 40
0.6406250000000008
 40
0.6562500000000006
 40
0.6562500000000006
 40
0.6874999999999997
 40
0.6874999999999997
 40
0.7031249999999994
 40
0.7031249999999994
 40
0.7187499999999991
 40
0.7187499999999991
 40
0.7499999999999986
 40
0.7499999999999986
 40
0.7812499999999981
 40
0.7812499999999981
 40
0.7968749999999979
 40
0.7968749999999979
 40
0.8124999999999978
 40
0.8124999999999978
 40
0.8437499999999977
 40
0.8437499999999977
 40
0.8593749999999976
 40
0.8593749999999976
 40
0.8749999999999976
 40
0.8749999999999976
 40
0.9062499999999976
 40
0.9062499999999976
 40
0.9374999999999976
 40
0.9374999999999976
 40
0.9531249999999979
 40
0.9531249999999979
 40
0.9687499999999983
 40
0.9687499999999983
 40
1.0
 40
1.0
 40
1.0
 40
1.0
 10
248.9964549371015
 20
46.24033213107361
 30
0.0
 10
248.8195430200791
 20
46.34246120689214
 30
0.0
 10
248.6291274134009
 20
46.43753605263579
 30
0.0
 10
248.3239806196125
 20
46.5696266810566
 30
0.0
 10
248.2189868197661
 20
46.61188413203259
 30
0.0
 10
248.0022737949111
 20
46.69262860373324
 30
0.0
 10
247.8899839434751
 20
46.7312767404773
 30
0.0
 10
247.5492488025127
 20
46.83893936000987
 30
0.0
 10
247.3157369727179
 20
46.90035493694583
 30
0.0
 10
246.8358127674003
 20
47.00058738098599
 30
0.0
 10
246.5868119778727
 20
47.03950800944967
 30
0.0
 10
246.0946941961759
 20
47.0882733482408
 30
0.0
 10
245.8500641954139
 20
47.09871410174136
 30
0.0
 10
245.4851070892534
 20
47.09110903326931
 30
0.0
 10
245.3630802793475
 20
47.0845878262048
 30
0.0
 10
245.1243312002504
 20
47.06347522150649
 30
0.0
 10
245.0074295675882
 20
47.04893641413852
 30
0.0
 10
244.6639779782174
 20
46.99323594522276
 30
0.0
 10
244.4446026902817
 20
46.94010275349972
 30
0.0
 10
244.0259823904565
 20
46.79862840986043
 30
0.0
 10
243.833858324279
 20
46.71262278076368
 30
0.0
 10
243.5716812403554
 20
46.56169854152218
 30
0.0
 10
243.4885854934046
 20
46.50769247116148
 30
0.0
 10
243.3312144925023
 20
46.39211974431369
 30
0.0
 10
243.2570481185074
 20
46.33052301599611
 30
0.0
 10
243.0530457567419
 20
46.13887689911224
 30
0.0
 10
242.9395557652192
 20
46.00066842797795
 30
0.0
 10
242.8028476330992
 20
45.77877878081032
 30
0.0
 10
242.7627836576142
 20
45.70197480882818
 30
0.0
 10
242.6956184541549
 20
45.54677531321968
 30
0.0
 10
242.6682975586313
 20
45.46813788837527
 30
0.0
 10
242.625814198412
 20
45.30909279344355
 30
0.0
 10
242.610652693194
 20
45.22868457171541
 30
0.0
 10
242.5924898412989
 20
45.06636226028235
 30
0.0
 10
242.5895107074422
 20
44.98407084878343
 30
0.0
 10
242.5991977342879
 20
44.73804632279887
 30
0.0
 10
242.6299837949744
 20
44.5768407921021
 30
0.0
 10
242.7379663314213
 20
44.26188217414905
 30
0.0
 10
242.8164084727468
 20
44.1067336211218
 30
0.0
 10
243.0145832374902
 20
43.81678695544613
 30
0.0
 10
243.1341349326163
 20
43.68105047024818
 30
0.0
 10
243.3439737208989
 20
43.49212947284425
 30
0.0
 10
243.4194833863795
 20
43.4313213955898
 30
0.0
 10
243.5783909838707
 20
43.31680398380251
 30
0.0
 10
243.6617932822138
 20
43.26299873242158
 30
0.0
 10
243.923545982477
 20
43.11172418723548
 30
0.0
 10
244.1133297082799
 20
43.02432648354062
 30
0.0
 10
244.4217690396991
 20
42.91380184996857
 30
0.0
 10
244.5280221587021
 20
42.88065190060245
 30
0.0
 10
244.7441794831948
 20
42.8224512687927
 30
0.0
 10
244.9648935909138
 20
42.77201605038319
 30
0.0
 10
245.1946954862354
 20
42.73665147855947
 30
0.0
 10
245.4291634214022
 20
42.7087664389808
 30
0.0
 10
245.5493578903483
 20
42.69853735823386
 30
0.0
 10
245.9125403729225
 20
42.67946681228997
 30
0.0
 10
246.1562549885531
 20
42.68204555564588
 30
0.0
 10
246.5244008114016
 20
42.70690414192084
 30
0.0
 10
246.6475480008768
 20
42.71871364026378
 30
0.0
 10
246.8947769011428
 20
42.74935265817626
 30
0.0
 10
247.0187382574938
 20
42.76821770543581
 30
0.0
 10
247.3834664483764
 20
42.83371529872929
 30
0.0
 10
247.6200436805734
 20
42.88946870911844
 30
0.0
 10
247.9650613186605
 20
42.98998937867151
 30
0.0
 10
248.0790331652863
 20
43.0265604683172
 30
0.0
 10
248.3003490040633
 20
43.10434846249024
 30
0.0
 10
248.4072737285595
 20
43.14537171057703
 30
0.0
 10
248.7171404173422
 20
43.27444872429598
 30
0.0
 10
248.9092904374372
 20
43.36842033763934
 30
0.0
 10
249.2635336875324
 20
43.57236892396789
 30
0.0
 10
249.4202339728811
 20
43.67934698815395
 30
0.0
 10
249.6236512067214
 20
43.8458755919585
 30
0.0
 10
249.6862843256612
 20
43.90249173603539
 30
0.0
 10
249.8009858522284
 20
44.01813672678906
 30
0.0
 10
249.8529522036345
 20
44.07716356821918
 30
0.0
 10
249.9894852485603
 20
44.25411606254816
 30
0.0
 10
250.0562948780864
 20
44.37323706985271
 30
0.0
 10
250.1206851848362
 20
44.55521754340574
 30
0.0
 10
250.1361390394767
 20
44.61673831052912
 30
0.0
 10
250.1543560059655
 20
44.73883767699159
 30
0.0
 10
250.1572483493288
 20
44.79960380617762
 30
0.0
 10
250.147846226835
 20
44.98154468039821
 30
0.0
 10
250.11743703569
 20
45.10280801668025
 30
0.0
 10
250.0084061345688
 20
45.34498095904944
 30
0.0
 10
249.9312779667783
 20
45.46300848986996
 30
0.0
 10
249.7833088325062
 20
45.63717824510336
 30
0.0
 10
249.7285660964635
 20
45.69474590816543
 30
0.0
 10
249.6080408805572
 20
45.80908163885722
 30
0.0
 10
249.5422387747313
 20
45.8658018206959
 30
0.0
 10
249.3318730960022
 20
46.03184258483011
 30
0.0
 10
249.1733668541239
 20
46.13820305525507
 30
0.0
 10
248.9964549371015
 20
46.24033213107361
 30
0.0
  0
LINE
  5
1BB
330
1F
100
AcDbEntity
  8
0
  6
Continuous
 62
     7
370
    25
100
AcDbLine
 10
248.3052415504
 20
49.9775439286
 30
0.0
 11
248.7139998595
 21
49.7180944085
 31
0.0
  0
LWPOLYLINE
  5
1BC
330
1F
100
AcDbEntity
  8
0
  6
Continuous
 62
     7
370
    25
100
AcDbPolyline
 90
       18
 70
   128
 43
0.0
 10
249.9804375363
 20
49.0455277395
 10
249.9789553428
 20
49.046450866
 10
249.6643301538
 20
49.2199622195
 10
249.2620242547
 20
49.4316094839
 10
248.79540953
 20
49.6747403968
 10
248.3003160213
 20
49.938398137
 10
247.8364795433
 20
50.1989730839
 10
247.6411507057
 20
50.3158144577
 10
247.4766170774
 20
50.4200036691
 10
247.3577192624
 20
50.5013203335
 10
247.2807781022
 20
50.5611072847
 10
247.2541175632
 20
50.5910449589
 10
247.2738302007
 20
50.5930683738
 10
247.4337351078
 20
50.5149976307
 10
247.7126463232
 20
50.35068955
 10
248.075210638
 20
50.1239482835
 10
248.3052415504
 20
49.9775439286
 10
248.30524155
 20
49.9775439281
  0
SPLINE
  5
1BD
330
1F
100
AcDbEntity
  8
0
  6
Continuous
 62
     7
370
    25
100
AcDbSpline
210
0.0
220
0.0
230
1.0
 70
     8
 71
     3
 72
    23
 73
    19
 74
     0
 42
0.000000001
 43
0.00000001
 40
0.0
 40
0.0
 40
0.0
 40
0.0
 40
0.0710799626695808
 40
0.1374665025688266
 40
0.2160605787051182
 40
0.2901007324492255
 40
0.3627523027074813
 40
0.4381668216834697
 40
0.5188996247148928
 40
0.6051736110460801
 40
0.6950609330750169
 40
0.7397600161631385
 40
0.7858383850331785
 40
0.8290411889592192
 40
0.8736789505401803
 40
0.9139297861072961
 40
0.9555415619848145
 40
1.0
 40
1.0
 40
1.0
 40
1.0
 10
230.7707117342089
 20
18.6259288309953
 30
0.0
 10
230.6242623634024
 20
18.70248098592239
 30
0.0
 10
230.3410337001888
 20
18.85053054316333
 30
0.0
 10
229.920624530949
 20
19.06900609053661
 30
0.0
 10
229.5663053785609
 20
19.25998928060976
 30
0.0
 10
229.3331248347045
 20
19.39874687329382
 30
0.0
 10
229.2515722448472
 20
19.46526693001294
 30
0.0
 10
229.3188348657952
 20
19.45406415655108
 30
0.0
 10
229.5366630422183
 20
19.35450772205401
 30
0.0
 10
229.8976889934568
 20
19.15927604569547
 30
0.0
 10
230.2908316354652
 20
18.92554153780347
 30
0.0
 10
230.6358488799635
 20
18.71151640796852
 30
0.0
 10
230.8980109576836
 20
18.5458961561303
 30
0.0
 10
231.1581158656413
 20
18.3800542455558
 30
0.0
 10
231.398884921484
 20
18.22646244257989
 30
0.0
 10
231.6181053141257
 20
18.08821131192006
 30
0.0
 10
231.8224461448964
 20
17.96112896154049
 30
0.0
 10
231.9182378905861
 20
17.90640285238238
 30
0.0
 10
231.9677178581091
 20
17.87813479980323
 30
0.0
  0
SPLINE
  5
1BE
330
1F
100
AcDbEntity
  8
0
  6
Continuous
 62
     7
370
    25
100
AcDbSpline
210
0.0
220
0.0
230
1.0
 70
    11
 71
     3
 72
    66
 73
    62
 74
     0
 42
0.000000001
 43
0.00000001
 40
0.0
 40
0.0
 40
0.0
 40
0.0
 40
0.0312499999999996
 40
0.0312499999999996
 40
0.0624999999999993
 40
0.0624999999999993
 40
0.1249999999999991
 40
0.1249999999999991
 40
0.1562499999999992
 40
0.1562499999999992
 40
0.1874999999999992
 40
0.1874999999999992
 40
0.2187499999999993
 40
0.2187499999999993
 40
0.2499999999999993
 40
0.2499999999999993
 40
0.2812499999999994
 40
0.2812499999999994
 40
0.3124999999999995
 40
0.3124999999999995
 40
0.3437499999999996
 40
0.3437499999999996
 40
0.3749999999999996
 40
0.3749999999999996
 40
0.4062499999999997
 40
0.4062499999999997
 40
0.4374999999999998
 40
0.4374999999999998
 40
0.4687499999999999
 40
0.4687499999999999
 40
0.4999999999999999
 40
0.4999999999999999
 40
0.53125
 40
0.53125
 40
0.5625
 40
0.5625
 40
0.5937500000000001
 40
0.5937500000000001
 40
0.6250000000000002
 40
0.6250000000000002
 40
0.6562500000000002
 40
0.6562500000000002
 40
0.6875000000000003
 40
0.6875000000000003
 40
0.7187500000000004
 40
0.7187500000000004
 40
0.7500000000000004
 40
0.7500000000000004
 40
0.7812500000000006
 40
0.7812500000000006
 40
0.8125000000000007
 40
0.8125000000000007
 40
0.8437500000000008
 40
0.8437500000000008
 40
0.8750000000000008
 40
0.8750000000000008
 40
0.9062500000000009
 40
0.9062500000000009
 40
0.937500000000001
 40
0.937500000000001
 40
1.0
 40
1.0
 40
1.0
 40
1.0
 10
229.574008833691
 20
40.18950863859162
 30
0.0
 10
229.6366269040384
 20
40.28170770398443
 30
0.0
 10
229.7068009508944
 20
40.36607436778846
 30
0.0
 10
229.8613871377876
 20
40.52000664953587
 30
0.0
 10
229.9464604014525
 20
40.58974632604586
 30
0.0
 10
230.2114777455235
 20
40.76831308480192
 30
0.0
 10
230.4072334063738
 20
40.85069761348021
 30
0.0
 10
230.6999276409739
 20
40.91396075138917
 30
0.0
 10
230.7990553845235
 20
40.92541660794982
 30
0.0
 10
230.9919754013021
 20
40.92881947056138
 30
0.0
 10
231.0861464713786
 20
40.92104085047579
 30
0.0
 10
231.2698398613734
 20
40.88705499391273
 30
0.0
 10
231.3593796332194
 20
40.86058743943872
 30
0.0
 10
231.5269478425847
 20
40.79128602094346
 30
0.0
 10
231.6059092269023
 20
40.74834068689784
 30
0.0
 10
231.7539870312607
 20
40.64554271579112
 30
0.0
 10
231.8223284089391
 20
40.5859958729237
 30
0.0
 10
231.9439272266347
 20
40.45424783550892
 30
0.0
 10
231.9978433700555
 20
40.3816224606031
 30
0.0
 10
232.0913013542094
 20
40.2219943276879
 30
0.0
 10
232.1298538904089
 20
40.13643407189585
 30
0.0
 10
232.1894411479336
 20
39.95693719600617
 30
0.0
 10
232.2107783292475
 20
39.8624881071732
 30
0.0
 10
232.2351646610654
 20
39.66338352442298
 30
0.0
 10
232.2377903785809
 20
39.562210635128
 30
0.0
 10
232.224215050589
 20
39.35645675237625
 30
0.0
 10
232.2076875485676
 20
39.25064084637478
 30
0.0
 10
232.1553279418912
 20
39.04117440007209
 30
0.0
 10
232.1200269575066
 20
38.93864238429682
 30
0.0
 10
232.0311254226124
 20
38.73794540136704
 30
0.0
 10
231.9768925428911
 20
38.63923832840539
 30
0.0
 10
231.8549861054556
 20
38.45623976718199
 30
0.0
 10
231.786739704482
 20
38.37050176164431
 30
0.0
 10
231.6360583409024
 20
38.21176005196864
 30
0.0
 10
231.5561104649249
 20
38.14132114760574
 30
0.0
 10
231.3874201991322
 20
38.01719813647035
 30
0.0
 10
231.2978749929267
 20
37.96331013614208
 30
0.0
 10
231.1169691194019
 20
37.8763637054722
 30
0.0
 10
231.0249207198308
 20
37.84263198072691
 30
0.0
 10
230.8374058645963
 20
37.79440560806828
 30
0.0
 10
230.743780919565
 20
37.78048450196106
 30
0.0
 10
230.5592687597984
 20
37.77227095386822
 30
0.0
 10
230.4671987627849
 20
37.77801344313514
 30
0.0
 10
230.2882520087476
 20
37.80891725592557
 30
0.0
 10
230.2021792151439
 20
37.83375696504267
 30
0.0
 10
230.036504385466
 20
37.90164940541321
 30
0.0
 10
229.9561972758171
 20
37.9452829059074
 30
0.0
 10
229.807210985525
 20
38.0485182454362
 30
0.0
 10
229.7382358973268
 20
38.10800198823523
 30
0.0
 10
229.6114377305243
 20
38.24270472117257
 30
0.0
 10
229.5532594520047
 20
38.31873224682958
 30
0.0
 10
229.4531385317397
 20
38.48138841249355
 30
0.0
 10
229.4106181080582
 20
38.56839067494972
 30
0.0
 10
229.341444276025
 20
38.75404011043313
 30
0.0
 10
229.3148868440073
 20
38.85335178410212
 30
0.0
 10
229.2813085031137
 20
39.05526290500142
 30
0.0
 10
229.2737944228987
 20
39.1588295119241
 30
0.0
 10
229.2788591912725
 20
39.37140483501545
 30
0.0
 10
229.2917114808268
 20
39.47963055374069
 30
0.0
 10
229.3604540202398
 20
39.79637789777441
 30
0.0
 10
229.4487726929964
 20
40.005110507806
 30
0.0
 10
229.5740088336911
 20
40.18950863859162
 30
0.0
  0
LWPOLYLINE
  5
1BF
330
1F
100
AcDbEntity
  8
0
  6
Continuous
 62
     7
370
    25
100
AcDbPolyline
 90
       21
 70
   128
 43
0.0
 10
244.4625523824
 20
24.4667892372
 10
244.522650422
 20
25.2838153207
 10
244.7126039554
 20
26.4018149481
 10
245.0248936798
 20
27.548957341
 10
245.453162277
 20
28.7018899882
 10
245.9886914335
 20
29.8371425059
 10
246.6205793199
 20
30.9316044267
 10
247.3359625211
 20
31.9629956619
 10
248.1202778981
 20
32.9103200603
 10
248.9575590516
 20
33.754292829
 10
249.8307613518
 20
34.4777331163
 10
250.7221089181
 20
35.0659137641
 10
251.6134564843
 20
35.5068611107
 10
252.4866587846
 20
35.7915987396
 10
253.323939938
 20
35.9143302138
 10
254.108255315
 20
35.8725570745
 10
254.8236385162
 20
35.6671297022
 10
255.4555264026
 20
35.302230006
 10
255.9910555591
 20
34.7852862912
 10
256.4193241563
 20
34.1268220413
 10
256.6229625417
 20
33.6642550628
  0
ARC
  5
1C0
330
1F
100
AcDbEntity
  8
0
  6
Continuous
 62
     7
370
    25
100
AcDbCircle
 10
247.9351470471
 20
23.0049057072
 30
0.0
 40
3.270712331011044
100
AcDbArc
 50
224.1225133496
 51
282.1513090616
  0
LINE
  5
1C1
330
1F
100
AcDbEntity
  8
0
  6
Continuous
 62
     7
370
    25
100
AcDbLine
 10
255.0546327842
 20
16.105982768
 30
0.0
 11
254.8541619712
 21
16.2106537198
 31
0.0
  0
LWPOLYLINE
  5
1C2
330
1F
100
AcDbEntity
  8
0
  6
Continuous
 62
     7
370
    25
100
AcDbPolyline
 90
       23
 70
   128
 43
0.0
 10
247.606317464
 20
20.3947452929
 10
247.2300115723
 20
20.6573413791
 10
246.7420688753
 20
21.1799564532
 10
246.364051982
 20
21.8414088193
 10
246.1045041622
 20
22.6267495
 10
245.969291257
 20
23.5182296132
 10
245.9614691096
 20
24.4957015006
 10
246.0812145023
 20
25.5370740703
 10
246.3258211613
 20
26.6188120596
 10
246.6897609193
 20
27.7164679383
 10
247.1648086529
 20
28.8052344279
 10
247.7402281729
 20
29.8605051524
 10
248.4030148641
 20
30.8584307478
 10
249.1381895931
 20
31.7764578634
 10
249.9291372398
 20
32.5938388725
 10
250.7579822033
 20
33.2921007742
 10
251.6059923945
 20
33.855462687
 10
252.4540025858
 20
34.2711925005
 10
253.2828475493
 20
34.5298946241
 10
254.073795196
 20
34.6257223296
 10
254.808969925
 20
34.5565098886
 10
255.4717566162
 20
34.3238215184
 10
255.6056673251
 20
34.251527091
  0
LWPOLYLINE
  5
1C3
330
1F
100
AcDbEntity
  8
0
  6
Continuous
 62
     7
370
    25
100
AcDbPolyline
 90
       17
 70
   128
 43
0.0
 10
257.0287737688
 20
25.2137160069
 10
256.9614921454
 20
25.5654709531
 10
256.7698902923
 20
25.7859926885
 10
256.4831378549
 20
25.8417087779
 10
256.1448902923
 20
25.7241369518
 10
255.8066427297
 20
25.4511764549
 10
255.5198902923
 20
25.0643830484
 10
255.3282884393
 20
24.6226425222
 10
255.2610068158
 20
24.1932058671
 10
255.3282884393
 20
23.8414509208
 10
255.5198902923
 20
23.6209291854
 10
255.8066427297
 20
23.565213096
 10
256.1448902923
 20
23.6827849221
 10
256.4831378549
 20
23.955745419
 10
256.7698902923
 20
24.3425388255
 10
256.9614921454
 20
24.7842793517
 10
257.0287737688
 20
25.2137160069
  0
LINE
  5
1C4
330
1F
100
AcDbEntity
  8
0
  6
Continuous
 62
     7
370
    25
100
AcDbLine
 10
256.7290095949
 20
19.4583369537
 30
0.0
 11
256.6320216072
 21
19.5196879131
 31
0.0
  0
LINE
  5
1C5
330
1F
100
AcDbEntity
  8
0
  6
Continuous
 62
     7
370
    25
100
AcDbLine
 10
218.548951684
 20
23.7109330994
 30
0.0
 11
218.4557787484
 21
23.7289452261
 31
0.0
  0
ARC
  5
1C6
330
1F
100
AcDbEntity
  8
0
  6
Continuous
 62
     7
370
    25
100
AcDbCircle
 10
257.8177775761
 20
23.7044054214
 30
0.0
 40
13.02011219365124
100
AcDbArc
 50
126.2674599823
 51
167.9963515928
  0
LWPOLYLINE
  5
1C7
330
1F
100
AcDbEntity
  8
0
  6
Continuous
 62
     7
370
    25
100
AcDbPolyline
 90
       16
 70
   128
 43
0.0
 10
245.6308119805
 20
24.3757954179
 10
245.6926929872
 20
25.3650580044
 10
245.8769536878
 20
26.403668389
 10
246.1794780027
 20
27.4684257319
 10
246.5935080388
 20
28.5355451136
 10
247.109795049
 20
29.5811888503
 10
247.7168060348
 20
30.581998989
 10
248.4009813738
 20
31.5156190848
 10
249.1470377194
 20
32.3611936077
 10
249.9383094058
 20
33.09983382
 10
250.757120731
 20
33.71503972
 10
251.5851808031
 20
34.1930686245
 10
252.4039921283
 20
34.5232421576
 10
253.1952638147
 20
34.6981847883
 10
253.9413201604
 20
34.7139885871
 10
254.2750917375
 20
34.6654892562
  0
LWPOLYLINE
  5
1C8
330
1F
100
AcDbEntity
  8
0
  6
Continuous
 62
     7
370
    25
100
AcDbPolyline
 90
        3
 70
   128
 43
0.0
 10
246.5824392152
 20
21.339980396
 10
246.1794780027
 20
21.9166414092
 10
245.9491371923
 20
22.4221792996
  0
LINE
  5
1C9
330
1F
100
AcDbEntity
  8
0
  6
Continuous
 62
     7
370
    25
100
AcDbLine
 10
245.6781585817
 20
23.5685045046
 30
0.0
 11
245.6308119805
 21
24.3757954179
 31
0.0
  0
LWPOLYLINE
  5
1CA
330
1F
100
AcDbEntity
  8
0
  6
Continuous
 62
     7
370
    25
100
AcDbPolyline
 90
        3
 70
   128
 43
0.0
 10
246.8525414592
 20
21.0349144017
 10
246.3378366886
 20
21.4631637817
 10
245.9256453429
 20
22.0182826722
  0
LWPOLYLINE
  5
1CB
330
1F
100
AcDbEntity
  8
0
  6
Continuous
 62
     7
370
    25
100
AcDbPolyline
 90
       16
 70
   128
 43
0.0
 10
245.5831363937
 20
24.4116634779
 10
245.6479821047
 20
25.4244403089
 10
245.8409993091
 20
26.4883477737
 10
246.1576638473
 20
27.5784487829
 10
246.5905533708
 20
28.6691922929
 10
247.1295213162
 20
29.7350122003
 10
247.7619347316
 20
30.7509265896
 10
248.4729703826
 20
31.6931232889
 10
249.2459621962
 20
32.5395180058
 10
250.0627918993
 20
33.2702719658
 10
250.9043136961
 20
33.8682569152
 10
251.7508030289
 20
34.3194565938
 10
252.5824189052
 20
34.6132952634
 10
253.3796689537
 20
34.7428855947
 10
254.123866309
 20
34.7051901002
 10
254.4502321276
 20
34.6298057133
  0
ARC
  5
1CC
330
1F
100
AcDbEntity
  8
0
  6
Continuous
 62
     7
370
    25
100
AcDbCircle
 10
248.935355051
 20
23.5063160828
 30
0.0
 40
3.20677549277287
100
AcDbArc
 50
201.32185159
 51
225.8304407352
  0
LWPOLYLINE
  5
1CD
330
1F
100
AcDbEntity
  8
0
  6
Continuous
 62
     7
370
    25
100
AcDbPolyline
 90
       17
 70
   128
 43
0.0
 10
230.2636137074
 20
38.2021544918
 10
230.6494365622
 20
38.0892911533
 10
231.0716719692
 20
38.158415881
 10
231.4660384153
 20
38.3990050616
 10
231.7724971839
 20
38.7744311735
 10
231.9443927057
 20
39.2275389943
 10
231.9555554457
 20
39.6893469657
 10
231.8042859779
 20
40.0895490104
 10
231.5136137074
 20
40.3672179949
 10
231.1277908527
 20
40.4800813335
 10
230.7055554457
 20
40.4109566058
 10
230.3111889996
 20
40.1703674251
 10
230.004730231
 20
39.7949413133
 10
229.8328347092
 20
39.3418334925
 10
229.8216719692
 20
38.8800255211
 10
229.972941437
 20
38.4798234764
 10
230.2636137074
 20
38.2021544918
  0
SPLINE
  5
1CE
330
1F
100
AcDbEntity
  8
0
  6
Continuous
 62
     7
370
    25
100
AcDbSpline
210
0.0
220
0.0
230
1.0
 70
     8
 71
     3
 72
    14
 73
    10
 74
     0
 42
0.000000001
 43
0.00000001
 40
0.0
 40
0.0
 40
0.0
 40
0.0
 40
0.25
 40
0.25
 40
0.5
 40
0.5
 40
0.75
 40
0.75
 40
1.0
 40
1.0
 40
1.0
 40
1.0
 10
208.7201975002785
 20
37.08007655409526
 30
0.0
 10
208.6730243930462
 20
37.05284409894913
 30
0.0
 10
208.6174603283474
 20
37.03109974080819
 30
0.0
 10
208.4955348562284
 20
37.00085431340217
 30
0.0
 10
208.4294383353526
 20
36.99255528329186
 30
0.0
 10
208.2972464062158
 20
36.9911226675121
 30
0.0
 10
208.2303112546851
 20
36.9980726416937
 30
0.0
 10
208.1077007630147
 20
37.02628199530312
 30
0.0
 10
208.050765308211
 20
37.04785783961077
 30
0.0
 10
208.0040227648389
 20
37.07484173553117
 30
0.0
  0
SPLINE
  5
1CF
330
1F
100
AcDbEntity
  8
0
  6
Continuous
 62
     7
370
    25
100
AcDbSpline
210
0.0
220
0.0
230
1.0
 70
     8
 71
     3
 72
    12
 73
     8
 74
     0
 42
0.000000001
 43
0.00000001
 40
0.0
 40
0.0
 40
0.0
 40
0.0
 40
0.2500000000000032
 40
0.2500000000000032
 40
0.5000000000000064
 40
0.5000000000000064
 40
1.0
 40
1.0
 40
1.0
 40
1.0
 10
236.3324859209186
 20
64.84006633068546
 30
0.0
 10
236.3862579398666
 20
64.80902440489272
 30
0.0
 10
236.4387462149848
 20
64.7600497756359
 30
0.0
 10
236.5297521419234
 20
64.6433189007864
 30
0.0
 10
236.5683264954527
 20
64.57586743545325
 30
0.0
 10
236.6581500847489
 20
64.37155020844637
 30
0.0
 10
236.6860393115118
 20
64.23118737924896
 30
0.0
 10
236.6860393115118
 20
64.10837065419426
 30
0.0
  0
LINE
  5
1D0
330
1F
100
AcDbEntity
  8
0
  6
Continuous
 62
     7
370
    25
100
AcDbLine
 10
208.0040227648
 20
37.0748417355
 30
0.0
 11
206.3465747302
 21
38.0316661194
 31
0.0
  0
LWPOLYLINE
  5
1D1
330
1F
100
AcDbEntity
  8
0
  6
Continuous
 62
     7
370
    25
100
AcDbPolyline
 90
       25
 70
   128
 43
0.0
 10
206.3465747302
 20
38.0316661194
 10
206.7360467047
 20
39.9200870585
 10
207.2456400003
 20
41.8339908227
 10
207.8717228943
 20
43.7597375786
 10
208.6098334769
 20
45.6836030916
 10
209.4547114495
 20
47.591876534
 10
210.4003356134
 20
49.4709581983
 10
211.4399667815
 20
51.3074564182
 10
212.566195806
 20
53.0882830072
 10
213.7709963816
 20
54.8007465344
 10
215.0457822464
 20
56.4326427721
 10
216.3814683738
 20
57.9723416727
 10
217.7685357189
 20
59.4088702516
 10
219.1970990578
 20
60.7319907891
 10
220.6569774368
 20
61.9322737917
 10
222.137766729
 20
63.0011651929
 10
223.6289137816
 20
63.9310473158
 10
225.119791625
 20
64.7152931621
 10
226.5997752083
 20
65.3483136407
 10
228.0583171205
 20
65.8255973995
 10
229.4850227596
 20
66.1437429766
 10
230.8697244109
 20
66.3004830412
 10
232.2025537104
 20
66.2947005529
 10
233.4740119727
 20
66.1264367216
 10
234.6750378863
 20
65.7968907145
  0
LINE
  5
1D2
330
1F
100
AcDbEntity
  8
0
  6
Continuous
 62
     7
370
    25
100
AcDbLine
 10
234.6750378863
 20
65.7968907145
 30
0.0
 11
236.3324859209
 21
64.8400663307
 31
0.0
  0
LINE
  5
1D3
330
1F
100
AcDbEntity
  8
0
  6
Continuous
 62
     7
370
    25
100
AcDbLine
 10
241.1231343635
 20
55.3776234347
 30
0.0
 11
242.5616511226
 21
56.2080614834
 31
0.0
  0
LINE
  5
1D4
330
1F
100
AcDbEntity
  8
0
  6
Continuous
 62
     7
370
    25
100
AcDbLine
 10
241.1231343635
 20
54.8376579587
 30
0.0
 11
241.1231343635
 21
55.3776234347
 31
0.0
  0
LINE
  5
1D5
330
1F
100
AcDbEntity
  8
0
  6
Continuous
 62
     7
370
    25
100
AcDbLine
 10
208.7201975003
 20
28.0981276234
 30
0.0
 11
210.0811466694
 21
28.8837868554
 31
0.0
  0
LINE
  5
1D6
330
1F
100
AcDbEntity
  8
0
  6
Continuous
 62
     7
370
    25
100
AcDbLine
 10
210.0811466694
 20
28.8837868554
 30
0.0
 11
210.0811466694
 21
37.8657357862
 31
0.0
  0
LINE
  5
1D7
330
1F
100
AcDbEntity
  8
0
  6
Continuous
 62
     7
370
    25
100
AcDbLine
 10
210.0811466694
 20
37.8657357862
 30
0.0
 11
208.7201975003
 21
37.0800765541
 31
0.0
  0
LINE
  5
1D8
330
1F
100
AcDbEntity
  8
0
  6
Continuous
 62
     7
370
    25
100
AcDbLine
 10
236.6860393115
 20
64.1083706542
 30
0.0
 11
236.6860393115
 21
61.5327161508
 31
0.0
  0
LINE
  5
1D9
330
1F
100
AcDbEntity
  8
0
  6
Continuous
 62
     7
370
    25
100
AcDbLine
 10
238.9165007151
 20
62.8203341113
 30
0.0
 11
236.6860393115
 21
61.5327161508
 31
0.0
  0
LWPOLYLINE
  5
1DA
330
1F
100
AcDbEntity
  8
0
  6
Continuous
 62
     7
370
    25
100
AcDbPolyline
 90
       22
 70
   128
 43
0.0
 10
205.3677891392
 20
39.5778684485
 10
205.7803887225
 20
41.4880679963
 10
206.3205878331
 20
43.4227247002
 10
206.9840735905
 20
45.3663925098
 10
207.7655488099
 20
47.3035534311
 10
208.6587742934
 20
49.2187414203
 10
209.6566186437
 20
51.0966658626
 10
210.7511151996
 20
52.9223336506
 10
211.9335256413
 20
54.6811688873
 10
213.1944097559
 20
56.3591292582
 10
214.5237008065
 20
57.9428181434
 10
215.9107859043
 20
59.4195915743
 10
217.3445907402
 20
60.7776591817
 10
218.8136680005
 20
62.0061783284
 10
220.3062887613
 20
63.0953406752
 10
221.8105361302
 20
64.0364504901
 10
223.3144003896
 20
64.8219940733
 10
224.8058748804
 20
65.4456997456
 10
226.2730518621
 20
65.9025879213
 10
227.7042175821
 20
66.1890108637
 10
229.0879457973
 20
66.302681809
 10
230.2990914251
 20
66.2549480743
  0
SPLINE
  5
1DB
330
1F
100
AcDbEntity
  8
0
  6
Continuous
 62
     7
370
    25
100
AcDbSpline
210
0.0
220
0.0
230
1.0
 70
     8
 71
     3
 72
     8
 73
     4
 74
     0
 42
0.000000001
 43
0.00000001
 40
0.0
 40
0.0
 40
0.0
 40
0.0
 40
1.0
 40
1.0
 40
1.0
 40
1.0
 10
205.3677891391754
 20
39.57786844853487
 30
0.0
 10
204.92525278533
 20
39.50618191810561
 30
0.0
 10
204.4826435952783
 20
39.43464575250384
 30
0.0
 10
204.0399718890619
 20
39.36323959619914
 30
0.0
  0
LWPOLYLINE
  5
1DC
330
1F
100
AcDbEntity
  8
0
  6
Continuous
 62
     7
370
    25
100
AcDbPolyline
 90
       25
 70
   128
 43
0.0
 10
204.0399718891
 20
39.3632395962
 10
204.4294438636
 20
41.2516605354
 10
204.9390371592
 20
43.1655642995
 10
205.5651200532
 20
45.0913110554
 10
206.3032306358
 20
47.0151765685
 10
207.1481086084
 20
48.9234500109
 10
208.0937327723
 20
50.8025316751
 10
209.1333639404
 20
52.639029895
 10
210.2595929649
 20
54.4198564841
 10
211.4643935405
 20
56.1323200112
 10
212.7391794053
 20
57.764216249
 10
214.0748655327
 20
59.3039151495
 10
215.4619328778
 20
60.7404437284
 10
216.8904962167
 20
62.063564266
 10
218.3503745957
 20
63.2638472686
 10
219.8311638879
 20
64.3327386697
 10
221.3223109405
 20
65.2626207926
 10
222.8131887839
 20
66.0468666389
 10
224.2931723671
 20
66.6798871175
 10
225.7517142794
 20
67.1571708763
 10
227.1784199184
 20
67.4753164534
 10
228.5631215698
 20
67.6320565181
 10
229.8959508693
 20
67.6262740297
 10
231.1674091316
 20
67.4580101984
 10
232.3684350451
 20
67.1284641914
  0
LINE
  5
1DD
330
1F
100
AcDbEntity
  8
0
  6
Continuous
 62
     7
370
    25
100
AcDbLine
 10
232.3684350451
 20
67.1284641914
 30
0.0
 11
232.6646105471
 21
66.1845551692
 31
0.0
  0
LINE
  5
1DE
330
1F
100
AcDbEntity
  8
0
  6
Continuous
 62
     7
370
    25
100
AcDbLine
 10
228.2007579373
 20
69.5344129737
 30
0.0
 11
232.3684350451
 21
67.1284641914
 31
0.0
  0
LINE
  5
1DF
330
1F
100
AcDbEntity
  8
0
  6
Continuous
 62
     7
370
    25
100
AcDbLine
 10
204.0399718891
 20
39.3632395962
 30
0.0
 11
203.4078286871
 21
39.728168099
 31
0.0
  0
SPLINE
  5
1E0
330
1F
100
AcDbEntity
  8
0
  6
Continuous
 62
     7
370
    25
100
AcDbSpline
210
0.0
220
0.0
230
1.0
 70
     8
 71
     3
 72
    30
 73
    26
 74
     0
 42
0.000000001
 43
0.00000001
 40
0.0
 40
0.0
 40
0.0
 40
0.0
 40
0.1250000000000002
 40
0.1250000000000002
 40
0.1875000000000003
 40
0.1875000000000003
 40
0.2500000000000004
 40
0.2500000000000004
 40
0.3750000000000001
 40
0.3750000000000001
 40
0.4374999999999998
 40
0.4374999999999998
 40
0.4999999999999996
 40
0.4999999999999996
 40
0.6249999999999996
 40
0.6249999999999996
 40
0.6874999999999997
 40
0.6874999999999997
 40
0.7499999999999997
 40
0.7499999999999997
 40
0.8124999999999998
 40
0.8124999999999998
 40
0.8749999999999999
 40
0.8749999999999999
 40
1.0
 40
1.0
 40
1.0
 40
1.0
 10
203.4078286871263
 20
39.72816809895498
 30
0.0
 10
203.1735130535197
 20
39.86343563498562
 30
0.0
 10
202.938012576991
 20
39.96669816391498
 30
0.0
 10
202.5834621296013
 20
40.07594090167875
 30
0.0
 10
202.4650678662022
 20
40.10469386367546
 30
0.0
 10
202.228013221152
 20
40.14664702832516
 30
0.0
 10
202.1091933099162
 20
40.15975216322726
 30
0.0
 10
201.76054942594
 20
40.17500355224157
 30
0.0
 10
201.535784583298
 20
40.15392479079957
 30
0.0
 10
201.2115739356943
 20
40.07692173892387
 30
0.0
 10
201.105157859783
 20
40.04341313389066
 30
0.0
 10
200.8998486298106
 20
39.96187478776703
 30
0.0
 10
200.8012538993028
 20
39.91406918266571
 30
0.0
 10
200.5177559055039
 20
39.75040197311279
 30
0.0
 10
200.3450129318337
 20
39.61448987663621
 30
0.0
 10
200.1128881333377
 20
39.37011873973113
 30
0.0
 10
200.0405741475116
 20
39.28230165452348
 30
0.0
 10
199.908255833442
 20
39.0969210855832
 30
0.0
 10
199.8479018947212
 20
38.99900008554288
 30
0.0
 10
199.7389387605781
 20
38.79291223483863
 30
0.0
 10
199.69032893548
 20
38.68474542799439
 30
0.0
 10
199.6052931195854
 20
38.45805571448764
 30
0.0
 10
199.5687422404103
 20
38.33891528676486
 30
0.0
 10
199.4797479633175
 20
37.97093095831074
 30
0.0
 10
199.4474114063373
 20
37.71170583301406
 30
0.0
 10
199.4427255000405
 20
37.43849925158391
 30
0.0
  0
ARC
  5
1E1
330
1F
100
AcDbEntity
  8
0
  6
Continuous
 62
     7
370
    25
100
AcDbCircle
 10
223.010790576
 20
37.0302288456
 30
0.0
 40
23.57160105191403
100
AcDbArc
 50
179.0075624958
 51
180.9924375042
  0
SPLINE
  5
1E2
330
1F
100
AcDbEntity
  8
0
  6
Continuous
 62
     7
370
    25
100
AcDbSpline
210
0.0
220
0.0
230
1.0
 70
     8
 71
     3
 72
    30
 73
    26
 74
     0
 42
0.000000001
 43
0.00000001
 40
0.0
 40
0.0
 40
0.0
 40
0.0
 40
0.1249999999999996
 40
0.1249999999999996
 40
0.1874999999999994
 40
0.1874999999999994
 40
0.2499999999999993
 40
0.2499999999999993
 40
0.3749999999999992
 40
0.3749999999999992
 40
0.4374999999999993
 40
0.4374999999999993
 40
0.4999999999999994
 40
0.4999999999999994
 40
0.6249999999999992
 40
0.6249999999999992
 40
0.6874999999999993
 40
0.6874999999999993
 40
0.7499999999999994
 40
0.7499999999999994
 40
0.8124999999999997
 40
0.8124999999999997
 40
0.8749999999999998
 40
0.8749999999999998
 40
1.0
 40
1.0
 40
1.0
 40
1.0
 10
199.4427255000405
 20
36.62195843969816
 30
0.0
 10
199.4474117466992
 20
36.35414263906643
 30
0.0
 10
199.479721267018
 20
36.08042647408102
 30
0.0
 10
199.5673793223866
 20
35.66117832688562
 30
0.0
 10
199.6031734937
 20
35.5199679081933
 30
0.0
 10
199.6880341085525
 20
35.23446729320116
 30
0.0
 10
199.7372867564662
 20
35.08988222837014
 30
0.0
 10
199.9014910926356
 20
34.66078995921852
 30
0.0
 10
200.033543550696
 20
34.37781714373468
 30
0.0
 10
200.2635941182149
 20
33.95681323299754
 30
0.0
 10
200.3460571567087
 20
33.81640816312375
 30
0.0
 10
200.5198088919278
 20
33.53974386902953
 30
0.0
 10
200.6106104837615
 20
33.40415931998314
 30
0.0
 10
200.8940049559928
 20
33.00506225322351
 30
0.0
 10
201.0974848306599
 20
32.74913531021632
 30
0.0
 10
201.4233928179087
 20
32.37950933018064
 30
0.0
 10
201.5351334333698
 20
32.25919048299512
 30
0.0
 10
201.7604375375071
 20
32.02835288486432
 30
0.0
 10
201.8745601849862
 20
31.91719029078477
 30
0.0
 10
202.1054699715506
 20
31.70311648160979
 30
0.0
 10
202.2222573875594
 20
31.60020535487532
 30
0.0
 10
202.4583403500292
 20
31.4026471879601
 30
0.0
 10
202.5782177244189
 20
31.30757541535471
 30
0.0
 10
202.9367009795827
 20
31.03877033675214
 30
0.0
 10
203.1735096461459
 20
30.88148867127737
 30
0.0
 10
203.4078286871263
 20
30.74621916821174
 30
0.0
  0
LINE
  5
1E3
330
1F
100
AcDbEntity
  8
0
  6
Continuous
 62
     7
370
    25
100
AcDbLine
 10
203.4078286871
 20
30.7462191682
 30
0.0
 11
204.0399718891
 21
30.3812906655
 31
0.0
  0
LWPOLYLINE
  5
1E4
330
1F
100
AcDbEntity
  8
0
  6
Continuous
 62
     7
370
    25
100
AcDbPolyline
 90
        9
 70
   128
 43
0.0
 10
209.9921583761
 20
22.6026686754
 10
209.1788912135
 20
22.9629087744
 10
208.1295030266
 20
23.5968647132
 10
207.1749925066
 20
24.3839405986
 10
206.3222438421
 20
25.3184598257
 10
205.5774072877
 20
26.3936823886
 10
204.9458548067
 20
27.6018534905
 10
204.4321413269
 20
28.9342594739
 10
204.0399718891
 20
30.3812906655
  0
LINE
  5
1E5
330
1F
100
AcDbEntity
  8
0
  6
Continuous
 62
     7
370
    25
100
AcDbLine
 10
234.3203886881
 20
66.0011210146
 30
0.0
 11
234.6727995253
 21
65.7976785687
 31
0.0
  0
SPLINE
  5
1E6
330
1F
100
AcDbEntity
  8
0
  6
Continuous
 62
     7
370
    25
100
AcDbSpline
210
0.0
220
0.0
230
1.0
 70
     8
 71
     3
 72
    22
 73
    18
 74
     0
 42
0.000000001
 43
0.00000001
 40
0.0
 40
0.0
 40
0.0
 40
0.0
 40
0.2500000000000002
 40
0.2500000000000002
 40
0.3750000000000003
 40
0.3750000000000003
 40
0.5000000000000004
 40
0.5000000000000004
 40
0.6250000000000004
 40
0.6250000000000004
 40
0.7500000000000004
 40
0.7500000000000004
 40
0.8750000000000004
 40
0.8750000000000004
 40
0.9375000000000002
 40
0.9375000000000002
 40
1.0
 40
1.0
 40
1.0
 40
1.0
 10
228.2007579372733
 20
69.53441297366604
 30
0.0
 10
228.6327900328124
 20
69.3661425355596
 30
0.0
 10
229.0831646811777
 20
69.1554665306794
 30
0.0
 10
229.808138122862
 20
68.77037229442274
 30
0.0
 10
230.0601054465814
 20
68.62924675614696
 30
0.0
 10
230.5728975597137
 20
68.33022978692979
 30
0.0
 10
230.8344188717728
 20
68.17206394957398
 30
0.0
 10
231.3719935533713
 20
67.83946400823649
 30
0.0
 10
231.6499560980341
 20
67.66376619687045
 30
0.0
 10
232.2025620167795
 20
67.3121232807771
 30
0.0
 10
232.4795579419508
 20
67.13474445165437
 30
0.0
 10
233.0377455218476
 20
66.7804340323418
 30
0.0
 10
233.3079216110073
 20
66.61057619262937
 30
0.0
 10
233.6993889261038
 20
66.37000720765464
 30
0.0
 10
233.8276361562117
 20
66.29213932510625
 30
0.0
 10
234.0794977953932
 20
66.1415330296078
 30
0.0
 10
234.2023900292396
 20
66.06924019039688
 30
0.0
 10
234.3203886880989
 20
66.00112101459477
 30
0.0
  0
LWPOLYLINE
  5
1E7
330
1F
100
AcDbEntity
  8
0
  6
Continuous
 62
     7
370
    25
100
AcDbPolyline
 90
       12
 70
   128
 43
0.0
 10
215.8596856964
 20
68.7343019889
 10
215.9137597319
 20
68.7643058366
 10
217.3913661841
 20
69.5099595071
 10
218.8560115093
 20
70.1057290892
 10
220.2974222728
 20
70.5474356874
 10
221.7054880139
 20
70.8319810474
 10
223.0703321629
 20
70.9573692878
 10
224.3823813189
 20
70.9227209003
 10
225.6324323997
 20
70.7282789184
 10
226.8117171951
 20
70.3754072128
 10
227.9119638697
 20
69.8665809251
 10
228.042530712
 20
69.7927646029
  0
LWPOLYLINE
  5
1E8
330
1F
100
AcDbEntity
  8
0
  6
Continuous
 62
     7
370
    25
100
AcDbPolyline
 90
       10
 70
   128
 43
0.0
 10
203.0445623961
 20
26.4903214839
 10
202.657080061
 20
26.7283280435
 10
201.6896726029
 20
27.4640590264
 10
200.8194401165
 20
28.3448277028
 10
200.0524866576
 20
29.3644561135
 10
199.3941918535
 20
30.5157922977
 10
198.8491731694
 20
31.7907604592
 10
198.4212535196
 20
33.1804176126
 10
198.1134344531
 20
34.6750163113
 10
197.9585407612
 20
35.9025364881
  0
LINE
  5
1E9
330
1F
100
AcDbEntity
  8
0
  6
Continuous
 62
     7
370
    25
100
AcDbLine
 10
205.6888896889
 20
39.7632358502
 30
0.0
 11
205.3677891392
 21
39.5778684485
 31
0.0
  0
LINE
  5
1EA
330
1F
100
AcDbEntity
  8
0
  6
Continuous
 62
     7
370
    25
100
AcDbLine
 10
206.6495394724
 20
39.5448219316
 30
0.0
 11
206.2628847939
 21
39.7680329264
 31
0.0
  0
SPLINE
  5
1EB
330
1F
100
AcDbEntity
  8
0
  6
Continuous
 62
     7
370
    25
100
AcDbSpline
210
0.0
220
0.0
230
1.0
 70
     8
 71
     3
 72
    12
 73
     8
 74
     0
 42
0.000000001
 43
0.00000001
 40
0.0
 40
0.0
 40
0.0
 40
0.0
 40
0.250000000000003
 40
0.250000000000003
 40
0.500000000000006
 40
0.500000000000006
 40
1.0
 40
1.0
 40
1.0
 40
1.0
 10
206.2628847938675
 20
39.76803292640075
 30
0.0
 10
206.2254927562847
 20
39.78961889022718
 30
0.0
 10
206.1793444454297
 20
39.80705902524965
 30
0.0
 10
206.0806446080471
 20
39.82951515356397
 30
0.0
 10
206.0271330417517
 20
39.83490145916458
 30
0.0
 10
205.8685356220503
 20
39.83282030035446
 30
0.0
 10
205.7638215274325
 20
39.80649307986365
 30
0.0
 10
205.6888896889058
 20
39.76323585023816
 30
0.0
  0
LWPOLYLINE
  5
1EC
330
1F
100
AcDbEntity
  8
0
  6
Continuous
 62
     7
370
    25
100
AcDbPolyline
 90
       18
 70
   128
 43
0.0
 10
198.0865201806
 20
41.4668873681
 10
198.1176114359
 20
41.7012695152
 10
198.4305792622
 20
43.5588610143
 10
198.8655727298
 20
45.4502061223
 10
199.4194577008
 20
47.3616776544
 10
200.0882434214
 20
49.2795034144
 10
200.8671112751
 20
51.1898654237
 10
201.7504495011
 20
53.0789994803
 10
202.7318936273
 20
54.9332943301
 10
203.8043723263
 20
56.739389736
 10
204.9601583645
 20
58.4842727395
 10
206.1909242769
 20
60.1553714184
 10
207.4878023671
 20
61.7406454684
 10
208.8414485985
 20
63.2286729537
 10
210.2421099192
 20
64.6087326022
 10
211.6796945321
 20
65.8708810525
 10
213.1438446073
 20
67.0060244961
 10
214.4333905593
 20
67.8853881485
  0
LINE
  5
1ED
330
1F
100
AcDbEntity
  8
0
  6
Continuous
 62
     7
370
    25
100
AcDbLine
 10
205.1313992011
 20
31.7412152468
 30
0.0
 11
210.0811466694
 21
28.8837868554
 31
0.0
  0
ARC
  5
1EE
330
1F
100
AcDbEntity
  8
0
  6
Continuous
 62
     7
370
    25
100
AcDbCircle
 10
209.271945802
 20
38.2142438471
 30
0.0
 40
7.684024037860194
100
AcDbArc
 50
182.6054784857
 51
237.39452166
  0
LINE
  5
1EF
330
1F
100
AcDbEntity
  8
0
  6
Continuous
 62
     7
370
    25
100
AcDbLine
 10
201.5958652951
 20
38.6814803977
 30
0.0
 11
201.5958652951
 21
37.8649395858
 31
0.0
  0
ARC
  5
1F0
330
1F
100
AcDbEntity
  8
0
  6
Continuous
 62
     7
370
    25
100
AcDbCircle
 10
204.7833874598
 20
38.7980884837
 30
0.0
 40
3.189654369324492
100
AcDbArc
 50
154.4057468235
 51
182.0950985715
  0
SPLINE
  5
1F1
330
1F
100
AcDbEntity
  8
0
  6
Continuous
 62
     7
370
    25
100
AcDbSpline
210
0.0
220
0.0
230
1.0
 70
     8
 71
     3
 72
     8
 73
     4
 74
     0
 42
0.000000001
 43
0.00000001
 40
0.0
 40
0.0
 40
0.0
 40
0.0
 40
1.0
 40
1.0
 40
1.0
 40
1.0
 10
189.8400947162782
 20
43.17481014841064
 30
0.0
 10
190.3069569419451
 20
42.79456856114869
 30
0.0
 10
190.7739917263285
 20
42.42766191260585
 30
0.0
 10
191.2411168385038
 20
42.06773558701389
 30
0.0
  0
SPLINE
  5
1F2
330
1F
100
AcDbEntity
  8
0
  6
Continuous
 62
     7
370
    25
100
AcDbSpline
210
0.0
220
0.0
230
1.0
 70
     8
 71
     3
 72
    14
 73
    10
 74
     0
 42
0.000000001
 43
0.00000001
 40
0.0
 40
0.0
 40
0.0
 40
0.0
 40
0.1249999999999987
 40
0.1249999999999987
 40
0.2499999999999973
 40
0.2499999999999973
 40
0.4999999999999947
 40
0.4999999999999947
 40
1.0
 40
1.0
 40
1.0
 40
1.0
 10
191.2411168385039
 20
42.06773558701385
 30
0.0
 10
191.2675407771771
 20
42.04737557872824
 30
0.0
 10
191.2916047196819
 20
42.03186327541358
 30
0.0
 10
191.327873977107
 20
42.01487990685421
 30
0.0
 10
191.3398923520951
 20
42.01300566544828
 30
0.0
 10
191.3654065987656
 20
42.01714650678353
 30
0.0
 10
191.3696002612136
 20
42.03208889484654
 30
0.0
 10
191.3707070709492
 20
42.08644023119169
 30
0.0
 10
191.3550790858605
 20
42.13786119186769
 30
0.0
 10
191.3354263532269
 20
42.19421001945365
 30
0.0
  0
SPLINE
  5
1F3
330
1F
100
AcDbEntity
  8
0
  6
Continuous
 62
     7
370
    25
100
AcDbSpline
210
0.0
220
0.0
230
1.0
 70
     8
 71
     3
 72
    14
 73
    10
 74
     0
 42
0.000000001
 43
0.00000001
 40
0.0
 40
0.0
 40
0.0
 40
0.0
 40
0.25
 40
0.25
 40
0.5
 40
0.5
 40
0.75
 40
0.75
 40
1.0
 40
1.0
 40
1.0
 40
1.0
 10
191.3354263532264
 20
42.19421001945401
 30
0.0
 10
191.3107605052885
 20
42.26493258199182
 30
0.0
 10
191.299897634564
 20
42.32799887974203
 30
0.0
 10
191.2779472673692
 20
42.45956562070063
 30
0.0
 10
191.2676756725502
 20
42.52751895969231
 30
0.0
 10
191.2383716581916
 20
42.67612396353574
 30
0.0
 10
191.2195789869619
 20
42.75658776996661
 30
0.0
 10
191.1666596824457
 20
42.93615864378094
 30
0.0
 10
191.1325805052668
 20
43.03498968970881
 30
0.0
 10
191.0884942529891
 20
43.14258974468807
 30
0.0
  0
LWPOLYLINE
  5
1F4
330
1F
100
AcDbEntity
  8
0
  6
Continuous
 62
     7
370
    25
100
AcDbPolyline
 90
        9
 70
   128
 43
0.0
 10
191.088494253
 20
43.1425897447
 10
190.7204143291
 20
44.2137352842
 10
190.4552849402
 20
45.3777380037
 10
190.2953175326
 20
46.6248889478
 10
190.2418463957
 20
47.9447856208
 10
190.2953175326
 20
49.3264187543
 10
190.4552849402
 20
50.7582641359
 10
190.7204143291
 20
52.2283787321
 10
191.088494253
 20
53.7245003059
  0
SPLINE
  5
1F5
330
1F
100
AcDbEntity
  8
0
  6
Continuous
 62
     7
370
    25
100
AcDbSpline
210
0.0
220
0.0
230
1.0
 70
     8
 71
     3
 72
    14
 73
    10
 74
     0
 42
0.000000001
 43
0.00000001
 40
0.0
 40
0.0
 40
0.0
 40
0.0
 40
0.25
 40
0.25
 40
0.5
 40
0.5
 40
0.75
 40
0.75
 40
1.0
 40
1.0
 40
1.0
 40
1.0
 10
191.3354263532264
 20
55.77800041876253
 30
0.0
 10
191.3107605052885
 20
55.60632788726967
 30
0.0
 10
191.299897634564
 20
55.43134815509407
 30
0.0
 10
191.2779472673692
 20
55.08254165145288
 30
0.0
 10
191.2676756725502
 20
54.90832755951709
 30
0.0
 10
191.2383716581916
 20
54.56227664756599
 30
0.0
 10
191.2195789869619
 20
54.39039379365075
 30
0.0
 10
191.1666596824457
 20
54.05036212475653
 30
0.0
 10
191.1325805052668
 20
53.88300126425941
 30
0.0
 10
191.0884942529891
 20
53.72450030585646
 30
0.0
  0
SPLINE
  5
1F6
330
1F
100
AcDbEntity
  8
0
  6
Continuous
 62
     7
370
    25
100
AcDbSpline
210
0.0
220
0.0
230
1.0
 70
     8
 71
     3
 72
    14
 73
    10
 74
     0
 42
0.000000001
 43
0.00000001
 40
0.0
 40
0.0
 40
0.0
 40
0.0
 40
0.124999999999999
 40
0.124999999999999
 40
0.249999999999998
 40
0.249999999999998
 40
0.5000000000000007
 40
0.5000000000000007
 40
1.0
 40
1.0
 40
1.0
 40
1.0
 10
191.2411168385039
 20
56.52674416240519
 30
0.0
 10
191.2675407771771
 20
56.52243786313298
 30
0.0
 10
191.2916047196819
 20
56.50655435659257
 30
0.0
 10
191.327873977107
 20
56.45740978370116
 30
0.0
 10
191.3398923520952
 20
56.42639842834883
 30
0.0
 10
191.3654065987656
 20
56.32953988648138
 30
0.0
 10
191.3696002612136
 20
56.25925926560524
 30
0.0
 10
191.3707070709492
 20
56.05285786352736
 30
0.0
 10
191.3550790858605
 20
55.91478202750519
 30
0.0
 10
191.3354263532269
 20
55.77800041876244
 30
0.0
  0
SPLINE
  5
1F7
330
1F
100
AcDbEntity
  8
0
  6
Continuous
 62
     7
370
    25
100
AcDbSpline
210
0.0
220
0.0
230
1.0
 70
     8
 71
     3
 72
     8
 73
     4
 74
     0
 42
0.000000001
 43
0.00000001
 40
0.0
 40
0.0
 40
0.0
 40
0.0
 40
1.0
 40
1.0
 40
1.0
 40
1.0
 10
189.8400947162782
 20
56.69595705629015
 30
0.0
 10
190.3069569419451
 20
56.66386730222485
 30
0.0
 10
190.7739917263285
 20
56.60287136491919
 30
0.0
 10
191.2411168385039
 20
56.5267441624052
 30
0.0
  0
SPLINE
  5
1F8
330
1F
100
AcDbEntity
  8
0
  6
Continuous
 62
     7
370
    25
100
AcDbSpline
210
0.0
220
0.0
230
1.0
 70
     8
 71
     3
 72
    14
 73
    10
 74
     0
 42
0.000000001
 43
0.00000001
 40
0.0
 40
0.0
 40
0.0
 40
0.0
 40
0.5000000000000012
 40
0.5000000000000012
 40
0.7500000000000018
 40
0.7500000000000018
 40
0.8750000000000009
 40
0.8750000000000009
 40
1.0
 40
1.0
 40
1.0
 40
1.0
 10
186.9955573390596
 20
57.62053893245261
 30
0.0
 10
187.4605918717747
 20
57.42419368319172
 30
0.0
 10
187.9274477930565
 20
57.23654117172361
 30
0.0
 10
188.6344741786611
 20
56.98652321477912
 30
0.0
 10
188.8712591615522
 20
56.90836195698027
 30
0.0
 10
189.2300397996839
 20
56.80779469158526
 30
0.0
 10
189.350238623685
 20
56.77707319533361
 30
0.0
 10
189.5928407217948
 20
56.72579848894904
 30
0.0
 10
189.7150924793837
 20
56.70454907941604
 30
0.0
 10
189.8400947162782
 20
56.6959570562901
 30
0.0
  0
SPLINE
  5
1F9
330
1F
100
AcDbEntity
  8
0
  6
Continuous
 62
     7
370
    25
100
AcDbSpline
210
0.0
220
0.0
230
1.0
 70
     8
 71
     3
 72
    14
 73
    10
 74
     0
 42
0.000000001
 43
0.00000001
 40
0.0
 40
0.0
 40
0.0
 40
0.0
 40
0.5000000000000012
 40
0.5000000000000012
 40
0.7500000000000018
 40
0.7500000000000018
 40
0.8750000000000009
 40
0.8750000000000009
 40
1.0
 40
1.0
 40
1.0
 40
1.0
 10
186.9955573390596
 20
45.29759495657838
 30
0.0
 10
187.4605918717747
 20
44.96274964033994
 30
0.0
 10
187.9274477930565
 20
44.62396146526835
 30
0.0
 10
188.6344741786611
 20
44.10166571823552
 30
0.0
 10
188.8712591615522
 20
43.92524401014511
 30
0.0
 10
189.2300397996839
 20
43.65316185862612
 30
0.0
 10
189.350238623685
 20
43.56121649726919
 30
0.0
 10
189.5928407217948
 20
43.37279047643884
 30
0.0
 10
189.7150924793837
 20
43.27661973238417
 30
0.0
 10
189.8400947162782
 20
43.17481014841066
 30
0.0
  0
SPLINE
  5
1FA
330
1F
100
AcDbEntity
  8
0
  6
Continuous
 62
     7
370
    25
100
AcDbSpline
210
0.0
220
0.0
230
1.0
 70
     8
 71
     3
 72
    17
 73
    13
 74
     0
 42
0.000000001
 43
0.00000001
 40
0.0
 40
0.0
 40
0.0
 40
0.0
 40
0.1207962425168691
 40
0.2420176420893305
 40
0.3632153958032823
 40
0.4839596863811465
 40
0.6040259613654086
 40
0.6645179312025149
 40
0.7242649567763655
 40
0.8441758595302914
 40
0.9646454607716681
 40
1.0
 40
1.0
 40
1.0
 40
1.0
 10
195.4538008732272
 20
42.85381891335511
 30
0.0
 10
195.2500320517472
 20
43.2277084816388
 30
0.0
 10
194.8417772196566
 20
43.97680356797958
 30
0.0
 10
194.6485109017394
 20
45.12512258551796
 30
0.0
 10
194.8538685006108
 20
46.07745928034323
 30
0.0
 10
195.4131754686543
 20
46.71093270775808
 30
0.0
 10
196.0890163830834
 20
46.85221814042715
 30
0.0
 10
196.664017375333
 20
46.72606892239385
 30
0.0
 10
197.2438047296052
 20
46.43781802353278
 30
0.0
 10
197.9108564630929
 20
45.78052797329556
 30
0.0
 10
198.4414871055861
 20
44.95510334036673
 30
0.0
 10
198.600551741086
 20
44.43319153473139
 30
0.0
 10
198.6366415079133
 20
44.314776304906
 30
0.0
  0
SPLINE
  5
1FB
330
1F
100
AcDbEntity
  8
0
  6
Continuous
 62
     7
370
    25
100
AcDbSpline
210
0.0
220
0.0
230
1.0
 70
     8
 71
     3
 72
    12
 73
     8
 74
     0
 42
0.000000001
 43
0.00000001
 40
0.0
 40
0.0
 40
0.0
 40
0.0
 40
0.0353743914170103
 40
0.3560361562156444
 40
0.5160473320085335
 40
0.6782078136075389
 40
1.0
 40
1.0
 40
1.0
 40
1.0
 10
197.9570255448994
 20
40.8216289312485
 30
0.0
 10
197.9343190724813
 20
40.8177819316542
 30
0.0
 10
197.7057829807736
 20
40.77906265215125
 30
0.0
 10
197.2319702025948
 20
41.04265058048319
 30
0.0
 10
196.6632697272763
 20
41.45207419289724
 30
0.0
 10
196.0798211018319
 20
41.9883019212029
 30
0.0
 10
195.7038160200725
 20
42.50815539003365
 30
0.0
 10
195.4538008732272
 20
42.85381891335511
 30
0.0
  0
ARC
  5
1FC
330
1F
100
AcDbEntity
  8
0
  6
Continuous
 62
     7
370
    25
100
AcDbCircle
 10
217.1047737321
 20
28.4318047846
 30
0.0
 40
8.701932434585368
100
AcDbArc
 50
214.5542828759
 51
265.4839182579
  0
SPLINE
  5
1FD
330
1F
100
AcDbEntity
  8
0
  6
Continuous
 62
     7
370
    25
100
AcDbSpline
210
0.0
220
0.0
230
1.0
 70
     8
 71
     3
 72
    14
 73
    10
 74
     0
 42
0.000000001
 43
0.00000001
 40
0.0
 40
0.0
 40
0.0
 40
0.0
 40
0.25
 40
0.25
 40
0.5
 40
0.5
 40
0.75
 40
0.75
 40
1.0
 40
1.0
 40
1.0
 40
1.0
 10
208.0040227648389
 20
28.09289280478793
 30
0.0
 10
208.0512439282625
 20
28.06563260739311
 30
0.0
 10
208.1075306876938
 20
28.04435067586896
 30
0.0
 10
208.230960035767
 20
28.01599604603784
 30
0.0
 10
208.2976133592269
 20
28.00915266369767
 30
0.0
 10
208.4297382361685
 20
28.01063477932683
 30
0.0
 10
208.4960975921532
 20
28.01902531101301
 30
0.0
 10
208.6173518242739
 20
28.04914363448432
 30
0.0
 10
208.6734629267511
 20
28.07114832832509
 30
0.0
 10
208.7201975002785
 20
28.09812762335201
 30
0.0
  0
LINE
  5
1FE
330
1F
100
AcDbEntity
  8
0
  6
Continuous
 62
     7
370
    25
100
AcDbLine
 10
206.3465747302
 20
29.0497171886
 30
0.0
 11
208.0040227648
 21
28.0928928048
 31
0.0
  0
SPLINE
  5
1FF
330
1F
100
AcDbEntity
  8
0
  6
Continuous
 62
     7
370
    25
100
AcDbSpline
210
0.0
220
0.0
230
1.0
 70
     8
 71
     3
 72
     8
 73
     4
 74
     0
 42
0.000000001
 43
0.00000001
 40
0.0
 40
0.0
 40
0.0
 40
0.0
 40
1.0
 40
1.0
 40
1.0
 40
1.0
 10
206.7183630912417
 20
29.81624977100094
 30
0.0
 10
206.5941849233567
 20
29.56077897177486
 30
0.0
 10
206.4702672232149
 20
29.3052661251019
 30
0.0
 10
206.3465747301828
 20
29.04971718861524
 30
0.0
  0
LINE
  5
200
330
1F
100
AcDbEntity
  8
0
  6
Continuous
 62
     7
370
    25
100
AcDbLine
 10
207.039463641
 20
30.0016171727
 30
0.0
 11
206.7183630912
 21
29.816249771
 31
0.0
  0
SPLINE
  5
201
330
1F
100
AcDbEntity
  8
0
  6
Continuous
 62
     7
370
    25
100
AcDbSpline
210
0.0
220
0.0
230
1.0
 70
     8
 71
     3
 72
    12
 73
     8
 74
     0
 42
0.000000001
 43
0.00000001
 40
0.0
 40
0.0
 40
0.0
 40
0.0
 40
0.2500000000000014
 40
0.2500000000000014
 40
0.5000000000000029
 40
0.5000000000000029
 40
1.0
 40
1.0
 40
1.0
 40
1.0
 10
207.0477733209846
 20
30.3329774935959
 30
0.0
 10
207.0851653585675
 20
30.31139152976947
 30
0.0
 10
207.1153758318849
 20
30.2847506769794
 30
0.0
 10
207.1542752018944
 20
30.2277724736736
 30
0.0
 10
207.1636055678243
 20
30.1968809039968
 30
0.0
 10
207.1600005044105
 20
30.10532456243474
 30
0.0
 10
207.1143954794989
 20
30.04487440232972
 30
0.0
 10
207.0394636409721
 20
30.00161717270425
 30
0.0
  0
LINE
  5
202
330
1F
100
AcDbEntity
  8
0
  6
Continuous
 62
     7
370
    25
100
AcDbLine
 10
206.2628847939
 20
30.7860839957
 30
0.0
 11
207.047773321
 21
30.3329774936
 31
0.0
  0
SPLINE
  5
203
330
1F
100
AcDbEntity
  8
0
  6
Continuous
 62
     7
370
    25
100
AcDbSpline
210
0.0
220
0.0
230
1.0
 70
     8
 71
     3
 72
    14
 73
    10
 74
     0
 42
0.000000001
 43
0.00000001
 40
0.0
 40
0.0
 40
0.0
 40
0.0
 40
0.25
 40
0.25
 40
0.5
 40
0.5
 40
0.75
 40
0.75
 40
1.0
 40
1.0
 40
1.0
 40
1.0
 10
205.6888896889058
 20
30.78128691949494
 30
0.0
 10
205.7267354866843
 20
30.80313483350655
 30
0.0
 10
205.7710544038323
 20
30.82050747829546
 30
0.0
 10
205.8687559403843
 20
30.84486895298733
 30
0.0
 10
205.9215090719962
 20
30.85158291751889
 30
0.0
 10
206.0274624292246
 20
30.8529403671049
 30
0.0
 10
206.0808267155199
 20
30.84756266596581
 30
0.0
 10
206.1800044902917
 20
30.82492172244996
 30
0.0
 10
206.2250113836929
 20
30.8079478499661
 30
0.0
 10
206.2628847938675
 20
30.7860839956575
 30
0.0
  0
LINE
  5
204
330
1F
100
AcDbEntity
  8
0
  6
Continuous
 62
     7
370
    25
100
AcDbLine
 10
205.3677891392
 20
30.5959195178
 30
0.0
 11
205.6888896889
 21
30.7812869195
 31
0.0
  0
SPLINE
  5
205
330
1F
100
AcDbEntity
  8
0
  6
Continuous
 62
     7
370
    25
100
AcDbSpline
210
0.0
220
0.0
230
1.0
 70
     8
 71
     3
 72
     8
 73
     4
 74
     0
 42
0.000000001
 43
0.00000001
 40
0.0
 40
0.0
 40
0.0
 40
0.0
 40
1.0
 40
1.0
 40
1.0
 40
1.0
 10
204.0399718890619
 20
30.3812906654559
 30
0.0
 10
204.4826435952783
 20
30.4526968217606
 30
0.0
 10
204.92525278533
 20
30.52423298736237
 30
0.0
 10
205.3677891391754
 20
30.59591951779162
 30
0.0
  0
LWPOLYLINE
  5
206
330
1F
100
AcDbEntity
  8
0
  6
Continuous
 62
     7
370
    25
100
AcDbPolyline
 90
        8
 70
   128
 43
0.0
 10
211.0921549332
 20
21.8445452003
 10
210.4361058677
 20
22.2652912364
 10
209.4815953477
 20
23.0523671217
 10
208.6288466832
 20
23.9868863489
 10
207.8840101288
 20
25.0621089118
 10
207.2524576479
 20
26.2702800137
 10
206.738744168
 20
27.6026859971
 10
206.3465747302
 20
29.0497171886
  0
ARC
  5
207
330
1F
100
AcDbEntity
  8
0
  6
Continuous
 62
     7
370
    25
100
AcDbCircle
 10
216.879739675
 20
33.0580925741
 30
0.0
 40
11.77231078839021
100
AcDbArc
 50
192.0725161402
 51
215.0023069837
  0
SPLINE
  5
208
330
1F
100
AcDbEntity
  8
0
  6
Continuous
 62
     7
370
    25
100
AcDbSpline
210
0.0
220
0.0
230
1.0
 70
     8
 71
     3
 72
    17
 73
    13
 74
     0
 42
0.000000001
 43
0.00000001
 40
0.0
 40
0.0
 40
0.0
 40
0.0
 40
0.0458238197013103
 40
0.1668533140501004
 40
0.2827088310741456
 40
0.4019109514628414
 40
0.5181142086093375
 40
0.6375855657575545
 40
0.7556076508380348
 40
0.8770141985060336
 40
0.9955787663000911
 40
1.0
 40
1.0
 40
1.0
 40
1.0
 10
196.8548767090388
 20
46.52254698797662
 30
0.0
 10
196.8430180381682
 20
46.47569324263792
 30
0.0
 10
196.7998383436799
 20
46.30508977185837
 30
0.0
 10
196.7993805518167
 20
45.97582728533635
 30
0.0
 10
196.8535049753389
 20
45.5469545261202
 30
0.0
 10
196.9781608213494
 20
45.10936324180789
 30
0.0
 10
197.1653369825746
 20
44.66743515456427
 30
0.0
 10
197.4071532430236
 20
44.23720655436616
 30
0.0
 10
197.6987168072448
 20
43.81968066695985
 30
0.0
 10
198.026742211384
 20
43.4393422806158
 30
0.0
 10
198.2648141875709
 20
43.19135570762059
 30
0.0
 10
198.389188272044
 20
43.08990144472729
 30
0.0
 10
198.3936594133221
 20
43.08625425130614
 30
0.0
  0
SPLINE
  5
209
330
1F
100
AcDbEntity
  8
0
  6
Continuous
 62
     7
370
    25
100
AcDbSpline
210
0.0
220
0.0
230
1.0
 70
     8
 71
     3
 72
    11
 73
     7
 74
     0
 42
0.000000001
 43
0.00000001
 40
0.0
 40
0.0
 40
0.0
 40
0.0
 40
0.1889487772985926
 40
0.3635156497545727
 40
0.6686735998903492
 40
0.9999999999999999
 40
0.9999999999999999
 40
0.9999999999999999
 40
0.9999999999999999
 10
195.7441143244281
 20
43.03622931863715
 30
0.0
 10
195.8706556851869
 20
42.85304473861346
 30
0.0
 10
196.1141066650491
 20
42.50061873943856
 30
0.0
 10
196.6308004326507
 20
41.93921590793232
 30
0.0
 10
197.3051296414862
 20
41.38119563900123
 30
0.0
 10
197.7599751459673
 20
41.22416816116917
 30
0.0
 10
197.9967481688196
 20
41.14242640439489
 30
0.0
  0
SPLINE
  5
20A
330
1F
100
AcDbEntity
  8
0
  6
Continuous
 62
     7
370
    25
100
AcDbSpline
210
0.0
220
0.0
230
1.0
 70
     8
 71
     3
 72
    15
 73
    11
 74
     0
 42
0.000000001
 43
0.00000001
 40
0.0
 40
0.0
 40
0.0
 40
0.0
 40
0.0285605476709558
 40
0.1766232318549284
 40
0.2612395802949257
 40
0.3527785602254561
 40
0.5145481225169334
 40
0.6763327574615497
 40
0.838156054147605
 40
1.0
 40
1.0
 40
1.0
 40
1.0
 10
197.3989089547375
 20
46.23753766383042
 30
0.0
 10
197.35606907472
 20
46.28038387132317
 30
0.0
 10
197.0911400492634
 20
46.54535202695107
 30
0.0
 10
196.6300378026963
 20
46.65788725166277
 30
0.0
 10
196.1199640298718
 20
46.66512666370537
 30
0.0
 10
195.6341054279543
 20
46.48935213658375
 30
0.0
 10
195.1821310349881
 20
46.00116861511773
 30
0.0
 10
194.9926517248902
 20
45.1204285425456
 30
0.0
 10
195.1714696062488
 20
44.06742938840009
 30
0.0
 10
195.5532246333607
 20
43.3799772944703
 30
0.0
 10
195.7441143244281
 20
43.03622931863715
 30
0.0
  0
SPLINE
  5
20B
330
1F
100
AcDbEntity
  8
0
  6
Continuous
 62
     7
370
    25
100
AcDbSpline
210
0.0
220
0.0
230
1.0
 70
     8
 71
     3
 72
     9
 73
     5
 74
     0
 42
0.000000001
 43
0.00000001
 40
0.0
 40
0.0
 40
0.0
 40
0.0
 40
0.1883699358114422
 40
1.0
 40
1.0
 40
1.0
 40
1.0
 10
236.6860393115118
 20
64.09538448946635
 30
0.0
 10
236.7284153536379
 20
64.10491698905825
 30
0.0
 10
236.9533771658478
 20
64.15552219604535
 30
0.0
 10
237.1791444924033
 20
64.20492095697622
 30
0.0
 10
237.3623840421473
 20
64.24501447648137
 30
0.0
  0
LINE
  5
20C
330
1F
100
AcDbEntity
  8
0
  6
Continuous
 62
     7
370
    25
100
AcDbLine
 10
237.3623840421
 20
64.2450144765
 30
0.0
 11
239.0198320768
 21
63.2881900927
 31
0.0
  0
SPLINE
  5
20D
330
1F
100
AcDbEntity
  8
0
  6
Continuous
 62
     7
370
    25
100
AcDbSpline
210
0.0
220
0.0
230
1.0
 70
     8
 71
     3
 72
    16
 73
    12
 74
     0
 42
0.000000001
 43
0.00000001
 40
0.0
 40
0.0
 40
0.0
 40
0.0
 40
0.125
 40
0.125
 40
0.25
 40
0.25
 40
0.5
 40
0.5
 40
0.75
 40
0.75
 40
1.0
 40
1.0
 40
1.0
 40
1.0
 10
239.019832076803
 20
63.28819009265428
 30
0.0
 10
239.0465740443614
 20
63.27275228338586
 30
0.0
 10
239.0695446430079
 20
63.25486056397862
 30
0.0
 10
239.1055215951321
 20
63.21668056743349
 30
0.0
 10
239.1187841339112
 20
63.1963967499629
 30
0.0
 10
239.145539244617
 20
63.13227041866817
 30
0.0
 10
239.1447222393566
 20
63.087777567039
 30
0.0
 10
239.1166418491103
 20
63.00269787469509
 30
0.0
 10
239.0890724941858
 20
62.96132501864876
 30
0.0
 10
239.0158983384265
 20
62.88589388594076
 30
0.0
 10
238.9696645000137
 20
62.85102491111697
 30
0.0
 10
238.9165007150854
 20
62.82033411134989
 30
0.0
  0
LINE
  5
20E
330
1F
100
AcDbEntity
  8
0
  6
Continuous
 62
     7
370
    25
100
AcDbLine
 10
189.6327834601
 20
48.9967388607
 30
0.0
 11
190.2555569914
 21
48.6372193537
 31
0.0
  0
SPLINE
  5
20F
330
1F
100
AcDbEntity
  8
0
  6
Continuous
 62
     7
370
    25
100
AcDbSpline
210
0.0
220
0.0
230
1.0
 70
     8
 71
     3
 72
    14
 73
    10
 74
     0
 42
0.000000001
 43
0.00000001
 40
0.0
 40
0.0
 40
0.0
 40
0.0
 40
0.046445391184
 40
0.2343826205052895
 40
0.4277888231146942
 40
0.615260594339011
 40
0.8083235809291174
 40
0.9930336944220376
 40
1.0
 40
1.0
 40
1.0
 40
1.0
 10
242.5616511225593
 20
56.20806148340782
 30
0.0
 10
242.5666263440039
 20
56.21100868538122
 30
0.0
 10
242.5917333656061
 20
56.22588148339359
 30
0.0
 10
242.632117755778
 20
56.25605130732787
 30
0.0
 10
242.673547157219
 20
56.30063080464298
 30
0.0
 10
242.7019592687596
 20
56.34913246247576
 30
0.0
 10
242.7136962411039
 20
56.39876013694642
 30
0.0
 10
242.7159539148129
 20
56.43333547092514
 30
0.0
 10
242.7102254813296
 20
56.44999595804534
 30
0.0
 10
242.710017286611
 20
56.45060146833669
 30
0.0
  0
LINE
  5
210
330
1F
100
AcDbEntity
  8
0
  6
Continuous
 62
     7
370
    25
100
AcDbLine
 10
186.9807922889
 20
58.6781700867
 30
0.0
 11
186.9969673322
 21
58.7267949708
 31
0.0
  0
SPLINE
  5
211
330
1F
100
AcDbEntity
  8
0
  6
Continuous
 62
     7
370
    25
100
AcDbSpline
210
0.0
220
0.0
230
1.0
 70
     8
 71
     3
 72
    16
 73
    12
 74
     0
 42
0.000000001
 43
0.00000001
 40
0.0
 40
0.0
 40
0.0
 40
0.0
 40
0.033284021327402
 40
0.1625860574914008
 40
0.239429176431566
 40
0.3008074939093621
 40
0.3624184247505691
 40
0.4362073363221934
 40
0.5596791779709344
 40
0.9141724606808207
 40
1.0
 40
1.0
 40
1.0
 40
1.0
 10
187.0231449505411
 20
58.80548926724124
 30
0.0
 10
187.0247880254902
 20
58.81050285311333
 30
0.0
 10
187.0328141313358
 20
58.83499325806829
 30
0.0
 10
187.0434301423248
 20
58.85961584789643
 30
0.0
 10
187.0534841000924
 20
58.87703284625282
 30
0.0
 10
187.058344082125
 20
58.87640396381124
 30
0.0
 10
187.0595468165968
 20
58.8610357344322
 30
0.0
 10
187.0562688965924
 20
58.82446529127178
 30
0.0
 10
187.0407581056505
 20
58.72414063956995
 30
0.0
 10
187.0177640920637
 20
58.60884459527394
 30
0.0
 10
186.9990594323263
 20
58.51980042709258
 30
0.0
 10
186.9954135113551
 20
58.50244389643724
 30
0.0
  0
SPLINE
  5
212
330
1F
100
AcDbEntity
  8
0
  6
Continuous
 62
     7
370
    25
100
AcDbSpline
210
0.0
220
0.0
230
1.0
 70
     8
 71
     3
 72
    10
 73
     6
 74
     0
 42
0.000000001
 43
0.00000001
 40
0.0
 40
0.0
 40
0.0
 40
0.0
 40
0.1815690553731935
 40
0.7767097940434246
 40
1.0
 40
1.0
 40
1.0
 40
1.0
 10
186.9114763800982
 20
58.2385652573133
 30
0.0
 10
186.9098515657452
 20
58.26427071921059
 30
0.0
 10
186.9029009913821
 20
58.37423265063662
 30
0.0
 10
186.9336582125856
 20
58.51699194301289
 30
0.0
 10
186.9706892228273
 20
58.64362197283788
 30
0.0
 10
186.9807922888929
 20
58.67817008667149
 30
0.0
  0
SPLINE
  5
213
330
1F
100
AcDbEntity
  8
0
  6
Continuous
 62
     7
370
    25
100
AcDbSpline
210
0.0
220
0.0
230
1.0
 70
     8
 71
     3
 72
     8
 73
     4
 74
     0
 42
0.000000001
 43
0.00000001
 40
0.0
 40
0.0
 40
0.0
 40
0.0
 40
1.0
 40
1.0
 40
1.0
 40
1.0
 10
186.9063281886888
 20
57.64153588224312
 30
0.0
 10
186.934930484263
 20
57.63998246710958
 30
0.0
 10
186.9646268640004
 20
57.63359828914688
 30
0.0
 10
186.9955573390584
 20
57.62053893245896
 30
0.0
  0
SPLINE
  5
214
330
1F
100
AcDbEntity
  8
0
  6
Continuous
 62
     7
370
    25
100
AcDbSpline
210
0.0
220
0.0
230
1.0
 70
     8
 71
     3
 72
    10
 73
     6
 74
     0
 42
0.000000001
 43
0.00000001
 40
0.0
 40
0.0
 40
0.0
 40
0.0
 40
0.4999999999999989
 40
0.4999999999999989
 40
1.0
 40
1.0
 40
1.0
 40
1.0
 10
186.9954135113556
 20
58.50244389643747
 30
0.0
 10
186.9654250414467
 20
58.36065304026747
 30
0.0
 10
186.9449917422602
 20
58.21839522422416
 30
0.0
 10
186.9163587550343
 20
57.93158495605439
 30
0.0
 10
186.9084876953879
 20
57.78712842285886
 30
0.0
 10
186.9063281886896
 20
57.6415358822394
 30
0.0
  0
ARC
  5
215
330
1F
100
AcDbEntity
  8
0
  6
Continuous
 62
     7
370
    25
100
AcDbCircle
 10
188.1256609578
 20
57.473481644
 30
0.0
 40
1.230859305077977
100
AcDbArc
 50
172.152662553
 51
234.515109951
  0
ARC
  5
216
330
1F
100
AcDbEntity
  8
0
  6
Continuous
 62
     7
370
    25
100
AcDbCircle
 10
190.638829825
 20
45.2701258486
 30
0.0
 40
3.73404912087588
100
AcDbArc
 50
122.5266432908
 51
178.3504108787
  0
SPLINE
  5
217
330
1F
100
AcDbEntity
  8
0
  6
Continuous
 62
     7
370
    25
100
AcDbSpline
210
0.0
220
0.0
230
1.0
 70
     8
 71
     3
 72
     8
 73
     4
 74
     0
 42
0.000000001
 43
0.00000001
 40
0.0
 40
0.0
 40
0.0
 40
0.0
 40
1.0
 40
1.0
 40
1.0
 40
1.0
 10
186.9063281886895
 20
45.37761711467706
 30
0.0
 10
186.9349304842635
 20
45.34691971081914
 30
0.0
 10
186.9646268640006
 20
45.31986625896882
 30
0.0
 10
186.9955573390584
 20
45.29759495657383
 30
0.0
  0
LINE
  5
218
330
1F
100
AcDbEntity
  8
0
  6
Continuous
 62
     7
370
    25
100
AcDbLine
 10
188.6310624621
 20
48.4184576376
 30
0.0
 11
189.6327834601
 21
48.9967388607
 31
0.0
  0
SPLINE
  5
219
330
1F
100
AcDbEntity
  8
0
  6
Continuous
 62
     7
370
    25
100
AcDbSpline
210
0.0
220
0.0
230
1.0
 70
     8
 71
     3
 72
     9
 73
     5
 74
     0
 42
0.000000001
 43
0.00000001
 40
0.0
 40
0.0
 40
0.0
 40
0.0
 40
0.3882939128165532
 40
0.9999999999999999
 40
0.9999999999999999
 40
0.9999999999999999
 40
0.9999999999999999
 10
186.9401333585014
 20
46.44476795250401
 30
0.0
 10
186.9318140278253
 20
46.39805515589216
 30
0.0
 10
186.9103886837716
 20
46.27775248034153
 30
0.0
 10
186.911063556402
 20
46.15505423658816
 30
0.0
 10
186.9114763800982
 20
46.07999897399751
 30
0.0
  0
ARC
  5
21A
330
1F
100
AcDbEntity
  8
0
  6
Continuous
 62
     7
370
    25
100
AcDbCircle
 10
189.4237436937
 20
45.9573358665
 30
0.0
 40
2.530989991238405
100
AcDbArc
 50
122.9343892187
 51
168.8962877716
  0
LINE
  5
21B
330
1F
100
AcDbEntity
  8
0
  6
Continuous
 62
     7
370
    25
100
AcDbLine
 10
188.6310624621
 20
48.4184576376
 30
0.0
 11
188.0476993676
 21
48.0815798139
 31
0.0
  0
SPLINE
  5
21C
330
1F
100
AcDbEntity
  8
0
  6
Continuous
 62
     7
370
    25
100
AcDbSpline
210
0.0
220
0.0
230
1.0
 70
     8
 71
     3
 72
     9
 73
     5
 74
     0
 42
0.000000001
 43
0.00000001
 40
0.0
 40
0.0
 40
0.0
 40
0.0
 40
0.2389808940603586
 40
1.0
 40
1.0
 40
1.0
 40
1.0
 10
186.9513157712486
 20
45.23585051021835
 30
0.0
 10
186.9439837721349
 20
45.24597860041584
 30
0.0
 10
186.9133034989587
 20
45.28835893478241
 30
0.0
 10
186.9093425480267
 20
45.33904446090424
 30
0.0
 10
186.9063281886897
 20
45.37761711467756
 30
0.0
  0
ARC
  5
21D
330
1F
100
AcDbEntity
  8
0
  6
Continuous
 62
     7
370
    25
100
AcDbCircle
 10
263.6229110664
 20
33.6659938936
 30
0.0
 40
1.546650626317811
100
AcDbArc
 50
63.3764923147
 51
113.7986242027
  0
LWPOLYLINE
  5
21E
330
1F
100
AcDbEntity
  8
0
  6
Continuous
 62
     7
370
    25
100
AcDbPolyline
 90
        9
 70
   128
 43
0.0
 10
258.3762887006
 20
34.0947030395
 10
258.7787943036
 20
34.7669706875
 10
259.2559774291
 20
35.3678919654
 10
259.7839101225
 20
35.8673341709
 10
260.3361196343
 20
36.2402531864
 10
260.8849158737
 20
36.4679492954
 10
261.4027799057
 20
36.5390048641
 10
261.8637438652
 20
36.4498568696
 10
262.0179082462
 20
36.375317035
  0
LWPOLYLINE
  5
21F
330
1F
100
AcDbEntity
  8
0
  6
Continuous
 62
     7
370
    25
100
AcDbPolyline
 90
        3
 70
   128
 43
0.0
 10
257.9251748574
 20
32.9125038945
 10
258.0686439318
 20
33.3847993283
 10
258.3762887006
 20
34.0947030395
  0
LWPOLYLINE
  5
220
330
1F
100
AcDbEntity
  8
0
  6
Continuous
 62
     7
370
    25
100
AcDbPolyline
 90
       18
 70
   128
 43
0.0
 10
261.9591943248
 20
32.2263768733
 10
262.2509249608
 20
32.670171629
 10
262.6091028201
 20
33.0120345915
 10
262.9853539981
 20
33.2057952734
 10
263.3288636882
 20
33.2252852208
 10
263.5932390034
 20
33.0678722085
 10
263.7427745924
 20
32.7548157359
 10
263.7572748453
 20
32.3283958144
 10
263.6347814226
 20
31.8462028173
 10
263.3918377398
 20
31.3733595807
 10
263.0612546875
 20
30.9737262039
 10
262.6876793386
 20
30.7012753889
 10
262.3215651142
 20
30.5928031278
 10
262.0123577689
 20
30.6629592008
 10
261.8018174681
 20
30.9022686412
 10
261.718378846
 20
31.2784113832
 10
261.773310751
 20
31.7405872652
 10
261.9591943248
 20
32.2263768733
  0
SPLINE
  5
221
330
1F
100
AcDbEntity
  8
0
  6
Continuous
 62
     7
370
    25
100
AcDbSpline
210
0.0
220
0.0
230
1.0
 70
     8
 71
     3
 72
    10
 73
     6
 74
     0
 42
0.000000001
 43
0.00000001
 40
0.0
 40
0.0
 40
0.0
 40
0.0
 40
0.5448984398719867
 40
0.9323587239875517
 40
1.0
 40
1.0
 40
1.0
 40
1.0
 10
262.0801872240621
 20
30.63736232880318
 30
0.0
 10
261.9716015462923
 20
30.80106336640226
 30
0.0
 10
261.785803980066
 20
31.08116710567369
 30
0.0
 10
261.7115236460068
 20
31.33029857952477
 30
0.0
 10
261.7208246976774
 20
31.40802817332074
 30
0.0
 10
261.7222071034047
 20
31.41958104276554
 30
0.0
  0
SPLINE
  5
222
330
1F
100
AcDbEntity
  8
0
  6
Continuous
 62
     7
370
    25
100
AcDbSpline
210
0.0
220
0.0
230
1.0
 70
     8
 71
     3
 72
    10
 73
     6
 74
     0
 42
0.000000001
 43
0.00000001
 40
0.0
 40
0.0
 40
0.0
 40
0.0
 40
0.4391256427914805
 40
0.7513741901692105
 40
1.0
 40
1.0
 40
1.0
 40
1.0
 10
263.0848428591096
 20
31.00969303383286
 30
0.0
 10
262.8804774943907
 20
30.99133762208667
 30
0.0
 10
262.5307942933866
 20
30.95993024958992
 30
0.0
 10
262.2190973053387
 20
30.80076687628135
 30
0.0
 10
262.1228513677612
 20
30.68754957965377
 30
0.0
 10
262.0801872240621
 20
30.63736232880318
 30
0.0
  0
SPLINE
  5
223
330
1F
100
AcDbEntity
  8
0
  6
Continuous
 62
     7
370
    25
100
AcDbSpline
210
0.0
220
0.0
230
1.0
 70
     8
 71
     3
 72
    11
 73
     7
 74
     0
 42
0.000000001
 43
0.00000001
 40
0.0
 40
0.0
 40
0.0
 40
0.0
 40
0.1842415722604901
 40
0.5169669473866323
 40
0.8653135817995172
 40
1.0
 40
1.0
 40
1.0
 40
1.0
 10
263.7428957267228
 20
32.29046660311819
 30
0.0
 10
263.6772532291623
 20
32.23205902453513
 30
0.0
 10
263.4930656912121
 20
32.06817208396102
 30
0.0
 10
263.2361849923514
 20
31.71321839343123
 30
0.0
 10
263.1188146434598
 20
31.31162335811438
 30
0.0
 10
263.0922500045376
 20
31.07552536686587
 30
0.0
 10
263.0848428591096
 20
31.00969303383286
 30
0.0
  0
SPLINE
  5
224
330
1F
100
AcDbEntity
  8
0
  6
Continuous
 62
     7
370
    25
100
AcDbSpline
210
0.0
220
0.0
230
1.0
 70
     8
 71
     3
 72
    10
 73
     6
 74
     0
 42
0.000000001
 43
0.00000001
 40
0.0
 40
0.0
 40
0.0
 40
0.0
 40
0.439125642791479
 40
0.7513741901692104
 40
1.0
 40
1.0
 40
1.0
 40
1.0
 10
263.3962929592884
 20
33.19890946737382
 30
0.0
 10
263.3853750107564
 20
33.10380373770315
 30
0.0
 10
263.3666936495759
 20
32.94107129020249
 30
0.0
 10
263.5361599521034
 20
32.59100624318232
 30
0.0
 10
263.6793999407074
 20
32.382772836569
 30
0.0
 10
263.7428957267228
 20
32.29046660311819
 30
0.0
  0
SPLINE
  5
225
330
1F
100
AcDbEntity
  8
0
  6
Continuous
 62
     7
370
    25
100
AcDbSpline
210
0.0
220
0.0
230
1.0
 70
     8
 71
     3
 72
    10
 73
     6
 74
     0
 42
0.000000001
 43
0.00000001
 40
0.0
 40
0.0
 40
0.0
 40
0.0
 40
0.1405317477038166
 40
0.6190127298482468
 40
1.0
 40
1.0
 40
1.0
 40
1.0
 10
262.632797118035
 20
33.01675695089502
 30
0.0
 10
262.6524481668742
 20
33.03418674252816
 30
0.0
 10
262.7390068953117
 20
33.11096130113006
 30
0.0
 10
263.0263587135802
 20
33.16955825011085
 30
0.0
 10
263.2826732156882
 20
33.18989468212897
 30
0.0
 10
263.3962929592884
 20
33.19890946737382
 30
0.0
  0
LINE
  5
226
330
1F
100
AcDbEntity
  8
0
  6
Continuous
 62
     7
370
    25
100
AcDbLine
 10
261.769713172
 20
31.6437606735
 30
0.0
 11
261.9342501271
 21
31.6739160796
 31
0.0
  0
SPLINE
  5
227
330
1F
100
AcDbEntity
  8
0
  6
Continuous
 62
     7
370
    25
100
AcDbSpline
210
0.0
220
0.0
230
1.0
 70
     8
 71
     3
 72
    12
 73
     8
 74
     0
 42
0.000000001
 43
0.00000001
 40
0.0
 40
0.0
 40
0.0
 40
0.0
 40
0.1085663926331082
 40
0.3613179569444753
 40
0.6207352184085633
 40
0.809248533500454
 40
1.0
 40
1.0
 40
1.0
 40
1.0
 10
261.9342501270788
 20
31.67391607964923
 30
0.0
 10
261.9471930679892
 20
31.72513769799353
 30
0.0
 10
261.9902682485605
 20
31.89560749110985
 30
0.0
 10
262.0885768755253
 20
32.18385639934696
 30
0.0
 10
262.2440145359276
 20
32.49021797241362
 30
0.0
 10
262.4172747293455
 20
32.74658114496511
 30
0.0
 10
262.5337311585284
 20
32.88504777038084
 30
0.0
 10
262.5923029946919
 20
32.95468964893456
 30
0.0
  0
LINE
  5
228
330
1F
100
AcDbEntity
  8
0
  6
Continuous
 62
     7
370
    25
100
AcDbLine
 10
262.5923029947
 20
32.9546896489
 30
0.0
 11
263.7428957267
 21
32.2904666031
 31
0.0
  0
LINE
  5
229
330
1F
100
AcDbEntity
  8
0
  6
Continuous
 62
     7
370
    25
100
AcDbLine
 10
261.9342501271
 20
31.6739160796
 30
0.0
 11
263.0848428591
 21
31.0096930338
 31
0.0
  0
LINE
  5
22A
330
1F
100
AcDbEntity
  8
0
  6
Continuous
 62
     7
370
    25
100
AcDbLine
 10
241.7244066288
 20
17.964802307
 30
0.0
 11
241.6057178085
 21
18.0433156637
 31
0.0
  0
LWPOLYLINE
  5
22B
330
1F
100
AcDbEntity
  8
0
  6
Continuous
 62
     7
370
    25
100
AcDbPolyline
 90
       18
 70
   128
 43
0.0
 10
243.9657333082
 20
24.080667295
 10
244.1055465579
 20
24.1237609945
 10
244.6222131653
 20
24.1905295629
 10
245.0813168287
 20
24.0971097423
 10
245.4598361735
 20
23.8481859926
 10
245.738790659
 20
23.4562403899
 10
245.9041923426
 20
22.9409267234
 10
245.9477472932
 20
22.3280849721
 10
245.8672714838
 20
21.6484455804
 10
245.6668003074
 20
20.9360885054
 10
245.3563862259
 20
20.2267343053
 10
244.9515946975
 20
19.5559529617
 10
244.4727236598
 20
18.9573802521
 10
243.9437857061
 20
18.4610311117
 10
243.3913039941
 20
18.0917945588
 10
242.8429822639
 20
17.8681856561
 10
242.3263156565
 20
17.8014170877
 10
242.3263156565
 20
17.8014170877
  0
LWPOLYLINE
  5
22C
330
1F
100
AcDbEntity
  8
0
  6
Continuous
 62
     7
370
    25
100
AcDbPolyline
 90
       16
 70
   128
 43
0.0
 10
239.4263095899
 20
19.2914654887
 10
239.1905956095
 20
19.4704238397
 10
238.9116411239
 20
19.8623694424
 10
238.7462394403
 20
20.3776831089
 10
238.7026844897
 20
20.9905248602
 10
238.7831602992
 20
21.6701642519
 10
238.9836314756
 20
22.3825213269
 10
239.2940455571
 20
23.091875527
 10
239.6988370855
 20
23.7626568706
 10
240.1777081232
 20
24.3612295802
 10
240.7066460768
 20
24.8575787206
 10
241.2591277888
 20
25.2268152735
 10
241.8074495191
 20
25.4504241762
 10
242.3241161264
 20
25.5171927446
 10
242.7832197899
 20
25.4237729241
 10
242.9260251542
 20
25.3538075253
  0
LWPOLYLINE
  5
22D
330
1F
100
AcDbEntity
  8
0
  6
Continuous
 62
     7
370
    25
100
AcDbPolyline
 90
       18
 70
   128
 43
0.0
 10
243.1754623365
 20
19.5704632986
 10
242.8794481921
 20
19.6687957334
 10
242.6876419463
 20
19.9325883011
 10
242.6259480954
 20
20.3262143539
 10
242.7026987359
 20
20.7965125122
 10
242.9075282684
 20
21.2799664035
 10
243.2127733296
 20
21.7112829011
 10
243.5772088826
 20
22.0322103219
 10
243.9516158864
 20
22.1994056393
 10
244.2854286007
 20
22.1902881994
 10
244.5335637686
 20
22.0060893629
 10
244.6625093607
 20
21.6716862034
 10
244.6548505603
 20
21.2322417204
 10
244.5116217308
 20
20.7471053266
 10
244.2521667193
 20
20.2817973802
 10
243.9115263628
 20
19.8991602975
 10
243.535706029
 20
19.650871337
 10
243.1754623365
 20
19.5704632986
  0
SPLINE
  5
22E
330
1F
100
AcDbEntity
  8
0
  6
Continuous
 62
     7
370
    25
100
AcDbSpline
210
0.0
220
0.0
230
1.0
 70
     8
 71
     3
 72
    11
 73
     7
 74
     0
 42
0.000000001
 43
0.00000001
 40
0.0
 40
0.0
 40
0.0
 40
0.0
 40
0.1346864182004823
 40
0.4830330526133649
 40
0.8157584277395068
 40
1.0
 40
1.0
 40
1.0
 40
1.0
 10
243.6884685837914
 20
19.743365404721
 30
0.0
 10
243.629922357596
 20
19.75616966567049
 30
0.0
 10
243.4199549181469
 20
19.80209026654115
 30
0.0
 10
243.0957901683443
 20
19.84868063015278
 30
0.0
 10
242.8792483850056
 20
19.82299143777699
 30
0.0
 10
242.80923430116
 20
19.78249425677308
 30
0.0
 10
242.7842820194846
 20
19.76806148822182
 30
0.0
  0
SPLINE
  5
22F
330
1F
100
AcDbEntity
  8
0
  6
Continuous
 62
     7
370
    25
100
AcDbSpline
210
0.0
220
0.0
230
1.0
 70
     8
 71
     3
 72
    10
 73
     6
 74
     0
 42
0.000000001
 43
0.00000001
 40
0.0
 40
0.0
 40
0.0
 40
0.0
 40
0.4391256427914814
 40
0.7513741901692084
 40
1.0
 40
1.0
 40
1.0
 40
1.0
 10
244.5505435639452
 20
20.87193030498115
 30
0.0
 10
244.3665901790791
 20
20.74531169884463
 30
0.0
 10
244.0518332801105
 20
20.52865855137319
 30
0.0
 10
243.7909071712335
 20
20.1002112771065
 30
0.0
 10
243.7199310563118
 20
19.85296525116837
 30
0.0
 10
243.6884685837914
 20
19.743365404721
 30
0.0
  0
SPLINE
  5
230
330
1F
100
AcDbEntity
  8
0
  6
Continuous
 62
     7
370
    25
100
AcDbSpline
210
0.0
220
0.0
230
1.0
 70
     8
 71
     3
 72
    10
 73
     6
 74
     0
 42
0.000000001
 43
0.00000001
 40
0.0
 40
0.0
 40
0.0
 40
0.0
 40
0.4391256427914801
 40
0.7513741901692101
 40
0.9999999999999999
 40
0.9999999999999999
 40
0.9999999999999999
 40
0.9999999999999999
 10
244.5084319797923
 20
22.0251912887421
 30
0.0
 10
244.4539227887937
 20
21.8950371682033
 30
0.0
 10
244.3606538123273
 20
21.67233451231794
 30
0.0
 10
244.4216952721823
 20
21.23509332507374
 30
0.0
 10
244.5109697476704
 20
20.98347036840245
 30
0.0
 10
244.5505435639452
 20
20.87193030498115
 30
0.0
  0
SPLINE
  5
231
330
1F
100
AcDbEntity
  8
0
  6
Continuous
 62
     7
370
    25
100
AcDbSpline
210
0.0
220
0.0
230
1.0
 70
     8
 71
     3
 72
    11
 73
     7
 74
     0
 42
0.000000001
 43
0.00000001
 40
0.0
 40
0.0
 40
0.0
 40
0.0
 40
0.1842415722604894
 40
0.5169669473866326
 40
0.8653135817995171
 40
1.0
 40
1.0
 40
1.0
 40
1.0
 10
243.6042454154855
 20
22.04988737224292
 30
0.0
 10
243.6291976971609
 20
22.06432014079417
 30
0.0
 10
243.6992117810065
 20
22.10481732179808
 30
0.0
 10
243.9157535643452
 20
22.13050651417391
 30
0.0
 10
244.2399183141478
 20
22.08391615056224
 30
0.0
 10
244.4498857535969
 20
22.03799554969158
 30
0.0
 10
244.5084319797923
 20
22.02519128874211
 30
0.0
  0
SPLINE
  5
232
330
1F
100
AcDbEntity
  8
0
  6
Continuous
 62
     7
370
    25
100
AcDbSpline
210
0.0
220
0.0
230
1.0
 70
     8
 71
     3
 72
     9
 73
     5
 74
     0
 42
0.000000001
 43
0.00000001
 40
0.0
 40
0.0
 40
0.0
 40
0.0
 40
0.8222141367848685
 40
1.0
 40
1.0
 40
1.0
 40
1.0
 10
242.7842820194846
 20
19.76806148822182
 30
0.0
 10
242.7079579179758
 20
19.97407879466961
 30
0.0
 10
242.6151303952003
 20
20.22464284754929
 30
0.0
 10
242.634936965911
 20
20.42158716920889
 30
0.0
 10
242.6384582941822
 20
20.45660108544046
 30
0.0
  0
LINE
  5
233
330
1F
100
AcDbEntity
  8
0
  6
Continuous
 62
     7
370
    25
100
AcDbLine
 10
243.3999508319
 20
21.5361533508
 30
0.0
 11
243.3368170366
 21
21.8268325178
 31
0.0
  0
SPLINE
  5
234
330
1F
100
AcDbEntity
  8
0
  6
Continuous
 62
     7
370
    25
100
AcDbSpline
210
0.0
220
0.0
230
1.0
 70
     8
 71
     3
 72
    10
 73
     6
 74
     0
 42
0.000000001
 43
0.00000001
 40
0.0
 40
0.0
 40
0.0
 40
0.0
 40
0.3648076939048135
 40
0.6793037445595654
 40
1.0
 40
1.0
 40
1.0
 40
1.0
 10
242.7067074785951
 20
20.74747614472588
 30
0.0
 10
242.7741716340628
 20
20.85435001381765
 30
0.0
 10
242.8997957757638
 20
21.05335847960006
 30
0.0
 10
243.1410917226793
 20
21.31540197282033
 30
0.0
 10
243.3131047806498
 20
21.46209226967435
 30
0.0
 10
243.3999508319143
 20
21.53615335079751
 30
0.0
  0
LINE
  5
235
330
1F
100
AcDbEntity
  8
0
  6
Continuous
 62
     7
370
    25
100
AcDbLine
 10
242.6316884893
 20
20.3534315677
 30
0.0
 11
243.6884685838
 21
19.7433654047
 31
0.0
  0
LINE
  5
236
330
1F
100
AcDbEntity
  8
0
  6
Continuous
 62
     7
370
    25
100
AcDbLine
 10
243.3999508319
 20
21.5361533508
 30
0.0
 11
244.5505435639
 21
20.871930305
 31
0.0
  0
LWPOLYLINE
  5
237
330
1F
100
AcDbEntity
  8
0
  6
Continuous
 62
     7
370
    25
100
AcDbPolyline
 90
       20
 70
   128
 43
0.0
 10
263.9749134432
 20
27.1107256254
 10
263.7022741113
 20
27.2418028164
 10
263.0964775888
 20
27.3819151368
 10
262.4262258212
 20
27.3559007624
 10
261.7118840691
 20
27.1645501268
 10
260.9751572453
 20
26.8136773224
 10
260.2384304215
 20
26.3139434417
 10
259.5240886694
 20
25.6805326458
 10
258.8538369017
 20
24.9326908013
 10
258.2480403792
 20
24.0931407041
 10
257.7251059228
 20
23.1873916591
 10
257.3009226311
 20
22.2429643927
 10
256.9883790989
 20
21.2885548495
 10
256.7969718033
 20
20.3531622805
 10
256.7325165582
 20
19.4652081156
 10
256.7969718033
 20
18.6516723928
 10
256.9883790989
 20
17.9372739833
 10
257.3009226311
 20
17.3437195214
 10
257.7251059228
 20
16.8890438589
 10
257.9754010474
 20
16.7181392768
  0
LINE
  5
238
330
1F
100
AcDbEntity
  8
0
  6
Continuous
 62
     7
370
    25
100
AcDbLine
 10
266.6320114948
 20
21.9822819407
 30
0.0
 11
264.1320354699
 21
18.8723355326
 31
0.0
  0
LINE
  5
239
330
1F
100
AcDbEntity
  8
0
  6
Continuous
 62
     7
370
    25
100
AcDbLine
 10
264.1320354699
 20
18.8723355326
 30
0.0
 11
264.1320354699
 21
15.5388535957
 31
0.0
  0
LINE
  5
23A
330
1F
100
AcDbEntity
  8
0
  6
Continuous
 62
     7
370
    25
100
AcDbLine
 10
266.6320114948
 20
15.3153180669
 30
0.0
 11
264.1320354699
 21
15.5388535957
 31
0.0
  0
LINE
  5
23B
330
1F
100
AcDbEntity
  8
0
  6
Continuous
 62
     7
370
    25
100
AcDbLine
 10
269.1319875196
 20
18.425264475
 30
0.0
 11
266.6320114948
 21
15.3153180669
 31
0.0
  0
LINE
  5
23C
330
1F
100
AcDbEntity
  8
0
  6
Continuous
 62
     7
370
    25
100
AcDbLine
 10
269.1319875196
 20
18.425264475
 30
0.0
 11
269.1319875196
 21
21.7587464119
 31
0.0
  0
LINE
  5
23D
330
1F
100
AcDbEntity
  8
0
  6
Continuous
 62
     7
370
    25
100
AcDbLine
 10
266.6320114948
 20
21.9822819407
 30
0.0
 11
269.1319875196
 21
21.7587464119
 31
0.0
  0
ARC
  5
23E
330
1F
100
AcDbEntity
  8
0
  6
Continuous
 62
     7
370
    25
100
AcDbCircle
 10
260.818501602
 20
22.0111734624
 30
0.0
 40
5.499304624236533
100
AcDbArc
 50
320.3637889566
 51
355.3912003256
  0
ARC
  5
23F
330
1F
100
AcDbEntity
  8
0
  6
Continuous
 62
     7
370
    25
100
AcDbCircle
 10
261.1876279426
 20
21.5673354572
 30
0.0
 40
4.933053762021489
100
AcDbArc
 50
306.6462829622
 51
321.5989244987
  0
LINE
  5
240
330
1F
100
AcDbEntity
  8
0
  6
Continuous
 62
     7
370
    25
100
AcDbLine
 10
264.1320354699
 20
16.7585235066
 30
0.0
 11
266.6320114948
 21
15.3153180669
 31
0.0
  0
LINE
  5
241
330
1F
100
AcDbEntity
  8
0
  6
Continuous
 62
     7
370
    25
100
AcDbLine
 10
266.3035603949
 20
20.0580806987
 30
0.0
 11
269.1319875196
 21
18.425264475
 31
0.0
  0
LINE
  5
242
330
1F
100
AcDbEntity
  8
0
  6
Continuous
 62
     7
370
    25
100
AcDbLine
 10
266.3035603949
 20
20.0580806987
 30
0.0
 11
266.3035603949
 21
21.573691895
 31
0.0
  0
LINE
  5
243
330
1F
100
AcDbEntity
  8
0
  6
Continuous
 62
     7
370
    25
100
AcDbLine
 10
265.0535723825
 20
18.5031074946
 30
0.0
 11
264.1320354699
 21
17.3567243362
 31
0.0
  0
LINE
  5
244
330
1F
100
AcDbEntity
  8
0
  6
Continuous
 62
     7
370
    25
100
AcDbLine
 10
266.3035603949
 20
20.0580806987
 30
0.0
 11
265.0535723825
 21
18.5031074946
 31
0.0
  0
LWPOLYLINE
  5
245
330
1F
100
AcDbEntity
  8
0
  6
Continuous
 62
     7
370
    18
100
AcDbPolyline
 90
       32
 70
   128
 43
0.0
 10
238.3477402473
 20
20.6898202834
 10
238.4112291312
 20
22.1721127519
 10
238.601044301
 20
23.7124975989
 10
238.9152379961
 20
25.2951683913
 10
239.3505861642
 20
26.9038847852
 10
239.9026215439
 20
28.5221391733
 10
240.5656795051
 20
30.1333260758
 10
241.3329561759
 20
31.7209125348
 10
242.1965782595
 20
33.2686077649
 10
243.1476838244
 20
34.7605303187
 10
244.1765132407
 20
36.1813710518
 10
245.2725093262
 20
37.5165502156
 10
246.4244256781
 20
38.7523670652
 10
247.6204420756
 20
39.8761404473
 10
248.8482857722
 20
40.8763389263
 10
250.09535743
 20
41.7426991124
 10
251.3488604061
 20
42.4663309776
 10
252.5959320639
 20
43.0398090798
 10
253.8237757605
 20
43.4572487576
 10
255.0197921581
 20
43.714366515
 10
256.1717085099
 20
43.8085239759
 10
257.2677045954
 20
43.7387549574
 10
258.2965340117
 20
43.505775384
 10
259.2476395767
 20
43.1119759414
 10
260.1112616602
 20
42.5613975447
 10
260.878538331
 20
41.8596898734
 10
261.5415962923
 20
41.0140533977
 10
262.0936316719
 20
40.0331654922
 10
262.52897984
 20
38.9270913942
 10
262.8431735352
 20
37.7071809206
 10
263.032988705
 20
36.3859520038
 10
263.0771662264
 20
35.7638204191
  0
LWPOLYLINE
  5
246
330
1F
100
AcDbEntity
  8
0
  6
Continuous
 62
     7
370
    18
100
AcDbPolyline
 90
       20
 70
   128
 43
0.0
 10
254.5052575824
 20
16.4120719361
 10
253.8237757605
 20
15.7906420763
 10
252.5959320639
 20
14.7904435973
 10
251.3488604061
 20
13.9240834113
 10
250.09535743
 20
13.2004515461
 10
248.8482857722
 20
12.6269734439
 10
247.6204420756
 20
12.2095337661
 10
246.4244256781
 20
11.9524160086
 10
245.2725093262
 20
11.8582585477
 10
244.1765132407
 20
11.9280275662
 10
243.1476838244
 20
12.1610071396
 10
242.1965782595
 20
12.5548065823
 10
241.3329561759
 20
13.1053849789
 10
240.5656795051
 20
13.8070926503
 10
239.9026215439
 20
14.652729126
 10
239.3505861642
 20
15.6336170314
 10
238.9152379961
 20
16.7396911295
 10
238.601044301
 20
17.959601603
 10
238.4112291312
 20
19.2808305199
 10
238.3477402473
 20
20.6898202834
  0
LWPOLYLINE
  5
247
330
1F
100
AcDbEntity
  8
0
  6
Continuous
 62
     7
370
    18
100
AcDbPolyline
 90
       23
 70
   128
 43
0.0
 10
237.6406334661
 20
20.6898202834
 10
237.70388137
 20
22.1897543064
 10
237.8929964954
 20
23.7478057867
 10
238.2060993315
 20
25.3484901086
 10
238.6400781214
 20
26.9758989522
 10
239.190619789
 20
28.6138583973
 10
239.8522528039
 20
30.246089667
 10
240.6184015599
 20
31.8563709137
 10
241.4814517265
 20
33.4286984388
 10
242.4328259234
 20
34.947445745
 10
243.4630689663
 20
36.3975188393
 10
244.5619418371
 20
37.7645062438
 10
245.7185234435
 20
39.0348222236
 10
246.9213191579
 20
40.1958418076
 10
248.158375056
 20
41.2360262616
 10
249.4173967207
 20
42.1450377653
 10
250.6858714288
 20
42.913842154
 10
251.951192509
 20
43.5347987041
 10
253.2007846319
 20
44.0017360705
 10
254.4222287895
 20
44.31001362
 10
255.603385721
 20
44.4565675517
 10
256.7325165582
 20
44.4399413467
 10
256.7695238276
 20
44.4365365025
  0
ARC
  5
248
330
1F
100
AcDbEntity
  8
0
  6
Continuous
 62
     7
370
    18
100
AcDbCircle
 10
248.4936539238
 20
20.1853004731
 30
0.0
 40
10.86474082958196
100
AcDbArc
 50
177.3384312426
 51
212.5208210765
  0
LWPOLYLINE
  5
249
330
1F
100
AcDbEntity
  8
0
  6
Continuous
 62
     7
370
    18
100
AcDbPolyline
 90
       25
 70
   128
 43
0.0
 10
224.187926954
 20
28.4559024471
 10
224.2511748579
 20
29.9558364701
 10
224.4402899834
 20
31.5138879504
 10
224.7533928194
 20
33.1145722723
 10
225.1873716093
 20
34.7419811159
 10
225.7379132769
 20
36.379940561
 10
226.3995462918
 20
38.0121718307
 10
227.1656950478
 20
39.6224530774
 10
228.0287452144
 20
41.1947806025
 10
228.9801194113
 20
42.7135279087
 10
230.0103624542
 20
44.1636010031
 10
231.109235325
 20
45.5305884076
 10
232.2658169314
 20
46.8009043873
 10
233.4686126458
 20
47.9619239713
 10
234.705668544
 20
49.0021084254
 10
235.9646902086
 20
49.9111199291
 10
237.2331649168
 20
50.6799243177
 10
238.498485997
 20
51.3008808678
 10
239.7480781198
 20
51.7678182342
 10
240.9695222774
 20
52.0760957837
 10
242.1506792089
 20
52.2226497154
 10
243.2798100461
 20
52.2060235104
 10
244.3456929794
 20
52.0263824076
 10
245.3377347854
 20
51.6855117609
 10
245.9151176091
 20
51.3924549763
  0
LWPOLYLINE
  5
24A
330
1F
100
AcDbEntity
  8
0
  6
Continuous
 62
     7
370
    18
100
AcDbPolyline
 90
        9
 70
   128
 43
0.0
 10
227.9165804217
 20
20.2146959306
 10
227.1656950478
 20
20.7274096768
 10
226.3995462918
 20
21.4531143985
 10
225.7379132769
 20
22.3214404494
 10
225.1873716093
 20
23.323758015
 10
224.7533928194
 20
24.4501056132
 10
224.4402899834
 20
25.6892890954
 10
224.2511748579
 20
27.0289928994
 10
224.187926954
 20
28.4559024471
  0
LWPOLYLINE
  5
24B
330
1F
100
AcDbEntity
  8
0
  6
Continuous
 62
     7
370
    18
100
AcDbPolyline
 90
       21
 70
   128
 43
0.0
 10
253.9040894334
 20
19.8734121715
 10
253.966241872
 20
20.8441247892
 10
254.1512423874
 20
21.863844404
 10
254.4547547244
 20
22.9086696524
 10
254.8696648108
 20
23.9541107163
 10
255.3862475061
 20
24.9756633432
 10
255.9923945496
 20
25.9493832052
 10
256.6738983685
 20
26.8524471342
 10
257.4147850907
 20
27.6636880769
 10
258.1976889595
 20
28.3640912334
 10
259.0042593718
 20
28.9372397473
 10
259.8155910007
 20
29.3696995031
 10
260.6126669205
 20
29.6513340107
 10
261.3768043472
 20
29.775541996
 10
262.0900925471
 20
29.7394121291
 10
262.7358126494
 20
29.5437912634
 10
263.2988295223
 20
29.1932645862
 10
263.7659465273
 20
28.6960481457
 10
264.1262148379
 20
28.063796274
 10
264.3711900701
 20
27.3113284189
 10
264.4573293269
 20
26.8322328636
  0
LWPOLYLINE
  5
24C
330
1F
100
AcDbEntity
  8
0
  6
Continuous
 62
     7
370
    18
100
AcDbPolyline
 90
       11
 70
   128
 43
0.0
 10
258.4578169311
 20
16.439646515
 10
258.1976889595
 20
16.3400176038
 10
257.4147850907
 20
16.1364991938
 10
256.6738983685
 20
16.092330535
 10
255.9923945496
 20
16.2085469033
 10
255.3862475061
 20
16.4824242854
 10
254.8696648108
 20
16.9075432277
 10
254.4547547244
 20
17.4739393025
 10
254.1512423874
 20
18.1683366659
 10
253.966241872
 20
18.9744592321
 10
253.9040894334
 20
19.8734121715
  0
LWPOLYLINE
  5
24D
330
1F
100
AcDbEntity
  8
0
  6
Continuous
 62
     7
370
    18
100
AcDbPolyline
 90
       17
 70
   128
 43
0.0
 10
253.1969826522
 20
19.8734121715
 10
253.2601650403
 20
20.8834793321
 10
253.4483008146
 20
21.9439320939
 10
253.7571873327
 20
23.0310816946
 10
254.1799245801
 20
24.1206430087
 10
254.7070693055
 20
25.1882770368
 10
255.3268459666
 20
26.2101345989
 10
256.025409777
 20
27.1633890857
 10
256.7871559755
 20
28.0267463672
 10
257.5950684109
 20
28.7809204682
 10
258.4310996542
 20
29.4090643858
 10
259.2765741492
 20
29.8971464226
 10
260.1126053926
 20
30.2342636325
 10
260.9205178279
 20
30.4128853742
 10
261.6822640265
 20
30.429021533
 10
262.3808278369
 20
30.282311654
 10
262.8494803048
 20
30.0697581829
  0
LWPOLYLINE
  5
24E
330
1F
100
AcDbEntity
  8
0
  6
Continuous
 62
     7
370
    18
100
AcDbPolyline
 90
        7
 70
   128
 43
0.0
 10
254.8541619712
 20
16.2106537198
 10
254.7070693055
 20
16.3020562445
 10
254.1799245801
 20
16.7610619277
 10
253.7571873327
 20
17.362541205
 10
253.4483008146
 20
18.0930580231
 10
253.2601650403
 20
18.9362938436
 10
253.1969826522
 20
19.8734121715
  0
LWPOLYLINE
  5
24F
330
1F
100
AcDbEntity
  8
0
  6
Continuous
 62
     7
370
    18
100
AcDbPolyline
 90
       13
 70
   128
 43
0.0
 10
255.8486330817
 20
20.9959733253
 10
255.9131706597
 20
21.7899013232
 10
256.1043032507
 20
22.6278326149
 10
256.4146857366
 20
23.4775659707
 10
256.8323902923
 20
24.3064466144
 10
257.3413647661
 20
25.0826211276
 10
257.9220495545
 20
25.776261559
 10
258.5521292665
 20
26.3607116959
 10
259.2073902923
 20
26.8135114473
 10
259.8626513181
 20
27.1172599727
 10
260.4927310302
 20
27.2602843866
 10
261.0734158185
 20
27.2370883409
 10
261.5148221562
 20
27.0854229645
  0
ARC
  5
250
330
1F
100
AcDbEntity
  8
0
  6
Continuous
 62
     7
370
    18
100
AcDbCircle
 10
258.2580860956
 20
20.7676090233
 30
0.0
 40
2.420250830086939
100
AcDbArc
 50
174.5857662214
 51
231.97103815
  0
LWPOLYLINE
  5
251
330
1F
100
AcDbEntity
  8
0
  6
Continuous
 62
     7
370
    18
100
AcDbPolyline
 90
       29
 70
   128
 43
0.0
 10
212.1917811321
 20
33.7004967255
 10
212.2541039098
 20
35.2701952468
 10
212.4405245481
 20
36.8980555486
 10
212.7494047757
 20
38.569771936
 10
213.178030142
 20
40.2706533052
 10
213.722633872
 20
41.9857522497
 10
214.3784299685
 20
43.6999964182
 10
215.1396552718
 20
45.3983209714
 10
215.9996201065
 20
47.065800972
 10
216.9507670708
 20
48.6877825458
 10
217.984737451
 20
50.2500116604
 10
219.0924446781
 20
51.7387593902
 10
220.2641541813
 20
53.1409425666
 10
221.4895689352
 20
54.4442387535
 10
222.757919951
 20
55.637194537
 10
224.0580609144
 20
56.709326179
 10
225.3785661397
 20
57.6512117478
 10
226.7078309797
 20
58.4545739194
 10
228.0341738071
 20
59.112352718
 10
229.3459386733
 20
59.61876756
 10
230.6315977418
 20
59.9693680534
 10
231.8798525942
 20
60.1610731085
 10
233.0797335221
 20
60.1921980145
 10
234.2206959287
 20
60.0624692445
 10
235.2927129955
 20
59.7730268597
 10
236.2863637977
 20
59.32641449
 10
237.1929160966
 20
58.7265569811
 10
238.0044030779
 20
57.9787259023
 10
238.2022754912
 20
57.7569179382
  0
LWPOLYLINE
  5
252
330
1F
100
AcDbEntity
  8
0
  6
Continuous
 62
     7
370
    18
100
AcDbPolyline
 90
       12
 70
   128
 43
0.0
 10
218.4557787484
 20
23.7289452261
 10
217.984737451
 20
23.8393867896
 10
216.9507670708
 20
24.207819114
 10
215.9996201065
 20
24.7316297781
 10
215.1396552718
 20
25.4062155148
 10
214.3784299685
 20
26.2256480406
 10
213.722633872
 20
27.1827261528
 10
213.178030142
 20
28.2690390147
 10
212.7494047757
 20
29.4750400698
 10
212.4405245481
 20
30.7901309374
 10
212.2541039098
 20
32.2027545517
 10
212.1917811321
 20
33.7004967255
  0
LWPOLYLINE
  5
253
330
1F
100
AcDbEntity
  8
0
  6
Continuous
 62
     7
370
    18
100
AcDbPolyline
 90
        3
 70
   128
 43
0.0
 10
244.8786970241
 20
24.5393186217
 10
244.9431963854
 20
25.5704396133
 10
245.0823584734
 20
26.4122499174
  0
LWPOLYLINE
  5
254
330
1F
100
AcDbEntity
  8
0
  6
Continuous
 62
     7
370
    18
100
AcDbPolyline
 90
       10
 70
   128
 43
0.0
 10
250.115660262
 20
34.202058036
 10
250.2219139154
 20
34.2737318876
 10
251.0850114733
 20
34.7719875021
 10
251.9384689446
 20
35.1161315802
 10
252.7632214997
 20
35.2984765119
 10
253.5408455294
 20
35.3149490127
 10
254.2539701978
 20
35.1651811142
 10
254.8866654782
 20
34.8525183837
 10
255.4247980036
 20
34.38394519
 10
255.4813595948
 20
34.3189609592
  0
ARC
  5
255
330
1F
100
AcDbEntity
  8
0
  6
Continuous
 62
     7
370
    18
100
AcDbCircle
 10
247.9713651047
 20
23.2271140688
 30
0.0
 40
2.800861447404065
100
AcDbArc
 50
219.7827542488
 51
260.0157157573
  0
LINE
  5
256
330
1F
100
AcDbEntity
  8
0
  6
Continuous
 62
     7
370
    18
100
AcDbLine
 10
244.8853692476
 20
24.2227022564
 30
0.0
 11
244.8786970241
 21
24.5393186217
 31
0.0
  0
LWPOLYLINE
  5
257
330
1F
100
AcDbEntity
  8
0
  6
Continuous
 62
     7
370
    18
100
AcDbPolyline
 90
       18
 70
   128
 43
0.0
 10
245.3579314255
 20
23.9370641721
 10
245.3304197115
 20
24.5575537131
 10
245.3952654225
 20
25.5703305442
 10
245.5882826269
 20
26.634238009
 10
245.9049471651
 20
27.7243390182
 10
246.3378366886
 20
28.8150825282
 10
246.876804634
 20
29.8809024355
 10
247.5092180495
 20
30.8968168249
 10
248.2202537004
 20
31.8390135241
 10
248.993245514
 20
32.6854082411
 10
249.8100752171
 20
33.416162201
 10
250.6515970139
 20
34.0141471505
 10
251.4980863468
 20
34.465346829
 10
252.329702223
 20
34.7591854987
 10
253.1269522715
 20
34.88877583
 10
253.8711496268
 20
34.8510803355
 10
254.5448509336
 20
34.6469825656
 10
254.6743453954
 20
34.5841443134
  0
LINE
  5
258
330
1F
100
AcDbEntity
  8
0
  6
Continuous
 62
     7
370
    18
100
AcDbLine
 10
245.6249721044
 20
23.6515843371
 30
0.0
 11
245.5831363937
 21
24.4116634779
 31
0.0
  0
LWPOLYLINE
  5
259
330
1F
100
AcDbEntity
  8
0
  6
Continuous
 62
     7
370
    18
100
AcDbPolyline
 90
       25
 70
   128
 43
0.0
 10
208.7201975003
 20
37.0800765541
 10
209.1110138066
 20
38.9434230393
 10
209.6207446165
 20
40.8312244155
 10
210.2457143541
 20
42.7298680916
 10
210.9814164768
 20
44.6256632948
 10
211.8225459709
 20
46.504939792
 10
212.7630376053
 20
48.3541464636
 10
213.7961096664
 20
50.1599490178
 10
214.9143128603
 20
51.9093261423
 10
216.1095840279
 20
53.5896633978
 10
217.373304287
 20
55.1888441795
 10
218.6963611817
 20
56.6953370865
 10
220.0692143903
 20
58.0982790737
 10
221.4819645188
 20
59.3875537825
 10
222.9244244842
 20
60.5538644884
 10
224.386192971
 20
61.5888011379
 10
225.8567294334
 20
62.4849009918
 10
227.3254301017
 20
63.2357024376
 10
228.7817044434
 20
63.8357915832
 10
230.2150515303
 20
64.2808412954
 10
231.615135758
 20
64.5676424019
 10
232.9718613751
 20
64.6941268324
 10
234.2754452806
 20
64.6593825306
 10
235.5164875692
 20
64.4636600315
 10
236.6860393115
 20
64.1083706542
  0
LWPOLYLINE
  5
25A
330
1F
100
AcDbEntity
  8
0
  6
Continuous
 62
     7
370
    18
100
AcDbPolyline
 90
       25
 70
   128
 43
0.0
 10
208.0040227648
 20
37.0748417355
 10
208.3934947394
 20
38.9632626747
 10
208.9030880349
 20
40.8771664388
 10
209.529170929
 20
42.8029131948
 10
210.2672815116
 20
44.7267787078
 10
211.1121594841
 20
46.6350521502
 10
212.0577836481
 20
48.5141338145
 10
213.0974148162
 20
50.3506320344
 10
214.2236438407
 20
52.1314586234
 10
215.4284444162
 20
53.8439221505
 10
216.703230281
 20
55.4758183883
 10
218.0389164085
 20
57.0155172889
 10
219.4259837536
 20
58.4520458677
 10
220.8545470925
 20
59.7751664053
 10
222.3144254715
 20
60.9754494079
 10
223.7952147637
 20
62.0443408091
 10
225.2863618163
 20
62.974222932
 10
226.7772396597
 20
63.7584687783
 10
228.2572232429
 20
64.3914892569
 10
229.7157651552
 20
64.8687730157
 10
231.1424707942
 20
65.1869185927
 10
232.5271724456
 20
65.3436586574
 10
233.8600017451
 20
65.337876169
 10
235.1314600074
 20
65.1696123377
 10
236.3324859209
 20
64.8400663307
  0
LWPOLYLINE
  5
25B
330
1F
100
AcDbEntity
  8
0
  6
Continuous
 62
     7
370
    18
100
AcDbPolyline
 90
       17
 70
   128
 43
0.0
 10
224.5962979562
 20
21.7826771491
 10
224.3173602312
 20
21.64299197
 10
222.8608052899
 20
20.9990977751
 10
221.4238942768
 20
20.5080917765
 10
220.0169238449
 20
20.1734924375
 10
218.649976098
 20
19.9976974381
 10
217.3328463443
 20
19.9819664947
 10
216.074972905
 20
20.1264123323
 10
214.8853694812
 20
20.4299998775
 10
213.7725605625
 20
20.890553675
 10
212.744520343
 20
21.504773477
 10
211.8086155789
 20
22.2682578917
 10
210.9715528
 20
23.1755359237
 10
210.2393302514
 20
24.2201061773
 10
209.617194912
 20
25.3944834449
 10
209.1096048945
 20
26.6902523446
 10
208.7201975003
 20
28.0981276234
  0
ARC
  5
25C
330
1F
100
AcDbEntity
  8
0
  6
Continuous
 62
     7
370
    18
100
AcDbCircle
 10
231.5754561913
 20
54.4625651647
 30
0.0
 40
11.12399372828689
100
AcDbArc
 50
9.0277456972
 51
48.705552358
  0
LWPOLYLINE
  5
25D
330
1F
100
AcDbEntity
  8
0
  6
Continuous
 62
     7
370
    18
100
AcDbPolyline
 90
       33
 70
   128
 43
0.0
 10
210.3976284019
 20
33.5574623361
 10
210.4606230898
 20
35.1904271884
 10
210.6490851597
 20
36.8825928981
 10
210.9614529556
 20
38.6199376474
 10
211.3951380995
 20
40.3880652504
 10
211.9465469398
 20
42.172324445
 10
212.6111103291
 20
43.9579302975
 10
213.3833214858
 20
45.7300867155
 10
214.2567816253
 20
47.4741090528
 10
215.2242529815
 20
49.1755457912
 10
216.2777187823
 20
50.8202982898
 10
217.4084496781
 20
52.3947376115
 10
218.6070760767
 20
53.8858174563
 10
219.8636657823
 20
55.2811822669
 10
221.1678062968
 20
56.5692696111
 10
222.5086911012
 20
57.7394059915
 10
223.8752092016
 20
58.7818952894
 10
225.2560371988
 20
59.6880991104
 10
226.6397331171
 20
60.4505083641
 10
228.0148312164
 20
61.0628054873
 10
229.3699370006
 20
61.5199167932
 10
230.6938216366
 20
61.8180545136
 10
231.9755149992
 20
61.9547481855
 10
233.2043965737
 20
61.928865122
 10
234.3702834602
 20
61.7406197983
 10
235.4635147529
 20
61.3915720745
 10
236.475031593
 20
60.8846142699
 10
237.3964522333
 20
60.2239471966
 10
238.2201414923
 20
59.4150453501
 10
238.9392740213
 20
58.4646115457
 10
239.5478908618
 20
57.3805213773
 10
240.0409488228
 20
56.1717579574
 10
240.1675103148
 20
55.7803454497
  0
LWPOLYLINE
  5
25E
330
1F
100
AcDbEntity
  8
0
  6
Continuous
 62
     7
370
    18
100
AcDbPolyline
 90
       16
 70
   128
 43
0.0
 10
221.2419441146
 20
22.9975716741
 10
221.1678062968
 20
22.9806377725
 10
219.8636657823
 20
22.7629965291
 10
218.6070760767
 20
22.7075337473
 10
217.4084496781
 20
22.8147090095
 10
216.2777187823
 20
23.0836342275
 10
215.2242529815
 20
23.5120810024
 10
214.2567816253
 20
24.0964990892
 10
213.3833214858
 20
24.8320458155
 10
212.6111103291
 20
25.7126262097
 10
211.9465469398
 20
26.7309435051
 10
211.3951380995
 20
27.8785596041
 10
210.9614529556
 20
29.1459649981
 10
210.6490851597
 20
30.5226575669
 10
210.4606230898
 20
31.9972296023
 10
210.3976284019
 20
33.5574623361
  0
LWPOLYLINE
  5
25F
330
1F
100
AcDbEntity
  8
0
  6
Continuous
 62
     7
370
    18
100
AcDbPolyline
 90
       20
 70
   128
 43
0.0
 10
197.8658770244
 20
37.9364416456
 10
197.9278750996
 20
39.6803917259
 10
198.1134344531
 20
41.4836907033
 10
198.4212535196
 20
43.3336897312
 10
198.8491731694
 20
45.2174123957
 10
199.3941918535
 20
47.1216457357
 10
200.0524866576
 20
49.0330329225
 10
200.8194401165
 20
50.9381669483
 10
201.6896726029
 20
52.8236846669
 10
202.657080061
 20
54.676360526
 10
203.7148768226
 20
56.4831993358
 10
204.8556432036
 20
58.2315274201
 10
206.0713775473
 20
59.9090815137
 10
207.3535523508
 20
61.5040947799
 10
208.6931740791
 20
63.0053793466
 10
210.0808462484
 20
64.4024047813
 10
211.5068353354
 20
65.6853719543
 10
212.9611390512
 20
66.8452817728
 10
214.4335565002
 20
67.8739983027
 10
215.8596856964
 20
68.7343019889
  0
LWPOLYLINE
  5
260
330
1F
100
AcDbEntity
  8
0
  6
Continuous
 62
     7
370
    18
100
AcDbPolyline
 90
        3
 70
   128
 43
0.0
 10
197.9585407612
 20
35.9025364881
 10
197.9278750996
 20
36.2640730193
 10
197.8658770244
 20
37.9364416456
  0
LWPOLYLINE
  5
261
330
1F
100
AcDbEntity
  8
0
  6
Continuous
 62
     7
370
    18
100
AcDbPolyline
 90
       21
 70
   128
 43
0.0
 10
205.6888896889
 20
39.7632358502
 10
206.1030094244
 20
41.6507529872
 10
206.6436317722
 20
43.561702353
 10
207.3063894179
 20
45.4806467082
 10
208.0859284006
 20
47.3920842274
 10
208.9759513634
 20
49.2805737279
 10
209.969268426
 20
51.1308594081
 10
211.0578552661
 20
52.9279940886
 10
212.2329179431
 20
54.6574599601
 10
213.4849639376
 20
56.3052858632
 10
214.8038788352
 20
57.8581601511
 10
216.1790080339
 20
59.3035382254
 10
217.5992428152
 20
60.6297438757
 10
219.0531100838
 20
61.826063603
 10
220.5288650507
 20
62.8828331668
 10
222.0145861114
 20
63.7915156562
 10
223.4982711521
 20
64.5447704533
 10
224.9679345067
 20
65.1365125331
 10
226.4117037806
 20
65.5619616204
 10
227.8179157596
 20
65.8176808058
 10
228.1676977325
 20
65.8553202152
  0
LWPOLYLINE
  5
262
330
1F
100
AcDbEntity
  8
0
  6
Continuous
 62
     7
370
    18
100
AcDbPolyline
 90
       18
 70
   128
 43
0.0
 10
206.2628847939
 20
39.7680329264
 10
206.678502363
 20
41.635189458
 10
207.2196560011
 20
43.5248352761
 10
207.8819248857
 20
45.42153338
 10
208.6598987724
 20
47.3097891571
 10
209.5472221934
 20
49.1741769622
 10
210.5366463764
 20
50.9994661338
 10
211.6200884617
 20
52.7707454171
 10
212.7886975335
 20
54.473544778
 10
214.0329269249
 20
56.0939536124
 10
215.3426122074
 20
57.6187343853
 10
216.7070542263
 20
59.0354307722
 10
218.1151065054
 20
60.3324694174
 10
219.5552663049
 20
61.4992544798
 10
221.0157685905
 20
62.5262541936
 10
222.4846821449
 20
63.405078735
 10
223.9500070372
 20
64.1285487611
 10
224.0938346965
 20
64.1912316953
  0
LINE
  5
263
330
1F
100
AcDbEntity
  8
0
  6
Continuous
 62
     7
370
    18
100
AcDbLine
 10
199.4427255
 20
37.4384992516
 30
0.0
 11
201.5958652951
 21
38.6814803977
 31
0.0
  0
LWPOLYLINE
  5
264
330
1F
100
AcDbEntity
  8
0
  6
Continuous
 62
     7
370
    18
100
AcDbPolyline
 90
       20
 70
   128
 43
0.0
 10
186.9955573391
 20
57.6205389325
 10
187.6046197594
 20
59.2931567588
 10
188.3280807101
 20
60.9524955675
 10
189.1582709696
 20
62.5809651394
 10
190.086389907
 20
64.1613024921
 10
191.1025987747
 20
65.6767548802
 10
192.1961250068
 20
67.1112573871
 10
193.3553764162
 20
68.4496032249
 10
194.5680640802
 20
69.6776049373
 10
195.8213326122
 20
70.7822447977
 10
197.1018964384
 20
71.751812806
 10
198.3961806348
 20
72.5760308241
 10
199.6904648311
 20
73.2461615311
 10
200.9710286573
 20
73.7551010455
 10
202.2242971893
 20
74.0974542321
 10
203.4369848533
 20
74.2695918936
 10
204.5962362627
 20
74.2696892436
 10
205.6897624948
 20
74.09774525
 10
206.7059713626
 20
73.7555826464
 10
206.9751738487
 20
73.6297200533
  0
ARC
  5
265
330
1F
100
AcDbEntity
  8
0
  6
Continuous
 62
     7
370
    18
100
AcDbCircle
 10
192.8555182688
 20
48.2618869789
 30
0.0
 40
6.567051796053632
100
AcDbArc
 50
206.8328071683
 51
236.033476192
  0
ARC
  5
266
330
1F
100
AcDbEntity
  8
0
  6
Continuous
 62
     7
370
    18
100
AcDbCircle
 10
220.3378900407
 20
30.5768355896
 30
0.0
 40
12.58150443060353
100
AcDbArc
 50
191.3866027198
 51
214.2484523384
  0
LINE
  5
267
330
1F
100
AcDbEntity
  8
0
  6
Continuous
 62
     7
370
    18
100
AcDbLine
 10
203.4078286871
 20
30.7462191682
 30
0.0
 11
205.1313992011
 21
31.7412152468
 31
0.0
  0
LINE
  5
268
330
1F
100
AcDbEntity
  8
0
  6
Continuous
 62
     7
370
    18
100
AcDbLine
 10
199.4427255
 20
36.6219584397
 30
0.0
 11
201.5958652951
 21
37.8649395858
 31
0.0
  0
LINE
  5
269
330
1F
100
AcDbEntity
  8
0
  6
Continuous
 62
     7
370
    18
100
AcDbLine
 10
207.1146611952
 20
30.0689989962
 30
0.0
 11
207.047773321
 21
30.3329774936
 31
0.0
  0
LINE
  5
26A
330
1F
100
AcDbEntity
  8
0
  6
Continuous
 62
     7
370
    18
100
AcDbLine
 10
206.6065326831
 20
29.6038201433
 30
0.0
 11
206.2628847939
 21
30.7860839957
 31
0.0
  0
LWPOLYLINE
  5
26B
330
1F
100
AcDbEntity
  8
0
  6
Continuous
 62
     7
370
    18
100
AcDbPolyline
 90
        3
 70
   128
 43
0.0
 10
206.5168981873
 20
28.3509717042
 10
206.0862035452
 20
29.4196607948
 10
205.6888896889
 20
30.7812869195
  0
LINE
  5
26C
330
1F
100
AcDbEntity
  8
0
  6
Continuous
 62
     7
370
    18
100
AcDbLine
 10
234.3203886881
 20
66.0011210146
 30
0.0
 11
234.2200186685
 21
65.9431786356
 31
0.0
  0
ARC
  5
26D
330
1F
100
AcDbEntity
  8
0
  6
Continuous
 62
     7
370
    18
100
AcDbCircle
 10
192.9501007655
 20
55.3056437558
 30
0.0
 40
1.972900930438743
100
AcDbArc
 50
160.2447912923
 51
206.8893927025
  0
ARC
  5
26E
330
1F
100
AcDbEntity
  8
0
  6
Continuous
 62
     7
370
    18
100
AcDbCircle
 10
190.7081225165
 20
55.2450336697
 30
0.0
 40
0.8231425509788919
100
AcDbArc
 50
40.3517278188
 51
62.0985124778
  0
LINE
  5
26F
330
1F
100
AcDbEntity
  8
0
  6
Continuous
 62
     7
370
    18
100
AcDbLine
 10
191.0933143439
 20
55.9724887647
 30
0.0
 11
191.2411168385
 21
56.5267441624
 31
0.0
  0
LINE
  5
270
330
1F
100
AcDbEntity
  8
0
  6
Continuous
 62
     7
370
    18
100
AcDbLine
 10
191.0933143439
 20
55.9724887647
 30
0.0
 11
189.8400947163
 21
56.6959570563
 31
0.0
  0
LINE
  5
271
330
1F
100
AcDbEntity
  8
0
  6
Continuous
 62
     7
370
    18
100
AcDbLine
 10
186.9954135114
 20
58.5024438964
 30
0.0
 11
186.9807922889
 21
58.6781700867
 31
0.0
  0
ARC
  5
272
330
1F
100
AcDbEntity
  8
0
  6
Continuous
 62
     7
370
    18
100
AcDbCircle
 10
190.8116637611
 20
41.9435926287
 30
0.0
 40
0.580634419806851
100
AcDbArc
 50
25.5708468831
 51
60.9826879702
  0
ARC
  5
273
330
1F
100
AcDbEntity
  8
0
  6
Continuous
 62
     7
370
    18
100
AcDbCircle
 10
193.0490353809
 20
43.0973600673
 30
0.0
 40
2.05965635546776
100
AcDbArc
 50
172.8744043427
 51
198.2795396693
  0
LINE
  5
274
330
1F
100
AcDbEntity
  8
0
  6
Continuous
 62
     7
370
    18
100
AcDbLine
 10
190.2481298753
 20
47.4849444903
 30
0.0
 11
188.6310624621
 21
48.4184576376
 31
0.0
  0
LINE
  5
275
330
1F
100
AcDbEntity
  8
0
  6
Continuous
 62
     7
370
    18
100
AcDbLine
 10
191.0933143439
 20
42.4513418568
 30
0.0
 11
189.8400947163
 21
43.1748101484
 31
0.0
  0
LINE
  5
276
330
1F
100
AcDbEntity
  8
0
  6
Continuous
 62
     7
370
    18
100
AcDbLine
 10
191.0933143439
 20
42.4513418568
 30
0.0
 11
191.2411168385
 21
42.067735587
 31
0.0
  0
LWPOLYLINE
  5
277
330
1F
100
AcDbEntity
  8
0
  6
Continuous
 62
     7
370
    18
100
AcDbPolyline
 90
       18
 70
   128
 43
0.0
 10
260.986288275
 20
32.6123776279
 10
261.375345688
 20
33.2586585609
 10
261.8381296125
 20
33.8325257927
 10
262.3496912472
 20
34.3030419923
 10
262.8824521722
 20
34.6448415095
 10
263.4076911079
 20
34.8394978439
 10
263.8970922875
 20
34.8765170221
 10
264.3242719667
 20
34.7539033307
 10
264.6662007783
 20
34.4782669055
 10
264.9044452517
 20
34.0644673775
 10
265.0261615656
 20
33.5348127864
 10
265.024787962
 20
32.9178569483
 10
264.9003984923
 20
32.2468601121
 10
264.659699025
 20
31.557995891
 10
264.3156657306
 20
30.8884011333
 10
263.8868455331
 20
30.2741738659
 10
263.3963562403
 20
29.7484272396
 10
263.3163995477
 20
29.6766898715
  0
LWPOLYLINE
  5
278
330
1F
100
AcDbEntity
  8
0
  6
Continuous
 62
     7
370
    18
100
AcDbPolyline
 90
        3
 70
   128
 43
0.0
 10
260.5406933406
 20
31.4025972134
 10
260.6919315593
 20
31.928524166
 10
260.986288275
 20
32.6123776279
  0
ARC
  5
279
330
1F
100
AcDbEntity
  8
0
  6
Continuous
 62
     7
370
    18
100
AcDbCircle
 10
264.8971510196
 20
30.8490454436
 30
0.0
 40
4.638349509588233
100
AcDbArc
 50
114.1591514955
 51
155.5610421132
  0
LWPOLYLINE
  5
27A
330
1F
100
AcDbEntity
  8
0
  6
Continuous
 62
     7
370
    18
100
AcDbPolyline
 90
        3
 70
   128
 43
0.0
 10
260.2232718963
 20
31.5858407127
 10
260.3667409706
 20
32.0581361466
 10
260.6743857395
 20
32.7680398578
  0
LWPOLYLINE
  5
27B
330
1F
100
AcDbEntity
  8
0
  6
Continuous
 62
     7
370
    18
100
AcDbPolyline
 90
       28
 70
   128
 43
0.0
 10
242.5850886914
 20
17.9275486621
 10
242.1443046857
 20
18.0203315812
 10
241.7847492305
 20
18.2680305203
 10
241.5258060533
 20
18.6572919656
 10
241.381434848
 20
19.1671307318
 10
241.3594187035
 20
19.770061279
 10
241.4609445158
 20
20.4335794653
 10
241.6805390023
 20
21.1219148536
 10
242.0063637672
 20
21.797959105
 10
242.4208535132
 20
22.4252664988
 10
242.9016629907
 20
22.970018731
 10
243.4228716365
 20
23.402848068
 10
243.9563809573
 20
23.7004205679
 10
244.4734293278
 20
23.8466940204
 10
244.9461425364
 20
23.8337827858
 10
245.3490364917
 20
23.6623829121
 10
245.6603910762
 20
23.3417346107
 10
245.8634210837
 20
22.8891241148
 10
245.947181114
 20
22.3289517731
 10
245.9071556421
 20
21.6914166217
 10
245.7455024517
 20
21.0108883457
 10
245.4709363079
 20
20.3240544004
 10
245.0982591428
 20
19.6679421817
 10
244.6475620787
 20
19.0779228692
 10
244.1431423111
 20
18.5858045566
 10
243.6121932401
 20
18.2181174696
 10
243.0833384677
 20
17.9946837142
 10
242.5850886914
 20
17.9275486621
  0
LWPOLYLINE
  5
27C
330
1F
100
AcDbEntity
  8
0
  6
Continuous
 62
     7
370
    18
100
AcDbPolyline
 90
       13
 70
   128
 43
0.0
 10
241.6057178085
 20
18.0433156637
 10
241.4886926483
 20
18.143760658
 10
241.2097381628
 20
18.5357062607
 10
241.0443364792
 20
19.0510199272
 10
241.0007815286
 20
19.6638616785
 10
241.081257338
 20
20.3435010702
 10
241.2817285144
 20
21.0558581452
 10
241.5921425959
 20
21.7652123453
 10
241.9969341243
 20
22.4359936889
 10
242.475805162
 20
23.0345663985
 10
243.0047431157
 20
23.5309155389
 10
243.5572248277
 20
23.9001520918
 10
243.9657333082
 20
24.080667295
  0
LWPOLYLINE
  5
27D
330
1F
100
AcDbEntity
  8
0
  6
Continuous
 62
     7
370
    18
100
AcDbPolyline
 90
       36
 70
   128
 43
0.0
 10
270.5918094694
 20
20.9347427169
 10
270.5281738869
 20
21.7144810314
 10
270.3393124393
 20
22.3956858352
 10
270.031295289
 20
22.9564626455
 10
269.6140223606
 20
23.3787876341
 10
269.1009051494
 20
23.6490869284
 10
268.5084356647
 20
23.7586728867
 10
267.8556563632
 20
23.7040233261
 10
267.1635481089
 20
23.4868947285
 10
266.4543558304
 20
23.1142657857
 10
265.7508735512
 20
22.5981130984
 10
265.0757117704
 20
21.9550262388
 10
264.4505707434
 20
21.2056745476
 10
263.895543017
 20
20.3741428047
 10
263.428467639
 20
19.4871571246
 10
263.0643567964
 20
18.5732259569
 10
262.8149133113
 20
17.6617238012
 10
262.6881545026
 20
16.7819470868
 10
262.6881545026
 20
15.9621725612
 10
262.8149133113
 20
15.2287484522
 10
263.0643567964
 20
14.6052476141
 10
263.428467639
 20
14.1117098769
 10
263.895543017
 20
13.7639979494
 10
264.4505707434
 20
13.5732875792
 10
265.0757117704
 20
13.5457083545
 10
265.7508735512
 20
13.6821466942
 10
266.4543558304
 20
13.9782173579
 10
267.1635481089
 20
14.4244043908
 10
267.8556563632
 20
15.0063669745
 10
268.5084356647
 20
15.7054003528
 10
269.1009051494
 20
16.4990370177
 10
269.6140223606
 20
17.3617688338
 10
270.031295289
 20
18.2658668907
 10
270.3393124393
 20
19.182272733
 10
270.5281738869
 20
20.0815323227
 10
270.5918094694
 20
20.9347427169
  0
LWPOLYLINE
  5
27E
330
1F
100
AcDbEntity
  8
0
  6
Continuous
 62
     7
370
    18
100
AcDbPolyline
 90
       20
 70
   128
 43
0.0
 10
263.3145799638
 20
13.6363693272
 10
263.0991174598
 20
13.7866930339
 10
262.6749341681
 20
14.2413686964
 10
262.362390636
 20
14.8349231584
 10
262.1709833404
 20
15.5493215679
 10
262.1065280952
 20
16.3628572907
 10
262.1709833404
 20
17.2508114556
 10
262.362390636
 20
18.1862040246
 10
262.6749341681
 20
19.1406135677
 10
263.0991174598
 20
20.0850408341
 10
263.6220519163
 20
20.9907898791
 10
264.2278484387
 20
21.8303399764
 10
264.8981002064
 20
22.5781818209
 10
265.6124419585
 20
23.2115926168
 10
266.3491687823
 20
23.7113264975
 10
267.0858956061
 20
24.0621993019
 10
267.8002373582
 20
24.2535499374
 10
268.4704891258
 20
24.2795643118
 10
269.0762856483
 20
24.1394519915
 10
269.3319524954
 20
24.0180625738
  0
OLE2FRAME
  5
27F
330
1F
100
AcDbEntity
  8
0
100
AcDbOle2Frame
 70
     2
  3
Paintbrush-Bild
 10
13.8511154363
 20
38.264191557
 30
0.0
 11
51.6290888628
 21
31.9806341108
 31
0.0
 71
     2
 72
     0
 73
     1
 90
    12928
310
80552BED0767C5B32B40DDAF6807D121434000000000000000006FFBDDFB85D0
310
4940DDAF6807D121434000000000000000006FFBDDFB85D04940416F4BD60AFB
310
3F4000000000000000002BED0767C5B32B40416F4BD60AFB3F40000000000000
310
0000000000000100000000010000010000000100000000000100000000320000
310
D0CF11E0A1B11AE1000000000000000000000000000000003E000300FEFF0900
310
0600000000000000000000000100000001000000000000000010000002000000
310
01000000FEFFFFFF0000000000000000FFFFFFFFFFFFFFFFFFFFFFFFFFFFFFFF
310
FFFFFFFFFFFFFFFFFFFFFFFFFFFFFFFFFFFFFFFFFFFFFFFFFFFFFFFFFFFFFFFF
310
FFFFFFFFFFFFFFFFFFFFFFFFFFFFFFFFFFFFFFFFFFFFFFFFFFFFFFFFFFFFFFFF
310
FFFFFFFFFFFFFFFFFFFFFFFFFFFFFFFFFFFFFFFFFFFFFFFFFFFFFFFFFFFFFFFF
310
FFFFFFFFFFFFFFFFFFFFFFFFFFFFFFFFFFFFFFFFFFFFFFFFFFFFFFFFFFFFFFFF
310
FFFFFFFFFFFFFFFFFFFFFFFFFFFFFFFFFFFFFFFFFFFFFFFFFFFFFFFFFFFFFFFF
310
FFFFFFFFFFFFFFFFFFFFFFFFFFFFFFFFFFFFFFFFFFFFFFFFFFFFFFFFFFFFFFFF
310
FFFFFFFFFFFFFFFFFFFFFFFFFFFFFFFFFFFFFFFFFFFFFFFFFFFFFFFFFFFFFFFF
310
FFFFFFFFFFFFFFFFFFFFFFFFFFFFFFFFFFFFFFFFFFFFFFFFFFFFFFFFFFFFFFFF
310
FFFFFFFFFFFFFFFFFFFFFFFFFFFFFFFFFFFFFFFFFFFFFFFFFFFFFFFFFFFFFFFF
310
FFFFFFFFFFFFFFFFFFFFFFFFFFFFFFFFFFFFFFFFFFFFFFFFFFFFFFFFFFFFFFFF
310
FFFFFFFFFFFFFFFFFFFFFFFFFFFFFFFFFFFFFFFFFFFFFFFFFFFFFFFFFFFFFFFF
310
FFFFFFFFFFFFFFFFFFFFFFFFFFFFFFFFFFFFFFFFFFFFFFFFFFFFFFFFFFFFFFFF
310
FFFFFFFFFFFFFFFFFFFFFFFFFFFFFFFFFFFFFFFFFFFFFFFFFFFFFFFFFFFFFFFF
310
FDFFFFFFFEFFFFFFFEFFFFFFFEFFFFFF05000000060000000700000008000000
310
090000000A0000000B0000000C0000000D0000000E0000000F00000010000000
310
11000000120000001300000014000000150000001600000017000000FEFFFFFF
310
FFFFFFFFFFFFFFFFFFFFFFFFFFFFFFFFFFFFFFFFFFFFFFFFFFFFFFFFFFFFFFFF
310
FFFFFFFFFFFFFFFFFFFFFFFFFFFFFFFFFFFFFFFFFFFFFFFFFFFFFFFFFFFFFFFF
310
FFFFFFFFFFFFFFFFFFFFFFFFFFFFFFFFFFFFFFFFFFFFFFFFFFFFFFFFFFFFFFFF
310
FFFFFFFFFFFFFFFFFFFFFFFFFFFFFFFFFFFFFFFFFFFFFFFFFFFFFFFFFFFFFFFF
310
FFFFFFFFFFFFFFFFFFFFFFFFFFFFFFFFFFFFFFFFFFFFFFFFFFFFFFFFFFFFFFFF
310
FFFFFFFFFFFFFFFFFFFFFFFFFFFFFFFFFFFFFFFFFFFFFFFFFFFFFFFFFFFFFFFF
310
FFFFFFFFFFFFFFFFFFFFFFFFFFFFFFFFFFFFFFFFFFFFFFFFFFFFFFFFFFFFFFFF
310
FFFFFFFFFFFFFFFFFFFFFFFFFFFFFFFFFFFFFFFFFFFFFFFFFFFFFFFFFFFFFFFF
310
FFFFFFFFFFFFFFFFFFFFFFFFFFFFFFFFFFFFFFFFFFFFFFFFFFFFFFFFFFFFFFFF
310
FFFFFFFFFFFFFFFFFFFFFFFFFFFFFFFFFFFFFFFFFFFFFFFFFFFFFFFFFFFFFFFF
310
FFFFFFFFFFFFFFFFFFFFFFFFFFFFFFFFFFFFFFFFFFFFFFFFFFFFFFFFFFFFFFFF
310
FFFFFFFFFFFFFFFFFFFFFFFFFFFFFFFFFFFFFFFFFFFFFFFFFFFFFFFFFFFFFFFF
310
FFFFFFFFFFFFFFFFFFFFFFFFFFFFFFFFFFFFFFFFFFFFFFFFFFFFFFFFFFFFFFFF
310
52006F006F007400200045006E00740072007900000000000000000000000000
310
0000000000000000000000000000000000000000000000000000000000000000
310
16000500FFFFFFFFFFFFFFFF020000000A00030000000000C000000000000046
310
000000000000000000000000506327BB68A9D30103000000C000000000000000
310
01004F006C006500000000000000000000000000000000000000000000000000
310
0000000000000000000000000000000000000000000000000000000000000000
310
0A000200FFFFFFFFFFFFFFFFFFFFFFFF00000000000000000000000000000000
310
0000000000000000000000000000000000000000000000001400000000000000
310
010043006F006D0070004F0062006A0000000000000000000000000000000000
310
0000000000000000000000000000000000000000000000000000000000000000
310
120002010100000003000000FFFFFFFF00000000000000000000000000000000
310
0000000000000000000000000000000000000000010000004D00000000000000
310
01004F006C006500310030004E00610074006900760065000000000000000000
310
0000000000000000000000000000000000000000000000000000000000000000
310
1A000200FFFFFFFFFFFFFFFFFFFFFFFF00000000000000000000000000000000
310
0000000000000000000000000000000000000000040000002426000000000000
310
FEFFFFFF02000000FEFFFFFFFFFFFFFFFFFFFFFFFFFFFFFFFFFFFFFFFFFFFFFF
310
FFFFFFFFFFFFFFFFFFFFFFFFFFFFFFFFFFFFFFFFFFFFFFFFFFFFFFFFFFFFFFFF
310
FFFFFFFFFFFFFFFFFFFFFFFFFFFFFFFFFFFFFFFFFFFFFFFFFFFFFFFFFFFFFFFF
310
FFFFFFFFFFFFFFFFFFFFFFFFFFFFFFFFFFFFFFFFFFFFFFFFFFFFFFFFFFFFFFFF
310
FFFFFFFFFFFFFFFFFFFFFFFFFFFFFFFFFFFFFFFFFFFFFFFFFFFFFFFFFFFFFFFF
310
FFFFFFFFFFFFFFFFFFFFFFFFFFFFFFFFFFFFFFFFFFFFFFFFFFFFFFFFFFFFFFFF
310
FFFFFFFFFFFFFFFFFFFFFFFFFFFFFFFFFFFFFFFFFFFFFFFFFFFFFFFFFFFFFFFF
310
FFFFFFFFFFFFFFFFFFFFFFFFFFFFFFFFFFFFFFFFFFFFFFFFFFFFFFFFFFFFFFFF
310
FFFFFFFFFFFFFFFFFFFFFFFFFFFFFFFFFFFFFFFFFFFFFFFFFFFFFFFFFFFFFFFF
310
FFFFFFFFFFFFFFFFFFFFFFFFFFFFFFFFFFFFFFFFFFFFFFFFFFFFFFFFFFFFFFFF
310
FFFFFFFFFFFFFFFFFFFFFFFFFFFFFFFFFFFFFFFFFFFFFFFFFFFFFFFFFFFFFFFF
310
FFFFFFFFFFFFFFFFFFFFFFFFFFFFFFFFFFFFFFFFFFFFFFFFFFFFFFFFFFFFFFFF
310
FFFFFFFFFFFFFFFFFFFFFFFFFFFFFFFFFFFFFFFFFFFFFFFFFFFFFFFFFFFFFFFF
310
FFFFFFFFFFFFFFFFFFFFFFFFFFFFFFFFFFFFFFFFFFFFFFFFFFFFFFFFFFFFFFFF
310
FFFFFFFFFFFFFFFFFFFFFFFFFFFFFFFFFFFFFFFFFFFFFFFFFFFFFFFFFFFFFFFF
310
FFFFFFFFFFFFFFFFFFFFFFFFFFFFFFFFFFFFFFFFFFFFFFFFFFFFFFFFFFFFFFFF
310
0100000200000000000000000000000000000000000000000000000000000000
310
0000000000000000000000000000000000000000000000000000000000000000
310
0100FEFF030A0000FFFFFFFF0A00030000000000C00000000000004607000000
310
5042727573680007000000504272757368000700000050427275736800F439B2
310
7100000000000000000000000000000000000000000000000000000000000000
310
0000000000000000000000000000000000000000000000000000000000000000
310
0000000000000000000000000000000000000000000000000000000000000000
310
0000000000000000000000000000000000000000000000000000000000000000
310
0000000000000000000000000000000000000000000000000000000000000000
310
0000000000000000000000000000000000000000000000000000000000000000
310
0000000000000000000000000000000000000000000000000000000000000000
310
0000000000000000000000000000000000000000000000000000000000000000
310
0000000000000000000000000000000000000000000000000000000000000000
310
0000000000000000000000000000000000000000000000000000000000000000
310
0000000000000000000000000000000000000000000000000000000000000000
310
0000000000000000000000000000000000000000000000000000000000000000
310
20260000424D0E260000000000003E00000028000000B40200006E0000000100
310
01000000000000000000130B0000130B00000200000002000000000000FFFFFF
310
FFFFFFFFFFFFFFFFFFFFFFFFFFFFFFFFFFFFFFFFFFFFFFFFFFFFFFFFFFFFFFFF
310
FFFFFFFFFFFFFFFFFFFFFFFFFFFFFFFFFFFFFFFFFFFFFFFFFFFFFFFFFFFFFFFF
310
FFFFFFFFFFFFFFFFFFFFFFFFFFFFFFFFFFFFFFFFFFFFFFFFF000FFFFFFFFFFFF
310
FFFFFFFFFFFFFFFFFFFFFFFFFFFFFFFFFFFFFFFFFFFFFFFFFFFFFFFFFFFFFFFF
310
FFFFFFFFFFFFFFFFFFFFFFFFFFFFFFFFFFFFFFFFFFFFFFFFFFFFFFFFFFFFFFFF
310
FFFFFFFFFFFFFFFFFFFFFFFFFFFFFFFFF000FFFFFFFFFFFFFFFFFFFFFFFFFFFF
310
FFFFFFFFFFFFFFFFFFFFFFFFFFFFFFFFFFFFFFFFFFFFFFFFFFFFFFFFFFFFFFFF
310
FFFFFFFFFFFFFFFFFFFFFFFFFFFFFFFFFFFFFFFFFFFFFFFFFFFFFFFFFFFFFFFF
310
FFFFFFFFFFFFFFFFF000FFFFFFFFFFFFFFFFFFFFFFFFFFFFFFFFFFFFFFFFFFFF
310
FFFFFFFFFFFFFFFFFFFFFFFFFFFFFFFFFFFFFFFFFFFFFFFFFFFFFFFFFFFFFFFF
310
FFFFFFFFFFFFFFFFFFFFFFFFFFFFFFFFFFFFFFFFFFFFFFFFFFFFFFFFFFFFFFFF
310
F000FFFFFFFFFFFFFFFFFFFFFFFFFFFFFFFFFFFFFFFFFFFFFFFFFFFFFFFFFFFF
310
FFFFFFFFFFFFFFFFFFFFFFFFFFFFFFFFFFFFFFFFFFFFFFFFFFFFFFFFFFFFFFFF
310
FFFFFFFFFFFFFFFFFFFFFFFFFFFFFFFFFFFFFFFFFFFFFFFFF000FFFFFFFFFFFF
310
FFFFFFFFFFFFFFFFFFFFFFFFFFFFFFFFFFFFFFFFFFFFFFFFFFFFFFFFFFFFFFFF
310
FFFFFFFFFFFFFFFFFFFFFFFFFFFFFFFFFFFFFFFFFFFFFFFFFFFFFFFFFFFFFFFF
310
FFFFFFFFFFFFFFFFFFFFFFFFFFFFFFFFF000FFFFFFFFFFFFFFFFFFFFFFFFFFFF
310
FFFFFFFFFFFFFFFFFFFFFFFFFFFFFFFFFFFFFFFFFFFFFFFFFFFFFFFFFFFFFFFF
310
FFFFFFFFFFFFFFFFFFFFFFFFFFFFFFFFFFFFFFFFFFFFFFFFFFFFFFFFFFFFFFFF
310
FFFFFFFFFFFFFFFFF000FFFFFFFFFFFFFFFFFFFFFFFFFFFFFFFFFFFFFFFFFFFF
310
FFFFFFFFFFFFFFFFFFFFFFFFFFFFFFFFFFFFFFFFFFFFFFFFFFFFFFFFFFFFFFFF
310
FFFFFFFFFFFFFFFFFFFFFFFFFFFFFFFFFFFFFFFFFFFFFFFFFFFFFFFFFFFFFFFF
310
F000FFFFFFFFFFFFFFFFFFFFFFFFFFFFFFFFFFFFFFFFFFFFFFFFFFFFFFFFFFFF
310
FFFFFFFFFFFFFFFFFFFFFFFFFFFFFFFFFFFFFFFFFFFFFFFFFFFFFFFFFFFFFFFF
310
FFFFFFFFFFFFFFFFFFFFFFFFFFFFFFFFFFFFFFFFFFFFFFFFF000FFFFFFFFFFFF
310
FFFFFFFFFFFFFFFFFFFFFFFFFFFFFFFFFFFFFFFFFFFFFFFFFFFFFFFFFFFFFFFF
310
FFFFFFFFFFFFFFFFFFFFFFFFFFFFFFFFFFFFFFFFFFFFFFFFFFFFFFFFFFFFFFFF
310
FFFFFFFFFFFFFFFFFFFFFFFFFFFFFFFFF000FFFFFFFFFFFFFFFFFFFFFFFFFFFF
310
FFFFFFFFFFFFFFFFFFFFFFFFFFFFFFFFFFFFFFFFFFFFFFFFFFFFFFFFFFFFFFFF
310
FFFFFFFFFFFFFFFFFFFFFFFFFFFFFFFFFFFFFFFFFFFFFFFFFFFFFFFFFFFFFFFF
310
FFFFFFFFFFFFFFFFF000FFFFFFFFFFFFFFFFFFFFFFFFFFFFFFFFFFFFFFFFFFFF
310
FFFFFFFFFFFFFFFFFFFFFFFFFFFFFFFFFFFFFFFFFFFFFFFFFFFFFFFFFFFFFFFF
310
FFFFFFFFFFFFFFFFFFFFFFFFFFFFFFFFFFFFFFFFFFFFFFFFFFFFFFFFFFFFFFFF
310
F000FFFFFFFFFFFFFFFFFFFFFFFFFFFFFFFFFFFFFFFFFFFFFFFFFFFFFFFFFFFF
310
FFFFFFFFFFFFFFFFFFFFFFFFFFFFFFFFFFFFFFFFFFFFFFFFFFFFFFFFFFFFFFFF
310
FFFFFFFFFFFFFFFFFFFFFFFFFFFFFFFFFFFFFFFFFFFFFFFFF000FFFFFFFFFFFF
310
FFFFFFFFFFFFFFFFFFFFFFFFFFFFFFFFFFFFFFFFFFFFFFFFFFFFFFFFFFFFFFFF
310
FFFFFFFFFFFFFFFFFFFFFFFFFFFFFFFFFFFFFFFFFFFFFFFFFFFFFFFFFFFFFFFF
310
FFFFFFFFFFFFFFFFFFFFFFFFFFFFFFFFF000FFFFFFFFFFFFFFFFFFFFFFFFFFFF
310
FFFFFFFFFFFFFFFFFFFFFFFFFFFFFFFFFFFFFFFFFFFFFFFFFFFFFFFFFFFFFFFF
310
FFFFFFFFFFFFFFFFFFFFFFFFFFFFFFFFFFFFFFFFFFFFFFFFFFFFFFFFFFFFFFFF
310
FFFFFFFFFFFFFFFFF000FFFFFFFFFFFFFFFFFFFFFFFFFFFFFFFFFFFFFFFFFFFF
310
FFFFFFFFFFFFFFFFFFFFFFFFFFFFFFFFFFFFFFFFFFFFFFFFFFFFFFFFFFFFFFFF
310
FFFFFFFFFFFFFFFFFFFFFFFFFFFFFFFFFFFFFFFFFFFFFFFFFFFFFFFFFFFFFFFF
310
F000FFFFFFFFFFFFFFFFFFFFFFFFFFFFFFFFFFFFFFFFFFFFFFFFFFFFFFFFFFFF
310
FFFFFFFFFFFFFFFFFFFFFFFFFFFFFFFFFFFFFFFFFFFFFFFFFFFFFFFFFFFFFFFF
310
FFFFFFFFFFFFFFFFFFFFFFFFFFFFFFFFFFFFFFFFFFFFFFFFF000FFFFFFFFFFFF
310
FFFFFFFFFFFFFFFFFFFFFFFFFFFFFFFFFFFFFFFFFFFFFFFFFFFFFFFFFFFFFFFF
310
FFFFFFFFFFFFFFFFFFFFFFFFFFFFFFFFFFFFFFFFFFFFFFFFFFFFFFFFFFFFFFFF
310
FFFFFFFFFFFFFFFFFFFFFFFFFFFFFFFFF000FFFFFFFFFFFFFFFFFFFFFFFFFFFF
310
FFFFFFFFFFFFFFFFFFFFFFFFFFFFFFFFFFFFFFFFFFFFFFFFFFFFFFFFFFFFFFFF
310
FFFFFFFFFFFFFFFFFFFFFFFFFFFFFFFFFFFFFFFFFFFFFFFFFFFFFFFFFFFFFFFF
310
FFFFFFFFFFFFFFFFF000FFFFF80003FFFFFFFFFFFFFFFFFFFFFFFFFFFFFFFFFF
310
FFFFF00007FFFFFFFFFF00007FFFFFF800000000000000007FFFFFFFFFFFFFFF
310
FFFFFFFC001FFFFFFFFFFFFFFC001FFFFFFFFFFFFFFFFFFFFFFFFFFE0007FFFF
310
F000FFFF8000007FFFFFFFF8000FFFFFC0007FFFFF80007FFFFF0000007FFFFF
310
FFF8000007FFFFF800000000000000007FFFFFF0001FFFFFFFFFFFC00001FFFF
310
FFFFFFFFC00001FFFFFFFF000000000003FFFFE000007FFFF000FFFE0000000F
310
FFFFFFF0000FFFFF80007FFFFF80007FFFFC0000001FFFFFFFC0000001FFFFF8
310
00000000000000007FFFFFF0001FFFFFFFFFFE0000003FFFFFFFFFFE0000003F
310
FFFFFF000000000003FFFF0000000FFFF000FFF800000003FFFFFFF00007FFFF
310
80007FFFFF80007FFFF000000007FFFFFF000000003FFFF80000000000000000
310
7FFFFFF0001FFFFFFFFFF80000000FFFFFFFFFF80000000FFFFFFF0000000000
310
03FFFC00000003FFF000FFE000000000FFFFFFF00007FFFF80003FFFFF80007F
310
FFC000000001FFFFFC000000001FFFF800000000000000007FFFFFF0001FFFFF
310
FFFFE000000003FFFFFFFFE000000003FFFFFF000000000003FFF000000000FF
310
F000FF80000000007FFFFFF00007FFFF80003FFFFF80007FFF8000000000FFFF
310
F80000000007FFF800000000000000007FFFFFF0001FFFFFFFFFC000000001FF
310
FFFFFFC000000001FFFFFF000000000003FFC0000000007FF000FF0000000000
310
3FFFFFE00007FFFF00003FFFFF80007FFE00000000003FFFF00000000003FFF8
310
00000000000000007FFFFFF0001FFFFFFFFF8000000000FFFFFFFF8000000000
310
FFFFFF000000000003FF80000000003FF000FE00000000001FFFFFE00003FFFF
310
00003FFFFF80007FFC00000000001FFFE00000000001FFF8000001FFFE000000
310
7FFFFFF0001FFFFFFFFE00000000003FFFFFFE00000000003FFFFF0000000000
310
03FF00000000001FF000FC00000000000FFFFFE00003FFFF00001FFFFF80007F
310
F800000000001FFFC00000000000FFF8000001FFFE0000007FFFFFF0001FFFFF
310
FFFC00000000001FFFFFFC00000000001FFFFF000000000003FE00000000000F
310
F000F8000000000007FFFFE00003FFFF00001FFFFF80007FF800000000000FFF
310
800000000000FFF8000001FFFE0000007FFFFFF0001FFFFFFFF800000000000F
310
FFFFF800000000000FFFFF000000000003FC000000000007F000F80000000000
310
03FFFFC00003FFFE00001FFFFF80007FF0000000000007FF0000000000007FF8
310
000001FFFE0000007FFFFFF0001FFFFFFFF0000000000007FFFFF00000000000
310
07FFFF000000000003F8000000000003F000F0000000000003FFFFC00001FFFE
310
00001FFFFF80007FE0000000000007FE0000000000003FF8000001FFFE000000
310
7FFFFFF0001FFFFFFFF0000000000007FFFFF0000000000007FFFF0000000000
310
03F800001F800003F000E00001FFF00001FFFFC00001FFFE00000FFFFF80007F
310
E00001FFE00003FE00001FFF00003FF8000001FFFE0000007FFFFFF0001FFFFF
310
FFE000003E000003FFFFE000003E000003FFFF000000000003F00001FFF80001
310
F000E00007FFFC0001FFFFC00001FFFE00000FFFFF80007FC0000FFFFC0003FC
310
0000FFFFC0001FF8000001FFFE0000007FFFFFF0001FFFFFFFC00003FFE00001
310
FFFFC00003FFE00001FFFF0001FFFFFFFFF00007FFFE0001F000E0000FFFFF00
310
00FFFF800001FFFC00000FFFFF80007FC0001FFFFE0001FC0001FFFFE0001FF8
310
000001FFFE0000007FFFFFF0001FFFFFFF80000FFFF80000FFFF80000FFFF800
310
00FFFF0003FFFFFFFFE0000FFFFF8000F000C0003FFFFF8000FFFF800000FFFC
310
000007FFFF80007F80003FFFFF0001FC0003FFFFF0001FF8000001FFFE000000
310
7FFFFFF0001FFFFFFF80003FFFFE0000FFFF80003FFFFE0000FFFF0003FFFFFF
310
FFE0003FFFFF8000F000C0003FFFFF8000FFFF800000FFFC000007FFFF80007F
310
80007FFFFF8001F80007FFFFF8000FF8000001FFFE0000007FFFFFF0001FFFFF
310
FF00007FFFFF00007FFF00007FFFFF00007FFF0003FFFFFFFFE0003FFFFFC000
310
F000C0007FFFFFC000FFFF000000FFFC000007FFFF80007F8000FFFFFF8000F8
310
000FFFFFF8000FF8000001FFFE0000007FFFFFF0001FFFFFFF0000FFFFFF8000
310
7FFF0000FFFFFF80007FFF0003FFFFFFFFC0007FFFFFC00070008000FFFFFFC0
310
00FFFF000000FFF8000007FFFF80007F8000FFFFFF8000F8000FFFFFF8000FF8
310
000001FFFE0000007FFFFFF0001FFFFFFE0001FFFFFFC0003FFE0001FFFFFFC0
310
003FFF0003FFFFFFFFC0007FFFFFE00070008000FFFFFFC0007FFF0000007FF8
310
000003FFFF80007F0001FFFFFF8000F8000FFFFFF8000FF8000001FFFE000000
310
7FFFFFF0001FFFFFFE0001FFFFFFC0003FFE0001FFFFFFC0003FFF0003FFFFFF
310
FFC000FFFFFFE00070008000FFFFFFC0007FFF0000007FF8000003FFFF80007F
310
0001FFFFFF8000F8001FFFFFF8000FF8000001FFFE0000007FFFFFF0001FFFFF
310
FE0003FFFFFFE0003FFE0003FFFFFFE0003FFF0003FFFFFFFFC000FFFFFFE000
310
70008000FFFFFFC0007FFE0000007FF8000003FFFF80007F0001FFFFFF8000F0
310
001FFFFFF8000FF8000001FFFE0000007FFFFFF0001FFFFFFC0003FFFFFFE000
310
1FFC0003FFFFFFE0001FFF0003FFFFFFFFC000FFFFFFC00070008000FFFFFF80
310
007FFE0000007FF0000003FFFF80007F0001FFFFFF0000F0001FFFFFF8000FF8
310
000001FFFE0000007FFFFFF0001FFFFFFC0007FFFFFFF0001FFC0007FFFFFFF0
310
001FFF0003FFFFFFFFC000FFFFFFC00070008001FFFFFF0000FFFE0000003FF0
310
000001FFFF80007F0001FFFFFF0000F8001FFFFFF0000FF8000001FFFE000000
310
7FFFFFF0001FFFFFFC0007FFFFFFF0001FFC0007FFFFFFF0001FFF0003FFFFFF
310
FFC001FFFFFF80007000FFFFFFFFFE0000FFFE0008003FF0008001FFFF80007F
310
FFFFFFFFFC0000FFFFFFFFFFE0000FF8000001FFFE0000007FFFFFF0001FFFFF
310
F8000FFFFFFFF8000FF8000FFFFFFFF8000FFF0003FFFFFFFFFFFFFFFFFF0000
310
7000FFFFFFFFFC0000FFFC0008003FF0008001FFFF80007FFFFFFFFFF80001FF
310
FFFFFFFF80000FF8000001FFFE0000007FFFFFF0001FFFFFF8000FFFFFFFF800
310
0FF8000FFFFFFFF8000FFF0003FFFFFFFFFFFFFFFFFE0000F000FFFFFFFFE000
310
00FFFC000C003FE000C001FFFF80007FFFFFFFFFC00001FFFFFFFFFE00001FF8
310
000001FFFE0000007FFFFFF0001FFFFFF8000FFFFFFFF8000FF8000FFFFFFFF8
310
000FFF0003FFFFFFFFFFFFFFFFF00000F000FFFFFFFE000001FFFC000C001FE0
310
00C000FFFF80007FFFFFFFFE000001FFFFFFFFE000001FF80FFFFFFFFFFFFFC0
310
7FFFFFF0001FFFFFF8000FFFFFFFF8000FF8000FFFFFFFF8000FFF0003FFFFFF
310
FFFFFFFFFF800000F000FFFFFFC0000001FFFC001C001FE001C000FFFF80007F
310
FFFFFF80000003FFFFFFF80000001FF80FFFFFFFFFFFFFC07FFFFFF0001FFFFF
310
F8001FFFFFFFFC000FF8001FFFFFFFFC000FFF0003FFFFFFFFFFFFFFF0000001
310
F000FFFFF800000001FFF8001C001FE001C000FFFF80007FFFFFF800000003FF
310
FFFF800000003FF80FFFFFFFFFFFFFC07FFFFFF0001FFFFFF8001FFFFFFFFC00
310
0FF8001FFFFFFFFC000FFF0003FFFFFFFFFFFFFE00000001F000FFFFC0000000
310
03FFF8001E001FC001E000FFFF80007FFFFF8000000007FFFFFC000000003FF8
310
0FFFFFFFFFFFFFC07FFFFFF0001FFFFFF8001FFFFFFFFC000FF8001FFFFFFFFC
310
000FFF0003FFFFFFFFFFFFE000000003F000FFFE0000000007FFF8001E000FC0
310
01E0007FFF80007FFFFE0000000007FFFFE0000000007FF80FFFFFFFFFFFFFC0
310
7FFFFFF0001FFFFFF0001FFFFFFFFC0007F0001FFFFFFFFC0007FF0003FFFFFF
310
FFFFFF0000000003F000FFF80000000007FFF8001E000FC003E0007FFF80007F
310
FFF0000000000FFFFF8000000000FFF80FFFFFFFFFFFFFC07FFFFFF0001FFFFF
310
F0001FFFFFFFFC0007F0001FFFFFFFFC0007FF0003FFFFFFFFFFFC0000000007
310
F000FFE0000000000FFFF0003E000FC003E0007FFF80007FFFC0000000001FFF
310
FE0000000001FFF80FFFFFFFFFFFFFC07FFFFFF0001FFFFFF0001FFFFFFFFC00
310
07F0001FFFFFFFFC0007FF0003FFFFFFFFFFF0000000000FF000FFC000000000
310
1FFFF0003F000F8003F0003FFF80007FFF80000000003FFFF80000000003FFF8
310
0FFFFFFFFFFFFFC07FFFFFF0001FFFFFF0001FFFFFFFFC0007F0001FFFFFFFFC
310
0007FF0003FFFFFFFFFFE0000000001FF000FF00000000007FFFF0003F000780
310
03F0003FFF80007FFF00000000007FFFF00000000007FFF80FFFFFFFFFFFFFC0
310
7FFFFFF0001FFFFFF0001FFFFFFFFC0007F0001FFFFFFFFC0007FF0003FFFFFF
310
FFFF80000000007FF000FE0000000000FFFFE0003F00078007F0003FFF80007F
310
FE0000000001FFFFE0000000001FFFF80FFFFFFFFFFFFFC07FFFFFF0001FFFFF
310
F0001FFFFFFFFC0007F0001FFFFFFFFC0007FF0003FFFFFFFFFF0000000000FF
310
F000FC0000000003FFFFE0007F00078007F0003FFF80007FFC0000000007FFFF
310
C0000000007FFFF80FFFFFFFFFFFFFC07FFFFFF0001FFFFFF8001FFFFFFFFC00
310
0FF8001FFFFFFFFC000FFF0003FFFFFFFFFE0000000003FFF000FC000000000F
310
FFFFE0007F80070007F8001FFF80007FF8000000001FFFFF8000000001FFFFF8
310
0FFFFFFFFFFFFFC07FFFFFF0001FFFFFF8001FFFFFFFFC000FF8001FFFFFFFFC
310
000FFF0003FFFFFFFFFC000000000FFFF000F8000000007FFFFFE0007F800700
310
07F8001FFF80007FF000000000FFFFFF800000000FFFFFF80FFFFFFFFFFFFFC0
310
7FFFFFF0001FFFFFF8000FFFFFFFF8000FF8000FFFFFFFF8000FFF0003FFFFFF
310
FFFC000000007FFFF000F800000007FFFFFFC0007F8003000FF8001FFF80007F
310
F000000007FFFFFF000000007FFFFFF80FFFFFFFFFFFFFC07FFFFFF0001FFFFF
310
F8000FFFFFFFF8000FF8000FFFFFFFF8000FFF0003FFFFFFFFF80000000FFFFF
310
F000F0000000FFFFFFFFC000FF8003000FF8001FFF80007FE0000000FFFFFFFF
310
0000000FFFFFFFF8000001FFFE0000007FFFFFF0001FFFFFF8000FFFFFFFF800
310
0FF8000FFFFFFFF8000FFF0003FFFFFFFFF8000000FFFFFFF000F000000FFFFF
310
FFFFC000FFC002000FF8000FFF80007FE000001FFFFFFFFE000001FFFFFFFFF8
310
000001FFFE0000007FFFFFF0001FFFFFF8000FFFFFFFF8000FF8000FFFFFFFF8
310
000FFF0003FFFFFFFFF000001FFFFFFFF000E00000FFFFFFFFFFC000FFC00200
310
0FFC000FFF80007FE00001FFFFFFFFFE00001FFFFFFFFFF8000001FFFE000000
310
7FFFFFF0001FFFFFFC000FFFFFFFF8001FFC000FFFFFFFF8001FFF0003FFFFFF
310
FFF00001FFFFFFFFF000E00007FFFFFFFFFF8000FFC000001FFC000FFF80007F
310
C0000FFFFFFFFFFE0000FFFFFFFFFFF8000001FFFE0000007FFFFFF0001FFFFF
310
FC0007FFFFFFF0001FFC0007FFFFFFF0001FFF0003FFFFFFFFF00007FFFFFFFF
310
F000E0001FFFFFFFFFFF8000FFC000001FFC000FFF80007FC0003FFFFFFFFFFE
310
0001FFFFFFFFFFF8000001FFFE0000007FFFFFF0001FFFFFFC0007FFFFFFF000
310
1FFC0007FFFFFFF0001FFF0003FFFFFFFFF0001FFFFFFFFFF000E0003FFFFF00
310
03FF8001FFE000001FFC0007FF80007FC0007FFFFF0007FC0003FFFFF0003FF8
310
000001FFFE0000007FFFFFF0001FFFFFFC0003FFFFFFE0001FFC0003FFFFFFE0
310
001FFF0003FFFFFFFFF0003FFFFFFFFFF000E0003FFFFF0001FF8001FFE00000
310
1FFE0007FF80007FC0007FFFFE0003FC0007FFFFE0003FF8000001FFFE000000
310
7FFFFFF0001FFFFFFE0003FFFFFFE0003FFE0003FFFFFFE0003FFF0003FFFFFF
310
FFF0003FFFFF8001F000E0003FFFFF0001FF0001FFE000001FFE0007FF80007F
310
C0007FFFFE0003FC0007FFFFE0003FF8000001FFFE0000007FFFFFF0001FFFFF
310
FE0001FFFFFFC0003FFE0001FFFFFFC0003FFF0003FFFFFFFFF0003FFFFF0001
310
F000E0003FFFFF0003FF0001FFE000003FFE0007FF80007FC0007FFFFE0003FC
310
0007FFFFE0003FF8000001FFFE0000007FFFFFF0001FFFFFFF0001FFFFFFC000
310
7FFF0001FFFFFFC0007FFF0003FFFFFFFFF0003FFFFF0001F000E0003FFFFE00
310
03FF0003FFF000003FFE0003FF80007FC0007FFFFC0003FE0007FFFFE0003FF8
310
000001FFFE0000007FFFFFF0001FFFFFFF0000FFFFFF80007FFF0000FFFFFF80
310
007FFF0003FFFFFFFFF0003FFFFF0001F000E0003FFFFE0003FF0003FFF00000
310
3FFF0003FF80007FC0007FFFFC0007FE0007FFFFC0003FF8000001FFFE000000
310
7FFFFFF0001FFFFFFF80007FFFFF0000FFFF80007FFFFF0000FFFF0003FFFFFF
310
FFF0003FFFFF0003F000E0003FFFFC0003FE0003FFF000003FFF0003FF80007F
310
E0003FFFF80007FE0003FFFFC0007FF8000001FFFE0000007FFFFFF0001FFFFF
310
FF80003FFFFE0000FFFF80003FFFFE0000FFFF0003FFFFFFFFF0001FFFFE0003
310
F000F0001FFFF80003FE0003FFF000007FFF0001FF80007FE0003FFFF00007FE
310
0001FFFF80007FF8000001FFFE0000007FFFFFF0001FFFFFFFC0000FFFF80001
310
FFFFC0000FFFF80001FFFF0003FFFFFFFFF0001FFFFC0003F000F0000FFFF000
310
07FE0007FFF800007FFF0001FF80007FE0001FFFE00007FF0000FFFE00007FF8
310
000001FFFE0000007FFFFFF0001FFFFFFFC00003FFE00001FFFFC00003FFE000
310
01FFFF0003FFFFFFFFF8000FFFF80003F000F00003FFC00007FC0007FFF80000
310
7FFF8001FF80007FF00007FF80000FFF00007FF80000FFF8000001FFFE000000
310
7F80000000000001FFE000003E000003FFFFE000003E000003FFFF0003FFFFFF
310
FFF80003FFE00007F000F800000000000FFC0007FFF800007FFF8001FF80007F
310
F000000000000FFF000000000000FFF8000001FFFE0000007F80000000000001
310
FFF0000000000007FFFFF0000000000007FFFF0003FFFFFFFFFC00007E000007
310
F000F800000000000FFC0007FFF80000FFFF8000FF80007FF800000000001FFF
310
800000000001FFF8000001FFFE0000007F80000000000001FFF800000000000F
310
FFFFF800000000000FFFFF0003FFFFFFFFFC00000000000FF000FC0000000000
310
1FFC0007FFFC0000FFFF8000FF80007FF800000000003FFFC00000000001FFF8
310
000001FFFE0000007F80000000000001FFF800000000000FFFFFF80000000000
310
0FFFFF0003FFFFFFFFFE00000000001FF000FE00000000003FF8000FFFFC0000
310
FFFF8000FF80007FFC00000000003FFFC00000000003FFF8000001FFFE000000
310
7F80000000000001FFFC00000000001FFFFFFC00000000001FFFFF0003FFFFFF
310
FFFF00000000001FF000FF00000000003FF8000FFFFC0000FFFFC000FF80007F
310
FE00000000007FFFE00000000007FFF8000001FFFE0000007F80000000000001
310
FFFE00000000003FFFFFFE00000000003FFFFF0003FFFFFFFFFF80000000003F
310
F000FF80000000007FF8000FFFFC0001FFFFC0007F80007FFF0000000000FFFF
310
F0000000000FFFF800000000000000007F80000000000001FFFF8000000000FF
310
FFFFFF8000000000FFFFFF0003FFFFFFFFFFC0000000007FF000FFC000000000
310
FFF8000FFFFE0001FFFFC0007F80007FFF8000000001FFFFF8000000001FFFF8
310
00000000000000007F80000000000001FFFFC000000001FFFFFFFFC000000001
310
FFFFFF0003FFFFFFFFFFE000000000FFF000FFE000000003FFF0001FFFFE0001
310
FFFFC0007F80007FFFC000000007FFFFFE000000003FFFF80000000000000000
310
7F80000000000001FFFFE000000003FFFFFFFFE000000003FFFFFF0003FFFFFF
310
FFFFF000000003FFF000FFF80000000FFFF0001FFFFE0001FFFFE0007F80007F
310
FFF00000000FFFFFFF00000000FFFFF800000000000000007F80000000000001
310
FFFFF80000000FFFFFFFFFF80000000FFFFFFF0003FFFFFFFFFFFC0000000FFF
310
F000FFFE0000003FFFF0001FFFFE0003FFFFE0003F80007FFFFC0000003FFFFF
310
FFC0000003FFFFF800000000000000007F80000000000001FFFFFE0000003FFF
310
FFFFFFFE0000003FFFFFFF0003FFFFFFFFFFFF0000003FFFF000FFFF800000FF
310
FFF0001FFFFF0003FFFFE0003F80007FFFFF000001FFFFFFFFF800001FFFFFF8
310
00000000000000007F80000000000001FFFFFFC00001FFFFFFFFFFFFC00001FF
310
FFFFFF0003FFFFFFFFFFFFC00000FFFFF000FFFFF8000FFFFFFFFFFFFFFFFFFF
310
FFFFFFFFFFFFFFFFFFFFF0001FFFFFFFFFFF0000FFFFFFF80000000000000000
310
7FFFFFFFFFFFFFFFFFFFFFFC001FFFFFFFFFFFFFFC001FFFFFFFFFFFFFFFFFFF
310
FFFFFFFC001FFFFFF000FFFFFFFFFFFFFFFFFFFFFFFFFFFFFFFFFFFFFFFFFFFF
310
FFFFFFFFFFFFFFFFFFFFFFFFFFFFFFFFFFFFFFFFFFFFFFFFFFFFFFFFFFFFFFFF
310
FFFFFFFFFFFFFFFFFFFFFFFFFFFFFFFFFFFFFFFFFFFFFFFFFFFFFFFFFFFFFFFF
310
F000FFFFFFFFFFFFFFFFFFFFFFFFFFFFFFFFFFFFFFFFFFFFFFFFFFFFFFFFFFFF
310
FFFFFFFFFFFFFFFFFFFFFFFFFFFFFFFFFFFFFFFFFFFFFFFFFFFFFFFFFFFFFFFF
310
FFFFFFFFFFFFFFFFFFFFFFFFFFFFFFFFFFFFFFFFFFFFFFFFF000FFFFFFFFFFFF
310
FFFFFFFFFFFFFFFFFFFFFFFFFFFFFFFFFFFFFFFFFFFFFFFFFFFFFFFFFFFFFFFF
310
FFFFFFFFFFFFFFFFFFFFFFFFFFFFFFFFFFFFFFFFFFFFFFFFFFFFFFFFFFFFFFFF
310
FFFFFFFFFFFFFFFFFFFFFFFFFFFFFFFFF000FFFFFFFFFFFFFFFFFFFFFFFFFFFF
310
FFFFFFFFFFFFFFFFFFFFFFFFFFFFFFFFFFFFFFFFFFFFFFFFFFFFFFFFFFFFFFFF
310
FFFFFFFFFFFFFFFFFFFFFFFFFFFFFFFFFFFFFFFFFFFFFFFFFFFFFFFFFFFFFFFF
310
FFFFFFFFFFFFFFFFF000FFFFFFFFFFFFFFFFFFFFFFFFFFFFFFFFFFFFFFFFFFFF
310
FFFFFFFFFFFFFFFFFFFFFFFFFFFFFFFFFFFFFFFFFFFFFFFFFFFFFFFFFFFFFFFF
310
FFFFFFFFFFFFFFFFFFFFFFFFFFFFFFFFFFFFFFFFFFFFFFFFFFFFFFFFFFFFFFFF
310
F000FFFFFFFFFFFFFFFFFFFFFFFFFFFFFFFFFFFFFFFFFFFFFFFFFFFFFFFFFFFF
310
FFFFFFFFFFFFFFFFFFFFFFFFFFFFFFFFFFFFFFFFFFFFFFFFFFFFFFFFFFFFFFFF
310
FFFFFFFFFFFFFFFFFFFFFFFFFFFFFFFFFFFFFFFFFFFFFFFFF000FFFFFFFFFFFF
310
FFFFFFFFFFFFFFFFFFFFFFFFFFFFFFFFFFFFFFFFFFFFFFFFFFFFFFFFFFFFFFFF
310
FFFFFFFFFFFFFFFFFFFFFFFFFFFFFFFFFFFFFFFFFFFFFFFFFFFFFFFFFFFFFFFF
310
FFFFFFFFFFFFFFFFFFFFFFFFFFFFFFFFF000FFFFFFFFFFFFFFFFFFFFFFFFFFFF
310
FFFFFFFFFFFFFFFFFFFFFFFFFFFFFFFFFFFFFFFFFFFFFFFFFFFFFFFFFFFFFFFF
310
FFFFFFFFFFFFFFFFFFFFFFFFFFFFFFFFFFFFFFFFFFFFFFFFFFFFFFFFFFFFFFFF
310
FFFFFFFFFFFFFFFFF000FFFFFFFFFFFFFFFFFFFFFFFFFFFFFFFFFFFFFFFFFFFF
310
FFFFFFFFFFFFFFFFFFFFFFFFFFFFFFFFFFFFFFFFFFFFFFFFFFFFFFFFFFFFFFFF
310
FFFFFFFFFFFFFFFFFFFFFFFFFFFFFFFFFFFFFFFFFFFFFFFFFFFFFFFFFFFFFFFF
310
F000FFFFFFFFFFFFFFFFFFFFFFFFFFFFFFFFFFFFFFFFFFFFFFFFFFFFFFFFFFFF
310
FFFFFFFFFFFFFFFFFFFFFFFFFFFFFFFFFFFFFFFFFFFFFFFFFFFFFFFFFFFFFFFF
310
FFFFFFFFFFFFFFFFFFFFFFFFFFFFFFFFFFFFFFFFFFFFFFFFF000FFFFFFFFFFFF
310
FFFFFFFFFFFFFFFFFFFFFFFFFFFFFFFFFFFFFFFFFFFFFFFFFFFFFFFFFFFFFFFF
310
FFFFFFFFFFFFFFFFFFFFFFFFFFFFFFFFFFFFFFFFFFFFFFFFFFFFFFFFFFFFFFFF
310
FFFFFFFFFFFFFFFFFFFFFFFFFFFFFFFFF000FFFFFFFFFFFFFFFFFFFFFFFFFFFF
310
FFFFFFFFFFFFFFFFFFFFFFFFFFFFFFFFFFFFFFFFFFFFFFFFFFFFFFFFFFFFFFFF
310
FFFFFFFFFFFFFFFFFFFFFFFFFFFFFFFFFFFFFFFFFFFFFFFFFFFFFFFFFFFFFFFF
310
FFFFFFFFFFFFFFFFF000FFFFFFFFFFFFFFFFFFFFFFFFFFFFFFFFFFFFFFFFFFFF
310
FFFFFFFFFFFFFFFFFFFFFFFFFFFFFFFFFFFFFFFFFFFFFFFFFFFFFFFFFFFFFFFF
310
FFFFFFFFFFFFFFFFFFFFFFFFFFFFFFFFFFFFFFFFFFFFFFFFFFFFFFFFFFFFFFFF
310
F000FFFFFFFFFFFFFFFFFFFFFFFFFFFFFFFFFFFFFFFFFFFFFFFFFFFFFFFFFFFF
310
FFFFFFFFFFFFFFFFFFFFFFFFFFFFFFFFFFFFFFFFFFFFFFFFFFFFFFFFFFFFFFFF
310
FFFFFFFFFFFFFFFFFFFFFFFFFFFFFFFFFFFFFFFFFFFFFFFFF000FFFFFFFFFFFF
310
FFFFFFFFFFFFFFFFFFFFFFFFFFFFFFFFFFFFFFFFFFFFFFFFFFFFFFFFFFFFFFFF
310
FFFFFFFFFFFFFFFFFFFFFFFFFFFFFFFFFFFFFFFFFFFFFFFFFFFFFFFFFFFFFFFF
310
FFFFFFFFFFFFFFFFFFFFFFFFFFFFFFFFF000FFFFFFFFFFFFFFFFFFFFFFFFFFFF
310
FFFFFFFFFFFFFFFFFFFFFFFFFFFFFFFFFFFFFFFFFFFFFFFFFFFFFFFFFFFFFFFF
310
FFFFFFFFFFFFFFFFFFFFFFFFFFFFFFFFFFFFFFFFFFFFFFFFFFFFFFFFFFFFFFFF
310
FFFFFFFFFFFFFFFFF000FFFFFFFFFFFFFFFFFFFFFFFFFFFFFFFFFFFFFFFFFFFF
310
FFFFFFFFFFFFFFFFFFFFFFFFFFFFFFFFFFFFFFFFFFFFFFFFFFFFFFFFFFFFFFFF
310
FFFFFFFFFFFFFFFFFFFFFFFFFFFFFFFFFFFFFFFFFFFFFFFFFFFFFFFFFFFFFFFF
310
F000FFFFFFFFFFFFFFFFFFFFFFFFFFFFFFFFFFFFFFFFFFFFFFFFFFFFFFFFFFFF
310
FFFFFFFFFFFFFFFFFFFFFFFFFFFFFFFFFFFFFFFFFFFFFFFFFFFFFFFFFFFFFFFF
310
FFFFFFFFFFFFFFFFFFFFFFFFFFFFFFFFFFFFFFFFFFFFFFFFF000FFFFFFFFFFFF
310
FFFFFFFFFFFFFFFFFFFFFFFFFFFFFFFFFFFFFFFFFFFFFFFFFFFFFFFFFFFFFFFF
310
FFFFFFFFFFFFFFFFFFFFFFFFFFFFFFFFFFFFFFFFFFFFFFFFFFFFFFFFFFFFFFFF
310
FFFFFFFFFFFFFFFFFFFFFFFFFFFFFFFFF000FFFFFFFFFFFFFFFFFFFFFFFFFFFF
310
FFFFFFFFFFFFFFFFFFFFFFFFFFFFFFFFFFFFFFFFFFFFFFFFFFFFFFFFFFFFFFFF
310
FFFFFFFFFFFFFFFFFFFFFFFFFFFFFFFFFFFFFFFFFFFFFFFFFFFFFFFFFFFFFFFF
310
FFFFFFFFFFFFFFFFF000FFFFFFFFFFFFFFFFFFFFFFFFFFFFFFFFFFFFFFFFFFFF
310
FFFFFFFFFFFFFFFFFFFFFFFFFFFFFFFFFFFFFFFFFFFFFFFFFFFFFFFFFFFFFFFF
310
FFFFFFFFFFFFFFFFFFFFFFFFFFFFFFFFFFFFFFFFFFFFFFFFFFFFFFFFFFFFFFFF
310
F000FFFFFFFFFFFFFFFFFFFFFFFFFFFFFFFFFFFFFFFFFFFFFFFFFFFFFFFFFFFF
310
FFFFFFFFFFFFFFFFFFFFFFFFFFFFFFFFFFFFFFFFFFFFFFFFFFFFFFFFFFFFFFFF
310
FFFFFFFFFFFFFFFFFFFFFFFFFFFFFFFFFFFFFFFFFFFFFFFFF000FFFFFFFFFFFF
310
FFFFFFFFFFFFFFFFFFFFFFFFFFFFFFFFFFFFFFFFFFFFFFFFFFFFFFFFFFFFFFFF
310
FFFFFFFFFFFFFFFFFFFFFFFFFFFFFFFFFFFFFFFFFFFFFFFFFFFFFFFFFFFFFFFF
310
FFFFFFFFFFFFFFFFFFFFFFFFFFFFFFFFF0000000000000000000000000000000
310
0000000000000000000000000000000000000000000000000000000000000000
310
0000000000000000000000000000000000000000000000000000000000000000
310
0000000000000000000000000000000000000000000000000000000000000000
310
0000000000000000000000000000000000000000000000000000000000000000
310
0000000000000000000000000000000000000000000000000000000000000000
310
0000000000000000000000000000000000000000000000000000000000000000
310
0000000000000000000000000000000000000000000000000000000000000000
310
0000000000000000000000000000000000000000000000000000000000000000
310
0000000000000000000000000000000000000000000000000000000000000000
310
0000000000000000000000000000000000000000000000000000000000000000
310
0000000000000000000000000000000000000000000000000000000000000000
310
0000000000000000000000000000000000000000000000000000000000000000
310
0000000000000000000000000000000000000000000000000000000000000000
310
0000000000000000000000000000000000000000000000000000000000000000
310
0000000000000000000000000000000000000000000000000000000000000000
  1
OLE
  0
ENDSEC
  0
SECTION
  2
OBJECTS
  0
DICTIONARY
  5
C
330
0
100
AcDbDictionary
281
     1
  3
ACAD_GROUP
350
D
  3
ACAD_LAYOUT
350
1A
  3
ACAD_MLINESTYLE
350
17
  3
ACAD_PLOTSETTINGS
350
19
  3
ACAD_PLOTSTYLENAME
350
E
  3
ACAD_SCALELIST
350
47
  0
DICTIONARY
  5
D
102
{ACAD_REACTORS
330
C
102
}
330
C
100
AcDbDictionary
281
     1
  0
DICTIONARY
  5
1A
102
{ACAD_REACTORS
330
C
102
}
330
C
100
AcDbDictionary
281
     1
  3
Layout1
350
1E
  3
Layout2
350
26
  3
Model
350
22
  0
DICTIONARY
  5
17
102
{ACAD_REACTORS
330
C
102
}
330
C
100
AcDbDictionary
281
     1
  3
Standard
350
18
  0
DICTIONARY
  5
19
102
{ACAD_REACTORS
330
C
102
}
330
C
100
AcDbDictionary
281
     1
  0
ACDBDICTIONARYWDFLT
  5
E
102
{ACAD_REACTORS
330
C
102
}
330
C
100
AcDbDictionary
281
     1
  3
Normal
350
F
100
AcDbDictionaryWithDefault
340
F
  0
DICTIONARY
  5
47
102
{ACAD_REACTORS
330
C
102
}
330
C
100
AcDbDictionary
281
     1
  3
A0
350
48
  3
A1
350
49
  3
A2
350
4A
  3
A3
350
4B
  3
A4
350
4C
  3
A5
350
4D
  3
A6
350
4E
  3
A7
350
4F
  3
A8
350
50
  3
A9
350
51
  3
B0
350
52
  3
B1
350
53
  3
B2
350
54
  3
B3
350
55
  3
B4
350
56
  3
B5
350
57
  3
B6
350
58
  3
B7
350
59
  3
B8
350
5A
  3
B9
350
5B
  3
C0
350
5C
  3
C1
350
5D
  3
C2
350
5E
  3
C3
350
5F
  3
C4
350
60
  3
C5
350
61
  3
C6
350
62
  3
C7
350
63
  3
C8
350
64
  3
C9
350
65
  3
D0
350
66
  3
D1
350
67
  3
D2
350
68
  0
LAYOUT
  5
1E
102
{ACAD_REACTORS
330
1A
102
}
330
1A
100
AcDbPlotSettings
  1

  2
none_device
  4

  6

 40
0.0
 41
0.0
 42
0.0
 43
0.0
 44
0.0
 45
0.0
 46
0.0
 47
0.0
 48
0.0
 49
0.0
140
0.0
141
0.0
142
1.0
143
1.0
 70
   688
 72
     1
 73
     0
 74
     5
  7

 75
    16
147
1.0
148
0.0
149
0.0
100
AcDbLayout
  1
Layout1
 70
     1
 71
     1
 10
0.0
 20
0.0
 11
420.0
 21
297.0
 12
0.0
 22
0.0
 32
0.0
 14
1.0000000000E+20
 24
1.0000000000E+20
 34
1.0000000000E+20
 15
-1.0000000000E+20
 25
-1.0000000000E+20
 35
-1.0000000000E+20
146
0.0
 13
0.0
 23
0.0
 33
0.0
 16
1.0
 26
0.0
 36
0.0
 17
0.0
 27
1.0
 37
0.0
 76
     0
330
1B
  0
LAYOUT
  5
26
102
{ACAD_REACTORS
330
1A
102
}
330
1A
100
AcDbPlotSettings
  1

  2
none_device
  4

  6

 40
0.0
 41
0.0
 42
0.0
 43
0.0
 44
0.0
 45
0.0
 46
0.0
 47
0.0
 48
0.0
 49
0.0
140
0.0
141
0.0
142
1.0
143
1.0
 70
   688
 72
     1
 73
     0
 74
     5
  7

 75
    16
147
1.0
148
0.0
149
0.0
100
AcDbLayout
  1
Layout2
 70
     1
 71
     2
 10
0.0
 20
0.0
 11
0.0
 21
0.0
 12
0.0
 22
0.0
 32
0.0
 14
0.0
 24
0.0
 34
0.0
 15
0.0
 25
0.0
 35
0.0
146
0.0
 13
0.0
 23
0.0
 33
0.0
 16
1.0
 26
0.0
 36
0.0
 17
0.0
 27
1.0
 37
0.0
 76
     0
330
23
  0
LAYOUT
  5
22
102
{ACAD_REACTORS
330
1A
102
}
330
1A
100
AcDbPlotSettings
  1

  2
none_device
  4
Letter_(8.50_x_11.00_Inches)
  6

 40
6.35
 41
6.35
 42
6.35000508
 43
6.35000508
 44
215.9
 45
279.4
 46
0.0
 47
0.0
 48
0.0
 49
0.0
140
0.0
141
0.0
142
1.0
143
1.0
 70
  1712
 72
     1
 73
     0
 74
     0
  7

 75
     0
147
1.0
148
0.0
149
0.0
100
AcDbLayout
  1
Model
 70
     1
 71
     0
 10
0.0
 20
0.0
 11
297.0
 21
210.0
 12
0.0
 22
0.0
 32
0.0
 14
0.0
 24
0.0
 34
0.0
 15
297.0
 25
210.0
 35
0.0
146
0.0
 13
0.0
 23
0.0
 33
0.0
 16
1.0
 26
0.0
 36
0.0
 17
0.0
 27
1.0
 37
0.0
 76
     0
330
1F
331
29
  0
MLINESTYLE
  5
18
102
{ACAD_REACTORS
330
17
102
}
330
17
100
AcDbMlineStyle
  2
Standard
 70
     0
  3

 62
   256
 51
90.0
 52
90.0
 71
     2
 49
0.5
 62
   256
  6
BYLAYER
 49
-0.5
 62
   256
  6
BYLAYER
  0
ACDBPLACEHOLDER
  5
F
102
{ACAD_REACTORS
330
E
102
}
330
E
  0
SCALE
  5
48
102
{ACAD_REACTORS
330
47
102
}
330
47
100
AcDbScale
 70
     0
300
1:1
140
1.0
141
1.0
290
     1
  0
SCALE
  5
49
102
{ACAD_REACTORS
330
47
102
}
330
47
100
AcDbScale
 70
     0
300
1:2
140
1.0
141
2.0
290
     0
  0
SCALE
  5
4A
102
{ACAD_REACTORS
330
47
102
}
330
47
100
AcDbScale
 70
     0
300
1:4
140
1.0
141
4.0
290
     0
  0
SCALE
  5
4B
102
{ACAD_REACTORS
330
47
102
}
330
47
100
AcDbScale
 70
     0
300
1:5
140
1.0
141
5.0
290
     0
  0
SCALE
  5
4C
102
{ACAD_REACTORS
330
47
102
}
330
47
100
AcDbScale
 70
     0
300
1:8
140
1.0
141
8.0
290
     0
  0
SCALE
  5
4D
102
{ACAD_REACTORS
330
47
102
}
330
47
100
AcDbScale
 70
     0
300
1:10
140
1.0
141
10.0
290
     0
  0
SCALE
  5
4E
102
{ACAD_REACTORS
330
47
102
}
330
47
100
AcDbScale
 70
     0
300
1:16
140
1.0
141
16.0
290
     0
  0
SCALE
  5
4F
102
{ACAD_REACTORS
330
47
102
}
330
47
100
AcDbScale
 70
     0
300
1:20
140
1.0
141
20.0
290
     0
  0
SCALE
  5
50
102
{ACAD_REACTORS
330
47
102
}
330
47
100
AcDbScale
 70
     0
300
1:30
140
1.0
141
30.0
290
     0
  0
SCALE
  5
51
102
{ACAD_REACTORS
330
47
102
}
330
47
100
AcDbScale
 70
     0
300
1:40
140
1.0
141
40.0
290
     0
  0
SCALE
  5
52
102
{ACAD_REACTORS
330
47
102
}
330
47
100
AcDbScale
 70
     0
300
1:50
140
1.0
141
50.0
290
     0
  0
SCALE
  5
53
102
{ACAD_REACTORS
330
47
102
}
330
47
100
AcDbScale
 70
     0
300
1:100
140
1.0
141
100.0
290
     0
  0
SCALE
  5
54
102
{ACAD_REACTORS
330
47
102
}
330
47
100
AcDbScale
 70
     0
300
2:1
140
2.0
141
1.0
290
     0
  0
SCALE
  5
55
102
{ACAD_REACTORS
330
47
102
}
330
47
100
AcDbScale
 70
     0
300
4:1
140
4.0
141
1.0
290
     0
  0
SCALE
  5
56
102
{ACAD_REACTORS
330
47
102
}
330
47
100
AcDbScale
 70
     0
300
8:1
140
8.0
141
1.0
290
     0
  0
SCALE
  5
57
102
{ACAD_REACTORS
330
47
102
}
330
47
100
AcDbScale
 70
     0
300
10:1
140
10.0
141
1.0
290
     0
  0
SCALE
  5
58
102
{ACAD_REACTORS
330
47
102
}
330
47
100
AcDbScale
 70
     0
300
100:1
140
100.0
141
1.0
290
     0
  0
SCALE
  5
59
102
{ACAD_REACTORS
330
47
102
}
330
47
100
AcDbScale
 70
     0
300
1/128" = 1'-0"
140
0.0078125
141
12.0
290
     0
  0
SCALE
  5
5A
102
{ACAD_REACTORS
330
47
102
}
330
47
100
AcDbScale
 70
     0
300
1/64" = 1'-0"
140
0.015625
141
12.0
290
     0
  0
SCALE
  5
5B
102
{ACAD_REACTORS
330
47
102
}
330
47
100
AcDbScale
 70
     0
300
1/32" = 1'-0"
140
0.03125
141
12.0
290
     0
  0
SCALE
  5
5C
102
{ACAD_REACTORS
330
47
102
}
330
47
100
AcDbScale
 70
     0
300
1/16" = 1'-0"
140
0.0625
141
12.0
290
     0
  0
SCALE
  5
5D
102
{ACAD_REACTORS
330
47
102
}
330
47
100
AcDbScale
 70
     0
300
3/32" = 1'-0"
140
0.09375
141
12.0
290
     0
  0
SCALE
  5
5E
102
{ACAD_REACTORS
330
47
102
}
330
47
100
AcDbScale
 70
     0
300
1/8" = 1'-0"
140
0.125
141
12.0
290
     0
  0
SCALE
  5
5F
102
{ACAD_REACTORS
330
47
102
}
330
47
100
AcDbScale
 70
     0
300
3/16" = 1'-0"
140
0.1875
141
12.0
290
     0
  0
SCALE
  5
60
102
{ACAD_REACTORS
330
47
102
}
330
47
100
AcDbScale
 70
     0
300
1/4" = 1'-0"
140
0.25
141
12.0
290
     0
  0
SCALE
  5
61
102
{ACAD_REACTORS
330
47
102
}
330
47
100
AcDbScale
 70
     0
300
3/8" = 1'-0"
140
0.375
141
12.0
290
     0
  0
SCALE
  5
62
102
{ACAD_REACTORS
330
47
102
}
330
47
100
AcDbScale
 70
     0
300
1/2" = 1'-0"
140
0.5
141
12.0
290
     0
  0
SCALE
  5
63
102
{ACAD_REACTORS
330
47
102
}
330
47
100
AcDbScale
 70
     0
300
3/4" = 1'-0"
140
0.75
141
12.0
290
     0
  0
SCALE
  5
64
102
{ACAD_REACTORS
330
47
102
}
330
47
100
AcDbScale
 70
     0
300
1" = 1'-0"
140
1.0
141
12.0
290
     0
  0
SCALE
  5
65
102
{ACAD_REACTORS
330
47
102
}
330
47
100
AcDbScale
 70
     0
300
1-1/2" = 1'-0"
140
1.5
141
12.0
290
     0
  0
SCALE
  5
66
102
{ACAD_REACTORS
330
47
102
}
330
47
100
AcDbScale
 70
     0
300
3" = 1'-0"
140
3.0
141
12.0
290
     0
  0
SCALE
  5
67
102
{ACAD_REACTORS
330
47
102
}
330
47
100
AcDbScale
 70
     0
300
6" = 1'-0"
140
6.0
141
12.0
290
     0
  0
SCALE
  5
68
102
{ACAD_REACTORS
330
47
102
}
330
47
100
AcDbScale
 70
     0
300
1'-0" = 1'-0"
140
12.0
141
12.0
290
     0
  0
ENDSEC
  0
EOF
