  0
SECTION
  2
HEADER
  9
$ACADVER
  1
AC1015
  9
$ACADMAINTVER
 70
     6
  9
$DWGCODEPAGE
  3
ANSI_1252
  9
$INSBASE
 10
0.0
 20
0.0
 30
0.0
  9
$EXTMIN
 10
0.0
 20
0.0
 30
0.0
  9
$EXTMAX
 10
297.0
 20
210.0
 30
0.0
  9
$LIMMIN
 10
0.0
 20
0.0
  9
$LIMMAX
 10
297.0
 20
210.0
  9
$ORTHOMODE
 70
     0
  9
$REGENMODE
 70
     1
  9
$FILLMODE
 70
     1
  9
$QTEXTMODE
 70
     0
  9
$MIRRTEXT
 70
     1
  9
$LTSCALE
 40
1.0
  9
$ATTMODE
 70
     1
  9
$TEXTSIZE
 40
2.0
  9
$TRACEWID
 40
1.0
  9
$TEXTSTYLE
  7
Standard
  9
$CLAYER
  8
0
  9
$CELTYPE
  6
ByLayer
  9
$CECOLOR
 62
   256
  9
$CELTSCALE
 40
1.0
  9
$DISPSILH
 70
     0
  9
$DIMSCALE
 40
1.0
  9
$DIMASZ
 40
3.0
  9
$DIMEXO
 40
0.0
  9
$DIMDLI
 40
3.75
  9
$DIMRND
 40
0.0
  9
$DIMDLE
 40
0.0
  9
$DIMEXE
 40
1.0
  9
$DIMTP
 40
0.0
  9
$DIMTM
 40
0.0
  9
$DIMTXT
 40
2.0
  9
$DIMCEN
 40
2.5
  9
$DIMTSZ
 40
0.0
  9
$DIMTOL
 70
     0
  9
$DIMLIM
 70
     0
  9
$DIMTIH
 70
     1
  9
$DIMTOH
 70
     1
  9
$DIMSE1
 70
     0
  9
$DIMSE2
 70
     0
  9
$DIMTAD
 70
     1
  9
$DIMZIN
 70
     0
  9
$DIMBLK
  1

  9
$DIMASO
 70
     1
  9
$DIMSHO
 70
     1
  9
$DIMPOST
  1

  9
$DIMAPOST
  1

  9
$DIMALT
 70
     0
  9
$DIMALTD
 70
     3
  9
$DIMALTF
 40
0.0393700787
  9
$DIMLFAC
 40
2.0
  9
$DIMTOFL
 70
     1
  9
$DIMTVP
 40
0.0
  9
$DIMTIX
 70
     0
  9
$DIMSOXD
 70
     0
  9
$DIMSAH
 70
     0
  9
$DIMBLK1
  1

  9
$DIMBLK2
  1

  9
$DIMSTYLE
  2
ISO-25
  9
$DIMCLRD
 70
     0
  9
$DIMCLRE
 70
     0
  9
$DIMCLRT
 70
     0
  9
$DIMTFAC
 40
1.0
  9
$DIMGAP
 40
1.524
  9
$DIMJUST
 70
     0
  9
$DIMSD1
 70
     0
  9
$DIMSD2
 70
     0
  9
$DIMTOLJ
 70
     0
  9
$DIMTZIN
 70
     0
  9
$DIMALTZ
 70
     0
  9
$DIMALTTZ
 70
     0
  9
$DIMUPT
 70
     0
  9
$DIMDEC
 70
     2
  9
$DIMTDEC
 70
     3
  9
$DIMALTU
 70
     2
  9
$DIMALTTD
 70
     3
  9
$DIMTXSTY
  7
Standard
  9
$DIMAUNIT
 70
     0
  9
$DIMADEC
 70
     2
  9
$DIMALTRND
 40
0.0
  9
$DIMAZIN
 70
     0
  9
$DIMDSEP
 70
    44
  9
$DIMATFIT
 70
     3
  9
$DIMFRAC
 70
     0
  9
$DIMLDRBLK
  1

  9
$DIMLUNIT
 70
     2
  9
$DIMLWD
 70
    -2
  9
$DIMLWE
 70
    -2
  9
$DIMTMOVE
 70
     0
  9
$LUNITS
 70
     2
  9
$LUPREC
 70
     2
  9
$SKETCHINC
 40
1.0
  9
$FILLETRAD
 40
10.0
  9
$AUNITS
 70
     0
  9
$AUPREC
 70
     2
  9
$MENU
  1
.
  9
$ELEVATION
 40
0.0
  9
$PELEVATION
 40
0.0
  9
$THICKNESS
 40
0.0
  9
$LIMCHECK
 70
     0
  9
$CHAMFERA
 40
0.0
  9
$CHAMFERB
 40
0.0
  9
$CHAMFERC
 40
0.0
  9
$CHAMFERD
 40
0.0
  9
$SKPOLY
 70
     0
  9
$TDCREATE
 40
2458169.397433669
  9
$TDUCREATE
 40
2458169.355767002
  9
$TDUPDATE
 40
2458169.397435857
  9
$TDUUPDATE
 40
2458169.35576919
  9
$TDINDWG
 40
0.0000000116
  9
$TDUSRTIMER
 40
0.0000000116
  9
$USRTIMER
 70
     1
  9
$ANGBASE
 50
0.0
  9
$ANGDIR
 70
     0
  9
$PDMODE
 70
     0
  9
$PDSIZE
 40
-1.0
  9
$PLINEWID
 40
0.0
  9
$SPLFRAME
 70
     0
  9
$SPLINETYPE
 70
     6
  9
$SPLINESEGS
 70
     8
  9
$HANDSEED
  5
299
  9
$SURFTAB1
 70
     6
  9
$SURFTAB2
 70
     6
  9
$SURFTYPE
 70
     6
  9
$SURFU
 70
     6
  9
$SURFV
 70
     6
  9
$UCSBASE
  2

  9
$UCSNAME
  2

  9
$UCSORG
 10
0.0
 20
0.0
 30
0.0
  9
$UCSXDIR
 10
1.0
 20
0.0
 30
0.0
  9
$UCSYDIR
 10
0.0
 20
1.0
 30
0.0
  9
$UCSORTHOREF
  2

  9
$UCSORTHOVIEW
 70
     0
  9
$UCSORGTOP
 10
0.0
 20
0.0
 30
0.0
  9
$UCSORGBOTTOM
 10
0.0
 20
0.0
 30
0.0
  9
$UCSORGLEFT
 10
0.0
 20
0.0
 30
0.0
  9
$UCSORGRIGHT
 10
0.0
 20
0.0
 30
0.0
  9
$UCSORGFRONT
 10
0.0
 20
0.0
 30
0.0
  9
$UCSORGBACK
 10
0.0
 20
0.0
 30
0.0
  9
$PUCSBASE
  2

  9
$PUCSNAME
  2

  9
$PUCSORG
 10
0.0
 20
0.0
 30
0.0
  9
$PUCSXDIR
 10
1.0
 20
0.0
 30
0.0
  9
$PUCSYDIR
 10
0.0
 20
1.0
 30
0.0
  9
$PUCSORTHOREF
  2

  9
$PUCSORTHOVIEW
 70
     0
  9
$PUCSORGTOP
 10
0.0
 20
0.0
 30
0.0
  9
$PUCSORGBOTTOM
 10
0.0
 20
0.0
 30
0.0
  9
$PUCSORGLEFT
 10
0.0
 20
0.0
 30
0.0
  9
$PUCSORGRIGHT
 10
0.0
 20
0.0
 30
0.0
  9
$PUCSORGFRONT
 10
0.0
 20
0.0
 30
0.0
  9
$PUCSORGBACK
 10
0.0
 20
0.0
 30
0.0
  9
$USERI1
 70
     0
  9
$USERI2
 70
     0
  9
$USERI3
 70
     0
  9
$USERI4
 70
     0
  9
$USERI5
 70
     0
  9
$USERR1
 40
0.0
  9
$USERR2
 40
0.0
  9
$USERR3
 40
0.0
  9
$USERR4
 40
0.0
  9
$USERR5
 40
0.0
  9
$WORLDVIEW
 70
     1
  9
$SHADEDGE
 70
     3
  9
$SHADEDIF
 70
    70
  9
$TILEMODE
 70
     1
  9
$MAXACTVP
 70
    64
  9
$PINSBASE
 10
0.0
 20
0.0
 30
0.0
  9
$PLIMCHECK
 70
     0
  9
$PEXTMIN
 10
1.0000000000E+20
 20
1.0000000000E+20
 30
1.0000000000E+20
  9
$PEXTMAX
 10
-1.0000000000E+20
 20
-1.0000000000E+20
 30
-1.0000000000E+20
  9
$PLIMMIN
 10
0.0
 20
0.0
  9
$PLIMMAX
 10
420.0
 20
297.0
  9
$UNITMODE
 70
     0
  9
$VISRETAIN
 70
     1
  9
$PLINEGEN
 70
     0
  9
$PSLTSCALE
 70
     1
  9
$TREEDEPTH
 70
  3020
  9
$CMLSTYLE
  2
Standard
  9
$CMLJUST
 70
     0
  9
$CMLSCALE
 40
20.0
  9
$PROXYGRAPHICS
 70
     1
  9
$MEASUREMENT
 70
     1
  9
$CELWEIGHT
370
    -1
  9
$ENDCAPS
280
     0
  9
$JOINSTYLE
280
     0
  9
$LWDISPLAY
290
     1
  9
$INSUNITS
 70
     4
  9
$HYPERLINKBASE
  1

  9
$STYLESHEET
  1

  9
$XEDIT
290
     1
  9
$CEPSNTYPE
380
     0
  9
$PSTYLEMODE
290
     1
  9
$FINGERPRINTGUID
  2
{6A8FD067-4CC9-4570-B1F4-F53329D5A2AD}
  9
$VERSIONGUID
  2
{FAEB1C32-E019-11D5-929B-00C0DF256EC4}
  9
$EXTNAMES
290
     1
  9
$PSVPSCALE
 40
0.0
  9
$OLESTARTUP
290
     0
  0
ENDSEC
  0
SECTION
  2
CLASSES
  0
CLASS
  1
ACDBDICTIONARYWDFLT
  2
AcDbDictionaryWithDefault
  3
ObjectDBX Classes
 90
        0
280
     0
281
     0
  0
CLASS
  1
VISUALSTYLE
  2
AcDbVisualStyle
  3
ObjectDBX Classes
 90
     4095
280
     0
281
     0
  0
CLASS
  1
MATERIAL
  2
AcDbMaterial
  3
ObjectDBX Classes
 90
     1153
280
     0
281
     0
  0
CLASS
  1
SCALE
  2
AcDbScale
  3
ObjectDBX Classes
 90
     1153
280
     0
281
     0
  0
CLASS
  1
TABLESTYLE
  2
AcDbTableStyle
  3
ObjectDBX Classes
 90
     4095
280
     0
281
     0
  0
CLASS
  1
MLEADERSTYLE
  2
AcDbMLeaderStyle
  3
ACDB_MLEADERSTYLE_CLASS
 90
     4095
280
     0
281
     0
  0
CLASS
  1
SUN
  2
AcDbSun
  3
SCENEOE
 90
     1153
280
     0
281
     0
  0
CLASS
  1
ACDBPLACEHOLDER
  2
AcDbPlaceHolder
  3
ObjectDBX Classes
 90
        0
280
     0
281
     0
  0
CLASS
  1
LAYOUT
  2
AcDbLayout
  3
ObjectDBX Classes
 90
        0
280
     0
281
     0
  0
ENDSEC
  0
SECTION
  2
TABLES
  0
TABLE
  2
VPORT
  5
8
330
0
100
AcDbSymbolTable
 70
     1
  0
VPORT
  5
29
330
8
100
AcDbSymbolTableRecord
100
AcDbViewportTableRecord
  2
*Active
 70
     0
 10
0.0
 20
0.0
 11
1.0
 21
1.0
 12
148.5
 22
105.0
 13
0.0
 23
0.0
 14
10.0
 24
10.0
 15
10.0
 25
10.0
 16
0.0
 26
0.0
 36
1.0
 17
0.0
 27
0.0
 37
0.0
 40
210.0
 41
1.4142857143
 42
50.0
 43
0.0
 44
0.0
 50
0.0
 51
0.0
 71
     0
 72
  2000
 73
     1
 74
     3
 75
     0
 76
     0
 77
     0
 78
     0
281
     0
 65
     1
110
0.0
120
0.0
130
0.0
111
1.0
121
0.0
131
0.0
112
0.0
122
1.0
132
0.0
 79
     0
146
0.0
  0
ENDTAB
  0
TABLE
  2
LTYPE
  5
5
330
0
100
AcDbSymbolTable
 70
     6
  0
LTYPE
  5
14
330
5
100
AcDbSymbolTableRecord
100
AcDbLinetypeTableRecord
  2
ByBlock
 70
     0
  3

 72
    65
 73
     0
 40
0.0
  0
LTYPE
  5
15
330
5
100
AcDbSymbolTableRecord
100
AcDbLinetypeTableRecord
  2
ByLayer
 70
     0
  3

 72
    65
 73
     0
 40
0.0
  0
LTYPE
  5
16
330
5
100
AcDbSymbolTableRecord
100
AcDbLinetypeTableRecord
  2
Continuous
 70
     0
  3
Solid line
 72
    65
 73
     0
 40
0.0
  0
LTYPE
  5
6E
330
5
100
AcDbSymbolTableRecord
100
AcDbLinetypeTableRecord
  2
HIDDEN
 70
     0
  3
Hidden __ __ __ __ __ __ __ __ __ __ __ __ __ __
 72
    65
 73
     2
 40
1.905
 49
1.27
 74
     0
 49
-0.635
 74
     0
  0
LTYPE
  5
6F
330
5
100
AcDbSymbolTableRecord
100
AcDbLinetypeTableRecord
  2
PHANTOM
 70
     0
  3
Phantom ______  __  __  ______  __  __  ______
 72
    65
 73
     6
 40
12.7
 49
6.35
 74
     0
 49
-1.27
 74
     0
 49
1.27
 74
     0
 49
-1.27
 74
     0
 49
1.27
 74
     0
 49
-1.27
 74
     0
  0
LTYPE
  5
70
330
5
100
AcDbSymbolTableRecord
100
AcDbLinetypeTableRecord
  2
CENTER
 70
     0
  3
Center ____ _ ____ _ ____ _ ____ _ ____ _ ____
 72
    65
 73
     4
 40
10.16
 49
6.35
 74
     0
 49
-1.27
 74
     0
 49
1.27
 74
     0
 49
-1.27
 74
     0
  0
LTYPE
  5
71
330
5
100
AcDbSymbolTableRecord
100
AcDbLinetypeTableRecord
  2
CENTERX2
 70
     0
  3
Center (2x) ________  __  ________  __  _____
 72
    65
 73
     4
 40
20.32
 49
12.7
 74
     0
 49
-2.54
 74
     0
 49
2.54
 74
     0
 49
-2.54
 74
     0
  0
LTYPE
  5
72
330
5
100
AcDbSymbolTableRecord
100
AcDbLinetypeTableRecord
  2
DOT2
 70
     0
  3
Dot (.5x) ........................................
 72
    65
 73
     2
 40
0.635
 49
0.0
 74
     0
 49
-0.635
 74
     0
  0
ENDTAB
  0
TABLE
  2
LAYER
  5
2
330
0
100
AcDbSymbolTable
 70
     5
  0
LAYER
  5
10
330
2
100
AcDbSymbolTableRecord
100
AcDbLayerTableRecord
  2
0
 70
     0
 62
     7
  6
Continuous
370
    -3
390
F
  0
LAYER
  5
73
330
2
100
AcDbSymbolTableRecord
100
AcDbLayerTableRecord
  2
FORMAT
 70
     0
 62
     7
  6
Continuous
370
    -3
390
F
  0
LAYER
  5
74
330
2
100
AcDbSymbolTableRecord
100
AcDbLayerTableRecord
  2
VERMASSUNG
 70
     0
 62
     7
  6
Continuous
370
    -3
390
F
  0
LAYER
  5
75
330
2
100
AcDbSymbolTableRecord
100
AcDbLayerTableRecord
  2
KOPF_DÜNN
 70
     0
 62
     7
  6
Continuous
370
    -3
390
F
  0
LAYER
  5
76
330
2
100
AcDbSymbolTableRecord
100
AcDbLayerTableRecord
  2
KOPF_DICK
 70
     0
 62
     7
  6
Continuous
370
    25
390
F
  0
ENDTAB
  0
TABLE
  2
STYLE
  5
3
330
0
100
AcDbSymbolTable
 70
     3
  0
STYLE
  5
11
330
3
100
AcDbSymbolTableRecord
100
AcDbTextStyleTableRecord
  2
Standard
 70
     0
 40
0.0
 41
1.0
 50
0.0
 71
     0
 42
2.0
  3
txt
  4

  0
STYLE
  5
77
330
3
100
AcDbSymbolTableRecord
100
AcDbTextStyleTableRecord
  2
SLDTEXTSTYLE0
 70
     0
 40
0.0
 41
0.7
 50
0.0
 71
     0
 42
2.0
  3
TXT
  4

  0
STYLE
  5
7B
330
3
100
AcDbSymbolTableRecord
100
AcDbTextStyleTableRecord
  2
SLDTEXTSTYLE1
 70
     0
 40
0.0
 41
0.6428571429
 50
0.0
 71
     0
 42
2.0
  3
TXT
  4

  0
ENDTAB
  0
TABLE
  2
VIEW
  5
6
330
0
100
AcDbSymbolTable
 70
     0
  0
ENDTAB
  0
TABLE
  2
UCS
  5
7
330
0
100
AcDbSymbolTable
 70
     0
  0
ENDTAB
  0
TABLE
  2
APPID
  5
9
330
0
100
AcDbSymbolTable
 70
     1
  0
APPID
  5
12
330
9
100
AcDbSymbolTableRecord
100
AcDbRegAppTableRecord
  2
ACAD
 70
     0
  0
ENDTAB
  0
TABLE
  2
DIMSTYLE
  5
A
330
0
100
AcDbSymbolTable
 70
     3
100
AcDbDimStyleTable
  0
DIMSTYLE
105
27
330
A
100
AcDbSymbolTableRecord
100
AcDbDimStyleTableRecord
  2
ISO-25
 70
     0
 41
2.5
 42
0.625
 43
3.75
 44
1.25
 73
     0
 74
     0
 77
     1
 78
     8
140
2.5
141
2.5
143
0.0393700787
147
0.625
171
     3
172
     1
178
     0
271
     2
272
     2
274
     3
278
    44
283
     0
284
     8
340
11
  0
DIMSTYLE
105
12D
102
{ACAD_REACTORS
330
12C
330
138
330
143
330
14F
330
159
330
163
330
16F
102
}
330
A
100
AcDbSymbolTableRecord
100
AcDbDimStyleTableRecord
  2
SLDDIMSTYLE0
 70
     0
 41
3.0
 44
0.0
 45
0.000000001
 73
     0
 74
     0
 77
     1
 78
    12
 79
     3
140
2.0
147
0.5
173
     1
178
     0
271
     2
272
     3
276
     2
284
    12
340
77
  0
DIMSTYLE
105
17A
102
{ACAD_REACTORS
330
179
102
}
330
A
100
AcDbSymbolTableRecord
100
AcDbDimStyleTableRecord
  2
SLDDIMSTYLE1
 70
     0
 41
3.0
 44
0.0
 45
0.000000001
 73
     0
 74
     0
 77
     1
 78
    12
 79
     3
140
2.0
147
0.5
173
     1
178
     0
271
     0
272
     3
276
     2
284
    12
340
77
  0
ENDTAB
  0
TABLE
  2
BLOCK_RECORD
  5
1
330
0
100
AcDbSymbolTable
 70
     9
  0
BLOCK_RECORD
  5
1F
330
1
100
AcDbSymbolTableRecord
100
AcDbBlockTableRecord
  2
*Model_Space
340
22
  0
BLOCK_RECORD
  5
1B
330
1
100
AcDbSymbolTableRecord
100
AcDbBlockTableRecord
  2
*Paper_Space
340
1E
  0
BLOCK_RECORD
  5
23
330
1
100
AcDbSymbolTableRecord
100
AcDbBlockTableRecord
  2
*Paper_Space0
340
26
  0
BLOCK_RECORD
  5
12E
330
1
100
AcDbSymbolTableRecord
100
AcDbBlockTableRecord
  2
_D
340
0
  0
BLOCK_RECORD
  5
139
330
1
100
AcDbSymbolTableRecord
100
AcDbBlockTableRecord
  2
_D_1
340
0
  0
BLOCK_RECORD
  5
144
330
1
100
AcDbSymbolTableRecord
100
AcDbBlockTableRecord
  2
_D_2
340
0
  0
BLOCK_RECORD
  5
150
330
1
100
AcDbSymbolTableRecord
100
AcDbBlockTableRecord
  2
_D_3
340
0
  0
BLOCK_RECORD
  5
15A
330
1
100
AcDbSymbolTableRecord
100
AcDbBlockTableRecord
  2
_D_4
340
0
  0
BLOCK_RECORD
  5
164
330
1
100
AcDbSymbolTableRecord
100
AcDbBlockTableRecord
  2
_D_5
340
0
  0
BLOCK_RECORD
  5
170
330
1
100
AcDbSymbolTableRecord
100
AcDbBlockTableRecord
  2
_D_6
340
0
  0
BLOCK_RECORD
  5
17B
330
1
100
AcDbSymbolTableRecord
100
AcDbBlockTableRecord
  2
_D_7
340
0
  0
ENDTAB
  0
ENDSEC
  0
SECTION
  2
BLOCKS
  0
BLOCK
  5
20
330
1F
100
AcDbEntity
  8
0
100
AcDbBlockBegin
  2
*Model_Space
 70
     0
 10
0.0
 20
0.0
 30
0.0
  3
*Model_Space
  1

  0
ENDBLK
  5
21
330
1F
100
AcDbEntity
  8
0
100
AcDbBlockEnd
  0
BLOCK
  5
1C
330
1B
100
AcDbEntity
 67
     1
  8
0
100
AcDbBlockBegin
  2
*Paper_Space
 70
     0
 10
0.0
 20
0.0
 30
0.0
  3
*Paper_Space
  1

  0
ENDBLK
  5
1D
330
1B
100
AcDbEntity
 67
     1
  8
0
100
AcDbBlockEnd
  0
BLOCK
  5
24
330
23
100
AcDbEntity
  8
0
100
AcDbBlockBegin
  2
*Paper_Space0
 70
     0
 10
0.0
 20
0.0
 30
0.0
  3
*Paper_Space0
  1

  0
ENDBLK
  5
25
330
23
100
AcDbEntity
  8
0
100
AcDbBlockEnd
  0
BLOCK
  5
12F
330
12E
100
AcDbEntity
  8
0
100
AcDbBlockBegin
  2
_D
 70
     0
 10
0.0
 20
0.0
 30
0.0
  3
_D
  1

  0
SOLID
  5
131
330
12E
100
AcDbEntity
  8
VERMASSUNG
100
AcDbTrace
 10
253.7179262718
 20
127.4560322825
 30
0.0
 11
253.2679262718
 21
124.4560322825
 31
0.0
 12
254.1679262718
 22
124.4560322825
 32
0.0
 13
254.1679262718
 23
124.4560322825
 33
0.0
  0
SOLID
  5
132
330
12E
100
AcDbEntity
  8
VERMASSUNG
100
AcDbTrace
 10
253.7179262718
 20
105.4560322825
 30
0.0
 11
254.1679262718
 21
108.4560322825
 31
0.0
 12
253.2679262718
 22
108.4560322825
 32
0.0
 13
253.2679262718
 23
108.4560322825
 33
0.0
  0
LINE
  5
133
330
12E
100
AcDbEntity
  8
VERMASSUNG
100
AcDbLine
 10
215.9179262718
 20
127.4560322825
 30
0.0
 11
254.7179262718
 21
127.4560322825
 31
0.0
  0
LINE
  5
134
330
12E
100
AcDbEntity
  8
VERMASSUNG
100
AcDbLine
 10
215.9179262718
 20
105.4560322825
 30
0.0
 11
254.7179262718
 21
105.4560322825
 31
0.0
  0
LINE
  5
135
330
12E
100
AcDbEntity
  8
VERMASSUNG
100
AcDbLine
 10
253.7179262718
 20
127.4560322825
 30
0.0
 11
253.7179262718
 21
105.4560322825
 31
0.0
  0
MTEXT
  5
136
330
12E
100
AcDbEntity
  8
VERMASSUNG
100
AcDbMText
 10
251.1397909669
 20
113.2510323253
 30
0.0
 40
2.0
 41
0.0
 71
     1
 72
     1
  1
%%c
  7
SLDTEXTSTYLE0
 11
-7.044195017643634E-15
 21
1.0
 31
0.0
 73
     1
 44
1.0
  0
MTEXT
  5
137
330
12E
100
AcDbEntity
  8
VERMASSUNG
100
AcDbMText
 10
250.9397910156
 20
116.8610323396
 30
0.0
 40
2.0
 41
0.0
 71
     1
 72
     1
  1
22
  7
SLDTEXTSTYLE0
 11
-7.044195017643634E-15
 21
1.0
 31
0.0
 73
     1
 44
1.0
  0
ENDBLK
  5
130
330
12E
100
AcDbEntity
  8
0
100
AcDbBlockEnd
  0
BLOCK
  5
13A
330
139
100
AcDbEntity
  8
0
100
AcDbBlockBegin
  2
_D_1
 70
     0
 10
0.0
 20
0.0
 30
0.0
  3
_D_1
  1

  0
SOLID
  5
13C
330
139
100
AcDbEntity
  8
VERMASSUNG
100
AcDbTrace
 10
264.3121181794
 20
140.4560322825
 30
0.0
 11
263.8621181794
 21
137.4560322825
 31
0.0
 12
264.7621181794
 22
137.4560322825
 32
0.0
 13
264.7621181794
 23
137.4560322825
 33
0.0
  0
SOLID
  5
13D
330
139
100
AcDbEntity
  8
VERMASSUNG
100
AcDbTrace
 10
264.3121181794
 20
92.4560322825
 30
0.0
 11
264.7621181794
 21
95.4560322825
 31
0.0
 12
263.8621181794
 22
95.4560322825
 32
0.0
 13
263.8621181794
 23
95.4560322825
 33
0.0
  0
LINE
  5
13E
330
139
100
AcDbEntity
  8
VERMASSUNG
100
AcDbLine
 10
196.9179262718
 20
140.4560322825
 30
0.0
 11
265.3121181794
 21
140.4560322825
 31
0.0
  0
LINE
  5
13F
330
139
100
AcDbEntity
  8
VERMASSUNG
100
AcDbLine
 10
196.9179262718
 20
92.4560322825
 30
0.0
 11
265.3121181794
 21
92.4560322825
 31
0.0
  0
LINE
  5
140
330
139
100
AcDbEntity
  8
VERMASSUNG
100
AcDbLine
 10
264.3121181794
 20
140.4560322825
 30
0.0
 11
264.3121181794
 21
92.4560322825
 31
0.0
  0
MTEXT
  5
141
330
139
100
AcDbEntity
  8
VERMASSUNG
100
AcDbMText
 10
261.7339828744
 20
113.1510322624
 30
0.0
 40
2.0
 41
0.0
 71
     1
 72
     1
  1
%%c
  7
SLDTEXTSTYLE0
 11
-7.044195017643634E-15
 21
1.0
 31
0.0
 73
     1
 44
1.0
  0
MTEXT
  5
142
330
139
100
AcDbEntity
  8
VERMASSUNG
100
AcDbMText
 10
261.5339829232
 20
116.7610322767
 30
0.0
 40
2.0
 41
0.0
 71
     1
 72
     1
  1
48
  7
SLDTEXTSTYLE0
 11
-7.044195017643634E-15
 21
1.0
 31
0.0
 73
     1
 44
1.0
  0
ENDBLK
  5
13B
330
139
100
AcDbEntity
  8
0
100
AcDbBlockEnd
  0
BLOCK
  5
145
330
144
100
AcDbEntity
  8
0
100
AcDbBlockBegin
  2
_D_2
 70
     0
 10
0.0
 20
0.0
 30
0.0
  3
_D_2
  1

  0
SOLID
  5
147
330
144
100
AcDbEntity
  8
VERMASSUNG
100
AcDbTrace
 10
35.4392827598
 20
66.4560322825
 30
0.0
 11
35.8892827598
 21
69.4560322825
 31
0.0
 12
34.9892827598
 22
69.4560322825
 32
0.0
 13
34.9892827598
 23
69.4560322825
 33
0.0
  0
SOLID
  5
148
330
144
100
AcDbEntity
  8
VERMASSUNG
100
AcDbTrace
 10
35.4392827598
 20
166.4560322825
 30
0.0
 11
34.9892827598
 21
163.4560322825
 31
0.0
 12
35.8892827598
 22
163.4560322825
 32
0.0
 13
35.8892827598
 23
163.4560322825
 33
0.0
  0
LINE
  5
149
330
144
100
AcDbEntity
  8
VERMASSUNG
100
AcDbLine
 10
98.2179262718
 20
66.4560322825
 30
0.0
 11
34.4392827598
 21
66.4560322825
 31
0.0
  0
LINE
  5
14A
330
144
100
AcDbEntity
  8
VERMASSUNG
100
AcDbLine
 10
98.2179262718
 20
166.4560322825
 30
0.0
 11
34.4392827598
 21
166.4560322825
 31
0.0
  0
LINE
  5
14B
330
144
100
AcDbEntity
  8
VERMASSUNG
100
AcDbLine
 10
35.4392827598
 20
66.4560322825
 30
0.0
 11
35.4392827598
 21
166.4560322825
 31
0.0
  0
MTEXT
  5
14C
330
144
100
AcDbEntity
  8
VERMASSUNG
100
AcDbMText
 10
32.6611475036
 20
108.2510329027
 30
0.0
 40
2.0
 41
0.0
 71
     1
 72
     1
  1
HSK A
  7
SLDTEXTSTYLE0
 11
6.123233995736766E-17
 21
1.0
 31
0.0
 73
     1
 44
1.0
  0
MTEXT
  5
14D
330
144
100
AcDbEntity
  8
VERMASSUNG
100
AcDbMText
 10
32.8611474549
 20
117.2510325153
 30
0.0
 40
2.0
 41
0.0
 71
     1
 72
     1
  1
%%c
  7
SLDTEXTSTYLE0
 11
6.123233995736766E-17
 21
1.0
 31
0.0
 73
     1
 44
1.0
  0
MTEXT
  5
14E
330
144
100
AcDbEntity
  8
VERMASSUNG
100
AcDbMText
 10
32.6611475036
 20
120.8610325296
 30
0.0
 40
2.0
 41
0.0
 71
     1
 72
     1
  1
100
  7
SLDTEXTSTYLE0
 11
6.123233995736766E-17
 21
1.0
 31
0.0
 73
     1
 44
1.0
  0
ENDBLK
  5
146
330
144
100
AcDbEntity
  8
0
100
AcDbBlockEnd
  0
BLOCK
  5
151
330
150
100
AcDbEntity
  8
0
100
AcDbBlockBegin
  2
_D_3
 70
     0
 10
0.0
 20
0.0
 30
0.0
  3
_D_3
  1

  0
SOLID
  5
153
330
150
100
AcDbEntity
  8
VERMASSUNG
100
AcDbTrace
 10
126.6679262718
 20
174.3423844466
 30
0.0
 11
129.6679262718
 21
173.8923844466
 31
0.0
 12
129.6679262718
 22
174.7923844466
 32
0.0
 13
129.6679262718
 23
174.7923844466
 33
0.0
  0
SOLID
  5
154
330
150
100
AcDbEntity
  8
VERMASSUNG
100
AcDbTrace
 10
197.7179262718
 20
174.3423844466
 30
0.0
 11
194.7179262718
 21
174.7923844466
 31
0.0
 12
194.7179262718
 22
173.8923844466
 32
0.0
 13
194.7179262718
 23
173.8923844466
 33
0.0
  0
LINE
  5
155
330
150
100
AcDbEntity
  8
VERMASSUNG
100
AcDbLine
 10
126.6679262718
 20
164.4247721034
 30
0.0
 11
126.6679262718
 21
175.3423844466
 31
0.0
  0
LINE
  5
156
330
150
100
AcDbEntity
  8
VERMASSUNG
100
AcDbLine
 10
197.7179262718
 20
139.6560322825
 30
0.0
 11
197.7179262718
 21
175.3423844466
 31
0.0
  0
LINE
  5
157
330
150
100
AcDbEntity
  8
VERMASSUNG
100
AcDbLine
 10
126.6679262718
 20
174.3423844466
 30
0.0
 11
197.7179262718
 21
174.3423844466
 31
0.0
  0
MTEXT
  5
158
330
150
100
AcDbEntity
  8
VERMASSUNG
100
AcDbMText
 10
159.2929263087
 20
176.9205200425
 30
0.0
 40
2.0
 41
0.0
 71
     1
 72
     1
  1
71.05
  7
SLDTEXTSTYLE0
 73
     1
 44
1.0
  0
ENDBLK
  5
152
330
150
100
AcDbEntity
  8
0
100
AcDbBlockEnd
  0
BLOCK
  5
15B
330
15A
100
AcDbEntity
  8
0
100
AcDbBlockBegin
  2
_D_4
 70
     0
 10
0.0
 20
0.0
 30
0.0
  3
_D_4
  1

  0
SOLID
  5
15D
330
15A
100
AcDbEntity
  8
VERMASSUNG
100
AcDbTrace
 10
97.7179262718
 20
182.4560322825
 30
0.0
 11
100.7179262718
 21
182.0060322825
 31
0.0
 12
100.7179262718
 22
182.9060322825
 32
0.0
 13
100.7179262718
 23
182.9060322825
 33
0.0
  0
SOLID
  5
15E
330
15A
100
AcDbEntity
  8
VERMASSUNG
100
AcDbTrace
 10
197.7179262718
 20
182.4560322825
 30
0.0
 11
194.7179262718
 21
182.9060322825
 31
0.0
 12
194.7179262718
 22
182.0060322825
 32
0.0
 13
194.7179262718
 23
182.0060322825
 33
0.0
  0
LINE
  5
15F
330
15A
100
AcDbEntity
  8
VERMASSUNG
100
AcDbLine
 10
97.7179262718
 20
165.9560322825
 30
0.0
 11
97.7179262718
 21
183.4560322825
 31
0.0
  0
LINE
  5
160
330
15A
100
AcDbEntity
  8
VERMASSUNG
100
AcDbLine
 10
197.7179262718
 20
139.6560322825
 30
0.0
 11
197.7179262718
 21
183.4560322825
 31
0.0
  0
LINE
  5
161
330
15A
100
AcDbEntity
  8
VERMASSUNG
100
AcDbLine
 10
97.7179262718
 20
182.4560322825
 30
0.0
 11
197.7179262718
 21
182.4560322825
 31
0.0
  0
MTEXT
  5
162
330
15A
100
AcDbEntity
  8
VERMASSUNG
100
AcDbMText
 10
145.8179262398
 20
185.0341678785
 30
0.0
 40
2.0
 41
0.0
 71
     1
 72
     1
  1
100
  7
SLDTEXTSTYLE0
 73
     1
 44
1.0
  0
ENDBLK
  5
15C
330
15A
100
AcDbEntity
  8
0
100
AcDbBlockEnd
  0
BLOCK
  5
165
330
164
100
AcDbEntity
  8
0
100
AcDbBlockBegin
  2
_D_5
 70
     0
 10
0.0
 20
0.0
 30
0.0
  3
_D_5
  1

  0
ARC
  5
167
330
164
100
AcDbEntity
  8
VERMASSUNG
100
AcDbCircle
 10
133.1679264019
 20
192.9719340297
 30
0.0
 40
4.24852922888762
100
AcDbArc
 50
153.4349488229
 51
206.5650511771
  0
ARC
  5
168
330
164
100
AcDbEntity
  8
VERMASSUNG
100
AcDbCircle
 10
131.3679262
 20
192.9719340297
 30
0.0
 40
4.24852922888762
100
AcDbArc
 50
333.4349488229
 51
26.5650511771
  0
SOLID
  5
169
330
164
100
AcDbEntity
  8
VERMASSUNG
100
AcDbTrace
 10
47.8179262718
 20
191.0719337649
 30
0.0
 11
50.8179262718
 21
190.6219337649
 31
0.0
 12
50.8179262718
 22
191.5219337649
 32
0.0
 13
50.8179262718
 23
191.5219337649
 33
0.0
  0
SOLID
  5
16A
330
164
100
AcDbEntity
  8
VERMASSUNG
100
AcDbTrace
 10
216.7179262718
 20
191.0719337649
 30
0.0
 11
213.7179262718
 21
191.5219337649
 31
0.0
 12
213.7179262718
 22
190.6219337649
 32
0.0
 13
213.7179262718
 23
190.6219337649
 33
0.0
  0
LINE
  5
16B
330
164
100
AcDbEntity
  8
VERMASSUNG
100
AcDbLine
 10
47.8179262718
 20
146.9587020251
 30
0.0
 11
47.8179262718
 21
192.0719337649
 31
0.0
  0
LINE
  5
16C
330
164
100
AcDbEntity
  8
VERMASSUNG
100
AcDbLine
 10
216.7179262718
 20
126.6560322825
 30
0.0
 11
216.7179262718
 21
192.0719337649
 31
0.0
  0
LINE
  5
16D
330
164
100
AcDbEntity
  8
VERMASSUNG
100
AcDbLine
 10
47.8179262718
 20
191.0719337649
 30
0.0
 11
216.7179262718
 21
191.0719337649
 31
0.0
  0
MTEXT
  5
16E
330
164
100
AcDbEntity
  8
VERMASSUNG
100
AcDbMText
 10
129.3679263378
 20
193.6500695937
 30
0.0
 40
2.0
 41
0.0
 71
     1
 72
     1
  1
168.9
  7
SLDTEXTSTYLE0
 73
     1
 44
1.0
  0
ENDBLK
  5
166
330
164
100
AcDbEntity
  8
0
100
AcDbBlockEnd
  0
BLOCK
  5
171
330
170
100
AcDbEntity
  8
0
100
AcDbBlockBegin
  2
_D_6
 70
     0
 10
0.0
 20
0.0
 30
0.0
  3
_D_6
  1

  0
SOLID
  5
173
330
170
100
AcDbEntity
  8
VERMASSUNG
100
AcDbTrace
 10
197.7179262718
 20
174.3423844466
 30
0.0
 11
200.7179262718
 21
173.8923844466
 31
0.0
 12
200.7179262718
 22
174.7923844466
 32
0.0
 13
200.7179262718
 23
174.7923844466
 33
0.0
  0
SOLID
  5
174
330
170
100
AcDbEntity
  8
VERMASSUNG
100
AcDbTrace
 10
216.7179262718
 20
174.3423844466
 30
0.0
 11
213.7179262718
 21
174.7923844466
 31
0.0
 12
213.7179262718
 22
173.8923844466
 32
0.0
 13
213.7179262718
 23
173.8923844466
 33
0.0
  0
LINE
  5
175
330
170
100
AcDbEntity
  8
VERMASSUNG
100
AcDbLine
 10
197.7179262718
 20
139.6560322825
 30
0.0
 11
197.7179262718
 21
175.3423844466
 31
0.0
  0
LINE
  5
176
330
170
100
AcDbEntity
  8
VERMASSUNG
100
AcDbLine
 10
216.7179262718
 20
123.8512748797
 30
0.0
 11
216.7179262718
 21
175.3423844466
 31
0.0
  0
LINE
  5
177
330
170
100
AcDbEntity
  8
VERMASSUNG
100
AcDbLine
 10
197.7179262718
 20
174.3423844466
 30
0.0
 11
216.7179262718
 21
174.3423844466
 31
0.0
  0
MTEXT
  5
178
330
170
100
AcDbEntity
  8
VERMASSUNG
100
AcDbMText
 10
206.0179262149
 20
176.9205200425
 30
0.0
 40
2.0
 41
0.0
 71
     1
 72
     1
  1
19
  7
SLDTEXTSTYLE0
 73
     1
 44
1.0
  0
ENDBLK
  5
172
330
170
100
AcDbEntity
  8
0
100
AcDbBlockEnd
  0
BLOCK
  5
17C
330
17B
100
AcDbEntity
  8
0
100
AcDbBlockBegin
  2
_D_7
 70
     0
 10
0.0
 20
0.0
 30
0.0
  3
_D_7
  1

  0
SOLID
  5
17E
330
17B
100
AcDbEntity
  8
VERMASSUNG
100
AcDbTrace
 10
244.143228379
 20
120.5135322825
 30
0.0
 11
243.693228379
 21
117.5135322825
 31
0.0
 12
244.593228379
 22
117.5135322825
 32
0.0
 13
244.593228379
 23
117.5135322825
 33
0.0
  0
SOLID
  5
17F
330
17B
100
AcDbEntity
  8
VERMASSUNG
100
AcDbTrace
 10
244.143228379
 20
112.3985322825
 30
0.0
 11
244.593228379
 21
115.3985322825
 31
0.0
 12
243.693228379
 22
115.3985322825
 32
0.0
 13
243.693228379
 23
115.3985322825
 33
0.0
  0
LINE
  5
180
330
17B
100
AcDbEntity
  8
VERMASSUNG
100
AcDbLine
 10
231.7179262718
 20
120.5135322825
 30
0.0
 11
245.143228379
 21
120.5135322825
 31
0.0
  0
LINE
  5
181
330
17B
100
AcDbEntity
  8
VERMASSUNG
100
AcDbLine
 10
231.7179262718
 20
112.3985322825
 30
0.0
 11
245.143228379
 21
112.3985322825
 31
0.0
  0
LINE
  5
182
330
17B
100
AcDbEntity
  8
VERMASSUNG
100
AcDbLine
 10
244.143228379
 20
120.5135322825
 30
0.0
 11
244.143228379
 21
112.3985322825
 31
0.0
  0
MTEXT
  5
183
330
17B
100
AcDbEntity
  8
VERMASSUNG
100
AcDbMText
 10
241.5650927831
 20
113.8560322755
 30
0.0
 40
2.0
 41
0.0
 71
     1
 72
     1
  1
SW
  7
SLDTEXTSTYLE0
 11
-7.044195017643634E-15
 21
1.0
 31
0.0
 73
     1
 44
1.0
  0
MTEXT
  5
184
330
17B
100
AcDbEntity
  8
VERMASSUNG
100
AcDbMText
 10
241.5650927831
 20
117.6560323395
 30
0.0
 40
2.0
 41
0.0
 71
     1
 72
     1
  1
8
  7
SLDTEXTSTYLE0
 11
-7.044195017643634E-15
 21
1.0
 31
0.0
 73
     1
 44
1.0
  0
ENDBLK
  5
17D
330
17B
100
AcDbEntity
  8
0
100
AcDbBlockEnd
  0
ENDSEC
  0
SECTION
  2
ENTITIES
  0
MTEXT
  5
78
330
1F
100
AcDbEntity
  8
KOPF_DÜNN
100
AcDbMText
 10
13.8892156294
 20
23.8442973028
 30
0.0
 40
3.0
 41
0.0
 71
     1
 72
     1
  1
HA0.D22.K01.100
  7
SLDTEXTSTYLE0
 73
     1
 44
1.0
  0
MTEXT
  5
79
330
1F
100
AcDbEntity
  8
VERMASSUNG
100
AcDbMText
 10
13.9329988022
 20
28.8834360957
 30
0.0
 40
3.0
 41
0.0
 71
     1
 72
     1
  1
Fräsdorn Typ S_Milling arbor type S
  7
SLDTEXTSTYLE0
 73
     1
 44
1.0
  0
MTEXT
  5
7A
330
1F
100
AcDbEntity
  8
VERMASSUNG
100
AcDbMText
 10
98.8601118557
 20
13.8365368761
 30
0.0
 40
2.0
 41
0.0
 71
     1
 72
     1
  1
Datum: 19.02.2018
  7
SLDTEXTSTYLE0
 73
     1
 44
1.0
  0
MTEXT
  5
7C
330
1F
100
AcDbEntity
  8
VERMASSUNG
100
AcDbMText
 10
13.933048693
 20
18.0482802738
 30
0.0
 40
2.0
 41
0.0
 71
     1
 72
     1
  1
HSK A 63 / Ø22
  7
SLDTEXTSTYLE1
 73
     1
 44
1.0
  0
MTEXT
  5
7D
330
1F
100
AcDbEntity
  8
VERMASSUNG
100
AcDbMText
 10
13.9808475933
 20
13.9090974274
 30
0.0
 40
2.0
 41
0.0
 71
     1
 72
     1
  1
Gewicht: 3068g
  7
SLDTEXTSTYLE0
 73
     1
 44
1.0
  0
LINE
  5
7E
330
1F
100
AcDbEntity
  8
0
  6
Continuous
 62
     7
370
    25
100
AcDbLine
 10
197.717927762
 20
128.9560324688
 30
0.0
 11
202.8179246864
 21
128.9560324688
 31
0.0
  0
LINE
  5
7F
330
1F
100
AcDbEntity
  8
0
  6
Continuous
 62
     7
370
    25
100
AcDbLine
 10
202.8179246864
 20
138.9560331766
 30
0.0
 11
197.717927762
 21
138.9560331766
 31
0.0
  0
ARC
  5
80
330
1F
100
AcDbEntity
  8
0
  6
Continuous
 62
     7
370
    25
100
AcDbCircle
 10
202.8179262718
 20
129.4560322825
 30
0.0
 40
0.5
100
AcDbArc
 50
270.0
 51
0.0
  0
ARC
  5
81
330
1F
100
AcDbEntity
  8
0
  6
Continuous
 62
     7
370
    25
100
AcDbCircle
 10
202.8179262718
 20
138.4560322825
 30
0.0
 40
0.5
100
AcDbArc
 50
0.0
 51
90.0
  0
LINE
  5
82
330
1F
100
AcDbEntity
  8
0
  6
Continuous
 62
     7
370
    25
100
AcDbLine
 10
197.717927762
 20
93.9560313885
 30
0.0
 11
202.8179246864
 21
93.9560313885
 31
0.0
  0
LINE
  5
83
330
1F
100
AcDbEntity
  8
0
  6
Continuous
 62
     7
370
    25
100
AcDbLine
 10
202.8179246864
 20
103.9560320963
 30
0.0
 11
197.717927762
 21
103.9560320963
 31
0.0
  0
ARC
  5
84
330
1F
100
AcDbEntity
  8
0
  6
Continuous
 62
     7
370
    25
100
AcDbCircle
 10
202.8179262718
 20
94.4560322825
 30
0.0
 40
0.5
100
AcDbArc
 50
270.0
 51
0.0
  0
ARC
  5
85
330
1F
100
AcDbEntity
  8
0
  6
Continuous
 62
     7
370
    25
100
AcDbCircle
 10
202.8179262718
 20
103.4560322825
 30
0.0
 40
0.5
100
AcDbArc
 50
0.0
 51
90.0
  0
ARC
  5
86
330
1F
100
AcDbEntity
  8
0
  6
Continuous
 62
     7
370
    25
100
AcDbCircle
 10
230.2179262718
 20
122.9560322825
 30
0.0
 40
1.5
100
AcDbArc
 50
0.0
 51
90.0
  0
ARC
  5
87
330
1F
100
AcDbEntity
  8
0
  6
Continuous
 62
     7
370
    25
100
AcDbCircle
 10
230.2179262718
 20
109.9560322825
 30
0.0
 40
1.5
100
AcDbArc
 50
270.0
 51
0.0
  0
LINE
  5
88
330
1F
100
AcDbEntity
  8
0
  6
Continuous
 62
     7
370
    25
100
AcDbLine
 10
230.2179191193
 20
124.4560326625
 30
0.0
 11
221.7179242453
 21
124.4560326625
 31
0.0
  0
LINE
  5
89
330
1F
100
AcDbEntity
  8
0
  6
Continuous
 62
     7
370
    25
100
AcDbLine
 10
221.7179242453
 20
108.4560319026
 30
0.0
 11
230.2179191193
 21
108.4560319026
 31
0.0
  0
ARC
  5
8A
330
1F
100
AcDbEntity
  8
0
  6
Continuous
 62
     7
370
    25
100
AcDbCircle
 10
221.3179262718
 20
111.0560322825
 30
0.0
 40
0.3999999999999915
100
AcDbArc
 50
0.0
 51
90.0
  0
ARC
  5
8B
330
1F
100
AcDbEntity
  8
0
  6
Continuous
 62
     7
370
    25
100
AcDbCircle
 10
221.3179262718
 20
121.8560322825
 30
0.0
 40
0.4000000000000057
100
AcDbArc
 50
270.0
 51
0.0
  0
LINE
  5
8C
330
1F
100
AcDbEntity
  8
0
  6
Continuous
 62
     7
370
    25
100
AcDbLine
 10
221.3179249248
 20
121.4560321708
 30
0.0
 11
216.7179290137
 21
121.4560321708
 31
0.0
  0
LINE
  5
8D
330
1F
100
AcDbEntity
  8
0
  6
Continuous
 62
     7
370
    25
100
AcDbLine
 10
216.7179290137
 20
111.4560323943
 30
0.0
 11
221.3179249248
 21
111.4560323943
 31
0.0
  0
ARC
  5
8E
330
1F
100
AcDbEntity
  8
0
  6
Continuous
 62
     7
370
    25
100
AcDbCircle
 10
98.2179262718
 20
66.9560322825
 30
0.0
 40
0.5
100
AcDbArc
 50
180.0
 51
270.0
  0
ARC
  5
8F
330
1F
100
AcDbEntity
  8
0
  6
Continuous
 62
     7
370
    25
100
AcDbCircle
 10
98.2179262718
 20
165.9560322825
 30
0.0
 40
0.5
100
AcDbArc
 50
90.0
 51
180.0
  0
LINE
  5
90
330
1F
100
AcDbEntity
  8
0
  6
Continuous
 62
     7
370
    25
100
AcDbLine
 10
98.2179262956
 20
66.4560315375
 30
0.0
 11
102.667926245
 21
66.4560315375
 31
0.0
  0
LINE
  5
91
330
1F
100
AcDbEntity
  8
0
  6
Continuous
 62
     7
370
    25
100
AcDbLine
 10
102.7019991471
 20
166.4560330276
 30
0.0
 11
98.2179262956
 21
166.4560330276
 31
0.0
  0
ARC
  5
92
330
1F
100
AcDbEntity
  8
0
  6
Continuous
 62
     7
370
    25
100
AcDbCircle
 10
96.8209893534
 20
77.8275469581
 30
0.0
 40
0.9962338214386921
100
AcDbArc
 50
25.7988228126
 51
90.0
  0
ARC
  5
93
330
1F
100
AcDbEntity
  8
0
  6
Continuous
 62
     7
370
    25
100
AcDbCircle
 10
96.8209893534
 20
155.084517607
 30
0.0
 40
0.9962338214386932
100
AcDbArc
 50
270.0
 51
334.2011771874
  0
LINE
  5
94
330
1F
100
AcDbEntity
  8
0
  6
Continuous
 62
     7
370
    25
100
AcDbLine
 10
95.2179263277
 20
78.5737824802
 30
0.0
 11
96.0237723939
 21
78.7897077565
 31
0.0
  0
LINE
  5
95
330
1F
100
AcDbEntity
  8
0
  6
Continuous
 62
     7
370
    25
100
AcDbLine
 10
96.0237723939
 20
154.1223568086
 30
0.0
 11
95.2179263277
 21
154.3382820849
 31
0.0
  0
LINE
  5
96
330
1F
100
AcDbEntity
  8
0
  6
Continuous
 62
     7
370
    25
100
AcDbLine
 10
76.2372467598
 20
153.3873495821
 30
0.0
 11
57.9179268262
 21
152.469546086
 31
0.0
  0
LINE
  5
97
330
1F
100
AcDbEntity
  8
0
  6
Continuous
 62
     7
370
    25
100
AcDbLine
 10
95.2179263277
 20
154.3382820849
 30
0.0
 11
89.1498871079
 21
154.0342723195
 31
0.0
  0
LINE
  5
98
330
1F
100
AcDbEntity
  8
0
  6
Continuous
 62
     7
370
    25
100
AcDbLine
 10
89.1500100425
 20
78.877784795
 30
0.0
 11
95.2179263277
 21
78.5737824802
 31
0.0
  0
LINE
  5
99
330
1F
100
AcDbEntity
  8
0
  6
Continuous
 62
     7
370
    25
100
AcDbLine
 10
62.9179257831
 20
80.1920187835
 30
0.0
 11
76.2378781965
 21
79.5246851806
 31
0.0
  0
ARC
  5
9A
330
1F
100
AcDbEntity
  8
0
  6
Continuous
 62
     7
370
    25
100
AcDbCircle
 10
96.2825914713
 20
77.8237807795
 30
0.0
 40
0.9999999999999858
100
AcDbArc
 50
90.0
 51
105.0
  0
ARC
  5
9B
330
1F
100
AcDbEntity
  8
0
  6
Continuous
 62
     7
370
    25
100
AcDbCircle
 10
96.2825914713
 20
155.0882837855
 30
0.0
 40
0.9999999999999716
100
AcDbArc
 50
255.0
 51
270.0
  0
LINE
  5
9C
330
1F
100
AcDbEntity
  8
0
  6
Continuous
 62
     7
370
    25
100
AcDbLine
 10
96.2825914776
 20
78.8237792615
 30
0.0
 11
96.8209893491
 21
78.8237792615
 31
0.0
  0
LINE
  5
9D
330
1F
100
AcDbEntity
  8
0
  6
Continuous
 62
     7
370
    25
100
AcDbLine
 10
96.8209893491
 20
154.0882853035
 30
0.0
 11
96.2825914776
 21
154.0882853035
 31
0.0
  0
ARC
  5
9E
330
1F
100
AcDbEntity
  8
0
  6
Continuous
 62
     7
370
    25
100
AcDbCircle
 10
131.6679262718
 20
83.5384125764
 30
0.0
 40
5.00000000000001
100
AcDbArc
 50
106.5116637356
 51
180.0
  0
ARC
  5
9F
330
1F
100
AcDbEntity
  8
0
  6
Continuous
 62
     7
370
    25
100
AcDbCircle
 10
131.6679262718
 20
149.3736519887
 30
0.0
 40
5.00000000000001
100
AcDbArc
 50
180.0
 51
253.4883362644
  0
ARC
  5
A0
330
1F
100
AcDbEntity
  8
0
  6
Continuous
 62
     7
370
    25
100
AcDbCircle
 10
158.6679262718
 20
-7.5439677175
 30
0.0
 40
100.0
100
AcDbArc
 50
90.0
 51
106.5116637356
  0
ARC
  5
A1
330
1F
100
AcDbEntity
  8
0
  6
Continuous
 62
     7
370
    25
100
AcDbCircle
 10
158.6679262718
 20
240.4560322825
 30
0.0
 40
100.0
100
AcDbArc
 50
253.4883362644
 51
270.0
  0
LINE
  5
A2
330
1F
100
AcDbEntity
  8
0
  6
Continuous
 62
     7
370
    25
100
AcDbLine
 10
158.6679261109
 20
92.4560320739
 30
0.0
 11
196.917929121
 21
92.4560320739
 31
0.0
  0
LINE
  5
A3
330
1F
100
AcDbEntity
  8
0
  6
Continuous
 62
     7
370
    25
100
AcDbLine
 10
196.917929121
 20
140.4560324912
 30
0.0
 11
158.6679261109
 21
140.4560324912
 31
0.0
  0
ARC
  5
A4
330
1F
100
AcDbEntity
  8
0
  6
Continuous
 62
     7
370
    25
100
AcDbCircle
 10
196.9179262718
 20
93.2560322825
 30
0.0
 40
0.8000000000000114
100
AcDbArc
 50
270.0
 51
0.0
  0
ARC
  5
A5
330
1F
100
AcDbEntity
  8
0
  6
Continuous
 62
     7
370
    25
100
AcDbCircle
 10
196.9179262718
 20
139.6560322825
 30
0.0
 40
0.8000000000000114
100
AcDbArc
 50
0.0
 51
90.0
  0
LINE
  5
A6
330
1F
100
AcDbEntity
  8
0
  6
Continuous
 62
     7
370
    25
100
AcDbLine
 10
49.467925348
 20
84.2060339813
 30
0.0
 11
61.017927148
 21
84.2060339813
 31
0.0
  0
ARC
  5
A7
330
1F
100
AcDbEntity
  8
0
  6
Continuous
 62
     7
370
    25
100
AcDbCircle
 10
61.0179262718
 20
82.3060322825
 30
0.0
 40
1.90000000000002
100
AcDbArc
 50
35.6630613694
 51
90.0
  0
ARC
  5
A8
330
1F
100
AcDbEntity
  8
0
  6
Continuous
 62
     7
370
    25
100
AcDbCircle
 10
56.0179262718
 20
150.6060322825
 30
0.0
 40
1.899999999999991
100
AcDbArc
 50
270.0
 51
310.9212832533
  0
LINE
  5
A9
330
1F
100
AcDbEntity
  8
0
  6
Continuous
 62
     7
370
    25
100
AcDbLine
 10
49.467925348
 20
148.7060305838
 30
0.0
 11
47.8686097941
 21
147.1067168926
 31
0.0
  0
LINE
  5
AA
330
1F
100
AcDbEntity
  8
0
  6
Continuous
 62
     7
370
    25
100
AcDbLine
 10
47.8694479844
 20
85.8045113449
 30
0.0
 11
49.467925348
 21
84.2060339813
 31
0.0
  0
LINE
  5
AB
330
1F
100
AcDbEntity
  8
0
  6
Continuous
 62
     7
370
    25
100
AcDbLine
 10
56.0179244658
 20
148.7060305838
 30
0.0
 11
49.467925348
 21
148.7060305838
 31
0.0
  0
ARC
  5
AC
330
1F
100
AcDbEntity
  8
0
  6
Continuous
 62
     7
370
    25
100
AcDbCircle
 10
198.1179262718
 20
105.2060322825
 30
0.0
 40
0.5999999999999948
100
AcDbArc
 50
90.0
 51
131.8103148958
  0
ARC
  5
AD
330
1F
100
AcDbEntity
  8
0
  6
Continuous
 62
     7
370
    25
100
AcDbCircle
 10
198.1179262718
 20
127.7060322825
 30
0.0
 40
0.6000000000000054
100
AcDbArc
 50
228.1896851042
 51
270.0
  0
ARC
  5
AE
330
1F
100
AcDbEntity
  8
0
  6
Continuous
 62
     7
370
    25
100
AcDbCircle
 10
215.9179262718
 20
106.2560322825
 30
0.0
 40
0.8000000000000256
100
AcDbArc
 50
270.0
 51
0.0
  0
ARC
  5
AF
330
1F
100
AcDbEntity
  8
0
  6
Continuous
 62
     7
370
    25
100
AcDbCircle
 10
215.9179262718
 20
126.6560322825
 30
0.0
 40
0.8000000000000114
100
AcDbArc
 50
0.0
 51
90.0
  0
LINE
  5
B0
330
1F
100
AcDbEntity
  8
0
  6
Continuous
 62
     7
370
    25
100
AcDbLine
 10
200.2179253778
 20
105.4560323421
 30
0.0
 11
215.9179229221
 21
105.4560323421
 31
0.0
  0
LINE
  5
B1
330
1F
100
AcDbEntity
  8
0
  6
Continuous
 62
     7
370
    25
100
AcDbLine
 10
215.9179229221
 20
127.4560322229
 30
0.0
 11
200.2179253778
 21
127.4560322229
 31
0.0
  0
LINE
  5
B2
330
1F
100
AcDbEntity
  8
0
  6
Continuous
 62
     7
370
    25
100
AcDbLine
 10
200.2179253778
 20
127.4560322229
 30
0.0
 11
198.9880058846
 21
127.1264772107
 31
0.0
  0
LINE
  5
B3
330
1F
100
AcDbEntity
  8
0
  6
Continuous
 62
     7
370
    25
100
AcDbLine
 10
198.9880058846
 20
105.7855873544
 30
0.0
 11
200.2179253778
 21
105.4560323421
 31
0.0
  0
ARC
  5
B4
330
1F
100
AcDbEntity
  8
0
  6
Continuous
 62
     7
370
    25
100
AcDbCircle
 10
198.8327169906
 20
105.2060322825
 30
0.0
 40
0.6000000000000008
100
AcDbArc
 50
75.0
 51
90.0
  0
ARC
  5
B5
330
1F
100
AcDbEntity
  8
0
  6
Continuous
 62
     7
370
    25
100
AcDbCircle
 10
198.8327169906
 20
127.7060322825
 30
0.0
 40
0.6000000000000008
100
AcDbArc
 50
270.0
 51
285.0
  0
LINE
  5
B6
330
1F
100
AcDbEntity
  8
0
  6
Continuous
 62
     7
370
    25
100
AcDbLine
 10
198.1179270825
 20
105.8060326789
 30
0.0
 11
198.8327134332
 21
105.8060326789
 31
0.0
  0
LINE
  5
B7
330
1F
100
AcDbEntity
  8
0
  6
Continuous
 62
     7
370
    25
100
AcDbLine
 10
198.8327134332
 20
127.1060318862
 30
0.0
 11
198.1179270825
 21
127.1060318862
 31
0.0
  0
LINE
  5
B8
330
1F
100
AcDbEntity
  8
0
  6
Continuous
 62
     7
370
    25
100
AcDbLine
 10
203.3179256996
 20
129.4560325508
 30
0.0
 11
203.3179256996
 21
138.4560321633
 31
0.0
  0
LINE
  5
B9
330
1F
100
AcDbEntity
  8
0
  6
Continuous
 62
     7
370
    25
100
AcDbLine
 10
203.3179256996
 20
94.5938346152
 30
0.0
 11
203.3179256996
 21
103.4560320143
 31
0.0
  0
LINE
  5
BA
330
1F
100
AcDbEntity
  8
0
  6
Continuous
 62
     7
370
    25
100
AcDbLine
 10
203.3179256996
 20
94.4560324018
 30
0.0
 11
203.3179256996
 21
94.5938346152
 31
0.0
  0
LINE
  5
BB
330
1F
100
AcDbEntity
  8
0
  6
Continuous
 62
     7
370
    25
100
AcDbLine
 10
231.7179296097
 20
122.9560324167
 30
0.0
 11
231.7179296097
 21
109.9560321484
 31
0.0
  0
LINE
  5
BC
330
1F
100
AcDbEntity
  8
0
  6
Continuous
 62
     7
370
    25
100
AcDbLine
 10
221.7179242453
 20
124.4560326625
 30
0.0
 11
221.7179242453
 21
108.4560319026
 31
0.0
  0
LINE
  5
BD
330
1F
100
AcDbEntity
  8
0
  6
Continuous
 62
     7
370
    25
100
AcDbLine
 10
97.7179262718
 20
66.9560325508
 30
0.0
 11
97.7179262718
 21
165.9560320143
 31
0.0
  0
LINE
  5
BE
330
1F
100
AcDbEntity
  8
0
  6
Continuous
 62
     7
370
    25
100
AcDbLine
 10
120.9799557856
 20
67.6810373728
 30
0.0
 11
120.9799557856
 21
147.8060339753
 31
0.0
  0
SPLINE
  5
BF
330
1F
100
AcDbEntity
  8
0
  6
Continuous
 62
     7
370
    25
100
AcDbSpline
210
0.0
220
0.0
230
1.0
 70
     8
 71
     3
 72
     8
 73
     4
 74
     0
 42
0.000000001
 43
0.00000001
 40
0.0
 40
0.0
 40
0.0
 40
0.0
 40
1.0
 40
1.0
 40
1.0
 40
1.0
 10
120.9799552927712
 20
67.68103868951245
 30
0.0
 10
120.528850563371
 20
68.48199862133237
 30
0.0
 10
120.0781527361276
 20
69.28318863289302
 30
0.0
 10
119.6279262718498
 20
70.08464399551778
 30
0.0
  0
LINE
  5
C0
330
1F
100
AcDbEntity
  8
0
  6
Continuous
 62
     7
370
    25
100
AcDbLine
 10
119.6279268643
 20
70.0846431021
 30
0.0
 11
119.6279268643
 21
147.8060339753
 31
0.0
  0
SPLINE
  5
C1
330
1F
100
AcDbEntity
  8
0
  6
Continuous
 62
     7
370
    25
100
AcDbSpline
210
0.0
220
0.0
230
1.0
 70
    24
 71
     3
 72
     8
 73
     4
 74
     0
 42
0.000000001
 43
0.00000001
 40
0.0
 40
0.0
 40
0.0
 40
0.0
 40
1.0
 40
1.0
 40
1.0
 40
1.0
 10
119.6279262718498
 20
147.8060322825413
 30
0.0
 10
120.0721391542038
 20
147.8060322825413
 30
0.0
 10
120.523153720443
 20
147.8060322825413
 30
0.0
 10
120.9799552927712
 20
147.8060322825413
 30
0.0
  0
LINE
  5
C2
330
1F
100
AcDbEntity
  8
0
  6
Continuous
 62
     7
370
    25
100
AcDbLine
 10
125.6679262897
 20
67.6810373728
 30
0.0
 11
120.9799557856
 21
67.6810373728
 31
0.0
  0
LINE
  5
C3
330
1F
100
AcDbEntity
  8
0
  6
Continuous
 62
     7
370
    25
100
AcDbLine
 10
120.9799557856
 20
147.8060339753
 30
0.0
 11
125.6679262897
 21
147.8060339753
 31
0.0
  0
LINE
  5
C4
330
1F
100
AcDbEntity
  8
0
  6
Continuous
 62
     7
370
    25
100
AcDbLine
 10
126.6679264536
 20
68.706688023
 30
0.0
 11
126.6679264536
 21
147.8060339753
 31
0.0
  0
SPLINE
  5
C5
330
1F
100
AcDbEntity
  8
0
  6
Continuous
 62
     7
370
    25
100
AcDbSpline
210
0.0
220
0.0
230
1.0
 70
     8
 71
     3
 72
    14
 73
    10
 74
     0
 42
0.000000001
 43
0.00000001
 40
0.0
 40
0.0
 40
0.0
 40
0.0
 40
0.25
 40
0.25
 40
0.5
 40
0.5
 40
0.75
 40
0.75
 40
1.0
 40
1.0
 40
1.0
 40
1.0
 10
126.6679262718498
 20
68.70668673728794
 30
0.0
 10
126.6679262718498
 20
68.57326104123341
 30
0.0
 10
126.6426151719389
 20
68.44141323338907
 30
0.0
 10
126.5442804080942
 20
68.19489068469495
 30
0.0
 10
126.4711364038381
 20
68.08108549645442
 30
0.0
 10
126.2876983427424
 20
67.89062831950714
 30
0.0
 10
126.1760120084039
 20
67.81299345565722
 30
0.0
 10
125.9335085780976
 20
67.70870204554474
 30
0.0
 10
125.8001341494034
 20
67.68103868951239
 30
0.0
 10
125.6679262718498
 20
67.6810386895124
 30
0.0
  0
SPLINE
  5
C6
330
1F
100
AcDbEntity
  8
0
  6
Continuous
 62
     7
370
    25
100
AcDbSpline
210
0.0
220
0.0
230
1.0
 70
    24
 71
     3
 72
    12
 73
     8
 74
     0
 42
0.000000001
 43
0.00000001
 40
0.0
 40
0.0
 40
0.0
 40
0.0
 40
0.2500000000000032
 40
0.2500000000000032
 40
0.5000000000000064
 40
0.5000000000000064
 40
1.0
 40
1.0
 40
1.0
 40
1.0
 10
125.6679262718498
 20
147.8060322825413
 30
0.0
 10
125.8200165087948
 20
147.8060322825413
 30
0.0
 10
125.9684757698703
 20
147.8060322825413
 30
0.0
 10
126.2258794021359
 20
147.8060322825413
 30
0.0
 10
126.3349841499779
 20
147.8060322825413
 30
0.0
 10
126.5890436263854
 20
147.8060322825413
 30
0.0
 10
126.6679262718498
 20
147.8060322825413
 30
0.0
 10
126.6679262718498
 20
147.8060322825413
 30
0.0
  0
LINE
  5
C7
330
1F
100
AcDbEntity
  8
0
  6
Continuous
 62
     7
370
    25
100
AcDbLine
 10
102.667926245
 20
147.8060339753
 30
0.0
 11
114.4558977267
 21
147.8060339753
 31
0.0
  0
LINE
  5
C8
330
1F
100
AcDbEntity
  8
0
  6
Continuous
 62
     7
370
    25
100
AcDbLine
 10
114.4558977267
 20
67.6810373728
 30
0.0
 11
114.4558977267
 21
147.8060339753
 31
0.0
  0
LINE
  5
C9
330
1F
100
AcDbEntity
  8
0
  6
Continuous
 62
     7
370
    25
100
AcDbLine
 10
114.4558977267
 20
67.6810373728
 30
0.0
 11
112.6679260215
 21
67.6810373728
 31
0.0
  0
SPLINE
  5
CA
330
1F
100
AcDbEntity
  8
0
  6
Continuous
 62
     7
370
    25
100
AcDbSpline
210
0.0
220
0.0
230
1.0
 70
     8
 71
     3
 72
    30
 73
    26
 74
     0
 42
0.000000001
 43
0.00000001
 40
0.0
 40
0.0
 40
0.0
 40
0.0
 40
0.1250000000000002
 40
0.1250000000000002
 40
0.1875000000000003
 40
0.1875000000000003
 40
0.2500000000000004
 40
0.2500000000000004
 40
0.3750000000000001
 40
0.3750000000000001
 40
0.4374999999999998
 40
0.4374999999999998
 40
0.4999999999999996
 40
0.4999999999999996
 40
0.6249999999999996
 40
0.6249999999999996
 40
0.6874999999999997
 40
0.6874999999999997
 40
0.7499999999999997
 40
0.7499999999999997
 40
0.8124999999999998
 40
0.8124999999999998
 40
0.8749999999999999
 40
0.8749999999999999
 40
1.0
 40
1.0
 40
1.0
 40
1.0
 10
112.6679262718498
 20
67.68103868951245
 30
0.0
 10
112.0051815780048
 20
67.68103868951245
 30
0.0
 10
111.3539257188891
 20
67.66619861292364
 30
0.0
 10
110.3934751806308
 20
67.62382904869402
 30
0.0
 10
110.0760837373978
 20
67.60635094591484
 30
0.0
 10
109.446920235843
 20
67.56502265936254
 30
0.0
 10
109.1347720494012
 20
67.54109738590483
 30
0.0
 10
108.227464747553
 20
67.46229086943792
 30
0.0
 10
107.6540397899117
 20
67.39998484946148
 30
0.0
 10
106.8401629203371
 20
67.2968555292221
 30
0.0
 10
106.5753567237672
 20
67.26067161017559
 30
0.0
 10
106.0684493129529
 20
67.18687682597509
 30
0.0
 10
105.8270551615994
 20
67.14940296720344
 30
0.0
 10
105.1379136894671
 20
67.0366910238637
 30
0.0
 10
104.7248588746028
 20
66.96115492638994
 30
0.0
 10
104.1767040552278
 20
66.85276166937243
 30
0.0
 10
104.0072414478822
 20
66.81768943770916
 30
0.0
 10
103.6992241998668
 20
66.75145397710932
 30
0.0
 10
103.5598441792584
 20
66.72012728035459
 30
0.0
 10
103.3100586666317
 20
66.66171850877367
 30
0.0
 10
103.1996525539778
 20
66.63463527359082
 30
0.0
 10
103.00839470034
 20
66.58537551897723
 30
0.0
 10
102.9272751820558
 20
66.56311353916958
 30
0.0
 10
102.7331282619474
 20
66.50554663200131
 30
0.0
 10
102.6679262718498
 20
66.4792870272153
 30
0.0
 10
102.6679262718498
 20
66.46603328274128
 30
0.0
  0
LINE
  5
CB
330
1F
100
AcDbEntity
  8
0
  6
Continuous
 62
     7
370
    25
100
AcDbLine
 10
102.667926245
 20
66.4660339419
 30
0.0
 11
102.667926245
 21
66.4560315375
 31
0.0
  0
SPLINE
  5
CC
330
1F
100
AcDbEntity
  8
0
  6
Continuous
 62
     7
370
    25
100
AcDbSpline
210
0.0
220
0.0
230
1.0
 70
     8
 71
     3
 72
    17
 73
    13
 74
     0
 42
0.000000001
 43
0.00000001
 40
0.0
 40
0.0
 40
0.0
 40
0.0
 40
0.1043843958185158
 40
0.2118345569819801
 40
0.3162081801235555
 40
0.4235375330682647
 40
0.5292275935501746
 40
0.6379275752951962
 40
0.7444714855043735
 40
0.8541836194561564
 40
0.959308052615968
 40
1.0
 40
1.0
 40
1.0
 40
1.0
 10
112.6679260215103
 20
165.4458274309139
 30
0.0
 10
112.1199874809967
 20
165.4511948712467
 30
0.0
 10
111.0080174679224
 20
165.4620873934107
 30
0.0
 10
109.3951621353999
 20
165.5472695772287
 30
0.0
 10
107.8616489846622
 20
165.6736400805601
 30
0.0
 10
106.4706280962879
 20
165.830543952069
 30
0.0
 10
105.2351109799898
 20
166.0022393495047
 30
0.0
 10
104.2117558341334
 20
166.1675842037147
 30
0.0
 10
103.4114131612744
 20
166.3112885015468
 30
0.0
 10
102.9010816085144
 20
166.4094524974786
 30
0.0
 10
102.661172850055
 20
166.4573738119514
 30
0.0
 10
102.6930917618244
 20
166.4510073039376
 30
0.0
 10
102.7019991470813
 20
166.4492306475143
 30
0.0
  0
LINE
  5
CD
330
1F
100
AcDbEntity
  8
0
  6
Continuous
 62
     7
370
    25
100
AcDbLine
 10
114.4558977267
 20
165.4458274309
 30
0.0
 11
112.6679260215
 21
165.4458274309
 31
0.0
  0
LINE
  5
CE
330
1F
100
AcDbEntity
  8
0
  6
Continuous
 62
     7
370
    25
100
AcDbLine
 10
114.4558977267
 20
155.4069933657
 30
0.0
 11
114.4558977267
 21
165.4458274309
 31
0.0
  0
LINE
  5
CF
330
1F
100
AcDbEntity
  8
0
  6
Continuous
 62
     7
370
    25
100
AcDbLine
 10
112.3758930644
 20
155.4069933657
 30
0.0
 11
114.4558977267
 21
155.4069933657
 31
0.0
  0
SPLINE
  5
D0
330
1F
100
AcDbEntity
  8
0
  6
Continuous
 62
     7
370
    25
100
AcDbSpline
210
0.0
220
0.0
230
1.0
 70
     8
 71
     3
 72
    22
 73
    18
 74
     0
 42
0.000000001
 43
0.00000001
 40
0.0
 40
0.0
 40
0.0
 40
0.0
 40
0.2500000000000002
 40
0.2500000000000002
 40
0.3750000000000003
 40
0.3750000000000003
 40
0.5000000000000004
 40
0.5000000000000004
 40
0.6250000000000004
 40
0.6250000000000004
 40
0.7500000000000004
 40
0.7500000000000004
 40
0.8750000000000004
 40
0.8750000000000004
 40
0.9375000000000002
 40
0.9375000000000002
 40
1.0
 40
1.0
 40
1.0
 40
1.0
 10
102.6679262718498
 20
147.8060322825413
 30
0.0
 10
102.8706512277689
 20
148.8252786244059
 30
0.0
 10
103.1853949495643
 20
149.7843867743452
 30
0.0
 10
103.8934504192353
 20
151.1268658518545
 30
0.0
 10
104.1719130494529
 20
151.5610744345945
 30
0.0
 10
104.8106804560901
 20
152.3727021500966
 30
0.0
 10
105.1710941358803
 20
152.7519824430334
 30
0.0
 10
105.9886263678696
 20
153.4549410220544
 30
0.0
 10
106.4497943511567
 20
153.779969839755
 30
0.0
 10
107.4477845976405
 20
154.3449851631459
 30
0.0
 10
107.9875437916328
 20
154.5886887573524
 30
0.0
 10
109.1621367556641
 20
154.9928886849974
 30
0.0
 10
109.773872941656
 20
155.1453258780429
 30
0.0
 10
110.7257821665177
 20
155.3006534256516
 30
0.0
 10
111.0490153307783
 20
155.3401582057016
 30
0.0
 10
111.7080785020536
 20
155.3934673263703
 30
0.0
 10
112.0421425126276
 20
155.4069950434282
 30
0.0
 10
112.3758931200291
 20
155.4069950434282
 30
0.0
  0
SPLINE
  5
D1
330
1F
100
AcDbEntity
  8
0
  6
Continuous
 62
     7
370
    25
100
AcDbSpline
210
0.0
220
0.0
230
1.0
 70
    11
 71
     3
 72
    80
 73
    76
 74
     0
 42
0.000000001
 43
0.00000001
 40
0.0
 40
0.0
 40
0.0
 40
0.0
 40
0.03125
 40
0.03125
 40
0.0468749999999999
 40
0.0468749999999999
 40
0.0624999999999998
 40
0.0624999999999998
 40
0.0937499999999996
 40
0.0937499999999996
 40
0.1249999999999994
 40
0.1249999999999994
 40
0.1562499999999992
 40
0.1562499999999992
 40
0.187499999999999
 40
0.187499999999999
 40
0.2187499999999988
 40
0.2187499999999988
 40
0.2499999999999986
 40
0.2499999999999986
 40
0.2812499999999983
 40
0.2812499999999983
 40
0.3124999999999981
 40
0.3124999999999981
 40
0.3281249999999982
 40
0.3281249999999982
 40
0.3437499999999982
 40
0.3437499999999982
 40
0.3749999999999984
 40
0.3749999999999984
 40
0.4062499999999986
 40
0.4062499999999986
 40
0.4218749999999987
 40
0.4218749999999987
 40
0.4374999999999987
 40
0.4374999999999987
 40
0.4687499999999989
 40
0.4687499999999989
 40
0.499999999999999
 40
0.499999999999999
 40
0.5312499999999991
 40
0.5312499999999991
 40
0.5624999999999992
 40
0.5624999999999992
 40
0.5937499999999993
 40
0.5937499999999993
 40
0.6249999999999994
 40
0.6249999999999994
 40
0.6562499999999997
 40
0.6562499999999997
 40
0.6874999999999998
 40
0.6874999999999998
 40
0.703125
 40
0.703125
 40
0.7187500000000002
 40
0.7187500000000002
 40
0.7500000000000003
 40
0.7500000000000003
 40
0.7812500000000004
 40
0.7812500000000004
 40
0.7968750000000006
 40
0.7968750000000006
 40
0.8125000000000007
 40
0.8125000000000007
 40
0.8437500000000006
 40
0.8437500000000006
 40
0.8750000000000006
 40
0.8750000000000006
 40
0.9062500000000004
 40
0.9062500000000004
 40
0.9375000000000003
 40
0.9375000000000003
 40
0.9687500000000002
 40
0.9687500000000002
 40
1.0
 40
1.0
 40
1.0
 40
1.0
 10
106.7179262718498
 20
159.8706617461725
 30
0.0
 10
106.3873809590735
 20
159.8706617461725
 30
0.0
 10
106.0624008298219
 20
159.8868699775547
 30
0.0
 10
105.5829274185755
 20
159.9342346095742
 30
0.0
 10
105.4244456007347
 20
159.9538888214649
 30
0.0
 10
105.1102260682304
 20
160.0009999776576
 30
0.0
 10
104.95410578455
 20
160.0285812971522
 30
0.0
 10
104.5000517555934
 20
160.121117083946
 30
0.0
 10
104.2129483726536
 20
160.1961875175425
 30
0.0
 10
103.6695938166265
 20
160.3714258261531
 30
0.0
 10
103.412490205421
 20
160.4724271239914
 30
0.0
 10
102.9515839504822
 20
160.6897833224522
 30
0.0
 10
102.7446862412672
 20
160.8069476542245
 30
0.0
 10
102.379160927275
 20
161.0570175784532
 30
0.0
 10
102.2239554051491
 20
161.1879636672121
 30
0.0
 10
101.9745250185493
 20
161.4536986109244
 30
0.0
 10
101.8784350627642
 20
161.5904522042354
 30
0.0
 10
101.7499162135706
 20
161.8645177790744
 30
0.0
 10
101.7181053433928
 20
161.9994578695432
 30
0.0
 10
101.7177486936195
 20
162.264929506612
 30
0.0
 10
101.7502459458166
 20
162.3967539837533
 30
0.0
 10
101.8778714195311
 20
162.6462035833736
 30
0.0
 10
101.972299820583
 20
162.7646362753016
 30
0.0
 10
102.1601606405686
 20
162.9335054723958
 30
0.0
 10
102.2309886393717
 20
162.988591467516
 30
0.0
 10
102.385710531337
 20
163.0938442960043
 30
0.0
 10
102.4696870015204
 20
163.1441795247647
 30
0.0
 10
102.7410106711648
 20
163.2887553573028
 30
0.0
 10
102.9475598897672
 20
163.3766169437198
 30
0.0
 10
103.4141700299562
 20
163.5363380367193
 30
0.0
 10
103.6665355995817
 20
163.6055763331865
 30
0.0
 10
104.0724369412604
 20
163.6953637224163
 30
0.0
 10
104.2123375587379
 20
163.7229296845025
 30
0.0
 10
104.5015614939848
 20
163.7734204854288
 30
0.0
 10
104.6514009502741
 20
163.7963839242795
 30
0.0
 10
105.1055175198849
 20
163.8570144406983
 30
0.0
 10
105.4171687386217
 20
163.8870884694942
 30
0.0
 10
106.0581652035341
 20
163.9276780567528
 30
0.0
 10
106.3896928314863
 20
163.9379902869689
 30
0.0
 10
107.0424838765577
 20
163.9380658541346
 30
0.0
 10
107.3670200815896
 20
163.9281642486669
 30
0.0
 10
108.012289531006
 20
163.8876777181416
 30
0.0
 10
108.3280325371687
 20
163.857216418257
 30
0.0
 10
108.9299218321524
 20
163.7770657468204
 30
0.0
 10
109.2206710629639
 20
163.7267835150132
 30
0.0
 10
109.7675828546484
 20
163.6061133322402
 30
0.0
 10
110.0193602184853
 20
163.5368894730702
 30
0.0
 10
110.4807482111064
 20
163.3794377454295
 30
0.0
 10
110.6920174907045
 20
163.2900892707558
 30
0.0
 10
111.0553218430807
 20
163.096841400055
 30
0.0
 10
111.2091284915235
 20
162.9927134081756
 30
0.0
 10
111.3977479611209
 20
162.8240890219922
 30
0.0
 10
111.45377844733
 20
162.7654606203173
 30
0.0
 10
111.5493522090662
 20
162.6460057054911
 30
0.0
 10
111.5891151260912
 20
162.5850859166528
 30
0.0
 10
111.6848868764033
 20
162.398681190479
 30
0.0
 10
111.7176097155294
 20
162.2695683726839
 30
0.0
 10
111.7182383018585
 20
162.0009114497281
 30
0.0
 10
111.6860521571237
 20
161.8655407089713
 30
0.0
 10
111.5911414552682
 20
161.6619904007353
 30
0.0
 10
111.5516746718692
 20
161.5940184766719
 30
0.0
 10
111.4567446731483
 20
161.457926253541
 30
0.0
 10
111.4009878453849
 20
161.3895761533316
 30
0.0
 10
111.2130477274151
 20
161.1888731402894
 30
0.0
 10
111.0596862576989
 20
161.0594848664768
 30
0.0
 10
110.6974220228185
 20
160.8108194344269
 30
0.0
 10
110.4865735493526
 20
160.6910097920587
 30
0.0
 10
110.0259035790337
 20
160.4734875044861
 30
0.0
 10
109.7745291994499
 20
160.3744024046501
 30
0.0
 10
109.2286213125517
 20
160.1977299307333
 30
0.0
 10
108.9377987379005
 20
160.1216728425993
 30
0.0
 10
108.3364721231205
 20
159.9988278652463
 30
0.0
 10
108.0219535385081
 20
159.9511217401931
 30
0.0
 10
107.3753720823881
 20
159.8868732050735
 30
0.0
 10
107.0484715846261
 20
159.8706617461725
 30
0.0
 10
106.7179262718498
 20
159.8706617461725
 30
0.0
  0
LINE
  5
D2
330
1F
100
AcDbEntity
  8
0
  6
Continuous
 62
     7
370
    25
100
AcDbLine
 10
115.807926648
 20
70.0846431021
 30
0.0
 11
115.807926648
 21
147.8060339753
 31
0.0
  0
SPLINE
  5
D3
330
1F
100
AcDbEntity
  8
0
  6
Continuous
 62
     7
370
    25
100
AcDbSpline
210
0.0
220
0.0
230
1.0
 70
     8
 71
     3
 72
     8
 73
     4
 74
     0
 42
0.000000001
 43
0.00000001
 40
0.0
 40
0.0
 40
0.0
 40
0.0
 40
1.0
 40
1.0
 40
1.0
 40
1.0
 10
115.8079262718498
 20
70.08464399551778
 30
0.0
 10
115.357699807572
 20
69.28318863289302
 30
0.0
 10
114.9070019803287
 20
68.48199862133237
 30
0.0
 10
114.4558972509284
 20
67.68103868951245
 30
0.0
  0
SPLINE
  5
D4
330
1F
100
AcDbEntity
  8
0
  6
Continuous
 62
     7
370
    25
100
AcDbSpline
210
0.0
220
0.0
230
1.0
 70
    24
 71
     3
 72
     8
 73
     4
 74
     0
 42
0.000000001
 43
0.00000001
 40
0.0
 40
0.0
 40
0.0
 40
0.0
 40
1.0
 40
1.0
 40
1.0
 40
1.0
 10
114.4558972509284
 20
147.8060322825413
 30
0.0
 10
114.9126988232567
 20
147.8060322825413
 30
0.0
 10
115.3637133894959
 20
147.8060322825413
 30
0.0
 10
115.8079262718498
 20
147.8060322825413
 30
0.0
  0
SPLINE
  5
D5
330
1F
100
AcDbEntity
  8
0
  6
Continuous
 62
     7
370
    25
100
AcDbSpline
210
0.0
220
0.0
230
1.0
 70
     8
 71
     3
 72
    14
 73
    10
 74
     0
 42
0.000000001
 43
0.00000001
 40
0.0
 40
0.0
 40
0.0
 40
0.0
 40
0.25
 40
0.25
 40
0.5
 40
0.5
 40
0.75
 40
0.75
 40
1.0
 40
1.0
 40
1.0
 40
1.0
 10
119.6279262718498
 20
70.99285350014637
 30
0.0
 10
119.6279262718498
 20
71.09989758114074
 30
0.0
 10
119.6078085846917
 20
71.20513272138318
 30
0.0
 10
119.529317395426
 20
71.40298320823088
 30
0.0
 10
119.4711607706248
 20
71.4940349717958
 30
0.0
 10
119.3246455150068
 20
71.64720106572058
 30
0.0
 10
119.2360029663657
 20
71.70949551192999
 30
0.0
 10
119.0402796435654
 20
71.79428929746598
 30
0.0
 10
118.9350484524944
 20
71.81635682449159
 30
0.0
 10
118.8279262718498
 20
71.8163568244916
 30
0.0
  0
SPLINE
  5
D6
330
1F
100
AcDbEntity
  8
0
  6
Continuous
 62
     7
370
    25
100
AcDbSpline
210
0.0
220
0.0
230
1.0
 70
    24
 71
     3
 72
    14
 73
    10
 74
     0
 42
0.000000001
 43
0.00000001
 40
0.0
 40
0.0
 40
0.0
 40
0.0
 40
0.25
 40
0.25
 40
0.5
 40
0.5
 40
0.75
 40
0.75
 40
1.0
 40
1.0
 40
1.0
 40
1.0
 10
118.8279262718498
 20
147.8060322825413
 30
0.0
 10
118.951696036615
 20
147.8060322825413
 30
0.0
 10
119.0760631406219
 20
147.8060322825413
 30
0.0
 10
119.2824196093479
 20
147.8060322825413
 30
0.0
 10
119.3677477527663
 20
147.8060322825413
 30
0.0
 10
119.4999398114815
 20
147.8060322825413
 30
0.0
 10
119.5485850552321
 20
147.8060322825413
 30
0.0
 10
119.6121208469608
 20
147.8060322825413
 30
0.0
 10
119.6279262718498
 20
147.8060322825413
 30
0.0
 10
119.6279262718498
 20
147.8060322825413
 30
0.0
  0
SPLINE
  5
D7
330
1F
100
AcDbEntity
  8
0
  6
Continuous
 62
     7
370
    25
100
AcDbSpline
210
0.0
220
0.0
230
1.0
 70
     8
 71
     3
 72
    12
 73
     8
 74
     0
 42
0.000000001
 43
0.00000001
 40
0.0
 40
0.0
 40
0.0
 40
0.0
 40
0.250000000000003
 40
0.250000000000003
 40
0.500000000000006
 40
0.500000000000006
 40
1.0
 40
1.0
 40
1.0
 40
1.0
 10
116.6079262718498
 20
71.8163568244916
 30
0.0
 10
116.5021656185009
 20
71.81635682449159
 30
0.0
 10
116.3941779903179
 20
71.79381731849121
 30
0.0
 10
116.1995833250523
 20
71.70924668649586
 30
0.0
 10
116.1107114122135
 20
71.64676503373704
 30
0.0
 10
115.8915191198876
 20
71.41737608226484
 30
0.0
 10
115.8079262718498
 20
71.20479274474242
 30
0.0
 10
115.8079262718498
 20
70.9928535001462
 30
0.0
  0
SPLINE
  5
D8
330
1F
100
AcDbEntity
  8
0
  6
Continuous
 62
     7
370
    25
100
AcDbSpline
210
0.0
220
0.0
230
1.0
 70
    24
 71
     3
 72
    14
 73
    10
 74
     0
 42
0.000000001
 43
0.00000001
 40
0.0
 40
0.0
 40
0.0
 40
0.0
 40
0.25
 40
0.25
 40
0.5
 40
0.5
 40
0.75
 40
0.75
 40
1.0
 40
1.0
 40
1.0
 40
1.0
 10
115.8079262718498
 20
147.8060322825413
 30
0.0
 10
115.8079262718498
 20
147.8060322825413
 30
0.0
 10
115.8236405923158
 20
147.8060322825413
 30
0.0
 10
115.8873245707841
 20
147.8060322825413
 30
0.0
 10
115.9359277651946
 20
147.8060322825413
 30
0.0
 10
116.0686112876202
 20
147.8060322825413
 30
0.0
 10
116.1537133919309
 20
147.8060322825413
 30
0.0
 10
116.3601556268409
 20
147.8060322825413
 30
0.0
 10
116.4842365684639
 20
147.8060322825413
 30
0.0
 10
116.6079262718498
 20
147.8060322825413
 30
0.0
  0
LINE
  5
D9
330
1F
100
AcDbEntity
  8
0
  6
Continuous
 62
     7
370
    25
100
AcDbLine
 10
118.8279263607
 20
71.8163554732
 30
0.0
 11
116.6079271516
 21
71.8163554732
 31
0.0
  0
LINE
  5
DA
330
1F
100
AcDbEntity
  8
0
  6
Continuous
 62
     7
370
    25
100
AcDbLine
 10
116.6079271516
 20
147.8060339753
 30
0.0
 11
118.8279263607
 21
147.8060339753
 31
0.0
  0
LINE
  5
DB
330
1F
100
AcDbEntity
  8
0
  6
Continuous
 62
     7
370
    25
100
AcDbLine
 10
95.2179263277
 20
78.5737824802
 30
0.0
 11
95.2179263277
 21
154.3382820849
 31
0.0
  0
LINE
  5
DC
330
1F
100
AcDbEntity
  8
0
  6
Continuous
 62
     7
370
    25
100
AcDbLine
 10
62.9179257831
 20
80.1920187835
 30
0.0
 11
62.9179257831
 21
82.5866987173
 31
0.0
  0
SPLINE
  5
DD
330
1F
100
AcDbEntity
  8
0
  6
Continuous
 62
     7
370
    25
100
AcDbSpline
210
0.0
220
0.0
230
1.0
 70
     8
 71
     3
 72
    14
 73
    10
 74
     0
 42
0.000000001
 43
0.00000001
 40
0.0
 40
0.0
 40
0.0
 40
0.0
 40
0.25
 40
0.25
 40
0.5
 40
0.5
 40
0.75
 40
0.75
 40
1.0
 40
1.0
 40
1.0
 40
1.0
 10
61.91350380051287
 20
84.28955093879773
 30
0.0
 10
62.00227237845819
 20
84.13101680748977
 30
0.0
 10
62.12399021713711
 20
83.97857413060122
 30
0.0
 10
62.35903982699394
 20
83.68143950677229
 30
0.0
 10
62.47467001321083
 20
83.53675686315492
 30
0.0
 10
62.67507494663865
 20
83.25346766065152
 30
0.0
 10
62.76047523862297
 20
83.11491366761467
 30
0.0
 10
62.88218087234021
 20
82.84352963758113
 30
0.0
 10
62.91792627185284
 20
82.71139376894651
 30
0.0
 10
62.91792627185283
 20
82.58669901717575
 30
0.0
  0
SPLINE
  5
DE
330
1F
100
AcDbEntity
  8
0
  6
Continuous
 62
     7
370
    25
100
AcDbSpline
210
0.0
220
0.0
230
1.0
 70
     8
 71
     3
 72
    14
 73
    10
 74
     0
 42
0.000000001
 43
0.00000001
 40
0.0
 40
0.0
 40
0.0
 40
0.0
 40
0.124999999999999
 40
0.124999999999999
 40
0.249999999999998
 40
0.249999999999998
 40
0.5000000000000007
 40
0.5000000000000007
 40
1.0
 40
1.0
 40
1.0
 40
1.0
 10
61.01792627184982
 20
84.91838087789783
 30
0.0
 10
61.08550857163432
 20
84.92553676299922
 30
0.0
 10
61.15799614938222
 20
84.9211122929602
 30
0.0
 10
61.29028725864816
 20
84.89140613518987
 30
0.0
 10
61.34756463803834
 20
84.86812185361163
 30
0.0
 10
61.49721506523861
 20
84.79063661376131
 30
0.0
 10
61.57092836076011
 20
84.72878478685993
 30
0.0
 10
61.75873634408635
 20
84.54410733421162
 30
0.0
 10
61.84277665044781
 20
84.41586441092042
 30
0.0
 10
61.91350380051408
 20
84.28955093879782
 30
0.0
  0
SPLINE
  5
DF
330
1F
100
AcDbEntity
  8
0
  6
Continuous
 62
     7
370
    25
100
AcDbSpline
210
0.0
220
0.0
230
1.0
 70
     8
 71
     3
 72
     8
 73
     4
 74
     0
 42
0.000000001
 43
0.00000001
 40
0.0
 40
0.0
 40
0.0
 40
0.0
 40
1.0
 40
1.0
 40
1.0
 40
1.0
 10
57.47328588376904
 20
84.50033229310606
 30
0.0
 10
58.63858419447791
 20
84.65551976499266
 30
0.0
 10
59.82319940851773
 20
84.79187840330299
 30
0.0
 10
61.01792627184982
 20
84.91838087789783
 30
0.0
  0
SPLINE
  5
E0
330
1F
100
AcDbEntity
  8
0
  6
Continuous
 62
     7
370
    25
100
AcDbSpline
210
0.0
220
0.0
230
1.0
 70
     8
 71
     3
 72
    14
 73
    10
 74
     0
 42
0.000000001
 43
0.00000001
 40
0.0
 40
0.0
 40
0.0
 40
0.0
 40
0.5000000000000012
 40
0.5000000000000012
 40
0.7500000000000018
 40
0.7500000000000018
 40
0.8750000000000009
 40
0.8750000000000009
 40
1.0
 40
1.0
 40
1.0
 40
1.0
 10
49.71785138781948
 20
84.21020011397611
 30
0.0
 10
51.02615295035351
 20
84.21721483771722
 30
0.0
 10
52.33121232501062
 20
84.23262341416171
 30
0.0
 10
54.27708837649931
 20
84.28651996962837
 30
0.0
 10
54.92378588023846
 20
84.30955153423108
 30
0.0
 10
55.887628244093
 20
84.36049405910182
 30
0.0
 10
56.20786693602714
 20
84.38022898133502
 30
0.0
 10
56.84456216236969
 20
84.4297161098066
 30
0.0
 10
57.1612775706527
 20
84.45878088873584
 30
0.0
 10
57.47328588376907
 20
84.500332293106
 30
0.0
  0
SPLINE
  5
E1
330
1F
100
AcDbEntity
  8
0
  6
Continuous
 62
     7
370
    25
100
AcDbSpline
210
0.0
220
0.0
230
1.0
 70
     8
 71
     3
 72
    12
 73
     8
 74
     0
 42
0.000000001
 43
0.00000001
 40
0.0
 40
0.0
 40
0.0
 40
0.0
 40
0.2500000000000001
 40
0.2500000000000001
 40
0.5000000000000001
 40
0.5000000000000001
 40
1.0
 40
1.0
 40
1.0
 40
1.0
 10
56.01792627184983
 20
148.5425551740377
 30
0.0
 10
55.49922745002164
 20
148.5750779488859
 30
0.0
 10
54.97751587681665
 20
148.5983746900564
 30
0.0
 10
53.93122386032109
 20
148.6362202044785
 30
0.0
 10
53.40655223465081
 20
148.6504886789746
 30
0.0
 10
51.82970621211158
 20
148.6846981664329
 30
0.0
 10
50.77475089756469
 20
148.6961976703768
 30
0.0
 10
49.71785138781948
 20
148.7018644511064
 30
0.0
  0
SPLINE
  5
E2
330
1F
100
AcDbEntity
  8
0
  6
Continuous
 62
     7
370
    25
100
AcDbSpline
210
0.0
220
0.0
230
1.0
 70
     8
 71
     3
 72
    20
 73
    16
 74
     0
 42
0.000000001
 43
0.00000001
 40
0.0
 40
0.0
 40
0.0
 40
0.0
 40
0.2500000000000011
 40
0.2500000000000011
 40
0.5000000000000021
 40
0.5000000000000021
 40
0.7500000000000031
 40
0.7500000000000031
 40
0.8750000000000008
 40
0.8750000000000008
 40
0.9375000000000006
 40
0.9375000000000006
 40
0.9687500000000003
 40
0.9687500000000003
 40
1.0
 40
1.0
 40
1.0
 40
1.0
 10
57.91792627184983
 20
150.2006410195258
 30
0.0
 10
57.91792627184983
 20
150.064958699779
 30
0.0
 10
57.8692144826332
 20
149.923871713639
 30
0.0
 10
57.70005305940801
 20
149.6317999949084
 30
0.0
 10
57.5782726454897
 20
149.480151252818
 30
0.0
 10
57.28072555074018
 20
149.1777428126649
 30
0.0
 10
57.10681294503742
 20
149.0251541765416
 30
0.0
 10
56.78739811115559
 20
148.7998834126993
 30
0.0
 10
56.67235733570833
 20
148.7251603181886
 30
0.0
 10
56.46527301169191
 20
148.6257499089316
 30
0.0
 10
56.38916517688553
 20
148.594184816587
 30
0.0
 10
56.25777063733217
 20
148.559741432394
 30
0.0
 10
56.21121741833071
 20
148.5506898606264
 30
0.0
 10
56.11488406725
 20
148.5405142117879
 30
0.0
 10
56.06562464389456
 20
148.5395644531129
 30
0.0
 10
56.01792627184785
 20
148.5425551740275
 30
0.0
  0
LINE
  5
E3
330
1F
100
AcDbEntity
  8
0
  6
Continuous
 62
     7
370
    25
100
AcDbLine
 10
57.9179268262
 20
150.2006394033
 30
0.0
 11
57.9179268262
 21
152.469546086
 31
0.0
  0
SPLINE
  5
E4
330
1F
100
AcDbEntity
  8
0
  6
Continuous
 62
     7
370
    25
100
AcDbSpline
210
0.0
220
0.0
230
1.0
 70
     8
 71
     3
 72
    24
 73
    20
 74
     0
 42
0.000000001
 43
0.00000001
 40
0.0
 40
0.0
 40
0.0
 40
0.0
 40
0.0002934239329635
 40
0.0628079954843725
 40
0.1260453886222317
 40
0.1890746649056576
 40
0.2513200327496127
 40
0.3133304381321615
 40
0.3759158074016681
 40
0.4383740215105411
 40
0.5000631209931454
 40
0.5616593985498132
 40
0.6245050468179062
 40
0.6872231543007362
 40
0.7494953203649202
 40
0.811758388799549
 40
0.8747365576758938
 40
0.937898032705022
 40
1.0
 40
1.0
 40
1.0
 40
1.0
 10
76.2378819218218
 20
79.5247857634525
 30
0.0
 10
76.23768737803901
 20
79.52476206619188
 30
0.0
 10
76.19604488178334
 20
79.51968961888947
 30
0.0
 10
76.34106809395617
 20
79.53813090903559
 30
0.0
 10
76.6961853209746
 20
79.58073323780238
 30
0.0
 10
77.30075087461066
 20
79.64884357112874
 30
0.0
 10
78.10718803301637
 20
79.72210888445667
 30
0.0
 10
79.09266514303762
 20
79.78662448776538
 30
0.0
 10
80.22433428441988
 20
79.82519140304467
 30
0.0
 10
81.44662719808225
 20
79.8288807048915
 30
0.0
 10
82.71395634404253
 20
79.78646227849734
 30
0.0
 10
83.9804415871395
 20
79.69820741224582
 30
0.0
 10
85.19657971800024
 20
79.56982180501481
 30
0.0
 10
86.32198914361594
 20
79.41717407834489
 30
0.0
 10
87.29940733683392
 20
79.25540369697987
 30
0.0
 10
88.10267201735155
 20
79.10287126050345
 30
0.0
 10
88.69116542638304
 20
78.97885762174256
 30
0.0
 10
89.08007216286842
 20
78.89393603059195
 30
0.0
 10
89.12683297923874
 20
78.88321032228384
 30
0.0
 10
89.15001563041803
 20
78.87789282841489
 30
0.0
  0
SPLINE
  5
E5
330
1F
100
AcDbEntity
  8
0
  6
Continuous
 62
     7
370
    25
100
AcDbSpline
210
0.0
220
0.0
230
1.0
 70
     8
 71
     3
 72
    27
 73
    23
 74
     0
 42
0.000000001
 43
0.00000001
 40
0.0
 40
0.0
 40
0.0
 40
0.0
 40
0.0619954680688684
 40
0.1254397621813191
 40
0.1886583727463871
 40
0.2510346191260181
 40
0.313178255016169
 40
0.3756730771103761
 40
0.4382401025850776
 40
0.4998243385522818
 40
0.5615387009126923
 40
0.6240931220669997
 40
0.6867530144355031
 40
0.7488662870716932
 40
0.8111008374917862
 40
0.8742090103085037
 40
0.9448189516773847
 40
0.9756082665127763
 40
0.9877505319198249
 40
0.9999433694577685
 40
0.9999501670988248
 40
1.0
 40
1.0
 40
1.0
 40
1.0
 10
89.14989455848333
 20
154.034127033184
 30
0.0
 10
89.12632296752432
 20
154.0288174481406
 30
0.0
 10
89.07862892058449
 20
154.0180741937404
 30
0.0
 10
88.68658582720548
 20
153.932847308564
 30
0.0
 10
88.09607318201864
 20
153.808278627608
 30
0.0
 10
87.29203473395181
 20
153.6553297174379
 30
0.0
 10
86.31595996755168
 20
153.4935725148314
 30
0.0
 10
85.19415165465509
 20
153.3413390968961
 30
0.0
 10
83.98062001887915
 20
153.2135637430921
 30
0.0
 10
82.71578958804845
 20
153.1257152250863
 30
0.0
 10
81.44774621635989
 20
153.0833271953903
 30
0.0
 10
80.2242389154261
 20
153.0870662309777
 30
0.0
 10
79.09073956975008
 20
153.1256548445061
 30
0.0
 10
78.10463494712135
 20
153.1901007779472
 30
0.0
 10
77.29600510467267
 20
153.2636095116529
 30
0.0
 10
76.67577656995894
 20
153.3335799569824
 30
0.0
 10
76.35762338818988
 20
153.3721313496478
 30
0.0
 10
76.26196194253166
 20
153.3842024019472
 30
0.0
 10
76.24034311345144
 20
153.386962822742
 30
0.0
 10
76.23750214630962
 20
153.38729120409
 30
0.0
 10
76.23718177063112
 20
153.3873461413566
 30
0.0
 10
76.23721733078045
 20
153.3873400453008
 30
0.0
 10
76.23724862247106
 20
153.3873346809845
 30
0.0
  0
SPLINE
  5
E6
330
1F
100
AcDbEntity
  8
0
  6
Continuous
 62
     7
370
    25
100
AcDbSpline
210
0.0
220
0.0
230
1.0
 70
     8
 71
     3
 72
    20
 73
    16
 74
     0
 42
0.000000001
 43
0.00000001
 40
0.0
 40
0.0
 40
0.0
 40
0.0
 40
0.249999999999986
 40
0.249999999999986
 40
0.3749999999999789
 40
0.3749999999999789
 40
0.4374999999999789
 40
0.4374999999999789
 40
0.4999999999999789
 40
0.4999999999999789
 40
0.6249999999999835
 40
0.6249999999999835
 40
0.7499999999999879
 40
0.7499999999999879
 40
1.0
 40
1.0
 40
1.0
 40
1.0
 10
48.10874050356584
 20
85.77754912984054
 30
0.0
 10
48.13501272077924
 20
85.796867070923
 30
0.0
 10
48.16569286303408
 20
85.81125578202479
 30
0.0
 10
48.23716373341601
 20
85.80435142018878
 30
0.0
 10
48.26519077046035
 20
85.79718541684035
 30
0.0
 10
48.32027435995785
 20
85.76748639013675
 30
0.0
 10
48.34116568851028
 20
85.75401274757542
 30
0.0
 10
48.38637433595574
 20
85.71881448205941
 30
0.0
 10
48.41077854835131
 20
85.69690625333214
 30
0.0
 10
48.48211086640275
 20
85.62478139333659
 30
0.0
 10
48.52400765122303
 20
85.57244085238655
 30
0.0
 10
48.5955836100789
 20
85.47495746048581
 30
0.0
 10
48.62641159989619
 20
85.42820369060739
 30
0.0
 10
48.70951153273177
 20
85.29491047476827
 30
0.0
 10
48.75436643810207
 20
85.21227307685305
 30
0.0
 10
48.79447851355464
 20
85.13316618206228
 30
0.0
  0
SPLINE
  5
E7
330
1F
100
AcDbEntity
  8
0
  6
Continuous
 62
     7
370
    25
100
AcDbSpline
210
0.0
220
0.0
230
1.0
 70
     8
 71
     3
 72
    14
 73
    10
 74
     0
 42
0.000000001
 43
0.00000001
 40
0.0
 40
0.0
 40
0.0
 40
0.0
 40
0.2499999999999994
 40
0.2499999999999994
 40
0.4999999999999988
 40
0.4999999999999988
 40
0.7499999999999982
 40
0.7499999999999982
 40
1.0
 40
1.0
 40
1.0
 40
1.0
 10
47.81792627184983
 20
85.95336253997333
 30
0.0
 10
47.81792627184983
 20
85.91211560894898
 30
0.0
 10
47.82653598823109
 20
85.8752086366665
 30
0.0
 10
47.85762216780143
 20
85.81430857676709
 30
0.0
 10
47.88001172128551
 20
85.79012765722739
 30
0.0
 10
47.93475565246161
 20
85.75616006634412
 30
0.0
 10
47.9672058920468
 20
85.74623998237594
 30
0.0
 10
48.03720740677486
 20
85.7448887734711
 30
0.0
 10
48.07541790689739
 20
85.75304705016724
 30
0.0
 10
48.10874050357049
 20
85.77754912983535
 30
0.0
  0
LINE
  5
E8
330
1F
100
AcDbEntity
  8
0
  6
Continuous
 62
     7
370
    25
100
AcDbLine
 10
47.8179272196
 20
85.9533627693
 30
0.0
 11
47.8179272196
 21
146.9587017958
 31
0.0
  0
SPLINE
  5
E9
330
1F
100
AcDbEntity
  8
0
  6
Continuous
 62
     7
370
    25
100
AcDbSpline
210
0.0
220
0.0
230
1.0
 70
     8
 71
     3
 72
     9
 73
     5
 74
     0
 42
0.000000001
 43
0.00000001
 40
0.0
 40
0.0
 40
0.0
 40
0.0
 40
0.0592942499244465
 40
1.0
 40
1.0
 40
1.0
 40
1.0
 10
48.10874200671311
 20
147.1345150087576
 30
0.0
 10
48.10385900901434
 20
147.1378081484553
 30
0.0
 10
48.02150704900174
 20
147.1933470869184
 30
0.0
 10
47.95537639458644
 20
147.1360548838056
 30
0.0
 10
47.89316690772172
 20
147.082159778903
 30
0.0
  0
SPLINE
  5
EA
330
1F
100
AcDbEntity
  8
0
  6
Continuous
 62
     7
370
    25
100
AcDbSpline
210
0.0
220
0.0
230
1.0
 70
     8
 71
     3
 72
     8
 73
     4
 74
     0
 42
0.000000001
 43
0.00000001
 40
0.0
 40
0.0
 40
0.0
 40
0.0
 40
1.0
 40
1.0
 40
1.0
 40
1.0
 10
47.84155994078604
 20
147.0662815261788
 30
0.0
 10
47.82621090215
 20
147.0357714711829
 30
0.0
 10
47.81792627184983
 20
146.9994599156706
 30
0.0
 10
47.81792627184983
 20
146.9587020251091
 30
0.0
  0
SPLINE
  5
EB
330
1F
100
AcDbEntity
  8
0
  6
Continuous
 62
     7
370
    25
100
AcDbSpline
210
0.0
220
0.0
230
1.0
 70
     8
 71
     3
 72
    20
 73
    16
 74
     0
 42
0.000000001
 43
0.00000001
 40
0.0
 40
0.0
 40
0.0
 40
0.0
 40
0.2500000000000037
 40
0.2500000000000037
 40
0.3750000000000055
 40
0.3750000000000055
 40
0.5000000000000073
 40
0.5000000000000073
 40
0.5625000000000057
 40
0.5625000000000057
 40
0.625000000000004
 40
0.625000000000004
 40
0.7500000000000027
 40
0.7500000000000027
 40
1.0
 40
1.0
 40
1.0
 40
1.0
 10
48.79447851355226
 20
147.7788983830194
 30
0.0
 10
48.75448229572843
 20
147.700019976462
 30
0.0
 10
48.70936866789077
 20
147.6168903297705
 30
0.0
 10
48.62611445352425
 20
147.4834016654195
 30
0.0
 10
48.59589512490374
 20
147.4375366095375
 30
0.0
 10
48.52380688976232
 20
147.3393450571326
 30
0.0
 10
48.48188957235122
 20
147.287035237609
 30
0.0
 10
48.41063896779976
 20
147.2150293348746
 30
0.0
 10
48.38640315542045
 20
147.193259122573
 30
0.0
 10
48.3408049652358
 20
147.157784464244
 30
0.0
 10
48.32000247563609
 20
147.1444142800664
 30
0.0
 10
48.26506147721696
 20
147.1148443679312
 30
0.0
 10
48.23699248913016
 20
147.1077178456292
 30
0.0
 10
48.16648965906732
 20
147.1008434741465
 30
0.0
 10
48.13506557127645
 20
147.1151586332337
 30
0.0
 10
48.10874050356785
 20
147.1345154352443
 30
0.0
  0
SPLINE
  5
EC
330
1F
100
AcDbEntity
  8
0
  6
Continuous
 62
     7
370
    25
100
AcDbSpline
210
0.0
220
0.0
230
1.0
 70
     8
 71
     3
 72
    10
 73
     6
 74
     0
 42
0.000000001
 43
0.00000001
 40
0.0
 40
0.0
 40
0.0
 40
0.0
 40
0.4999999999999989
 40
0.4999999999999989
 40
1.0
 40
1.0
 40
1.0
 40
1.0
 10
49.46792627184984
 20
148.7043174843612
 30
0.0
 10
49.34303800109964
 20
148.5733212062898
 30
0.0
 10
49.22158788303919
 20
148.4296083696248
 30
0.0
 10
48.99200390808176
 20
148.1190380769355
 30
0.0
 10
48.88172893268577
 20
147.9509690038725
 30
0.0
 10
48.79447851355226
 20
147.7788983830194
 30
0.0
  0
SPLINE
  5
ED
330
1F
100
AcDbEntity
  8
0
  6
Continuous
 62
     7
370
    25
100
AcDbSpline
210
0.0
220
0.0
230
1.0
 70
     8
 71
     3
 72
     8
 73
     4
 74
     0
 42
0.000000001
 43
0.00000001
 40
0.0
 40
0.0
 40
0.0
 40
0.0
 40
1.0
 40
1.0
 40
1.0
 40
1.0
 10
49.71785138781561
 20
148.7018644511058
 30
0.0
 10
49.63083335796723
 20
148.7023310158929
 30
0.0
 10
49.54787933158727
 20
148.703371035469
 30
0.0
 10
49.46792627184752
 20
148.7043174843613
 30
0.0
  0
SPLINE
  5
EE
330
1F
100
AcDbEntity
  8
0
  6
Continuous
 62
     7
370
    25
100
AcDbSpline
210
0.0
220
0.0
230
1.0
 70
     8
 71
     3
 72
     8
 73
     4
 74
     0
 42
0.000000001
 43
0.00000001
 40
0.0
 40
0.0
 40
0.0
 40
0.0
 40
1.0
 40
1.0
 40
1.0
 40
1.0
 10
49.46792627184752
 20
84.20774708072116
 30
0.0
 10
49.54787933158729
 20
84.20869352961344
 30
0.0
 10
49.63083335796725
 20
84.20973354918956
 30
0.0
 10
49.71785138781562
 20
84.21020011397661
 30
0.0
  0
SPLINE
  5
EF
330
1F
100
AcDbEntity
  8
0
  6
Continuous
 62
     7
370
    25
100
AcDbSpline
210
0.0
220
0.0
230
1.0
 70
     8
 71
     3
 72
    10
 73
     6
 74
     0
 42
0.000000001
 43
0.00000001
 40
0.0
 40
0.0
 40
0.0
 40
0.0
 40
0.4999999999999989
 40
0.4999999999999989
 40
1.0
 40
1.0
 40
1.0
 40
1.0
 10
48.79447851355133
 20
85.13316618206484
 30
0.0
 10
48.8817289326848
 20
84.96109556121148
 30
0.0
 10
48.99200390808097
 20
84.79302648814804
 30
0.0
 10
49.22158788303879
 20
84.48245619545821
 30
0.0
 10
49.34303800109943
 20
84.33874335879295
 30
0.0
 10
49.46792627184984
 20
84.20774708072123
 30
0.0
  0
SPLINE
  5
F0
330
1F
100
AcDbEntity
  8
0
  6
Continuous
 62
     7
370
    25
100
AcDbSpline
210
0.0
220
0.0
230
1.0
 70
     8
 71
     3
 72
     8
 73
     4
 74
     0
 42
0.000000001
 43
0.00000001
 40
0.0
 40
0.0
 40
0.0
 40
0.0
 40
1.0
 40
1.0
 40
1.0
 40
1.0
 10
114.4558972509284
 20
155.4069950434282
 30
0.0
 10
114.912823604728
 20
154.3910770737539
 30
0.0
 10
115.364029246531
 20
153.3722812446627
 30
0.0
 10
115.8079262718498
 20
152.3514797886791
 30
0.0
  0
LINE
  5
F1
330
1F
100
AcDbEntity
  8
0
  6
Continuous
 62
     7
370
    25
100
AcDbLine
 10
115.807926648
 20
152.3514804606
 30
0.0
 11
115.807926648
 21
151.170269138
 31
0.0
  0
SPLINE
  5
F2
330
1F
100
AcDbEntity
  8
0
  6
Continuous
 62
     7
370
    25
100
AcDbSpline
210
0.0
220
0.0
230
1.0
 70
     8
 71
     3
 72
    14
 73
    10
 74
     0
 42
0.000000001
 43
0.00000001
 40
0.0
 40
0.0
 40
0.0
 40
0.0
 40
0.25
 40
0.25
 40
0.5
 40
0.5
 40
0.75
 40
0.75
 40
1.0
 40
1.0
 40
1.0
 40
1.0
 10
115.8079262718498
 20
151.1702674750383
 30
0.0
 10
115.8079262718498
 20
151.0464005982491
 30
0.0
 10
115.8237853994774
 20
150.9221409214116
 30
0.0
 10
115.8871470449973
 20
150.6845325590057
 30
0.0
 10
115.9357367530467
 20
150.5677521742532
 30
0.0
 10
116.0680223578215
 20
150.3589496456442
 30
0.0
 10
116.1533471490821
 20
150.2644389420516
 30
0.0
 10
116.3602383973883
 20
150.1264821412493
 30
0.0
 10
116.4842063432783
 20
150.0845636956137
 30
0.0
 10
116.6079262718498
 20
150.0845636956137
 30
0.0
  0
LINE
  5
F3
330
1F
100
AcDbEntity
  8
0
  6
Continuous
 62
     7
370
    25
100
AcDbLine
 10
116.6079271516
 20
150.0845630829
 30
0.0
 11
118.8279263607
 21
150.0845630829
 31
0.0
  0
SPLINE
  5
F4
330
1F
100
AcDbEntity
  8
0
  6
Continuous
 62
     7
370
    25
100
AcDbSpline
210
0.0
220
0.0
230
1.0
 70
     8
 71
     3
 72
    12
 73
     8
 74
     0
 42
0.000000001
 43
0.00000001
 40
0.0
 40
0.0
 40
0.0
 40
0.0
 40
0.250000000000002
 40
0.250000000000002
 40
0.500000000000004
 40
0.500000000000004
 40
1.0
 40
1.0
 40
1.0
 40
1.0
 10
118.8279262718519
 20
150.0845636956137
 30
0.0
 10
118.9516272218317
 20
150.0845636956142
 30
0.0
 10
119.0757238341016
 20
150.126557307347
 30
0.0
 10
119.282378997188
 20
150.2643526339916
 30
0.0
 10
119.3674197639146
 20
150.3583262324564
 30
0.0
 10
119.5668983323877
 20
150.6731144386772
 30
0.0
 10
119.6279262718498
 20
150.9233534309044
 30
0.0
 10
119.6279262718498
 20
151.1702674750383
 30
0.0
  0
LINE
  5
F5
330
1F
100
AcDbEntity
  8
0
  6
Continuous
 62
     7
370
    25
100
AcDbLine
 10
119.6279268643
 20
151.170269138
 30
0.0
 11
119.6279268643
 21
152.3514804606
 31
0.0
  0
SPLINE
  5
F6
330
1F
100
AcDbEntity
  8
0
  6
Continuous
 62
     7
370
    25
100
AcDbSpline
210
0.0
220
0.0
230
1.0
 70
     8
 71
     3
 72
     8
 73
     4
 74
     0
 42
0.000000001
 43
0.00000001
 40
0.0
 40
0.0
 40
0.0
 40
0.0
 40
1.0
 40
1.0
 40
1.0
 40
1.0
 10
119.6279262718498
 20
152.3514797886791
 30
0.0
 10
120.0720762828753
 20
153.3728630196307
 30
0.0
 10
120.5231505931333
 20
154.3913475563991
 30
0.0
 10
120.9799552927712
 20
155.4069950434282
 30
0.0
  0
LINE
  5
F7
330
1F
100
AcDbEntity
  8
0
  6
Continuous
 62
     7
370
    25
100
AcDbLine
 10
120.9799557856
 20
155.4069933657
 30
0.0
 11
125.6679262897
 21
155.4069933657
 31
0.0
  0
SPLINE
  5
F8
330
1F
100
AcDbEntity
  8
0
  6
Continuous
 62
     7
370
    25
100
AcDbSpline
210
0.0
220
0.0
230
1.0
 70
     8
 71
     3
 72
    16
 73
    12
 74
     0
 42
0.000000001
 43
0.00000001
 40
0.0
 40
0.0
 40
0.0
 40
0.0
 40
0.125
 40
0.125
 40
0.25
 40
0.25
 40
0.5
 40
0.5
 40
0.75
 40
0.75
 40
1.0
 40
1.0
 40
1.0
 40
1.0
 10
125.6679262718488
 20
155.4069950434282
 30
0.0
 10
125.7435639782601
 20
155.4069950434283
 30
0.0
 10
125.8198796426783
 20
155.3956500432934
 30
0.0
 10
125.9642903805704
 20
155.352997492655
 30
0.0
 10
126.0327368296789
 20
155.3220631679723
 30
0.0
 10
126.2276680822923
 20
155.2028067962047
 30
0.0
 10
126.3355092560733
 20
155.0926547825842
 30
0.0
 10
126.5042220042855
 20
154.844518696926
 30
0.0
 10
126.5665864170091
 20
154.7041763729223
 30
0.0
 10
126.6478903415176
 20
154.4159046814335
 30
0.0
 10
126.6679262718498
 20
154.2650997084536
 30
0.0
 10
126.6679262718498
 20
154.1147298171082
 30
0.0
  0
LINE
  5
F9
330
1F
100
AcDbEntity
  8
0
  6
Continuous
 62
     7
370
    25
100
AcDbLine
 10
126.6679264536
 20
154.1147311394
 30
0.0
 11
126.6679264536
 21
147.8060339753
 31
0.0
  0
SPLINE
  5
FA
330
1F
100
AcDbEntity
  8
0
  6
Continuous
 62
     7
370
    25
100
AcDbSpline
210
0.0
220
0.0
230
1.0
 70
     8
 71
     3
 72
     8
 73
     4
 74
     0
 42
0.000000001
 43
0.00000001
 40
0.0
 40
0.0
 40
0.0
 40
0.0
 40
1.0
 40
1.0
 40
1.0
 40
1.0
 10
120.9799552927712
 20
165.4458271382048
 30
0.0
 10
120.528928324058
 20
164.6485165680169
 30
0.0
 10
120.0782345075344
 20
163.8510182683598
 30
0.0
 10
119.6279262718498
 20
163.0533031432461
 30
0.0
  0
LINE
  5
FB
330
1F
100
AcDbEntity
  8
0
  6
Continuous
 62
     7
370
    25
100
AcDbLine
 10
120.9799557856
 20
155.4069933657
 30
0.0
 11
120.9799557856
 21
165.4458274309
 31
0.0
  0
LINE
  5
FC
330
1F
100
AcDbEntity
  8
0
  6
Continuous
 62
     7
370
    25
100
AcDbLine
 10
119.6279268643
 20
152.3514804606
 30
0.0
 11
119.6279268643
 21
163.0533044402
 31
0.0
  0
SPLINE
  5
FD
330
1F
100
AcDbEntity
  8
0
  6
Continuous
 62
     7
370
    25
100
AcDbSpline
210
0.0
220
0.0
230
1.0
 70
     8
 71
     3
 72
     8
 73
     4
 74
     0
 42
0.000000001
 43
0.00000001
 40
0.0
 40
0.0
 40
0.0
 40
0.0
 40
1.0
 40
1.0
 40
1.0
 40
1.0
 10
115.8079262718498
 20
163.0533031432461
 30
0.0
 10
115.3576180361653
 20
163.8510182683598
 30
0.0
 10
114.9069242196417
 20
164.6485165680169
 30
0.0
 10
114.4558972509284
 20
165.4458271382048
 30
0.0
  0
LINE
  5
FE
330
1F
100
AcDbEntity
  8
0
  6
Continuous
 62
     7
370
    25
100
AcDbLine
 10
115.807926648
 20
152.3514804606
 30
0.0
 11
115.807926648
 21
163.0533044402
 31
0.0
  0
LINE
  5
FF
330
1F
100
AcDbEntity
  8
0
  6
Continuous
 62
     7
370
    25
100
AcDbLine
 10
125.6679262897
 20
165.4458274309
 30
0.0
 11
120.9799557856
 21
165.4458274309
 31
0.0
  0
SPLINE
  5
100
330
1F
100
AcDbEntity
  8
0
  6
Continuous
 62
     7
370
    25
100
AcDbSpline
210
0.0
220
0.0
230
1.0
 70
     8
 71
     3
 72
    10
 73
     6
 74
     0
 42
0.000000001
 43
0.00000001
 40
0.0
 40
0.0
 40
0.0
 40
0.0
 40
0.5
 40
0.5
 40
1.0
 40
1.0
 40
1.0
 40
1.0
 10
116.6079262718498
 20
161.3303080427137
 30
0.0
 10
116.3953899579935
 20
161.3303080427137
 30
0.0
 10
116.1854537863395
 20
161.4217206293438
 30
0.0
 10
115.8917466453282
 20
161.7264654952481
 30
0.0
 10
115.8079262718498
 20
161.9386204651567
 30
0.0
 10
115.8079262718498
 20
162.1495835233892
 30
0.0
  0
SPLINE
  5
101
330
1F
100
AcDbEntity
  8
0
  6
Continuous
 62
     7
370
    25
100
AcDbSpline
210
0.0
220
0.0
230
1.0
 70
     8
 71
     3
 72
    14
 73
    10
 74
     0
 42
0.000000001
 43
0.00000001
 40
0.0
 40
0.0
 40
0.0
 40
0.0
 40
0.25
 40
0.25
 40
0.5
 40
0.5
 40
0.75
 40
0.75
 40
1.0
 40
1.0
 40
1.0
 40
1.0
 10
119.6279262718498
 20
162.1495835233892
 30
0.0
 10
119.6279262718498
 20
162.0432268296368
 30
0.0
 10
119.6075387157086
 20
161.9373863418767
 30
0.0
 10
119.528904370247
 20
161.7408214283402
 30
0.0
 10
119.4701730106084
 20
161.6496506860531
 30
0.0
 10
119.3235641050057
 20
161.4977395970215
 30
0.0
 10
119.2341587849792
 20
161.4356707602019
 30
0.0
 10
119.0402680523788
 20
161.3524027124433
 30
0.0
 10
118.9337630624889
 20
161.3303080427136
 30
0.0
 10
118.8279262718496
 20
161.3303080427137
 30
0.0
  0
SPLINE
  5
102
330
1F
100
AcDbEntity
  8
0
  6
Continuous
 62
     7
370
    25
100
AcDbSpline
210
0.0
220
0.0
230
1.0
 70
     8
 71
     3
 72
    12
 73
     8
 74
     0
 42
0.000000001
 43
0.00000001
 40
0.0
 40
0.0
 40
0.0
 40
0.0
 40
0.5
 40
0.5
 40
0.75
 40
0.75
 40
1.0
 40
1.0
 40
1.0
 40
1.0
 10
126.6679262718498
 20
164.4247721033871
 30
0.0
 10
126.6679262718498
 20
164.6900415361535
 30
0.0
 10
126.5633195283634
 20
164.9525566418059
 30
0.0
 10
126.2866511766181
 20
165.2380942478432
 30
0.0
 10
126.1762859172661
 20
165.3144158647046
 30
0.0
 10
125.9322138686503
 20
165.4187580295447
 30
0.0
 10
125.8004614073186
 20
165.4458271382048
 30
0.0
 10
125.6679262718498
 20
165.4458271382048
 30
0.0
  0
LINE
  5
103
330
1F
100
AcDbEntity
  8
0
  6
Continuous
 62
     7
370
    25
100
AcDbLine
 10
126.6679264536
 20
154.1147311394
 30
0.0
 11
126.6679264536
 21
164.4247737889
 31
0.0
  0
LINE
  5
104
330
1F
100
AcDbEntity
  8
0
  6
Continuous
 62
     7
370
    25
100
AcDbLine
 10
118.8279263607
 20
161.3303092484
 30
0.0
 11
116.6079271516
 21
161.3303092484
 31
0.0
  0
ARC
  5
105
330
1F
100
AcDbEntity
  8
0
  6
Continuous
 62
     7
370
    25
100
AcDbCircle
 10
106.7179921291
 20
148.9928090593
 30
0.0
 40
11.4784327803054
100
AcDbArc
 50
77.9404160311
 51
102.0780824974
  0
SPLINE
  5
106
330
1F
100
AcDbEntity
  8
0
  6
Continuous
 62
     7
370
    25
100
AcDbSpline
210
0.0
220
0.0
230
1.0
 70
    11
 71
     3
 72
    82
 73
    78
 74
     0
 42
0.000000001
 43
0.00000001
 40
0.0
 40
0.0
 40
0.0
 40
0.0
 40
0.0312500000000002
 40
0.0312500000000002
 40
0.0625000000000004
 40
0.0625000000000004
 40
0.0937500000000006
 40
0.0937500000000006
 40
0.1250000000000008
 40
0.1250000000000008
 40
0.156250000000001
 40
0.156250000000001
 40
0.1875000000000011
 40
0.1875000000000011
 40
0.2187500000000013
 40
0.2187500000000013
 40
0.2343750000000014
 40
0.2343750000000014
 40
0.2500000000000014
 40
0.2656250000000016
 40
0.2656250000000016
 40
0.2812500000000017
 40
0.2812500000000017
 40
0.3125000000000018
 40
0.3125000000000018
 40
0.3281250000000019
 40
0.3281250000000019
 40
0.343750000000002
 40
0.343750000000002
 40
0.3750000000000013
 40
0.3750000000000013
 40
0.4062500000000007
 40
0.4062500000000007
 40
0.4375000000000001
 40
0.4375000000000001
 40
0.4687499999999994
 40
0.4687499999999994
 40
0.4999999999999988
 40
0.4999999999999988
 40
0.5312499999999982
 40
0.5312499999999982
 40
0.5624999999999976
 40
0.5624999999999976
 40
0.5937499999999968
 40
0.5937499999999968
 40
0.6249999999999961
 40
0.6249999999999961
 40
0.6406249999999958
 40
0.6406249999999958
 40
0.6562499999999954
 40
0.6562499999999954
 40
0.6874999999999956
 40
0.6874999999999956
 40
0.7187499999999957
 40
0.7187499999999957
 40
0.7499999999999957
 40
0.7499999999999957
 40
0.7656249999999957
 40
0.7656249999999957
 40
0.7812499999999957
 40
0.7968749999999957
 40
0.7968749999999957
 40
0.8124999999999957
 40
0.8124999999999957
 40
0.8437499999999958
 40
0.8437499999999958
 40
0.8593749999999958
 40
0.8593749999999958
 40
0.8749999999999958
 40
0.8749999999999958
 40
0.9062499999999969
 40
0.9062499999999969
 40
0.9374999999999979
 40
0.9374999999999979
 40
0.968749999999999
 40
0.968749999999999
 40
1.0
 40
1.0
 40
1.0
 40
1.0
 10
185.4179262718498
 20
121.3105793675017
 30
0.0
 10
185.085764314373
 20
121.3105793675017
 30
0.0
 10
184.7586367006289
 20
121.2812174142051
 30
0.0
 10
184.1140911021912
 20
121.1657368324855
 30
0.0
 10
183.7942551447391
 20
121.0786814776059
 30
0.0
 10
183.1762587023477
 20
120.847573181332
 30
0.0
 10
182.8820713401019
 20
120.7055410028434
 30
0.0
 10
182.3232167174419
 20
120.3682025988481
 30
0.0
 10
182.0557999459384
 20
120.1701707028624
 30
0.0
 10
181.5701609461065
 20
119.7300271659477
 30
0.0
 10
181.3515002548692
 20
119.4887968617593
 30
0.0
 10
180.9636161947807
 20
118.9625635068794
 30
0.0
 10
180.7937010854054
 20
118.6745332808574
 30
0.0
 10
180.5221773609542
 20
118.0789835427281
 30
0.0
 10
180.418041750901
 20
117.7690166555963
 30
0.0
 10
180.3114662843158
 20
117.2848171975453
 30
0.0
 10
180.2844216482918
 20
117.1201106236197
 30
0.0
 10
180.2485909964584
 20
116.7926297048072
 30
0.0
 10
180.2304772321036
 20
116.4649684266134
 30
0.0
 10
180.247329442745
 20
116.1369509949894
 30
0.0
 10
180.2819940996684
 20
115.8087522241006
 30
0.0
 10
180.3084832758611
 20
115.6437692693921
 30
0.0
 10
180.4131351414026
 20
115.1598375648894
 30
0.0
 10
180.5161965784175
 20
114.8487895958641
 30
0.0
 10
180.7195097775076
 20
114.3990509701482
 30
0.0
 10
180.7959683354092
 20
114.2511999051857
 30
0.0
 10
180.9624093590522
 20
113.9667843018385
 30
0.0
 10
181.0524496416933
 20
113.829837613613
 30
0.0
 10
181.34230206927
 20
113.4341447128024
 30
0.0
 10
181.5632903473467
 20
113.1889654103199
 30
0.0
 10
182.0511401763639
 20
112.7454323992886
 30
0.0
 10
182.3135899335354
 20
112.5504604276498
 30
0.0
 10
182.8736672039419
 20
112.2108339419471
 30
0.0
 10
183.1740951991669
 20
112.0655694274092
 30
0.0
 10
183.7887135093429
 20
111.8351898370985
 30
0.0
 10
184.1046156341192
 20
111.7484798178277
 30
0.0
 10
184.753504461538
 20
111.6313223826173
 30
0.0
 10
185.085770052815
 20
111.6017347067234
 30
0.0
 10
185.7416414374334
 20
111.6012388791478
 30
0.0
 10
186.0684806798884
 20
111.6296120031003
 30
0.0
 10
186.7198920852864
 20
111.7456682399348
 30
0.0
 10
187.0391223477336
 20
111.8328281330345
 30
0.0
 10
187.651424685683
 20
112.0610721789961
 30
0.0
 10
187.9466967298264
 20
112.2025031579875
 30
0.0
 10
188.5138542028023
 20
112.5443440841637
 30
0.0
 10
188.7762903111311
 20
112.7390761836146
 30
0.0
 10
189.1387468599534
 20
113.0666979792274
 30
0.0
 10
189.2543300208158
 20
113.1818668588765
 30
0.0
 10
189.4746521127504
 20
113.4246215692535
 30
0.0
 10
189.579975426856
 20
113.5530544057745
 30
0.0
 10
189.8731728480832
 20
113.9506581018403
 30
0.0
 10
190.0390274509497
 20
114.2318074891633
 30
0.0
 10
190.3112691762335
 20
114.8266982204354
 30
0.0
 10
190.4180979658533
 20
115.1445042632281
 30
0.0
 10
190.5594271497836
 20
115.7862956051032
 30
0.0
 10
190.5956792805287
 20
116.1120851998627
 30
0.0
 10
190.5970957540593
 20
116.608317896164
 30
0.0
 10
190.5885118449924
 20
116.7752152253303
 30
0.0
 10
190.5538721882071
 20
117.1031818965005
 30
0.0
 10
190.5018574247898
 20
117.4274435758964
 30
0.0
 10
190.4157853465967
 20
117.7444542866958
 30
0.0
 10
190.3124896376549
 20
118.057807365062
 30
0.0
 10
190.2518859237828
 20
118.2132046451024
 30
0.0
 10
190.048292712563
 20
118.6635054291705
 30
0.0
 10
189.8829453424941
 20
118.9459250680729
 30
0.0
 10
189.5918477328375
 20
119.3439313617245
 30
0.0
 10
189.4869854868483
 20
119.4728836800623
 30
0.0
 10
189.2666977031695
 20
119.7174381692044
 30
0.0
 10
189.1510801475467
 20
119.8334527323919
 30
0.0
 10
188.7883875899633
 20
120.1634748498
 30
0.0
 10
188.5242539435538
 20
120.3604359199233
 30
0.0
 10
187.9592883825873
 20
120.7029479407696
 30
0.0
 10
187.6642989105037
 20
120.845334538772
 30
0.0
 10
187.0505657785809
 20
121.0757961916829
 30
0.0
 10
186.7289098532804
 20
121.1641792476673
 30
0.0
 10
186.0789929080108
 20
121.2811720825332
 30
0.0
 10
185.7500882293266
 20
121.3105793675017
 30
0.0
 10
185.4179262718498
 20
121.3105793675017
 30
0.0
  0
SPLINE
  5
107
330
1F
100
AcDbEntity
  8
0
  6
Continuous
 62
     7
370
    25
100
AcDbSpline
210
0.0
220
0.0
230
1.0
 70
    11
 71
     3
 72
    68
 73
    64
 74
     0
 42
0.000000001
 43
0.00000001
 40
0.0
 40
0.0
 40
0.0
 40
0.0
 40
0.0312499999999996
 40
0.0312499999999996
 40
0.0624999999999992
 40
0.0624999999999992
 40
0.0937499999999989
 40
0.0937499999999989
 40
0.1249999999999985
 40
0.1249999999999985
 40
0.1562499999999981
 40
0.1562499999999981
 40
0.1874999999999977
 40
0.1874999999999977
 40
0.2187499999999973
 40
0.2187499999999973
 40
0.2499999999999969
 40
0.2499999999999969
 40
0.2812499999999966
 40
0.2812499999999966
 40
0.3124999999999962
 40
0.3124999999999962
 40
0.3437499999999958
 40
0.3437499999999958
 40
0.3749999999999954
 40
0.3749999999999954
 40
0.4062499999999951
 40
0.4062499999999951
 40
0.4374999999999947
 40
0.4374999999999947
 40
0.4687499999999943
 40
0.4687499999999943
 40
0.4999999999999939
 40
0.4999999999999939
 40
0.5312499999999936
 40
0.5312499999999936
 40
0.5624999999999931
 40
0.5624999999999931
 40
0.6249999999999925
 40
0.6249999999999925
 40
0.6562499999999931
 40
0.6562499999999931
 40
0.6874999999999937
 40
0.6874999999999937
 40
0.7187499999999943
 40
0.7187499999999943
 40
0.7499999999999949
 40
0.7499999999999949
 40
0.7812499999999956
 40
0.7812499999999956
 40
0.8124999999999962
 40
0.8124999999999962
 40
0.8437499999999968
 40
0.8437499999999968
 40
0.8749999999999974
 40
0.8749999999999974
 40
0.906249999999998
 40
0.906249999999998
 40
0.9374999999999987
 40
0.9374999999999987
 40
0.9687499999999992
 40
0.9687499999999992
 40
1.0
 40
1.0
 40
1.0
 40
1.0
 10
163.9758342995584
 20
134.7832682304085
 30
0.0
 10
164.1246018218509
 20
134.8875284600763
 30
0.0
 10
164.2868096841399
 20
134.9792960477203
 30
0.0
 10
164.6355019586135
 20
135.1413940309675
 30
0.0
 10
164.8237735521024
 20
135.212185039424
 30
0.0
 10
165.2162214177828
 20
135.3304570617297
 30
0.0
 10
165.418849926571
 20
135.3777594403015
 30
0.0
 10
165.836368331745
 20
135.45048528868
 30
0.0
 10
166.0531103664745
 20
135.4758966625682
 30
0.0
 10
166.4850696219153
 20
135.5034844171178
 30
0.0
 10
166.7013444498234
 20
135.5060365054878
 30
0.0
 10
167.1344826211646
 20
135.488775010314
 30
0.0
 10
167.3527880556125
 20
135.4685790867071
 30
0.0
 10
167.774251988145
 20
135.406250707661
 30
0.0
 10
167.9791594237299
 20
135.3642033503096
 30
0.0
 10
168.3770047314376
 20
135.2570224452406
 30
0.0
 10
168.571084348132
 20
135.1911574499756
 30
0.0
 10
168.9306594226342
 20
135.039294629575
 30
0.0
 10
169.0981302926445
 20
134.9529684954962
 30
0.0
 10
169.4068411579274
 20
134.7569951492763
 30
0.0
 10
169.5483434546425
 20
134.6464303880939
 30
0.0
 10
169.7886167168982
 20
134.4097708333911
 30
0.0
 10
169.8895034966439
 20
134.2826222983234
 30
0.0
 10
170.0491730329165
 20
134.0080482647855
 30
0.0
 10
170.1062163882287
 20
133.8622721933019
 30
0.0
 10
170.1694255980699
 20
133.5648491092023
 30
0.0
 10
170.1763282968319
 20
133.4095929096956
 30
0.0
 10
170.1384240055813
 20
133.0987214152059
 30
0.0
 10
170.0945521360084
 20
132.9449239265521
 30
0.0
 10
169.9586439140193
 20
132.6409123216521
 30
0.0
 10
169.8666151367179
 20
132.4921234909057
 30
0.0
 10
169.644624893299
 20
132.2123143879508
 30
0.0
 10
169.5122690943103
 20
132.0783123102807
 30
0.0
 10
169.2174253358286
 20
131.8328971380773
 30
0.0
 10
169.0555208183864
 20
131.72134129734
 30
0.0
 10
168.7043394124346
 20
131.5202633237015
 30
0.0
 10
168.5156811232285
 20
131.4315114495833
 30
0.0
 10
167.9304629065718
 20
131.2079847728988
 30
0.0
 10
167.5023309204489
 20
131.1118401751574
 30
0.0
 10
166.8560220923682
 20
131.0574582548039
 30
0.0
 10
166.6372894401617
 20
131.0537946035413
 30
0.0
 10
166.200602397343
 20
131.076385650102
 30
0.0
 10
165.9862703265721
 20
131.1022833375502
 30
0.0
 10
165.5654544369788
 20
131.1823765331497
 30
0.0
 10
165.357560766466
 20
131.2370587985438
 30
0.0
 10
164.9566725071532
 20
131.3742605608978
 30
0.0
 10
164.7666217786258
 20
131.4555250269582
 30
0.0
 10
164.4074620622612
 20
131.6427632645592
 30
0.0
 10
164.2368453472521
 20
131.7498828799407
 30
0.0
 10
163.9263579381767
 20
131.9855443219256
 30
0.0
 10
163.7883178433071
 20
132.1122421121936
 30
0.0
 10
163.5478858812618
 20
132.3830072900319
 30
0.0
 10
163.4444643059709
 20
132.5292970458573
 30
0.0
 10
163.285743731563
 20
132.8280768627596
 30
0.0
 10
163.2296784431373
 20
132.9803163949013
 30
0.0
 10
163.1661522217843
 20
133.2902018304015
 30
0.0
 10
163.1596715219208
 20
133.4475948093617
 30
0.0
 10
163.1976802132739
 20
133.7501930316464
 30
0.0
 10
163.2423614457029
 20
133.8992513069369
 30
0.0
 10
163.3792607051088
 20
134.1820949720825
 30
0.0
 10
163.4701172246901
 20
134.3145333521168
 30
0.0
 10
163.6940296678193
 20
134.5633439424703
 30
0.0
 10
163.8270667772659
 20
134.6790080007407
 30
0.0
 10
163.9758342995584
 20
134.7832682304085
 30
0.0
  0
SPLINE
  5
108
330
1F
100
AcDbEntity
  8
0
  6
Continuous
 62
     7
370
    25
100
AcDbSpline
210
0.0
220
0.0
230
1.0
 70
    11
 71
     3
 72
    70
 73
    66
 74
     0
 42
0.000000001
 43
0.00000001
 40
0.0
 40
0.0
 40
0.0
 40
0.0
 40
0.03125
 40
0.03125
 40
0.0625
 40
0.0625
 40
0.09375
 40
0.09375
 40
0.125
 40
0.125
 40
0.15625
 40
0.15625
 40
0.1875
 40
0.1875
 40
0.21875
 40
0.21875
 40
0.25
 40
0.25
 40
0.28125
 40
0.28125
 40
0.3125
 40
0.3125
 40
0.34375
 40
0.34375
 40
0.375
 40
0.375
 40
0.40625
 40
0.40625
 40
0.4375
 40
0.4375
 40
0.46875
 40
0.46875
 40
0.5
 40
0.5
 40
0.53125
 40
0.53125
 40
0.5625
 40
0.5625
 40
0.59375
 40
0.59375
 40
0.625
 40
0.625
 40
0.65625
 40
0.65625
 40
0.6875
 40
0.6875
 40
0.71875
 40
0.71875
 40
0.75
 40
0.75
 40
0.78125
 40
0.78125
 40
0.8125
 40
0.8125
 40
0.84375
 40
0.84375
 40
0.875
 40
0.875
 40
0.90625
 40
0.90625
 40
0.9375
 40
0.9375
 40
0.96875
 40
0.96875
 40
1.0
 40
1.0
 40
1.0
 40
1.0
 10
163.1795250683751
 20
99.66630551278082
 30
0.0
 10
163.1995213315875
 20
99.82275705582886
 30
0.0
 10
163.2445931773864
 20
99.97650843739015
 30
0.0
 10
163.3814681485288
 20
100.2785637122056
 30
0.0
 10
163.4745771545223
 20
100.4278069270537
 30
0.0
 10
163.6979598698704
 20
100.7070372397868
 30
0.0
 10
163.8292651371643
 20
100.8391939848925
 30
0.0
 10
164.1264668776138
 20
101.0851130247795
 30
0.0
 10
164.2888772398029
 20
101.1961814527512
 30
0.0
 10
164.6390681922255
 20
101.3955352267717
 30
0.0
 10
164.8285317505578
 20
101.4842335992046
 30
0.0
 10
165.2196422258864
 20
101.6326229740632
 30
0.0
 10
165.4222960440636
 20
101.6931470024489
 30
0.0
 10
165.8415138537533
 20
101.786791360181
 30
0.0
 10
166.0577672602604
 20
101.8194839848409
 30
0.0
 10
166.4886005939359
 20
101.8549369117587
 30
0.0
 10
166.7051157994349
 20
101.8581929103042
 30
0.0
 10
167.140387774879
 20
101.8351440625252
 30
0.0
 10
167.3573290629708
 20
101.8086558917767
 30
0.0
 10
167.7776050820404
 20
101.7279545881715
 30
0.0
 10
167.9827804503596
 20
101.6736842652059
 30
0.0
 10
168.382674658431
 20
101.5363889388531
 30
0.0
 10
168.5750607947277
 20
101.4538563344056
 30
0.0
 10
168.9334010117002
 20
101.2663221388455
 30
0.0
 10
169.1011265850297
 20
101.1607676445044
 30
0.0
 10
169.4114888952689
 20
100.92480938696
 30
0.0
 10
169.551033969008
 20
100.7963493914278
 30
0.0
 10
169.7903469418956
 20
100.5258973995278
 30
0.0
 10
169.8917371758698
 20
100.3824603297401
 30
0.0
 10
170.0515151710417
 20
100.0809868157661
 30
0.0
 10
170.107102479955
 20
99.92846186425646
 30
0.0
 10
170.1697470720318
 20
99.62037287860802
 30
0.0
 10
170.1761861298245
 20
99.46277869171558
 30
0.0
 10
170.1376772367238
 20
99.15968398054123
 30
0.0
 10
170.093639021849
 20
99.01301153173003
 30
0.0
 10
169.9560504186643
 20
98.72895863592385
 30
0.0
 10
169.864673172068
 20
98.59624956978449
 30
0.0
 10
169.6418062022263
 20
98.34880397689844
 30
0.0
 10
169.5087417274983
 20
98.2331717176842
 30
0.0
 10
169.2142458586381
 20
98.02649061472074
 30
0.0
 10
169.0520025273488
 20
97.93417890365059
 30
0.0
 10
168.6984639867835
 20
97.76975909455285
 30
0.0
 10
168.5116680645083
 20
97.6997825251539
 30
0.0
 10
168.1211821883421
 20
97.58204818471988
 30
0.0
 10
167.915331399148
 20
97.53390460479585
 30
0.0
 10
167.495498539551
 20
97.46099592997098
 30
0.0
 10
167.2825778291624
 20
97.43615665957309
 30
0.0
 10
166.8509046953843
 20
97.40858867189439
 30
0.0
 10
166.6301082898973
 20
97.4060347012478
 30
0.0
 10
166.195966567571
 20
97.42367744286969
 30
0.0
 10
165.9820097284862
 20
97.44359807495019
 30
0.0
 10
165.5603384881078
 20
97.50604412486314
 30
0.0
 10
165.3507277708842
 20
97.54919932974371
 30
0.0
 10
164.9525719092513
 20
97.65701023487205
 30
0.0
 10
164.7629058592202
 20
97.72157716713664
 30
0.0
 10
164.4030551611245
 20
97.87379066911281
 30
0.0
 10
164.231355086773
 20
97.96262588670598
 30
0.0
 10
163.9234279160033
 20
98.15914624336503
 30
0.0
 10
163.785672714972
 20
98.26711375789934
 30
0.0
 10
163.5448351002043
 20
98.50499336223947
 30
0.0
 10
163.4417242034356
 20
98.63609937283115
 30
0.0
 10
163.2845160137518
 20
98.90908964177721
 30
0.0
 10
163.2285293201853
 20
99.05238955598232
 30
0.0
 10
163.1654946958001
 20
99.35429803214164
 30
0.0
 10
163.1595288051628
 20
99.50985396973279
 30
0.0
 10
163.1795250683751
 20
99.66630551278082
 30
0.0
  0
LINE
  5
109
330
1F
100
AcDbEntity
  8
0
  6
Continuous
 62
     7
370
    25
100
AcDbLine
 10
197.717927762
 20
93.2560325776
 30
0.0
 11
197.717927762
 21
139.6560319875
 31
0.0
  0
LWPOLYLINE
  5
10A
330
1F
100
AcDbEntity
  8
0
  6
Continuous
 62
     7
370
    25
100
AcDbPolyline
 90
       21
 70
   128
 43
0.0
 10
166.6679236969
 20
131.2505793933
 10
167.4404669484
 20
131.3371001918
 10
168.1373868069
 20
131.5881931399
 10
168.6904657564
 20
131.9792797033
 10
169.0455678782
 20
132.4720760052
 10
169.1679287633
 20
133.0183469866
 10
169.0455678782
 20
133.5646161054
 10
168.6904657564
 20
134.0574142699
 10
168.1373868069
 20
134.4485008333
 10
167.4404669484
 20
134.69959285
 10
166.6679236969
 20
134.7861145799
 10
165.8953804454
 20
134.69959285
 10
165.198460587
 20
134.4485008333
 10
164.6453816375
 20
134.0574142699
 10
164.2902869663
 20
133.5646161054
 10
164.1679260811
 20
133.0183469866
 10
164.2902869663
 20
132.4720760052
 10
164.6453816375
 20
131.9792797033
 10
165.198460587
 20
131.5881931399
 10
165.8953804454
 20
131.3371001918
 10
166.6679236969
 20
131.2505793933
  0
LWPOLYLINE
  5
10B
330
1F
100
AcDbEntity
  8
0
  6
Continuous
 62
     7
370
    25
100
AcDbPolyline
 90
       21
 70
   128
 43
0.0
 10
166.6679236969
 20
98.1259499852
 10
167.4404669484
 20
98.212471715
 10
168.1373868069
 20
98.4635637317
 10
168.6904657564
 20
98.8546502952
 10
169.0455678782
 20
99.3474484597
 10
169.1679287633
 20
99.8937175785
 10
169.0455678782
 20
100.4399885599
 10
168.6904657564
 20
100.9327848618
 10
168.1373868069
 20
101.3238714252
 10
167.4404669484
 20
101.5749643732
 10
166.6679236969
 20
101.6614851717
 10
165.8953804454
 20
101.5749643732
 10
165.198460587
 20
101.3238714252
 10
164.6453816375
 20
100.9327848618
 10
164.2902869663
 20
100.4399885599
 10
164.1679260811
 20
99.8937175785
 10
164.2902869663
 20
99.3474484597
 10
164.6453816375
 20
98.8546502952
 10
165.198460587
 20
98.4635637317
 10
165.8953804454
 20
98.212471715
 10
166.6679236969
 20
98.1259499852
  0
LINE
  5
10C
330
1F
100
AcDbEntity
  8
0
  6
Continuous
 62
     7
370
    25
100
AcDbLine
 10
49.467925348
 20
84.2060339813
 30
0.0
 11
49.467925348
 21
84.2077476148
 31
0.0
  0
LINE
  5
10D
330
1F
100
AcDbEntity
  8
0
  6
Continuous
 62
     7
370
    25
100
AcDbLine
 10
49.467925348
 20
148.7060305838
 30
0.0
 11
49.467925348
 21
148.7043169503
 31
0.0
  0
LINE
  5
10E
330
1F
100
AcDbEntity
  8
0
  6
Continuous
 62
     7
370
    25
100
AcDbLine
 10
216.7179290137
 20
106.2560319145
 30
0.0
 11
216.7179290137
 21
126.6560326506
 31
0.0
  0
LINE
  5
10F
330
1F
100
AcDbEntity
  8
0
  6
Continuous
 62
     7
370
    25
100
AcDbLine
 10
200.2179253778
 20
105.4560323421
 30
0.0
 11
200.2179253778
 21
127.4560322229
 31
0.0
  0
LINE
  5
110
330
1F
100
AcDbEntity
  8
0
  6
HIDDEN
 62
     7
370
    18
100
AcDbLine
 10
231.7179296097
 20
113.2060322155
 30
0.0
 11
231.7179296097
 21
122.9560324167
 31
0.0
  0
LINE
  5
111
330
1F
100
AcDbEntity
  8
0
  6
HIDDEN
 62
     7
370
    18
100
AcDbLine
 10
231.7179296097
 20
109.9560321484
 30
0.0
 11
231.7179296097
 21
113.2060322155
 31
0.0
  0
LINE
  5
112
330
1F
100
AcDbEntity
  8
0
  6
HIDDEN
 62
     7
370
    18
100
AcDbLine
 10
221.7179242453
 20
112.4560320926
 30
0.0
 11
221.7179242453
 21
124.4560326625
 31
0.0
  0
LINE
  5
113
330
1F
100
AcDbEntity
  8
0
  6
HIDDEN
 62
     7
370
    18
100
AcDbLine
 10
221.7179242453
 20
108.4560319026
 30
0.0
 11
221.7179242453
 21
112.4560320926
 31
0.0
  0
LINE
  5
114
330
1F
100
AcDbEntity
  8
0
  6
HIDDEN
 62
     7
370
    18
100
AcDbLine
 10
221.7179242453
 20
121.8560324226
 30
0.0
 11
221.7179242453
 21
111.0560321425
 31
0.0
  0
LINE
  5
115
330
1F
100
AcDbEntity
  8
0
  6
HIDDEN
 62
     7
370
    18
100
AcDbLine
 10
204.545922943
 20
111.4560323943
 30
0.0
 11
204.545922943
 21
121.4560321708
 31
0.0
  0
LINE
  5
116
330
1F
100
AcDbEntity
  8
0
  6
HIDDEN
 62
     7
370
    18
100
AcDbLine
 10
203.7179250202
 20
112.2840321798
 30
0.0
 11
203.7179250202
 21
120.6280323852
 31
0.0
  0
LINE
  5
117
330
1F
100
AcDbEntity
  8
0
  6
HIDDEN
 62
     7
370
    18
100
AcDbLine
 10
231.7179296097
 20
112.3985322368
 30
0.0
 11
231.7179296097
 21
116.4560322825
 31
0.0
  0
LINE
  5
118
330
1F
100
AcDbEntity
  8
0
  6
HIDDEN
 62
     7
370
    18
100
AcDbLine
 10
226.7179194769
 20
112.3985322368
 30
0.0
 11
226.7179194769
 21
114.4272822597
 31
0.0
  0
LINE
  5
119
330
1F
100
AcDbEntity
  8
0
  6
HIDDEN
 62
     7
370
    18
100
AcDbLine
 10
226.7179194769
 20
114.4272822597
 30
0.0
 11
226.7179194769
 21
112.3985322368
 31
0.0
  0
LINE
  5
11A
330
1F
100
AcDbEntity
  8
0
  6
HIDDEN
 62
     7
370
    18
100
AcDbLine
 10
226.7179194769
 20
118.4847823054
 30
0.0
 11
226.7179194769
 21
114.4272822597
 31
0.0
  0
LINE
  5
11B
330
1F
100
AcDbEntity
  8
0
  6
HIDDEN
 62
     7
370
    18
100
AcDbLine
 10
226.7179194769
 20
120.5135323283
 30
0.0
 11
226.7179194769
 21
118.4847823054
 31
0.0
  0
LINE
  5
11C
330
1F
100
AcDbEntity
  8
0
  6
HIDDEN
 62
     7
370
    18
100
AcDbLine
 10
226.7179194769
 20
118.4847823054
 30
0.0
 11
226.7179194769
 21
120.5135323283
 31
0.0
  0
LINE
  5
11D
330
1F
100
AcDbEntity
  8
0
  6
HIDDEN
 62
     7
370
    18
100
AcDbLine
 10
226.7179194769
 20
114.4272822597
 30
0.0
 11
226.7179194769
 21
118.4847823054
 31
0.0
  0
LINE
  5
11E
330
1F
100
AcDbEntity
  8
0
  6
HIDDEN
 62
     7
370
    18
100
AcDbLine
 10
226.7179194769
 20
114.4272822597
 30
0.0
 11
226.7179194769
 21
116.4560322825
 31
0.0
  0
LINE
  5
11F
330
1F
100
AcDbEntity
  8
0
  6
HIDDEN
 62
     7
370
    18
100
AcDbLine
 10
226.7179194769
 20
118.4847823054
 30
0.0
 11
226.7179194769
 21
116.4560322825
 31
0.0
  0
LINE
  5
120
330
1F
100
AcDbEntity
  8
0
  6
HIDDEN
 62
     7
370
    18
100
AcDbLine
 10
226.7179194769
 20
116.4560322825
 30
0.0
 11
231.7179296097
 21
116.4560322825
 31
0.0
  0
LINE
  5
121
330
1F
100
AcDbEntity
  8
0
  6
HIDDEN
 62
     7
370
    18
100
AcDbLine
 10
231.7179296097
 20
120.5135323283
 30
0.0
 11
231.7179296097
 21
116.4560322825
 31
0.0
  0
LINE
  5
122
330
1F
100
AcDbEntity
  8
0
  6
HIDDEN
 62
     7
370
    18
100
AcDbLine
 10
226.7179194769
 20
112.3985322368
 30
0.0
 11
226.7179194769
 21
114.4272822597
 31
0.0
  0
LINE
  5
123
330
1F
100
AcDbEntity
  8
0
  6
HIDDEN
 62
     7
370
    18
100
AcDbLine
 10
226.7179194769
 20
120.5135323283
 30
0.0
 11
226.7179194769
 21
118.4847823054
 31
0.0
  0
LINE
  5
124
330
1F
100
AcDbEntity
  8
0
  6
HIDDEN
 62
     7
370
    18
100
AcDbLine
 10
226.7179194769
 20
112.3985322368
 30
0.0
 11
231.7179296097
 21
112.3985322368
 31
0.0
  0
LINE
  5
125
330
1F
100
AcDbEntity
  8
0
  6
HIDDEN
 62
     7
370
    18
100
AcDbLine
 10
226.7179194769
 20
120.5135323283
 30
0.0
 11
231.7179296097
 21
120.5135323283
 31
0.0
  0
LINE
  5
126
330
1F
100
AcDbEntity
  8
0
  6
HIDDEN
 62
     7
370
    18
100
AcDbLine
 10
216.7179290137
 20
121.4560321708
 30
0.0
 11
204.545922943
 21
121.4560321708
 31
0.0
  0
LINE
  5
127
330
1F
100
AcDbEntity
  8
0
  6
HIDDEN
 62
     7
370
    18
100
AcDbLine
 10
204.545922943
 20
111.4560323943
 30
0.0
 11
216.7179290137
 21
111.4560323943
 31
0.0
  0
LINE
  5
128
330
1F
100
AcDbEntity
  8
0
  6
HIDDEN
 62
     7
370
    18
100
AcDbLine
 10
204.545922943
 20
121.4560321708
 30
0.0
 11
203.7179250202
 21
120.6280323852
 31
0.0
  0
LINE
  5
129
330
1F
100
AcDbEntity
  8
0
  6
HIDDEN
 62
     7
370
    18
100
AcDbLine
 10
203.7179250202
 20
112.2840321798
 30
0.0
 11
204.545922943
 21
111.4560323943
 31
0.0
  0
LINE
  5
12A
330
1F
100
AcDbEntity
  8
0
  6
HIDDEN
 62
     7
370
    18
100
AcDbLine
 10
226.7179194769
 20
120.5135323283
 30
0.0
 11
224.3753228268
 21
116.4560322825
 31
0.0
  0
LINE
  5
12B
330
1F
100
AcDbEntity
  8
0
  6
HIDDEN
 62
     7
370
    18
100
AcDbLine
 10
224.3753228268
 20
116.4560322825
 30
0.0
 11
226.7179194769
 21
112.3985322368
 31
0.0
  0
DIMENSION
  5
12C
330
1F
100
AcDbEntity
  8
VERMASSUNG
100
AcDbDimension
  2
_D
 10
253.7179262718
 20
105.4560322825
 30
0.0
 11
253.7179262718
 21
116.4560322825
 31
0.0
 70
   160
  1
%%c<>
 71
     2
 42
-1.0
  3
SLDDIMSTYLE0
100
AcDbAlignedDimension
 13
215.9179262718
 23
127.4560322825
 33
0.0
 14
215.9179262718
 24
105.4560322825
 34
0.0
 50
90.0
100
AcDbRotatedDimension
  0
DIMENSION
  5
138
330
1F
100
AcDbEntity
  8
VERMASSUNG
100
AcDbDimension
  2
_D_1
 10
264.3121181794
 20
92.4560322825
 30
0.0
 11
264.3121181794
 21
116.4560322825
 31
0.0
 70
   160
  1
%%c<>
 71
     2
 42
-1.0
  3
SLDDIMSTYLE0
100
AcDbAlignedDimension
 13
196.9179262718
 23
140.4560322825
 33
0.0
 14
196.9179262718
 24
92.4560322825
 34
0.0
 50
90.0
100
AcDbRotatedDimension
  0
DIMENSION
  5
143
330
1F
100
AcDbEntity
  8
VERMASSUNG
100
AcDbDimension
  2
_D_2
 10
35.4392827598
 20
166.4560322825
 30
0.0
 11
35.4392827598
 21
116.4560322825
 31
0.0
 70
   160
  1
HSK A %%c<>
 71
     2
 42
-1.0
  3
SLDDIMSTYLE0
100
AcDbAlignedDimension
 13
98.2179262718
 23
66.4560322825
 33
0.0
 14
98.2179262718
 24
166.4560322825
 34
0.0
 50
90.0
100
AcDbRotatedDimension
  0
DIMENSION
  5
14F
330
1F
100
AcDbEntity
  8
VERMASSUNG
100
AcDbDimension
  2
_D_3
 10
197.7179262718
 20
174.3423844466
 30
0.0
 11
162.1929262718
 21
174.3423844466
 31
0.0
 70
   160
  1
<>
 71
     2
 42
-1.0
  3
SLDDIMSTYLE0
100
AcDbAlignedDimension
 13
126.6679262718
 23
164.4247721034
 33
0.0
 14
197.7179262718
 24
139.6560322825
 34
0.0
100
AcDbRotatedDimension
  0
DIMENSION
  5
159
330
1F
100
AcDbEntity
  8
VERMASSUNG
100
AcDbDimension
  2
_D_4
 10
197.7179262718
 20
182.4560322825
 30
0.0
 11
147.7179262718
 21
182.4560322825
 31
0.0
 70
   160
  1
<>
 71
     2
 42
-1.0
  3
SLDDIMSTYLE0
100
AcDbAlignedDimension
 13
97.7179262718
 23
165.9560322825
 33
0.0
 14
197.7179262718
 24
139.6560322825
 34
0.0
100
AcDbRotatedDimension
  0
DIMENSION
  5
163
330
1F
100
AcDbEntity
  8
VERMASSUNG
100
AcDbDimension
  2
_D_5
 10
216.7179262718
 20
191.0719337649
 30
0.0
 11
132.2679262718
 21
191.0719337649
 31
0.0
 70
   160
  1
(<>)
 71
     2
 42
-1.0
  3
SLDDIMSTYLE0
100
AcDbAlignedDimension
 13
47.8179262718
 23
146.9587020251
 33
0.0
 14
216.7179262718
 24
126.6560322825
 34
0.0
100
AcDbRotatedDimension
  0
DIMENSION
  5
16F
330
1F
100
AcDbEntity
  8
VERMASSUNG
100
AcDbDimension
  2
_D_6
 10
216.7179262718
 20
174.3423844466
 30
0.0
 11
207.2179262718
 21
174.3423844466
 31
0.0
 70
   160
  1
<>
 71
     2
 42
-1.0
  3
SLDDIMSTYLE0
100
AcDbAlignedDimension
 13
197.7179262718
 23
139.6560322825
 33
0.0
 14
216.7179262718
 24
123.8512748797
 34
0.0
100
AcDbRotatedDimension
  0
DIMENSION
  5
179
330
1F
100
AcDbEntity
  8
VERMASSUNG
100
AcDbDimension
  2
_D_7
 10
244.143228379
 20
112.3985322825
 30
0.0
 11
244.143228379
 21
116.4560322825
 31
0.0
 70
   160
  1
SW<>
 71
     2
 42
-1.0
  3
SLDDIMSTYLE1
100
AcDbAlignedDimension
 13
231.7179262718
 23
120.5135322825
 33
0.0
 14
231.7179262718
 24
112.3985322825
 34
0.0
 50
90.0
100
AcDbRotatedDimension
  0
LINE
  5
185
330
1F
100
AcDbEntity
  8
VERMASSUNG
  6
CENTERX2
370
    18
100
AcDbLine
 10
235.7160860868
 20
116.4560322825
 30
0.0
 11
41.6041594813
 21
116.4560322825
 31
0.0
  0
SPLINE
  5
186
330
1F
100
AcDbEntity
  8
0
  6
Continuous
 62
     7
370
    25
100
AcDbSpline
210
0.0
220
0.0
230
1.0
 70
     8
 71
     3
 72
    15
 73
    11
 74
     0
 42
0.000000001
 43
0.00000001
 40
0.0
 40
0.0
 40
0.0
 40
0.0
 40
0.0302070642476222
 40
0.1911058127015073
 40
0.3525166384711522
 40
0.5150580131059405
 40
0.6792914864157273
 40
0.843720610005101
 40
0.9853893623187671
 40
1.0
 40
1.0
 40
1.0
 40
1.0
 10
263.2057842396464
 20
32.1265185673601
 30
0.0
 10
263.2280616568252
 20
32.15866619044485
 30
0.0
 10
263.369000341893
 20
32.36204900135527
 30
0.0
 10
263.5519728645978
 20
32.78971845750249
 30
0.0
 10
263.727273393812
 20
33.36948428394543
 30
0.0
 10
263.7814660057203
 20
33.93323208319337
 30
0.0
 10
263.7166573607278
 20
34.44740725936896
 30
0.0
 10
263.520413086633
 20
34.84307477695106
 30
0.0
 10
263.3257275347371
 20
35.07740764043306
 30
0.0
 10
263.1950009935242
 20
35.12724506979276
 30
0.0
 10
263.1827793043491
 20
35.1319043957817
 30
0.0
  0
SPLINE
  5
187
330
1F
100
AcDbEntity
  8
0
  6
Continuous
 62
     7
370
    25
100
AcDbSpline
210
0.0
220
0.0
230
1.0
 70
     8
 71
     3
 72
     9
 73
     5
 74
     0
 42
0.000000001
 43
0.00000001
 40
0.0
 40
0.0
 40
0.0
 40
0.0
 40
0.1467654312240702
 40
1.0
 40
1.0
 40
1.0
 40
1.0
 10
262.8635742202513
 20
31.64493050563508
 30
0.0
 10
262.8829619139401
 20
31.66506182424113
 30
0.0
 10
263.0150617791953
 20
31.80222844745854
 30
0.0
 10
263.1179750658696
 20
31.9772144559031
 30
0.0
 10
263.2057842396464
 20
32.1265185673601
 30
0.0
  0
LINE
  5
188
330
1F
100
AcDbEntity
  8
0
  6
Continuous
 62
     7
370
    25
100
AcDbLine
 10
263.1706449632
 20
35.1472256834
 30
0.0
 11
261.3675237586
 21
36.1881453983
 31
0.0
  0
SPLINE
  5
189
330
1F
100
AcDbEntity
  8
0
  6
Continuous
 62
     7
370
    25
100
AcDbSpline
210
0.0
220
0.0
230
1.0
 70
     8
 71
     3
 72
    15
 73
    11
 74
     0
 42
0.000000001
 43
0.00000001
 40
0.0
 40
0.0
 40
0.0
 40
0.0
 40
0.085007186925867
 40
0.2335498088228854
 40
0.3825913792479901
 40
0.5327156743937069
 40
0.6844122577791066
 40
0.8206181214562526
 40
0.9515399217422292
 40
1.0
 40
1.0
 40
1.0
 40
1.0
 10
250.7174142178769
 20
24.81415859196242
 30
0.0
 10
250.7858464995693
 20
24.91203744907344
 30
0.0
 10
250.9738582063972
 20
25.18095104559109
 30
0.0
 10
251.1926899221101
 20
25.67912119383918
 30
0.0
 10
251.3588790372104
 20
26.2604416128714
 30
0.0
 10
251.4069588252347
 20
26.82176957273324
 30
0.0
 10
251.3361355691719
 20
27.31346333421348
 30
0.0
 10
251.1487071614968
 20
27.69809761291232
 30
0.0
 10
250.9391112726715
 20
27.94119415440319
 30
0.0
 10
250.7752277448155
 20
28.00153618508928
 30
0.0
 10
250.7309545515056
 20
28.01783760613035
 30
0.0
  0
SPLINE
  5
18A
330
1F
100
AcDbEntity
  8
0
  6
Continuous
 62
     7
370
    25
100
AcDbSpline
210
0.0
220
0.0
230
1.0
 70
     8
 71
     3
 72
    14
 73
    10
 74
     0
 42
0.000000001
 43
0.00000001
 40
0.0
 40
0.0
 40
0.0
 40
0.0
 40
0.0675340634560364
 40
0.2311661288777203
 40
0.395891764288716
 40
0.5682340455591588
 40
0.7457947505360712
 40
0.9239791662272835
 40
1.0
 40
1.0
 40
1.0
 40
1.0
 10
248.3029714148356
 20
23.6930849639996
 30
0.0
 10
248.3475480692249
 20
23.66117424318181
 30
0.0
 10
248.5001319965967
 20
23.55194524934304
 30
0.0
 10
248.837651396124
 20
23.51643751719401
 30
0.0
 10
249.267938599592
 20
23.58202308352677
 30
0.0
 10
249.7204235698385
 20
23.79090534356907
 30
0.0
 10
250.1638391247639
 20
24.13152218811239
 30
0.0
 10
250.508561793977
 20
24.48568678921225
 30
0.0
 10
250.6693346257238
 20
24.73854160837606
 30
0.0
 10
250.7174142178769
 20
24.81415859196242
 30
0.0
  0
LINE
  5
18B
330
1F
100
AcDbEntity
  8
0
  6
Continuous
 62
     7
370
    25
100
AcDbLine
 10
246.4933582784
 20
24.7143302053
 30
0.0
 11
248.2964794831
 21
23.6734104904
 31
0.0
  0
LINE
  5
18C
330
1F
100
AcDbEntity
  8
0
  6
Continuous
 62
     7
370
    25
100
AcDbLine
 10
250.7962762398
 20
28.0036546746
 30
0.0
 11
248.9931550352
 21
29.0445743894
 31
0.0
  0
SPLINE
  5
18D
330
1F
100
AcDbEntity
  8
0
  6
Continuous
 62
     7
370
    25
100
AcDbSpline
210
0.0
220
0.0
230
1.0
 70
     8
 71
     3
 72
    10
 73
     6
 74
     0
 42
0.000000001
 43
0.00000001
 40
0.0
 40
0.0
 40
0.0
 40
0.0
 40
0.3285072255444379
 40
0.9271757900655406
 40
0.9999999999999999
 40
0.9999999999999999
 40
0.9999999999999999
 40
0.9999999999999999
 10
263.3954281004244
 20
20.39317665716758
 30
0.0
 10
263.4745921003564
 20
20.34041096027259
 30
0.0
 10
263.6980238500235
 20
20.19148553975591
 30
0.0
 10
263.9895080129409
 20
20.13117886099267
 30
0.0
 10
264.1839899357047
 20
20.11148551222405
 30
0.0
 10
264.2050817373005
 20
20.10934974454404
 30
0.0
  0
SPLINE
  5
18E
330
1F
100
AcDbEntity
  8
0
  6
Continuous
 62
     7
370
    25
100
AcDbSpline
210
0.0
220
0.0
230
1.0
 70
     8
 71
     3
 72
    22
 73
    18
 74
     0
 42
0.000000001
 43
0.00000001
 40
0.0
 40
0.0
 40
0.0
 40
0.0
 40
0.0422190563131636
 40
0.1084150512547132
 40
0.1772573205831601
 40
0.2490133800947157
 40
0.3217479656776022
 40
0.3942790959801764
 40
0.4665953395861169
 40
0.538981081561333
 40
0.6117276218935286
 40
0.6852094702555148
 40
0.7597757166322635
 40
0.83521198984255
 40
0.899548059610067
 40
0.9611176753760335
 40
1.0
 40
1.0
 40
1.0
 40
1.0
 10
264.2050817373005
 20
20.10934974454404
 30
0.0
 10
264.325297755337
 20
20.10487039774032
 30
0.0
 10
264.634002565326
 20
20.09336780493696
 30
0.0
 10
265.1459526564414
 20
20.20275787607643
 30
0.0
 10
265.7301019344993
 20
20.45428709130341
 30
0.0
 10
266.310358397913
 20
20.84238822598169
 30
0.0
 10
266.8628901790984
 20
21.3514306472273
 30
0.0
 10
267.3618479247817
 20
21.95771600815772
 30
0.0
 10
267.7872574142443
 20
22.63428700601627
 30
0.0
 10
268.1237107880836
 20
23.35589785710798
 30
0.0
 10
268.3578900507832
 20
24.09775014952871
 30
0.0
 10
268.4778159989763
 20
24.83642343718286
 30
0.0
 10
268.4707185833137
 20
25.54794856854834
 30
0.0
 10
268.3315159208925
 20
26.17781353282989
 30
0.0
 10
268.0695085417752
 20
26.69357291373084
 30
0.0
 10
267.7696018150554
 20
27.06183280080142
 30
0.0
 10
267.5229607770989
 20
27.20083143598388
 30
0.0
 10
267.4274924679135
 20
27.25463418020637
 30
0.0
  0
LINE
  5
18F
330
1F
100
AcDbEntity
  8
0
  6
Continuous
 62
     7
370
    25
100
AcDbLine
 10
267.4207606613
 20
27.2821190996
 30
0.0
 11
264.4155586536
 21
29.0169852909
 31
0.0
  0
LINE
  5
190
330
1F
100
AcDbEntity
  8
0
  6
Continuous
 62
     7
370
    25
100
AcDbLine
 10
260.4158836453
 20
22.0885944062
 30
0.0
 11
263.421085653
 21
20.3537282148
 31
0.0
  0
LINE
  5
191
330
1F
100
AcDbEntity
  8
0
  6
Continuous
 62
     7
370
    25
100
AcDbLine
 10
262.1042447437
 20
28.6192744175
 30
0.0
 11
261.2900677292
 21
29.0892888034
 31
0.0
  0
LINE
  5
192
330
1F
100
AcDbEntity
  8
0
  6
Continuous
 62
     7
370
    25
100
AcDbLine
 10
258.7967194403
 20
24.755321998
 30
0.0
 11
259.604447987
 21
24.2890302334
 31
0.0
  0
SPLINE
  5
193
330
1F
100
AcDbEntity
  8
0
  6
Continuous
 62
     7
370
    25
100
AcDbSpline
210
0.0
220
0.0
230
1.0
 70
     8
 71
     3
 72
    14
 73
    10
 74
     0
 42
0.000000001
 43
0.00000001
 40
0.0
 40
0.0
 40
0.0
 40
0.0
 40
0.0796779528956653
 40
0.2354788556954521
 40
0.3924459874276984
 40
0.5501184340293704
 40
0.7080950728179578
 40
0.8660904560954176
 40
1.0
 40
1.0
 40
1.0
 40
1.0
 10
250.2353774187353
 20
19.64863741180686
 30
0.0
 10
250.389838989961
 20
19.65235597938655
 30
0.0
 10
250.8463320689032
 20
19.66334577024678
 30
0.0
 10
251.6446152729442
 20
19.83955332382635
 30
0.0
 10
252.615207808822
 20
20.16493809962785
 30
0.0
 10
253.6024007906222
 20
20.63641276127423
 30
0.0
 10
254.5885952564071
 20
21.24139454997907
 30
0.0
 10
255.5159181782382
 20
21.92369825978481
 30
0.0
 10
256.0954666161303
 20
22.45397376910615
 30
0.0
 10
256.3613308060155
 20
22.69723431384066
 30
0.0
  0
SPLINE
  5
194
330
1F
100
AcDbEntity
  8
0
  6
Continuous
 62
     7
370
    25
100
AcDbSpline
210
0.0
220
0.0
230
1.0
 70
     8
 71
     3
 72
    11
 73
     7
 74
     0
 42
0.000000001
 43
0.00000001
 40
0.0
 40
0.0
 40
0.0
 40
0.0
 40
0.2803098501734888
 40
0.5730461605452156
 40
0.8653372016689491
 40
1.0
 40
1.0
 40
1.0
 40
1.0
 10
262.2426806774234
 20
35.68292779660622
 30
0.0
 10
262.2228387465293
 20
36.0372948878677
 30
0.0
 10
262.1822752689716
 20
36.76173857382908
 30
0.0
 10
261.9702806299663
 20
37.75527281269216
 30
0.0
 10
261.7263796635378
 20
38.52977451208552
 30
0.0
 10
261.5095372978776
 20
38.92118008290729
 30
0.0
 10
261.4411444247889
 20
39.04463082764477
 30
0.0
  0
LINE
  5
195
330
1F
100
AcDbEntity
  8
0
  6
Continuous
 62
     7
370
    25
100
AcDbLine
 10
238.17520028
 20
25.690513502
 30
0.0
 11
247.6480864387
 21
20.2219327246
 31
0.0
  0
LINE
  5
196
330
1F
100
AcDbEntity
  8
0
  6
Continuous
 62
     7
370
    25
100
AcDbLine
 10
234.1246681843
 20
28.0288359083
 30
0.0
 11
235.7266554082
 21
27.104028369
 31
0.0
  0
LINE
  5
197
330
1F
100
AcDbEntity
  8
0
  6
Continuous
 62
     7
370
    25
100
AcDbLine
 10
247.7244420402
 20
47.8899159322
 30
0.0
 11
246.12369288
 21
48.8140087526
 31
0.0
  0
LINE
  5
198
330
1F
100
AcDbEntity
  8
0
  6
Continuous
 62
     7
370
    25
100
AcDbLine
 10
259.6471111344
 20
41.0071055689
 30
0.0
 11
250.1837317242
 21
46.4701982172
 31
0.0
  0
SPLINE
  5
199
330
1F
100
AcDbEntity
  8
0
  6
Continuous
 62
     7
370
    25
100
AcDbSpline
210
0.0
220
0.0
230
1.0
 70
     8
 71
     3
 72
    12
 73
     8
 74
     0
 42
0.000000001
 43
0.00000001
 40
0.0
 40
0.0
 40
0.0
 40
0.0
 40
0.1145957212893754
 40
0.3523568032052205
 40
0.5935164127844912
 40
0.8408914402085045
 40
1.0
 40
1.0
 40
1.0
 40
1.0
 10
257.8488926289509
 20
21.87860272620248
 30
0.0
 10
257.9323245441175
 20
21.8385087094722
 30
0.0
 10
258.1888594529485
 20
21.71522836877723
 30
0.0
 10
258.68659435738
 20
21.66179481741655
 30
0.0
 10
259.3139244914655
 20
21.71679974406608
 30
0.0
 10
259.8922307425239
 20
21.87870795802802
 30
0.0
 10
260.2546648214039
 20
22.07251106245551
 30
0.0
 10
260.3965312241901
 20
22.14837078668155
 30
0.0
  0
SPLINE
  5
19A
330
1F
100
AcDbEntity
  8
0
  6
Continuous
 62
     7
370
    25
100
AcDbSpline
210
0.0
220
0.0
230
1.0
 70
     8
 71
     3
 72
    12
 73
     8
 74
     0
 42
0.000000001
 43
0.00000001
 40
0.0
 40
0.0
 40
0.0
 40
0.0
 40
0.2218675382113164
 40
0.4633125194585323
 40
0.7023037417851432
 40
0.9353887459785598
 40
1.0
 40
1.0
 40
1.0
 40
1.0
 10
264.3641446021251
 20
28.9830379618261
 30
0.0
 10
264.3481771306602
 20
29.21758269623944
 30
0.0
 10
264.3148332287383
 20
29.70736823540777
 30
0.0
 10
264.1146015660267
 20
30.35932923896589
 30
0.0
 10
263.7925182639196
 20
30.91828932881353
 30
0.0
 10
263.4782165651309
 20
31.2789115752763
 30
0.0
 10
263.2528018581157
 20
31.39964257840501
 30
0.0
 10
263.2038784118403
 20
31.42584573446141
 30
0.0
  0
LINE
  5
19B
330
1F
100
AcDbEntity
  8
0
  6
Continuous
 62
     7
370
    25
100
AcDbLine
 10
252.0645471867
 20
25.1777145209
 30
0.0
 11
257.6153345508
 21
21.9733131832
 31
0.0
  0
LINE
  5
19C
330
1F
100
AcDbEntity
  8
0
  6
Continuous
 62
     7
370
    25
100
AcDbLine
 10
263.1148874815
 20
31.4998505784
 30
0.0
 11
257.5641001174
 21
34.7042519161
 31
0.0
  0
SPLINE
  5
19D
330
1F
100
AcDbEntity
  8
0
  6
Continuous
 62
     7
370
    25
100
AcDbSpline
210
0.0
220
0.0
230
1.0
 70
     8
 71
     3
 72
    11
 73
     7
 74
     0
 42
0.000000001
 43
0.00000001
 40
0.0
 40
0.0
 40
0.0
 40
0.0
 40
0.2746311956187333
 40
0.5764621647769169
 40
0.900060360016186
 40
1.0
 40
1.0
 40
1.0
 40
1.0
 10
259.02685242844
 20
24.49323387411547
 30
0.0
 10
258.9666973265574
 20
24.53574209643571
 30
0.0
 10
258.8404292958062
 20
24.62496860183812
 30
0.0
 10
258.6974804445545
 20
24.91348670089772
 30
0.0
 10
258.6314545145736
 20
25.23224451630187
 30
0.0
 10
258.6271327332021
 20
25.4503092201053
 30
0.0
 10
258.6261129488088
 20
25.50176461836933
 30
0.0
  0
SPLINE
  5
19E
330
1F
100
AcDbEntity
  8
0
  6
Continuous
 62
     7
370
    25
100
AcDbSpline
210
0.0
220
0.0
230
1.0
 70
     8
 71
     3
 72
    18
 73
    14
 74
     0
 42
0.000000001
 43
0.00000001
 40
0.0
 40
0.0
 40
0.0
 40
0.0
 40
0.0506257121162477
 40
0.1485114848397106
 40
0.2471812102204941
 40
0.3464194024179063
 40
0.4458513579276137
 40
0.5449400052137329
 40
0.6431805053709116
 40
0.7402570562775008
 40
0.8365041889691465
 40
0.933498358011806
 40
1.0
 40
1.0
 40
1.0
 40
1.0
 10
258.6261129488088
 20
25.50176461836933
 30
0.0
 10
258.6287629093318
 20
25.58859787225328
 30
0.0
 10
258.63653661869
 20
25.84332486627873
 30
0.0
 10
258.7264107668021
 20
26.31696097194589
 30
0.0
 10
258.9289103024587
 20
26.90282135018832
 30
0.0
 10
259.2236084145533
 20
27.48042903253604
 30
0.0
 10
259.5913910281408
 20
28.01135290761011
 30
0.0
 10
260.0084832502652
 20
28.46234366180805
 30
0.0
 10
260.4448221925219
 20
28.80548766056522
 30
0.0
 10
260.8680141006988
 20
29.0245559415175
 30
0.0
 10
261.2412044944366
 20
29.11042519720714
 30
0.0
 10
261.5098850766203
 20
29.09718318204204
 30
0.0
 10
261.6281251734127
 20
29.02480023224583
 30
0.0
 10
261.676219130903
 20
28.99535859100104
 30
0.0
  0
LINE
  5
19F
330
1F
100
AcDbEntity
  8
0
  6
Continuous
 62
     7
370
    25
100
AcDbLine
 10
256.9931611268
 20
34.9187978499
 30
0.0
 11
256.4930418479
 21
35.0206936221
 31
0.0
  0
LINE
  5
1A0
330
1F
100
AcDbEntity
  8
0
  6
Continuous
 62
     7
370
    25
100
AcDbLine
 10
251.2548991475
 20
25.9469814561
 30
0.0
 11
251.5932392301
 21
25.5648450984
 31
0.0
  0
LINE
  5
1A1
330
1F
100
AcDbEntity
  8
0
  6
Continuous
 62
     7
370
    25
100
AcDbLine
 10
251.4095785754
 20
25.7578869401
 30
0.0
 11
251.4356464012
 21
25.7428383046
 31
0.0
  0
LINE
  5
1A2
330
1F
100
AcDbEntity
  8
0
  6
Continuous
 62
     7
370
    25
100
AcDbLine
 10
256.7602135194
 20
34.9662586829
 30
0.0
 11
256.7341456936
 21
34.9813073185
 31
0.0
  0
SPLINE
  5
1A3
330
1F
100
AcDbEntity
  8
0
  6
Continuous
 62
     7
370
    25
100
AcDbSpline
210
0.0
220
0.0
230
1.0
 70
     8
 71
     3
 72
    13
 73
     9
 74
     0
 42
0.000000001
 43
0.00000001
 40
0.0
 40
0.0
 40
0.0
 40
0.0
 40
0.1647219001823065
 40
0.3655991287469239
 40
0.570311481543978
 40
0.7773087964823939
 40
0.9851756150846297
 40
0.9999999999999999
 40
0.9999999999999999
 40
0.9999999999999999
 40
0.9999999999999999
 10
224.6914557102563
 20
31.45201658218189
 30
0.0
 10
225.2083901699766
 20
31.35863388704835
 30
0.0
 10
226.3557226611867
 20
31.15137163507655
 30
0.0
 10
228.1841776668447
 20
30.64849671450903
 30
0.0
 10
230.1440193188315
 20
29.97295863837623
 30
0.0
 10
232.0897569198854
 20
29.11656627434844
 30
0.0
 10
233.4253797108178
 20
28.45831018236767
 30
0.0
 10
234.0779408850461
 20
28.05176238256404
 30
0.0
 10
234.1213813886438
 20
28.02469880315189
 30
0.0
  0
SPLINE
  5
1A4
330
1F
100
AcDbEntity
  8
0
  6
Continuous
 62
     7
370
    25
100
AcDbSpline
210
0.0
220
0.0
230
1.0
 70
     8
 71
     3
 72
    13
 73
     9
 74
     0
 42
0.000000001
 43
0.00000001
 40
0.0
 40
0.0
 40
0.0
 40
0.0
 40
0.1645065365166069
 40
0.3707636661285457
 40
0.5743429470219891
 40
0.7742423761184483
 40
0.9694256692333775
 40
1.0
 40
1.0
 40
1.0
 40
1.0
 10
246.130665549212
 20
48.82498695419594
 30
0.0
 10
245.6403798958083
 20
49.11299602903932
 30
0.0
 10
244.5353775648655
 20
49.76210884077517
 30
0.0
 10
242.9321203459047
 20
50.91928493140261
 30
0.0
 10
241.3289645090768
 20
52.23732624903497
 30
0.0
 10
239.8959499717309
 20
53.6200671030341
 30
0.0
 10
238.9371794548003
 20
54.63906578203763
 30
0.0
 10
238.5027565117866
 20
55.1927034399366
 30
0.0
 10
238.4439226592507
 20
55.26768252851145
 30
0.0
  0
LINE
  5
1A5
330
1F
100
AcDbEntity
  8
0
  6
Continuous
 62
     7
370
    25
100
AcDbLine
 10
206.2528943524
 20
29.1081682015
 30
0.0
 11
211.9938842083
 21
25.7939653025
 31
0.0
  0
LINE
  5
1A6
330
1F
100
AcDbEntity
  8
0
  6
Continuous
 62
     7
370
    25
100
AcDbLine
 10
233.4575770857
 20
71.1367020144
 30
0.0
 11
231.2508619197
 21
72.4106115638
 31
0.0
  0
SPLINE
  5
1A7
330
1F
100
AcDbEntity
  8
0
  6
Continuous
 62
     7
370
    25
100
AcDbSpline
210
0.0
220
0.0
230
1.0
 70
     8
 71
     3
 72
    10
 73
     6
 74
     0
 42
0.000000001
 43
0.00000001
 40
0.0
 40
0.0
 40
0.0
 40
0.0
 40
0.2877671293385511
 40
0.7914668933538241
 40
1.0
 40
1.0
 40
1.0
 40
1.0
 10
201.2359907650952
 20
44.00990994198357
 30
0.0
 10
201.191879293091
 20
43.67866623279107
 30
0.0
 10
201.0705562990832
 20
42.76762253554809
 30
0.0
 10
201.0107730739229
 20
41.65487324876464
 30
0.0
 10
201.003202351392
 20
40.88248548725035
 30
0.0
 10
201.000985736077
 20
40.65633976149288
 30
0.0
  0
SPLINE
  5
1A8
330
1F
100
AcDbEntity
  8
0
  6
Continuous
 62
     7
370
    25
100
AcDbSpline
210
0.0
220
0.0
230
1.0
 70
     8
 71
     3
 72
     9
 73
     5
 74
     0
 42
0.000000001
 43
0.00000001
 40
0.0
 40
0.0
 40
0.0
 40
0.0
 40
0.5696751866024141
 40
1.0
 40
1.0
 40
1.0
 40
1.0
 10
218.9430820064529
 20
71.34830673584163
 30
0.0
 10
218.7141321060277
 20
71.22715043500678
 30
0.0
 10
218.3122365946738
 20
71.01447432819329
 30
0.0
 10
217.9119060404859
 20
70.74723899364047
 30
0.0
 10
217.7396338694576
 20
70.63224099816577
 30
0.0
  0
SPLINE
  5
1A9
330
1F
100
AcDbEntity
  8
0
  6
Continuous
 62
     7
370
    25
100
AcDbSpline
210
0.0
220
0.0
230
1.0
 70
     8
 71
     3
 72
     9
 73
     5
 74
     0
 42
0.000000001
 43
0.00000001
 40
0.0
 40
0.0
 40
0.0
 40
0.0
 40
0.4109279501872297
 40
1.0
 40
1.0
 40
1.0
 40
1.0
 10
201.000985736077
 20
40.65633976149288
 30
0.0
 10
201.0030893129495
 20
40.37139907301761
 30
0.0
 10
201.0082084022486
 20
39.67799116940475
 30
0.0
 10
201.0683995317252
 20
39.01874315879227
 30
0.0
 10
201.1038564437465
 20
38.63039858184577
 30
0.0
  0
LINE
  5
1AA
330
1F
100
AcDbEntity
  8
0
  6
Continuous
 62
     7
370
    25
100
AcDbLine
 10
219.5188398348
 20
71.5964462515
 30
0.0
 11
210.1835051846
 21
76.2475667133
 31
0.0
  0
LINE
  5
1AB
330
1F
100
AcDbEntity
  8
0
  6
Continuous
 62
     7
370
    25
100
AcDbLine
 10
192.394782397
 20
45.4332567017
 30
0.0
 11
201.0230713947
 21
39.7199622412
 31
0.0
  0
SPLINE
  5
1AC
330
1F
100
AcDbEntity
  8
0
  6
Continuous
 62
     7
370
    25
100
AcDbSpline
210
0.0
220
0.0
230
1.0
 70
     8
 71
     3
 72
    18
 73
    14
 74
     0
 42
0.000000001
 43
0.00000001
 40
0.0
 40
0.0
 40
0.0
 40
0.0
 40
0.0825801153569219
 40
0.1811777485267395
 40
0.280160493218902
 40
0.3794535422543394
 40
0.478963783424133
 40
0.5786047989077406
 40
0.6783089601671871
 40
0.7780253150982177
 40
0.8777226368927515
 40
0.9773887264889143
 40
1.0
 40
1.0
 40
1.0
 40
1.0
 10
219.7642260308018
 20
22.34196145885242
 30
0.0
 10
220.1133996156254
 20
22.31727072786395
 30
0.0
 10
220.8794736719513
 20
22.26310016839409
 30
0.0
 10
222.119213101384
 20
22.35501676807602
 30
0.0
 10
223.4636289480617
 20
22.58196625529182
 30
0.0
 10
224.8416212521114
 20
22.95689787894263
 30
0.0
 10
226.242283931638
 20
23.47242701036969
 30
0.0
 10
227.6568611318045
 20
24.12629187395239
 30
0.0
 10
229.0756707916529
 20
24.9144401925496
 30
0.0
 10
230.4905328140961
 20
25.82859750345915
 30
0.0
 10
231.8888875687956
 20
26.8737190884099
 30
0.0
 10
232.9182069153962
 20
27.71088162808755
 30
0.0
 10
233.4677124260552
 20
28.22992844490419
 30
0.0
 10
233.5693258325077
 20
28.32590949357798
 30
0.0
  0
SPLINE
  5
1AD
330
1F
100
AcDbEntity
  8
0
  6
Continuous
 62
     7
370
    25
100
AcDbSpline
210
0.0
220
0.0
230
1.0
 70
     8
 71
     3
 72
     9
 73
     5
 74
     0
 42
0.000000001
 43
0.00000001
 40
0.0
 40
0.0
 40
0.0
 40
0.0
 40
0.1539669993446155
 40
1.0
 40
1.0
 40
1.0
 40
1.0
 10
245.5923850978216
 20
49.15130077765879
 30
0.0
 10
245.6136146476489
 20
49.23911711411931
 30
0.0
 10
245.7514984144148
 20
49.80947528719748
 30
0.0
 10
245.8370107768818
 20
50.3668638878452
 30
0.0
 10
245.9093570574929
 20
50.8384330381823
 30
0.0
  0
LINE
  5
1AE
330
1F
100
AcDbEntity
  8
0
  6
Continuous
 62
     7
370
    25
100
AcDbLine
 10
214.3004870554
 20
24.4623918222
 30
0.0
 11
215.9579349222
 21
23.5055675353
 31
0.0
  0
SPLINE
  5
1AF
330
1F
100
AcDbEntity
  8
0
  6
Continuous
 62
     7
370
    25
100
AcDbSpline
210
0.0
220
0.0
230
1.0
 70
     8
 71
     3
 72
    10
 73
     6
 74
     0
 42
0.000000001
 43
0.00000001
 40
0.0
 40
0.0
 40
0.0
 40
0.0
 40
0.028148475011432
 40
0.6719752357242176
 40
1.0
 40
1.0
 40
1.0
 40
1.0
 10
243.5679474989314
 20
64.5095786879035
 30
0.0
 10
243.5575975640515
 20
64.52457368708492
 30
0.0
 10
243.3105184619762
 20
64.88254221310748
 30
0.0
 10
242.8764413548654
 20
65.3376961929406
 30
0.0
 10
242.4230849742309
 20
65.73158479130487
 30
0.0
 10
242.2700655920858
 20
65.8645322748527
 30
0.0
  0
SPLINE
  5
1B0
330
1F
100
AcDbEntity
  8
0
  6
Continuous
 62
     7
370
    25
100
AcDbSpline
210
0.0
220
0.0
230
1.0
 70
     8
 71
     3
 72
    12
 73
     8
 74
     0
 42
0.000000001
 43
0.00000001
 40
0.0
 40
0.0
 40
0.0
 40
0.0
 40
0.1180490526010331
 40
0.3415715706442001
 40
0.5648880326714045
 40
0.7876618717436215
 40
0.9999999999999999
 40
0.9999999999999999
 40
0.9999999999999999
 40
0.9999999999999999
 10
245.9320788186518
 20
58.99968119769635
 30
0.0
 10
245.8794071645022
 20
59.25299332658041
 30
0.0
 10
245.7270032337642
 20
59.98594475498857
 30
0.0
 10
245.3893743178483
 20
61.13026797328014
 30
0.0
 10
244.8822389178848
 20
62.38925984186271
 30
0.0
 10
244.2837435433018
 20
63.53036805178747
 30
0.0
 10
243.8027004062386
 20
64.18843617041918
 30
0.0
 10
243.5679474989314
 20
64.5095786879035
 30
0.0
  0
SPLINE
  5
1B1
330
1F
100
AcDbEntity
  8
0
  6
Continuous
 62
     7
370
    25
100
AcDbSpline
210
0.0
220
0.0
230
1.0
 70
     8
 71
     3
 72
    28
 73
    24
 74
     0
 42
0.000000001
 43
0.00000001
 40
0.0
 40
0.0
 40
0.0
 40
0.0
 40
0.0173646859913571
 40
0.0666529697132405
 40
0.116022427525708
 40
0.1657775298981347
 40
0.2161025423756545
 40
0.2670303082661907
 40
0.3184683026004565
 40
0.3702610478330405
 40
0.4222524658896515
 40
0.4743219123752864
 40
0.5263766481100202
 40
0.5783840758737929
 40
0.6303339792540638
 40
0.6822286908839886
 40
0.734077400466319
 40
0.7858927912084067
 40
0.8376893382521449
 40
0.8894823799690259
 40
0.9412855244705658
 40
0.9931116107064701
 40
1.0
 40
1.0
 40
1.0
 40
1.0
 10
210.3493313015368
 20
76.14148844088459
 30
0.0
 10
210.2460291533969
 20
76.20239108994505
 30
0.0
 10
209.8495120522697
 20
76.43616107722288
 30
0.0
 10
209.082349480633
 20
76.6995104503871
 30
0.0
 10
208.0621656478144
 20
76.92690968080721
 30
0.0
 10
206.9833185168326
 20
77.00059188867431
 30
0.0
 10
205.8590298669371
 20
76.93158032452926
 30
0.0
 10
204.6954071441322
 20
76.71588003239138
 30
0.0
 10
203.5028281905584
 20
76.35495138493317
 30
0.0
 10
202.2925441558642
 20
75.85123677397213
 30
0.0
 10
201.076595644033
 20
75.20969763282758
 30
0.0
 10
199.8668867988832
 20
74.43711153444087
 30
0.0
 10
198.674683440947
 20
73.54159345178115
 30
0.0
 10
197.5105012515031
 20
72.53215571010435
 30
0.0
 10
196.3841441992109
 20
71.41836819492801
 30
0.0
 10
195.3049443830008
 20
70.21044095197202
 30
0.0
 10
194.2819078861613
 20
68.91917983745665
 30
0.0
 10
193.3233462629087
 20
67.55595963126274
 30
0.0
 10
192.4381106107696
 20
66.13262011488088
 30
0.0
 10
191.6307852409192
 20
64.66156413954033
 30
0.0
 10
190.9194102786913
 20
63.15508290844515
 30
0.0
 10
190.4571247847333
 20
62.06932226907142
 30
0.0
 10
190.2588527446863
 20
61.4898739774866
 30
0.0
 10
190.2355914452273
 20
61.4218930345945
 30
0.0
  0
LINE
  5
1B2
330
1F
100
AcDbEntity
  8
0
  6
Continuous
 62
     7
370
    25
100
AcDbLine
 10
190.6194926003
 20
59.0890783815
 30
0.0
 11
194.3993787084
 21
56.9069965782
 31
0.0
  0
LINE
  5
1B3
330
1F
100
AcDbEntity
  8
0
  6
Continuous
 62
     7
370
    25
100
AcDbLine
 10
190.1140537636
 20
60.8587252631
 30
0.0
 11
190.1140537636
 21
60.20622032
 31
0.0
  0
LINE
  5
1B4
330
1F
100
AcDbEntity
  8
0
  6
Continuous
 62
     7
370
    25
100
AcDbLine
 10
190.1140537636
 20
48.7004323912
 30
0.0
 11
190.1140537636
 21
48.0479274481
 31
0.0
  0
SPLINE
  5
1B5
330
1F
100
AcDbEntity
  8
0
  6
Continuous
 62
     7
370
    25
100
AcDbSpline
210
0.0
220
0.0
230
1.0
 70
     8
 71
     3
 72
    10
 73
     6
 74
     0
 42
0.000000001
 43
0.00000001
 40
0.0
 40
0.0
 40
0.0
 40
0.0
 40
0.3295006286484303
 40
0.6892241807213073
 40
1.0
 40
1.0
 40
1.0
 40
1.0
 10
190.2462895007595
 20
47.71238374655295
 30
0.0
 10
190.4290446196914
 20
47.43099027788032
 30
0.0
 10
190.811317781461
 20
46.84239297018549
 30
0.0
 10
191.4856450322624
 20
46.11370186858187
 30
0.0
 10
192.0084268089948
 20
45.72315097389039
 30
0.0
 10
192.2507356640209
 20
45.54213100660375
 30
0.0
  0
SPLINE
  5
1B6
330
1F
100
AcDbEntity
  8
0
  6
Continuous
 62
     7
370
    25
100
AcDbSpline
210
0.0
220
0.0
230
1.0
 70
     8
 71
     3
 72
     9
 73
     5
 74
     0
 42
0.000000001
 43
0.00000001
 40
0.0
 40
0.0
 40
0.0
 40
0.0
 40
0.3544518289669109
 40
1.0
 40
1.0
 40
1.0
 40
1.0
 10
190.1603204665094
 20
47.84815001962048
 30
0.0
 10
190.169261962012
 20
47.83091798741164
 30
0.0
 10
190.1944882262653
 20
47.78230198151014
 30
0.0
 10
190.2259678726263
 20
47.73981265413099
 30
0.0
 10
190.2462895007595
 20
47.71238374655295
 30
0.0
  0
LWPOLYLINE
  5
1B7
330
1F
100
AcDbEntity
  8
0
  6
Continuous
 62
     7
370
    25
100
AcDbPolyline
 90
        9
 70
   128
 43
0.0
 10
258.5835680101
 20
34.1518285423
 10
258.6072110751
 20
34.211733404
 10
258.9110305838
 20
34.8183644523
 10
259.3043377301
 20
35.3660086437
 10
259.7579626143
 20
35.8140496356
 10
260.238262173
 20
36.1292586417
 10
260.7096147461
 20
36.2882578124
 10
261.1370614982
 20
36.2792543178
 10
261.3675237586
 20
36.1881453983
  0
ARC
  5
1B8
330
1F
100
AcDbEntity
  8
0
  6
Continuous
 62
     7
370
    25
100
AcDbCircle
 10
261.8617084575
 20
33.2882564934
 30
0.0
 40
1.050773680969934
100
AcDbArc
 50
333.8131682449
 51
26.1868317551
  0
LINE
  5
1B9
330
1F
100
AcDbEntity
  8
0
  6
Continuous
 62
     7
370
    25
100
AcDbLine
 10
262.8046305355
 20
33.7596865463
 30
0.0
 11
262.8046305355
 21
33.7519625247
 31
0.0
  0
LINE
  5
1BA
330
1F
100
AcDbEntity
  8
0
  6
Continuous
 62
     7
370
    25
100
AcDbLine
 10
262.8046305355
 20
33.7596865463
 30
0.0
 11
262.798837978
 21
33.7602045848
 31
0.0
  0
ARC
  5
1BB
330
1F
100
AcDbEntity
  8
0
  6
Continuous
 62
     7
370
    25
100
AcDbCircle
 10
262.4186407846
 20
33.4285368784
 30
0.0
 40
0.5045328268617294
100
AcDbArc
 50
41.1000475288
 51
128.6809613804
  0
LINE
  5
1BC
330
1F
100
AcDbEntity
  8
0
  6
Continuous
 62
     7
370
    25
100
AcDbLine
 10
262.0975236384
 20
33.8229124763
 30
0.0
 11
262.1033161959
 21
33.8223944378
 31
0.0
  0
LINE
  5
1BD
330
1F
100
AcDbEntity
  8
0
  6
Continuous
 62
     7
370
    25
100
AcDbLine
 10
262.0975236384
 20
33.8229124763
 30
0.0
 11
262.0917310809
 21
33.8157064933
 31
0.0
  0
ARC
  5
1BE
330
1F
100
AcDbEntity
  8
0
  6
Continuous
 62
     7
370
    25
100
AcDbCircle
 10
263.0518363982
 20
32.331748118
 30
0.0
 40
1.767465609170336
100
AcDbArc
 50
122.9024384701
 51
159.5084147368
  0
LINE
  5
1BF
330
1F
100
AcDbEntity
  8
0
  6
Continuous
 62
     7
370
    25
100
AcDbLine
 10
261.3904167413
 20
32.9432783006
 30
0.0
 11
261.3962096281
 21
32.9504844738
 31
0.0
  0
LINE
  5
1C0
330
1F
100
AcDbEntity
  8
0
  6
Continuous
 62
     7
370
    25
100
AcDbLine
 10
261.3904167413
 20
32.9432783006
 30
0.0
 11
261.3904167413
 21
32.9355542791
 31
0.0
  0
ARC
  5
1C1
330
1F
100
AcDbEntity
  8
0
  6
Continuous
 62
     7
370
    25
100
AcDbCircle
 10
262.8872844603
 20
32.3511354749
 30
0.0
 40
1.606909551474232
100
AcDbArc
 50
158.6729431623
 51
172.8320717407
  0
ARC
  5
1C2
330
1F
100
AcDbEntity
  8
0
  6
Continuous
 62
     7
370
    25
100
AcDbCircle
 10
261.0920560123
 20
33.4585448284
 30
0.0
 40
1.825981247893455
100
AcDbArc
 50
307.9699718548
 51
339.183024314
  0
LINE
  5
1C3
330
1F
100
AcDbEntity
  8
0
  6
Continuous
 62
     7
370
    25
100
AcDbLine
 10
262.8046305355
 20
32.8168264405
 30
0.0
 11
262.798837978
 21
32.8096204575
 31
0.0
  0
LINE
  5
1C4
330
1F
100
AcDbEntity
  8
0
  6
Continuous
 62
     7
370
    25
100
AcDbLine
 10
262.8046305355
 20
32.8168264405
 30
0.0
 11
262.8046305355
 21
32.8245504621
 31
0.0
  0
SPLINE
  5
1C5
330
1F
100
AcDbEntity
  8
0
  6
Continuous
 62
     7
370
    25
100
AcDbSpline
210
0.0
220
0.0
230
1.0
 70
     8
 71
     3
 72
    10
 73
     6
 74
     0
 42
0.000000001
 43
0.00000001
 40
0.0
 40
0.0
 40
0.0
 40
0.0
 40
0.4395944420415739
 40
0.7571239196827025
 40
1.0
 40
1.0
 40
1.0
 40
1.0
 10
262.1033161959216
 20
33.82239443781776
 30
0.0
 10
262.1560799533406
 20
33.84059933756955
 30
0.0
 10
262.2469562224961
 20
33.87195406761001
 30
0.0
 10
262.531002214752
 20
33.82863667258651
 30
0.0
 10
262.71785654231
 20
33.78089535683473
 30
0.0
 10
262.7988379780276
 20
33.76020458481379
 30
0.0
  0
LINE
  5
1C6
330
1F
100
AcDbEntity
  8
0
  6
Continuous
 62
     7
370
    25
100
AcDbLine
 10
261.4522823881
 20
33.0550532854
 30
0.0
 11
261.8096988587
 21
33.3911882719
 31
0.0
  0
SPLINE
  5
1C7
330
1F
100
AcDbEntity
  8
0
  6
Continuous
 62
     7
370
    25
100
AcDbSpline
210
0.0
220
0.0
230
1.0
 70
     8
 71
     3
 72
     9
 73
     5
 74
     0
 42
0.000000001
 43
0.00000001
 40
0.0
 40
0.0
 40
0.0
 40
0.0
 40
0.6786694912565541
 40
1.0
 40
1.0
 40
1.0
 40
1.0
 10
261.8096988586815
 20
33.39118827191098
 30
0.0
 10
261.8005838321588
 20
33.42721769694468
 30
0.0
 10
261.7871531024148
 20
33.48030601975552
 30
0.0
 10
261.7844735996257
 20
33.52946842135277
 30
0.0
 10
261.7836125936312
 20
33.54526580086906
 30
0.0
  0
SPLINE
  5
1C8
330
1F
100
AcDbEntity
  8
0
  6
Continuous
 62
     7
370
    25
100
AcDbSpline
210
0.0
220
0.0
230
1.0
 70
     8
 71
     3
 72
    11
 73
     7
 74
     0
 42
0.000000001
 43
0.00000001
 40
0.0
 40
0.0
 40
0.0
 40
0.0
 40
0.178410053899575
 40
0.5165279805494587
 40
0.8702849330418287
 40
1.0
 40
1.0
 40
1.0
 40
1.0
 10
262.8046305355198
 20
33.75196252469666
 30
0.0
 10
262.7839084203806
 20
33.71181153880684
 30
0.0
 10
262.723914311015
 20
33.59556748638134
 30
0.0
 10
262.6783701468277
 20
33.33958809125524
 30
0.0
 10
262.732387009585
 20
33.04465183363131
 30
0.0
 10
262.789347966771
 20
32.87111123413101
 30
0.0
 10
262.8046305355198
 20
32.82455046209351
 30
0.0
  0
LINE
  5
1C9
330
1F
100
AcDbEntity
  8
0
  6
Continuous
 62
     7
370
    25
100
AcDbLine
 10
261.8096988587
 20
33.3911882719
 30
0.0
 11
262.8046305355
 21
32.8168264405
 31
0.0
  0
SPLINE
  5
1CA
330
1F
100
AcDbEntity
  8
0
  6
Continuous
 62
     7
370
    25
100
AcDbSpline
210
0.0
220
0.0
230
1.0
 70
     8
 71
     3
 72
    10
 73
     6
 74
     0
 42
0.000000001
 43
0.00000001
 40
0.0
 40
0.0
 40
0.0
 40
0.0
 40
0.4961433884902827
 40
0.8545195095594383
 40
1.0
 40
1.0
 40
1.0
 40
1.0
 10
262.7988379780276
 20
32.80962045745277
 30
0.0
 10
262.6527973502222
 20
32.71258996749516
 30
0.0
 10
262.4012681178612
 20
32.54547205639451
 30
0.0
 10
262.2088626460097
 20
32.25466291449187
 30
0.0
 10
262.1591901096078
 20
32.1034908129698
 30
0.0
 10
262.144847963862
 20
32.05984230073839
 30
0.0
  0
LINE
  5
1CB
330
1F
100
AcDbEntity
  8
0
  6
Continuous
 62
     7
370
    25
100
AcDbLine
 10
250.7493463825
 20
28.0287850572
 30
0.0
 11
250.7962762398
 21
28.0036546746
 31
0.0
  0
LWPOLYLINE
  5
1CC
330
1F
100
AcDbEntity
  8
0
  6
Continuous
 62
     7
370
    25
100
AcDbPolyline
 90
        9
 70
   128
 43
0.0
 10
246.0296237483
 20
26.3915010982
 10
246.2102947755
 20
27.0110950979
 10
246.5046582437
 20
27.6209255404
 10
246.8908827438
 20
28.1757642803
 10
247.340324224
 20
28.634461651
 10
247.8196497954
 20
28.9629982409
 10
248.2933092498
 20
29.1370074018
 10
248.7261735184
 20
29.1435841428
 10
248.9931550352
 20
29.0445743894
  0
ARC
  5
1CD
330
1F
100
AcDbEntity
  8
0
  6
Continuous
 62
     7
370
    25
100
AcDbCircle
 10
247.4522294874
 20
25.8821525525
 30
0.0
 40
1.511040380018163
100
AcDbArc
 50
160.3006444721
 51
230.6113944634
  0
ARC
  5
1CE
330
1F
100
AcDbEntity
  8
0
  6
Continuous
 62
     7
370
    25
100
AcDbCircle
 10
249.1031694428
 20
26.1858585333
 30
0.0
 40
1.426529507507212
100
AcDbArc
 50
327.7778094511
 51
10.1845405446
  0
LINE
  5
1CF
330
1F
100
AcDbEntity
  8
0
  6
Continuous
 62
     7
370
    25
100
AcDbLine
 10
250.5088643675
 20
26.4465321378
 30
0.0
 11
250.5072216282
 21
26.4380963107
 31
0.0
  0
LINE
  5
1D0
330
1F
100
AcDbEntity
  8
0
  6
Continuous
 62
     7
370
    25
100
AcDbLine
 10
250.5088643675
 20
26.4465321378
 30
0.0
 11
250.5040701634
 21
26.4491509564
 31
0.0
  0
ARC
  5
1D1
330
1F
100
AcDbEntity
  8
0
  6
Continuous
 62
     7
370
    25
100
AcDbCircle
 10
250.0762567989
 20
26.3500885722
 30
0.0
 40
0.4391328168332362
100
AcDbArc
 50
13.0373620431
 51
109.6675429182
  0
LINE
  5
1D2
330
1F
100
AcDbEntity
  8
0
  6
Continuous
 62
     7
370
    25
100
AcDbLine
 10
249.9236672297
 20
26.766221793
 30
0.0
 11
249.9284614337
 21
26.7636029744
 31
0.0
  0
LINE
  5
1D3
330
1F
100
AcDbEntity
  8
0
  6
Continuous
 62
     7
370
    25
100
AcDbLine
 10
249.9236672297
 20
26.766221793
 30
0.0
 11
249.9172306157
 21
26.7604049509
 31
0.0
  0
ARC
  5
1D4
330
1F
100
AcDbEntity
  8
0
  6
Continuous
 62
     7
370
    25
100
AcDbCircle
 10
250.4497811771
 20
25.3943079689
 30
0.0
 40
1.466230222287723
100
AcDbArc
 50
111.2975098899
 51
152.9111422365
  0
LINE
  5
1D5
330
1F
100
AcDbEntity
  8
0
  6
Continuous
 62
     7
370
    25
100
AcDbLine
 10
249.1379577772
 20
26.0561709932
 30
0.0
 11
249.1443943912
 21
26.0619878353
 31
0.0
  0
LINE
  5
1D6
330
1F
100
AcDbEntity
  8
0
  6
Continuous
 62
     7
370
    25
100
AcDbLine
 10
249.1379577772
 20
26.0561709932
 30
0.0
 11
249.1363153672
 21
26.04773538
 31
0.0
  0
ARC
  5
1D7
330
1F
100
AcDbEntity
  8
0
  6
Continuous
 62
     7
370
    25
100
AcDbCircle
 10
250.343145429
 20
25.2871027046
 30
0.0
 40
1.426534564867339
100
AcDbArc
 50
147.7778669488
 51
190.1844511899
  0
LINE
  5
1D8
330
1F
100
AcDbEntity
  8
0
  6
Continuous
 62
     7
370
    25
100
AcDbLine
 10
248.9374454625
 20
25.0264305856
 30
0.0
 11
248.9390878725
 21
25.0348662226
 31
0.0
  0
LINE
  5
1D9
330
1F
100
AcDbEntity
  8
0
  6
Continuous
 62
     7
370
    25
100
AcDbLine
 10
248.9374454625
 20
25.0264305856
 30
0.0
 11
248.9422396665
 21
25.023811767
 31
0.0
  0
ARC
  5
1DA
330
1F
100
AcDbEntity
  8
0
  6
Continuous
 62
     7
370
    25
100
AcDbCircle
 10
249.370053031
 20
25.1228741513
 30
0.0
 40
0.4391328168332274
100
AcDbArc
 50
193.0373620431
 51
289.6675429182
  0
LINE
  5
1DB
330
1F
100
AcDbEntity
  8
0
  6
Continuous
 62
     7
370
    25
100
AcDbLine
 10
249.5226426003
 20
24.7067409304
 30
0.0
 11
249.5178483963
 21
24.7093597491
 31
0.0
  0
LINE
  5
1DC
330
1F
100
AcDbEntity
  8
0
  6
Continuous
 62
     7
370
    25
100
AcDbLine
 10
249.5226426003
 20
24.7067409304
 30
0.0
 11
249.5290792143
 21
24.7125577725
 31
0.0
  0
ARC
  5
1DD
330
1F
100
AcDbEntity
  8
0
  6
Continuous
 62
     7
370
    25
100
AcDbCircle
 10
248.9965286528
 20
26.0786547545
 30
0.0
 40
1.466230222287895
100
AcDbArc
 50
291.2975098899
 51
332.9111422365
  0
LINE
  5
1DE
330
1F
100
AcDbEntity
  8
0
  6
Continuous
 62
     7
370
    25
100
AcDbLine
 10
250.3083520528
 20
25.4167917303
 30
0.0
 11
250.3019154387
 21
25.4109748882
 31
0.0
  0
LINE
  5
1DF
330
1F
100
AcDbEntity
  8
0
  6
Continuous
 62
     7
370
    25
100
AcDbLine
 10
250.3083520528
 20
25.4167917303
 30
0.0
 11
250.3099944628
 21
25.4252273435
 31
0.0
  0
SPLINE
  5
1E0
330
1F
100
AcDbEntity
  8
0
  6
Continuous
 62
     7
370
    25
100
AcDbSpline
210
0.0
220
0.0
230
1.0
 70
     8
 71
     3
 72
     9
 73
     5
 74
     0
 42
0.000000001
 43
0.00000001
 40
0.0
 40
0.0
 40
0.0
 40
0.0
 40
0.0617748784813505
 40
1.0
 40
1.0
 40
1.0
 40
1.0
 10
249.6471022439324
 20
26.62901724628322
 30
0.0
 10
249.6518253568561
 20
26.6326003788112
 30
0.0
 10
249.7282822118084
 20
26.69060344763254
 30
0.0
 10
249.8257674841618
 20
26.72661655184126
 30
0.0
 10
249.9172306156618
 20
26.76040495091375
 30
0.0
  0
SPLINE
  5
1E1
330
1F
100
AcDbEntity
  8
0
  6
Continuous
 62
     7
370
    25
100
AcDbSpline
210
0.0
220
0.0
230
1.0
 70
     8
 71
     3
 72
     9
 73
     5
 74
     0
 42
0.000000001
 43
0.00000001
 40
0.0
 40
0.0
 40
0.0
 40
0.0
 40
0.4621305629238804
 40
1.0
 40
1.0
 40
1.0
 40
1.0
 10
248.93908787251
 20
25.03486622260615
 30
0.0
 10
248.9307341073857
 20
25.08521060540794
 30
0.0
 10
248.9126574732166
 20
25.19415034417626
 30
0.0
 10
248.9195164959269
 20
25.29924709133682
 30
0.0
 10
248.923205754611
 20
25.3557754195706
 30
0.0
  0
SPLINE
  5
1E2
330
1F
100
AcDbEntity
  8
0
  6
Continuous
 62
     7
370
    25
100
AcDbSpline
210
0.0
220
0.0
230
1.0
 70
     8
 71
     3
 72
    10
 73
     6
 74
     0
 42
0.000000001
 43
0.00000001
 40
0.0
 40
0.0
 40
0.0
 40
0.0
 40
0.4395940317744162
 40
0.7571242149159396
 40
1.0
 40
1.0
 40
1.0
 40
1.0
 10
249.9284614337009
 20
26.76360297435869
 30
0.0
 10
249.9640276139227
 20
26.74562932517895
 30
0.0
 10
250.025284169589
 20
26.71467284251367
 30
0.0
 10
250.2666912764217
 20
26.58165578449569
 30
0.0
 10
250.4322976087779
 20
26.48921437629071
 30
0.0
 10
250.5040701634373
 20
26.44915095643965
 30
0.0
  0
LINE
  5
1E3
330
1F
100
AcDbEntity
  8
0
  6
Continuous
 62
     7
370
    25
100
AcDbLine
 10
248.9378445405
 20
25.0443376644
 30
0.0
 11
249.5226426003
 21
24.7067409304
 31
0.0
  0
SPLINE
  5
1E4
330
1F
100
AcDbEntity
  8
0
  6
Continuous
 62
     7
370
    25
100
AcDbSpline
210
0.0
220
0.0
230
1.0
 70
     8
 71
     3
 72
    10
 73
     6
 74
     0
 42
0.000000001
 43
0.00000001
 40
0.0
 40
0.0
 40
0.0
 40
0.0
 40
0.4395940317744162
 40
0.7571242149159396
 40
1.0
 40
1.0
 40
1.0
 40
1.0
 10
249.5178483962616
 20
24.70935974906453
 30
0.0
 10
249.3883125702979
 20
24.78158092004011
 30
0.0
 10
249.165209653863
 20
24.90596931802286
 30
0.0
 10
248.9972595921785
 20
24.99658052651071
 30
0.0
 10
248.9588751839925
 20
25.01557828118433
 30
0.0
 10
248.9422396665252
 20
25.02381176698357
 30
0.0
  0
LINE
  5
1E5
330
1F
100
AcDbEntity
  8
0
  6
Continuous
 62
     7
370
    25
100
AcDbLine
 10
249.0181053109
 20
25.7909860482
 30
0.0
 11
249.3134203759
 21
25.9911535617
 31
0.0
  0
SPLINE
  5
1E6
330
1F
100
AcDbEntity
  8
0
  6
Continuous
 62
     7
370
    25
100
AcDbSpline
210
0.0
220
0.0
230
1.0
 70
     8
 71
     3
 72
     9
 73
     5
 74
     0
 42
0.000000001
 43
0.00000001
 40
0.0
 40
0.0
 40
0.0
 40
0.0
 40
0.3382546227290376
 40
1.0
 40
1.0
 40
1.0
 40
1.0
 10
249.3134203759156
 20
25.99115356166572
 30
0.0
 10
249.3117137363919
 20
26.02973182782079
 30
0.0
 10
249.3066683078627
 20
26.14378279287137
 30
0.0
 10
249.3241656144457
 20
26.25037959559068
 30
0.0
 10
249.3357443761917
 20
26.32091953702204
 30
0.0
  0
LINE
  5
1E7
330
1F
100
AcDbEntity
  8
0
  6
Continuous
 62
     7
370
    25
100
AcDbLine
 10
249.3134203759
 20
25.9911535617
 30
0.0
 11
250.3083520528
 21
25.4167917303
 31
0.0
  0
SPLINE
  5
1E8
330
1F
100
AcDbEntity
  8
0
  6
Continuous
 62
     7
370
    25
100
AcDbSpline
210
0.0
220
0.0
230
1.0
 70
     8
 71
     3
 72
    10
 73
     6
 74
     0
 42
0.000000001
 43
0.00000001
 40
0.0
 40
0.0
 40
0.0
 40
0.0
 40
0.4395944800613164
 40
0.7571243065799685
 40
1.0
 40
1.0
 40
1.0
 40
1.0
 10
250.3019154387329
 20
25.41097488816998
 30
0.0
 10
250.1440939223368
 20
25.33793485978563
 30
0.0
 10
249.8722740711229
 20
25.21213623548222
 30
0.0
 10
249.6341930376784
 20
24.94258615872765
 30
0.0
 10
249.5608608523078
 20
24.78210789129718
 30
0.0
 10
249.5290792143007
 20
24.71255777250947
 30
0.0
  0
SPLINE
  5
1E9
330
1F
100
AcDbEntity
  8
0
  6
Continuous
 62
     7
370
    25
100
AcDbSpline
210
0.0
220
0.0
230
1.0
 70
     8
 71
     3
 72
    11
 73
     7
 74
     0
 42
0.000000001
 43
0.00000001
 40
0.0
 40
0.0
 40
0.0
 40
0.0
 40
0.1784099927393558
 40
0.5165279558453922
 40
0.8702848774443094
 40
1.0
 40
1.0
 40
1.0
 40
1.0
 10
250.5072216281803
 20
26.43809631073224
 30
0.0
 10
250.4754169195233
 20
26.3931433367474
 30
0.0
 10
250.3833367568787
 20
26.26299665939463
 30
0.0
 10
250.2777632314044
 20
25.98100708294941
 30
0.0
 10
250.2756896315646
 20
25.66176722094992
 30
0.0
 10
250.3027375343279
 20
25.47526557137796
 30
0.0
 10
250.3099944627567
 20
25.42522734347304
 30
0.0
  0
LWPOLYLINE
  5
1EA
330
1F
100
AcDbEntity
  8
0
  6
Continuous
 62
     7
370
    25
100
AcDbPolyline
 90
       16
 70
   128
 43
0.0
 10
264.4155586536
 20
29.0169852909
 10
264.0864809995
 20
29.1527308484
 10
263.5568081364
 20
29.2000916549
 10
262.9737792976
 20
29.0769086216
 10
262.3646563015
 20
28.788941818
 10
261.7579210437
 20
28.3496558999
 10
261.181943776
 20
27.7795918192
 10
260.6636565712
 20
27.1054048317
 10
260.2272939496
 20
26.3586194113
 10
259.8932597603
 20
25.5741541943
 10
259.6771731972
 20
24.7886901638
 10
259.589137815
 20
24.0389544002
 10
259.6332705044
 20
23.3600039993
 10
259.8075075518
 20
22.7835858663
 10
260.1037016091
 20
22.3366524735
 10
260.4158836453
 20
22.0885944062
  0
LINE
  5
1EB
330
1F
100
AcDbEntity
  8
0
  6
Continuous
 62
     7
370
    25
100
AcDbLine
 10
267.3857998505
 20
23.3834987211
 30
0.0
 11
267.3857998505
 21
25.2963262027
 31
0.0
  0
LINE
  5
1EC
330
1F
100
AcDbEntity
  8
0
  6
Continuous
 62
     7
370
    25
100
AcDbLine
 10
267.3857998505
 20
25.2963262027
 30
0.0
 11
265.951256952
 21
25.4245959558
 31
0.0
  0
LINE
  5
1ED
330
1F
100
AcDbEntity
  8
0
  6
Continuous
 62
     7
370
    25
100
AcDbLine
 10
264.5167140535
 20
23.6400382272
 30
0.0
 11
265.951256952
 21
25.4245959558
 31
0.0
  0
LINE
  5
1EE
330
1F
100
AcDbEntity
  8
0
  6
Continuous
 62
     7
370
    25
100
AcDbLine
 10
264.5167140535
 20
21.7272107456
 30
0.0
 11
264.5167140535
 21
23.6400382272
 31
0.0
  0
LINE
  5
1EF
330
1F
100
AcDbEntity
  8
0
  6
Continuous
 62
     7
370
    25
100
AcDbLine
 10
264.5167140535
 20
21.7272107456
 30
0.0
 11
265.951256952
 21
21.5989409925
 31
0.0
  0
LINE
  5
1F0
330
1F
100
AcDbEntity
  8
0
  6
Continuous
 62
     7
370
    25
100
AcDbLine
 10
267.3857998505
 20
23.3834987211
 30
0.0
 11
265.951256952
 21
21.5989409925
 31
0.0
  0
ARC
  5
1F1
330
1F
100
AcDbEntity
  8
0
  6
Continuous
 62
     7
370
    25
100
AcDbCircle
 10
262.3645855298
 20
25.5846933433
 30
0.0
 40
3.275566879657845
100
AcDbArc
 50
320.7388720639
 51
349.0713768258
  0
ARC
  5
1F2
330
1F
100
AcDbEntity
  8
0
  6
Continuous
 62
     7
370
    25
100
AcDbCircle
 10
262.6125750568
 20
25.3335568418
 30
0.0
 40
2.924863400671454
100
AcDbArc
 50
310.6183139769
 51
321.4736014978
  0
LINE
  5
1F3
330
1F
100
AcDbEntity
  8
0
  6
Continuous
 62
     7
370
    25
100
AcDbLine
 10
264.5167152059
 20
22.427084315
 30
0.0
 11
265.951256952
 21
21.5989409925
 31
0.0
  0
LINE
  5
1F4
330
1F
100
AcDbEntity
  8
0
  6
Continuous
 62
     7
370
    25
100
AcDbLine
 10
265.618029315
 20
24.404010929
 30
0.0
 11
267.3857998505
 21
23.3834987211
 31
0.0
  0
LINE
  5
1F5
330
1F
100
AcDbEntity
  8
0
  6
Continuous
 62
     7
370
    25
100
AcDbLine
 10
265.618029315
 20
24.404010929
 30
0.0
 11
265.618029315
 21
25.0100704329
 31
0.0
  0
LINE
  5
1F6
330
1F
100
AcDbEntity
  8
0
  6
Continuous
 62
     7
370
    25
100
AcDbLine
 10
264.9007578658
 20
23.5117321122
 30
0.0
 11
264.5167104932
 21
23.0339808042
 31
0.0
  0
LINE
  5
1F7
330
1F
100
AcDbEntity
  8
0
  6
Continuous
 62
     7
370
    25
100
AcDbLine
 10
265.618029315
 20
24.404010929
 30
0.0
 11
264.9007578658
 21
23.5117321122
 31
0.0
  0
ARC
  5
1F8
330
1F
100
AcDbEntity
  8
0
  6
Continuous
 62
     7
370
    25
100
AcDbCircle
 10
257.4720639173
 20
37.2385401934
 30
0.0
 40
4.33343507129888
100
AcDbArc
 50
26.2883215236
 51
93.3687365482
  0
ARC
  5
1F9
330
1F
100
AcDbEntity
  8
0
  6
Continuous
 62
     7
370
    25
100
AcDbCircle
 10
249.8139226243
 20
23.9737510099
 30
0.0
 40
4.317571240928558
100
AcDbArc
 50
206.2740142927
 51
273.7058662513
  0
SPLINE
  5
1FA
330
1F
100
AcDbEntity
  8
0
  6
Continuous
 62
     7
370
    25
100
AcDbSpline
210
0.0
220
0.0
230
1.0
 70
    11
 71
     3
 72
    82
 73
    78
 74
     0
 42
0.000000001
 43
0.00000001
 40
0.0
 40
0.0
 40
0.0
 40
0.0
 40
0.0312500000000002
 40
0.0312500000000002
 40
0.0625000000000004
 40
0.0625000000000004
 40
0.0937500000000006
 40
0.0937500000000006
 40
0.1250000000000008
 40
0.1250000000000008
 40
0.156250000000001
 40
0.156250000000001
 40
0.1875000000000011
 40
0.1875000000000011
 40
0.2187500000000013
 40
0.2187500000000013
 40
0.2343750000000014
 40
0.2343750000000014
 40
0.2500000000000014
 40
0.2656250000000016
 40
0.2656250000000016
 40
0.2812500000000017
 40
0.2812500000000017
 40
0.3125000000000018
 40
0.3125000000000018
 40
0.3281250000000019
 40
0.3281250000000019
 40
0.343750000000002
 40
0.343750000000002
 40
0.3750000000000013
 40
0.3750000000000013
 40
0.4062500000000007
 40
0.4062500000000007
 40
0.4375000000000001
 40
0.4375000000000001
 40
0.4687499999999994
 40
0.4687499999999994
 40
0.4999999999999988
 40
0.4999999999999988
 40
0.5312499999999982
 40
0.5312499999999982
 40
0.5624999999999976
 40
0.5624999999999976
 40
0.5937499999999968
 40
0.5937499999999968
 40
0.6249999999999961
 40
0.6249999999999961
 40
0.6406249999999958
 40
0.6406249999999958
 40
0.6562499999999954
 40
0.6562499999999954
 40
0.6874999999999956
 40
0.6874999999999956
 40
0.7187499999999957
 40
0.7187499999999957
 40
0.7499999999999957
 40
0.7499999999999957
 40
0.7656249999999957
 40
0.7656249999999957
 40
0.7812499999999957
 40
0.7968749999999957
 40
0.7968749999999957
 40
0.8124999999999957
 40
0.8124999999999957
 40
0.8437499999999958
 40
0.8437499999999958
 40
0.8593749999999958
 40
0.8593749999999958
 40
0.8749999999999958
 40
0.8749999999999958
 40
0.9062499999999969
 40
0.9062499999999969
 40
0.9374999999999979
 40
0.9374999999999979
 40
0.968749999999999
 40
0.968749999999999
 40
1.0
 40
1.0
 40
1.0
 40
1.0
 10
251.2980753690731
 20
43.5484632472584
 30
0.0
 10
251.180638382781
 20
43.61625817638913
 30
0.0
 10
251.0546002876427
 20
43.67953103251516
 30
0.0
 10
250.7858904547084
 20
43.79707021509293
 30
0.0
 10
250.6420326516306
 20
43.8517157571726
 30
0.0
 10
250.3418287923066
 20
43.94872078024081
 30
0.0
 10
250.187601894637
 20
43.99052184900375
 30
0.0
 10
249.8707498114369
 20
44.05949792808266
 30
0.0
 10
249.706188856899
 20
44.08684398644066
 30
0.0
 10
249.3788753020802
 20
44.12257291144196
 30
0.0
 10
249.2162792813442
 20
44.13119683345797
 30
0.0
 10
248.8930899698817
 20
44.1279198253723
 30
0.0
 10
248.7311818438456
 20
44.11560698950053
 30
0.0
 10
248.4246250812568
 20
44.06899422292496
 30
0.0
 10
248.278217739324
 20
44.03486713465943
 30
0.0
 10
248.0693472616414
 20
43.96595626201921
 30
0.0
 10
248.0015529712133
 20
43.93995775765258
 30
0.0
 10
247.8731029335696
 20
43.88321927591608
 30
0.0
 10
247.750852994894
 20
43.82146042082373
 30
0.0
 10
247.640839475981
 20
43.74975008719129
 30
0.0
 10
247.5370594947337
 20
43.6729907439864
 30
0.0
 10
247.4880945497634
 20
43.63185437676501
 30
0.0
 10
247.3539988767149
 20
43.5037019325438
 30
0.0
 10
247.280464533125
 20
43.41136875924055
 30
0.0
 10
247.193339988013
 20
43.26344301292946
 30
0.0
 10
247.1680989250787
 20
43.21226150010614
 30
0.0
 10
247.1263886124204
 20
43.1088304422137
 30
0.0
 10
247.1098046936855
 20
43.05648547302712
 30
0.0
 10
247.0723844355117
 20
42.89787508506114
 30
0.0
 10
247.0638316168111
 20
42.78932684354545
 30
0.0
 10
247.0794999780703
 20
42.57262364629752
 30
0.0
 10
247.1033569779351
 20
42.46629385008183
 30
0.0
 10
247.1812981003261
 20
42.25877006145691
 30
0.0
 10
247.2361566750193
 20
42.15681873085132
 30
0.0
 10
247.3720055772249
 20
41.96637542635306
 30
0.0
 10
247.4530372232235
 20
41.8770996003488
 30
0.0
 10
247.6410326598237
 20
41.71105608744952
 30
0.0
 10
247.7480454630651
 20
41.63468316068752
 30
0.0
 10
247.9797557133695
 20
41.50067547091876
 30
0.0
 10
248.1053422498936
 20
41.44217377350695
 30
0.0
 10
248.3766830369755
 20
41.34251225944764
 30
0.0
 10
248.5203636543728
 20
41.30228693627998
 30
0.0
 10
248.8175416783555
 20
41.24172478621302
 30
0.0
 10
248.9719395128672
 20
41.22104564320837
 30
0.0
 10
249.2933189789312
 20
41.19915018463919
 30
0.0
 10
249.4549523488632
 20
41.19829018438299
 30
0.0
 10
249.6989318873132
 20
41.21088915576426
 30
0.0
 10
249.7805150536224
 20
41.21741992208071
 30
0.0
 10
249.9442374271847
 20
41.23513192448873
 30
0.0
 10
250.0268827068108
 20
41.24640551436008
 30
0.0
 10
250.2711177840553
 20
41.28657972221011
 30
0.0
 10
250.4291575603956
 20
41.32162892295224
 30
0.0
 10
250.7357351805043
 20
41.40704409125262
 30
0.0
 10
250.8858662652678
 20
41.45818918058193
 30
0.0
 10
251.1627411824095
 20
41.57115915779157
 30
0.0
 10
251.2907422619979
 20
41.63311727553845
 30
0.0
 10
251.4666878133179
 20
41.73422106779731
 30
0.0
 10
251.5226600597704
 20
41.76936393548646
 30
0.0
 10
251.6263668202589
 20
41.84067626433927
 30
0.0
 10
251.7226206404816
 20
41.91343698910234
 30
0.0
 10
251.8042697770586
 20
41.98915921087815
 30
0.0
 10
251.8785362722377
 20
42.06648092594196
 30
0.0
 10
251.9120508589629
 20
42.10609988578958
 30
0.0
 10
251.9992751578284
 20
42.22490455755105
 30
0.0
 10
252.0406664554189
 20
42.30479171974684
 30
0.0
 10
252.0784643831292
 20
42.42666052976802
 30
0.0
 10
252.0869815098877
 20
42.46783411495872
 30
0.0
 10
252.0955610858828
 20
42.54953685721208
 30
0.0
 10
252.0957014492534
 20
42.59017441728128
 30
0.0
 10
252.0841507043573
 20
42.71177010530155
 30
0.0
 10
252.0604016122564
 20
42.79279958508642
 30
0.0
 10
251.9817524088974
 20
42.95392050607269
 30
0.0
 10
251.9277991453518
 20
43.03241515103414
 30
0.0
 10
251.7922922144294
 20
43.18673772736085
 30
0.0
 10
251.7098178005492
 20
43.26319053515559
 30
0.0
 10
251.5214006743871
 20
43.41003899320629
 30
0.0
 10
251.4155123553651
 20
43.48066831812766
 30
0.0
 10
251.298075369073
 20
43.5484632472584
 30
0.0
  0
LINE
  5
1FB
330
1F
100
AcDbEntity
  8
0
  6
Continuous
 62
     7
370
    25
100
AcDbLine
 10
248.4804662819
 20
47.4050723945
 30
0.0
 11
248.9093769785
 21
47.1218917193
 31
0.0
  0
LWPOLYLINE
  5
1FC
330
1F
100
AcDbEntity
  8
0
  6
Continuous
 62
     7
370
    25
100
AcDbPolyline
 90
       15
 70
   128
 43
0.0
 10
250.1832529624
 20
46.4693872284
 10
250.164278978
 20
46.4813117594
 10
249.8603461996
 20
46.6443100097
 10
249.475254396
 20
46.8384082442
 10
249.0207605624
 20
47.0646722164
 10
248.5261528071
 20
47.3187613879
 10
248.0547926608
 20
47.5803890692
 10
247.6890327606
 20
47.8112107249
 10
247.4951526476
 20
47.964401068
 10
247.4988582775
 20
48.0018300081
 10
247.66650527
 20
47.9228689898
 10
247.9363366382
 20
47.7607622523
 10
248.2768087586
 20
47.5400398595
 10
248.4804662819
 20
47.4050723945
 10
248.4804662819
 20
47.4050723945
  0
SPLINE
  5
1FD
330
1F
100
AcDbEntity
  8
0
  6
Continuous
 62
     7
370
    25
100
AcDbSpline
210
0.0
220
0.0
230
1.0
 70
     8
 71
     3
 72
    20
 73
    16
 74
     0
 42
0.000000001
 43
0.00000001
 40
0.0
 40
0.0
 40
0.0
 40
0.0
 40
0.0752862518656853
 40
0.1419583938748718
 40
0.2192813983937879
 40
0.2899261157872698
 40
0.3586842065131672
 40
0.4314211545575324
 40
0.5116528580991547
 40
0.5996980379020923
 40
0.6927837506758443
 40
0.7868342399295846
 40
0.8772152626230625
 40
0.9590590635953133
 40
1.0
 40
1.0
 40
1.0
 40
1.0
 10
236.9805501639102
 20
26.4639522615605
 30
0.0
 10
236.8263864622863
 20
26.54109682282075
 30
0.0
 10
236.5356981767894
 20
26.68655921125556
 30
0.0
 10
236.1099758309085
 20
26.89773065957543
 30
0.0
 10
235.7656571160994
 20
27.07817831983726
 30
0.0
 10
235.5493644212245
 20
27.2091769011888
 30
0.0
 10
235.4796393265406
 20
27.27544029589509
 30
0.0
 10
235.5486672162191
 20
27.27295412025449
 30
0.0
 10
235.7624996864477
 20
27.18675191617128
 30
0.0
 10
236.1208710421941
 20
27.00049684040867
 30
0.0
 10
236.5949085808022
 20
26.71709019045977
 30
0.0
 10
237.1267715510405
 20
26.37122054766356
 30
0.0
 10
237.6275772526331
 20
26.03672523106509
 30
0.0
 10
237.9968615411728
 20
25.79487407857523
 30
0.0
 10
238.1315485197445
 20
25.71823783943031
 30
0.0
 10
238.176458100056
 20
25.69268450552127
 30
0.0
  0
SPLINE
  5
1FE
330
1F
100
AcDbEntity
  8
0
  6
Continuous
 62
     7
370
    25
100
AcDbSpline
210
0.0
220
0.0
230
1.0
 70
    11
 71
     3
 72
    70
 73
    66
 74
     0
 42
0.000000001
 43
0.00000001
 40
0.0
 40
0.0
 40
0.0
 40
0.0
 40
0.03125
 40
0.03125
 40
0.0625
 40
0.0625
 40
0.09375
 40
0.09375
 40
0.125
 40
0.125
 40
0.15625
 40
0.15625
 40
0.1875
 40
0.1875
 40
0.21875
 40
0.21875
 40
0.25
 40
0.25
 40
0.28125
 40
0.28125
 40
0.3125
 40
0.3125
 40
0.34375
 40
0.34375
 40
0.375
 40
0.375
 40
0.40625
 40
0.40625
 40
0.4375
 40
0.4375
 40
0.46875
 40
0.46875
 40
0.5
 40
0.5
 40
0.53125
 40
0.53125
 40
0.5625
 40
0.5625
 40
0.59375
 40
0.59375
 40
0.625
 40
0.625
 40
0.65625
 40
0.65625
 40
0.6875
 40
0.6875
 40
0.71875
 40
0.71875
 40
0.75
 40
0.75
 40
0.78125
 40
0.78125
 40
0.8125
 40
0.8125
 40
0.84375
 40
0.84375
 40
0.875
 40
0.875
 40
0.90625
 40
0.90625
 40
0.9375
 40
0.9375
 40
0.96875
 40
0.96875
 40
1.0
 40
1.0
 40
1.0
 40
1.0
 10
235.7832068139452
 20
41.07540860165473
 30
0.0
 10
235.8455905341112
 20
41.16579396421115
 30
0.0
 10
235.9158851602732
 20
41.24772323752718
 30
0.0
 10
236.0710704369655
 20
41.39591809236693
 30
0.0
 10
236.1567548863619
 20
41.46241800574035
 30
0.0
 10
236.3344554265963
 20
41.57451541130126
 30
0.0
 10
236.4276033143727
 20
41.62116652765088
 30
0.0
 10
236.6196255077624
 20
41.6955726200377
 30
0.0
 10
236.716314861279
 20
41.72257359618001
 30
0.0
 10
236.9106082625956
 20
41.75810556884876
 30
0.0
 10
237.0089533563516
 20
41.76650100137235
 30
0.0
 10
237.1996953576099
 20
41.76492650745585
 30
0.0
 10
237.2927427775913
 20
41.75520069677095
 30
0.0
 10
237.4740669357903
 20
41.71842677585191
 30
0.0
 10
237.5620826491841
 20
41.69121869573805
 30
0.0
 10
237.7269397376039
 20
41.62163766488304
 30
0.0
 10
237.8046405919486
 20
41.5791267662875
 30
0.0
 10
237.9503834764156
 20
41.47836260010703
 30
0.0
 10
238.0177188218013
 20
41.42038414570839
 30
0.0
 10
238.1377766138135
 20
41.29263786148775
 30
0.0
 10
238.1911296042559
 20
41.22246686260843
 30
0.0
 10
238.2839723292535
 20
41.06867126929031
 30
0.0
 10
238.3228114179074
 20
40.98577229242004
 30
0.0
 10
238.3832004659116
 20
40.81241000126288
 30
0.0
 10
238.4051812616848
 20
40.72130107580015
 30
0.0
 10
238.4314870667889
 20
40.52908331512636
 30
0.0
 10
238.4354062337739
 20
40.4296434785841
 30
0.0
 10
238.4243969280223
 20
40.22908331905424
 30
0.0
 10
238.4095311266568
 20
40.12683567451734
 30
0.0
 10
238.3594341955524
 20
39.91977887116351
 30
0.0
 10
238.3251615633364
 20
39.81872781370756
 30
0.0
 10
238.238383865787
 20
39.62145421554259
 30
0.0
 10
238.1849424573882
 20
39.5240726405295
 30
0.0
 10
238.0641673448579
 20
39.34374459121755
 30
0.0
 10
237.9967409430894
 20
39.25995639946185
 30
0.0
 10
237.8476681615064
 20
39.10520216606522
 30
0.0
 10
237.7684416858531
 20
39.03680121467816
 30
0.0
 10
237.6021610846621
 20
38.9174729199855
 30
0.0
 10
237.5142335111474
 20
38.86624001729638
 30
0.0
 10
237.3370406934718
 20
38.78437491642769
 30
0.0
 10
237.247041895153
 20
38.75307742078709
 30
0.0
 10
237.0639159644436
 20
38.70931038010792
 30
0.0
 10
236.9731331794011
 20
38.69742998325327
 30
0.0
 10
236.7934501986541
 20
38.69239895211199
 30
0.0
 10
236.7036496282607
 20
38.69940401797849
 30
0.0
 10
236.5294391880797
 20
38.73186492631686
 30
0.0
 10
236.4453783407253
 20
38.75705606666865
 30
0.0
 10
236.2830120851344
 20
38.82488085795447
 30
0.0
 10
236.2040458023621
 20
38.86805988345743
 30
0.0
 10
236.0567911755554
 20
38.96965807926571
 30
0.0
 10
235.9881890166712
 20
39.02799833716844
 30
0.0
 10
235.8611837325956
 20
39.15975633694304
 30
0.0
 10
235.8023328218237
 20
39.23401734647809
 30
0.0
 10
235.6996803780099
 20
39.39316137790644
 30
0.0
 10
235.6554511607633
 20
39.47821443739262
 30
0.0
 10
235.582040326062
 20
39.65954073480697
 30
0.0
 10
235.552743174994
 20
39.75694092842119
 30
0.0
 10
235.5133549181301
 20
39.95564521484197
 30
0.0
 10
235.5028233805711
 20
40.05748181079359
 30
0.0
 10
235.501777565955
 20
40.26629777117618
 30
0.0
 10
235.5116753333672
 20
40.37402368428041
 30
0.0
 10
235.5526104800603
 20
40.58328983374345
 30
0.0
 10
235.5834803652607
 20
40.68619049700851
 30
0.0
 10
235.6679350254795
 20
40.88814039839051
 30
0.0
 10
235.7208230937791
 20
40.98502323909831
 30
0.0
 10
235.7832068139452
 20
41.07540860165473
 30
0.0
  0
LWPOLYLINE
  5
1FF
330
1F
100
AcDbEntity
  8
0
  6
Continuous
 62
     7
370
    25
100
AcDbPolyline
 90
       18
 70
   128
 43
0.0
 10
249.4973304543
 20
28.7535203662
 10
249.4996620311
 20
28.7707156393
 10
249.6917900864
 20
29.7337020939
 10
250.005856877
 20
30.7173311837
 10
250.4328265137
 20
31.6933051263
 10
250.9604161535
 20
32.6335466929
 10
251.573447992
 20
33.5110074526
 10
252.2542863718
 20
34.300444449
 10
252.9833446153
 20
34.9791466321
 10
253.7396490471
 20
35.527588982
 10
254.5014422416
 20
35.9299940661
 10
255.2468087636
 20
36.1747852872
 10
255.9543058483
 20
36.254920549
 10
256.6035800253
 20
36.1680942318
 10
257.1759528319
 20
35.9168045928
 10
257.6549580214
 20
35.5082802362
 10
258.0268157146
 20
34.9542741732
 10
258.274711953
 20
34.2940245398
  0
ARC
  5
200
330
1F
100
AcDbEntity
  8
0
  6
Continuous
 62
     7
370
    25
100
AcDbCircle
 10
251.9719787374
 20
27.2535801801
 30
0.0
 40
2.612614931944412
100
AcDbArc
 50
243.2415314361
 51
287.9040495386
  0
LINE
  5
201
330
1F
100
AcDbEntity
  8
0
  6
Continuous
 62
     7
370
    25
100
AcDbLine
 10
263.1148874815
 20
31.4998505784
 30
0.0
 11
263.2003571744
 21
31.4473433374
 31
0.0
  0
LINE
  5
202
330
1F
100
AcDbEntity
  8
0
  6
Continuous
 62
     7
370
    25
100
AcDbLine
 10
257.8116991876
 20
21.87509685
 30
0.0
 11
257.6153345508
 21
21.9733131832
 31
0.0
  0
LWPOLYLINE
  5
203
330
1F
100
AcDbEntity
  8
0
  6
Continuous
 62
     7
370
    25
100
AcDbPolyline
 90
       15
 70
   128
 43
0.0
 10
250.9278972257
 20
27.8634979806
 10
250.9877355431
 20
28.5338353544
 10
251.173224482
 20
29.4170367568
 10
251.4757413897
 20
30.3170782752
 10
251.8855628566
 20
31.205031578
 10
252.3895173341
 20
32.0523576336
 10
252.9714070967
 20
32.8318222688
 10
253.6125295628
 20
33.5183728855
 10
254.2922787512
 20
34.089943093
 10
254.9888068922
 20
34.5281625974
 10
255.6797269505
 20
34.8189464117
 10
256.3428322908
 20
34.9529483324
 10
256.9568101285
 20
34.9258613983
 10
257.5019266011
 20
34.7385567177
 10
257.5641001174
 20
34.7042519161
  0
ARC
  5
204
330
1F
100
AcDbEntity
  8
0
  6
Continuous
 62
     7
370
    25
100
AcDbCircle
 10
253.1076023614
 20
26.931648348
 30
0.0
 40
2.040648908399161
100
AcDbArc
 50
204.5531273635
 51
239.260274431
  0
LWPOLYLINE
  5
205
330
1F
100
AcDbEntity
  8
0
  6
Continuous
 62
     7
370
    25
100
AcDbPolyline
 90
       17
 70
   128
 43
0.0
 10
259.2000688965
 20
28.0830642662
 10
259.1556630757
 20
28.3152224493
 10
259.0292059019
 20
28.4607668554
 10
258.8399492653
 20
28.4975394014
 10
258.6167058051
 20
28.4199420881
 10
258.3934625097
 20
28.2397880838
 10
258.2042058731
 20
27.9845044763
 10
258.0777486993
 20
27.6929557252
 10
258.0333427138
 20
27.4095275776
 10
258.0777486993
 20
27.1773692994
 10
258.2042058731
 20
27.0318248934
 10
258.3934625097
 20
26.9950523473
 10
258.6167058051
 20
27.0726497558
 10
258.8399492653
 20
27.252803665
 10
259.0292059019
 20
27.5080872725
 10
259.1556630757
 20
27.7996360236
 10
259.2000688965
 20
28.0830642662
  0
LWPOLYLINE
  5
206
330
1F
100
AcDbEntity
  8
0
  6
Continuous
 62
     7
370
    25
100
AcDbPolyline
 90
        3
 70
   128
 43
0.0
 10
259.0527176695
 20
24.4632036366
 10
259.0526109853
 20
24.4632651491
 10
259.0086040778
 20
24.4904421384
  0
SPLINE
  5
207
330
1F
100
AcDbEntity
  8
0
  6
Continuous
 62
     7
370
    25
100
AcDbSpline
210
0.0
220
0.0
230
1.0
 70
     8
 71
     3
 72
    14
 73
    10
 74
     0
 42
0.000000001
 43
0.00000001
 40
0.0
 40
0.0
 40
0.0
 40
0.0
 40
0.25
 40
0.25
 40
0.5
 40
0.5
 40
0.75
 40
0.75
 40
1.0
 40
1.0
 40
1.0
 40
1.0
 10
211.9285290739017
 20
39.69792339818637
 30
0.0
 10
211.8813559666693
 20
39.67069094304024
 30
0.0
 10
211.8257919019705
 20
39.6489465848993
 30
0.0
 10
211.7038664298515
 20
39.61870115749328
 30
0.0
 10
211.6377699089757
 20
39.61040212738298
 30
0.0
 10
211.5055779798389
 20
39.60896951160321
 30
0.0
 10
211.4386428283082
 20
39.61591948578482
 30
0.0
 10
211.3160323366379
 20
39.64412883939423
 30
0.0
 10
211.2590968818342
 20
39.66570468370188
 30
0.0
 10
211.212354338462
 20
39.69268857962228
 30
0.0
  0
SPLINE
  5
208
330
1F
100
AcDbEntity
  8
0
  6
Continuous
 62
     7
370
    25
100
AcDbSpline
210
0.0
220
0.0
230
1.0
 70
     8
 71
     3
 72
    12
 73
     8
 74
     0
 42
0.000000001
 43
0.00000001
 40
0.0
 40
0.0
 40
0.0
 40
0.0
 40
0.2500000000000032
 40
0.2500000000000032
 40
0.5000000000000064
 40
0.5000000000000064
 40
1.0
 40
1.0
 40
1.0
 40
1.0
 10
239.5408174945417
 20
67.45791317477656
 30
0.0
 10
239.5945895134898
 20
67.42687124898384
 30
0.0
 10
239.6470777886079
 20
67.37789661972703
 30
0.0
 10
239.7380837155465
 20
67.2611657448775
 30
0.0
 10
239.7766580690758
 20
67.19371427954438
 30
0.0
 10
239.8664816583721
 20
66.98939705253748
 30
0.0
 10
239.8943708851349
 20
66.84903422334007
 30
0.0
 10
239.8943708851349
 20
66.72621749828538
 30
0.0
  0
LINE
  5
209
330
1F
100
AcDbEntity
  8
0
  6
Continuous
 62
     7
370
    25
100
AcDbLine
 10
211.2123538792
 20
39.6926882829
 30
0.0
 11
209.5549060125
 21
40.6495125698
 31
0.0
  0
LWPOLYLINE
  5
20A
330
1F
100
AcDbEntity
  8
0
  6
Continuous
 62
     7
370
    25
100
AcDbPolyline
 90
       25
 70
   128
 43
0.0
 10
209.5549060125
 20
40.6495125698
 10
209.9443784541
 20
42.5379339023
 10
210.4539720482
 20
44.4518377215
 10
211.0800542632
 20
46.3775843255
 10
211.8181654358
 20
48.3014496788
 10
212.6630437952
 20
50.2097238895
 10
213.6086676105
 20
52.0888051231
 10
214.6482986544
 20
53.9253030208
 10
215.7745276425
 20
55.7061295707
 10
216.9793282344
 20
57.4185934003
 10
218.2541136683
 20
59.0504887452
 10
219.5897999812
 20
60.5901882198
 10
220.9768672536
 20
62.0267161959
 10
222.4054307326
 20
63.3498370101
 10
223.8653093201
 20
64.550120357
 10
225.3460985067
 20
65.6190122904
 10
226.8372455282
 20
66.5488938199
 10
228.3281233697
 20
67.3331403621
 10
229.8081068271
 20
67.9661595668
 10
231.2666488985
 20
68.4434445423
 10
232.6933546234
 20
68.7615891051
 10
234.078056404
 20
68.9183297408
 10
235.4108852923
 20
68.9125472136
 10
236.6823437593
 20
68.7442842402
 10
237.8833702326
 20
68.4147371186
  0
LINE
  5
20B
330
1F
100
AcDbEntity
  8
0
  6
Continuous
 62
     7
370
    25
100
AcDbLine
 10
237.8833702326
 20
68.4147371186
 30
0.0
 11
239.5408180993
 21
67.4579128317
 31
0.0
  0
LINE
  5
20C
330
1F
100
AcDbEntity
  8
0
  6
Continuous
 62
     7
370
    25
100
AcDbLine
 10
244.3314666357
 20
57.9954705167
 30
0.0
 11
245.7699833564
 21
58.8259085432
 31
0.0
  0
LINE
  5
20D
330
1F
100
AcDbEntity
  8
0
  6
Continuous
 62
     7
370
    25
100
AcDbLine
 10
244.3314666357
 20
49.9515617364
 30
0.0
 11
244.3314666357
 21
57.9954705167
 31
0.0
  0
LINE
  5
20E
330
1F
100
AcDbEntity
  8
0
  6
Continuous
 62
     7
370
    25
100
AcDbLine
 10
245.7699833564
 20
50.6605006068
 30
0.0
 11
244.4257715263
 21
49.8845036349
 31
0.0
  0
LINE
  5
20F
330
1F
100
AcDbEntity
  8
0
  6
Continuous
 62
     7
370
    25
100
AcDbLine
 10
211.9285295928
 20
30.7159747171
 30
0.0
 11
213.289477673
 21
31.5016333206
 31
0.0
  0
LINE
  5
210
330
1F
100
AcDbEntity
  8
0
  6
Continuous
 62
     7
370
    25
100
AcDbLine
 10
213.289477673
 20
31.5016333206
 30
0.0
 11
213.289477673
 21
40.4835822027
 31
0.0
  0
LINE
  5
211
330
1F
100
AcDbEntity
  8
0
  6
Continuous
 62
     7
370
    25
100
AcDbLine
 10
213.289477673
 20
40.4835822027
 30
0.0
 11
211.9285295928
 21
39.6979235992
 31
0.0
  0
LINE
  5
212
330
1F
100
AcDbEntity
  8
0
  6
Continuous
 62
     7
370
    25
100
AcDbLine
 10
239.8943715479
 20
66.7262183465
 30
0.0
 11
239.8943715479
 21
64.1505639944
 31
0.0
  0
LINE
  5
213
330
1F
100
AcDbEntity
  8
0
  6
Continuous
 62
     7
370
    25
100
AcDbLine
 10
242.1248328205
 20
65.4381818793
 30
0.0
 11
239.8943715479
 21
64.1505639944
 31
0.0
  0
LWPOLYLINE
  5
214
330
1F
100
AcDbEntity
  8
0
  6
Continuous
 62
     7
370
    25
100
AcDbPolyline
 90
       13
 70
   128
 43
0.0
 10
250.6078590828
 20
28.1124258773
 10
250.6711448807
 20
28.8517264318
 10
250.861663124
 20
29.734941811
 10
251.1719762109
 20
30.6337220355
 10
251.5915171362
 20
31.5174605113
 10
252.1059989415
 20
32.3560624044
 10
252.6979015441
 20
33.12097027
 10
253.3470681314
 20
33.7861355351
 10
254.0313924342
 20
34.3289078431
 10
254.7275704559
 20
34.7308028604
 10
255.4118947588
 20
34.9781345747
 10
256.0610613461
 20
35.0624810974
 10
256.4930418479
 20
35.0206936221
  0
LWPOLYLINE
  5
215
330
1F
100
AcDbEntity
  8
0
  6
Continuous
 62
     7
370
    25
100
AcDbPolyline
 90
       14
 70
   128
 43
0.0
 10
250.5600322879
 20
28.1400354276
 10
250.6233457447
 20
28.8859899229
 10
250.813498825
 20
29.7675129261
 10
251.1232175755
 20
30.6645713284
 10
251.5419547473
 20
31.5466165188
 10
252.0554508761
 20
32.3836117414
 10
252.6462191358
 20
33.1470537311
 10
253.2941420617
 20
33.8109447672
 10
253.9771552025
 20
34.352676885
 10
254.6719993423
 20
34.7538018687
 10
255.355012483
 20
35.0006599377
 10
256.002935409
 20
35.0848447886
 10
256.5937036686
 20
35.0034893129
 10
256.6264339892
 20
34.993516193
  0
LINE
  5
216
330
1F
100
AcDbEntity
  8
0
  6
Continuous
 62
     7
370
    25
100
AcDbLine
 10
251.3451414771
 20
25.8450576155
 30
0.0
 11
251.2288313217
 21
25.9614509108
 31
0.0
  0
LINE
  5
217
330
1F
100
AcDbEntity
  8
0
  6
Continuous
 62
     7
370
    25
100
AcDbLine
 10
224.6758086927
 20
31.4635550867
 30
0.0
 11
224.6188238487
 21
31.4735386575
 31
0.0
  0
LWPOLYLINE
  5
218
330
1F
100
AcDbEntity
  8
0
  6
Continuous
 62
     7
370
    25
100
AcDbPolyline
 90
       22
 70
   128
 43
0.0
 10
208.5761205299
 20
42.1957150092
 10
208.9887210547
 20
44.1059149694
 10
209.5289198462
 20
46.0405716108
 10
210.1924047551
 20
47.9842388155
 10
210.9738810835
 20
49.9214005956
 10
211.8671058294
 20
51.8365882008
 10
212.8649509072
 20
53.7145131935
 10
213.9594466111
 20
55.5401799934
 10
215.1418573482
 20
57.2990162893
 10
216.4027415661
 20
58.9769768376
 10
217.7320327532
 20
60.560665508
 10
219.1191178064
 20
62.0374383193
 10
220.5529223119
 20
63.395505904
 10
222.0219997783
 20
64.624024565
 10
223.5146205402
 20
65.7131871426
 10
225.0188678384
 20
66.654296732
 10
226.5227321622
 20
67.4398409173
 10
228.0142065626
 20
68.0635467955
 10
229.4813834696
 20
68.520435346
 10
230.9125495165
 20
68.8068579214
 10
232.2962773098
 20
68.9205279315
 10
233.507422978
 20
68.8727944799
  0
SPLINE
  5
219
330
1F
100
AcDbEntity
  8
0
  6
Continuous
 62
     7
370
    25
100
AcDbSpline
210
0.0
220
0.0
230
1.0
 70
     8
 71
     3
 72
     8
 73
     4
 74
     0
 42
0.000000001
 43
0.00000001
 40
0.0
 40
0.0
 40
0.0
 40
0.0
 40
1.0
 40
1.0
 40
1.0
 40
1.0
 10
208.5761207127985
 20
42.19571529262599
 30
0.0
 10
208.1335843589531
 20
42.12402876219673
 30
0.0
 10
207.6909751689014
 20
42.05249259659496
 30
0.0
 10
207.248303462685
 20
41.98108644029026
 30
0.0
  0
LWPOLYLINE
  5
21A
330
1F
100
AcDbEntity
  8
0
  6
Continuous
 62
     7
370
    25
100
AcDbPolyline
 90
       25
 70
   128
 43
0.0
 10
207.2483031654
 20
41.9810860501
 10
207.637775607
 20
43.8695073826
 10
208.1473692011
 20
45.7834112018
 10
208.7734514161
 20
47.7091578058
 10
209.5115625886
 20
49.6330231591
 10
210.356440948
 20
51.5412973698
 10
211.3020647634
 20
53.4203786035
 10
212.3416958073
 20
55.2568765011
 10
213.4679247954
 20
57.037703051
 10
214.6727253873
 20
58.7501668806
 10
215.9475108211
 20
60.3820622255
 10
217.283197134
 20
61.9217617001
 10
218.6702644065
 20
63.3582896762
 10
220.0988278855
 20
64.6814104904
 10
221.5587064729
 20
65.8816938373
 10
223.0394956595
 20
66.9505857708
 10
224.5306426811
 20
67.8804673002
 10
226.0215205226
 20
68.6647138424
 10
227.5015039799
 20
69.2977330471
 10
228.9600460513
 20
69.7750180226
 10
230.3867517763
 20
70.0931625854
 10
231.7714535569
 20
70.2499032211
 10
233.1042824451
 20
70.2441206939
 10
234.3757409121
 20
70.0758577206
 10
235.5767673855
 20
69.7463105989
  0
LINE
  5
21B
330
1F
100
AcDbEntity
  8
0
  6
Continuous
 62
     7
370
    25
100
AcDbLine
 10
235.5767673855
 20
69.7463105989
 30
0.0
 11
235.8729425096
 21
68.8024024193
 31
0.0
  0
LINE
  5
21C
330
1F
100
AcDbEntity
  8
0
  6
Continuous
 62
     7
370
    25
100
AcDbLine
 10
231.4090900999
 20
72.1522594838
 30
0.0
 11
235.5767673855
 21
69.7463105989
 31
0.0
  0
LINE
  5
21D
330
1F
100
AcDbEntity
  8
0
  6
Continuous
 62
     7
370
    25
100
AcDbLine
 10
207.2483031654
 20
41.9810860501
 30
0.0
 11
206.6161597067
 21
42.3460147011
 31
0.0
  0
SPLINE
  5
21E
330
1F
100
AcDbEntity
  8
0
  6
Continuous
 62
     7
370
    25
100
AcDbSpline
210
0.0
220
0.0
230
1.0
 70
     8
 71
     3
 72
    30
 73
    26
 74
     0
 42
0.000000001
 43
0.00000001
 40
0.0
 40
0.0
 40
0.0
 40
0.0
 40
0.1250000000000002
 40
0.1250000000000002
 40
0.1875000000000003
 40
0.1875000000000003
 40
0.2500000000000004
 40
0.2500000000000004
 40
0.3750000000000001
 40
0.3750000000000001
 40
0.4374999999999998
 40
0.4374999999999998
 40
0.4999999999999996
 40
0.4999999999999996
 40
0.6249999999999996
 40
0.6249999999999996
 40
0.6874999999999997
 40
0.6874999999999997
 40
0.7499999999999997
 40
0.7499999999999997
 40
0.8124999999999998
 40
0.8124999999999998
 40
0.8749999999999999
 40
0.8749999999999999
 40
1.0
 40
1.0
 40
1.0
 40
1.0
 10
206.6161602607494
 20
42.3460149430461
 30
0.0
 10
206.3818446271428
 20
42.48128247907673
 30
0.0
 10
206.1463441506141
 20
42.58454500800609
 30
0.0
 10
205.7917937032244
 20
42.69378774576986
 30
0.0
 10
205.6733994398254
 20
42.72254070776656
 30
0.0
 10
205.4363447947751
 20
42.76449387241627
 30
0.0
 10
205.3175248835393
 20
42.77759900731836
 30
0.0
 10
204.9688809995631
 20
42.79285039633268
 30
0.0
 10
204.7441161569212
 20
42.77177163489068
 30
0.0
 10
204.4199055093174
 20
42.69476858301499
 30
0.0
 10
204.3134894334061
 20
42.66125997798178
 30
0.0
 10
204.1081802034337
 20
42.57972163185815
 30
0.0
 10
204.009585472926
 20
42.53191602675683
 30
0.0
 10
203.726087479127
 20
42.36824881720391
 30
0.0
 10
203.5533445054568
 20
42.23233672072732
 30
0.0
 10
203.3212197069608
 20
41.98796558382224
 30
0.0
 10
203.2489057211347
 20
41.90014849861459
 30
0.0
 10
203.1165874070651
 20
41.71476792967432
 30
0.0
 10
203.0562334683443
 20
41.61684692963399
 30
0.0
 10
202.9472703342012
 20
41.41075907892975
 30
0.0
 10
202.8986605091031
 20
41.30259227208549
 30
0.0
 10
202.8136246932085
 20
41.07590255857875
 30
0.0
 10
202.7770738140335
 20
40.95676213085597
 30
0.0
 10
202.6880795369406
 20
40.58877780240185
 30
0.0
 10
202.6557429799605
 20
40.32955267710518
 30
0.0
 10
202.6510570736636
 20
40.05634609567502
 30
0.0
  0
ARC
  5
21F
330
1F
100
AcDbEntity
  8
0
  6
Continuous
 62
     7
370
    25
100
AcDbCircle
 10
226.2137346946
 20
39.6480758297
 30
0.0
 40
23.56621418197529
100
AcDbArc
 50
179.0073355702
 51
180.9926644298
  0
SPLINE
  5
220
330
1F
100
AcDbEntity
  8
0
  6
Continuous
 62
     7
370
    25
100
AcDbSpline
210
0.0
220
0.0
230
1.0
 70
     8
 71
     3
 72
    30
 73
    26
 74
     0
 42
0.000000001
 43
0.00000001
 40
0.0
 40
0.0
 40
0.0
 40
0.0
 40
0.1249999999999996
 40
0.1249999999999996
 40
0.1874999999999994
 40
0.1874999999999994
 40
0.2499999999999993
 40
0.2499999999999993
 40
0.3749999999999992
 40
0.3749999999999992
 40
0.4374999999999993
 40
0.4374999999999993
 40
0.4999999999999994
 40
0.4999999999999994
 40
0.6249999999999992
 40
0.6249999999999992
 40
0.6874999999999993
 40
0.6874999999999993
 40
0.7499999999999994
 40
0.7499999999999994
 40
0.8124999999999997
 40
0.8124999999999997
 40
0.8749999999999998
 40
0.8749999999999998
 40
1.0
 40
1.0
 40
1.0
 40
1.0
 10
202.6510570736636
 20
39.23980528378927
 30
0.0
 10
202.6557433203224
 20
38.97198948315755
 30
0.0
 10
202.6880528406411
 20
38.69827331817214
 30
0.0
 10
202.7757108960097
 20
38.27902517097673
 30
0.0
 10
202.8115050673232
 20
38.13781475228442
 30
0.0
 10
202.8963656821756
 20
37.85231413729228
 30
0.0
 10
202.9456183300893
 20
37.70772907246126
 30
0.0
 10
203.1098226662587
 20
37.27863680330963
 30
0.0
 10
203.2418751243191
 20
36.9956639878258
 30
0.0
 10
203.471925691838
 20
36.57466007708866
 30
0.0
 10
203.5543887303319
 20
36.43425500721487
 30
0.0
 10
203.728140465551
 20
36.15759071312063
 30
0.0
 10
203.8189420573846
 20
36.02200616407426
 30
0.0
 10
204.102336529616
 20
35.62290909731463
 30
0.0
 10
204.305816404283
 20
35.36698215430744
 30
0.0
 10
204.6317243915318
 20
34.99735617427176
 30
0.0
 10
204.7434650069929
 20
34.87703732708624
 30
0.0
 10
204.9687691111303
 20
34.64619972895542
 30
0.0
 10
205.0828917586093
 20
34.53503713487588
 30
0.0
 10
205.3138015451737
 20
34.32096332570091
 30
0.0
 10
205.4305889611825
 20
34.21805219896644
 30
0.0
 10
205.6666719236523
 20
34.0204940320512
 30
0.0
 10
205.786549298042
 20
33.92542225944583
 30
0.0
 10
206.1450325532058
 20
33.65661718084326
 30
0.0
 10
206.3818412197691
 20
33.49933551536847
 30
0.0
 10
206.6161602607494
 20
33.36406601230285
 30
0.0
  0
LINE
  5
221
330
1F
100
AcDbEntity
  8
0
  6
Continuous
 62
     7
370
    25
100
AcDbLine
 10
206.6161597067
 20
33.364065819
 30
0.0
 11
207.2483031654
 21
32.999137168
 31
0.0
  0
LWPOLYLINE
  5
222
330
1F
100
AcDbEntity
  8
0
  6
Continuous
 62
     7
370
    25
100
AcDbPolyline
 90
        9
 70
   128
 43
0.0
 10
213.2004905292
 20
25.2205162954
 10
212.3872223062
 20
25.5807554367
 10
211.3378342669
 20
26.2147118913
 10
210.3833240519
 20
27.0017870114
 10
209.5305760857
 20
27.936307098
 10
208.7857385395
 20
29.0115285495
 10
208.1541864538
 20
30.219700224
 10
207.6404730053
 20
31.5521060289
 10
207.2483031654
 20
32.999137168
  0
LINE
  5
223
330
1F
100
AcDbEntity
  8
0
  6
Continuous
 62
     7
370
    25
100
AcDbLine
 10
237.5287196489
 20
68.6189682187
 30
0.0
 11
237.8811305227
 21
68.4155257517
 31
0.0
  0
SPLINE
  5
224
330
1F
100
AcDbEntity
  8
0
  6
Continuous
 62
     7
370
    25
100
AcDbSpline
210
0.0
220
0.0
230
1.0
 70
     8
 71
     3
 72
    22
 73
    18
 74
     0
 42
0.000000001
 43
0.00000001
 40
0.0
 40
0.0
 40
0.0
 40
0.0
 40
0.2500000000000002
 40
0.2500000000000002
 40
0.3750000000000003
 40
0.3750000000000003
 40
0.5000000000000004
 40
0.5000000000000004
 40
0.6250000000000004
 40
0.6250000000000004
 40
0.7500000000000004
 40
0.7500000000000004
 40
0.8750000000000004
 40
0.8750000000000004
 40
0.9375000000000002
 40
0.9375000000000002
 40
1.0
 40
1.0
 40
1.0
 40
1.0
 10
231.4090895108964
 20
72.15225981775717
 30
0.0
 10
231.8411216064355
 20
71.98398937965072
 30
0.0
 10
232.2914962548009
 20
71.77331337477051
 30
0.0
 10
233.0164696964851
 20
71.38821913851386
 30
0.0
 10
233.2684370202045
 20
71.24709360023807
 30
0.0
 10
233.7812291333368
 20
70.9480766310209
 30
0.0
 10
234.0427504453959
 20
70.78991079366509
 30
0.0
 10
234.5803251269945
 20
70.45731085232761
 30
0.0
 10
234.8582876716573
 20
70.28161304096156
 30
0.0
 10
235.4108935904026
 20
69.9299701248682
 30
0.0
 10
235.687889515574
 20
69.75259129574549
 30
0.0
 10
236.2460770954707
 20
69.39828087643292
 30
0.0
 10
236.5162531846305
 20
69.22842303672047
 30
0.0
 10
236.9077204997269
 20
68.98785405174574
 30
0.0
 10
237.0359677298348
 20
68.90998616919735
 30
0.0
 10
237.2878293690163
 20
68.75937987369893
 30
0.0
 10
237.4107216028627
 20
68.68708703448799
 30
0.0
 10
237.5287202617221
 20
68.61896785868589
 30
0.0
  0
LWPOLYLINE
  5
225
330
1F
100
AcDbEntity
  8
0
  6
Continuous
 62
     7
370
    25
100
AcDbPolyline
 90
       12
 70
   128
 43
0.0
 10
219.0680172839
 20
71.3521483017
 10
219.1220913201
 20
71.3821524005
 10
220.5996977199
 20
72.1278064348
 10
222.0643431818
 20
72.7235755189
 10
223.5057538763
 20
73.1652823246
 10
224.9138198282
 20
73.4498281539
 10
226.2786638577
 20
73.5752160074
 10
227.5907130326
 20
73.5405674983
 10
228.8407641933
 20
73.3461256974
 10
230.0200488197
 20
72.9932545573
 10
231.1202949342
 20
72.4844274993
 10
231.2508619197
 20
72.4106115638
  0
LWPOLYLINE
  5
226
330
1F
100
AcDbEntity
  8
0
  6
Continuous
 62
     7
370
    25
100
AcDbPolyline
 90
       10
 70
   128
 43
0.0
 10
206.2528943524
 20
29.1081682015
 10
205.8654120323
 20
29.3461746918
 10
204.8980035646
 20
30.0819053283
 10
204.0277712417
 20
30.9626744964
 10
203.2608184539
 20
31.9823028625
 10
202.6025228757
 20
33.133638529
 10
202.0575048554
 20
34.4086072278
 10
201.6295852683
 20
35.798264416
 10
201.3217657602
 20
37.2928629592
 10
201.1668721407
 20
38.520383232
  0
LINE
  5
227
330
1F
100
AcDbEntity
  8
0
  6
Continuous
 62
     7
370
    25
100
AcDbLine
 10
208.8972215636
 20
42.3810826903
 30
0.0
 11
208.5761205299
 21
42.1957150092
 31
0.0
  0
LINE
  5
228
330
1F
100
AcDbEntity
  8
0
  6
Continuous
 62
     7
370
    25
100
AcDbLine
 10
209.8578707305
 20
42.162668382
 30
0.0
 11
209.4712162008
 21
42.3858792908
 31
0.0
  0
SPLINE
  5
229
330
1F
100
AcDbEntity
  8
0
  6
Continuous
 62
     7
370
    25
100
AcDbSpline
210
0.0
220
0.0
230
1.0
 70
     8
 71
     3
 72
    12
 73
     8
 74
     0
 42
0.000000001
 43
0.00000001
 40
0.0
 40
0.0
 40
0.0
 40
0.0
 40
0.250000000000003
 40
0.250000000000003
 40
0.500000000000006
 40
0.500000000000006
 40
1.0
 40
1.0
 40
1.0
 40
1.0
 10
209.4712163674907
 20
42.38587977049187
 30
0.0
 10
209.4338243299078
 20
42.4074657343183
 30
0.0
 10
209.3876760190528
 20
42.42490586934076
 30
0.0
 10
209.2889761816703
 20
42.44736199765509
 30
0.0
 10
209.2354646153748
 20
42.4527483032557
 30
0.0
 10
209.0768671956734
 20
42.45066714444556
 30
0.0
 10
208.9721531010556
 20
42.42433992395477
 30
0.0
 10
208.8972212625289
 20
42.38108269432927
 30
0.0
  0
LWPOLYLINE
  5
22A
330
1F
100
AcDbEntity
  8
0
  6
Continuous
 62
     7
370
    25
100
AcDbPolyline
 90
       17
 70
   128
 43
0.0
 10
236.4719440573
 20
39.0875753847
 10
236.8577694795
 20
38.974711563
 10
237.2800031933
 20
39.0438362444
 10
237.6743705963
 20
39.2844255035
 10
237.9808295514
 20
39.6598514244
 10
238.1527248145
 20
40.1129593111
 10
238.1638871439
 20
40.5747681504
 10
238.0126184826
 20
40.9749687057
 10
237.7219445101
 20
41.252639672
 10
237.3361220514
 20
41.3655017828
 10
236.9138880083
 20
41.2963772915
 10
236.5195212638
 20
41.0557876522
 10
236.2130616502
 20
40.6803621116
 10
236.0411670456
 20
40.2272538446
 10
236.0300040576
 20
39.7654453855
 10
236.1812730482
 20
39.3652446401
 10
236.4719440573
 20
39.0875753847
  0
LWPOLYLINE
  5
22B
330
1F
100
AcDbEntity
  8
0
  6
Continuous
 62
     7
370
    25
100
AcDbPolyline
 90
       18
 70
   128
 43
0.0
 10
201.294851396
 20
44.0847341756
 10
201.3259425994
 20
44.3191161875
 10
201.6389106084
 20
46.1767075482
 10
202.0739042806
 20
48.068053152
 10
202.6277889441
 20
49.9795242769
 10
203.2965751363
 20
51.8973504552
 10
204.0754423113
 20
53.8077122469
 10
204.9587809871
 20
55.6968465607
 10
205.9402256724
 20
57.5511417079
 10
207.0127035993
 20
59.3572370194
 10
208.1684900405
 20
61.1021194184
 10
209.3992557253
 20
62.773217714
 10
210.6961340103
 20
64.3584930898
 10
212.049780149
 20
65.8465204675
 10
213.4504414265
 20
67.2265791862
 10
214.8880259775
 20
68.4887277108
 10
216.3521762139
 20
69.6238718771
 10
217.6417220997
 20
70.5032352392
  0
LINE
  5
22C
330
1F
100
AcDbEntity
  8
0
  6
Continuous
 62
     7
370
    25
100
AcDbLine
 10
208.3397300519
 20
34.3590618002
 30
0.0
 11
213.289477673
 21
31.5016333206
 31
0.0
  0
ARC
  5
22D
330
1F
100
AcDbEntity
  8
0
  6
Continuous
 62
     7
370
    25
100
AcDbCircle
 10
212.4802765626
 20
40.8320902544
 30
0.0
 40
7.684023866253109
100
AcDbArc
 50
182.6054781208
 51
237.3945216397
  0
LINE
  5
22E
330
1F
100
AcDbEntity
  8
0
  6
Continuous
 62
     7
370
    25
100
AcDbLine
 10
204.804196225
 20
41.2993269005
 30
0.0
 11
204.804196225
 21
40.4827860498
 31
0.0
  0
ARC
  5
22F
330
1F
100
AcDbEntity
  8
0
  6
Continuous
 62
     7
370
    25
100
AcDbCircle
 10
208.0169391721
 20
41.4124747514
 30
0.0
 40
3.214734776046042
100
AcDbArc
 50
155.343366055
 51
182.0170353142
  0
SPLINE
  5
230
330
1F
100
AcDbEntity
  8
0
  6
Continuous
 62
     7
370
    25
100
AcDbSpline
210
0.0
220
0.0
230
1.0
 70
     8
 71
     3
 72
     8
 73
     4
 74
     0
 42
0.000000001
 43
0.00000001
 40
0.0
 40
0.0
 40
0.0
 40
0.0
 40
1.0
 40
1.0
 40
1.0
 40
1.0
 10
193.0484262899014
 20
45.79265699250175
 30
0.0
 10
193.5152885155682
 20
45.41241540523981
 30
0.0
 10
193.9823232999516
 20
45.04550875669697
 30
0.0
 10
194.4494484121269
 20
44.685582431105
 30
0.0
  0
SPLINE
  5
231
330
1F
100
AcDbEntity
  8
0
  6
Continuous
 62
     7
370
    25
100
AcDbSpline
210
0.0
220
0.0
230
1.0
 70
     8
 71
     3
 72
    14
 73
    10
 74
     0
 42
0.000000001
 43
0.00000001
 40
0.0
 40
0.0
 40
0.0
 40
0.0
 40
0.1249999999999987
 40
0.1249999999999987
 40
0.2499999999999973
 40
0.2499999999999973
 40
0.4999999999999947
 40
0.4999999999999947
 40
1.0
 40
1.0
 40
1.0
 40
1.0
 10
194.449448412127
 20
44.68558243110497
 30
0.0
 10
194.4758723508002
 20
44.66522242281935
 30
0.0
 10
194.499936293305
 20
44.64971011950469
 30
0.0
 10
194.5362055507301
 20
44.63272675094532
 30
0.0
 10
194.5482239257183
 20
44.63085250953939
 30
0.0
 10
194.5737381723887
 20
44.63499335087464
 30
0.0
 10
194.5779318348367
 20
44.64993573893765
 30
0.0
 10
194.5790386445723
 20
44.7042870752828
 30
0.0
 10
194.5634106594837
 20
44.7557080359588
 30
0.0
 10
194.54375792685
 20
44.81205686354477
 30
0.0
  0
SPLINE
  5
232
330
1F
100
AcDbEntity
  8
0
  6
Continuous
 62
     7
370
    25
100
AcDbSpline
210
0.0
220
0.0
230
1.0
 70
     8
 71
     3
 72
    14
 73
    10
 74
     0
 42
0.000000001
 43
0.00000001
 40
0.0
 40
0.0
 40
0.0
 40
0.0
 40
0.25
 40
0.25
 40
0.5
 40
0.5
 40
0.75
 40
0.75
 40
1.0
 40
1.0
 40
1.0
 40
1.0
 10
194.5437579268496
 20
44.81205686354513
 30
0.0
 10
194.5190920789116
 20
44.88277942608294
 30
0.0
 10
194.5082292081872
 20
44.94584572383314
 30
0.0
 10
194.4862788409923
 20
45.07741246479173
 30
0.0
 10
194.4760072461733
 20
45.14536580378342
 30
0.0
 10
194.4467032318148
 20
45.29397080762686
 30
0.0
 10
194.427910560585
 20
45.37443461405773
 30
0.0
 10
194.3749912560689
 20
45.55400548787205
 30
0.0
 10
194.3409120788899
 20
45.65283653379991
 30
0.0
 10
194.2968258266122
 20
45.76043658877919
 30
0.0
  0
LWPOLYLINE
  5
233
330
1F
100
AcDbEntity
  8
0
  6
Continuous
 62
     7
370
    25
100
AcDbPolyline
 90
        9
 70
   128
 43
0.0
 10
194.2968255478
 20
45.7604367413
 10
193.9287452659
 20
46.831582121
 10
193.6636165641
 20
47.9955849983
 10
193.5036495177
 20
49.2427362412
 10
193.4501783378
 20
50.5626328771
 10
193.5036495177
 20
51.9442660233
 10
193.6636165641
 20
53.3761112866
 10
193.9287452659
 20
54.8462252473
 10
194.2968255478
 20
56.3423470745
  0
SPLINE
  5
234
330
1F
100
AcDbEntity
  8
0
  6
Continuous
 62
     7
370
    25
100
AcDbSpline
210
0.0
220
0.0
230
1.0
 70
     8
 71
     3
 72
    14
 73
    10
 74
     0
 42
0.000000001
 43
0.00000001
 40
0.0
 40
0.0
 40
0.0
 40
0.0
 40
0.25
 40
0.25
 40
0.5
 40
0.5
 40
0.75
 40
0.75
 40
1.0
 40
1.0
 40
1.0
 40
1.0
 10
194.5437579268496
 20
58.39584726285364
 30
0.0
 10
194.5190920789116
 20
58.22417473136078
 30
0.0
 10
194.5082292081872
 20
58.04919499918518
 30
0.0
 10
194.4862788409923
 20
57.70038849554398
 30
0.0
 10
194.4760072461733
 20
57.5261744036082
 30
0.0
 10
194.4467032318148
 20
57.18012349165711
 30
0.0
 10
194.427910560585
 20
57.00824063774186
 30
0.0
 10
194.3749912560689
 20
56.66820896884764
 30
0.0
 10
194.3409120788899
 20
56.50084810835052
 30
0.0
 10
194.2968258266122
 20
56.34234714994757
 30
0.0
  0
SPLINE
  5
235
330
1F
100
AcDbEntity
  8
0
  6
Continuous
 62
     7
370
    25
100
AcDbSpline
210
0.0
220
0.0
230
1.0
 70
     8
 71
     3
 72
    14
 73
    10
 74
     0
 42
0.000000001
 43
0.00000001
 40
0.0
 40
0.0
 40
0.0
 40
0.0
 40
0.124999999999999
 40
0.124999999999999
 40
0.249999999999998
 40
0.249999999999998
 40
0.5000000000000007
 40
0.5000000000000007
 40
1.0
 40
1.0
 40
1.0
 40
1.0
 10
194.449448412127
 20
59.1445910064963
 30
0.0
 10
194.4758723508002
 20
59.14028470722408
 30
0.0
 10
194.499936293305
 20
59.12440120068368
 30
0.0
 10
194.5362055507301
 20
59.07525662779227
 30
0.0
 10
194.5482239257183
 20
59.04424527243994
 30
0.0
 10
194.5737381723887
 20
58.9473867305725
 30
0.0
 10
194.5779318348367
 20
58.87710610969635
 30
0.0
 10
194.5790386445723
 20
58.67070470761848
 30
0.0
 10
194.5634106594837
 20
58.5326288715963
 30
0.0
 10
194.54375792685
 20
58.39584726285355
 30
0.0
  0
SPLINE
  5
236
330
1F
100
AcDbEntity
  8
0
  6
Continuous
 62
     7
370
    25
100
AcDbSpline
210
0.0
220
0.0
230
1.0
 70
     8
 71
     3
 72
     8
 73
     4
 74
     0
 42
0.000000001
 43
0.00000001
 40
0.0
 40
0.0
 40
0.0
 40
0.0
 40
1.0
 40
1.0
 40
1.0
 40
1.0
 10
193.0484262899014
 20
59.31380390038127
 30
0.0
 10
193.5152885155682
 20
59.28171414631596
 30
0.0
 10
193.9823232999516
 20
59.22071820901031
 30
0.0
 10
194.449448412127
 20
59.14459100649631
 30
0.0
  0
SPLINE
  5
237
330
1F
100
AcDbEntity
  8
0
  6
Continuous
 62
     7
370
    25
100
AcDbSpline
210
0.0
220
0.0
230
1.0
 70
     8
 71
     3
 72
    14
 73
    10
 74
     0
 42
0.000000001
 43
0.00000001
 40
0.0
 40
0.0
 40
0.0
 40
0.0
 40
0.5000000000000012
 40
0.5000000000000012
 40
0.7500000000000018
 40
0.7500000000000018
 40
0.8750000000000009
 40
0.8750000000000009
 40
1.0
 40
1.0
 40
1.0
 40
1.0
 10
190.2038889126827
 20
60.23838577654372
 30
0.0
 10
190.6689234453979
 20
60.04204052728284
 30
0.0
 10
191.1357793666796
 20
59.85438801581473
 30
0.0
 10
191.8428057522842
 20
59.60437005887024
 30
0.0
 10
192.0795907351753
 20
59.52620880107138
 30
0.0
 10
192.438371373307
 20
59.42564153567637
 30
0.0
 10
192.5585701973081
 20
59.39492003942473
 30
0.0
 10
192.8011722954179
 20
59.34364533304015
 30
0.0
 10
192.9234240530068
 20
59.32239592350716
 30
0.0
 10
193.0484262899014
 20
59.31380390038121
 30
0.0
  0
SPLINE
  5
238
330
1F
100
AcDbEntity
  8
0
  6
Continuous
 62
     7
370
    25
100
AcDbSpline
210
0.0
220
0.0
230
1.0
 70
     8
 71
     3
 72
    14
 73
    10
 74
     0
 42
0.000000001
 43
0.00000001
 40
0.0
 40
0.0
 40
0.0
 40
0.0
 40
0.5000000000000012
 40
0.5000000000000012
 40
0.7500000000000018
 40
0.7500000000000018
 40
0.8750000000000009
 40
0.8750000000000009
 40
1.0
 40
1.0
 40
1.0
 40
1.0
 10
190.2038889126827
 20
47.9154418006695
 30
0.0
 10
190.6689234453979
 20
47.58059648443106
 30
0.0
 10
191.1357793666796
 20
47.24180830935946
 30
0.0
 10
191.8428057522842
 20
46.71951256232663
 30
0.0
 10
192.0795907351753
 20
46.54309085423623
 30
0.0
 10
192.438371373307
 20
46.27100870271722
 30
0.0
 10
192.5585701973081
 20
46.17906334136029
 30
0.0
 10
192.8011722954179
 20
45.99063732052995
 30
0.0
 10
192.9234240530068
 20
45.89446657647529
 30
0.0
 10
193.0484262899014
 20
45.79265699250177
 30
0.0
  0
SPLINE
  5
239
330
1F
100
AcDbEntity
  8
0
  6
Continuous
 62
     7
370
    25
100
AcDbSpline
210
0.0
220
0.0
230
1.0
 70
     8
 71
     3
 72
    17
 73
    13
 74
     0
 42
0.000000001
 43
0.00000001
 40
0.0
 40
0.0
 40
0.0
 40
0.0
 40
0.1207961882900952
 40
0.2420175987944839
 40
0.3632153541307872
 40
0.4839596318162575
 40
0.6040258967628624
 40
0.6645178707182005
 40
0.7242649424600393
 40
0.8441758508052679
 40
0.9646454444514005
 40
1.0
 40
1.0
 40
1.0
 40
1.0
 10
198.6621320401998
 20
45.47166596328552
 30
0.0
 10
198.4583637492289
 20
45.84555555102391
 30
0.0
 10
198.0501098697869
 20
46.59465087861317
 30
0.0
 10
197.8568425075248
 20
47.74296933466633
 30
0.0
 10
198.0622006805673
 20
48.69530632727649
 30
0.0
 10
198.6215068459435
 20
49.32877957952558
 30
0.0
 10
199.2973485260104
 20
49.4700658532007
 30
0.0
 10
199.8723478583526
 20
49.34391514893095
 30
0.0
 10
200.4521378154481
 20
49.05566591980327
 30
0.0
 10
201.1191885474601
 20
48.39837480543216
 30
0.0
 10
201.6498190894877
 20
47.57295031617883
 30
0.0
 10
201.8088834232322
 20
47.05103835186204
 30
0.0
 10
201.8449731362339
 20
46.93262303800169
 30
0.0
  0
SPLINE
  5
23A
330
1F
100
AcDbEntity
  8
0
  6
Continuous
 62
     7
370
    25
100
AcDbSpline
210
0.0
220
0.0
230
1.0
 70
     8
 71
     3
 72
    12
 73
     8
 74
     0
 42
0.000000001
 43
0.00000001
 40
0.0
 40
0.0
 40
0.0
 40
0.0
 40
0.0353744433893711
 40
0.3560360900717853
 40
0.5160472232178944
 40
0.6782077942890793
 40
1.0
 40
1.0
 40
1.0
 40
1.0
 10
201.1653565210848
 20
43.4394753870117
 30
0.0
 10
201.1426502359334
 20
43.4356285138703
 30
0.0
 10
200.9141164072489
 20
43.39691057116822
 30
0.0
 10
200.4403019485395
 20
43.66049721957852
 30
0.0
 10
199.8716015817402
 20
44.06992113031238
 30
0.0
 10
199.2881532243728
 20
44.60614910258175
 30
0.0
 10
198.9121475439309
 20
45.126002526668
 30
0.0
 10
198.6621320401998
 20
45.47166596328552
 30
0.0
  0
SPLINE
  5
23B
330
1F
100
AcDbEntity
  8
0
  6
Continuous
 62
     7
370
    25
100
AcDbSpline
210
0.0
220
0.0
230
1.0
 70
     8
 71
     3
 72
    14
 73
    10
 74
     0
 42
0.000000001
 43
0.00000001
 40
0.0
 40
0.0
 40
0.0
 40
0.0
 40
0.25
 40
0.25
 40
0.5
 40
0.5
 40
0.75
 40
0.75
 40
1.0
 40
1.0
 40
1.0
 40
1.0
 10
245.7774267751314
 20
51.07300163985774
 30
0.0
 10
245.82410881147
 20
51.04605267390431
 30
0.0
 10
245.8617954260761
 20
51.01294594975318
 30
0.0
 10
245.9106669048305
 20
50.94233737669066
 30
0.0
 10
245.9227681352303
 20
50.90384180230058
 30
0.0
 10
245.9205985236751
 20
50.8278836881052
 30
0.0
 10
245.9063581095931
 20
50.78968998051285
 30
0.0
 10
245.8545066670036
 20
50.71969533158779
 30
0.0
 10
245.8168001268999
 20
50.68752733610601
 30
0.0
 10
245.7699826961825
 20
50.66050020864142
 30
0.0
  0
ARC
  5
23C
330
1F
100
AcDbEntity
  8
0
  6
Continuous
 62
     7
370
    25
100
AcDbCircle
 10
220.3131050405
 20
31.0496479047
 30
0.0
 40
8.701929273940586
100
AcDbArc
 50
214.5542627763
 51
265.4839169162
  0
SPLINE
  5
23D
330
1F
100
AcDbEntity
  8
0
  6
Continuous
 62
     7
370
    25
100
AcDbSpline
210
0.0
220
0.0
230
1.0
 70
     8
 71
     3
 72
    14
 73
    10
 74
     0
 42
0.000000001
 43
0.00000001
 40
0.0
 40
0.0
 40
0.0
 40
0.0
 40
0.25
 40
0.25
 40
0.5
 40
0.5
 40
0.75
 40
0.75
 40
1.0
 40
1.0
 40
1.0
 40
1.0
 10
211.212354338462
 20
30.71073964887904
 30
0.0
 10
211.2595755018856
 20
30.68347945148422
 30
0.0
 10
211.3158622613169
 20
30.66219751996007
 30
0.0
 10
211.4392916093901
 20
30.63384289012895
 30
0.0
 10
211.50594493285
 20
30.62699950778878
 30
0.0
 10
211.6380698097917
 20
30.62848162341794
 30
0.0
 10
211.7044291657763
 20
30.63687215510412
 30
0.0
 10
211.825683397897
 20
30.66699047857543
 30
0.0
 10
211.8817945003743
 20
30.68899517241621
 30
0.0
 10
211.9285290739017
 20
30.71597446744312
 30
0.0
  0
LINE
  5
23E
330
1F
100
AcDbEntity
  8
0
  6
Continuous
 62
     7
370
    25
100
AcDbLine
 10
209.5549060125
 20
31.6675636877
 30
0.0
 11
211.2123538792
 21
30.7107394008
 31
0.0
  0
SPLINE
  5
23F
330
1F
100
AcDbEntity
  8
0
  6
Continuous
 62
     7
370
    25
100
AcDbSpline
210
0.0
220
0.0
230
1.0
 70
     8
 71
     3
 72
     8
 73
     4
 74
     0
 42
0.000000001
 43
0.00000001
 40
0.0
 40
0.0
 40
0.0
 40
0.0
 40
1.0
 40
1.0
 40
1.0
 40
1.0
 10
209.9266946648648
 20
32.43409661509206
 30
0.0
 10
209.8025164969799
 20
32.17862581586598
 30
0.0
 10
209.678598796838
 20
31.92311296919301
 30
0.0
 10
209.5549063038059
 20
31.66756403270635
 30
0.0
  0
LINE
  5
240
330
1F
100
AcDbEntity
  8
0
  6
Continuous
 62
     7
370
    25
100
AcDbLine
 10
210.2477955922
 20
32.6194640173
 30
0.0
 11
209.9266945585
 21
32.4340963362
 31
0.0
  0
SPLINE
  5
241
330
1F
100
AcDbEntity
  8
0
  6
Continuous
 62
     7
370
    25
100
AcDbSpline
210
0.0
220
0.0
230
1.0
 70
     8
 71
     3
 72
    12
 73
     8
 74
     0
 42
0.000000001
 43
0.00000001
 40
0.0
 40
0.0
 40
0.0
 40
0.0
 40
0.2500000000000014
 40
0.2500000000000014
 40
0.5000000000000029
 40
0.5000000000000029
 40
1.0
 40
1.0
 40
1.0
 40
1.0
 10
210.2561048946077
 20
32.95082433768701
 30
0.0
 10
210.2934969321906
 20
32.92923837386058
 30
0.0
 10
210.3237074055081
 20
32.90259752107051
 30
0.0
 10
210.3626067755175
 20
32.84561931776471
 30
0.0
 10
210.3719371414475
 20
32.81472774808791
 30
0.0
 10
210.3683320780336
 20
32.72317140652585
 30
0.0
 10
210.322727053122
 20
32.66272124642084
 30
0.0
 10
210.2477952145952
 20
32.61946401679536
 30
0.0
  0
LINE
  5
242
330
1F
100
AcDbEntity
  8
0
  6
Continuous
 62
     7
370
    25
100
AcDbLine
 10
209.4712162008
 20
33.4039304087
 30
0.0
 11
210.2561044483
 21
32.9508240681
 31
0.0
  0
SPLINE
  5
243
330
1F
100
AcDbEntity
  8
0
  6
Continuous
 62
     7
370
    25
100
AcDbSpline
210
0.0
220
0.0
230
1.0
 70
     8
 71
     3
 72
    14
 73
    10
 74
     0
 42
0.000000001
 43
0.00000001
 40
0.0
 40
0.0
 40
0.0
 40
0.0
 40
0.25
 40
0.25
 40
0.5
 40
0.5
 40
0.75
 40
0.75
 40
1.0
 40
1.0
 40
1.0
 40
1.0
 10
208.8972212625289
 20
33.39913376358605
 30
0.0
 10
208.9350670603075
 20
33.42098167759766
 30
0.0
 10
208.9793859774554
 20
33.43835432238658
 30
0.0
 10
209.0770875140075
 20
33.46271579707845
 30
0.0
 10
209.1298406456193
 20
33.46942976161001
 30
0.0
 10
209.2357940028477
 20
33.470787211196
 30
0.0
 10
209.2891582891431
 20
33.46540951005693
 30
0.0
 10
209.3883360639148
 20
33.44276856654108
 30
0.0
 10
209.433342957316
 20
33.42579469405721
 30
0.0
 10
209.4712163674907
 20
33.40393083974862
 30
0.0
  0
LINE
  5
244
330
1F
100
AcDbEntity
  8
0
  6
Continuous
 62
     7
370
    25
100
AcDbLine
 10
208.5761205299
 20
33.2137661271
 30
0.0
 11
208.8972215636
 21
33.3991338082
 31
0.0
  0
SPLINE
  5
245
330
1F
100
AcDbEntity
  8
0
  6
Continuous
 62
     7
370
    25
100
AcDbSpline
210
0.0
220
0.0
230
1.0
 70
     8
 71
     3
 72
     8
 73
     4
 74
     0
 42
0.000000001
 43
0.00000001
 40
0.0
 40
0.0
 40
0.0
 40
0.0
 40
1.0
 40
1.0
 40
1.0
 40
1.0
 10
207.248303462685
 20
32.99913750954701
 30
0.0
 10
207.6909751689014
 20
33.07054366585172
 30
0.0
 10
208.1335843589531
 20
33.14207983145348
 30
0.0
 10
208.5761207127985
 20
33.21376636188274
 30
0.0
  0
LINE
  5
246
330
1F
100
AcDbEntity
  8
0
  6
Continuous
 62
     7
370
    25
100
AcDbLine
 10
244.3314659771
 20
51.9077372514
 30
0.0
 11
245.7774268849
 21
51.0730017872
 31
0.0
  0
LWPOLYLINE
  5
247
330
1F
100
AcDbEntity
  8
0
  6
Continuous
 62
     7
370
    25
100
AcDbPolyline
 90
        8
 70
   128
 43
0.0
 10
214.3004870554
 20
24.4623918222
 10
213.644437114
 20
24.883138411
 10
212.6899268991
 20
25.6702135311
 10
211.8371789328
 20
26.6047336177
 10
211.0923413867
 20
27.6799550692
 10
210.460789301
 20
28.8881267437
 10
209.9470758524
 20
30.2205325486
 10
209.5549060125
 20
31.6675636877
  0
ARC
  5
248
330
1F
100
AcDbEntity
  8
0
  6
Continuous
 62
     7
370
    25
100
AcDbCircle
 10
220.0881000737
 20
35.6759516782
 30
0.0
 40
11.77234176809882
100
AcDbArc
 50
192.0725460793
 51
215.0022747034
  0
SPLINE
  5
249
330
1F
100
AcDbEntity
  8
0
  6
Continuous
 62
     7
370
    25
100
AcDbSpline
210
0.0
220
0.0
230
1.0
 70
     8
 71
     3
 72
    12
 73
     8
 74
     0
 42
0.000000001
 43
0.00000001
 40
0.0
 40
0.0
 40
0.0
 40
0.0
 40
0.1675503883347434
 40
0.4025161747753053
 40
0.6381208840270863
 40
0.8774598722428354
 40
0.9999999999999999
 40
0.9999999999999999
 40
0.9999999999999999
 40
0.9999999999999999
 10
200.0850899883576
 20
49.13186804330349
 30
0.0
 10
200.050582073206
 20
48.95458874646124
 30
0.0
 10
199.9676816744407
 20
48.52870024127178
 30
0.0
 10
200.1623167150994
 20
47.71775804305052
 30
0.0
 10
200.5957717325574
 20
46.84543063087592
 30
0.0
 10
201.1176181279614
 20
46.14426586806267
 30
0.0
 10
201.4830668943623
 20
45.83367080830119
 30
0.0
 10
201.6068157832781
 20
45.72849657573573
 30
0.0
  0
SPLINE
  5
24A
330
1F
100
AcDbEntity
  8
0
  6
Continuous
 62
     7
370
    25
100
AcDbSpline
210
0.0
220
0.0
230
1.0
 70
     8
 71
     3
 72
    11
 73
     7
 74
     0
 42
0.000000001
 43
0.00000001
 40
0.0
 40
0.0
 40
0.0
 40
0.0
 40
0.1889487415400878
 40
0.3635157627967836
 40
0.6686735586554259
 40
1.0
 40
1.0
 40
1.0
 40
1.0
 10
198.9524454596434
 20
45.65407604832553
 30
0.0
 10
199.0789865369972
 20
45.47089132011333
 30
0.0
 10
199.3224370933993
 20
45.11846485955049
 30
0.0
 10
199.8391336259534
 20
44.55706385403613
 30
0.0
 10
200.5134597014535
 20
43.9990416113296
 30
0.0
 10
200.9683060584037
 20
43.84201458206326
 30
0.0
 10
201.2050795965341
 20
43.76027303410233
 30
0.0
  0
SPLINE
  5
24B
330
1F
100
AcDbEntity
  8
0
  6
Continuous
 62
     7
370
    25
100
AcDbSpline
210
0.0
220
0.0
230
1.0
 70
     8
 71
     3
 72
    15
 73
    11
 74
     0
 42
0.000000001
 43
0.00000001
 40
0.0
 40
0.0
 40
0.0
 40
0.0
 40
0.0285605575140947
 40
0.1766231786262573
 40
0.2612396331333766
 40
0.3527785380977456
 40
0.5145481059714542
 40
0.6763327681591422
 40
0.8381560932852216
 40
1.0
 40
1.0
 40
1.0
 40
1.0
 10
200.6072410383862
 20
48.85538482652367
 30
0.0
 10
200.5644008304677
 20
48.89823090018137
 30
0.0
 10
200.2994699483644
 20
49.16319805697945
 30
0.0
 10
199.8383702411084
 20
49.2757340743175
 30
0.0
 10
199.3282958073802
 20
49.28297411670691
 30
0.0
 10
198.8424375422853
 20
49.10719837325406
 30
0.0
 10
198.3904625675614
 20
48.61901516247487
 30
0.0
 10
198.2009824219819
 20
47.73827528801947
 30
0.0
 10
198.3798017844588
 20
46.68527619445474
 30
0.0
 10
198.7615561428234
 20
45.9978240017729
 30
0.0
 10
198.9524454596434
 20
45.65407604832553
 30
0.0
  0
SPLINE
  5
24C
330
1F
100
AcDbEntity
  8
0
  6
Continuous
 62
     7
370
    25
100
AcDbSpline
210
0.0
220
0.0
230
1.0
 70
     8
 71
     3
 72
     9
 73
     5
 74
     0
 42
0.000000001
 43
0.00000001
 40
0.0
 40
0.0
 40
0.0
 40
0.0
 40
0.1883710221454139
 40
1.0
 40
1.0
 40
1.0
 40
1.0
 10
239.8943708893497
 20
66.71323173572839
 30
0.0
 10
239.9367470300728
 20
66.7227644582109
 30
0.0
 10
240.1617080683499
 20
66.77337055661158
 30
0.0
 10
240.3874756694915
 20
66.82276864703645
 30
0.0
 10
240.5707151968386
 20
66.862861568676
 30
0.0
  0
LINE
  5
24D
330
1F
100
AcDbEntity
  8
0
  6
Continuous
 62
     7
370
    25
100
AcDbLine
 10
240.5707151968
 20
66.8628615687
 30
0.0
 11
242.2281630636
 21
65.9060372818
 31
0.0
  0
SPLINE
  5
24E
330
1F
100
AcDbEntity
  8
0
  6
Continuous
 62
     7
370
    25
100
AcDbSpline
210
0.0
220
0.0
230
1.0
 70
     8
 71
     3
 72
    16
 73
    12
 74
     0
 42
0.000000001
 43
0.00000001
 40
0.0
 40
0.0
 40
0.0
 40
0.0
 40
0.125
 40
0.125
 40
0.25
 40
0.25
 40
0.5
 40
0.5
 40
0.75
 40
0.75
 40
1.0
 40
1.0
 40
1.0
 40
1.0
 10
242.2281636504261
 20
65.90603693674541
 30
0.0
 10
242.2549056179846
 20
65.89059912747697
 30
0.0
 10
242.2778762166311
 20
65.87270740806973
 30
0.0
 10
242.3138531687552
 20
65.83452741152459
 30
0.0
 10
242.3271157075343
 20
65.814243594054
 30
0.0
 10
242.3538708182401
 20
65.75011726275929
 30
0.0
 10
242.3530538129797
 20
65.7056244111301
 30
0.0
 10
242.3249734227334
 20
65.6205447187862
 30
0.0
 10
242.297404067809
 20
65.57917186273987
 30
0.0
 10
242.2242299120496
 20
65.50374073003188
 30
0.0
 10
242.1779960736368
 20
65.46887175520807
 30
0.0
 10
242.1248322887085
 20
65.43818095544101
 30
0.0
  0
LINE
  5
24F
330
1F
100
AcDbEntity
  8
0
  6
Continuous
 62
     7
370
    25
100
AcDbLine
 10
192.8411148885
 20
51.6145858682
 30
0.0
 11
193.4638885759
 21
51.255066271
 31
0.0
  0
SPLINE
  5
250
330
1F
100
AcDbEntity
  8
0
  6
Continuous
 62
     7
370
    25
100
AcDbSpline
210
0.0
220
0.0
230
1.0
 70
     8
 71
     3
 72
    11
 73
     7
 74
     0
 42
0.000000001
 43
0.00000001
 40
0.0
 40
0.0
 40
0.0
 40
0.0
 40
0.0466304722500908
 40
0.4281527877979693
 40
0.8088298298119748
 40
1.0
 40
1.0
 40
1.0
 40
1.0
 10
245.7699833563679
 20
58.82590854315121
 30
0.0
 10
245.7749607976882
 20
58.82885612486375
 30
0.0
 10
245.8206627877078
 20
58.85592030128301
 30
0.0
 10
245.8870990119864
 20
58.91715917192098
 30
0.0
 10
245.9297190481964
 20
59.00093299469005
 30
0.0
 10
245.9158864906017
 20
59.05109000195746
 30
0.0
 10
245.9112622267545
 20
59.06785763395922
 30
0.0
  0
LINE
  5
251
330
1F
100
AcDbEntity
  8
0
  6
Continuous
 62
     7
370
    25
100
AcDbLine
 10
190.1891245447
 20
61.2960166086
 30
0.0
 11
190.2052983979
 21
61.3446422227
 31
0.0
  0
SPLINE
  5
252
330
1F
100
AcDbEntity
  8
0
  6
Continuous
 62
     7
370
    25
100
AcDbSpline
210
0.0
220
0.0
230
1.0
 70
     8
 71
     3
 72
    16
 73
    12
 74
     0
 42
0.000000001
 43
0.00000001
 40
0.0
 40
0.0
 40
0.0
 40
0.0
 40
0.0332838850724123
 40
0.1625854311030977
 40
0.239429833395794
 40
0.3008069245191573
 40
0.3624173839861106
 40
0.4362069101913193
 40
0.5596777462223994
 40
0.9141728339414532
 40
1.0
 40
1.0
 40
1.0
 40
1.0
 10
190.2314762005969
 20
61.42333592870632
 30
0.0
 10
190.2331195310814
 20
61.42834955133093
 30
0.0
 10
190.241146887103
 20
61.4528401417184
 30
0.0
 10
190.2517605040272
 20
61.47746282596268
 30
0.0
 10
190.2618169591753
 20
61.494879216695
 30
0.0
 10
190.2666755629784
 20
61.49425081870788
 30
0.0
 10
190.2678781107838
 20
61.47888243759436
 30
0.0
 10
190.2645996154656
 20
61.44231263914567
 30
0.0
 10
190.2490903183348
 20
61.34198760641103
 30
0.0
 10
190.2260956758576
 20
61.22669183021057
 30
0.0
 10
190.207390822388
 20
61.13764724480537
 30
0.0
 10
190.2037448913658
 20
61.12029076474418
 30
0.0
  0
SPLINE
  5
253
330
1F
100
AcDbEntity
  8
0
  6
Continuous
 62
     7
370
    25
100
AcDbSpline
210
0.0
220
0.0
230
1.0
 70
     8
 71
     3
 72
     9
 73
     5
 74
     0
 42
0.000000001
 43
0.00000001
 40
0.0
 40
0.0
 40
0.0
 40
0.0
 40
0.7766522094856231
 40
1.0
 40
1.0
 40
1.0
 40
1.0
 10
190.1379609048298
 20
60.85782107281484
 30
0.0
 10
190.1347745948629
 20
60.96665686250974
 30
0.0
 10
190.1306719734733
 20
61.10679138909144
 30
0.0
 10
190.1784528022155
 20
61.26146957704557
 30
0.0
 10
190.189124544744
 20
61.29601660856589
 30
0.0
  0
SPLINE
  5
254
330
1F
100
AcDbEntity
  8
0
  6
Continuous
 62
     7
370
    25
100
AcDbSpline
210
0.0
220
0.0
230
1.0
 70
     8
 71
     3
 72
     8
 73
     4
 74
     0
 42
0.000000001
 43
0.00000001
 40
0.0
 40
0.0
 40
0.0
 40
0.0
 40
1.0
 40
1.0
 40
1.0
 40
1.0
 10
190.1146597623119
 20
60.25938272633423
 30
0.0
 10
190.1432620578861
 20
60.25782931120069
 30
0.0
 10
190.1729584376235
 20
60.251445133238
 30
0.0
 10
190.2038889126815
 20
60.23838577655007
 30
0.0
  0
SPLINE
  5
255
330
1F
100
AcDbEntity
  8
0
  6
Continuous
 62
     7
370
    25
100
AcDbSpline
210
0.0
220
0.0
230
1.0
 70
     8
 71
     3
 72
    10
 73
     6
 74
     0
 42
0.000000001
 43
0.00000001
 40
0.0
 40
0.0
 40
0.0
 40
0.0
 40
0.4999999999999989
 40
0.4999999999999989
 40
1.0
 40
1.0
 40
1.0
 40
1.0
 10
190.2037450849787
 20
61.12029074052857
 30
0.0
 10
190.1737566150698
 20
60.97849988435858
 30
0.0
 10
190.1533233158833
 20
60.83624206831527
 30
0.0
 10
190.1246903286575
 20
60.54943180014551
 30
0.0
 10
190.116819269011
 20
60.40497526694998
 30
0.0
 10
190.1146597623128
 20
60.25938272633051
 30
0.0
  0
ARC
  5
256
330
1F
100
AcDbEntity
  8
0
  6
Continuous
 62
     7
370
    25
100
AcDbCircle
 10
191.3340115153
 20
60.0913365306
 30
0.0
 40
1.230877198384005
100
AcDbArc
 50
172.1531384875
 51
234.5145852443
  0
ARC
  5
257
330
1F
100
AcDbEntity
  8
0
  6
Continuous
 62
     7
370
    25
100
AcDbCircle
 10
193.8471596523
 20
47.8879737877
 30
0.0
 40
3.734047488377195
100
AcDbArc
 50
122.5266350896
 51
178.3504233083
  0
SPLINE
  5
258
330
1F
100
AcDbEntity
  8
0
  6
Continuous
 62
     7
370
    25
100
AcDbSpline
210
0.0
220
0.0
230
1.0
 70
     8
 71
     3
 72
     8
 73
     4
 74
     0
 42
0.000000001
 43
0.00000001
 40
0.0
 40
0.0
 40
0.0
 40
0.0
 40
1.0
 40
1.0
 40
1.0
 40
1.0
 10
190.1146597623126
 20
47.99546395876817
 30
0.0
 10
190.1432620578866
 20
47.96476655491025
 30
0.0
 10
190.1729584376238
 20
47.93771310305993
 30
0.0
 10
190.2038889126815
 20
47.91544180066494
 30
0.0
  0
LINE
  5
259
330
1F
100
AcDbEntity
  8
0
  6
Continuous
 62
     7
370
    25
100
AcDbLine
 10
191.8393936178
 20
51.0363044876
 30
0.0
 11
192.8411148885
 21
51.6145858682
 31
0.0
  0
SPLINE
  5
25A
330
1F
100
AcDbEntity
  8
0
  6
Continuous
 62
     7
370
    25
100
AcDbSpline
210
0.0
220
0.0
230
1.0
 70
     8
 71
     3
 72
     9
 73
     5
 74
     0
 42
0.000000001
 43
0.00000001
 40
0.0
 40
0.0
 40
0.0
 40
0.0
 40
0.3901117718169397
 40
1.0
 40
1.0
 40
1.0
 40
1.0
 10
190.1484653482767
 20
49.0626148270803
 30
0.0
 10
190.1393877916342
 20
49.0158287737069
 30
0.0
 10
190.1161186741705
 20
48.89589890551684
 30
0.0
 10
190.1296862189708
 20
48.77504387907453
 30
0.0
 10
190.1379609048298
 20
48.70133582113062
 30
0.0
  0
ARC
  5
25B
330
1F
100
AcDbEntity
  8
0
  6
Continuous
 62
     7
370
    25
100
AcDbCircle
 10
192.6320745629
 20
48.5751831214
 30
0.0
 40
2.530988818361865
100
AcDbArc
 50
122.9343808406
 51
168.8962913337
  0
LINE
  5
25C
330
1F
100
AcDbEntity
  8
0
  6
Continuous
 62
     7
370
    25
100
AcDbLine
 10
191.8393936178
 20
51.0363044876
 30
0.0
 11
191.256031185
 21
50.6994262856
 31
0.0
  0
LINE
  5
25D
330
1F
100
AcDbEntity
  8
0
  6
Continuous
 62
     7
370
    25
100
AcDbLine
 10
190.1741749259
 20
47.85634276
 30
0.0
 11
190.1146596245
 21
47.995464197
 31
0.0
  0
LWPOLYLINE
  5
25E
330
1F
100
AcDbEntity
  8
0
  6
Continuous
 62
     7
370
    18
100
AcDbPolyline
 90
       15
 70
   128
 43
0.0
 10
260.6827965088
 20
32.9038669789
 10
260.7590974511
 20
33.1006698019
 10
261.0556466285
 20
33.6670654408
 10
261.4366024433
 20
34.1697018444
 10
261.8711022072
 20
34.5678586455
 10
262.3239450697
 20
34.8292792655
 10
262.7584448335
 20
34.9327852136
 10
263.1394009776
 20
34.8699912216
 10
263.4359494965
 20
34.6459835947
 10
263.624067345
 20
34.2789110855
 10
263.6885138276
 20
33.7985114568
 10
263.624067345
 20
33.2437035031
 10
263.4359494965
 20
32.6594347491
 10
263.1394009776
 20
32.0930394904
 10
262.8256249344
 20
31.6668381327
  0
LWPOLYLINE
  5
25F
330
1F
100
AcDbEntity
  8
0
  6
Continuous
 62
     7
370
    18
100
AcDbPolyline
 90
        9
 70
   128
 43
0.0
 10
260.3754136157
 20
33.0813150462
 10
260.4103322797
 20
33.1708136892
 10
260.7141517885
 20
33.7774447375
 10
261.1074589348
 20
34.3250889289
 10
261.5610838189
 20
34.7731299208
 10
262.0413833777
 20
35.0883389269
 10
262.5127359507
 20
35.2473380976
 10
262.9401827029
 20
35.238334603
 10
263.1834846055
 20
35.1396600592
  0
LWPOLYLINE
  5
260
330
1F
100
AcDbEntity
  8
0
  6
Continuous
 62
     7
370
    18
100
AcDbPolyline
 90
       23
 70
   128
 43
0.0
 10
248.1808851656
 20
25.2973252017
 10
248.3534337048
 20
25.8804128493
 10
248.6369489693
 20
26.4518399831
 10
249.0084615852
 20
26.9653127283
 10
249.4378747512
 20
27.3792330716
 10
249.8904001953
 20
27.6600677687
 10
250.3293754276
 20
27.7850643584
 10
250.7192390447
 20
27.744097382
 10
251.0284056056
 20
27.5404851366
 10
251.2318283578
 20
27.1907231765
 10
251.3130275541
 20
26.7231472775
 10
251.2654246644
 20
26.1756375217
 10
251.0928761251
 20
25.5925498741
 10
250.8093611899
 20
25.0211229304
 10
250.4378482448
 20
24.5076499951
 10
250.0084350788
 20
24.0937296518
 10
249.5559096346
 20
23.8128949547
 10
249.1169344023
 20
23.6878983651
 10
248.7270707853
 20
23.7288653414
 10
248.4179045536
 20
23.932477777
 10
248.2144814722
 20
24.282239547
 10
248.1332822758
 20
24.7498154459
 10
248.1808851656
 20
25.2973252017
  0
LWPOLYLINE
  5
261
330
1F
100
AcDbEntity
  8
0
  6
Continuous
 62
     7
370
    18
100
AcDbPolyline
 90
        9
 70
   128
 43
0.0
 10
247.8327449529
 20
25.3505813834
 10
248.0134159801
 20
25.9701753831
 10
248.3077794483
 20
26.5800058256
 10
248.6940039484
 20
27.1348445655
 10
249.1434454286
 20
27.5935419362
 10
249.622771
 20
27.9220785261
 10
250.0964304545
 20
28.096087687
 10
250.529294723
 20
28.1026644279
 10
250.7493463825
 20
28.0287850572
  0
ARC
  5
262
330
1F
100
AcDbEntity
  8
0
  6
Continuous
 62
     7
370
    18
100
AcDbCircle
 10
249.258092059
 20
24.841261398
 30
0.0
 40
1.513611978106385
100
AcDbArc
 50
160.3366418692
 51
230.3467983986
  0
LWPOLYLINE
  5
263
330
1F
100
AcDbEntity
  8
0
  6
Continuous
 62
     7
370
    18
100
AcDbPolyline
 90
       28
 70
   128
 43
0.0
 10
264.8022084088
 20
20.5502153499
 10
265.2921552742
 20
20.5890052422
 10
265.817634495
 20
20.7853619512
 10
266.3503173077
 20
21.1286999311
 10
266.8614867165
 20
21.6005100174
 10
267.3235853398
 20
22.175356213
 10
267.7117013444
 20
22.8222489035
 10
268.0049115365
 20
23.5063137504
 10
268.187408543
 20
24.190672686
 10
268.2493540382
 20
24.8384316832
 10
268.187408543
 20
25.414669934
 10
268.0049115365
 20
25.888322311
 10
267.7117013444
 20
26.2338538759
 10
267.3235853398
 20
26.4326373658
 10
266.8614867165
 20
26.4739558474
 10
266.3503173077
 20
26.3555822968
 10
265.817634495
 20
26.0838977921
 10
265.2921552742
 20
25.6735491069
 10
264.8022084088
 20
25.1466583893
 10
264.3742069976
 20
24.5316303651
 10
264.0312248347
 20
23.8616211662
 10
263.7917522038
 20
23.1727515204
 10
263.6686988819
 20
22.5021582057
 10
263.6686988819
 20
21.8859932907
 10
263.7917522038
 20
21.3574743173
 10
264.0312248347
 20
20.9450938859
 10
264.3742069976
 20
20.6710834632
 10
264.8022084088
 20
20.5502153499
  0
LWPOLYLINE
  5
264
330
1F
100
AcDbEntity
  8
0
  6
Continuous
 62
     7
370
    18
100
AcDbPolyline
 90
       16
 70
   128
 43
0.0
 10
263.3945123943
 20
20.3694817959
 10
263.1089036168
 20
20.6017862821
 10
262.8127095595
 20
21.0487196749
 10
262.6384725122
 20
21.6251378079
 10
262.5943398227
 20
22.3040882088
 10
262.682375205
 20
23.0538239724
 10
262.898461768
 20
23.8392880029
 10
263.2324959573
 20
24.6237532199
 10
263.668858579
 20
25.3705386403
 10
264.1871457837
 20
26.0447256278
 10
264.7631230514
 20
26.6147897085
 10
265.3698583092
 20
27.0540756266
 10
265.9789813053
 20
27.3420424302
 10
266.5620101441
 20
27.4652254635
 10
267.0916830072
 20
27.417864657
 10
267.4332850254
 20
27.2747978036
  0
LWPOLYLINE
  5
265
330
1F
100
AcDbEntity
  8
0
  6
Continuous
 62
     7
370
    18
100
AcDbPolyline
 90
       27
 70
   128
 43
0.0
 10
245.7280024611
 20
25.7160708134
 10
245.7901723553
 20
26.9159431016
 10
245.9757409781
 20
28.1694071291
 10
246.2818950271
 20
29.4574616636
 10
246.7039924222
 20
30.7605801649
 10
247.2356360621
 20
32.0590096391
 10
247.8687660204
 20
33.3330670211
 10
248.5937843403
 20
34.563438785
 10
249.399701231
 20
35.731473328
 10
250.2742993748
 20
36.8194651787
 10
251.2043211183
 20
37.8109219964
 10
252.1756680114
 20
38.690812844
 10
253.1736154928
 20
39.4458001087
 10
254.1830356016
 20
40.0644387938
 10
255.1886266856
 20
40.5373509523
 10
256.1751449624
 20
40.8573684892
 10
257.1276357507
 20
41.0196392721
 10
258.0316602972
 20
41.0217040831
 10
258.8735146203
 20
40.8635316984
 10
259.6404367858
 20
40.5475191537
 10
260.3208015075
 20
40.0784573155
 10
260.9042949906
 20
39.4634569091
 10
261.3820716653
 20
38.7118401385
 10
261.7468895177
 20
37.8350013185
 10
261.9932174324
 20
36.8462317682
 10
262.1173221205
 20
35.7605207515
 10
262.1176184655
 20
35.7551252395
  0
LWPOLYLINE
  5
266
330
1F
100
AcDbEntity
  8
0
  6
Continuous
 62
     7
370
    18
100
AcDbPolyline
 90
       17
 70
   128
 43
0.0
 10
256.287692853
 20
22.7397439978
 10
256.1751449624
 20
22.6367871226
 10
255.1886266856
 20
21.8177949015
 10
254.1830356016
 20
21.1296763076
 10
253.1736154928
 20
20.5828633425
 10
252.1756680114
 20
20.1856449705
 10
251.2043211183
 20
19.944042567
 10
250.2742993748
 20
19.8617191357
 10
249.399701231
 20
19.9399214635
 10
248.5937843403
 20
20.1774641706
 10
247.8687660204
 20
20.5707476002
 10
247.2356360621
 20
21.1138086921
 10
246.7039924222
 20
21.7984154854
 10
246.2818950271
 20
22.6141907076
 10
245.9757409781
 20
23.5487673011
 10
245.7901723553
 20
24.5879783573
 10
245.7280024611
 20
25.7160708134
  0
LWPOLYLINE
  5
267
330
1F
100
AcDbEntity
  8
0
  6
Continuous
 62
     7
370
    18
100
AcDbPolyline
 90
       18
 70
   128
 43
0.0
 10
245.1623173385
 20
25.7160704332
 10
245.2266314537
 20
26.9573178803
 10
245.4185991534
 20
28.2540047823
 10
245.7353096709
 20
29.5864746824
 10
246.1719622168
 20
30.9345283306
 10
246.7219384186
 20
32.2777313792
 10
247.3769004445
 20
33.5957216957
 10
248.1269194188
 20
34.8685201901
 10
248.9606265585
 20
36.0768321338
 10
249.8653834065
 20
37.2023408727
 10
250.8274747859
 20
38.2279849978
 10
251.8323164051
 20
39.1382173581
 10
252.8646758005
 20
39.9192383124
 10
253.9089035262
 20
40.5592098012
 10
254.9491701067
 20
41.0484293992
 10
255.9697062409
 20
41.3794819104
 10
256.9550414426
 20
41.5473482343
 10
257.2174240138
 20
41.5644872616
  0
ARC
  5
268
330
1F
100
AcDbEntity
  8
0
  6
Continuous
 62
     7
370
    18
100
AcDbCircle
 10
252.9790794412
 20
25.4750185019
 30
0.0
 40
7.82047797794341
100
AcDbArc
 50
178.2336826184
 51
205.8715344653
  0
LWPOLYLINE
  5
269
330
1F
100
AcDbEntity
  8
0
  6
Continuous
 62
     7
370
    18
100
AcDbPolyline
 90
       21
 70
   128
 43
0.0
 10
231.6388990841
 20
33.5229736169
 10
231.7032131993
 20
34.7642210639
 10
231.895180899
 20
36.0609079659
 10
232.2118914165
 20
37.393377866
 10
232.6485439624
 20
38.7414315142
 10
233.1985201642
 20
40.0846345628
 10
233.8534821901
 20
41.4026248794
 10
234.6035011644
 20
42.6754233738
 10
235.4372083041
 20
43.8837353175
 10
236.3419651521
 20
45.0092440564
 10
237.3040565315
 20
46.0348881814
 10
238.3088981507
 20
46.9451205418
 10
239.3412575461
 20
47.7261414961
 10
240.3854852718
 20
48.3661129848
 10
241.4257518523
 20
48.8553325828
 10
242.4462879865
 20
49.1863850941
 10
243.4316231882
 20
49.354251418
 10
244.3668212561
 20
49.356387449
 10
245.2377048796
 20
49.1927609622
 10
246.0310732047
 20
48.8658517347
 10
246.12369288
 20
48.8140087526
  0
LWPOLYLINE
  5
26A
330
1F
100
AcDbEntity
  8
0
  6
Continuous
 62
     7
370
    18
100
AcDbPolyline
 90
        8
 70
   128
 43
0.0
 10
234.1246681843
 20
28.0288359083
 10
233.8534821901
 20
28.2002255833
 10
233.1985201642
 20
28.7620128411
 10
232.6485439624
 20
29.4702268831
 10
232.2118914165
 20
30.314132233
 10
231.895180899
 20
31.280935953
 10
231.7032131993
 20
32.3559816667
 10
231.6388990841
 20
33.5229736169
  0
LWPOLYLINE
  5
26B
330
1F
100
AcDbEntity
  8
0
  6
Continuous
 62
     7
370
    18
100
AcDbPolyline
 90
       17
 70
   128
 43
0.0
 10
257.0417111682
 20
24.4914582549
 10
257.1068807327
 20
25.317189791
 10
257.3000341418
 20
26.1883205497
 10
257.6141898358
 20
27.0733652182
 10
258.0379938491
 20
27.9403362279
 10
258.5561287654
 20
28.757899097
 10
259.1498677194
 20
29.4965044702
 10
259.7977514619
 20
30.1294577883
 10
260.4763638584
 20
30.633882568
 10
261.1611780155
 20
30.991546696
 10
261.8274429289
 20
31.1895240907
 10
262.4510782394
 20
31.2206595232
 10
263.0095439032
 20
31.0838265578
 10
263.4826554486
 20
30.7839715706
 10
263.8533139322
 20
30.3319320968
 10
264.1081222538
 20
29.7440458475
 10
264.2318525594
 20
29.1051303889
  0
LWPOLYLINE
  5
26C
330
1F
100
AcDbEntity
  8
0
  6
Continuous
 62
     7
370
    18
100
AcDbPolyline
 90
        9
 70
   128
 43
0.0
 10
260.2476839693
 20
22.20360007
 10
259.7977514619
 20
22.0355151126
 10
259.1498677194
 20
21.9204377839
 10
258.5561287654
 20
21.9735267524
 10
258.0379938491
 20
22.1928637807
 10
257.6141898358
 20
22.5705210921
 10
257.3000341418
 20
23.0928493168
 10
257.1068807327
 20
23.7409698963
 10
257.0417111682
 20
24.4914582549
  0
LWPOLYLINE
  5
26D
330
1F
100
AcDbEntity
  8
0
  6
Continuous
 62
     7
370
    18
100
AcDbPolyline
 90
       15
 70
   128
 43
0.0
 10
256.4760237407
 20
24.4914595855
 10
256.5385229072
 20
25.3294340168
 10
256.7240118461
 20
26.2126354191
 10
257.0265287538
 20
27.1126769375
 10
257.4363502207
 20
28.0006302403
 10
257.9403046982
 20
28.8479562959
 10
258.5221944608
 20
29.6274209312
 10
259.1633169269
 20
30.3139715478
 10
259.8430661153
 20
30.8855417553
 10
260.5395942563
 20
31.3237612598
 10
261.2305143146
 20
31.614545074
 10
261.8936196549
 20
31.7485469947
 10
262.5075974926
 20
31.7214600606
 10
263.0527139652
 20
31.53415538
 10
263.1148874815
 20
31.4998505784
  0
ARC
  5
26E
330
1F
100
AcDbEntity
  8
0
  6
Continuous
 62
     7
370
    18
100
AcDbCircle
 10
259.2128874211
 20
24.2129186575
 30
0.0
 40
2.751001245664348
100
AcDbArc
 50
174.1888014722
 51
234.4990197751
  0
LWPOLYLINE
  5
26F
330
1F
100
AcDbEntity
  8
0
  6
Continuous
 62
     7
370
    18
100
AcDbPolyline
 90
       12
 70
   128
 43
0.0
 10
258.5089578808
 20
25.3384817527
 10
258.5711132871
 20
25.9654816142
 10
258.7539672248
 20
26.6278055338
 10
259.0468929256
 20
27.2869619206
 10
259.4328665203
 20
27.9046426758
 10
259.8894567481
 20
28.4449504946
 10
260.3901281548
 20
28.8764848966
 10
260.9057836099
 20
29.1741664545
 10
261.4064550166
 20
29.3206949543
 10
261.8630452444
 20
29.3075549913
 10
262.249018839
 20
29.135509863
 10
262.5061180723
 20
28.8694677393
  0
ARC
  5
270
330
1F
100
AcDbEntity
  8
0
  6
Continuous
 62
     7
370
    18
100
AcDbCircle
 10
259.8215885604
 20
25.1252030884
 30
0.0
 40
1.329844761435944
100
AcDbArc
 50
170.7711267902
 51
259.9165088347
  0
LWPOLYLINE
  5
271
330
1F
100
AcDbEntity
  8
0
  6
Continuous
 62
     7
370
    18
100
AcDbPolyline
 90
        3
 70
   128
 43
0.0
 10
261.6851706441
 20
29.0054824656
 10
261.9725886903
 20
28.7362687907
 10
262.0152371851
 20
28.6706574689
  0
LWPOLYLINE
  5
272
330
1F
100
AcDbEntity
  8
0
  6
Continuous
 62
     7
370
    18
100
AcDbPolyline
 90
        3
 70
   128
 43
0.0
 10
259.515440346
 20
24.3404131422
 10
259.4370333784
 20
24.3445581779
 10
259.0527176695
 20
24.4632036366
  0
LWPOLYLINE
  5
273
330
1F
100
AcDbEntity
  8
0
  6
Continuous
 62
     7
370
    18
100
AcDbPolyline
 90
       25
 70
   128
 43
0.0
 10
211.9285295928
 20
39.6979235992
 10
212.3193454652
 20
41.5612696825
 10
212.8290760365
 20
43.4490709803
 10
213.4540466284
 20
45.3477155516
 10
214.189747528
 20
47.2435094039
 10
215.0308774521
 20
49.1227867559
 10
215.9713698887
 20
50.9719929259
 10
217.0044418292
 20
52.7777961148
 10
218.1226444769
 20
54.5271721936
 10
219.3179159298
 20
56.2075096416
 10
220.5816358403
 20
57.8066912915
 10
221.9046925866
 20
59.3131832971
 10
223.2775458344
 20
60.7161260029
 10
224.6902960134
 20
62.0053999076
 10
226.1327560986
 20
63.1717112092
 10
227.5945246265
 20
64.2066476452
 10
229.0650610777
 20
65.1027478655
 10
230.5337617949
 20
65.8535498217
 10
231.9900360036
 20
66.4536376946
 10
233.4233831499
 20
66.8986880617
 10
234.8234675424
 20
67.1854886519
 10
236.1801930352
 20
67.3119738547
 10
237.4837766204
 20
67.2772291809
 10
238.7248188922
 20
67.0815060849
 10
239.8943715479
 20
66.7262183465
  0
LWPOLYLINE
  5
274
330
1F
100
AcDbEntity
  8
0
  6
Continuous
 62
     7
370
    18
100
AcDbPolyline
 90
       25
 70
   128
 43
0.0
 10
211.2123538792
 20
39.6926882829
 10
211.6018263209
 20
41.5811096154
 10
212.111419915
 20
43.4950134346
 10
212.73750213
 20
45.4207600386
 10
213.4756133025
 20
47.3446253919
 10
214.3204916619
 20
49.2528996026
 10
215.2661154773
 20
51.1319808362
 10
216.3057465211
 20
52.9684787339
 10
217.4319755093
 20
54.7493052838
 10
218.6367761012
 20
56.4617691134
 10
219.911561535
 20
58.0936644583
 10
221.2472478479
 20
59.6333639329
 10
222.6343151204
 20
61.069891909
 10
224.0628785994
 20
62.3930127232
 10
225.5227571868
 20
63.5932960701
 10
227.0035463734
 20
64.6621880035
 10
228.494693395
 20
65.592069533
 10
229.9855712365
 20
66.3763160752
 10
231.4655546938
 20
67.0093352799
 10
232.9240967652
 20
67.4866202554
 10
234.3508024902
 20
67.8047648182
 10
235.7355042708
 20
67.9615054539
 10
237.068333159
 20
67.9557229267
 10
238.339791626
 20
67.7874599533
 10
239.5408180993
 20
67.4579128317
  0
LINE
  5
275
330
1F
100
AcDbEntity
  8
0
  6
Continuous
 62
     7
370
    18
100
AcDbLine
 10
245.7699833564
 20
50.6605006068
 30
0.0
 11
245.506074279
 21
49.2511651974
 31
0.0
  0
LWPOLYLINE
  5
276
330
1F
100
AcDbEntity
  8
0
  6
Continuous
 62
     7
370
    18
100
AcDbPolyline
 90
       21
 70
   128
 43
0.0
 10
233.4365922357
 20
28.3444859298
 10
233.3390644282
 20
28.2573308245
 10
231.9085914994
 20
27.0584380766
 10
230.4559178828
 20
25.9877737177
 10
228.9914533148
 20
25.0530064909
 10
227.5256919081
 20
24.260839391
 10
226.0691369125
 20
23.616944937
 10
224.6322258879
 20
23.1259387059
 10
223.2252554248
 20
22.7913389162
 10
221.8583080041
 20
22.6155439773
 10
220.5411781584
 20
22.5998126768
 10
219.2833048061
 20
22.7442585789
 10
218.0937014458
 20
23.0478462279
 10
216.9808922776
 20
23.5083999002
 10
215.9528516171
 20
24.1226203396
 10
215.0169466016
 20
24.8861041551
 10
214.1798838484
 20
25.7933822286
 10
213.4476613809
 20
26.8379528001
 10
212.8255264816
 20
28.012330141
 10
212.31793618
 20
29.3080989309
 10
211.9285295928
 20
30.7159747171
  0
ARC
  5
277
330
1F
100
AcDbEntity
  8
0
  6
Continuous
 62
     7
370
    18
100
AcDbCircle
 10
234.7837724956
 20
57.0804041956
 30
0.0
 40
11.12401072022553
100
AcDbArc
 50
9.0277736643
 51
48.7055209086
  0
LWPOLYLINE
  5
278
330
1F
100
AcDbEntity
  8
0
  6
Continuous
 62
     7
370
    18
100
AcDbPolyline
 90
       30
 70
   128
 43
0.0
 10
217.1723364345
 20
38.2341344124
 10
217.2360914454
 20
39.6757277617
 10
217.4266571038
 20
41.1751361411
 10
217.7419471408
 20
42.715932512
 10
218.1785055148
 20
44.2812352078
 10
218.731550534
 20
45.8538943378
 10
219.395022272
 20
47.4166799024
 10
220.1616517145
 20
48.952469621
 10
221.0230391262
 20
50.4444363786
 10
221.9697475643
 20
51.8762349111
 10
222.9914042944
 20
53.2321774619
 10
224.0768157061
 20
54.497408108
 10
225.2140904612
 20
55.6580643464
 10
226.3907675806
 20
56.7014308861
 10
227.593955644
 20
57.616074759
 10
228.8104721543
 20
58.3919767254
 10
230.0269886646
 20
59.0206348249
 10
231.230176728
 20
59.4951623206
 10
232.4068538474
 20
59.8103582652
 10
233.5441286025
 20
59.9627715096
 10
234.6295400142
 20
59.9507302045
 10
235.6511967443
 20
59.7743674062
 10
236.5979051825
 20
59.4356151703
 10
237.4592925942
 20
58.9381851489
 10
238.2259220366
 20
58.287526944
 10
238.8893937746
 20
57.4907695427
 10
239.4424387938
 20
56.5566426004
 10
239.8789971678
 20
55.4953794744
 10
240.1942872048
 20
54.3186092317
 10
240.3571281395
 20
53.3001605648
  0
LWPOLYLINE
  5
279
330
1F
100
AcDbEntity
  8
0
  6
Continuous
 62
     7
370
    18
100
AcDbPolyline
 90
       15
 70
   128
 43
0.0
 10
227.3467349899
 20
30.7751173844
 10
226.3907675806
 20
30.4102119895
 10
225.2140904612
 20
30.0950160449
 10
224.0768157061
 20
29.9426028006
 10
222.9914042944
 20
29.9546441056
 10
221.9697475643
 20
30.1310069039
 10
221.0230391262
 20
30.4697591398
 10
220.1616517145
 20
30.9671891612
 10
219.395022272
 20
31.6178473661
 10
218.731550534
 20
32.4146047674
 10
218.1785055148
 20
33.3487317097
 10
217.7419471408
 20
34.4099948357
 10
217.4266571038
 20
35.5867650784
 10
217.2360914454
 20
36.8661510318
 10
217.1723364345
 20
38.2341344124
  0
LWPOLYLINE
  5
27A
330
1F
100
AcDbEntity
  8
0
  6
Continuous
 62
     7
370
    18
100
AcDbPolyline
 90
       16
 70
   128
 43
0.0
 10
249.8666583487
 20
28.5403115866
 10
249.9191897856
 20
29.0410562383
 10
250.1103023652
 20
29.9510349124
 10
250.4219911516
 20
30.8783643058
 10
250.8442380363
 20
31.7932393005
 10
251.3634715695
 20
32.6662547354
 10
251.9630032456
 20
33.469351476
 10
252.6235636407
 20
34.1767173701
 10
253.3239218148
 20
34.7656168782
 10
254.0415676466
 20
35.2171224326
 10
254.75343545
 20
35.5167222882
 10
255.436645084
 20
35.6547871391
 10
256.0692378347
 20
35.6268789645
 10
256.6308814696
 20
35.4338956875
 10
257.1035244606
 20
35.082038961
 10
257.3224450699
 20
34.8211465671
  0
LWPOLYLINE
  5
27B
330
1F
100
AcDbEntity
  8
0
  6
Continuous
 62
     7
370
    18
100
AcDbPolyline
 90
        3
 70
   128
 43
0.0
 10
251.84247182
 20
25.3285257858
 10
251.3634715695
 20
25.4309765659
 10
251.107153864
 20
25.5403067013
  0
LWPOLYLINE
  5
27C
330
1F
100
AcDbEntity
  8
0
  6
Continuous
 62
     7
370
    18
100
AcDbPolyline
 90
       14
 70
   128
 43
0.0
 10
250.3073171501
 20
28.2859247714
 10
250.3706306069
 20
29.0318792666
 10
250.5607836872
 20
29.9134022699
 10
250.8705024377
 20
30.8104606721
 10
251.2892396094
 20
31.6925058626
 10
251.8027357382
 20
32.5295010851
 10
252.3935039979
 20
33.2929430748
 10
253.0414269239
 20
33.956834111
 10
253.7244400646
 20
34.4985662287
 10
254.4192842044
 20
34.8996912125
 10
255.1022973452
 20
35.1465492814
 10
255.7502202711
 20
35.2307341323
 10
256.3409885308
 20
35.1493786566
 10
256.7341456936
 20
34.9813073185
  0
LWPOLYLINE
  5
27D
330
1F
100
AcDbEntity
  8
0
  6
Continuous
 62
     7
370
    18
100
AcDbPolyline
 90
        3
 70
   128
 43
0.0
 10
251.4095785754
 20
25.7578869401
 10
251.2892396094
 20
25.8339408137
 10
251.2105715289
 20
25.8913912808
  0
LWPOLYLINE
  5
27E
330
1F
100
AcDbEntity
  8
0
  6
Continuous
 62
     7
370
    18
100
AcDbPolyline
 90
       24
 70
   128
 43
0.0
 10
220.1325526083
 20
38.4820898035
 10
220.1950741653
 20
39.8037722442
 10
220.3818512172
 20
41.1810187943
 10
220.6905360528
 20
42.5965105121
 10
221.1172458937
 20
44.0324460861
 10
221.6566155777
 20
45.4707684482
 10
222.3018607793
 20
46.8933894843
 10
223.0448688888
 20
48.2824185453
 10
223.876294501
 20
49.6203886755
 10
224.7856835512
 20
50.8904731427
 10
225.7615987675
 20
52.0767012084
 10
226.7917678439
 20
53.164153932
 10
227.8632358927
 20
54.1391571252
 10
228.9625284348
 20
54.9894484474
 10
230.0758213039
 20
55.7043363271
 10
231.189114173
 20
56.274829034
 10
232.2884067151
 20
56.6937538648
 10
233.3598747639
 20
56.9558413486
 10
234.3900438403
 20
57.0577965233
 10
235.3659590567
 20
56.9983361825
 10
236.2753481068
 20
56.7782099636
 10
237.106773719
 20
56.4001834123
 10
237.8497818285
 20
55.8690132545
 10
238.4243250332
 20
55.2786097195
  0
LWPOLYLINE
  5
27F
330
1F
100
AcDbEntity
  8
0
  6
Continuous
 62
     7
370
    18
100
AcDbPolyline
 90
       10
 70
   128
 43
0.0
 10
224.6188238487
 20
31.4735386575
 10
223.876294501
 20
31.6662233154
 10
223.0448688888
 20
32.0442498667
 10
222.3018607793
 20
32.5754200245
 10
221.6566155777
 20
33.2530568082
 10
221.1172458937
 20
34.0686361886
 10
220.6905360528
 20
35.0119030671
 10
220.3818512172
 20
36.0709948599
 10
220.1950741653
 20
37.2325932161
 10
220.1325526083
 20
38.4820898035
  0
LWPOLYLINE
  5
280
330
1F
100
AcDbEntity
  8
0
  6
Continuous
 62
     7
370
    18
100
AcDbPolyline
 90
       20
 70
   128
 43
0.0
 10
201.074208343
 20
40.5542883328
 10
201.1362063571
 20
42.2982383754
 10
201.3217657602
 20
44.1015374164
 10
201.6295852683
 20
45.9515367988
 10
202.0575048554
 20
47.8352594258
 10
202.6025228757
 20
49.7394925365
 10
203.2608184539
 20
51.6508800993
 10
204.0277712417
 20
53.5560133057
 10
204.8980035646
 20
55.4415313273
 10
205.8654120323
 20
57.2942080057
 10
206.9232083679
 20
59.1010461461
 10
208.063974726
 20
60.8493748514
 10
209.2797091324
 20
62.5269289862
 10
210.5618840942
 20
64.1219415678
 10
211.901505869
 20
65.6232266506
 10
213.2891776854
 20
67.0202508042
 10
214.7151669139
 20
68.3032190391
 10
216.1694705928
 20
69.4631278429
 10
217.6418881146
 20
70.4918451647
 10
219.0680172839
 20
71.3521483017
  0
LWPOLYLINE
  5
281
330
1F
100
AcDbEntity
  8
0
  6
Continuous
 62
     7
370
    18
100
AcDbPolyline
 90
        3
 70
   128
 43
0.0
 10
201.1668721407
 20
38.520383232
 10
201.1362063571
 20
38.8819196737
 10
201.074208343
 20
40.5542883328
  0
LWPOLYLINE
  5
282
330
1F
100
AcDbEntity
  8
0
  6
Continuous
 62
     7
370
    18
100
AcDbPolyline
 90
       21
 70
   128
 43
0.0
 10
208.8972215636
 20
42.3810826903
 10
209.311340692
 20
44.2685994209
 10
209.8519635862
 20
46.1795493523
 10
210.514721462
 20
48.0984939766
 10
211.2942603524
 20
50.0099309999
 10
212.184283255
 20
51.8984205744
 10
213.1776001807
 20
53.7487054473
 10
214.2661867647
 20
55.5458413746
 10
215.4412494623
 20
57.2753070018
 10
216.6932953543
 20
58.9231323757
 10
218.0122105142
 20
60.4760065424
 10
219.3873396918
 20
61.9213843849
 10
220.8075745584
 20
63.2475907984
 10
222.261441787
 20
64.4439110816
 10
223.73719673
 20
65.5006799979
 10
225.2229178182
 20
66.4093621253
 10
226.7066028925
 20
67.1626165941
 10
228.1762661343
 20
67.7543591267
 10
229.620035406
 20
68.1798075848
 10
231.0262472258
 20
68.4355276718
 10
231.37602919
 20
68.4731666614
  0
LWPOLYLINE
  5
283
330
1F
100
AcDbEntity
  8
0
  6
Continuous
 62
     7
370
    18
100
AcDbPolyline
 90
       18
 70
   128
 43
0.0
 10
209.4712162008
 20
42.3858792908
 10
209.8868341765
 20
44.2530360078
 10
210.4279878576
 20
46.1426822819
 10
211.0902570933
 20
48.0393803707
 10
211.868231282
 20
49.9276363505
 10
212.755554152
 20
51.792023307
 10
213.7449777626
 20
53.6173128904
 10
214.8284204555
 20
55.3885924214
 10
215.9970294169
 20
57.0913907415
 10
217.2412590441
 20
58.7118002605
 10
218.5509440442
 20
60.2365807522
 10
219.9153860323
 20
61.653277789
 10
221.323438484
 20
62.9503158902
 10
222.7635981086
 20
64.1171014613
 10
224.2241005024
 20
65.1441008272
 10
225.6930140324
 20
66.0229248494
 10
227.1583389064
 20
66.7463952423
 10
227.3021665086
 20
66.8090782047
  0
LINE
  5
284
330
1F
100
AcDbEntity
  8
0
  6
Continuous
 62
     7
370
    18
100
AcDbLine
 10
202.6510572972
 20
40.0563462551
 30
0.0
 11
204.804196225
 21
41.2993269005
 31
0.0
  0
LWPOLYLINE
  5
285
330
1F
100
AcDbEntity
  8
0
  6
Continuous
 62
     7
370
    18
100
AcDbPolyline
 90
       20
 70
   128
 43
0.0
 10
190.2038884541
 20
60.238385407
 10
190.8129512448
 20
61.9110036486
 10
191.5364124362
 20
63.5703425993
 10
192.3666026189
 20
65.1988119513
 10
193.2947216627
 20
66.7791496422
 10
194.3109302541
 20
68.2946016968
 10
195.4044565805
 20
69.729103967
 10
196.5637079537
 20
71.0674499937
 10
197.7763956039
 20
72.295451263
 10
199.0296642484
 20
73.4000918525
 10
200.3102279987
 20
74.3696593613
 10
201.6045121946
 20
75.19387774
 10
202.8987963905
 20
75.8640080858
 10
204.1793601408
 20
76.3729480122
 10
205.4326287853
 20
76.7153005995
 10
206.6453164355
 20
76.8874386884
 10
207.8045678087
 20
76.8875358075
 10
208.8980941351
 20
76.7155921595
 10
209.9143027265
 20
76.3734295703
 10
210.1835051846
 20
76.2475667133
  0
ARC
  5
286
330
1F
100
AcDbEntity
  8
0
  6
Continuous
 62
     7
370
    18
100
AcDbCircle
 10
196.0638793276
 20
50.879761152
 30
0.0
 40
6.567090909485822
100
AcDbArc
 50
206.8329030038
 51
236.0333930637
  0
ARC
  5
287
330
1F
100
AcDbEntity
  8
0
  6
Continuous
 62
     7
370
    18
100
AcDbCircle
 10
223.5461754568
 20
33.1946666502
 30
0.0
 40
12.58145656459669
100
AcDbArc
 50
191.3865744508
 51
214.2485105814
  0
LINE
  5
288
330
1F
100
AcDbEntity
  8
0
  6
Continuous
 62
     7
370
    18
100
AcDbLine
 10
206.6161597067
 20
33.364065819
 30
0.0
 11
208.3397300519
 21
34.3590618002
 31
0.0
  0
LINE
  5
289
330
1F
100
AcDbEntity
  8
0
  6
Continuous
 62
     7
370
    18
100
AcDbLine
 10
202.6510572972
 20
39.2398054044
 30
0.0
 11
204.804196225
 21
40.4827860498
 31
0.0
  0
LINE
  5
28A
330
1F
100
AcDbEntity
  8
0
  6
Continuous
 62
     7
370
    18
100
AcDbLine
 10
210.3229928139
 20
32.686845913
 30
0.0
 11
210.2561044483
 21
32.9508240681
 31
0.0
  0
LINE
  5
28B
330
1F
100
AcDbEntity
  8
0
  6
Continuous
 62
     7
370
    18
100
AcDbLine
 10
209.8148644814
 20
32.2216665828
 30
0.0
 11
209.4712162008
 21
33.4039304087
 31
0.0
  0
LWPOLYLINE
  5
28C
330
1F
100
AcDbEntity
  8
0
  6
Continuous
 62
     7
370
    18
100
AcDbPolyline
 90
        3
 70
   128
 43
0.0
 10
209.7252293299
 20
30.9688182361
 10
209.2945346362
 20
32.0375071122
 10
208.8972215636
 20
33.3991338082
  0
LINE
  5
28D
330
1F
100
AcDbEntity
  8
0
  6
Continuous
 62
     7
370
    18
100
AcDbLine
 10
237.5287196489
 20
68.6189682187
 30
0.0
 11
237.4283508804
 21
68.561026562
 31
0.0
  0
ARC
  5
28E
330
1F
100
AcDbEntity
  8
0
  6
Continuous
 62
     7
370
    18
100
AcDbCircle
 10
196.1685664997
 20
57.9225497083
 30
0.0
 40
1.982758115011166
100
AcDbArc
 50
160.3181851691
 51
206.3321513809
  0
ARC
  5
28F
330
1F
100
AcDbEntity
  8
0
  6
Continuous
 62
     7
370
    18
100
AcDbCircle
 10
193.9164555327
 20
57.8628818642
 30
0.0
 40
0.8231407192552133
100
AcDbArc
 50
40.3516534992
 51
62.0985447238
  0
LINE
  5
290
330
1F
100
AcDbEntity
  8
0
  6
Continuous
 62
     7
370
    18
100
AcDbLine
 10
194.3016460936
 20
58.5903355573
 30
0.0
 11
194.4494485059
 21
59.14459039
 31
0.0
  0
LINE
  5
291
330
1F
100
AcDbEntity
  8
0
  6
Continuous
 62
     7
370
    18
100
AcDbLine
 10
194.3016460936
 20
58.5903355573
 30
0.0
 11
193.0484266753
 21
59.313803728
 31
0.0
  0
LINE
  5
292
330
1F
100
AcDbEntity
  8
0
  6
Continuous
 62
     7
370
    18
100
AcDbLine
 10
190.2037448914
 20
61.1202907647
 30
0.0
 11
190.1891245447
 21
61.2960166086
 31
0.0
  0
ARC
  5
293
330
1F
100
AcDbEntity
  8
0
  6
Continuous
 62
     7
370
    18
100
AcDbCircle
 10
194.0199970529
 20
44.5614388093
 30
0.0
 40
0.5806338492595741
100
AcDbArc
 50
25.5709532967
 51
60.9828307538
  0
ARC
  5
294
330
1F
100
AcDbEntity
  8
0
  6
Continuous
 62
     7
370
    18
100
AcDbCircle
 10
196.257103904
 20
45.7151804506
 30
0.0
 40
2.059398257776769
100
AcDbArc
 50
172.8727688225
 51
198.2811498095
  0
LINE
  5
295
330
1F
100
AcDbEntity
  8
0
  6
Continuous
 62
     7
370
    18
100
AcDbLine
 10
193.456461511
 20
50.1027910633
 30
0.0
 11
191.8393936178
 21
51.0363044876
 31
0.0
  0
LINE
  5
296
330
1F
100
AcDbEntity
  8
0
  6
Continuous
 62
     7
370
    18
100
AcDbLine
 10
194.3016460936
 20
45.0691882404
 30
0.0
 11
193.0484266753
 21
45.7926564111
 31
0.0
  0
LINE
  5
297
330
1F
100
AcDbEntity
  8
0
  6
Continuous
 62
     7
370
    18
100
AcDbLine
 10
194.3016460936
 20
45.0691882404
 30
0.0
 11
194.4494485059
 21
44.6855824405
 31
0.0
  0
OLE2FRAME
  5
298
330
1F
100
AcDbEntity
  8
0
100
AcDbOle2Frame
 70
     2
  3
Paintbrush-Bild
 10
13.8511154363
 20
38.264191557
 30
0.0
 11
51.6290888628
 21
31.9806341108
 31
0.0
 71
     2
 72
     0
 73
     1
 90
    12928
310
80552BED0767C5B32B40DDAF6807D121434000000000000000006FFBDDFB85D0
310
4940DDAF6807D121434000000000000000006FFBDDFB85D04940416F4BD60AFB
310
3F4000000000000000002BED0767C5B32B40416F4BD60AFB3F40000000000000
310
0000000000000100000000010000010000000100000000000100000000320000
310
D0CF11E0A1B11AE1000000000000000000000000000000003E000300FEFF0900
310
0600000000000000000000000100000001000000000000000010000002000000
310
01000000FEFFFFFF0000000000000000FFFFFFFFFFFFFFFFFFFFFFFFFFFFFFFF
310
FFFFFFFFFFFFFFFFFFFFFFFFFFFFFFFFFFFFFFFFFFFFFFFFFFFFFFFFFFFFFFFF
310
FFFFFFFFFFFFFFFFFFFFFFFFFFFFFFFFFFFFFFFFFFFFFFFFFFFFFFFFFFFFFFFF
310
FFFFFFFFFFFFFFFFFFFFFFFFFFFFFFFFFFFFFFFFFFFFFFFFFFFFFFFFFFFFFFFF
310
FFFFFFFFFFFFFFFFFFFFFFFFFFFFFFFFFFFFFFFFFFFFFFFFFFFFFFFFFFFFFFFF
310
FFFFFFFFFFFFFFFFFFFFFFFFFFFFFFFFFFFFFFFFFFFFFFFFFFFFFFFFFFFFFFFF
310
FFFFFFFFFFFFFFFFFFFFFFFFFFFFFFFFFFFFFFFFFFFFFFFFFFFFFFFFFFFFFFFF
310
FFFFFFFFFFFFFFFFFFFFFFFFFFFFFFFFFFFFFFFFFFFFFFFFFFFFFFFFFFFFFFFF
310
FFFFFFFFFFFFFFFFFFFFFFFFFFFFFFFFFFFFFFFFFFFFFFFFFFFFFFFFFFFFFFFF
310
FFFFFFFFFFFFFFFFFFFFFFFFFFFFFFFFFFFFFFFFFFFFFFFFFFFFFFFFFFFFFFFF
310
FFFFFFFFFFFFFFFFFFFFFFFFFFFFFFFFFFFFFFFFFFFFFFFFFFFFFFFFFFFFFFFF
310
FFFFFFFFFFFFFFFFFFFFFFFFFFFFFFFFFFFFFFFFFFFFFFFFFFFFFFFFFFFFFFFF
310
FFFFFFFFFFFFFFFFFFFFFFFFFFFFFFFFFFFFFFFFFFFFFFFFFFFFFFFFFFFFFFFF
310
FFFFFFFFFFFFFFFFFFFFFFFFFFFFFFFFFFFFFFFFFFFFFFFFFFFFFFFFFFFFFFFF
310
FDFFFFFFFEFFFFFFFEFFFFFFFEFFFFFF05000000060000000700000008000000
310
090000000A0000000B0000000C0000000D0000000E0000000F00000010000000
310
11000000120000001300000014000000150000001600000017000000FEFFFFFF
310
FFFFFFFFFFFFFFFFFFFFFFFFFFFFFFFFFFFFFFFFFFFFFFFFFFFFFFFFFFFFFFFF
310
FFFFFFFFFFFFFFFFFFFFFFFFFFFFFFFFFFFFFFFFFFFFFFFFFFFFFFFFFFFFFFFF
310
FFFFFFFFFFFFFFFFFFFFFFFFFFFFFFFFFFFFFFFFFFFFFFFFFFFFFFFFFFFFFFFF
310
FFFFFFFFFFFFFFFFFFFFFFFFFFFFFFFFFFFFFFFFFFFFFFFFFFFFFFFFFFFFFFFF
310
FFFFFFFFFFFFFFFFFFFFFFFFFFFFFFFFFFFFFFFFFFFFFFFFFFFFFFFFFFFFFFFF
310
FFFFFFFFFFFFFFFFFFFFFFFFFFFFFFFFFFFFFFFFFFFFFFFFFFFFFFFFFFFFFFFF
310
FFFFFFFFFFFFFFFFFFFFFFFFFFFFFFFFFFFFFFFFFFFFFFFFFFFFFFFFFFFFFFFF
310
FFFFFFFFFFFFFFFFFFFFFFFFFFFFFFFFFFFFFFFFFFFFFFFFFFFFFFFFFFFFFFFF
310
FFFFFFFFFFFFFFFFFFFFFFFFFFFFFFFFFFFFFFFFFFFFFFFFFFFFFFFFFFFFFFFF
310
FFFFFFFFFFFFFFFFFFFFFFFFFFFFFFFFFFFFFFFFFFFFFFFFFFFFFFFFFFFFFFFF
310
FFFFFFFFFFFFFFFFFFFFFFFFFFFFFFFFFFFFFFFFFFFFFFFFFFFFFFFFFFFFFFFF
310
FFFFFFFFFFFFFFFFFFFFFFFFFFFFFFFFFFFFFFFFFFFFFFFFFFFFFFFFFFFFFFFF
310
FFFFFFFFFFFFFFFFFFFFFFFFFFFFFFFFFFFFFFFFFFFFFFFFFFFFFFFFFFFFFFFF
310
52006F006F007400200045006E00740072007900000000000000000000000000
310
0000000000000000000000000000000000000000000000000000000000000000
310
16000500FFFFFFFFFFFFFFFF020000000A00030000000000C000000000000046
310
000000000000000000000000806941275CA9D30103000000C000000000000000
310
01004F006C006500000000000000000000000000000000000000000000000000
310
0000000000000000000000000000000000000000000000000000000000000000
310
0A000200FFFFFFFFFFFFFFFFFFFFFFFF00000000000000000000000000000000
310
0000000000000000000000000000000000000000000000001400000000000000
310
010043006F006D0070004F0062006A0000000000000000000000000000000000
310
0000000000000000000000000000000000000000000000000000000000000000
310
120002010100000003000000FFFFFFFF00000000000000000000000000000000
310
0000000000000000000000000000000000000000010000004D00000000000000
310
01004F006C006500310030004E00610074006900760065000000000000000000
310
0000000000000000000000000000000000000000000000000000000000000000
310
1A000200FFFFFFFFFFFFFFFFFFFFFFFF00000000000000000000000000000000
310
0000000000000000000000000000000000000000040000002426000000000000
310
FEFFFFFF02000000FEFFFFFFFFFFFFFFFFFFFFFFFFFFFFFFFFFFFFFFFFFFFFFF
310
FFFFFFFFFFFFFFFFFFFFFFFFFFFFFFFFFFFFFFFFFFFFFFFFFFFFFFFFFFFFFFFF
310
FFFFFFFFFFFFFFFFFFFFFFFFFFFFFFFFFFFFFFFFFFFFFFFFFFFFFFFFFFFFFFFF
310
FFFFFFFFFFFFFFFFFFFFFFFFFFFFFFFFFFFFFFFFFFFFFFFFFFFFFFFFFFFFFFFF
310
FFFFFFFFFFFFFFFFFFFFFFFFFFFFFFFFFFFFFFFFFFFFFFFFFFFFFFFFFFFFFFFF
310
FFFFFFFFFFFFFFFFFFFFFFFFFFFFFFFFFFFFFFFFFFFFFFFFFFFFFFFFFFFFFFFF
310
FFFFFFFFFFFFFFFFFFFFFFFFFFFFFFFFFFFFFFFFFFFFFFFFFFFFFFFFFFFFFFFF
310
FFFFFFFFFFFFFFFFFFFFFFFFFFFFFFFFFFFFFFFFFFFFFFFFFFFFFFFFFFFFFFFF
310
FFFFFFFFFFFFFFFFFFFFFFFFFFFFFFFFFFFFFFFFFFFFFFFFFFFFFFFFFFFFFFFF
310
FFFFFFFFFFFFFFFFFFFFFFFFFFFFFFFFFFFFFFFFFFFFFFFFFFFFFFFFFFFFFFFF
310
FFFFFFFFFFFFFFFFFFFFFFFFFFFFFFFFFFFFFFFFFFFFFFFFFFFFFFFFFFFFFFFF
310
FFFFFFFFFFFFFFFFFFFFFFFFFFFFFFFFFFFFFFFFFFFFFFFFFFFFFFFFFFFFFFFF
310
FFFFFFFFFFFFFFFFFFFFFFFFFFFFFFFFFFFFFFFFFFFFFFFFFFFFFFFFFFFFFFFF
310
FFFFFFFFFFFFFFFFFFFFFFFFFFFFFFFFFFFFFFFFFFFFFFFFFFFFFFFFFFFFFFFF
310
FFFFFFFFFFFFFFFFFFFFFFFFFFFFFFFFFFFFFFFFFFFFFFFFFFFFFFFFFFFFFFFF
310
FFFFFFFFFFFFFFFFFFFFFFFFFFFFFFFFFFFFFFFFFFFFFFFFFFFFFFFFFFFFFFFF
310
0100000200000000000000000000000000000000000000000000000000000000
310
0000000000000000000000000000000000000000000000000000000000000000
310
0100FEFF030A0000FFFFFFFF0A00030000000000C00000000000004607000000
310
5042727573680007000000504272757368000700000050427275736800F439B2
310
7100000000000000000000000000000000000000000000000000000000000000
310
0000000000000000000000000000000000000000000000000000000000000000
310
0000000000000000000000000000000000000000000000000000000000000000
310
0000000000000000000000000000000000000000000000000000000000000000
310
0000000000000000000000000000000000000000000000000000000000000000
310
0000000000000000000000000000000000000000000000000000000000000000
310
0000000000000000000000000000000000000000000000000000000000000000
310
0000000000000000000000000000000000000000000000000000000000000000
310
0000000000000000000000000000000000000000000000000000000000000000
310
0000000000000000000000000000000000000000000000000000000000000000
310
0000000000000000000000000000000000000000000000000000000000000000
310
0000000000000000000000000000000000000000000000000000000000000000
310
20260000424D0E260000000000003E00000028000000B40200006E0000000100
310
01000000000000000000130B0000130B00000200000002000000000000FFFFFF
310
FFFFFFFFFFFFFFFFFFFFFFFFFFFFFFFFFFFFFFFFFFFFFFFFFFFFFFFFFFFFFFFF
310
FFFFFFFFFFFFFFFFFFFFFFFFFFFFFFFFFFFFFFFFFFFFFFFFFFFFFFFFFFFFFFFF
310
FFFFFFFFFFFFFFFFFFFFFFFFFFFFFFFFFFFFFFFFFFFFFFFFF000FFFFFFFFFFFF
310
FFFFFFFFFFFFFFFFFFFFFFFFFFFFFFFFFFFFFFFFFFFFFFFFFFFFFFFFFFFFFFFF
310
FFFFFFFFFFFFFFFFFFFFFFFFFFFFFFFFFFFFFFFFFFFFFFFFFFFFFFFFFFFFFFFF
310
FFFFFFFFFFFFFFFFFFFFFFFFFFFFFFFFF000FFFFFFFFFFFFFFFFFFFFFFFFFFFF
310
FFFFFFFFFFFFFFFFFFFFFFFFFFFFFFFFFFFFFFFFFFFFFFFFFFFFFFFFFFFFFFFF
310
FFFFFFFFFFFFFFFFFFFFFFFFFFFFFFFFFFFFFFFFFFFFFFFFFFFFFFFFFFFFFFFF
310
FFFFFFFFFFFFFFFFF000FFFFFFFFFFFFFFFFFFFFFFFFFFFFFFFFFFFFFFFFFFFF
310
FFFFFFFFFFFFFFFFFFFFFFFFFFFFFFFFFFFFFFFFFFFFFFFFFFFFFFFFFFFFFFFF
310
FFFFFFFFFFFFFFFFFFFFFFFFFFFFFFFFFFFFFFFFFFFFFFFFFFFFFFFFFFFFFFFF
310
F000FFFFFFFFFFFFFFFFFFFFFFFFFFFFFFFFFFFFFFFFFFFFFFFFFFFFFFFFFFFF
310
FFFFFFFFFFFFFFFFFFFFFFFFFFFFFFFFFFFFFFFFFFFFFFFFFFFFFFFFFFFFFFFF
310
FFFFFFFFFFFFFFFFFFFFFFFFFFFFFFFFFFFFFFFFFFFFFFFFF000FFFFFFFFFFFF
310
FFFFFFFFFFFFFFFFFFFFFFFFFFFFFFFFFFFFFFFFFFFFFFFFFFFFFFFFFFFFFFFF
310
FFFFFFFFFFFFFFFFFFFFFFFFFFFFFFFFFFFFFFFFFFFFFFFFFFFFFFFFFFFFFFFF
310
FFFFFFFFFFFFFFFFFFFFFFFFFFFFFFFFF000FFFFFFFFFFFFFFFFFFFFFFFFFFFF
310
FFFFFFFFFFFFFFFFFFFFFFFFFFFFFFFFFFFFFFFFFFFFFFFFFFFFFFFFFFFFFFFF
310
FFFFFFFFFFFFFFFFFFFFFFFFFFFFFFFFFFFFFFFFFFFFFFFFFFFFFFFFFFFFFFFF
310
FFFFFFFFFFFFFFFFF000FFFFFFFFFFFFFFFFFFFFFFFFFFFFFFFFFFFFFFFFFFFF
310
FFFFFFFFFFFFFFFFFFFFFFFFFFFFFFFFFFFFFFFFFFFFFFFFFFFFFFFFFFFFFFFF
310
FFFFFFFFFFFFFFFFFFFFFFFFFFFFFFFFFFFFFFFFFFFFFFFFFFFFFFFFFFFFFFFF
310
F000FFFFFFFFFFFFFFFFFFFFFFFFFFFFFFFFFFFFFFFFFFFFFFFFFFFFFFFFFFFF
310
FFFFFFFFFFFFFFFFFFFFFFFFFFFFFFFFFFFFFFFFFFFFFFFFFFFFFFFFFFFFFFFF
310
FFFFFFFFFFFFFFFFFFFFFFFFFFFFFFFFFFFFFFFFFFFFFFFFF000FFFFFFFFFFFF
310
FFFFFFFFFFFFFFFFFFFFFFFFFFFFFFFFFFFFFFFFFFFFFFFFFFFFFFFFFFFFFFFF
310
FFFFFFFFFFFFFFFFFFFFFFFFFFFFFFFFFFFFFFFFFFFFFFFFFFFFFFFFFFFFFFFF
310
FFFFFFFFFFFFFFFFFFFFFFFFFFFFFFFFF000FFFFFFFFFFFFFFFFFFFFFFFFFFFF
310
FFFFFFFFFFFFFFFFFFFFFFFFFFFFFFFFFFFFFFFFFFFFFFFFFFFFFFFFFFFFFFFF
310
FFFFFFFFFFFFFFFFFFFFFFFFFFFFFFFFFFFFFFFFFFFFFFFFFFFFFFFFFFFFFFFF
310
FFFFFFFFFFFFFFFFF000FFFFFFFFFFFFFFFFFFFFFFFFFFFFFFFFFFFFFFFFFFFF
310
FFFFFFFFFFFFFFFFFFFFFFFFFFFFFFFFFFFFFFFFFFFFFFFFFFFFFFFFFFFFFFFF
310
FFFFFFFFFFFFFFFFFFFFFFFFFFFFFFFFFFFFFFFFFFFFFFFFFFFFFFFFFFFFFFFF
310
F000FFFFFFFFFFFFFFFFFFFFFFFFFFFFFFFFFFFFFFFFFFFFFFFFFFFFFFFFFFFF
310
FFFFFFFFFFFFFFFFFFFFFFFFFFFFFFFFFFFFFFFFFFFFFFFFFFFFFFFFFFFFFFFF
310
FFFFFFFFFFFFFFFFFFFFFFFFFFFFFFFFFFFFFFFFFFFFFFFFF000FFFFFFFFFFFF
310
FFFFFFFFFFFFFFFFFFFFFFFFFFFFFFFFFFFFFFFFFFFFFFFFFFFFFFFFFFFFFFFF
310
FFFFFFFFFFFFFFFFFFFFFFFFFFFFFFFFFFFFFFFFFFFFFFFFFFFFFFFFFFFFFFFF
310
FFFFFFFFFFFFFFFFFFFFFFFFFFFFFFFFF000FFFFFFFFFFFFFFFFFFFFFFFFFFFF
310
FFFFFFFFFFFFFFFFFFFFFFFFFFFFFFFFFFFFFFFFFFFFFFFFFFFFFFFFFFFFFFFF
310
FFFFFFFFFFFFFFFFFFFFFFFFFFFFFFFFFFFFFFFFFFFFFFFFFFFFFFFFFFFFFFFF
310
FFFFFFFFFFFFFFFFF000FFFFFFFFFFFFFFFFFFFFFFFFFFFFFFFFFFFFFFFFFFFF
310
FFFFFFFFFFFFFFFFFFFFFFFFFFFFFFFFFFFFFFFFFFFFFFFFFFFFFFFFFFFFFFFF
310
FFFFFFFFFFFFFFFFFFFFFFFFFFFFFFFFFFFFFFFFFFFFFFFFFFFFFFFFFFFFFFFF
310
F000FFFFFFFFFFFFFFFFFFFFFFFFFFFFFFFFFFFFFFFFFFFFFFFFFFFFFFFFFFFF
310
FFFFFFFFFFFFFFFFFFFFFFFFFFFFFFFFFFFFFFFFFFFFFFFFFFFFFFFFFFFFFFFF
310
FFFFFFFFFFFFFFFFFFFFFFFFFFFFFFFFFFFFFFFFFFFFFFFFF000FFFFFFFFFFFF
310
FFFFFFFFFFFFFFFFFFFFFFFFFFFFFFFFFFFFFFFFFFFFFFFFFFFFFFFFFFFFFFFF
310
FFFFFFFFFFFFFFFFFFFFFFFFFFFFFFFFFFFFFFFFFFFFFFFFFFFFFFFFFFFFFFFF
310
FFFFFFFFFFFFFFFFFFFFFFFFFFFFFFFFF000FFFFFFFFFFFFFFFFFFFFFFFFFFFF
310
FFFFFFFFFFFFFFFFFFFFFFFFFFFFFFFFFFFFFFFFFFFFFFFFFFFFFFFFFFFFFFFF
310
FFFFFFFFFFFFFFFFFFFFFFFFFFFFFFFFFFFFFFFFFFFFFFFFFFFFFFFFFFFFFFFF
310
FFFFFFFFFFFFFFFFF000FFFFF80003FFFFFFFFFFFFFFFFFFFFFFFFFFFFFFFFFF
310
FFFFF00007FFFFFFFFFF00007FFFFFF800000000000000007FFFFFFFFFFFFFFF
310
FFFFFFFC001FFFFFFFFFFFFFFC001FFFFFFFFFFFFFFFFFFFFFFFFFFE0007FFFF
310
F000FFFF8000007FFFFFFFF8000FFFFFC0007FFFFF80007FFFFF0000007FFFFF
310
FFF8000007FFFFF800000000000000007FFFFFF0001FFFFFFFFFFFC00001FFFF
310
FFFFFFFFC00001FFFFFFFF000000000003FFFFE000007FFFF000FFFE0000000F
310
FFFFFFF0000FFFFF80007FFFFF80007FFFFC0000001FFFFFFFC0000001FFFFF8
310
00000000000000007FFFFFF0001FFFFFFFFFFE0000003FFFFFFFFFFE0000003F
310
FFFFFF000000000003FFFF0000000FFFF000FFF800000003FFFFFFF00007FFFF
310
80007FFFFF80007FFFF000000007FFFFFF000000003FFFF80000000000000000
310
7FFFFFF0001FFFFFFFFFF80000000FFFFFFFFFF80000000FFFFFFF0000000000
310
03FFFC00000003FFF000FFE000000000FFFFFFF00007FFFF80003FFFFF80007F
310
FFC000000001FFFFFC000000001FFFF800000000000000007FFFFFF0001FFFFF
310
FFFFE000000003FFFFFFFFE000000003FFFFFF000000000003FFF000000000FF
310
F000FF80000000007FFFFFF00007FFFF80003FFFFF80007FFF8000000000FFFF
310
F80000000007FFF800000000000000007FFFFFF0001FFFFFFFFFC000000001FF
310
FFFFFFC000000001FFFFFF000000000003FFC0000000007FF000FF0000000000
310
3FFFFFE00007FFFF00003FFFFF80007FFE00000000003FFFF00000000003FFF8
310
00000000000000007FFFFFF0001FFFFFFFFF8000000000FFFFFFFF8000000000
310
FFFFFF000000000003FF80000000003FF000FE00000000001FFFFFE00003FFFF
310
00003FFFFF80007FFC00000000001FFFE00000000001FFF8000001FFFE000000
310
7FFFFFF0001FFFFFFFFE00000000003FFFFFFE00000000003FFFFF0000000000
310
03FF00000000001FF000FC00000000000FFFFFE00003FFFF00001FFFFF80007F
310
F800000000001FFFC00000000000FFF8000001FFFE0000007FFFFFF0001FFFFF
310
FFFC00000000001FFFFFFC00000000001FFFFF000000000003FE00000000000F
310
F000F8000000000007FFFFE00003FFFF00001FFFFF80007FF800000000000FFF
310
800000000000FFF8000001FFFE0000007FFFFFF0001FFFFFFFF800000000000F
310
FFFFF800000000000FFFFF000000000003FC000000000007F000F80000000000
310
03FFFFC00003FFFE00001FFFFF80007FF0000000000007FF0000000000007FF8
310
000001FFFE0000007FFFFFF0001FFFFFFFF0000000000007FFFFF00000000000
310
07FFFF000000000003F8000000000003F000F0000000000003FFFFC00001FFFE
310
00001FFFFF80007FE0000000000007FE0000000000003FF8000001FFFE000000
310
7FFFFFF0001FFFFFFFF0000000000007FFFFF0000000000007FFFF0000000000
310
03F800001F800003F000E00001FFF00001FFFFC00001FFFE00000FFFFF80007F
310
E00001FFE00003FE00001FFF00003FF8000001FFFE0000007FFFFFF0001FFFFF
310
FFE000003E000003FFFFE000003E000003FFFF000000000003F00001FFF80001
310
F000E00007FFFC0001FFFFC00001FFFE00000FFFFF80007FC0000FFFFC0003FC
310
0000FFFFC0001FF8000001FFFE0000007FFFFFF0001FFFFFFFC00003FFE00001
310
FFFFC00003FFE00001FFFF0001FFFFFFFFF00007FFFE0001F000E0000FFFFF00
310
00FFFF800001FFFC00000FFFFF80007FC0001FFFFE0001FC0001FFFFE0001FF8
310
000001FFFE0000007FFFFFF0001FFFFFFF80000FFFF80000FFFF80000FFFF800
310
00FFFF0003FFFFFFFFE0000FFFFF8000F000C0003FFFFF8000FFFF800000FFFC
310
000007FFFF80007F80003FFFFF0001FC0003FFFFF0001FF8000001FFFE000000
310
7FFFFFF0001FFFFFFF80003FFFFE0000FFFF80003FFFFE0000FFFF0003FFFFFF
310
FFE0003FFFFF8000F000C0003FFFFF8000FFFF800000FFFC000007FFFF80007F
310
80007FFFFF8001F80007FFFFF8000FF8000001FFFE0000007FFFFFF0001FFFFF
310
FF00007FFFFF00007FFF00007FFFFF00007FFF0003FFFFFFFFE0003FFFFFC000
310
F000C0007FFFFFC000FFFF000000FFFC000007FFFF80007F8000FFFFFF8000F8
310
000FFFFFF8000FF8000001FFFE0000007FFFFFF0001FFFFFFF0000FFFFFF8000
310
7FFF0000FFFFFF80007FFF0003FFFFFFFFC0007FFFFFC00070008000FFFFFFC0
310
00FFFF000000FFF8000007FFFF80007F8000FFFFFF8000F8000FFFFFF8000FF8
310
000001FFFE0000007FFFFFF0001FFFFFFE0001FFFFFFC0003FFE0001FFFFFFC0
310
003FFF0003FFFFFFFFC0007FFFFFE00070008000FFFFFFC0007FFF0000007FF8
310
000003FFFF80007F0001FFFFFF8000F8000FFFFFF8000FF8000001FFFE000000
310
7FFFFFF0001FFFFFFE0001FFFFFFC0003FFE0001FFFFFFC0003FFF0003FFFFFF
310
FFC000FFFFFFE00070008000FFFFFFC0007FFF0000007FF8000003FFFF80007F
310
0001FFFFFF8000F8001FFFFFF8000FF8000001FFFE0000007FFFFFF0001FFFFF
310
FE0003FFFFFFE0003FFE0003FFFFFFE0003FFF0003FFFFFFFFC000FFFFFFE000
310
70008000FFFFFFC0007FFE0000007FF8000003FFFF80007F0001FFFFFF8000F0
310
001FFFFFF8000FF8000001FFFE0000007FFFFFF0001FFFFFFC0003FFFFFFE000
310
1FFC0003FFFFFFE0001FFF0003FFFFFFFFC000FFFFFFC00070008000FFFFFF80
310
007FFE0000007FF0000003FFFF80007F0001FFFFFF0000F0001FFFFFF8000FF8
310
000001FFFE0000007FFFFFF0001FFFFFFC0007FFFFFFF0001FFC0007FFFFFFF0
310
001FFF0003FFFFFFFFC000FFFFFFC00070008001FFFFFF0000FFFE0000003FF0
310
000001FFFF80007F0001FFFFFF0000F8001FFFFFF0000FF8000001FFFE000000
310
7FFFFFF0001FFFFFFC0007FFFFFFF0001FFC0007FFFFFFF0001FFF0003FFFFFF
310
FFC001FFFFFF80007000FFFFFFFFFE0000FFFE0008003FF0008001FFFF80007F
310
FFFFFFFFFC0000FFFFFFFFFFE0000FF8000001FFFE0000007FFFFFF0001FFFFF
310
F8000FFFFFFFF8000FF8000FFFFFFFF8000FFF0003FFFFFFFFFFFFFFFFFF0000
310
7000FFFFFFFFFC0000FFFC0008003FF0008001FFFF80007FFFFFFFFFF80001FF
310
FFFFFFFF80000FF8000001FFFE0000007FFFFFF0001FFFFFF8000FFFFFFFF800
310
0FF8000FFFFFFFF8000FFF0003FFFFFFFFFFFFFFFFFE0000F000FFFFFFFFE000
310
00FFFC000C003FE000C001FFFF80007FFFFFFFFFC00001FFFFFFFFFE00001FF8
310
000001FFFE0000007FFFFFF0001FFFFFF8000FFFFFFFF8000FF8000FFFFFFFF8
310
000FFF0003FFFFFFFFFFFFFFFFF00000F000FFFFFFFE000001FFFC000C001FE0
310
00C000FFFF80007FFFFFFFFE000001FFFFFFFFE000001FF80FFFFFFFFFFFFFC0
310
7FFFFFF0001FFFFFF8000FFFFFFFF8000FF8000FFFFFFFF8000FFF0003FFFFFF
310
FFFFFFFFFF800000F000FFFFFFC0000001FFFC001C001FE001C000FFFF80007F
310
FFFFFF80000003FFFFFFF80000001FF80FFFFFFFFFFFFFC07FFFFFF0001FFFFF
310
F8001FFFFFFFFC000FF8001FFFFFFFFC000FFF0003FFFFFFFFFFFFFFF0000001
310
F000FFFFF800000001FFF8001C001FE001C000FFFF80007FFFFFF800000003FF
310
FFFF800000003FF80FFFFFFFFFFFFFC07FFFFFF0001FFFFFF8001FFFFFFFFC00
310
0FF8001FFFFFFFFC000FFF0003FFFFFFFFFFFFFE00000001F000FFFFC0000000
310
03FFF8001E001FC001E000FFFF80007FFFFF8000000007FFFFFC000000003FF8
310
0FFFFFFFFFFFFFC07FFFFFF0001FFFFFF8001FFFFFFFFC000FF8001FFFFFFFFC
310
000FFF0003FFFFFFFFFFFFE000000003F000FFFE0000000007FFF8001E000FC0
310
01E0007FFF80007FFFFE0000000007FFFFE0000000007FF80FFFFFFFFFFFFFC0
310
7FFFFFF0001FFFFFF0001FFFFFFFFC0007F0001FFFFFFFFC0007FF0003FFFFFF
310
FFFFFF0000000003F000FFF80000000007FFF8001E000FC003E0007FFF80007F
310
FFF0000000000FFFFF8000000000FFF80FFFFFFFFFFFFFC07FFFFFF0001FFFFF
310
F0001FFFFFFFFC0007F0001FFFFFFFFC0007FF0003FFFFFFFFFFFC0000000007
310
F000FFE0000000000FFFF0003E000FC003E0007FFF80007FFFC0000000001FFF
310
FE0000000001FFF80FFFFFFFFFFFFFC07FFFFFF0001FFFFFF0001FFFFFFFFC00
310
07F0001FFFFFFFFC0007FF0003FFFFFFFFFFF0000000000FF000FFC000000000
310
1FFFF0003F000F8003F0003FFF80007FFF80000000003FFFF80000000003FFF8
310
0FFFFFFFFFFFFFC07FFFFFF0001FFFFFF0001FFFFFFFFC0007F0001FFFFFFFFC
310
0007FF0003FFFFFFFFFFE0000000001FF000FF00000000007FFFF0003F000780
310
03F0003FFF80007FFF00000000007FFFF00000000007FFF80FFFFFFFFFFFFFC0
310
7FFFFFF0001FFFFFF0001FFFFFFFFC0007F0001FFFFFFFFC0007FF0003FFFFFF
310
FFFF80000000007FF000FE0000000000FFFFE0003F00078007F0003FFF80007F
310
FE0000000001FFFFE0000000001FFFF80FFFFFFFFFFFFFC07FFFFFF0001FFFFF
310
F0001FFFFFFFFC0007F0001FFFFFFFFC0007FF0003FFFFFFFFFF0000000000FF
310
F000FC0000000003FFFFE0007F00078007F0003FFF80007FFC0000000007FFFF
310
C0000000007FFFF80FFFFFFFFFFFFFC07FFFFFF0001FFFFFF8001FFFFFFFFC00
310
0FF8001FFFFFFFFC000FFF0003FFFFFFFFFE0000000003FFF000FC000000000F
310
FFFFE0007F80070007F8001FFF80007FF8000000001FFFFF8000000001FFFFF8
310
0FFFFFFFFFFFFFC07FFFFFF0001FFFFFF8001FFFFFFFFC000FF8001FFFFFFFFC
310
000FFF0003FFFFFFFFFC000000000FFFF000F8000000007FFFFFE0007F800700
310
07F8001FFF80007FF000000000FFFFFF800000000FFFFFF80FFFFFFFFFFFFFC0
310
7FFFFFF0001FFFFFF8000FFFFFFFF8000FF8000FFFFFFFF8000FFF0003FFFFFF
310
FFFC000000007FFFF000F800000007FFFFFFC0007F8003000FF8001FFF80007F
310
F000000007FFFFFF000000007FFFFFF80FFFFFFFFFFFFFC07FFFFFF0001FFFFF
310
F8000FFFFFFFF8000FF8000FFFFFFFF8000FFF0003FFFFFFFFF80000000FFFFF
310
F000F0000000FFFFFFFFC000FF8003000FF8001FFF80007FE0000000FFFFFFFF
310
0000000FFFFFFFF8000001FFFE0000007FFFFFF0001FFFFFF8000FFFFFFFF800
310
0FF8000FFFFFFFF8000FFF0003FFFFFFFFF8000000FFFFFFF000F000000FFFFF
310
FFFFC000FFC002000FF8000FFF80007FE000001FFFFFFFFE000001FFFFFFFFF8
310
000001FFFE0000007FFFFFF0001FFFFFF8000FFFFFFFF8000FF8000FFFFFFFF8
310
000FFF0003FFFFFFFFF000001FFFFFFFF000E00000FFFFFFFFFFC000FFC00200
310
0FFC000FFF80007FE00001FFFFFFFFFE00001FFFFFFFFFF8000001FFFE000000
310
7FFFFFF0001FFFFFFC000FFFFFFFF8001FFC000FFFFFFFF8001FFF0003FFFFFF
310
FFF00001FFFFFFFFF000E00007FFFFFFFFFF8000FFC000001FFC000FFF80007F
310
C0000FFFFFFFFFFE0000FFFFFFFFFFF8000001FFFE0000007FFFFFF0001FFFFF
310
FC0007FFFFFFF0001FFC0007FFFFFFF0001FFF0003FFFFFFFFF00007FFFFFFFF
310
F000E0001FFFFFFFFFFF8000FFC000001FFC000FFF80007FC0003FFFFFFFFFFE
310
0001FFFFFFFFFFF8000001FFFE0000007FFFFFF0001FFFFFFC0007FFFFFFF000
310
1FFC0007FFFFFFF0001FFF0003FFFFFFFFF0001FFFFFFFFFF000E0003FFFFF00
310
03FF8001FFE000001FFC0007FF80007FC0007FFFFF0007FC0003FFFFF0003FF8
310
000001FFFE0000007FFFFFF0001FFFFFFC0003FFFFFFE0001FFC0003FFFFFFE0
310
001FFF0003FFFFFFFFF0003FFFFFFFFFF000E0003FFFFF0001FF8001FFE00000
310
1FFE0007FF80007FC0007FFFFE0003FC0007FFFFE0003FF8000001FFFE000000
310
7FFFFFF0001FFFFFFE0003FFFFFFE0003FFE0003FFFFFFE0003FFF0003FFFFFF
310
FFF0003FFFFF8001F000E0003FFFFF0001FF0001FFE000001FFE0007FF80007F
310
C0007FFFFE0003FC0007FFFFE0003FF8000001FFFE0000007FFFFFF0001FFFFF
310
FE0001FFFFFFC0003FFE0001FFFFFFC0003FFF0003FFFFFFFFF0003FFFFF0001
310
F000E0003FFFFF0003FF0001FFE000003FFE0007FF80007FC0007FFFFE0003FC
310
0007FFFFE0003FF8000001FFFE0000007FFFFFF0001FFFFFFF0001FFFFFFC000
310
7FFF0001FFFFFFC0007FFF0003FFFFFFFFF0003FFFFF0001F000E0003FFFFE00
310
03FF0003FFF000003FFE0003FF80007FC0007FFFFC0003FE0007FFFFE0003FF8
310
000001FFFE0000007FFFFFF0001FFFFFFF0000FFFFFF80007FFF0000FFFFFF80
310
007FFF0003FFFFFFFFF0003FFFFF0001F000E0003FFFFE0003FF0003FFF00000
310
3FFF0003FF80007FC0007FFFFC0007FE0007FFFFC0003FF8000001FFFE000000
310
7FFFFFF0001FFFFFFF80007FFFFF0000FFFF80007FFFFF0000FFFF0003FFFFFF
310
FFF0003FFFFF0003F000E0003FFFFC0003FE0003FFF000003FFF0003FF80007F
310
E0003FFFF80007FE0003FFFFC0007FF8000001FFFE0000007FFFFFF0001FFFFF
310
FF80003FFFFE0000FFFF80003FFFFE0000FFFF0003FFFFFFFFF0001FFFFE0003
310
F000F0001FFFF80003FE0003FFF000007FFF0001FF80007FE0003FFFF00007FE
310
0001FFFF80007FF8000001FFFE0000007FFFFFF0001FFFFFFFC0000FFFF80001
310
FFFFC0000FFFF80001FFFF0003FFFFFFFFF0001FFFFC0003F000F0000FFFF000
310
07FE0007FFF800007FFF0001FF80007FE0001FFFE00007FF0000FFFE00007FF8
310
000001FFFE0000007FFFFFF0001FFFFFFFC00003FFE00001FFFFC00003FFE000
310
01FFFF0003FFFFFFFFF8000FFFF80003F000F00003FFC00007FC0007FFF80000
310
7FFF8001FF80007FF00007FF80000FFF00007FF80000FFF8000001FFFE000000
310
7F80000000000001FFE000003E000003FFFFE000003E000003FFFF0003FFFFFF
310
FFF80003FFE00007F000F800000000000FFC0007FFF800007FFF8001FF80007F
310
F000000000000FFF000000000000FFF8000001FFFE0000007F80000000000001
310
FFF0000000000007FFFFF0000000000007FFFF0003FFFFFFFFFC00007E000007
310
F000F800000000000FFC0007FFF80000FFFF8000FF80007FF800000000001FFF
310
800000000001FFF8000001FFFE0000007F80000000000001FFF800000000000F
310
FFFFF800000000000FFFFF0003FFFFFFFFFC00000000000FF000FC0000000000
310
1FFC0007FFFC0000FFFF8000FF80007FF800000000003FFFC00000000001FFF8
310
000001FFFE0000007F80000000000001FFF800000000000FFFFFF80000000000
310
0FFFFF0003FFFFFFFFFE00000000001FF000FE00000000003FF8000FFFFC0000
310
FFFF8000FF80007FFC00000000003FFFC00000000003FFF8000001FFFE000000
310
7F80000000000001FFFC00000000001FFFFFFC00000000001FFFFF0003FFFFFF
310
FFFF00000000001FF000FF00000000003FF8000FFFFC0000FFFFC000FF80007F
310
FE00000000007FFFE00000000007FFF8000001FFFE0000007F80000000000001
310
FFFE00000000003FFFFFFE00000000003FFFFF0003FFFFFFFFFF80000000003F
310
F000FF80000000007FF8000FFFFC0001FFFFC0007F80007FFF0000000000FFFF
310
F0000000000FFFF800000000000000007F80000000000001FFFF8000000000FF
310
FFFFFF8000000000FFFFFF0003FFFFFFFFFFC0000000007FF000FFC000000000
310
FFF8000FFFFE0001FFFFC0007F80007FFF8000000001FFFFF8000000001FFFF8
310
00000000000000007F80000000000001FFFFC000000001FFFFFFFFC000000001
310
FFFFFF0003FFFFFFFFFFE000000000FFF000FFE000000003FFF0001FFFFE0001
310
FFFFC0007F80007FFFC000000007FFFFFE000000003FFFF80000000000000000
310
7F80000000000001FFFFE000000003FFFFFFFFE000000003FFFFFF0003FFFFFF
310
FFFFF000000003FFF000FFF80000000FFFF0001FFFFE0001FFFFE0007F80007F
310
FFF00000000FFFFFFF00000000FFFFF800000000000000007F80000000000001
310
FFFFF80000000FFFFFFFFFF80000000FFFFFFF0003FFFFFFFFFFFC0000000FFF
310
F000FFFE0000003FFFF0001FFFFE0003FFFFE0003F80007FFFFC0000003FFFFF
310
FFC0000003FFFFF800000000000000007F80000000000001FFFFFE0000003FFF
310
FFFFFFFE0000003FFFFFFF0003FFFFFFFFFFFF0000003FFFF000FFFF800000FF
310
FFF0001FFFFF0003FFFFE0003F80007FFFFF000001FFFFFFFFF800001FFFFFF8
310
00000000000000007F80000000000001FFFFFFC00001FFFFFFFFFFFFC00001FF
310
FFFFFF0003FFFFFFFFFFFFC00000FFFFF000FFFFF8000FFFFFFFFFFFFFFFFFFF
310
FFFFFFFFFFFFFFFFFFFFF0001FFFFFFFFFFF0000FFFFFFF80000000000000000
310
7FFFFFFFFFFFFFFFFFFFFFFC001FFFFFFFFFFFFFFC001FFFFFFFFFFFFFFFFFFF
310
FFFFFFFC001FFFFFF000FFFFFFFFFFFFFFFFFFFFFFFFFFFFFFFFFFFFFFFFFFFF
310
FFFFFFFFFFFFFFFFFFFFFFFFFFFFFFFFFFFFFFFFFFFFFFFFFFFFFFFFFFFFFFFF
310
FFFFFFFFFFFFFFFFFFFFFFFFFFFFFFFFFFFFFFFFFFFFFFFFFFFFFFFFFFFFFFFF
310
F000FFFFFFFFFFFFFFFFFFFFFFFFFFFFFFFFFFFFFFFFFFFFFFFFFFFFFFFFFFFF
310
FFFFFFFFFFFFFFFFFFFFFFFFFFFFFFFFFFFFFFFFFFFFFFFFFFFFFFFFFFFFFFFF
310
FFFFFFFFFFFFFFFFFFFFFFFFFFFFFFFFFFFFFFFFFFFFFFFFF000FFFFFFFFFFFF
310
FFFFFFFFFFFFFFFFFFFFFFFFFFFFFFFFFFFFFFFFFFFFFFFFFFFFFFFFFFFFFFFF
310
FFFFFFFFFFFFFFFFFFFFFFFFFFFFFFFFFFFFFFFFFFFFFFFFFFFFFFFFFFFFFFFF
310
FFFFFFFFFFFFFFFFFFFFFFFFFFFFFFFFF000FFFFFFFFFFFFFFFFFFFFFFFFFFFF
310
FFFFFFFFFFFFFFFFFFFFFFFFFFFFFFFFFFFFFFFFFFFFFFFFFFFFFFFFFFFFFFFF
310
FFFFFFFFFFFFFFFFFFFFFFFFFFFFFFFFFFFFFFFFFFFFFFFFFFFFFFFFFFFFFFFF
310
FFFFFFFFFFFFFFFFF000FFFFFFFFFFFFFFFFFFFFFFFFFFFFFFFFFFFFFFFFFFFF
310
FFFFFFFFFFFFFFFFFFFFFFFFFFFFFFFFFFFFFFFFFFFFFFFFFFFFFFFFFFFFFFFF
310
FFFFFFFFFFFFFFFFFFFFFFFFFFFFFFFFFFFFFFFFFFFFFFFFFFFFFFFFFFFFFFFF
310
F000FFFFFFFFFFFFFFFFFFFFFFFFFFFFFFFFFFFFFFFFFFFFFFFFFFFFFFFFFFFF
310
FFFFFFFFFFFFFFFFFFFFFFFFFFFFFFFFFFFFFFFFFFFFFFFFFFFFFFFFFFFFFFFF
310
FFFFFFFFFFFFFFFFFFFFFFFFFFFFFFFFFFFFFFFFFFFFFFFFF000FFFFFFFFFFFF
310
FFFFFFFFFFFFFFFFFFFFFFFFFFFFFFFFFFFFFFFFFFFFFFFFFFFFFFFFFFFFFFFF
310
FFFFFFFFFFFFFFFFFFFFFFFFFFFFFFFFFFFFFFFFFFFFFFFFFFFFFFFFFFFFFFFF
310
FFFFFFFFFFFFFFFFFFFFFFFFFFFFFFFFF000FFFFFFFFFFFFFFFFFFFFFFFFFFFF
310
FFFFFFFFFFFFFFFFFFFFFFFFFFFFFFFFFFFFFFFFFFFFFFFFFFFFFFFFFFFFFFFF
310
FFFFFFFFFFFFFFFFFFFFFFFFFFFFFFFFFFFFFFFFFFFFFFFFFFFFFFFFFFFFFFFF
310
FFFFFFFFFFFFFFFFF000FFFFFFFFFFFFFFFFFFFFFFFFFFFFFFFFFFFFFFFFFFFF
310
FFFFFFFFFFFFFFFFFFFFFFFFFFFFFFFFFFFFFFFFFFFFFFFFFFFFFFFFFFFFFFFF
310
FFFFFFFFFFFFFFFFFFFFFFFFFFFFFFFFFFFFFFFFFFFFFFFFFFFFFFFFFFFFFFFF
310
F000FFFFFFFFFFFFFFFFFFFFFFFFFFFFFFFFFFFFFFFFFFFFFFFFFFFFFFFFFFFF
310
FFFFFFFFFFFFFFFFFFFFFFFFFFFFFFFFFFFFFFFFFFFFFFFFFFFFFFFFFFFFFFFF
310
FFFFFFFFFFFFFFFFFFFFFFFFFFFFFFFFFFFFFFFFFFFFFFFFF000FFFFFFFFFFFF
310
FFFFFFFFFFFFFFFFFFFFFFFFFFFFFFFFFFFFFFFFFFFFFFFFFFFFFFFFFFFFFFFF
310
FFFFFFFFFFFFFFFFFFFFFFFFFFFFFFFFFFFFFFFFFFFFFFFFFFFFFFFFFFFFFFFF
310
FFFFFFFFFFFFFFFFFFFFFFFFFFFFFFFFF000FFFFFFFFFFFFFFFFFFFFFFFFFFFF
310
FFFFFFFFFFFFFFFFFFFFFFFFFFFFFFFFFFFFFFFFFFFFFFFFFFFFFFFFFFFFFFFF
310
FFFFFFFFFFFFFFFFFFFFFFFFFFFFFFFFFFFFFFFFFFFFFFFFFFFFFFFFFFFFFFFF
310
FFFFFFFFFFFFFFFFF000FFFFFFFFFFFFFFFFFFFFFFFFFFFFFFFFFFFFFFFFFFFF
310
FFFFFFFFFFFFFFFFFFFFFFFFFFFFFFFFFFFFFFFFFFFFFFFFFFFFFFFFFFFFFFFF
310
FFFFFFFFFFFFFFFFFFFFFFFFFFFFFFFFFFFFFFFFFFFFFFFFFFFFFFFFFFFFFFFF
310
F000FFFFFFFFFFFFFFFFFFFFFFFFFFFFFFFFFFFFFFFFFFFFFFFFFFFFFFFFFFFF
310
FFFFFFFFFFFFFFFFFFFFFFFFFFFFFFFFFFFFFFFFFFFFFFFFFFFFFFFFFFFFFFFF
310
FFFFFFFFFFFFFFFFFFFFFFFFFFFFFFFFFFFFFFFFFFFFFFFFF000FFFFFFFFFFFF
310
FFFFFFFFFFFFFFFFFFFFFFFFFFFFFFFFFFFFFFFFFFFFFFFFFFFFFFFFFFFFFFFF
310
FFFFFFFFFFFFFFFFFFFFFFFFFFFFFFFFFFFFFFFFFFFFFFFFFFFFFFFFFFFFFFFF
310
FFFFFFFFFFFFFFFFFFFFFFFFFFFFFFFFF000FFFFFFFFFFFFFFFFFFFFFFFFFFFF
310
FFFFFFFFFFFFFFFFFFFFFFFFFFFFFFFFFFFFFFFFFFFFFFFFFFFFFFFFFFFFFFFF
310
FFFFFFFFFFFFFFFFFFFFFFFFFFFFFFFFFFFFFFFFFFFFFFFFFFFFFFFFFFFFFFFF
310
FFFFFFFFFFFFFFFFF000FFFFFFFFFFFFFFFFFFFFFFFFFFFFFFFFFFFFFFFFFFFF
310
FFFFFFFFFFFFFFFFFFFFFFFFFFFFFFFFFFFFFFFFFFFFFFFFFFFFFFFFFFFFFFFF
310
FFFFFFFFFFFFFFFFFFFFFFFFFFFFFFFFFFFFFFFFFFFFFFFFFFFFFFFFFFFFFFFF
310
F000FFFFFFFFFFFFFFFFFFFFFFFFFFFFFFFFFFFFFFFFFFFFFFFFFFFFFFFFFFFF
310
FFFFFFFFFFFFFFFFFFFFFFFFFFFFFFFFFFFFFFFFFFFFFFFFFFFFFFFFFFFFFFFF
310
FFFFFFFFFFFFFFFFFFFFFFFFFFFFFFFFFFFFFFFFFFFFFFFFF000FFFFFFFFFFFF
310
FFFFFFFFFFFFFFFFFFFFFFFFFFFFFFFFFFFFFFFFFFFFFFFFFFFFFFFFFFFFFFFF
310
FFFFFFFFFFFFFFFFFFFFFFFFFFFFFFFFFFFFFFFFFFFFFFFFFFFFFFFFFFFFFFFF
310
FFFFFFFFFFFFFFFFFFFFFFFFFFFFFFFFF000FFFFFFFFFFFFFFFFFFFFFFFFFFFF
310
FFFFFFFFFFFFFFFFFFFFFFFFFFFFFFFFFFFFFFFFFFFFFFFFFFFFFFFFFFFFFFFF
310
FFFFFFFFFFFFFFFFFFFFFFFFFFFFFFFFFFFFFFFFFFFFFFFFFFFFFFFFFFFFFFFF
310
FFFFFFFFFFFFFFFFF000FFFFFFFFFFFFFFFFFFFFFFFFFFFFFFFFFFFFFFFFFFFF
310
FFFFFFFFFFFFFFFFFFFFFFFFFFFFFFFFFFFFFFFFFFFFFFFFFFFFFFFFFFFFFFFF
310
FFFFFFFFFFFFFFFFFFFFFFFFFFFFFFFFFFFFFFFFFFFFFFFFFFFFFFFFFFFFFFFF
310
F000FFFFFFFFFFFFFFFFFFFFFFFFFFFFFFFFFFFFFFFFFFFFFFFFFFFFFFFFFFFF
310
FFFFFFFFFFFFFFFFFFFFFFFFFFFFFFFFFFFFFFFFFFFFFFFFFFFFFFFFFFFFFFFF
310
FFFFFFFFFFFFFFFFFFFFFFFFFFFFFFFFFFFFFFFFFFFFFFFFF000FFFFFFFFFFFF
310
FFFFFFFFFFFFFFFFFFFFFFFFFFFFFFFFFFFFFFFFFFFFFFFFFFFFFFFFFFFFFFFF
310
FFFFFFFFFFFFFFFFFFFFFFFFFFFFFFFFFFFFFFFFFFFFFFFFFFFFFFFFFFFFFFFF
310
FFFFFFFFFFFFFFFFFFFFFFFFFFFFFFFFF0000000000000000000000000000000
310
0000000000000000000000000000000000000000000000000000000000000000
310
0000000000000000000000000000000000000000000000000000000000000000
310
0000000000000000000000000000000000000000000000000000000000000000
310
0000000000000000000000000000000000000000000000000000000000000000
310
0000000000000000000000000000000000000000000000000000000000000000
310
0000000000000000000000000000000000000000000000000000000000000000
310
0000000000000000000000000000000000000000000000000000000000000000
310
0000000000000000000000000000000000000000000000000000000000000000
310
0000000000000000000000000000000000000000000000000000000000000000
310
0000000000000000000000000000000000000000000000000000000000000000
310
0000000000000000000000000000000000000000000000000000000000000000
310
0000000000000000000000000000000000000000000000000000000000000000
310
0000000000000000000000000000000000000000000000000000000000000000
310
0000000000000000000000000000000000000000000000000000000000000000
310
0000000000000000000000000000000000000000000000000000000000000000
  1
OLE
  0
ENDSEC
  0
SECTION
  2
OBJECTS
  0
DICTIONARY
  5
C
330
0
100
AcDbDictionary
281
     1
  3
ACAD_GROUP
350
D
  3
ACAD_LAYOUT
350
1A
  3
ACAD_MLINESTYLE
350
17
  3
ACAD_PLOTSETTINGS
350
19
  3
ACAD_PLOTSTYLENAME
350
E
  3
ACAD_SCALELIST
350
47
  0
DICTIONARY
  5
D
102
{ACAD_REACTORS
330
C
102
}
330
C
100
AcDbDictionary
281
     1
  0
DICTIONARY
  5
1A
102
{ACAD_REACTORS
330
C
102
}
330
C
100
AcDbDictionary
281
     1
  3
Layout1
350
1E
  3
Layout2
350
26
  3
Model
350
22
  0
DICTIONARY
  5
17
102
{ACAD_REACTORS
330
C
102
}
330
C
100
AcDbDictionary
281
     1
  3
Standard
350
18
  0
DICTIONARY
  5
19
102
{ACAD_REACTORS
330
C
102
}
330
C
100
AcDbDictionary
281
     1
  0
ACDBDICTIONARYWDFLT
  5
E
102
{ACAD_REACTORS
330
C
102
}
330
C
100
AcDbDictionary
281
     1
  3
Normal
350
F
100
AcDbDictionaryWithDefault
340
F
  0
DICTIONARY
  5
47
102
{ACAD_REACTORS
330
C
102
}
330
C
100
AcDbDictionary
281
     1
  3
A0
350
48
  3
A1
350
49
  3
A2
350
4A
  3
A3
350
4B
  3
A4
350
4C
  3
A5
350
4D
  3
A6
350
4E
  3
A7
350
4F
  3
A8
350
50
  3
A9
350
51
  3
B0
350
52
  3
B1
350
53
  3
B2
350
54
  3
B3
350
55
  3
B4
350
56
  3
B5
350
57
  3
B6
350
58
  3
B7
350
59
  3
B8
350
5A
  3
B9
350
5B
  3
C0
350
5C
  3
C1
350
5D
  3
C2
350
5E
  3
C3
350
5F
  3
C4
350
60
  3
C5
350
61
  3
C6
350
62
  3
C7
350
63
  3
C8
350
64
  3
C9
350
65
  3
D0
350
66
  3
D1
350
67
  3
D2
350
68
  0
LAYOUT
  5
1E
102
{ACAD_REACTORS
330
1A
102
}
330
1A
100
AcDbPlotSettings
  1

  2
none_device
  4

  6

 40
0.0
 41
0.0
 42
0.0
 43
0.0
 44
0.0
 45
0.0
 46
0.0
 47
0.0
 48
0.0
 49
0.0
140
0.0
141
0.0
142
1.0
143
1.0
 70
   688
 72
     1
 73
     0
 74
     5
  7

 75
    16
147
1.0
148
0.0
149
0.0
100
AcDbLayout
  1
Layout1
 70
     1
 71
     1
 10
0.0
 20
0.0
 11
420.0
 21
297.0
 12
0.0
 22
0.0
 32
0.0
 14
1.0000000000E+20
 24
1.0000000000E+20
 34
1.0000000000E+20
 15
-1.0000000000E+20
 25
-1.0000000000E+20
 35
-1.0000000000E+20
146
0.0
 13
0.0
 23
0.0
 33
0.0
 16
1.0
 26
0.0
 36
0.0
 17
0.0
 27
1.0
 37
0.0
 76
     0
330
1B
  0
LAYOUT
  5
26
102
{ACAD_REACTORS
330
1A
102
}
330
1A
100
AcDbPlotSettings
  1

  2
none_device
  4

  6

 40
0.0
 41
0.0
 42
0.0
 43
0.0
 44
0.0
 45
0.0
 46
0.0
 47
0.0
 48
0.0
 49
0.0
140
0.0
141
0.0
142
1.0
143
1.0
 70
   688
 72
     1
 73
     0
 74
     5
  7

 75
    16
147
1.0
148
0.0
149
0.0
100
AcDbLayout
  1
Layout2
 70
     1
 71
     2
 10
0.0
 20
0.0
 11
0.0
 21
0.0
 12
0.0
 22
0.0
 32
0.0
 14
0.0
 24
0.0
 34
0.0
 15
0.0
 25
0.0
 35
0.0
146
0.0
 13
0.0
 23
0.0
 33
0.0
 16
1.0
 26
0.0
 36
0.0
 17
0.0
 27
1.0
 37
0.0
 76
     0
330
23
  0
LAYOUT
  5
22
102
{ACAD_REACTORS
330
1A
102
}
330
1A
100
AcDbPlotSettings
  1

  2
none_device
  4
Letter_(8.50_x_11.00_Inches)
  6

 40
6.35
 41
6.35
 42
6.35000508
 43
6.35000508
 44
215.9
 45
279.4
 46
0.0
 47
0.0
 48
0.0
 49
0.0
140
0.0
141
0.0
142
1.0
143
1.0
 70
  1712
 72
     1
 73
     0
 74
     0
  7

 75
     0
147
1.0
148
0.0
149
0.0
100
AcDbLayout
  1
Model
 70
     1
 71
     0
 10
0.0
 20
0.0
 11
297.0
 21
210.0
 12
0.0
 22
0.0
 32
0.0
 14
0.0
 24
0.0
 34
0.0
 15
297.0
 25
210.0
 35
0.0
146
0.0
 13
0.0
 23
0.0
 33
0.0
 16
1.0
 26
0.0
 36
0.0
 17
0.0
 27
1.0
 37
0.0
 76
     0
330
1F
331
29
  0
MLINESTYLE
  5
18
102
{ACAD_REACTORS
330
17
102
}
330
17
100
AcDbMlineStyle
  2
Standard
 70
     0
  3

 62
   256
 51
90.0
 52
90.0
 71
     2
 49
0.5
 62
   256
  6
BYLAYER
 49
-0.5
 62
   256
  6
BYLAYER
  0
ACDBPLACEHOLDER
  5
F
102
{ACAD_REACTORS
330
E
102
}
330
E
  0
SCALE
  5
48
102
{ACAD_REACTORS
330
47
102
}
330
47
100
AcDbScale
 70
     0
300
1:1
140
1.0
141
1.0
290
     1
  0
SCALE
  5
49
102
{ACAD_REACTORS
330
47
102
}
330
47
100
AcDbScale
 70
     0
300
1:2
140
1.0
141
2.0
290
     0
  0
SCALE
  5
4A
102
{ACAD_REACTORS
330
47
102
}
330
47
100
AcDbScale
 70
     0
300
1:4
140
1.0
141
4.0
290
     0
  0
SCALE
  5
4B
102
{ACAD_REACTORS
330
47
102
}
330
47
100
AcDbScale
 70
     0
300
1:5
140
1.0
141
5.0
290
     0
  0
SCALE
  5
4C
102
{ACAD_REACTORS
330
47
102
}
330
47
100
AcDbScale
 70
     0
300
1:8
140
1.0
141
8.0
290
     0
  0
SCALE
  5
4D
102
{ACAD_REACTORS
330
47
102
}
330
47
100
AcDbScale
 70
     0
300
1:10
140
1.0
141
10.0
290
     0
  0
SCALE
  5
4E
102
{ACAD_REACTORS
330
47
102
}
330
47
100
AcDbScale
 70
     0
300
1:16
140
1.0
141
16.0
290
     0
  0
SCALE
  5
4F
102
{ACAD_REACTORS
330
47
102
}
330
47
100
AcDbScale
 70
     0
300
1:20
140
1.0
141
20.0
290
     0
  0
SCALE
  5
50
102
{ACAD_REACTORS
330
47
102
}
330
47
100
AcDbScale
 70
     0
300
1:30
140
1.0
141
30.0
290
     0
  0
SCALE
  5
51
102
{ACAD_REACTORS
330
47
102
}
330
47
100
AcDbScale
 70
     0
300
1:40
140
1.0
141
40.0
290
     0
  0
SCALE
  5
52
102
{ACAD_REACTORS
330
47
102
}
330
47
100
AcDbScale
 70
     0
300
1:50
140
1.0
141
50.0
290
     0
  0
SCALE
  5
53
102
{ACAD_REACTORS
330
47
102
}
330
47
100
AcDbScale
 70
     0
300
1:100
140
1.0
141
100.0
290
     0
  0
SCALE
  5
54
102
{ACAD_REACTORS
330
47
102
}
330
47
100
AcDbScale
 70
     0
300
2:1
140
2.0
141
1.0
290
     0
  0
SCALE
  5
55
102
{ACAD_REACTORS
330
47
102
}
330
47
100
AcDbScale
 70
     0
300
4:1
140
4.0
141
1.0
290
     0
  0
SCALE
  5
56
102
{ACAD_REACTORS
330
47
102
}
330
47
100
AcDbScale
 70
     0
300
8:1
140
8.0
141
1.0
290
     0
  0
SCALE
  5
57
102
{ACAD_REACTORS
330
47
102
}
330
47
100
AcDbScale
 70
     0
300
10:1
140
10.0
141
1.0
290
     0
  0
SCALE
  5
58
102
{ACAD_REACTORS
330
47
102
}
330
47
100
AcDbScale
 70
     0
300
100:1
140
100.0
141
1.0
290
     0
  0
SCALE
  5
59
102
{ACAD_REACTORS
330
47
102
}
330
47
100
AcDbScale
 70
     0
300
1/128" = 1'-0"
140
0.0078125
141
12.0
290
     0
  0
SCALE
  5
5A
102
{ACAD_REACTORS
330
47
102
}
330
47
100
AcDbScale
 70
     0
300
1/64" = 1'-0"
140
0.015625
141
12.0
290
     0
  0
SCALE
  5
5B
102
{ACAD_REACTORS
330
47
102
}
330
47
100
AcDbScale
 70
     0
300
1/32" = 1'-0"
140
0.03125
141
12.0
290
     0
  0
SCALE
  5
5C
102
{ACAD_REACTORS
330
47
102
}
330
47
100
AcDbScale
 70
     0
300
1/16" = 1'-0"
140
0.0625
141
12.0
290
     0
  0
SCALE
  5
5D
102
{ACAD_REACTORS
330
47
102
}
330
47
100
AcDbScale
 70
     0
300
3/32" = 1'-0"
140
0.09375
141
12.0
290
     0
  0
SCALE
  5
5E
102
{ACAD_REACTORS
330
47
102
}
330
47
100
AcDbScale
 70
     0
300
1/8" = 1'-0"
140
0.125
141
12.0
290
     0
  0
SCALE
  5
5F
102
{ACAD_REACTORS
330
47
102
}
330
47
100
AcDbScale
 70
     0
300
3/16" = 1'-0"
140
0.1875
141
12.0
290
     0
  0
SCALE
  5
60
102
{ACAD_REACTORS
330
47
102
}
330
47
100
AcDbScale
 70
     0
300
1/4" = 1'-0"
140
0.25
141
12.0
290
     0
  0
SCALE
  5
61
102
{ACAD_REACTORS
330
47
102
}
330
47
100
AcDbScale
 70
     0
300
3/8" = 1'-0"
140
0.375
141
12.0
290
     0
  0
SCALE
  5
62
102
{ACAD_REACTORS
330
47
102
}
330
47
100
AcDbScale
 70
     0
300
1/2" = 1'-0"
140
0.5
141
12.0
290
     0
  0
SCALE
  5
63
102
{ACAD_REACTORS
330
47
102
}
330
47
100
AcDbScale
 70
     0
300
3/4" = 1'-0"
140
0.75
141
12.0
290
     0
  0
SCALE
  5
64
102
{ACAD_REACTORS
330
47
102
}
330
47
100
AcDbScale
 70
     0
300
1" = 1'-0"
140
1.0
141
12.0
290
     0
  0
SCALE
  5
65
102
{ACAD_REACTORS
330
47
102
}
330
47
100
AcDbScale
 70
     0
300
1-1/2" = 1'-0"
140
1.5
141
12.0
290
     0
  0
SCALE
  5
66
102
{ACAD_REACTORS
330
47
102
}
330
47
100
AcDbScale
 70
     0
300
3" = 1'-0"
140
3.0
141
12.0
290
     0
  0
SCALE
  5
67
102
{ACAD_REACTORS
330
47
102
}
330
47
100
AcDbScale
 70
     0
300
6" = 1'-0"
140
6.0
141
12.0
290
     0
  0
SCALE
  5
68
102
{ACAD_REACTORS
330
47
102
}
330
47
100
AcDbScale
 70
     0
300
1'-0" = 1'-0"
140
12.0
141
12.0
290
     0
  0
ENDSEC
  0
EOF
