  0
SECTION
  2
HEADER
  9
$ACADVER
  1
AC1015
  9
$ACADMAINTVER
 70
     6
  9
$DWGCODEPAGE
  3
ANSI_1252
  9
$INSBASE
 10
0.0
 20
0.0
 30
0.0
  9
$EXTMIN
 10
0.0
 20
0.0
 30
0.0
  9
$EXTMAX
 10
297.0
 20
210.0
 30
0.0
  9
$LIMMIN
 10
0.0
 20
0.0
  9
$LIMMAX
 10
297.0
 20
210.0
  9
$ORTHOMODE
 70
     0
  9
$REGENMODE
 70
     1
  9
$FILLMODE
 70
     1
  9
$QTEXTMODE
 70
     0
  9
$MIRRTEXT
 70
     1
  9
$LTSCALE
 40
1.0
  9
$ATTMODE
 70
     1
  9
$TEXTSIZE
 40
2.0
  9
$TRACEWID
 40
1.0
  9
$TEXTSTYLE
  7
Standard
  9
$CLAYER
  8
0
  9
$CELTYPE
  6
ByLayer
  9
$CECOLOR
 62
   256
  9
$CELTSCALE
 40
1.0
  9
$DISPSILH
 70
     0
  9
$DIMSCALE
 40
1.0
  9
$DIMASZ
 40
3.0
  9
$DIMEXO
 40
0.0
  9
$DIMDLI
 40
3.75
  9
$DIMRND
 40
0.0
  9
$DIMDLE
 40
0.0
  9
$DIMEXE
 40
1.0
  9
$DIMTP
 40
0.0
  9
$DIMTM
 40
0.0
  9
$DIMTXT
 40
2.0
  9
$DIMCEN
 40
2.5
  9
$DIMTSZ
 40
0.0
  9
$DIMTOL
 70
     0
  9
$DIMLIM
 70
     0
  9
$DIMTIH
 70
     1
  9
$DIMTOH
 70
     1
  9
$DIMSE1
 70
     0
  9
$DIMSE2
 70
     0
  9
$DIMTAD
 70
     1
  9
$DIMZIN
 70
     0
  9
$DIMBLK
  1

  9
$DIMASO
 70
     1
  9
$DIMSHO
 70
     1
  9
$DIMPOST
  1

  9
$DIMAPOST
  1

  9
$DIMALT
 70
     0
  9
$DIMALTD
 70
     3
  9
$DIMALTF
 40
0.0393700787
  9
$DIMLFAC
 40
1.0
  9
$DIMTOFL
 70
     1
  9
$DIMTVP
 40
0.0
  9
$DIMTIX
 70
     0
  9
$DIMSOXD
 70
     0
  9
$DIMSAH
 70
     0
  9
$DIMBLK1
  1

  9
$DIMBLK2
  1

  9
$DIMSTYLE
  2
ISO-25
  9
$DIMCLRD
 70
     0
  9
$DIMCLRE
 70
     0
  9
$DIMCLRT
 70
     0
  9
$DIMTFAC
 40
1.0
  9
$DIMGAP
 40
1.524
  9
$DIMJUST
 70
     0
  9
$DIMSD1
 70
     0
  9
$DIMSD2
 70
     0
  9
$DIMTOLJ
 70
     0
  9
$DIMTZIN
 70
     0
  9
$DIMALTZ
 70
     0
  9
$DIMALTTZ
 70
     0
  9
$DIMUPT
 70
     0
  9
$DIMDEC
 70
     2
  9
$DIMTDEC
 70
     3
  9
$DIMALTU
 70
     2
  9
$DIMALTTD
 70
     3
  9
$DIMTXSTY
  7
Standard
  9
$DIMAUNIT
 70
     0
  9
$DIMADEC
 70
     2
  9
$DIMALTRND
 40
0.0
  9
$DIMAZIN
 70
     0
  9
$DIMDSEP
 70
    44
  9
$DIMATFIT
 70
     3
  9
$DIMFRAC
 70
     0
  9
$DIMLDRBLK
  1

  9
$DIMLUNIT
 70
     2
  9
$DIMLWD
 70
    -2
  9
$DIMLWE
 70
    -2
  9
$DIMTMOVE
 70
     0
  9
$LUNITS
 70
     2
  9
$LUPREC
 70
     2
  9
$SKETCHINC
 40
1.0
  9
$FILLETRAD
 40
10.0
  9
$AUNITS
 70
     0
  9
$AUPREC
 70
     2
  9
$MENU
  1
.
  9
$ELEVATION
 40
0.0
  9
$PELEVATION
 40
0.0
  9
$THICKNESS
 40
0.0
  9
$LIMCHECK
 70
     0
  9
$CHAMFERA
 40
0.0
  9
$CHAMFERB
 40
0.0
  9
$CHAMFERC
 40
0.0
  9
$CHAMFERD
 40
0.0
  9
$SKPOLY
 70
     0
  9
$TDCREATE
 40
2458169.382361875
  9
$TDUCREATE
 40
2458169.340695208
  9
$TDUPDATE
 40
2458169.382363715
  9
$TDUUPDATE
 40
2458169.340697049
  9
$TDINDWG
 40
0.0000000116
  9
$TDUSRTIMER
 40
0.0000000116
  9
$USRTIMER
 70
     1
  9
$ANGBASE
 50
0.0
  9
$ANGDIR
 70
     0
  9
$PDMODE
 70
     0
  9
$PDSIZE
 40
-1.0
  9
$PLINEWID
 40
0.0
  9
$SPLFRAME
 70
     0
  9
$SPLINETYPE
 70
     6
  9
$SPLINESEGS
 70
     8
  9
$HANDSEED
  5
28F
  9
$SURFTAB1
 70
     6
  9
$SURFTAB2
 70
     6
  9
$SURFTYPE
 70
     6
  9
$SURFU
 70
     6
  9
$SURFV
 70
     6
  9
$UCSBASE
  2

  9
$UCSNAME
  2

  9
$UCSORG
 10
0.0
 20
0.0
 30
0.0
  9
$UCSXDIR
 10
1.0
 20
0.0
 30
0.0
  9
$UCSYDIR
 10
0.0
 20
1.0
 30
0.0
  9
$UCSORTHOREF
  2

  9
$UCSORTHOVIEW
 70
     0
  9
$UCSORGTOP
 10
0.0
 20
0.0
 30
0.0
  9
$UCSORGBOTTOM
 10
0.0
 20
0.0
 30
0.0
  9
$UCSORGLEFT
 10
0.0
 20
0.0
 30
0.0
  9
$UCSORGRIGHT
 10
0.0
 20
0.0
 30
0.0
  9
$UCSORGFRONT
 10
0.0
 20
0.0
 30
0.0
  9
$UCSORGBACK
 10
0.0
 20
0.0
 30
0.0
  9
$PUCSBASE
  2

  9
$PUCSNAME
  2

  9
$PUCSORG
 10
0.0
 20
0.0
 30
0.0
  9
$PUCSXDIR
 10
1.0
 20
0.0
 30
0.0
  9
$PUCSYDIR
 10
0.0
 20
1.0
 30
0.0
  9
$PUCSORTHOREF
  2

  9
$PUCSORTHOVIEW
 70
     0
  9
$PUCSORGTOP
 10
0.0
 20
0.0
 30
0.0
  9
$PUCSORGBOTTOM
 10
0.0
 20
0.0
 30
0.0
  9
$PUCSORGLEFT
 10
0.0
 20
0.0
 30
0.0
  9
$PUCSORGRIGHT
 10
0.0
 20
0.0
 30
0.0
  9
$PUCSORGFRONT
 10
0.0
 20
0.0
 30
0.0
  9
$PUCSORGBACK
 10
0.0
 20
0.0
 30
0.0
  9
$USERI1
 70
     0
  9
$USERI2
 70
     0
  9
$USERI3
 70
     0
  9
$USERI4
 70
     0
  9
$USERI5
 70
     0
  9
$USERR1
 40
0.0
  9
$USERR2
 40
0.0
  9
$USERR3
 40
0.0
  9
$USERR4
 40
0.0
  9
$USERR5
 40
0.0
  9
$WORLDVIEW
 70
     1
  9
$SHADEDGE
 70
     3
  9
$SHADEDIF
 70
    70
  9
$TILEMODE
 70
     1
  9
$MAXACTVP
 70
    64
  9
$PINSBASE
 10
0.0
 20
0.0
 30
0.0
  9
$PLIMCHECK
 70
     0
  9
$PEXTMIN
 10
1.0000000000E+20
 20
1.0000000000E+20
 30
1.0000000000E+20
  9
$PEXTMAX
 10
-1.0000000000E+20
 20
-1.0000000000E+20
 30
-1.0000000000E+20
  9
$PLIMMIN
 10
0.0
 20
0.0
  9
$PLIMMAX
 10
420.0
 20
297.0
  9
$UNITMODE
 70
     0
  9
$VISRETAIN
 70
     1
  9
$PLINEGEN
 70
     0
  9
$PSLTSCALE
 70
     1
  9
$TREEDEPTH
 70
  3020
  9
$CMLSTYLE
  2
Standard
  9
$CMLJUST
 70
     0
  9
$CMLSCALE
 40
20.0
  9
$PROXYGRAPHICS
 70
     1
  9
$MEASUREMENT
 70
     1
  9
$CELWEIGHT
370
    -1
  9
$ENDCAPS
280
     0
  9
$JOINSTYLE
280
     0
  9
$LWDISPLAY
290
     1
  9
$INSUNITS
 70
     4
  9
$HYPERLINKBASE
  1

  9
$STYLESHEET
  1

  9
$XEDIT
290
     1
  9
$CEPSNTYPE
380
     0
  9
$PSTYLEMODE
290
     1
  9
$FINGERPRINTGUID
  2
{FDFFAF1C-B545-4309-9F39-244DC1939944}
  9
$VERSIONGUID
  2
{FAEB1C32-E019-11D5-929B-00C0DF256EC4}
  9
$EXTNAMES
290
     1
  9
$PSVPSCALE
 40
0.0
  9
$OLESTARTUP
290
     0
  0
ENDSEC
  0
SECTION
  2
CLASSES
  0
CLASS
  1
ACDBDICTIONARYWDFLT
  2
AcDbDictionaryWithDefault
  3
ObjectDBX Classes
 90
        0
280
     0
281
     0
  0
CLASS
  1
VISUALSTYLE
  2
AcDbVisualStyle
  3
ObjectDBX Classes
 90
     4095
280
     0
281
     0
  0
CLASS
  1
MATERIAL
  2
AcDbMaterial
  3
ObjectDBX Classes
 90
     1153
280
     0
281
     0
  0
CLASS
  1
SCALE
  2
AcDbScale
  3
ObjectDBX Classes
 90
     1153
280
     0
281
     0
  0
CLASS
  1
TABLESTYLE
  2
AcDbTableStyle
  3
ObjectDBX Classes
 90
     4095
280
     0
281
     0
  0
CLASS
  1
MLEADERSTYLE
  2
AcDbMLeaderStyle
  3
ACDB_MLEADERSTYLE_CLASS
 90
     4095
280
     0
281
     0
  0
CLASS
  1
SUN
  2
AcDbSun
  3
SCENEOE
 90
     1153
280
     0
281
     0
  0
CLASS
  1
ACDBPLACEHOLDER
  2
AcDbPlaceHolder
  3
ObjectDBX Classes
 90
        0
280
     0
281
     0
  0
CLASS
  1
LAYOUT
  2
AcDbLayout
  3
ObjectDBX Classes
 90
        0
280
     0
281
     0
  0
ENDSEC
  0
SECTION
  2
TABLES
  0
TABLE
  2
VPORT
  5
8
330
0
100
AcDbSymbolTable
 70
     1
  0
VPORT
  5
29
330
8
100
AcDbSymbolTableRecord
100
AcDbViewportTableRecord
  2
*Active
 70
     0
 10
0.0
 20
0.0
 11
1.0
 21
1.0
 12
148.5
 22
105.0
 13
0.0
 23
0.0
 14
10.0
 24
10.0
 15
10.0
 25
10.0
 16
0.0
 26
0.0
 36
1.0
 17
0.0
 27
0.0
 37
0.0
 40
210.0
 41
1.4142857143
 42
50.0
 43
0.0
 44
0.0
 50
0.0
 51
0.0
 71
     0
 72
  2000
 73
     1
 74
     3
 75
     0
 76
     0
 77
     0
 78
     0
281
     0
 65
     1
110
0.0
120
0.0
130
0.0
111
1.0
121
0.0
131
0.0
112
0.0
122
1.0
132
0.0
 79
     0
146
0.0
  0
ENDTAB
  0
TABLE
  2
LTYPE
  5
5
330
0
100
AcDbSymbolTable
 70
     6
  0
LTYPE
  5
14
330
5
100
AcDbSymbolTableRecord
100
AcDbLinetypeTableRecord
  2
ByBlock
 70
     0
  3

 72
    65
 73
     0
 40
0.0
  0
LTYPE
  5
15
330
5
100
AcDbSymbolTableRecord
100
AcDbLinetypeTableRecord
  2
ByLayer
 70
     0
  3

 72
    65
 73
     0
 40
0.0
  0
LTYPE
  5
16
330
5
100
AcDbSymbolTableRecord
100
AcDbLinetypeTableRecord
  2
Continuous
 70
     0
  3
Solid line
 72
    65
 73
     0
 40
0.0
  0
LTYPE
  5
6E
330
5
100
AcDbSymbolTableRecord
100
AcDbLinetypeTableRecord
  2
HIDDEN
 70
     0
  3
Hidden __ __ __ __ __ __ __ __ __ __ __ __ __ __
 72
    65
 73
     2
 40
1.905
 49
1.27
 74
     0
 49
-0.635
 74
     0
  0
LTYPE
  5
6F
330
5
100
AcDbSymbolTableRecord
100
AcDbLinetypeTableRecord
  2
PHANTOM
 70
     0
  3
Phantom ______  __  __  ______  __  __  ______
 72
    65
 73
     6
 40
12.7
 49
6.35
 74
     0
 49
-1.27
 74
     0
 49
1.27
 74
     0
 49
-1.27
 74
     0
 49
1.27
 74
     0
 49
-1.27
 74
     0
  0
LTYPE
  5
70
330
5
100
AcDbSymbolTableRecord
100
AcDbLinetypeTableRecord
  2
CENTER
 70
     0
  3
Center ____ _ ____ _ ____ _ ____ _ ____ _ ____
 72
    65
 73
     4
 40
10.16
 49
6.35
 74
     0
 49
-1.27
 74
     0
 49
1.27
 74
     0
 49
-1.27
 74
     0
  0
LTYPE
  5
71
330
5
100
AcDbSymbolTableRecord
100
AcDbLinetypeTableRecord
  2
CENTERX2
 70
     0
  3
Center (2x) ________  __  ________  __  _____
 72
    65
 73
     4
 40
20.32
 49
12.7
 74
     0
 49
-2.54
 74
     0
 49
2.54
 74
     0
 49
-2.54
 74
     0
  0
LTYPE
  5
72
330
5
100
AcDbSymbolTableRecord
100
AcDbLinetypeTableRecord
  2
DOT2
 70
     0
  3
Dot (.5x) ........................................
 72
    65
 73
     2
 40
0.635
 49
0.0
 74
     0
 49
-0.635
 74
     0
  0
ENDTAB
  0
TABLE
  2
LAYER
  5
2
330
0
100
AcDbSymbolTable
 70
     5
  0
LAYER
  5
10
330
2
100
AcDbSymbolTableRecord
100
AcDbLayerTableRecord
  2
0
 70
     0
 62
     7
  6
Continuous
370
    -3
390
F
  0
LAYER
  5
73
330
2
100
AcDbSymbolTableRecord
100
AcDbLayerTableRecord
  2
FORMAT
 70
     0
 62
     7
  6
Continuous
370
    -3
390
F
  0
LAYER
  5
74
330
2
100
AcDbSymbolTableRecord
100
AcDbLayerTableRecord
  2
VERMASSUNG
 70
     0
 62
     7
  6
Continuous
370
    -3
390
F
  0
LAYER
  5
75
330
2
100
AcDbSymbolTableRecord
100
AcDbLayerTableRecord
  2
KOPF_DÜNN
 70
     0
 62
     7
  6
Continuous
370
    -3
390
F
  0
LAYER
  5
76
330
2
100
AcDbSymbolTableRecord
100
AcDbLayerTableRecord
  2
KOPF_DICK
 70
     0
 62
     7
  6
Continuous
370
    25
390
F
  0
ENDTAB
  0
TABLE
  2
STYLE
  5
3
330
0
100
AcDbSymbolTable
 70
     3
  0
STYLE
  5
11
330
3
100
AcDbSymbolTableRecord
100
AcDbTextStyleTableRecord
  2
Standard
 70
     0
 40
0.0
 41
1.0
 50
0.0
 71
     0
 42
2.0
  3
txt
  4

  0
STYLE
  5
77
330
3
100
AcDbSymbolTableRecord
100
AcDbTextStyleTableRecord
  2
SLDTEXTSTYLE0
 70
     0
 40
0.0
 41
0.7
 50
0.0
 71
     0
 42
2.0
  3
TXT
  4

  0
STYLE
  5
7B
330
3
100
AcDbSymbolTableRecord
100
AcDbTextStyleTableRecord
  2
SLDTEXTSTYLE1
 70
     0
 40
0.0
 41
0.65
 50
0.0
 71
     0
 42
2.0
  3
TXT
  4

  0
ENDTAB
  0
TABLE
  2
VIEW
  5
6
330
0
100
AcDbSymbolTable
 70
     0
  0
ENDTAB
  0
TABLE
  2
UCS
  5
7
330
0
100
AcDbSymbolTable
 70
     0
  0
ENDTAB
  0
TABLE
  2
APPID
  5
9
330
0
100
AcDbSymbolTable
 70
     1
  0
APPID
  5
12
330
9
100
AcDbSymbolTableRecord
100
AcDbRegAppTableRecord
  2
ACAD
 70
     0
  0
ENDTAB
  0
TABLE
  2
DIMSTYLE
  5
A
330
0
100
AcDbSymbolTable
 70
     3
100
AcDbDimStyleTable
  0
DIMSTYLE
105
27
330
A
100
AcDbSymbolTableRecord
100
AcDbDimStyleTableRecord
  2
ISO-25
 70
     0
 41
2.5
 42
0.625
 43
3.75
 44
1.25
 73
     0
 74
     0
 77
     1
 78
     8
140
2.5
141
2.5
143
0.0393700787
147
0.625
171
     3
172
     1
178
     0
271
     2
272
     2
274
     3
278
    44
283
     0
284
     8
340
11
  0
DIMSTYLE
105
12B
102
{ACAD_REACTORS
330
12A
330
137
330
141
330
14B
330
155
330
15F
330
16A
102
}
330
A
100
AcDbSymbolTableRecord
100
AcDbDimStyleTableRecord
  2
SLDDIMSTYLE0
 70
     0
 41
3.0
 44
0.0
 45
0.000000001
 73
     0
 74
     0
 77
     1
 78
    12
 79
     3
140
2.0
147
0.5
173
     1
178
     0
271
     2
272
     3
276
     2
284
    12
340
77
  0
DIMSTYLE
105
176
102
{ACAD_REACTORS
330
175
102
}
330
A
100
AcDbSymbolTableRecord
100
AcDbDimStyleTableRecord
  2
SLDDIMSTYLE1
 70
     0
 41
3.0
 44
0.0
 45
0.000000001
 73
     0
 74
     0
 77
     1
 78
    12
 79
     3
140
2.0
147
0.5
173
     1
178
     0
271
     0
272
     3
276
     2
284
    12
340
77
  0
ENDTAB
  0
TABLE
  2
BLOCK_RECORD
  5
1
330
0
100
AcDbSymbolTable
 70
     9
  0
BLOCK_RECORD
  5
1F
330
1
100
AcDbSymbolTableRecord
100
AcDbBlockTableRecord
  2
*Model_Space
340
22
  0
BLOCK_RECORD
  5
1B
330
1
100
AcDbSymbolTableRecord
100
AcDbBlockTableRecord
  2
*Paper_Space
340
1E
  0
BLOCK_RECORD
  5
23
330
1
100
AcDbSymbolTableRecord
100
AcDbBlockTableRecord
  2
*Paper_Space0
340
26
  0
BLOCK_RECORD
  5
12C
330
1
100
AcDbSymbolTableRecord
100
AcDbBlockTableRecord
  2
_D
340
0
  0
BLOCK_RECORD
  5
138
330
1
100
AcDbSymbolTableRecord
100
AcDbBlockTableRecord
  2
_D_1
340
0
  0
BLOCK_RECORD
  5
142
330
1
100
AcDbSymbolTableRecord
100
AcDbBlockTableRecord
  2
_D_2
340
0
  0
BLOCK_RECORD
  5
14C
330
1
100
AcDbSymbolTableRecord
100
AcDbBlockTableRecord
  2
_D_3
340
0
  0
BLOCK_RECORD
  5
156
330
1
100
AcDbSymbolTableRecord
100
AcDbBlockTableRecord
  2
_D_4
340
0
  0
BLOCK_RECORD
  5
160
330
1
100
AcDbSymbolTableRecord
100
AcDbBlockTableRecord
  2
_D_5
340
0
  0
BLOCK_RECORD
  5
16B
330
1
100
AcDbSymbolTableRecord
100
AcDbBlockTableRecord
  2
_D_6
340
0
  0
BLOCK_RECORD
  5
177
330
1
100
AcDbSymbolTableRecord
100
AcDbBlockTableRecord
  2
_D_7
340
0
  0
ENDTAB
  0
ENDSEC
  0
SECTION
  2
BLOCKS
  0
BLOCK
  5
20
330
1F
100
AcDbEntity
  8
0
100
AcDbBlockBegin
  2
*Model_Space
 70
     0
 10
0.0
 20
0.0
 30
0.0
  3
*Model_Space
  1

  0
ENDBLK
  5
21
330
1F
100
AcDbEntity
  8
0
100
AcDbBlockEnd
  0
BLOCK
  5
1C
330
1B
100
AcDbEntity
 67
     1
  8
0
100
AcDbBlockBegin
  2
*Paper_Space
 70
     0
 10
0.0
 20
0.0
 30
0.0
  3
*Paper_Space
  1

  0
ENDBLK
  5
1D
330
1B
100
AcDbEntity
 67
     1
  8
0
100
AcDbBlockEnd
  0
BLOCK
  5
24
330
23
100
AcDbEntity
  8
0
100
AcDbBlockBegin
  2
*Paper_Space0
 70
     0
 10
0.0
 20
0.0
 30
0.0
  3
*Paper_Space0
  1

  0
ENDBLK
  5
25
330
23
100
AcDbEntity
  8
0
100
AcDbBlockEnd
  0
BLOCK
  5
12D
330
12C
100
AcDbEntity
  8
0
100
AcDbBlockBegin
  2
_D
 70
     0
 10
0.0
 20
0.0
 30
0.0
  3
_D
  1

  0
SOLID
  5
12F
330
12C
100
AcDbEntity
  8
VERMASSUNG
100
AcDbTrace
 10
63.9441682506
 20
166.4916079042
 30
0.0
 11
63.4941682506
 21
163.4916079042
 31
0.0
 12
64.3941682506
 22
163.4916079042
 32
0.0
 13
64.3941682506
 23
163.4916079042
 33
0.0
  0
SOLID
  5
130
330
12C
100
AcDbEntity
  8
VERMASSUNG
100
AcDbTrace
 10
63.9441682506
 20
66.4916079042
 30
0.0
 11
64.3941682506
 21
69.4916079042
 31
0.0
 12
63.4941682506
 22
69.4916079042
 32
0.0
 13
63.4941682506
 23
69.4916079042
 33
0.0
  0
LINE
  5
131
330
12C
100
AcDbEntity
  8
VERMASSUNG
100
AcDbLine
 10
124.5946376116
 20
166.4916079042
 30
0.0
 11
62.9441682506
 21
166.4916079042
 31
0.0
  0
LINE
  5
132
330
12C
100
AcDbEntity
  8
VERMASSUNG
100
AcDbLine
 10
124.5946376116
 20
66.4916079042
 30
0.0
 11
62.9441682506
 21
66.4916079042
 31
0.0
  0
LINE
  5
133
330
12C
100
AcDbEntity
  8
VERMASSUNG
100
AcDbLine
 10
63.9441682506
 20
166.4916079042
 30
0.0
 11
63.9441682506
 21
66.4916079042
 31
0.0
  0
MTEXT
  5
134
330
12C
100
AcDbEntity
  8
VERMASSUNG
100
AcDbMText
 10
61.1660329944
 20
108.2876907851
 30
0.0
 40
2.0
 41
0.0
 71
     1
 72
     1
  1
HSK A
  7
SLDTEXTSTYLE0
 11
-7.044195017643634E-15
 21
1.0
 31
0.0
 73
     1
 44
1.0
  0
MTEXT
  5
135
330
12C
100
AcDbEntity
  8
VERMASSUNG
100
AcDbMText
 10
61.3660329457
 20
117.2876903976
 30
0.0
 40
2.0
 41
0.0
 71
     1
 72
     1
  1
%%c
  7
SLDTEXTSTYLE0
 11
-7.044195017643634E-15
 21
1.0
 31
0.0
 73
     1
 44
1.0
  0
MTEXT
  5
136
330
12C
100
AcDbEntity
  8
VERMASSUNG
100
AcDbMText
 10
61.3660326547
 20
120.8975011761
 30
0.0
 40
2.0
 41
0.0
 71
     1
 72
     1
  1
100
  7
SLDTEXTSTYLE0
 11
-7.044195017643634E-15
 21
1.0
 31
0.0
 73
     1
 44
1.0
  0
ENDBLK
  5
12E
330
12C
100
AcDbEntity
  8
0
100
AcDbBlockEnd
  0
BLOCK
  5
139
330
138
100
AcDbEntity
  8
0
100
AcDbBlockBegin
  2
_D_1
 70
     0
 10
0.0
 20
0.0
 30
0.0
  3
_D_1
  1

  0
SOLID
  5
13B
330
138
100
AcDbEntity
  8
VERMASSUNG
100
AcDbTrace
 10
74.1946376116
 20
185.2140361108
 30
0.0
 11
77.1946376116
 21
184.7640361108
 31
0.0
 12
77.1946376116
 22
185.6640361108
 32
0.0
 13
77.1946376116
 23
185.6640361108
 33
0.0
  0
SOLID
  5
13C
330
138
100
AcDbEntity
  8
VERMASSUNG
100
AcDbTrace
 10
203.0946376116
 20
185.2140361108
 30
0.0
 11
200.0946376116
 21
185.6640361108
 31
0.0
 12
200.0946376116
 22
184.7640361108
 32
0.0
 13
200.0946376116
 23
184.7640361108
 33
0.0
  0
LINE
  5
13D
330
138
100
AcDbEntity
  8
VERMASSUNG
100
AcDbLine
 10
74.1946376116
 20
146.9942776468
 30
0.0
 11
74.1946376116
 21
186.2140361108
 31
0.0
  0
LINE
  5
13E
330
138
100
AcDbEntity
  8
VERMASSUNG
100
AcDbLine
 10
203.0946376116
 20
122.5416079042
 30
0.0
 11
203.0946376116
 21
186.2140361108
 31
0.0
  0
LINE
  5
13F
330
138
100
AcDbEntity
  8
VERMASSUNG
100
AcDbLine
 10
74.1946376116
 20
185.2140361108
 30
0.0
 11
203.0946376116
 21
185.2140361108
 31
0.0
  0
MTEXT
  5
140
330
138
100
AcDbEntity
  8
VERMASSUNG
100
AcDbMText
 10
135.7456572834
 20
187.7921717067
 30
0.0
 40
2.0
 41
0.0
 71
     1
 72
     1
  1
128.9
  7
SLDTEXTSTYLE0
 73
     1
 44
1.0
  0
ENDBLK
  5
13A
330
138
100
AcDbEntity
  8
0
100
AcDbBlockEnd
  0
BLOCK
  5
143
330
142
100
AcDbEntity
  8
0
100
AcDbBlockBegin
  2
_D_2
 70
     0
 10
0.0
 20
0.0
 30
0.0
  3
_D_2
  1

  0
SOLID
  5
145
330
142
100
AcDbEntity
  8
VERMASSUNG
100
AcDbTrace
 10
124.0946376116
 20
179.2140361108
 30
0.0
 11
127.0946376116
 21
178.7640361108
 31
0.0
 12
127.0946376116
 22
179.6640361108
 32
0.0
 13
127.0946376116
 23
179.6640361108
 33
0.0
  0
SOLID
  5
146
330
142
100
AcDbEntity
  8
VERMASSUNG
100
AcDbTrace
 10
184.0946376116
 20
179.2140361108
 30
0.0
 11
181.0946376116
 21
179.6640361108
 31
0.0
 12
181.0946376116
 22
178.7640361108
 32
0.0
 13
181.0946376116
 23
178.7640361108
 33
0.0
  0
LINE
  5
147
330
142
100
AcDbEntity
  8
VERMASSUNG
100
AcDbLine
 10
124.0946376116
 20
165.9916079042
 30
0.0
 11
124.0946376116
 21
180.2140361108
 31
0.0
  0
LINE
  5
148
330
142
100
AcDbEntity
  8
VERMASSUNG
100
AcDbLine
 10
184.0946376116
 20
139.6916079042
 30
0.0
 11
184.0946376116
 21
180.2140361108
 31
0.0
  0
LINE
  5
149
330
142
100
AcDbEntity
  8
VERMASSUNG
100
AcDbLine
 10
124.0946376116
 20
179.2140361108
 30
0.0
 11
184.0946376116
 21
179.2140361108
 31
0.0
  0
MTEXT
  5
14A
330
142
100
AcDbEntity
  8
VERMASSUNG
100
AcDbMText
 10
152.6956098902
 20
181.7921717067
 30
0.0
 40
2.0
 41
0.0
 71
     1
 72
     1
  1
60
  7
SLDTEXTSTYLE0
 73
     1
 44
1.0
  0
ENDBLK
  5
144
330
142
100
AcDbEntity
  8
0
100
AcDbBlockEnd
  0
BLOCK
  5
14D
330
14C
100
AcDbEntity
  8
0
100
AcDbBlockBegin
  2
_D_3
 70
     0
 10
0.0
 20
0.0
 30
0.0
  3
_D_3
  1

  0
SOLID
  5
14F
330
14C
100
AcDbEntity
  8
VERMASSUNG
100
AcDbTrace
 10
153.0446376116
 20
173.2140361108
 30
0.0
 11
156.0446376116
 21
172.7640361108
 31
0.0
 12
156.0446376116
 22
173.6640361108
 32
0.0
 13
156.0446376116
 23
173.6640361108
 33
0.0
  0
SOLID
  5
150
330
14C
100
AcDbEntity
  8
VERMASSUNG
100
AcDbTrace
 10
184.0946376116
 20
173.2140361108
 30
0.0
 11
181.0946376116
 21
173.6640361108
 31
0.0
 12
181.0946376116
 22
172.7640361108
 32
0.0
 13
181.0946376116
 23
172.7640361108
 33
0.0
  0
LINE
  5
151
330
14C
100
AcDbEntity
  8
VERMASSUNG
100
AcDbLine
 10
153.0446376116
 20
164.4603477251
 30
0.0
 11
153.0446376116
 21
174.2140361108
 31
0.0
  0
LINE
  5
152
330
14C
100
AcDbEntity
  8
VERMASSUNG
100
AcDbLine
 10
184.0946376116
 20
139.6916079042
 30
0.0
 11
184.0946376116
 21
174.2140361108
 31
0.0
  0
LINE
  5
153
330
14C
100
AcDbEntity
  8
VERMASSUNG
100
AcDbLine
 10
153.0446376116
 20
173.2140361108
 30
0.0
 11
184.0946376116
 21
173.2140361108
 31
0.0
  0
MTEXT
  5
154
330
14C
100
AcDbEntity
  8
VERMASSUNG
100
AcDbMText
 10
165.6706572834
 20
175.7921717067
 30
0.0
 40
2.0
 41
0.0
 71
     1
 72
     1
  1
31.05
  7
SLDTEXTSTYLE0
 73
     1
 44
1.0
  0
ENDBLK
  5
14E
330
14C
100
AcDbEntity
  8
0
100
AcDbBlockEnd
  0
BLOCK
  5
157
330
156
100
AcDbEntity
  8
0
100
AcDbBlockBegin
  2
_D_4
 70
     0
 10
0.0
 20
0.0
 30
0.0
  3
_D_4
  1

  0
SOLID
  5
159
330
156
100
AcDbEntity
  8
VERMASSUNG
100
AcDbTrace
 10
184.0946376116
 20
173.2140361108
 30
0.0
 11
187.0946376116
 21
172.7640361108
 31
0.0
 12
187.0946376116
 22
173.6640361108
 32
0.0
 13
187.0946376116
 23
173.6640361108
 33
0.0
  0
SOLID
  5
15A
330
156
100
AcDbEntity
  8
VERMASSUNG
100
AcDbTrace
 10
203.0946376116
 20
173.2140361108
 30
0.0
 11
200.0946376116
 21
173.6640361108
 31
0.0
 12
200.0946376116
 22
172.7640361108
 32
0.0
 13
200.0946376116
 23
172.7640361108
 33
0.0
  0
LINE
  5
15B
330
156
100
AcDbEntity
  8
VERMASSUNG
100
AcDbLine
 10
184.0946376116
 20
139.6916079042
 30
0.0
 11
184.0946376116
 21
174.2140361108
 31
0.0
  0
LINE
  5
15C
330
156
100
AcDbEntity
  8
VERMASSUNG
100
AcDbLine
 10
203.0946376116
 20
106.2916079042
 30
0.0
 11
203.0946376116
 21
174.2140361108
 31
0.0
  0
LINE
  5
15D
330
156
100
AcDbEntity
  8
VERMASSUNG
100
AcDbLine
 10
184.0946376116
 20
173.2140361108
 30
0.0
 11
203.0946376116
 21
173.2140361108
 31
0.0
  0
MTEXT
  5
15E
330
156
100
AcDbEntity
  8
VERMASSUNG
100
AcDbMText
 10
192.3951395486
 20
175.7921717067
 30
0.0
 40
2.0
 41
0.0
 71
     1
 72
     1
  1
19
  7
SLDTEXTSTYLE0
 73
     1
 44
1.0
  0
ENDBLK
  5
158
330
156
100
AcDbEntity
  8
0
100
AcDbBlockEnd
  0
BLOCK
  5
161
330
160
100
AcDbEntity
  8
0
100
AcDbBlockBegin
  2
_D_5
 70
     0
 10
0.0
 20
0.0
 30
0.0
  3
_D_5
  1

  0
SOLID
  5
163
330
160
100
AcDbEntity
  8
VERMASSUNG
100
AcDbTrace
 10
238.4030220424
 20
127.4916079042
 30
0.0
 11
237.9530220424
 21
124.4916079042
 31
0.0
 12
238.8530220424
 22
124.4916079042
 32
0.0
 13
238.8530220424
 23
124.4916079042
 33
0.0
  0
SOLID
  5
164
330
160
100
AcDbEntity
  8
VERMASSUNG
100
AcDbTrace
 10
238.4030220424
 20
105.4916079042
 30
0.0
 11
238.8530220424
 21
108.4916079042
 31
0.0
 12
237.9530220424
 22
108.4916079042
 32
0.0
 13
237.9530220424
 23
108.4916079042
 33
0.0
  0
LINE
  5
165
330
160
100
AcDbEntity
  8
VERMASSUNG
100
AcDbLine
 10
202.2946376116
 20
127.4916079042
 30
0.0
 11
239.4030220424
 21
127.4916079042
 31
0.0
  0
LINE
  5
166
330
160
100
AcDbEntity
  8
VERMASSUNG
100
AcDbLine
 10
202.2946376116
 20
105.4916079042
 30
0.0
 11
239.4030220424
 21
105.4916079042
 31
0.0
  0
LINE
  5
167
330
160
100
AcDbEntity
  8
VERMASSUNG
100
AcDbLine
 10
238.4030220424
 20
127.4916079042
 30
0.0
 11
238.4030220424
 21
105.4916079042
 31
0.0
  0
MTEXT
  5
168
330
160
100
AcDbEntity
  8
VERMASSUNG
100
AcDbMText
 10
235.8248865046
 20
113.2886928638
 30
0.0
 40
2.0
 41
0.0
 71
     1
 72
     1
  1
%%c
  7
SLDTEXTSTYLE0
 11
-7.044195017643634E-15
 21
1.0
 31
0.0
 73
     1
 44
1.0
  0
MTEXT
  5
169
330
160
100
AcDbEntity
  8
VERMASSUNG
100
AcDbMText
 10
235.8248864464
 20
116.8964675019
 30
0.0
 40
2.0
 41
0.0
 71
     1
 72
     1
  1
22
  7
SLDTEXTSTYLE0
 11
-7.044195017643634E-15
 21
1.0
 31
0.0
 73
     1
 44
1.0
  0
ENDBLK
  5
162
330
160
100
AcDbEntity
  8
0
100
AcDbBlockEnd
  0
BLOCK
  5
16C
330
16B
100
AcDbEntity
  8
0
100
AcDbBlockBegin
  2
_D_6
 70
     0
 10
0.0
 20
0.0
 30
0.0
  3
_D_6
  1

  0
SOLID
  5
16E
330
16B
100
AcDbEntity
  8
VERMASSUNG
100
AcDbTrace
 10
244.4030220424
 20
140.4916079042
 30
0.0
 11
243.9530220424
 21
137.4916079042
 31
0.0
 12
244.8530220424
 22
137.4916079042
 32
0.0
 13
244.8530220424
 23
137.4916079042
 33
0.0
  0
SOLID
  5
16F
330
16B
100
AcDbEntity
  8
VERMASSUNG
100
AcDbTrace
 10
244.4030220424
 20
92.4916079042
 30
0.0
 11
244.8530220424
 21
95.4916079042
 31
0.0
 12
243.9530220424
 22
95.4916079042
 32
0.0
 13
243.9530220424
 23
95.4916079042
 33
0.0
  0
LINE
  5
170
330
16B
100
AcDbEntity
  8
VERMASSUNG
100
AcDbLine
 10
183.2946376116
 20
140.4916079042
 30
0.0
 11
245.4030220424
 21
140.4916079042
 31
0.0
  0
LINE
  5
171
330
16B
100
AcDbEntity
  8
VERMASSUNG
100
AcDbLine
 10
183.2946376116
 20
92.4916079042
 30
0.0
 11
245.4030220424
 21
92.4916079042
 31
0.0
  0
LINE
  5
172
330
16B
100
AcDbEntity
  8
VERMASSUNG
100
AcDbLine
 10
244.4030220424
 20
140.4916079042
 30
0.0
 11
244.4030220424
 21
92.4916079042
 31
0.0
  0
MTEXT
  5
173
330
16B
100
AcDbEntity
  8
VERMASSUNG
100
AcDbMText
 10
241.8248865046
 20
113.1877679784
 30
0.0
 40
2.0
 41
0.0
 71
     1
 72
     1
  1
%%c
  7
SLDTEXTSTYLE0
 11
-7.044195017643634E-15
 21
1.0
 31
0.0
 73
     1
 44
1.0
  0
MTEXT
  5
174
330
16B
100
AcDbEntity
  8
VERMASSUNG
100
AcDbMText
 10
241.8248864464
 20
116.7955426165
 30
0.0
 40
2.0
 41
0.0
 71
     1
 72
     1
  1
48
  7
SLDTEXTSTYLE0
 11
-7.044195017643634E-15
 21
1.0
 31
0.0
 73
     1
 44
1.0
  0
ENDBLK
  5
16D
330
16B
100
AcDbEntity
  8
0
100
AcDbBlockEnd
  0
BLOCK
  5
178
330
177
100
AcDbEntity
  8
0
100
AcDbBlockBegin
  2
_D_7
 70
     0
 10
0.0
 20
0.0
 30
0.0
  3
_D_7
  1

  0
SOLID
  5
17A
330
177
100
AcDbEntity
  8
VERMASSUNG
100
AcDbTrace
 10
231.3112877045
 20
120.5491079042
 30
0.0
 11
230.8612877045
 21
117.5491079042
 31
0.0
 12
231.7612877045
 22
117.5491079042
 32
0.0
 13
231.7612877045
 23
117.5491079042
 33
0.0
  0
SOLID
  5
17B
330
177
100
AcDbEntity
  8
VERMASSUNG
100
AcDbTrace
 10
231.3112877045
 20
112.4341079042
 30
0.0
 11
231.7612877045
 21
115.4341079042
 31
0.0
 12
230.8612877045
 22
115.4341079042
 32
0.0
 13
230.8612877045
 23
115.4341079042
 33
0.0
  0
LINE
  5
17C
330
177
100
AcDbEntity
  8
VERMASSUNG
100
AcDbLine
 10
218.0946376116
 20
120.5491079042
 30
0.0
 11
232.3112877045
 21
120.5491079042
 31
0.0
  0
LINE
  5
17D
330
177
100
AcDbEntity
  8
VERMASSUNG
100
AcDbLine
 10
218.0946376116
 20
112.4341079042
 30
0.0
 11
232.3112877045
 21
112.4341079042
 31
0.0
  0
LINE
  5
17E
330
177
100
AcDbEntity
  8
VERMASSUNG
100
AcDbLine
 10
231.3112877045
 20
120.5491079042
 30
0.0
 11
231.3112877045
 21
112.4341079042
 31
0.0
  0
MTEXT
  5
17F
330
177
100
AcDbEntity
  8
VERMASSUNG
100
AcDbMText
 10
228.7331521086
 20
113.8916078972
 30
0.0
 40
2.0
 41
0.0
 71
     1
 72
     1
  1
SW
  7
SLDTEXTSTYLE0
 11
-7.044195017643634E-15
 21
1.0
 31
0.0
 73
     1
 44
1.0
  0
MTEXT
  5
180
330
177
100
AcDbEntity
  8
VERMASSUNG
100
AcDbMText
 10
228.7331521086
 20
117.6916079612
 30
0.0
 40
2.0
 41
0.0
 71
     1
 72
     1
  1
8
  7
SLDTEXTSTYLE0
 11
-7.044195017643634E-15
 21
1.0
 31
0.0
 73
     1
 44
1.0
  0
ENDBLK
  5
179
330
177
100
AcDbEntity
  8
0
100
AcDbBlockEnd
  0
ENDSEC
  0
SECTION
  2
ENTITIES
  0
MTEXT
  5
78
330
1F
100
AcDbEntity
  8
KOPF_DÜNN
100
AcDbMText
 10
13.8892156294
 20
23.8442973028
 30
0.0
 40
3.0
 41
0.0
 71
     1
 72
     1
  1
HA0.D22.K01.060
  7
SLDTEXTSTYLE0
 73
     1
 44
1.0
  0
MTEXT
  5
79
330
1F
100
AcDbEntity
  8
VERMASSUNG
100
AcDbMText
 10
13.9329988022
 20
28.8834360957
 30
0.0
 40
3.0
 41
0.0
 71
     1
 72
     1
  1
Fräsdorn_Milling arbor ø22
  7
SLDTEXTSTYLE0
 73
     1
 44
1.0
  0
MTEXT
  5
7A
330
1F
100
AcDbEntity
  8
VERMASSUNG
100
AcDbMText
 10
98.8601118557
 20
13.8365368761
 30
0.0
 40
2.0
 41
0.0
 71
     1
 72
     1
  1
Datum: 12.10.2006
  7
SLDTEXTSTYLE0
 73
     1
 44
1.0
  0
MTEXT
  5
7C
330
1F
100
AcDbEntity
  8
VERMASSUNG
100
AcDbMText
 10
13.933048693
 20
18.0482802738
 30
0.0
 40
2.0
 41
0.0
 71
     1
 72
     1
  1
DIN 69 893 HSK A 100
  7
SLDTEXTSTYLE1
 73
     1
 44
1.0
  0
MTEXT
  5
7D
330
1F
100
AcDbEntity
  8
VERMASSUNG
100
AcDbMText
 10
13.9808475933
 20
13.9090974274
 30
0.0
 40
2.0
 41
0.0
 71
     1
 72
     1
  1
Gewicht: 2469g
  7
SLDTEXTSTYLE0
 73
     1
 44
1.0
  0
ARC
  5
7E
330
1F
100
AcDbEntity
  8
0
  6
Continuous
 62
     7
370
    25
100
AcDbCircle
 10
189.1946376116
 20
94.4916079042
 30
0.0
 40
0.5
100
AcDbArc
 50
270.0
 51
0.0
  0
ARC
  5
7F
330
1F
100
AcDbEntity
  8
0
  6
Continuous
 62
     7
370
    25
100
AcDbCircle
 10
189.1946376116
 20
103.4916079042
 30
0.0
 40
0.5
100
AcDbArc
 50
0.0
 51
90.0
  0
LINE
  5
80
330
1F
100
AcDbEntity
  8
0
  6
Continuous
 62
     7
370
    25
100
AcDbLine
 10
184.0946362705
 20
93.9916070102
 30
0.0
 11
189.1946369202
 21
93.9916070102
 31
0.0
  0
LINE
  5
81
330
1F
100
AcDbEntity
  8
0
  6
Continuous
 62
     7
370
    25
100
AcDbLine
 10
189.1946369202
 20
103.991607718
 30
0.0
 11
184.0946362705
 21
103.991607718
 31
0.0
  0
ARC
  5
82
330
1F
100
AcDbEntity
  8
0
  6
Continuous
 62
     7
370
    25
100
AcDbCircle
 10
189.1946376116
 20
129.4916079042
 30
0.0
 40
0.5
100
AcDbArc
 50
270.0
 51
0.0
  0
ARC
  5
83
330
1F
100
AcDbEntity
  8
0
  6
Continuous
 62
     7
370
    25
100
AcDbCircle
 10
189.1946376116
 20
138.4916079042
 30
0.0
 40
0.5
100
AcDbArc
 50
0.0
 51
90.0
  0
LINE
  5
84
330
1F
100
AcDbEntity
  8
0
  6
Continuous
 62
     7
370
    25
100
AcDbLine
 10
184.0946362705
 20
128.9916080905
 30
0.0
 11
189.1946369202
 21
128.9916080905
 31
0.0
  0
LINE
  5
85
330
1F
100
AcDbEntity
  8
0
  6
Continuous
 62
     7
370
    25
100
AcDbLine
 10
189.1946369202
 20
138.9916087983
 30
0.0
 11
184.0946362705
 21
138.9916087983
 31
0.0
  0
ARC
  5
86
330
1F
100
AcDbEntity
  8
0
  6
Continuous
 62
     7
370
    25
100
AcDbCircle
 10
216.5946376116
 20
122.9916079042
 30
0.0
 40
1.5
100
AcDbArc
 50
0.0
 51
90.0
  0
ARC
  5
87
330
1F
100
AcDbEntity
  8
0
  6
Continuous
 62
     7
370
    25
100
AcDbCircle
 10
216.5946376116
 20
109.9916079042
 30
0.0
 40
1.5
100
AcDbArc
 50
270.0
 51
0.0
  0
LINE
  5
88
330
1F
100
AcDbEntity
  8
0
  6
Continuous
 62
     7
370
    25
100
AcDbLine
 10
216.5946388037
 20
124.4916082842
 30
0.0
 11
208.0946364791
 21
124.4916082842
 31
0.0
  0
LINE
  5
89
330
1F
100
AcDbEntity
  8
0
  6
Continuous
 62
     7
370
    25
100
AcDbLine
 10
208.0946364791
 20
108.4916075243
 30
0.0
 11
216.5946388037
 21
108.4916075243
 31
0.0
  0
ARC
  5
8A
330
1F
100
AcDbEntity
  8
0
  6
Continuous
 62
     7
370
    25
100
AcDbCircle
 10
207.6946376116
 20
111.0916079042
 30
0.0
 40
0.4000000000000341
100
AcDbArc
 50
0.0
 51
90.0
  0
ARC
  5
8B
330
1F
100
AcDbEntity
  8
0
  6
Continuous
 62
     7
370
    25
100
AcDbCircle
 10
207.6946376116
 20
121.8916079042
 30
0.0
 40
0.4000000000000341
100
AcDbArc
 50
270.0
 51
0.0
  0
LINE
  5
8C
330
1F
100
AcDbEntity
  8
0
  6
Continuous
 62
     7
370
    25
100
AcDbLine
 10
207.6946371586
 20
121.4916077925
 30
0.0
 11
203.0946412475
 21
121.4916077925
 31
0.0
  0
LINE
  5
8D
330
1F
100
AcDbEntity
  8
0
  6
Continuous
 62
     7
370
    25
100
AcDbLine
 10
203.0946412475
 20
111.491608016
 30
0.0
 11
207.6946371586
 21
111.491608016
 31
0.0
  0
LINE
  5
8E
330
1F
100
AcDbEntity
  8
0
  6
Continuous
 62
     7
370
    25
100
AcDbLine
 10
124.5946376353
 20
66.4916071592
 30
0.0
 11
129.0446375848
 21
66.4916071592
 31
0.0
  0
LINE
  5
8F
330
1F
100
AcDbEntity
  8
0
  6
Continuous
 62
     7
370
    25
100
AcDbLine
 10
129.0787104868
 20
166.4916086493
 30
0.0
 11
124.5946376353
 21
166.4916086493
 31
0.0
  0
ARC
  5
90
330
1F
100
AcDbEntity
  8
0
  6
Continuous
 62
     7
370
    25
100
AcDbCircle
 10
124.5946376116
 20
66.9916079042
 30
0.0
 40
0.5
100
AcDbArc
 50
180.0
 51
270.0
  0
ARC
  5
91
330
1F
100
AcDbEntity
  8
0
  6
Continuous
 62
     7
370
    25
100
AcDbCircle
 10
124.5946376116
 20
165.9916079042
 30
0.0
 40
0.5
100
AcDbArc
 50
90.0
 51
180.0
  0
ARC
  5
92
330
1F
100
AcDbEntity
  8
0
  6
Continuous
 62
     7
370
    25
100
AcDbCircle
 10
123.1977006931
 20
77.8631225798
 30
0.0
 40
0.9962338214386793
100
AcDbArc
 50
25.7988228126
 51
90.0
  0
ARC
  5
93
330
1F
100
AcDbEntity
  8
0
  6
Continuous
 62
     7
370
    25
100
AcDbCircle
 10
123.1977006931
 20
155.1200932287
 30
0.0
 40
0.9962338214386932
100
AcDbArc
 50
270.0
 51
334.2011771874
  0
LINE
  5
94
330
1F
100
AcDbEntity
  8
0
  6
Continuous
 62
     7
370
    25
100
AcDbLine
 10
102.6139413358
 20
153.4229214785
 30
0.0
 11
84.2946381659
 21
152.5051217077
 31
0.0
  0
LINE
  5
95
330
1F
100
AcDbEntity
  8
0
  6
Continuous
 62
     7
370
    25
100
AcDbLine
 10
121.5946376675
 20
154.3738577066
 30
0.0
 11
115.5265984476
 21
154.0698479412
 31
0.0
  0
LINE
  5
96
330
1F
100
AcDbEntity
  8
0
  6
Continuous
 62
     7
370
    25
100
AcDbLine
 10
115.5267213822
 20
78.9133604167
 30
0.0
 11
121.5946376675
 21
78.6093581019
 31
0.0
  0
LINE
  5
97
330
1F
100
AcDbEntity
  8
0
  6
Continuous
 62
     7
370
    25
100
AcDbLine
 10
89.2946371228
 20
80.2275944052
 30
0.0
 11
102.6145895363
 21
79.5602608023
 31
0.0
  0
LINE
  5
98
330
1F
100
AcDbEntity
  8
0
  6
Continuous
 62
     7
370
    25
100
AcDbLine
 10
121.5946376675
 20
78.6093581019
 30
0.0
 11
122.4004837337
 21
78.8252833782
 31
0.0
  0
LINE
  5
99
330
1F
100
AcDbEntity
  8
0
  6
Continuous
 62
     7
370
    25
100
AcDbLine
 10
122.4004837337
 20
154.1579324303
 30
0.0
 11
121.5946376675
 21
154.3738577066
 31
0.0
  0
ARC
  5
9A
330
1F
100
AcDbEntity
  8
0
  6
Continuous
 62
     7
370
    25
100
AcDbCircle
 10
122.6593028111
 20
77.8593564012
 30
0.0
 40
0.9999999999999858
100
AcDbArc
 50
90.0
 51
105.0
  0
ARC
  5
9B
330
1F
100
AcDbEntity
  8
0
  6
Continuous
 62
     7
370
    25
100
AcDbCircle
 10
122.6593028111
 20
155.1238594072
 30
0.0
 40
0.9999999999999719
100
AcDbArc
 50
255.0
 51
270.0
  0
LINE
  5
9C
330
1F
100
AcDbEntity
  8
0
  6
Continuous
 62
     7
370
    25
100
AcDbLine
 10
122.6593028174
 20
78.8593548832
 30
0.0
 11
123.1977006888
 21
78.8593548832
 31
0.0
  0
LINE
  5
9D
330
1F
100
AcDbEntity
  8
0
  6
Continuous
 62
     7
370
    25
100
AcDbLine
 10
123.1977006888
 20
154.1238609252
 30
0.0
 11
122.6593028174
 21
154.1238609252
 31
0.0
  0
ARC
  5
9E
330
1F
100
AcDbEntity
  8
0
  6
Continuous
 62
     7
370
    25
100
AcDbCircle
 10
158.0446376116
 20
87.4916079042
 30
0.0
 40
5.000000000000028
100
AcDbArc
 50
90.0
 51
180.0
  0
ARC
  5
9F
330
1F
100
AcDbEntity
  8
0
  6
Continuous
 62
     7
370
    25
100
AcDbCircle
 10
158.0446376116
 20
145.4916079042
 30
0.0
 40
5.000000000000028
100
AcDbArc
 50
180.0
 51
270.0
  0
LINE
  5
A0
330
1F
100
AcDbEntity
  8
0
  6
Continuous
 62
     7
370
    25
100
AcDbLine
 10
158.0446386129
 20
92.4916076956
 30
0.0
 11
183.2946376295
 21
92.4916076956
 31
0.0
  0
LINE
  5
A1
330
1F
100
AcDbEntity
  8
0
  6
Continuous
 62
     7
370
    25
100
AcDbLine
 10
183.2946376295
 20
140.4916081128
 30
0.0
 11
158.0446386129
 21
140.4916081128
 31
0.0
  0
ARC
  5
A2
330
1F
100
AcDbEntity
  8
0
  6
Continuous
 62
     7
370
    25
100
AcDbCircle
 10
183.2946376116
 20
93.2916079042
 30
0.0
 40
0.8000000000000114
100
AcDbArc
 50
270.0
 51
0.0
  0
ARC
  5
A3
330
1F
100
AcDbEntity
  8
0
  6
Continuous
 62
     7
370
    25
100
AcDbCircle
 10
183.2946376116
 20
139.6916079042
 30
0.0
 40
0.8000000000000114
100
AcDbArc
 50
0.0
 51
90.0
  0
LINE
  5
A4
330
1F
100
AcDbEntity
  8
0
  6
Continuous
 62
     7
370
    25
100
AcDbLine
 10
75.8446366877
 20
84.241609603
 30
0.0
 11
87.3946384878
 21
84.241609603
 31
0.0
  0
ARC
  5
A5
330
1F
100
AcDbEntity
  8
0
  6
Continuous
 62
     7
370
    25
100
AcDbCircle
 10
87.3946376116
 20
82.3416079042
 30
0.0
 40
1.90000000000002
100
AcDbArc
 50
35.6630613694
 51
90.0
  0
ARC
  5
A6
330
1F
100
AcDbEntity
  8
0
  6
Continuous
 62
     7
370
    25
100
AcDbCircle
 10
82.3946376116
 20
150.6416079042
 30
0.0
 40
1.899999999999986
100
AcDbArc
 50
270.0
 51
310.9212832533
  0
LINE
  5
A7
330
1F
100
AcDbEntity
  8
0
  6
Continuous
 62
     7
370
    25
100
AcDbLine
 10
75.8446366877
 20
148.7416062055
 30
0.0
 11
74.2453211338
 21
147.1422925142
 31
0.0
  0
LINE
  5
A8
330
1F
100
AcDbEntity
  8
0
  6
Continuous
 62
     7
370
    25
100
AcDbLine
 10
74.2461593241
 20
85.8400869666
 30
0.0
 11
75.8446366877
 21
84.241609603
 31
0.0
  0
LINE
  5
A9
330
1F
100
AcDbEntity
  8
0
  6
Continuous
 62
     7
370
    25
100
AcDbLine
 10
82.3946358056
 20
148.7416062055
 30
0.0
 11
75.8446366877
 21
148.7416062055
 31
0.0
  0
ARC
  5
AA
330
1F
100
AcDbEntity
  8
0
  6
Continuous
 62
     7
370
    25
100
AcDbCircle
 10
184.4946376116
 20
105.2416079042
 30
0.0
 40
0.6000000000000085
100
AcDbArc
 50
90.0
 51
131.8103148958
  0
ARC
  5
AB
330
1F
100
AcDbEntity
  8
0
  6
Continuous
 62
     7
370
    25
100
AcDbCircle
 10
184.4946376116
 20
127.7416079042
 30
0.0
 40
0.599999999999997
100
AcDbArc
 50
228.1896851042
 51
270.0
  0
ARC
  5
AC
330
1F
100
AcDbEntity
  8
0
  6
Continuous
 62
     7
370
    25
100
AcDbCircle
 10
202.2946376116
 20
106.2916079042
 30
0.0
 40
0.7999999999999972
100
AcDbArc
 50
270.0
 51
0.0
  0
ARC
  5
AD
330
1F
100
AcDbEntity
  8
0
  6
Continuous
 62
     7
370
    25
100
AcDbCircle
 10
202.2946376116
 20
126.6916079042
 30
0.0
 40
0.7999999999999972
100
AcDbArc
 50
0.0
 51
90.0
  0
LINE
  5
AE
330
1F
100
AcDbEntity
  8
0
  6
Continuous
 62
     7
370
    25
100
AcDbLine
 10
186.5946376116
 20
105.4916079638
 30
0.0
 11
202.2946351559
 21
105.4916079638
 31
0.0
  0
LINE
  5
AF
330
1F
100
AcDbEntity
  8
0
  6
Continuous
 62
     7
370
    25
100
AcDbLine
 10
202.2946351559
 20
127.4916078446
 30
0.0
 11
186.5946376116
 21
127.4916078446
 31
0.0
  0
LINE
  5
B0
330
1F
100
AcDbEntity
  8
0
  6
Continuous
 62
     7
370
    25
100
AcDbLine
 10
186.5946376116
 20
127.4916078446
 30
0.0
 11
185.3647181184
 21
127.1620528323
 31
0.0
  0
LINE
  5
B1
330
1F
100
AcDbEntity
  8
0
  6
Continuous
 62
     7
370
    25
100
AcDbLine
 10
185.3647181184
 20
105.8211629761
 30
0.0
 11
186.5946376116
 21
105.4916079638
 31
0.0
  0
ARC
  5
B2
330
1F
100
AcDbEntity
  8
0
  6
Continuous
 62
     7
370
    25
100
AcDbCircle
 10
185.2094283304
 20
105.2416079042
 30
0.0
 40
0.6000000000000085
100
AcDbArc
 50
75.0
 51
90.0
  0
ARC
  5
B3
330
1F
100
AcDbEntity
  8
0
  6
Continuous
 62
     7
370
    25
100
AcDbCircle
 10
185.2094283304
 20
127.7416079042
 30
0.0
 40
0.5999999999999924
100
AcDbArc
 50
270.0
 51
285.0
  0
LINE
  5
B4
330
1F
100
AcDbEntity
  8
0
  6
Continuous
 62
     7
370
    25
100
AcDbLine
 10
184.4946393163
 20
105.8416083006
 30
0.0
 11
185.2094293923
 21
105.8416083006
 31
0.0
  0
LINE
  5
B5
330
1F
100
AcDbEntity
  8
0
  6
Continuous
 62
     7
370
    25
100
AcDbLine
 10
185.2094293923
 20
127.1416075079
 30
0.0
 11
184.4946393163
 21
127.1416075079
 31
0.0
  0
LINE
  5
B6
330
1F
100
AcDbEntity
  8
0
  6
Continuous
 62
     7
370
    25
100
AcDbLine
 10
189.6946379335
 20
94.6294102369
 30
0.0
 11
189.6946379335
 21
103.491607636
 31
0.0
  0
LINE
  5
B7
330
1F
100
AcDbEntity
  8
0
  6
Continuous
 62
     7
370
    25
100
AcDbLine
 10
189.6946379335
 20
94.4916080234
 30
0.0
 11
189.6946379335
 21
94.6294102369
 31
0.0
  0
LINE
  5
B8
330
1F
100
AcDbEntity
  8
0
  6
Continuous
 62
     7
370
    25
100
AcDbLine
 10
189.6946379335
 20
129.4916081725
 30
0.0
 11
189.6946379335
 21
138.491607785
 31
0.0
  0
LINE
  5
B9
330
1F
100
AcDbEntity
  8
0
  6
Continuous
 62
     7
370
    25
100
AcDbLine
 10
218.0946343929
 20
122.9916080383
 30
0.0
 11
218.0946343929
 21
109.9916077701
 31
0.0
  0
LINE
  5
BA
330
1F
100
AcDbEntity
  8
0
  6
Continuous
 62
     7
370
    25
100
AcDbLine
 10
208.0946364791
 20
124.4916082842
 30
0.0
 11
208.0946364791
 21
108.4916075243
 31
0.0
  0
LINE
  5
BB
330
1F
100
AcDbEntity
  8
0
  6
Continuous
 62
     7
370
    25
100
AcDbLine
 10
142.1846379877
 20
70.1202187238
 30
0.0
 11
142.1846379877
 21
147.841609597
 31
0.0
  0
SPLINE
  5
BC
330
1F
100
AcDbEntity
  8
0
  6
Continuous
 62
     7
370
    25
100
AcDbSpline
210
0.0
220
0.0
230
1.0
 70
     8
 71
     3
 72
     8
 73
     4
 74
     0
 42
0.000000001
 43
0.00000001
 40
0.0
 40
0.0
 40
0.0
 40
0.0
 40
1.0
 40
1.0
 40
1.0
 40
1.0
 10
142.1846376115881
 20
70.12021961720909
 30
0.0
 10
141.7344111473103
 20
69.31876425458434
 30
0.0
 10
141.2837133200669
 20
68.51757424302366
 30
0.0
 10
140.8326085906667
 20
67.71661431120376
 30
0.0
  0
LINE
  5
BD
330
1F
100
AcDbEntity
  8
0
  6
Continuous
 62
     7
370
    25
100
AcDbLine
 10
140.8326090664
 20
67.7166129945
 30
0.0
 11
140.8326090664
 21
147.841609597
 31
0.0
  0
SPLINE
  5
BE
330
1F
100
AcDbEntity
  8
0
  6
Continuous
 62
     7
370
    25
100
AcDbSpline
210
0.0
220
0.0
230
1.0
 70
    24
 71
     3
 72
     8
 73
     4
 74
     0
 42
0.000000001
 43
0.00000001
 40
0.0
 40
0.0
 40
0.0
 40
0.0
 40
1.0
 40
1.0
 40
1.0
 40
1.0
 10
140.8326085906667
 20
147.8416079042326
 30
0.0
 10
141.2894101629949
 20
147.8416079042326
 30
0.0
 10
141.7404247292341
 20
147.8416079042326
 30
0.0
 10
142.1846376115881
 20
147.8416079042326
 30
0.0
  0
LINE
  5
BF
330
1F
100
AcDbEntity
  8
0
  6
Continuous
 62
     7
370
    25
100
AcDbLine
 10
129.0446375848
 20
147.841609597
 30
0.0
 11
140.8326090664
 21
147.841609597
 31
0.0
  0
LINE
  5
C0
330
1F
100
AcDbEntity
  8
0
  6
Continuous
 62
     7
370
    25
100
AcDbLine
 10
140.8326090664
 20
67.7166129945
 30
0.0
 11
139.0446373612
 21
67.7166129945
 31
0.0
  0
SPLINE
  5
C1
330
1F
100
AcDbEntity
  8
0
  6
Continuous
 62
     7
370
    25
100
AcDbSpline
210
0.0
220
0.0
230
1.0
 70
     8
 71
     3
 72
    30
 73
    26
 74
     0
 42
0.000000001
 43
0.00000001
 40
0.0
 40
0.0
 40
0.0
 40
0.0
 40
0.1249999999999998
 40
0.1249999999999998
 40
0.1874999999999996
 40
0.1874999999999996
 40
0.2499999999999995
 40
0.2499999999999995
 40
0.3749999999999994
 40
0.3749999999999994
 40
0.4374999999999993
 40
0.4374999999999993
 40
0.4999999999999992
 40
0.4999999999999992
 40
0.6249999999999996
 40
0.6249999999999996
 40
0.6874999999999997
 40
0.6874999999999997
 40
0.7499999999999998
 40
0.7499999999999998
 40
0.8124999999999999
 40
0.8124999999999999
 40
0.8749999999999999
 40
0.8749999999999999
 40
1.0
 40
1.0
 40
1.0
 40
1.0
 10
139.0446376115881
 20
67.71661431120377
 30
0.0
 10
138.381892917743
 20
67.71661431120377
 30
0.0
 10
137.7306370586273
 20
67.70177423461493
 30
0.0
 10
136.7701865203691
 20
67.65940467038534
 30
0.0
 10
136.4527950771361
 20
67.64192656760613
 30
0.0
 10
135.8236315755812
 20
67.60059828105388
 30
0.0
 10
135.5114833891395
 20
67.57667300759616
 30
0.0
 10
134.6041760872913
 20
67.49786649112924
 30
0.0
 10
134.03075112965
 20
67.43556047115275
 30
0.0
 10
133.2168742600753
 20
67.3324311509134
 30
0.0
 10
132.9520680635055
 20
67.2962472318669
 30
0.0
 10
132.4451606526911
 20
67.2224524476664
 30
0.0
 10
132.2037665013376
 20
67.18497858889475
 30
0.0
 10
131.5146250292053
 20
67.07226664555502
 30
0.0
 10
131.1015702143411
 20
66.99673054808125
 30
0.0
 10
130.553415394966
 20
66.88833729106375
 30
0.0
 10
130.3839527876204
 20
66.85326505940048
 30
0.0
 10
130.0759355396051
 20
66.78702959880063
 30
0.0
 10
129.9365555189967
 20
66.75570290204593
 30
0.0
 10
129.6867700063699
 20
66.697294130465
 30
0.0
 10
129.576363893716
 20
66.67021089528214
 30
0.0
 10
129.3851060400783
 20
66.62095114066854
 30
0.0
 10
129.303986521794
 20
66.5986891608609
 30
0.0
 10
129.1098396016856
 20
66.54112225369262
 30
0.0
 10
129.0446376115881
 20
66.51486264890661
 30
0.0
 10
129.0446376115881
 20
66.5016089044326
 30
0.0
  0
LINE
  5
C2
330
1F
100
AcDbEntity
  8
0
  6
Continuous
 62
     7
370
    25
100
AcDbLine
 10
129.0446375848
 20
66.5016095636
 30
0.0
 11
129.0446375848
 21
66.4916071592
 31
0.0
  0
SPLINE
  5
C3
330
1F
100
AcDbEntity
  8
0
  6
Continuous
 62
     7
370
    25
100
AcDbSpline
210
0.0
220
0.0
230
1.0
 70
     8
 71
     3
 72
    17
 73
    13
 74
     0
 42
0.000000001
 43
0.00000001
 40
0.0
 40
0.0
 40
0.0
 40
0.0
 40
0.1043843958185158
 40
0.2118345569819801
 40
0.3162081801235555
 40
0.4235375330682647
 40
0.5292275935501746
 40
0.6379275752951962
 40
0.7444714855043735
 40
0.8541836194561564
 40
0.959308052615968
 40
1.0
 40
1.0
 40
1.0
 40
1.0
 10
139.0446373612486
 20
165.4814030526052
 30
0.0
 10
138.4966988207349
 20
165.486770492938
 30
0.0
 10
137.3847288076607
 20
165.497663015102
 30
0.0
 10
135.7718734751381
 20
165.58284519892
 30
0.0
 10
134.2383603244004
 20
165.7092157022515
 30
0.0
 10
132.8473394360262
 20
165.8661195737604
 30
0.0
 10
131.6118223197281
 20
166.037814971196
 30
0.0
 10
130.5884671738717
 20
166.203159825406
 30
0.0
 10
129.7881245010127
 20
166.3468641232381
 30
0.0
 10
129.2777929482526
 20
166.4450281191699
 30
0.0
 10
129.0378841897932
 20
166.4929494336427
 30
0.0
 10
129.0698031015626
 20
166.486582925629
 30
0.0
 10
129.0787104868196
 20
166.4848062692056
 30
0.0
  0
LINE
  5
C4
330
1F
100
AcDbEntity
  8
0
  6
Continuous
 62
     7
370
    25
100
AcDbLine
 10
140.8326090664
 20
165.4814030526
 30
0.0
 11
139.0446373612
 21
165.4814030526
 31
0.0
  0
LINE
  5
C5
330
1F
100
AcDbEntity
  8
0
  6
Continuous
 62
     7
370
    25
100
AcDbLine
 10
140.8326090664
 20
155.4425689874
 30
0.0
 11
140.8326090664
 21
165.4814030526
 31
0.0
  0
LINE
  5
C6
330
1F
100
AcDbEntity
  8
0
  6
Continuous
 62
     7
370
    25
100
AcDbLine
 10
138.7526044042
 20
155.4425689874
 30
0.0
 11
140.8326090664
 21
155.4425689874
 31
0.0
  0
SPLINE
  5
C7
330
1F
100
AcDbEntity
  8
0
  6
Continuous
 62
     7
370
    25
100
AcDbSpline
210
0.0
220
0.0
230
1.0
 70
     8
 71
     3
 72
    22
 73
    18
 74
     0
 42
0.000000001
 43
0.00000001
 40
0.0
 40
0.0
 40
0.0
 40
0.0
 40
0.2500000000000009
 40
0.2500000000000009
 40
0.3750000000000009
 40
0.3750000000000009
 40
0.500000000000001
 40
0.500000000000001
 40
0.6250000000000009
 40
0.6250000000000009
 40
0.7500000000000007
 40
0.7500000000000007
 40
0.8750000000000004
 40
0.8750000000000004
 40
0.9375000000000002
 40
0.9375000000000002
 40
1.0
 40
1.0
 40
1.0
 40
1.0
 10
129.0446376115881
 20
147.8416079042326
 30
0.0
 10
129.2473625675072
 20
148.8608542460972
 30
0.0
 10
129.5621062893025
 20
149.8199623960365
 30
0.0
 10
130.2701617589735
 20
151.1624414735458
 30
0.0
 10
130.5486243891912
 20
151.5966500562858
 30
0.0
 10
131.1873917958283
 20
152.4082777717879
 30
0.0
 10
131.5478054756185
 20
152.7875580647247
 30
0.0
 10
132.3653377076078
 20
153.4905166437457
 30
0.0
 10
132.826505690895
 20
153.8155454614463
 30
0.0
 10
133.8244959373787
 20
154.3805607848372
 30
0.0
 10
134.364255131371
 20
154.6242643790438
 30
0.0
 10
135.5388480954023
 20
155.0284643066887
 30
0.0
 10
136.1505842813942
 20
155.1809014997342
 30
0.0
 10
137.1024935062559
 20
155.3362290473429
 30
0.0
 10
137.4257266705166
 20
155.375733827393
 30
0.0
 10
138.0847898417918
 20
155.4290429480617
 30
0.0
 10
138.4188538523659
 20
155.4425706651195
 30
0.0
 10
138.7526044597674
 20
155.4425706651195
 30
0.0
  0
SPLINE
  5
C8
330
1F
100
AcDbEntity
  8
0
  6
Continuous
 62
     7
370
    25
100
AcDbSpline
210
0.0
220
0.0
230
1.0
 70
    11
 71
     3
 72
    80
 73
    76
 74
     0
 42
0.000000001
 43
0.00000001
 40
0.0
 40
0.0
 40
0.0
 40
0.0
 40
0.0312500000000001
 40
0.0312500000000001
 40
0.0468750000000001
 40
0.0468750000000001
 40
0.0625000000000001
 40
0.0625000000000001
 40
0.0937499999999999
 40
0.0937499999999999
 40
0.1249999999999998
 40
0.1249999999999998
 40
0.1562499999999997
 40
0.1562499999999997
 40
0.1874999999999995
 40
0.1874999999999995
 40
0.2187499999999994
 40
0.2187499999999994
 40
0.2499999999999993
 40
0.2499999999999993
 40
0.2812499999999992
 40
0.2812499999999992
 40
0.3124999999999991
 40
0.3124999999999991
 40
0.328124999999999
 40
0.328124999999999
 40
0.3437499999999989
 40
0.3437499999999989
 40
0.374999999999999
 40
0.374999999999999
 40
0.4062499999999991
 40
0.4062499999999991
 40
0.4218749999999992
 40
0.4218749999999992
 40
0.4374999999999992
 40
0.4374999999999992
 40
0.4687499999999995
 40
0.4687499999999995
 40
0.4999999999999998
 40
0.4999999999999998
 40
0.53125
 40
0.53125
 40
0.5625000000000002
 40
0.5625000000000002
 40
0.5937500000000004
 40
0.5937500000000004
 40
0.6250000000000007
 40
0.6250000000000007
 40
0.6562500000000009
 40
0.6562500000000009
 40
0.6875000000000011
 40
0.6875000000000011
 40
0.7031250000000012
 40
0.7031250000000012
 40
0.7187500000000012
 40
0.7187500000000012
 40
0.7500000000000017
 40
0.7500000000000017
 40
0.7812500000000022
 40
0.7812500000000022
 40
0.7968750000000021
 40
0.7968750000000021
 40
0.8125000000000021
 40
0.8125000000000021
 40
0.8437500000000018
 40
0.8437500000000018
 40
0.8750000000000014
 40
0.8750000000000014
 40
0.9062500000000011
 40
0.9062500000000011
 40
0.9375000000000008
 40
0.9375000000000008
 40
0.9687500000000004
 40
0.9687500000000004
 40
1.0
 40
1.0
 40
1.0
 40
1.0
 10
133.0946376115881
 20
159.9062373678639
 30
0.0
 10
132.7640922988118
 20
159.9062373678639
 30
0.0
 10
132.4391121695601
 20
159.922445599246
 30
0.0
 10
131.9596387583137
 20
159.9698102312656
 30
0.0
 10
131.8011569404729
 20
159.9894644431562
 30
0.0
 10
131.4869374079686
 20
160.0365755993489
 30
0.0
 10
131.3308171242882
 20
160.0641569188436
 30
0.0
 10
130.8767630953316
 20
160.1566927056373
 30
0.0
 10
130.5896597123918
 20
160.2317631392339
 30
0.0
 10
130.0463051563648
 20
160.4070014478444
 30
0.0
 10
129.7892015451592
 20
160.5080027456827
 30
0.0
 10
129.3282952902204
 20
160.7253589441436
 30
0.0
 10
129.1213975810055
 20
160.8425232759158
 30
0.0
 10
128.7558722670133
 20
161.0925932001444
 30
0.0
 10
128.6006667448873
 20
161.2235392889034
 30
0.0
 10
128.3512363582876
 20
161.4892742326158
 30
0.0
 10
128.2551464025024
 20
161.6260278259268
 30
0.0
 10
128.1266275533089
 20
161.9000934007657
 30
0.0
 10
128.0948166831311
 20
162.0350334912345
 30
0.0
 10
128.0944600333578
 20
162.3005051283033
 30
0.0
 10
128.1269572855549
 20
162.4323296054446
 30
0.0
 10
128.2545827592693
 20
162.681779205065
 30
0.0
 10
128.3490111603213
 20
162.8002118969929
 30
0.0
 10
128.5368719803068
 20
162.9690810940871
 30
0.0
 10
128.60769997911
 20
163.0241670892073
 30
0.0
 10
128.7624218710753
 20
163.1294199176957
 30
0.0
 10
128.8463983412587
 20
163.179755146456
 30
0.0
 10
129.1177220109031
 20
163.3243309789941
 30
0.0
 10
129.3242712295054
 20
163.4121925654111
 30
0.0
 10
129.7908813696945
 20
163.5719136584106
 30
0.0
 10
130.0432469393199
 20
163.6411519548778
 30
0.0
 10
130.4491482809986
 20
163.7309393441076
 30
0.0
 10
130.5890488984761
 20
163.7585053061939
 30
0.0
 10
130.878272833723
 20
163.8089961071201
 30
0.0
 10
131.0281122900123
 20
163.8319595459708
 30
0.0
 10
131.4822288596231
 20
163.8925900623896
 30
0.0
 10
131.79388007836
 20
163.9226640911855
 30
0.0
 10
132.4348765432723
 20
163.9632536784441
 30
0.0
 10
132.7664041712245
 20
163.9735659086602
 30
0.0
 10
133.419195216296
 20
163.9736414758259
 30
0.0
 10
133.7437314213278
 20
163.9637398703582
 30
0.0
 10
134.3890008707442
 20
163.9232533398329
 30
0.0
 10
134.7047438769069
 20
163.8927920399483
 30
0.0
 10
135.3066331718906
 20
163.8126413685117
 30
0.0
 10
135.5973824027021
 20
163.7623591367046
 30
0.0
 10
136.1442941943866
 20
163.6416889539315
 30
0.0
 10
136.3960715582235
 20
163.5724650947615
 30
0.0
 10
136.8574595508447
 20
163.4150133671209
 30
0.0
 10
137.0687288304428
 20
163.3256648924471
 30
0.0
 10
137.4320331828189
 20
163.1324170217463
 30
0.0
 10
137.5858398312618
 20
163.028289029867
 30
0.0
 10
137.7744593008591
 20
162.8596646436835
 30
0.0
 10
137.8304897870682
 20
162.8010362420086
 30
0.0
 10
137.9260635488044
 20
162.6815813271824
 30
0.0
 10
137.9658264658294
 20
162.6206615383442
 30
0.0
 10
138.0615982161416
 20
162.4342568121703
 30
0.0
 10
138.0943210552676
 20
162.3051439943753
 30
0.0
 10
138.0949496415967
 20
162.0364870714194
 30
0.0
 10
138.062763496862
 20
161.9011163306626
 30
0.0
 10
137.9678527950064
 20
161.6975660224267
 30
0.0
 10
137.9283860116074
 20
161.6295940983632
 30
0.0
 10
137.8334560128866
 20
161.4935018752323
 30
0.0
 10
137.7776991851232
 20
161.4251517750229
 30
0.0
 10
137.5897590671533
 20
161.2244487619807
 30
0.0
 10
137.4363975974371
 20
161.0950604881681
 30
0.0
 10
137.0741333625568
 20
160.8463950561182
 30
0.0
 10
136.8632848890909
 20
160.72658541375
 30
0.0
 10
136.4026149187719
 20
160.5090631261774
 30
0.0
 10
136.1512405391881
 20
160.4099780263414
 30
0.0
 10
135.60533265229
 20
160.2333055524246
 30
0.0
 10
135.3145100776387
 20
160.1572484642906
 30
0.0
 10
134.7131834628587
 20
160.0344034869376
 30
0.0
 10
134.3986648782463
 20
159.9866973618844
 30
0.0
 10
133.7520834221264
 20
159.9224488267648
 30
0.0
 10
133.4251829243644
 20
159.9062373678638
 30
0.0
 10
133.0946376115881
 20
159.9062373678639
 30
0.0
  0
LINE
  5
C9
330
1F
100
AcDbEntity
  8
0
  6
Continuous
 62
     7
370
    25
100
AcDbLine
 10
147.3566671253
 20
67.7166129945
 30
0.0
 11
147.3566671253
 21
147.841609597
 31
0.0
  0
SPLINE
  5
CA
330
1F
100
AcDbEntity
  8
0
  6
Continuous
 62
     7
370
    25
100
AcDbSpline
210
0.0
220
0.0
230
1.0
 70
     8
 71
     3
 72
     8
 73
     4
 74
     0
 42
0.000000001
 43
0.00000001
 40
0.0
 40
0.0
 40
0.0
 40
0.0
 40
1.0
 40
1.0
 40
1.0
 40
1.0
 10
147.3566666325095
 20
67.71661431120377
 30
0.0
 10
146.9055619031092
 20
68.51757424302369
 30
0.0
 10
146.4548640758659
 20
69.31876425458434
 30
0.0
 10
146.0046376115881
 20
70.1202196172091
 30
0.0
  0
LINE
  5
CB
330
1F
100
AcDbEntity
  8
0
  6
Continuous
 62
     7
370
    25
100
AcDbLine
 10
146.0046382041
 20
70.1202187238
 30
0.0
 11
146.0046382041
 21
147.841609597
 31
0.0
  0
SPLINE
  5
CC
330
1F
100
AcDbEntity
  8
0
  6
Continuous
 62
     7
370
    25
100
AcDbSpline
210
0.0
220
0.0
230
1.0
 70
    24
 71
     3
 72
     8
 73
     4
 74
     0
 42
0.000000001
 43
0.00000001
 40
0.0
 40
0.0
 40
0.0
 40
0.0
 40
1.0
 40
1.0
 40
1.0
 40
1.0
 10
146.0046376115881
 20
147.8416079042326
 30
0.0
 10
146.448850493942
 20
147.8416079042326
 30
0.0
 10
146.8998650601812
 20
147.8416079042326
 30
0.0
 10
147.3566666325095
 20
147.8416079042326
 30
0.0
  0
LINE
  5
CD
330
1F
100
AcDbEntity
  8
0
  6
Continuous
 62
     7
370
    25
100
AcDbLine
 10
152.0446376295
 20
67.7166129945
 30
0.0
 11
147.3566671253
 21
67.7166129945
 31
0.0
  0
LINE
  5
CE
330
1F
100
AcDbEntity
  8
0
  6
Continuous
 62
     7
370
    25
100
AcDbLine
 10
147.3566671253
 20
147.841609597
 30
0.0
 11
152.0446376295
 21
147.841609597
 31
0.0
  0
LINE
  5
CF
330
1F
100
AcDbEntity
  8
0
  6
Continuous
 62
     7
370
    25
100
AcDbLine
 10
124.0946376116
 20
66.9916081725
 30
0.0
 11
124.0946376116
 21
165.991607636
 31
0.0
  0
LINE
  5
D0
330
1F
100
AcDbEntity
  8
0
  6
Continuous
 62
     7
370
    25
100
AcDbLine
 10
153.0446377934
 20
68.7422636447
 30
0.0
 11
153.0446377934
 21
147.841609597
 31
0.0
  0
SPLINE
  5
D1
330
1F
100
AcDbEntity
  8
0
  6
Continuous
 62
     7
370
    25
100
AcDbSpline
210
0.0
220
0.0
230
1.0
 70
     8
 71
     3
 72
    14
 73
    10
 74
     0
 42
0.000000001
 43
0.00000001
 40
0.0
 40
0.0
 40
0.0
 40
0.0
 40
0.25
 40
0.25
 40
0.5
 40
0.5
 40
0.75
 40
0.75
 40
1.0
 40
1.0
 40
1.0
 40
1.0
 10
153.0446376115881
 20
68.74226235897926
 30
0.0
 10
153.0446376115881
 20
68.60883666292472
 30
0.0
 10
153.0193265116772
 20
68.47698885508038
 30
0.0
 10
152.9209917478325
 20
68.23046630638626
 30
0.0
 10
152.8478477435764
 20
68.11666111814574
 30
0.0
 10
152.6644096824807
 20
67.92620394119845
 30
0.0
 10
152.5527233481421
 20
67.84856907734854
 30
0.0
 10
152.3102199178358
 20
67.74427766723606
 30
0.0
 10
152.1768454891416
 20
67.71661431120371
 30
0.0
 10
152.0446376115881
 20
67.71661431120373
 30
0.0
  0
SPLINE
  5
D2
330
1F
100
AcDbEntity
  8
0
  6
Continuous
 62
     7
370
    25
100
AcDbSpline
210
0.0
220
0.0
230
1.0
 70
    24
 71
     3
 72
    12
 73
     8
 74
     0
 42
0.000000001
 43
0.00000001
 40
0.0
 40
0.0
 40
0.0
 40
0.0
 40
0.2500000000000032
 40
0.2500000000000032
 40
0.5000000000000064
 40
0.5000000000000064
 40
1.0
 40
1.0
 40
1.0
 40
1.0
 10
152.0446376115881
 20
147.8416079042326
 30
0.0
 10
152.196727848533
 20
147.8416079042326
 30
0.0
 10
152.3451871096085
 20
147.8416079042326
 30
0.0
 10
152.6025907418742
 20
147.8416079042326
 30
0.0
 10
152.7116954897161
 20
147.8416079042326
 30
0.0
 10
152.9657549661237
 20
147.8416079042326
 30
0.0
 10
153.0446376115881
 20
147.8416079042326
 30
0.0
 10
153.0446376115881
 20
147.8416079042326
 30
0.0
  0
SPLINE
  5
D3
330
1F
100
AcDbEntity
  8
0
  6
Continuous
 62
     7
370
    25
100
AcDbSpline
210
0.0
220
0.0
230
1.0
 70
     8
 71
     3
 72
    14
 73
    10
 74
     0
 42
0.000000001
 43
0.00000001
 40
0.0
 40
0.0
 40
0.0
 40
0.0
 40
0.25
 40
0.25
 40
0.5
 40
0.5
 40
0.75
 40
0.75
 40
1.0
 40
1.0
 40
1.0
 40
1.0
 10
146.0046376115881
 20
71.02842912183769
 30
0.0
 10
146.0046376115881
 20
71.13547320283206
 30
0.0
 10
145.9845199244299
 20
71.2407083430745
 30
0.0
 10
145.9060287351643
 20
71.4385588299222
 30
0.0
 10
145.8478721103631
 20
71.52961059348712
 30
0.0
 10
145.701356854745
 20
71.68277668741189
 30
0.0
 10
145.612714306104
 20
71.74507113362131
 30
0.0
 10
145.4169909833036
 20
71.8298649191573
 30
0.0
 10
145.3117597922327
 20
71.85193244618291
 30
0.0
 10
145.2046376115881
 20
71.85193244618293
 30
0.0
  0
SPLINE
  5
D4
330
1F
100
AcDbEntity
  8
0
  6
Continuous
 62
     7
370
    25
100
AcDbSpline
210
0.0
220
0.0
230
1.0
 70
    24
 71
     3
 72
    14
 73
    10
 74
     0
 42
0.000000001
 43
0.00000001
 40
0.0
 40
0.0
 40
0.0
 40
0.0
 40
0.25
 40
0.25
 40
0.5
 40
0.5
 40
0.75
 40
0.75
 40
1.0
 40
1.0
 40
1.0
 40
1.0
 10
145.2046376115881
 20
147.8416079042326
 30
0.0
 10
145.3284073763532
 20
147.8416079042326
 30
0.0
 10
145.4527744803601
 20
147.8416079042326
 30
0.0
 10
145.6591309490862
 20
147.8416079042326
 30
0.0
 10
145.7444590925045
 20
147.8416079042326
 30
0.0
 10
145.8766511512197
 20
147.8416079042326
 30
0.0
 10
145.9252963949703
 20
147.8416079042326
 30
0.0
 10
145.9888321866991
 20
147.8416079042326
 30
0.0
 10
146.0046376115881
 20
147.8416079042326
 30
0.0
 10
146.0046376115881
 20
147.8416079042326
 30
0.0
  0
SPLINE
  5
D5
330
1F
100
AcDbEntity
  8
0
  6
Continuous
 62
     7
370
    25
100
AcDbSpline
210
0.0
220
0.0
230
1.0
 70
     8
 71
     3
 72
    12
 73
     8
 74
     0
 42
0.000000001
 43
0.00000001
 40
0.0
 40
0.0
 40
0.0
 40
0.0
 40
0.25
 40
0.25
 40
0.5
 40
0.5
 40
1.0
 40
1.0
 40
1.0
 40
1.0
 10
142.9846376115881
 20
71.85193244618293
 30
0.0
 10
142.8788769582391
 20
71.8519324461829
 30
0.0
 10
142.7708893300562
 20
71.8293929401825
 30
0.0
 10
142.5762946647906
 20
71.74482230818721
 30
0.0
 10
142.4874227519518
 20
71.68234065542842
 30
0.0
 10
142.2682304596259
 20
71.45295170395626
 30
0.0
 10
142.1846376115881
 20
71.24036836643387
 30
0.0
 10
142.1846376115881
 20
71.02842912183769
 30
0.0
  0
SPLINE
  5
D6
330
1F
100
AcDbEntity
  8
0
  6
Continuous
 62
     7
370
    25
100
AcDbSpline
210
0.0
220
0.0
230
1.0
 70
    24
 71
     3
 72
    14
 73
    10
 74
     0
 42
0.000000001
 43
0.00000001
 40
0.0
 40
0.0
 40
0.0
 40
0.0
 40
0.25
 40
0.25
 40
0.5
 40
0.5
 40
0.75
 40
0.75
 40
1.0
 40
1.0
 40
1.0
 40
1.0
 10
142.1846376115881
 20
147.8416079042326
 30
0.0
 10
142.1846376115881
 20
147.8416079042326
 30
0.0
 10
142.200351932054
 20
147.8416079042326
 30
0.0
 10
142.2640359105224
 20
147.8416079042326
 30
0.0
 10
142.3126391049329
 20
147.8416079042326
 30
0.0
 10
142.4453226273584
 20
147.8416079042326
 30
0.0
 10
142.5304247316691
 20
147.8416079042326
 30
0.0
 10
142.7368669665791
 20
147.8416079042326
 30
0.0
 10
142.8609479082022
 20
147.8416079042326
 30
0.0
 10
142.9846376115881
 20
147.8416079042326
 30
0.0
  0
LINE
  5
D7
330
1F
100
AcDbEntity
  8
0
  6
Continuous
 62
     7
370
    25
100
AcDbLine
 10
145.2046377004
 20
71.8519310949
 30
0.0
 11
142.9846384914
 21
71.8519310949
 31
0.0
  0
LINE
  5
D8
330
1F
100
AcDbEntity
  8
0
  6
Continuous
 62
     7
370
    25
100
AcDbLine
 10
142.9846384914
 20
147.841609597
 30
0.0
 11
145.2046377004
 21
147.841609597
 31
0.0
  0
LINE
  5
D9
330
1F
100
AcDbEntity
  8
0
  6
Continuous
 62
     7
370
    25
100
AcDbLine
 10
89.2946371228
 20
80.2275944052
 30
0.0
 11
89.2946371228
 21
82.622274339
 31
0.0
  0
SPLINE
  5
DA
330
1F
100
AcDbEntity
  8
0
  6
Continuous
 62
     7
370
    25
100
AcDbSpline
210
0.0
220
0.0
230
1.0
 70
     8
 71
     3
 72
    14
 73
    10
 74
     0
 42
0.000000001
 43
0.00000001
 40
0.0
 40
0.0
 40
0.0
 40
0.0
 40
0.25
 40
0.25
 40
0.5
 40
0.5
 40
0.75
 40
0.75
 40
1.0
 40
1.0
 40
1.0
 40
1.0
 10
88.29021514025112
 20
84.32512656048904
 30
0.0
 10
88.37898371819644
 20
84.1665924291811
 30
0.0
 10
88.50070155687536
 20
84.01414975229252
 30
0.0
 10
88.73575116673219
 20
83.7170151284636
 30
0.0
 10
88.85138135294908
 20
83.57233248484624
 30
0.0
 10
89.05178628637688
 20
83.28904328234283
 30
0.0
 10
89.13718657836122
 20
83.150489289306
 30
0.0
 10
89.25889221207845
 20
82.87910525927245
 30
0.0
 10
89.2946376115911
 20
82.74696939063783
 30
0.0
 10
89.29463761159109
 20
82.62227463886707
 30
0.0
  0
SPLINE
  5
DB
330
1F
100
AcDbEntity
  8
0
  6
Continuous
 62
     7
370
    25
100
AcDbSpline
210
0.0
220
0.0
230
1.0
 70
     8
 71
     3
 72
    14
 73
    10
 74
     0
 42
0.000000001
 43
0.00000001
 40
0.0
 40
0.0
 40
0.0
 40
0.0
 40
0.124999999999999
 40
0.124999999999999
 40
0.249999999999998
 40
0.249999999999998
 40
0.5000000000000007
 40
0.5000000000000007
 40
1.0
 40
1.0
 40
1.0
 40
1.0
 10
87.39463761158808
 20
84.95395649958914
 30
0.0
 10
87.46221991137257
 20
84.96111238469054
 30
0.0
 10
87.53470748912046
 20
84.95668791465152
 30
0.0
 10
87.66699859838641
 20
84.92698175688118
 30
0.0
 10
87.72427597777659
 20
84.90369747530295
 30
0.0
 10
87.87392640497687
 20
84.82621223545263
 30
0.0
 10
87.94763970049837
 20
84.76436040855125
 30
0.0
 10
88.13544768382461
 20
84.57968295590294
 30
0.0
 10
88.21948799018605
 20
84.45144003261174
 30
0.0
 10
88.29021514025234
 20
84.32512656048914
 30
0.0
  0
SPLINE
  5
DC
330
1F
100
AcDbEntity
  8
0
  6
Continuous
 62
     7
370
    25
100
AcDbSpline
210
0.0
220
0.0
230
1.0
 70
     8
 71
     3
 72
     8
 73
     4
 74
     0
 42
0.000000001
 43
0.00000001
 40
0.0
 40
0.0
 40
0.0
 40
0.0
 40
1.0
 40
1.0
 40
1.0
 40
1.0
 10
83.84999722350729
 20
84.53590791479738
 30
0.0
 10
85.01529553421616
 20
84.69109538668398
 30
0.0
 10
86.19991074825597
 20
84.82745402499431
 30
0.0
 10
87.39463761158805
 20
84.95395649958914
 30
0.0
  0
SPLINE
  5
DD
330
1F
100
AcDbEntity
  8
0
  6
Continuous
 62
     7
370
    25
100
AcDbSpline
210
0.0
220
0.0
230
1.0
 70
     8
 71
     3
 72
    14
 73
    10
 74
     0
 42
0.000000001
 43
0.00000001
 40
0.0
 40
0.0
 40
0.0
 40
0.0
 40
0.4999999999999972
 40
0.4999999999999972
 40
0.7499999999999971
 40
0.7499999999999971
 40
0.8749999999999986
 40
0.8749999999999986
 40
1.0
 40
1.0
 40
1.0
 40
1.0
 10
76.09456272755938
 20
84.24577573566744
 30
0.0
 10
77.40286429009313
 20
84.25279045940856
 30
0.0
 10
78.70792366474994
 20
84.26819903585306
 30
0.0
 10
80.65379971623827
 20
84.32209559131972
 30
0.0
 10
81.30049721997726
 20
84.34512715592243
 30
0.0
 10
82.2643395838316
 20
84.39606968079318
 30
0.0
 10
82.58457827576568
 20
84.41580460302636
 30
0.0
 10
83.22127350210809
 20
84.46529173149794
 30
0.0
 10
83.53798891039102
 20
84.49435651042717
 30
0.0
 10
83.84999722350733
 20
84.53590791479732
 30
0.0
  0
SPLINE
  5
DE
330
1F
100
AcDbEntity
  8
0
  6
Continuous
 62
     7
370
    25
100
AcDbSpline
210
0.0
220
0.0
230
1.0
 70
     8
 71
     3
 72
    12
 73
     8
 74
     0
 42
0.000000001
 43
0.00000001
 40
0.0
 40
0.0
 40
0.0
 40
0.0
 40
0.2500000000000009
 40
0.2500000000000009
 40
0.5000000000000018
 40
0.5000000000000018
 40
1.0
 40
1.0
 40
1.0
 40
1.0
 10
82.39463761158808
 20
148.578130795729
 30
0.0
 10
81.87593878975987
 20
148.6106535705772
 30
0.0
 10
81.35422721655489
 20
148.6339503117477
 30
0.0
 10
80.30793520005933
 20
148.6717958261698
 30
0.0
 10
79.78326357438905
 20
148.6860643006659
 30
0.0
 10
78.20641755184984
 20
148.7202737881242
 30
0.0
 10
77.15146223730291
 20
148.7317732920682
 30
0.0
 10
76.09456272755769
 20
148.7374400727977
 30
0.0
  0
SPLINE
  5
DF
330
1F
100
AcDbEntity
  8
0
  6
Continuous
 62
     7
370
    25
100
AcDbSpline
210
0.0
220
0.0
230
1.0
 70
     8
 71
     3
 72
    20
 73
    16
 74
     0
 42
0.000000001
 43
0.00000001
 40
0.0
 40
0.0
 40
0.0
 40
0.0
 40
0.2500000000000011
 40
0.2500000000000011
 40
0.5000000000000021
 40
0.5000000000000021
 40
0.7500000000000031
 40
0.7500000000000031
 40
0.8750000000000008
 40
0.8750000000000008
 40
0.9375000000000006
 40
0.9375000000000006
 40
0.9687500000000003
 40
0.9687500000000003
 40
1.0
 40
1.0
 40
1.0
 40
1.0
 10
84.29463761158807
 20
150.2362166412171
 30
0.0
 10
84.29463761158806
 20
150.1005343214703
 30
0.0
 10
84.24592582237145
 20
149.9594473353303
 30
0.0
 10
84.07676439914627
 20
149.6673756165997
 30
0.0
 10
83.95498398522794
 20
149.5157268745093
 30
0.0
 10
83.65743689047844
 20
149.2133184343562
 30
0.0
 10
83.48352428477565
 20
149.0607297982329
 30
0.0
 10
83.16410945089383
 20
148.8354590343906
 30
0.0
 10
83.04906867544658
 20
148.7607359398799
 30
0.0
 10
82.84198435143016
 20
148.6613255306229
 30
0.0
 10
82.76587651662376
 20
148.6297604382783
 30
0.0
 10
82.63448197707044
 20
148.5953170540853
 30
0.0
 10
82.58792875806897
 20
148.5862654823177
 30
0.0
 10
82.49159540698825
 20
148.5760898334792
 30
0.0
 10
82.44233598363282
 20
148.5751400748042
 30
0.0
 10
82.39463761158608
 20
148.5781307957188
 30
0.0
  0
LINE
  5
E0
330
1F
100
AcDbEntity
  8
0
  6
Continuous
 62
     7
370
    25
100
AcDbLine
 10
84.2946381659
 20
150.236215025
 30
0.0
 11
84.2946381659
 21
152.5051217077
 31
0.0
  0
LINE
  5
E1
330
1F
100
AcDbEntity
  8
0
  6
Continuous
 62
     7
370
    25
100
AcDbLine
 10
121.5946376675
 20
78.6093581019
 30
0.0
 11
121.5946376675
 21
154.3738577066
 31
0.0
  0
SPLINE
  5
E2
330
1F
100
AcDbEntity
  8
0
  6
Continuous
 62
     7
370
    25
100
AcDbSpline
210
0.0
220
0.0
230
1.0
 70
     8
 71
     3
 72
    24
 73
    20
 74
     0
 42
0.000000001
 43
0.00000001
 40
0.0
 40
0.0
 40
0.0
 40
0.0
 40
0.0002934239329635
 40
0.0628079954843725
 40
0.1260453886222317
 40
0.1890746649056576
 40
0.2513200327496127
 40
0.3133304381321615
 40
0.3759158074016681
 40
0.4383740215105411
 40
0.5000631209931454
 40
0.5616593985498132
 40
0.6245050468179062
 40
0.6872231543007362
 40
0.7494953203649202
 40
0.811758388799549
 40
0.8747365576758938
 40
0.937898032705022
 40
1.0
 40
1.0
 40
1.0
 40
1.0
 10
102.61459326156
 20
79.56036138514382
 30
0.0
 10
102.6143987177773
 20
79.5603376878832
 30
0.0
 10
102.5727562215216
 20
79.5552652405808
 30
0.0
 10
102.7177794336944
 20
79.5737065307269
 30
0.0
 10
103.0728966607129
 20
79.6163088594937
 30
0.0
 10
103.6774622143489
 20
79.68441919282006
 30
0.0
 10
104.4838993727546
 20
79.757684506148
 30
0.0
 10
105.4693764827759
 20
79.8222001094567
 30
0.0
 10
106.6010456241581
 20
79.86076702473599
 30
0.0
 10
107.8233385378205
 20
79.86445632658281
 30
0.0
 10
109.0906676837808
 20
79.82203790018866
 30
0.0
 10
110.3571529268777
 20
79.73378303393714
 30
0.0
 10
111.5732910577385
 20
79.60539742670613
 30
0.0
 10
112.6987004833542
 20
79.4527497000362
 30
0.0
 10
113.6761186765722
 20
79.29097931867119
 30
0.0
 10
114.4793833570898
 20
79.13844688219476
 30
0.0
 10
115.0678767661213
 20
79.01443324343388
 30
0.0
 10
115.4567835026067
 20
78.92951165228327
 30
0.0
 10
115.503544318977
 20
78.91878594397517
 30
0.0
 10
115.5267269701563
 20
78.91346845010621
 30
0.0
  0
SPLINE
  5
E3
330
1F
100
AcDbEntity
  8
0
  6
Continuous
 62
     7
370
    25
100
AcDbSpline
210
0.0
220
0.0
230
1.0
 70
     8
 71
     3
 72
    28
 73
    24
 74
     0
 42
0.000000001
 43
0.00000001
 40
0.0
 40
0.0
 40
0.0
 40
0.0
 40
0.0619954204046842
 40
0.125439665739045
 40
0.1886582276995361
 40
0.2510344261222279
 40
0.3131780142342784
 40
0.3756727882803813
 40
0.4382397656514662
 40
0.4998239542706552
 40
0.561538269183005
 40
0.6240926422433866
 40
0.6867524864368743
 40
0.7488657113183081
 40
0.8111002138904024
 40
0.8742083381874514
 40
0.9448182252690537
 40
0.9756075164325929
 40
0.9836978703883966
 40
0.9918081136858239
 40
0.9999434141267647
 40
0.9999502117625947
 40
1.0
 40
1.0
 40
1.0
 40
1.0
 10
115.5266058982216
 20
154.0697026548754
 30
0.0
 10
115.5030343072629
 20
154.0643930698319
 30
0.0
 10
115.4553402603236
 20
154.0536498154316
 30
0.0
 10
115.0632971669401
 20
153.9684229302559
 30
0.0
 10
114.4727845217702
 20
153.8438542492971
 30
0.0
 10
113.668746073641
 20
153.6909053391375
 30
0.0
 10
112.6926713074727
 20
153.529148136492
 30
0.0
 10
111.5708629937066
 20
153.3769147187029
 30
0.0
 10
110.3573313611661
 20
153.2491393643546
 30
0.0
 10
109.0925009184332
 20
153.1612908483515
 30
0.0
 10
107.8244575913077
 20
153.1189028111574
 30
0.0
 10
106.6009501216769
 20
153.1226418751293
 30
0.0
 10
105.4674514065392
 20
153.1612303825648
 30
0.0
 10
104.4813444484936
 20
153.2256767089575
 30
0.0
 10
103.6727233629789
 20
153.2991839692428
 30
0.0
 10
103.0524603673043
 20
153.3691602128897
 30
0.0
 10
102.7344230946927
 20
153.4076921029622
 30
0.0
 10
102.6419933713723
 20
153.4193630215331
 30
0.0
 10
102.62174276887
 20
153.4219360207383
 30
0.0
 10
102.6153393518148
 20
153.4227485253443
 30
0.0
 10
102.6140529279603
 20
153.4228971392016
 30
0.0
 10
102.6138935360187
 20
153.4229216683724
 30
0.0
 10
102.6139199540011
 20
153.4229176040464
 30
0.0
 10
102.613943198403
 20
153.4229140279661
 30
0.0
  0
SPLINE
  5
E4
330
1F
100
AcDbEntity
  8
0
  6
Continuous
 62
     7
370
    25
100
AcDbSpline
210
0.0
220
0.0
230
1.0
 70
     8
 71
     3
 72
    20
 73
    16
 74
     0
 42
0.000000001
 43
0.00000001
 40
0.0
 40
0.0
 40
0.0
 40
0.0
 40
0.249999999999986
 40
0.249999999999986
 40
0.3749999999999789
 40
0.3749999999999789
 40
0.4374999999999789
 40
0.4374999999999789
 40
0.4999999999999789
 40
0.4999999999999789
 40
0.6249999999999835
 40
0.6249999999999835
 40
0.7499999999999879
 40
0.7499999999999879
 40
1.0
 40
1.0
 40
1.0
 40
1.0
 10
74.48545184330409
 20
85.81312475153186
 30
0.0
 10
74.5117240605175
 20
85.83244269261432
 30
0.0
 10
74.54240420277233
 20
85.8468314037161
 30
0.0
 10
74.61387507315426
 20
85.83992704188009
 30
0.0
 10
74.64190211019859
 20
85.83276103853167
 30
0.0
 10
74.6969856996961
 20
85.80306201182808
 30
0.0
 10
74.71787702824854
 20
85.78958836926674
 30
0.0
 10
74.76308567569399
 20
85.75439010375074
 30
0.0
 10
74.78748988808955
 20
85.73248187502347
 30
0.0
 10
74.85882220614101
 20
85.66035701502791
 30
0.0
 10
74.90071899096127
 20
85.60801647407787
 30
0.0
 10
74.97229494981715
 20
85.51053308217712
 30
0.0
 10
75.00312293963447
 20
85.4637793122987
 30
0.0
 10
75.08622287247002
 20
85.33048609645958
 30
0.0
 10
75.13107777784032
 20
85.24784869854437
 30
0.0
 10
75.1711898532929
 20
85.16874180375359
 30
0.0
  0
SPLINE
  5
E5
330
1F
100
AcDbEntity
  8
0
  6
Continuous
 62
     7
370
    25
100
AcDbSpline
210
0.0
220
0.0
230
1.0
 70
     8
 71
     3
 72
    14
 73
    10
 74
     0
 42
0.000000001
 43
0.00000001
 40
0.0
 40
0.0
 40
0.0
 40
0.0
 40
0.25
 40
0.25
 40
0.5
 40
0.5
 40
0.75
 40
0.75
 40
1.0
 40
1.0
 40
1.0
 40
1.0
 10
74.19463761158809
 20
85.98893816166463
 30
0.0
 10
74.19463761158809
 20
85.94769123064029
 30
0.0
 10
74.20324732796935
 20
85.91078425835781
 30
0.0
 10
74.23433350753967
 20
85.8498841984584
 30
0.0
 10
74.25672306102373
 20
85.82570327891871
 30
0.0
 10
74.31146699219985
 20
85.79173568803546
 30
0.0
 10
74.34391723178504
 20
85.78181560406726
 30
0.0
 10
74.4139187465131
 20
85.78046439516241
 30
0.0
 10
74.45212924663566
 20
85.78862267185858
 30
0.0
 10
74.48545184330874
 20
85.81312475152666
 30
0.0
  0
LINE
  5
E6
330
1F
100
AcDbEntity
  8
0
  6
Continuous
 62
     7
370
    25
100
AcDbLine
 10
74.1946385593
 20
85.988938391
 30
0.0
 11
74.1946385593
 21
146.9942774175
 31
0.0
  0
SPLINE
  5
E7
330
1F
100
AcDbEntity
  8
0
  6
Continuous
 62
     7
370
    25
100
AcDbSpline
210
0.0
220
0.0
230
1.0
 70
     8
 71
     3
 72
     9
 73
     5
 74
     0
 42
0.000000001
 43
0.00000001
 40
0.0
 40
0.0
 40
0.0
 40
0.0
 40
0.0592942499244465
 40
1.0
 40
1.0
 40
1.0
 40
1.0
 10
74.48545334645135
 20
147.1700906304489
 30
0.0
 10
74.48057034875261
 20
147.1733837701467
 30
0.0
 10
74.39821838873999
 20
147.2289227086097
 30
0.0
 10
74.33208773432469
 20
147.1716305054969
 30
0.0
 10
74.26987824745997
 20
147.1177354005943
 30
0.0
  0
SPLINE
  5
E8
330
1F
100
AcDbEntity
  8
0
  6
Continuous
 62
     7
370
    25
100
AcDbSpline
210
0.0
220
0.0
230
1.0
 70
     8
 71
     3
 72
     8
 73
     4
 74
     0
 42
0.000000001
 43
0.00000001
 40
0.0
 40
0.0
 40
0.0
 40
0.0
 40
1.0
 40
1.0
 40
1.0
 40
1.0
 10
74.21827128052429
 20
147.1018571478702
 30
0.0
 10
74.20292224188823
 20
147.0713470928742
 30
0.0
 10
74.19463761158809
 20
147.0350355373619
 30
0.0
 10
74.19463761158809
 20
146.9942776468005
 30
0.0
  0
SPLINE
  5
E9
330
1F
100
AcDbEntity
  8
0
  6
Continuous
 62
     7
370
    25
100
AcDbSpline
210
0.0
220
0.0
230
1.0
 70
     8
 71
     3
 72
    20
 73
    16
 74
     0
 42
0.000000001
 43
0.00000001
 40
0.0
 40
0.0
 40
0.0
 40
0.0
 40
0.2500000000000037
 40
0.2500000000000037
 40
0.3750000000000055
 40
0.3750000000000055
 40
0.5000000000000073
 40
0.5000000000000073
 40
0.5625000000000057
 40
0.5625000000000057
 40
0.625000000000004
 40
0.625000000000004
 40
0.7500000000000027
 40
0.7500000000000027
 40
1.0
 40
1.0
 40
1.0
 40
1.0
 10
75.1711898532905
 20
147.8144740047107
 30
0.0
 10
75.13119363546666
 20
147.7355955981533
 30
0.0
 10
75.08608000762901
 20
147.6524659514618
 30
0.0
 10
75.00282579326247
 20
147.5189772871108
 30
0.0
 10
74.97260646464198
 20
147.4731122312289
 30
0.0
 10
74.90051822950056
 20
147.374920678824
 30
0.0
 10
74.85860091208949
 20
147.3226108593004
 30
0.0
 10
74.787350307538
 20
147.2506049565659
 30
0.0
 10
74.7631144951587
 20
147.2288347442643
 30
0.0
 10
74.71751630497405
 20
147.1933600859353
 30
0.0
 10
74.69671381537434
 20
147.1799899017577
 30
0.0
 10
74.64177281695522
 20
147.1504199896225
 30
0.0
 10
74.6137038288684
 20
147.1432934673205
 30
0.0
 10
74.54320099880557
 20
147.1364190958379
 30
0.0
 10
74.51177691101469
 20
147.150734254925
 30
0.0
 10
74.4854518433061
 20
147.1700910569356
 30
0.0
  0
SPLINE
  5
EA
330
1F
100
AcDbEntity
  8
0
  6
Continuous
 62
     7
370
    25
100
AcDbSpline
210
0.0
220
0.0
230
1.0
 70
     8
 71
     3
 72
    10
 73
     6
 74
     0
 42
0.000000001
 43
0.00000001
 40
0.0
 40
0.0
 40
0.0
 40
0.0
 40
0.4999999999999989
 40
0.4999999999999989
 40
1.0
 40
1.0
 40
1.0
 40
1.0
 10
75.84463761158808
 20
148.7398931060526
 30
0.0
 10
75.7197493408379
 20
148.6088968279811
 30
0.0
 10
75.59829922277744
 20
148.4651839913161
 30
0.0
 10
75.36871524782002
 20
148.1546136986269
 30
0.0
 10
75.25844027242404
 20
147.9865446255638
 30
0.0
 10
75.17118985329051
 20
147.8144740047107
 30
0.0
  0
SPLINE
  5
EB
330
1F
100
AcDbEntity
  8
0
  6
Continuous
 62
     7
370
    25
100
AcDbSpline
210
0.0
220
0.0
230
1.0
 70
     8
 71
     3
 72
     8
 73
     4
 74
     0
 42
0.000000001
 43
0.00000001
 40
0.0
 40
0.0
 40
0.0
 40
0.0
 40
1.0
 40
1.0
 40
1.0
 40
1.0
 10
76.09456272755382
 20
148.7374400727971
 30
0.0
 10
76.00754469770546
 20
148.7379066375842
 30
0.0
 10
75.92459067132552
 20
148.7389466571604
 30
0.0
 10
75.84463761158577
 20
148.7398931060526
 30
0.0
  0
SPLINE
  5
EC
330
1F
100
AcDbEntity
  8
0
  6
Continuous
 62
     7
370
    25
100
AcDbSpline
210
0.0
220
0.0
230
1.0
 70
     8
 71
     3
 72
     8
 73
     4
 74
     0
 42
0.000000001
 43
0.00000001
 40
0.0
 40
0.0
 40
0.0
 40
0.0
 40
1.0
 40
1.0
 40
1.0
 40
1.0
 10
75.84463761158577
 20
84.24332270241248
 30
0.0
 10
75.92459067132603
 20
84.24426915130476
 30
0.0
 10
76.00754469770654
 20
84.24530917088089
 30
0.0
 10
76.09456272755553
 20
84.24577573566795
 30
0.0
  0
SPLINE
  5
ED
330
1F
100
AcDbEntity
  8
0
  6
Continuous
 62
     7
370
    25
100
AcDbSpline
210
0.0
220
0.0
230
1.0
 70
     8
 71
     3
 72
    10
 73
     6
 74
     0
 42
0.000000001
 43
0.00000001
 40
0.0
 40
0.0
 40
0.0
 40
0.0
 40
0.4999999999999989
 40
0.4999999999999989
 40
1.0
 40
1.0
 40
1.0
 40
1.0
 10
75.17118985328958
 20
85.16874180375616
 30
0.0
 10
75.25844027242307
 20
84.9966711829028
 30
0.0
 10
75.36871524781921
 20
84.82860210983937
 30
0.0
 10
75.59829922277706
 20
84.51803181714953
 30
0.0
 10
75.7197493408377
 20
84.37431898048426
 30
0.0
 10
75.84463761158808
 20
84.24332270241256
 30
0.0
  0
LINE
  5
EE
330
1F
100
AcDbEntity
  8
0
  6
Continuous
 62
     7
370
    25
100
AcDbLine
 10
152.0446376295
 20
165.4814030526
 30
0.0
 11
147.3566671253
 21
165.4814030526
 31
0.0
  0
LINE
  5
EF
330
1F
100
AcDbEntity
  8
0
  6
Continuous
 62
     7
370
    25
100
AcDbLine
 10
147.3566671253
 20
155.4425689874
 30
0.0
 11
152.0446376295
 21
155.4425689874
 31
0.0
  0
LINE
  5
F0
330
1F
100
AcDbEntity
  8
0
  6
Continuous
 62
     7
370
    25
100
AcDbLine
 10
147.3566671253
 20
155.4425689874
 30
0.0
 11
147.3566671253
 21
165.4814030526
 31
0.0
  0
SPLINE
  5
F1
330
1F
100
AcDbEntity
  8
0
  6
Continuous
 62
     7
370
    25
100
AcDbSpline
210
0.0
220
0.0
230
1.0
 70
     8
 71
     3
 72
    12
 73
     8
 74
     0
 42
0.000000001
 43
0.00000001
 40
0.0
 40
0.0
 40
0.0
 40
0.0
 40
0.500000000000007
 40
0.500000000000007
 40
0.7500000000000034
 40
0.7500000000000034
 40
1.0
 40
1.0
 40
1.0
 40
1.0
 10
153.0446376115881
 20
164.4603477250784
 30
0.0
 10
153.0446376115881
 20
164.7256171578448
 30
0.0
 10
152.9400308681016
 20
164.9881322634972
 30
0.0
 10
152.6633625163563
 20
165.2736698695344
 30
0.0
 10
152.5529972570043
 20
165.3499914863959
 30
0.0
 10
152.3089252083886
 20
165.454333651236
 30
0.0
 10
152.1771727470569
 20
165.4814027598961
 30
0.0
 10
152.0446376115881
 20
165.4814027598962
 30
0.0
  0
SPLINE
  5
F2
330
1F
100
AcDbEntity
  8
0
  6
Continuous
 62
     7
370
    25
100
AcDbSpline
210
0.0
220
0.0
230
1.0
 70
     8
 71
     3
 72
    16
 73
    12
 74
     0
 42
0.000000001
 43
0.00000001
 40
0.0
 40
0.0
 40
0.0
 40
0.0
 40
0.1249999999999978
 40
0.1249999999999978
 40
0.2499999999999955
 40
0.2499999999999955
 40
0.499999999999997
 40
0.499999999999997
 40
0.7499999999999984
 40
0.7499999999999984
 40
1.0
 40
1.0
 40
1.0
 40
1.0
 10
152.0446376115881
 20
155.4425706651195
 30
0.0
 10
152.1202753179993
 20
155.4425706651195
 30
0.0
 10
152.1965909824175
 20
155.4312256649846
 30
0.0
 10
152.3410017203094
 20
155.388573114346
 30
0.0
 10
152.4094481694179
 20
155.3576387896632
 30
0.0
 10
152.604379422031
 20
155.2383824178956
 30
0.0
 10
152.7122205958119
 20
155.128230404275
 30
0.0
 10
152.880933344024
 20
154.8800943186169
 30
0.0
 10
152.9432977567475
 20
154.7397519946133
 30
0.0
 10
153.0246016812559
 20
154.4514803031246
 30
0.0
 10
153.0446376115881
 20
154.3006753301448
 30
0.0
 10
153.0446376115881
 20
154.1503054387995
 30
0.0
  0
LINE
  5
F3
330
1F
100
AcDbEntity
  8
0
  6
Continuous
 62
     7
370
    25
100
AcDbLine
 10
153.0446377934
 20
154.1503067611
 30
0.0
 11
153.0446377934
 21
164.4603494106
 31
0.0
  0
SPLINE
  5
F4
330
1F
100
AcDbEntity
  8
0
  6
Continuous
 62
     7
370
    25
100
AcDbSpline
210
0.0
220
0.0
230
1.0
 70
     8
 71
     3
 72
     8
 73
     4
 74
     0
 42
0.000000001
 43
0.00000001
 40
0.0
 40
0.0
 40
0.0
 40
0.0
 40
1.0
 40
1.0
 40
1.0
 40
1.0
 10
142.1846376115881
 20
163.0888787649374
 30
0.0
 10
141.7343293759035
 20
163.8865938900511
 30
0.0
 10
141.2836355593799
 20
164.6840921897083
 30
0.0
 10
140.8326085906667
 20
165.4814027598962
 30
0.0
  0
LINE
  5
F5
330
1F
100
AcDbEntity
  8
0
  6
Continuous
 62
     7
370
    25
100
AcDbLine
 10
142.1846379877
 20
152.3870560823
 30
0.0
 11
142.1846379877
 21
163.0888800619
 31
0.0
  0
SPLINE
  5
F6
330
1F
100
AcDbEntity
  8
0
  6
Continuous
 62
     7
370
    25
100
AcDbSpline
210
0.0
220
0.0
230
1.0
 70
     8
 71
     3
 72
     8
 73
     4
 74
     0
 42
0.000000001
 43
0.00000001
 40
0.0
 40
0.0
 40
0.0
 40
0.0
 40
1.0
 40
1.0
 40
1.0
 40
1.0
 10
140.8326085906667
 20
155.4425706651195
 30
0.0
 10
141.2895349444662
 20
154.4266526954452
 30
0.0
 10
141.7407405862693
 20
153.4078568663541
 30
0.0
 10
142.1846376115881
 20
152.3870554103704
 30
0.0
  0
LINE
  5
F7
330
1F
100
AcDbEntity
  8
0
  6
Continuous
 62
     7
370
    25
100
AcDbLine
 10
142.1846379877
 20
152.3870560823
 30
0.0
 11
142.1846379877
 21
151.2058447597
 31
0.0
  0
SPLINE
  5
F8
330
1F
100
AcDbEntity
  8
0
  6
Continuous
 62
     7
370
    25
100
AcDbSpline
210
0.0
220
0.0
230
1.0
 70
     8
 71
     3
 72
    14
 73
    10
 74
     0
 42
0.000000001
 43
0.00000001
 40
0.0
 40
0.0
 40
0.0
 40
0.0
 40
0.25
 40
0.25
 40
0.5
 40
0.5
 40
0.75
 40
0.75
 40
1.0
 40
1.0
 40
1.0
 40
1.0
 10
142.1846376115881
 20
151.2058430967296
 30
0.0
 10
142.1846376115881
 20
151.0819762199404
 30
0.0
 10
142.2004967392157
 20
150.9577165431029
 30
0.0
 10
142.2638583847356
 20
150.720108180697
 30
0.0
 10
142.3124480927849
 20
150.6033277959446
 30
0.0
 10
142.4447336975598
 20
150.3945252673356
 30
0.0
 10
142.5300584888204
 20
150.300014563743
 30
0.0
 10
142.7369497371265
 20
150.1620577629407
 30
0.0
 10
142.8609176830165
 20
150.120139317305
 30
0.0
 10
142.9846376115881
 20
150.120139317305
 30
0.0
  0
LINE
  5
F9
330
1F
100
AcDbEntity
  8
0
  6
Continuous
 62
     7
370
    25
100
AcDbLine
 10
142.9846384914
 20
150.1201387046
 30
0.0
 11
145.2046377004
 21
150.1201387046
 31
0.0
  0
SPLINE
  5
FA
330
1F
100
AcDbEntity
  8
0
  6
Continuous
 62
     7
370
    25
100
AcDbSpline
210
0.0
220
0.0
230
1.0
 70
     8
 71
     3
 72
    12
 73
     8
 74
     0
 42
0.000000001
 43
0.00000001
 40
0.0
 40
0.0
 40
0.0
 40
0.0
 40
0.250000000000002
 40
0.250000000000002
 40
0.500000000000004
 40
0.500000000000004
 40
1.0
 40
1.0
 40
1.0
 40
1.0
 10
145.2046376115881
 20
150.120139317305
 30
0.0
 10
145.328338561568
 20
150.120139317305
 30
0.0
 10
145.4524351738382
 20
150.1621329290376
 30
0.0
 10
145.6590903369253
 20
150.299928255682
 30
0.0
 10
145.7441311036521
 20
150.3939018541468
 30
0.0
 10
145.9436096721257
 20
150.7086900603678
 30
0.0
 10
146.0046376115881
 20
150.9589290525954
 30
0.0
 10
146.0046376115881
 20
151.2058430967296
 30
0.0
  0
LINE
  5
FB
330
1F
100
AcDbEntity
  8
0
  6
Continuous
 62
     7
370
    25
100
AcDbLine
 10
146.0046382041
 20
151.2058447597
 30
0.0
 11
146.0046382041
 21
152.3870560823
 31
0.0
  0
SPLINE
  5
FC
330
1F
100
AcDbEntity
  8
0
  6
Continuous
 62
     7
370
    25
100
AcDbSpline
210
0.0
220
0.0
230
1.0
 70
     8
 71
     3
 72
     8
 73
     4
 74
     0
 42
0.000000001
 43
0.00000001
 40
0.0
 40
0.0
 40
0.0
 40
0.0
 40
1.0
 40
1.0
 40
1.0
 40
1.0
 10
146.0046376115881
 20
152.3870554103704
 30
0.0
 10
146.4487876226136
 20
153.408438641322
 30
0.0
 10
146.8998619328715
 20
154.4269231780904
 30
0.0
 10
147.3566666325095
 20
155.4425706651195
 30
0.0
  0
LINE
  5
FD
330
1F
100
AcDbEntity
  8
0
  6
Continuous
 62
     7
370
    25
100
AcDbLine
 10
153.0446377934
 20
154.1503067611
 30
0.0
 11
153.0446377934
 21
147.841609597
 31
0.0
  0
SPLINE
  5
FE
330
1F
100
AcDbEntity
  8
0
  6
Continuous
 62
     7
370
    25
100
AcDbSpline
210
0.0
220
0.0
230
1.0
 70
     8
 71
     3
 72
    14
 73
    10
 74
     0
 42
0.000000001
 43
0.00000001
 40
0.0
 40
0.0
 40
0.0
 40
0.0
 40
0.25
 40
0.25
 40
0.5
 40
0.5
 40
0.75
 40
0.75
 40
1.0
 40
1.0
 40
1.0
 40
1.0
 10
146.0046376115881
 20
162.1851591450805
 30
0.0
 10
146.0046376115881
 20
162.0788024513282
 30
0.0
 10
145.9842500554469
 20
161.9729619635681
 30
0.0
 10
145.9056157099853
 20
161.7763970500316
 30
0.0
 10
145.8468843503467
 20
161.6852263077445
 30
0.0
 10
145.7002754447441
 20
161.5333152187129
 30
0.0
 10
145.6108701247176
 20
161.4712463818933
 30
0.0
 10
145.4169793921173
 20
161.3879783341346
 30
0.0
 10
145.3104744022274
 20
161.365883664405
 30
0.0
 10
145.2046376115881
 20
161.365883664405
 30
0.0
  0
SPLINE
  5
FF
330
1F
100
AcDbEntity
  8
0
  6
Continuous
 62
     7
370
    25
100
AcDbSpline
210
0.0
220
0.0
230
1.0
 70
     8
 71
     3
 72
     8
 73
     4
 74
     0
 42
0.000000001
 43
0.00000001
 40
0.0
 40
0.0
 40
0.0
 40
0.0
 40
1.0
 40
1.0
 40
1.0
 40
1.0
 10
147.3566666325095
 20
165.4814027598962
 30
0.0
 10
146.9056396637962
 20
164.6840921897083
 30
0.0
 10
146.4549458472727
 20
163.886593890051
 30
0.0
 10
146.0046376115881
 20
163.0888787649374
 30
0.0
  0
LINE
  5
100
330
1F
100
AcDbEntity
  8
0
  6
Continuous
 62
     7
370
    25
100
AcDbLine
 10
146.0046382041
 20
152.3870560823
 30
0.0
 11
146.0046382041
 21
163.0888800619
 31
0.0
  0
SPLINE
  5
101
330
1F
100
AcDbEntity
  8
0
  6
Continuous
 62
     7
370
    25
100
AcDbSpline
210
0.0
220
0.0
230
1.0
 70
     8
 71
     3
 72
    10
 73
     6
 74
     0
 42
0.000000001
 43
0.00000001
 40
0.0
 40
0.0
 40
0.0
 40
0.0
 40
0.5
 40
0.5
 40
1.0
 40
1.0
 40
1.0
 40
1.0
 10
142.9846376115881
 20
161.365883664405
 30
0.0
 10
142.7721012977318
 20
161.365883664405
 30
0.0
 10
142.5621651260777
 20
161.4572962510352
 30
0.0
 10
142.2684579850664
 20
161.7620411169394
 30
0.0
 10
142.1846376115881
 20
161.974196086848
 30
0.0
 10
142.1846376115881
 20
162.1851591450805
 30
0.0
  0
LINE
  5
102
330
1F
100
AcDbEntity
  8
0
  6
Continuous
 62
     7
370
    25
100
AcDbLine
 10
145.2046377004
 20
161.3658848701
 30
0.0
 11
142.9846384914
 21
161.3658848701
 31
0.0
  0
ARC
  5
103
330
1F
100
AcDbEntity
  8
0
  6
Continuous
 62
     7
370
    25
100
AcDbCircle
 10
133.0947072491
 20
149.0049670879
 30
0.0
 40
11.50133381952761
100
AcDbArc
 50
77.9648077839
 51
102.0536907446
  0
SPLINE
  5
104
330
1F
100
AcDbEntity
  8
0
  6
Continuous
 62
     7
370
    25
100
AcDbSpline
210
0.0
220
0.0
230
1.0
 70
    11
 71
     3
 72
    74
 73
    70
 74
     0
 42
0.000000001
 43
0.00000001
 40
0.0
 40
0.0
 40
0.0
 40
0.0
 40
0.0312500000000002
 40
0.0312500000000002
 40
0.0625000000000003
 40
0.0625000000000003
 40
0.0937500000000005
 40
0.0937500000000005
 40
0.1250000000000007
 40
0.1250000000000007
 40
0.1562500000000009
 40
0.1562500000000009
 40
0.1875000000000011
 40
0.1875000000000011
 40
0.2187500000000012
 40
0.2187500000000012
 40
0.2500000000000014
 40
0.2500000000000014
 40
0.2812500000000016
 40
0.2812500000000016
 40
0.3125000000000017
 40
0.3125000000000017
 40
0.3437500000000019
 40
0.3437500000000019
 40
0.3750000000000021
 40
0.3750000000000021
 40
0.4062500000000023
 40
0.4062500000000023
 40
0.4218750000000021
 40
0.4218750000000021
 40
0.437500000000002
 40
0.437500000000002
 40
0.4687500000000018
 40
0.4687500000000018
 40
0.5000000000000016
 40
0.5000000000000016
 40
0.5312500000000013
 40
0.5312500000000013
 40
0.5625000000000011
 40
0.5625000000000011
 40
0.593750000000001
 40
0.593750000000001
 40
0.6250000000000008
 40
0.6250000000000008
 40
0.6562500000000007
 40
0.6562500000000007
 40
0.6875000000000004
 40
0.6875000000000004
 40
0.7187500000000003
 40
0.7187500000000003
 40
0.7500000000000001
 40
0.7500000000000001
 40
0.78125
 40
0.78125
 40
0.8124999999999999
 40
0.8124999999999999
 40
0.8437499999999997
 40
0.8437499999999997
 40
0.8749999999999996
 40
0.8749999999999996
 40
0.9062499999999993
 40
0.9062499999999993
 40
0.9218749999999994
 40
0.9218749999999994
 40
0.9374999999999996
 40
0.9374999999999996
 40
0.9687499999999998
 40
0.9687499999999998
 40
1.0
 40
1.0
 40
1.0
 40
1.0
 10
172.7159215527934
 20
116.4916079042326
 30
0.0
 10
172.7159215527934
 20
116.1588061166152
 30
0.0
 10
172.7516568596381
 20
115.8323701380619
 30
0.0
 10
172.891128175561
 20
115.1915858983949
 30
0.0
 10
172.9968677517904
 20
114.873865253158
 30
0.0
 10
173.268642024211
 20
114.2762248363582
 30
0.0
 10
173.4342797693008
 20
113.9942691091523
 30
0.0
 10
173.824213797952
 20
113.4633045653641
 30
0.0
 10
174.0464535725172
 20
113.2181394344304
 30
0.0
 10
174.5304674452082
 20
112.7791756735094
 30
0.0
 10
174.7964540698818
 20
112.5816310583717
 30
0.0
 10
175.3600262644222
 20
112.2412524205249
 30
0.0
 10
175.6548006742354
 20
112.099375439066
 30
0.0
 10
176.2693371121653
 20
111.8695750139357
 30
0.0
 10
176.5917653081371
 20
111.7816055618265
 30
0.0
 10
177.2384867558206
 20
111.6659864986253
 30
0.0
 10
177.5649737199535
 20
111.6370631760553
 30
0.0
 10
178.2242216755506
 20
111.6370584628382
 30
0.0
 10
178.556712928769
 20
111.6667409942554
 30
0.0
 10
179.2016326050051
 20
111.7826520511096
 30
0.0
 10
179.5174727616311
 20
111.8687075708924
 30
0.0
 10
180.1353795982236
 20
112.0996595591221
 30
0.0
 10
180.4335900307429
 20
112.2437382518234
 30
0.0
 10
180.9916689820217
 20
112.5810719951976
 30
0.0
 10
181.2542509316524
 20
112.7752450477725
 30
0.0
 10
181.7440336366082
 20
113.2190379019897
 30
0.0
 10
181.9637426132906
 20
113.4621166218085
 30
0.0
 10
182.2534750113309
 20
113.8557343766702
 30
0.0
 10
182.3435204871737
 20
113.9919462681006
 30
0.0
 10
182.5100807660354
 20
114.2747906174856
 30
0.0
 10
182.5870019457278
 20
114.4224110351337
 30
0.0
 10
182.7920821173668
 20
114.8726774658851
 30
0.0
 10
182.8956353798334
 20
115.1829860510542
 30
0.0
 10
183.0364166840225
 20
115.8239863129516
 30
0.0
 10
183.0729870560811
 20
116.1579374547243
 30
0.0
 10
183.0737146446738
 20
116.8150963670572
 30
0.0
 10
183.0392321745666
 20
117.1415994124222
 30
0.0
 10
182.8988164268572
 20
117.7903568577813
 30
0.0
 10
182.7946006425588
 20
118.1033466080744
 30
0.0
 10
182.5241717475352
 20
118.7003659520248
 30
0.0
 10
182.3552198224104
 20
118.9884225591337
 30
0.0
 10
181.9670831568913
 20
119.517375657163
 30
0.0
 10
181.7479687621347
 20
119.7599870274333
 30
0.0
 10
181.2606287986486
 20
120.2028039372878
 30
0.0
 10
180.99469982987
 20
120.4001126855707
 30
0.0
 10
180.4351784698263
 20
120.7387148953585
 30
0.0
 10
180.1375152175473
 20
120.8826455841975
 30
0.0
 10
179.518549065128
 20
121.1142178162321
 30
0.0
 10
179.2021963028494
 20
121.2004579211286
 30
0.0
 10
178.5562969467546
 20
121.3165541005179
 30
0.0
 10
178.223379671124
 20
121.3461976122929
 30
0.0
 10
177.564449454647
 20
121.3461122723852
 30
0.0
 10
177.2380457024156
 20
121.3171767298857
 30
0.0
 10
176.5913483310867
 20
121.2015093954143
 30
0.0
 10
176.2686960310829
 20
121.1134268484443
 30
0.0
 10
175.6546970496844
 20
120.8837758081613
 30
0.0
 10
175.3605816668333
 20
120.7421685342702
 30
0.0
 10
174.7989190429691
 20
120.4032031100241
 30
0.0
 10
174.5313271066539
 20
120.2046813718687
 30
0.0
 10
174.0479169007599
 20
119.7665412484186
 30
0.0
 10
173.8287060615145
 20
119.5252187674769
 30
0.0
 10
173.5356908914066
 20
119.1274280562683
 30
0.0
 10
173.4440754038383
 20
118.9886320628438
 30
0.0
 10
173.277648175464
 20
118.705580900871
 30
0.0
 10
173.202192247054
 20
118.5605160828221
 30
0.0
 10
172.9989916016225
 20
118.1147072864389
 30
0.0
 10
172.8937183402893
 20
117.8014214334973
 30
0.0
 10
172.7517076571563
 20
117.1531487592844
 30
0.0
 10
172.7159215527934
 20
116.8244096918499
 30
0.0
 10
172.7159215527934
 20
116.4916079042326
 30
0.0
  0
SPLINE
  5
105
330
1F
100
AcDbEntity
  8
0
  6
Continuous
 62
     7
370
    25
100
AcDbSpline
210
0.0
220
0.0
230
1.0
 70
    11
 71
     3
 72
    68
 73
    64
 74
     0
 42
0.000000001
 43
0.00000001
 40
0.0
 40
0.0
 40
0.0
 40
0.0
 40
0.0312499999999998
 40
0.0312499999999998
 40
0.0624999999999997
 40
0.0624999999999997
 40
0.0937499999999995
 40
0.0937499999999995
 40
0.1249999999999994
 40
0.1249999999999994
 40
0.1562499999999992
 40
0.1562499999999992
 40
0.1874999999999991
 40
0.1874999999999991
 40
0.2187499999999989
 40
0.2187499999999989
 40
0.2499999999999988
 40
0.2499999999999988
 40
0.2812499999999985
 40
0.2812499999999985
 40
0.3124999999999983
 40
0.3124999999999983
 40
0.343749999999998
 40
0.343749999999998
 40
0.3749999999999977
 40
0.3749999999999977
 40
0.4062499999999974
 40
0.4062499999999974
 40
0.4374999999999972
 40
0.4374999999999972
 40
0.4687499999999969
 40
0.4687499999999969
 40
0.4999999999999967
 40
0.4999999999999967
 40
0.5312499999999964
 40
0.5312499999999964
 40
0.5624999999999961
 40
0.5624999999999961
 40
0.6249999999999967
 40
0.6249999999999967
 40
0.6562499999999969
 40
0.6562499999999969
 40
0.6874999999999972
 40
0.6874999999999972
 40
0.7187499999999974
 40
0.7187499999999974
 40
0.7499999999999978
 40
0.7499999999999978
 40
0.7812499999999981
 40
0.7812499999999981
 40
0.8124999999999983
 40
0.8124999999999983
 40
0.8437499999999987
 40
0.8437499999999987
 40
0.8749999999999989
 40
0.8749999999999989
 40
0.9062499999999992
 40
0.9062499999999992
 40
0.9374999999999996
 40
0.9374999999999996
 40
0.9687499999999998
 40
0.9687499999999998
 40
1.0
 40
1.0
 40
1.0
 40
1.0
 10
163.3525456392967
 20
134.8188438520998
 30
0.0
 10
163.5013131615891
 20
134.9231040817677
 30
0.0
 10
163.6635210238781
 20
135.0148716694116
 30
0.0
 10
164.0122132983517
 20
135.1769696526588
 30
0.0
 10
164.2004848918407
 20
135.2477606611153
 30
0.0
 10
164.5929327575211
 20
135.366032683421
 30
0.0
 10
164.7955612663093
 20
135.4133350619928
 30
0.0
 10
165.2130796714832
 20
135.4860609103713
 30
0.0
 10
165.4298217062128
 20
135.5114722842595
 30
0.0
 10
165.8617809616536
 20
135.5390600388091
 30
0.0
 10
166.0780557895616
 20
135.5416121271791
 30
0.0
 10
166.5111939609027
 20
135.5243506320053
 30
0.0
 10
166.7294993953507
 20
135.5041547083985
 30
0.0
 10
167.1509633278833
 20
135.4418263293523
 30
0.0
 10
167.3558707634682
 20
135.3997789720009
 30
0.0
 10
167.7537160711758
 20
135.2925980669319
 30
0.0
 10
167.9477956878702
 20
135.226733071667
 30
0.0
 10
168.3073707623725
 20
135.0748702512663
 30
0.0
 10
168.4748416323828
 20
134.9885441171875
 30
0.0
 10
168.7835524976656
 20
134.7925707709676
 30
0.0
 10
168.9250547943807
 20
134.6820060097852
 30
0.0
 10
169.1653280566365
 20
134.4453464550824
 30
0.0
 10
169.2662148363821
 20
134.3181979200147
 30
0.0
 10
169.4258843726547
 20
134.0436238864769
 30
0.0
 10
169.482927727967
 20
133.8978478149932
 30
0.0
 10
169.5461369378081
 20
133.6004247308936
 30
0.0
 10
169.5530396365702
 20
133.4451685313869
 30
0.0
 10
169.5151353453196
 20
133.1342970368973
 30
0.0
 10
169.4712634757466
 20
132.9804995482434
 30
0.0
 10
169.3353552537575
 20
132.6764879433434
 30
0.0
 10
169.2433264764561
 20
132.527699112597
 30
0.0
 10
169.0213362330373
 20
132.2478900096422
 30
0.0
 10
168.8889804340485
 20
132.113887931972
 30
0.0
 10
168.5941366755668
 20
131.8684727597686
 30
0.0
 10
168.4322321581246
 20
131.7569169190314
 30
0.0
 10
168.0810507521728
 20
131.5558389453928
 30
0.0
 10
167.8923924629666
 20
131.4670870712746
 30
0.0
 10
167.30717424631
 20
131.2435603945901
 30
0.0
 10
166.8790422601872
 20
131.1474157968487
 30
0.0
 10
166.2327334321064
 20
131.0930338764952
 30
0.0
 10
166.0140007799
 20
131.0893702252327
 30
0.0
 10
165.5773137370812
 20
131.1119612717934
 30
0.0
 10
165.3629816663103
 20
131.1378589592416
 30
0.0
 10
164.942165776717
 20
131.217952154841
 30
0.0
 10
164.7342721062042
 20
131.2726344202351
 30
0.0
 10
164.3333838468915
 20
131.4098361825892
 30
0.0
 10
164.143333118364
 20
131.4911006486496
 30
0.0
 10
163.7841734019994
 20
131.6783388862506
 30
0.0
 10
163.6135566869903
 20
131.7854585016321
 30
0.0
 10
163.303069277915
 20
132.0211199436169
 30
0.0
 10
163.1650291830453
 20
132.1478177338849
 30
0.0
 10
162.9245972210001
 20
132.4185829117232
 30
0.0
 10
162.8211756457091
 20
132.5648726675487
 30
0.0
 10
162.6624550713013
 20
132.863652484451
 30
0.0
 10
162.6063897828757
 20
133.0158920165926
 30
0.0
 10
162.5428635615226
 20
133.3257774520929
 30
0.0
 10
162.5363828616591
 20
133.483170431053
 30
0.0
 10
162.5743915530121
 20
133.7857686533378
 30
0.0
 10
162.6190727854412
 20
133.9348269286282
 30
0.0
 10
162.755972044847
 20
134.2176705937738
 30
0.0
 10
162.8468285644284
 20
134.3501089738081
 30
0.0
 10
163.0707410075576
 20
134.5989195641617
 30
0.0
 10
163.2037781170042
 20
134.714583622432
 30
0.0
 10
163.3525456392967
 20
134.8188438520998
 30
0.0
  0
SPLINE
  5
106
330
1F
100
AcDbEntity
  8
0
  6
Continuous
 62
     7
370
    25
100
AcDbSpline
210
0.0
220
0.0
230
1.0
 70
    11
 71
     3
 72
    70
 73
    66
 74
     0
 42
0.000000001
 43
0.00000001
 40
0.0
 40
0.0
 40
0.0
 40
0.0
 40
0.0312499999999996
 40
0.0312499999999996
 40
0.0624999999999993
 40
0.0624999999999993
 40
0.0937499999999992
 40
0.0937499999999992
 40
0.1249999999999992
 40
0.1249999999999992
 40
0.1562499999999991
 40
0.1562499999999991
 40
0.1874999999999991
 40
0.1874999999999991
 40
0.218749999999999
 40
0.218749999999999
 40
0.249999999999999
 40
0.249999999999999
 40
0.2812499999999989
 40
0.2812499999999989
 40
0.3124999999999989
 40
0.3124999999999989
 40
0.3437499999999989
 40
0.3437499999999989
 40
0.3749999999999988
 40
0.3749999999999988
 40
0.4062499999999989
 40
0.4062499999999989
 40
0.437499999999999
 40
0.437499999999999
 40
0.4687499999999991
 40
0.4687499999999991
 40
0.4999999999999992
 40
0.4999999999999992
 40
0.5312499999999993
 40
0.5312499999999993
 40
0.5624999999999993
 40
0.5624999999999993
 40
0.5937499999999994
 40
0.5937499999999994
 40
0.6249999999999996
 40
0.6249999999999996
 40
0.6562499999999996
 40
0.6562499999999996
 40
0.6874999999999997
 40
0.6874999999999997
 40
0.7187499999999998
 40
0.7187499999999998
 40
0.7499999999999998
 40
0.7499999999999998
 40
0.7812499999999999
 40
0.7812499999999999
 40
0.8125
 40
0.8125
 40
0.8437500000000001
 40
0.8437500000000001
 40
0.8750000000000001
 40
0.8750000000000001
 40
0.9062500000000001
 40
0.9062500000000001
 40
0.9375000000000001
 40
0.9375000000000001
 40
0.96875
 40
0.96875
 40
1.0
 40
1.0
 40
1.0
 40
1.0
 10
162.5562364081134
 20
99.70188113447216
 30
0.0
 10
162.5762326713257
 20
99.85833267752017
 30
0.0
 10
162.6213045171247
 20
100.0120840590815
 30
0.0
 10
162.758179488267
 20
100.3141393338969
 30
0.0
 10
162.8512884942605
 20
100.463382548745
 30
0.0
 10
163.0746712096087
 20
100.7426128614781
 30
0.0
 10
163.2059764769025
 20
100.8747696065838
 30
0.0
 10
163.5031782173521
 20
101.1206886464708
 30
0.0
 10
163.6655885795412
 20
101.2317570744425
 30
0.0
 10
164.0157795319637
 20
101.431110848463
 30
0.0
 10
164.2052430902961
 20
101.5198092208959
 30
0.0
 10
164.5963535656247
 20
101.6681985957545
 30
0.0
 10
164.7990073838019
 20
101.7287226241402
 30
0.0
 10
165.2182251934915
 20
101.8223669818723
 30
0.0
 10
165.4344785999987
 20
101.8550596065323
 30
0.0
 10
165.8653119336741
 20
101.89051253345
 30
0.0
 10
166.0818271391732
 20
101.8937685319955
 30
0.0
 10
166.5170991146172
 20
101.8707196842165
 30
0.0
 10
166.734040402709
 20
101.844231513468
 30
0.0
 10
167.1543164217787
 20
101.7635302098628
 30
0.0
 10
167.3594917900978
 20
101.7092598868972
 30
0.0
 10
167.7593859981692
 20
101.5719645605444
 30
0.0
 10
167.9517721344659
 20
101.4894319560969
 30
0.0
 10
168.3101123514384
 20
101.3018977605368
 30
0.0
 10
168.4778379247679
 20
101.1963432661957
 30
0.0
 10
168.7882002350071
 20
100.9603850086513
 30
0.0
 10
168.9277453087462
 20
100.8319250131191
 30
0.0
 10
169.1670582816338
 20
100.5614730212191
 30
0.0
 10
169.268448515608
 20
100.4180359514314
 30
0.0
 10
169.42822651078
 20
100.1165624374574
 30
0.0
 10
169.4838138196933
 20
99.96403748594778
 30
0.0
 10
169.54645841177
 20
99.65594850029933
 30
0.0
 10
169.5528974695628
 20
99.49835431340689
 30
0.0
 10
169.5143885764621
 20
99.19525960223255
 30
0.0
 10
169.4703503615873
 20
99.04858715342135
 30
0.0
 10
169.3327617584026
 20
98.76453425761517
 30
0.0
 10
169.2413845118062
 20
98.63182519147581
 30
0.0
 10
169.0185175419645
 20
98.38437959858976
 30
0.0
 10
168.8854530672365
 20
98.26874733937552
 30
0.0
 10
168.5909571983763
 20
98.06206623641208
 30
0.0
 10
168.428713867087
 20
97.96975452534193
 30
0.0
 10
168.0751753265217
 20
97.80533471624418
 30
0.0
 10
167.8883794042465
 20
97.73535814684526
 30
0.0
 10
167.4978935280804
 20
97.61762380641122
 30
0.0
 10
167.2920427388862
 20
97.56948022648719
 30
0.0
 10
166.8722098792892
 20
97.4965715516623
 30
0.0
 10
166.6592891689006
 20
97.47173228126442
 30
0.0
 10
166.2276160351226
 20
97.44416429358573
 30
0.0
 10
166.0068196296356
 20
97.44161032293911
 30
0.0
 10
165.5726779073093
 20
97.45925306456103
 30
0.0
 10
165.3587210682244
 20
97.47917369664152
 30
0.0
 10
164.937049827846
 20
97.54161974655447
 30
0.0
 10
164.7274391106225
 20
97.58477495143502
 30
0.0
 10
164.3292832489895
 20
97.69258585656337
 30
0.0
 10
164.1396171989584
 20
97.75715278882798
 30
0.0
 10
163.7797665008627
 20
97.90936629080413
 30
0.0
 10
163.6080664265112
 20
97.99820150839732
 30
0.0
 10
163.3001392557416
 20
98.19472186505635
 30
0.0
 10
163.1623840547102
 20
98.30268937959067
 30
0.0
 10
162.9215464399426
 20
98.54056898393081
 30
0.0
 10
162.8184355431739
 20
98.67167499452248
 30
0.0
 10
162.6612273534901
 20
98.94466526346854
 30
0.0
 10
162.6052406599235
 20
99.08796517767365
 30
0.0
 10
162.5422060355384
 20
99.38987365383296
 30
0.0
 10
162.5362401449011
 20
99.54542959142411
 30
0.0
 10
162.5562364081134
 20
99.70188113447213
 30
0.0
  0
LINE
  5
107
330
1F
100
AcDbEntity
  8
0
  6
Continuous
 62
     7
370
    25
100
AcDbLine
 10
184.0946362705
 20
93.2916081993
 30
0.0
 11
184.0946362705
 21
139.6916076092
 31
0.0
  0
LWPOLYLINE
  5
108
330
1F
100
AcDbEntity
  8
0
  6
Continuous
 62
     7
370
    25
100
AcDbPolyline
 90
       23
 70
   128
 43
0.0
 10
166.044636199
 20
131.286155015
 10
166.7489693851
 20
131.3577625451
 10
167.3962385745
 20
131.5667820645
 10
167.9340103061
 20
131.8962811975
 10
168.3187173099
 20
132.319565445
 10
168.519190082
 20
132.8023425786
 10
168.519190082
 20
133.305502638
 10
168.3187173099
 20
133.7882797716
 10
167.9340103061
 20
134.2115640191
 10
167.3962385745
 20
134.5410622207
 10
166.7489693851
 20
134.7500826714
 10
166.044636199
 20
134.8216902016
 10
165.3403067381
 20
134.7500826714
 10
164.6930338235
 20
134.5410622207
 10
164.1552620918
 20
134.2115640191
 10
163.7705588133
 20
133.7882797716
 10
163.5700823159
 20
133.305502638
 10
163.5700823159
 20
132.8023425786
 10
163.7705588133
 20
132.319565445
 10
164.1552620918
 20
131.8962811975
 10
164.6930338235
 20
131.5667820645
 10
165.3403067381
 20
131.3577625451
 10
166.044636199
 20
131.286155015
  0
LWPOLYLINE
  5
109
330
1F
100
AcDbEntity
  8
0
  6
Continuous
 62
     7
370
    25
100
AcDbPolyline
 90
       23
 70
   128
 43
0.0
 10
166.044636199
 20
98.1615256069
 10
166.7489693851
 20
98.233133137
 10
167.3962385745
 20
98.4421535877
 10
167.9340103061
 20
98.7716517893
 10
168.3187173099
 20
99.1949360369
 10
168.519190082
 20
99.6777131704
 10
168.519190082
 20
100.1808732299
 10
168.3187173099
 20
100.6636503635
 10
167.9340103061
 20
101.086934611
 10
167.3962385745
 20
101.4164337439
 10
166.7489693851
 20
101.6254532633
 10
166.044636199
 20
101.6970607934
 10
165.3403067381
 20
101.6254532633
 10
164.6930338235
 20
101.4164337439
 10
164.1552620918
 20
101.086934611
 10
163.7705588133
 20
100.6636503635
 10
163.5700823159
 20
100.1808732299
 10
163.5700823159
 20
99.6777131704
 10
163.7705588133
 20
99.1949360369
 10
164.1552620918
 20
98.7716517893
 10
164.6930338235
 20
98.4421535877
 10
165.3403067381
 20
98.233133137
 10
166.044636199
 20
98.1615256069
  0
LINE
  5
10A
330
1F
100
AcDbEntity
  8
0
  6
Continuous
 62
     7
370
    25
100
AcDbLine
 10
75.8446366877
 20
84.241609603
 30
0.0
 11
75.8446366877
 21
84.2433232365
 31
0.0
  0
LINE
  5
10B
330
1F
100
AcDbEntity
  8
0
  6
Continuous
 62
     7
370
    25
100
AcDbLine
 10
75.8446366877
 20
148.7416062055
 30
0.0
 11
75.8446366877
 21
148.739892572
 31
0.0
  0
LINE
  5
10C
330
1F
100
AcDbEntity
  8
0
  6
Continuous
 62
     7
370
    25
100
AcDbLine
 10
203.0946412475
 20
106.2916075362
 30
0.0
 11
203.0946412475
 21
126.691607341
 31
0.0
  0
LINE
  5
10D
330
1F
100
AcDbEntity
  8
0
  6
Continuous
 62
     7
370
    25
100
AcDbLine
 10
186.5946376116
 20
105.4916079638
 30
0.0
 11
186.5946376116
 21
127.4916078446
 31
0.0
  0
LINE
  5
10E
330
1F
100
AcDbEntity
  8
0
  6
HIDDEN
 62
     7
370
    18
100
AcDbLine
 10
218.0946343929
 20
113.2416078372
 30
0.0
 11
218.0946343929
 21
122.9916080383
 31
0.0
  0
LINE
  5
10F
330
1F
100
AcDbEntity
  8
0
  6
HIDDEN
 62
     7
370
    18
100
AcDbLine
 10
218.0946343929
 20
109.9916077701
 30
0.0
 11
218.0946343929
 21
113.2416078372
 31
0.0
  0
LINE
  5
110
330
1F
100
AcDbEntity
  8
0
  6
HIDDEN
 62
     7
370
    18
100
AcDbLine
 10
208.0946364791
 20
112.4916077142
 30
0.0
 11
208.0946364791
 21
124.4916082842
 31
0.0
  0
LINE
  5
111
330
1F
100
AcDbEntity
  8
0
  6
HIDDEN
 62
     7
370
    18
100
AcDbLine
 10
208.0946364791
 20
108.4916075243
 30
0.0
 11
208.0946364791
 21
112.4916077142
 31
0.0
  0
LINE
  5
112
330
1F
100
AcDbEntity
  8
0
  6
HIDDEN
 62
     7
370
    18
100
AcDbLine
 10
208.0946364791
 20
121.8800461402
 30
0.0
 11
208.0946364791
 21
111.1031696683
 31
0.0
  0
LINE
  5
113
330
1F
100
AcDbEntity
  8
0
  6
HIDDEN
 62
     7
370
    18
100
AcDbLine
 10
190.9226351769
 20
111.491608016
 30
0.0
 11
190.9226351769
 21
121.4916077925
 31
0.0
  0
LINE
  5
114
330
1F
100
AcDbEntity
  8
0
  6
HIDDEN
 62
     7
370
    18
100
AcDbLine
 10
190.094637254
 20
112.3196078015
 30
0.0
 11
190.094637254
 21
120.6636080069
 31
0.0
  0
LINE
  5
115
330
1F
100
AcDbEntity
  8
0
  6
HIDDEN
 62
     7
370
    18
100
AcDbLine
 10
218.0946343929
 20
112.4341078585
 30
0.0
 11
218.0946343929
 21
116.4916079042
 31
0.0
  0
LINE
  5
116
330
1F
100
AcDbEntity
  8
0
  6
HIDDEN
 62
     7
370
    18
100
AcDbLine
 10
213.0946391613
 20
112.4341078585
 30
0.0
 11
213.0946391613
 21
114.4628578814
 31
0.0
  0
LINE
  5
117
330
1F
100
AcDbEntity
  8
0
  6
HIDDEN
 62
     7
370
    18
100
AcDbLine
 10
213.0946391613
 20
114.4628578814
 30
0.0
 11
213.0946391613
 21
112.4341078585
 31
0.0
  0
LINE
  5
118
330
1F
100
AcDbEntity
  8
0
  6
HIDDEN
 62
     7
370
    18
100
AcDbLine
 10
213.0946391613
 20
118.5203579271
 30
0.0
 11
213.0946391613
 21
114.4628578814
 31
0.0
  0
LINE
  5
119
330
1F
100
AcDbEntity
  8
0
  6
HIDDEN
 62
     7
370
    18
100
AcDbLine
 10
213.0946391613
 20
120.54910795
 30
0.0
 11
213.0946391613
 21
118.5203579271
 31
0.0
  0
LINE
  5
11A
330
1F
100
AcDbEntity
  8
0
  6
HIDDEN
 62
     7
370
    18
100
AcDbLine
 10
213.0946391613
 20
118.5203579271
 30
0.0
 11
213.0946391613
 21
120.54910795
 31
0.0
  0
LINE
  5
11B
330
1F
100
AcDbEntity
  8
0
  6
HIDDEN
 62
     7
370
    18
100
AcDbLine
 10
213.0946391613
 20
114.4628578814
 30
0.0
 11
213.0946391613
 21
118.5203579271
 31
0.0
  0
LINE
  5
11C
330
1F
100
AcDbEntity
  8
0
  6
HIDDEN
 62
     7
370
    18
100
AcDbLine
 10
213.0946391613
 20
114.4628578814
 30
0.0
 11
213.0946391613
 21
116.4916079042
 31
0.0
  0
LINE
  5
11D
330
1F
100
AcDbEntity
  8
0
  6
HIDDEN
 62
     7
370
    18
100
AcDbLine
 10
213.0946391613
 20
118.5203579271
 30
0.0
 11
213.0946391613
 21
116.4916079042
 31
0.0
  0
LINE
  5
11E
330
1F
100
AcDbEntity
  8
0
  6
HIDDEN
 62
     7
370
    18
100
AcDbLine
 10
213.0946391613
 20
116.4916079042
 30
0.0
 11
218.0946343929
 21
116.4916079042
 31
0.0
  0
LINE
  5
11F
330
1F
100
AcDbEntity
  8
0
  6
HIDDEN
 62
     7
370
    18
100
AcDbLine
 10
218.0946343929
 20
120.54910795
 30
0.0
 11
218.0946343929
 21
116.4916079042
 31
0.0
  0
LINE
  5
120
330
1F
100
AcDbEntity
  8
0
  6
HIDDEN
 62
     7
370
    18
100
AcDbLine
 10
213.0946391613
 20
112.4341078585
 30
0.0
 11
213.0946391613
 21
114.4628578814
 31
0.0
  0
LINE
  5
121
330
1F
100
AcDbEntity
  8
0
  6
HIDDEN
 62
     7
370
    18
100
AcDbLine
 10
213.0946391613
 20
120.54910795
 30
0.0
 11
213.0946391613
 21
118.5203579271
 31
0.0
  0
LINE
  5
122
330
1F
100
AcDbEntity
  8
0
  6
HIDDEN
 62
     7
370
    18
100
AcDbLine
 10
213.0946391613
 20
112.4341078585
 30
0.0
 11
218.0946343929
 21
112.4341078585
 31
0.0
  0
LINE
  5
123
330
1F
100
AcDbEntity
  8
0
  6
HIDDEN
 62
     7
370
    18
100
AcDbLine
 10
213.0946391613
 20
120.54910795
 30
0.0
 11
218.0946343929
 21
120.54910795
 31
0.0
  0
LINE
  5
124
330
1F
100
AcDbEntity
  8
0
  6
HIDDEN
 62
     7
370
    18
100
AcDbLine
 10
203.0946412475
 20
121.4916077925
 30
0.0
 11
190.9226351769
 21
121.4916077925
 31
0.0
  0
LINE
  5
125
330
1F
100
AcDbEntity
  8
0
  6
HIDDEN
 62
     7
370
    18
100
AcDbLine
 10
190.9226351769
 20
111.491608016
 30
0.0
 11
203.0946412475
 21
111.491608016
 31
0.0
  0
LINE
  5
126
330
1F
100
AcDbEntity
  8
0
  6
HIDDEN
 62
     7
370
    18
100
AcDbLine
 10
190.9226351769
 20
121.4916077925
 30
0.0
 11
190.094637254
 21
120.6636080069
 31
0.0
  0
LINE
  5
127
330
1F
100
AcDbEntity
  8
0
  6
HIDDEN
 62
     7
370
    18
100
AcDbLine
 10
190.094637254
 20
112.3196078015
 30
0.0
 11
190.9226351769
 21
111.491608016
 31
0.0
  0
LINE
  5
128
330
1F
100
AcDbEntity
  8
0
  6
HIDDEN
 62
     7
370
    18
100
AcDbLine
 10
213.0946391613
 20
120.54910795
 30
0.0
 11
210.7520425112
 21
116.4916079042
 31
0.0
  0
LINE
  5
129
330
1F
100
AcDbEntity
  8
0
  6
HIDDEN
 62
     7
370
    18
100
AcDbLine
 10
210.7520425112
 20
116.4916079042
 30
0.0
 11
213.0946391613
 21
112.4341078585
 31
0.0
  0
DIMENSION
  5
12A
330
1F
100
AcDbEntity
  8
VERMASSUNG
100
AcDbDimension
  2
_D
 10
63.9441682506
 20
66.4916079042
 30
0.0
 11
63.9441682506
 21
116.4916079042
 31
0.0
 70
   160
  1
HSK A %%c<>
 71
     2
 42
-1.0
  3
SLDDIMSTYLE0
100
AcDbAlignedDimension
 13
124.5946376116
 23
166.4916079042
 33
0.0
 14
124.5946376116
 24
66.4916079042
 34
0.0
 50
90.0
100
AcDbRotatedDimension
  0
DIMENSION
  5
137
330
1F
100
AcDbEntity
  8
VERMASSUNG
100
AcDbDimension
  2
_D_1
 10
203.0946376116
 20
185.2140361108
 30
0.0
 11
138.6446376116
 21
185.2140361108
 31
0.0
 70
   160
  1
<>
 71
     2
 42
-1.0
  3
SLDDIMSTYLE0
100
AcDbAlignedDimension
 13
74.1946376116
 23
146.9942776468
 33
0.0
 14
203.0946376116
 24
122.5416079042
 34
0.0
100
AcDbRotatedDimension
  0
DIMENSION
  5
141
330
1F
100
AcDbEntity
  8
VERMASSUNG
100
AcDbDimension
  2
_D_2
 10
184.0946376116
 20
179.2140361108
 30
0.0
 11
154.0946376116
 21
179.2140361108
 31
0.0
 70
   160
  1
<>
 71
     2
 42
-1.0
  3
SLDDIMSTYLE0
100
AcDbAlignedDimension
 13
124.0946376116
 23
165.9916079042
 33
0.0
 14
184.0946376116
 24
139.6916079042
 34
0.0
100
AcDbRotatedDimension
  0
DIMENSION
  5
14B
330
1F
100
AcDbEntity
  8
VERMASSUNG
100
AcDbDimension
  2
_D_3
 10
184.0946376116
 20
173.2140361108
 30
0.0
 11
168.5696376116
 21
173.2140361108
 31
0.0
 70
   160
  1
<>
 71
     2
 42
-1.0
  3
SLDDIMSTYLE0
100
AcDbAlignedDimension
 13
153.0446376116
 23
164.4603477251
 33
0.0
 14
184.0946376116
 24
139.6916079042
 34
0.0
100
AcDbRotatedDimension
  0
DIMENSION
  5
155
330
1F
100
AcDbEntity
  8
VERMASSUNG
100
AcDbDimension
  2
_D_4
 10
203.0946376116
 20
173.2140361108
 30
0.0
 11
193.5946376116
 21
173.2140361108
 31
0.0
 70
   160
  1
<>
 71
     2
 42
-1.0
  3
SLDDIMSTYLE0
100
AcDbAlignedDimension
 13
184.0946376116
 23
139.6916079042
 33
0.0
 14
203.0946376116
 24
106.2916079042
 34
0.0
100
AcDbRotatedDimension
  0
DIMENSION
  5
15F
330
1F
100
AcDbEntity
  8
VERMASSUNG
100
AcDbDimension
  2
_D_5
 10
238.4030220424
 20
105.4916079042
 30
0.0
 11
238.4030220424
 21
116.4916079042
 31
0.0
 70
   160
  1
%%c<>
 71
     2
 42
-1.0
  3
SLDDIMSTYLE0
100
AcDbAlignedDimension
 13
202.2946376116
 23
127.4916079042
 33
0.0
 14
202.2946376116
 24
105.4916079042
 34
0.0
 50
90.0
100
AcDbRotatedDimension
  0
DIMENSION
  5
16A
330
1F
100
AcDbEntity
  8
VERMASSUNG
100
AcDbDimension
  2
_D_6
 10
244.4030220424
 20
92.4916079042
 30
0.0
 11
244.4030220424
 21
116.4916079042
 31
0.0
 70
   160
  1
%%c<>
 71
     2
 42
-1.0
  3
SLDDIMSTYLE0
100
AcDbAlignedDimension
 13
183.2946376116
 23
140.4916079042
 33
0.0
 14
183.2946376116
 24
92.4916079042
 34
0.0
 50
90.0
100
AcDbRotatedDimension
  0
DIMENSION
  5
175
330
1F
100
AcDbEntity
  8
VERMASSUNG
100
AcDbDimension
  2
_D_7
 10
231.3112877045
 20
112.4341079042
 30
0.0
 11
231.3112877045
 21
116.4916079042
 31
0.0
 70
   160
  1
SW<>
 71
     2
 42
-1.0
  3
SLDDIMSTYLE1
100
AcDbAlignedDimension
 13
218.0946376116
 23
120.5491079042
 33
0.0
 14
218.0946376116
 24
112.4341079042
 34
0.0
 50
90.0
100
AcDbRotatedDimension
  0
LINE
  5
181
330
1F
100
AcDbEntity
  8
VERMASSUNG
  6
CENTERX2
 62
     7
370
    18
100
AcDbLine
 10
71.9441682506
 20
116.4916079042
 30
0.0
 11
220.0946376116
 21
116.4916079042
 31
0.0
  0
SPLINE
  5
182
330
1F
100
AcDbEntity
  8
0
  6
Continuous
 62
     7
370
    25
100
AcDbSpline
210
0.0
220
0.0
230
1.0
 70
     8
 71
     3
 72
    21
 73
    17
 74
     0
 42
0.000000001
 43
0.00000001
 40
0.0
 40
0.0
 40
0.0
 40
0.0
 40
0.0102195436417664
 40
0.0828573148974802
 40
0.1552389641515627
 40
0.2304646249161663
 40
0.308495828034547
 40
0.3873862961287491
 40
0.466105313527489
 40
0.5447027684723228
 40
0.6234241901715664
 40
0.7024798226661112
 40
0.7821788996816267
 40
0.8626426387211319
 40
0.9341137685402948
 40
1.0
 40
1.0
 40
1.0
 40
1.0
 10
253.385118532196
 20
27.91945946467391
 30
0.0
 10
253.3989881663275
 20
27.90837143515598
 30
0.0
 10
253.5114394345083
 20
27.81847267004827
 30
0.0
 10
253.79316327515
 20
27.77101501811974
 30
0.0
 10
254.1922811712028
 20
27.78943025101658
 30
0.0
 10
254.6177067006886
 20
27.94331561187957
 30
0.0
 10
255.0465516604933
 20
28.21472087832142
 30
0.0
 10
255.4571012294953
 20
28.5958151144699
 30
0.0
 10
255.8221354102409
 20
29.06127051540069
 30
0.0
 10
256.1206906765847
 20
29.58338910588251
 30
0.0
 10
256.3362804204414
 20
30.13348101714043
 30
0.0
 10
256.4558214393331
 20
30.68241201145565
 30
0.0
 10
256.4704503056208
 20
31.20356939289357
 30
0.0
 10
256.373028367484
 20
31.6481432153326
 30
0.0
 10
256.1874812386518
 20
32.00644349707377
 30
0.0
 10
255.9946351335219
 20
32.14892906101175
 30
0.0
 10
255.902132605806
 20
32.21727513841073
 30
0.0
  0
LINE
  5
183
330
1F
100
AcDbEntity
  8
0
  6
Continuous
 62
     7
370
    25
100
AcDbLine
 10
251.5651925888
 20
28.9595723525
 30
0.0
 11
253.3683151105
 21
27.9186518773
 31
0.0
  0
LINE
  5
184
330
1F
100
AcDbEntity
  8
0
  6
Continuous
 62
     7
370
    25
100
AcDbLine
 10
255.8681118673
 20
32.2488960614
 30
0.0
 11
254.0649893455
 21
33.2898165366
 31
0.0
  0
SPLINE
  5
185
330
1F
100
AcDbEntity
  8
0
  6
Continuous
 62
     7
370
    25
100
AcDbSpline
210
0.0
220
0.0
230
1.0
 70
     8
 71
     3
 72
    15
 73
    11
 74
     0
 42
0.000000001
 43
0.00000001
 40
0.0
 40
0.0
 40
0.0
 40
0.0
 40
0.0924276236779496
 40
0.2255950863906378
 40
0.3589703287034559
 40
0.4929079908109508
 40
0.6279324589013631
 40
0.7642543673705751
 40
0.8853907970324685
 40
1.0
 40
1.0
 40
1.0
 40
1.0
 10
267.9323522255552
 20
35.89193700291435
 30
0.0
 10
268.018495834649
 20
35.99576147685772
 30
0.0
 10
268.2287530517254
 20
36.24917371701578
 30
0.0
 10
268.4919497081844
 20
36.72476603303154
 30
0.0
 10
268.7097591696059
 20
37.27260571739924
 30
0.0
 10
268.8296142161188
 20
37.82223279680357
 30
0.0
 10
268.845114063508
 20
38.34350486812036
 30
0.0
 10
268.7485629765677
 20
38.78875770638705
 30
0.0
 10
268.5619639792942
 20
39.15020556479043
 30
0.0
 10
268.3668414419857
 20
39.29492166739068
 30
0.0
 10
268.2719814090236
 20
39.36527629916302
 30
0.0
  0
LINE
  5
186
330
1F
100
AcDbEntity
  8
0
  6
Continuous
 62
     7
370
    25
100
AcDbLine
 10
268.2424805907
 20
39.3924670703
 30
0.0
 11
266.439358069
 21
40.4333875455
 31
0.0
  0
SPLINE
  5
187
330
1F
100
AcDbEntity
  8
0
  6
Continuous
 62
     7
370
    25
100
AcDbSpline
210
0.0
220
0.0
230
1.0
 70
     8
 71
     3
 72
     9
 73
     5
 74
     0
 42
0.000000001
 43
0.00000001
 40
0.0
 40
0.0
 40
0.0
 40
0.0
 40
0.4635123040186543
 40
1.0
 40
1.0
 40
1.0
 40
1.0
 10
268.4942749186905
 20
24.6141259466828
 30
0.0
 10
268.606559796894
 20
24.55036761909649
 30
0.0
 10
268.8488076881149
 20
24.41281285079037
 30
0.0
 10
269.1274364579773
 20
24.37492011691572
 30
0.0
 10
269.2769173647549
 20
24.35459113142488
 30
0.0
  0
SPLINE
  5
188
330
1F
100
AcDbEntity
  8
0
  6
Continuous
 62
     7
370
    25
100
AcDbSpline
210
0.0
220
0.0
230
1.0
 70
     8
 71
     3
 72
    23
 73
    19
 74
     0
 42
0.000000001
 43
0.00000001
 40
0.0
 40
0.0
 40
0.0
 40
0.0
 40
0.0400561537902186
 40
0.1028196847967928
 40
0.1679576217605624
 40
0.2358205785193018
 40
0.3047821315448533
 40
0.3736022969198474
 40
0.4421781385127253
 40
0.5107141748445877
 40
0.5794780047822722
 40
0.6487441126068592
 40
0.7188487236589157
 40
0.7899473550357131
 40
0.8532720493985844
 40
0.913496402692516
 40
0.9715201966235967
 40
1.0
 40
1.0
 40
1.0
 40
1.0
 10
269.2769173647549
 20
24.35459113142488
 30
0.0
 10
269.3910083597802
 20
24.35003898485594
 30
0.0
 10
269.6838672350503
 20
24.3383541316916
 30
0.0
 10
270.1692502176287
 20
24.4350089216369
 30
0.0
 10
270.7241120703936
 20
24.66019889895888
 30
0.0
 10
271.2777595080159
 20
25.00968978591137
 30
0.0
 10
271.810027754267
 20
25.47101713524473
 30
0.0
 10
272.2983231117913
 20
26.02479419381393
 30
0.0
 10
272.7246423629098
 20
26.64799084244538
 30
0.0
 10
273.0753595429072
 20
27.31913377814499
 30
0.0
 10
273.3386259520774
 20
28.01699344586558
 30
0.0
 10
273.5038185148983
 20
28.72099258475213
 30
0.0
 10
273.5608163370779
 20
29.41170346192735
 30
0.0
 10
273.5003987062045
 20
30.04280643579126
 30
0.0
 10
273.3315896921249
 20
30.59351189723574
 30
0.0
 10
273.0665639613458
 20
31.03932428294751
 30
0.0
 10
272.7839918263244
 20
31.35351878752492
 30
0.0
 10
272.5679947234672
 20
31.46637812225604
 30
0.0
 10
272.4968814378847
 20
31.50353509332289
 30
0.0
  0
LINE
  5
189
330
1F
100
AcDbEntity
  8
0
  6
Continuous
 62
     7
370
    25
100
AcDbLine
 10
272.4925989229
 20
31.5273589658
 30
0.0
 11
269.487394281
 21
33.2622266778
 31
0.0
  0
LINE
  5
18A
330
1F
100
AcDbEntity
  8
0
  6
Continuous
 62
     7
370
    25
100
AcDbLine
 10
265.4877192727
 20
26.3338357931
 30
0.0
 11
268.4929239146
 21
24.598968081
 31
0.0
  0
LINE
  5
18B
330
1F
100
AcDbEntity
  8
0
  6
Continuous
 62
     7
370
    25
100
AcDbLine
 10
267.1760803711
 20
32.8645158044
 30
0.0
 11
266.3650222235
 21
33.3327297068
 31
0.0
  0
LINE
  5
18C
330
1F
100
AcDbEntity
  8
0
  6
Continuous
 62
     7
370
    25
100
AcDbLine
 10
263.8646801919
 20
29.0028003031
 30
0.0
 11
264.6762836144
 21
28.5342716202
 31
0.0
  0
LINE
  5
18D
330
1F
100
AcDbEntity
  8
0
  6
Continuous
 62
     7
370
    25
100
AcDbLine
 10
225.4668652875
 20
25.1893286527
 30
0.0
 11
231.2078551434
 21
21.8751257537
 31
0.0
  0
LINE
  5
18E
330
1F
100
AcDbEntity
  8
0
  6
Continuous
 62
     7
370
    25
100
AcDbLine
 10
252.6512266543
 20
67.2295937406
 30
0.0
 11
250.4648328547
 21
68.4917720149
 31
0.0
  0
SPLINE
  5
18F
330
1F
100
AcDbEntity
  8
0
  6
Continuous
 62
     7
370
    25
100
AcDbSpline
210
0.0
220
0.0
230
1.0
 70
     8
 71
     3
 72
    15
 73
    11
 74
     0
 42
0.000000001
 43
0.00000001
 40
0.0
 40
0.0
 40
0.0
 40
0.0
 40
0.0563195134398073
 40
0.1944815762501652
 40
0.3337929025112785
 40
0.473932944910026
 40
0.6145321296131256
 40
0.7553054969599728
 40
0.8960499672486192
 40
1.0
 40
1.0
 40
1.0
 40
1.0
 10
254.932542050907
 20
23.88734485974255
 30
0.0
 10
255.0460628545354
 20
23.88089441997396
 30
0.0
 10
255.4380709433559
 20
23.85861987218258
 30
0.0
 10
256.1492058768479
 20
23.95804394345839
 30
0.0
 10
257.0547050947317
 20
24.18142299200469
 30
0.0
 10
257.9832719636366
 20
24.54113455173249
 30
0.0
 10
258.9205144342664
 20
25.02152250491874
 30
0.0
 10
259.8540556649676
 20
25.62317952269279
 30
0.0
 10
260.6970284220238
 20
26.26148608890142
 30
0.0
 10
261.2122599219711
 20
26.74025699758128
 30
0.0
 10
261.4311382810215
 20
26.94364633007291
 30
0.0
  0
SPLINE
  5
190
330
1F
100
AcDbEntity
  8
0
  6
Continuous
 62
     7
370
    25
100
AcDbSpline
210
0.0
220
0.0
230
1.0
 70
     8
 71
     3
 72
    12
 73
     8
 74
     0
 42
0.000000001
 43
0.00000001
 40
0.0
 40
0.0
 40
0.0
 40
0.0
 40
0.1097101415157232
 40
0.357086774240551
 40
0.604365204235517
 40
0.8510439551071176
 40
1.0
 40
1.0
 40
1.0
 40
1.0
 10
267.3036608572083
 20
39.9344364251055
 30
0.0
 10
267.3016066098043
 20
40.09373162310735
 30
0.0
 10
267.2949204040544
 20
40.6122088360671
 30
0.0
 10
267.1739593885516
 20
41.42509900400929
 30
0.0
 10
266.9397560867274
 20
42.35472899959039
 30
0.0
 10
266.6561345064123
 20
43.09761365662722
 30
0.0
 10
266.4137559212504
 20
43.48705377635555
 30
0.0
 10
266.3225006631209
 20
43.63367753285617
 30
0.0
  0
LINE
  5
191
330
1F
100
AcDbEntity
  8
0
  6
Continuous
 62
     7
370
    25
100
AcDbLine
 10
247.843228763
 20
27.282429231
 30
0.0
 11
252.719920749
 21
24.4671748718
 31
0.0
  0
LINE
  5
192
330
1F
100
AcDbEntity
  8
0
  6
Continuous
 62
     7
370
    25
100
AcDbLine
 10
243.7926979843
 20
29.620750877
 30
0.0
 11
245.3946852082
 21
28.6959433377
 31
0.0
  0
LINE
  5
193
330
1F
100
AcDbEntity
  8
0
  6
Continuous
 62
     7
370
    25
100
AcDbLine
 10
257.3924705231
 20
49.4818316613
 30
0.0
 11
255.79172268
 21
50.4059237213
 31
0.0
  0
LINE
  5
194
330
1F
100
AcDbEntity
  8
0
  6
Continuous
 62
     7
370
    25
100
AcDbLine
 10
264.7189454447
 20
45.2523477161
 30
0.0
 11
259.8517602071
 21
48.0621139462
 31
0.0
  0
SPLINE
  5
195
330
1F
100
AcDbEntity
  8
0
  6
Continuous
 62
     7
370
    25
100
AcDbSpline
210
0.0
220
0.0
230
1.0
 70
     8
 71
     3
 72
    13
 73
     9
 74
     0
 42
0.000000001
 43
0.00000001
 40
0.0
 40
0.0
 40
0.0
 40
0.0
 40
0.09233994337966
 40
0.3077302567101766
 40
0.5247715388964769
 40
0.7468146696227288
 40
0.9738362271203614
 40
1.0
 40
1.0
 40
1.0
 40
1.0
 10
262.8079149723763
 20
26.17365380596792
 30
0.0
 10
262.8757559948514
 20
26.13511185128651
 30
0.0
 10
263.1018416355575
 20
26.0066677005309
 30
0.0
 10
263.5523645189261
 20
25.92380580050349
 30
0.0
 10
264.134800019027
 20
25.91995316056169
 30
0.0
 10
264.7512399922238
 20
26.06337981153122
 30
0.0
 10
265.1983192068551
 20
26.22114204703448
 30
0.0
 10
265.4333216387799
 20
26.36366428283961
 30
0.0
 10
265.4576064195998
 20
26.37839230599304
 30
0.0
  0
SPLINE
  5
196
330
1F
100
AcDbEntity
  8
0
  6
Continuous
 62
     7
370
    25
100
AcDbSpline
210
0.0
220
0.0
230
1.0
 70
     8
 71
     3
 72
    12
 73
     8
 74
     0
 42
0.000000001
 43
0.00000001
 40
0.0
 40
0.0
 40
0.0
 40
0.0
 40
0.2004343256839981
 40
0.4188846481392009
 40
0.6354363890034836
 40
0.8472507013821549
 40
1.0
 40
1.0
 40
1.0
 40
1.0
 10
269.4366776282134
 20
33.21905209035515
 30
0.0
 10
269.4224701930331
 20
33.44160024215879
 30
0.0
 10
269.3927782903804
 20
33.90670023909881
 30
0.0
 10
269.2125070318872
 20
34.53061665193234
 30
0.0
 10
268.9254804844377
 20
35.08012394147305
 30
0.0
 10
268.5781748105313
 20
35.4943364761756
 30
0.0
 10
268.2962283731565
 20
35.6631279946631
 30
0.0
 10
268.1780950234262
 20
35.73385031933815
 30
0.0
  0
SPLINE
  5
197
330
1F
100
AcDbEntity
  8
0
  6
Continuous
 62
     7
370
    25
100
AcDbSpline
210
0.0
220
0.0
230
1.0
 70
     8
 71
     3
 72
    10
 73
     6
 74
     0
 42
0.000000001
 43
0.00000001
 40
0.0
 40
0.0
 40
0.0
 40
0.0
 40
0.1541859792696835
 40
0.6468344343709985
 40
0.9999999999999999
 40
0.9999999999999999
 40
0.9999999999999999
 40
0.9999999999999999
 10
220.4338278279176
 20
39.98491105152228
 30
0.0
 10
220.4094926507619
 20
39.81233363923742
 30
0.0
 10
220.3074027550051
 20
39.08834425064818
 30
0.0
 10
220.235152599014
 20
38.00239000546249
 30
0.0
 10
220.2209054849396
 20
37.11007996646787
 30
0.0
 10
220.214956671161
 20
36.73750021262806
 30
0.0
  0
SPLINE
  5
198
330
1F
100
AcDbEntity
  8
0
  6
Continuous
 62
     7
370
    25
100
AcDbSpline
210
0.0
220
0.0
230
1.0
 70
     8
 71
     3
 72
    16
 73
    12
 74
     0
 42
0.000000001
 43
0.00000001
 40
0.0
 40
0.0
 40
0.0
 40
0.0
 40
0.0749167077143021
 40
0.1921787990623198
 40
0.3094778674876321
 40
0.4267865352671976
 40
0.5440860912706376
 40
0.6613690347278791
 40
0.778632132741327
 40
0.8958751058993698
 40
1.0
 40
1.0
 40
1.0
 40
1.0
 10
241.3102714914106
 20
68.85926270042529
 30
0.0
 10
241.0299931883442
 20
68.7628292229525
 30
0.0
 10
240.3110140803471
 20
68.51545489944647
 30
0.0
 10
239.1364768151193
 20
67.97612975302297
 30
0.0
 10
237.797822389096
 20
67.26183078816625
 30
0.0
 10
236.4597701662517
 20
66.42616095513215
 30
0.0
 10
235.1309479181322
 20
65.48038129943839
 30
0.0
 10
233.8182524653296
 20
64.42893108378964
 30
0.0
 10
232.5305055313675
 20
63.27580802225174
 30
0.0
 10
231.3167126789005
 20
62.0831094310427
 30
0.0
 10
230.5548070479103
 20
61.2355755069113
 30
0.0
 10
230.1964291851972
 20
60.83692062899375
 30
0.0
  0
SPLINE
  5
199
330
1F
100
AcDbEntity
  8
0
  6
Continuous
 62
     7
370
    25
100
AcDbSpline
210
0.0
220
0.0
230
1.0
 70
     8
 71
     3
 72
    10
 73
     6
 74
     0
 42
0.000000001
 43
0.00000001
 40
0.0
 40
0.0
 40
0.0
 40
0.0
 40
0.2236887529677932
 40
0.6486691232914042
 40
1.0
 40
1.0
 40
1.0
 40
1.0
 10
220.214956671161
 20
36.73750021262806
 30
0.0
 10
220.2179856976812
 20
36.46798105435266
 30
0.0
 10
220.2267694919097
 20
35.68640954577566
 30
0.0
 10
220.3045438024971
 20
34.51851867310978
 30
0.0
 10
220.4408348488708
 20
33.66627726048053
 30
0.0
 10
220.5025153320443
 20
33.28058308973257
 30
0.0
  0
LINE
  5
19A
330
1F
100
AcDbEntity
  8
0
  6
Continuous
 62
     7
370
    25
100
AcDbLine
 10
257.1363828142
 20
29.4229559078
 30
0.0
 11
262.6871701783
 21
26.2185545701
 31
0.0
  0
LINE
  5
19B
330
1F
100
AcDbEntity
  8
0
  6
Continuous
 62
     7
370
    25
100
AcDbLine
 10
268.1867231089
 20
35.7450919653
 30
0.0
 11
262.6359357448
 21
38.949493303
 31
0.0
  0
SPLINE
  5
19C
330
1F
100
AcDbEntity
  8
0
  6
Continuous
 62
     7
370
    25
100
AcDbSpline
210
0.0
220
0.0
230
1.0
 70
     8
 71
     3
 72
    11
 73
     7
 74
     0
 42
0.000000001
 43
0.00000001
 40
0.0
 40
0.0
 40
0.0
 40
0.0
 40
0.2110998587842708
 40
0.4993058015870583
 40
0.776844528081351
 40
1.0
 40
1.0
 40
1.0
 40
1.0
 10
264.1058722825681
 20
28.73550253025154
 30
0.0
 10
264.0576801195311
 20
28.76529375475674
 30
0.0
 10
263.9436931811503
 20
28.83575771109232
 30
0.0
 10
263.8108356278131
 20
29.06255172964335
 30
0.0
 10
263.7140128240972
 20
29.37706607494995
 30
0.0
 10
263.7029010200555
 20
29.6329572971947
 30
0.0
 10
263.6979485762632
 20
29.74700600525017
 30
0.0
  0
SPLINE
  5
19D
330
1F
100
AcDbEntity
  8
0
  6
Continuous
 62
     7
370
    25
100
AcDbSpline
210
0.0
220
0.0
230
1.0
 70
     8
 71
     3
 72
    19
 73
    15
 74
     0
 42
0.000000001
 43
0.00000001
 40
0.0
 40
0.0
 40
0.0
 40
0.0
 40
0.0478899664164099
 40
0.1404101870303037
 40
0.2336372003745416
 40
0.3274057602205459
 40
0.4214075863979238
 40
0.5152131101019598
 40
0.6083649591389712
 40
0.7005376110586085
 40
0.7917348052287361
 40
0.8828575793609628
 40
0.9766569991760982
 40
1.0
 40
1.0
 40
1.0
 40
1.0
 10
263.6979485762632
 20
29.74700600525018
 30
0.0
 10
263.7003339160111
 20
29.82930307015138
 30
0.0
 10
263.7073275730377
 20
30.07059257481189
 30
0.0
 10
263.7880754550017
 20
30.51725812659803
 30
0.0
 10
263.9704281263591
 20
31.07141507481795
 30
0.0
 10
264.237196288045
 20
31.62250786484751
 30
0.0
 10
264.5729906399714
 20
32.13754175884414
 30
0.0
 10
264.9585837870242
 20
32.58725059768
 30
0.0
 10
265.3696435457152
 20
32.94668038078303
 30
0.0
 10
265.7782227178959
 20
33.19722574813115
 30
0.0
 10
266.1565783186741
 20
33.33358109660114
 30
0.0
 10
266.472848701795
 20
33.35072869982285
 30
0.0
 10
266.662782190679
 20
33.31876640347172
 30
0.0
 10
266.7413782474537
 20
33.25180884826919
 30
0.0
 10
266.7570401042605
 20
33.23846619871719
 30
0.0
  0
LINE
  5
19E
330
1F
100
AcDbEntity
  8
0
  6
Continuous
 62
     7
370
    25
100
AcDbLine
 10
262.0649967542
 20
39.1640392367
 30
0.0
 11
261.5648774753
 21
39.265935009
 31
0.0
  0
LINE
  5
19F
330
1F
100
AcDbEntity
  8
0
  6
Continuous
 62
     7
370
    25
100
AcDbLine
 10
256.326734775
 20
30.192222843
 30
0.0
 11
256.6650748576
 21
29.8100864852
 31
0.0
  0
LINE
  5
1A0
330
1F
100
AcDbEntity
  8
0
  6
Continuous
 62
     7
370
    25
100
AcDbLine
 10
256.4814142029
 20
30.003128327
 30
0.0
 11
256.5074807116
 21
29.9880804518
 31
0.0
  0
LINE
  5
1A1
330
1F
100
AcDbEntity
  8
0
  6
Continuous
 62
     7
370
    25
100
AcDbLine
 10
261.8320478298
 20
39.2115008302
 30
0.0
 11
261.8059813211
 21
39.2265487053
 31
0.0
  0
LINE
  5
1A2
330
1F
100
AcDbEntity
  8
0
  6
Continuous
 62
     7
370
    25
100
AcDbLine
 10
238.6695555942
 20
67.7091219658
 30
0.0
 11
229.3974761197
 21
72.3287271644
 31
0.0
  0
LINE
  5
1A3
330
1F
100
AcDbEntity
  8
0
  6
Continuous
 62
     7
370
    25
100
AcDbLine
 10
211.6087533321
 20
41.5144171528
 30
0.0
 11
220.2382191488
 21
35.8003437169
 31
0.0
  0
SPLINE
  5
1A4
330
1F
100
AcDbEntity
  8
0
  6
Continuous
 62
     7
370
    25
100
AcDbSpline
210
0.0
220
0.0
230
1.0
 70
     8
 71
     3
 72
    19
 73
    15
 74
     0
 42
0.000000001
 43
0.00000001
 40
0.0
 40
0.0
 40
0.0
 40
0.0
 40
0.0548466778231403
 40
0.1449636110740485
 40
0.2354344996017146
 40
0.3262204341046401
 40
0.4172514399243266
 40
0.5084502804297774
 40
0.5997487410509131
 40
0.6910941870497327
 40
0.7824460390483288
 40
0.8737804583641681
 40
0.9650875278044547
 40
1.0
 40
1.0
 40
1.0
 40
1.0
 10
238.569691270872
 20
18.4735548439953
 30
0.0
 10
238.8044419003776
 20
18.44174614950501
 30
0.0
 10
239.4249042566349
 20
18.35767354201307
 30
0.0
 10
240.4834923226398
 20
18.36785703131295
 30
0.0
 10
241.7328649813407
 20
18.48904485332608
 30
0.0
 10
243.0187390072789
 20
18.74620137608618
 30
0.0
 10
244.3309249110322
 20
19.13087879849194
 30
0.0
 10
245.6622793290765
 20
19.6428670101985
 30
0.0
 10
247.0047126631102
 20
20.27838427551032
 30
0.0
 10
248.3501899133547
 20
21.03419309684603
 30
0.0
 10
249.691548424993
 20
21.90352940139719
 30
0.0
 10
251.0187313934724
 20
22.88888704842961
 30
0.0
 10
252.0628387053399
 20
23.73603541802318
 30
0.0
 10
252.6516640597977
 20
24.28591084929243
 30
0.0
 10
252.8145338385111
 20
24.43800703389584
 30
0.0
  0
SPLINE
  5
1A5
330
1F
100
AcDbEntity
  8
0
  6
Continuous
 62
     7
370
    25
100
AcDbSpline
210
0.0
220
0.0
230
1.0
 70
     8
 71
     3
 72
     9
 73
     5
 74
     0
 42
0.000000001
 43
0.00000001
 40
0.0
 40
0.0
 40
0.0
 40
0.0
 40
0.317721547583308
 40
0.9999999999999999
 40
0.9999999999999999
 40
0.9999999999999999
 40
0.9999999999999999
 10
264.8072700926827
 20
45.25304381359458
 30
0.0
 10
264.8492208357403
 20
45.4317907415929
 30
0.0
 10
264.9812570271054
 20
45.99438062370169
 30
0.0
 10
265.0669318551054
 20
46.54488116194364
 30
0.0
 10
265.1253859441643
 20
46.9204758172299
 30
0.0
  0
LINE
  5
1A6
330
1F
100
AcDbEntity
  8
0
  6
Continuous
 62
     7
370
    25
100
AcDbLine
 10
233.5144579905
 20
20.5435522734
 30
0.0
 11
235.1719058572
 21
19.5867279865
 31
0.0
  0
SPLINE
  5
1A7
330
1F
100
AcDbEntity
  8
0
  6
Continuous
 62
     7
370
    25
100
AcDbSpline
210
0.0
220
0.0
230
1.0
 70
     8
 71
     3
 72
     9
 73
     5
 74
     0
 42
0.000000001
 43
0.00000001
 40
0.0
 40
0.0
 40
0.0
 40
0.0
 40
0.8997699969202454
 40
1.0
 40
1.0
 40
1.0
 40
1.0
 10
261.4862880908425
 20
61.94879863515912
 30
0.0
 10
261.4588702927054
 20
61.97621888117768
 30
0.0
 10
261.4283982851579
 20
62.00669360928866
 30
0.0
 10
261.3953760005103
 20
62.03351258108361
 30
0.0
 10
261.3920661768184
 20
62.0362006467092
 30
0.0
  0
SPLINE
  5
1A8
330
1F
100
AcDbEntity
  8
0
  6
Continuous
 62
     7
370
    25
100
AcDbSpline
210
0.0
220
0.0
230
1.0
 70
     8
 71
     3
 72
    14
 73
    10
 74
     0
 42
0.000000001
 43
0.00000001
 40
0.0
 40
0.0
 40
0.0
 40
0.0
 40
0.0851815008310725
 40
0.2464576986632764
 40
0.4075962197097045
 40
0.568377473833936
 40
0.7286524837289736
 40
0.8883010350263044
 40
1.0
 40
1.0
 40
1.0
 40
1.0
 10
265.1460497537358
 20
55.08084164883152
 30
0.0
 10
265.0962596440252
 20
55.32121395659243
 30
0.0
 10
264.9522007141432
 20
56.01668897423294
 30
0.0
 10
264.6365919224262
 20
57.10555600117405
 30
0.0
 10
264.1679435243112
 20
58.31143147343837
 30
0.0
 10
263.6022988018358
 20
59.41960435673146
 30
0.0
 10
262.9416873644248
 20
60.41919942035675
 30
0.0
 10
262.2759083861106
 20
61.23260425155139
 30
0.0
 10
261.797761205805
 20
61.66357150310036
 30
0.0
 10
261.6009341042372
 20
61.84097720261484
 30
0.0
  0
SPLINE
  5
1A9
330
1F
100
AcDbEntity
  8
0
  6
Continuous
 62
     7
370
    25
100
AcDbSpline
210
0.0
220
0.0
230
1.0
 70
     8
 71
     3
 72
    28
 73
    24
 74
     0
 42
0.000000001
 43
0.00000001
 40
0.0
 40
0.0
 40
0.0
 40
0.0
 40
0.0418489375857428
 40
0.0891235201878995
 40
0.1366818886864863
 40
0.1847197391511733
 40
0.233311454218743
 40
0.2824150362490707
 40
0.3319126811714066
 40
0.3816636531210176
 40
0.4315441368478944
 40
0.4814596520892712
 40
0.5313487960857785
 40
0.5811904575466056
 40
0.6309788164947062
 40
0.6807172407016192
 40
0.7304141256329992
 40
0.7800806081778295
 40
0.8297292265398576
 40
0.8793731572635551
 40
0.929024641945784
 40
0.9786942002833146
 40
1.0
 40
1.0
 40
1.0
 40
1.0
 10
229.3655689797429
 20
72.3365316318153
 30
0.0
 10
229.1051048640342
 20
72.4560166504814
 30
0.0
 10
228.5504078940806
 20
72.71047772136097
 30
0.0
 10
227.6280326385987
 20
72.94343586597542
 30
0.0
 10
226.6248841813122
 20
73.06793046691311
 30
0.0
 10
225.5751533492037
 20
73.05882975573505
 30
0.0
 10
224.487281872966
 20
72.91930858928
 30
0.0
 10
223.3685299748915
 20
72.64811728397017
 30
0.0
 10
222.2283549328284
 20
72.24692091374153
 30
0.0
 10
221.0768285840761
 20
71.71885883334265
 30
0.0
 10
219.9242456424924
 20
71.06886268086903
 30
0.0
 10
218.7805694893296
 20
70.30318150651027
 30
0.0
 10
217.6551715231276
 20
69.42897831423191
 30
0.0
 10
216.5568190802926
 20
68.45403399401762
 30
0.0
 10
215.4937613527937
 20
67.38659878995668
 30
0.0
 10
214.4739138834959
 20
66.23542848475661
 30
0.0
 10
213.5048993196561
 20
65.00977213454523
 30
0.0
 10
212.593859621884
 20
63.719329327217
 30
0.0
 10
211.7481233771064
 20
62.37417951636763
 30
0.0
 10
210.9724804910435
 20
60.9848745541689
 30
0.0
 10
210.2792467140033
 20
59.56181573188169
 30
0.0
 10
209.7702396962547
 20
58.39256043734211
 30
0.0
 10
209.5243193323003
 20
57.69964643454033
 30
0.0
 10
209.4504975135126
 20
57.49164344069415
 30
0.0
  0
LINE
  5
1AA
330
1F
100
AcDbEntity
  8
0
  6
Continuous
 62
     7
370
    25
100
AcDbLine
 10
209.8334635354
 20
55.1702388326
 30
0.0
 11
213.6181425304
 21
52.9853901546
 31
0.0
  0
LINE
  5
1AB
330
1F
100
AcDbEntity
  8
0
  6
Continuous
 62
     7
370
    25
100
AcDbLine
 10
209.3280246986
 20
56.9398857143
 30
0.0
 11
209.3280246986
 21
56.2873807712
 31
0.0
  0
LINE
  5
1AC
330
1F
100
AcDbEntity
  8
0
  6
Continuous
 62
     7
370
    25
100
AcDbLine
 10
209.3280246986
 20
44.7815928423
 30
0.0
 11
209.3280246986
 21
44.1290878992
 31
0.0
  0
SPLINE
  5
1AD
330
1F
100
AcDbEntity
  8
0
  6
Continuous
 62
     7
370
    25
100
AcDbSpline
210
0.0
220
0.0
230
1.0
 70
     8
 71
     3
 72
    11
 73
     7
 74
     0
 42
0.000000001
 43
0.00000001
 40
0.0
 40
0.0
 40
0.0
 40
0.0
 40
0.2660791475424624
 40
0.5675516635892192
 40
0.8653603503283076
 40
1.0
 40
1.0
 40
1.0
 40
1.0
 10
209.4598047230439
 20
43.79640280735694
 30
0.0
 10
209.6251237100898
 20
43.5370208453693
 30
0.0
 10
209.9777521177926
 20
42.98375440043818
 30
0.0
 10
210.6380309490578
 20
42.27297361777241
 30
0.0
 10
211.2502412639228
 20
41.73392682071977
 30
0.0
 10
211.6608972314799
 20
41.494715294823
 30
0.0
 10
211.7887519853364
 20
41.42023852307384
 30
0.0
  0
SPLINE
  5
1AE
330
1F
100
AcDbEntity
  8
0
  6
Continuous
 62
     7
370
    25
100
AcDbSpline
210
0.0
220
0.0
230
1.0
 70
     8
 71
     3
 72
     9
 73
     5
 74
     0
 42
0.000000001
 43
0.00000001
 40
0.0
 40
0.0
 40
0.0
 40
0.0
 40
0.1640364194191359
 40
1.0
 40
1.0
 40
1.0
 40
1.0
 10
209.3732746088731
 20
43.92899039126627
 30
0.0
 10
209.3774173886998
 20
43.92116634147954
 30
0.0
 10
209.4026726328793
 20
43.87346931289019
 30
0.0
 10
209.4337909463191
 20
43.83149325936256
 30
0.0
 10
209.4598047230439
 20
43.79640280735694
 30
0.0
  0
LINE
  5
1AF
330
1F
100
AcDbEntity
  8
0
  6
Continuous
 62
     7
370
    25
100
AcDbLine
 10
255.8681118673
 20
32.2488960614
 30
0.0
 11
255.9005682333
 21
32.2291602397
 31
0.0
  0
LWPOLYLINE
  5
1B0
330
1F
100
AcDbEntity
  8
0
  6
Continuous
 62
     7
370
    25
100
AcDbPolyline
 90
       10
 70
   128
 43
0.0
 10
251.1014580586
 20
30.6367432454
 10
251.2722074543
 20
31.2303946043
 10
251.5481020417
 20
31.8168428311
 10
251.9103397167
 20
32.3561221844
 10
252.3342349383
 20
32.8114819992
 10
252.7908999932
 20
33.1518902103
 10
253.2492127265
 20
33.3541478251
 10
253.6779413355
 20
33.4044721029
 10
254.0478681761
 20
33.299433436
 10
254.0649893455
 20
33.2898165366
  0
ARC
  5
1B1
330
1F
100
AcDbEntity
  8
0
  6
Continuous
 62
     7
370
    25
100
AcDbCircle
 10
252.5415307401
 20
30.1322242757
 30
0.0
 40
1.525892761214729
100
AcDbArc
 50
160.6924625621
 51
230.2195763734
  0
ARC
  5
1B2
330
1F
100
AcDbEntity
  8
0
  6
Continuous
 62
     7
370
    25
100
AcDbCircle
 10
254.1750050702
 20
30.4310999201
 30
0.0
 40
1.426529507507629
100
AcDbArc
 50
327.7778094511
 51
10.1845405446
  0
LINE
  5
1B3
330
1F
100
AcDbEntity
  8
0
  6
Continuous
 62
     7
370
    25
100
AcDbLine
 10
255.5806999949
 20
30.6917735247
 30
0.0
 11
255.5790572556
 21
30.6833376976
 31
0.0
  0
LINE
  5
1B4
330
1F
100
AcDbEntity
  8
0
  6
Continuous
 62
     7
370
    25
100
AcDbLine
 10
255.5806999949
 20
30.6917735247
 30
0.0
 11
255.5759057909
 21
30.6943923433
 31
0.0
  0
ARC
  5
1B5
330
1F
100
AcDbEntity
  8
0
  6
Continuous
 62
     7
370
    25
100
AcDbCircle
 10
255.1480924264
 20
30.595329959
 30
0.0
 40
0.4391328168332362
100
AcDbArc
 50
13.0373620431
 51
109.6675429182
  0
LINE
  5
1B6
330
1F
100
AcDbEntity
  8
0
  6
Continuous
 62
     7
370
    25
100
AcDbLine
 10
254.9955028571
 20
31.0114631799
 30
0.0
 11
255.0002970612
 21
31.0088443612
 31
0.0
  0
LINE
  5
1B7
330
1F
100
AcDbEntity
  8
0
  6
Continuous
 62
     7
370
    25
100
AcDbLine
 10
254.9955028571
 20
31.0114631799
 30
0.0
 11
254.9890662431
 21
31.0056463378
 31
0.0
  0
ARC
  5
1B8
330
1F
100
AcDbEntity
  8
0
  6
Continuous
 62
     7
370
    25
100
AcDbCircle
 10
255.5216168046
 20
29.6395493558
 30
0.0
 40
1.466230222287563
100
AcDbArc
 50
111.2975098899
 51
152.9111422365
  0
LINE
  5
1B9
330
1F
100
AcDbEntity
  8
0
  6
Continuous
 62
     7
370
    25
100
AcDbLine
 10
254.2097934047
 20
30.30141238
 30
0.0
 11
254.2162300187
 21
30.3072292221
 31
0.0
  0
LINE
  5
1BA
330
1F
100
AcDbEntity
  8
0
  6
Continuous
 62
     7
370
    25
100
AcDbLine
 10
254.2097934047
 20
30.30141238
 30
0.0
 11
254.2081509947
 21
30.2929767668
 31
0.0
  0
ARC
  5
1BB
330
1F
100
AcDbEntity
  8
0
  6
Continuous
 62
     7
370
    25
100
AcDbCircle
 10
255.4149810564
 20
29.5323440915
 30
0.0
 40
1.42653456486725
100
AcDbArc
 50
147.7778669488
 51
190.1844511899
  0
LINE
  5
1BC
330
1F
100
AcDbEntity
  8
0
  6
Continuous
 62
     7
370
    25
100
AcDbLine
 10
254.00928109
 20
29.2716719725
 30
0.0
 11
254.0109235
 21
29.2801076095
 31
0.0
  0
LINE
  5
1BD
330
1F
100
AcDbEntity
  8
0
  6
Continuous
 62
     7
370
    25
100
AcDbLine
 10
254.00928109
 20
29.2716719725
 30
0.0
 11
254.014075294
 21
29.2690531539
 31
0.0
  0
ARC
  5
1BE
330
1F
100
AcDbEntity
  8
0
  6
Continuous
 62
     7
370
    25
100
AcDbCircle
 10
254.4418886585
 20
29.3681155382
 30
0.0
 40
0.439132816833225
100
AcDbArc
 50
193.0373620431
 51
289.6675429182
  0
LINE
  5
1BF
330
1F
100
AcDbEntity
  8
0
  6
Continuous
 62
     7
370
    25
100
AcDbLine
 10
254.5944782277
 20
28.9519823173
 30
0.0
 11
254.5896840237
 21
28.9546011359
 31
0.0
  0
LINE
  5
1C0
330
1F
100
AcDbEntity
  8
0
  6
Continuous
 62
     7
370
    25
100
AcDbLine
 10
254.5944782277
 20
28.9519823173
 30
0.0
 11
254.6009148418
 21
28.9577991594
 31
0.0
  0
ARC
  5
1C1
330
1F
100
AcDbEntity
  8
0
  6
Continuous
 62
     7
370
    25
100
AcDbCircle
 10
254.0683642803
 20
30.3238961414
 30
0.0
 40
1.466230222287521
100
AcDbArc
 50
291.2975098899
 51
332.9111422365
  0
LINE
  5
1C2
330
1F
100
AcDbEntity
  8
0
  6
Continuous
 62
     7
370
    25
100
AcDbLine
 10
255.3801876802
 20
29.6620331171
 30
0.0
 11
255.3737510662
 21
29.6562162751
 31
0.0
  0
LINE
  5
1C3
330
1F
100
AcDbEntity
  8
0
  6
Continuous
 62
     7
370
    25
100
AcDbLine
 10
255.3801876802
 20
29.6620331171
 30
0.0
 11
255.3818300902
 21
29.6704687304
 31
0.0
  0
SPLINE
  5
1C4
330
1F
100
AcDbEntity
  8
0
  6
Continuous
 62
     7
370
    25
100
AcDbSpline
210
0.0
220
0.0
230
1.0
 70
     8
 71
     3
 72
     9
 73
     5
 74
     0
 42
0.000000001
 43
0.00000001
 40
0.0
 40
0.0
 40
0.0
 40
0.0
 40
0.0617748784813505
 40
1.0
 40
1.0
 40
1.0
 40
1.0
 10
254.7189378713868
 20
30.87425863316406
 30
0.0
 10
254.7236609843105
 20
30.87784176569205
 30
0.0
 10
254.8001178392628
 20
30.93584483451339
 30
0.0
 10
254.8976031116162
 20
30.97185793872211
 30
0.0
 10
254.9890662431162
 20
31.0056463377946
 30
0.0
  0
SPLINE
  5
1C5
330
1F
100
AcDbEntity
  8
0
  6
Continuous
 62
     7
370
    25
100
AcDbSpline
210
0.0
220
0.0
230
1.0
 70
     8
 71
     3
 72
     9
 73
     5
 74
     0
 42
0.000000001
 43
0.00000001
 40
0.0
 40
0.0
 40
0.0
 40
0.0
 40
0.4621305629238804
 40
1.0
 40
1.0
 40
1.0
 40
1.0
 10
254.0109234999644
 20
29.280107609487
 30
0.0
 10
254.0025697348401
 20
29.33045199228879
 30
0.0
 10
253.9844931006711
 20
29.43939173105711
 30
0.0
 10
253.9913521233813
 20
29.54448847821767
 30
0.0
 10
253.9950413820654
 20
29.60101680645145
 30
0.0
  0
SPLINE
  5
1C6
330
1F
100
AcDbEntity
  8
0
  6
Continuous
 62
     7
370
    25
100
AcDbSpline
210
0.0
220
0.0
230
1.0
 70
     8
 71
     3
 72
    10
 73
     6
 74
     0
 42
0.000000001
 43
0.00000001
 40
0.0
 40
0.0
 40
0.0
 40
0.0
 40
0.4395940317744162
 40
0.7571242149159396
 40
1.0
 40
1.0
 40
1.0
 40
1.0
 10
255.0002970611554
 20
31.00884436123954
 30
0.0
 10
255.0358632413771
 20
30.9908707120598
 30
0.0
 10
255.0971197970434
 20
30.95991422939452
 30
0.0
 10
255.338526903876
 20
30.82689717137653
 30
0.0
 10
255.5041332362323
 20
30.73445576317156
 30
0.0
 10
255.5759057908917
 20
30.6943923433205
 30
0.0
  0
LINE
  5
1C7
330
1F
100
AcDbEntity
  8
0
  6
Continuous
 62
     7
370
    25
100
AcDbLine
 10
254.0096801679
 20
29.2895790513
 30
0.0
 11
254.5944782277
 21
28.9519823173
 31
0.0
  0
SPLINE
  5
1C8
330
1F
100
AcDbEntity
  8
0
  6
Continuous
 62
     7
370
    25
100
AcDbSpline
210
0.0
220
0.0
230
1.0
 70
     8
 71
     3
 72
    10
 73
     6
 74
     0
 42
0.000000001
 43
0.00000001
 40
0.0
 40
0.0
 40
0.0
 40
0.0
 40
0.4395940317744162
 40
0.7571242149159396
 40
1.0
 40
1.0
 40
1.0
 40
1.0
 10
254.589684023716
 20
28.95460113594538
 30
0.0
 10
254.4601481977523
 20
29.02682230692096
 30
0.0
 10
254.2370452813174
 20
29.15121070490371
 30
0.0
 10
254.0690952196329
 20
29.24182191339155
 30
0.0
 10
254.0307108114469
 20
29.26081966806519
 30
0.0
 10
254.0140752939796
 20
29.26905315386442
 30
0.0
  0
LINE
  5
1C9
330
1F
100
AcDbEntity
  8
0
  6
Continuous
 62
     7
370
    25
100
AcDbLine
 10
254.0899409384
 20
30.036227435
 30
0.0
 11
254.3852560034
 21
30.2363949485
 31
0.0
  0
SPLINE
  5
1CA
330
1F
100
AcDbEntity
  8
0
  6
Continuous
 62
     7
370
    25
100
AcDbSpline
210
0.0
220
0.0
230
1.0
 70
     8
 71
     3
 72
     9
 73
     5
 74
     0
 42
0.000000001
 43
0.00000001
 40
0.0
 40
0.0
 40
0.0
 40
0.0
 40
0.3382546227290376
 40
1.0
 40
1.0
 40
1.0
 40
1.0
 10
254.38525600337
 20
30.23639494854657
 30
0.0
 10
254.3835493638463
 20
30.27497321470163
 30
0.0
 10
254.3785039353171
 20
30.38902417975222
 30
0.0
 10
254.3960012419001
 20
30.49562098247153
 30
0.0
 10
254.4075800036461
 20
30.56616092390289
 30
0.0
  0
LINE
  5
1CB
330
1F
100
AcDbEntity
  8
0
  6
Continuous
 62
     7
370
    25
100
AcDbLine
 10
254.3852560034
 20
30.2363949485
 30
0.0
 11
255.3801876802
 21
29.6620331171
 31
0.0
  0
SPLINE
  5
1CC
330
1F
100
AcDbEntity
  8
0
  6
Continuous
 62
     7
370
    25
100
AcDbSpline
210
0.0
220
0.0
230
1.0
 70
     8
 71
     3
 72
    10
 73
     6
 74
     0
 42
0.000000001
 43
0.00000001
 40
0.0
 40
0.0
 40
0.0
 40
0.0
 40
0.4395944800613164
 40
0.7571243065799685
 40
1.0
 40
1.0
 40
1.0
 40
1.0
 10
255.3737510661873
 20
29.65621627505083
 30
0.0
 10
255.2159295497913
 20
29.58317624666648
 30
0.0
 10
254.9441096985773
 20
29.45737762236307
 30
0.0
 10
254.7060286651329
 20
29.1878275456085
 30
0.0
 10
254.6326964797623
 20
29.02734927817802
 30
0.0
 10
254.6009148417551
 20
28.95779915939031
 30
0.0
  0
SPLINE
  5
1CD
330
1F
100
AcDbEntity
  8
0
  6
Continuous
 62
     7
370
    25
100
AcDbSpline
210
0.0
220
0.0
230
1.0
 70
     8
 71
     3
 72
    11
 73
     7
 74
     0
 42
0.000000001
 43
0.00000001
 40
0.0
 40
0.0
 40
0.0
 40
0.0
 40
0.1784099927393558
 40
0.5165279558453922
 40
0.8702848774443094
 40
1.0
 40
1.0
 40
1.0
 40
1.0
 10
255.5790572556347
 20
30.68333769761308
 30
0.0
 10
255.5472525469777
 20
30.63838472362824
 30
0.0
 10
255.4551723843332
 20
30.50823804627547
 30
0.0
 10
255.3495988588588
 20
30.22624846983027
 30
0.0
 10
255.3475252590191
 20
29.90700860783076
 30
0.0
 10
255.3745731617823
 20
29.72050695825881
 30
0.0
 10
255.3818300902112
 20
29.67046873035389
 30
0.0
  0
LWPOLYLINE
  5
1CE
330
1F
100
AcDbEntity
  8
0
  6
Continuous
 62
     7
370
    25
100
AcDbPolyline
 90
        3
 70
   128
 43
0.0
 10
268.2424805907
 20
39.3924670703
 10
268.2425820066
 20
39.392408315
 10
268.2703666579
 20
39.3756342692
  0
LWPOLYLINE
  5
1CF
330
1F
100
AcDbEntity
  8
0
  6
Continuous
 62
     7
370
    25
100
AcDbPolyline
 90
        9
 70
   128
 43
0.0
 10
263.6554023205
 20
38.3970706895
 10
263.6585284313
 20
38.4051536414
 10
263.9394595671
 20
38.9901095575
 10
264.3055760692
 20
39.525873022
 10
264.7319279912
 20
39.9759327503
 10
265.1894596906
 20
40.3096174375
 10
265.6469913901
 20
40.5041876062
 10
266.0733429827
 20
40.546383139
 10
266.439358069
 20
40.4333875455
  0
ARC
  5
1D0
330
1F
100
AcDbEntity
  8
0
  6
Continuous
 62
     7
370
    25
100
AcDbCircle
 10
266.933544085
 20
37.5334978803
 30
0.0
 40
1.050773680970492
100
AcDbArc
 50
333.8131682449
 51
26.1868317551
  0
LINE
  5
1D1
330
1F
100
AcDbEntity
  8
0
  6
Continuous
 62
     7
370
    25
100
AcDbLine
 10
267.876466163
 20
38.0049279332
 30
0.0
 11
267.876466163
 21
37.9972039116
 31
0.0
  0
LINE
  5
1D2
330
1F
100
AcDbEntity
  8
0
  6
Continuous
 62
     7
370
    25
100
AcDbLine
 10
267.876466163
 20
38.0049279332
 30
0.0
 11
267.8706736055
 21
38.0054459717
 31
0.0
  0
ARC
  5
1D3
330
1F
100
AcDbEntity
  8
0
  6
Continuous
 62
     7
370
    25
100
AcDbCircle
 10
267.4904764121
 20
37.6737782652
 30
0.0
 40
0.5045328268617482
100
AcDbArc
 50
41.1000475288
 51
128.6809613804
  0
LINE
  5
1D4
330
1F
100
AcDbEntity
  8
0
  6
Continuous
 62
     7
370
    25
100
AcDbLine
 10
267.1693592659
 20
38.0681538632
 30
0.0
 11
267.1751518234
 21
38.0676358247
 31
0.0
  0
LINE
  5
1D5
330
1F
100
AcDbEntity
  8
0
  6
Continuous
 62
     7
370
    25
100
AcDbLine
 10
267.1693592659
 20
38.0681538632
 30
0.0
 11
267.1635667084
 21
38.0609478802
 31
0.0
  0
ARC
  5
1D6
330
1F
100
AcDbEntity
  8
0
  6
Continuous
 62
     7
370
    25
100
AcDbCircle
 10
268.1236720256
 20
36.5769895049
 30
0.0
 40
1.76746560916977
100
AcDbArc
 50
122.9024384701
 51
159.5084147368
  0
LINE
  5
1D7
330
1F
100
AcDbEntity
  8
0
  6
Continuous
 62
     7
370
    25
100
AcDbLine
 10
266.4622523688
 20
37.1885196875
 30
0.0
 11
266.4680452556
 21
37.1957258607
 31
0.0
  0
LINE
  5
1D8
330
1F
100
AcDbEntity
  8
0
  6
Continuous
 62
     7
370
    25
100
AcDbLine
 10
266.4622523688
 20
37.1885196875
 30
0.0
 11
266.4622523688
 21
37.1807956659
 31
0.0
  0
ARC
  5
1D9
330
1F
100
AcDbEntity
  8
0
  6
Continuous
 62
     7
370
    25
100
AcDbCircle
 10
267.9591200877
 20
36.5963768618
 30
0.0
 40
1.606909551478686
100
AcDbArc
 50
158.6729431623
 51
172.8320717407
  0
ARC
  5
1DA
330
1F
100
AcDbEntity
  8
0
  6
Continuous
 62
     7
370
    25
100
AcDbCircle
 10
266.1638916398
 20
37.7037862153
 30
0.0
 40
1.825981247892193
100
AcDbArc
 50
307.9699718547
 51
339.183024314
  0
LINE
  5
1DB
330
1F
100
AcDbEntity
  8
0
  6
Continuous
 62
     7
370
    25
100
AcDbLine
 10
267.876466163
 20
37.0620678274
 30
0.0
 11
267.8706736055
 21
37.0548618443
 31
0.0
  0
LINE
  5
1DC
330
1F
100
AcDbEntity
  8
0
  6
Continuous
 62
     7
370
    25
100
AcDbLine
 10
267.876466163
 20
37.0620678274
 30
0.0
 11
267.876466163
 21
37.069791849
 31
0.0
  0
SPLINE
  5
1DD
330
1F
100
AcDbEntity
  8
0
  6
Continuous
 62
     7
370
    25
100
AcDbSpline
210
0.0
220
0.0
230
1.0
 70
     8
 71
     3
 72
    10
 73
     6
 74
     0
 42
0.000000001
 43
0.00000001
 40
0.0
 40
0.0
 40
0.0
 40
0.0
 40
0.4395944420415739
 40
0.7571239196827025
 40
1.0
 40
1.0
 40
1.0
 40
1.0
 10
267.1751518233761
 20
38.06763582469861
 30
0.0
 10
267.227915580795
 20
38.0858407244504
 30
0.0
 10
267.3187918499506
 20
38.11719545449085
 30
0.0
 10
267.6028378422064
 20
38.07387805946735
 30
0.0
 10
267.7896921697644
 20
38.02613674371558
 30
0.0
 10
267.870673605482
 20
38.00544597169464
 30
0.0
  0
LINE
  5
1DE
330
1F
100
AcDbEntity
  8
0
  6
Continuous
 62
     7
370
    25
100
AcDbLine
 10
266.5241180155
 20
37.3002946723
 30
0.0
 11
266.8815344861
 21
37.6364296588
 31
0.0
  0
SPLINE
  5
1DF
330
1F
100
AcDbEntity
  8
0
  6
Continuous
 62
     7
370
    25
100
AcDbSpline
210
0.0
220
0.0
230
1.0
 70
     8
 71
     3
 72
     9
 73
     5
 74
     0
 42
0.000000001
 43
0.00000001
 40
0.0
 40
0.0
 40
0.0
 40
0.0
 40
0.6786681458949568
 40
0.9999999999999999
 40
0.9999999999999999
 40
0.9999999999999999
 40
0.9999999999999999
 10
266.8815344861359
 20
37.63642965879183
 30
0.0
 10
266.8724200867386
 20
37.67245878978989
 30
0.0
 10
266.858990254423
 20
37.72554678458673
 30
0.0
 10
266.8563076069834
 20
37.77471075777028
 30
0.0
 10
266.8554455869076
 20
37.79050870842853
 30
0.0
  0
SPLINE
  5
1E0
330
1F
100
AcDbEntity
  8
0
  6
Continuous
 62
     7
370
    25
100
AcDbSpline
210
0.0
220
0.0
230
1.0
 70
     8
 71
     3
 72
    11
 73
     7
 74
     0
 42
0.000000001
 43
0.00000001
 40
0.0
 40
0.0
 40
0.0
 40
0.0
 40
0.178410053899575
 40
0.5165279805494587
 40
0.8702849330418287
 40
1.0
 40
1.0
 40
1.0
 40
1.0
 10
267.8764661629742
 20
37.9972039115775
 30
0.0
 10
267.855744047835
 20
37.95705292568768
 30
0.0
 10
267.7957499384694
 20
37.84080887326219
 30
0.0
 10
267.7502057742821
 20
37.5848294781361
 30
0.0
 10
267.8042226370395
 20
37.28989322051216
 30
0.0
 10
267.8611835942254
 20
37.11635262101185
 30
0.0
 10
267.8764661629742
 20
37.06979184897436
 30
0.0
  0
LINE
  5
1E1
330
1F
100
AcDbEntity
  8
0
  6
Continuous
 62
     7
370
    25
100
AcDbLine
 10
266.8815344861
 20
37.6364296588
 30
0.0
 11
267.876466163
 21
37.0620678274
 31
0.0
  0
SPLINE
  5
1E2
330
1F
100
AcDbEntity
  8
0
  6
Continuous
 62
     7
370
    25
100
AcDbSpline
210
0.0
220
0.0
230
1.0
 70
     8
 71
     3
 72
    10
 73
     6
 74
     0
 42
0.000000001
 43
0.00000001
 40
0.0
 40
0.0
 40
0.0
 40
0.0
 40
0.4961433884902827
 40
0.8545195095594383
 40
1.0
 40
1.0
 40
1.0
 40
1.0
 10
267.870673605482
 20
37.05486184433362
 30
0.0
 10
267.7246329776766
 20
36.957831354376
 30
0.0
 10
267.4731037453155
 20
36.79071344327536
 30
0.0
 10
267.2806982734642
 20
36.49990430137272
 30
0.0
 10
267.2310257370622
 20
36.34873219985065
 30
0.0
 10
267.2166835913165
 20
36.30508368761924
 30
0.0
  0
LWPOLYLINE
  5
1E3
330
1F
100
AcDbEntity
  8
0
  6
Continuous
 62
     7
370
    25
100
AcDbPolyline
 90
       17
 70
   128
 43
0.0
 10
269.487394281
 20
33.2622266778
 10
269.1423251907
 20
33.4021604643
 10
268.6467036885
 20
33.4464764141
 10
268.1036265635
 20
33.3414246521
 10
267.5353274411
 20
33.0913058919
 10
266.9650725857
 20
32.7063601795
 10
266.4162083362
 20
32.2023472188
 10
265.9112052089
 20
31.5999011966
 10
265.470738044
 20
30.9236862621
 10
265.1128396835
 20
30.2013870383
 10
264.8521625779
 20
29.4625743657
 10
264.6993787703
 20
28.7374952725
 10
264.6607432811
 20
28.0558346842
 10
264.7378379342
 20
27.4454998126
 10
264.9275063258
 20
26.9314778754
 10
265.2219835575
 20
26.5348129519
 10
265.4877192727
 20
26.3338357931
  0
LINE
  5
1E4
330
1F
100
AcDbEntity
  8
0
  6
Continuous
 62
     7
370
    25
100
AcDbLine
 10
272.4576328438
 20
27.6287416286
 30
0.0
 11
272.4576328438
 21
29.5415691103
 31
0.0
  0
LINE
  5
1E5
330
1F
100
AcDbEntity
  8
0
  6
Continuous
 62
     7
370
    25
100
AcDbLine
 10
272.4576328438
 20
29.5415691103
 30
0.0
 11
271.0230899452
 21
29.6698388634
 31
0.0
  0
LINE
  5
1E6
330
1F
100
AcDbEntity
  8
0
  6
Continuous
 62
     7
370
    25
100
AcDbLine
 10
269.5885470467
 20
27.8852811348
 30
0.0
 11
271.0230899452
 21
29.6698388634
 31
0.0
  0
LINE
  5
1E7
330
1F
100
AcDbEntity
  8
0
  6
Continuous
 62
     7
370
    25
100
AcDbLine
 10
269.5885470467
 20
25.9724536531
 30
0.0
 11
269.5885470467
 21
27.8852811348
 31
0.0
  0
LINE
  5
1E8
330
1F
100
AcDbEntity
  8
0
  6
Continuous
 62
     7
370
    25
100
AcDbLine
 10
269.5885470467
 20
25.9724536531
 30
0.0
 11
271.0230899452
 21
25.8441839001
 31
0.0
  0
LINE
  5
1E9
330
1F
100
AcDbEntity
  8
0
  6
Continuous
 62
     7
370
    25
100
AcDbLine
 10
272.4576328438
 20
27.6287416286
 30
0.0
 11
271.0230899452
 21
25.8441839001
 31
0.0
  0
ARC
  5
1EA
330
1F
100
AcDbEntity
  8
0
  6
Continuous
 62
     7
370
    25
100
AcDbCircle
 10
267.4364237915
 20
29.8299332095
 30
0.0
 40
3.275566879661527
100
AcDbArc
 50
320.7388720639
 51
349.0713768258
  0
ARC
  5
1EB
330
1F
100
AcDbEntity
  8
0
  6
Continuous
 62
     7
370
    25
100
AcDbCircle
 10
267.6844133184
 20
29.578796708
 30
0.0
 40
2.924863400658287
100
AcDbArc
 50
310.6183139769
 51
321.4736014978
  0
LINE
  5
1EC
330
1F
100
AcDbEntity
  8
0
  6
Continuous
 62
     7
370
    25
100
AcDbLine
 10
269.5885481992
 20
26.6723272225
 30
0.0
 11
271.0230899452
 21
25.8441839001
 31
0.0
  0
LINE
  5
1ED
330
1F
100
AcDbEntity
  8
0
  6
Continuous
 62
     7
370
    25
100
AcDbLine
 10
270.6898675767
 20
28.6492507952
 30
0.0
 11
272.4576328438
 21
27.6287416286
 31
0.0
  0
LINE
  5
1EE
330
1F
100
AcDbEntity
  8
0
  6
Continuous
 62
     7
370
    25
100
AcDbLine
 10
270.6898675767
 20
28.6492507952
 30
0.0
 11
270.6898675767
 21
29.2553102991
 31
0.0
  0
LINE
  5
1EF
330
1F
100
AcDbEntity
  8
0
  6
Continuous
 62
     7
370
    25
100
AcDbLine
 10
269.9725961274
 20
27.7569719784
 30
0.0
 11
269.5885487548
 21
27.2792206704
 31
0.0
  0
LINE
  5
1F0
330
1F
100
AcDbEntity
  8
0
  6
Continuous
 62
     7
370
    25
100
AcDbLine
 10
270.6898675767
 20
28.6492507952
 30
0.0
 11
269.9725961274
 21
27.7569719784
 31
0.0
  0
SPLINE
  5
1F1
330
1F
100
AcDbEntity
  8
0
  6
Continuous
 62
     7
370
    25
100
AcDbSpline
210
0.0
220
0.0
230
1.0
 70
     8
 71
     3
 72
    14
 73
    10
 74
     0
 42
0.000000001
 43
0.00000001
 40
0.0
 40
0.0
 40
0.0
 40
0.0
 40
0.25
 40
0.25
 40
0.5
 40
0.5
 40
0.75
 40
0.75
 40
1.0
 40
1.0
 40
1.0
 40
1.0
 10
231.1425000089856
 20
35.77908384932154
 30
0.0
 10
231.0953269017533
 20
35.75185139417543
 30
0.0
 10
231.0397628370545
 20
35.73010703603448
 30
0.0
 10
230.9178373649355
 20
35.69986160862846
 30
0.0
 10
230.8517408440597
 20
35.69156257851815
 30
0.0
 10
230.7195489149229
 20
35.69012996273839
 30
0.0
 10
230.6526137633922
 20
35.69707993692
 30
0.0
 10
230.5300032717219
 20
35.72528929052941
 30
0.0
 10
230.4730678169182
 20
35.74686513483706
 30
0.0
 10
230.426325273546
 20
35.77384903075746
 30
0.0
  0
SPLINE
  5
1F2
330
1F
100
AcDbEntity
  8
0
  6
Continuous
 62
     7
370
    25
100
AcDbSpline
210
0.0
220
0.0
230
1.0
 70
     8
 71
     3
 72
    12
 73
     8
 74
     0
 42
0.000000001
 43
0.00000001
 40
0.0
 40
0.0
 40
0.0
 40
0.0
 40
0.2500000000000032
 40
0.2500000000000032
 40
0.5000000000000064
 40
0.5000000000000064
 40
1.0
 40
1.0
 40
1.0
 40
1.0
 10
258.7547884296257
 20
63.53907362591174
 30
0.0
 10
258.8085604485737
 20
63.50803170011903
 30
0.0
 10
258.8610487236919
 20
63.4590570708622
 30
0.0
 10
258.9520546506305
 20
63.34232619601269
 30
0.0
 10
258.9906290041598
 20
63.27487473067956
 30
0.0
 10
259.080452593456
 20
63.07055750367266
 30
0.0
 10
259.108341820219
 20
62.93019467447525
 30
0.0
 10
259.108341820219
 20
62.80737794942056
 30
0.0
  0
LINE
  5
1F3
330
1F
100
AcDbEntity
  8
0
  6
Continuous
 62
     7
370
    25
100
AcDbLine
 10
230.4263248143
 20
35.773848734
 30
0.0
 11
228.7688769476
 21
36.7306730209
 31
0.0
  0
LWPOLYLINE
  5
1F4
330
1F
100
AcDbEntity
  8
0
  6
Continuous
 62
     7
370
    25
100
AcDbPolyline
 90
       26
 70
   128
 43
0.0
 10
228.7688769476
 20
36.7306730209
 10
229.140442247
 20
38.5429775007
 10
229.6228353187
 20
40.3792687481
 10
230.2128846124
 20
42.2274834577
 10
230.9067178864
 20
44.0754846249
 10
231.6997753785
 20
45.911131127
 10
232.5868493187
 20
47.7223693553
 10
233.5621129053
 20
49.497299373
 10
234.6191611343
 20
51.2242646452
 10
235.7510489954
 20
52.8919219987
 10
236.9503434966
 20
54.4893172828
 10
238.2091671287
 20
56.0059591301
 10
239.5192512067
 20
57.4318847318
 10
240.8719908589
 20
58.7577296046
 10
242.2585010027
 20
59.9747827193
 10
243.6696749555
 20
61.0750522755
 10
245.0962432916
 20
62.051311846
 10
246.528836034
 20
62.8971469264
 10
247.9580435284
 20
63.6070037648
 10
249.3744784285
 20
64.1762190616
 10
250.7688367765
 20
64.6010537097
 10
252.1319610171
 20
64.878718525
 10
253.4548965912
 20
65.0073871456
 10
254.7289543334
 20
64.9862168432
 10
255.9457667771
 20
64.8153475679
 10
257.0973411677
 20
64.4958975697
  0
LINE
  5
1F5
330
1F
100
AcDbEntity
  8
0
  6
Continuous
 62
     7
370
    25
100
AcDbLine
 10
257.0973411677
 20
64.4958975697
 30
0.0
 11
258.7547890344
 21
63.5390732828
 31
0.0
  0
LINE
  5
1F6
330
1F
100
AcDbEntity
  8
0
  6
Continuous
 62
     7
370
    25
100
AcDbLine
 10
263.5454375707
 20
54.0766309678
 30
0.0
 11
264.9839542915
 21
54.9070689943
 31
0.0
  0
LINE
  5
1F7
330
1F
100
AcDbEntity
  8
0
  6
Continuous
 62
     7
370
    25
100
AcDbLine
 10
263.5454375707
 20
45.9297999992
 30
0.0
 11
263.5454375707
 21
54.0766309678
 31
0.0
  0
LINE
  5
1F8
330
1F
100
AcDbEntity
  8
0
  6
Continuous
 62
     7
370
    25
100
AcDbLine
 10
264.9839542915
 20
46.7416610579
 30
0.0
 11
263.5615271302
 21
45.9205113364
 31
0.0
  0
LINE
  5
1F9
330
1F
100
AcDbEntity
  8
0
  6
Continuous
 62
     7
370
    25
100
AcDbLine
 10
231.1425005278
 20
26.7971351682
 30
0.0
 11
232.503448608
 21
27.5827937717
 31
0.0
  0
LINE
  5
1FA
330
1F
100
AcDbEntity
  8
0
  6
Continuous
 62
     7
370
    25
100
AcDbLine
 10
232.503448608
 20
27.5827937717
 30
0.0
 11
232.503448608
 21
36.5647426538
 31
0.0
  0
LINE
  5
1FB
330
1F
100
AcDbEntity
  8
0
  6
Continuous
 62
     7
370
    25
100
AcDbLine
 10
232.503448608
 20
36.5647426538
 30
0.0
 11
231.1425005278
 21
35.7790840503
 31
0.0
  0
LINE
  5
1FC
330
1F
100
AcDbEntity
  8
0
  6
Continuous
 62
     7
370
    25
100
AcDbLine
 10
259.108342483
 20
62.8073787977
 30
0.0
 11
259.108342483
 21
60.2317244455
 31
0.0
  0
LINE
  5
1FD
330
1F
100
AcDbEntity
  8
0
  6
Continuous
 62
     7
370
    25
100
AcDbLine
 10
261.3388037556
 20
61.5193423305
 30
0.0
 11
259.108342483
 21
60.2317244455
 31
0.0
  0
LWPOLYLINE
  5
1FE
330
1F
100
AcDbEntity
  8
0
  6
Continuous
 62
     7
370
    25
100
AcDbPolyline
 90
       24
 70
   128
 43
0.0
 10
227.790091465
 20
38.2768754603
 10
228.1649376331
 20
40.0331555705
 10
228.6480498354
 20
41.8111785628
 10
229.2361630083
 20
43.5989275287
 10
229.9253034941
 20
45.3843217473
 10
230.7108140661
 20
47.1552946305
 10
231.5873842215
 20
48.8998762302
 10
232.5490923279
 20
50.6062776459
 10
233.5894365755
 20
52.2629666876
 10
234.7013876601
 20
53.8587461989
 10
235.8774302719
 20
55.3828320003
 10
237.1096164372
 20
56.8249232268
 10
238.3896188606
 20
58.1752757084
 10
239.7087865723
 20
59.4247614699
 10
241.0582048553
 20
60.5649383086
 10
242.4287538558
 20
61.5880973175
 10
243.8111708574
 20
62.4873277322
 10
245.1961132949
 20
63.2565487464
 10
246.5742213986
 20
63.8905639258
 10
247.9361816617
 20
64.3850887222
 10
249.2727896076
 20
64.7367791032
 10
250.575011652
 20
64.94325966
 10
251.834047994
 20
65.003134058
 10
252.7213939131
 20
64.9539549311
  0
SPLINE
  5
1FF
330
1F
100
AcDbEntity
  8
0
  6
Continuous
 62
     7
370
    25
100
AcDbSpline
210
0.0
220
0.0
230
1.0
 70
     8
 71
     3
 72
     8
 73
     4
 74
     0
 42
0.000000001
 43
0.00000001
 40
0.0
 40
0.0
 40
0.0
 40
0.0
 40
1.0
 40
1.0
 40
1.0
 40
1.0
 10
227.7900916478825
 20
38.27687574376116
 30
0.0
 10
227.3475552940371
 20
38.2051892133319
 30
0.0
 10
226.9049461039854
 20
38.13365304773013
 30
0.0
 10
226.462274397769
 20
38.06224689142542
 30
0.0
  0
LWPOLYLINE
  5
200
330
1F
100
AcDbEntity
  8
0
  6
Continuous
 62
     7
370
    25
100
AcDbPolyline
 90
       26
 70
   128
 43
0.0
 10
226.4622741004
 20
38.0622465012
 10
226.8338393998
 20
39.874550981
 10
227.3162324716
 20
41.7108422284
 10
227.9062817653
 20
43.559056938
 10
228.6001150392
 20
45.4070581052
 10
229.3931725313
 20
47.2427046073
 10
230.2802464716
 20
49.0539428357
 10
231.2555100581
 20
50.8288728533
 10
232.3125582871
 20
52.5558381255
 10
233.4444461482
 20
54.223495479
 10
234.6437406495
 20
55.8208907631
 10
235.9025642816
 20
57.3375326104
 10
237.2126483596
 20
58.7634582121
 10
238.5653880118
 20
60.0893030849
 10
239.9518981556
 20
61.3063561997
 10
241.3630721083
 20
62.4066257558
 10
242.7896404444
 20
63.3828853263
 10
244.2222331869
 20
64.2287204067
 10
245.6514406812
 20
64.9385772451
 10
247.0678755814
 20
65.5077925419
 10
248.4622339294
 20
65.93262719
 10
249.8253581699
 20
66.2102920053
 10
251.148293744
 20
66.3389606259
 10
252.4223514862
 20
66.3177903235
 10
253.63916393
 20
66.1469210482
 10
254.7907383205
 20
65.82747105
  0
LINE
  5
201
330
1F
100
AcDbEntity
  8
0
  6
Continuous
 62
     7
370
    25
100
AcDbLine
 10
254.7907383205
 20
65.82747105
 30
0.0
 11
255.0738722878
 21
64.9251251263
 31
0.0
  0
LINE
  5
202
330
1F
100
AcDbEntity
  8
0
  6
Continuous
 62
     7
370
    25
100
AcDbLine
 10
250.623061035
 20
68.2334199349
 30
0.0
 11
254.7907383205
 21
65.82747105
 31
0.0
  0
LINE
  5
203
330
1F
100
AcDbEntity
  8
0
  6
Continuous
 62
     7
370
    25
100
AcDbLine
 10
226.4622741004
 20
38.0622465012
 30
0.0
 11
225.8301306418
 21
38.4271751522
 31
0.0
  0
SPLINE
  5
204
330
1F
100
AcDbEntity
  8
0
  6
Continuous
 62
     7
370
    25
100
AcDbSpline
210
0.0
220
0.0
230
1.0
 70
     8
 71
     3
 72
    30
 73
    26
 74
     0
 42
0.000000001
 43
0.00000001
 40
0.0
 40
0.0
 40
0.0
 40
0.0
 40
0.1249999999999998
 40
0.1249999999999998
 40
0.1874999999999996
 40
0.1874999999999996
 40
0.2499999999999995
 40
0.2499999999999995
 40
0.3749999999999994
 40
0.3749999999999994
 40
0.4374999999999993
 40
0.4374999999999993
 40
0.4999999999999992
 40
0.4999999999999992
 40
0.6249999999999996
 40
0.6249999999999996
 40
0.6874999999999997
 40
0.6874999999999997
 40
0.7499999999999998
 40
0.7499999999999998
 40
0.8124999999999999
 40
0.8124999999999999
 40
0.8749999999999999
 40
0.8749999999999999
 40
1.0
 40
1.0
 40
1.0
 40
1.0
 10
225.8301311958334
 20
38.42717539418128
 30
0.0
 10
225.5958155622268
 20
38.56244293021191
 30
0.0
 10
225.3603150856981
 20
38.66570545914126
 30
0.0
 10
225.0057646383084
 20
38.77494819690504
 30
0.0
 10
224.8873703749094
 20
38.80370115890174
 30
0.0
 10
224.6503157298591
 20
38.84565432355145
 30
0.0
 10
224.5314958186233
 20
38.85875945845355
 30
0.0
 10
224.1828519346471
 20
38.87401084746786
 30
0.0
 10
223.9580870920051
 20
38.85293208602586
 30
0.0
 10
223.6338764444014
 20
38.77592903415016
 30
0.0
 10
223.5274603684901
 20
38.74242042911695
 30
0.0
 10
223.3221511385177
 20
38.66088208299333
 30
0.0
 10
223.22355640801
 20
38.61307647789199
 30
0.0
 10
222.940058414211
 20
38.44940926833908
 30
0.0
 10
222.7673154405408
 20
38.3134971718625
 30
0.0
 10
222.5351906420448
 20
38.06912603495742
 30
0.0
 10
222.4628766562187
 20
37.98130894974977
 30
0.0
 10
222.3305583421491
 20
37.7959283808095
 30
0.0
 10
222.2702044034284
 20
37.69800738076917
 30
0.0
 10
222.1612412692853
 20
37.49191953006493
 30
0.0
 10
222.1126314441871
 20
37.38375272322067
 30
0.0
 10
222.0275956282925
 20
37.15706300971393
 30
0.0
 10
221.9910447491175
 20
37.03792258199115
 30
0.0
 10
221.9020504720246
 20
36.66993825353703
 30
0.0
 10
221.8697139150444
 20
36.41071312824035
 30
0.0
 10
221.8650280087476
 20
36.1375065468102
 30
0.0
  0
ARC
  5
205
330
1F
100
AcDbEntity
  8
0
  6
Continuous
 62
     7
370
    25
100
AcDbCircle
 10
245.4277056294
 20
35.7292362809
 30
0.0
 40
23.56621418174409
100
AcDbArc
 50
179.0073355702
 51
180.9926644298
  0
SPLINE
  5
206
330
1F
100
AcDbEntity
  8
0
  6
Continuous
 62
     7
370
    25
100
AcDbSpline
210
0.0
220
0.0
230
1.0
 70
     8
 71
     3
 72
    30
 73
    26
 74
     0
 42
0.000000001
 43
0.00000001
 40
0.0
 40
0.0
 40
0.0
 40
0.0
 40
0.1250000000000001
 40
0.1250000000000001
 40
0.1875000000000001
 40
0.1875000000000001
 40
0.2500000000000001
 40
0.2500000000000001
 40
0.3749999999999998
 40
0.3749999999999998
 40
0.4374999999999997
 40
0.4374999999999997
 40
0.4999999999999997
 40
0.4999999999999997
 40
0.6249999999999997
 40
0.6249999999999997
 40
0.6874999999999997
 40
0.6874999999999997
 40
0.7499999999999998
 40
0.7499999999999998
 40
0.8124999999999998
 40
0.8124999999999998
 40
0.8749999999999999
 40
0.8749999999999999
 40
1.0
 40
1.0
 40
1.0
 40
1.0
 10
221.8650280087476
 20
35.32096573492445
 30
0.0
 10
221.8697142554064
 20
35.05314993429272
 30
0.0
 10
221.9020237757251
 20
34.77943376930731
 30
0.0
 10
221.9896818310937
 20
34.36018562211191
 30
0.0
 10
222.0254760024072
 20
34.2189752034196
 30
0.0
 10
222.1103366172596
 20
33.93347458842745
 30
0.0
 10
222.1595892651733
 20
33.78888952359642
 30
0.0
 10
222.3237936013427
 20
33.35979725444481
 30
0.0
 10
222.4558460594031
 20
33.07682443896097
 30
0.0
 10
222.685896626922
 20
32.65582052822383
 30
0.0
 10
222.7683596654158
 20
32.51541545835004
 30
0.0
 10
222.9421114006349
 20
32.23875116425581
 30
0.0
 10
223.0329129924686
 20
32.10316661520943
 30
0.0
 10
223.3163074647
 20
31.70406954844979
 30
0.0
 10
223.519787339367
 20
31.44814260544261
 30
0.0
 10
223.8456953266158
 20
31.07851662540694
 30
0.0
 10
223.9574359420769
 20
30.95819777822141
 30
0.0
 10
224.1827400462142
 20
30.72736018009061
 30
0.0
 10
224.2968626936933
 20
30.61619758601105
 30
0.0
 10
224.5277724802577
 20
30.40212377683607
 30
0.0
 10
224.6445598962665
 20
30.29921265010161
 30
0.0
 10
224.8806428587363
 20
30.10165448318638
 30
0.0
 10
225.000520233126
 20
30.006582710581
 30
0.0
 10
225.3590034882898
 20
29.73777763197844
 30
0.0
 10
225.5958121548531
 20
29.58049596650367
 30
0.0
 10
225.8301311958334
 20
29.44522646343803
 30
0.0
  0
LINE
  5
207
330
1F
100
AcDbEntity
  8
0
  6
Continuous
 62
     7
370
    25
100
AcDbLine
 10
225.8301306418
 20
29.4452262701
 30
0.0
 11
226.4622741004
 21
29.0802976192
 31
0.0
  0
LWPOLYLINE
  5
208
330
1F
100
AcDbEntity
  8
0
  6
Continuous
 62
     7
370
    25
100
AcDbPolyline
 90
       10
 70
   128
 43
0.0
 10
232.4144614643
 20
21.3016767465
 10
232.1926057221
 20
21.3898884454
 10
231.1580731298
 20
21.904094175
 10
230.2037156972
 20
22.5564479564
 10
229.3356328635
 20
23.342782641
 10
228.5593708905
 20
24.2580733301
 10
227.8798873014
 20
25.2964715989
 10
227.3015245385
 20
26.4513435221
 10
226.8279783537
 20
27.7153111222
 10
226.4622741004
 20
29.0802976192
  0
LINE
  5
209
330
1F
100
AcDbEntity
  8
0
  6
Continuous
 62
     7
370
    25
100
AcDbLine
 10
256.742690584
 20
64.7001286699
 30
0.0
 11
257.0951014578
 21
64.4966862028
 31
0.0
  0
SPLINE
  5
20A
330
1F
100
AcDbEntity
  8
0
  6
Continuous
 62
     7
370
    25
100
AcDbSpline
210
0.0
220
0.0
230
1.0
 70
     8
 71
     3
 72
    22
 73
    18
 74
     0
 42
0.000000001
 43
0.00000001
 40
0.0
 40
0.0
 40
0.0
 40
0.0
 40
0.2500000000000009
 40
0.2500000000000009
 40
0.3750000000000009
 40
0.3750000000000009
 40
0.500000000000001
 40
0.500000000000001
 40
0.6250000000000009
 40
0.6250000000000009
 40
0.7500000000000007
 40
0.7500000000000007
 40
0.8750000000000004
 40
0.8750000000000004
 40
0.9375000000000002
 40
0.9375000000000002
 40
1.0
 40
1.0
 40
1.0
 40
1.0
 10
250.6230604459804
 20
68.23342026889235
 30
0.0
 10
251.0550925415195
 20
68.0651498307859
 30
0.0
 10
251.5054671898849
 20
67.85447382590569
 30
0.0
 10
252.2304406315691
 20
67.46937958964905
 30
0.0
 10
252.4824079552885
 20
67.32825405137326
 30
0.0
 10
252.9952000684208
 20
67.02923708215607
 30
0.0
 10
253.2567213804798
 20
66.87107124480026
 30
0.0
 10
253.7942960620784
 20
66.53847130346277
 30
0.0
 10
254.0722586067413
 20
66.36277349209675
 30
0.0
 10
254.6248645254866
 20
66.01113057600338
 30
0.0
 10
254.901860450658
 20
65.83375174688067
 30
0.0
 10
255.4600480305547
 20
65.4794413275681
 30
0.0
 10
255.7302241197145
 20
65.30958348785565
 30
0.0
 10
256.1216914348109
 20
65.06901450288093
 30
0.0
 10
256.2499386649188
 20
64.99114662033253
 30
0.0
 10
256.5018003041003
 20
64.84054032483411
 30
0.0
 10
256.6246925379467
 20
64.76824748562318
 30
0.0
 10
256.7426911968061
 20
64.70012830982107
 30
0.0
  0
LWPOLYLINE
  5
20B
330
1F
100
AcDbEntity
  8
0
  6
Continuous
 62
     7
370
    25
100
AcDbPolyline
 90
        9
 70
   128
 43
0.0
 10
241.4311583459
 20
68.8584962406
 10
242.4845552749
 20
69.1844912993
 10
243.8281049384
 20
69.4831452062
 10
245.1345913878
 20
69.6386452615
 10
246.3957554871
 20
69.6500091518
 10
247.6036222622
 20
69.5171638604
 10
248.7505558897
 20
69.2409500351
 10
249.8293057944
 20
68.8231136186
 10
250.4648328547
 20
68.4917720149
  0
LWPOLYLINE
  5
20C
330
1F
100
AcDbEntity
  8
0
  6
Continuous
 62
     7
370
    25
100
AcDbPolyline
 90
        9
 70
   128
 43
0.0
 10
225.4668652875
 20
25.1893286527
 10
224.6269049385
 20
25.7442640081
 10
223.7474068943
 20
26.5026839315
 10
222.9578014925
 20
27.3896851322
 10
222.2630831347
 20
28.3996617695
 10
221.6676416786
 20
29.5262278246
 10
221.1752426816
 20
30.7622596882
 10
220.7889997422
 20
32.0999444528
 10
220.5677301046
 20
33.1808426817
  0
LINE
  5
20D
330
1F
100
AcDbEntity
  8
0
  6
Continuous
 62
     7
370
    25
100
AcDbLine
 10
228.1111924987
 20
38.4622431414
 30
0.0
 11
227.790091465
 21
38.2768754603
 31
0.0
  0
LINE
  5
20E
330
1F
100
AcDbEntity
  8
0
  6
Continuous
 62
     7
370
    25
100
AcDbLine
 10
229.0718416656
 20
38.2438288331
 30
0.0
 11
228.6851871359
 21
38.4670397419
 31
0.0
  0
SPLINE
  5
20F
330
1F
100
AcDbEntity
  8
0
  6
Continuous
 62
     7
370
    25
100
AcDbSpline
210
0.0
220
0.0
230
1.0
 70
     8
 71
     3
 72
    12
 73
     8
 74
     0
 42
0.000000001
 43
0.00000001
 40
0.0
 40
0.0
 40
0.0
 40
0.0
 40
0.25
 40
0.25
 40
0.5
 40
0.5
 40
1.0
 40
1.0
 40
1.0
 40
1.0
 10
228.6851873025746
 20
38.46704022162704
 30
0.0
 10
228.6477952649918
 20
38.48862618545347
 30
0.0
 10
228.6016469541368
 20
38.50606632047593
 30
0.0
 10
228.5029471167543
 20
38.52852244879026
 30
0.0
 10
228.4494355504588
 20
38.53390875439088
 30
0.0
 10
228.2908381307575
 20
38.53182759558076
 30
0.0
 10
228.1861240361397
 20
38.50550037508996
 30
0.0
 10
228.1111921976129
 20
38.46224314546448
 30
0.0
  0
ARC
  5
210
330
1F
100
AcDbEntity
  8
0
  6
Continuous
 62
     7
370
    25
100
AcDbCircle
 10
262.5922741409
 20
41.5673668372
 30
0.0
 40
4.245273353307464
100
AcDbArc
 50
30.6823534341
 51
88.7494188528
  0
ARC
  5
211
330
1F
100
AcDbEntity
  8
0
  6
Continuous
 62
     7
370
    25
100
AcDbCircle
 10
254.8491016201
 20
28.1548132162
 30
0.0
 40
4.248611102517605
100
AcDbArc
 50
210.8897374743
 51
269.4328276497
  0
SPLINE
  5
212
330
1F
100
AcDbEntity
  8
0
  6
Continuous
 62
     7
370
    25
100
AcDbSpline
210
0.0
220
0.0
230
1.0
 70
    11
 71
     3
 72
    74
 73
    70
 74
     0
 42
0.000000001
 43
0.00000001
 40
0.0
 40
0.0
 40
0.0
 40
0.0
 40
0.0312500000000002
 40
0.0312500000000002
 40
0.0625000000000003
 40
0.0625000000000003
 40
0.0937500000000005
 40
0.0937500000000005
 40
0.1250000000000007
 40
0.1250000000000007
 40
0.1562500000000009
 40
0.1562500000000009
 40
0.1875000000000011
 40
0.1875000000000011
 40
0.2187500000000012
 40
0.2187500000000012
 40
0.2500000000000014
 40
0.2500000000000014
 40
0.2812500000000016
 40
0.2812500000000016
 40
0.3125000000000017
 40
0.3125000000000017
 40
0.3437500000000019
 40
0.3437500000000019
 40
0.3750000000000021
 40
0.3750000000000021
 40
0.4062500000000023
 40
0.4062500000000023
 40
0.4218750000000021
 40
0.4218750000000021
 40
0.437500000000002
 40
0.437500000000002
 40
0.4687500000000018
 40
0.4687500000000018
 40
0.5000000000000016
 40
0.5000000000000016
 40
0.5312500000000013
 40
0.5312500000000013
 40
0.5625000000000011
 40
0.5625000000000011
 40
0.593750000000001
 40
0.593750000000001
 40
0.6250000000000008
 40
0.6250000000000008
 40
0.6562500000000007
 40
0.6562500000000007
 40
0.6875000000000004
 40
0.6875000000000004
 40
0.7187500000000003
 40
0.7187500000000003
 40
0.7500000000000001
 40
0.7500000000000001
 40
0.78125
 40
0.78125
 40
0.8124999999999999
 40
0.8124999999999999
 40
0.8437499999999997
 40
0.8437499999999997
 40
0.8749999999999996
 40
0.8749999999999996
 40
0.9062499999999993
 40
0.9062499999999993
 40
0.9218749999999994
 40
0.9218749999999994
 40
0.9374999999999996
 40
0.9374999999999996
 40
0.9687499999999998
 40
0.9687499999999998
 40
1.0
 40
1.0
 40
1.0
 40
1.0
 10
254.979292159856
 20
46.81738843981859
 30
0.0
 10
254.8616289594483
 20
46.7494629200586
 30
0.0
 10
254.7588507513181
 20
46.67272068988015
 30
0.0
 10
254.5816098673801
 20
46.50278153553529
 30
0.0
 10
254.5066632416909
 20
46.40834291935198
 30
0.0
 10
254.3914521614661
 20
46.21134622301174
 30
0.0
 10
254.3503275445019
 20
46.10847752268992
 30
0.0
 10
254.3004657276981
 20
45.89539839470026
 30
0.0
 10
254.2923603902235
 20
45.78655433344639
 30
0.0
 10
254.3082880099864
 20
45.57180900512643
 30
0.0
 10
254.3324859145168
 20
45.46406255623533
 30
0.0
 10
254.4113967532444
 20
45.25559009025912
 30
0.0
 10
254.4654541574521
 20
45.15572648042927
 30
0.0
 10
254.6014788792607
 20
44.9654571840297
 30
0.0
 10
254.6843725631076
 20
44.87448735157761
 30
0.0
 10
254.8721456118935
 20
44.70932394148819
 30
0.0
 10
254.9773502462853
 20
44.63432238501505
 30
0.0
 10
255.2104279298544
 20
44.49976718093254
 30
0.0
 10
255.3384756993964
 20
44.44048867510716
 30
0.0
 10
255.607469984748
 20
44.3421073870137
 30
0.0
 10
255.7495615638071
 20
44.30226074521443
 30
0.0
 10
256.049678479458
 20
44.24131200765681
 30
0.0
 10
256.2060512993023
 20
44.22075076734084
 30
0.0
 10
256.5226274934772
 20
44.19945024928595
 30
0.0
 10
256.6841147731774
 20
44.19842691205981
 30
0.0
 10
257.0141835774979
 20
44.21570586158537
 30
0.0
 10
257.1778037367208
 20
44.2337858378606
 30
0.0
 10
257.4194045002417
 20
44.27364162712134
 30
0.0
 10
257.4993985595879
 20
44.28907194054576
 30
0.0
 10
257.6582870896528
 20
44.32420769687231
 30
0.0
 10
257.7376745327218
 20
44.34406175117029
 30
0.0
 10
257.9693745460107
 20
44.4088515902603
 30
0.0
 10
258.1156968054795
 20
44.45889561605069
 30
0.0
 10
258.3920983288727
 20
44.57177516664726
 30
0.0
 10
258.5230974663755
 20
44.6353588758975
 30
0.0
 10
258.7556954694033
 20
44.76939475304026
 30
0.0
 10
258.8589403339087
 20
44.84034693892299
 30
0.0
 10
259.0386662646927
 20
44.99065658376251
 30
0.0
 10
259.1124790082377
 20
45.06791311989084
 30
0.0
 10
259.2279461687912
 20
45.22549872985962
 30
0.0
 10
259.2700560329422
 20
45.30703017028699
 30
0.0
 10
259.3198421601074
 20
45.46919740188293
 30
0.0
 10
259.328149595469
 20
45.55015709761001
 30
0.0
 10
259.3124083188979
 20
45.71343346556398
 30
0.0
 10
259.2881474072785
 20
45.79485251334451
 30
0.0
 10
259.2100406926585
 20
45.95432641492862
 30
0.0
 10
259.1556880236097
 20
46.03357122320381
 30
0.0
 10
259.0187235895625
 20
46.18909237720798
 30
0.0
 10
258.9373664793266
 20
46.26419435503396
 30
0.0
 10
258.7500527698552
 20
46.41011345606031
 30
0.0
 10
258.6428293023661
 20
46.48159063036206
 30
0.0
 10
258.4098321179526
 20
46.61606940207095
 30
0.0
 10
258.2842007054895
 20
46.67924589119346
 30
0.0
 10
258.0146640788852
 20
46.79720219883447
 30
0.0
 10
257.8694473811028
 20
46.85229392323458
 30
0.0
 10
257.5711720554631
 20
46.94866631259338
 30
0.0
 10
257.4171208328136
 20
46.99051374616754
 30
0.0
 10
257.0987007327408
 20
47.05984691957671
 30
0.0
 10
256.9339046627298
 20
47.08715174383791
 30
0.0
 10
256.6080874191879
 20
47.12271381915964
 30
0.0
 10
256.4452643023546
 20
47.13145335012717
 30
0.0
 10
256.2010275407733
 20
47.12892800822696
 30
0.0
 10
256.1195647804368
 20
47.12541338529365
 30
0.0
 10
255.9606501715311
 20
47.11300709186666
 30
0.0
 10
255.8826843139244
 20
47.10412246178716
 30
0.0
 10
255.6532248252438
 20
47.06921564611866
 30
0.0
 10
255.5052418312282
 20
47.03472855313871
 30
0.0
 10
255.2258344707091
 20
46.94227862152855
 30
0.0
 10
255.0969553602636
 20
46.88531395957855
 30
0.0
 10
254.9792921598559
 20
46.81738843981857
 30
0.0
  0
LINE
  5
213
330
1F
100
AcDbEntity
  8
0
  6
Continuous
 62
     7
370
    25
100
AcDbLine
 10
258.1484947648
 20
48.9969881236
 30
0.0
 11
258.6043827372
 21
48.695997135
 31
0.0
  0
LWPOLYLINE
  5
214
330
1F
100
AcDbEntity
  8
0
  6
Continuous
 62
     7
370
    25
100
AcDbPolyline
 90
       15
 70
   128
 43
0.0
 10
259.8512814453
 20
48.0613029575
 10
259.8323074609
 20
48.0732274885
 10
259.5283759996
 20
48.2362249784
 10
259.1432828789
 20
48.4303239732
 10
258.6887890453
 20
48.6565879455
 10
258.19418129
 20
48.910677117
 10
257.7228211437
 20
49.1723047982
 10
257.3570625606
 20
49.4031256936
 10
257.1631811305
 20
49.5563167971
 10
257.1668880775
 20
49.5937449769
 10
257.3345337529
 20
49.5147847188
 10
257.6043677553
 20
49.3526764607
 10
257.9448385586
 20
49.1319548282
 10
258.1484947648
 20
48.9969881236
 10
258.1484947648
 20
48.9969881236
  0
SPLINE
  5
215
330
1F
100
AcDbEntity
  8
0
  6
Continuous
 62
     7
370
    25
100
AcDbSpline
210
0.0
220
0.0
230
1.0
 70
     8
 71
     3
 72
    20
 73
    16
 74
     0
 42
0.000000001
 43
0.00000001
 40
0.0
 40
0.0
 40
0.0
 40
0.0
 40
0.0752864569989515
 40
0.141958435310296
 40
0.2192815030348025
 40
0.2899262109598055
 40
0.3586842924700875
 40
0.4314215948304086
 40
0.5116530527744151
 40
0.5996982207766978
 40
0.6927836489660326
 40
0.7868343729645947
 40
0.8772153835443456
 40
0.9590590690826081
 40
0.9999999999999999
 40
0.9999999999999999
 40
0.9999999999999999
 40
0.9999999999999999
 10
246.6485799639076
 20
28.05586723027311
 30
0.0
 10
246.4944157261798
 20
28.13301211981013
 30
0.0
 10
246.2037271370097
 20
28.27847477335237
 30
0.0
 10
245.7780057291768
 20
28.48964550320789
 30
0.0
 10
245.4336852519828
 20
28.67009427084391
 30
0.0
 10
245.2173931981628
 20
28.80109243727789
 30
0.0
 10
245.1476669040096
 20
28.86735666316093
 30
0.0
 10
245.2166991505335
 20
28.86486766005607
 30
0.0
 10
245.430529177981
 20
28.77866714329449
 30
0.0
 10
245.7889005938857
 20
28.59241193957488
 30
0.0
 10
246.262938030967
 20
28.30900527855286
 30
0.0
 10
246.79480076653
 20
27.96313592094376
 30
0.0
 10
247.2956072215012
 20
27.62864012592047
 30
0.0
 10
247.6648900244413
 20
27.38678980170054
 30
0.0
 10
247.7995769740886
 20
27.31015358330444
 30
0.0
 10
247.8444865829644
 20
27.28460023457319
 30
0.0
  0
SPLINE
  5
216
330
1F
100
AcDbEntity
  8
0
  6
Continuous
 62
     7
370
    25
100
AcDbSpline
210
0.0
220
0.0
230
1.0
 70
    11
 71
     3
 72
    70
 73
    66
 74
     0
 42
0.000000001
 43
0.00000001
 40
0.0
 40
0.0
 40
0.0
 40
0.0
 40
0.0312499999999996
 40
0.0312499999999996
 40
0.0624999999999993
 40
0.0624999999999993
 40
0.0937499999999992
 40
0.0937499999999992
 40
0.1249999999999992
 40
0.1249999999999992
 40
0.1562499999999991
 40
0.1562499999999991
 40
0.1874999999999991
 40
0.1874999999999991
 40
0.218749999999999
 40
0.218749999999999
 40
0.249999999999999
 40
0.249999999999999
 40
0.2812499999999989
 40
0.2812499999999989
 40
0.3124999999999989
 40
0.3124999999999989
 40
0.3437499999999989
 40
0.3437499999999989
 40
0.3749999999999988
 40
0.3749999999999988
 40
0.4062499999999989
 40
0.4062499999999989
 40
0.437499999999999
 40
0.437499999999999
 40
0.4687499999999991
 40
0.4687499999999991
 40
0.4999999999999992
 40
0.4999999999999992
 40
0.5312499999999993
 40
0.5312499999999993
 40
0.5624999999999993
 40
0.5624999999999993
 40
0.5937499999999994
 40
0.5937499999999994
 40
0.6249999999999996
 40
0.6249999999999996
 40
0.6562499999999996
 40
0.6562499999999996
 40
0.6874999999999997
 40
0.6874999999999997
 40
0.7187499999999998
 40
0.7187499999999998
 40
0.7499999999999998
 40
0.7499999999999998
 40
0.7812499999999999
 40
0.7812499999999999
 40
0.8125
 40
0.8125
 40
0.8437500000000001
 40
0.8437500000000001
 40
0.8750000000000001
 40
0.8750000000000001
 40
0.9062500000000001
 40
0.9062500000000001
 40
0.9375000000000001
 40
0.9375000000000001
 40
0.96875
 40
0.96875
 40
1.0
 40
1.0
 40
1.0
 40
1.0
 10
245.4512362030108
 20
42.66732380759321
 30
0.0
 10
245.5136199231769
 20
42.75770917014962
 30
0.0
 10
245.5839145493388
 20
42.83963844346565
 30
0.0
 10
245.7390998260311
 20
42.9878332983054
 30
0.0
 10
245.8247842754274
 20
43.05433321167884
 30
0.0
 10
246.0024848156619
 20
43.16643061723974
 30
0.0
 10
246.0956327034383
 20
43.21308173358936
 30
0.0
 10
246.287654896828
 20
43.28748782597616
 30
0.0
 10
246.3843442503447
 20
43.31448880211849
 30
0.0
 10
246.5786376516613
 20
43.35002077478722
 30
0.0
 10
246.6769827454173
 20
43.35841620731081
 30
0.0
 10
246.8677247466755
 20
43.35684171339432
 30
0.0
 10
246.9607721666569
 20
43.34711590270942
 30
0.0
 10
247.1420963248559
 20
43.31034198179038
 30
0.0
 10
247.2301120382497
 20
43.28313390167653
 30
0.0
 10
247.3949691266695
 20
43.21355287082152
 30
0.0
 10
247.4726699810142
 20
43.17104197222596
 30
0.0
 10
247.6184128654811
 20
43.0702778060455
 30
0.0
 10
247.6857482108669
 20
43.01229935164685
 30
0.0
 10
247.8058060028792
 20
42.88455306742621
 30
0.0
 10
247.8591589933215
 20
42.81438206854691
 30
0.0
 10
247.9520017183191
 20
42.66058647522879
 30
0.0
 10
247.9908408069731
 20
42.57768749835851
 30
0.0
 10
248.0512298549772
 20
42.40432520720136
 30
0.0
 10
248.0732106507504
 20
42.31321628173862
 30
0.0
 10
248.0995164558545
 20
42.12099852106483
 30
0.0
 10
248.1034356228395
 20
42.02155868452257
 30
0.0
 10
248.092426317088
 20
41.82099852499272
 30
0.0
 10
248.0775605157224
 20
41.71875088045581
 30
0.0
 10
248.0274635846181
 20
41.51169407710198
 30
0.0
 10
247.993190952402
 20
41.41064301964603
 30
0.0
 10
247.9064132548526
 20
41.21336942148106
 30
0.0
 10
247.8529718464539
 20
41.11598784646797
 30
0.0
 10
247.7321967339235
 20
40.93565979715602
 30
0.0
 10
247.664770332155
 20
40.85187160540033
 30
0.0
 10
247.515697550572
 20
40.6971173720037
 30
0.0
 10
247.4364710749187
 20
40.62871642061663
 30
0.0
 10
247.2701904737277
 20
40.50938812592398
 30
0.0
 10
247.182262900213
 20
40.45815522323485
 30
0.0
 10
247.0050700825374
 20
40.37629012236617
 30
0.0
 10
246.9150712842186
 20
40.34499262672557
 30
0.0
 10
246.7319453535092
 20
40.3012255860464
 30
0.0
 10
246.6411625684667
 20
40.28934518919175
 30
0.0
 10
246.4614795877197
 20
40.28431415805048
 30
0.0
 10
246.3716790173263
 20
40.29131922391696
 30
0.0
 10
246.1974685771453
 20
40.32378013225537
 30
0.0
 10
246.1134077297909
 20
40.34897127260714
 30
0.0
 10
245.9510414742
 20
40.41679606389295
 30
0.0
 10
245.8720751914277
 20
40.4599750893959
 30
0.0
 10
245.724820564621
 20
40.5615732852042
 30
0.0
 10
245.6562184057367
 20
40.61991354310693
 30
0.0
 10
245.5292131216612
 20
40.75167154288152
 30
0.0
 10
245.4703622108894
 20
40.82593255241657
 30
0.0
 10
245.3677097670755
 20
40.98507658384493
 30
0.0
 10
245.3234805498289
 20
41.0701296433311
 30
0.0
 10
245.2500697151276
 20
41.25145594074545
 30
0.0
 10
245.2207725640597
 20
41.34885613435967
 30
0.0
 10
245.1813843071957
 20
41.54756042078044
 30
0.0
 10
245.1708527696367
 20
41.64939701673207
 30
0.0
 10
245.1698069550207
 20
41.85821297711467
 30
0.0
 10
245.1797047224328
 20
41.96593889021887
 30
0.0
 10
245.2206398691259
 20
42.17520503968193
 30
0.0
 10
245.2515097543263
 20
42.27810570294698
 30
0.0
 10
245.3359644145451
 20
42.48005560432898
 30
0.0
 10
245.3888524828447
 20
42.57693844503678
 30
0.0
 10
245.4512362030108
 20
42.6673238075932
 30
0.0
  0
LWPOLYLINE
  5
217
330
1F
100
AcDbEntity
  8
0
  6
Continuous
 62
     7
370
    25
100
AcDbPolyline
 90
       18
 70
   128
 43
0.0
 10
254.5691647647
 20
32.9987625135
 10
254.7381848224
 20
33.8787505092
 10
255.0217590267
 20
34.8110339145
 10
255.4084267273
 20
35.7403507764
 10
255.8881731086
 20
36.642631673
 10
256.4485732468
 20
37.4945088407
 10
257.075112821
 20
38.27391786
 10
257.7515648828
 20
38.9606735284
 10
258.4604096789
 20
39.5369884567
 10
259.1832885317
 20
39.987936992
 10
259.9014792474
 20
40.3018395513
 10
260.5963810921
 20
40.470566167
 10
261.2499963945
 20
40.489747209
 10
261.8453966916
 20
40.3588854496
 10
262.3671618345
 20
40.0813703881
 10
262.8017781607
 20
39.6643894766
 10
263.1379894982
 20
39.1187423445
 10
263.3465462634
 20
38.539266687
  0
ARC
  5
218
330
1F
100
AcDbEntity
  8
0
  6
Continuous
 62
     7
370
    25
100
AcDbCircle
 10
257.0455613571
 20
31.5200037659
 30
0.0
 40
2.632245833819968
100
AcDbArc
 50
243.3659967481
 51
287.7260979689
  0
LINE
  5
219
330
1F
100
AcDbEntity
  8
0
  6
Continuous
 62
     7
370
    25
100
AcDbLine
 10
262.7849566291
 20
26.1659824846
 30
0.0
 11
262.6871701783
 21
26.2185545701
 31
0.0
  0
ARC
  5
21A
330
1F
100
AcDbEntity
  8
0
  6
Continuous
 62
     7
370
    25
100
AcDbCircle
 10
260.0094270841
 20
34.1688236022
 30
0.0
 40
39.95353687768684
100
AcDbArc
 50
138.3890655453
 51
171.3494634554
  0
LWPOLYLINE
  5
21B
330
1F
100
AcDbEntity
  8
0
  6
Continuous
 62
     7
370
    25
100
AcDbPolyline
 90
       15
 70
   128
 43
0.0
 10
255.9996416447
 20
32.1058201372
 10
256.0530130551
 20
32.732374764
 10
256.2192267255
 20
33.5654718355
 10
256.4909313235
 20
34.4164267495
 10
256.8603102551
 20
35.2607591329
 10
257.3167375754
 20
36.0741792771
 10
257.8470825655
 20
36.8332863094
 10
258.4360879015
 20
37.5162422128
 10
259.0668092333
 20
38.1033993568
 10
259.7211017355
 20
38.5778669314
 10
260.3801426523
 20
38.9259947362
 10
261.0249725593
 20
39.1377677747
 10
261.6370409472
 20
39.2070942161
 10
262.1987395705
 20
39.1319794502
 10
262.6359357448
 20
38.949493303
  0
ARC
  5
21C
330
1F
100
AcDbEntity
  8
0
  6
Continuous
 62
     7
370
    25
100
AcDbCircle
 10
258.1947597012
 20
31.1903483238
 30
0.0
 40
2.060057665933317
100
AcDbArc
 50
204.8959551879
 51
239.0853385441
  0
LWPOLYLINE
  5
21D
330
1F
100
AcDbEntity
  8
0
  6
Continuous
 62
     7
370
    25
100
AcDbPolyline
 90
       17
 70
   128
 43
0.0
 10
264.2719045239
 20
32.3283056531
 10
264.2274987031
 20
32.5604638362
 10
264.1010415293
 20
32.7060082422
 10
263.9117848927
 20
32.7427807883
 10
263.6885414326
 20
32.665183475
 10
263.4652981371
 20
32.4850294707
 10
263.2760415005
 20
32.2297458631
 10
263.1495843267
 20
31.938197112
 10
263.1051783413
 20
31.6547689645
 10
263.1495843267
 20
31.4226106863
 10
263.2760415005
 20
31.2770662803
 10
263.4652981371
 20
31.2402937342
 10
263.6885414326
 20
31.3178911426
 10
263.9117848927
 20
31.4980450518
 10
264.1010415293
 20
31.7533286594
 10
264.2274987031
 20
32.0448774105
 10
264.2719045239
 20
32.3283056531
  0
LINE
  5
21E
330
1F
100
AcDbEntity
  8
0
  6
Continuous
 62
     7
370
    25
100
AcDbLine
 10
264.1245532969
 20
28.7084450235
 30
0.0
 11
264.0893132632
 21
28.7299115398
 31
0.0
  0
LWPOLYLINE
  5
21F
330
1F
100
AcDbEntity
  8
0
  6
Continuous
 62
     7
370
    25
100
AcDbPolyline
 90
        3
 70
   128
 43
0.0
 10
261.3139797557
 20
39.3009408902
 10
261.3376030643
 20
39.2989595688
 10
261.5648774753
 20
39.265935009
  0
LWPOLYLINE
  5
220
330
1F
100
AcDbEntity
  8
0
  6
Continuous
 62
     7
370
    25
100
AcDbPolyline
 90
       18
 70
   128
 43
0.0
 10
246.1399738573
 20
40.6794903534
 10
246.5014759381
 20
40.568265956
 10
246.8985624713
 20
40.6182646095
 10
247.2776081778
 20
40.822734858
 10
247.587419783
 20
41.1540603338
 10
247.7861560032
 20
41.5674940318
 10
247.8469758812
 20
42.0072007212
 10
247.7616650622
 20
42.4137944016
 10
247.5417464287
 20
42.7323622981
 10
247.2169193501
 20
42.9198809791
 10
246.8310560616
 20
42.9510235424
 10
246.4362668609
 20
42.8215857039
 10
246.0858717918
 20
42.5490472141
 10
245.8271935334
 20
42.1702173182
 10
245.6951678719
 20
41.7362582016
 10
245.7076255584
 20
41.3057778552
 10
245.8628840116
 20
40.9369172282
 10
246.1399738573
 20
40.6794903534
  0
LINE
  5
221
330
1F
100
AcDbEntity
  8
0
  6
Continuous
 62
     7
370
    25
100
AcDbLine
 10
227.553700987
 20
30.4402222513
 30
0.0
 11
232.503448608
 21
27.5827937717
 31
0.0
  0
ARC
  5
222
330
1F
100
AcDbEntity
  8
0
  6
Continuous
 62
     7
370
    25
100
AcDbCircle
 10
231.6942474977
 20
36.9132507056
 30
0.0
 40
7.684023866253022
100
AcDbArc
 50
182.6054781208
 51
237.3945216397
  0
LINE
  5
223
330
1F
100
AcDbEntity
  8
0
  6
Continuous
 62
     7
370
    25
100
AcDbLine
 10
224.01816716
 20
37.3804873516
 30
0.0
 11
224.01816716
 21
36.5639465009
 31
0.0
  0
ARC
  5
224
330
1F
100
AcDbEntity
  8
0
  6
Continuous
 62
     7
370
    25
100
AcDbCircle
 10
227.2171962436
 20
37.4955169557
 30
0.0
 40
3.201096513287977
100
AcDbArc
 50
154.8355704303
 51
182.0593349952
  0
SPLINE
  5
225
330
1F
100
AcDbEntity
  8
0
  6
Continuous
 62
     7
370
    25
100
AcDbSpline
210
0.0
220
0.0
230
1.0
 70
     8
 71
     3
 72
     8
 73
     4
 74
     0
 42
0.000000001
 43
0.00000001
 40
0.0
 40
0.0
 40
0.0
 40
0.0
 40
1.0
 40
1.0
 40
1.0
 40
1.0
 10
212.2623972249853
 20
41.87381744363692
 30
0.0
 10
212.7292594506522
 20
41.49357585637499
 30
0.0
 10
213.1962942350356
 20
41.12666920783214
 30
0.0
 10
213.6634193472109
 20
40.76674288224019
 30
0.0
  0
SPLINE
  5
226
330
1F
100
AcDbEntity
  8
0
  6
Continuous
 62
     7
370
    25
100
AcDbSpline
210
0.0
220
0.0
230
1.0
 70
     8
 71
     3
 72
    14
 73
    10
 74
     0
 42
0.000000001
 43
0.00000001
 40
0.0
 40
0.0
 40
0.0
 40
0.0
 40
0.1249999999999987
 40
0.1249999999999987
 40
0.2499999999999973
 40
0.2499999999999973
 40
0.4999999999999947
 40
0.4999999999999947
 40
1.0
 40
1.0
 40
1.0
 40
1.0
 10
213.663419347211
 20
40.76674288224014
 30
0.0
 10
213.6898432858842
 20
40.74638287395452
 30
0.0
 10
213.713907228389
 20
40.73087057063987
 30
0.0
 10
213.7501764858141
 20
40.7138872020805
 30
0.0
 10
213.7621948608023
 20
40.71201296067457
 30
0.0
 10
213.7877091074727
 20
40.71615380200982
 30
0.0
 10
213.7919027699207
 20
40.73109619007283
 30
0.0
 10
213.7930095796563
 20
40.78544752641798
 30
0.0
 10
213.7773815945677
 20
40.83686848709398
 30
0.0
 10
213.757728861934
 20
40.89321731467994
 30
0.0
  0
SPLINE
  5
227
330
1F
100
AcDbEntity
  8
0
  6
Continuous
 62
     7
370
    25
100
AcDbSpline
210
0.0
220
0.0
230
1.0
 70
     8
 71
     3
 72
    14
 73
    10
 74
     0
 42
0.000000001
 43
0.00000001
 40
0.0
 40
0.0
 40
0.0
 40
0.0
 40
0.25
 40
0.25
 40
0.5
 40
0.5
 40
0.75
 40
0.75
 40
1.0
 40
1.0
 40
1.0
 40
1.0
 10
213.7577288619336
 20
40.89321731468031
 30
0.0
 10
213.7330630139956
 20
40.96393987721812
 30
0.0
 10
213.7222001432712
 20
41.02700617496832
 30
0.0
 10
213.7002497760763
 20
41.15857291592692
 30
0.0
 10
213.6899781812573
 20
41.2265262549186
 30
0.0
 10
213.6606741668988
 20
41.37513125876203
 30
0.0
 10
213.641881495669
 20
41.4555950651929
 30
0.0
 10
213.5889621911529
 20
41.63516593900724
 30
0.0
 10
213.5548830139739
 20
41.7339969849351
 30
0.0
 10
213.5107967616962
 20
41.84159703991436
 30
0.0
  0
LWPOLYLINE
  5
228
330
1F
100
AcDbEntity
  8
0
  6
Continuous
 62
     7
370
    25
100
AcDbPolyline
 90
        9
 70
   128
 43
0.0
 10
213.5107964829
 20
41.8415971924
 10
213.142716201
 20
42.9127425721
 10
212.8775874992
 20
44.0767454495
 10
212.7176204528
 20
45.3238966923
 10
212.6641492729
 20
46.6437933283
 10
212.7176204528
 20
48.0254264744
 10
212.8775874992
 20
49.4572717377
 10
213.142716201
 20
50.9273856984
 10
213.5107964829
 20
52.4235075257
  0
SPLINE
  5
229
330
1F
100
AcDbEntity
  8
0
  6
Continuous
 62
     7
370
    25
100
AcDbSpline
210
0.0
220
0.0
230
1.0
 70
     8
 71
     3
 72
    14
 73
    10
 74
     0
 42
0.000000001
 43
0.00000001
 40
0.0
 40
0.0
 40
0.0
 40
0.0
 40
0.25
 40
0.25
 40
0.5
 40
0.5
 40
0.75
 40
0.75
 40
1.0
 40
1.0
 40
1.0
 40
1.0
 10
213.7577288619336
 20
54.47700771398882
 30
0.0
 10
213.7330630139956
 20
54.30533518249596
 30
0.0
 10
213.7222001432712
 20
54.13035545032037
 30
0.0
 10
213.7002497760763
 20
53.78154894667917
 30
0.0
 10
213.6899781812573
 20
53.60733485474338
 30
0.0
 10
213.6606741668988
 20
53.26128394279228
 30
0.0
 10
213.641881495669
 20
53.08940108887704
 30
0.0
 10
213.5889621911529
 20
52.74936941998282
 30
0.0
 10
213.5548830139739
 20
52.5820085594857
 30
0.0
 10
213.5107967616962
 20
52.42350760108275
 30
0.0
  0
SPLINE
  5
22A
330
1F
100
AcDbEntity
  8
0
  6
Continuous
 62
     7
370
    25
100
AcDbSpline
210
0.0
220
0.0
230
1.0
 70
     8
 71
     3
 72
    14
 73
    10
 74
     0
 42
0.000000001
 43
0.00000001
 40
0.0
 40
0.0
 40
0.0
 40
0.0
 40
0.124999999999999
 40
0.124999999999999
 40
0.249999999999998
 40
0.249999999999998
 40
0.5000000000000007
 40
0.5000000000000007
 40
1.0
 40
1.0
 40
1.0
 40
1.0
 10
213.663419347211
 20
55.22575145763147
 30
0.0
 10
213.6898432858842
 20
55.22144515835927
 30
0.0
 10
213.713907228389
 20
55.20556165181885
 30
0.0
 10
213.7501764858141
 20
55.15641707892745
 30
0.0
 10
213.7621948608023
 20
55.12540572357512
 30
0.0
 10
213.7877091074727
 20
55.02854718170768
 30
0.0
 10
213.7919027699207
 20
54.95826656083153
 30
0.0
 10
213.7930095796563
 20
54.75186515875366
 30
0.0
 10
213.7773815945677
 20
54.61378932273148
 30
0.0
 10
213.757728861934
 20
54.47700771398873
 30
0.0
  0
SPLINE
  5
22B
330
1F
100
AcDbEntity
  8
0
  6
Continuous
 62
     7
370
    25
100
AcDbSpline
210
0.0
220
0.0
230
1.0
 70
     8
 71
     3
 72
     8
 73
     4
 74
     0
 42
0.000000001
 43
0.00000001
 40
0.0
 40
0.0
 40
0.0
 40
0.0
 40
1.0
 40
1.0
 40
1.0
 40
1.0
 10
212.2623972249853
 20
55.39496435151644
 30
0.0
 10
212.7292594506522
 20
55.36287459745114
 30
0.0
 10
213.1962942350356
 20
55.30187866014548
 30
0.0
 10
213.663419347211
 20
55.22575145763149
 30
0.0
  0
SPLINE
  5
22C
330
1F
100
AcDbEntity
  8
0
  6
Continuous
 62
     7
370
    25
100
AcDbSpline
210
0.0
220
0.0
230
1.0
 70
     8
 71
     3
 72
    14
 73
    10
 74
     0
 42
0.000000001
 43
0.00000001
 40
0.0
 40
0.0
 40
0.0
 40
0.0
 40
0.4999999999999972
 40
0.4999999999999972
 40
0.7499999999999971
 40
0.7499999999999971
 40
0.8749999999999986
 40
0.8749999999999986
 40
1.0
 40
1.0
 40
1.0
 40
1.0
 10
209.4178598477673
 20
56.31954622767865
 30
0.0
 10
209.8828943804824
 20
56.12320097841782
 30
0.0
 10
210.3497503017639
 20
55.93554846694976
 30
0.0
 10
211.0567766873685
 20
55.68553051000533
 30
0.0
 10
211.2935616702595
 20
55.6073692522065
 30
0.0
 10
211.6523423083911
 20
55.50680198681151
 30
0.0
 10
211.7725411323922
 20
55.47608049055987
 30
0.0
 10
212.015143230502
 20
55.42480578417531
 30
0.0
 10
212.1373949880908
 20
55.40355637464233
 30
0.0
 10
212.2623972249853
 20
55.39496435151639
 30
0.0
  0
SPLINE
  5
22D
330
1F
100
AcDbEntity
  8
0
  6
Continuous
 62
     7
370
    25
100
AcDbSpline
210
0.0
220
0.0
230
1.0
 70
     8
 71
     3
 72
    14
 73
    10
 74
     0
 42
0.000000001
 43
0.00000001
 40
0.0
 40
0.0
 40
0.0
 40
0.0
 40
0.4999999999999986
 40
0.4999999999999986
 40
0.7499999999999978
 40
0.7499999999999978
 40
0.8749999999999989
 40
0.8749999999999989
 40
1.0
 40
1.0
 40
1.0
 40
1.0
 10
209.4178598477673
 20
43.99660225180425
 30
0.0
 10
209.8828943804824
 20
43.66175693556588
 30
0.0
 10
210.349750301764
 20
43.32296876049435
 30
0.0
 10
211.0567766873685
 20
42.80067301346163
 30
0.0
 10
211.2935616702595
 20
42.62425130537125
 30
0.0
 10
211.6523423083911
 20
42.35216915385232
 30
0.0
 10
211.7725411323922
 20
42.2602237924954
 30
0.0
 10
212.015143230502
 20
42.07179777166509
 30
0.0
 10
212.1373949880908
 20
41.97562702761044
 30
0.0
 10
212.2623972249853
 20
41.87381744363694
 30
0.0
  0
SPLINE
  5
22E
330
1F
100
AcDbEntity
  8
0
  6
Continuous
 62
     7
370
    25
100
AcDbSpline
210
0.0
220
0.0
230
1.0
 70
     8
 71
     3
 72
    17
 73
    13
 74
     0
 42
0.000000001
 43
0.00000001
 40
0.0
 40
0.0
 40
0.0
 40
0.0
 40
0.121139618512704
 40
0.2427056681698986
 40
0.3642479954060608
 40
0.4853355557294291
 40
0.6057431756863378
 40
0.6664071316584564
 40
0.7263240676190175
 40
0.8465758892871676
 40
0.9673879846293316
 40
1.0
 40
1.0
 40
1.0
 40
1.0
 10
217.8761029752838
 20
41.5528264144207
 30
0.0
 10
217.6723346971265
 20
41.92671600720448
 30
0.0
 10
217.2640808433567
 20
42.67581134490231
 30
0.0
 10
217.0708132880455
 20
43.8241297249416
 30
0.0
 10
217.2761721941541
 20
44.77646700619946
 30
0.0
 10
217.8354756353858
 20
45.40993918580583
 30
0.0
 10
218.5113257518217
 20
45.55122878133478
 30
0.0
 10
219.086307858216
 20
45.42507129427952
 30
0.0
 10
219.6661673117781
 20
45.13684942966197
 30
0.0
 10
220.3326833199989
 20
44.47934776567138
 30
0.0
 10
220.8595397854332
 20
43.66307210962246
 30
0.0
 10
221.0163498953401
 20
43.15090751621825
 30
0.0
 10
221.0496816428131
 20
43.04204118800682
 30
0.0
  0
SPLINE
  5
22F
330
1F
100
AcDbEntity
  8
0
  6
Continuous
 62
     7
370
    25
100
AcDbSpline
210
0.0
220
0.0
230
1.0
 70
     8
 71
     3
 72
    12
 73
     8
 74
     0
 42
0.000000001
 43
0.00000001
 40
0.0
 40
0.0
 40
0.0
 40
0.0
 40
0.031182653077997
 40
0.3532377382553601
 40
0.5139442014319014
 40
0.6768094429382047
 40
1.0
 40
1.0
 40
1.0
 40
1.0
 10
220.3708770130423
 20
39.51949065418631
 30
0.0
 10
220.3509168519175
 20
39.51618402292091
 30
0.0
 10
220.1248077343484
 20
39.47872643563625
 30
0.0
 10
219.6541289328379
 20
39.74198058720987
 30
0.0
 10
219.0855993439151
 20
40.15102140178145
 30
0.0
 10
218.5021093105888
 20
40.68734286332626
 30
0.0
 10
218.1261125487887
 20
41.2071762807376
 30
0.0
 10
217.8761029752838
 20
41.5528264144207
 30
0.0
  0
SPLINE
  5
230
330
1F
100
AcDbEntity
  8
0
  6
Continuous
 62
     7
370
    25
100
AcDbSpline
210
0.0
220
0.0
230
1.0
 70
     8
 71
     3
 72
    14
 73
    10
 74
     0
 42
0.000000001
 43
0.00000001
 40
0.0
 40
0.0
 40
0.0
 40
0.0
 40
0.25
 40
0.25
 40
0.5
 40
0.5
 40
0.75
 40
0.75
 40
1.0
 40
1.0
 40
1.0
 40
1.0
 10
264.9913977102153
 20
47.15416209099294
 30
0.0
 10
265.038079746554
 20
47.12721312503951
 30
0.0
 10
265.07576636116
 20
47.09410640088838
 30
0.0
 10
265.1246378399144
 20
47.02349782782586
 30
0.0
 10
265.1367390703143
 20
46.98500225343578
 30
0.0
 10
265.1345694587591
 20
46.90904413924039
 30
0.0
 10
265.1203290446771
 20
46.87085043164804
 30
0.0
 10
265.0684776020876
 20
46.80085578272297
 30
0.0
 10
265.0307710619839
 20
46.76868778724119
 30
0.0
 10
264.9839536312665
 20
46.74166065977661
 30
0.0
  0
ARC
  5
231
330
1F
100
AcDbEntity
  8
0
  6
Continuous
 62
     7
370
    25
100
AcDbCircle
 10
239.489873804
 20
27.066615757
 30
0.0
 40
8.631048162490547
100
AcDbArc
 50
216.9289880075
 51
263.0280139066
  0
SPLINE
  5
232
330
1F
100
AcDbEntity
  8
0
  6
Continuous
 62
     7
370
    25
100
AcDbSpline
210
0.0
220
0.0
230
1.0
 70
     8
 71
     3
 72
    14
 73
    10
 74
     0
 42
0.000000001
 43
0.00000001
 40
0.0
 40
0.0
 40
0.0
 40
0.0
 40
0.25
 40
0.25
 40
0.5
 40
0.5
 40
0.75
 40
0.75
 40
1.0
 40
1.0
 40
1.0
 40
1.0
 10
230.426325273546
 20
26.79190010001422
 30
0.0
 10
230.4735464369696
 20
26.76463990261939
 30
0.0
 10
230.529833196401
 20
26.74335797109523
 30
0.0
 10
230.6532625444742
 20
26.7150033412641
 30
0.0
 10
230.7199158679342
 20
26.70815995892395
 30
0.0
 10
230.8520407448759
 20
26.70964207455314
 30
0.0
 10
230.9184001008606
 20
26.71803260623935
 30
0.0
 10
231.0396543329813
 20
26.74815092971072
 30
0.0
 10
231.0957654354586
 20
26.77015562355153
 30
0.0
 10
231.142500008986
 20
26.79713491857848
 30
0.0
  0
LINE
  5
233
330
1F
100
AcDbEntity
  8
0
  6
Continuous
 62
     7
370
    25
100
AcDbLine
 10
228.7688769476
 20
27.7487241388
 30
0.0
 11
230.4263248143
 21
26.791899852
 31
0.0
  0
SPLINE
  5
234
330
1F
100
AcDbEntity
  8
0
  6
Continuous
 62
     7
370
    25
100
AcDbSpline
210
0.0
220
0.0
230
1.0
 70
     8
 71
     3
 72
     8
 73
     4
 74
     0
 42
0.000000001
 43
0.00000001
 40
0.0
 40
0.0
 40
0.0
 40
0.0
 40
1.0
 40
1.0
 40
1.0
 40
1.0
 10
229.1406655999488
 20
28.51525706622723
 30
0.0
 10
229.0164874320639
 20
28.25978626700115
 30
0.0
 10
228.892569731922
 20
28.00427342032819
 30
0.0
 10
228.7688772388899
 20
27.74872448384153
 30
0.0
  0
LINE
  5
235
330
1F
100
AcDbEntity
  8
0
  6
Continuous
 62
     7
370
    25
100
AcDbLine
 10
229.4617665273
 20
28.7006244684
 30
0.0
 11
229.1406654936
 21
28.5152567873
 31
0.0
  0
SPLINE
  5
236
330
1F
100
AcDbEntity
  8
0
  6
Continuous
 62
     7
370
    25
100
AcDbSpline
210
0.0
220
0.0
230
1.0
 70
     8
 71
     3
 72
    12
 73
     8
 74
     0
 42
0.000000001
 43
0.00000001
 40
0.0
 40
0.0
 40
0.0
 40
0.0
 40
0.250000000000003
 40
0.250000000000003
 40
0.500000000000006
 40
0.500000000000006
 40
1.0
 40
1.0
 40
1.0
 40
1.0
 10
229.4700758296917
 20
29.03198478882219
 30
0.0
 10
229.5074678672746
 20
29.01039882499575
 30
0.0
 10
229.5376783405921
 20
28.98375797220569
 30
0.0
 10
229.5765777106015
 20
28.92677976889988
 30
0.0
 10
229.5859080765314
 20
28.89588819922307
 30
0.0
 10
229.5823030131176
 20
28.80433185766099
 30
0.0
 10
229.536697988206
 20
28.74388169755598
 30
0.0
 10
229.4617661496792
 20
28.7006244679305
 30
0.0
  0
LINE
  5
237
330
1F
100
AcDbEntity
  8
0
  6
Continuous
 62
     7
370
    25
100
AcDbLine
 10
228.6851871359
 20
29.4850908599
 30
0.0
 11
229.4700753833
 21
29.0319845192
 31
0.0
  0
SPLINE
  5
238
330
1F
100
AcDbEntity
  8
0
  6
Continuous
 62
     7
370
    25
100
AcDbSpline
210
0.0
220
0.0
230
1.0
 70
     8
 71
     3
 72
    14
 73
    10
 74
     0
 42
0.000000001
 43
0.00000001
 40
0.0
 40
0.0
 40
0.0
 40
0.0
 40
0.25
 40
0.25
 40
0.5
 40
0.5
 40
0.75
 40
0.75
 40
1.0
 40
1.0
 40
1.0
 40
1.0
 10
228.111192197613
 20
29.48029421472123
 30
0.0
 10
228.1490379953914
 20
29.50214212873284
 30
0.0
 10
228.1933569125394
 20
29.51951477352175
 30
0.0
 10
228.2910584490915
 20
29.54387624821362
 30
0.0
 10
228.3438115807033
 20
29.55059021274518
 30
0.0
 10
228.4497649379317
 20
29.55194766233119
 30
0.0
 10
228.5031292242271
 20
29.5465699611921
 30
0.0
 10
228.6023069989988
 20
29.52392901767626
 30
0.0
 10
228.6473138924
 20
29.50695514519239
 30
0.0
 10
228.6851873025746
 20
29.48509129088379
 30
0.0
  0
LINE
  5
239
330
1F
100
AcDbEntity
  8
0
  6
Continuous
 62
     7
370
    25
100
AcDbLine
 10
227.790091465
 20
29.2949265782
 30
0.0
 11
228.1111924987
 21
29.4802942594
 31
0.0
  0
SPLINE
  5
23A
330
1F
100
AcDbEntity
  8
0
  6
Continuous
 62
     7
370
    25
100
AcDbSpline
210
0.0
220
0.0
230
1.0
 70
     8
 71
     3
 72
     8
 73
     4
 74
     0
 42
0.000000001
 43
0.00000001
 40
0.0
 40
0.0
 40
0.0
 40
0.0
 40
1.0
 40
1.0
 40
1.0
 40
1.0
 10
226.462274397769
 20
29.08029796068219
 30
0.0
 10
226.9049461039854
 20
29.15170411698689
 30
0.0
 10
227.3475552940371
 20
29.22324028258866
 30
0.0
 10
227.7900916478825
 20
29.29492681301791
 30
0.0
  0
LINE
  5
23B
330
1F
100
AcDbEntity
  8
0
  6
Continuous
 62
     7
370
    25
100
AcDbLine
 10
263.5454369122
 20
47.9888977026
 30
0.0
 11
264.99139782
 21
47.1541622383
 31
0.0
  0
LWPOLYLINE
  5
23C
330
1F
100
AcDbEntity
  8
0
  6
Continuous
 62
     7
370
    25
100
AcDbPolyline
 90
        9
 70
   128
 43
0.0
 10
233.5144579905
 20
20.5435522734
 10
233.464675977
 20
20.5725206947
 10
232.5103185443
 20
21.2248744761
 10
231.6422357106
 20
22.0112091607
 10
230.8659737377
 20
22.9264998498
 10
230.1864901485
 20
23.9648981186
 10
229.6081273856
 20
25.1197700418
 10
229.1345812008
 20
26.3837376419
 10
228.7688769476
 20
27.7487241388
  0
ARC
  5
23D
330
1F
100
AcDbEntity
  8
0
  6
Continuous
 62
     7
370
    25
100
AcDbCircle
 10
239.362359538
 20
31.783373148
 30
0.0
 40
11.83679663948623
100
AcDbArc
 50
192.1358153855
 51
214.9390053972
  0
SPLINE
  5
23E
330
1F
100
AcDbEntity
  8
0
  6
Continuous
 62
     7
370
    25
100
AcDbSpline
210
0.0
220
0.0
230
1.0
 70
     8
 71
     3
 72
    12
 73
     8
 74
     0
 42
0.000000001
 43
0.00000001
 40
0.0
 40
0.0
 40
0.0
 40
0.0
 40
0.16770266086932
 40
0.4028819880613876
 40
0.6387008187281801
 40
0.8782573221327677
 40
1.0
 40
1.0
 40
1.0
 40
1.0
 10
219.2990609234415
 20
45.21302849443867
 30
0.0
 10
219.2645532165001
 20
45.0357496776347
 30
0.0
 10
219.1816533179299
 20
44.60986232566949
 30
0.0
 10
219.3762834365354
 20
43.79890877941727
 30
0.0
 10
219.8097584446598
 20
42.92662745668729
 30
0.0
 10
220.3307485991535
 20
42.22638254825313
 30
0.0
 10
220.6952548118029
 20
41.9165071909702
 30
0.0
 10
220.8180781248007
 20
41.81209218602086
 30
0.0
  0
SPLINE
  5
23F
330
1F
100
AcDbEntity
  8
0
  6
Continuous
 62
     7
370
    25
100
AcDbSpline
210
0.0
220
0.0
230
1.0
 70
     8
 71
     3
 72
    14
 73
    10
 74
     0
 42
0.000000001
 43
0.00000001
 40
0.0
 40
0.0
 40
0.0
 40
0.0
 40
0.1890146759986236
 40
0.363642613152038
 40
0.6689068951077769
 40
0.7451953472954961
 40
0.8265700087383994
 40
0.9130515025843935
 40
0.9999999999999999
 40
0.9999999999999999
 40
0.9999999999999999
 40
0.9999999999999999
 10
218.1664163947274
 20
41.7352364994607
 30
0.0
 10
218.2929129888927
 20
41.55220873821174
 30
0.0
 10
218.5362779647291
 20
41.20008426412897
 30
0.0
 10
219.053725662129
 20
40.63603263781176
 30
0.0
 10
219.5124577396437
 20
40.265948615013
 30
0.0
 10
219.8701470210978
 20
40.0511455571932
 30
0.0
 10
220.0534008773631
 20
39.95861080268011
 30
0.0
 10
220.2382045656739
 20
39.88385276139239
 30
0.0
 10
220.3556108072987
 20
39.85584413770723
 30
0.0
 10
220.4144720009263
 20
39.84180211575711
 30
0.0
  0
SPLINE
  5
240
330
1F
100
AcDbEntity
  8
0
  6
Continuous
 62
     7
370
    25
100
AcDbSpline
210
0.0
220
0.0
230
1.0
 70
     8
 71
     3
 72
    22
 73
    18
 74
     0
 42
0.000000001
 43
0.00000001
 40
0.0
 40
0.0
 40
0.0
 40
0.0
 40
0.0290758613749365
 40
0.1765233863316207
 40
0.2607883189254671
 40
0.3055699092472257
 40
0.3520879213281587
 40
0.421738634581208
 40
0.4757454424304483
 40
0.5140897121724214
 40
0.599859246966693
 40
0.6759926679055251
 40
0.7257202796987442
 40
0.7797467948642929
 40
0.8380832865999364
 40
0.901903721348032
 40
1.0
 40
1.0
 40
1.0
 40
1.0
 10
219.8290654460001
 20
44.95150200916869
 30
0.0
 10
219.7834650041337
 20
44.98886524208912
 30
0.0
 10
219.5066187118545
 20
45.21570235327083
 30
0.0
 10
219.0542214111635
 20
45.36311627521034
 30
0.0
 10
218.6152754780349
 20
45.36296396403088
 30
0.0
 10
218.3559268744492
 20
45.29582313083063
 30
0.0
 10
218.1340148645315
 20
45.19423414467121
 30
0.0
 10
217.9269440073473
 20
45.03527342370838
 30
0.0
 10
217.7651726142923
 20
44.83707871255961
 30
0.0
 10
217.6188950121763
 20
44.5840873269721
 30
0.0
 10
217.5068712531116
 20
44.25075702435219
 30
0.0
 10
217.4671310780322
 20
43.84694831358329
 30
0.0
 10
217.4886784115964
 20
43.48130216536526
 30
0.0
 10
217.5473643330669
 20
43.13909293338645
 30
0.0
 10
217.6560234769459
 20
42.75877249899517
 30
0.0
 10
217.8452108614427
 20
42.27956377018698
 30
0.0
 10
218.0452337290114
 20
41.9405973131863
 30
0.0
 10
218.1664163947274
 20
41.7352364994607
 30
0.0
  0
SPLINE
  5
241
330
1F
100
AcDbEntity
  8
0
  6
Continuous
 62
     7
370
    25
100
AcDbSpline
210
0.0
220
0.0
230
1.0
 70
     8
 71
     3
 72
     9
 73
     5
 74
     0
 42
0.000000001
 43
0.00000001
 40
0.0
 40
0.0
 40
0.0
 40
0.0
 40
0.1883710221454139
 40
1.0
 40
1.0
 40
1.0
 40
1.0
 10
259.1083418244336
 20
62.79439218686355
 30
0.0
 10
259.1507179651568
 20
62.80392490934608
 30
0.0
 10
259.3756790034339
 20
62.85453100774675
 30
0.0
 10
259.6014466045755
 20
62.90392909817164
 30
0.0
 10
259.7846861319226
 20
62.94402201981117
 30
0.0
  0
LINE
  5
242
330
1F
100
AcDbEntity
  8
0
  6
Continuous
 62
     7
370
    25
100
AcDbLine
 10
259.7846861319
 20
62.9440220198
 30
0.0
 11
261.4421339987
 21
61.9871977329
 31
0.0
  0
SPLINE
  5
243
330
1F
100
AcDbEntity
  8
0
  6
Continuous
 62
     7
370
    25
100
AcDbSpline
210
0.0
220
0.0
230
1.0
 70
     8
 71
     3
 72
    16
 73
    12
 74
     0
 42
0.000000001
 43
0.00000001
 40
0.0
 40
0.0
 40
0.0
 40
0.0
 40
0.1249999999999978
 40
0.1249999999999978
 40
0.2499999999999955
 40
0.2499999999999955
 40
0.499999999999997
 40
0.499999999999997
 40
0.7499999999999984
 40
0.7499999999999984
 40
1.0
 40
1.0
 40
1.0
 40
1.0
 10
261.4421345855105
 20
61.98719738788037
 30
0.0
 10
261.4688765530688
 20
61.97175957861194
 30
0.0
 10
261.4918471517153
 20
61.9538678592047
 30
0.0
 10
261.5278241038394
 20
61.91568786265957
 30
0.0
 10
261.5410866426184
 20
61.89540404518897
 30
0.0
 10
261.5678417533241
 20
61.83127771389428
 30
0.0
 10
261.5670247480637
 20
61.78678486226512
 30
0.0
 10
261.5389443578174
 20
61.70170516992127
 30
0.0
 10
261.5113750028929
 20
61.66033231387497
 30
0.0
 10
261.4382008471335
 20
61.58490118116701
 30
0.0
 10
261.3919670087208
 20
61.55003220634323
 30
0.0
 10
261.3388032237925
 20
61.51934140657619
 30
0.0
  0
LINE
  5
244
330
1F
100
AcDbEntity
  8
0
  6
Continuous
 62
     7
370
    25
100
AcDbLine
 10
212.0550858236
 20
47.6957463193
 30
0.0
 11
212.677859511
 21
47.3362267221
 31
0.0
  0
SPLINE
  5
245
330
1F
100
AcDbEntity
  8
0
  6
Continuous
 62
     7
370
    25
100
AcDbSpline
210
0.0
220
0.0
230
1.0
 70
     8
 71
     3
 72
    11
 73
     7
 74
     0
 42
0.000000001
 43
0.00000001
 40
0.0
 40
0.0
 40
0.0
 40
0.0
 40
0.0466240692690985
 40
0.428093996753621
 40
0.8087187667715139
 40
1.0
 40
1.0
 40
1.0
 40
1.0
 10
264.9839542914519
 20
54.90706899428639
 30
0.0
 10
264.9889317300776
 20
54.91001657600484
 30
0.0
 10
265.0346336953564
 20
54.93708075247824
 30
0.0
 10
265.1010711603246
 20
54.99831962040048
 30
0.0
 10
265.1436927344043
 20
55.08210552079168
 30
0.0
 10
265.1298543435821
 20
55.13227453622006
 30
0.0
 10
265.1252259178489
 20
55.14905420121137
 30
0.0
  0
LINE
  5
246
330
1F
100
AcDbEntity
  8
0
  6
Continuous
 62
     7
370
    25
100
AcDbLine
 10
209.4030954798
 20
57.3771770597
 30
0.0
 11
209.4160260012
 21
57.4160522272
 31
0.0
  0
LWPOLYLINE
  5
247
330
1F
100
AcDbEntity
  8
0
  6
Continuous
 62
     7
370
    25
100
AcDbPolyline
 90
       11
 70
   128
 43
0.0
 10
209.4422044625
 20
57.4947463133
 10
209.4503427556
 20
57.5192115959
 10
209.4675103523
 20
57.5609574005
 10
209.4758020862
 20
57.5741309953
 10
209.4800832841
 20
57.573116083
 10
209.4812482493
 20
57.5592232591
 10
209.4787734391
 20
57.529371778
 10
209.4691507867
 20
57.4644318023
 10
209.4286252748
 20
57.2535587021
 10
209.4177158264
 20
57.2014512159
 10
209.4177158264
 20
57.2014512159
  0
SPLINE
  5
248
330
1F
100
AcDbEntity
  8
0
  6
Continuous
 62
     7
370
    25
100
AcDbSpline
210
0.0
220
0.0
230
1.0
 70
     8
 71
     3
 72
     9
 73
     5
 74
     0
 42
0.000000001
 43
0.00000001
 40
0.0
 40
0.0
 40
0.0
 40
0.0
 40
0.7766522094856231
 40
1.0
 40
1.0
 40
1.0
 40
1.0
 10
209.3519318399138
 20
56.93898152395001
 30
0.0
 10
209.3487455299469
 20
57.04781731364491
 30
0.0
 10
209.3446429085573
 20
57.18795184022662
 30
0.0
 10
209.3924237372995
 20
57.34263002818076
 30
0.0
 10
209.403095479828
 20
57.37717705970107
 30
0.0
  0
SPLINE
  5
249
330
1F
100
AcDbEntity
  8
0
  6
Continuous
 62
     7
370
    25
100
AcDbSpline
210
0.0
220
0.0
230
1.0
 70
     8
 71
     3
 72
     8
 73
     4
 74
     0
 42
0.000000001
 43
0.00000001
 40
0.0
 40
0.0
 40
0.0
 40
0.0
 40
1.0
 40
1.0
 40
1.0
 40
1.0
 10
209.3286306973959
 20
56.34054317746941
 30
0.0
 10
209.3572329929703
 20
56.33898976233587
 30
0.0
 10
209.3869293727079
 20
56.3326055843731
 30
0.0
 10
209.4178598477661
 20
56.31954622768501
 30
0.0
  0
SPLINE
  5
24A
330
1F
100
AcDbEntity
  8
0
  6
Continuous
 62
     7
370
    25
100
AcDbSpline
210
0.0
220
0.0
230
1.0
 70
     8
 71
     3
 72
    10
 73
     6
 74
     0
 42
0.000000001
 43
0.00000001
 40
0.0
 40
0.0
 40
0.0
 40
0.0
 40
0.4999999999999989
 40
0.4999999999999989
 40
1.0
 40
1.0
 40
1.0
 40
1.0
 10
209.4177160200627
 20
57.20145119166376
 30
0.0
 10
209.3877275501538
 20
57.05966033549375
 30
0.0
 10
209.3672942509673
 20
56.91740251945045
 30
0.0
 10
209.3386612637414
 20
56.63059225128068
 30
0.0
 10
209.3307902040949
 20
56.48613571808515
 30
0.0
 10
209.3286306973967
 20
56.34054317746569
 30
0.0
  0
ARC
  5
24B
330
1F
100
AcDbEntity
  8
0
  6
Continuous
 62
     7
370
    25
100
AcDbCircle
 10
210.5479824504
 20
56.1724969818
 30
0.0
 40
1.230877198384114
100
AcDbArc
 50
172.1531384875
 51
234.5145852443
  0
SPLINE
  5
24C
330
1F
100
AcDbEntity
  8
0
  6
Continuous
 62
     7
370
    25
100
AcDbSpline
210
0.0
220
0.0
230
1.0
 70
     8
 71
     3
 72
     8
 73
     4
 74
     0
 42
0.000000001
 43
0.00000001
 40
0.0
 40
0.0
 40
0.0
 40
0.0
 40
1.0
 40
1.0
 40
1.0
 40
1.0
 10
209.3286306973966
 20
44.07662440990335
 30
0.0
 10
209.3572329929708
 20
44.04592700604523
 30
0.0
 10
209.3869293727082
 20
44.01887355419476
 30
0.0
 10
209.4178598477661
 20
43.99660225179969
 30
0.0
  0
ARC
  5
24D
330
1F
100
AcDbEntity
  8
0
  6
Continuous
 62
     7
370
    25
100
AcDbCircle
 10
213.0611305874
 20
43.9691342388
 30
0.0
 40
3.73404748837737
100
AcDbArc
 50
122.5266350896
 51
178.3504233083
  0
LINE
  5
24E
330
1F
100
AcDbEntity
  8
0
  6
Continuous
 62
     7
370
    25
100
AcDbLine
 10
211.0533645529
 20
47.1174649388
 30
0.0
 11
212.0550858236
 21
47.6957463193
 31
0.0
  0
SPLINE
  5
24F
330
1F
100
AcDbEntity
  8
0
  6
Continuous
 62
     7
370
    25
100
AcDbSpline
210
0.0
220
0.0
230
1.0
 70
     8
 71
     3
 72
     9
 73
     5
 74
     0
 42
0.000000001
 43
0.00000001
 40
0.0
 40
0.0
 40
0.0
 40
0.0
 40
0.3901117718169397
 40
1.0
 40
1.0
 40
1.0
 40
1.0
 10
209.3624362833607
 20
45.14377527821549
 30
0.0
 10
209.3533587267183
 20
45.09698922484208
 30
0.0
 10
209.3300896092545
 20
44.97705935665202
 30
0.0
 10
209.3436571540548
 20
44.85620433020971
 30
0.0
 10
209.3519318399138
 20
44.7824962722658
 30
0.0
  0
ARC
  5
250
330
1F
100
AcDbEntity
  8
0
  6
Continuous
 62
     7
370
    25
100
AcDbCircle
 10
211.846045498
 20
44.6563435725
 30
0.0
 40
2.530988818361937
100
AcDbArc
 50
122.9343808406
 51
168.8962913337
  0
LINE
  5
251
330
1F
100
AcDbEntity
  8
0
  6
Continuous
 62
     7
370
    25
100
AcDbLine
 10
211.0533645529
 20
47.1174649388
 30
0.0
 11
210.4700021201
 21
46.7805867368
 31
0.0
  0
LINE
  5
252
330
1F
100
AcDbEntity
  8
0
  6
Continuous
 62
     7
370
    25
100
AcDbLine
 10
209.3880668356
 20
43.937685008
 30
0.0
 11
209.3286305596
 21
44.0766246482
 31
0.0
  0
LWPOLYLINE
  5
253
330
1F
100
AcDbEntity
  8
0
  6
Continuous
 62
     7
370
    18
100
AcDbPolyline
 90
       24
 70
   128
 43
0.0
 10
253.252720793
 20
29.5425665886
 10
253.4153246517
 20
30.1002011455
 10
253.6802518389
 20
30.6490485533
 10
254.0278540207
 20
31.1484035523
 10
254.4323518139
 20
31.561231357
 10
254.8637439062
 20
31.8569137937
 10
255.2900375469
 20
32.0135221145
 10
255.6796156849
 20
32.0194413144
 10
256.0035853385
 20
31.8742321805
 10
256.2379188528
 20
31.5886642189
 10
256.3652369089
 20
31.1839167161
 10
256.3760972956
 20
30.6900081672
 10
256.2696939546
 20
30.1435691472
 10
256.0539185538
 20
29.5851267397
 10
255.7447743834
 20
29.0560981021
 10
255.365189329
 20
28.5957189718
 10
254.943314522
 20
28.2381330122
 10
254.510440046
 20
28.0098615673
 10
254.0986686288
 20
27.9278335214
 10
253.7385409304
 20
27.9981336092
 10
253.4567648819
 20
28.2155471119
 10
253.2742387348
 20
28.5639497324
 10
253.2045001885
 20
29.0175023183
 10
253.252720793
 20
29.5425665886
  0
LWPOLYLINE
  5
254
330
1F
100
AcDbEntity
  8
0
  6
Continuous
 62
     7
370
    18
100
AcDbPolyline
 90
       10
 70
   128
 43
0.0
 10
252.9045805804
 20
29.5958227703
 10
253.075329976
 20
30.1894741292
 10
253.3512245635
 20
30.7759223559
 10
253.7134622384
 20
31.3152017093
 10
254.1373574601
 20
31.770561524
 10
254.5940225149
 20
32.1109697352
 10
255.0523352482
 20
32.31322735
 10
255.4810638572
 20
32.3635516277
 10
255.8509906979
 20
32.2585129608
 10
255.8681118673
 20
32.2488960614
  0
ARC
  5
255
330
1F
100
AcDbEntity
  8
0
  6
Continuous
 62
     7
370
    18
100
AcDbCircle
 10
254.3383400316
 20
29.0912940465
 30
0.0
 40
1.51993927418972
100
AcDbArc
 50
160.6134287945
 51
230.8204458625
  0
LWPOLYLINE
  5
256
330
1F
100
AcDbEntity
  8
0
  6
Continuous
 62
     7
370
    18
100
AcDbPolyline
 90
       16
 70
   128
 43
0.0
 10
265.7546321363
 20
37.1491083658
 10
265.8099864241
 20
37.2951328645
 10
266.083423982
 20
37.8411008365
 10
266.4374002162
 20
38.3339803711
 10
266.8456629082
 20
38.737217625
 10
267.2779321818
 20
39.0209053883
 10
267.7021494317
 20
39.164004661
 10
268.0868520355
 20
39.155901858
 10
268.4035085523
 20
38.9971983309
 10
268.6286333095
 20
38.6996639239
 10
268.7455308865
 20
38.2853659137
 10
268.7455308865
 20
37.7850306187
 10
268.6286333095
 20
37.2357655389
 10
268.4035085523
 20
36.6783076199
 10
268.0868520355
 20
36.1540002606
 10
267.8974605619
 20
35.9120795196
  0
LWPOLYLINE
  5
257
330
1F
100
AcDbEntity
  8
0
  6
Continuous
 62
     7
370
    18
100
AcDbPolyline
 90
        9
 70
   128
 43
0.0
 10
265.4472492432
 20
37.3265564331
 10
265.461650953
 20
37.3642331662
 10
265.7425820889
 20
37.9491890823
 10
266.108698591
 20
38.4849525468
 10
266.5350505129
 20
38.9350122751
 10
266.9925822123
 20
39.2686969623
 10
267.4501139118
 20
39.463267131
 10
267.8764655044
 20
39.5054626638
 10
268.2424805907
 20
39.3924670703
  0
LWPOLYLINE
  5
258
330
1F
100
AcDbEntity
  8
0
  6
Continuous
 62
     7
370
    18
100
AcDbPolyline
 90
       29
 70
   128
 43
0.0
 10
269.8740414021
 20
24.7954582575
 10
270.3457139455
 20
24.830111972
 10
270.8513529386
 20
25.0115324315
 10
271.3656035331
 20
25.3306229458
 10
271.8626790398
 20
25.7713825278
 10
272.3176541049
 20
26.3117098425
 10
272.7077142975
 20
26.924510704
 10
273.0133003519
 20
27.5790565472
 10
273.2190889252
 20
28.2425258057
 10
273.3147611188
 20
28.8816494339
 10
273.2955191069
 20
29.4643788625
 10
273.1623281509
 20
29.9614938085
 10
272.9218668799
 20
30.3480668838
 10
272.5861929148
 20
30.6047135419
 10
272.1721384884
 20
30.718564506
 10
271.700465945
 20
30.6839107914
 10
271.1948269519
 20
30.502490332
 10
270.6805763574
 20
30.1833998176
 10
270.1835008507
 20
29.7426402356
 10
269.7285257856
 20
29.2023129209
 10
269.338465593
 20
28.5895120594
 10
269.0328795386
 20
27.9349662162
 10
268.8270909653
 20
27.2714969577
 10
268.7314187716
 20
26.6323733296
 10
268.7506607836
 20
26.0496439009
 10
268.8838517396
 20
25.5525289549
 10
269.1243130106
 20
25.1659558796
 10
269.4599869757
 20
24.9093092215
 10
269.8740414021
 20
24.7954582575
  0
LWPOLYLINE
  5
259
330
1F
100
AcDbEntity
  8
0
  6
Continuous
 62
     7
370
    18
100
AcDbPolyline
 90
       17
 70
   128
 43
0.0
 10
268.4887242117
 20
24.6014026218
 10
268.2271881994
 20
24.7999452398
 10
267.9327109677
 20
25.1966101633
 10
267.7430425761
 20
25.7106321006
 10
267.665947923
 20
26.3209669721
 10
267.7045834122
 20
27.0026275604
 10
267.8573672198
 20
27.7277066537
 10
268.1180443254
 20
28.4665193262
 10
268.4759426859
 20
29.18881855
 10
268.9164098508
 20
29.8650334845
 10
269.4214129781
 20
30.4674795067
 10
269.9702772276
 20
30.9714924674
 10
270.5405320831
 20
31.3564381798
 10
271.1088312054
 20
31.60655694
 10
271.6519083304
 20
31.7116087021
 10
272.1475298326
 20
31.6672927522
 10
272.502575543
 20
31.5215418193
  0
LWPOLYLINE
  5
25A
330
1F
100
AcDbEntity
  8
0
  6
Continuous
 62
     7
370
    18
100
AcDbPolyline
 90
       26
 70
   128
 43
0.0
 10
231.1425005278
 20
35.7790840503
 10
231.515378965
 20
37.5673368667
 10
231.9979735513
 20
39.3786274975
 10
232.5870771751
 20
41.2009181158
 10
233.2787754478
 20
43.0220994781
 10
234.0684690945
 20
44.8300662071
 10
234.9509121498
 20
46.6128050022
 10
235.9202382991
 20
48.3584653603
 10
236.9700082942
 20
50.0554493055
 10
238.0932422219
 20
51.6924771664
 10
239.2824774558
 20
53.2586704613
 10
240.5298108033
 20
54.7436188144
 10
241.826951189
 20
56.1374559978
 10
243.1652792532
 20
57.4309156293
 10
244.5359003644
 20
58.6154058832
 10
245.9297053704
 20
59.6830506445
 10
247.3374318014
 20
60.6267583014
 10
248.7497239216
 20
61.4402533703
 10
250.1571959487
 20
62.1181327636
 10
251.5504942047
 20
62.6558895014
 10
252.9203589775
 20
63.0499514652
 10
254.2576867126
 20
63.2976975281
 10
255.5535890346
 20
63.3974840233
 10
256.7994544864
 20
63.3486454031
 10
257.9870025293
 20
63.1515056413
 10
259.108342483
 20
62.8073787977
  0
LWPOLYLINE
  5
25B
330
1F
100
AcDbEntity
  8
0
  6
Continuous
 62
     7
370
    18
100
AcDbPolyline
 90
       26
 70
   128
 43
0.0
 10
230.4263248143
 20
35.773848734
 10
230.7978901137
 20
37.5861532138
 10
231.2802831854
 20
39.4224444612
 10
231.8703324791
 20
41.2706591708
 10
232.5641657531
 20
43.118660338
 10
233.3572232452
 20
44.9543068401
 10
234.2442971855
 20
46.7655450684
 10
235.219560772
 20
48.5404750861
 10
236.276609001
 20
50.2674403583
 10
237.4084968621
 20
51.9350977118
 10
238.6077913634
 20
53.5324929959
 10
239.8666149955
 20
55.0491348432
 10
241.1766990735
 20
56.4750604449
 10
242.5294387257
 20
57.8009053177
 10
243.9159488695
 20
59.0179584325
 10
245.3271228222
 20
60.1182279886
 10
246.7536911583
 20
61.0944875591
 10
248.1862839007
 20
61.9403226395
 10
249.6154913951
 20
62.6501794779
 10
251.0319262953
 20
63.2193947747
 10
252.4262846433
 20
63.6442294228
 10
253.7894088838
 20
63.9218942381
 10
255.1123444579
 20
64.0505628587
 10
256.3864022001
 20
64.0293925563
 10
257.6032146438
 20
63.858523281
 10
258.7547890344
 20
63.5390732828
  0
LINE
  5
25C
330
1F
100
AcDbEntity
  8
0
  6
Continuous
 62
     7
370
    18
100
AcDbLine
 10
264.9839542915
 20
46.7416610579
 30
0.0
 11
264.7048275676
 21
45.2604971739
 31
0.0
  0
LWPOLYLINE
  5
25D
330
1F
100
AcDbEntity
  8
0
  6
Continuous
 62
     7
370
    18
100
AcDbPolyline
 90
       21
 70
   128
 43
0.0
 10
252.7058032012
 20
24.4753245197
 10
251.7327398118
 20
23.6330370121
 10
250.3322851527
 20
22.5391913159
 10
248.9162793766
 20
21.5699693136
 10
247.4942640937
 20
20.7319028425
 10
246.0758214148
 20
20.0306360859
 10
244.6705091667
 20
19.4708972994
 10
243.2877968491
 20
19.0564572763
 10
241.9370018788
 20
18.7901092734
 10
240.6272259996
 20
18.673647509
 10
239.3672953542
 20
18.7078553825
 10
238.1656992399
 20
18.8925035781
 10
237.0305357785
 20
19.2263491198
 10
235.9694526472
 20
19.7071422211
 10
234.9896003226
 20
20.3316403577
 10
234.0975807131
 20
21.09563717
 10
233.2994063301
 20
21.9939860415
 10
232.6004535312
 20
23.0206309018
 10
232.0054335435
 20
24.1686564197
 10
231.5183542691
 20
25.4303241289
 10
231.1425005278
 20
26.7971351682
  0
ARC
  5
25E
330
1F
100
AcDbEntity
  8
0
  6
Continuous
 62
     7
370
    18
100
AcDbCircle
 10
253.9977434307
 20
53.1615646467
 30
0.0
 40
11.12401072022559
100
AcDbArc
 50
9.0277736643
 51
48.7055209086
  0
LWPOLYLINE
  5
25F
330
1F
100
AcDbEntity
  8
0
  6
Continuous
 62
     7
370
    18
100
AcDbPolyline
 90
       30
 70
   128
 43
0.0
 10
237.7713950572
 20
35.1148889658
 10
237.8275623183
 20
36.3849141387
 10
237.9954483624
 20
37.7058737587
 10
238.2732145334
 20
39.063295629
 10
238.6578170384
 20
40.4423069021
 10
239.1450425097
 20
41.8277994767
 10
239.7295527856
 20
43.2045934935
 10
240.4049435206
 20
44.5576046314
 10
241.1638146502
 20
45.8720079804
 10
241.9978527085
 20
47.1334041953
 10
242.8979190733
 20
48.3279723403
 10
243.8541526992
 20
49.4426242534
 10
244.8560768016
 20
50.4651475034
 10
245.8927144314
 20
51.384339791
 10
246.9527076715
 20
52.1901294705
 10
248.0244430894
 20
52.8736890378
 10
249.0961785073
 20
53.4275288452
 10
250.1561717473
 20
53.8455813104
 10
251.1928093771
 20
54.123265354
 10
252.1947334796
 20
54.2575390495
 10
253.1509671055
 20
54.2469309807
 10
254.0510334703
 20
54.0915573407
 10
254.8850715286
 20
53.7931209707
 10
255.6439426582
 20
53.354891578
 10
256.3193333932
 20
52.7816699845
 10
256.9038436691
 20
52.0797371674
 10
257.3910691404
 20
51.256783148
 10
257.7756716454
 20
50.3218244753
 10
258.0534378163
 20
49.2851045996
 10
258.0943288205
 20
49.075013193
  0
LWPOLYLINE
  5
260
330
1F
100
AcDbEntity
  8
0
  6
Continuous
 62
     7
370
    18
100
AcDbPolyline
 90
       15
 70
   128
 43
0.0
 10
246.1344294065
 20
28.3058220828
 10
245.8927144314
 20
28.222113902
 10
244.8560768016
 20
27.9444298583
 10
243.8541526992
 20
27.8101561628
 10
242.8979190733
 20
27.8207642317
 10
241.9978527085
 20
27.9761378717
 10
241.1638146502
 20
28.2745742417
 10
240.4049435206
 20
28.7128036343
 10
239.7295527856
 20
29.2860252278
 10
239.1450425097
 20
29.987958045
 10
238.6578170384
 20
30.8109120644
 10
238.2732145334
 20
31.7458707371
 10
237.9954483624
 20
32.7825906128
 10
237.8275623183
 20
33.9097131322
 10
237.7713950572
 20
35.1148889658
  0
LWPOLYLINE
  5
261
330
1F
100
AcDbEntity
  8
0
  6
Continuous
 62
     7
370
    18
100
AcDbPolyline
 90
       24
 70
   128
 43
0.0
 10
220.2881792781
 20
36.6354487839
 10
220.3440620479
 20
38.2895668696
 10
220.5113534264
 20
39.9977456944
 10
220.7889997422
 20
41.7491881149
 10
221.1752426816
 20
43.532819485
 10
221.6676416786
 20
45.3373631295
 10
222.2630831347
 20
47.1514112563
 10
222.9578014925
 20
48.9634926363
 10
223.7474068943
 20
50.7621528286
 10
224.6269049385
 20
52.5360195796
 10
225.5907361924
 20
54.273876583
 10
226.6328078022
 20
55.9647402848
 10
227.746529713
 20
57.5979150124
 10
228.9248614255
 20
59.1630792834
 10
230.1603534842
 20
60.6503371327
 10
231.4451942342
 20
62.0502846488
 10
232.7712611874
 20
63.3540715663
 10
234.130169426
 20
64.553455064
 10
235.5133282368
 20
65.640850711
 10
236.9119925604
 20
66.6093849809
 10
238.3173198315
 20
67.4529356701
 10
239.7204250088
 20
68.1661667076
 10
241.1124369627
 20
68.7445713533
 10
241.4311583459
 20
68.8584962406
  0
ARC
  5
262
330
1F
100
AcDbEntity
  8
0
  6
Continuous
 62
     7
370
    18
100
AcDbCircle
 10
240.4528992271
 20
36.528588015
 30
0.0
 40
20.16500309564484
100
AcDbArc
 50
179.6963700089
 51
189.5563537712
  0
LWPOLYLINE
  5
263
330
1F
100
AcDbEntity
  8
0
  6
Continuous
 62
     7
370
    18
100
AcDbPolyline
 90
       22
 70
   128
 43
0.0
 10
228.1111924987
 20
38.4622431414
 10
228.4874769281
 20
40.1976932776
 10
228.971101478
 20
41.9540179342
 10
229.5587615722
 20
43.7192070504
 10
230.2464374551
 20
45.4811913169
 10
231.0294271187
 20
47.2279208796
 10
231.9023765964
 20
48.9474516505
 10
232.8593155234
 20
50.6280243916
 10
233.8936999432
 20
52.2581472214
 10
234.9984577462
 20
53.8266727979
 10
236.1660334512
 20
55.322877402
 10
237.3884441818
 20
56.7365267128
 10
238.6573290569
 20
58.0579560315
 10
239.9640130696
 20
59.2781284507
 10
241.2995594418
 20
60.3887000597
 10
242.6548361367
 20
61.3820765923
 10
244.0205753854
 20
62.2514660416
 10
245.3874380082
 20
62.990921876
 10
246.746077149
 20
63.5953889578
 10
248.0872020517
 20
64.0607327557
 10
249.4016420724
 20
64.3837702146
 10
250.590000125
 20
64.5543271126
  0
LWPOLYLINE
  5
264
330
1F
100
AcDbEntity
  8
0
  6
Continuous
 62
     7
370
    18
100
AcDbPolyline
 90
       19
 70
   128
 43
0.0
 10
228.6851871359
 20
38.4670397419
 10
229.0628848017
 20
40.1837930049
 10
229.5471086272
 20
41.920623139
 10
230.134510572
 20
43.6655185668
 10
230.8210300506
 20
45.4064153057
 10
231.6019176402
 20
47.1312733925
 10
232.4717759099
 20
48.8281654732
 10
233.42458708
 20
50.4853566491
 10
234.4537637298
 20
52.0913885032
 10
235.5521883103
 20
53.6351536219
 10
236.7122658276
 20
55.1059784807
 10
237.9259725754
 20
56.4936888387
 10
239.1849173797
 20
57.7886907232
 10
240.4803932941
 20
58.9820291698
 10
241.8034419733
 20
60.065449719
 10
243.1449146698
 20
61.0314640482
 10
244.4955345289
 20
61.873388975
 10
245.8459618873
 20
62.5854039253
 10
246.5161374437
 20
62.8902386558
  0
LWPOLYLINE
  5
265
330
1F
100
AcDbEntity
  8
0
  6
Continuous
 62
     7
370
    18
100
AcDbPolyline
 90
       27
 70
   128
 43
0.0
 10
250.7998367714
 20
29.9613129606
 10
250.857408708
 20
31.1148170258
 10
251.029317142
 20
32.3185999636
 10
251.3131478493
 20
33.555762994
 10
251.7049172942
 20
34.8089390395
 10
252.1991259714
 20
36.0605370181
 10
252.7888361147
 20
37.2929863252
 10
253.4657685025
 20
38.4889856859
 10
254.2204219837
 20
39.6317474428
 10
255.0422018946
 20
40.7052291042
 10
255.9195725107
 20
41.6943605189
 10
256.8402177329
 20
42.58525679
 10
257.7912134604
 20
43.3654120824
 10
258.759209782
 20
44.0238747609
 10
259.7306182284
 20
44.5514011178
 10
260.6918023803
 20
44.9405867002
 10
261.6292691341
 20
45.1859668404
 10
262.5298588772
 20
45.2840975435
 10
263.3809288721
 20
45.2336012767
 10
264.1705322983
 20
45.0351866765
 10
264.8875848638
 20
44.6916397884
 10
265.5220200573
 20
44.2077825113
 10
266.0649327108
 20
43.5904075651
 10
266.50870083
 20
42.8481811395
 10
266.8470959011
 20
41.9915233015
 10
267.0753665253
 20
41.0324585557
 10
267.1894527759
 20
40.0003673867
  0
LWPOLYLINE
  5
266
330
1F
100
AcDbEntity
  8
0
  6
Continuous
 62
     7
370
    18
100
AcDbPolyline
 90
       17
 70
   128
 43
0.0
 10
261.3595271634
 20
26.984986145
 10
260.6918023803
 20
26.4030596098
 10
259.7306182284
 20
25.6824855924
 10
258.759209782
 20
25.0884476301
 10
257.7912134604
 20
24.6292855452
 10
256.8402177329
 20
24.311444542
 10
255.9195725107
 20
24.1393864652
 10
255.0422018946
 20
24.1155273286
 10
254.2204219837
 20
24.2402021009
 10
253.4657685025
 20
24.5116594945
 10
252.7888361147
 20
24.9260893566
 10
252.1991259714
 20
25.4776738248
 10
251.7049172942
 20
26.1586706102
 10
251.3131478493
 20
26.9595192827
 10
251.029317142
 20
27.8689783538
 10
250.857408708
 20
28.8742800385
 10
250.7998367714
 20
29.9613129606
  0
LWPOLYLINE
  5
267
330
1F
100
AcDbEntity
  8
0
  6
Continuous
 62
     7
370
    18
100
AcDbPolyline
 90
       19
 70
   128
 43
0.0
 10
250.2341516489
 20
29.9613125805
 10
250.2915260221
 20
31.1319692849
 10
250.4628733761
 20
32.3530379771
 10
250.7458769515
 20
33.608006183
 10
251.1367086291
 20
34.879901871
 10
251.6300842475
 20
36.1515255773
 10
252.2193307755
 20
37.4056800598
 10
252.8964798244
 20
38.6254050819
 10
253.6523743328
 20
39.7942066828
 10
254.4767923729
 20
40.8962776991
 10
255.3585847862
 20
41.9167156253
 10
256.2858269779
 20
42.8417208898
 10
257.2459794376
 20
43.6587830585
 10
258.2260578488
 20
44.3568543231
 10
259.2128083449
 20
44.9264932594
 10
260.1928867562
 20
45.3599964422
 10
261.1530392158
 20
45.6515027068
 10
262.0802814076
 20
45.7970684892
 10
262.6849273403
 20
45.8116289908
  0
ARC
  5
268
330
1F
100
AcDbEntity
  8
0
  6
Continuous
 62
     7
370
    18
100
AcDbCircle
 10
257.7373690399
 20
29.672966027
 30
0.0
 40
7.508755885777257
100
AcDbArc
 50
177.7992221344
 51
209.5162078558
  0
LWPOLYLINE
  5
269
330
1F
100
AcDbEntity
  8
0
  6
Continuous
 62
     7
370
    18
100
AcDbPolyline
 90
       22
 70
   128
 43
0.0
 10
241.3069288841
 20
35.1148885856
 10
241.3643032573
 20
36.2855452901
 10
241.5356506114
 20
37.5066139822
 10
241.8186541868
 20
38.7615821882
 10
242.2094858643
 20
40.0334778762
 10
242.7028614828
 20
41.3051015825
 10
243.2921080107
 20
42.5592560649
 10
243.9692570596
 20
43.7789810871
 10
244.725151568
 20
44.9477826879
 10
245.5495696081
 20
46.0498537042
 10
246.4313620214
 20
47.0702916304
 10
247.3586042132
 20
47.9952968949
 10
248.3187566728
 20
48.8123590637
 10
249.2988350841
 20
49.5104303282
 10
250.2855855802
 20
50.0800692645
 10
251.2656639914
 20
50.5135724474
 10
252.2258164511
 20
50.805078712
 10
253.1530586428
 20
50.9506444943
 10
254.0348510561
 20
50.9483024178
 10
254.8592690962
 20
50.7980842098
 10
255.6151636046
 20
50.5020198317
 10
255.79172268
 20
50.4059237213
  0
LWPOLYLINE
  5
26A
330
1F
100
AcDbEntity
  8
0
  6
Continuous
 62
     7
370
    18
100
AcDbPolyline
 90
        8
 70
   128
 43
0.0
 10
243.7926979843
 20
29.620750877
 10
243.2921080107
 20
29.9625601385
 10
242.7028614828
 20
30.536385061
 10
242.2094858643
 20
31.2383694033
 10
241.8186541868
 20
32.0590204414
 10
241.5356506114
 20
32.9872396743
 10
241.3643032573
 20
34.0104749224
 10
241.3069288841
 20
35.1148885856
  0
LWPOLYLINE
  5
26B
330
1F
100
AcDbEntity
  8
0
  6
Continuous
 62
     7
370
    18
100
AcDbPolyline
 90
       18
 70
   128
 43
0.0
 10
262.1135467956
 20
28.7366996418
 10
262.1715006879
 20
29.5137305757
 10
262.3434996718
 20
30.3326991772
 10
262.6240152661
 20
31.1672831601
 10
263.0040316671
 20
31.9906580892
 10
263.47133485
 20
32.7763604318
 10
264.0109052254
 20
33.4991365294
 10
264.6054006824
 20
34.1357560581
 10
265.2357135108
 20
34.6657578715
 10
265.8815850603
 20
35.0721069291
 10
266.5222563925
 20
35.3417425355
 10
267.1371358599
 20
35.4659987064
 10
267.706460758
 20
35.4408819489
 10
268.211932522
 20
35.2671995479
 10
268.6373046943
 20
34.9505332094
 10
268.9689055617
 20
34.5010613012
 10
269.1960774044
 20
33.933230196
 10
269.3036881868
 20
33.3503717758
  0
LWPOLYLINE
  5
26C
330
1F
100
AcDbEntity
  8
0
  6
Continuous
 62
     7
370
    18
100
AcDbPolyline
 90
       10
 70
   128
 43
0.0
 10
265.3195195968
 20
26.4488414569
 10
265.2357135108
 20
26.4124183715
 10
264.6054006824
 20
26.2146764837
 10
264.0109052254
 20
26.164906168
 10
263.47133485
 20
26.2647075706
 10
263.0040316671
 20
26.5108731425
 10
262.6240152661
 20
26.8954904742
 10
262.3434996718
 20
27.4061980458
 10
262.1715006879
 20
28.0265808476
 10
262.1135467956
 20
28.7366996418
  0
LWPOLYLINE
  5
26D
330
1F
100
AcDbEntity
  8
0
  6
Continuous
 62
     7
370
    18
100
AcDbPolyline
 90
       15
 70
   128
 43
0.0
 10
261.5478593682
 20
28.7367009723
 10
261.6038004192
 20
29.5279734263
 10
261.7700140896
 20
30.3610704978
 10
262.0417186876
 20
31.2120254119
 10
262.4110976192
 20
32.0563577953
 10
262.8675249395
 20
32.8697779394
 10
263.3978699296
 20
33.6288849717
 10
263.9868752656
 20
34.3118408751
 10
264.6175965974
 20
34.8989980192
 10
265.2718890996
 20
35.3734655937
 10
265.9309300164
 20
35.7215933985
 10
266.5757599234
 20
35.933366437
 10
267.1878283112
 20
36.0026928785
 10
267.7495269346
 20
35.9275781125
 10
268.1846911699
 20
35.7462632688
  0
ARC
  5
26E
330
1F
100
AcDbEntity
  8
0
  6
Continuous
 62
     7
370
    18
100
AcDbCircle
 10
264.3102983855
 20
28.4697313564
 30
0.0
 40
2.775309370231508
100
AcDbArc
 50
174.4799230229
 51
234.2078982244
  0
LWPOLYLINE
  5
26F
330
1F
100
AcDbEntity
  8
0
  6
Continuous
 62
     7
370
    18
100
AcDbPolyline
 90
       13
 70
   128
 43
0.0
 10
263.5807935083
 20
29.5837231396
 10
263.6384503971
 20
30.1866372345
 10
263.8083130625
 20
30.8236175232
 10
264.0812239495
 20
31.4603239768
 10
264.4424704326
 20
32.0624317741
 10
264.8725777046
 20
32.597481053
 10
265.3483584132
 20
33.0366271605
 10
265.8441631863
 20
33.3561956515
 10
266.3332630502
 20
33.5389584837
 10
266.7892905105
 20
33.5750628947
 10
267.1876610409
 20
33.4625624634
 10
267.5068982291
 20
33.2075221144
 10
267.5779536998
 20
33.1147091262
  0
ARC
  5
270
330
1F
100
AcDbEntity
  8
0
  6
Continuous
 62
     7
370
    18
100
AcDbCircle
 10
264.8991262011
 20
29.3744882761
 30
0.0
 40
1.334833441726743
100
AcDbArc
 50
170.9817074641
 51
259.7059281608
  0
LWPOLYLINE
  5
271
330
1F
100
AcDbEntity
  8
0
  6
Continuous
 62
     7
370
    18
100
AcDbPolyline
 90
        3
 70
   128
 43
0.0
 10
266.7664026315
 20
33.2450919807
 10
266.9386079045
 20
33.1085843302
 10
267.0870728125
 20
32.9158988558
  0
LWPOLYLINE
  5
272
330
1F
100
AcDbEntity
  8
0
  6
Continuous
 62
     7
370
    18
100
AcDbPolyline
 90
        3
 70
   128
 43
0.0
 10
264.5872759735
 20
28.5856545291
 10
264.4423689344
 20
28.5979167593
 10
264.1245532969
 20
28.7084450235
  0
LWPOLYLINE
  5
273
330
1F
100
AcDbEntity
  8
0
  6
Continuous
 62
     7
370
    18
100
AcDbPolyline
 90
       17
 70
   128
 43
0.0
 10
254.9384939762
 20
32.7855529735
 10
254.9842684171
 20
33.238179637
 10
255.15552127
 20
34.0965348681
 10
255.4354636013
 20
34.9732895188
 10
255.8160417408
 20
35.843220884
 10
256.2863072215
 20
36.6813025869
 10
256.8327313989
 20
37.4634247556
 10
257.4395944864
 20
38.1670867681
 10
258.0894383866
 20
38.7720459324
 10
258.7635681221
 20
39.2608984034
 10
259.4425902054
 20
39.6195808534
 10
260.1069704055
 20
39.8377749745
 10
260.7375957544
 20
39.90920302
 10
261.3163243388
 20
39.8318109709
 10
261.8265070009
 20
39.6078244582
 10
262.2534670887
 20
39.2436876907
 10
262.3942806974
 20
39.066387954
  0
ARC
  5
274
330
1F
100
AcDbEntity
  8
0
  6
Continuous
 62
     7
370
    18
100
AcDbCircle
 10
257.0969315753
 20
31.5899277925
 30
0.0
 40
2.024414783866673
100
AcDbArc
 50
242.8562463768
 51
264.8242641871
  0
LWPOLYLINE
  5
275
330
1F
100
AcDbEntity
  8
0
  6
Continuous
 62
     7
370
    18
100
AcDbPolyline
 90
       13
 70
   128
 43
0.0
 10
255.6796947103
 20
32.3576672642
 10
255.7360592054
 20
33.0489665295
 10
255.9062590457
 20
33.8807209149
 10
256.1841740477
 20
34.7293855875
 10
256.5613593659
 20
35.5691736627
 10
257.0263546795
 20
36.3745691689
 10
257.5650310808
 20
37.1211001198
 10
258.1610215161
 20
37.7860840612
 10
258.7962168347
 20
38.3493150069
 10
259.4513170725
 20
38.7936805506
 10
260.1064173104
 20
39.105677642
 10
260.741612629
 20
39.2758276006
 10
261.3139797557
 20
39.3009408902
  0
LWPOLYLINE
  5
276
330
1F
100
AcDbEntity
  8
0
  6
Continuous
 62
     7
370
    18
100
AcDbPolyline
 90
       15
 70
   128
 43
0.0
 10
255.3791527775
 20
32.5311661583
 10
255.4355581024
 20
33.229211189
 10
255.6054322925
 20
34.0593722451
 10
255.8828145319
 20
34.9064105276
 10
256.2592770976
 20
35.7445897213
 10
256.7233815651
 20
36.5484422368
 10
257.2610260271
 20
37.2935428539
 10
257.8558743816
 20
37.9572522716
 10
258.4898527099
 20
38.5194046149
 10
259.143697762
 20
38.9629181776
 10
259.797542814
 20
39.2743180432
 10
260.4315211423
 20
39.4441414972
 10
261.0263694968
 20
39.4672293707
 10
261.5640139589
 20
39.3428798364
 10
261.8059813211
 20
39.2265487053
  0
LINE
  5
277
330
1F
100
AcDbEntity
  8
0
  6
Continuous
 62
     7
370
    18
100
AcDbLine
 10
256.5012273376
 20
29.9918593546
 30
0.0
 11
256.3002629321
 21
30.1230135734
 31
0.0
  0
LWPOLYLINE
  5
278
330
1F
100
AcDbEntity
  8
0
  6
Continuous
 62
     7
370
    18
100
AcDbPolyline
 90
       14
 70
   128
 43
0.0
 10
255.6318692325
 20
32.3852760542
 10
255.6882745574
 20
33.0833210849
 10
255.8581487474
 20
33.913482141
 10
256.1355309869
 20
34.7605204236
 10
256.5119935525
 20
35.5986996173
 10
256.97609802
 20
36.4025521327
 10
257.5137424821
 20
37.1476527498
 10
258.1085908366
 20
37.8113621675
 10
258.7425691649
 20
38.3735145108
 10
259.3964142169
 20
38.8170280735
 10
260.050259269
 20
39.1284279391
 10
260.6842375973
 20
39.2982513931
 10
261.2790859518
 20
39.3213392666
 10
261.6982709338
 20
39.2387568195
  0
LINE
  5
279
330
1F
100
AcDbEntity
  8
0
  6
Continuous
 62
     7
370
    18
100
AcDbLine
 10
256.4169784216
 20
30.090298242
 30
0.0
 11
256.3034015552
 21
30.2037171105
 31
0.0
  0
LINE
  5
27A
330
1F
100
AcDbEntity
  8
0
  6
Continuous
 62
     7
370
    18
100
AcDbLine
 10
221.8650282323
 20
36.1375067062
 30
0.0
 11
224.01816716
 21
37.3804873516
 31
0.0
  0
LWPOLYLINE
  5
27B
330
1F
100
AcDbEntity
  8
0
  6
Continuous
 62
     7
370
    18
100
AcDbPolyline
 90
       21
 70
   128
 43
0.0
 10
209.4178593892
 20
56.3195458581
 10
209.9717005887
 20
57.8530425954
 10
210.6221733167
 20
59.3766180119
 10
211.3634830399
 20
60.8767002899
 10
212.1890252155
 20
62.339925294
 10
213.0914465354
 20
63.7532570988
 10
214.0627061714
 20
65.1041047144
 10
215.0941521656
 20
66.3804338668
 10
216.1765951879
 20
67.5708726957
 10
217.3003918419
 20
68.6648184016
 10
218.4555307693
 20
69.6525234551
 10
219.6317205657
 20
70.5251874143
 10
220.8184831297
 20
71.2750381911
 10
222.0052456936
 20
71.895394305
 10
223.1814354901
 20
72.3807301789
 10
224.3365744175
 20
72.7267201425
 10
225.4603710714
 20
72.930282435
 10
226.5428140938
 20
72.9896057178
 10
227.5742600879
 20
72.9041587616
 10
228.5455197239
 20
72.6747036522
 10
229.3974761197
 20
72.3287271644
  0
ARC
  5
27C
330
1F
100
AcDbEntity
  8
0
  6
Continuous
 62
     7
370
    18
100
AcDbCircle
 10
215.3018237201
 20
46.9820817114
 30
0.0
 40
6.598039452488792
100
AcDbArc
 50
206.9028971563
 51
235.9633989112
  0
ARC
  5
27D
330
1F
100
AcDbEntity
  8
0
  6
Continuous
 62
     7
370
    18
100
AcDbCircle
 10
242.5139674418
 20
29.1860286618
 30
0.0
 40
12.32245742725495
100
AcDbArc
 50
191.2032435174
 51
216.3583096027
  0
LINE
  5
27E
330
1F
100
AcDbEntity
  8
0
  6
Continuous
 62
     7
370
    18
100
AcDbLine
 10
225.8301306418
 20
29.4452262701
 30
0.0
 11
227.553700987
 21
30.4402222513
 31
0.0
  0
LINE
  5
27F
330
1F
100
AcDbEntity
  8
0
  6
Continuous
 62
     7
370
    18
100
AcDbLine
 10
221.8650282323
 20
35.3209658555
 30
0.0
 11
224.01816716
 21
36.5639465009
 31
0.0
  0
LINE
  5
280
330
1F
100
AcDbEntity
  8
0
  6
Continuous
 62
     7
370
    18
100
AcDbLine
 10
229.5373759979
 20
28.7664439544
 30
0.0
 11
229.4700753833
 21
29.0319845192
 31
0.0
  0
LINE
  5
281
330
1F
100
AcDbEntity
  8
0
  6
Continuous
 62
     7
370
    18
100
AcDbLine
 10
229.0237593554
 20
28.3177230771
 30
0.0
 11
228.6851871359
 21
29.4850908599
 31
0.0
  0
LWPOLYLINE
  5
282
330
1F
100
AcDbEntity
  8
0
  6
Continuous
 62
     7
370
    18
100
AcDbPolyline
 90
        3
 70
   128
 43
0.0
 10
228.9392002649
 20
27.0499786872
 10
228.4942889124
 20
28.1595483405
 10
228.1111924987
 20
29.4802942594
  0
LINE
  5
283
330
1F
100
AcDbEntity
  8
0
  6
Continuous
 62
     7
370
    18
100
AcDbLine
 10
256.742690584
 20
64.7001286699
 30
0.0
 11
256.6423218155
 21
64.6421870131
 31
0.0
  0
ARC
  5
284
330
1F
100
AcDbEntity
  8
0
  6
Continuous
 62
     7
370
    18
100
AcDbCircle
 10
215.3724042676
 20
54.0046513892
 30
0.0
 40
1.972901567909387
100
AcDbArc
 50
160.2448099665
 51
206.8893922509
  0
ARC
  5
285
330
1F
100
AcDbEntity
  8
0
  6
Continuous
 62
     7
370
    18
100
AcDbCircle
 10
213.1304264678
 20
53.9440423154
 30
0.0
 40
0.823140719254319
100
AcDbArc
 50
40.3516534992
 51
62.0985447238
  0
LINE
  5
286
330
1F
100
AcDbEntity
  8
0
  6
Continuous
 62
     7
370
    18
100
AcDbLine
 10
213.5156170287
 20
54.6714960084
 30
0.0
 11
213.663419441
 21
55.2257508411
 31
0.0
  0
LINE
  5
287
330
1F
100
AcDbEntity
  8
0
  6
Continuous
 62
     7
370
    18
100
AcDbLine
 10
213.5156170287
 20
54.6714960084
 30
0.0
 11
212.2623976104
 21
55.3949641791
 31
0.0
  0
LINE
  5
288
330
1F
100
AcDbEntity
  8
0
  6
Continuous
 62
     7
370
    18
100
AcDbLine
 10
209.4177158264
 20
57.2014512159
 30
0.0
 11
209.4030954798
 21
57.3771770597
 31
0.0
  0
ARC
  5
289
330
1F
100
AcDbEntity
  8
0
  6
Continuous
 62
     7
370
    18
100
AcDbCircle
 10
213.2339679879
 20
40.6425992604
 30
0.0
 40
0.580633849259239
100
AcDbArc
 50
25.5709532967
 51
60.9828307538
  0
ARC
  5
28A
330
1F
100
AcDbEntity
  8
0
  6
Continuous
 62
     7
370
    18
100
AcDbCircle
 10
215.4710748391
 20
41.7963409018
 30
0.0
 40
2.059398257776769
100
AcDbArc
 50
172.8727688225
 51
198.2811498095
  0
LINE
  5
28B
330
1F
100
AcDbEntity
  8
0
  6
Continuous
 62
     7
370
    18
100
AcDbLine
 10
212.670432446
 20
46.1839515145
 30
0.0
 11
211.0533645529
 21
47.1174649388
 31
0.0
  0
LINE
  5
28C
330
1F
100
AcDbEntity
  8
0
  6
Continuous
 62
     7
370
    18
100
AcDbLine
 10
213.5156170287
 20
41.1503486915
 30
0.0
 11
212.2623976104
 21
41.8738168623
 31
0.0
  0
LINE
  5
28D
330
1F
100
AcDbEntity
  8
0
  6
Continuous
 62
     7
370
    18
100
AcDbLine
 10
213.5156170287
 20
41.1503486915
 30
0.0
 11
213.663419441
 21
40.7667428916
 31
0.0
  0
OLE2FRAME
  5
28E
330
1F
100
AcDbEntity
  8
0
100
AcDbOle2Frame
 70
     2
  3
Paintbrush-Bild
 10
13.8511154363
 20
38.264191557
 30
0.0
 11
51.6290888628
 21
31.9806341108
 31
0.0
 71
     2
 72
     0
 73
     1
 90
    12928
310
80552BED0767C5B32B40DDAF6807D121434000000000000000006FFBDDFB85D0
310
4940DDAF6807D121434000000000000000006FFBDDFB85D04940416F4BD60AFB
310
3F4000000000000000002BED0767C5B32B40416F4BD60AFB3F40000000000000
310
0000000000000100000000010000010000000100000000000100000000320000
310
D0CF11E0A1B11AE1000000000000000000000000000000003E000300FEFF0900
310
0600000000000000000000000100000001000000000000000010000002000000
310
01000000FEFFFFFF0000000000000000FFFFFFFFFFFFFFFFFFFFFFFFFFFFFFFF
310
FFFFFFFFFFFFFFFFFFFFFFFFFFFFFFFFFFFFFFFFFFFFFFFFFFFFFFFFFFFFFFFF
310
FFFFFFFFFFFFFFFFFFFFFFFFFFFFFFFFFFFFFFFFFFFFFFFFFFFFFFFFFFFFFFFF
310
FFFFFFFFFFFFFFFFFFFFFFFFFFFFFFFFFFFFFFFFFFFFFFFFFFFFFFFFFFFFFFFF
310
FFFFFFFFFFFFFFFFFFFFFFFFFFFFFFFFFFFFFFFFFFFFFFFFFFFFFFFFFFFFFFFF
310
FFFFFFFFFFFFFFFFFFFFFFFFFFFFFFFFFFFFFFFFFFFFFFFFFFFFFFFFFFFFFFFF
310
FFFFFFFFFFFFFFFFFFFFFFFFFFFFFFFFFFFFFFFFFFFFFFFFFFFFFFFFFFFFFFFF
310
FFFFFFFFFFFFFFFFFFFFFFFFFFFFFFFFFFFFFFFFFFFFFFFFFFFFFFFFFFFFFFFF
310
FFFFFFFFFFFFFFFFFFFFFFFFFFFFFFFFFFFFFFFFFFFFFFFFFFFFFFFFFFFFFFFF
310
FFFFFFFFFFFFFFFFFFFFFFFFFFFFFFFFFFFFFFFFFFFFFFFFFFFFFFFFFFFFFFFF
310
FFFFFFFFFFFFFFFFFFFFFFFFFFFFFFFFFFFFFFFFFFFFFFFFFFFFFFFFFFFFFFFF
310
FFFFFFFFFFFFFFFFFFFFFFFFFFFFFFFFFFFFFFFFFFFFFFFFFFFFFFFFFFFFFFFF
310
FFFFFFFFFFFFFFFFFFFFFFFFFFFFFFFFFFFFFFFFFFFFFFFFFFFFFFFFFFFFFFFF
310
FFFFFFFFFFFFFFFFFFFFFFFFFFFFFFFFFFFFFFFFFFFFFFFFFFFFFFFFFFFFFFFF
310
FDFFFFFFFEFFFFFFFEFFFFFFFEFFFFFF05000000060000000700000008000000
310
090000000A0000000B0000000C0000000D0000000E0000000F00000010000000
310
11000000120000001300000014000000150000001600000017000000FEFFFFFF
310
FFFFFFFFFFFFFFFFFFFFFFFFFFFFFFFFFFFFFFFFFFFFFFFFFFFFFFFFFFFFFFFF
310
FFFFFFFFFFFFFFFFFFFFFFFFFFFFFFFFFFFFFFFFFFFFFFFFFFFFFFFFFFFFFFFF
310
FFFFFFFFFFFFFFFFFFFFFFFFFFFFFFFFFFFFFFFFFFFFFFFFFFFFFFFFFFFFFFFF
310
FFFFFFFFFFFFFFFFFFFFFFFFFFFFFFFFFFFFFFFFFFFFFFFFFFFFFFFFFFFFFFFF
310
FFFFFFFFFFFFFFFFFFFFFFFFFFFFFFFFFFFFFFFFFFFFFFFFFFFFFFFFFFFFFFFF
310
FFFFFFFFFFFFFFFFFFFFFFFFFFFFFFFFFFFFFFFFFFFFFFFFFFFFFFFFFFFFFFFF
310
FFFFFFFFFFFFFFFFFFFFFFFFFFFFFFFFFFFFFFFFFFFFFFFFFFFFFFFFFFFFFFFF
310
FFFFFFFFFFFFFFFFFFFFFFFFFFFFFFFFFFFFFFFFFFFFFFFFFFFFFFFFFFFFFFFF
310
FFFFFFFFFFFFFFFFFFFFFFFFFFFFFFFFFFFFFFFFFFFFFFFFFFFFFFFFFFFFFFFF
310
FFFFFFFFFFFFFFFFFFFFFFFFFFFFFFFFFFFFFFFFFFFFFFFFFFFFFFFFFFFFFFFF
310
FFFFFFFFFFFFFFFFFFFFFFFFFFFFFFFFFFFFFFFFFFFFFFFFFFFFFFFFFFFFFFFF
310
FFFFFFFFFFFFFFFFFFFFFFFFFFFFFFFFFFFFFFFFFFFFFFFFFFFFFFFFFFFFFFFF
310
FFFFFFFFFFFFFFFFFFFFFFFFFFFFFFFFFFFFFFFFFFFFFFFFFFFFFFFFFFFFFFFF
310
52006F006F007400200045006E00740072007900000000000000000000000000
310
0000000000000000000000000000000000000000000000000000000000000000
310
16000500FFFFFFFFFFFFFFFF020000000A00030000000000C000000000000046
310
000000000000000000000000F06C101F59A9D30103000000C000000000000000
310
01004F006C006500000000000000000000000000000000000000000000000000
310
0000000000000000000000000000000000000000000000000000000000000000
310
0A000200FFFFFFFFFFFFFFFFFFFFFFFF00000000000000000000000000000000
310
0000000000000000000000000000000000000000000000001400000000000000
310
010043006F006D0070004F0062006A0000000000000000000000000000000000
310
0000000000000000000000000000000000000000000000000000000000000000
310
120002010100000003000000FFFFFFFF00000000000000000000000000000000
310
0000000000000000000000000000000000000000010000004D00000000000000
310
01004F006C006500310030004E00610074006900760065000000000000000000
310
0000000000000000000000000000000000000000000000000000000000000000
310
1A000200FFFFFFFFFFFFFFFFFFFFFFFF00000000000000000000000000000000
310
0000000000000000000000000000000000000000040000002426000000000000
310
FEFFFFFF02000000FEFFFFFFFFFFFFFFFFFFFFFFFFFFFFFFFFFFFFFFFFFFFFFF
310
FFFFFFFFFFFFFFFFFFFFFFFFFFFFFFFFFFFFFFFFFFFFFFFFFFFFFFFFFFFFFFFF
310
FFFFFFFFFFFFFFFFFFFFFFFFFFFFFFFFFFFFFFFFFFFFFFFFFFFFFFFFFFFFFFFF
310
FFFFFFFFFFFFFFFFFFFFFFFFFFFFFFFFFFFFFFFFFFFFFFFFFFFFFFFFFFFFFFFF
310
FFFFFFFFFFFFFFFFFFFFFFFFFFFFFFFFFFFFFFFFFFFFFFFFFFFFFFFFFFFFFFFF
310
FFFFFFFFFFFFFFFFFFFFFFFFFFFFFFFFFFFFFFFFFFFFFFFFFFFFFFFFFFFFFFFF
310
FFFFFFFFFFFFFFFFFFFFFFFFFFFFFFFFFFFFFFFFFFFFFFFFFFFFFFFFFFFFFFFF
310
FFFFFFFFFFFFFFFFFFFFFFFFFFFFFFFFFFFFFFFFFFFFFFFFFFFFFFFFFFFFFFFF
310
FFFFFFFFFFFFFFFFFFFFFFFFFFFFFFFFFFFFFFFFFFFFFFFFFFFFFFFFFFFFFFFF
310
FFFFFFFFFFFFFFFFFFFFFFFFFFFFFFFFFFFFFFFFFFFFFFFFFFFFFFFFFFFFFFFF
310
FFFFFFFFFFFFFFFFFFFFFFFFFFFFFFFFFFFFFFFFFFFFFFFFFFFFFFFFFFFFFFFF
310
FFFFFFFFFFFFFFFFFFFFFFFFFFFFFFFFFFFFFFFFFFFFFFFFFFFFFFFFFFFFFFFF
310
FFFFFFFFFFFFFFFFFFFFFFFFFFFFFFFFFFFFFFFFFFFFFFFFFFFFFFFFFFFFFFFF
310
FFFFFFFFFFFFFFFFFFFFFFFFFFFFFFFFFFFFFFFFFFFFFFFFFFFFFFFFFFFFFFFF
310
FFFFFFFFFFFFFFFFFFFFFFFFFFFFFFFFFFFFFFFFFFFFFFFFFFFFFFFFFFFFFFFF
310
FFFFFFFFFFFFFFFFFFFFFFFFFFFFFFFFFFFFFFFFFFFFFFFFFFFFFFFFFFFFFFFF
310
0100000200000000000000000000000000000000000000000000000000000000
310
0000000000000000000000000000000000000000000000000000000000000000
310
0100FEFF030A0000FFFFFFFF0A00030000000000C00000000000004607000000
310
5042727573680007000000504272757368000700000050427275736800F439B2
310
7100000000000000000000000000000000000000000000000000000000000000
310
0000000000000000000000000000000000000000000000000000000000000000
310
0000000000000000000000000000000000000000000000000000000000000000
310
0000000000000000000000000000000000000000000000000000000000000000
310
0000000000000000000000000000000000000000000000000000000000000000
310
0000000000000000000000000000000000000000000000000000000000000000
310
0000000000000000000000000000000000000000000000000000000000000000
310
0000000000000000000000000000000000000000000000000000000000000000
310
0000000000000000000000000000000000000000000000000000000000000000
310
0000000000000000000000000000000000000000000000000000000000000000
310
0000000000000000000000000000000000000000000000000000000000000000
310
0000000000000000000000000000000000000000000000000000000000000000
310
20260000424D0E260000000000003E00000028000000B40200006E0000000100
310
01000000000000000000130B0000130B00000200000002000000000000FFFFFF
310
FFFFFFFFFFFFFFFFFFFFFFFFFFFFFFFFFFFFFFFFFFFFFFFFFFFFFFFFFFFFFFFF
310
FFFFFFFFFFFFFFFFFFFFFFFFFFFFFFFFFFFFFFFFFFFFFFFFFFFFFFFFFFFFFFFF
310
FFFFFFFFFFFFFFFFFFFFFFFFFFFFFFFFFFFFFFFFFFFFFFFFF000FFFFFFFFFFFF
310
FFFFFFFFFFFFFFFFFFFFFFFFFFFFFFFFFFFFFFFFFFFFFFFFFFFFFFFFFFFFFFFF
310
FFFFFFFFFFFFFFFFFFFFFFFFFFFFFFFFFFFFFFFFFFFFFFFFFFFFFFFFFFFFFFFF
310
FFFFFFFFFFFFFFFFFFFFFFFFFFFFFFFFF000FFFFFFFFFFFFFFFFFFFFFFFFFFFF
310
FFFFFFFFFFFFFFFFFFFFFFFFFFFFFFFFFFFFFFFFFFFFFFFFFFFFFFFFFFFFFFFF
310
FFFFFFFFFFFFFFFFFFFFFFFFFFFFFFFFFFFFFFFFFFFFFFFFFFFFFFFFFFFFFFFF
310
FFFFFFFFFFFFFFFFF000FFFFFFFFFFFFFFFFFFFFFFFFFFFFFFFFFFFFFFFFFFFF
310
FFFFFFFFFFFFFFFFFFFFFFFFFFFFFFFFFFFFFFFFFFFFFFFFFFFFFFFFFFFFFFFF
310
FFFFFFFFFFFFFFFFFFFFFFFFFFFFFFFFFFFFFFFFFFFFFFFFFFFFFFFFFFFFFFFF
310
F000FFFFFFFFFFFFFFFFFFFFFFFFFFFFFFFFFFFFFFFFFFFFFFFFFFFFFFFFFFFF
310
FFFFFFFFFFFFFFFFFFFFFFFFFFFFFFFFFFFFFFFFFFFFFFFFFFFFFFFFFFFFFFFF
310
FFFFFFFFFFFFFFFFFFFFFFFFFFFFFFFFFFFFFFFFFFFFFFFFF000FFFFFFFFFFFF
310
FFFFFFFFFFFFFFFFFFFFFFFFFFFFFFFFFFFFFFFFFFFFFFFFFFFFFFFFFFFFFFFF
310
FFFFFFFFFFFFFFFFFFFFFFFFFFFFFFFFFFFFFFFFFFFFFFFFFFFFFFFFFFFFFFFF
310
FFFFFFFFFFFFFFFFFFFFFFFFFFFFFFFFF000FFFFFFFFFFFFFFFFFFFFFFFFFFFF
310
FFFFFFFFFFFFFFFFFFFFFFFFFFFFFFFFFFFFFFFFFFFFFFFFFFFFFFFFFFFFFFFF
310
FFFFFFFFFFFFFFFFFFFFFFFFFFFFFFFFFFFFFFFFFFFFFFFFFFFFFFFFFFFFFFFF
310
FFFFFFFFFFFFFFFFF000FFFFFFFFFFFFFFFFFFFFFFFFFFFFFFFFFFFFFFFFFFFF
310
FFFFFFFFFFFFFFFFFFFFFFFFFFFFFFFFFFFFFFFFFFFFFFFFFFFFFFFFFFFFFFFF
310
FFFFFFFFFFFFFFFFFFFFFFFFFFFFFFFFFFFFFFFFFFFFFFFFFFFFFFFFFFFFFFFF
310
F000FFFFFFFFFFFFFFFFFFFFFFFFFFFFFFFFFFFFFFFFFFFFFFFFFFFFFFFFFFFF
310
FFFFFFFFFFFFFFFFFFFFFFFFFFFFFFFFFFFFFFFFFFFFFFFFFFFFFFFFFFFFFFFF
310
FFFFFFFFFFFFFFFFFFFFFFFFFFFFFFFFFFFFFFFFFFFFFFFFF000FFFFFFFFFFFF
310
FFFFFFFFFFFFFFFFFFFFFFFFFFFFFFFFFFFFFFFFFFFFFFFFFFFFFFFFFFFFFFFF
310
FFFFFFFFFFFFFFFFFFFFFFFFFFFFFFFFFFFFFFFFFFFFFFFFFFFFFFFFFFFFFFFF
310
FFFFFFFFFFFFFFFFFFFFFFFFFFFFFFFFF000FFFFFFFFFFFFFFFFFFFFFFFFFFFF
310
FFFFFFFFFFFFFFFFFFFFFFFFFFFFFFFFFFFFFFFFFFFFFFFFFFFFFFFFFFFFFFFF
310
FFFFFFFFFFFFFFFFFFFFFFFFFFFFFFFFFFFFFFFFFFFFFFFFFFFFFFFFFFFFFFFF
310
FFFFFFFFFFFFFFFFF000FFFFFFFFFFFFFFFFFFFFFFFFFFFFFFFFFFFFFFFFFFFF
310
FFFFFFFFFFFFFFFFFFFFFFFFFFFFFFFFFFFFFFFFFFFFFFFFFFFFFFFFFFFFFFFF
310
FFFFFFFFFFFFFFFFFFFFFFFFFFFFFFFFFFFFFFFFFFFFFFFFFFFFFFFFFFFFFFFF
310
F000FFFFFFFFFFFFFFFFFFFFFFFFFFFFFFFFFFFFFFFFFFFFFFFFFFFFFFFFFFFF
310
FFFFFFFFFFFFFFFFFFFFFFFFFFFFFFFFFFFFFFFFFFFFFFFFFFFFFFFFFFFFFFFF
310
FFFFFFFFFFFFFFFFFFFFFFFFFFFFFFFFFFFFFFFFFFFFFFFFF000FFFFFFFFFFFF
310
FFFFFFFFFFFFFFFFFFFFFFFFFFFFFFFFFFFFFFFFFFFFFFFFFFFFFFFFFFFFFFFF
310
FFFFFFFFFFFFFFFFFFFFFFFFFFFFFFFFFFFFFFFFFFFFFFFFFFFFFFFFFFFFFFFF
310
FFFFFFFFFFFFFFFFFFFFFFFFFFFFFFFFF000FFFFFFFFFFFFFFFFFFFFFFFFFFFF
310
FFFFFFFFFFFFFFFFFFFFFFFFFFFFFFFFFFFFFFFFFFFFFFFFFFFFFFFFFFFFFFFF
310
FFFFFFFFFFFFFFFFFFFFFFFFFFFFFFFFFFFFFFFFFFFFFFFFFFFFFFFFFFFFFFFF
310
FFFFFFFFFFFFFFFFF000FFFFFFFFFFFFFFFFFFFFFFFFFFFFFFFFFFFFFFFFFFFF
310
FFFFFFFFFFFFFFFFFFFFFFFFFFFFFFFFFFFFFFFFFFFFFFFFFFFFFFFFFFFFFFFF
310
FFFFFFFFFFFFFFFFFFFFFFFFFFFFFFFFFFFFFFFFFFFFFFFFFFFFFFFFFFFFFFFF
310
F000FFFFFFFFFFFFFFFFFFFFFFFFFFFFFFFFFFFFFFFFFFFFFFFFFFFFFFFFFFFF
310
FFFFFFFFFFFFFFFFFFFFFFFFFFFFFFFFFFFFFFFFFFFFFFFFFFFFFFFFFFFFFFFF
310
FFFFFFFFFFFFFFFFFFFFFFFFFFFFFFFFFFFFFFFFFFFFFFFFF000FFFFFFFFFFFF
310
FFFFFFFFFFFFFFFFFFFFFFFFFFFFFFFFFFFFFFFFFFFFFFFFFFFFFFFFFFFFFFFF
310
FFFFFFFFFFFFFFFFFFFFFFFFFFFFFFFFFFFFFFFFFFFFFFFFFFFFFFFFFFFFFFFF
310
FFFFFFFFFFFFFFFFFFFFFFFFFFFFFFFFF000FFFFFFFFFFFFFFFFFFFFFFFFFFFF
310
FFFFFFFFFFFFFFFFFFFFFFFFFFFFFFFFFFFFFFFFFFFFFFFFFFFFFFFFFFFFFFFF
310
FFFFFFFFFFFFFFFFFFFFFFFFFFFFFFFFFFFFFFFFFFFFFFFFFFFFFFFFFFFFFFFF
310
FFFFFFFFFFFFFFFFF000FFFFF80003FFFFFFFFFFFFFFFFFFFFFFFFFFFFFFFFFF
310
FFFFF00007FFFFFFFFFF00007FFFFFF800000000000000007FFFFFFFFFFFFFFF
310
FFFFFFFC001FFFFFFFFFFFFFFC001FFFFFFFFFFFFFFFFFFFFFFFFFFE0007FFFF
310
F000FFFF8000007FFFFFFFF8000FFFFFC0007FFFFF80007FFFFF0000007FFFFF
310
FFF8000007FFFFF800000000000000007FFFFFF0001FFFFFFFFFFFC00001FFFF
310
FFFFFFFFC00001FFFFFFFF000000000003FFFFE000007FFFF000FFFE0000000F
310
FFFFFFF0000FFFFF80007FFFFF80007FFFFC0000001FFFFFFFC0000001FFFFF8
310
00000000000000007FFFFFF0001FFFFFFFFFFE0000003FFFFFFFFFFE0000003F
310
FFFFFF000000000003FFFF0000000FFFF000FFF800000003FFFFFFF00007FFFF
310
80007FFFFF80007FFFF000000007FFFFFF000000003FFFF80000000000000000
310
7FFFFFF0001FFFFFFFFFF80000000FFFFFFFFFF80000000FFFFFFF0000000000
310
03FFFC00000003FFF000FFE000000000FFFFFFF00007FFFF80003FFFFF80007F
310
FFC000000001FFFFFC000000001FFFF800000000000000007FFFFFF0001FFFFF
310
FFFFE000000003FFFFFFFFE000000003FFFFFF000000000003FFF000000000FF
310
F000FF80000000007FFFFFF00007FFFF80003FFFFF80007FFF8000000000FFFF
310
F80000000007FFF800000000000000007FFFFFF0001FFFFFFFFFC000000001FF
310
FFFFFFC000000001FFFFFF000000000003FFC0000000007FF000FF0000000000
310
3FFFFFE00007FFFF00003FFFFF80007FFE00000000003FFFF00000000003FFF8
310
00000000000000007FFFFFF0001FFFFFFFFF8000000000FFFFFFFF8000000000
310
FFFFFF000000000003FF80000000003FF000FE00000000001FFFFFE00003FFFF
310
00003FFFFF80007FFC00000000001FFFE00000000001FFF8000001FFFE000000
310
7FFFFFF0001FFFFFFFFE00000000003FFFFFFE00000000003FFFFF0000000000
310
03FF00000000001FF000FC00000000000FFFFFE00003FFFF00001FFFFF80007F
310
F800000000001FFFC00000000000FFF8000001FFFE0000007FFFFFF0001FFFFF
310
FFFC00000000001FFFFFFC00000000001FFFFF000000000003FE00000000000F
310
F000F8000000000007FFFFE00003FFFF00001FFFFF80007FF800000000000FFF
310
800000000000FFF8000001FFFE0000007FFFFFF0001FFFFFFFF800000000000F
310
FFFFF800000000000FFFFF000000000003FC000000000007F000F80000000000
310
03FFFFC00003FFFE00001FFFFF80007FF0000000000007FF0000000000007FF8
310
000001FFFE0000007FFFFFF0001FFFFFFFF0000000000007FFFFF00000000000
310
07FFFF000000000003F8000000000003F000F0000000000003FFFFC00001FFFE
310
00001FFFFF80007FE0000000000007FE0000000000003FF8000001FFFE000000
310
7FFFFFF0001FFFFFFFF0000000000007FFFFF0000000000007FFFF0000000000
310
03F800001F800003F000E00001FFF00001FFFFC00001FFFE00000FFFFF80007F
310
E00001FFE00003FE00001FFF00003FF8000001FFFE0000007FFFFFF0001FFFFF
310
FFE000003E000003FFFFE000003E000003FFFF000000000003F00001FFF80001
310
F000E00007FFFC0001FFFFC00001FFFE00000FFFFF80007FC0000FFFFC0003FC
310
0000FFFFC0001FF8000001FFFE0000007FFFFFF0001FFFFFFFC00003FFE00001
310
FFFFC00003FFE00001FFFF0001FFFFFFFFF00007FFFE0001F000E0000FFFFF00
310
00FFFF800001FFFC00000FFFFF80007FC0001FFFFE0001FC0001FFFFE0001FF8
310
000001FFFE0000007FFFFFF0001FFFFFFF80000FFFF80000FFFF80000FFFF800
310
00FFFF0003FFFFFFFFE0000FFFFF8000F000C0003FFFFF8000FFFF800000FFFC
310
000007FFFF80007F80003FFFFF0001FC0003FFFFF0001FF8000001FFFE000000
310
7FFFFFF0001FFFFFFF80003FFFFE0000FFFF80003FFFFE0000FFFF0003FFFFFF
310
FFE0003FFFFF8000F000C0003FFFFF8000FFFF800000FFFC000007FFFF80007F
310
80007FFFFF8001F80007FFFFF8000FF8000001FFFE0000007FFFFFF0001FFFFF
310
FF00007FFFFF00007FFF00007FFFFF00007FFF0003FFFFFFFFE0003FFFFFC000
310
F000C0007FFFFFC000FFFF000000FFFC000007FFFF80007F8000FFFFFF8000F8
310
000FFFFFF8000FF8000001FFFE0000007FFFFFF0001FFFFFFF0000FFFFFF8000
310
7FFF0000FFFFFF80007FFF0003FFFFFFFFC0007FFFFFC00070008000FFFFFFC0
310
00FFFF000000FFF8000007FFFF80007F8000FFFFFF8000F8000FFFFFF8000FF8
310
000001FFFE0000007FFFFFF0001FFFFFFE0001FFFFFFC0003FFE0001FFFFFFC0
310
003FFF0003FFFFFFFFC0007FFFFFE00070008000FFFFFFC0007FFF0000007FF8
310
000003FFFF80007F0001FFFFFF8000F8000FFFFFF8000FF8000001FFFE000000
310
7FFFFFF0001FFFFFFE0001FFFFFFC0003FFE0001FFFFFFC0003FFF0003FFFFFF
310
FFC000FFFFFFE00070008000FFFFFFC0007FFF0000007FF8000003FFFF80007F
310
0001FFFFFF8000F8001FFFFFF8000FF8000001FFFE0000007FFFFFF0001FFFFF
310
FE0003FFFFFFE0003FFE0003FFFFFFE0003FFF0003FFFFFFFFC000FFFFFFE000
310
70008000FFFFFFC0007FFE0000007FF8000003FFFF80007F0001FFFFFF8000F0
310
001FFFFFF8000FF8000001FFFE0000007FFFFFF0001FFFFFFC0003FFFFFFE000
310
1FFC0003FFFFFFE0001FFF0003FFFFFFFFC000FFFFFFC00070008000FFFFFF80
310
007FFE0000007FF0000003FFFF80007F0001FFFFFF0000F0001FFFFFF8000FF8
310
000001FFFE0000007FFFFFF0001FFFFFFC0007FFFFFFF0001FFC0007FFFFFFF0
310
001FFF0003FFFFFFFFC000FFFFFFC00070008001FFFFFF0000FFFE0000003FF0
310
000001FFFF80007F0001FFFFFF0000F8001FFFFFF0000FF8000001FFFE000000
310
7FFFFFF0001FFFFFFC0007FFFFFFF0001FFC0007FFFFFFF0001FFF0003FFFFFF
310
FFC001FFFFFF80007000FFFFFFFFFE0000FFFE0008003FF0008001FFFF80007F
310
FFFFFFFFFC0000FFFFFFFFFFE0000FF8000001FFFE0000007FFFFFF0001FFFFF
310
F8000FFFFFFFF8000FF8000FFFFFFFF8000FFF0003FFFFFFFFFFFFFFFFFF0000
310
7000FFFFFFFFFC0000FFFC0008003FF0008001FFFF80007FFFFFFFFFF80001FF
310
FFFFFFFF80000FF8000001FFFE0000007FFFFFF0001FFFFFF8000FFFFFFFF800
310
0FF8000FFFFFFFF8000FFF0003FFFFFFFFFFFFFFFFFE0000F000FFFFFFFFE000
310
00FFFC000C003FE000C001FFFF80007FFFFFFFFFC00001FFFFFFFFFE00001FF8
310
000001FFFE0000007FFFFFF0001FFFFFF8000FFFFFFFF8000FF8000FFFFFFFF8
310
000FFF0003FFFFFFFFFFFFFFFFF00000F000FFFFFFFE000001FFFC000C001FE0
310
00C000FFFF80007FFFFFFFFE000001FFFFFFFFE000001FF80FFFFFFFFFFFFFC0
310
7FFFFFF0001FFFFFF8000FFFFFFFF8000FF8000FFFFFFFF8000FFF0003FFFFFF
310
FFFFFFFFFF800000F000FFFFFFC0000001FFFC001C001FE001C000FFFF80007F
310
FFFFFF80000003FFFFFFF80000001FF80FFFFFFFFFFFFFC07FFFFFF0001FFFFF
310
F8001FFFFFFFFC000FF8001FFFFFFFFC000FFF0003FFFFFFFFFFFFFFF0000001
310
F000FFFFF800000001FFF8001C001FE001C000FFFF80007FFFFFF800000003FF
310
FFFF800000003FF80FFFFFFFFFFFFFC07FFFFFF0001FFFFFF8001FFFFFFFFC00
310
0FF8001FFFFFFFFC000FFF0003FFFFFFFFFFFFFE00000001F000FFFFC0000000
310
03FFF8001E001FC001E000FFFF80007FFFFF8000000007FFFFFC000000003FF8
310
0FFFFFFFFFFFFFC07FFFFFF0001FFFFFF8001FFFFFFFFC000FF8001FFFFFFFFC
310
000FFF0003FFFFFFFFFFFFE000000003F000FFFE0000000007FFF8001E000FC0
310
01E0007FFF80007FFFFE0000000007FFFFE0000000007FF80FFFFFFFFFFFFFC0
310
7FFFFFF0001FFFFFF0001FFFFFFFFC0007F0001FFFFFFFFC0007FF0003FFFFFF
310
FFFFFF0000000003F000FFF80000000007FFF8001E000FC003E0007FFF80007F
310
FFF0000000000FFFFF8000000000FFF80FFFFFFFFFFFFFC07FFFFFF0001FFFFF
310
F0001FFFFFFFFC0007F0001FFFFFFFFC0007FF0003FFFFFFFFFFFC0000000007
310
F000FFE0000000000FFFF0003E000FC003E0007FFF80007FFFC0000000001FFF
310
FE0000000001FFF80FFFFFFFFFFFFFC07FFFFFF0001FFFFFF0001FFFFFFFFC00
310
07F0001FFFFFFFFC0007FF0003FFFFFFFFFFF0000000000FF000FFC000000000
310
1FFFF0003F000F8003F0003FFF80007FFF80000000003FFFF80000000003FFF8
310
0FFFFFFFFFFFFFC07FFFFFF0001FFFFFF0001FFFFFFFFC0007F0001FFFFFFFFC
310
0007FF0003FFFFFFFFFFE0000000001FF000FF00000000007FFFF0003F000780
310
03F0003FFF80007FFF00000000007FFFF00000000007FFF80FFFFFFFFFFFFFC0
310
7FFFFFF0001FFFFFF0001FFFFFFFFC0007F0001FFFFFFFFC0007FF0003FFFFFF
310
FFFF80000000007FF000FE0000000000FFFFE0003F00078007F0003FFF80007F
310
FE0000000001FFFFE0000000001FFFF80FFFFFFFFFFFFFC07FFFFFF0001FFFFF
310
F0001FFFFFFFFC0007F0001FFFFFFFFC0007FF0003FFFFFFFFFF0000000000FF
310
F000FC0000000003FFFFE0007F00078007F0003FFF80007FFC0000000007FFFF
310
C0000000007FFFF80FFFFFFFFFFFFFC07FFFFFF0001FFFFFF8001FFFFFFFFC00
310
0FF8001FFFFFFFFC000FFF0003FFFFFFFFFE0000000003FFF000FC000000000F
310
FFFFE0007F80070007F8001FFF80007FF8000000001FFFFF8000000001FFFFF8
310
0FFFFFFFFFFFFFC07FFFFFF0001FFFFFF8001FFFFFFFFC000FF8001FFFFFFFFC
310
000FFF0003FFFFFFFFFC000000000FFFF000F8000000007FFFFFE0007F800700
310
07F8001FFF80007FF000000000FFFFFF800000000FFFFFF80FFFFFFFFFFFFFC0
310
7FFFFFF0001FFFFFF8000FFFFFFFF8000FF8000FFFFFFFF8000FFF0003FFFFFF
310
FFFC000000007FFFF000F800000007FFFFFFC0007F8003000FF8001FFF80007F
310
F000000007FFFFFF000000007FFFFFF80FFFFFFFFFFFFFC07FFFFFF0001FFFFF
310
F8000FFFFFFFF8000FF8000FFFFFFFF8000FFF0003FFFFFFFFF80000000FFFFF
310
F000F0000000FFFFFFFFC000FF8003000FF8001FFF80007FE0000000FFFFFFFF
310
0000000FFFFFFFF8000001FFFE0000007FFFFFF0001FFFFFF8000FFFFFFFF800
310
0FF8000FFFFFFFF8000FFF0003FFFFFFFFF8000000FFFFFFF000F000000FFFFF
310
FFFFC000FFC002000FF8000FFF80007FE000001FFFFFFFFE000001FFFFFFFFF8
310
000001FFFE0000007FFFFFF0001FFFFFF8000FFFFFFFF8000FF8000FFFFFFFF8
310
000FFF0003FFFFFFFFF000001FFFFFFFF000E00000FFFFFFFFFFC000FFC00200
310
0FFC000FFF80007FE00001FFFFFFFFFE00001FFFFFFFFFF8000001FFFE000000
310
7FFFFFF0001FFFFFFC000FFFFFFFF8001FFC000FFFFFFFF8001FFF0003FFFFFF
310
FFF00001FFFFFFFFF000E00007FFFFFFFFFF8000FFC000001FFC000FFF80007F
310
C0000FFFFFFFFFFE0000FFFFFFFFFFF8000001FFFE0000007FFFFFF0001FFFFF
310
FC0007FFFFFFF0001FFC0007FFFFFFF0001FFF0003FFFFFFFFF00007FFFFFFFF
310
F000E0001FFFFFFFFFFF8000FFC000001FFC000FFF80007FC0003FFFFFFFFFFE
310
0001FFFFFFFFFFF8000001FFFE0000007FFFFFF0001FFFFFFC0007FFFFFFF000
310
1FFC0007FFFFFFF0001FFF0003FFFFFFFFF0001FFFFFFFFFF000E0003FFFFF00
310
03FF8001FFE000001FFC0007FF80007FC0007FFFFF0007FC0003FFFFF0003FF8
310
000001FFFE0000007FFFFFF0001FFFFFFC0003FFFFFFE0001FFC0003FFFFFFE0
310
001FFF0003FFFFFFFFF0003FFFFFFFFFF000E0003FFFFF0001FF8001FFE00000
310
1FFE0007FF80007FC0007FFFFE0003FC0007FFFFE0003FF8000001FFFE000000
310
7FFFFFF0001FFFFFFE0003FFFFFFE0003FFE0003FFFFFFE0003FFF0003FFFFFF
310
FFF0003FFFFF8001F000E0003FFFFF0001FF0001FFE000001FFE0007FF80007F
310
C0007FFFFE0003FC0007FFFFE0003FF8000001FFFE0000007FFFFFF0001FFFFF
310
FE0001FFFFFFC0003FFE0001FFFFFFC0003FFF0003FFFFFFFFF0003FFFFF0001
310
F000E0003FFFFF0003FF0001FFE000003FFE0007FF80007FC0007FFFFE0003FC
310
0007FFFFE0003FF8000001FFFE0000007FFFFFF0001FFFFFFF0001FFFFFFC000
310
7FFF0001FFFFFFC0007FFF0003FFFFFFFFF0003FFFFF0001F000E0003FFFFE00
310
03FF0003FFF000003FFE0003FF80007FC0007FFFFC0003FE0007FFFFE0003FF8
310
000001FFFE0000007FFFFFF0001FFFFFFF0000FFFFFF80007FFF0000FFFFFF80
310
007FFF0003FFFFFFFFF0003FFFFF0001F000E0003FFFFE0003FF0003FFF00000
310
3FFF0003FF80007FC0007FFFFC0007FE0007FFFFC0003FF8000001FFFE000000
310
7FFFFFF0001FFFFFFF80007FFFFF0000FFFF80007FFFFF0000FFFF0003FFFFFF
310
FFF0003FFFFF0003F000E0003FFFFC0003FE0003FFF000003FFF0003FF80007F
310
E0003FFFF80007FE0003FFFFC0007FF8000001FFFE0000007FFFFFF0001FFFFF
310
FF80003FFFFE0000FFFF80003FFFFE0000FFFF0003FFFFFFFFF0001FFFFE0003
310
F000F0001FFFF80003FE0003FFF000007FFF0001FF80007FE0003FFFF00007FE
310
0001FFFF80007FF8000001FFFE0000007FFFFFF0001FFFFFFFC0000FFFF80001
310
FFFFC0000FFFF80001FFFF0003FFFFFFFFF0001FFFFC0003F000F0000FFFF000
310
07FE0007FFF800007FFF0001FF80007FE0001FFFE00007FF0000FFFE00007FF8
310
000001FFFE0000007FFFFFF0001FFFFFFFC00003FFE00001FFFFC00003FFE000
310
01FFFF0003FFFFFFFFF8000FFFF80003F000F00003FFC00007FC0007FFF80000
310
7FFF8001FF80007FF00007FF80000FFF00007FF80000FFF8000001FFFE000000
310
7F80000000000001FFE000003E000003FFFFE000003E000003FFFF0003FFFFFF
310
FFF80003FFE00007F000F800000000000FFC0007FFF800007FFF8001FF80007F
310
F000000000000FFF000000000000FFF8000001FFFE0000007F80000000000001
310
FFF0000000000007FFFFF0000000000007FFFF0003FFFFFFFFFC00007E000007
310
F000F800000000000FFC0007FFF80000FFFF8000FF80007FF800000000001FFF
310
800000000001FFF8000001FFFE0000007F80000000000001FFF800000000000F
310
FFFFF800000000000FFFFF0003FFFFFFFFFC00000000000FF000FC0000000000
310
1FFC0007FFFC0000FFFF8000FF80007FF800000000003FFFC00000000001FFF8
310
000001FFFE0000007F80000000000001FFF800000000000FFFFFF80000000000
310
0FFFFF0003FFFFFFFFFE00000000001FF000FE00000000003FF8000FFFFC0000
310
FFFF8000FF80007FFC00000000003FFFC00000000003FFF8000001FFFE000000
310
7F80000000000001FFFC00000000001FFFFFFC00000000001FFFFF0003FFFFFF
310
FFFF00000000001FF000FF00000000003FF8000FFFFC0000FFFFC000FF80007F
310
FE00000000007FFFE00000000007FFF8000001FFFE0000007F80000000000001
310
FFFE00000000003FFFFFFE00000000003FFFFF0003FFFFFFFFFF80000000003F
310
F000FF80000000007FF8000FFFFC0001FFFFC0007F80007FFF0000000000FFFF
310
F0000000000FFFF800000000000000007F80000000000001FFFF8000000000FF
310
FFFFFF8000000000FFFFFF0003FFFFFFFFFFC0000000007FF000FFC000000000
310
FFF8000FFFFE0001FFFFC0007F80007FFF8000000001FFFFF8000000001FFFF8
310
00000000000000007F80000000000001FFFFC000000001FFFFFFFFC000000001
310
FFFFFF0003FFFFFFFFFFE000000000FFF000FFE000000003FFF0001FFFFE0001
310
FFFFC0007F80007FFFC000000007FFFFFE000000003FFFF80000000000000000
310
7F80000000000001FFFFE000000003FFFFFFFFE000000003FFFFFF0003FFFFFF
310
FFFFF000000003FFF000FFF80000000FFFF0001FFFFE0001FFFFE0007F80007F
310
FFF00000000FFFFFFF00000000FFFFF800000000000000007F80000000000001
310
FFFFF80000000FFFFFFFFFF80000000FFFFFFF0003FFFFFFFFFFFC0000000FFF
310
F000FFFE0000003FFFF0001FFFFE0003FFFFE0003F80007FFFFC0000003FFFFF
310
FFC0000003FFFFF800000000000000007F80000000000001FFFFFE0000003FFF
310
FFFFFFFE0000003FFFFFFF0003FFFFFFFFFFFF0000003FFFF000FFFF800000FF
310
FFF0001FFFFF0003FFFFE0003F80007FFFFF000001FFFFFFFFF800001FFFFFF8
310
00000000000000007F80000000000001FFFFFFC00001FFFFFFFFFFFFC00001FF
310
FFFFFF0003FFFFFFFFFFFFC00000FFFFF000FFFFF8000FFFFFFFFFFFFFFFFFFF
310
FFFFFFFFFFFFFFFFFFFFF0001FFFFFFFFFFF0000FFFFFFF80000000000000000
310
7FFFFFFFFFFFFFFFFFFFFFFC001FFFFFFFFFFFFFFC001FFFFFFFFFFFFFFFFFFF
310
FFFFFFFC001FFFFFF000FFFFFFFFFFFFFFFFFFFFFFFFFFFFFFFFFFFFFFFFFFFF
310
FFFFFFFFFFFFFFFFFFFFFFFFFFFFFFFFFFFFFFFFFFFFFFFFFFFFFFFFFFFFFFFF
310
FFFFFFFFFFFFFFFFFFFFFFFFFFFFFFFFFFFFFFFFFFFFFFFFFFFFFFFFFFFFFFFF
310
F000FFFFFFFFFFFFFFFFFFFFFFFFFFFFFFFFFFFFFFFFFFFFFFFFFFFFFFFFFFFF
310
FFFFFFFFFFFFFFFFFFFFFFFFFFFFFFFFFFFFFFFFFFFFFFFFFFFFFFFFFFFFFFFF
310
FFFFFFFFFFFFFFFFFFFFFFFFFFFFFFFFFFFFFFFFFFFFFFFFF000FFFFFFFFFFFF
310
FFFFFFFFFFFFFFFFFFFFFFFFFFFFFFFFFFFFFFFFFFFFFFFFFFFFFFFFFFFFFFFF
310
FFFFFFFFFFFFFFFFFFFFFFFFFFFFFFFFFFFFFFFFFFFFFFFFFFFFFFFFFFFFFFFF
310
FFFFFFFFFFFFFFFFFFFFFFFFFFFFFFFFF000FFFFFFFFFFFFFFFFFFFFFFFFFFFF
310
FFFFFFFFFFFFFFFFFFFFFFFFFFFFFFFFFFFFFFFFFFFFFFFFFFFFFFFFFFFFFFFF
310
FFFFFFFFFFFFFFFFFFFFFFFFFFFFFFFFFFFFFFFFFFFFFFFFFFFFFFFFFFFFFFFF
310
FFFFFFFFFFFFFFFFF000FFFFFFFFFFFFFFFFFFFFFFFFFFFFFFFFFFFFFFFFFFFF
310
FFFFFFFFFFFFFFFFFFFFFFFFFFFFFFFFFFFFFFFFFFFFFFFFFFFFFFFFFFFFFFFF
310
FFFFFFFFFFFFFFFFFFFFFFFFFFFFFFFFFFFFFFFFFFFFFFFFFFFFFFFFFFFFFFFF
310
F000FFFFFFFFFFFFFFFFFFFFFFFFFFFFFFFFFFFFFFFFFFFFFFFFFFFFFFFFFFFF
310
FFFFFFFFFFFFFFFFFFFFFFFFFFFFFFFFFFFFFFFFFFFFFFFFFFFFFFFFFFFFFFFF
310
FFFFFFFFFFFFFFFFFFFFFFFFFFFFFFFFFFFFFFFFFFFFFFFFF000FFFFFFFFFFFF
310
FFFFFFFFFFFFFFFFFFFFFFFFFFFFFFFFFFFFFFFFFFFFFFFFFFFFFFFFFFFFFFFF
310
FFFFFFFFFFFFFFFFFFFFFFFFFFFFFFFFFFFFFFFFFFFFFFFFFFFFFFFFFFFFFFFF
310
FFFFFFFFFFFFFFFFFFFFFFFFFFFFFFFFF000FFFFFFFFFFFFFFFFFFFFFFFFFFFF
310
FFFFFFFFFFFFFFFFFFFFFFFFFFFFFFFFFFFFFFFFFFFFFFFFFFFFFFFFFFFFFFFF
310
FFFFFFFFFFFFFFFFFFFFFFFFFFFFFFFFFFFFFFFFFFFFFFFFFFFFFFFFFFFFFFFF
310
FFFFFFFFFFFFFFFFF000FFFFFFFFFFFFFFFFFFFFFFFFFFFFFFFFFFFFFFFFFFFF
310
FFFFFFFFFFFFFFFFFFFFFFFFFFFFFFFFFFFFFFFFFFFFFFFFFFFFFFFFFFFFFFFF
310
FFFFFFFFFFFFFFFFFFFFFFFFFFFFFFFFFFFFFFFFFFFFFFFFFFFFFFFFFFFFFFFF
310
F000FFFFFFFFFFFFFFFFFFFFFFFFFFFFFFFFFFFFFFFFFFFFFFFFFFFFFFFFFFFF
310
FFFFFFFFFFFFFFFFFFFFFFFFFFFFFFFFFFFFFFFFFFFFFFFFFFFFFFFFFFFFFFFF
310
FFFFFFFFFFFFFFFFFFFFFFFFFFFFFFFFFFFFFFFFFFFFFFFFF000FFFFFFFFFFFF
310
FFFFFFFFFFFFFFFFFFFFFFFFFFFFFFFFFFFFFFFFFFFFFFFFFFFFFFFFFFFFFFFF
310
FFFFFFFFFFFFFFFFFFFFFFFFFFFFFFFFFFFFFFFFFFFFFFFFFFFFFFFFFFFFFFFF
310
FFFFFFFFFFFFFFFFFFFFFFFFFFFFFFFFF000FFFFFFFFFFFFFFFFFFFFFFFFFFFF
310
FFFFFFFFFFFFFFFFFFFFFFFFFFFFFFFFFFFFFFFFFFFFFFFFFFFFFFFFFFFFFFFF
310
FFFFFFFFFFFFFFFFFFFFFFFFFFFFFFFFFFFFFFFFFFFFFFFFFFFFFFFFFFFFFFFF
310
FFFFFFFFFFFFFFFFF000FFFFFFFFFFFFFFFFFFFFFFFFFFFFFFFFFFFFFFFFFFFF
310
FFFFFFFFFFFFFFFFFFFFFFFFFFFFFFFFFFFFFFFFFFFFFFFFFFFFFFFFFFFFFFFF
310
FFFFFFFFFFFFFFFFFFFFFFFFFFFFFFFFFFFFFFFFFFFFFFFFFFFFFFFFFFFFFFFF
310
F000FFFFFFFFFFFFFFFFFFFFFFFFFFFFFFFFFFFFFFFFFFFFFFFFFFFFFFFFFFFF
310
FFFFFFFFFFFFFFFFFFFFFFFFFFFFFFFFFFFFFFFFFFFFFFFFFFFFFFFFFFFFFFFF
310
FFFFFFFFFFFFFFFFFFFFFFFFFFFFFFFFFFFFFFFFFFFFFFFFF000FFFFFFFFFFFF
310
FFFFFFFFFFFFFFFFFFFFFFFFFFFFFFFFFFFFFFFFFFFFFFFFFFFFFFFFFFFFFFFF
310
FFFFFFFFFFFFFFFFFFFFFFFFFFFFFFFFFFFFFFFFFFFFFFFFFFFFFFFFFFFFFFFF
310
FFFFFFFFFFFFFFFFFFFFFFFFFFFFFFFFF000FFFFFFFFFFFFFFFFFFFFFFFFFFFF
310
FFFFFFFFFFFFFFFFFFFFFFFFFFFFFFFFFFFFFFFFFFFFFFFFFFFFFFFFFFFFFFFF
310
FFFFFFFFFFFFFFFFFFFFFFFFFFFFFFFFFFFFFFFFFFFFFFFFFFFFFFFFFFFFFFFF
310
FFFFFFFFFFFFFFFFF000FFFFFFFFFFFFFFFFFFFFFFFFFFFFFFFFFFFFFFFFFFFF
310
FFFFFFFFFFFFFFFFFFFFFFFFFFFFFFFFFFFFFFFFFFFFFFFFFFFFFFFFFFFFFFFF
310
FFFFFFFFFFFFFFFFFFFFFFFFFFFFFFFFFFFFFFFFFFFFFFFFFFFFFFFFFFFFFFFF
310
F000FFFFFFFFFFFFFFFFFFFFFFFFFFFFFFFFFFFFFFFFFFFFFFFFFFFFFFFFFFFF
310
FFFFFFFFFFFFFFFFFFFFFFFFFFFFFFFFFFFFFFFFFFFFFFFFFFFFFFFFFFFFFFFF
310
FFFFFFFFFFFFFFFFFFFFFFFFFFFFFFFFFFFFFFFFFFFFFFFFF000FFFFFFFFFFFF
310
FFFFFFFFFFFFFFFFFFFFFFFFFFFFFFFFFFFFFFFFFFFFFFFFFFFFFFFFFFFFFFFF
310
FFFFFFFFFFFFFFFFFFFFFFFFFFFFFFFFFFFFFFFFFFFFFFFFFFFFFFFFFFFFFFFF
310
FFFFFFFFFFFFFFFFFFFFFFFFFFFFFFFFF000FFFFFFFFFFFFFFFFFFFFFFFFFFFF
310
FFFFFFFFFFFFFFFFFFFFFFFFFFFFFFFFFFFFFFFFFFFFFFFFFFFFFFFFFFFFFFFF
310
FFFFFFFFFFFFFFFFFFFFFFFFFFFFFFFFFFFFFFFFFFFFFFFFFFFFFFFFFFFFFFFF
310
FFFFFFFFFFFFFFFFF000FFFFFFFFFFFFFFFFFFFFFFFFFFFFFFFFFFFFFFFFFFFF
310
FFFFFFFFFFFFFFFFFFFFFFFFFFFFFFFFFFFFFFFFFFFFFFFFFFFFFFFFFFFFFFFF
310
FFFFFFFFFFFFFFFFFFFFFFFFFFFFFFFFFFFFFFFFFFFFFFFFFFFFFFFFFFFFFFFF
310
F000FFFFFFFFFFFFFFFFFFFFFFFFFFFFFFFFFFFFFFFFFFFFFFFFFFFFFFFFFFFF
310
FFFFFFFFFFFFFFFFFFFFFFFFFFFFFFFFFFFFFFFFFFFFFFFFFFFFFFFFFFFFFFFF
310
FFFFFFFFFFFFFFFFFFFFFFFFFFFFFFFFFFFFFFFFFFFFFFFFF000FFFFFFFFFFFF
310
FFFFFFFFFFFFFFFFFFFFFFFFFFFFFFFFFFFFFFFFFFFFFFFFFFFFFFFFFFFFFFFF
310
FFFFFFFFFFFFFFFFFFFFFFFFFFFFFFFFFFFFFFFFFFFFFFFFFFFFFFFFFFFFFFFF
310
FFFFFFFFFFFFFFFFFFFFFFFFFFFFFFFFF0000000000000000000000000000000
310
0000000000000000000000000000000000000000000000000000000000000000
310
0000000000000000000000000000000000000000000000000000000000000000
310
0000000000000000000000000000000000000000000000000000000000000000
310
0000000000000000000000000000000000000000000000000000000000000000
310
0000000000000000000000000000000000000000000000000000000000000000
310
0000000000000000000000000000000000000000000000000000000000000000
310
0000000000000000000000000000000000000000000000000000000000000000
310
0000000000000000000000000000000000000000000000000000000000000000
310
0000000000000000000000000000000000000000000000000000000000000000
310
0000000000000000000000000000000000000000000000000000000000000000
310
0000000000000000000000000000000000000000000000000000000000000000
310
0000000000000000000000000000000000000000000000000000000000000000
310
0000000000000000000000000000000000000000000000000000000000000000
310
0000000000000000000000000000000000000000000000000000000000000000
310
0000000000000000000000000000000000000000000000000000000000000000
  1
OLE
  0
ENDSEC
  0
SECTION
  2
OBJECTS
  0
DICTIONARY
  5
C
330
0
100
AcDbDictionary
281
     1
  3
ACAD_GROUP
350
D
  3
ACAD_LAYOUT
350
1A
  3
ACAD_MLINESTYLE
350
17
  3
ACAD_PLOTSETTINGS
350
19
  3
ACAD_PLOTSTYLENAME
350
E
  3
ACAD_SCALELIST
350
47
  0
DICTIONARY
  5
D
102
{ACAD_REACTORS
330
C
102
}
330
C
100
AcDbDictionary
281
     1
  0
DICTIONARY
  5
1A
102
{ACAD_REACTORS
330
C
102
}
330
C
100
AcDbDictionary
281
     1
  3
Layout1
350
1E
  3
Layout2
350
26
  3
Model
350
22
  0
DICTIONARY
  5
17
102
{ACAD_REACTORS
330
C
102
}
330
C
100
AcDbDictionary
281
     1
  3
Standard
350
18
  0
DICTIONARY
  5
19
102
{ACAD_REACTORS
330
C
102
}
330
C
100
AcDbDictionary
281
     1
  0
ACDBDICTIONARYWDFLT
  5
E
102
{ACAD_REACTORS
330
C
102
}
330
C
100
AcDbDictionary
281
     1
  3
Normal
350
F
100
AcDbDictionaryWithDefault
340
F
  0
DICTIONARY
  5
47
102
{ACAD_REACTORS
330
C
102
}
330
C
100
AcDbDictionary
281
     1
  3
A0
350
48
  3
A1
350
49
  3
A2
350
4A
  3
A3
350
4B
  3
A4
350
4C
  3
A5
350
4D
  3
A6
350
4E
  3
A7
350
4F
  3
A8
350
50
  3
A9
350
51
  3
B0
350
52
  3
B1
350
53
  3
B2
350
54
  3
B3
350
55
  3
B4
350
56
  3
B5
350
57
  3
B6
350
58
  3
B7
350
59
  3
B8
350
5A
  3
B9
350
5B
  3
C0
350
5C
  3
C1
350
5D
  3
C2
350
5E
  3
C3
350
5F
  3
C4
350
60
  3
C5
350
61
  3
C6
350
62
  3
C7
350
63
  3
C8
350
64
  3
C9
350
65
  3
D0
350
66
  3
D1
350
67
  3
D2
350
68
  0
LAYOUT
  5
1E
102
{ACAD_REACTORS
330
1A
102
}
330
1A
100
AcDbPlotSettings
  1

  2
none_device
  4

  6

 40
0.0
 41
0.0
 42
0.0
 43
0.0
 44
0.0
 45
0.0
 46
0.0
 47
0.0
 48
0.0
 49
0.0
140
0.0
141
0.0
142
1.0
143
1.0
 70
   688
 72
     1
 73
     0
 74
     5
  7

 75
    16
147
1.0
148
0.0
149
0.0
100
AcDbLayout
  1
Layout1
 70
     1
 71
     1
 10
0.0
 20
0.0
 11
420.0
 21
297.0
 12
0.0
 22
0.0
 32
0.0
 14
1.0000000000E+20
 24
1.0000000000E+20
 34
1.0000000000E+20
 15
-1.0000000000E+20
 25
-1.0000000000E+20
 35
-1.0000000000E+20
146
0.0
 13
0.0
 23
0.0
 33
0.0
 16
1.0
 26
0.0
 36
0.0
 17
0.0
 27
1.0
 37
0.0
 76
     0
330
1B
  0
LAYOUT
  5
26
102
{ACAD_REACTORS
330
1A
102
}
330
1A
100
AcDbPlotSettings
  1

  2
none_device
  4

  6

 40
0.0
 41
0.0
 42
0.0
 43
0.0
 44
0.0
 45
0.0
 46
0.0
 47
0.0
 48
0.0
 49
0.0
140
0.0
141
0.0
142
1.0
143
1.0
 70
   688
 72
     1
 73
     0
 74
     5
  7

 75
    16
147
1.0
148
0.0
149
0.0
100
AcDbLayout
  1
Layout2
 70
     1
 71
     2
 10
0.0
 20
0.0
 11
0.0
 21
0.0
 12
0.0
 22
0.0
 32
0.0
 14
0.0
 24
0.0
 34
0.0
 15
0.0
 25
0.0
 35
0.0
146
0.0
 13
0.0
 23
0.0
 33
0.0
 16
1.0
 26
0.0
 36
0.0
 17
0.0
 27
1.0
 37
0.0
 76
     0
330
23
  0
LAYOUT
  5
22
102
{ACAD_REACTORS
330
1A
102
}
330
1A
100
AcDbPlotSettings
  1

  2
none_device
  4
Letter_(8.50_x_11.00_Inches)
  6

 40
6.35
 41
6.35
 42
6.35000508
 43
6.35000508
 44
215.9
 45
279.4
 46
0.0
 47
0.0
 48
0.0
 49
0.0
140
0.0
141
0.0
142
1.0
143
1.0
 70
  1712
 72
     1
 73
     0
 74
     0
  7

 75
     0
147
1.0
148
0.0
149
0.0
100
AcDbLayout
  1
Model
 70
     1
 71
     0
 10
0.0
 20
0.0
 11
297.0
 21
210.0
 12
0.0
 22
0.0
 32
0.0
 14
0.0
 24
0.0
 34
0.0
 15
297.0
 25
210.0
 35
0.0
146
0.0
 13
0.0
 23
0.0
 33
0.0
 16
1.0
 26
0.0
 36
0.0
 17
0.0
 27
1.0
 37
0.0
 76
     0
330
1F
331
29
  0
MLINESTYLE
  5
18
102
{ACAD_REACTORS
330
17
102
}
330
17
100
AcDbMlineStyle
  2
Standard
 70
     0
  3

 62
   256
 51
90.0
 52
90.0
 71
     2
 49
0.5
 62
   256
  6
BYLAYER
 49
-0.5
 62
   256
  6
BYLAYER
  0
ACDBPLACEHOLDER
  5
F
102
{ACAD_REACTORS
330
E
102
}
330
E
  0
SCALE
  5
48
102
{ACAD_REACTORS
330
47
102
}
330
47
100
AcDbScale
 70
     0
300
1:1
140
1.0
141
1.0
290
     1
  0
SCALE
  5
49
102
{ACAD_REACTORS
330
47
102
}
330
47
100
AcDbScale
 70
     0
300
1:2
140
1.0
141
2.0
290
     0
  0
SCALE
  5
4A
102
{ACAD_REACTORS
330
47
102
}
330
47
100
AcDbScale
 70
     0
300
1:4
140
1.0
141
4.0
290
     0
  0
SCALE
  5
4B
102
{ACAD_REACTORS
330
47
102
}
330
47
100
AcDbScale
 70
     0
300
1:5
140
1.0
141
5.0
290
     0
  0
SCALE
  5
4C
102
{ACAD_REACTORS
330
47
102
}
330
47
100
AcDbScale
 70
     0
300
1:8
140
1.0
141
8.0
290
     0
  0
SCALE
  5
4D
102
{ACAD_REACTORS
330
47
102
}
330
47
100
AcDbScale
 70
     0
300
1:10
140
1.0
141
10.0
290
     0
  0
SCALE
  5
4E
102
{ACAD_REACTORS
330
47
102
}
330
47
100
AcDbScale
 70
     0
300
1:16
140
1.0
141
16.0
290
     0
  0
SCALE
  5
4F
102
{ACAD_REACTORS
330
47
102
}
330
47
100
AcDbScale
 70
     0
300
1:20
140
1.0
141
20.0
290
     0
  0
SCALE
  5
50
102
{ACAD_REACTORS
330
47
102
}
330
47
100
AcDbScale
 70
     0
300
1:30
140
1.0
141
30.0
290
     0
  0
SCALE
  5
51
102
{ACAD_REACTORS
330
47
102
}
330
47
100
AcDbScale
 70
     0
300
1:40
140
1.0
141
40.0
290
     0
  0
SCALE
  5
52
102
{ACAD_REACTORS
330
47
102
}
330
47
100
AcDbScale
 70
     0
300
1:50
140
1.0
141
50.0
290
     0
  0
SCALE
  5
53
102
{ACAD_REACTORS
330
47
102
}
330
47
100
AcDbScale
 70
     0
300
1:100
140
1.0
141
100.0
290
     0
  0
SCALE
  5
54
102
{ACAD_REACTORS
330
47
102
}
330
47
100
AcDbScale
 70
     0
300
2:1
140
2.0
141
1.0
290
     0
  0
SCALE
  5
55
102
{ACAD_REACTORS
330
47
102
}
330
47
100
AcDbScale
 70
     0
300
4:1
140
4.0
141
1.0
290
     0
  0
SCALE
  5
56
102
{ACAD_REACTORS
330
47
102
}
330
47
100
AcDbScale
 70
     0
300
8:1
140
8.0
141
1.0
290
     0
  0
SCALE
  5
57
102
{ACAD_REACTORS
330
47
102
}
330
47
100
AcDbScale
 70
     0
300
10:1
140
10.0
141
1.0
290
     0
  0
SCALE
  5
58
102
{ACAD_REACTORS
330
47
102
}
330
47
100
AcDbScale
 70
     0
300
100:1
140
100.0
141
1.0
290
     0
  0
SCALE
  5
59
102
{ACAD_REACTORS
330
47
102
}
330
47
100
AcDbScale
 70
     0
300
1/128" = 1'-0"
140
0.0078125
141
12.0
290
     0
  0
SCALE
  5
5A
102
{ACAD_REACTORS
330
47
102
}
330
47
100
AcDbScale
 70
     0
300
1/64" = 1'-0"
140
0.015625
141
12.0
290
     0
  0
SCALE
  5
5B
102
{ACAD_REACTORS
330
47
102
}
330
47
100
AcDbScale
 70
     0
300
1/32" = 1'-0"
140
0.03125
141
12.0
290
     0
  0
SCALE
  5
5C
102
{ACAD_REACTORS
330
47
102
}
330
47
100
AcDbScale
 70
     0
300
1/16" = 1'-0"
140
0.0625
141
12.0
290
     0
  0
SCALE
  5
5D
102
{ACAD_REACTORS
330
47
102
}
330
47
100
AcDbScale
 70
     0
300
3/32" = 1'-0"
140
0.09375
141
12.0
290
     0
  0
SCALE
  5
5E
102
{ACAD_REACTORS
330
47
102
}
330
47
100
AcDbScale
 70
     0
300
1/8" = 1'-0"
140
0.125
141
12.0
290
     0
  0
SCALE
  5
5F
102
{ACAD_REACTORS
330
47
102
}
330
47
100
AcDbScale
 70
     0
300
3/16" = 1'-0"
140
0.1875
141
12.0
290
     0
  0
SCALE
  5
60
102
{ACAD_REACTORS
330
47
102
}
330
47
100
AcDbScale
 70
     0
300
1/4" = 1'-0"
140
0.25
141
12.0
290
     0
  0
SCALE
  5
61
102
{ACAD_REACTORS
330
47
102
}
330
47
100
AcDbScale
 70
     0
300
3/8" = 1'-0"
140
0.375
141
12.0
290
     0
  0
SCALE
  5
62
102
{ACAD_REACTORS
330
47
102
}
330
47
100
AcDbScale
 70
     0
300
1/2" = 1'-0"
140
0.5
141
12.0
290
     0
  0
SCALE
  5
63
102
{ACAD_REACTORS
330
47
102
}
330
47
100
AcDbScale
 70
     0
300
3/4" = 1'-0"
140
0.75
141
12.0
290
     0
  0
SCALE
  5
64
102
{ACAD_REACTORS
330
47
102
}
330
47
100
AcDbScale
 70
     0
300
1" = 1'-0"
140
1.0
141
12.0
290
     0
  0
SCALE
  5
65
102
{ACAD_REACTORS
330
47
102
}
330
47
100
AcDbScale
 70
     0
300
1-1/2" = 1'-0"
140
1.5
141
12.0
290
     0
  0
SCALE
  5
66
102
{ACAD_REACTORS
330
47
102
}
330
47
100
AcDbScale
 70
     0
300
3" = 1'-0"
140
3.0
141
12.0
290
     0
  0
SCALE
  5
67
102
{ACAD_REACTORS
330
47
102
}
330
47
100
AcDbScale
 70
     0
300
6" = 1'-0"
140
6.0
141
12.0
290
     0
  0
SCALE
  5
68
102
{ACAD_REACTORS
330
47
102
}
330
47
100
AcDbScale
 70
     0
300
1'-0" = 1'-0"
140
12.0
141
12.0
290
     0
  0
ENDSEC
  0
EOF
