  0
SECTION
  2
HEADER
  9
$ACADVER
  1
AC1015
  9
$ACADMAINTVER
 70
     6
  9
$DWGCODEPAGE
  3
ANSI_1252
  9
$INSBASE
 10
0.0
 20
0.0
 30
0.0
  9
$EXTMIN
 10
0.0
 20
0.0
 30
0.0
  9
$EXTMAX
 10
297.0
 20
210.0
 30
0.0
  9
$LIMMIN
 10
0.0
 20
0.0
  9
$LIMMAX
 10
297.0
 20
210.0
  9
$ORTHOMODE
 70
     0
  9
$REGENMODE
 70
     1
  9
$FILLMODE
 70
     1
  9
$QTEXTMODE
 70
     0
  9
$MIRRTEXT
 70
     1
  9
$LTSCALE
 40
1.0
  9
$ATTMODE
 70
     1
  9
$TEXTSIZE
 40
2.0
  9
$TRACEWID
 40
1.0
  9
$TEXTSTYLE
  7
Standard
  9
$CLAYER
  8
0
  9
$CELTYPE
  6
ByLayer
  9
$CECOLOR
 62
   256
  9
$CELTSCALE
 40
1.0
  9
$DISPSILH
 70
     0
  9
$DIMSCALE
 40
1.0
  9
$DIMASZ
 40
3.0
  9
$DIMEXO
 40
0.0
  9
$DIMDLI
 40
3.75
  9
$DIMRND
 40
0.0
  9
$DIMDLE
 40
0.0
  9
$DIMEXE
 40
1.0
  9
$DIMTP
 40
0.0
  9
$DIMTM
 40
0.0
  9
$DIMTXT
 40
2.0
  9
$DIMCEN
 40
2.5
  9
$DIMTSZ
 40
0.0
  9
$DIMTOL
 70
     0
  9
$DIMLIM
 70
     0
  9
$DIMTIH
 70
     1
  9
$DIMTOH
 70
     1
  9
$DIMSE1
 70
     0
  9
$DIMSE2
 70
     0
  9
$DIMTAD
 70
     1
  9
$DIMZIN
 70
     0
  9
$DIMBLK
  1

  9
$DIMASO
 70
     1
  9
$DIMSHO
 70
     1
  9
$DIMPOST
  1

  9
$DIMAPOST
  1

  9
$DIMALT
 70
     0
  9
$DIMALTD
 70
     3
  9
$DIMALTF
 40
0.0393700787
  9
$DIMLFAC
 40
2.0
  9
$DIMTOFL
 70
     1
  9
$DIMTVP
 40
0.0
  9
$DIMTIX
 70
     0
  9
$DIMSOXD
 70
     0
  9
$DIMSAH
 70
     0
  9
$DIMBLK1
  1

  9
$DIMBLK2
  1

  9
$DIMSTYLE
  2
ISO-25
  9
$DIMCLRD
 70
     0
  9
$DIMCLRE
 70
     0
  9
$DIMCLRT
 70
     0
  9
$DIMTFAC
 40
1.0
  9
$DIMGAP
 40
1.524
  9
$DIMJUST
 70
     0
  9
$DIMSD1
 70
     0
  9
$DIMSD2
 70
     0
  9
$DIMTOLJ
 70
     0
  9
$DIMTZIN
 70
     0
  9
$DIMALTZ
 70
     0
  9
$DIMALTTZ
 70
     0
  9
$DIMUPT
 70
     0
  9
$DIMDEC
 70
     2
  9
$DIMTDEC
 70
     3
  9
$DIMALTU
 70
     2
  9
$DIMALTTD
 70
     3
  9
$DIMTXSTY
  7
Standard
  9
$DIMAUNIT
 70
     0
  9
$DIMADEC
 70
     2
  9
$DIMALTRND
 40
0.0
  9
$DIMAZIN
 70
     0
  9
$DIMDSEP
 70
    44
  9
$DIMATFIT
 70
     3
  9
$DIMFRAC
 70
     0
  9
$DIMLDRBLK
  1

  9
$DIMLUNIT
 70
     2
  9
$DIMLWD
 70
    -2
  9
$DIMLWE
 70
    -2
  9
$DIMTMOVE
 70
     0
  9
$LUNITS
 70
     2
  9
$LUPREC
 70
     2
  9
$SKETCHINC
 40
1.0
  9
$FILLETRAD
 40
10.0
  9
$AUNITS
 70
     0
  9
$AUPREC
 70
     2
  9
$MENU
  1
.
  9
$ELEVATION
 40
0.0
  9
$PELEVATION
 40
0.0
  9
$THICKNESS
 40
0.0
  9
$LIMCHECK
 70
     0
  9
$CHAMFERA
 40
0.0
  9
$CHAMFERB
 40
0.0
  9
$CHAMFERC
 40
0.0
  9
$CHAMFERD
 40
0.0
  9
$SKPOLY
 70
     0
  9
$TDCREATE
 40
2458169.374401574
  9
$TDUCREATE
 40
2458169.332734908
  9
$TDUPDATE
 40
2458169.374403484
  9
$TDUUPDATE
 40
2458169.332736817
  9
$TDINDWG
 40
0.0000000116
  9
$TDUSRTIMER
 40
0.0000000116
  9
$USRTIMER
 70
     1
  9
$ANGBASE
 50
0.0
  9
$ANGDIR
 70
     0
  9
$PDMODE
 70
     0
  9
$PDSIZE
 40
-1.0
  9
$PLINEWID
 40
0.0
  9
$SPLFRAME
 70
     0
  9
$SPLINETYPE
 70
     6
  9
$SPLINESEGS
 70
     8
  9
$HANDSEED
  5
2A3
  9
$SURFTAB1
 70
     6
  9
$SURFTAB2
 70
     6
  9
$SURFTYPE
 70
     6
  9
$SURFU
 70
     6
  9
$SURFV
 70
     6
  9
$UCSBASE
  2

  9
$UCSNAME
  2

  9
$UCSORG
 10
0.0
 20
0.0
 30
0.0
  9
$UCSXDIR
 10
1.0
 20
0.0
 30
0.0
  9
$UCSYDIR
 10
0.0
 20
1.0
 30
0.0
  9
$UCSORTHOREF
  2

  9
$UCSORTHOVIEW
 70
     0
  9
$UCSORGTOP
 10
0.0
 20
0.0
 30
0.0
  9
$UCSORGBOTTOM
 10
0.0
 20
0.0
 30
0.0
  9
$UCSORGLEFT
 10
0.0
 20
0.0
 30
0.0
  9
$UCSORGRIGHT
 10
0.0
 20
0.0
 30
0.0
  9
$UCSORGFRONT
 10
0.0
 20
0.0
 30
0.0
  9
$UCSORGBACK
 10
0.0
 20
0.0
 30
0.0
  9
$PUCSBASE
  2

  9
$PUCSNAME
  2

  9
$PUCSORG
 10
0.0
 20
0.0
 30
0.0
  9
$PUCSXDIR
 10
1.0
 20
0.0
 30
0.0
  9
$PUCSYDIR
 10
0.0
 20
1.0
 30
0.0
  9
$PUCSORTHOREF
  2

  9
$PUCSORTHOVIEW
 70
     0
  9
$PUCSORGTOP
 10
0.0
 20
0.0
 30
0.0
  9
$PUCSORGBOTTOM
 10
0.0
 20
0.0
 30
0.0
  9
$PUCSORGLEFT
 10
0.0
 20
0.0
 30
0.0
  9
$PUCSORGRIGHT
 10
0.0
 20
0.0
 30
0.0
  9
$PUCSORGFRONT
 10
0.0
 20
0.0
 30
0.0
  9
$PUCSORGBACK
 10
0.0
 20
0.0
 30
0.0
  9
$USERI1
 70
     0
  9
$USERI2
 70
     0
  9
$USERI3
 70
     0
  9
$USERI4
 70
     0
  9
$USERI5
 70
     0
  9
$USERR1
 40
0.0
  9
$USERR2
 40
0.0
  9
$USERR3
 40
0.0
  9
$USERR4
 40
0.0
  9
$USERR5
 40
0.0
  9
$WORLDVIEW
 70
     1
  9
$SHADEDGE
 70
     3
  9
$SHADEDIF
 70
    70
  9
$TILEMODE
 70
     1
  9
$MAXACTVP
 70
    64
  9
$PINSBASE
 10
0.0
 20
0.0
 30
0.0
  9
$PLIMCHECK
 70
     0
  9
$PEXTMIN
 10
1.0000000000E+20
 20
1.0000000000E+20
 30
1.0000000000E+20
  9
$PEXTMAX
 10
-1.0000000000E+20
 20
-1.0000000000E+20
 30
-1.0000000000E+20
  9
$PLIMMIN
 10
0.0
 20
0.0
  9
$PLIMMAX
 10
420.0
 20
297.0
  9
$UNITMODE
 70
     0
  9
$VISRETAIN
 70
     1
  9
$PLINEGEN
 70
     0
  9
$PSLTSCALE
 70
     1
  9
$TREEDEPTH
 70
  3020
  9
$CMLSTYLE
  2
Standard
  9
$CMLJUST
 70
     0
  9
$CMLSCALE
 40
20.0
  9
$PROXYGRAPHICS
 70
     1
  9
$MEASUREMENT
 70
     1
  9
$CELWEIGHT
370
    -1
  9
$ENDCAPS
280
     0
  9
$JOINSTYLE
280
     0
  9
$LWDISPLAY
290
     1
  9
$INSUNITS
 70
     4
  9
$HYPERLINKBASE
  1

  9
$STYLESHEET
  1

  9
$XEDIT
290
     1
  9
$CEPSNTYPE
380
     0
  9
$PSTYLEMODE
290
     1
  9
$FINGERPRINTGUID
  2
{70EA645B-385E-4C58-8C2D-787A48317596}
  9
$VERSIONGUID
  2
{FAEB1C32-E019-11D5-929B-00C0DF256EC4}
  9
$EXTNAMES
290
     1
  9
$PSVPSCALE
 40
0.0
  9
$OLESTARTUP
290
     0
  0
ENDSEC
  0
SECTION
  2
CLASSES
  0
CLASS
  1
ACDBDICTIONARYWDFLT
  2
AcDbDictionaryWithDefault
  3
ObjectDBX Classes
 90
        0
280
     0
281
     0
  0
CLASS
  1
VISUALSTYLE
  2
AcDbVisualStyle
  3
ObjectDBX Classes
 90
     4095
280
     0
281
     0
  0
CLASS
  1
MATERIAL
  2
AcDbMaterial
  3
ObjectDBX Classes
 90
     1153
280
     0
281
     0
  0
CLASS
  1
SCALE
  2
AcDbScale
  3
ObjectDBX Classes
 90
     1153
280
     0
281
     0
  0
CLASS
  1
TABLESTYLE
  2
AcDbTableStyle
  3
ObjectDBX Classes
 90
     4095
280
     0
281
     0
  0
CLASS
  1
MLEADERSTYLE
  2
AcDbMLeaderStyle
  3
ACDB_MLEADERSTYLE_CLASS
 90
     4095
280
     0
281
     0
  0
CLASS
  1
SUN
  2
AcDbSun
  3
SCENEOE
 90
     1153
280
     0
281
     0
  0
CLASS
  1
ACDBPLACEHOLDER
  2
AcDbPlaceHolder
  3
ObjectDBX Classes
 90
        0
280
     0
281
     0
  0
CLASS
  1
LAYOUT
  2
AcDbLayout
  3
ObjectDBX Classes
 90
        0
280
     0
281
     0
  0
ENDSEC
  0
SECTION
  2
TABLES
  0
TABLE
  2
VPORT
  5
8
330
0
100
AcDbSymbolTable
 70
     1
  0
VPORT
  5
29
330
8
100
AcDbSymbolTableRecord
100
AcDbViewportTableRecord
  2
*Active
 70
     0
 10
0.0
 20
0.0
 11
1.0
 21
1.0
 12
148.5
 22
105.0
 13
0.0
 23
0.0
 14
10.0
 24
10.0
 15
10.0
 25
10.0
 16
0.0
 26
0.0
 36
1.0
 17
0.0
 27
0.0
 37
0.0
 40
210.0
 41
1.4142857143
 42
50.0
 43
0.0
 44
0.0
 50
0.0
 51
0.0
 71
     0
 72
  2000
 73
     1
 74
     3
 75
     0
 76
     0
 77
     0
 78
     0
281
     0
 65
     1
110
0.0
120
0.0
130
0.0
111
1.0
121
0.0
131
0.0
112
0.0
122
1.0
132
0.0
 79
     0
146
0.0
  0
ENDTAB
  0
TABLE
  2
LTYPE
  5
5
330
0
100
AcDbSymbolTable
 70
     6
  0
LTYPE
  5
14
330
5
100
AcDbSymbolTableRecord
100
AcDbLinetypeTableRecord
  2
ByBlock
 70
     0
  3

 72
    65
 73
     0
 40
0.0
  0
LTYPE
  5
15
330
5
100
AcDbSymbolTableRecord
100
AcDbLinetypeTableRecord
  2
ByLayer
 70
     0
  3

 72
    65
 73
     0
 40
0.0
  0
LTYPE
  5
16
330
5
100
AcDbSymbolTableRecord
100
AcDbLinetypeTableRecord
  2
Continuous
 70
     0
  3
Solid line
 72
    65
 73
     0
 40
0.0
  0
LTYPE
  5
6E
330
5
100
AcDbSymbolTableRecord
100
AcDbLinetypeTableRecord
  2
HIDDEN
 70
     0
  3
Hidden __ __ __ __ __ __ __ __ __ __ __ __ __ __
 72
    65
 73
     2
 40
1.905
 49
1.27
 74
     0
 49
-0.635
 74
     0
  0
LTYPE
  5
6F
330
5
100
AcDbSymbolTableRecord
100
AcDbLinetypeTableRecord
  2
PHANTOM
 70
     0
  3
Phantom ______  __  __  ______  __  __  ______
 72
    65
 73
     6
 40
12.7
 49
6.35
 74
     0
 49
-1.27
 74
     0
 49
1.27
 74
     0
 49
-1.27
 74
     0
 49
1.27
 74
     0
 49
-1.27
 74
     0
  0
LTYPE
  5
70
330
5
100
AcDbSymbolTableRecord
100
AcDbLinetypeTableRecord
  2
CENTER
 70
     0
  3
Center ____ _ ____ _ ____ _ ____ _ ____ _ ____
 72
    65
 73
     4
 40
10.16
 49
6.35
 74
     0
 49
-1.27
 74
     0
 49
1.27
 74
     0
 49
-1.27
 74
     0
  0
LTYPE
  5
71
330
5
100
AcDbSymbolTableRecord
100
AcDbLinetypeTableRecord
  2
CENTERX2
 70
     0
  3
Center (2x) ________  __  ________  __  _____
 72
    65
 73
     4
 40
20.32
 49
12.7
 74
     0
 49
-2.54
 74
     0
 49
2.54
 74
     0
 49
-2.54
 74
     0
  0
LTYPE
  5
72
330
5
100
AcDbSymbolTableRecord
100
AcDbLinetypeTableRecord
  2
DOT2
 70
     0
  3
Dot (.5x) ........................................
 72
    65
 73
     2
 40
0.635
 49
0.0
 74
     0
 49
-0.635
 74
     0
  0
ENDTAB
  0
TABLE
  2
LAYER
  5
2
330
0
100
AcDbSymbolTable
 70
     5
  0
LAYER
  5
10
330
2
100
AcDbSymbolTableRecord
100
AcDbLayerTableRecord
  2
0
 70
     0
 62
     7
  6
Continuous
370
    -3
390
F
  0
LAYER
  5
73
330
2
100
AcDbSymbolTableRecord
100
AcDbLayerTableRecord
  2
FORMAT
 70
     0
 62
     7
  6
Continuous
370
    -3
390
F
  0
LAYER
  5
74
330
2
100
AcDbSymbolTableRecord
100
AcDbLayerTableRecord
  2
VERMASSUNG
 70
     0
 62
     7
  6
Continuous
370
    -3
390
F
  0
LAYER
  5
75
330
2
100
AcDbSymbolTableRecord
100
AcDbLayerTableRecord
  2
KOPF_DÜNN
 70
     0
 62
     7
  6
Continuous
370
    -3
390
F
  0
LAYER
  5
76
330
2
100
AcDbSymbolTableRecord
100
AcDbLayerTableRecord
  2
KOPF_DICK
 70
     0
 62
     7
  6
Continuous
370
    25
390
F
  0
ENDTAB
  0
TABLE
  2
STYLE
  5
3
330
0
100
AcDbSymbolTable
 70
     3
  0
STYLE
  5
11
330
3
100
AcDbSymbolTableRecord
100
AcDbTextStyleTableRecord
  2
Standard
 70
     0
 40
0.0
 41
1.0
 50
0.0
 71
     0
 42
2.0
  3
txt
  4

  0
STYLE
  5
77
330
3
100
AcDbSymbolTableRecord
100
AcDbTextStyleTableRecord
  2
SLDTEXTSTYLE0
 70
     0
 40
0.0
 41
0.7
 50
0.0
 71
     0
 42
2.0
  3
TXT
  4

  0
STYLE
  5
7B
330
3
100
AcDbSymbolTableRecord
100
AcDbTextStyleTableRecord
  2
SLDTEXTSTYLE1
 70
     0
 40
0.0
 41
0.6428571429
 50
0.0
 71
     0
 42
2.0
  3
TXT
  4

  0
ENDTAB
  0
TABLE
  2
VIEW
  5
6
330
0
100
AcDbSymbolTable
 70
     0
  0
ENDTAB
  0
TABLE
  2
UCS
  5
7
330
0
100
AcDbSymbolTable
 70
     0
  0
ENDTAB
  0
TABLE
  2
APPID
  5
9
330
0
100
AcDbSymbolTable
 70
     1
  0
APPID
  5
12
330
9
100
AcDbSymbolTableRecord
100
AcDbRegAppTableRecord
  2
ACAD
 70
     0
  0
ENDTAB
  0
TABLE
  2
DIMSTYLE
  5
A
330
0
100
AcDbSymbolTable
 70
     3
100
AcDbDimStyleTable
  0
DIMSTYLE
105
27
330
A
100
AcDbSymbolTableRecord
100
AcDbDimStyleTableRecord
  2
ISO-25
 70
     0
 41
2.5
 42
0.625
 43
3.75
 44
1.25
 73
     0
 74
     0
 77
     1
 78
     8
140
2.5
141
2.5
143
0.0393700787
147
0.625
171
     3
172
     1
178
     0
271
     2
272
     2
274
     3
278
    44
283
     0
284
     8
340
11
  0
DIMSTYLE
105
12F
102
{ACAD_REACTORS
330
12E
330
13A
330
145
330
15F
330
169
330
173
330
17D
102
}
330
A
100
AcDbSymbolTableRecord
100
AcDbDimStyleTableRecord
  2
SLDDIMSTYLE0
 70
     0
 41
3.0
 44
0.0
 45
0.000000001
 73
     0
 74
     0
 77
     1
 78
    12
 79
     3
140
2.0
147
0.5
173
     1
178
     0
271
     2
272
     3
276
     2
284
    12
340
77
  0
DIMSTYLE
105
152
102
{ACAD_REACTORS
330
151
102
}
330
A
100
AcDbSymbolTableRecord
100
AcDbDimStyleTableRecord
  2
SLDDIMSTYLE1
 70
     0
 41
3.0
 44
0.0
 45
0.000000001
 73
     0
 74
     0
 77
     1
 78
    12
 79
     3
140
2.0
147
0.5
172
     1
173
     1
178
     0
271
     0
272
     3
276
     2
284
    12
289
     0
340
77
  0
ENDTAB
  0
TABLE
  2
BLOCK_RECORD
  5
1
330
0
100
AcDbSymbolTable
 70
     9
  0
BLOCK_RECORD
  5
1F
330
1
100
AcDbSymbolTableRecord
100
AcDbBlockTableRecord
  2
*Model_Space
340
22
  0
BLOCK_RECORD
  5
1B
330
1
100
AcDbSymbolTableRecord
100
AcDbBlockTableRecord
  2
*Paper_Space
340
1E
  0
BLOCK_RECORD
  5
23
330
1
100
AcDbSymbolTableRecord
100
AcDbBlockTableRecord
  2
*Paper_Space0
340
26
  0
BLOCK_RECORD
  5
130
330
1
100
AcDbSymbolTableRecord
100
AcDbBlockTableRecord
  2
_D
340
0
  0
BLOCK_RECORD
  5
13B
330
1
100
AcDbSymbolTableRecord
100
AcDbBlockTableRecord
  2
_D_1
340
0
  0
BLOCK_RECORD
  5
146
330
1
100
AcDbSymbolTableRecord
100
AcDbBlockTableRecord
  2
_D_2
340
0
  0
BLOCK_RECORD
  5
153
330
1
100
AcDbSymbolTableRecord
100
AcDbBlockTableRecord
  2
_D_3
340
0
  0
BLOCK_RECORD
  5
160
330
1
100
AcDbSymbolTableRecord
100
AcDbBlockTableRecord
  2
_D_4
340
0
  0
BLOCK_RECORD
  5
16A
330
1
100
AcDbSymbolTableRecord
100
AcDbBlockTableRecord
  2
_D_5
340
0
  0
BLOCK_RECORD
  5
174
330
1
100
AcDbSymbolTableRecord
100
AcDbBlockTableRecord
  2
_D_6
340
0
  0
BLOCK_RECORD
  5
17E
330
1
100
AcDbSymbolTableRecord
100
AcDbBlockTableRecord
  2
_D_7
340
0
  0
ENDTAB
  0
ENDSEC
  0
SECTION
  2
BLOCKS
  0
BLOCK
  5
20
330
1F
100
AcDbEntity
  8
0
100
AcDbBlockBegin
  2
*Model_Space
 70
     0
 10
0.0
 20
0.0
 30
0.0
  3
*Model_Space
  1

  0
ENDBLK
  5
21
330
1F
100
AcDbEntity
  8
0
100
AcDbBlockEnd
  0
BLOCK
  5
1C
330
1B
100
AcDbEntity
 67
     1
  8
0
100
AcDbBlockBegin
  2
*Paper_Space
 70
     0
 10
0.0
 20
0.0
 30
0.0
  3
*Paper_Space
  1

  0
ENDBLK
  5
1D
330
1B
100
AcDbEntity
 67
     1
  8
0
100
AcDbBlockEnd
  0
BLOCK
  5
24
330
23
100
AcDbEntity
  8
0
100
AcDbBlockBegin
  2
*Paper_Space0
 70
     0
 10
0.0
 20
0.0
 30
0.0
  3
*Paper_Space0
  1

  0
ENDBLK
  5
25
330
23
100
AcDbEntity
  8
0
100
AcDbBlockEnd
  0
BLOCK
  5
131
330
130
100
AcDbEntity
  8
0
100
AcDbBlockBegin
  2
_D
 70
     0
 10
0.0
 20
0.0
 30
0.0
  3
_D
  1

  0
SOLID
  5
133
330
130
100
AcDbEntity
  8
VERMASSUNG
100
AcDbTrace
 10
252.4695990317
 20
108.7034627854
 30
0.0
 11
252.9195990317
 21
111.7034627854
 31
0.0
 12
252.0195990317
 22
111.7034627854
 32
0.0
 13
252.0195990317
 23
111.7034627854
 33
0.0
  0
SOLID
  5
134
330
130
100
AcDbEntity
  8
VERMASSUNG
100
AcDbTrace
 10
252.4695990317
 20
124.7034627854
 30
0.0
 11
252.0195990317
 21
121.7034627854
 31
0.0
 12
252.9195990317
 22
121.7034627854
 32
0.0
 13
252.9195990317
 23
121.7034627854
 33
0.0
  0
LINE
  5
135
330
130
100
AcDbEntity
  8
VERMASSUNG
100
AcDbLine
 10
216.6695990317
 20
108.7034627854
 30
0.0
 11
253.4695990317
 21
108.7034627854
 31
0.0
  0
LINE
  5
136
330
130
100
AcDbEntity
  8
VERMASSUNG
100
AcDbLine
 10
216.6695990317
 20
124.7034627854
 30
0.0
 11
253.4695990317
 21
124.7034627854
 31
0.0
  0
LINE
  5
137
330
130
100
AcDbEntity
  8
VERMASSUNG
100
AcDbLine
 10
252.4695990317
 20
108.7034627854
 30
0.0
 11
252.4695990317
 21
124.7034627854
 31
0.0
  0
MTEXT
  5
138
330
130
100
AcDbEntity
  8
VERMASSUNG
100
AcDbMText
 10
249.8914637268
 20
113.6984627213
 30
0.0
 40
2.0
 41
0.0
 71
     1
 72
     1
  1
%%c
  7
SLDTEXTSTYLE0
 11
6.123233995736766E-17
 21
1.0
 31
0.0
 73
     1
 44
1.0
  0
MTEXT
  5
139
330
130
100
AcDbEntity
  8
VERMASSUNG
100
AcDbMText
 10
249.6914637755
 20
117.3084627356
 30
0.0
 40
2.0
 41
0.0
 71
     1
 72
     1
  1
16
  7
SLDTEXTSTYLE0
 11
6.123233995736766E-17
 21
1.0
 31
0.0
 73
     1
 44
1.0
  0
ENDBLK
  5
132
330
130
100
AcDbEntity
  8
0
100
AcDbBlockEnd
  0
BLOCK
  5
13C
330
13B
100
AcDbEntity
  8
0
100
AcDbBlockBegin
  2
_D_1
 70
     0
 10
0.0
 20
0.0
 30
0.0
  3
_D_1
  1

  0
SOLID
  5
13E
330
13B
100
AcDbEntity
  8
VERMASSUNG
100
AcDbTrace
 10
262.2507998713
 20
135.7034627854
 30
0.0
 11
261.8007998713
 21
132.7034627854
 31
0.0
 12
262.7007998713
 22
132.7034627854
 32
0.0
 13
262.7007998713
 23
132.7034627854
 33
0.0
  0
SOLID
  5
13F
330
13B
100
AcDbEntity
  8
VERMASSUNG
100
AcDbTrace
 10
262.2507998713
 20
97.7034627854
 30
0.0
 11
262.7007998713
 21
100.7034627854
 31
0.0
 12
261.8007998713
 22
100.7034627854
 32
0.0
 13
261.8007998713
 23
100.7034627854
 33
0.0
  0
LINE
  5
140
330
13B
100
AcDbEntity
  8
VERMASSUNG
100
AcDbLine
 10
199.6695990317
 20
135.7034627854
 30
0.0
 11
263.2507998713
 21
135.7034627854
 31
0.0
  0
LINE
  5
141
330
13B
100
AcDbEntity
  8
VERMASSUNG
100
AcDbLine
 10
199.6695990317
 20
97.7034627854
 30
0.0
 11
263.2507998713
 21
97.7034627854
 31
0.0
  0
LINE
  5
142
330
13B
100
AcDbEntity
  8
VERMASSUNG
100
AcDbLine
 10
262.2507998713
 20
135.7034627854
 30
0.0
 11
262.2507998713
 21
97.7034627854
 31
0.0
  0
MTEXT
  5
143
330
13B
100
AcDbEntity
  8
VERMASSUNG
100
AcDbMText
 10
259.6726645664
 20
113.4984628282
 30
0.0
 40
2.0
 41
0.0
 71
     1
 72
     1
  1
%%c
  7
SLDTEXTSTYLE0
 11
-7.044195017643634E-15
 21
1.0
 31
0.0
 73
     1
 44
1.0
  0
MTEXT
  5
144
330
13B
100
AcDbEntity
  8
VERMASSUNG
100
AcDbMText
 10
259.4726646151
 20
117.1084628425
 30
0.0
 40
2.0
 41
0.0
 71
     1
 72
     1
  1
38
  7
SLDTEXTSTYLE0
 11
-7.044195017643634E-15
 21
1.0
 31
0.0
 73
     1
 44
1.0
  0
ENDBLK
  5
13D
330
13B
100
AcDbEntity
  8
0
100
AcDbBlockEnd
  0
BLOCK
  5
147
330
146
100
AcDbEntity
  8
0
100
AcDbBlockBegin
  2
_D_2
 70
     0
 10
0.0
 20
0.0
 30
0.0
  3
_D_2
  1

  0
SOLID
  5
149
330
146
100
AcDbEntity
  8
VERMASSUNG
100
AcDbTrace
 10
38.293416524
 20
66.7034627854
 30
0.0
 11
38.743416524
 21
69.7034627854
 31
0.0
 12
37.843416524
 22
69.7034627854
 32
0.0
 13
37.843416524
 23
69.7034627854
 33
0.0
  0
SOLID
  5
14A
330
146
100
AcDbEntity
  8
VERMASSUNG
100
AcDbTrace
 10
38.293416524
 20
166.7034627854
 30
0.0
 11
37.843416524
 21
163.7034627854
 31
0.0
 12
38.743416524
 22
163.7034627854
 32
0.0
 13
38.743416524
 23
163.7034627854
 33
0.0
  0
LINE
  5
14B
330
146
100
AcDbEntity
  8
VERMASSUNG
100
AcDbLine
 10
100.9695990317
 20
66.7034627854
 30
0.0
 11
37.293416524
 21
66.7034627854
 31
0.0
  0
LINE
  5
14C
330
146
100
AcDbEntity
  8
VERMASSUNG
100
AcDbLine
 10
100.9695990317
 20
166.7034627854
 30
0.0
 11
37.293416524
 21
166.7034627854
 31
0.0
  0
LINE
  5
14D
330
146
100
AcDbEntity
  8
VERMASSUNG
100
AcDbLine
 10
38.293416524
 20
66.7034627854
 30
0.0
 11
38.293416524
 21
166.7034627854
 31
0.0
  0
MTEXT
  5
14E
330
146
100
AcDbEntity
  8
VERMASSUNG
100
AcDbMText
 10
35.5152812678
 20
108.4984634056
 30
0.0
 40
2.0
 41
0.0
 71
     1
 72
     1
  1
HSK A
  7
SLDTEXTSTYLE0
 11
6.123233995736766E-17
 21
1.0
 31
0.0
 73
     1
 44
1.0
  0
MTEXT
  5
14F
330
146
100
AcDbEntity
  8
VERMASSUNG
100
AcDbMText
 10
35.7152812191
 20
117.4984630182
 30
0.0
 40
2.0
 41
0.0
 71
     1
 72
     1
  1
%%c
  7
SLDTEXTSTYLE0
 11
6.123233995736766E-17
 21
1.0
 31
0.0
 73
     1
 44
1.0
  0
MTEXT
  5
150
330
146
100
AcDbEntity
  8
VERMASSUNG
100
AcDbMText
 10
35.5152812678
 20
121.1084630325
 30
0.0
 40
2.0
 41
0.0
 71
     1
 72
     1
  1
100
  7
SLDTEXTSTYLE0
 11
6.123233995736766E-17
 21
1.0
 31
0.0
 73
     1
 44
1.0
  0
ENDBLK
  5
148
330
146
100
AcDbEntity
  8
0
100
AcDbBlockEnd
  0
BLOCK
  5
154
330
153
100
AcDbEntity
  8
0
100
AcDbBlockBegin
  2
_D_3
 70
     0
 10
0.0
 20
0.0
 30
0.0
  3
_D_3
  1

  0
SOLID
  5
156
330
153
100
AcDbEntity
  8
VERMASSUNG
100
AcDbTrace
 10
242.6254177464
 20
119.7509627854
 30
0.0
 11
243.0754177464
 21
122.7509627854
 31
0.0
 12
242.1754177464
 22
122.7509627854
 32
0.0
 13
242.1754177464
 23
122.7509627854
 33
0.0
  0
SOLID
  5
157
330
153
100
AcDbEntity
  8
VERMASSUNG
100
AcDbTrace
 10
242.6254177464
 20
113.6559627854
 30
0.0
 11
242.1754177464
 21
110.6559627854
 31
0.0
 12
243.0754177464
 22
110.6559627854
 32
0.0
 13
243.0754177464
 23
110.6559627854
 33
0.0
  0
LINE
  5
158
330
153
100
AcDbEntity
  8
VERMASSUNG
100
AcDbLine
 10
230.4695990317
 20
119.7509627854
 30
0.0
 11
243.6254177464
 21
119.7509627854
 31
0.0
  0
LINE
  5
159
330
153
100
AcDbEntity
  8
VERMASSUNG
100
AcDbLine
 10
230.4695990317
 20
113.6559627854
 30
0.0
 11
243.6254177464
 21
113.6559627854
 31
0.0
  0
LINE
  5
15A
330
153
100
AcDbEntity
  8
VERMASSUNG
100
AcDbLine
 10
242.6254177464
 20
119.7509627854
 30
0.0
 11
242.6254177464
 21
125.7509627854
 31
0.0
  0
LINE
  5
15B
330
153
100
AcDbEntity
  8
VERMASSUNG
100
AcDbLine
 10
242.6254177464
 20
119.7509627854
 30
0.0
 11
242.6254177464
 21
113.6559627854
 31
0.0
  0
LINE
  5
15C
330
153
100
AcDbEntity
  8
VERMASSUNG
100
AcDbLine
 10
242.6254177464
 20
113.6559627854
 30
0.0
 11
242.6254177464
 21
107.6559627854
 31
0.0
  0
MTEXT
  5
15D
330
153
100
AcDbEntity
  8
VERMASSUNG
100
AcDbMText
 10
240.0472821504
 20
114.1034627783
 30
0.0
 40
2.0
 41
0.0
 71
     1
 72
     1
  1
SW
  7
SLDTEXTSTYLE0
 11
-7.044195017643634E-15
 21
1.0
 31
0.0
 73
     1
 44
1.0
  0
MTEXT
  5
15E
330
153
100
AcDbEntity
  8
VERMASSUNG
100
AcDbMText
 10
240.0472821504
 20
117.9034628424
 30
0.0
 40
2.0
 41
0.0
 71
     1
 72
     1
  1
6
  7
SLDTEXTSTYLE0
 11
-7.044195017643634E-15
 21
1.0
 31
0.0
 73
     1
 44
1.0
  0
ENDBLK
  5
155
330
153
100
AcDbEntity
  8
0
100
AcDbBlockEnd
  0
BLOCK
  5
161
330
160
100
AcDbEntity
  8
0
100
AcDbBlockBegin
  2
_D_4
 70
     0
 10
0.0
 20
0.0
 30
0.0
  3
_D_4
  1

  0
SOLID
  5
163
330
160
100
AcDbEntity
  8
VERMASSUNG
100
AcDbTrace
 10
200.4695990317
 20
173.5099251506
 30
0.0
 11
203.4695990317
 21
173.0599251506
 31
0.0
 12
203.4695990317
 22
173.9599251506
 32
0.0
 13
203.4695990317
 23
173.9599251506
 33
0.0
  0
SOLID
  5
164
330
160
100
AcDbEntity
  8
VERMASSUNG
100
AcDbTrace
 10
217.4695990317
 20
173.5099251506
 30
0.0
 11
214.4695990317
 21
173.9599251506
 31
0.0
 12
214.4695990317
 22
173.0599251506
 32
0.0
 13
214.4695990317
 23
173.0599251506
 33
0.0
  0
LINE
  5
165
330
160
100
AcDbEntity
  8
VERMASSUNG
100
AcDbLine
 10
200.4695990317
 20
134.9034627854
 30
0.0
 11
200.4695990317
 21
174.5099251506
 31
0.0
  0
LINE
  5
166
330
160
100
AcDbEntity
  8
VERMASSUNG
100
AcDbLine
 10
217.4695990317
 20
121.7534627854
 30
0.0
 11
217.4695990317
 21
174.5099251506
 31
0.0
  0
LINE
  5
167
330
160
100
AcDbEntity
  8
VERMASSUNG
100
AcDbLine
 10
200.4695990317
 20
173.5099251506
 30
0.0
 11
217.4695990317
 21
173.5099251506
 31
0.0
  0
MTEXT
  5
168
330
160
100
AcDbEntity
  8
VERMASSUNG
100
AcDbMText
 10
207.7695989747
 20
176.0880607465
 30
0.0
 40
2.0
 41
0.0
 71
     1
 72
     1
  1
17
  7
SLDTEXTSTYLE0
 73
     1
 44
1.0
  0
ENDBLK
  5
162
330
160
100
AcDbEntity
  8
0
100
AcDbBlockEnd
  0
BLOCK
  5
16B
330
16A
100
AcDbEntity
  8
0
100
AcDbBlockBegin
  2
_D_5
 70
     0
 10
0.0
 20
0.0
 30
0.0
  3
_D_5
  1

  0
SOLID
  5
16D
330
16A
100
AcDbEntity
  8
VERMASSUNG
100
AcDbTrace
 10
129.4195990317
 20
173.5099251506
 30
0.0
 11
132.4195990317
 21
173.0599251506
 31
0.0
 12
132.4195990317
 22
173.9599251506
 32
0.0
 13
132.4195990317
 23
173.9599251506
 33
0.0
  0
SOLID
  5
16E
330
16A
100
AcDbEntity
  8
VERMASSUNG
100
AcDbTrace
 10
200.4695990317
 20
173.5099251506
 30
0.0
 11
197.4695990317
 21
173.9599251506
 31
0.0
 12
197.4695990317
 22
173.0599251506
 32
0.0
 13
197.4695990317
 23
173.0599251506
 33
0.0
  0
LINE
  5
16F
330
16A
100
AcDbEntity
  8
VERMASSUNG
100
AcDbLine
 10
129.4195990317
 20
154.36216032
 30
0.0
 11
129.4195990317
 21
174.5099251506
 31
0.0
  0
LINE
  5
170
330
16A
100
AcDbEntity
  8
VERMASSUNG
100
AcDbLine
 10
200.4695990317
 20
134.9034627854
 30
0.0
 11
200.4695990317
 21
174.5099251506
 31
0.0
  0
LINE
  5
171
330
16A
100
AcDbEntity
  8
VERMASSUNG
100
AcDbLine
 10
129.4195990317
 20
173.5099251506
 30
0.0
 11
200.4695990317
 21
173.5099251506
 31
0.0
  0
MTEXT
  5
172
330
16A
100
AcDbEntity
  8
VERMASSUNG
100
AcDbMText
 10
162.0445990686
 20
176.0880607465
 30
0.0
 40
2.0
 41
0.0
 71
     1
 72
     1
  1
71.05
  7
SLDTEXTSTYLE0
 73
     1
 44
1.0
  0
ENDBLK
  5
16C
330
16A
100
AcDbEntity
  8
0
100
AcDbBlockEnd
  0
BLOCK
  5
175
330
174
100
AcDbEntity
  8
0
100
AcDbBlockBegin
  2
_D_6
 70
     0
 10
0.0
 20
0.0
 30
0.0
  3
_D_6
  1

  0
SOLID
  5
177
330
174
100
AcDbEntity
  8
VERMASSUNG
100
AcDbTrace
 10
200.4695990317
 20
182.7034627854
 30
0.0
 11
197.4695990317
 21
183.1534627854
 31
0.0
 12
197.4695990317
 22
182.2534627854
 32
0.0
 13
197.4695990317
 23
182.2534627854
 33
0.0
  0
SOLID
  5
178
330
174
100
AcDbEntity
  8
VERMASSUNG
100
AcDbTrace
 10
100.4695990317
 20
182.7034627854
 30
0.0
 11
103.4695990317
 21
182.2534627854
 31
0.0
 12
103.4695990317
 22
183.1534627854
 32
0.0
 13
103.4695990317
 23
183.1534627854
 33
0.0
  0
LINE
  5
179
330
174
100
AcDbEntity
  8
VERMASSUNG
100
AcDbLine
 10
200.4695990317
 20
134.9034627854
 30
0.0
 11
200.4695990317
 21
183.7034627854
 31
0.0
  0
LINE
  5
17A
330
174
100
AcDbEntity
  8
VERMASSUNG
100
AcDbLine
 10
100.4695990317
 20
166.2034627854
 30
0.0
 11
100.4695990317
 21
183.7034627854
 31
0.0
  0
LINE
  5
17B
330
174
100
AcDbEntity
  8
VERMASSUNG
100
AcDbLine
 10
200.4695990317
 20
182.7034627854
 30
0.0
 11
100.4695990317
 21
182.7034627854
 31
0.0
  0
MTEXT
  5
17C
330
174
100
AcDbEntity
  8
VERMASSUNG
100
AcDbMText
 10
148.5695989997
 20
185.2815983814
 30
0.0
 40
2.0
 41
0.0
 71
     1
 72
     1
  1
100
  7
SLDTEXTSTYLE0
 73
     1
 44
1.0
  0
ENDBLK
  5
176
330
174
100
AcDbEntity
  8
0
100
AcDbBlockEnd
  0
BLOCK
  5
17F
330
17E
100
AcDbEntity
  8
0
100
AcDbBlockBegin
  2
_D_7
 70
     0
 10
0.0
 20
0.0
 30
0.0
  3
_D_7
  1

  0
ARC
  5
181
330
17E
100
AcDbEntity
  8
VERMASSUNG
100
AcDbCircle
 10
134.9195991618
 20
193.9943560411
 30
0.0
 40
4.248529228887646
100
AcDbArc
 50
153.4349488229
 51
206.5650511771
  0
ARC
  5
182
330
17E
100
AcDbEntity
  8
VERMASSUNG
100
AcDbCircle
 10
133.1195989599
 20
193.9943560411
 30
0.0
 40
4.24852922888762
100
AcDbArc
 50
333.4349488229
 51
26.5650511771
  0
SOLID
  5
183
330
17E
100
AcDbEntity
  8
VERMASSUNG
100
AcDbTrace
 10
217.4695990317
 20
192.0943557762
 30
0.0
 11
214.4695990317
 21
192.5443557762
 31
0.0
 12
214.4695990317
 22
191.6443557762
 32
0.0
 13
214.4695990317
 23
191.6443557762
 33
0.0
  0
SOLID
  5
184
330
17E
100
AcDbEntity
  8
VERMASSUNG
100
AcDbTrace
 10
50.5695990317
 20
192.0943557762
 30
0.0
 11
53.5695990317
 21
191.6443557762
 31
0.0
 12
53.5695990317
 22
192.5443557762
 32
0.0
 13
53.5695990317
 23
192.5443557762
 33
0.0
  0
LINE
  5
185
330
17E
100
AcDbEntity
  8
VERMASSUNG
100
AcDbLine
 10
217.4695990317
 20
123.9034627854
 30
0.0
 11
217.4695990317
 21
193.0943557762
 31
0.0
  0
LINE
  5
186
330
17E
100
AcDbEntity
  8
VERMASSUNG
100
AcDbLine
 10
50.5695990317
 20
147.206132528
 30
0.0
 11
50.5695990317
 21
193.0943557762
 31
0.0
  0
LINE
  5
187
330
17E
100
AcDbEntity
  8
VERMASSUNG
100
AcDbLine
 10
217.4695990317
 20
192.0943557762
 30
0.0
 11
50.5695990317
 21
192.0943557762
 31
0.0
  0
MTEXT
  5
188
330
17E
100
AcDbEntity
  8
VERMASSUNG
100
AcDbMText
 10
131.1195990977
 20
194.672491605
 30
0.0
 40
2.0
 41
0.0
 71
     1
 72
     1
  1
166.9
  7
SLDTEXTSTYLE0
 73
     1
 44
1.0
  0
ENDBLK
  5
180
330
17E
100
AcDbEntity
  8
0
100
AcDbBlockEnd
  0
ENDSEC
  0
SECTION
  2
ENTITIES
  0
MTEXT
  5
78
330
1F
100
AcDbEntity
  8
KOPF_DÜNN
100
AcDbMText
 10
13.8892156294
 20
23.8442973028
 30
0.0
 40
3.0
 41
0.0
 71
     1
 72
     1
  1
HA0.D16.K01.100
  7
SLDTEXTSTYLE0
 73
     1
 44
1.0
  0
MTEXT
  5
79
330
1F
100
AcDbEntity
  8
VERMASSUNG
100
AcDbMText
 10
13.9329988022
 20
28.8834360957
 30
0.0
 40
3.0
 41
0.0
 71
     1
 72
     1
  1
Fräsdorn Typ S_Milling arbor type S
  7
SLDTEXTSTYLE0
 73
     1
 44
1.0
  0
MTEXT
  5
7A
330
1F
100
AcDbEntity
  8
VERMASSUNG
100
AcDbMText
 10
98.8601118557
 20
13.8365368761
 30
0.0
 40
2.0
 41
0.0
 71
     1
 72
     1
  1
Datum: 19.02.2018
  7
SLDTEXTSTYLE0
 73
     1
 44
1.0
  0
MTEXT
  5
7C
330
1F
100
AcDbEntity
  8
VERMASSUNG
100
AcDbMText
 10
13.933048693
 20
18.0482802738
 30
0.0
 40
2.0
 41
0.0
 71
     1
 72
     1
  1
HSK A 63 / Ø16
  7
SLDTEXTSTYLE1
 73
     1
 44
1.0
  0
MTEXT
  5
7D
330
1F
100
AcDbEntity
  8
VERMASSUNG
100
AcDbMText
 10
13.9808475933
 20
13.9090974274
 30
0.0
 40
2.0
 41
0.0
 71
     1
 72
     1
  1
Gewicht: 2649g
  7
SLDTEXTSTYLE0
 73
     1
 44
1.0
  0
ARC
  5
7E
330
1F
100
AcDbEntity
  8
0
  6
Continuous
 62
     7
370
    25
100
AcDbCircle
 10
204.9695990317
 20
127.2034627854
 30
0.0
 40
0.5
100
AcDbArc
 50
270.0
 51
0.0
  0
ARC
  5
7F
330
1F
100
AcDbEntity
  8
0
  6
Continuous
 62
     7
370
    25
100
AcDbCircle
 10
204.9695990317
 20
134.2034627854
 30
0.0
 40
0.5
100
AcDbArc
 50
0.0
 51
90.0
  0
LINE
  5
80
330
1F
100
AcDbEntity
  8
0
  6
Continuous
 62
     7
370
    25
100
AcDbLine
 10
200.4696005218
 20
126.7034625619
 30
0.0
 11
204.9696021908
 21
126.7034625619
 31
0.0
  0
LINE
  5
81
330
1F
100
AcDbEntity
  8
0
  6
Continuous
 62
     7
370
    25
100
AcDbLine
 10
204.9696021908
 20
134.7034620105
 30
0.0
 11
200.4696005218
 21
134.7034620105
 31
0.0
  0
ARC
  5
82
330
1F
100
AcDbEntity
  8
0
  6
Continuous
 62
     7
370
    25
100
AcDbCircle
 10
204.9695990317
 20
99.2034627854
 30
0.0
 40
0.5
100
AcDbArc
 50
270.0
 51
0.0
  0
ARC
  5
83
330
1F
100
AcDbEntity
  8
0
  6
Continuous
 62
     7
370
    25
100
AcDbCircle
 10
204.9695990317
 20
106.2034627854
 30
0.0
 40
0.5
100
AcDbArc
 50
0.0
 51
90.0
  0
LINE
  5
84
330
1F
100
AcDbEntity
  8
0
  6
Continuous
 62
     7
370
    25
100
AcDbLine
 10
200.4696005218
 20
98.7034635603
 30
0.0
 11
204.9696021908
 21
98.7034635603
 31
0.0
  0
LINE
  5
85
330
1F
100
AcDbEntity
  8
0
  6
Continuous
 62
     7
370
    25
100
AcDbLine
 10
204.9696021908
 20
106.7034630089
 30
0.0
 11
200.4696005218
 21
106.7034630089
 31
0.0
  0
LINE
  5
86
330
1F
100
AcDbEntity
  8
0
  6
Continuous
 62
     7
370
    25
100
AcDbLine
 10
230.0696023934
 20
123.2034629195
 30
0.0
 11
222.4696004026
 21
123.2034629195
 31
0.0
  0
LINE
  5
87
330
1F
100
AcDbEntity
  8
0
  6
Continuous
 62
     7
370
    25
100
AcDbLine
 10
222.4696004026
 20
110.2034626513
 30
0.0
 11
230.0696023934
 21
110.2034626513
 31
0.0
  0
ARC
  5
88
330
1F
100
AcDbEntity
  8
0
  6
Continuous
 62
     7
370
    25
100
AcDbCircle
 10
230.0695990317
 20
122.8034627854
 30
0.0
 40
0.4000000000000057
100
AcDbArc
 50
360.0
 51
90.0
  0
ARC
  5
89
330
1F
100
AcDbEntity
  8
0
  6
Continuous
 62
     7
370
    25
100
AcDbCircle
 10
230.0695990317
 20
110.6034627854
 30
0.0
 40
0.4000000000000057
100
AcDbArc
 50
270.0
 51
0.0
  0
ARC
  5
8A
330
1F
100
AcDbEntity
  8
0
  6
Continuous
 62
     7
370
    25
100
AcDbCircle
 10
222.0695990317
 20
112.3034627854
 30
0.0
 40
0.4000000000000341
100
AcDbArc
 50
0.0
 51
90.0
  0
ARC
  5
8B
330
1F
100
AcDbEntity
  8
0
  6
Continuous
 62
     7
370
    25
100
AcDbCircle
 10
222.0695990317
 20
121.1034627854
 30
0.0
 40
0.4000000000000341
100
AcDbArc
 50
270.0
 51
0.0
  0
LINE
  5
8C
330
1F
100
AcDbEntity
  8
0
  6
Continuous
 62
     7
370
    25
100
AcDbLine
 10
222.0696010821
 20
120.7034629754
 30
0.0
 11
217.4695977204
 21
120.7034629754
 31
0.0
  0
LINE
  5
8D
330
1F
100
AcDbEntity
  8
0
  6
Continuous
 62
     7
370
    25
100
AcDbLine
 10
217.4695977204
 20
112.7034625954
 30
0.0
 11
222.0696010821
 21
112.7034625954
 31
0.0
  0
LINE
  5
8E
330
1F
100
AcDbEntity
  8
0
  6
Continuous
 62
     7
370
    25
100
AcDbLine
 10
100.9695990555
 20
66.7034620403
 30
0.0
 11
105.4195990049
 21
66.7034620403
 31
0.0
  0
LINE
  5
8F
330
1F
100
AcDbEntity
  8
0
  6
Continuous
 62
     7
370
    25
100
AcDbLine
 10
105.453671907
 20
166.7034635305
 30
0.0
 11
100.9695990555
 21
166.7034635305
 31
0.0
  0
ARC
  5
90
330
1F
100
AcDbEntity
  8
0
  6
Continuous
 62
     7
370
    25
100
AcDbCircle
 10
100.9695990317
 20
67.2034627854
 30
0.0
 40
0.5
100
AcDbArc
 50
180.0
 51
270.0
  0
ARC
  5
91
330
1F
100
AcDbEntity
  8
0
  6
Continuous
 62
     7
370
    25
100
AcDbCircle
 10
100.9695990317
 20
166.2034627854
 30
0.0
 40
0.5
100
AcDbArc
 50
90.0
 51
180.0
  0
ARC
  5
92
330
1F
100
AcDbEntity
  8
0
  6
Continuous
 62
     7
370
    25
100
AcDbCircle
 10
99.5726621133
 20
78.074977461
 30
0.0
 40
0.9962338214386793
100
AcDbArc
 50
25.7988228126
 51
90.0
  0
ARC
  5
93
330
1F
100
AcDbEntity
  8
0
  6
Continuous
 62
     7
370
    25
100
AcDbCircle
 10
99.5726621133
 20
155.3319481098
 30
0.0
 40
0.9962338214386932
100
AcDbArc
 50
270.0
 51
334.2011771874
  0
LINE
  5
94
330
1F
100
AcDbEntity
  8
0
  6
Continuous
 62
     7
370
    25
100
AcDbLine
 10
97.9695990876
 20
78.8212129831
 30
0.0
 11
98.7754451538
 21
79.0371382593
 31
0.0
  0
LINE
  5
95
330
1F
100
AcDbEntity
  8
0
  6
Continuous
 62
     7
370
    25
100
AcDbLine
 10
98.7754451538
 20
154.3697873115
 30
0.0
 11
97.9695990876
 21
154.5857125878
 31
0.0
  0
LINE
  5
96
330
1F
100
AcDbEntity
  8
0
  6
Continuous
 62
     7
370
    25
100
AcDbLine
 10
78.9889195197
 20
153.634780085
 30
0.0
 11
60.6695995861
 21
152.7169765889
 31
0.0
  0
LINE
  5
97
330
1F
100
AcDbEntity
  8
0
  6
Continuous
 62
     7
370
    25
100
AcDbLine
 10
97.9695990876
 20
154.5857125878
 30
0.0
 11
91.9015598678
 21
154.2817028224
 31
0.0
  0
LINE
  5
98
330
1F
100
AcDbEntity
  8
0
  6
Continuous
 62
     7
370
    25
100
AcDbLine
 10
91.9016828024
 20
79.1252152979
 30
0.0
 11
97.9695990876
 21
78.8212129831
 31
0.0
  0
LINE
  5
99
330
1F
100
AcDbEntity
  8
0
  6
Continuous
 62
     7
370
    25
100
AcDbLine
 10
65.669598543
 20
80.4394492864
 30
0.0
 11
78.9895509564
 21
79.7721156835
 31
0.0
  0
ARC
  5
9A
330
1F
100
AcDbEntity
  8
0
  6
Continuous
 62
     7
370
    25
100
AcDbCircle
 10
99.0342642312
 20
78.0712112824
 30
0.0
 40
0.9999999999999858
100
AcDbArc
 50
90.0
 51
105.0
  0
ARC
  5
9B
330
1F
100
AcDbEntity
  8
0
  6
Continuous
 62
     7
370
    25
100
AcDbCircle
 10
99.0342642312
 20
155.3357142884
 30
0.0
 40
1.0
100
AcDbArc
 50
255.0
 51
270.0
  0
LINE
  5
9C
330
1F
100
AcDbEntity
  8
0
  6
Continuous
 62
     7
370
    25
100
AcDbLine
 10
99.0342642375
 20
79.0712097644
 30
0.0
 11
99.5726621089
 21
79.0712097644
 31
0.0
  0
LINE
  5
9D
330
1F
100
AcDbEntity
  8
0
  6
Continuous
 62
     7
370
    25
100
AcDbLine
 10
99.5726621089
 20
154.3357158064
 30
0.0
 11
99.0342642375
 21
154.3357158064
 31
0.0
  0
ARC
  5
9E
330
1F
100
AcDbEntity
  8
0
  6
Continuous
 62
     7
370
    25
100
AcDbCircle
 10
134.4195990317
 20
88.7858430793
 30
0.0
 40
5.000000000000007
100
AcDbArc
 50
106.5116637356
 51
180.0
  0
ARC
  5
9F
330
1F
100
AcDbEntity
  8
0
  6
Continuous
 62
     7
370
    25
100
AcDbCircle
 10
134.4195990317
 20
144.6210824915
 30
0.0
 40
5.000000000000007
100
AcDbArc
 50
180.0
 51
253.4883362644
  0
ARC
  5
A0
330
1F
100
AcDbEntity
  8
0
  6
Continuous
 62
     7
370
    25
100
AcDbCircle
 10
161.4195990317
 20
-2.2965372146
 30
0.0
 40
100.0
100
AcDbArc
 50
90.0
 51
106.5116637356
  0
ARC
  5
A1
330
1F
100
AcDbEntity
  8
0
  6
Continuous
 62
     7
370
    25
100
AcDbCircle
 10
161.4195990317
 20
235.7034627854
 30
0.0
 40
100.0
100
AcDbArc
 50
253.4883362644
 51
270.0
  0
LINE
  5
A2
330
1F
100
AcDbEntity
  8
0
  6
Continuous
 62
     7
370
    25
100
AcDbLine
 10
161.4195988708
 20
97.7034633964
 30
0.0
 11
199.6696018808
 21
97.7034633964
 31
0.0
  0
LINE
  5
A3
330
1F
100
AcDbEntity
  8
0
  6
Continuous
 62
     7
370
    25
100
AcDbLine
 10
199.6696018808
 20
135.7034621745
 30
0.0
 11
161.4195988708
 21
135.7034621745
 31
0.0
  0
ARC
  5
A4
330
1F
100
AcDbEntity
  8
0
  6
Continuous
 62
     7
370
    25
100
AcDbCircle
 10
199.6695990317
 20
98.5034627854
 30
0.0
 40
0.8000000000000114
100
AcDbArc
 50
270.0
 51
0.0
  0
ARC
  5
A5
330
1F
100
AcDbEntity
  8
0
  6
Continuous
 62
     7
370
    25
100
AcDbCircle
 10
199.6695990317
 20
134.9034627854
 30
0.0
 40
0.8000000000000114
100
AcDbArc
 50
0.0
 51
90.0
  0
LINE
  5
A6
330
1F
100
AcDbEntity
  8
0
  6
Continuous
 62
     7
370
    25
100
AcDbLine
 10
52.2195981079
 20
84.4534644841
 30
0.0
 11
63.7695999079
 21
84.4534644841
 31
0.0
  0
ARC
  5
A7
330
1F
100
AcDbEntity
  8
0
  6
Continuous
 62
     7
370
    25
100
AcDbCircle
 10
63.7695990317
 20
82.5534627854
 30
0.0
 40
1.900000000000007
100
AcDbArc
 50
35.6630613694
 51
90.0
  0
ARC
  5
A8
330
1F
100
AcDbEntity
  8
0
  6
Continuous
 62
     7
370
    25
100
AcDbCircle
 10
58.7695990317
 20
150.8534627854
 30
0.0
 40
1.900000000000006
100
AcDbArc
 50
270.0
 51
310.9212832533
  0
LINE
  5
A9
330
1F
100
AcDbEntity
  8
0
  6
Continuous
 62
     7
370
    25
100
AcDbLine
 10
52.2195981079
 20
148.9534610867
 30
0.0
 11
50.620282554
 21
147.3541473954
 31
0.0
  0
LINE
  5
AA
330
1F
100
AcDbEntity
  8
0
  6
Continuous
 62
     7
370
    25
100
AcDbLine
 10
50.6211207443
 20
86.0519418477
 30
0.0
 11
52.2195981079
 21
84.4534644841
 31
0.0
  0
LINE
  5
AB
330
1F
100
AcDbEntity
  8
0
  6
Continuous
 62
     7
370
    25
100
AcDbLine
 10
58.7695972257
 20
148.9534610867
 30
0.0
 11
52.2195981079
 21
148.9534610867
 31
0.0
  0
ARC
  5
AC
330
1F
100
AcDbEntity
  8
0
  6
Continuous
 62
     7
370
    25
100
AcDbCircle
 10
200.9695990317
 20
108.3534627854
 30
0.0
 40
0.6000000000000256
100
AcDbArc
 50
90.0
 51
146.4426902381
  0
ARC
  5
AD
330
1F
100
AcDbEntity
  8
0
  6
Continuous
 62
     7
370
    25
100
AcDbCircle
 10
200.9695990317
 20
125.0534627854
 30
0.0
 40
0.6000000000000179
100
AcDbArc
 50
213.5573097619
 51
270.0
  0
LINE
  5
AE
330
1F
100
AcDbEntity
  8
0
  6
Continuous
 62
     7
370
    25
100
AcDbLine
 10
202.4695971244
 20
108.7034624054
 30
0.0
 11
216.6695990794
 21
108.7034624054
 31
0.0
  0
LINE
  5
AF
330
1F
100
AcDbEntity
  8
0
  6
Continuous
 62
     7
370
    25
100
AcDbLine
 10
216.6695990794
 20
124.7034631654
 30
0.0
 11
202.4695971244
 21
124.7034631654
 31
0.0
  0
ARC
  5
B0
330
1F
100
AcDbEntity
  8
0
  6
Continuous
 62
     7
370
    25
100
AcDbCircle
 10
216.6695990317
 20
109.5034627854
 30
0.0
 40
0.8000000000000114
100
AcDbArc
 50
270.0
 51
0.0
  0
ARC
  5
B1
330
1F
100
AcDbEntity
  8
0
  6
Continuous
 62
     7
370
    25
100
AcDbCircle
 10
216.6695990317
 20
123.9034627854
 30
0.0
 40
0.8000000000000114
100
AcDbArc
 50
0.0
 51
90.0
  0
LINE
  5
B2
330
1F
100
AcDbEntity
  8
0
  6
Continuous
 62
     7
370
    25
100
AcDbLine
 10
202.4695971244
 20
124.7034631654
 30
0.0
 11
201.6128846639
 21
124.4739075176
 31
0.0
  0
LINE
  5
B3
330
1F
100
AcDbEntity
  8
0
  6
Continuous
 62
     7
370
    25
100
AcDbLine
 10
201.6128846639
 20
108.9330180532
 30
0.0
 11
202.4695971244
 21
108.7034624054
 31
0.0
  0
ARC
  5
B4
330
1F
100
AcDbEntity
  8
0
  6
Continuous
 62
     7
370
    25
100
AcDbCircle
 10
201.4575948313
 20
108.3534627854
 30
0.0
 40
0.6000000000000085
100
AcDbArc
 50
75.0
 51
90.0
  0
ARC
  5
B5
330
1F
100
AcDbEntity
  8
0
  6
Continuous
 62
     7
370
    25
100
AcDbCircle
 10
201.4575948313
 20
125.0534627854
 30
0.0
 40
0.5999999999999801
100
AcDbArc
 50
270.0
 51
285.0
  0
LINE
  5
B6
330
1F
100
AcDbEntity
  8
0
  6
Continuous
 62
     7
370
    25
100
AcDbLine
 10
200.9696015351
 20
108.9534629121
 30
0.0
 11
201.4575922125
 21
108.9534629121
 31
0.0
  0
LINE
  5
B7
330
1F
100
AcDbEntity
  8
0
  6
Continuous
 62
     7
370
    25
100
AcDbLine
 10
201.4575922125
 20
124.4534626587
 30
0.0
 11
200.9696015351
 21
124.4534626587
 31
0.0
  0
LINE
  5
B8
330
1F
100
AcDbEntity
  8
0
  6
Continuous
 62
     7
370
    25
100
AcDbLine
 10
205.4695957535
 20
127.2034626438
 30
0.0
 11
205.4695957535
 21
134.2034628599
 31
0.0
  0
LINE
  5
B9
330
1F
100
AcDbEntity
  8
0
  6
Continuous
 62
     7
370
    25
100
AcDbLine
 10
205.4695957535
 20
99.2034627109
 30
0.0
 11
205.4695957535
 21
106.203462927
 31
0.0
  0
LINE
  5
BA
330
1F
100
AcDbEntity
  8
0
  6
Continuous
 62
     7
370
    25
100
AcDbLine
 10
222.4696004026
 20
123.2034629195
 30
0.0
 11
222.4696004026
 21
110.2034626513
 31
0.0
  0
LINE
  5
BB
330
1F
100
AcDbEntity
  8
0
  6
Continuous
 62
     7
370
    25
100
AcDbLine
 10
230.4695942634
 20
122.8034626677
 30
0.0
 11
230.4695942634
 21
110.6034629031
 31
0.0
  0
LINE
  5
BC
330
1F
100
AcDbEntity
  8
0
  6
Continuous
 62
     7
370
    25
100
AcDbLine
 10
118.5595994078
 20
70.332073605
 30
0.0
 11
118.5595994078
 21
148.0534644782
 31
0.0
  0
SPLINE
  5
BD
330
1F
100
AcDbEntity
  8
0
  6
Continuous
 62
     7
370
    25
100
AcDbSpline
210
0.0
220
0.0
230
1.0
 70
     8
 71
     3
 72
     8
 73
     4
 74
     0
 42
0.000000001
 43
0.00000001
 40
0.0
 40
0.0
 40
0.0
 40
0.0
 40
1.0
 40
1.0
 40
1.0
 40
1.0
 10
118.5595990317309
 20
70.33207449838044
 30
0.0
 10
118.1093725674531
 20
69.53061913575567
 30
0.0
 10
117.6586747402097
 20
68.72942912419502
 30
0.0
 10
117.2075700108095
 20
67.9284691923751
 30
0.0
  0
LINE
  5
BE
330
1F
100
AcDbEntity
  8
0
  6
Continuous
 62
     7
370
    25
100
AcDbLine
 10
117.2075704866
 20
67.9284678756
 30
0.0
 11
117.2075704866
 21
148.0534644782
 31
0.0
  0
SPLINE
  5
BF
330
1F
100
AcDbEntity
  8
0
  6
Continuous
 62
     7
370
    25
100
AcDbSpline
210
0.0
220
0.0
230
1.0
 70
    24
 71
     3
 72
     8
 73
     4
 74
     0
 42
0.000000001
 43
0.00000001
 40
0.0
 40
0.0
 40
0.0
 40
0.0
 40
1.0
 40
1.0
 40
1.0
 40
1.0
 10
117.2075700108095
 20
148.0534627854039
 30
0.0
 10
117.6643715831378
 20
148.0534627854039
 30
0.0
 10
118.115386149377
 20
148.0534627854039
 30
0.0
 10
118.5595990317309
 20
148.0534627854039
 30
0.0
  0
LINE
  5
C0
330
1F
100
AcDbEntity
  8
0
  6
Continuous
 62
     7
370
    25
100
AcDbLine
 10
129.4195992135
 20
68.9541185259
 30
0.0
 11
129.4195992135
 21
148.0534644782
 31
0.0
  0
SPLINE
  5
C1
330
1F
100
AcDbEntity
  8
0
  6
Continuous
 62
     7
370
    25
100
AcDbSpline
210
0.0
220
0.0
230
1.0
 70
     8
 71
     3
 72
    14
 73
    10
 74
     0
 42
0.000000001
 43
0.00000001
 40
0.0
 40
0.0
 40
0.0
 40
0.0
 40
0.25
 40
0.25
 40
0.5
 40
0.5
 40
0.75
 40
0.75
 40
1.0
 40
1.0
 40
1.0
 40
1.0
 10
129.4195990317309
 20
68.95411724015061
 30
0.0
 10
129.4195990317309
 20
68.82069154409606
 30
0.0
 10
129.3942879318201
 20
68.68884373625173
 30
0.0
 10
129.2959531679753
 20
68.44232118755761
 30
0.0
 10
129.2228091637193
 20
68.32851599931708
 30
0.0
 10
129.0393711026236
 20
68.1380588223698
 30
0.0
 10
128.927684768285
 20
68.06042395851988
 30
0.0
 10
128.6851813379787
 20
67.95613254840741
 30
0.0
 10
128.5518069092845
 20
67.92846919237505
 30
0.0
 10
128.4195990317309
 20
67.92846919237506
 30
0.0
  0
SPLINE
  5
C2
330
1F
100
AcDbEntity
  8
0
  6
Continuous
 62
     7
370
    25
100
AcDbSpline
210
0.0
220
0.0
230
1.0
 70
    24
 71
     3
 72
    12
 73
     8
 74
     0
 42
0.000000001
 43
0.00000001
 40
0.0
 40
0.0
 40
0.0
 40
0.0
 40
0.2500000000000032
 40
0.2500000000000032
 40
0.5000000000000064
 40
0.5000000000000064
 40
1.0
 40
1.0
 40
1.0
 40
1.0
 10
128.4195990317309
 20
148.0534627854039
 30
0.0
 10
128.5716892686759
 20
148.0534627854039
 30
0.0
 10
128.7201485297513
 20
148.0534627854039
 30
0.0
 10
128.977552162017
 20
148.0534627854039
 30
0.0
 10
129.086656909859
 20
148.0534627854039
 30
0.0
 10
129.3407163862665
 20
148.0534627854039
 30
0.0
 10
129.4195990317309
 20
148.0534627854039
 30
0.0
 10
129.4195990317309
 20
148.0534627854039
 30
0.0
  0
SPLINE
  5
C3
330
1F
100
AcDbEntity
  8
0
  6
Continuous
 62
     7
370
    25
100
AcDbSpline
210
0.0
220
0.0
230
1.0
 70
    11
 71
     3
 72
    80
 73
    76
 74
     0
 42
0.000000001
 43
0.00000001
 40
0.0
 40
0.0
 40
0.0
 40
0.0
 40
0.0312500000000002
 40
0.0312500000000002
 40
0.0468750000000002
 40
0.0468750000000002
 40
0.0625000000000002
 40
0.0625000000000002
 40
0.09375
 40
0.09375
 40
0.1249999999999998
 40
0.1249999999999998
 40
0.1562499999999996
 40
0.1562499999999996
 40
0.1874999999999994
 40
0.1874999999999994
 40
0.2187499999999993
 40
0.2187499999999993
 40
0.2499999999999991
 40
0.2499999999999991
 40
0.2812499999999989
 40
0.2812499999999989
 40
0.3124999999999987
 40
0.3124999999999987
 40
0.3281249999999987
 40
0.3281249999999987
 40
0.3437499999999988
 40
0.3437499999999988
 40
0.374999999999999
 40
0.374999999999999
 40
0.4062499999999993
 40
0.4062499999999993
 40
0.4218749999999993
 40
0.4218749999999993
 40
0.4374999999999994
 40
0.4374999999999994
 40
0.4687499999999994
 40
0.4687499999999994
 40
0.4999999999999996
 40
0.4999999999999996
 40
0.5312499999999997
 40
0.5312499999999997
 40
0.5624999999999998
 40
0.5624999999999998
 40
0.5937499999999998
 40
0.5937499999999998
 40
0.6249999999999999
 40
0.6249999999999999
 40
0.65625
 40
0.65625
 40
0.6875000000000001
 40
0.6875000000000001
 40
0.7031250000000002
 40
0.7031250000000002
 40
0.7187500000000003
 40
0.7187500000000003
 40
0.7500000000000007
 40
0.7500000000000007
 40
0.7812500000000011
 40
0.7812500000000011
 40
0.796875000000001
 40
0.796875000000001
 40
0.8125000000000009
 40
0.8125000000000009
 40
0.8437500000000008
 40
0.8437500000000008
 40
0.8750000000000007
 40
0.8750000000000007
 40
0.9062500000000006
 40
0.9062500000000006
 40
0.9375000000000003
 40
0.9375000000000003
 40
0.9687500000000002
 40
0.9687500000000002
 40
1.0
 40
1.0
 40
1.0
 40
1.0
 10
109.469599031731
 20
160.1180922490352
 30
0.0
 10
109.8001443445072
 20
160.1180922490352
 30
0.0
 10
110.1251244737589
 20
160.1343004804173
 30
0.0
 10
110.6045978850053
 20
160.1816651124369
 30
0.0
 10
110.7630797028461
 20
160.2013193243276
 30
0.0
 10
111.0772992353504
 20
160.2484304805202
 30
0.0
 10
111.2334195190308
 20
160.2760118000149
 30
0.0
 10
111.6874735479874
 20
160.3685475868087
 30
0.0
 10
111.9745769309272
 20
160.4436180204052
 30
0.0
 10
112.5179314869542
 20
160.6188563290158
 30
0.0
 10
112.7750350981598
 20
160.719857626854
 30
0.0
 10
113.2359413530986
 20
160.9372138253149
 30
0.0
 10
113.4428390623136
 20
161.0543781570871
 30
0.0
 10
113.8083643763057
 20
161.3044480813158
 30
0.0
 10
113.9635698984317
 20
161.4353941700748
 30
0.0
 10
114.2130002850314
 20
161.7011291137871
 30
0.0
 10
114.3090902408166
 20
161.8378827070981
 30
0.0
 10
114.4376090900101
 20
162.1119482819371
 30
0.0
 10
114.4694199601879
 20
162.2468883724059
 30
0.0
 10
114.4697766099612
 20
162.5123600094747
 30
0.0
 10
114.4372793577641
 20
162.6441844866159
 30
0.0
 10
114.3096538840497
 20
162.8936340862363
 30
0.0
 10
114.2152254829978
 20
163.0120667781643
 30
0.0
 10
114.0273646630122
 20
163.1809359752584
 30
0.0
 10
113.956536664209
 20
163.2360219703786
 30
0.0
 10
113.8018147722437
 20
163.341274798867
 30
0.0
 10
113.7178383020603
 20
163.3916100276273
 30
0.0
 10
113.4465146324159
 20
163.5361858601654
 30
0.0
 10
113.2399654138136
 20
163.6240474465824
 30
0.0
 10
112.7733552736246
 20
163.7837685395819
 30
0.0
 10
112.5209897039991
 20
163.8530068360491
 30
0.0
 10
112.1150883623204
 20
163.9427942252789
 30
0.0
 10
111.9751877448429
 20
163.9703601873652
 30
0.0
 10
111.685963809596
 20
164.0208509882914
 30
0.0
 10
111.5361243533067
 20
164.0438144271422
 30
0.0
 10
111.0820077836959
 20
164.104444943561
 30
0.0
 10
110.7703565649591
 20
164.1345189723568
 30
0.0
 10
110.1293601000467
 20
164.1751085596155
 30
0.0
 10
109.7978324720945
 20
164.1854207898315
 30
0.0
 10
109.145041427023
 20
164.1854963569973
 30
0.0
 10
108.8205052219912
 20
164.1755947515295
 30
0.0
 10
108.1752357725748
 20
164.1351082210043
 30
0.0
 10
107.8594927664121
 20
164.1046469211196
 30
0.0
 10
107.2576034714284
 20
164.024496249683
 30
0.0
 10
106.9668542406169
 20
163.9742140178758
 30
0.0
 10
106.4199424489324
 20
163.8535438351029
 30
0.0
 10
106.1681650850955
 20
163.7843199759328
 30
0.0
 10
105.7067770924744
 20
163.6268682482922
 30
0.0
 10
105.4955078128763
 20
163.5375197736184
 30
0.0
 10
105.1322034605001
 20
163.3442719029177
 30
0.0
 10
104.9783968120573
 20
163.2401439110383
 30
0.0
 10
104.7897773424599
 20
163.0715195248549
 30
0.0
 10
104.7337468562507
 20
163.0128911231799
 30
0.0
 10
104.6381730945146
 20
162.8934362083537
 30
0.0
 10
104.5984101774896
 20
162.8325164195155
 30
0.0
 10
104.5026384271775
 20
162.6461116933417
 30
0.0
 10
104.4699155880514
 20
162.5169988755466
 30
0.0
 10
104.4692870017223
 20
162.2483419525907
 30
0.0
 10
104.501473146457
 20
162.1129712118339
 30
0.0
 10
104.5963838483126
 20
161.909420903598
 30
0.0
 10
104.6358506317116
 20
161.8414489795345
 30
0.0
 10
104.7307806304324
 20
161.7053567564036
 30
0.0
 10
104.7865374581958
 20
161.6370066561942
 30
0.0
 10
104.9744775761657
 20
161.4363036431521
 30
0.0
 10
105.1278390458819
 20
161.3069153693394
 30
0.0
 10
105.4901032807622
 20
161.0582499372896
 30
0.0
 10
105.7009517542282
 20
160.9384402949214
 30
0.0
 10
106.1616217245471
 20
160.7209180073487
 30
0.0
 10
106.4129961041309
 20
160.6218329075128
 30
0.0
 10
106.958903991029
 20
160.4451604335959
 30
0.0
 10
107.2497265656803
 20
160.3691033454619
 30
0.0
 10
107.8510531804603
 20
160.246258368109
 30
0.0
 10
108.1655717650727
 20
160.1985522430558
 30
0.0
 10
108.8121532211926
 20
160.1343037079362
 30
0.0
 10
109.1390537189546
 20
160.1180922490352
 30
0.0
 10
109.4695990317309
 20
160.1180922490352
 30
0.0
  0
LINE
  5
C4
330
1F
100
AcDbEntity
  8
0
  6
Continuous
 62
     7
370
    25
100
AcDbLine
 10
105.4195990049
 20
148.0534644782
 30
0.0
 11
117.2075704866
 21
148.0534644782
 31
0.0
  0
LINE
  5
C5
330
1F
100
AcDbEntity
  8
0
  6
Continuous
 62
     7
370
    25
100
AcDbLine
 10
117.2075704866
 20
67.9284678756
 30
0.0
 11
115.4195987814
 21
67.9284678756
 31
0.0
  0
SPLINE
  5
C6
330
1F
100
AcDbEntity
  8
0
  6
Continuous
 62
     7
370
    25
100
AcDbSpline
210
0.0
220
0.0
230
1.0
 70
     8
 71
     3
 72
    30
 73
    26
 74
     0
 42
0.000000001
 43
0.00000001
 40
0.0
 40
0.0
 40
0.0
 40
0.0
 40
0.1250000000000002
 40
0.1250000000000002
 40
0.1875000000000003
 40
0.1875000000000003
 40
0.2500000000000004
 40
0.2500000000000004
 40
0.3750000000000001
 40
0.3750000000000001
 40
0.4374999999999998
 40
0.4374999999999998
 40
0.4999999999999996
 40
0.4999999999999996
 40
0.6249999999999996
 40
0.6249999999999996
 40
0.6874999999999997
 40
0.6874999999999997
 40
0.7499999999999997
 40
0.7499999999999997
 40
0.8124999999999998
 40
0.8124999999999998
 40
0.8749999999999999
 40
0.8749999999999999
 40
1.0
 40
1.0
 40
1.0
 40
1.0
 10
115.4195990317309
 20
67.9284691923751
 30
0.0
 10
114.7568543378859
 20
67.9284691923751
 30
0.0
 10
114.1055984787702
 20
67.9136291157863
 30
0.0
 10
113.1451479405119
 20
67.87125955155668
 30
0.0
 10
112.8277564972789
 20
67.8537814487775
 30
0.0
 10
112.1985929957241
 20
67.8124531622252
 30
0.0
 10
111.8864448092824
 20
67.78852788876749
 30
0.0
 10
110.9791375074341
 20
67.70972137230058
 30
0.0
 10
110.4057125497928
 20
67.64741535232413
 30
0.0
 10
109.5918356802182
 20
67.54428603208476
 30
0.0
 10
109.3270294836483
 20
67.50810211303826
 30
0.0
 10
108.820122072834
 20
67.43430732883775
 30
0.0
 10
108.5787279214805
 20
67.3968334700661
 30
0.0
 10
107.8895864493482
 20
67.28412152672635
 30
0.0
 10
107.4765316344839
 20
67.2085854292526
 30
0.0
 10
106.9283768151089
 20
67.1001921722351
 30
0.0
 10
106.7589142077633
 20
67.06511994057182
 30
0.0
 10
106.4508969597479
 20
66.99888447997199
 30
0.0
 10
106.3115169391395
 20
66.96755778321725
 30
0.0
 10
106.0617314265128
 20
66.90914901163633
 30
0.0
 10
105.9513253138589
 20
66.88206577645347
 30
0.0
 10
105.7600674602212
 20
66.83280602183989
 30
0.0
 10
105.6789479419369
 20
66.81054404203223
 30
0.0
 10
105.4848010218285
 20
66.75297713486397
 30
0.0
 10
105.4195990317309
 20
66.72671753007798
 30
0.0
 10
105.4195990317309
 20
66.71346378560395
 30
0.0
  0
LINE
  5
C7
330
1F
100
AcDbEntity
  8
0
  6
Continuous
 62
     7
370
    25
100
AcDbLine
 10
105.4195990049
 20
66.7134644448
 30
0.0
 11
105.4195990049
 21
66.7034620403
 31
0.0
  0
SPLINE
  5
C8
330
1F
100
AcDbEntity
  8
0
  6
Continuous
 62
     7
370
    25
100
AcDbSpline
210
0.0
220
0.0
230
1.0
 70
     8
 71
     3
 72
    17
 73
    13
 74
     0
 42
0.000000001
 43
0.00000001
 40
0.0
 40
0.0
 40
0.0
 40
0.0
 40
0.1043843958185158
 40
0.2118345569819801
 40
0.3162081801235555
 40
0.4235375330682647
 40
0.5292275935501746
 40
0.6379275752951962
 40
0.7444714855043735
 40
0.8541836194561564
 40
0.959308052615968
 40
1.0
 40
1.0
 40
1.0
 40
1.0
 10
115.4195987813914
 20
165.6932579337766
 30
0.0
 10
114.8716602408778
 20
165.6986253741094
 30
0.0
 10
113.7596902278035
 20
165.7095178962734
 30
0.0
 10
112.146834895281
 20
165.7947000800913
 30
0.0
 10
110.6133217445433
 20
165.9210705834228
 30
0.0
 10
109.222300856169
 20
166.0779744549317
 30
0.0
 10
107.9867837398709
 20
166.2496698523674
 30
0.0
 10
106.9634285940145
 20
166.4150147065774
 30
0.0
 10
106.1630859211555
 20
166.5587190044094
 30
0.0
 10
105.6527543683955
 20
166.6568830003413
 30
0.0
 10
105.4128456099361
 20
166.7048043148141
 30
0.0
 10
105.4447645217055
 20
166.6984378068003
 30
0.0
 10
105.4536719069624
 20
166.696661150377
 30
0.0
  0
LINE
  5
C9
330
1F
100
AcDbEntity
  8
0
  6
Continuous
 62
     7
370
    25
100
AcDbLine
 10
117.2075704866
 20
165.6932579338
 30
0.0
 11
115.4195987814
 21
165.6932579338
 31
0.0
  0
LINE
  5
CA
330
1F
100
AcDbEntity
  8
0
  6
Continuous
 62
     7
370
    25
100
AcDbLine
 10
117.2075704866
 20
155.6544238686
 30
0.0
 11
117.2075704866
 21
165.6932579338
 31
0.0
  0
LINE
  5
CB
330
1F
100
AcDbEntity
  8
0
  6
Continuous
 62
     7
370
    25
100
AcDbLine
 10
115.1275658243
 20
155.6544238686
 30
0.0
 11
117.2075704866
 21
155.6544238686
 31
0.0
  0
SPLINE
  5
CC
330
1F
100
AcDbEntity
  8
0
  6
Continuous
 62
     7
370
    25
100
AcDbSpline
210
0.0
220
0.0
230
1.0
 70
     8
 71
     3
 72
    22
 73
    18
 74
     0
 42
0.000000001
 43
0.00000001
 40
0.0
 40
0.0
 40
0.0
 40
0.0
 40
0.2500000000000002
 40
0.2500000000000002
 40
0.3750000000000003
 40
0.3750000000000003
 40
0.5000000000000004
 40
0.5000000000000004
 40
0.6250000000000004
 40
0.6250000000000004
 40
0.7500000000000004
 40
0.7500000000000004
 40
0.8750000000000004
 40
0.8750000000000004
 40
0.9375000000000002
 40
0.9375000000000002
 40
1.0
 40
1.0
 40
1.0
 40
1.0
 10
105.4195990317309
 20
148.0534627854039
 30
0.0
 10
105.62232398765
 20
149.0727091272685
 30
0.0
 10
105.9370677094454
 20
150.0318172772078
 30
0.0
 10
106.6451231791164
 20
151.3742963547171
 30
0.0
 10
106.923585809334
 20
151.8085049374571
 30
0.0
 10
107.5623532159712
 20
152.6201326529592
 30
0.0
 10
107.9227668957614
 20
152.9994129458961
 30
0.0
 10
108.7402991277507
 20
153.7023715249171
 30
0.0
 10
109.2014671110378
 20
154.0274003426177
 30
0.0
 10
110.1994573575216
 20
154.5924156660086
 30
0.0
 10
110.7392165515139
 20
154.8361192602151
 30
0.0
 10
111.9138095155452
 20
155.24031918786
 30
0.0
 10
112.5255457015371
 20
155.3927563809056
 30
0.0
 10
113.4774549263988
 20
155.5480839285142
 30
0.0
 10
113.8006880906594
 20
155.5875887085643
 30
0.0
 10
114.4597512619347
 20
155.640897829233
 30
0.0
 10
114.7938152725087
 20
155.6544255462908
 30
0.0
 10
115.1275658799102
 20
155.6544255462908
 30
0.0
  0
LINE
  5
CD
330
1F
100
AcDbEntity
  8
0
  6
Continuous
 62
     7
370
    25
100
AcDbLine
 10
100.4695990317
 20
67.2034630536
 30
0.0
 11
100.4695990317
 21
166.2034625172
 31
0.0
  0
LINE
  5
CE
330
1F
100
AcDbEntity
  8
0
  6
Continuous
 62
     7
370
    25
100
AcDbLine
 10
123.7316285454
 20
67.9284678756
 30
0.0
 11
123.7316285454
 21
148.0534644782
 31
0.0
  0
SPLINE
  5
CF
330
1F
100
AcDbEntity
  8
0
  6
Continuous
 62
     7
370
    25
100
AcDbSpline
210
0.0
220
0.0
230
1.0
 70
     8
 71
     3
 72
     8
 73
     4
 74
     0
 42
0.000000001
 43
0.00000001
 40
0.0
 40
0.0
 40
0.0
 40
0.0
 40
1.0
 40
1.0
 40
1.0
 40
1.0
 10
123.7316280526523
 20
67.9284691923751
 30
0.0
 10
123.2805233232521
 20
68.72942912419502
 30
0.0
 10
122.8298254960087
 20
69.53061913575567
 30
0.0
 10
122.3795990317309
 20
70.33207449838044
 30
0.0
  0
LINE
  5
D0
330
1F
100
AcDbEntity
  8
0
  6
Continuous
 62
     7
370
    25
100
AcDbLine
 10
122.3795996242
 20
70.332073605
 30
0.0
 11
122.3795996242
 21
148.0534644782
 31
0.0
  0
SPLINE
  5
D1
330
1F
100
AcDbEntity
  8
0
  6
Continuous
 62
     7
370
    25
100
AcDbSpline
210
0.0
220
0.0
230
1.0
 70
    24
 71
     3
 72
     8
 73
     4
 74
     0
 42
0.000000001
 43
0.00000001
 40
0.0
 40
0.0
 40
0.0
 40
0.0
 40
1.0
 40
1.0
 40
1.0
 40
1.0
 10
122.3795990317309
 20
148.0534627854039
 30
0.0
 10
122.8238119140849
 20
148.0534627854039
 30
0.0
 10
123.2748264803241
 20
148.0534627854039
 30
0.0
 10
123.7316280526523
 20
148.0534627854039
 30
0.0
  0
LINE
  5
D2
330
1F
100
AcDbEntity
  8
0
  6
Continuous
 62
     7
370
    25
100
AcDbLine
 10
128.4195990496
 20
67.9284678756
 30
0.0
 11
123.7316285454
 21
67.9284678756
 31
0.0
  0
LINE
  5
D3
330
1F
100
AcDbEntity
  8
0
  6
Continuous
 62
     7
370
    25
100
AcDbLine
 10
123.7316285454
 20
148.0534644782
 30
0.0
 11
128.4195990496
 21
148.0534644782
 31
0.0
  0
SPLINE
  5
D4
330
1F
100
AcDbEntity
  8
0
  6
Continuous
 62
     7
370
    25
100
AcDbSpline
210
0.0
220
0.0
230
1.0
 70
     8
 71
     3
 72
    14
 73
    10
 74
     0
 42
0.000000001
 43
0.00000001
 40
0.0
 40
0.0
 40
0.0
 40
0.0
 40
0.25
 40
0.25
 40
0.5
 40
0.5
 40
0.75
 40
0.75
 40
1.0
 40
1.0
 40
1.0
 40
1.0
 10
122.3795990317309
 20
71.24028400300902
 30
0.0
 10
122.3795990317309
 20
71.34732808400341
 30
0.0
 10
122.3594813445728
 20
71.45256322424584
 30
0.0
 10
122.2809901553071
 20
71.65041371109353
 30
0.0
 10
122.2228335305059
 20
71.74146547465845
 30
0.0
 10
122.0763182748879
 20
71.89463156858324
 30
0.0
 10
121.9876757262468
 20
71.95692601479264
 30
0.0
 10
121.7919524034465
 20
72.04171980032864
 30
0.0
 10
121.6867212123755
 20
72.06378732735426
 30
0.0
 10
121.5795990317309
 20
72.06378732735428
 30
0.0
  0
SPLINE
  5
D5
330
1F
100
AcDbEntity
  8
0
  6
Continuous
 62
     7
370
    25
100
AcDbSpline
210
0.0
220
0.0
230
1.0
 70
    24
 71
     3
 72
    14
 73
    10
 74
     0
 42
0.000000001
 43
0.00000001
 40
0.0
 40
0.0
 40
0.0
 40
0.0
 40
0.25
 40
0.25
 40
0.5
 40
0.5
 40
0.75
 40
0.75
 40
1.0
 40
1.0
 40
1.0
 40
1.0
 10
121.5795990317309
 20
148.0534627854039
 30
0.0
 10
121.7033687964961
 20
148.0534627854039
 30
0.0
 10
121.827735900503
 20
148.0534627854039
 30
0.0
 10
122.034092369229
 20
148.0534627854039
 30
0.0
 10
122.1194205126474
 20
148.0534627854039
 30
0.0
 10
122.2516125713626
 20
148.0534627854039
 30
0.0
 10
122.3002578151132
 20
148.0534627854039
 30
0.0
 10
122.3637936068419
 20
148.0534627854039
 30
0.0
 10
122.3795990317309
 20
148.0534627854039
 30
0.0
 10
122.3795990317309
 20
148.0534627854039
 30
0.0
  0
SPLINE
  5
D6
330
1F
100
AcDbEntity
  8
0
  6
Continuous
 62
     7
370
    25
100
AcDbSpline
210
0.0
220
0.0
230
1.0
 70
     8
 71
     3
 72
    12
 73
     8
 74
     0
 42
0.000000001
 43
0.00000001
 40
0.0
 40
0.0
 40
0.0
 40
0.0
 40
0.250000000000003
 40
0.250000000000003
 40
0.500000000000006
 40
0.500000000000006
 40
1.0
 40
1.0
 40
1.0
 40
1.0
 10
119.3595990317309
 20
72.06378732735428
 30
0.0
 10
119.253838378382
 20
72.06378732735426
 30
0.0
 10
119.145850750199
 20
72.04124782135386
 30
0.0
 10
118.9512560849334
 20
71.95667718935853
 30
0.0
 10
118.8623841720946
 20
71.89419553659971
 30
0.0
 10
118.6431918797687
 20
71.6648065851275
 30
0.0
 10
118.5595990317309
 20
71.45222324760509
 30
0.0
 10
118.5595990317309
 20
71.24028400300885
 30
0.0
  0
SPLINE
  5
D7
330
1F
100
AcDbEntity
  8
0
  6
Continuous
 62
     7
370
    25
100
AcDbSpline
210
0.0
220
0.0
230
1.0
 70
    24
 71
     3
 72
    14
 73
    10
 74
     0
 42
0.000000001
 43
0.00000001
 40
0.0
 40
0.0
 40
0.0
 40
0.0
 40
0.25
 40
0.25
 40
0.5
 40
0.5
 40
0.75
 40
0.75
 40
1.0
 40
1.0
 40
1.0
 40
1.0
 10
118.5595990317309
 20
148.0534627854039
 30
0.0
 10
118.5595990317309
 20
148.0534627854039
 30
0.0
 10
118.5753133521969
 20
148.0534627854039
 30
0.0
 10
118.6389973306652
 20
148.0534627854039
 30
0.0
 10
118.6876005250757
 20
148.0534627854039
 30
0.0
 10
118.8202840475013
 20
148.0534627854039
 30
0.0
 10
118.905386151812
 20
148.0534627854039
 30
0.0
 10
119.111828386722
 20
148.0534627854039
 30
0.0
 10
119.235909328345
 20
148.0534627854039
 30
0.0
 10
119.3595990317309
 20
148.0534627854039
 30
0.0
  0
LINE
  5
D8
330
1F
100
AcDbEntity
  8
0
  6
Continuous
 62
     7
370
    25
100
AcDbLine
 10
121.5795991205
 20
72.0637859761
 30
0.0
 11
119.3595999115
 21
72.0637859761
 31
0.0
  0
LINE
  5
D9
330
1F
100
AcDbEntity
  8
0
  6
Continuous
 62
     7
370
    25
100
AcDbLine
 10
119.3595999115
 20
148.0534644782
 30
0.0
 11
121.5795991205
 21
148.0534644782
 31
0.0
  0
LINE
  5
DA
330
1F
100
AcDbEntity
  8
0
  6
Continuous
 62
     7
370
    25
100
AcDbLine
 10
97.9695990876
 20
78.8212129831
 30
0.0
 11
97.9695990876
 21
154.5857125878
 31
0.0
  0
LINE
  5
DB
330
1F
100
AcDbEntity
  8
0
  6
Continuous
 62
     7
370
    25
100
AcDbLine
 10
65.669598543
 20
80.4394492864
 30
0.0
 11
65.669598543
 21
82.8341292202
 31
0.0
  0
SPLINE
  5
DC
330
1F
100
AcDbEntity
  8
0
  6
Continuous
 62
     7
370
    25
100
AcDbSpline
210
0.0
220
0.0
230
1.0
 70
     8
 71
     3
 72
    14
 73
    10
 74
     0
 42
0.000000001
 43
0.00000001
 40
0.0
 40
0.0
 40
0.0
 40
0.0
 40
0.25
 40
0.25
 40
0.5
 40
0.5
 40
0.75
 40
0.75
 40
1.0
 40
1.0
 40
1.0
 40
1.0
 10
64.66517656039397
 20
84.53698144166039
 30
0.0
 10
64.75394513833929
 20
84.37844731035243
 30
0.0
 10
64.87566297701821
 20
84.22600463346387
 30
0.0
 10
65.11071258687504
 20
83.92887000963495
 30
0.0
 10
65.22634277309193
 20
83.78418736601759
 30
0.0
 10
65.42674770651973
 20
83.50089816351418
 30
0.0
 10
65.51214799850408
 20
83.36234417047733
 30
0.0
 10
65.63385363222129
 20
83.09096014044378
 30
0.0
 10
65.66959903173394
 20
82.95882427180918
 30
0.0
 10
65.66959903173392
 20
82.8341295200384
 30
0.0
  0
SPLINE
  5
DD
330
1F
100
AcDbEntity
  8
0
  6
Continuous
 62
     7
370
    25
100
AcDbSpline
210
0.0
220
0.0
230
1.0
 70
     8
 71
     3
 72
    14
 73
    10
 74
     0
 42
0.000000001
 43
0.00000001
 40
0.0
 40
0.0
 40
0.0
 40
0.0
 40
0.124999999999999
 40
0.124999999999999
 40
0.249999999999998
 40
0.249999999999998
 40
0.5000000000000007
 40
0.5000000000000007
 40
1.0
 40
1.0
 40
1.0
 40
1.0
 10
63.76959903173093
 20
85.16581138076049
 30
0.0
 10
63.83718133151542
 20
85.17296726586187
 30
0.0
 10
63.90966890926332
 20
85.16854279582287
 30
0.0
 10
64.04196001852927
 20
85.13883663805252
 30
0.0
 10
64.09923739791944
 20
85.1155523564743
 30
0.0
 10
64.24888782511972
 20
85.03806711662396
 30
0.0
 10
64.32260112064122
 20
84.9762152897226
 30
0.0
 10
64.51040910396746
 20
84.79153783707429
 30
0.0
 10
64.5944494103289
 20
84.66329491378308
 30
0.0
 10
64.6651765603952
 20
84.53698144166049
 30
0.0
  0
SPLINE
  5
DE
330
1F
100
AcDbEntity
  8
0
  6
Continuous
 62
     7
370
    25
100
AcDbSpline
210
0.0
220
0.0
230
1.0
 70
     8
 71
     3
 72
     8
 73
     4
 74
     0
 42
0.000000001
 43
0.00000001
 40
0.0
 40
0.0
 40
0.0
 40
0.0
 40
1.0
 40
1.0
 40
1.0
 40
1.0
 10
60.22495864365014
 20
84.74776279596871
 30
0.0
 10
61.39025695435901
 20
84.90295026785533
 30
0.0
 10
62.57487216839883
 20
85.03930890616564
 30
0.0
 10
63.76959903173091
 20
85.16581138076049
 30
0.0
  0
SPLINE
  5
DF
330
1F
100
AcDbEntity
  8
0
  6
Continuous
 62
     7
370
    25
100
AcDbSpline
210
0.0
220
0.0
230
1.0
 70
     8
 71
     3
 72
    14
 73
    10
 74
     0
 42
0.000000001
 43
0.00000001
 40
0.0
 40
0.0
 40
0.0
 40
0.0
 40
0.5000000000000012
 40
0.5000000000000012
 40
0.7500000000000018
 40
0.7500000000000018
 40
0.8750000000000009
 40
0.8750000000000009
 40
1.0
 40
1.0
 40
1.0
 40
1.0
 10
52.46952414770059
 20
84.45763061683878
 30
0.0
 10
53.77782571023459
 20
84.46464534057989
 30
0.0
 10
55.0828850848917
 20
84.48005391702438
 30
0.0
 10
57.02876113638039
 20
84.53395047249103
 30
0.0
 10
57.67545864011955
 20
84.55698203709373
 30
0.0
 10
58.6393010039741
 20
84.6079245619645
 30
0.0
 10
58.95953969590825
 20
84.6276594841977
 30
0.0
 10
59.5962349222508
 20
84.67714661266928
 30
0.0
 10
59.91295033053379
 20
84.7062113915985
 30
0.0
 10
60.22495864365018
 20
84.74776279596865
 30
0.0
  0
SPLINE
  5
E0
330
1F
100
AcDbEntity
  8
0
  6
Continuous
 62
     7
370
    25
100
AcDbSpline
210
0.0
220
0.0
230
1.0
 70
     8
 71
     3
 72
    12
 73
     8
 74
     0
 42
0.000000001
 43
0.00000001
 40
0.0
 40
0.0
 40
0.0
 40
0.0
 40
0.2500000000000001
 40
0.2500000000000001
 40
0.5000000000000001
 40
0.5000000000000001
 40
1.0
 40
1.0
 40
1.0
 40
1.0
 10
58.76959903173093
 20
148.7899856769003
 30
0.0
 10
58.25090020990275
 20
148.8225084517486
 30
0.0
 10
57.72918863669775
 20
148.845805192919
 30
0.0
 10
56.68289662020218
 20
148.8836507073412
 30
0.0
 10
56.15822499453191
 20
148.8979191818373
 30
0.0
 10
54.58137897199269
 20
148.9321286692956
 30
0.0
 10
53.52642365744581
 20
148.9436281732395
 30
0.0
 10
52.46952414770058
 20
148.949294953969
 30
0.0
  0
SPLINE
  5
E1
330
1F
100
AcDbEntity
  8
0
  6
Continuous
 62
     7
370
    25
100
AcDbSpline
210
0.0
220
0.0
230
1.0
 70
     8
 71
     3
 72
    20
 73
    16
 74
     0
 42
0.000000001
 43
0.00000001
 40
0.0
 40
0.0
 40
0.0
 40
0.0
 40
0.2500000000000011
 40
0.2500000000000011
 40
0.5000000000000021
 40
0.5000000000000021
 40
0.7500000000000031
 40
0.7500000000000031
 40
0.8750000000000008
 40
0.8750000000000008
 40
0.9375000000000006
 40
0.9375000000000006
 40
0.9687500000000003
 40
0.9687500000000003
 40
1.0
 40
1.0
 40
1.0
 40
1.0
 10
60.66959903173093
 20
150.4480715223885
 30
0.0
 10
60.66959903173091
 20
150.3123892026417
 30
0.0
 10
60.6208872425143
 20
150.1713022165016
 30
0.0
 10
60.45172581928912
 20
149.8792304977711
 30
0.0
 10
60.32994540537079
 20
149.7275817556807
 30
0.0
 10
60.0323983106213
 20
149.4251733155276
 30
0.0
 10
59.8584857049185
 20
149.2725846794042
 30
0.0
 10
59.53907087103669
 20
149.0473139155619
 30
0.0
 10
59.42403009558943
 20
148.9725908210513
 30
0.0
 10
59.21694577157301
 20
148.8731804117942
 30
0.0
 10
59.14083793676661
 20
148.8416153194496
 30
0.0
 10
59.00944339721328
 20
148.8071719352567
 30
0.0
 10
58.96289017821182
 20
148.7981203634891
 30
0.0
 10
58.8665568271311
 20
148.7879447146506
 30
0.0
 10
58.81729740377567
 20
148.7869949559756
 30
0.0
 10
58.76959903172893
 20
148.7899856768902
 30
0.0
  0
LINE
  5
E2
330
1F
100
AcDbEntity
  8
0
  6
Continuous
 62
     7
370
    25
100
AcDbLine
 10
60.6695995861
 20
150.4480699062
 30
0.0
 11
60.6695995861
 21
152.7169765889
 31
0.0
  0
SPLINE
  5
E3
330
1F
100
AcDbEntity
  8
0
  6
Continuous
 62
     7
370
    25
100
AcDbSpline
210
0.0
220
0.0
230
1.0
 70
     8
 71
     3
 72
    24
 73
    20
 74
     0
 42
0.000000001
 43
0.00000001
 40
0.0
 40
0.0
 40
0.0
 40
0.0
 40
0.0002934239329635
 40
0.0628079954843725
 40
0.1260453886222317
 40
0.1890746649056576
 40
0.2513200327496127
 40
0.3133304381321615
 40
0.3759158074016681
 40
0.4383740215105411
 40
0.5000631209931454
 40
0.5616593985498132
 40
0.6245050468179062
 40
0.6872231543007362
 40
0.7494953203649202
 40
0.811758388799549
 40
0.8747365576758938
 40
0.937898032705022
 40
1.0
 40
1.0
 40
1.0
 40
1.0
 10
78.9895546817029
 20
79.77221626631516
 30
0.0
 10
78.98936013792013
 20
79.77219256905454
 30
0.0
 10
78.94771764166443
 20
79.76712012175213
 30
0.0
 10
79.09274085383726
 20
79.78556141189824
 30
0.0
 10
79.44785808085572
 20
79.82816374066503
 30
0.0
 10
80.05242363449176
 20
79.89627407399139
 30
0.0
 10
80.85886079289747
 20
79.96953938731933
 30
0.0
 10
81.84433790291871
 20
80.03405499062805
 30
0.0
 10
82.97600704430099
 20
80.07262190590733
 30
0.0
 10
84.19829995796336
 20
80.07631120775416
 30
0.0
 10
85.46562910392363
 20
80.03389278136
 30
0.0
 10
86.7321143470206
 20
79.94563791510849
 30
0.0
 10
87.94825247788133
 20
79.81725230787748
 30
0.0
 10
89.07366190349704
 20
79.66460458120754
 30
0.0
 10
90.05108009671501
 20
79.50283419984252
 30
0.0
 10
90.85434477723264
 20
79.3503017633661
 30
0.0
 10
91.44283818626414
 20
79.22628812460522
 30
0.0
 10
91.83174492274952
 20
79.1413665334546
 30
0.0
 10
91.87850573911984
 20
79.13064082514651
 30
0.0
 10
91.90168839029913
 20
79.12532333127754
 30
0.0
  0
SPLINE
  5
E4
330
1F
100
AcDbEntity
  8
0
  6
Continuous
 62
     7
370
    25
100
AcDbSpline
210
0.0
220
0.0
230
1.0
 70
     8
 71
     3
 72
    27
 73
    23
 74
     0
 42
0.000000001
 43
0.00000001
 40
0.0
 40
0.0
 40
0.0
 40
0.0
 40
0.0619954680688684
 40
0.1254397621813191
 40
0.1886583727463871
 40
0.2510346191260181
 40
0.313178255016169
 40
0.3756730771103761
 40
0.4382401025850776
 40
0.4998243385522818
 40
0.5615387009126923
 40
0.6240931220669997
 40
0.6867530144355031
 40
0.7488662870716932
 40
0.8111008374917862
 40
0.8742090103085037
 40
0.9448189516773847
 40
0.9756082665127763
 40
0.9877505319198249
 40
0.9999433694577685
 40
0.9999501670988248
 40
1.0
 40
1.0
 40
1.0
 40
1.0
 10
91.90156731836443
 20
154.2815575360467
 30
0.0
 10
91.87799572740542
 20
154.2762479510033
 30
0.0
 10
91.83030168046561
 20
154.2655046966031
 30
0.0
 10
91.43825858708657
 20
154.1802778114266
 30
0.0
 10
90.84774594189973
 20
154.0557091304707
 30
0.0
 10
90.0437074938329
 20
153.9027602203006
 30
0.0
 10
89.06763272743277
 20
153.7410030176941
 30
0.0
 10
87.94582441453619
 20
153.5887695997587
 30
0.0
 10
86.73229277876027
 20
153.4609942459547
 30
0.0
 10
85.46746234792955
 20
153.373145727949
 30
0.0
 10
84.19941897624099
 20
153.330757698253
 30
0.0
 10
82.9759116753072
 20
153.3344967338403
 30
0.0
 10
81.84241232963119
 20
153.3730853473688
 30
0.0
 10
80.85630770700247
 20
153.4375312808098
 30
0.0
 10
80.04767786455378
 20
153.5110400145155
 30
0.0
 10
79.42744932984003
 20
153.581010459845
 30
0.0
 10
79.10929614807098
 20
153.6195618525104
 30
0.0
 10
79.01363470241276
 20
153.6316329048099
 30
0.0
 10
78.99201587333255
 20
153.6343933256047
 30
0.0
 10
78.98917490619073
 20
153.6347217069526
 30
0.0
 10
78.98885453051223
 20
153.6347766442193
 30
0.0
 10
78.98889009066154
 20
153.6347705481635
 30
0.0
 10
78.98892138235216
 20
153.6347651838471
 30
0.0
  0
SPLINE
  5
E5
330
1F
100
AcDbEntity
  8
0
  6
Continuous
 62
     7
370
    25
100
AcDbSpline
210
0.0
220
0.0
230
1.0
 70
     8
 71
     3
 72
    20
 73
    16
 74
     0
 42
0.000000001
 43
0.00000001
 40
0.0
 40
0.0
 40
0.0
 40
0.0
 40
0.249999999999986
 40
0.249999999999986
 40
0.3749999999999789
 40
0.3749999999999789
 40
0.4374999999999789
 40
0.4374999999999789
 40
0.4999999999999789
 40
0.4999999999999789
 40
0.6249999999999835
 40
0.6249999999999835
 40
0.7499999999999879
 40
0.7499999999999879
 40
1.0
 40
1.0
 40
1.0
 40
1.0
 10
50.86041326344694
 20
86.0249796327032
 30
0.0
 10
50.88668548066035
 20
86.04429757378567
 30
0.0
 10
50.91736562291518
 20
86.05868628488744
 30
0.0
 10
50.98883649329711
 20
86.05178192305144
 30
0.0
 10
51.01686353034143
 20
86.04461591970302
 30
0.0
 10
51.07194711983895
 20
86.01491689299942
 30
0.0
 10
51.09283844839138
 20
86.00144325043809
 30
0.0
 10
51.13804709583683
 20
85.96624498492207
 30
0.0
 10
51.16245130823241
 20
85.94433675619482
 30
0.0
 10
51.23378362628387
 20
85.87221189619926
 30
0.0
 10
51.27568041110411
 20
85.8198713552492
 30
0.0
 10
51.34725636996
 20
85.72238796334847
 30
0.0
 10
51.37808435977731
 20
85.67563419347005
 30
0.0
 10
51.46118429261287
 20
85.54234097763093
 30
0.0
 10
51.50603919798318
 20
85.45970357971572
 30
0.0
 10
51.54615127343576
 20
85.38059668492494
 30
0.0
  0
SPLINE
  5
E6
330
1F
100
AcDbEntity
  8
0
  6
Continuous
 62
     7
370
    25
100
AcDbSpline
210
0.0
220
0.0
230
1.0
 70
     8
 71
     3
 72
    14
 73
    10
 74
     0
 42
0.000000001
 43
0.00000001
 40
0.0
 40
0.0
 40
0.0
 40
0.0
 40
0.2499999999999994
 40
0.2499999999999994
 40
0.4999999999999988
 40
0.4999999999999988
 40
0.7499999999999982
 40
0.7499999999999982
 40
1.0
 40
1.0
 40
1.0
 40
1.0
 10
50.56959903173095
 20
86.20079304283598
 30
0.0
 10
50.56959903173093
 20
86.15954611181165
 30
0.0
 10
50.57820874811218
 20
86.12263913952917
 30
0.0
 10
50.60929492768254
 20
86.06173907962975
 30
0.0
 10
50.63168448116659
 20
86.03755816009006
 30
0.0
 10
50.68642841234269
 20
86.00359056920678
 30
0.0
 10
50.71887865192789
 20
85.99367048523861
 30
0.0
 10
50.78888016665598
 20
85.99231927633376
 30
0.0
 10
50.82709066677849
 20
86.00047755302991
 30
0.0
 10
50.86041326345159
 20
86.024979632698
 30
0.0
  0
LINE
  5
E7
330
1F
100
AcDbEntity
  8
0
  6
Continuous
 62
     7
370
    25
100
AcDbLine
 10
50.5695999794
 20
86.2007932722
 30
0.0
 11
50.5695999794
 21
147.2061322986
 31
0.0
  0
SPLINE
  5
E8
330
1F
100
AcDbEntity
  8
0
  6
Continuous
 62
     7
370
    25
100
AcDbSpline
210
0.0
220
0.0
230
1.0
 70
     8
 71
     3
 72
     9
 73
     5
 74
     0
 42
0.000000001
 43
0.00000001
 40
0.0
 40
0.0
 40
0.0
 40
0.0
 40
0.0592942499244465
 40
1.0
 40
1.0
 40
1.0
 40
1.0
 10
50.8604147665942
 20
147.3819455116202
 30
0.0
 10
50.85553176889546
 20
147.385238651318
 30
0.0
 10
50.77317980888284
 20
147.440777589781
 30
0.0
 10
50.70704915446754
 20
147.3834853866683
 30
0.0
 10
50.64483966760282
 20
147.3295902817656
 30
0.0
  0
SPLINE
  5
E9
330
1F
100
AcDbEntity
  8
0
  6
Continuous
 62
     7
370
    25
100
AcDbSpline
210
0.0
220
0.0
230
1.0
 70
     8
 71
     3
 72
     8
 73
     4
 74
     0
 42
0.000000001
 43
0.00000001
 40
0.0
 40
0.0
 40
0.0
 40
0.0
 40
1.0
 40
1.0
 40
1.0
 40
1.0
 10
50.59323270066714
 20
147.3137120290415
 30
0.0
 10
50.5778836620311
 20
147.2832019740455
 30
0.0
 10
50.56959903173095
 20
147.2468904185332
 30
0.0
 10
50.56959903173095
 20
147.2061325279718
 30
0.0
  0
SPLINE
  5
EA
330
1F
100
AcDbEntity
  8
0
  6
Continuous
 62
     7
370
    25
100
AcDbSpline
210
0.0
220
0.0
230
1.0
 70
     8
 71
     3
 72
    20
 73
    16
 74
     0
 42
0.000000001
 43
0.00000001
 40
0.0
 40
0.0
 40
0.0
 40
0.0
 40
0.2500000000000037
 40
0.2500000000000037
 40
0.3750000000000055
 40
0.3750000000000055
 40
0.5000000000000073
 40
0.5000000000000073
 40
0.5625000000000057
 40
0.5625000000000057
 40
0.625000000000004
 40
0.625000000000004
 40
0.7500000000000027
 40
0.7500000000000027
 40
1.0
 40
1.0
 40
1.0
 40
1.0
 10
51.54615127343335
 20
148.0263288858821
 30
0.0
 10
51.50615505560951
 20
147.9474504793246
 30
0.0
 10
51.46104142777186
 20
147.8643208326331
 30
0.0
 10
51.37778721340533
 20
147.7308321682822
 30
0.0
 10
51.34756788478484
 20
147.6849671124002
 30
0.0
 10
51.27547964964341
 20
147.5867755599953
 30
0.0
 10
51.23356233223234
 20
147.5344657404717
 30
0.0
 10
51.16231172768086
 20
147.4624598377372
 30
0.0
 10
51.13807591530155
 20
147.4406896254356
 30
0.0
 10
51.09247772511691
 20
147.4052149671066
 30
0.0
 10
51.07167523551718
 20
147.3918447829291
 30
0.0
 10
51.01673423709807
 20
147.3622748707938
 30
0.0
 10
50.98866524901125
 20
147.3551483484919
 30
0.0
 10
50.91816241894842
 20
147.3482739770092
 30
0.0
 10
50.88673833115755
 20
147.3625891360963
 30
0.0
 10
50.86041326344895
 20
147.3819459381069
 30
0.0
  0
SPLINE
  5
EB
330
1F
100
AcDbEntity
  8
0
  6
Continuous
 62
     7
370
    25
100
AcDbSpline
210
0.0
220
0.0
230
1.0
 70
     8
 71
     3
 72
    10
 73
     6
 74
     0
 42
0.000000001
 43
0.00000001
 40
0.0
 40
0.0
 40
0.0
 40
0.0
 40
0.4999999999999989
 40
0.4999999999999989
 40
1.0
 40
1.0
 40
1.0
 40
1.0
 10
52.21959903173093
 20
148.9517479872239
 30
0.0
 10
52.09471076098074
 20
148.8207517091524
 30
0.0
 10
51.97326064292029
 20
148.6770388724874
 30
0.0
 10
51.74367666796287
 20
148.3664685797982
 30
0.0
 10
51.63340169256688
 20
148.1983995067351
 30
0.0
 10
51.54615127343336
 20
148.0263288858821
 30
0.0
  0
SPLINE
  5
EC
330
1F
100
AcDbEntity
  8
0
  6
Continuous
 62
     7
370
    25
100
AcDbSpline
210
0.0
220
0.0
230
1.0
 70
     8
 71
     3
 72
     8
 73
     4
 74
     0
 42
0.000000001
 43
0.00000001
 40
0.0
 40
0.0
 40
0.0
 40
0.0
 40
1.0
 40
1.0
 40
1.0
 40
1.0
 10
52.4695241476967
 20
148.9492949539685
 30
0.0
 10
52.38250611784834
 20
148.9497615187556
 30
0.0
 10
52.29955209146839
 20
148.9508015383317
 30
0.0
 10
52.21959903172863
 20
148.951747987224
 30
0.0
  0
SPLINE
  5
ED
330
1F
100
AcDbEntity
  8
0
  6
Continuous
 62
     7
370
    25
100
AcDbSpline
210
0.0
220
0.0
230
1.0
 70
     8
 71
     3
 72
     8
 73
     4
 74
     0
 42
0.000000001
 43
0.00000001
 40
0.0
 40
0.0
 40
0.0
 40
0.0
 40
1.0
 40
1.0
 40
1.0
 40
1.0
 10
52.21959903172863
 20
84.45517758358383
 30
0.0
 10
52.29955209146839
 20
84.4561240324761
 30
0.0
 10
52.38250611784834
 20
84.45716405205222
 30
0.0
 10
52.46952414769672
 20
84.45763061683928
 30
0.0
  0
SPLINE
  5
EE
330
1F
100
AcDbEntity
  8
0
  6
Continuous
 62
     7
370
    25
100
AcDbSpline
210
0.0
220
0.0
230
1.0
 70
     8
 71
     3
 72
    10
 73
     6
 74
     0
 42
0.000000001
 43
0.00000001
 40
0.0
 40
0.0
 40
0.0
 40
0.0
 40
0.4999999999999989
 40
0.4999999999999989
 40
1.0
 40
1.0
 40
1.0
 40
1.0
 10
51.54615127343243
 20
85.38059668492751
 30
0.0
 10
51.63340169256592
 20
85.20852606407414
 30
0.0
 10
51.74367666796206
 20
85.0404569910107
 30
0.0
 10
51.9732606429199
 20
84.72988669832088
 30
0.0
 10
52.09471076098055
 20
84.58617386165561
 30
0.0
 10
52.21959903173093
 20
84.45517758358389
 30
0.0
  0
SPLINE
  5
EF
330
1F
100
AcDbEntity
  8
0
  6
Continuous
 62
     7
370
    25
100
AcDbSpline
210
0.0
220
0.0
230
1.0
 70
     8
 71
     3
 72
    12
 73
     8
 74
     0
 42
0.000000001
 43
0.00000001
 40
0.0
 40
0.0
 40
0.0
 40
0.0
 40
0.5
 40
0.5
 40
0.75
 40
0.75
 40
1.0
 40
1.0
 40
1.0
 40
1.0
 10
129.4195990317309
 20
164.6722026062497
 30
0.0
 10
129.4195990317309
 20
164.9374720390161
 30
0.0
 10
129.3149922882444
 20
165.1999871446685
 30
0.0
 10
129.0383239364992
 20
165.4855247507058
 30
0.0
 10
128.9279586771472
 20
165.5618463675672
 30
0.0
 10
128.6838866285314
 20
165.6661885324073
 30
0.0
 10
128.5521341671997
 20
165.6932576410674
 30
0.0
 10
128.4195990317309
 20
165.6932576410675
 30
0.0
  0
SPLINE
  5
F0
330
1F
100
AcDbEntity
  8
0
  6
Continuous
 62
     7
370
    25
100
AcDbSpline
210
0.0
220
0.0
230
1.0
 70
     8
 71
     3
 72
    16
 73
    12
 74
     0
 42
0.000000001
 43
0.00000001
 40
0.0
 40
0.0
 40
0.0
 40
0.0
 40
0.125
 40
0.125
 40
0.25
 40
0.25
 40
0.5
 40
0.5
 40
0.75
 40
0.75
 40
1.0
 40
1.0
 40
1.0
 40
1.0
 10
128.4195990317299
 20
155.6544255462908
 30
0.0
 10
128.4952367381412
 20
155.654425546291
 30
0.0
 10
128.5715524025594
 20
155.6430805461561
 30
0.0
 10
128.7159631404515
 20
155.6004279955177
 30
0.0
 10
128.78440958956
 20
155.5694936708349
 30
0.0
 10
128.9793408421734
 20
155.4502372990674
 30
0.0
 10
129.0871820159544
 20
155.3400852854468
 30
0.0
 10
129.2558947641666
 20
155.0919491997887
 30
0.0
 10
129.3182591768902
 20
154.9516068757849
 30
0.0
 10
129.3995631013987
 20
154.6633351842962
 30
0.0
 10
129.4195990317309
 20
154.5125302113162
 30
0.0
 10
129.4195990317309
 20
154.3621603199709
 30
0.0
  0
LINE
  5
F1
330
1F
100
AcDbEntity
  8
0
  6
Continuous
 62
     7
370
    25
100
AcDbLine
 10
129.4195992135
 20
154.3621616422
 30
0.0
 11
129.4195992135
 21
164.6722042917
 31
0.0
  0
SPLINE
  5
F2
330
1F
100
AcDbEntity
  8
0
  6
Continuous
 62
     7
370
    25
100
AcDbSpline
210
0.0
220
0.0
230
1.0
 70
     8
 71
     3
 72
     8
 73
     4
 74
     0
 42
0.000000001
 43
0.00000001
 40
0.0
 40
0.0
 40
0.0
 40
0.0
 40
1.0
 40
1.0
 40
1.0
 40
1.0
 10
117.2075700108095
 20
155.6544255462908
 30
0.0
 10
117.6644963646091
 20
154.6385075766165
 30
0.0
 10
118.1157020064121
 20
153.6197117475254
 30
0.0
 10
118.5595990317309
 20
152.5989102915417
 30
0.0
  0
LINE
  5
F3
330
1F
100
AcDbEntity
  8
0
  6
Continuous
 62
     7
370
    25
100
AcDbLine
 10
118.5595994078
 20
152.5989109635
 30
0.0
 11
118.5595994078
 21
151.4176996409
 31
0.0
  0
SPLINE
  5
F4
330
1F
100
AcDbEntity
  8
0
  6
Continuous
 62
     7
370
    25
100
AcDbSpline
210
0.0
220
0.0
230
1.0
 70
     8
 71
     3
 72
    14
 73
    10
 74
     0
 42
0.000000001
 43
0.00000001
 40
0.0
 40
0.0
 40
0.0
 40
0.0
 40
0.25
 40
0.25
 40
0.5
 40
0.5
 40
0.75
 40
0.75
 40
1.0
 40
1.0
 40
1.0
 40
1.0
 10
118.5595990317309
 20
151.417697977901
 30
0.0
 10
118.5595990317309
 20
151.2938311011117
 30
0.0
 10
118.5754581593585
 20
151.1695714242742
 30
0.0
 10
118.6388198048784
 20
150.9319630618684
 30
0.0
 10
118.6874095129278
 20
150.8151826771159
 30
0.0
 10
118.8196951177026
 20
150.6063801485069
 30
0.0
 10
118.9050199089632
 20
150.5118694449143
 30
0.0
 10
119.1119111572694
 20
150.373912644112
 30
0.0
 10
119.2358791031594
 20
150.3319941984763
 30
0.0
 10
119.3595990317309
 20
150.3319941984763
 30
0.0
  0
LINE
  5
F5
330
1F
100
AcDbEntity
  8
0
  6
Continuous
 62
     7
370
    25
100
AcDbLine
 10
119.3595999115
 20
150.3319935857
 30
0.0
 11
121.5795991205
 21
150.3319935857
 31
0.0
  0
SPLINE
  5
F6
330
1F
100
AcDbEntity
  8
0
  6
Continuous
 62
     7
370
    25
100
AcDbSpline
210
0.0
220
0.0
230
1.0
 70
     8
 71
     3
 72
    12
 73
     8
 74
     0
 42
0.000000001
 43
0.00000001
 40
0.0
 40
0.0
 40
0.0
 40
0.0
 40
0.250000000000002
 40
0.250000000000002
 40
0.500000000000004
 40
0.500000000000004
 40
1.0
 40
1.0
 40
1.0
 40
1.0
 10
121.579599031733
 20
150.3319941984764
 30
0.0
 10
121.7032999817128
 20
150.3319941984768
 30
0.0
 10
121.8273965939827
 20
150.3739878102097
 30
0.0
 10
122.0340517570691
 20
150.5117831368543
 30
0.0
 10
122.1190925237957
 20
150.6057567353191
 30
0.0
 10
122.3185710922688
 20
150.9205449415398
 30
0.0
 10
122.3795990317309
 20
151.170783933767
 30
0.0
 10
122.3795990317309
 20
151.417697977901
 30
0.0
  0
LINE
  5
F7
330
1F
100
AcDbEntity
  8
0
  6
Continuous
 62
     7
370
    25
100
AcDbLine
 10
122.3795996242
 20
151.4176996409
 30
0.0
 11
122.3795996242
 21
152.5989109635
 31
0.0
  0
SPLINE
  5
F8
330
1F
100
AcDbEntity
  8
0
  6
Continuous
 62
     7
370
    25
100
AcDbSpline
210
0.0
220
0.0
230
1.0
 70
     8
 71
     3
 72
     8
 73
     4
 74
     0
 42
0.000000001
 43
0.00000001
 40
0.0
 40
0.0
 40
0.0
 40
0.0
 40
1.0
 40
1.0
 40
1.0
 40
1.0
 10
122.3795990317309
 20
152.5989102915417
 30
0.0
 10
122.8237490427564
 20
153.6202935224934
 30
0.0
 10
123.2748233530144
 20
154.6387780592617
 30
0.0
 10
123.7316280526523
 20
155.6544255462909
 30
0.0
  0
LINE
  5
F9
330
1F
100
AcDbEntity
  8
0
  6
Continuous
 62
     7
370
    25
100
AcDbLine
 10
123.7316285454
 20
155.6544238686
 30
0.0
 11
128.4195990496
 21
155.6544238686
 31
0.0
  0
LINE
  5
FA
330
1F
100
AcDbEntity
  8
0
  6
Continuous
 62
     7
370
    25
100
AcDbLine
 10
129.4195992135
 20
154.3621616422
 30
0.0
 11
129.4195992135
 21
148.0534644782
 31
0.0
  0
SPLINE
  5
FB
330
1F
100
AcDbEntity
  8
0
  6
Continuous
 62
     7
370
    25
100
AcDbSpline
210
0.0
220
0.0
230
1.0
 70
     8
 71
     3
 72
     8
 73
     4
 74
     0
 42
0.000000001
 43
0.00000001
 40
0.0
 40
0.0
 40
0.0
 40
0.0
 40
1.0
 40
1.0
 40
1.0
 40
1.0
 10
123.7316280526523
 20
165.6932576410674
 30
0.0
 10
123.2806010839391
 20
164.8959470708796
 30
0.0
 10
122.8299072674155
 20
164.0984487712224
 30
0.0
 10
122.3795990317309
 20
163.3007336461088
 30
0.0
  0
LINE
  5
FC
330
1F
100
AcDbEntity
  8
0
  6
Continuous
 62
     7
370
    25
100
AcDbLine
 10
123.7316285454
 20
155.6544238686
 30
0.0
 11
123.7316285454
 21
165.6932579338
 31
0.0
  0
LINE
  5
FD
330
1F
100
AcDbEntity
  8
0
  6
Continuous
 62
     7
370
    25
100
AcDbLine
 10
122.3795996242
 20
152.5989109635
 30
0.0
 11
122.3795996242
 21
163.3007349431
 31
0.0
  0
SPLINE
  5
FE
330
1F
100
AcDbEntity
  8
0
  6
Continuous
 62
     7
370
    25
100
AcDbSpline
210
0.0
220
0.0
230
1.0
 70
     8
 71
     3
 72
    10
 73
     6
 74
     0
 42
0.000000001
 43
0.00000001
 40
0.0
 40
0.0
 40
0.0
 40
0.0
 40
0.5
 40
0.5
 40
1.0
 40
1.0
 40
1.0
 40
1.0
 10
119.3595990317309
 20
161.5777385455763
 30
0.0
 10
119.1470627178746
 20
161.5777385455763
 30
0.0
 10
118.9371265462206
 20
161.6691511322065
 30
0.0
 10
118.6434194052093
 20
161.9738959981107
 30
0.0
 10
118.5595990317309
 20
162.1860509680193
 30
0.0
 10
118.5595990317309
 20
162.3970140262519
 30
0.0
  0
LINE
  5
FF
330
1F
100
AcDbEntity
  8
0
  6
Continuous
 62
     7
370
    25
100
AcDbLine
 10
128.4195990496
 20
165.6932579338
 30
0.0
 11
123.7316285454
 21
165.6932579338
 31
0.0
  0
SPLINE
  5
100
330
1F
100
AcDbEntity
  8
0
  6
Continuous
 62
     7
370
    25
100
AcDbSpline
210
0.0
220
0.0
230
1.0
 70
     8
 71
     3
 72
    14
 73
    10
 74
     0
 42
0.000000001
 43
0.00000001
 40
0.0
 40
0.0
 40
0.0
 40
0.0
 40
0.25
 40
0.25
 40
0.5
 40
0.5
 40
0.75
 40
0.75
 40
1.0
 40
1.0
 40
1.0
 40
1.0
 10
122.3795990317309
 20
162.3970140262519
 30
0.0
 10
122.3795990317309
 20
162.2906573324995
 30
0.0
 10
122.3592114755897
 20
162.1848168447394
 30
0.0
 10
122.2805771301281
 20
161.9882519312029
 30
0.0
 10
122.2218457704895
 20
161.8970811889158
 30
0.0
 10
122.0752368648868
 20
161.7451700998841
 30
0.0
 10
121.9858315448603
 20
161.6831012630646
 30
0.0
 10
121.7919408122599
 20
161.5998332153059
 30
0.0
 10
121.68543582237
 20
161.5777385455763
 30
0.0
 10
121.5795990317307
 20
161.5777385455763
 30
0.0
  0
SPLINE
  5
101
330
1F
100
AcDbEntity
  8
0
  6
Continuous
 62
     7
370
    25
100
AcDbSpline
210
0.0
220
0.0
230
1.0
 70
     8
 71
     3
 72
     8
 73
     4
 74
     0
 42
0.000000001
 43
0.00000001
 40
0.0
 40
0.0
 40
0.0
 40
0.0
 40
1.0
 40
1.0
 40
1.0
 40
1.0
 10
118.5595990317309
 20
163.3007336461088
 30
0.0
 10
118.1092907960464
 20
164.0984487712224
 30
0.0
 10
117.6585969795228
 20
164.8959470708796
 30
0.0
 10
117.2075700108095
 20
165.6932576410674
 30
0.0
  0
LINE
  5
102
330
1F
100
AcDbEntity
  8
0
  6
Continuous
 62
     7
370
    25
100
AcDbLine
 10
118.5595994078
 20
152.5989109635
 30
0.0
 11
118.5595994078
 21
163.3007349431
 31
0.0
  0
LINE
  5
103
330
1F
100
AcDbEntity
  8
0
  6
Continuous
 62
     7
370
    25
100
AcDbLine
 10
121.5795991205
 20
161.5777397513
 30
0.0
 11
119.3595999115
 21
161.5777397513
 31
0.0
  0
ARC
  5
104
330
1F
100
AcDbEntity
  8
0
  6
Continuous
 62
     7
370
    25
100
AcDbCircle
 10
109.470896893
 20
149.2437848456
 30
0.0
 40
11.47492799206251
100
AcDbArc
 50
78.0803124965
 51
102.2586941356
  0
SPLINE
  5
105
330
1F
100
AcDbEntity
  8
0
  6
Continuous
 62
     7
370
    25
100
AcDbSpline
210
0.0
220
0.0
230
1.0
 70
    11
 71
     3
 72
    72
 73
    68
 74
     0
 42
0.000000001
 43
0.00000001
 40
0.0
 40
0.0
 40
0.0
 40
0.0
 40
0.0312500000000002
 40
0.0312500000000002
 40
0.0625000000000004
 40
0.0625000000000004
 40
0.0937500000000006
 40
0.0937500000000006
 40
0.1250000000000009
 40
0.1250000000000009
 40
0.1562500000000011
 40
0.1562500000000011
 40
0.1875000000000013
 40
0.1875000000000013
 40
0.2187500000000015
 40
0.2187500000000015
 40
0.2500000000000017
 40
0.2500000000000017
 40
0.2812500000000019
 40
0.2812500000000019
 40
0.3125000000000021
 40
0.3125000000000021
 40
0.3437500000000023
 40
0.3437500000000023
 40
0.3750000000000025
 40
0.3750000000000025
 40
0.4062500000000027
 40
0.4062500000000027
 40
0.4375000000000029
 40
0.4375000000000029
 40
0.4687500000000032
 40
0.4687500000000032
 40
0.5000000000000033
 40
0.5000000000000033
 40
0.5312500000000036
 40
0.5312500000000036
 40
0.5625000000000038
 40
0.5625000000000038
 40
0.593750000000004
 40
0.593750000000004
 40
0.6250000000000042
 40
0.6250000000000042
 40
0.6562500000000044
 40
0.6562500000000044
 40
0.6875000000000047
 40
0.6875000000000047
 40
0.7031250000000044
 40
0.7031250000000044
 40
0.7187500000000042
 40
0.7187500000000042
 40
0.7500000000000036
 40
0.7500000000000036
 40
0.7812500000000031
 40
0.7812500000000031
 40
0.8125000000000027
 40
0.8125000000000027
 40
0.8437500000000022
 40
0.8437500000000022
 40
0.8750000000000018
 40
0.8750000000000018
 40
0.9062500000000013
 40
0.9062500000000013
 40
0.9375000000000009
 40
0.9375000000000009
 40
0.9687500000000004
 40
0.9687500000000004
 40
1.0
 40
1.0
 40
1.0
 40
1.0
 10
188.1695990317309
 20
120.6453841944379
 30
0.0
 10
187.8945232731325
 20
120.6453841944379
 30
0.0
 10
187.6232972538762
 20
120.6224388612467
 30
0.0
 10
187.0883063656259
 20
120.5319769104936
 30
0.0
 10
186.8231877071435
 20
120.4639862983912
 30
0.0
 10
186.3068803647949
 20
120.281864253022
 30
0.0
 10
186.0603803233403
 20
120.1696505994545
 30
0.0
 10
185.5907986458211
 20
119.9023089300611
 30
0.0
 10
185.3656580871268
 20
119.7454014574248
 30
0.0
 10
184.9515822533697
 20
119.3917245533285
 30
0.0
 10
184.7646138332776
 20
119.1973776085079
 30
0.0
 10
184.431926583591
 20
118.7722988463502
 30
0.0
 10
184.2847001699059
 20
118.538021595306
 30
0.0
 10
184.0474662268194
 20
118.048589934203
 30
0.0
 10
183.9564505855571
 20
117.7937742268584
 30
0.0
 10
183.8317751136658
 20
117.2630242961463
 30
0.0
 10
183.799238695252
 20
116.9869162884187
 30
0.0
 10
183.7974801694861
 20
116.4432586656088
 30
0.0
 10
183.8277443532432
 20
116.1693397993438
 30
0.0
 10
183.9496448227262
 20
115.6345394247955
 30
0.0
 10
184.0396074386113
 20
115.3780711317234
 30
0.0
 10
184.274893868711
 20
114.8858663520719
 30
0.0
 10
184.4206090728834
 20
114.6512565903069
 30
0.0
 10
184.7528681523649
 20
114.2225313017521
 30
0.0
 10
184.9425344028809
 20
114.0239881755691
 30
0.0
 10
185.3563804121529
 20
113.6684352571226
 30
0.0
 10
185.5782602978757
 20
113.5127025805319
 30
0.0
 10
186.0501345321345
 20
113.2422051031133
 30
0.0
 10
186.3015336393795
 20
113.1274311705661
 30
0.0
 10
186.8139495193789
 20
112.9457276698378
 30
0.0
 10
187.0769841970038
 20
112.8773962475354
 30
0.0
 10
187.616592051382
 20
112.7851048962951
 30
0.0
 10
187.8912334157804
 20
112.7619135330843
 30
0.0
 10
188.4347013272391
 20
112.7611781926343
 30
0.0
 10
188.7057596564403
 20
112.7832014715612
 30
0.0
 10
189.2464752813972
 20
112.8737837621386
 30
0.0
 10
189.5121989626344
 20
112.9420254520424
 30
0.0
 10
190.0230643324559
 20
113.1213775567244
 30
0.0
 10
190.2700302755686
 20
113.2327446331085
 30
0.0
 10
190.7457312281028
 20
113.502636309402
 30
0.0
 10
190.9697673141084
 20
113.6589175119473
 30
0.0
 10
191.3804870292127
 20
114.0085124512168
 30
0.0
 10
191.5687833746981
 20
114.2026527076549
 30
0.0
 10
191.9074764395862
 20
114.6343805028637
 30
0.0
 10
192.0518225745765
 20
114.8644963621374
 30
0.0
 10
192.2294033169653
 20
115.2292115262783
 30
0.0
 10
192.282144915633
 20
115.3541719850304
 30
0.0
 10
192.3741147749742
 20
115.6112159380119
 30
0.0
 10
192.4134684067843
 20
115.7441328978465
 30
0.0
 10
192.5074844717802
 20
116.1437639001197
 30
0.0
 10
192.5395592829436
 20
116.4136037206367
 30
0.0
 10
192.5420791942414
 20
116.9601845574847
 30
0.0
 10
192.5114302168723
 20
117.2366882855193
 30
0.0
 10
192.3908862670878
 20
117.7675276719125
 30
0.0
 10
192.2998709787759
 20
118.0283003486349
 30
0.0
 10
192.0638586574901
 20
118.5219588399103
 30
0.0
 10
191.9206812241186
 20
118.7527465157633
 30
0.0
 10
191.5866401036002
 20
119.1842152050769
 30
0.0
 10
191.3961613919205
 20
119.3832919146264
 30
0.0
 10
190.9846812249664
 20
119.736965984287
 30
0.0
 10
190.7602746365852
 20
119.8947725333563
 30
0.0
 10
190.2855720286878
 20
120.1665510387369
 30
0.0
 10
190.0383591423779
 20
120.2792225332367
 30
0.0
 10
189.5253315769885
 20
120.4611939374832
 30
0.0
 10
189.2574225489185
 20
120.530624086974
 30
0.0
 10
188.7178507093336
 20
120.6223537939334
 30
0.0
 10
188.4446747903293
 20
120.6453841944379
 30
0.0
 10
188.1695990317309
 20
120.6453841944379
 30
0.0
  0
SPLINE
  5
106
330
1F
100
AcDbEntity
  8
0
  6
Continuous
 62
     7
370
    25
100
AcDbSpline
210
0.0
220
0.0
230
1.0
 70
    11
 71
     3
 72
    62
 73
    58
 74
     0
 42
0.000000001
 43
0.00000001
 40
0.0
 40
0.0
 40
0.0
 40
0.0
 40
0.0312499999999996
 40
0.0312499999999996
 40
0.0624999999999993
 40
0.0624999999999993
 40
0.0937499999999989
 40
0.0937499999999989
 40
0.1249999999999985
 40
0.1249999999999985
 40
0.1562499999999982
 40
0.1562499999999982
 40
0.1874999999999978
 40
0.1874999999999978
 40
0.2187499999999974
 40
0.2187499999999974
 40
0.2499999999999971
 40
0.2499999999999971
 40
0.2812499999999967
 40
0.2812499999999967
 40
0.3124999999999963
 40
0.3124999999999963
 40
0.3437499999999959
 40
0.3437499999999959
 40
0.3749999999999956
 40
0.3749999999999956
 40
0.4062499999999952
 40
0.4062499999999952
 40
0.4374999999999948
 40
0.4374999999999948
 40
0.4687499999999945
 40
0.4687499999999945
 40
0.4999999999999941
 40
0.4999999999999941
 40
0.5312499999999938
 40
0.5312499999999938
 40
0.5624999999999933
 40
0.5624999999999933
 40
0.6249999999999944
 40
0.6249999999999944
 40
0.6874999999999954
 40
0.6874999999999954
 40
0.7499999999999964
 40
0.7499999999999964
 40
0.8124999999999976
 40
0.8124999999999976
 40
0.843749999999998
 40
0.843749999999998
 40
0.8749999999999983
 40
0.8749999999999983
 40
0.9062499999999988
 40
0.9062499999999988
 40
0.9374999999999992
 40
0.9374999999999992
 40
0.9687499999999996
 40
0.9687499999999996
 40
1.0
 40
1.0
 40
1.0
 40
1.0
 10
166.7130961169089
 20
131.4384136105054
 30
0.0
 10
166.8609372733755
 20
131.5388489804001
 30
0.0
 10
167.021979488489
 20
131.626832604225
 30
0.0
 10
167.3676103543062
 20
131.7819592119647
 30
0.0
 10
167.553858858153
 20
131.8495072854115
 30
0.0
 10
167.9421162611363
 20
131.9626254934319
 30
0.0
 10
168.1424301738789
 20
132.0079540431018
 30
0.0
 10
168.5548436447851
 20
132.0781696842937
 30
0.0
 10
168.768813202739
 20
132.1030758500951
 30
0.0
 10
169.1959002278821
 20
132.1313798967084
 30
0.0
 10
169.4097512793072
 20
132.1350971503804
 30
0.0
 10
169.8380631933313
 20
132.1219280764267
 30
0.0
 10
170.0543343850101
 20
132.1046990709615
 30
0.0
 10
170.473391391037
 20
132.049685465044
 30
0.0
 10
170.6773143680514
 20
132.0120549465384
 30
0.0
 10
171.0737435449925
 20
131.9153396849373
 30
0.0
 10
171.2680869988134
 20
131.8554384393208
 30
0.0
 10
171.6307277555445
 20
131.7156690609431
 30
0.0
 10
171.80003947283
 20
131.6358533650742
 30
0.0
 10
172.1132901779304
 20
131.4538210230062
 30
0.0
 10
172.2586960716512
 20
131.350042325823
 30
0.0
 10
172.5081663713825
 20
131.1252293743499
 30
0.0
 10
172.6135458204571
 20
131.0039813858701
 30
0.0
 10
172.782323721829
 20
130.7410794617746
 30
0.0
 10
172.8452000688204
 20
130.5982734700149
 30
0.0
 10
172.9174517276346
 20
130.3068853193289
 30
0.0
 10
172.928376954954
 20
130.1557172215547
 30
0.0
 10
172.8966760307493
 20
129.8460215941492
 30
0.0
 10
172.8548501187022
 20
129.6929018221666
 30
0.0
 10
172.7224943217017
 20
129.3903700358061
 30
0.0
 10
172.6312442776521
 20
129.2411595892653
 30
0.0
 10
172.410876294604
 20
128.961181005441
 30
0.0
 10
172.2794943994454
 20
128.8272571478661
 30
0.0
 10
171.9863214232379
 20
128.5811611459312
 30
0.0
 10
171.8255153460341
 20
128.4692570135066
 30
0.0
 10
171.4774657747046
 20
128.2672805612888
 30
0.0
 10
171.2905697816174
 20
128.1778313086201
 30
0.0
 10
170.711435748009
 20
127.9516887115823
 30
0.0
 10
170.288510654727
 20
127.8529459492209
 30
0.0
 10
169.4366072346072
 20
127.7735749896234
 30
0.0
 10
168.9970640828413
 20
127.7921880494828
 30
0.0
 10
168.1611415475783
 20
127.9425918538767
 30
0.0
 10
167.7526905740898
 20
128.0766538682714
 30
0.0
 10
167.0300803562193
 20
128.4397504888128
 30
0.0
 10
166.7042201245395
 20
128.6751173972536
 30
0.0
 10
166.3316014475923
 20
129.0739061647861
 30
0.0
 10
166.2242150734599
 20
129.2166441829455
 30
0.0
 10
166.0543803286679
 20
129.5141437104719
 30
0.0
 10
165.9935808622616
 20
129.6652162196535
 30
0.0
 10
165.9214830643507
 20
129.9714334294017
 30
0.0
 10
165.9109444040492
 20
130.1283060666229
 30
0.0
 10
165.9431870018448
 20
130.4285723559114
 30
0.0
 10
165.9854200964006
 20
130.5747705675643
 30
0.0
 10
166.1199258934962
 20
130.8540594229631
 30
0.0
 10
166.2101296393019
 20
130.9837079425354
 30
0.0
 10
166.4324894444505
 20
131.2257542546654
 30
0.0
 10
166.5652549604424
 20
131.3379782406107
 30
0.0
 10
166.7130961169089
 20
131.4384136105054
 30
0.0
  0
SPLINE
  5
107
330
1F
100
AcDbEntity
  8
0
  6
Continuous
 62
     7
370
    25
100
AcDbSpline
210
0.0
220
0.0
230
1.0
 70
    11
 71
     3
 72
    70
 73
    66
 74
     0
 42
0.000000001
 43
0.00000001
 40
0.0
 40
0.0
 40
0.0
 40
0.0
 40
0.03125
 40
0.03125
 40
0.0625
 40
0.0625
 40
0.09375
 40
0.09375
 40
0.125
 40
0.125
 40
0.15625
 40
0.15625
 40
0.1875
 40
0.1875
 40
0.21875
 40
0.21875
 40
0.25
 40
0.25
 40
0.28125
 40
0.28125
 40
0.3125
 40
0.3125
 40
0.34375
 40
0.34375
 40
0.375
 40
0.375
 40
0.40625
 40
0.40625
 40
0.4375
 40
0.4375
 40
0.46875
 40
0.46875
 40
0.5
 40
0.5
 40
0.53125
 40
0.53125
 40
0.5625
 40
0.5625
 40
0.59375
 40
0.59375
 40
0.625
 40
0.625
 40
0.65625
 40
0.65625
 40
0.6875
 40
0.6875
 40
0.71875
 40
0.71875
 40
0.75
 40
0.75
 40
0.78125
 40
0.78125
 40
0.8125
 40
0.8125
 40
0.84375
 40
0.84375
 40
0.875
 40
0.875
 40
0.90625
 40
0.90625
 40
0.9375
 40
0.9375
 40
0.96875
 40
0.96875
 40
1.0
 40
1.0
 40
1.0
 40
1.0
 10
165.9319446007552
 20
103.4504907269032
 30
0.0
 10
165.9528854670301
 20
103.6056674151263
 30
0.0
 10
165.999581232917
 20
103.7581947216013
 30
0.0
 10
166.140233296673
 20
104.0578799864784
 30
0.0
 10
166.2356234624632
 20
104.2061192756651
 30
0.0
 10
166.4632131492112
 20
104.4831850332347
 30
0.0
 10
166.5966258302705
 20
104.6143048549161
 30
0.0
 10
166.8961394093903
 20
104.8572975068886
 30
0.0
 10
167.059274801017
 20
104.9670131230575
 30
0.0
 10
167.4099687197387
 20
105.163851652171
 30
0.0
 10
167.598908170444
 20
105.2512335455865
 30
0.0
 10
167.9878706389715
 20
105.3973336038405
 30
0.0
 10
168.189138242925
 20
105.4569410966349
 30
0.0
 10
168.6049866571008
 20
105.5490862726679
 30
0.0
 10
168.8188751928012
 20
105.5811487607646
 30
0.0
 10
169.2451210543536
 20
105.6158448604029
 30
0.0
 10
169.4592848267443
 20
105.6189251170103
 30
0.0
 10
169.8897353630106
 20
105.5959471881038
 30
0.0
 10
170.1045094708315
 20
105.5696888628747
 30
0.0
 10
170.5207926343184
 20
105.4898472547107
 30
0.0
 10
170.7241357062665
 20
105.4362105054541
 30
0.0
 10
171.1207451709515
 20
105.3007847267371
 30
0.0
 10
171.3128135009132
 20
105.2190373435
 30
0.0
 10
171.6705661443725
 20
105.0336253583836
 30
0.0
 10
171.8382768626557
 20
104.9293525979085
 30
0.0
 10
172.1492372278204
 20
104.6966123082266
 30
0.0
 10
172.2911242288557
 20
104.5685355996679
 30
0.0
 10
172.5336624065992
 20
104.3002541913553
 30
0.0
 10
172.6363337757602
 20
104.158693231717
 30
0.0
 10
172.7995129254685
 20
103.8598183858681
 30
0.0
 10
172.8572485805068
 20
103.7067345118525
 30
0.0
 10
172.921493346153
 20
103.4013362956703
 30
0.0
 10
172.9281461773447
 20
103.2455679133554
 30
0.0
 10
172.8882381458865
 20
102.9458699989462
 30
0.0
 10
172.8427111978667
 20
102.8019523343387
 30
0.0
 10
172.7016424306749
 20
102.5251649483776
 30
0.0
 10
172.6078184129119
 20
102.3961415618526
 30
0.0
 10
172.3808148398893
 20
102.1578577772875
 30
0.0
 10
172.2459359059563
 20
102.0474325997257
 30
0.0
 10
171.9487937314805
 20
101.8510839285054
 30
0.0
 10
171.7855216421527
 20
101.763874590975
 30
0.0
 10
171.4314867724079
 20
101.6094127625415
 30
0.0
 10
171.2453985127888
 20
101.5441670345316
 30
0.0
 10
170.8565404094383
 20
101.4344773460923
 30
0.0
 10
170.6518899093304
 20
101.3898065780924
 30
0.0
 10
170.2357222920613
 20
101.3223871474848
 30
0.0
 10
170.0247888370888
 20
101.299484103006
 30
0.0
 10
169.5973807627851
 20
101.2741690685415
 30
0.0
 10
169.3789320514679
 20
101.2719140656069
 30
0.0
 10
168.9491809998247
 20
101.2884594125496
 30
0.0
 10
168.7373418306596
 20
101.3070107194044
 30
0.0
 10
168.3197388763132
 20
101.3651085434785
 30
0.0
 10
168.1119995084286
 20
101.4052298568941
 30
0.0
 10
167.7159319803825
 20
101.5059957992878
 30
0.0
 10
167.5270751709175
 20
101.5664334660356
 30
0.0
 10
167.1683126759795
 20
101.709295260997
 30
0.0
 10
166.9965608894143
 20
101.7929223180038
 30
0.0
 10
166.686421903315
 20
101.9798297866805
 30
0.0
 10
166.5475023389428
 20
102.0828301269904
 30
0.0
 10
166.3042185488028
 20
102.3106966700044
 30
0.0
 10
166.1990079480168
 20
102.4375530782185
 30
0.0
 10
166.0382556039426
 20
102.7039330896676
 30
0.0
 10
165.9811597323458
 20
102.844113462477
 30
0.0
 10
165.9170172142856
 20
103.1402199281351
 30
0.0
 10
165.9110037344804
 20
103.29531403868
 30
0.0
 10
165.9319446007552
 20
103.4504907269032
 30
0.0
  0
LINE
  5
108
330
1F
100
AcDbEntity
  8
0
  6
Continuous
 62
     7
370
    25
100
AcDbLine
 10
200.4696005218
 20
98.5034620374
 30
0.0
 11
200.4696005218
 21
134.9034523576
 31
0.0
  0
LINE
  5
109
330
1F
100
AcDbEntity
  8
0
  6
Continuous
 62
     7
370
    25
100
AcDbLine
 10
52.2195981079
 20
84.4534644841
 30
0.0
 11
52.2195981079
 21
84.4551781177
 31
0.0
  0
LINE
  5
10A
330
1F
100
AcDbEntity
  8
0
  6
Continuous
 62
     7
370
    25
100
AcDbLine
 10
52.2195981079
 20
148.9534610867
 30
0.0
 11
52.2195981079
 21
148.9517474531
 31
0.0
  0
LWPOLYLINE
  5
10B
330
1F
100
AcDbEntity
  8
0
  6
Continuous
 62
     7
370
    25
100
AcDbPolyline
 90
       21
 70
   128
 43
0.0
 10
169.4195964568
 20
127.9624765723
 10
170.1921397083
 20
128.0489973708
 10
170.8890595668
 20
128.3000893875
 10
171.4421385162
 20
128.691175951
 10
171.7972406381
 20
129.1839731841
 10
171.9196015232
 20
129.7302432343
 10
171.7972406381
 20
130.2765132844
 10
171.4421385162
 20
130.7693105175
 10
170.8890595668
 20
131.160397081
 10
170.1921397083
 20
131.411490029
 10
169.4195964568
 20
131.4980098962
 10
168.6470532053
 20
131.411490029
 10
167.9501333468
 20
131.160397081
 10
167.3970543974
 20
130.7693105175
 10
167.0419597261
 20
130.2765132844
 10
166.919598841
 20
129.7302432343
 10
167.0419597261
 20
129.1839731841
 10
167.3970543974
 20
128.691175951
 10
167.9501333468
 20
128.3000893875
 10
168.6470532053
 20
128.0489973708
 10
169.4195964568
 20
127.9624765723
  0
LWPOLYLINE
  5
10C
330
1F
100
AcDbEntity
  8
0
  6
Continuous
 62
     7
370
    25
100
AcDbPolyline
 90
       21
 70
   128
 43
0.0
 10
169.4195964568
 20
101.9089156746
 10
170.1921397083
 20
101.9954355418
 10
170.8890595668
 20
102.2465284898
 10
171.4421385162
 20
102.6376150533
 10
171.7972406381
 20
103.1304122864
 10
171.9196015232
 20
103.6766823365
 10
171.7972406381
 20
104.2229523867
 10
171.4421385162
 20
104.7157496198
 10
170.8890595668
 20
105.1068361833
 10
170.1921397083
 20
105.3579282
 10
169.4195964568
 20
105.4444489985
 10
168.6470532053
 20
105.3579282
 10
167.9501333468
 20
105.1068361833
 10
167.3970543974
 20
104.7157496198
 10
167.0419597261
 20
104.2229523867
 10
166.919598841
 20
103.6766823365
 10
167.0419597261
 20
103.1304122864
 10
167.3970543974
 20
102.6376150533
 10
167.9501333468
 20
102.2465284898
 10
168.6470532053
 20
101.9954355418
 10
169.4195964568
 20
101.9089156746
  0
LINE
  5
10D
330
1F
100
AcDbEntity
  8
0
  6
Continuous
 62
     7
370
    25
100
AcDbLine
 10
202.4695971244
 20
108.7034624054
 30
0.0
 11
202.4695971244
 21
124.7034631654
 31
0.0
  0
LINE
  5
10E
330
1F
100
AcDbEntity
  8
0
  6
Continuous
 62
     7
370
    25
100
AcDbLine
 10
217.4695977204
 20
112.1242381617
 30
0.0
 11
217.4695977204
 21
123.9034626617
 31
0.0
  0
SPLINE
  5
10F
330
1F
100
AcDbEntity
  8
0
  6
Continuous
 62
     7
370
    25
100
AcDbSpline
210
0.0
220
0.0
230
1.0
 70
     8
 71
     3
 72
    14
 73
    10
 74
     0
 42
0.000000001
 43
0.00000001
 40
0.0
 40
0.0
 40
0.0
 40
0.0
 40
0.25
 40
0.25
 40
0.5
 40
0.5
 40
0.75
 40
0.75
 40
1.0
 40
1.0
 40
1.0
 40
1.0
 10
217.469599031731
 20
112.1242380535758
 30
0.0
 10
217.469599031731
 20
112.004236304008
 30
0.0
 10
217.4637100111244
 20
111.888477238384
 30
0.0
 10
217.4539606686486
 20
111.6733171200836
 30
0.0
 10
217.4502208960942
 20
111.574407122131
 30
0.0
 10
217.4502266707529
 20
111.4024679821579
 30
0.0
 10
217.454010997687
 20
111.3283837283582
 30
0.0
 10
217.4637023162473
 20
111.2136303626293
 30
0.0
 10
217.469599031731
 20
111.1713952838372
 30
0.0
 10
217.469599031731
 20
111.1473219614674
 30
0.0
  0
LINE
  5
110
330
1F
100
AcDbEntity
  8
0
  6
Continuous
 62
     7
370
    25
100
AcDbLine
 10
217.4695977204
 20
109.5034629091
 30
0.0
 11
217.4695977204
 21
111.1473217591
 31
0.0
  0
LINE
  5
111
330
1F
100
AcDbEntity
  8
0
  6
Continuous
 62
     7
370
    25
100
AcDbLine
 10
217.4695977204
 20
111.1473217591
 30
0.0
 11
217.4695977204
 21
112.1242381617
 31
0.0
  0
LINE
  5
112
330
1F
100
AcDbEntity
  8
0
  6
HIDDEN
 62
     7
370
    18
100
AcDbLine
 10
222.4696004026
 20
119.9534628525
 30
0.0
 11
222.4696004026
 21
123.2034629195
 31
0.0
  0
LINE
  5
113
330
1F
100
AcDbEntity
  8
0
  6
HIDDEN
 62
     7
370
    18
100
AcDbLine
 10
222.4696004026
 20
110.2034626513
 30
0.0
 11
222.4696004026
 21
119.9534628525
 31
0.0
  0
LINE
  5
114
330
1F
100
AcDbEntity
  8
0
  6
HIDDEN
 62
     7
370
    18
100
AcDbLine
 10
230.4695942634
 20
119.7534627265
 30
0.0
 11
230.4695942634
 21
122.8034626677
 31
0.0
  0
LINE
  5
115
330
1F
100
AcDbEntity
  8
0
  6
HIDDEN
 62
     7
370
    18
100
AcDbLine
 10
230.4695942634
 20
110.6034629031
 30
0.0
 11
230.4695942634
 21
119.7534627265
 31
0.0
  0
LINE
  5
116
330
1F
100
AcDbEntity
  8
0
  6
HIDDEN
 62
     7
370
    18
100
AcDbLine
 10
222.4696004026
 20
121.1034627616
 30
0.0
 11
222.4696004026
 21
112.3332139089
 31
0.0
  0
LINE
  5
117
330
1F
100
AcDbEntity
  8
0
  6
HIDDEN
 62
     7
370
    18
100
AcDbLine
 10
198.1600993507
 20
112.7034625954
 30
0.0
 11
198.1600993507
 21
120.7034629754
 31
0.0
  0
LINE
  5
118
330
1F
100
AcDbEntity
  8
0
  6
HIDDEN
 62
     7
370
    18
100
AcDbLine
 10
197.4696018928
 20
113.3939628474
 30
0.0
 11
197.4696018928
 21
120.0129627234
 31
0.0
  0
LINE
  5
119
330
1F
100
AcDbEntity
  8
0
  6
HIDDEN
 62
     7
370
    18
100
AcDbLine
 10
230.4695942634
 20
119.7509628239
 30
0.0
 11
230.4695942634
 21
116.7034627854
 31
0.0
  0
LINE
  5
11A
330
1F
100
AcDbEntity
  8
0
  6
HIDDEN
 62
     7
370
    18
100
AcDbLine
 10
226.4696010583
 20
115.1797127661
 30
0.0
 11
226.4696010583
 21
118.2272128047
 31
0.0
  0
LINE
  5
11B
330
1F
100
AcDbEntity
  8
0
  6
HIDDEN
 62
     7
370
    18
100
AcDbLine
 10
226.4696010583
 20
113.6559627469
 30
0.0
 11
226.4696010583
 21
115.1797127661
 31
0.0
  0
LINE
  5
11C
330
1F
100
AcDbEntity
  8
0
  6
HIDDEN
 62
     7
370
    18
100
AcDbLine
 10
226.4696010583
 20
115.1797127661
 30
0.0
 11
226.4696010583
 21
113.6559627469
 31
0.0
  0
LINE
  5
11D
330
1F
100
AcDbEntity
  8
0
  6
HIDDEN
 62
     7
370
    18
100
AcDbLine
 10
226.4696010583
 20
118.2272128047
 30
0.0
 11
226.4696010583
 21
115.1797127661
 31
0.0
  0
LINE
  5
11E
330
1F
100
AcDbEntity
  8
0
  6
HIDDEN
 62
     7
370
    18
100
AcDbLine
 10
226.4696010583
 20
119.7509628239
 30
0.0
 11
226.4696010583
 21
118.2272128047
 31
0.0
  0
LINE
  5
11F
330
1F
100
AcDbEntity
  8
0
  6
HIDDEN
 62
     7
370
    18
100
AcDbLine
 10
226.4696010583
 20
118.2272128047
 30
0.0
 11
226.4696010583
 21
119.7509628239
 31
0.0
  0
LINE
  5
120
330
1F
100
AcDbEntity
  8
0
  6
HIDDEN
 62
     7
370
    18
100
AcDbLine
 10
226.4696010583
 20
118.2272128047
 30
0.0
 11
226.4696010583
 21
116.7034627854
 31
0.0
  0
LINE
  5
121
330
1F
100
AcDbEntity
  8
0
  6
HIDDEN
 62
     7
370
    18
100
AcDbLine
 10
226.4696010583
 20
116.7034627854
 30
0.0
 11
226.4696010583
 21
115.1797127661
 31
0.0
  0
LINE
  5
122
330
1F
100
AcDbEntity
  8
0
  6
HIDDEN
 62
     7
370
    18
100
AcDbLine
 10
226.4696010583
 20
116.7034627854
 30
0.0
 11
230.4695942634
 21
116.7034627854
 31
0.0
  0
LINE
  5
123
330
1F
100
AcDbEntity
  8
0
  6
HIDDEN
 62
     7
370
    18
100
AcDbLine
 10
230.4695942634
 20
116.7034627854
 30
0.0
 11
230.4695942634
 21
113.6559627469
 31
0.0
  0
LINE
  5
124
330
1F
100
AcDbEntity
  8
0
  6
HIDDEN
 62
     7
370
    18
100
AcDbLine
 10
226.4696010583
 20
119.7509628239
 30
0.0
 11
226.4696010583
 21
118.2272128047
 31
0.0
  0
LINE
  5
125
330
1F
100
AcDbEntity
  8
0
  6
HIDDEN
 62
     7
370
    18
100
AcDbLine
 10
226.4696010583
 20
115.1797127661
 30
0.0
 11
226.4696010583
 21
113.6559627469
 31
0.0
  0
LINE
  5
126
330
1F
100
AcDbEntity
  8
0
  6
HIDDEN
 62
     7
370
    18
100
AcDbLine
 10
226.4696010583
 20
113.6559627469
 30
0.0
 11
230.4695942634
 21
113.6559627469
 31
0.0
  0
LINE
  5
127
330
1F
100
AcDbEntity
  8
0
  6
HIDDEN
 62
     7
370
    18
100
AcDbLine
 10
226.4696010583
 20
119.7509628239
 30
0.0
 11
230.4695942634
 21
119.7509628239
 31
0.0
  0
LINE
  5
128
330
1F
100
AcDbEntity
  8
0
  6
HIDDEN
 62
     7
370
    18
100
AcDbLine
 10
217.4695977204
 20
120.7034629754
 30
0.0
 11
198.1600993507
 21
120.7034629754
 31
0.0
  0
LINE
  5
129
330
1F
100
AcDbEntity
  8
0
  6
HIDDEN
 62
     7
370
    18
100
AcDbLine
 10
198.1600993507
 20
112.7034625954
 30
0.0
 11
217.4695977204
 21
112.7034625954
 31
0.0
  0
LINE
  5
12A
330
1F
100
AcDbEntity
  8
0
  6
HIDDEN
 62
     7
370
    18
100
AcDbLine
 10
198.1600993507
 20
120.7034629754
 30
0.0
 11
197.4696018928
 21
120.0129627234
 31
0.0
  0
LINE
  5
12B
330
1F
100
AcDbEntity
  8
0
  6
HIDDEN
 62
     7
370
    18
100
AcDbLine
 10
197.4696018928
 20
113.3939628474
 30
0.0
 11
198.1600993507
 21
112.7034625954
 31
0.0
  0
LINE
  5
12C
330
1F
100
AcDbEntity
  8
0
  6
HIDDEN
 62
     7
370
    18
100
AcDbLine
 10
226.4696010583
 20
119.7509628239
 30
0.0
 11
224.7101240986
 21
116.7034627854
 31
0.0
  0
LINE
  5
12D
330
1F
100
AcDbEntity
  8
0
  6
HIDDEN
 62
     7
370
    18
100
AcDbLine
 10
224.7101240986
 20
116.7034627854
 30
0.0
 11
226.4696010583
 21
113.6559627469
 31
0.0
  0
DIMENSION
  5
12E
330
1F
100
AcDbEntity
  8
VERMASSUNG
100
AcDbDimension
  2
_D
 10
252.4695990317
 20
124.7034627854
 30
0.0
 11
252.4695990317
 21
116.7034627854
 31
0.0
 70
   160
  1
%%c<>
 71
     2
 42
-1.0
  3
SLDDIMSTYLE0
100
AcDbAlignedDimension
 13
216.6695990317
 23
108.7034627854
 33
0.0
 14
216.6695990317
 24
124.7034627854
 34
0.0
 50
90.0
100
AcDbRotatedDimension
  0
DIMENSION
  5
13A
330
1F
100
AcDbEntity
  8
VERMASSUNG
100
AcDbDimension
  2
_D_1
 10
262.2507998713
 20
97.7034627854
 30
0.0
 11
262.2507998713
 21
116.7034627854
 31
0.0
 70
   160
  1
%%c<>
 71
     2
 42
-1.0
  3
SLDDIMSTYLE0
100
AcDbAlignedDimension
 13
199.6695990317
 23
135.7034627854
 33
0.0
 14
199.6695990317
 24
97.7034627854
 34
0.0
 50
90.0
100
AcDbRotatedDimension
  0
DIMENSION
  5
145
330
1F
100
AcDbEntity
  8
VERMASSUNG
100
AcDbDimension
  2
_D_2
 10
38.293416524
 20
166.7034627854
 30
0.0
 11
38.293416524
 21
116.7034627854
 31
0.0
 70
   160
  1
HSK A %%c<>
 71
     2
 42
-1.0
  3
SLDDIMSTYLE0
100
AcDbAlignedDimension
 13
100.9695990317
 23
66.7034627854
 33
0.0
 14
100.9695990317
 24
166.7034627854
 34
0.0
 50
90.0
100
AcDbRotatedDimension
  0
DIMENSION
  5
151
330
1F
100
AcDbEntity
  8
VERMASSUNG
100
AcDbDimension
  2
_D_3
 10
242.6254177464
 20
113.6559627854
 30
0.0
 11
242.6254177464
 21
116.7034627854
 31
0.0
 70
   160
  1
SW<>
 71
     2
 42
-1.0
  3
SLDDIMSTYLE1
100
AcDbAlignedDimension
 13
230.4695990317
 23
119.7509627854
 33
0.0
 14
230.4695990317
 24
113.6559627854
 34
0.0
 50
90.0
100
AcDbRotatedDimension
  0
DIMENSION
  5
15F
330
1F
100
AcDbEntity
  8
VERMASSUNG
100
AcDbDimension
  2
_D_4
 10
217.4695990317
 20
173.5099251506
 30
0.0
 11
208.9695990317
 21
173.5099251506
 31
0.0
 70
   160
  1
<>
 71
     2
 42
-1.0
  3
SLDDIMSTYLE0
100
AcDbAlignedDimension
 13
200.4695990317
 23
134.9034627854
 33
0.0
 14
217.4695990317
 24
121.7534627854
 34
0.0
100
AcDbRotatedDimension
  0
DIMENSION
  5
169
330
1F
100
AcDbEntity
  8
VERMASSUNG
100
AcDbDimension
  2
_D_5
 10
200.4695990317
 20
173.5099251506
 30
0.0
 11
164.9445990317
 21
173.5099251506
 31
0.0
 70
   160
  1
<>
 71
     2
 42
-1.0
  3
SLDDIMSTYLE0
100
AcDbAlignedDimension
 13
129.4195990317
 23
154.36216032
 33
0.0
 14
200.4695990317
 24
134.9034627854
 34
0.0
100
AcDbRotatedDimension
  0
DIMENSION
  5
173
330
1F
100
AcDbEntity
  8
VERMASSUNG
100
AcDbDimension
  2
_D_6
 10
100.4695990317
 20
182.7034627854
 30
0.0
 11
150.4695990317
 21
182.7034627854
 31
0.0
 70
   160
  1
<>
 71
     2
 42
-1.0
  3
SLDDIMSTYLE0
100
AcDbAlignedDimension
 13
200.4695990317
 23
134.9034627854
 33
0.0
 14
100.4695990317
 24
166.2034627854
 34
0.0
100
AcDbRotatedDimension
  0
DIMENSION
  5
17D
330
1F
100
AcDbEntity
  8
VERMASSUNG
100
AcDbDimension
  2
_D_7
 10
50.5695990317
 20
192.0943557762
 30
0.0
 11
134.0195990317
 21
192.0943557762
 31
0.0
 70
   160
  1
(<>)
 71
     2
 42
-1.0
  3
SLDDIMSTYLE0
100
AcDbAlignedDimension
 13
217.4695990317
 23
123.9034627854
 33
0.0
 14
50.5695990317
 24
147.206132528
 34
0.0
100
AcDbRotatedDimension
  0
LINE
  5
189
330
1F
100
AcDbEntity
  8
VERMASSUNG
  6
CENTERX2
370
    18
100
AcDbLine
 10
234.0695990317
 20
116.7034627854
 30
0.0
 11
44.4968355147
 21
116.7034627854
 31
0.0
  0
SPLINE
  5
18A
330
1F
100
AcDbEntity
  8
0
  6
Continuous
 62
     7
370
    25
100
AcDbSpline
210
0.0
220
0.0
230
1.0
 70
     8
 71
     3
 72
    15
 73
    11
 74
     0
 42
0.000000001
 43
0.00000001
 40
0.0
 40
0.0
 40
0.0
 40
0.0
 40
0.1049942321599483
 40
0.2436211340742722
 40
0.3822398091359479
 40
0.5215667264507223
 40
0.66247138074302
 40
0.8055622091168927
 40
0.9280025108083181
 40
1.0
 40
1.0
 40
1.0
 40
1.0
 10
264.8803351989218
 20
32.6788263545638
 30
0.0
 10
264.9785184042643
 20
32.76843805374709
 30
0.0
 10
265.206335717087
 20
32.97636665451152
 30
0.0
 10
265.50099785553
 20
33.41117966843963
 30
0.0
 10
265.7431025173469
 20
33.92131454601662
 30
0.0
 10
265.8803188879909
 20
34.44622154253538
 30
0.0
 10
265.9013841780592
 20
34.94781110899184
 30
0.0
 10
265.7927891460023
 20
35.36181616289919
 30
0.0
 10
265.6110731944775
 20
35.65493267254262
 30
0.0
 10
265.4431779700721
 20
35.73945249494
 30
0.0
 10
265.3810088076394
 20
35.77074895727842
 30
0.0
  0
LINE
  5
18B
330
1F
100
AcDbEntity
  8
0
  6
Continuous
 62
     7
370
    25
100
AcDbLine
 10
265.3992577345
 20
35.7847772194
 30
0.0
 11
263.8082668868
 21
36.7032366859
 31
0.0
  0
SPLINE
  5
18C
330
1F
100
AcDbEntity
  8
0
  6
Continuous
 62
     7
370
    25
100
AcDbSpline
210
0.0
220
0.0
230
1.0
 70
     8
 71
     3
 72
    14
 73
    10
 74
     0
 42
0.000000001
 43
0.00000001
 40
0.0
 40
0.0
 40
0.0
 40
0.0
 40
0.0809725156418714
 40
0.2505501945611171
 40
0.421044886705734
 40
0.5935439050637429
 40
0.7686912659573472
 40
0.9179575943520797
 40
1.0
 40
1.0
 40
1.0
 40
1.0
 10
255.4544763621434
 20
27.51205444458598
 30
0.0
 10
255.5065651414353
 20
27.58418013744239
 30
0.0
 10
255.6677414823528
 20
27.80735594264962
 30
0.0
 10
255.8523829953617
 20
28.24122728812576
 30
0.0
 10
255.9862688127099
 20
28.7620705936747
 30
0.0
 10
255.9988541079746
 20
29.26213128056645
 30
0.0
 10
255.8825014599724
 20
29.67071413747978
 30
0.0
 10
255.6970830138461
 20
29.95471467575894
 30
0.0
 10
255.5318096820893
 20
30.032832934357
 30
0.0
 10
255.4731892336099
 20
30.06054053427507
 30
0.0
  0
SPLINE
  5
18D
330
1F
100
AcDbEntity
  8
0
  6
Continuous
 62
     7
370
    25
100
AcDbSpline
210
0.0
220
0.0
230
1.0
 70
     8
 71
     3
 72
    13
 73
     9
 74
     0
 42
0.000000001
 43
0.00000001
 40
0.0
 40
0.0
 40
0.0
 40
0.0
 40
0.1338741568708155
 40
0.3136883505250007
 40
0.4991892268649735
 40
0.6954313053571809
 40
0.8956321738020826
 40
1.0
 40
1.0
 40
1.0
 40
1.0
 10
253.5048718098732
 20
26.62203307085491
 30
0.0
 10
253.5834394517496
 20
26.57840387128972
 30
0.0
 10
253.7675358790282
 20
26.47617374737164
 30
0.0
 10
254.1221968170139
 20
26.48603667450885
 30
0.0
 10
254.5185275552988
 20
26.61261364755958
 30
0.0
 10
254.9184753115695
 20
26.87841036784585
 30
0.0
 10
255.2455440387116
 20
27.19001817334776
 30
0.0
 10
255.401153141282
 20
27.42986509765039
 30
0.0
 10
255.4544763621434
 20
27.51205444458598
 30
0.0
  0
LINE
  5
18E
330
1F
100
AcDbEntity
  8
0
  6
Continuous
 62
     7
370
    25
100
AcDbLine
 10
251.9089339758
 20
27.5241841893
 30
0.0
 11
253.4999248235
 21
26.6057247229
 31
0.0
  0
LINE
  5
18F
330
1F
100
AcDbEntity
  8
0
  6
Continuous
 62
     7
370
    25
100
AcDbLine
 10
255.4997624923
 20
30.0699202603
 30
0.0
 11
253.9087716446
 21
30.9883797267
 31
0.0
  0
SPLINE
  5
190
330
1F
100
AcDbEntity
  8
0
  6
Continuous
 62
     7
370
    25
100
AcDbSpline
210
0.0
220
0.0
230
1.0
 70
     8
 71
     3
 72
    10
 73
     6
 74
     0
 42
0.000000001
 43
0.00000001
 40
0.0
 40
0.0
 40
0.0
 40
0.0
 40
0.1205073420975789
 40
0.6192846563608527
 40
1.0
 40
1.0
 40
1.0
 40
1.0
 10
268.5826600750912
 20
23.51900508250582
 30
0.0
 10
268.6244984806669
 20
23.54283667106228
 30
0.0
 10
268.8395051530297
 20
23.66530669548429
 30
0.0
 10
269.1751428099175
 20
23.97035237731081
 30
0.0
 10
269.4423351795891
 20
24.27906689631749
 30
0.0
 10
269.5579975832751
 20
24.41270343453526
 30
0.0
  0
SPLINE
  5
191
330
1F
100
AcDbEntity
  8
0
  6
Continuous
 62
     7
370
    25
100
AcDbSpline
210
0.0
220
0.0
230
1.0
 70
     8
 71
     3
 72
    12
 73
     8
 74
     0
 42
0.000000001
 43
0.00000001
 40
0.0
 40
0.0
 40
0.0
 40
0.0
 40
0.1373452151074814
 40
0.3981883671805047
 40
0.6595179647494969
 40
0.9213275731079905
 40
1.0
 40
1.0
 40
1.0
 40
1.0
 10
269.5579975832751
 20
24.41270343453528
 30
0.0
 10
269.6333092736269
 20
24.51067279114284
 30
0.0
 10
269.8516513468278
 20
24.79470349516676
 30
0.0
 10
270.1641035752345
 20
25.3187964513243
 30
0.0
 10
270.4417822983633
 20
25.97010487660611
 30
0.0
 10
270.6002505628529
 20
26.48246417499527
 30
0.0
 10
270.6253318174811
 20
26.75336010641263
 30
0.0
 10
270.631127139897
 20
26.81595383575314
 30
0.0
  0
LINE
  5
192
330
1F
100
AcDbEntity
  8
0
  6
Continuous
 62
     7
370
    25
100
AcDbLine
 10
269.9486493135
 20
28.8869488429
 30
0.0
 11
267.2616428411
 21
30.4381246616
 31
0.0
  0
LINE
  5
193
330
1F
100
AcDbEntity
  8
0
  6
Continuous
 62
     7
370
    25
100
AcDbLine
 10
264.0119071233
 20
24.8088070321
 30
0.0
 11
266.6989135956
 21
23.2576312134
 31
0.0
  0
LINE
  5
194
330
1F
100
AcDbEntity
  8
0
  6
Continuous
 62
     7
370
    25
100
AcDbLine
 10
265.3557192991
 20
30.095054369
 30
0.0
 11
264.3086519707
 21
30.6995134714
 31
0.0
  0
LINE
  5
195
330
1F
100
AcDbEntity
  8
0
  6
Continuous
 62
     7
370
    25
100
AcDbLine
 10
262.311751575
 20
27.2336224724
 30
0.0
 11
263.355881795
 21
26.6308589266
 31
0.0
  0
SPLINE
  5
196
330
1F
100
AcDbEntity
  8
0
  6
Continuous
 62
     7
370
    25
100
AcDbSpline
210
0.0
220
0.0
230
1.0
 70
     8
 71
     3
 72
    17
 73
    13
 74
     0
 42
0.000000001
 43
0.00000001
 40
0.0
 40
0.0
 40
0.0
 40
0.0
 40
0.0149326196984025
 40
0.129792145135256
 40
0.2448536713241315
 40
0.3610905997292786
 40
0.4788145432820293
 40
0.5977156945717079
 40
0.7172653477229259
 40
0.8370311888088101
 40
0.956736554654781
 40
1.0
 40
1.0
 40
1.0
 40
1.0
 10
253.0339084366333
 20
23.94888944877519
 30
0.0
 10
253.0611568749614
 20
23.93227698212565
 30
0.0
 10
253.2979963132933
 20
23.78788385312473
 30
0.0
 10
253.8168513804968
 20
23.64836762658538
 30
0.0
 10
254.5765951453071
 20
23.54483542110552
 30
0.0
 10
255.390821842505
 20
23.59936112591982
 30
0.0
 10
256.2397773373257
 20
23.79431142791207
 30
0.0
 10
257.1131248331174
 20
24.13330599095542
 30
0.0
 10
257.9958685559067
 20
24.60768533383818
 30
0.0
 10
258.8688207375363
 20
25.21751621746371
 30
0.0
 10
259.5467928384599
 20
25.77086487267559
 30
0.0
 10
259.9146795937882
 20
26.1508339905471
 30
0.0
 10
260.0123427504133
 20
26.2517046604854
 30
0.0
  0
SPLINE
  5
197
330
1F
100
AcDbEntity
  8
0
  6
Continuous
 62
     7
370
    25
100
AcDbSpline
210
0.0
220
0.0
230
1.0
 70
     8
 71
     3
 72
    13
 73
     9
 74
     0
 42
0.000000001
 43
0.00000001
 40
0.0
 40
0.0
 40
0.0
 40
0.0
 40
0.1741050695645185
 40
0.3650376212465348
 40
0.5554029026797717
 40
0.7442643836310108
 40
0.9306928282700666
 40
1.0
 40
1.0
 40
1.0
 40
1.0
 10
264.3977603689172
 20
36.3629288702307
 30
0.0
 10
264.3771924676916
 20
36.66263012988386
 30
0.0
 10
264.3340687507531
 20
37.2909991669373
 30
0.0
 10
264.1234170206527
 20
38.15157604961374
 30
0.0
 10
263.8029248670468
 20
38.94939449731699
 30
0.0
 10
263.3637917506239
 20
39.62303216499118
 30
0.0
 10
262.9521413127256
 20
40.0839726322105
 30
0.0
 10
262.6607961323376
 20
40.2679880985625
 30
0.0
 10
262.581838376134
 20
40.31785831886463
 30
0.0
  0
LINE
  5
198
330
1F
100
AcDbEntity
  8
0
  6
Continuous
 62
     7
370
    25
100
AcDbLine
 10
243.3535293915
 20
29.5179516
 30
0.0
 11
252.8261442298
 21
24.0495274525
 31
0.0
  0
LINE
  5
199
330
1F
100
AcDbEntity
  8
0
  6
Continuous
 62
     7
370
    25
100
AcDbLine
 10
239.3027259754
 20
31.8564306362
 30
0.0
 11
240.9035172825
 21
30.932313485
 31
0.0
  0
LINE
  5
19A
330
1F
100
AcDbEntity
  8
0
  6
Continuous
 62
     7
370
    25
100
AcDbLine
 10
250.3997185509
 20
47.3889894048
 30
0.0
 11
248.8019539144
 21
48.3113592963
 31
0.0
  0
LINE
  5
19B
330
1F
100
AcDbEntity
  8
0
  6
Continuous
 62
     7
370
    25
100
AcDbLine
 10
262.3253721688
 20
40.5044561127
 30
0.0
 11
252.8590872603
 21
45.9692260694
 31
0.0
  0
SPLINE
  5
19C
330
1F
100
AcDbEntity
  8
0
  6
Continuous
 62
     7
370
    25
100
AcDbSpline
210
0.0
220
0.0
230
1.0
 70
     8
 71
     3
 72
    11
 73
     7
 74
     0
 42
0.000000001
 43
0.00000001
 40
0.0
 40
0.0
 40
0.0
 40
0.0
 40
0.1490511997639018
 40
0.450008440197021
 40
0.7461989623757138
 40
1.0
 40
1.0
 40
1.0
 40
1.0
 10
266.5071274895517
 20
30.52497621451848
 30
0.0
 10
266.502375371924
 20
30.63626213932066
 30
0.0
 10
266.4880279997147
 20
30.97225142028878
 30
0.0
 10
266.3255361925198
 20
31.45112967884957
 30
0.0
 10
266.0477648013061
 20
31.93021319298754
 30
0.0
 10
265.7724879499357
 20
32.13239229281854
 30
0.0
 10
265.6454577268959
 20
32.22569057059836
 30
0.0
  0
SPLINE
  5
19D
330
1F
100
AcDbEntity
  8
0
  6
Continuous
 62
     7
370
    25
100
AcDbSpline
210
0.0
220
0.0
230
1.0
 70
     8
 71
     3
 72
    12
 73
     8
 74
     0
 42
0.000000001
 43
0.00000001
 40
0.0
 40
0.0
 40
0.0
 40
0.0
 40
0.1956520051636534
 40
0.4445983478185892
 40
0.6962614683438355
 40
0.9571678466978432
 40
0.9999999999999999
 40
0.9999999999999999
 40
0.9999999999999999
 40
0.9999999999999999
 10
261.5217473422256
 20
25.39954722038181
 30
0.0
 10
261.6341980068125
 20
25.3309344020488
 30
0.0
 10
261.889730167828
 20
25.17501907859217
 30
0.0
 10
262.3684992248274
 20
25.09955870229058
 30
0.0
 10
262.9089247118208
 20
25.1558961975685
 30
0.0
 10
263.3146307775204
 20
25.26720902298115
 30
0.0
 10
263.5320562150803
 20
25.39364430768063
 30
0.0
 10
263.56271679549
 20
25.41147377260733
 30
0.0
  0
LINE
  5
19E
330
1F
100
AcDbEntity
  8
0
  6
Continuous
 62
     7
370
    25
100
AcDbLine
 10
256.5658685071
 20
28.2413116328
 30
0.0
 11
261.5863273448
 21
25.3430624368
 31
0.0
  0
LINE
  5
19F
330
1F
100
AcDbEntity
  8
0
  6
Continuous
 62
     7
370
    25
100
AcDbLine
 10
265.5860023531
 20
32.2714533215
 30
0.0
 11
260.5655435154
 21
35.1697025175
 31
0.0
  0
SPLINE
  5
1A0
330
1F
100
AcDbEntity
  8
0
  6
Continuous
 62
     7
370
    25
100
AcDbSpline
210
0.0
220
0.0
230
1.0
 70
     8
 71
     3
 72
    10
 73
     6
 74
     0
 42
0.000000001
 43
0.00000001
 40
0.0
 40
0.0
 40
0.0
 40
0.0
 40
0.3417272758531943
 40
0.6669484876212665
 40
1.0
 40
1.0
 40
1.0
 40
1.0
 10
262.5068865445483
 20
26.98656358516958
 30
0.0
 10
262.4532049861222
 20
27.0275573387771
 30
0.0
 10
262.3484347885544
 20
27.10756477131872
 30
0.0
 10
262.2278660007262
 20
27.378692578705
 30
0.0
 10
262.2098402935874
 20
27.64287846165631
 30
0.0
 10
262.2007202301182
 20
27.7765426780798
 30
0.0
  0
SPLINE
  5
1A1
330
1F
100
AcDbEntity
  8
0
  6
Continuous
 62
     7
370
    25
100
AcDbSpline
210
0.0
220
0.0
230
1.0
 70
     8
 71
     3
 72
    17
 73
    13
 74
     0
 42
0.000000001
 43
0.00000001
 40
0.0
 40
0.0
 40
0.0
 40
0.0
 40
0.0553814854233486
 40
0.1627398173811308
 40
0.2712272653949012
 40
0.3804734607383873
 40
0.48983231261521
 40
0.5983590877001647
 40
0.7053704455429677
 40
0.8107687802574206
 40
0.9162484054314408
 40
1.0
 40
1.0
 40
1.0
 40
1.0
 10
262.2007202301182
 20
27.7765426780798
 30
0.0
 10
262.2032798229219
 20
27.85357434530761
 30
0.0
 10
262.2108012474966
 20
28.07993373890979
 30
0.0
 10
262.2988091205842
 20
28.50780624194616
 30
0.0
 10
262.4973180553922
 20
29.03560978797135
 30
0.0
 10
262.7838831374385
 20
29.54771232330778
 30
0.0
 10
263.1352919421757
 20
30.00184939314978
 30
0.0
 10
263.5217973473753
 20
30.36264432419761
 30
0.0
 10
263.9074513947654
 20
30.60536561569925
 30
0.0
 10
264.2511334267762
 20
30.71643412234393
 30
0.0
 10
264.4993511460976
 20
30.71989941613953
 30
0.0
 10
264.6008521259325
 20
30.66351631721487
 30
0.0
 10
264.645775309977
 20
30.6385617962427
 30
0.0
  0
LINE
  5
1A2
330
1F
100
AcDbEntity
  8
0
  6
Continuous
 62
     7
370
    25
100
AcDbLine
 10
260.1503150688
 20
35.325735993
 30
0.0
 11
259.8019519388
 21
35.3967122658
 31
0.0
  0
LINE
  5
1A3
330
1F
100
AcDbEntity
  8
0
  6
Continuous
 62
     7
370
    25
100
AcDbLine
 10
255.9874252372
 20
28.7890420652
 30
0.0
 11
256.2230990542
 21
28.5228610745
 31
0.0
  0
LINE
  5
1A4
330
1F
100
AcDbEntity
  8
0
  6
Continuous
 62
     7
370
    25
100
AcDbLine
 10
210.1810537652
 20
30.7706408373
 30
0.0
 11
215.922043621
 21
27.4564379384
 31
0.0
  0
LINE
  5
1A5
330
1F
100
AcDbEntity
  8
0
  6
Continuous
 62
     7
370
    25
100
AcDbLine
 10
237.3857364984
 20
72.7991746502
 30
0.0
 11
235.1790213324
 21
74.0730841996
 31
0.0
  0
LINE
  5
1A6
330
1F
100
AcDbEntity
  8
0
  6
Continuous
 62
     7
370
    25
100
AcDbLine
 10
256.0980348667
 20
28.655719879
 30
0.0
 11
256.1132393423
 21
28.6469425221
 31
0.0
  0
LINE
  5
1A7
330
1F
100
AcDbEntity
  8
0
  6
Continuous
 62
     7
370
    25
100
AcDbLine
 10
259.9879245786
 20
35.3588211976
 30
0.0
 11
259.972720103
 21
35.3675985545
 31
0.0
  0
SPLINE
  5
1A8
330
1F
100
AcDbEntity
  8
0
  6
Continuous
 62
     7
370
    25
100
AcDbSpline
210
0.0
220
0.0
230
1.0
 70
     8
 71
     3
 72
    13
 73
     9
 74
     0
 42
0.000000001
 43
0.00000001
 40
0.0
 40
0.0
 40
0.0
 40
0.0
 40
0.0844388184821544
 40
0.2825700309755568
 40
0.4845333180601635
 40
0.6888418100737148
 40
0.8941672079551943
 40
0.9999999999999999
 40
0.9999999999999999
 40
0.9999999999999999
 40
0.9999999999999999
 10
229.5847614903086
 20
35.37445446995613
 30
0.0
 10
229.857119492651
 20
35.33184644203425
 30
0.0
 10
230.768551113104
 20
35.18926093472707
 30
0.0
 10
232.3708899268958
 20
34.78844332253163
 30
0.0
 10
234.3655416885978
 20
34.16815515810136
 30
0.0
 10
236.3613651321332
 20
33.36894275487313
 30
0.0
 10
238.0169918866181
 20
32.59211471251017
 30
0.0
 10
238.968693560072
 20
32.03056086645267
 30
0.0
 10
239.2923914364454
 20
31.83956216117725
 30
0.0
  0
SPLINE
  5
1A9
330
1F
100
AcDbEntity
  8
0
  6
Continuous
 62
     7
370
    25
100
AcDbSpline
210
0.0
220
0.0
230
1.0
 70
     8
 71
     3
 72
    13
 73
     9
 74
     0
 42
0.000000001
 43
0.00000001
 40
0.0
 40
0.0
 40
0.0
 40
0.0
 40
0.1089725428719346
 40
0.3130220814314585
 40
0.5148048455380806
 40
0.7134819283209816
 40
0.9081656993388264
 40
0.9999999999999999
 40
0.9999999999999999
 40
0.9999999999999999
 40
0.9999999999999999
 10
248.8115551640207
 20
48.32857844740521
 30
0.0
 10
248.4747241906391
 20
48.51917288069758
 30
0.0
 10
247.5071820043252
 20
49.06665268291292
 30
0.0
 10
246.0091363851156
 20
50.11133599787595
 30
0.0
 10
244.3391613428056
 20
51.42509716460479
 30
0.0
 10
242.8259274403772
 20
52.81934892598258
 30
0.0
 10
241.6746521618631
 20
54.00701369435747
 30
0.0
 10
241.0844371659562
 20
54.73451544732018
 30
0.0
 10
240.8952624270951
 20
54.96769311154778
 30
0.0
  0
SPLINE
  5
1AA
330
1F
100
AcDbEntity
  8
0
  6
Continuous
 62
     7
370
    25
100
AcDbSpline
210
0.0
220
0.0
230
1.0
 70
     8
 71
     3
 72
    10
 73
     6
 74
     0
 42
0.000000001
 43
0.00000001
 40
0.0
 40
0.0
 40
0.0
 40
0.0
 40
0.2877671293385511
 40
0.7914668933538241
 40
1.0
 40
1.0
 40
1.0
 40
1.0
 10
205.1641501778607
 20
45.67238257780153
 30
0.0
 10
205.1200387058566
 20
45.34113886860902
 30
0.0
 10
204.9987157118488
 20
44.43009517136603
 30
0.0
 10
204.9389324866885
 20
43.31734588458259
 30
0.0
 10
204.9313617641575
 20
42.54495812306831
 30
0.0
 10
204.9291451488426
 20
42.31881239731084
 30
0.0
  0
SPLINE
  5
1AB
330
1F
100
AcDbEntity
  8
0
  6
Continuous
 62
     7
370
    25
100
AcDbSpline
210
0.0
220
0.0
230
1.0
 70
     8
 71
     3
 72
     9
 73
     5
 74
     0
 42
0.000000001
 43
0.00000001
 40
0.0
 40
0.0
 40
0.0
 40
0.0
 40
0.5696751866024141
 40
1.0
 40
1.0
 40
1.0
 40
1.0
 10
222.8712414192185
 20
73.0107793716596
 30
0.0
 10
222.6422915187933
 20
72.88962307082475
 30
0.0
 10
222.2403960074394
 20
72.67694696401124
 30
0.0
 10
221.8400654532515
 20
72.40971162945841
 30
0.0
 10
221.6677932822232
 20
72.29471363398373
 30
0.0
  0
SPLINE
  5
1AC
330
1F
100
AcDbEntity
  8
0
  6
Continuous
 62
     7
370
    25
100
AcDbSpline
210
0.0
220
0.0
230
1.0
 70
     8
 71
     3
 72
     9
 73
     5
 74
     0
 42
0.000000001
 43
0.00000001
 40
0.0
 40
0.0
 40
0.0
 40
0.0
 40
0.4109279501872297
 40
1.0
 40
1.0
 40
1.0
 40
1.0
 10
204.9291451488426
 20
42.31881239731084
 30
0.0
 10
204.9312487257151
 20
42.03387170883558
 30
0.0
 10
204.9363678150142
 20
41.3404638052227
 30
0.0
 10
204.9965589444907
 20
40.68121579461022
 30
0.0
 10
205.032015856512
 20
40.29287121766373
 30
0.0
  0
LINE
  5
1AD
330
1F
100
AcDbEntity
  8
0
  6
Continuous
 62
     7
370
    25
100
AcDbLine
 10
223.4469992475
 20
73.2589188873
 30
0.0
 11
214.1116645974
 21
77.9100393491
 31
0.0
  0
LINE
  5
1AE
330
1F
100
AcDbEntity
  8
0
  6
Continuous
 62
     7
370
    25
100
AcDbLine
 10
196.3229418097
 20
47.0957293375
 30
0.0
 11
204.9512308075
 21
41.382434877
 31
0.0
  0
SPLINE
  5
1AF
330
1F
100
AcDbEntity
  8
0
  6
Continuous
 62
     7
370
    25
100
AcDbSpline
210
0.0
220
0.0
230
1.0
 70
     8
 71
     3
 72
    19
 73
    15
 74
     0
 42
0.000000001
 43
0.00000001
 40
0.0
 40
0.0
 40
0.0
 40
0.0
 40
0.0726301893527922
 40
0.1593479752981074
 40
0.2464044713877347
 40
0.3337338838218312
 40
0.4212543193100376
 40
0.5088897723558454
 40
0.5965807628592624
 40
0.6842824778412325
 40
0.7719674529542674
 40
0.8596249589789897
 40
0.9472512190605213
 40
0.9999999999999999
 40
0.9999999999999999
 40
0.9999999999999999
 40
0.9999999999999999
 10
223.6923854435674
 20
24.00443409467037
 30
0.0
 10
224.0415590412727
 20
23.97974332535068
 30
0.0
 10
224.8076331258608
 20
23.92557268178351
 30
0.0
 10
226.0473723113507
 20
24.01749000734647
 30
0.0
 10
227.3917891211333
 20
24.24443662872782
 30
0.0
 10
228.7697778154375
 20
24.61937899360969
 30
0.0
 10
230.1704540092028
 20
25.13486791179761
 30
0.0
 10
231.5849806773323
 20
25.78888313952097
 30
0.0
 10
233.0039790962564
 20
26.57646978283481
 30
0.0
 10
234.4181365378479
 20
27.492723658627
 30
0.0
 10
235.8191201138851
 20
28.53002287019682
 30
0.0
 10
237.1957794441025
 20
29.68683843284198
 30
0.0
 10
238.3692755409765
 20
30.77029750880769
 30
0.0
 10
239.0637470387628
 20
31.50510019022363
 30
0.0
 10
239.3247088496302
 20
31.78121726483912
 30
0.0
  0
SPLINE
  5
1B0
330
1F
100
AcDbEntity
  8
0
  6
Continuous
 62
     7
370
    25
100
AcDbSpline
210
0.0
220
0.0
230
1.0
 70
     8
 71
     3
 72
    10
 73
     6
 74
     0
 42
0.000000001
 43
0.00000001
 40
0.0
 40
0.0
 40
0.0
 40
0.0
 40
0.2347040173314601
 40
0.6587749452626197
 40
1.0
 40
1.0
 40
1.0
 40
1.0
 10
248.861959172845
 20
48.27671877460312
 30
0.0
 10
248.9628697286399
 20
48.61141020103791
 30
0.0
 10
249.2461087912943
 20
49.55083309049819
 30
0.0
 10
249.578588178347
 20
50.9664074879086
 30
0.0
 10
249.7576690768572
 20
52.02770253565681
 30
0.0
 10
249.8375164702585
 20
52.50090567400025
 30
0.0
  0
LINE
  5
1B1
330
1F
100
AcDbEntity
  8
0
  6
Continuous
 62
     7
370
    25
100
AcDbLine
 10
218.2286464682
 20
26.124864458
 30
0.0
 11
219.8860943349
 21
25.1680401712
 31
0.0
  0
SPLINE
  5
1B2
330
1F
100
AcDbEntity
  8
0
  6
Continuous
 62
     7
370
    25
100
AcDbSpline
210
0.0
220
0.0
230
1.0
 70
     8
 71
     3
 72
    10
 73
     6
 74
     0
 42
0.000000001
 43
0.00000001
 40
0.0
 40
0.0
 40
0.0
 40
0.0
 40
0.028148475011432
 40
0.6719752357242176
 40
1.0
 40
1.0
 40
1.0
 40
1.0
 10
247.496106911697
 20
66.17205132372145
 30
0.0
 10
247.4857569768171
 20
66.18704632290287
 30
0.0
 10
247.2386778747418
 20
66.54501484892543
 30
0.0
 10
246.804600767631
 20
67.00016882875856
 30
0.0
 10
246.3512443869965
 20
67.39405742712282
 30
0.0
 10
246.1982250048514
 20
67.52700491067066
 30
0.0
  0
SPLINE
  5
1B3
330
1F
100
AcDbEntity
  8
0
  6
Continuous
 62
     7
370
    25
100
AcDbSpline
210
0.0
220
0.0
230
1.0
 70
     8
 71
     3
 72
    12
 73
     8
 74
     0
 42
0.000000001
 43
0.00000001
 40
0.0
 40
0.0
 40
0.0
 40
0.0
 40
0.1180490526010331
 40
0.3415715706442001
 40
0.5648880326714045
 40
0.7876618717436215
 40
0.9999999999999999
 40
0.9999999999999999
 40
0.9999999999999999
 40
0.9999999999999999
 10
249.8602382314174
 20
60.6621538335143
 30
0.0
 10
249.8075665772678
 20
60.91546596239836
 30
0.0
 10
249.6551626465298
 20
61.64841739080651
 30
0.0
 10
249.3175337306139
 20
62.79274060909809
 30
0.0
 10
248.8103983306504
 20
64.05173247768066
 30
0.0
 10
248.2119029560674
 20
65.19284068760543
 30
0.0
 10
247.7308598190042
 20
65.85090880623713
 30
0.0
 10
247.496106911697
 20
66.17205132372145
 30
0.0
  0
SPLINE
  5
1B4
330
1F
100
AcDbEntity
  8
0
  6
Continuous
 62
     7
370
    25
100
AcDbSpline
210
0.0
220
0.0
230
1.0
 70
     8
 71
     3
 72
    28
 73
    24
 74
     0
 42
0.000000001
 43
0.00000001
 40
0.0
 40
0.0
 40
0.0
 40
0.0
 40
0.0173646859913571
 40
0.0666529697132405
 40
0.116022427525708
 40
0.1657775298981347
 40
0.2161025423756545
 40
0.2670303082661907
 40
0.3184683026004565
 40
0.3702610478330405
 40
0.4222524658896515
 40
0.4743219123752864
 40
0.5263766481100202
 40
0.5783840758737929
 40
0.6303339792540638
 40
0.6822286908839886
 40
0.734077400466319
 40
0.7858927912084067
 40
0.8376893382521449
 40
0.8894823799690259
 40
0.9412855244705658
 40
0.9931116107064701
 40
1.0
 40
1.0
 40
1.0
 40
1.0
 10
214.2774907143024
 20
77.80396107670254
 30
0.0
 10
214.1741885661625
 20
77.86486372576302
 30
0.0
 10
213.7776714650352
 20
78.09863371304085
 30
0.0
 10
213.0105088933986
 20
78.36198308620506
 30
0.0
 10
211.99032506058
 20
78.58938231662518
 30
0.0
 10
210.9114779295982
 20
78.66306452449226
 30
0.0
 10
209.7871892797027
 20
78.59405296034721
 30
0.0
 10
208.6235665568978
 20
78.37835266820933
 30
0.0
 10
207.430987603324
 20
78.01742402075112
 30
0.0
 10
206.2207035686298
 20
77.5137094097901
 30
0.0
 10
205.0047550567986
 20
76.87217026864553
 30
0.0
 10
203.7950462116488
 20
76.09958417025884
 30
0.0
 10
202.6028428537126
 20
75.2040660875991
 30
0.0
 10
201.4386606642688
 20
74.1946283459223
 30
0.0
 10
200.3123036119765
 20
73.08084083074596
 30
0.0
 10
199.2331037957664
 20
71.87291358778997
 30
0.0
 10
198.2100672989269
 20
70.5816524732746
 30
0.0
 10
197.2515056756743
 20
69.21843226708069
 30
0.0
 10
196.3662700235352
 20
67.79509275069884
 30
0.0
 10
195.5589446536847
 20
66.32403677535828
 30
0.0
 10
194.8475696914569
 20
64.8175555442631
 30
0.0
 10
194.3852841974989
 20
63.73179490488938
 30
0.0
 10
194.1870121574518
 20
63.15234661330457
 30
0.0
 10
194.1637508579929
 20
63.08436567041245
 30
0.0
  0
LINE
  5
1B5
330
1F
100
AcDbEntity
  8
0
  6
Continuous
 62
     7
370
    25
100
AcDbLine
 10
194.5476520131
 20
60.7515510173
 30
0.0
 11
198.3275381211
 21
58.569469214
 31
0.0
  0
LINE
  5
1B6
330
1F
100
AcDbEntity
  8
0
  6
Continuous
 62
     7
370
    25
100
AcDbLine
 10
194.0422131763
 20
62.5211978989
 30
0.0
 11
194.0422131763
 21
61.8686929559
 31
0.0
  0
LINE
  5
1B7
330
1F
100
AcDbEntity
  8
0
  6
Continuous
 62
     7
370
    25
100
AcDbLine
 10
194.0422131763
 20
50.362905027
 30
0.0
 11
194.0422131763
 21
49.7104000839
 31
0.0
  0
SPLINE
  5
1B8
330
1F
100
AcDbEntity
  8
0
  6
Continuous
 62
     7
370
    25
100
AcDbSpline
210
0.0
220
0.0
230
1.0
 70
     8
 71
     3
 72
    10
 73
     6
 74
     0
 42
0.000000001
 43
0.00000001
 40
0.0
 40
0.0
 40
0.0
 40
0.0
 40
0.3295006286484303
 40
0.6892241807213073
 40
1.0
 40
1.0
 40
1.0
 40
1.0
 10
194.1744489135251
 20
49.37485638237091
 30
0.0
 10
194.357204032457
 20
49.09346291369827
 30
0.0
 10
194.7394771942266
 20
48.50486560600344
 30
0.0
 10
195.413804445028
 20
47.77617450439983
 30
0.0
 10
195.9365862217603
 20
47.38562360970834
 30
0.0
 10
196.1788950767865
 20
47.2046036424217
 30
0.0
  0
SPLINE
  5
1B9
330
1F
100
AcDbEntity
  8
0
  6
Continuous
 62
     7
370
    25
100
AcDbSpline
210
0.0
220
0.0
230
1.0
 70
     8
 71
     3
 72
     9
 73
     5
 74
     0
 42
0.000000001
 43
0.00000001
 40
0.0
 40
0.0
 40
0.0
 40
0.0
 40
0.3544518289669109
 40
1.0
 40
1.0
 40
1.0
 40
1.0
 10
194.088479879275
 20
49.51062265543845
 30
0.0
 10
194.0974213747775
 20
49.49339062322959
 30
0.0
 10
194.1226476390308
 20
49.44477461732809
 30
0.0
 10
194.1541272853919
 20
49.40228528994894
 30
0.0
 10
194.1744489135251
 20
49.37485638237091
 30
0.0
  0
LWPOLYLINE
  5
1BA
330
1F
100
AcDbEntity
  8
0
  6
Continuous
 62
     7
370
    25
100
AcDbPolyline
 90
        9
 70
   128
 43
0.0
 10
261.4534799844
 20
34.6571078016
 10
261.4569640141
 20
34.6723607918
 10
261.6398698121
 20
35.2165384312
 10
261.9266000909
 20
35.7389113194
 10
262.291677739
 20
36.1930642853
 10
262.7026635126
 20
36.5386436527
 10
263.123040131
 20
36.7449436456
 10
263.5154549495
 20
36.7936331987
 10
263.8082668868
 20
36.7032366859
  0
ARC
  5
1BB
330
1F
100
AcDbEntity
  8
0
  6
Continuous
 62
     7
370
    25
100
AcDbCircle
 10
264.3402981386
 20
34.3588338734
 30
0.0
 40
1.050773680970342
100
AcDbArc
 50
333.8131682449
 51
26.1868317551
  0
LINE
  5
1BC
330
1F
100
AcDbEntity
  8
0
  6
Continuous
 62
     7
370
    25
100
AcDbLine
 10
265.2832202166
 20
34.8302639263
 30
0.0
 11
265.2832202166
 21
34.8225399047
 31
0.0
  0
LINE
  5
1BD
330
1F
100
AcDbEntity
  8
0
  6
Continuous
 62
     7
370
    25
100
AcDbLine
 10
265.2832202166
 20
34.8302639263
 30
0.0
 11
265.2774270005
 21
34.8307815847
 31
0.0
  0
ARC
  5
1BE
330
1F
100
AcDbEntity
  8
0
  6
Continuous
 62
     7
370
    25
100
AcDbCircle
 10
264.8972300406
 20
34.4991155575
 30
0.0
 40
0.5045315470163054
100
AcDbArc
 50
41.0999212461
 51
128.6810159
  0
LINE
  5
1BF
330
1F
100
AcDbEntity
  8
0
  6
Continuous
 62
     7
370
    25
100
AcDbLine
 10
264.5761133195
 20
34.8934898564
 30
0.0
 11
264.581905877
 21
34.8929718179
 31
0.0
  0
LINE
  5
1C0
330
1F
100
AcDbEntity
  8
0
  6
Continuous
 62
     7
370
    25
100
AcDbLine
 10
264.5761133195
 20
34.8934898564
 30
0.0
 11
264.5703204327
 21
34.8862836833
 31
0.0
  0
ARC
  5
1C1
330
1F
100
AcDbEntity
  8
0
  6
Continuous
 62
     7
370
    25
100
AcDbCircle
 10
265.5304269091
 20
33.4023243762
 30
0.0
 40
1.76746702120592
100
AcDbArc
 50
122.902453611
 51
159.5083995959
  0
LINE
  5
1C2
330
1F
100
AcDbEntity
  8
0
  6
Continuous
 62
     7
370
    25
100
AcDbLine
 10
263.8690064224
 20
34.0138556807
 30
0.0
 11
263.8747989799
 21
34.0210616637
 31
0.0
  0
LINE
  5
1C3
330
1F
100
AcDbEntity
  8
0
  6
Continuous
 62
     7
370
    25
100
AcDbLine
 10
263.8690064224
 20
34.0138556807
 30
0.0
 11
263.8690064224
 21
34.0061316591
 31
0.0
  0
ARC
  5
1C4
330
1F
100
AcDbEntity
  8
0
  6
Continuous
 62
     7
370
    25
100
AcDbCircle
 10
265.0754496718
 20
33.4939229902
 30
0.0
 40
1.310672741225698
100
AcDbArc
 50
156.9958194069
 51
187.8105639736
  0
LWPOLYLINE
  5
1C5
330
1F
100
AcDbEntity
  8
0
  6
Continuous
 62
     7
370
    25
100
AcDbPolyline
 90
        3
 70
   128
 43
0.0
 10
264.5703204327
 20
33.0082874933
 10
264.4656668444
 20
32.9565499999
 10
264.4260218065
 20
32.9410956956
  0
LINE
  5
1C6
330
1F
100
AcDbEntity
  8
0
  6
Continuous
 62
     7
370
    25
100
AcDbLine
 10
264.5761133195
 20
33.0077696448
 30
0.0
 11
264.5703204327
 21
33.0082874933
 31
0.0
  0
LINE
  5
1C7
330
1F
100
AcDbEntity
  8
0
  6
Continuous
 62
     7
370
    25
100
AcDbLine
 10
264.5761133195
 20
33.0077696448
 30
0.0
 11
264.581905877
 21
33.0149756279
 31
0.0
  0
ARC
  5
1C8
330
1F
100
AcDbEntity
  8
0
  6
Continuous
 62
     7
370
    25
100
AcDbCircle
 10
263.6218014025
 20
34.4989328315
 30
0.0
 40
1.767464167705394
100
AcDbArc
 50
302.9024361636
 51
339.5084312408
  0
LINE
  5
1C9
330
1F
100
AcDbEntity
  8
0
  6
Continuous
 62
     7
370
    25
100
AcDbLine
 10
265.2832202166
 20
33.8874038206
 30
0.0
 11
265.2774270005
 21
33.8801974573
 31
0.0
  0
LINE
  5
1CA
330
1F
100
AcDbEntity
  8
0
  6
Continuous
 62
     7
370
    25
100
AcDbLine
 10
265.2832202166
 20
33.8874038206
 30
0.0
 11
265.2832202166
 21
33.8951278421
 31
0.0
  0
SPLINE
  5
1CB
330
1F
100
AcDbEntity
  8
0
  6
Continuous
 62
     7
370
    25
100
AcDbSpline
210
0.0
220
0.0
230
1.0
 70
     8
 71
     3
 72
     9
 73
     5
 74
     0
 42
0.000000001
 43
0.00000001
 40
0.0
 40
0.0
 40
0.0
 40
0.0
 40
0.9442799064757825
 40
1.0
 40
1.0
 40
1.0
 40
1.0
 10
263.8120423224387
 20
33.29553866667401
 30
0.0
 10
263.7817960356102
 20
33.40061296206147
 30
0.0
 10
263.749764975094
 20
33.51188748423109
 30
0.0
 10
263.7645812692646
 20
33.59723303707765
 30
0.0
 10
263.7654068345615
 20
33.60198849926414
 30
0.0
  0
SPLINE
  5
1CC
330
1F
100
AcDbEntity
  8
0
  6
Continuous
 62
     7
370
    25
100
AcDbSpline
210
0.0
220
0.0
230
1.0
 70
     8
 71
     3
 72
    10
 73
     6
 74
     0
 42
0.000000001
 43
0.00000001
 40
0.0
 40
0.0
 40
0.0
 40
0.0
 40
0.4395940406551678
 40
0.7571240997642454
 40
1.0
 40
1.0
 40
1.0
 40
1.0
 10
264.5819058769619
 20
34.8929718178673
 30
0.0
 10
264.6346711695002
 20
34.91117561154993
 30
0.0
 10
264.7255501872237
 20
34.94252847266633
 30
0.0
 10
265.0095911065887
 20
34.89921472240813
 30
0.0
 10
265.1964456076549
 20
34.85147265312764
 30
0.0
 10
265.2774270005233
 20
34.83078158469367
 30
0.0
  0
LINE
  5
1CD
330
1F
100
AcDbEntity
  8
0
  6
Continuous
 62
     7
370
    25
100
AcDbLine
 10
263.9308720691
 20
34.1256306655
 30
0.0
 11
264.2882885397
 21
34.461765652
 31
0.0
  0
SPLINE
  5
1CE
330
1F
100
AcDbEntity
  8
0
  6
Continuous
 62
     7
370
    25
100
AcDbSpline
210
0.0
220
0.0
230
1.0
 70
     8
 71
     3
 72
     9
 73
     5
 74
     0
 42
0.000000001
 43
0.00000001
 40
0.0
 40
0.0
 40
0.0
 40
0.0
 40
0.6786694912565541
 40
1.0
 40
1.0
 40
1.0
 40
1.0
 10
264.2882885397217
 20
34.46176565196052
 30
0.0
 10
264.2791735131991
 20
34.49779507699422
 30
0.0
 10
264.265742783455
 20
34.55088339980507
 30
0.0
 10
264.263063280666
 20
34.60004580140231
 30
0.0
 10
264.2622022746715
 20
34.6158431809186
 30
0.0
  0
LINE
  5
1CF
330
1F
100
AcDbEntity
  8
0
  6
Continuous
 62
     7
370
    25
100
AcDbLine
 10
263.7835866142
 20
33.4652855733
 30
0.0
 11
264.5761133195
 21
33.0077696448
 31
0.0
  0
SPLINE
  5
1D0
330
1F
100
AcDbEntity
  8
0
  6
Continuous
 62
     7
370
    25
100
AcDbSpline
210
0.0
220
0.0
230
1.0
 70
     8
 71
     3
 72
     9
 73
     5
 74
     0
 42
0.000000001
 43
0.00000001
 40
0.0
 40
0.0
 40
0.0
 40
0.0
 40
0.9874377055488446
 40
1.0
 40
1.0
 40
1.0
 40
1.0
 10
264.5703204327052
 20
33.0082874932947
 30
0.0
 10
264.4119890007709
 20
33.05107123866376
 30
0.0
 10
264.251643258407
 20
33.09439928369246
 30
0.0
 10
264.1592363645846
 20
33.09576084191136
 30
0.0
 10
264.1580755219751
 20
33.09577794620662
 30
0.0
  0
SPLINE
  5
1D1
330
1F
100
AcDbEntity
  8
0
  6
Continuous
 62
     7
370
    25
100
AcDbSpline
210
0.0
220
0.0
230
1.0
 70
     8
 71
     3
 72
    11
 73
     7
 74
     0
 42
0.000000001
 43
0.00000001
 40
0.0
 40
0.0
 40
0.0
 40
0.0
 40
0.1784090564110245
 40
0.516527963050341
 40
0.8702860442948489
 40
1.0
 40
1.0
 40
1.0
 40
1.0
 10
265.28322021656
 20
34.82253990474619
 30
0.0
 10
265.2624992924871
 20
34.78238814943977
 30
0.0
 10
265.2025082980878
 20
34.66614122342308
 30
0.0
 10
265.1569566781702
 20
34.41016710564005
 30
0.0
 10
265.2109813173086
 20
34.11522808401139
 30
0.0
 10
265.2679387302085
 20
33.94168805937957
 30
0.0
 10
265.28322021656
 20
33.89512784214305
 30
0.0
  0
LINE
  5
1D2
330
1F
100
AcDbEntity
  8
0
  6
Continuous
 62
     7
370
    25
100
AcDbLine
 10
264.2882885397
 20
34.461765652
 30
0.0
 11
265.2832202166
 21
33.8874038206
 31
0.0
  0
SPLINE
  5
1D3
330
1F
100
AcDbEntity
  8
0
  6
Continuous
 62
     7
370
    25
100
AcDbSpline
210
0.0
220
0.0
230
1.0
 70
     8
 71
     3
 72
    10
 73
     6
 74
     0
 42
0.000000001
 43
0.00000001
 40
0.0
 40
0.0
 40
0.0
 40
0.0
 40
0.4395937172876286
 40
0.7571237795448396
 40
1.0
 40
1.0
 40
1.0
 40
1.0
 10
265.2774270005233
 20
33.88019745733265
 30
0.0
 10
265.1306954202844
 20
33.78323415017272
 30
0.0
 10
264.8779757743019
 20
33.61623170517178
 30
0.0
 10
264.6673818328078
 20
33.28737119113101
 30
0.0
 10
264.6077499318415
 20
33.09733569998819
 30
0.0
 10
264.5819058769619
 20
33.01497562790313
 30
0.0
  0
LWPOLYLINE
  5
1D4
330
1F
100
AcDbEntity
  8
0
  6
Continuous
 62
     7
370
    25
100
AcDbPolyline
 90
        9
 70
   128
 43
0.0
 10
251.53794622
 20
28.8659208371
 10
251.7012198184
 20
29.4089779705
 10
251.9717966589
 20
29.9384673603
 10
252.3256352572
 20
30.4073415659
 10
252.7312947229
 20
30.7739388213
 10
253.1527315978
 20
31.0056858943
 10
253.5524984072
 20
31.0819906823
 10
253.8950745774
 20
30.9960731891
 10
253.9087716446
 20
30.9883797267
  0
ARC
  5
1D5
330
1F
100
AcDbEntity
  8
0
  6
Continuous
 62
     7
370
    25
100
AcDbCircle
 10
252.6452710555
 20
28.4499371054
 30
0.0
 40
1.182882393348739
100
AcDbArc
 50
159.4105330386
 51
231.5015178061
  0
ARC
  5
1D6
330
1F
100
AcDbEntity
  8
0
  6
Continuous
 62
     7
370
    25
100
AcDbCircle
 10
254.0566294687
 20
28.6851508279
 30
0.0
 40
1.426532799205649
100
AcDbArc
 50
327.7778607405
 51
10.1844892552
  0
LINE
  5
1D7
330
1F
100
AcDbEntity
  8
0
  6
Continuous
 62
     7
370
    25
100
AcDbLine
 10
255.4623275298
 20
28.9458235675
 30
0.0
 11
255.4606851198
 21
28.9373879306
 31
0.0
  0
LINE
  5
1D8
330
1F
100
AcDbEntity
  8
0
  6
Continuous
 62
     7
370
    25
100
AcDbLine
 10
255.4623275298
 20
28.9458235675
 30
0.0
 11
255.457533655
 21
28.9484425763
 31
0.0
  0
ARC
  5
1D9
330
1F
100
AcDbEntity
  8
0
  6
Continuous
 62
     7
370
    25
100
AcDbCircle
 10
255.029720247
 20
28.8493800171
 30
0.0
 40
0.4391328987086126
100
AcDbArc
 50
13.0373829944
 51
109.6675786904
  0
LINE
  5
1DA
330
1F
100
AcDbEntity
  8
0
  6
Continuous
 62
     7
370
    25
100
AcDbLine
 10
254.8771307213
 20
29.2655134128
 30
0.0
 11
254.881924596
 21
29.2628944041
 31
0.0
  0
LINE
  5
1DB
330
1F
100
AcDbEntity
  8
0
  6
Continuous
 62
     7
370
    25
100
AcDbLine
 10
254.8771307213
 20
29.2655134128
 30
0.0
 11
254.8706941072
 21
29.2596965708
 31
0.0
  0
ARC
  5
1DC
330
1F
100
AcDbEntity
  8
0
  6
Continuous
 62
     7
370
    25
100
AcDbCircle
 10
255.4032450481
 20
27.8935987353
 30
0.0
 40
1.46623115529383
100
AcDbArc
 50
111.2975115881
 51
152.9111317659
  0
LINE
  5
1DD
330
1F
100
AcDbEntity
  8
0
  6
Continuous
 62
     7
370
    25
100
AcDbLine
 10
254.0914209395
 20
28.5554624229
 30
0.0
 11
254.0978575535
 21
28.561279265
 31
0.0
  0
LINE
  5
1DE
330
1F
100
AcDbEntity
  8
0
  6
Continuous
 62
     7
370
    25
100
AcDbLine
 10
254.0914209395
 20
28.5554624229
 30
0.0
 11
254.0897785295
 21
28.5470268097
 31
0.0
  0
ARC
  5
1DF
330
1F
100
AcDbEntity
  8
0
  6
Continuous
 62
     7
370
    25
100
AcDbCircle
 10
255.2966020266
 20
27.7863964202
 30
0.0
 40
1.426527792380584
100
AcDbArc
 50
147.77780403
 51
190.1845778226
  0
LINE
  5
1E0
330
1F
100
AcDbEntity
  8
0
  6
Continuous
 62
     7
370
    25
100
AcDbLine
 10
253.8909086248
 20
27.5257220154
 30
0.0
 11
253.8925516934
 21
27.5341580325
 31
0.0
  0
LINE
  5
1E1
330
1F
100
AcDbEntity
  8
0
  6
Continuous
 62
     7
370
    25
100
AcDbLine
 10
253.8909086248
 20
27.5257220154
 30
0.0
 11
253.8957028288
 21
27.5231031967
 31
0.0
  0
ARC
  5
1E2
330
1F
100
AcDbEntity
  8
0
  6
Continuous
 62
     7
370
    25
100
AcDbCircle
 10
254.3235162369
 20
27.6221657559
 30
0.0
 40
0.4391328987087115
100
AcDbArc
 50
193.0373829944
 51
289.6675786904
  0
LINE
  5
1E3
330
1F
100
AcDbEntity
  8
0
  6
Continuous
 62
     7
370
    25
100
AcDbLine
 10
254.4761057626
 20
27.2060323602
 30
0.0
 11
254.4713118878
 21
27.2086513689
 31
0.0
  0
LINE
  5
1E4
330
1F
100
AcDbEntity
  8
0
  6
Continuous
 62
     7
370
    25
100
AcDbLine
 10
254.4761057626
 20
27.2060323602
 30
0.0
 11
254.4825423766
 21
27.2118492023
 31
0.0
  0
ARC
  5
1E5
330
1F
100
AcDbEntity
  8
0
  6
Continuous
 62
     7
370
    25
100
AcDbCircle
 10
253.9499924609
 20
28.5779454696
 30
0.0
 40
1.466229321900561
100
AcDbArc
 50
291.2974965198
 51
332.9111556066
  0
LINE
  5
1E6
330
1F
100
AcDbEntity
  8
0
  6
Continuous
 62
     7
370
    25
100
AcDbLine
 10
255.2618152151
 20
27.91608316
 30
0.0
 11
255.255378601
 21
27.9102663179
 31
0.0
  0
LINE
  5
1E7
330
1F
100
AcDbEntity
  8
0
  6
Continuous
 62
     7
370
    25
100
AcDbLine
 10
255.2618152151
 20
27.91608316
 30
0.0
 11
255.2634579543
 21
27.9245189633
 31
0.0
  0
SPLINE
  5
1E8
330
1F
100
AcDbEntity
  8
0
  6
Continuous
 62
     7
370
    25
100
AcDbSpline
210
0.0
220
0.0
230
1.0
 70
     8
 71
     3
 72
     9
 73
     5
 74
     0
 42
0.000000001
 43
0.00000001
 40
0.0
 40
0.0
 40
0.0
 40
0.0
 40
0.0617747942099517
 40
1.0
 40
1.0
 40
1.0
 40
1.0
 10
254.6005654062444
 20
29.12830867603734
 30
0.0
 10
254.6052885192337
 20
29.1318918085173
 30
0.0
 10
254.6817454795463
 20
29.18989495568731
 30
0.0
 10
254.7792308631516
 20
29.22590811600371
 30
0.0
 10
254.8706941072461
 20
29.25969657075271
 30
0.0
  0
SPLINE
  5
1E9
330
1F
100
AcDbEntity
  8
0
  6
Continuous
 62
     7
370
    25
100
AcDbSpline
210
0.0
220
0.0
230
1.0
 70
     8
 71
     3
 72
     9
 73
     5
 74
     0
 42
0.000000001
 43
0.00000001
 40
0.0
 40
0.0
 40
0.0
 40
0.0
 40
0.4621277658122965
 40
1.0
 40
1.0
 40
1.0
 40
1.0
 10
253.8925516933666
 20
27.53415803252993
 30
0.0
 10
253.8841987525666
 20
27.58450176076698
 30
0.0
 10
253.8661237927441
 20
27.69344074249759
 30
0.0
 10
253.8729824628745
 20
27.79853698037454
 30
0.0
 10
253.8766715511011
 20
27.85506532864612
 30
0.0
  0
SPLINE
  5
1EA
330
1F
100
AcDbEntity
  8
0
  6
Continuous
 62
     7
370
    25
100
AcDbSpline
210
0.0
220
0.0
230
1.0
 70
     8
 71
     3
 72
    10
 73
     6
 74
     0
 42
0.000000001
 43
0.00000001
 40
0.0
 40
0.0
 40
0.0
 40
0.0
 40
0.4395938359519301
 40
0.7571239767195707
 40
1.0
 40
1.0
 40
1.0
 40
1.0
 10
254.881924596013
 20
29.26289440411282
 30
0.0
 10
254.9174925480466
 20
29.24491989795571
 30
0.0
 10
254.9787521633666
 20
29.21396193524505
 30
0.0
 10
255.2201542142399
 20
29.08094771608045
 30
0.0
 10
255.385760901318
 20
28.9885061080324
 30
0.0
 10
255.4575336550216
 20
28.9484425762786
 30
0.0
  0
LINE
  5
1EB
330
1F
100
AcDbEntity
  8
0
  6
Continuous
 62
     7
370
    25
100
AcDbLine
 10
253.8913077028
 20
27.5436290941
 30
0.0
 11
254.4761057626
 21
27.2060323602
 31
0.0
  0
SPLINE
  5
1EC
330
1F
100
AcDbEntity
  8
0
  6
Continuous
 62
     7
370
    25
100
AcDbSpline
210
0.0
220
0.0
230
1.0
 70
     8
 71
     3
 72
    10
 73
     6
 74
     0
 42
0.000000001
 43
0.00000001
 40
0.0
 40
0.0
 40
0.0
 40
0.0
 40
0.4395938359519301
 40
0.7571239767195707
 40
1.0
 40
1.0
 40
1.0
 40
1.0
 10
254.4713118878459
 20
27.20865136890348
 30
0.0
 10
254.3417775443206
 20
27.28087151821777
 30
0.0
 10
254.1186771519339
 20
27.40525817284341
 30
0.0
 10
253.9507220103594
 20
27.49587239377909
 30
0.0
 10
253.9123381286398
 20
27.51486983959665
 30
0.0
 10
253.8957028288372
 20
27.5231031967377
 30
0.0
  0
LINE
  5
1ED
330
1F
100
AcDbEntity
  8
0
  6
Continuous
 62
     7
370
    25
100
AcDbLine
 10
253.9715688025
 20
28.290277668
 30
0.0
 11
254.2668835382
 21
28.4904449914
 31
0.0
  0
SPLINE
  5
1EE
330
1F
100
AcDbEntity
  8
0
  6
Continuous
 62
     7
370
    25
100
AcDbSpline
210
0.0
220
0.0
230
1.0
 70
     8
 71
     3
 72
     9
 73
     5
 74
     0
 42
0.000000001
 43
0.00000001
 40
0.0
 40
0.0
 40
0.0
 40
0.0
 40
0.3382549404807569
 40
1.0
 40
1.0
 40
1.0
 40
1.0
 10
254.2668835382276
 20
28.49044499141985
 30
0.0
 10
254.2651770346882
 20
28.52902332860712
 30
0.0
 10
254.2601320129155
 20
28.64307439651598
 30
0.0
 10
254.2776289962353
 20
28.74967111497497
 30
0.0
 10
254.2892075385037
 20
28.82021096677617
 30
0.0
  0
LINE
  5
1EF
330
1F
100
AcDbEntity
  8
0
  6
Continuous
 62
     7
370
    25
100
AcDbLine
 10
254.2668835382
 20
28.4904449914
 30
0.0
 11
255.2618152151
 21
27.91608316
 31
0.0
  0
SPLINE
  5
1F0
330
1F
100
AcDbEntity
  8
0
  6
Continuous
 62
     7
370
    25
100
AcDbSpline
210
0.0
220
0.0
230
1.0
 70
     8
 71
     3
 72
    10
 73
     6
 74
     0
 42
0.000000001
 43
0.00000001
 40
0.0
 40
0.0
 40
0.0
 40
0.0
 40
0.4395937729315602
 40
0.7571236466950529
 40
1.0
 40
1.0
 40
1.0
 40
1.0
 10
255.2553786010449
 20
27.91026631792411
 30
0.0
 10
255.0975587978184
 20
27.83722538388334
 30
0.0
 10
254.8257416969011
 20
27.71142510702736
 30
0.0
 10
254.5876557409952
 20
27.4418778920667
 30
0.0
 10
254.5143239081044
 20
27.28139948344724
 30
0.0
 10
254.4825423766128
 20
27.21184920226359
 30
0.0
  0
SPLINE
  5
1F1
330
1F
100
AcDbEntity
  8
0
  6
Continuous
 62
     7
370
    25
100
AcDbSpline
210
0.0
220
0.0
230
1.0
 70
     8
 71
     3
 72
    11
 73
     7
 74
     0
 42
0.000000001
 43
0.00000001
 40
0.0
 40
0.0
 40
0.0
 40
0.0
 40
0.1784090842728288
 40
0.5165280271452983
 40
0.8702860772630583
 40
1.0
 40
1.0
 40
1.0
 40
1.0
 10
255.4606851197646
 20
28.93738793057119
 30
0.0
 10
255.4288814532175
 20
28.89243410910809
 30
0.0
 10
255.3368038260916
 20
28.76228429746806
 30
0.0
 10
255.2312233593524
 20
28.48030017990963
 30
0.0
 10
255.2291574639771
 20
28.16105762431717
 30
0.0
 10
255.2562019962558
 20
27.97455657477454
 30
0.0
 10
255.2634579543411
 20
27.924518963312
 30
0.0
  0
LWPOLYLINE
  5
1F2
330
1F
100
AcDbEntity
  8
0
  6
Continuous
 62
     7
370
    25
100
AcDbPolyline
 90
       24
 70
   128
 43
0.0
 10
268.4768057235
 20
23.5127611499
 10
268.4574039116
 20
23.5001607101
 10
267.9247210988
 20
23.2284762055
 10
267.41355169
 20
23.1101026548
 10
266.9514530667
 20
23.1514211365
 10
266.5633370621
 20
23.3502046263
 10
266.27012687
 20
23.6957361913
 10
266.0876298635
 20
24.1693885682
 10
266.0256843683
 20
24.745626819
 10
266.0876298635
 20
25.3933858162
 10
266.27012687
 20
26.0777447519
 10
266.5633370621
 20
26.7618095988
 10
266.9514530667
 20
27.4087022892
 10
267.41355169
 20
27.9835484849
 10
267.9247210988
 20
28.4553585712
 10
268.4574039116
 20
28.7986965511
 10
268.9828831324
 20
28.9950532601
 10
269.4728299977
 20
29.0338431524
 10
269.900831409
 20
28.9129750391
 10
270.2438135718
 20
28.6389646164
 10
270.4832862028
 20
28.226584185
 10
270.6063395246
 20
27.6980652116
 10
270.6063395246
 20
27.0819002966
 10
270.5843991265
 20
26.8999961859
  0
LWPOLYLINE
  5
1F3
330
1F
100
AcDbEntity
  8
0
  6
Continuous
 62
     7
370
    25
100
AcDbPolyline
 90
       16
 70
   128
 43
0.0
 10
267.2616428411
 20
30.4381246616
 10
267.2138249366
 20
30.4641508579
 10
266.7858235253
 20
30.5850189711
 10
266.29587666
 20
30.5462290789
 10
265.7703974392
 20
30.3498723699
 10
265.2377146264
 20
30.00653439
 10
264.7265452177
 20
29.5347243037
 10
264.2644465944
 20
28.959878108
 10
263.8763305898
 20
28.3129854176
 10
263.5831203977
 20
27.6289205707
 10
263.4006233912
 20
26.944561635
 10
263.3386778959
 20
26.2968026378
 10
263.4006233912
 20
25.720564387
 10
263.5831203977
 20
25.2469120101
 10
263.8763305898
 20
24.9013804451
 10
264.0119071233
 20
24.8088070321
  0
LINE
  5
1F4
330
1F
100
AcDbEntity
  8
0
  6
Continuous
 62
     7
370
    25
100
AcDbLine
 10
269.5426539078
 20
27.3309933789
 30
0.0
 11
268.4651999364
 21
27.4273340055
 31
0.0
  0
LINE
  5
1F5
330
1F
100
AcDbEntity
  8
0
  6
Continuous
 62
     7
370
    25
100
AcDbLine
 10
268.4651999364
 20
27.4273340055
 30
0.0
 11
267.3877459649
 21
26.0869915028
 31
0.0
  0
LINE
  5
1F6
330
1F
100
AcDbEntity
  8
0
  6
Continuous
 62
     7
370
    25
100
AcDbLine
 10
267.3877459649
 20
24.6503083736
 30
0.0
 11
267.3877459649
 21
26.0869915028
 31
0.0
  0
LINE
  5
1F7
330
1F
100
AcDbEntity
  8
0
  6
Continuous
 62
     7
370
    25
100
AcDbLine
 10
268.4651999364
 20
24.5539677471
 30
0.0
 11
267.3877459649
 21
24.6503083736
 31
0.0
  0
LINE
  5
1F8
330
1F
100
AcDbEntity
  8
0
  6
Continuous
 62
     7
370
    25
100
AcDbLine
 10
268.4651999364
 20
24.5539677471
 30
0.0
 11
269.5426539078
 21
25.8943102498
 31
0.0
  0
LINE
  5
1F9
330
1F
100
AcDbEntity
  8
0
  6
Continuous
 62
     7
370
    25
100
AcDbLine
 10
269.5426539078
 20
27.3309933789
 30
0.0
 11
269.5426539078
 21
25.8943102498
 31
0.0
  0
LINE
  5
1FA
330
1F
100
AcDbEntity
  8
0
  6
Continuous
 62
     7
370
    25
100
AcDbLine
 10
267.3877473643
 20
25.1759678773
 30
0.0
 11
268.4651999364
 21
24.5539677471
 31
0.0
  0
LWPOLYLINE
  5
1FB
330
1F
100
AcDbEntity
  8
0
  6
Continuous
 62
     7
370
    25
100
AcDbPolyline
 90
        3
 70
   128
 43
0.0
 10
267.3877483727
 20
25.8195942275
 10
267.4633125478
 20
25.8955923493
 10
267.5897157621
 20
26.0405457472
  0
ARC
  5
1FC
330
1F
100
AcDbEntity
  8
0
  6
Continuous
 62
     7
370
    25
100
AcDbCircle
 10
265.6025406117
 20
27.6427805399
 30
0.0
 40
2.552649879976881
100
AcDbArc
 50
321.1211961458
 51
343.2437586151
  0
LINE
  5
1FD
330
1F
100
AcDbEntity
  8
0
  6
Continuous
 62
     7
370
    25
100
AcDbLine
 10
268.1284427478
 20
26.7107169747
 30
0.0
 11
269.5426539078
 21
25.8943102498
 31
0.0
  0
LINE
  5
1FE
330
1F
100
AcDbEntity
  8
0
  6
Continuous
 62
     7
370
    25
100
AcDbLine
 10
268.1284427478
 20
27.0084068275
 30
0.0
 11
268.1284427478
 21
26.7107169747
 31
0.0
  0
LINE
  5
1FF
330
1F
100
AcDbEntity
  8
0
  6
Continuous
 62
     7
370
    25
100
AcDbLine
 10
267.3877483727
 20
25.7893002377
 30
0.0
 11
267.5897157621
 21
26.0405457472
 31
0.0
  0
LINE
  5
200
330
1F
100
AcDbEntity
  8
0
  6
Continuous
 62
     7
370
    25
100
AcDbLine
 10
267.5897157621
 20
26.0405457472
 30
0.0
 11
268.1284427478
 21
26.7107169747
 31
0.0
  0
LINE
  5
201
330
1F
100
AcDbEntity
  8
0
  6
Continuous
 62
     7
370
    25
100
AcDbLine
 10
262.3253721688
 20
40.5044561127
 30
0.0
 11
262.5710207948
 21
40.3471569793
 31
0.0
  0
LWPOLYLINE
  5
202
330
1F
100
AcDbEntity
  8
0
  6
Continuous
 62
     7
370
    25
100
AcDbPolyline
 90
        3
 70
   128
 43
0.0
 10
253.0138837445
 20
23.9493950868
 10
252.9906977095
 20
23.9608973625
 10
252.8261442298
 20
24.0495274525
  0
SPLINE
  5
203
330
1F
100
AcDbEntity
  8
0
  6
Continuous
 62
     7
370
    25
100
AcDbSpline
210
0.0
220
0.0
230
1.0
 70
    11
 71
     3
 72
    72
 73
    68
 74
     0
 42
0.000000001
 43
0.00000001
 40
0.0
 40
0.0
 40
0.0
 40
0.0
 40
0.0312500000000002
 40
0.0312500000000002
 40
0.0625000000000004
 40
0.0625000000000004
 40
0.0937500000000006
 40
0.0937500000000006
 40
0.1250000000000009
 40
0.1250000000000009
 40
0.1562500000000011
 40
0.1562500000000011
 40
0.1875000000000013
 40
0.1875000000000013
 40
0.2187500000000015
 40
0.2187500000000015
 40
0.2500000000000017
 40
0.2500000000000017
 40
0.2812500000000019
 40
0.2812500000000019
 40
0.3125000000000021
 40
0.3125000000000021
 40
0.3437500000000023
 40
0.3437500000000023
 40
0.3750000000000025
 40
0.3750000000000025
 40
0.4062500000000027
 40
0.4062500000000027
 40
0.4375000000000029
 40
0.4375000000000029
 40
0.4687500000000032
 40
0.4687500000000032
 40
0.5000000000000033
 40
0.5000000000000033
 40
0.5312500000000036
 40
0.5312500000000036
 40
0.5625000000000038
 40
0.5625000000000038
 40
0.593750000000004
 40
0.593750000000004
 40
0.6250000000000042
 40
0.6250000000000042
 40
0.6562500000000044
 40
0.6562500000000044
 40
0.6875000000000047
 40
0.6875000000000047
 40
0.7031250000000044
 40
0.7031250000000044
 40
0.7187500000000042
 40
0.7187500000000042
 40
0.7500000000000036
 40
0.7500000000000036
 40
0.7812500000000031
 40
0.7812500000000031
 40
0.8125000000000027
 40
0.8125000000000027
 40
0.8437500000000022
 40
0.8437500000000022
 40
0.8750000000000018
 40
0.8750000000000018
 40
0.9062500000000013
 40
0.9062500000000013
 40
0.9375000000000009
 40
0.9375000000000009
 40
0.9687500000000004
 40
0.9687500000000004
 40
1.0
 40
1.0
 40
1.0
 40
1.0
 10
254.9035728797724
 20
43.01707369037756
 30
0.0
 10
254.8063189126499
 20
43.07321721054894
 30
0.0
 10
254.7023136335766
 20
43.12589598241888
 30
0.0
 10
254.4811826616908
 20
43.22431673117598
 30
0.0
 10
254.3634107496375
 20
43.27027964842022
 30
0.0
 10
254.1164786715199
 20
43.35312324764358
 30
0.0
 10
253.9896542283926
 20
43.38928153144092
 30
0.0
 10
253.7291124804843
 20
43.45000459856489
 30
0.0
 10
253.5940381036379
 20
43.47474414028094
 30
0.0
 10
253.3225965200326
 20
43.50909767983867
 30
0.0
 10
253.1877811798824
 20
43.51866400415553
 30
0.0
 10
252.9198704371184
 20
43.52079678217988
 30
0.0
 10
252.7849885229296
 20
43.51306266501545
 30
0.0
 10
252.528073434741
 20
43.47836760932395
 30
0.0
 10
252.4058035888675
 20
43.45172686666979
 30
0.0
 10
252.1740757154961
 20
43.37826328759484
 30
0.0
 10
252.0649534321461
 20
43.3310868887547
 30
0.0
 10
251.8721197035328
 20
43.22061998458008
 30
0.0
 10
251.7859747643982
 20
43.15617329691146
 30
0.0
 10
251.6399926029868
 20
43.01292021563723
 30
0.0
 10
251.5811239562643
 20
42.9354881806996
 30
0.0
 10
251.4902896026746
 20
42.77032776865937
 30
0.0
 10
251.4588606304324
 20
42.68274269627277
 30
0.0
 10
251.4247546751369
 20
42.50639349636438
 30
0.0
 10
251.421616225647
 20
42.41589400470345
 30
0.0
 10
251.4422259455565
 20
42.23677736231652
 30
0.0
 10
251.4656125156234
 20
42.1489999328477
 30
0.0
 10
251.536809950791
 20
41.97784498652893
 30
0.0
 10
251.5851142445458
 20
41.89416526450891
 30
0.0
 10
251.7020387275482
 20
41.73790268441172
 30
0.0
 10
251.770876723627
 20
41.66451863063357
 30
0.0
 10
251.9290269899798
 20
41.52770292588457
 30
0.0
 10
252.0179279904644
 20
41.46488855194947
 30
0.0
 10
252.2098129311299
 20
41.35375189325452
 30
0.0
 10
252.3134329274041
 20
41.30484839730274
 30
0.0
 10
252.5366304459157
 20
41.22067953523002
 30
0.0
 10
252.6547050352234
 20
41.18612134869952
 30
0.0
 10
252.8987337635807
 20
41.13288130273621
 30
0.0
 10
253.0254236175854
 20
41.11390733097453
 30
0.0
 10
253.2890304195088
 20
41.09155197584997
 30
0.0
 10
253.4234928863772
 20
41.08848972349519
 30
0.0
 10
253.6923047103488
 20
41.09782195572084
 30
0.0
 10
253.8275164676458
 20
41.11012817022063
 30
0.0
 10
254.0999013749168
 20
41.15046900089965
 30
0.0
 10
254.2322936826372
 20
41.17782021241413
 30
0.0
 10
254.4240242390957
 20
41.22856548999856
 30
0.0
 10
254.4868514040118
 20
41.24712508725766
 30
0.0
 10
254.6102464207224
 20
41.28757372531442
 30
0.0
 10
254.6711532724979
 20
41.30961700816751
 30
0.0
 10
254.8456838668873
 20
41.37909443664218
 30
0.0
 10
254.9524268085877
 20
41.43012457831819
 30
0.0
 10
255.1465632398719
 20
41.54136311344391
 30
0.0
 10
255.2334860205632
 20
41.60166231679504
 30
0.0
 10
255.3785473633211
 20
41.72549306614053
 30
0.0
 10
255.4385656635719
 20
41.79048849883367
 30
0.0
 10
255.5296573405451
 20
41.92268670109426
 30
0.0
 10
255.5606322388251
 20
41.98922115941911
 30
0.0
 10
255.5950780861099
 20
42.12431263167507
 30
0.0
 10
255.5981179374091
 20
42.19251608964024
 30
0.0
 10
255.577680395714
 20
42.32672614174117
 30
0.0
 10
255.5541337260017
 20
42.39389745122119
 30
0.0
 10
255.4823892215237
 20
42.52652011401566
 30
0.0
 10
255.4348216562741
 20
42.59118826805853
 30
0.0
 10
255.3177756280253
 20
42.7184266176493
 30
0.0
 10
255.2476027475424
 20
42.78143386749828
 30
0.0
 10
255.0892666431022
 20
42.90248602207051
 30
0.0
 10
255.0008268468949
 20
42.96093017020618
 30
0.0
 10
254.9035728797724
 20
43.01707369037756
 30
0.0
  0
LINE
  5
204
330
1F
100
AcDbEntity
  8
0
  6
Continuous
 62
     7
370
    25
100
AcDbLine
 10
251.1334665368
 20
46.9081382806
 30
0.0
 11
251.5777348206
 21
46.6063500564
 31
0.0
  0
LWPOLYLINE
  5
205
330
1F
100
AcDbEntity
  8
0
  6
Continuous
 62
     7
370
    25
100
AcDbPolyline
 90
       15
 70
   128
 43
0.0
 10
252.8582229206
 20
45.96776321
 10
252.8270971437
 20
45.987325615
 10
252.5318436526
 20
46.142121804
 10
252.1591054855
 20
46.3240615612
 10
251.7127453351
 20
46.5388475897
 10
251.2177602338
 20
46.7863300566
 10
250.7405854688
 20
47.0487625689
 10
250.3708489475
 20
47.2867425373
 10
250.1782506914
 20
47.4492115056
 10
250.1893020561
 20
47.4907022497
 10
250.3616411782
 20
47.4107170148
 10
250.6235993175
 20
47.2505921713
 10
250.948248589
 20
47.0344908365
 10
251.1334665368
 20
46.9081382806
 10
251.1334665368
 20
46.9081382806
  0
SPLINE
  5
206
330
1F
100
AcDbEntity
  8
0
  6
Continuous
 62
     7
370
    25
100
AcDbSpline
210
0.0
220
0.0
230
1.0
 70
     8
 71
     3
 72
    20
 73
    16
 74
     0
 42
0.000000001
 43
0.00000001
 40
0.0
 40
0.0
 40
0.0
 40
0.0
 40
0.0794186640014684
 40
0.1462181270151724
 40
0.2224434617421804
 40
0.2904461889111926
 40
0.3563013143392733
 40
0.4270111355799021
 40
0.5067334004562533
 40
0.5959057943719885
 40
0.6910887816436471
 40
0.7875284222735055
 40
0.8799899095311136
 40
0.9620446672291816
 40
1.0
 40
1.0
 40
1.0
 40
1.0
 10
242.1650462154186
 20
30.30633638369865
 30
0.0
 10
242.0029063651903
 20
30.38487800067348
 30
0.0
 10
241.7043898198294
 20
30.52948139171756
 30
0.0
 10
241.2727228640926
 20
30.73637686486558
 30
0.0
 10
240.93622145589
 20
30.90935145187603
 30
0.0
 10
240.7326781854572
 20
31.03463549345501
 30
0.0
 10
240.6715663646341
 20
31.10017542170066
 30
0.0
 10
240.7422445440384
 20
31.10313683524714
 30
0.0
 10
240.9540944600265
 20
31.02597996903819
 30
0.0
 10
241.3110911117987
 20
30.84650879161612
 30
0.0
 10
241.7859377427229
 20
30.56190864325557
 30
0.0
 10
242.3198197841834
 20
30.206362218669
 30
0.0
 10
242.820878042737
 20
29.86124437951808
 30
0.0
 10
243.1849876091631
 20
29.61652285927044
 30
0.0
 10
243.3141582629753
 20
29.54358035700185
 30
0.0
 10
243.3550107873798
 20
29.52051098895185
 30
0.0
  0
SPLINE
  5
207
330
1F
100
AcDbEntity
  8
0
  6
Continuous
 62
     7
370
    25
100
AcDbSpline
210
0.0
220
0.0
230
1.0
 70
    11
 71
     3
 72
    70
 73
    66
 74
     0
 42
0.000000001
 43
0.00000001
 40
0.0
 40
0.0
 40
0.0
 40
0.0
 40
0.03125
 40
0.03125
 40
0.0625
 40
0.0625
 40
0.09375
 40
0.09375
 40
0.125
 40
0.125
 40
0.15625
 40
0.15625
 40
0.1875
 40
0.1875
 40
0.21875
 40
0.21875
 40
0.25
 40
0.25
 40
0.28125
 40
0.28125
 40
0.3125
 40
0.3125
 40
0.34375
 40
0.34375
 40
0.375
 40
0.375
 40
0.40625
 40
0.40625
 40
0.4375
 40
0.4375
 40
0.46875
 40
0.46875
 40
0.5
 40
0.5
 40
0.53125
 40
0.53125
 40
0.5625
 40
0.5625
 40
0.59375
 40
0.59375
 40
0.625
 40
0.625
 40
0.65625
 40
0.65625
 40
0.6875
 40
0.6875
 40
0.71875
 40
0.71875
 40
0.75
 40
0.75
 40
0.78125
 40
0.78125
 40
0.8125
 40
0.8125
 40
0.84375
 40
0.84375
 40
0.875
 40
0.875
 40
0.90625
 40
0.90625
 40
0.9375
 40
0.9375
 40
0.96875
 40
0.96875
 40
1.0
 40
1.0
 40
1.0
 40
1.0
 10
240.9620618705223
 20
42.01641681529087
 30
0.0
 10
241.0243288290581
 20
42.10548563961974
 30
0.0
 10
241.0947648217761
 20
42.18560122517886
 30
0.0
 10
241.2504475773191
 20
42.3295229592799
 30
0.0
 10
241.3365835971746
 20
42.39360035718025
 30
0.0
 10
241.5150062405944
 20
42.50057196090226
 30
0.0
 10
241.6085326038605
 20
42.54453449170123
 30
0.0
 10
241.8003375212812
 20
42.6134521991383
 30
0.0
 10
241.8968049202141
 20
42.63787666688653
 30
0.0
 10
242.0903868736061
 20
42.66874894380297
 30
0.0
 10
242.1880812217132
 20
42.67503427188085
 30
0.0
 10
242.3772543922363
 20
42.67007434025646
 30
0.0
 10
242.4694876672129
 20
42.65903879109678
 30
0.0
 10
242.6490905234308
 20
42.62042486086821
 30
0.0
 10
242.7360473418142
 20
42.5927488475546
 30
0.0
 10
242.8990149350599
 20
42.52303625995354
 30
0.0
 10
242.9758222980983
 20
42.48085380077835
 30
0.0
 10
243.1198856200042
 20
42.38155898342047
 30
0.0
 10
243.1865360141199
 20
42.32465473045303
 30
0.0
 10
243.3054860667407
 20
42.19969285782813
 30
0.0
 10
243.3584152447216
 20
42.1312365794837
 30
0.0
 10
243.4507576224632
 20
41.98154722153495
 30
0.0
 10
243.4897619672311
 20
41.90056829264435
 30
0.0
 10
243.5506935913254
 20
41.73153684186811
 30
0.0
 10
243.5731222964008
 20
41.64277029222121
 30
0.0
 10
243.6007772693002
 20
41.45555926773074
 30
0.0
 10
243.6056599450303
 20
41.35756362089734
 30
0.0
 10
243.5965583385779
 20
41.16067360129969
 30
0.0
 10
243.5828087920057
 20
41.06066015258554
 30
0.0
 10
243.5348331185463
 20
40.8567861701983
 30
0.0
 10
243.5011224324399
 20
40.75586155887537
 30
0.0
 10
243.4158618123496
 20
40.56087057198966
 30
0.0
 10
243.3631415036598
 20
40.46466836964224
 30
0.0
 10
243.2430726700328
 20
40.28607871228687
 30
0.0
 10
243.1760938849088
 20
40.20357207858414
 30
0.0
 10
243.0283594251813
 20
40.05193664974187
 30
0.0
 10
242.9495709698104
 20
39.98495635394422
 30
0.0
 10
242.7850670469351
 20
39.86914486843159
 30
0.0
 10
242.6983389465896
 20
39.81984295795361
 30
0.0
 10
242.523863584867
 20
39.74161710738926
 30
0.0
 10
242.4353050271206
 20
39.71203119357941
 30
0.0
 10
242.2555242953742
 20
39.6714092861685
 30
0.0
 10
242.1666643118766
 20
39.66089412372462
 30
0.0
 10
241.9904010497166
 20
39.65800753832474
 30
0.0
 10
241.9022526700301
 20
39.66583813818976
 30
0.0
 10
241.7312788296063
 20
39.69930309717274
 30
0.0
 10
241.6486051423808
 20
39.72470759853352
 30
0.0
 10
241.4885433522759
 20
39.79242776798135
 30
0.0
 10
241.4105128057856
 20
39.83526697864076
 30
0.0
 10
241.2644225278763
 20
39.93574624371891
 30
0.0
 10
241.1960849487959
 20
39.99330308579288
 30
0.0
 10
241.0689806910525
 20
40.12301775942404
 30
0.0
 10
241.0097187595703
 20
40.19601416198404
 30
0.0
 10
240.9053138827153
 20
40.35275561530077
 30
0.0
 10
240.8599108593906
 20
40.43645816611822
 30
0.0
 10
240.7835784348824
 20
40.61474266887203
 30
0.0
 10
240.7524216379519
 20
40.71056067216391
 30
0.0
 10
240.7088527171392
 20
40.90707587575515
 30
0.0
 10
240.6961533536845
 20
41.00770830057357
 30
0.0
 10
240.6907025336895
 20
41.21385985166597
 30
0.0
 10
240.6983554822978
 20
41.32084244554758
 30
0.0
 10
240.7357005022387
 20
41.52905395847641
 30
0.0
 10
240.7650753093481
 20
41.63110255956548
 30
0.0
 10
240.8470869495168
 20
41.83065339320181
 30
0.0
 10
240.8997949119866
 20
41.92734799096199
 30
0.0
 10
240.9620618705223
 20
42.01641681529087
 30
0.0
  0
LWPOLYLINE
  5
208
330
1F
100
AcDbEntity
  8
0
  6
Continuous
 62
     7
370
    25
100
AcDbPolyline
 90
       16
 70
   128
 43
0.0
 10
254.6504307257
 20
30.5602292944
 10
254.7059140883
 20
31.0418668963
 10
254.9008696044
 20
31.8719459405
 10
255.2169151566
 20
32.7119231193
 10
255.6411116623
 20
33.5274092335
 10
256.1560923151
 20
34.2850183598
 10
256.7407738949
 20
34.9537340032
 10
257.37121942
 20
35.5061783948
 10
258.0216183704
 20
35.9197350217
 10
258.6653433838
 20
36.1774725253
 10
259.2760402704
 20
36.2688393537
 10
259.8287069558
 20
36.1900944151
 10
260.3007172502
 20
35.9444619612
 10
260.6727468235
 20
35.5419978852
 10
260.9295653521
 20
34.9991797102
 10
260.9446196796
 20
34.9508664704
  0
ARC
  5
209
330
1F
100
AcDbEntity
  8
0
  6
Continuous
 62
     7
370
    25
100
AcDbCircle
 10
256.4494905932
 20
29.9204926474
 30
0.0
 40
1.961617549729931
100
AcDbArc
 50
249.5781635619
 51
284.6298978683
  0
SPLINE
  5
20A
330
1F
100
AcDbEntity
  8
0
  6
Continuous
 62
     7
370
    25
100
AcDbSpline
210
0.0
220
0.0
230
1.0
 70
     8
 71
     3
 72
    14
 73
    10
 74
     0
 42
0.000000001
 43
0.00000001
 40
0.0
 40
0.0
 40
0.0
 40
0.0
 40
0.25
 40
0.25
 40
0.5
 40
0.5
 40
0.75
 40
0.75
 40
1.0
 40
1.0
 40
1.0
 40
1.0
 10
262.2500071143127
 20
29.9777550819113
 30
0.0
 10
262.2075800888759
 20
29.94333694458715
 30
0.0
 10
262.1645709955299
 20
29.90383190881563
 30
0.0
 10
262.085053493096
 20
29.81471875082362
 30
0.0
 10
262.0487613186896
 20
29.76523692716835
 30
0.0
 10
261.9879736944266
 20
29.65992705082386
 30
0.0
 10
261.9631189169248
 20
29.60329095436674
 30
0.0
 10
261.9259738739256
 20
29.49058780478177
 30
0.0
 10
261.9131263223694
 20
29.43294582306175
 30
0.0
 10
261.9046151176227
 20
29.37951859687227
 30
0.0
  0
LINE
  5
20B
330
1F
100
AcDbEntity
  8
0
  6
Continuous
 62
     7
370
    25
100
AcDbLine
 10
265.5860023531
 20
32.2714533215
 30
0.0
 11
265.639015186
 21
32.2391826671
 31
0.0
  0
LINE
  5
20C
330
1F
100
AcDbEntity
  8
0
  6
Continuous
 62
     7
370
    25
100
AcDbLine
 10
261.5863273448
 20
25.3430624368
 30
0.0
 11
261.5261451024
 21
25.3799614657
 31
0.0
  0
LWPOLYLINE
  5
20D
330
1F
100
AcDbEntity
  8
0
  6
Continuous
 62
     7
370
    25
100
AcDbPolyline
 90
       17
 70
   128
 43
0.0
 10
256.5658685071
 20
28.2413116328
 10
256.397937682
 20
28.356101773
 10
256.0588830786
 20
28.7457245252
 10
255.8363676394
 20
29.2729440036
 10
255.7407357816
 20
29.9132503264
 10
255.7764335037
 20
30.6368766102
 10
255.9418012737
 20
31.4101822712
 10
256.2291510782
 20
32.1972171952
 10
256.625124342
 20
32.9613929636
 10
257.1113130996
 20
33.6671841885
 10
257.6651147042
 20
34.2817795398
 10
258.2607837492
 20
34.7766070759
 10
258.8706282734
 20
35.128662826
 10
259.4662973184
 20
35.3215801303
 10
260.020098923
 20
35.3463905015
 10
260.5062876806
 20
35.2019408676
 10
260.5655435154
 20
35.1697025175
  0
LWPOLYLINE
  5
20E
330
1F
100
AcDbEntity
  8
0
  6
Continuous
 62
     7
370
    25
100
AcDbPolyline
 90
        9
 70
   128
 43
0.0
 10
261.9046145825
 20
29.3795187791
 10
261.8965976263
 20
29.2432072235
 10
261.9180984459
 20
29.1259667333
 10
261.9676784509
 20
29.0356419986
 10
262.0420202233
 20
28.9782763488
 10
262.1361496118
 20
28.957708307
 10
262.2437682968
 20
28.9753138564
 10
262.3576759172
 20
29.0299152403
 10
262.4702508081
 20
29.1178590546
  0
LWPOLYLINE
  5
20F
330
1F
100
AcDbEntity
  8
0
  6
Continuous
 62
     7
370
    25
100
AcDbPolyline
 90
        9
 70
   128
 43
0.0
 10
262.7593705333
 20
29.6186291066
 10
262.7792496871
 20
29.7601024268
 10
262.7695887568
 20
29.8860616062
 10
262.7310341863
 20
29.9880786116
 10
262.6661656589
 20
30.0593279514
 10
262.5793233947
 20
30.0950421142
 10
262.4763181433
 20
30.0928316081
 10
262.3640417376
 20
30.0528441717
 10
262.2500066889
 20
29.9777554542
  0
SPLINE
  5
210
330
1F
100
AcDbEntity
  8
0
  6
Continuous
 62
     7
370
    25
100
AcDbSpline
210
0.0
220
0.0
230
1.0
 70
     8
 71
     3
 72
    14
 73
    10
 74
     0
 42
0.000000001
 43
0.00000001
 40
0.0
 40
0.0
 40
0.0
 40
0.0
 40
0.25
 40
0.25
 40
0.5
 40
0.5
 40
0.75
 40
0.75
 40
1.0
 40
1.0
 40
1.0
 40
1.0
 10
262.47025120258
 20
29.11785870955726
 30
0.0
 10
262.5039838626077
 20
29.14957336216122
 30
0.0
 10
262.5344574439993
 20
29.18645315459955
 30
0.0
 10
262.5917579435991
 20
29.26608302939719
 30
0.0
 10
262.6181691606134
 20
29.30802506076152
 30
0.0
 10
262.6684671513701
 20
29.39512378917068
 30
0.0
 10
262.6918577600388
 20
29.43952516431328
 30
0.0
 10
262.7318572390214
 20
29.52824350074699
 30
0.0
 10
262.7487727741549
 20
29.57356614691734
 30
0.0
 10
262.7593710293554
 20
29.61862893753822
 30
0.0
  0
SPLINE
  5
211
330
1F
100
AcDbEntity
  8
0
  6
Continuous
 62
     7
370
    25
100
AcDbSpline
210
0.0
220
0.0
230
1.0
 70
     8
 71
     3
 72
    14
 73
    10
 74
     0
 42
0.000000001
 43
0.00000001
 40
0.0
 40
0.0
 40
0.0
 40
0.0
 40
0.25
 40
0.25
 40
0.5
 40
0.5
 40
0.75
 40
0.75
 40
1.0
 40
1.0
 40
1.0
 40
1.0
 10
215.8566884866672
 20
41.36039603400432
 30
0.0
 10
215.8095153794349
 20
41.3331635788582
 30
0.0
 10
215.7539513147361
 20
41.31141922071726
 30
0.0
 10
215.6320258426171
 20
41.28117379331124
 30
0.0
 10
215.5659293217412
 20
41.27287476320092
 30
0.0
 10
215.4337373926045
 20
41.27144214742116
 30
0.0
 10
215.3668022410737
 20
41.27839212160277
 30
0.0
 10
215.2441917494035
 20
41.30660147521219
 30
0.0
 10
215.1872562945997
 20
41.32817731951984
 30
0.0
 10
215.1405137512276
 20
41.35516121544023
 30
0.0
  0
SPLINE
  5
212
330
1F
100
AcDbEntity
  8
0
  6
Continuous
 62
     7
370
    25
100
AcDbSpline
210
0.0
220
0.0
230
1.0
 70
     8
 71
     3
 72
    12
 73
     8
 74
     0
 42
0.000000001
 43
0.00000001
 40
0.0
 40
0.0
 40
0.0
 40
0.0
 40
0.2500000000000032
 40
0.2500000000000032
 40
0.5000000000000064
 40
0.5000000000000064
 40
1.0
 40
1.0
 40
1.0
 40
1.0
 10
243.4689769073073
 20
69.12038581059451
 30
0.0
 10
243.5227489262553
 20
69.08934388480179
 30
0.0
 10
243.5752372013735
 20
69.04036925554497
 30
0.0
 10
243.6662431283121
 20
68.92363838069545
 30
0.0
 10
243.7048174818414
 20
68.85618691536233
 30
0.0
 10
243.7946410711376
 20
68.65186968835543
 30
0.0
 10
243.8225302979006
 20
68.51150685915802
 30
0.0
 10
243.8225302979006
 20
68.38869013410334
 30
0.0
  0
LINE
  5
213
330
1F
100
AcDbEntity
  8
0
  6
Continuous
 62
     7
370
    25
100
AcDbLine
 10
262.5237512109
 20
26.9669040533
 30
0.0
 11
262.492310485
 21
26.9861617338
 31
0.0
  0
LINE
  5
214
330
1F
100
AcDbEntity
  8
0
  6
Continuous
 62
     7
370
    25
100
AcDbLine
 10
215.140513292
 20
41.3551609187
 30
0.0
 11
213.4830654253
 21
42.3119852056
 31
0.0
  0
LWPOLYLINE
  5
215
330
1F
100
AcDbEntity
  8
0
  6
Continuous
 62
     7
370
    25
100
AcDbPolyline
 90
       25
 70
   128
 43
0.0
 10
213.4830654253
 20
42.3119852056
 10
213.8725378669
 20
44.2004065382
 10
214.382131461
 20
46.1143103573
 10
215.008213676
 20
48.0400569613
 10
215.7463248485
 20
49.9639223146
 10
216.5912032079
 20
51.8721965254
 10
217.5368270233
 20
53.751277759
 10
218.5764580672
 20
55.5877756566
 10
219.7026870553
 20
57.3686022065
 10
220.9074876472
 20
59.0810660361
 10
222.182273081
 20
60.712961381
 10
223.5179593939
 20
62.2526608556
 10
224.9050266664
 20
63.6891888317
 10
226.3335901454
 20
65.012309646
 10
227.7934687329
 20
66.2125929928
 10
229.2742579194
 20
67.2814849263
 10
230.765404941
 20
68.2113664557
 10
232.2562827825
 20
68.9956129979
 10
233.7362662398
 20
69.6286322026
 10
235.1948083112
 20
70.1059171781
 10
236.6215140362
 20
70.4240617409
 10
238.0062158168
 20
70.5808023766
 10
239.339044705
 20
70.5750198495
 10
240.610503172
 20
70.4067568761
 10
241.8115296454
 20
70.0772097544
  0
LINE
  5
216
330
1F
100
AcDbEntity
  8
0
  6
Continuous
 62
     7
370
    25
100
AcDbLine
 10
241.8115296454
 20
70.0772097544
 30
0.0
 11
243.4689775121
 21
69.1203854675
 31
0.0
  0
LINE
  5
217
330
1F
100
AcDbEntity
  8
0
  6
Continuous
 62
     7
370
    25
100
AcDbLine
 10
248.2596260484
 20
59.6579431525
 30
0.0
 11
249.6981427691
 21
60.488381179
 31
0.0
  0
LINE
  5
218
330
1F
100
AcDbEntity
  8
0
  6
Continuous
 62
     7
370
    25
100
AcDbLine
 10
248.2596260484
 20
51.4925352161
 30
0.0
 11
248.2596260484
 21
59.6579431525
 31
0.0
  0
LINE
  5
219
330
1F
100
AcDbEntity
  8
0
  6
Continuous
 62
     7
370
    25
100
AcDbLine
 10
249.6981427691
 20
52.3229732426
 30
0.0
 11
248.2596260484
 21
51.4925352161
 31
0.0
  0
LINE
  5
21A
330
1F
100
AcDbEntity
  8
0
  6
Continuous
 62
     7
370
    25
100
AcDbLine
 10
215.8566890055
 20
32.3784473529
 30
0.0
 11
217.2176370857
 21
33.1641059564
 31
0.0
  0
LINE
  5
21B
330
1F
100
AcDbEntity
  8
0
  6
Continuous
 62
     7
370
    25
100
AcDbLine
 10
217.2176370857
 20
33.1641059564
 30
0.0
 11
217.2176370857
 21
42.1460548385
 31
0.0
  0
LINE
  5
21C
330
1F
100
AcDbEntity
  8
0
  6
Continuous
 62
     7
370
    25
100
AcDbLine
 10
217.2176370857
 20
42.1460548385
 30
0.0
 11
215.8566890055
 21
41.360396235
 31
0.0
  0
LINE
  5
21D
330
1F
100
AcDbEntity
  8
0
  6
Continuous
 62
     7
370
    25
100
AcDbLine
 10
243.8225309607
 20
68.3886909823
 30
0.0
 11
243.8225309607
 21
65.8130366302
 31
0.0
  0
LINE
  5
21E
330
1F
100
AcDbEntity
  8
0
  6
Continuous
 62
     7
370
    25
100
AcDbLine
 10
246.0529922332
 20
67.1006545151
 30
0.0
 11
243.8225309607
 21
65.8130366302
 31
0.0
  0
LWPOLYLINE
  5
21F
330
1F
100
AcDbEntity
  8
0
  6
Continuous
 62
     7
370
    25
100
AcDbPolyline
 90
        3
 70
   128
 43
0.0
 10
258.8823616638
 20
35.3287416641
 10
259.4110094612
 20
35.4252852241
 10
259.8019519388
 20
35.3967122658
  0
LINE
  5
220
330
1F
100
AcDbEntity
  8
0
  6
Continuous
 62
     7
370
    25
100
AcDbLine
 10
256.0980348667
 20
28.655719879
 30
0.0
 11
255.9872554974
 21
28.7274417343
 31
0.0
  0
LWPOLYLINE
  5
221
330
1F
100
AcDbEntity
  8
0
  6
Continuous
 62
     7
370
    25
100
AcDbPolyline
 90
       22
 70
   128
 43
0.0
 10
212.5042799427
 20
43.858187645
 10
212.9168804674
 20
45.7683876053
 10
213.457079259
 20
47.7030442466
 10
214.1205641679
 20
49.6467114513
 10
214.9020404962
 20
51.5838732314
 10
215.7952652422
 20
53.4990608367
 10
216.7931103199
 20
55.3769858294
 10
217.8876060238
 20
57.2026526292
 10
219.070016761
 20
58.9614889252
 10
220.3309009789
 20
60.6394494734
 10
221.660192166
 20
62.2231381438
 10
223.0472772192
 20
63.6999109551
 10
224.4810817247
 20
65.0579785399
 10
225.9501591911
 20
66.2864972008
 10
227.4427799529
 20
67.3756597784
 10
228.9470272512
 20
68.3167693678
 10
230.4508915749
 20
69.1023135531
 10
231.9423659754
 20
69.7260194313
 10
233.4095428824
 20
70.1829079818
 10
234.8407089293
 20
70.4693305573
 10
236.2244367226
 20
70.5830005673
 10
237.4355823908
 20
70.5352671158
  0
SPLINE
  5
222
330
1F
100
AcDbEntity
  8
0
  6
Continuous
 62
     7
370
    25
100
AcDbSpline
210
0.0
220
0.0
230
1.0
 70
     8
 71
     3
 72
     8
 73
     4
 74
     0
 42
0.000000001
 43
0.00000001
 40
0.0
 40
0.0
 40
0.0
 40
0.0
 40
1.0
 40
1.0
 40
1.0
 40
1.0
 10
212.504280125564
 20
43.85818792844394
 30
0.0
 10
212.0617437717187
 20
43.78650139801469
 30
0.0
 10
211.619134581667
 20
43.71496523241291
 30
0.0
 10
211.1764628754506
 20
43.64355907610821
 30
0.0
  0
LWPOLYLINE
  5
223
330
1F
100
AcDbEntity
  8
0
  6
Continuous
 62
     7
370
    25
100
AcDbPolyline
 90
       25
 70
   128
 43
0.0
 10
211.1764625781
 20
43.6435586859
 10
211.5659350198
 20
45.5319800185
 10
212.0755286139
 20
47.4458838376
 10
212.7016108289
 20
49.3716304416
 10
213.4397220014
 20
51.2954957949
 10
214.2846003608
 20
53.2037700057
 10
215.2302241762
 20
55.0828512393
 10
216.26985522
 20
56.9193491369
 10
217.3960842081
 20
58.7001756868
 10
218.6008848
 20
60.4126395164
 10
219.8756702339
 20
62.0445348613
 10
221.2113565468
 20
63.5842343359
 10
222.5984238193
 20
65.020762312
 10
224.0269872983
 20
66.3438831263
 10
225.4868658857
 20
67.5441664731
 10
226.9676550723
 20
68.6130584066
 10
228.4588020938
 20
69.542939936
 10
229.9496799353
 20
70.3271864782
 10
231.4296633927
 20
70.9602056829
 10
232.8882054641
 20
71.4374906585
 10
234.314911189
 20
71.7556352212
 10
235.6996129696
 20
71.9123758569
 10
237.0324418579
 20
71.9065933298
 10
238.3039003249
 20
71.7383303564
 10
239.5049267982
 20
71.4087832347
  0
LINE
  5
224
330
1F
100
AcDbEntity
  8
0
  6
Continuous
 62
     7
370
    25
100
AcDbLine
 10
239.5049267982
 20
71.4087832347
 30
0.0
 11
239.8011019223
 21
70.4648750551
 31
0.0
  0
LWPOLYLINE
  5
225
330
1F
100
AcDbEntity
  8
0
  6
Continuous
 62
     7
370
    25
100
AcDbPolyline
 90
       12
 70
   128
 43
0.0
 10
222.9961766966
 20
73.0146209375
 10
223.0502507329
 20
73.0446250363
 10
224.5278571327
 20
73.7902790706
 10
225.9925025945
 20
74.3860481547
 10
227.4339132891
 20
74.8277549604
 10
228.841979241
 20
75.1123007897
 10
230.2068232705
 20
75.2376886432
 10
231.5188724454
 20
75.2030401341
 10
232.768923606
 20
75.0085983332
 10
233.9482082324
 20
74.6557271932
 10
235.048454347
 20
74.1469001352
 10
235.1790213324
 20
74.0730841996
  0
LWPOLYLINE
  5
226
330
1F
100
AcDbEntity
  8
0
  6
Continuous
 62
     7
370
    25
100
AcDbPolyline
 90
       10
 70
   128
 43
0.0
 10
210.1810537652
 20
30.7706408373
 10
209.7935714451
 20
31.0086473276
 10
208.8261629774
 20
31.7443779641
 10
207.9559306544
 20
32.6251471322
 10
207.1889778666
 20
33.6447754983
 10
206.5306822885
 20
34.7961111648
 10
205.9856642682
 20
36.0710798636
 10
205.5577446811
 20
37.4607370518
 10
205.249925173
 20
38.955335595
 10
205.0950315535
 20
40.1828558678
  0
LINE
  5
227
330
1F
100
AcDbEntity
  8
0
  6
Continuous
 62
     7
370
    25
100
AcDbLine
 10
235.3372495127
 20
73.8147321196
 30
0.0
 11
239.5049267982
 21
71.4087832347
 31
0.0
  0
LINE
  5
228
330
1F
100
AcDbEntity
  8
0
  6
Continuous
 62
     7
370
    25
100
AcDbLine
 10
211.1764625781
 20
43.6435586859
 30
0.0
 11
210.5443191195
 21
44.0084873369
 31
0.0
  0
SPLINE
  5
229
330
1F
100
AcDbEntity
  8
0
  6
Continuous
 62
     7
370
    25
100
AcDbSpline
210
0.0
220
0.0
230
1.0
 70
     8
 71
     3
 72
    30
 73
    26
 74
     0
 42
0.000000001
 43
0.00000001
 40
0.0
 40
0.0
 40
0.0
 40
0.0
 40
0.1250000000000002
 40
0.1250000000000002
 40
0.1875000000000003
 40
0.1875000000000003
 40
0.2500000000000004
 40
0.2500000000000004
 40
0.3750000000000001
 40
0.3750000000000001
 40
0.4374999999999998
 40
0.4374999999999998
 40
0.4999999999999996
 40
0.4999999999999996
 40
0.6249999999999996
 40
0.6249999999999996
 40
0.6874999999999997
 40
0.6874999999999997
 40
0.7499999999999997
 40
0.7499999999999997
 40
0.8124999999999998
 40
0.8124999999999998
 40
0.8749999999999999
 40
0.8749999999999999
 40
1.0
 40
1.0
 40
1.0
 40
1.0
 10
210.544319673515
 20
44.00848757886406
 30
0.0
 10
210.3100040399084
 20
44.14375511489468
 30
0.0
 10
210.0745035633797
 20
44.24701764382405
 30
0.0
 10
209.71995311599
 20
44.35626038158782
 30
0.0
 10
209.601558852591
 20
44.38501334358453
 30
0.0
 10
209.3645042075407
 20
44.42696650823422
 30
0.0
 10
209.2456842963049
 20
44.44007164313632
 30
0.0
 10
208.8970404123287
 20
44.45532303215064
 30
0.0
 10
208.6722755696867
 20
44.43424427070863
 30
0.0
 10
208.348064922083
 20
44.35724121883295
 30
0.0
 10
208.2416488461718
 20
44.32373261379973
 30
0.0
 10
208.0363396161993
 20
44.2421942676761
 30
0.0
 10
207.9377448856916
 20
44.19438866257477
 30
0.0
 10
207.6542468918926
 20
44.03072145302186
 30
0.0
 10
207.4815039182224
 20
43.89480935654527
 30
0.0
 10
207.2493791197263
 20
43.65043821964019
 30
0.0
 10
207.1770651339003
 20
43.56262113443255
 30
0.0
 10
207.0447468198307
 20
43.37724056549227
 30
0.0
 10
206.9843928811099
 20
43.27931956545194
 30
0.0
 10
206.8754297469669
 20
43.0732317147477
 30
0.0
 10
206.8268199218687
 20
42.96506490790345
 30
0.0
 10
206.741784105974
 20
42.7383751943967
 30
0.0
 10
206.705233226799
 20
42.61923476667393
 30
0.0
 10
206.6162389497061
 20
42.25125043821981
 30
0.0
 10
206.583902392726
 20
41.99202531292313
 30
0.0
 10
206.5792164864292
 20
41.71881873149297
 30
0.0
  0
ARC
  5
22A
330
1F
100
AcDbEntity
  8
0
  6
Continuous
 62
     7
370
    25
100
AcDbCircle
 10
230.1418941073
 20
41.3105484656
 30
0.0
 40
23.56621418191198
100
AcDbArc
 50
179.0073355702
 51
180.9926644298
  0
SPLINE
  5
22B
330
1F
100
AcDbEntity
  8
0
  6
Continuous
 62
     7
370
    25
100
AcDbSpline
210
0.0
220
0.0
230
1.0
 70
     8
 71
     3
 72
    30
 73
    26
 74
     0
 42
0.000000001
 43
0.00000001
 40
0.0
 40
0.0
 40
0.0
 40
0.0
 40
0.1249999999999996
 40
0.1249999999999996
 40
0.1874999999999994
 40
0.1874999999999994
 40
0.2499999999999993
 40
0.2499999999999993
 40
0.3749999999999992
 40
0.3749999999999992
 40
0.4374999999999993
 40
0.4374999999999993
 40
0.4999999999999994
 40
0.4999999999999994
 40
0.6249999999999992
 40
0.6249999999999992
 40
0.6874999999999993
 40
0.6874999999999993
 40
0.7499999999999994
 40
0.7499999999999994
 40
0.8124999999999997
 40
0.8124999999999997
 40
0.8749999999999998
 40
0.8749999999999998
 40
1.0
 40
1.0
 40
1.0
 40
1.0
 10
206.5792164864292
 20
40.90227791960722
 30
0.0
 10
206.5839027330879
 20
40.6344621189755
 30
0.0
 10
206.6162122534067
 20
40.36074595399009
 30
0.0
 10
206.7038703087753
 20
39.94149780679469
 30
0.0
 10
206.7396644800888
 20
39.80028738810238
 30
0.0
 10
206.8245250949412
 20
39.51478677311023
 30
0.0
 10
206.8737777428549
 20
39.3702017082792
 30
0.0
 10
207.0379820790243
 20
38.94110943912759
 30
0.0
 10
207.1700345370847
 20
38.65813662364375
 30
0.0
 10
207.4000851046036
 20
38.23713271290661
 30
0.0
 10
207.4825481430974
 20
38.09672764303282
 30
0.0
 10
207.6562998783166
 20
37.82006334893859
 30
0.0
 10
207.7471014701502
 20
37.68447879989221
 30
0.0
 10
208.0304959423816
 20
37.28538173313257
 30
0.0
 10
208.2339758170486
 20
37.02945479012539
 30
0.0
 10
208.5598838042974
 20
36.65982881008971
 30
0.0
 10
208.6716244197585
 20
36.53950996290419
 30
0.0
 10
208.8969285238959
 20
36.30867236477339
 30
0.0
 10
209.0110511713749
 20
36.19750977069383
 30
0.0
 10
209.2419609579393
 20
35.98343596151886
 30
0.0
 10
209.3587483739481
 20
35.88052483478439
 30
0.0
 10
209.5948313364179
 20
35.68296666786916
 30
0.0
 10
209.7147087108076
 20
35.58789489526378
 30
0.0
 10
210.0731919659714
 20
35.31908981666121
 30
0.0
 10
210.3100006325346
 20
35.16180815118643
 30
0.0
 10
210.544319673515
 20
35.02653864812081
 30
0.0
  0
LINE
  5
22C
330
1F
100
AcDbEntity
  8
0
  6
Continuous
 62
     7
370
    25
100
AcDbLine
 10
210.5443191195
 20
35.0265384548
 30
0.0
 11
211.1764625781
 21
34.6616098038
 31
0.0
  0
LWPOLYLINE
  5
22D
330
1F
100
AcDbEntity
  8
0
  6
Continuous
 62
     7
370
    25
100
AcDbPolyline
 90
        9
 70
   128
 43
0.0
 10
217.128649942
 20
26.8829889312
 10
216.3153817189
 20
27.2432280726
 10
215.2659936797
 20
27.8771845271
 10
214.3114834647
 20
28.6642596473
 10
213.4587354984
 20
29.5987797338
 10
212.7138979523
 20
30.6740011854
 10
212.0823458666
 20
31.8821728598
 10
211.5686324181
 20
33.2145786647
 10
211.1764625781
 20
34.6616098038
  0
LINE
  5
22E
330
1F
100
AcDbEntity
  8
0
  6
Continuous
 62
     7
370
    25
100
AcDbLine
 10
241.4568790617
 20
70.2814408545
 30
0.0
 11
241.8092899355
 21
70.0779983875
 31
0.0
  0
SPLINE
  5
22F
330
1F
100
AcDbEntity
  8
0
  6
Continuous
 62
     7
370
    25
100
AcDbSpline
210
0.0
220
0.0
230
1.0
 70
     8
 71
     3
 72
    22
 73
    18
 74
     0
 42
0.000000001
 43
0.00000001
 40
0.0
 40
0.0
 40
0.0
 40
0.0
 40
0.2500000000000002
 40
0.2500000000000002
 40
0.3750000000000003
 40
0.3750000000000003
 40
0.5000000000000004
 40
0.5000000000000004
 40
0.6250000000000004
 40
0.6250000000000004
 40
0.7500000000000004
 40
0.7500000000000004
 40
0.8750000000000004
 40
0.8750000000000004
 40
0.9375000000000002
 40
0.9375000000000002
 40
1.0
 40
1.0
 40
1.0
 40
1.0
 10
235.337248923662
 20
73.81473245357512
 30
0.0
 10
235.7692810192011
 20
73.64646201546867
 30
0.0
 10
236.2196556675665
 20
73.43578601058846
 30
0.0
 10
236.9446291092507
 20
73.05069177433182
 30
0.0
 10
237.1965964329701
 20
72.90956623605604
 30
0.0
 10
237.7093885461024
 20
72.61054926683886
 30
0.0
 10
237.9709098581614
 20
72.45238342948304
 30
0.0
 10
238.5084845397601
 20
72.11978348814556
 30
0.0
 10
238.7864470844228
 20
71.94408567677951
 30
0.0
 10
239.3390530031682
 20
71.59244276068615
 30
0.0
 10
239.6160489283396
 20
71.41506393156344
 30
0.0
 10
240.1742365082363
 20
71.06075351225087
 30
0.0
 10
240.4444125973961
 20
70.89089567253842
 30
0.0
 10
240.8358799124925
 20
70.65032668756372
 30
0.0
 10
240.9641271426004
 20
70.57245880501532
 30
0.0
 10
241.2159887817819
 20
70.42185250951688
 30
0.0
 10
241.3388810156283
 20
70.34955967030595
 30
0.0
 10
241.4568796744877
 20
70.28144049450385
 30
0.0
  0
LINE
  5
230
330
1F
100
AcDbEntity
  8
0
  6
Continuous
 62
     7
370
    25
100
AcDbLine
 10
212.8253809764
 20
44.0435553261
 30
0.0
 11
212.5042799427
 21
43.858187645
 31
0.0
  0
LINE
  5
231
330
1F
100
AcDbEntity
  8
0
  6
Continuous
 62
     7
370
    25
100
AcDbLine
 10
213.7860301433
 20
43.8251410178
 30
0.0
 11
213.3993756136
 21
44.0483519266
 31
0.0
  0
SPLINE
  5
232
330
1F
100
AcDbEntity
  8
0
  6
Continuous
 62
     7
370
    25
100
AcDbSpline
210
0.0
220
0.0
230
1.0
 70
     8
 71
     3
 72
    12
 73
     8
 74
     0
 42
0.000000001
 43
0.00000001
 40
0.0
 40
0.0
 40
0.0
 40
0.0
 40
0.250000000000003
 40
0.250000000000003
 40
0.500000000000006
 40
0.500000000000006
 40
1.0
 40
1.0
 40
1.0
 40
1.0
 10
213.3993757802563
 20
44.04835240630982
 30
0.0
 10
213.3619837426734
 20
44.06993837013625
 30
0.0
 10
213.3158354318184
 20
44.08737850515872
 30
0.0
 10
213.2171355944358
 20
44.10983463347304
 30
0.0
 10
213.1636240281404
 20
44.11522093907366
 30
0.0
 10
213.005026608439
 20
44.11313978026352
 30
0.0
 10
212.9003125138212
 20
44.08681255977272
 30
0.0
 10
212.8253806752945
 20
44.04355533014723
 30
0.0
  0
LWPOLYLINE
  5
233
330
1F
100
AcDbEntity
  8
0
  6
Continuous
 62
     7
370
    25
100
AcDbPolyline
 90
       17
 70
   128
 43
0.0
 10
241.6501039228
 20
40.0282042966
 10
242.0359286865
 20
39.9153397146
 10
242.4581630588
 20
39.9844651563
 10
242.8525298033
 20
40.2250540352
 10
243.1589890877
 20
40.600479766
 10
243.3308840215
 20
41.0535878428
 10
243.3420463509
 20
41.5153959217
 10
243.1907780189
 20
41.9155974276
 10
242.9001037171
 20
42.1932674433
 10
242.5142815876
 20
42.3061305046
 10
242.0920472153
 20
42.2370050628
 10
241.6976804708
 20
41.996416184
 10
241.3912211864
 20
41.6209904532
 10
241.2193262526
 20
41.1678823764
 10
241.2081639232
 20
40.7060742975
 10
241.3594322552
 20
40.3058727916
 10
241.6501039228
 20
40.0282042966
  0
LWPOLYLINE
  5
234
330
1F
100
AcDbEntity
  8
0
  6
Continuous
 62
     7
370
    25
100
AcDbPolyline
 90
       18
 70
   128
 43
0.0
 10
205.2230108088
 20
45.7472068114
 10
205.2541020121
 20
45.9815888233
 10
205.5670700212
 20
47.8391801841
 10
206.0020636934
 20
49.7305257878
 10
206.5559483569
 20
51.6419969128
 10
207.2247345491
 20
53.559823091
 10
208.0036017241
 20
55.4701848828
 10
208.8869403999
 20
57.3593191965
 10
209.8683850852
 20
59.2136143438
 10
210.940863012
 20
61.0197096552
 10
212.0966494533
 20
62.7645920542
 10
213.3274151381
 20
64.4356903499
 10
214.6242934231
 20
66.0209657256
 10
215.9779395618
 20
67.5089931033
 10
217.3786008393
 20
68.889051822
 10
218.8161853902
 20
70.1512003467
 10
220.2803356266
 20
71.286344513
 10
221.5698815125
 20
72.165707875
  0
LINE
  5
235
330
1F
100
AcDbEntity
  8
0
  6
Continuous
 62
     7
370
    25
100
AcDbLine
 10
212.2678894646
 20
36.021534436
 30
0.0
 11
217.2176370857
 21
33.1641059564
 31
0.0
  0
ARC
  5
236
330
1F
100
AcDbEntity
  8
0
  6
Continuous
 62
     7
370
    25
100
AcDbCircle
 10
216.4084359754
 20
42.4945628902
 30
0.0
 40
7.684023866253081
100
AcDbArc
 50
182.6054781208
 51
237.3945216397
  0
LINE
  5
237
330
1F
100
AcDbEntity
  8
0
  6
Continuous
 62
     7
370
    25
100
AcDbLine
 10
208.7323556377
 20
42.9617995363
 30
0.0
 11
208.7323556377
 21
42.1452586856
 31
0.0
  0
ARC
  5
238
330
1F
100
AcDbEntity
  8
0
  6
Continuous
 62
     7
370
    25
100
AcDbCircle
 10
211.9450985848
 20
43.0749473872
 30
0.0
 40
3.214734776046069
100
AcDbArc
 50
155.343366055
 51
182.0170353142
  0
SPLINE
  5
239
330
1F
100
AcDbEntity
  8
0
  6
Continuous
 62
     7
370
    25
100
AcDbSpline
210
0.0
220
0.0
230
1.0
 70
     8
 71
     3
 72
     8
 73
     4
 74
     0
 42
0.000000001
 43
0.00000001
 40
0.0
 40
0.0
 40
0.0
 40
0.0
 40
1.0
 40
1.0
 40
1.0
 40
1.0
 10
196.9765857026669
 20
47.4551296283197
 30
0.0
 10
197.4434479283337
 20
47.07488804105776
 30
0.0
 10
197.9104827127172
 20
46.70798139251492
 30
0.0
 10
198.3776078248925
 20
46.34805506692296
 30
0.0
  0
SPLINE
  5
23A
330
1F
100
AcDbEntity
  8
0
  6
Continuous
 62
     7
370
    25
100
AcDbSpline
210
0.0
220
0.0
230
1.0
 70
     8
 71
     3
 72
    14
 73
    10
 74
     0
 42
0.000000001
 43
0.00000001
 40
0.0
 40
0.0
 40
0.0
 40
0.0
 40
0.1249999999999987
 40
0.1249999999999987
 40
0.2499999999999973
 40
0.2499999999999973
 40
0.4999999999999947
 40
0.4999999999999947
 40
1.0
 40
1.0
 40
1.0
 40
1.0
 10
198.3776078248926
 20
46.34805506692292
 30
0.0
 10
198.4040317635658
 20
46.3276950586373
 30
0.0
 10
198.4280957060706
 20
46.31218275532265
 30
0.0
 10
198.4643649634957
 20
46.29519938676329
 30
0.0
 10
198.4763833384839
 20
46.29332514535735
 30
0.0
 10
198.5018975851542
 20
46.29746598669259
 30
0.0
 10
198.5060912476023
 20
46.31240837475561
 30
0.0
 10
198.5071980573379
 20
46.36675971110076
 30
0.0
 10
198.4915700722492
 20
46.41818067177675
 30
0.0
 10
198.4719173396156
 20
46.47452949936272
 30
0.0
  0
SPLINE
  5
23B
330
1F
100
AcDbEntity
  8
0
  6
Continuous
 62
     7
370
    25
100
AcDbSpline
210
0.0
220
0.0
230
1.0
 70
     8
 71
     3
 72
    14
 73
    10
 74
     0
 42
0.000000001
 43
0.00000001
 40
0.0
 40
0.0
 40
0.0
 40
0.0
 40
0.25
 40
0.25
 40
0.5
 40
0.5
 40
0.75
 40
0.75
 40
1.0
 40
1.0
 40
1.0
 40
1.0
 10
198.4719173396152
 20
46.47452949936308
 30
0.0
 10
198.4472514916772
 20
46.54525206190089
 30
0.0
 10
198.4363886209527
 20
46.6083183596511
 30
0.0
 10
198.4144382537579
 20
46.7398851006097
 30
0.0
 10
198.4041666589389
 20
46.80783843960138
 30
0.0
 10
198.3748626445803
 20
46.95644344344481
 30
0.0
 10
198.3560699733507
 20
47.03690724987568
 30
0.0
 10
198.3031506688344
 20
47.21647812369001
 30
0.0
 10
198.2690714916555
 20
47.31530916961787
 30
0.0
 10
198.2249852393778
 20
47.42290922459715
 30
0.0
  0
LWPOLYLINE
  5
23C
330
1F
100
AcDbEntity
  8
0
  6
Continuous
 62
     7
370
    25
100
AcDbPolyline
 90
        9
 70
   128
 43
0.0
 10
198.2249849606
 20
47.4229093771
 10
197.8569046787
 20
48.4940547568
 10
197.5917759769
 20
49.6580576342
 10
197.4318089304
 20
50.905208877
 10
197.3783377506
 20
52.2251055129
 10
197.4318089304
 20
53.6067386591
 10
197.5917759769
 20
55.0385839224
 10
197.8569046787
 20
56.5086978831
 10
198.2249849606
 20
58.0048197103
  0
SPLINE
  5
23D
330
1F
100
AcDbEntity
  8
0
  6
Continuous
 62
     7
370
    25
100
AcDbSpline
210
0.0
220
0.0
230
1.0
 70
     8
 71
     3
 72
    14
 73
    10
 74
     0
 42
0.000000001
 43
0.00000001
 40
0.0
 40
0.0
 40
0.0
 40
0.0
 40
0.25
 40
0.25
 40
0.5
 40
0.5
 40
0.75
 40
0.75
 40
1.0
 40
1.0
 40
1.0
 40
1.0
 10
198.4719173396152
 20
60.05831989867159
 30
0.0
 10
198.4472514916772
 20
59.88664736717873
 30
0.0
 10
198.4363886209527
 20
59.71166763500314
 30
0.0
 10
198.4144382537579
 20
59.36286113136195
 30
0.0
 10
198.4041666589389
 20
59.18864703942615
 30
0.0
 10
198.3748626445803
 20
58.84259612747505
 30
0.0
 10
198.3560699733507
 20
58.67071327355981
 30
0.0
 10
198.3031506688344
 20
58.33068160466559
 30
0.0
 10
198.2690714916555
 20
58.16332074416848
 30
0.0
 10
198.2249852393778
 20
58.00481978576552
 30
0.0
  0
SPLINE
  5
23E
330
1F
100
AcDbEntity
  8
0
  6
Continuous
 62
     7
370
    25
100
AcDbSpline
210
0.0
220
0.0
230
1.0
 70
     8
 71
     3
 72
    14
 73
    10
 74
     0
 42
0.000000001
 43
0.00000001
 40
0.0
 40
0.0
 40
0.0
 40
0.0
 40
0.124999999999999
 40
0.124999999999999
 40
0.249999999999998
 40
0.249999999999998
 40
0.5000000000000007
 40
0.5000000000000007
 40
1.0
 40
1.0
 40
1.0
 40
1.0
 10
198.3776078248926
 20
60.80706364231425
 30
0.0
 10
198.4040317635658
 20
60.80275734304205
 30
0.0
 10
198.4280957060706
 20
60.78687383650163
 30
0.0
 10
198.4643649634957
 20
60.73772926361022
 30
0.0
 10
198.4763833384839
 20
60.70671790825789
 30
0.0
 10
198.5018975851542
 20
60.60985936639045
 30
0.0
 10
198.5060912476023
 20
60.53957874551431
 30
0.0
 10
198.5071980573379
 20
60.33317734343643
 30
0.0
 10
198.4915700722492
 20
60.19510150741426
 30
0.0
 10
198.4719173396156
 20
60.05831989867151
 30
0.0
  0
SPLINE
  5
23F
330
1F
100
AcDbEntity
  8
0
  6
Continuous
 62
     7
370
    25
100
AcDbSpline
210
0.0
220
0.0
230
1.0
 70
     8
 71
     3
 72
     8
 73
     4
 74
     0
 42
0.000000001
 43
0.00000001
 40
0.0
 40
0.0
 40
0.0
 40
0.0
 40
1.0
 40
1.0
 40
1.0
 40
1.0
 10
196.9765857026669
 20
60.97627653619922
 30
0.0
 10
197.4434479283338
 20
60.94418678213391
 30
0.0
 10
197.9104827127172
 20
60.88319084482826
 30
0.0
 10
198.3776078248926
 20
60.80706364231428
 30
0.0
  0
SPLINE
  5
240
330
1F
100
AcDbEntity
  8
0
  6
Continuous
 62
     7
370
    25
100
AcDbSpline
210
0.0
220
0.0
230
1.0
 70
     8
 71
     3
 72
    14
 73
    10
 74
     0
 42
0.000000001
 43
0.00000001
 40
0.0
 40
0.0
 40
0.0
 40
0.0
 40
0.5000000000000012
 40
0.5000000000000012
 40
0.7500000000000018
 40
0.7500000000000018
 40
0.8750000000000009
 40
0.8750000000000009
 40
1.0
 40
1.0
 40
1.0
 40
1.0
 10
194.1320483254483
 20
61.90085841236168
 30
0.0
 10
194.5970828581635
 20
61.70451316310078
 30
0.0
 10
195.0639387794452
 20
61.51686065163268
 30
0.0
 10
195.7709651650498
 20
61.26684269468819
 30
0.0
 10
196.0077501479409
 20
61.18868143688934
 30
0.0
 10
196.3665307860726
 20
61.08811417149433
 30
0.0
 10
196.4867296100737
 20
61.05739267524268
 30
0.0
 10
196.7293317081835
 20
61.00611796885811
 30
0.0
 10
196.8515834657724
 20
60.98486855932511
 30
0.0
 10
196.9765857026669
 20
60.97627653619917
 30
0.0
  0
SPLINE
  5
241
330
1F
100
AcDbEntity
  8
0
  6
Continuous
 62
     7
370
    25
100
AcDbSpline
210
0.0
220
0.0
230
1.0
 70
     8
 71
     3
 72
    14
 73
    10
 74
     0
 42
0.000000001
 43
0.00000001
 40
0.0
 40
0.0
 40
0.0
 40
0.0
 40
0.5000000000000012
 40
0.5000000000000012
 40
0.7500000000000018
 40
0.7500000000000018
 40
0.8750000000000009
 40
0.8750000000000009
 40
1.0
 40
1.0
 40
1.0
 40
1.0
 10
194.1320483254483
 20
49.57791443648745
 30
0.0
 10
194.5970828581635
 20
49.24306912024901
 30
0.0
 10
195.0639387794452
 20
48.90428094517742
 30
0.0
 10
195.7709651650498
 20
48.38198519814458
 30
0.0
 10
196.0077501479409
 20
48.20556349005417
 30
0.0
 10
196.3665307860726
 20
47.93348133853518
 30
0.0
 10
196.4867296100737
 20
47.84153597717825
 30
0.0
 10
196.7293317081835
 20
47.6531099563479
 30
0.0
 10
196.8515834657724
 20
47.55693921229324
 30
0.0
 10
196.9765857026669
 20
47.45512962831973
 30
0.0
  0
SPLINE
  5
242
330
1F
100
AcDbEntity
  8
0
  6
Continuous
 62
     7
370
    25
100
AcDbSpline
210
0.0
220
0.0
230
1.0
 70
     8
 71
     3
 72
    17
 73
    13
 74
     0
 42
0.000000001
 43
0.00000001
 40
0.0
 40
0.0
 40
0.0
 40
0.0
 40
0.1207961882900952
 40
0.2420175987944839
 40
0.3632153541307872
 40
0.4839596318162575
 40
0.6040258967628624
 40
0.6645178707182005
 40
0.7242649424600393
 40
0.8441758508052679
 40
0.9646454444514005
 40
1.0
 40
1.0
 40
1.0
 40
1.0
 10
202.5902914529654
 20
47.13413859910347
 30
0.0
 10
202.3865231619945
 20
47.50802818684186
 30
0.0
 10
201.9782692825525
 20
48.25712351443113
 30
0.0
 10
201.7850019202904
 20
49.40544197048428
 30
0.0
 10
201.9903600933328
 20
50.35777896309445
 30
0.0
 10
202.5496662587091
 20
50.99125221534354
 30
0.0
 10
203.225507938776
 20
51.13253848901865
 30
0.0
 10
203.8005072711182
 20
51.0063877847489
 30
0.0
 10
204.3802972282137
 20
50.71813855562122
 30
0.0
 10
205.0473479602257
 20
50.06084744125011
 30
0.0
 10
205.5779785022533
 20
49.23542295199679
 30
0.0
 10
205.7370428359978
 20
48.71351098768
 30
0.0
 10
205.7731325489995
 20
48.59509567381964
 30
0.0
  0
SPLINE
  5
243
330
1F
100
AcDbEntity
  8
0
  6
Continuous
 62
     7
370
    25
100
AcDbSpline
210
0.0
220
0.0
230
1.0
 70
     8
 71
     3
 72
    12
 73
     8
 74
     0
 42
0.000000001
 43
0.00000001
 40
0.0
 40
0.0
 40
0.0
 40
0.0
 40
0.0353744433893711
 40
0.3560360900717853
 40
0.5160472232178944
 40
0.6782077942890793
 40
1.0
 40
1.0
 40
1.0
 40
1.0
 10
205.0935159338504
 20
45.10194802282965
 30
0.0
 10
205.070809648699
 20
45.09810114968825
 30
0.0
 10
204.8422758200145
 20
45.05938320698618
 30
0.0
 10
204.368461361305
 20
45.32296985539647
 30
0.0
 10
203.7997609945058
 20
45.73239376613034
 30
0.0
 10
203.2163126371384
 20
46.2686217383997
 30
0.0
 10
202.8403069566965
 20
46.78847516248596
 30
0.0
 10
202.5902914529654
 20
47.13413859910347
 30
0.0
  0
SPLINE
  5
244
330
1F
100
AcDbEntity
  8
0
  6
Continuous
 62
     7
370
    25
100
AcDbSpline
210
0.0
220
0.0
230
1.0
 70
     8
 71
     3
 72
    14
 73
    10
 74
     0
 42
0.000000001
 43
0.00000001
 40
0.0
 40
0.0
 40
0.0
 40
0.0
 40
0.25
 40
0.25
 40
0.5
 40
0.5
 40
0.75
 40
0.75
 40
1.0
 40
1.0
 40
1.0
 40
1.0
 10
249.705586187897
 20
52.73547427567569
 30
0.0
 10
249.7522682242356
 20
52.70852530972227
 30
0.0
 10
249.7899548388417
 20
52.67541858557114
 30
0.0
 10
249.8388263175961
 20
52.60481001250862
 30
0.0
 10
249.8509275479959
 20
52.56631443811854
 30
0.0
 10
249.8487579364406
 20
52.49035632392316
 30
0.0
 10
249.8345175223587
 20
52.4521626163308
 30
0.0
 10
249.7826660797691
 20
52.38216796740574
 30
0.0
 10
249.7449595396655
 20
52.34999997192396
 30
0.0
 10
249.698142108948
 20
52.32297284445938
 30
0.0
  0
ARC
  5
245
330
1F
100
AcDbEntity
  8
0
  6
Continuous
 62
     7
370
    25
100
AcDbCircle
 10
224.2412644533
 20
32.7121205405
 30
0.0
 40
8.701929273940596
100
AcDbArc
 50
214.5542627763
 51
265.4839169162
  0
SPLINE
  5
246
330
1F
100
AcDbEntity
  8
0
  6
Continuous
 62
     7
370
    25
100
AcDbSpline
210
0.0
220
0.0
230
1.0
 70
     8
 71
     3
 72
    14
 73
    10
 74
     0
 42
0.000000001
 43
0.00000001
 40
0.0
 40
0.0
 40
0.0
 40
0.0
 40
0.25
 40
0.25
 40
0.5
 40
0.5
 40
0.75
 40
0.75
 40
1.0
 40
1.0
 40
1.0
 40
1.0
 10
215.1405137512276
 20
32.37321228469699
 30
0.0
 10
215.1877349146511
 20
32.34595208730218
 30
0.0
 10
215.2440216740825
 20
32.32467015577803
 30
0.0
 10
215.3674510221557
 20
32.29631552594691
 30
0.0
 10
215.4341043456156
 20
32.28947214360674
 30
0.0
 10
215.5662292225572
 20
32.2909542592359
 30
0.0
 10
215.6325885785419
 20
32.29934479092208
 30
0.0
 10
215.7538428106626
 20
32.32946311439338
 30
0.0
 10
215.8099539131399
 20
32.35146780823416
 30
0.0
 10
215.8566884866673
 20
32.37844710326108
 30
0.0
  0
LINE
  5
247
330
1F
100
AcDbEntity
  8
0
  6
Continuous
 62
     7
370
    25
100
AcDbLine
 10
213.4830654253
 20
33.3300363235
 30
0.0
 11
215.140513292
 21
32.3732120366
 31
0.0
  0
SPLINE
  5
248
330
1F
100
AcDbEntity
  8
0
  6
Continuous
 62
     7
370
    25
100
AcDbSpline
210
0.0
220
0.0
230
1.0
 70
     8
 71
     3
 72
     8
 73
     4
 74
     0
 42
0.000000001
 43
0.00000001
 40
0.0
 40
0.0
 40
0.0
 40
0.0
 40
1.0
 40
1.0
 40
1.0
 40
1.0
 10
213.8548540776304
 20
34.09656925091001
 30
0.0
 10
213.7306759097455
 20
33.84109845168393
 30
0.0
 10
213.6067582096036
 20
33.58558560501097
 30
0.0
 10
213.4830657165714
 20
33.33003666852431
 30
0.0
  0
LINE
  5
249
330
1F
100
AcDbEntity
  8
0
  6
Continuous
 62
     7
370
    25
100
AcDbLine
 10
214.175955005
 20
34.2819366531
 30
0.0
 11
213.8548539712
 21
34.096568972
 31
0.0
  0
SPLINE
  5
24A
330
1F
100
AcDbEntity
  8
0
  6
Continuous
 62
     7
370
    25
100
AcDbSpline
210
0.0
220
0.0
230
1.0
 70
     8
 71
     3
 72
    12
 73
     8
 74
     0
 42
0.000000001
 43
0.00000001
 40
0.0
 40
0.0
 40
0.0
 40
0.0
 40
0.2500000000000014
 40
0.2500000000000014
 40
0.5000000000000029
 40
0.5000000000000029
 40
1.0
 40
1.0
 40
1.0
 40
1.0
 10
214.1842643073733
 20
34.61329697350497
 30
0.0
 10
214.2216563449562
 20
34.59171100967853
 30
0.0
 10
214.2518668182737
 20
34.56507015688847
 30
0.0
 10
214.2907661882831
 20
34.50809195358267
 30
0.0
 10
214.3000965542131
 20
34.47720038390587
 30
0.0
 10
214.2964914907992
 20
34.3856440423438
 30
0.0
 10
214.2508864658876
 20
34.32519388223879
 30
0.0
 10
214.1759546273608
 20
34.28193665261332
 30
0.0
  0
LINE
  5
24B
330
1F
100
AcDbEntity
  8
0
  6
Continuous
 62
     7
370
    25
100
AcDbLine
 10
213.3993756136
 20
35.0664030445
 30
0.0
 11
214.184263861
 21
34.6132967039
 31
0.0
  0
SPLINE
  5
24C
330
1F
100
AcDbEntity
  8
0
  6
Continuous
 62
     7
370
    25
100
AcDbSpline
210
0.0
220
0.0
230
1.0
 70
     8
 71
     3
 72
    14
 73
    10
 74
     0
 42
0.000000001
 43
0.00000001
 40
0.0
 40
0.0
 40
0.0
 40
0.0
 40
0.25
 40
0.25
 40
0.5
 40
0.5
 40
0.75
 40
0.75
 40
1.0
 40
1.0
 40
1.0
 40
1.0
 10
212.8253806752945
 20
35.06160639940401
 30
0.0
 10
212.863226473073
 20
35.08345431341561
 30
0.0
 10
212.907545390221
 20
35.10082695820453
 30
0.0
 10
213.0052469267731
 20
35.1251884328964
 30
0.0
 10
213.0580000583849
 20
35.13190239742796
 30
0.0
 10
213.1639534156133
 20
35.13325984701397
 30
0.0
 10
213.2173177019087
 20
35.12788214587488
 30
0.0
 10
213.3164954766804
 20
35.10524120235903
 30
0.0
 10
213.3615023700816
 20
35.08826732987517
 30
0.0
 10
213.3993757802563
 20
35.06640347556657
 30
0.0
  0
LINE
  5
24D
330
1F
100
AcDbEntity
  8
0
  6
Continuous
 62
     7
370
    25
100
AcDbLine
 10
212.5042799427
 20
34.8762387629
 30
0.0
 11
212.8253809764
 21
35.061606444
 31
0.0
  0
SPLINE
  5
24E
330
1F
100
AcDbEntity
  8
0
  6
Continuous
 62
     7
370
    25
100
AcDbSpline
210
0.0
220
0.0
230
1.0
 70
     8
 71
     3
 72
     8
 73
     4
 74
     0
 42
0.000000001
 43
0.00000001
 40
0.0
 40
0.0
 40
0.0
 40
0.0
 40
1.0
 40
1.0
 40
1.0
 40
1.0
 10
211.1764628754506
 20
34.66161014536497
 30
0.0
 10
211.619134581667
 20
34.73301630166966
 30
0.0
 10
212.0617437717187
 20
34.80455246727144
 30
0.0
 10
212.504280125564
 20
34.87623899770069
 30
0.0
  0
LINE
  5
24F
330
1F
100
AcDbEntity
  8
0
  6
Continuous
 62
     7
370
    25
100
AcDbLine
 10
248.2596253899
 20
53.5702098873
 30
0.0
 11
249.7055862977
 21
52.735474423
 31
0.0
  0
LWPOLYLINE
  5
250
330
1F
100
AcDbEntity
  8
0
  6
Continuous
 62
     7
370
    25
100
AcDbPolyline
 90
        8
 70
   128
 43
0.0
 10
218.2286464682
 20
26.124864458
 10
217.5725965268
 20
26.5456110468
 10
216.6180863119
 20
27.3326861669
 10
215.7653383456
 20
28.2672062535
 10
215.0205007994
 20
29.342427705
 10
214.3889487137
 20
30.5505993795
 10
213.8752352652
 20
31.8830051844
 10
213.4830654253
 20
33.3300363235
  0
ARC
  5
251
330
1F
100
AcDbEntity
  8
0
  6
Continuous
 62
     7
370
    25
100
AcDbCircle
 10
224.0162594865
 20
37.338424314
 30
0.0
 40
11.77234176809723
100
AcDbArc
 50
192.0725460793
 51
215.0022747034
  0
SPLINE
  5
252
330
1F
100
AcDbEntity
  8
0
  6
Continuous
 62
     7
370
    25
100
AcDbSpline
210
0.0
220
0.0
230
1.0
 70
     8
 71
     3
 72
    12
 73
     8
 74
     0
 42
0.000000001
 43
0.00000001
 40
0.0
 40
0.0
 40
0.0
 40
0.0
 40
0.1675503883347434
 40
0.4025161747753053
 40
0.6381208840270863
 40
0.8774598722428354
 40
0.9999999999999999
 40
0.9999999999999999
 40
0.9999999999999999
 40
0.9999999999999999
 10
204.0132494011231
 20
50.79434067912144
 30
0.0
 10
203.9787414859717
 20
50.61706138227919
 30
0.0
 10
203.8958410872062
 20
50.19117287708973
 30
0.0
 10
204.090476127865
 20
49.38023067886847
 30
0.0
 10
204.523931145323
 20
48.50790326669387
 30
0.0
 10
205.045777540727
 20
47.80673850388062
 30
0.0
 10
205.4112263071279
 20
47.49614344411913
 30
0.0
 10
205.5349751960436
 20
47.39096921155368
 30
0.0
  0
SPLINE
  5
253
330
1F
100
AcDbEntity
  8
0
  6
Continuous
 62
     7
370
    25
100
AcDbSpline
210
0.0
220
0.0
230
1.0
 70
     8
 71
     3
 72
    11
 73
     7
 74
     0
 42
0.000000001
 43
0.00000001
 40
0.0
 40
0.0
 40
0.0
 40
0.0
 40
0.1889487415400878
 40
0.3635157627967836
 40
0.6686735586554259
 40
1.0
 40
1.0
 40
1.0
 40
1.0
 10
202.880604872409
 20
47.31654868414348
 30
0.0
 10
203.0071459497628
 20
47.13336395593129
 30
0.0
 10
203.2505965061648
 20
46.78093749536843
 30
0.0
 10
203.7672930387189
 20
46.21953648985408
 30
0.0
 10
204.4416191142191
 20
45.66151424714755
 30
0.0
 10
204.8964654711693
 20
45.50448721788122
 30
0.0
 10
205.1332390092996
 20
45.42274566992029
 30
0.0
  0
SPLINE
  5
254
330
1F
100
AcDbEntity
  8
0
  6
Continuous
 62
     7
370
    25
100
AcDbSpline
210
0.0
220
0.0
230
1.0
 70
     8
 71
     3
 72
    15
 73
    11
 74
     0
 42
0.000000001
 43
0.00000001
 40
0.0
 40
0.0
 40
0.0
 40
0.0
 40
0.0285605575140947
 40
0.1766231786262573
 40
0.2612396331333766
 40
0.3527785380977456
 40
0.5145481059714542
 40
0.6763327681591422
 40
0.8381560932852216
 40
1.0
 40
1.0
 40
1.0
 40
1.0
 10
204.5354004511518
 20
50.51785746234162
 30
0.0
 10
204.4925602432333
 20
50.56070353599932
 30
0.0
 10
204.2276293611299
 20
50.82567069279742
 30
0.0
 10
203.766529653874
 20
50.93820671013546
 30
0.0
 10
203.2564552201458
 20
50.94544675252486
 30
0.0
 10
202.7705969550509
 20
50.76967100907201
 30
0.0
 10
202.318621980327
 20
50.28148779829282
 30
0.0
 10
202.1291418347475
 20
49.40074792383743
 30
0.0
 10
202.3079611972244
 20
48.34774883027269
 30
0.0
 10
202.689715555589
 20
47.66029663759085
 30
0.0
 10
202.880604872409
 20
47.31654868414348
 30
0.0
  0
SPLINE
  5
255
330
1F
100
AcDbEntity
  8
0
  6
Continuous
 62
     7
370
    25
100
AcDbSpline
210
0.0
220
0.0
230
1.0
 70
     8
 71
     3
 72
     9
 73
     5
 74
     0
 42
0.000000001
 43
0.00000001
 40
0.0
 40
0.0
 40
0.0
 40
0.0
 40
0.1883710221454139
 40
1.0
 40
1.0
 40
1.0
 40
1.0
 10
243.8225303021153
 20
68.37570437154633
 30
0.0
 10
243.8649064428384
 20
68.38523709402885
 30
0.0
 10
244.0898674811155
 20
68.43584319242953
 30
0.0
 10
244.315635082257
 20
68.4852412828544
 30
0.0
 10
244.4988746096042
 20
68.52533420449394
 30
0.0
  0
LINE
  5
256
330
1F
100
AcDbEntity
  8
0
  6
Continuous
 62
     7
370
    25
100
AcDbLine
 10
244.4988746096
 20
68.5253342045
 30
0.0
 11
246.1563224764
 21
67.5685099176
 31
0.0
  0
SPLINE
  5
257
330
1F
100
AcDbEntity
  8
0
  6
Continuous
 62
     7
370
    25
100
AcDbSpline
210
0.0
220
0.0
230
1.0
 70
     8
 71
     3
 72
    16
 73
    12
 74
     0
 42
0.000000001
 43
0.00000001
 40
0.0
 40
0.0
 40
0.0
 40
0.0
 40
0.125
 40
0.125
 40
0.25
 40
0.25
 40
0.5
 40
0.5
 40
0.75
 40
0.75
 40
1.0
 40
1.0
 40
1.0
 40
1.0
 10
246.1563230631917
 20
67.56850957256336
 30
0.0
 10
246.1830650307502
 20
67.55307176329492
 30
0.0
 10
246.2060356293966
 20
67.53518004388769
 30
0.0
 10
246.2420125815208
 20
67.49700004734257
 30
0.0
 10
246.2552751202999
 20
67.47671622987195
 30
0.0
 10
246.2820302310057
 20
67.41258989857724
 30
0.0
 10
246.2812132257453
 20
67.36809704694807
 30
0.0
 10
246.253132835499
 20
67.28301735460416
 30
0.0
 10
246.2255634805746
 20
67.24164449855783
 30
0.0
 10
246.1523893248151
 20
67.16621336584983
 30
0.0
 10
246.1061554864024
 20
67.13134439102603
 30
0.0
 10
246.0529917014741
 20
67.10065359125898
 30
0.0
  0
LINE
  5
258
330
1F
100
AcDbEntity
  8
0
  6
Continuous
 62
     7
370
    25
100
AcDbLine
 10
196.7692743013
 20
53.277058504
 30
0.0
 11
197.3920479887
 21
52.9175389068
 31
0.0
  0
SPLINE
  5
259
330
1F
100
AcDbEntity
  8
0
  6
Continuous
 62
     7
370
    25
100
AcDbSpline
210
0.0
220
0.0
230
1.0
 70
     8
 71
     3
 72
    11
 73
     7
 74
     0
 42
0.000000001
 43
0.00000001
 40
0.0
 40
0.0
 40
0.0
 40
0.0
 40
0.0466304722500908
 40
0.4281527877979693
 40
0.8088298298119748
 40
1.0
 40
1.0
 40
1.0
 40
1.0
 10
249.6981427691335
 20
60.48838117896916
 30
0.0
 10
249.7031202104538
 20
60.49132876068172
 30
0.0
 10
249.7488222004734
 20
60.51839293710096
 30
0.0
 10
249.815258424752
 20
60.57963180773893
 30
0.0
 10
249.857878460962
 20
60.663405630508
 30
0.0
 10
249.8440459033673
 20
60.71356263777542
 30
0.0
 10
249.8394216395201
 20
60.73033026977717
 30
0.0
  0
LINE
  5
25A
330
1F
100
AcDbEntity
  8
0
  6
Continuous
 62
     7
370
    25
100
AcDbLine
 10
194.1172839575
 20
62.9584892444
 30
0.0
 11
194.1334578106
 21
63.0071148586
 31
0.0
  0
SPLINE
  5
25B
330
1F
100
AcDbEntity
  8
0
  6
Continuous
 62
     7
370
    25
100
AcDbSpline
210
0.0
220
0.0
230
1.0
 70
     8
 71
     3
 72
    16
 73
    12
 74
     0
 42
0.000000001
 43
0.00000001
 40
0.0
 40
0.0
 40
0.0
 40
0.0
 40
0.0332838850724123
 40
0.1625854311030977
 40
0.239429833395794
 40
0.3008069245191573
 40
0.3624173839861106
 40
0.4362069101913193
 40
0.5596777462223994
 40
0.9141728339414532
 40
1.0
 40
1.0
 40
1.0
 40
1.0
 10
194.1596356133625
 20
63.08580856452427
 30
0.0
 10
194.1612789438469
 20
63.09082218714889
 30
0.0
 10
194.1693062998686
 20
63.11531277753635
 30
0.0
 10
194.1799199167928
 20
63.13993546178065
 30
0.0
 10
194.1899763719408
 20
63.15735185251295
 30
0.0
 10
194.194834975744
 20
63.15672345452583
 30
0.0
 10
194.1960375235494
 20
63.14135507341231
 30
0.0
 10
194.1927590282312
 20
63.10478527496363
 30
0.0
 10
194.1772497311003
 20
63.00446024222899
 30
0.0
 10
194.1542550886232
 20
62.88916446602852
 30
0.0
 10
194.1355502351536
 20
62.80011988062333
 30
0.0
 10
194.1319043041314
 20
62.78276340056215
 30
0.0
  0
SPLINE
  5
25C
330
1F
100
AcDbEntity
  8
0
  6
Continuous
 62
     7
370
    25
100
AcDbSpline
210
0.0
220
0.0
230
1.0
 70
     8
 71
     3
 72
     9
 73
     5
 74
     0
 42
0.000000001
 43
0.00000001
 40
0.0
 40
0.0
 40
0.0
 40
0.0
 40
0.7766522094856231
 40
1.0
 40
1.0
 40
1.0
 40
1.0
 10
194.0661203175954
 20
62.5202937086328
 30
0.0
 10
194.0629340076285
 20
62.62912949832769
 30
0.0
 10
194.0588313862389
 20
62.7692640249094
 30
0.0
 10
194.1066122149811
 20
62.92394221286353
 30
0.0
 10
194.1172839575096
 20
62.95848924438386
 30
0.0
  0
SPLINE
  5
25D
330
1F
100
AcDbEntity
  8
0
  6
Continuous
 62
     7
370
    25
100
AcDbSpline
210
0.0
220
0.0
230
1.0
 70
     8
 71
     3
 72
     8
 73
     4
 74
     0
 42
0.000000001
 43
0.00000001
 40
0.0
 40
0.0
 40
0.0
 40
0.0
 40
1.0
 40
1.0
 40
1.0
 40
1.0
 10
194.0428191750775
 20
61.92185536215218
 30
0.0
 10
194.0714214706517
 20
61.92030194701865
 30
0.0
 10
194.1011178503891
 20
61.91391776905595
 30
0.0
 10
194.1320483254471
 20
61.90085841236802
 30
0.0
  0
SPLINE
  5
25E
330
1F
100
AcDbEntity
  8
0
  6
Continuous
 62
     7
370
    25
100
AcDbSpline
210
0.0
220
0.0
230
1.0
 70
     8
 71
     3
 72
    10
 73
     6
 74
     0
 42
0.000000001
 43
0.00000001
 40
0.0
 40
0.0
 40
0.0
 40
0.0
 40
0.4999999999999989
 40
0.4999999999999989
 40
1.0
 40
1.0
 40
1.0
 40
1.0
 10
194.1319044977443
 20
62.78276337634653
 30
0.0
 10
194.1019160278354
 20
62.64097252017653
 30
0.0
 10
194.0814827286489
 20
62.49871470413322
 30
0.0
 10
194.0528497414231
 20
62.21190443596346
 30
0.0
 10
194.0449786817766
 20
62.06744790276793
 30
0.0
 10
194.0428191750783
 20
61.92185536214847
 30
0.0
  0
ARC
  5
25F
330
1F
100
AcDbEntity
  8
0
  6
Continuous
 62
     7
370
    25
100
AcDbCircle
 10
195.2621709281
 20
61.7538091665
 30
0.0
 40
1.230877198383892
100
AcDbArc
 50
172.1531384875
 51
234.5145852444
  0
ARC
  5
260
330
1F
100
AcDbEntity
  8
0
  6
Continuous
 62
     7
370
    25
100
AcDbCircle
 10
197.775319065
 20
49.5504464235
 30
0.0
 40
3.734047488377212
100
AcDbArc
 50
122.5266350896
 51
178.3504233083
  0
SPLINE
  5
261
330
1F
100
AcDbEntity
  8
0
  6
Continuous
 62
     7
370
    25
100
AcDbSpline
210
0.0
220
0.0
230
1.0
 70
     8
 71
     3
 72
     8
 73
     4
 74
     0
 42
0.000000001
 43
0.00000001
 40
0.0
 40
0.0
 40
0.0
 40
0.0
 40
1.0
 40
1.0
 40
1.0
 40
1.0
 10
194.0428191750782
 20
49.65793659458613
 30
0.0
 10
194.0714214706522
 20
49.6272391907282
 30
0.0
 10
194.1011178503894
 20
49.60018573887788
 30
0.0
 10
194.1320483254471
 20
49.57791443648289
 30
0.0
  0
LINE
  5
262
330
1F
100
AcDbEntity
  8
0
  6
Continuous
 62
     7
370
    25
100
AcDbLine
 10
195.7675530306
 20
52.6987771235
 30
0.0
 11
196.7692743013
 21
53.277058504
 31
0.0
  0
SPLINE
  5
263
330
1F
100
AcDbEntity
  8
0
  6
Continuous
 62
     7
370
    25
100
AcDbSpline
210
0.0
220
0.0
230
1.0
 70
     8
 71
     3
 72
     9
 73
     5
 74
     0
 42
0.000000001
 43
0.00000001
 40
0.0
 40
0.0
 40
0.0
 40
0.0
 40
0.3901117718169397
 40
1.0
 40
1.0
 40
1.0
 40
1.0
 10
194.0766247610423
 20
50.72508746289826
 30
0.0
 10
194.0675472043998
 20
50.67830140952486
 30
0.0
 10
194.0442780869361
 20
50.55837154133479
 30
0.0
 10
194.0578456317364
 20
50.43751651489249
 30
0.0
 10
194.0661203175954
 20
50.36380845694858
 30
0.0
  0
ARC
  5
264
330
1F
100
AcDbEntity
  8
0
  6
Continuous
 62
     7
370
    25
100
AcDbCircle
 10
196.5602339757
 20
50.2376557572
 30
0.0
 40
2.530988818362184
100
AcDbArc
 50
122.9343808406
 51
168.8962913337
  0
LINE
  5
265
330
1F
100
AcDbEntity
  8
0
  6
Continuous
 62
     7
370
    25
100
AcDbLine
 10
195.7675530306
 20
52.6987771235
 30
0.0
 11
195.1841905978
 21
52.3618989214
 31
0.0
  0
LINE
  5
266
330
1F
100
AcDbEntity
  8
0
  6
Continuous
 62
     7
370
    25
100
AcDbLine
 10
194.1023343386
 20
49.5188153958
 30
0.0
 11
194.0428190373
 21
49.6579368329
 31
0.0
  0
LWPOLYLINE
  5
267
330
1F
100
AcDbEntity
  8
0
  6
Continuous
 62
     7
370
    18
100
AcDbPolyline
 90
       15
 70
   128
 43
0.0
 10
263.3663608021
 20
33.5528249264
 10
263.405723983
 20
33.7389565028
 10
263.5996014618
 20
34.2645784835
 10
263.8992994697
 20
34.7561794499
 10
264.2723402381
 20
35.1604863679
 10
264.6783
 20
35.4336866797
 10
265.0731860068
 20
35.54617475
 10
265.4142060363
 20
35.4857603815
 10
265.6644061927
 20
35.2589911576
 10
265.7966728815
 20
34.8904406299
 10
265.7966728815
 20
34.4200469453
 10
265.6644061927
 20
33.8987845494
 10
265.4142060363
 20
33.3831403738
 10
265.0731860068
 20
32.9289926601
 10
264.8365973069
 20
32.7040756402
  0
LWPOLYLINE
  5
268
330
1F
100
AcDbEntity
  8
0
  6
Continuous
 62
     7
370
    18
100
AcDbPolyline
 90
        9
 70
   128
 43
0.0
 10
263.0444708321
 20
33.7386483352
 10
263.0479548618
 20
33.7539013254
 10
263.2308606598
 20
34.2980789648
 10
263.5175909386
 20
34.820451853
 10
263.8826685867
 20
35.2746048189
 10
264.2936543604
 20
35.6201841863
 10
264.7140309787
 20
35.8264841791
 10
265.1064457972
 20
35.8751737322
 10
265.3919966228
 20
35.7889080698
  0
LWPOLYLINE
  5
269
330
1F
100
AcDbEntity
  8
0
  6
Continuous
 62
     7
370
    18
100
AcDbPolyline
 90
       20
 70
   128
 43
0.0
 10
253.4770753047
 20
27.8942070899
 10
253.6407413957
 20
28.4194457805
 10
253.9166603493
 20
28.9247804189
 10
254.2749329277
 20
29.355450549
 10
254.6767343104
 20
29.6647862613
 10
255.0785231807
 20
29.8192662546
 10
255.43675921
 20
29.8021500771
 10
255.7126225166
 20
29.6152927658
 10
255.8762184725
 20
29.2789429769
 10
255.9098190597
 20
28.8295494711
 10
255.8097831854
 20
28.3158110293
 10
255.5869514803
 20
27.7933993028
 10
255.2654707956
 20
27.3189255294
 10
254.8801791238
 20
26.9438065168
 10
254.4728281866
 20
26.7086920281
 10
254.0875612102
 20
26.6390604624
 10
253.7661276114
 20
26.7424573976
 10
253.5433597851
 20
27.0076782794
 10
253.4433979971
 20
27.4059821659
 10
253.4770753047
 20
27.8942070899
  0
LWPOLYLINE
  5
26A
330
1F
100
AcDbEntity
  8
0
  6
Continuous
 62
     7
370
    18
100
AcDbPolyline
 90
        9
 70
   128
 43
0.0
 10
253.1289370677
 20
27.9474613707
 10
253.2922106661
 20
28.4905185041
 10
253.5627875066
 20
29.0200078939
 10
253.9166261049
 20
29.4888820995
 10
254.3222855706
 20
29.8554793549
 10
254.7437224456
 20
30.0872264279
 10
255.143489255
 20
30.1635312158
 10
255.4860654251
 20
30.0776137227
 10
255.4874088559
 20
30.0768779439
  0
ARC
  5
26B
330
1F
100
AcDbEntity
  8
0
  6
Continuous
 62
     7
370
    18
100
AcDbCircle
 10
254.2383224129
 20
27.5315402873
 30
0.0
 40
1.184789513731274
100
AcDbArc
 50
159.4484113207
 51
231.2395445954
  0
LWPOLYLINE
  5
26C
330
1F
100
AcDbEntity
  8
0
  6
Continuous
 62
     7
370
    18
100
AcDbPolyline
 90
       27
 70
   128
 43
0.0
 10
269.5435377569
 20
24.4563695172
 10
269.9591817451
 20
25.0569899254
 10
270.2880009205
 20
25.7118713291
 10
270.5108854738
 20
26.3829543539
 10
270.614882164
 20
27.0312380934
 10
270.5939471987
 20
27.6190467175
 10
270.449297239
 20
28.1122189069
 10
270.1893387701
 20
28.4820932861
 10
269.8291794616
 20
28.7071740012
 10
269.3897507391
 20
28.7743804099
 10
268.8965905058
 20
28.6798064934
 10
268.3783593596
 20
28.4289485172
 10
267.8651750928
 20
28.0363856736
 10
267.3868621159
 20
27.5249322354
 10
266.9712181277
 20
26.9243118272
 10
266.6423989523
 20
26.2694304234
 10
266.4195143989
 20
25.5983473987
 10
266.3155177088
 20
24.9500636592
 10
266.3364526741
 20
24.3622550351
 10
266.4811026338
 20
23.8690828457
 10
266.7410611027
 20
23.4992084665
 10
267.1012204112
 20
23.2741277513
 10
267.5406491337
 20
23.2069213427
 10
268.033809367
 20
23.3014952591
 10
268.5520405131
 20
23.5523532354
 10
269.06522478
 20
23.944916079
 10
269.5435377569
 20
24.4563695172
  0
LWPOLYLINE
  5
26D
330
1F
100
AcDbEntity
  8
0
  6
Continuous
 62
     7
370
    18
100
AcDbPolyline
 90
       23
 70
   128
 43
0.0
 10
251.423928458
 20
28.3990533761
 10
251.4865507724
 20
29.4693331443
 10
251.6731967739
 20
30.5910821413
 10
251.9802352482
 20
31.742467723
 10
252.4016892454
 20
32.9010791336
 10
252.9293559349
 20
34.0443654256
 10
253.5529646567
 20
35.1500731867
 10
254.260377777
 20
36.1966820756
 10
255.0378261179
 20
37.1638203935
 10
255.8701774791
 20
38.032663826
 10
256.7412314187
 20
38.7863018164
 10
257.634033626
 20
39.4100654383
 10
258.5312067578
 20
39.8918142014
 10
259.4152883541
 20
40.2221706701
 10
260.2690708939
 20
40.3947046066
 10
261.0759364179
 20
40.4060592235
 10
261.8201799569
 20
40.2560124183
 10
262.4873158365
 20
39.9474847773
 10
263.0643592055
 20
39.4864819436
 10
263.5400785872
 20
38.8819765321
 10
263.905213858
 20
38.1457341529
 10
264.1526593227
 20
37.2920855404
 10
264.2707705973
 20
36.4362383506
  0
LWPOLYLINE
  5
26E
330
1F
100
AcDbEntity
  8
0
  6
Continuous
 62
     7
370
    18
100
AcDbPolyline
 90
       15
 70
   128
 43
0.0
 10
259.9459642628
 20
26.2900237845
 10
259.4152883541
 20
25.8025638239
 10
258.5312067578
 20
25.1121814086
 10
257.634033626
 20
24.5580761224
 10
256.7412314187
 20
24.1510322571
 10
255.8701774791
 20
23.8989727758
 10
255.0378261179
 20
23.8068037824
 10
254.260377777
 20
23.8763193523
 10
253.5529646567
 20
24.1061664378
 10
252.9293559349
 20
24.4918708943
 10
252.4016892454
 20
25.0259261945
 10
251.9802352482
 20
25.6979371775
 10
251.6731967739
 20
26.4948236825
 10
251.4865507724
 20
27.4010757931
 10
251.423928458
 20
28.3990533761
  0
LWPOLYLINE
  5
26F
330
1F
100
AcDbEntity
  8
0
  6
Continuous
 62
     7
370
    18
100
AcDbPolyline
 90
       19
 70
   128
 43
0.0
 10
250.858243994
 20
28.3990533761
 10
250.9208109906
 20
29.4914360035
 10
251.1073476738
 20
30.6357085907
 10
251.4143782456
 20
31.8105550237
 10
251.8361832469
 20
32.9940898121
 10
252.3649065711
 20
34.1642673037
 10
252.9906977095
 20
35.2992880428
 10
253.7018997656
 20
36.3780088328
 10
254.4852647996
 20
37.380335685
 10
255.3261996299
 20
38.2875968973
 10
256.2090394582
 20
39.0828922717
 10
257.117338823
 20
39.7514055656
 10
258.0341775756
 20
40.2806853114
 10
258.9424769404
 20
40.6608721419
 10
259.8253167687
 20
40.8848819368
 10
260.666251599
 20
40.9485434128
 10
261.449616633
 20
40.8506705771
 10
262.1608186891
 20
40.5930862027
 10
262.3253721688
 20
40.5044561127
  0
LWPOLYLINE
  5
270
330
1F
100
AcDbEntity
  8
0
  6
Continuous
 62
     7
370
    18
100
AcDbPolyline
 90
        7
 70
   128
 43
0.0
 10
252.8261442298
 20
24.0495274525
 10
252.3649065711
 20
24.3733950326
 10
251.8361832469
 20
24.9331215679
 10
251.4143782456
 20
25.629650668
 10
251.1073476738
 20
26.4500071483
 10
250.9208109906
 20
27.3789090654
 10
250.858243994
 20
28.3990533761
  0
LWPOLYLINE
  5
271
330
1F
100
AcDbEntity
  8
0
  6
Continuous
 62
     7
370
    18
100
AcDbPolyline
 90
       19
 70
   128
 43
0.0
 10
237.3348257396
 20
36.2059565598
 10
237.3973927362
 20
37.2983391871
 10
237.5839294194
 20
38.4426117743
 10
237.8909599912
 20
39.6174582073
 10
238.3127649925
 20
40.8009929958
 10
238.8414883167
 20
41.9711704873
 10
239.4672794551
 20
43.1061912264
 10
240.1784815112
 20
44.1849120165
 10
240.9618465452
 20
45.1872388686
 10
241.8027813755
 20
46.094500081
 10
242.6856212038
 20
46.8897954554
 10
243.5939205686
 20
47.5583087493
 10
244.5107593212
 20
48.0875884951
 10
245.419058686
 20
48.4677753256
 10
246.3018985143
 20
48.6917851204
 10
247.1428333446
 20
48.7554465964
 10
247.9261983786
 20
48.6575737607
 10
248.6374004347
 20
48.3999893863
 10
248.8019539144
 20
48.3113592963
  0
LWPOLYLINE
  5
272
330
1F
100
AcDbEntity
  8
0
  6
Continuous
 62
     7
370
    18
100
AcDbPolyline
 90
        7
 70
   128
 43
0.0
 10
239.3027259754
 20
31.8564306362
 10
238.8414883167
 20
32.1802982163
 10
238.3127649925
 20
32.7400247515
 10
237.8909599912
 20
33.4365538516
 10
237.5839294194
 20
34.2569103319
 10
237.3973927362
 20
35.1858122491
 10
237.3348257396
 20
36.2059565598
  0
LWPOLYLINE
  5
273
330
1F
100
AcDbEntity
  8
0
  6
Continuous
 62
     7
370
    18
100
AcDbPolyline
 90
       11
 70
   128
 43
0.0
 10
262.2500066889
 20
29.9777554542
 10
262.7333596716
 20
30.619190254
 10
263.2749182752
 20
31.1593893387
 10
263.8469257852
 20
31.5706656885
 10
264.4200650244
 20
31.8319396881
 10
264.9649608024
 20
31.9298207323
 10
265.4536854503
 20
31.8592915608
 10
265.8611903223
 20
31.6239675306
 10
266.1665896793
 20
31.235909642
 10
266.3542304123
 20
30.715006799
 10
266.381932581
 20
30.5640159085
  0
LWPOLYLINE
  5
274
330
1F
100
AcDbEntity
  8
0
  6
Continuous
 62
     7
370
    18
100
AcDbPolyline
 90
       11
 70
   128
 43
0.0
 10
263.4629612554
 20
25.5076612256
 10
263.3179491374
 20
25.4560133802
 10
262.7730533595
 20
25.358132336
 10
262.2843287116
 20
25.4286615075
 10
261.8768238396
 20
25.6639855376
 10
261.5714244825
 20
26.0520434263
 10
261.3837837495
 20
26.5729462693
 10
261.323518366
 20
27.199995843
 10
261.3937175642
 20
27.9010541375
 10
261.5907830569
 20
28.6401895117
 10
261.9046145825
 20
29.3795187791
  0
LWPOLYLINE
  5
275
330
1F
100
AcDbEntity
  8
0
  6
Continuous
 62
     7
370
    18
100
AcDbPolyline
 90
       12
 70
   128
 43
0.0
 10
260.7577375898
 20
27.1744415779
 10
260.8238646781
 20
27.9147444767
 10
261.0191539116
 20
28.6967803908
 10
261.3344735831
 20
29.4839819884
 10
261.7550798688
 20
30.2395406366
 10
262.2613057486
 20
30.9281275028
 10
262.8294804164
 20
31.5175448605
 10
263.4330368901
 20
31.980232237
 10
264.0437534302
 20
32.2945545565
 10
264.6330736328
 20
32.4458151668
 10
265.1734415056
 20
32.4269406294
 10
265.5860023531
 20
32.2714533215
  0
ARC
  5
276
330
1F
100
AcDbEntity
  8
0
  6
Continuous
 62
     7
370
    18
100
AcDbCircle
 10
262.7524185616
 20
26.966817853
 30
0.0
 40
2.005457501514884
100
AcDbArc
 50
174.0575568819
 51
232.3042618031
  0
LWPOLYLINE
  5
277
330
1F
100
AcDbEntity
  8
0
  6
Continuous
 62
     7
370
    18
100
AcDbPolyline
 90
        9
 70
   128
 43
0.0
 10
263.3395230143
 20
26.369293804
 10
263.1930168646
 20
26.345457106
 10
262.7841774933
 20
26.3801687029
 10
262.4509248317
 20
26.5726139097
 10
262.2164788709
 20
26.9093837533
 10
262.0971746429
 20
27.3670133313
 10
262.1013249551
 20
27.9136168666
 10
262.2286405416
 20
28.5111090501
 10
262.4702508081
 20
29.1178590546
  0
LWPOLYLINE
  5
278
330
1F
100
AcDbEntity
  8
0
  6
Continuous
 62
     7
370
    18
100
AcDbPolyline
 90
        9
 70
   128
 43
0.0
 10
262.7593705333
 20
29.6186291066
 10
263.1640174867
 20
30.1312294386
 10
263.6177854191
 20
30.5402034302
 10
264.0890575057
 20
30.8170556421
 10
264.5449972973
 20
30.9424959623
 10
264.9538366685
 20
30.9077843654
 10
265.2870893302
 20
30.7153391585
 10
265.5215352909
 20
30.3785693149
 10
265.5740482885
 20
30.2400245412
  0
LWPOLYLINE
  5
279
330
1F
100
AcDbEntity
  8
0
  6
Continuous
 62
     7
370
    18
100
AcDbPolyline
 90
       25
 70
   128
 43
0.0
 10
215.8566890055
 20
41.360396235
 10
216.247504878
 20
43.2237423183
 10
216.7572354493
 20
45.1115436161
 10
217.3822060412
 20
47.0101881875
 10
218.1179069408
 20
48.9059820397
 10
218.9590368649
 20
50.7852593917
 10
219.8995293014
 20
52.6344655617
 10
220.932601242
 20
54.4402687507
 10
222.0508038896
 20
56.1896448294
 10
223.2460753425
 20
57.8699822774
 10
224.509795253
 20
59.4691639273
 10
225.8328519993
 20
60.9756559329
 10
227.2057052471
 20
62.3785986388
 10
228.6184554261
 20
63.6678725434
 10
230.0609155114
 20
64.834183845
 10
231.5226840392
 20
65.8691202811
 10
232.9932204904
 20
66.7652205013
 10
234.4619212076
 20
67.5160224575
 10
235.9181954164
 20
68.1161103304
 10
237.3515425627
 20
68.5611606975
 10
238.7516269552
 20
68.8479612877
 10
240.108352448
 20
68.9744464905
 10
241.4119360332
 20
68.9397018167
 10
242.652978305
 20
68.7439787208
 10
243.8225309607
 20
68.3886909823
  0
LWPOLYLINE
  5
27A
330
1F
100
AcDbEntity
  8
0
  6
Continuous
 62
     7
370
    18
100
AcDbPolyline
 90
       25
 70
   128
 43
0.0
 10
215.140513292
 20
41.3551609187
 10
215.5299857337
 20
43.2435822513
 10
216.0395793277
 20
45.1574860704
 10
216.6656615427
 20
47.0832326744
 10
217.4037727153
 20
49.0070980277
 10
218.2486510747
 20
50.9153722385
 10
219.19427489
 20
52.7944534721
 10
220.2339059339
 20
54.6309513697
 10
221.360134922
 20
56.4117779196
 10
222.5649355139
 20
58.1242417492
 10
223.8397209478
 20
59.7561370941
 10
225.1754072607
 20
61.2958365687
 10
226.5624745331
 20
62.7323645448
 10
227.9910380121
 20
64.0554853591
 10
229.4509165996
 20
65.2557687059
 10
230.9317057862
 20
66.3246606394
 10
232.4228528077
 20
67.2545421688
 10
233.9137306492
 20
68.038788711
 10
235.3937141066
 20
68.6718079157
 10
236.852256178
 20
69.1490928912
 10
238.2789619029
 20
69.467237454
 10
239.6636636835
 20
69.6239780897
 10
240.9964925718
 20
69.6181955626
 10
242.2679510388
 20
69.4499325892
 10
243.4689775121
 20
69.1203854675
  0
ARC
  5
27B
330
1F
100
AcDbEntity
  8
0
  6
Continuous
 62
     7
370
    18
100
AcDbCircle
 10
264.2413472279
 20
29.9678991749
 30
0.0
 40
0.7924376071661388
100
AcDbArc
 50
27.3587469848
 51
58.7547066534
  0
LWPOLYLINE
  5
27C
330
1F
100
AcDbEntity
  8
0
  6
Continuous
 62
     7
370
    18
100
AcDbPolyline
 90
        3
 70
   128
 43
0.0
 10
262.9453104516
 20
26.8678766823
 10
262.6493079073
 20
26.9098275644
 10
262.5237512109
 20
26.9669040533
  0
ARC
  5
27D
330
1F
100
AcDbEntity
  8
0
  6
Continuous
 62
     7
370
    18
100
AcDbCircle
 10
216.4079633623
 20
57.8545211065
 30
0.0
 40
33.74661563336701
100
AcDbArc
 50
343.6426806208
 51
350.5658388687
  0
LWPOLYLINE
  5
27E
330
1F
100
AcDbEntity
  8
0
  6
Continuous
 62
     7
370
    18
100
AcDbPolyline
 90
       22
 70
   128
 43
0.0
 10
239.2528590096
 20
31.8386541834
 10
238.6652456721
 20
31.2383318533
 10
237.267223841
 20
29.9198034604
 10
235.8367509122
 20
28.7209107124
 10
234.3840772955
 20
27.6502463535
 10
232.9196127276
 20
26.7154791267
 10
231.4538513209
 20
25.9233120268
 10
229.9972963253
 20
25.2794175728
 10
228.5603853007
 20
24.7884113417
 10
227.1534148376
 20
24.453811552
 10
225.7864674169
 20
24.2780166131
 10
224.4693375712
 20
24.2622853127
 10
223.2114642188
 20
24.4067312147
 10
222.0218608585
 20
24.7103188637
 10
220.9090516904
 20
25.170872536
 10
219.8810110299
 20
25.7850929755
 10
218.9451060144
 20
26.5485767909
 10
218.1080432612
 20
27.4558548644
 10
217.3758207936
 20
28.5004254359
 10
216.7536858944
 20
29.6748027768
 10
216.2460955927
 20
30.9705715667
 10
215.8566890055
 20
32.3784473529
  0
ARC
  5
27F
330
1F
100
AcDbEntity
  8
0
  6
Continuous
 62
     7
370
    18
100
AcDbCircle
 10
238.7119319084
 20
58.7428768314
 30
0.0
 40
11.12401072022553
100
AcDbArc
 50
9.0277736643
 51
48.7055209086
  0
LWPOLYLINE
  5
280
330
1F
100
AcDbEntity
  8
0
  6
Continuous
 62
     7
370
    18
100
AcDbPolyline
 90
       29
 70
   128
 43
0.0
 10
222.8682624314
 20
40.9171169751
 10
222.9303249829
 20
42.2291090703
 10
223.1157329208
 20
43.5962585127
 10
223.4221549974
 20
45.0013724058
 10
223.8457360933
 20
46.4267804251
 10
224.3811512176
 20
47.8545578193
 10
225.021666094
 20
49.2667487903
 10
225.7592267233
 20
50.6455942434
 10
226.5845568476
 20
51.9737549742
 10
227.4872784639
 20
53.2345280089
 10
228.4560389234
 20
54.4120591417
 10
229.4786554821
 20
55.4915389305
 10
230.5422677535
 20
56.4593941294
 10
231.6335008633
 20
57.303451838
 10
232.7386315671
 20
58.0130977574
 10
233.8437622709
 20
58.5794085891
 10
234.9349953807
 20
58.9952618111
 10
235.9986076521
 20
59.2554272016
 10
237.0212242107
 20
59.3566353598
 10
237.9899846703
 20
59.2976112455
 10
238.8927062866
 20
59.0790984039
 10
239.7180364108
 20
58.7038435514
 10
240.4555970401
 20
58.1765674747
 10
241.0961119166
 20
57.5038992389
 10
241.6315270408
 20
56.6942989888
 10
242.0551081367
 20
55.757947293
 10
242.3615302134
 20
54.706620799
 10
242.5469381512
 20
53.5535388051
 10
242.5775894468
 20
53.2036649187
  0
LWPOLYLINE
  5
281
330
1F
100
AcDbEntity
  8
0
  6
Continuous
 62
     7
370
    18
100
AcDbPolyline
 90
       15
 70
   128
 43
0.0
 10
231.9481558164
 20
34.7975000913
 10
231.6335008633
 20
34.6509109926
 10
230.5422677535
 20
34.2350577706
 10
229.4786554821
 20
33.9748923801
 10
228.4560389234
 20
33.8736842219
 10
227.4872784639
 20
33.9327083362
 10
226.5845568476
 20
34.1512211779
 10
225.7592267233
 20
34.5264760304
 10
225.021666094
 20
35.053752107
 10
224.3811512176
 20
35.7264203429
 10
223.8457360933
 20
36.5360205929
 10
223.4221549974
 20
37.4723722888
 10
223.1157329208
 20
38.5236987827
 10
222.9303249829
 20
39.6767807766
 10
222.8682624314
 20
40.9171169751
  0
LWPOLYLINE
  5
282
330
1F
100
AcDbEntity
  8
0
  6
Continuous
 62
     7
370
    18
100
AcDbPolyline
 90
       14
 70
   128
 43
0.0
 10
254.8436157449
 20
30.4116334985
 10
254.9087731263
 20
31.1651192076
 10
255.1013967364
 20
31.9609025447
 10
255.4130687298
 20
32.7642045296
 10
255.8301671136
 20
33.5399166291
 10
256.3344627171
 20
34.2541365516
 10
256.9039156197
 20
34.875649696
 10
257.5136378193
 20
35.3772924057
 10
258.1369815593
 20
35.7371410872
 10
258.7467037589
 20
35.9394686447
 10
259.3161566615
 20
35.9754318269
 10
259.820452265
 20
35.8434592148
 10
260.2375506488
 20
35.5493186586
 10
260.4948708238
 20
35.2077145448
  0
LWPOLYLINE
  5
283
330
1F
100
AcDbEntity
  8
0
  6
Continuous
 62
     7
370
    18
100
AcDbPolyline
 90
        3
 70
   128
 43
0.0
 10
256.4976088872
 20
28.2835035081
 10
256.3344627171
 20
28.2904257208
 10
255.8596297363
 20
28.4091775826
  0
LWPOLYLINE
  5
284
330
1F
100
AcDbEntity
  8
0
  6
Continuous
 62
     7
370
    18
100
AcDbPolyline
 90
       11
 70
   128
 43
0.0
 10
255.5309080256
 20
29.9682403621
 10
255.5207682511
 20
30.4929429921
 10
255.6204672798
 20
31.2233397909
 10
255.8425037925
 20
31.9841559955
 10
256.1765982387
 20
32.7401667767
 10
256.607282231
 20
33.4563697642
 10
257.114615371
 20
34.0996051337
 10
257.6751088579
 20
34.6400920354
 10
258.2628124161
 20
35.0528064508
 10
258.8505159743
 20
35.3186401204
 10
258.8823616638
 20
35.3287416641
  0
LWPOLYLINE
  5
285
330
1F
100
AcDbEntity
  8
0
  6
Continuous
 62
     7
370
    18
100
AcDbPolyline
 90
       13
 70
   128
 43
0.0
 10
255.3040417475
 20
30.1829075993
 10
255.2953387525
 20
30.429868526
 10
255.3593993281
 20
31.1470369592
 10
255.5485856651
 20
31.9046341174
 10
255.8540515351
 20
32.6672355699
 10
256.261513931
 20
33.3991832688
 10
256.7519201723
 20
34.0662516128
 10
257.3023394922
 20
34.6372497538
 10
257.8870347779
 20
35.0854780447
 10
258.4786664306
 20
35.3899779607
 10
259.0495703538
 20
35.5365115031
 10
259.573051746
 20
35.5182269108
 10
260.0037383725
 20
35.3491094565
  0
LWPOLYLINE
  5
286
330
1F
100
AcDbEntity
  8
0
  6
Continuous
 62
     7
370
    18
100
AcDbPolyline
 90
       20
 70
   128
 43
0.0
 10
205.0023677557
 20
42.2167609686
 10
205.0643657699
 20
43.9607110112
 10
205.249925173
 20
45.7640100523
 10
205.5577446811
 20
47.6140094346
 10
205.9856642682
 20
49.4977320616
 10
206.5306822885
 20
51.4019651723
 10
207.1889778666
 20
53.3133527352
 10
207.9559306544
 20
55.2184859416
 10
208.8261629774
 20
57.1040039631
 10
209.7935714451
 20
58.9566806415
 10
210.8513677806
 20
60.7635187819
 10
211.9921341388
 20
62.5118474872
 10
213.2078685452
 20
64.189401622
 10
214.4900435069
 20
65.7844142036
 10
215.8296652818
 20
67.2856992864
 10
217.2173370981
 20
68.68272344
 10
218.6433263266
 20
69.9656916749
 10
220.0976300056
 20
71.1256004787
 10
221.5700475274
 20
72.1543178005
 10
222.9961766966
 20
73.0146209375
  0
LWPOLYLINE
  5
287
330
1F
100
AcDbEntity
  8
0
  6
Continuous
 62
     7
370
    18
100
AcDbPolyline
 90
        3
 70
   128
 43
0.0
 10
205.0950315535
 20
40.1828558678
 10
205.0643657699
 20
40.5443923095
 10
205.0023677557
 20
42.2167609686
  0
LWPOLYLINE
  5
288
330
1F
100
AcDbEntity
  8
0
  6
Continuous
 62
     7
370
    18
100
AcDbPolyline
 90
        3
 70
   128
 43
0.0
 10
256.0581079717
 20
28.7092097008
 10
255.9763717323
 20
28.7877627307
 10
255.9322979825
 20
28.8359311637
  0
LWPOLYLINE
  5
289
330
1F
100
AcDbEntity
  8
0
  6
Continuous
 62
     7
370
    18
100
AcDbPolyline
 90
       13
 70
   128
 43
0.0
 10
255.476572506
 20
30.0833077125
 10
255.4698360896
 20
30.451260073
 10
255.5577745012
 20
31.1860403686
 10
255.7722935637
 20
31.9554982282
 10
256.103146983
 20
32.7228811805
 10
256.534531996
 20
33.4515363019
 10
257.045843815
 20
34.1066598521
 10
257.6126603582
 20
34.6569609085
 10
258.2079082434
 20
35.0761549243
 10
258.8031561286
 20
35.3442194881
 10
259.3699726718
 20
35.4483508824
 10
259.8812844908
 20
35.3835753925
 10
259.9064323299
 20
35.3754252433
  0
LWPOLYLINE
  5
28A
330
1F
100
AcDbEntity
  8
0
  6
Continuous
 62
     7
370
    18
100
AcDbPolyline
 90
       21
 70
   128
 43
0.0
 10
212.8253809764
 20
44.0435553261
 10
213.2395001048
 20
45.9310720568
 10
213.780122999
 20
47.8420219881
 10
214.4428808748
 20
49.7609666125
 10
215.2224197652
 20
51.6724036357
 10
216.1124426677
 20
53.5608932102
 10
217.1057595934
 20
55.4111780831
 10
218.1943461775
 20
57.2083140104
 10
219.369408875
 20
58.9377796376
 10
220.621454767
 20
60.5856050115
 10
221.9403699269
 20
62.1384791782
 10
223.3154991046
 20
63.5838570207
 10
224.7357339712
 20
64.9100634342
 10
226.1896011997
 20
66.1063837175
 10
227.6653561428
 20
67.1631526337
 10
229.151077231
 20
68.0718347611
 10
230.6347623053
 20
68.8250892299
 10
232.104425547
 20
69.4168317625
 10
233.5481948187
 20
69.8422802206
 10
234.9544066386
 20
70.0980003077
 10
235.3041886027
 20
70.1356392972
  0
LWPOLYLINE
  5
28B
330
1F
100
AcDbEntity
  8
0
  6
Continuous
 62
     7
370
    18
100
AcDbPolyline
 90
       18
 70
   128
 43
0.0
 10
213.3993756136
 20
44.0483519266
 10
213.8149935893
 20
45.9155086436
 10
214.3561472703
 20
47.8051549177
 10
215.0184165061
 20
49.7018530065
 10
215.7963906947
 20
51.5901089863
 10
216.6837135648
 20
53.4544959428
 10
217.6731371754
 20
55.2797855262
 10
218.7565798683
 20
57.0510650572
 10
219.9251888296
 20
58.7538633773
 10
221.1694184569
 20
60.3742728963
 10
222.4791034569
 20
61.899053388
 10
223.843545445
 20
63.3157504248
 10
225.2515978968
 20
64.612788526
 10
226.6917575214
 20
65.7795740971
 10
228.1522599151
 20
66.8065734631
 10
229.6211734451
 20
67.6853974852
 10
231.0864983191
 20
68.4088678781
 10
231.2303259214
 20
68.4715508405
  0
LWPOLYLINE
  5
28C
330
1F
100
AcDbEntity
  8
0
  6
Continuous
 62
     7
370
    18
100
AcDbPolyline
 90
       22
 70
   128
 43
0.0
 10
225.8284792638
 20
41.1650727464
 10
225.8904456678
 20
42.3610050004
 10
226.0754044783
 20
43.6103524143
 10
226.3805529299
 20
44.8941765881
 10
226.8012640888
 20
46.1930157145
 10
227.3311619272
 20
47.4871814371
 10
227.9622122019
 20
48.7570545673
 10
228.6848498834
 20
49.9833854547
 10
229.4881200838
 20
51.1475848515
 10
230.3598459857
 20
52.2320037466
 10
231.2868135644
 20
53.2202038834
 10
232.2549704679
 20
54.0972045109
 10
233.2496406203
 20
54.8497127364
 10
234.25574576
 20
55.466319859
 10
235.2580344286
 20
55.9376791888
 10
236.2413129134
 20
56.2566454521
 10
237.1906756152
 20
56.4183842045
 10
238.0917314431
 20
56.4204416895
 10
238.9308211963
 20
56.2627889603
 10
239.6952250876
 20
55.9478139233
 10
240.3733553678
 20
55.4802929925
 10
240.8702048086
 20
54.9730476615
  0
LWPOLYLINE
  5
28D
330
1F
100
AcDbEntity
  8
0
  6
Continuous
 62
     7
370
    18
100
AcDbPolyline
 90
       10
 70
   128
 43
0.0
 10
229.5680357769
 20
35.3936501502
 10
229.4881200838
 20
35.4078919934
 10
228.6848498834
 20
35.6446553579
 10
227.9622122019
 20
36.0366465377
 10
227.3311619272
 20
36.5779245292
 10
226.8012640888
 20
37.2602832303
 10
226.3805529299
 20
38.0733795919
 10
226.0754044783
 20
39.0048868629
 10
225.8904456678
 20
40.0406853796
 10
225.8284792638
 20
41.1650727464
  0
LINE
  5
28E
330
1F
100
AcDbEntity
  8
0
  6
Continuous
 62
     7
370
    18
100
AcDbLine
 10
206.57921671
 20
41.7188188909
 30
0.0
 11
208.7323556377
 21
42.9617995363
 31
0.0
  0
LWPOLYLINE
  5
28F
330
1F
100
AcDbEntity
  8
0
  6
Continuous
 62
     7
370
    18
100
AcDbPolyline
 90
       20
 70
   128
 43
0.0
 10
194.1320478668
 20
61.9008580428
 10
194.7411106576
 20
63.5734762844
 10
195.464571849
 20
65.2328152352
 10
196.2947620317
 20
66.8612845871
 10
197.2228810755
 20
68.441622278
 10
198.2390896668
 20
69.9570743326
 10
199.3326159932
 20
71.3915766028
 10
200.4918673664
 20
72.7299226296
 10
201.7045550166
 20
73.9579238988
 10
202.9578236611
 20
75.0625644883
 10
204.2383874115
 20
76.0321319971
 10
205.5326716074
 20
76.8563503758
 10
206.8269558032
 20
77.5264807216
 10
208.1075195536
 20
78.035420648
 10
209.3607881981
 20
78.3777732353
 10
210.5734758483
 20
78.5499113242
 10
211.7327272215
 20
78.5500084434
 10
212.8262535479
 20
78.3780647953
 10
213.8424621392
 20
78.0359022061
 10
214.1116645974
 20
77.9100393491
  0
ARC
  5
290
330
1F
100
AcDbEntity
  8
0
  6
Continuous
 62
     7
370
    18
100
AcDbCircle
 10
199.9920387403
 20
52.5422337878
 30
0.0
 40
6.567090909487356
100
AcDbArc
 50
206.8329030038
 51
236.0333930637
  0
ARC
  5
291
330
1F
100
AcDbEntity
  8
0
  6
Continuous
 62
     7
370
    18
100
AcDbCircle
 10
227.4743348696
 20
34.857139286
 30
0.0
 40
12.58145656459707
100
AcDbArc
 50
191.3865744508
 51
214.2485105814
  0
LINE
  5
292
330
1F
100
AcDbEntity
  8
0
  6
Continuous
 62
     7
370
    18
100
AcDbLine
 10
210.5443191195
 20
35.0265384548
 30
0.0
 11
212.2678894646
 21
36.021534436
 31
0.0
  0
LINE
  5
293
330
1F
100
AcDbEntity
  8
0
  6
Continuous
 62
     7
370
    18
100
AcDbLine
 10
206.57921671
 20
40.9022780402
 30
0.0
 11
208.7323556377
 21
42.1452586856
 31
0.0
  0
LINE
  5
294
330
1F
100
AcDbEntity
  8
0
  6
Continuous
 62
     7
370
    18
100
AcDbLine
 10
214.2511522267
 20
34.3493185488
 30
0.0
 11
214.184263861
 21
34.6132967039
 31
0.0
  0
LINE
  5
295
330
1F
100
AcDbEntity
  8
0
  6
Continuous
 62
     7
370
    18
100
AcDbLine
 10
213.7430238942
 20
33.8841392186
 30
0.0
 11
213.3993756136
 21
35.0664030445
 31
0.0
  0
LWPOLYLINE
  5
296
330
1F
100
AcDbEntity
  8
0
  6
Continuous
 62
     7
370
    18
100
AcDbPolyline
 90
        3
 70
   128
 43
0.0
 10
213.6533887426
 20
32.6312908719
 10
213.222694049
 20
33.699979748
 10
212.8253809764
 20
35.061606444
  0
LINE
  5
297
330
1F
100
AcDbEntity
  8
0
  6
Continuous
 62
     7
370
    18
100
AcDbLine
 10
241.4568790617
 20
70.2814408545
 30
0.0
 11
241.3565102932
 21
70.2234991978
 31
0.0
  0
ARC
  5
298
330
1F
100
AcDbEntity
  8
0
  6
Continuous
 62
     7
370
    18
100
AcDbCircle
 10
200.0967259124
 20
59.5850223442
 30
0.0
 40
1.982758115011525
100
AcDbArc
 50
160.3181851691
 51
206.3321513809
  0
ARC
  5
299
330
1F
100
AcDbEntity
  8
0
  6
Continuous
 62
     7
370
    18
100
AcDbCircle
 10
197.8446149455
 20
59.5253545
 30
0.0
 40
0.8231407192538337
100
AcDbArc
 50
40.3516534992
 51
62.0985447238
  0
LINE
  5
29A
330
1F
100
AcDbEntity
  8
0
  6
Continuous
 62
     7
370
    18
100
AcDbLine
 10
198.2298055064
 20
60.2528081931
 30
0.0
 11
198.3776079186
 21
60.8070630258
 31
0.0
  0
LINE
  5
29B
330
1F
100
AcDbEntity
  8
0
  6
Continuous
 62
     7
370
    18
100
AcDbLine
 10
198.2298055064
 20
60.2528081931
 30
0.0
 11
196.976586088
 21
60.9762763638
 31
0.0
  0
LINE
  5
29C
330
1F
100
AcDbEntity
  8
0
  6
Continuous
 62
     7
370
    18
100
AcDbLine
 10
194.1319043041
 20
62.7827634006
 30
0.0
 11
194.1172839575
 21
62.9584892444
 31
0.0
  0
ARC
  5
29D
330
1F
100
AcDbEntity
  8
0
  6
Continuous
 62
     7
370
    18
100
AcDbCircle
 10
197.9481564656
 20
46.2239114451
 30
0.0
 40
0.5806338492592458
100
AcDbArc
 50
25.5709532967
 51
60.9828307538
  0
ARC
  5
29E
330
1F
100
AcDbEntity
  8
0
  6
Continuous
 62
     7
370
    18
100
AcDbCircle
 10
200.1852633168
 20
47.3776530865
 30
0.0
 40
2.059398257777667
100
AcDbArc
 50
172.8727688225
 51
198.2811498095
  0
LINE
  5
29F
330
1F
100
AcDbEntity
  8
0
  6
Continuous
 62
     7
370
    18
100
AcDbLine
 10
197.3846209237
 20
51.7652636991
 30
0.0
 11
195.7675530306
 21
52.6987771235
 31
0.0
  0
LINE
  5
2A0
330
1F
100
AcDbEntity
  8
0
  6
Continuous
 62
     7
370
    18
100
AcDbLine
 10
198.2298055064
 20
46.7316608762
 30
0.0
 11
196.976586088
 21
47.4551290469
 31
0.0
  0
LINE
  5
2A1
330
1F
100
AcDbEntity
  8
0
  6
Continuous
 62
     7
370
    18
100
AcDbLine
 10
198.2298055064
 20
46.7316608762
 30
0.0
 11
198.3776079186
 21
46.3480550763
 31
0.0
  0
OLE2FRAME
  5
2A2
330
1F
100
AcDbEntity
  8
0
100
AcDbOle2Frame
 70
     2
  3
Paintbrush-Bild
 10
13.8511154363
 20
38.264191557
 30
0.0
 11
51.6290888628
 21
31.9806341108
 31
0.0
 71
     2
 72
     0
 73
     1
 90
    12928
310
80552BED0767C5B32B40DDAF6807D121434000000000000000006FFBDDFB85D0
310
4940DDAF6807D121434000000000000000006FFBDDFB85D04940416F4BD60AFB
310
3F4000000000000000002BED0767C5B32B40416F4BD60AFB3F40000000000000
310
0000000000000100000000010000010000000100000000000100000000320000
310
D0CF11E0A1B11AE1000000000000000000000000000000003E000300FEFF0900
310
0600000000000000000000000100000001000000000000000010000002000000
310
01000000FEFFFFFF0000000000000000FFFFFFFFFFFFFFFFFFFFFFFFFFFFFFFF
310
FFFFFFFFFFFFFFFFFFFFFFFFFFFFFFFFFFFFFFFFFFFFFFFFFFFFFFFFFFFFFFFF
310
FFFFFFFFFFFFFFFFFFFFFFFFFFFFFFFFFFFFFFFFFFFFFFFFFFFFFFFFFFFFFFFF
310
FFFFFFFFFFFFFFFFFFFFFFFFFFFFFFFFFFFFFFFFFFFFFFFFFFFFFFFFFFFFFFFF
310
FFFFFFFFFFFFFFFFFFFFFFFFFFFFFFFFFFFFFFFFFFFFFFFFFFFFFFFFFFFFFFFF
310
FFFFFFFFFFFFFFFFFFFFFFFFFFFFFFFFFFFFFFFFFFFFFFFFFFFFFFFFFFFFFFFF
310
FFFFFFFFFFFFFFFFFFFFFFFFFFFFFFFFFFFFFFFFFFFFFFFFFFFFFFFFFFFFFFFF
310
FFFFFFFFFFFFFFFFFFFFFFFFFFFFFFFFFFFFFFFFFFFFFFFFFFFFFFFFFFFFFFFF
310
FFFFFFFFFFFFFFFFFFFFFFFFFFFFFFFFFFFFFFFFFFFFFFFFFFFFFFFFFFFFFFFF
310
FFFFFFFFFFFFFFFFFFFFFFFFFFFFFFFFFFFFFFFFFFFFFFFFFFFFFFFFFFFFFFFF
310
FFFFFFFFFFFFFFFFFFFFFFFFFFFFFFFFFFFFFFFFFFFFFFFFFFFFFFFFFFFFFFFF
310
FFFFFFFFFFFFFFFFFFFFFFFFFFFFFFFFFFFFFFFFFFFFFFFFFFFFFFFFFFFFFFFF
310
FFFFFFFFFFFFFFFFFFFFFFFFFFFFFFFFFFFFFFFFFFFFFFFFFFFFFFFFFFFFFFFF
310
FFFFFFFFFFFFFFFFFFFFFFFFFFFFFFFFFFFFFFFFFFFFFFFFFFFFFFFFFFFFFFFF
310
FDFFFFFFFEFFFFFFFEFFFFFFFEFFFFFF05000000060000000700000008000000
310
090000000A0000000B0000000C0000000D0000000E0000000F00000010000000
310
11000000120000001300000014000000150000001600000017000000FEFFFFFF
310
FFFFFFFFFFFFFFFFFFFFFFFFFFFFFFFFFFFFFFFFFFFFFFFFFFFFFFFFFFFFFFFF
310
FFFFFFFFFFFFFFFFFFFFFFFFFFFFFFFFFFFFFFFFFFFFFFFFFFFFFFFFFFFFFFFF
310
FFFFFFFFFFFFFFFFFFFFFFFFFFFFFFFFFFFFFFFFFFFFFFFFFFFFFFFFFFFFFFFF
310
FFFFFFFFFFFFFFFFFFFFFFFFFFFFFFFFFFFFFFFFFFFFFFFFFFFFFFFFFFFFFFFF
310
FFFFFFFFFFFFFFFFFFFFFFFFFFFFFFFFFFFFFFFFFFFFFFFFFFFFFFFFFFFFFFFF
310
FFFFFFFFFFFFFFFFFFFFFFFFFFFFFFFFFFFFFFFFFFFFFFFFFFFFFFFFFFFFFFFF
310
FFFFFFFFFFFFFFFFFFFFFFFFFFFFFFFFFFFFFFFFFFFFFFFFFFFFFFFFFFFFFFFF
310
FFFFFFFFFFFFFFFFFFFFFFFFFFFFFFFFFFFFFFFFFFFFFFFFFFFFFFFFFFFFFFFF
310
FFFFFFFFFFFFFFFFFFFFFFFFFFFFFFFFFFFFFFFFFFFFFFFFFFFFFFFFFFFFFFFF
310
FFFFFFFFFFFFFFFFFFFFFFFFFFFFFFFFFFFFFFFFFFFFFFFFFFFFFFFFFFFFFFFF
310
FFFFFFFFFFFFFFFFFFFFFFFFFFFFFFFFFFFFFFFFFFFFFFFFFFFFFFFFFFFFFFFF
310
FFFFFFFFFFFFFFFFFFFFFFFFFFFFFFFFFFFFFFFFFFFFFFFFFFFFFFFFFFFFFFFF
310
FFFFFFFFFFFFFFFFFFFFFFFFFFFFFFFFFFFFFFFFFFFFFFFFFFFFFFFFFFFFFFFF
310
52006F006F007400200045006E00740072007900000000000000000000000000
310
0000000000000000000000000000000000000000000000000000000000000000
310
16000500FFFFFFFFFFFFFFFF020000000A00030000000000C000000000000046
310
000000000000000000000000B0F71F8557A9D30103000000C000000000000000
310
01004F006C006500000000000000000000000000000000000000000000000000
310
0000000000000000000000000000000000000000000000000000000000000000
310
0A000200FFFFFFFFFFFFFFFFFFFFFFFF00000000000000000000000000000000
310
0000000000000000000000000000000000000000000000001400000000000000
310
010043006F006D0070004F0062006A0000000000000000000000000000000000
310
0000000000000000000000000000000000000000000000000000000000000000
310
120002010100000003000000FFFFFFFF00000000000000000000000000000000
310
0000000000000000000000000000000000000000010000004D00000000000000
310
01004F006C006500310030004E00610074006900760065000000000000000000
310
0000000000000000000000000000000000000000000000000000000000000000
310
1A000200FFFFFFFFFFFFFFFFFFFFFFFF00000000000000000000000000000000
310
0000000000000000000000000000000000000000040000002426000000000000
310
FEFFFFFF02000000FEFFFFFFFFFFFFFFFFFFFFFFFFFFFFFFFFFFFFFFFFFFFFFF
310
FFFFFFFFFFFFFFFFFFFFFFFFFFFFFFFFFFFFFFFFFFFFFFFFFFFFFFFFFFFFFFFF
310
FFFFFFFFFFFFFFFFFFFFFFFFFFFFFFFFFFFFFFFFFFFFFFFFFFFFFFFFFFFFFFFF
310
FFFFFFFFFFFFFFFFFFFFFFFFFFFFFFFFFFFFFFFFFFFFFFFFFFFFFFFFFFFFFFFF
310
FFFFFFFFFFFFFFFFFFFFFFFFFFFFFFFFFFFFFFFFFFFFFFFFFFFFFFFFFFFFFFFF
310
FFFFFFFFFFFFFFFFFFFFFFFFFFFFFFFFFFFFFFFFFFFFFFFFFFFFFFFFFFFFFFFF
310
FFFFFFFFFFFFFFFFFFFFFFFFFFFFFFFFFFFFFFFFFFFFFFFFFFFFFFFFFFFFFFFF
310
FFFFFFFFFFFFFFFFFFFFFFFFFFFFFFFFFFFFFFFFFFFFFFFFFFFFFFFFFFFFFFFF
310
FFFFFFFFFFFFFFFFFFFFFFFFFFFFFFFFFFFFFFFFFFFFFFFFFFFFFFFFFFFFFFFF
310
FFFFFFFFFFFFFFFFFFFFFFFFFFFFFFFFFFFFFFFFFFFFFFFFFFFFFFFFFFFFFFFF
310
FFFFFFFFFFFFFFFFFFFFFFFFFFFFFFFFFFFFFFFFFFFFFFFFFFFFFFFFFFFFFFFF
310
FFFFFFFFFFFFFFFFFFFFFFFFFFFFFFFFFFFFFFFFFFFFFFFFFFFFFFFFFFFFFFFF
310
FFFFFFFFFFFFFFFFFFFFFFFFFFFFFFFFFFFFFFFFFFFFFFFFFFFFFFFFFFFFFFFF
310
FFFFFFFFFFFFFFFFFFFFFFFFFFFFFFFFFFFFFFFFFFFFFFFFFFFFFFFFFFFFFFFF
310
FFFFFFFFFFFFFFFFFFFFFFFFFFFFFFFFFFFFFFFFFFFFFFFFFFFFFFFFFFFFFFFF
310
FFFFFFFFFFFFFFFFFFFFFFFFFFFFFFFFFFFFFFFFFFFFFFFFFFFFFFFFFFFFFFFF
310
0100000200000000000000000000000000000000000000000000000000000000
310
0000000000000000000000000000000000000000000000000000000000000000
310
0100FEFF030A0000FFFFFFFF0A00030000000000C00000000000004607000000
310
5042727573680007000000504272757368000700000050427275736800F439B2
310
7100000000000000000000000000000000000000000000000000000000000000
310
0000000000000000000000000000000000000000000000000000000000000000
310
0000000000000000000000000000000000000000000000000000000000000000
310
0000000000000000000000000000000000000000000000000000000000000000
310
0000000000000000000000000000000000000000000000000000000000000000
310
0000000000000000000000000000000000000000000000000000000000000000
310
0000000000000000000000000000000000000000000000000000000000000000
310
0000000000000000000000000000000000000000000000000000000000000000
310
0000000000000000000000000000000000000000000000000000000000000000
310
0000000000000000000000000000000000000000000000000000000000000000
310
0000000000000000000000000000000000000000000000000000000000000000
310
0000000000000000000000000000000000000000000000000000000000000000
310
20260000424D0E260000000000003E00000028000000B40200006E0000000100
310
01000000000000000000130B0000130B00000200000002000000000000FFFFFF
310
FFFFFFFFFFFFFFFFFFFFFFFFFFFFFFFFFFFFFFFFFFFFFFFFFFFFFFFFFFFFFFFF
310
FFFFFFFFFFFFFFFFFFFFFFFFFFFFFFFFFFFFFFFFFFFFFFFFFFFFFFFFFFFFFFFF
310
FFFFFFFFFFFFFFFFFFFFFFFFFFFFFFFFFFFFFFFFFFFFFFFFF000FFFFFFFFFFFF
310
FFFFFFFFFFFFFFFFFFFFFFFFFFFFFFFFFFFFFFFFFFFFFFFFFFFFFFFFFFFFFFFF
310
FFFFFFFFFFFFFFFFFFFFFFFFFFFFFFFFFFFFFFFFFFFFFFFFFFFFFFFFFFFFFFFF
310
FFFFFFFFFFFFFFFFFFFFFFFFFFFFFFFFF000FFFFFFFFFFFFFFFFFFFFFFFFFFFF
310
FFFFFFFFFFFFFFFFFFFFFFFFFFFFFFFFFFFFFFFFFFFFFFFFFFFFFFFFFFFFFFFF
310
FFFFFFFFFFFFFFFFFFFFFFFFFFFFFFFFFFFFFFFFFFFFFFFFFFFFFFFFFFFFFFFF
310
FFFFFFFFFFFFFFFFF000FFFFFFFFFFFFFFFFFFFFFFFFFFFFFFFFFFFFFFFFFFFF
310
FFFFFFFFFFFFFFFFFFFFFFFFFFFFFFFFFFFFFFFFFFFFFFFFFFFFFFFFFFFFFFFF
310
FFFFFFFFFFFFFFFFFFFFFFFFFFFFFFFFFFFFFFFFFFFFFFFFFFFFFFFFFFFFFFFF
310
F000FFFFFFFFFFFFFFFFFFFFFFFFFFFFFFFFFFFFFFFFFFFFFFFFFFFFFFFFFFFF
310
FFFFFFFFFFFFFFFFFFFFFFFFFFFFFFFFFFFFFFFFFFFFFFFFFFFFFFFFFFFFFFFF
310
FFFFFFFFFFFFFFFFFFFFFFFFFFFFFFFFFFFFFFFFFFFFFFFFF000FFFFFFFFFFFF
310
FFFFFFFFFFFFFFFFFFFFFFFFFFFFFFFFFFFFFFFFFFFFFFFFFFFFFFFFFFFFFFFF
310
FFFFFFFFFFFFFFFFFFFFFFFFFFFFFFFFFFFFFFFFFFFFFFFFFFFFFFFFFFFFFFFF
310
FFFFFFFFFFFFFFFFFFFFFFFFFFFFFFFFF000FFFFFFFFFFFFFFFFFFFFFFFFFFFF
310
FFFFFFFFFFFFFFFFFFFFFFFFFFFFFFFFFFFFFFFFFFFFFFFFFFFFFFFFFFFFFFFF
310
FFFFFFFFFFFFFFFFFFFFFFFFFFFFFFFFFFFFFFFFFFFFFFFFFFFFFFFFFFFFFFFF
310
FFFFFFFFFFFFFFFFF000FFFFFFFFFFFFFFFFFFFFFFFFFFFFFFFFFFFFFFFFFFFF
310
FFFFFFFFFFFFFFFFFFFFFFFFFFFFFFFFFFFFFFFFFFFFFFFFFFFFFFFFFFFFFFFF
310
FFFFFFFFFFFFFFFFFFFFFFFFFFFFFFFFFFFFFFFFFFFFFFFFFFFFFFFFFFFFFFFF
310
F000FFFFFFFFFFFFFFFFFFFFFFFFFFFFFFFFFFFFFFFFFFFFFFFFFFFFFFFFFFFF
310
FFFFFFFFFFFFFFFFFFFFFFFFFFFFFFFFFFFFFFFFFFFFFFFFFFFFFFFFFFFFFFFF
310
FFFFFFFFFFFFFFFFFFFFFFFFFFFFFFFFFFFFFFFFFFFFFFFFF000FFFFFFFFFFFF
310
FFFFFFFFFFFFFFFFFFFFFFFFFFFFFFFFFFFFFFFFFFFFFFFFFFFFFFFFFFFFFFFF
310
FFFFFFFFFFFFFFFFFFFFFFFFFFFFFFFFFFFFFFFFFFFFFFFFFFFFFFFFFFFFFFFF
310
FFFFFFFFFFFFFFFFFFFFFFFFFFFFFFFFF000FFFFFFFFFFFFFFFFFFFFFFFFFFFF
310
FFFFFFFFFFFFFFFFFFFFFFFFFFFFFFFFFFFFFFFFFFFFFFFFFFFFFFFFFFFFFFFF
310
FFFFFFFFFFFFFFFFFFFFFFFFFFFFFFFFFFFFFFFFFFFFFFFFFFFFFFFFFFFFFFFF
310
FFFFFFFFFFFFFFFFF000FFFFFFFFFFFFFFFFFFFFFFFFFFFFFFFFFFFFFFFFFFFF
310
FFFFFFFFFFFFFFFFFFFFFFFFFFFFFFFFFFFFFFFFFFFFFFFFFFFFFFFFFFFFFFFF
310
FFFFFFFFFFFFFFFFFFFFFFFFFFFFFFFFFFFFFFFFFFFFFFFFFFFFFFFFFFFFFFFF
310
F000FFFFFFFFFFFFFFFFFFFFFFFFFFFFFFFFFFFFFFFFFFFFFFFFFFFFFFFFFFFF
310
FFFFFFFFFFFFFFFFFFFFFFFFFFFFFFFFFFFFFFFFFFFFFFFFFFFFFFFFFFFFFFFF
310
FFFFFFFFFFFFFFFFFFFFFFFFFFFFFFFFFFFFFFFFFFFFFFFFF000FFFFFFFFFFFF
310
FFFFFFFFFFFFFFFFFFFFFFFFFFFFFFFFFFFFFFFFFFFFFFFFFFFFFFFFFFFFFFFF
310
FFFFFFFFFFFFFFFFFFFFFFFFFFFFFFFFFFFFFFFFFFFFFFFFFFFFFFFFFFFFFFFF
310
FFFFFFFFFFFFFFFFFFFFFFFFFFFFFFFFF000FFFFFFFFFFFFFFFFFFFFFFFFFFFF
310
FFFFFFFFFFFFFFFFFFFFFFFFFFFFFFFFFFFFFFFFFFFFFFFFFFFFFFFFFFFFFFFF
310
FFFFFFFFFFFFFFFFFFFFFFFFFFFFFFFFFFFFFFFFFFFFFFFFFFFFFFFFFFFFFFFF
310
FFFFFFFFFFFFFFFFF000FFFFFFFFFFFFFFFFFFFFFFFFFFFFFFFFFFFFFFFFFFFF
310
FFFFFFFFFFFFFFFFFFFFFFFFFFFFFFFFFFFFFFFFFFFFFFFFFFFFFFFFFFFFFFFF
310
FFFFFFFFFFFFFFFFFFFFFFFFFFFFFFFFFFFFFFFFFFFFFFFFFFFFFFFFFFFFFFFF
310
F000FFFFFFFFFFFFFFFFFFFFFFFFFFFFFFFFFFFFFFFFFFFFFFFFFFFFFFFFFFFF
310
FFFFFFFFFFFFFFFFFFFFFFFFFFFFFFFFFFFFFFFFFFFFFFFFFFFFFFFFFFFFFFFF
310
FFFFFFFFFFFFFFFFFFFFFFFFFFFFFFFFFFFFFFFFFFFFFFFFF000FFFFFFFFFFFF
310
FFFFFFFFFFFFFFFFFFFFFFFFFFFFFFFFFFFFFFFFFFFFFFFFFFFFFFFFFFFFFFFF
310
FFFFFFFFFFFFFFFFFFFFFFFFFFFFFFFFFFFFFFFFFFFFFFFFFFFFFFFFFFFFFFFF
310
FFFFFFFFFFFFFFFFFFFFFFFFFFFFFFFFF000FFFFFFFFFFFFFFFFFFFFFFFFFFFF
310
FFFFFFFFFFFFFFFFFFFFFFFFFFFFFFFFFFFFFFFFFFFFFFFFFFFFFFFFFFFFFFFF
310
FFFFFFFFFFFFFFFFFFFFFFFFFFFFFFFFFFFFFFFFFFFFFFFFFFFFFFFFFFFFFFFF
310
FFFFFFFFFFFFFFFFF000FFFFF80003FFFFFFFFFFFFFFFFFFFFFFFFFFFFFFFFFF
310
FFFFF00007FFFFFFFFFF00007FFFFFF800000000000000007FFFFFFFFFFFFFFF
310
FFFFFFFC001FFFFFFFFFFFFFFC001FFFFFFFFFFFFFFFFFFFFFFFFFFE0007FFFF
310
F000FFFF8000007FFFFFFFF8000FFFFFC0007FFFFF80007FFFFF0000007FFFFF
310
FFF8000007FFFFF800000000000000007FFFFFF0001FFFFFFFFFFFC00001FFFF
310
FFFFFFFFC00001FFFFFFFF000000000003FFFFE000007FFFF000FFFE0000000F
310
FFFFFFF0000FFFFF80007FFFFF80007FFFFC0000001FFFFFFFC0000001FFFFF8
310
00000000000000007FFFFFF0001FFFFFFFFFFE0000003FFFFFFFFFFE0000003F
310
FFFFFF000000000003FFFF0000000FFFF000FFF800000003FFFFFFF00007FFFF
310
80007FFFFF80007FFFF000000007FFFFFF000000003FFFF80000000000000000
310
7FFFFFF0001FFFFFFFFFF80000000FFFFFFFFFF80000000FFFFFFF0000000000
310
03FFFC00000003FFF000FFE000000000FFFFFFF00007FFFF80003FFFFF80007F
310
FFC000000001FFFFFC000000001FFFF800000000000000007FFFFFF0001FFFFF
310
FFFFE000000003FFFFFFFFE000000003FFFFFF000000000003FFF000000000FF
310
F000FF80000000007FFFFFF00007FFFF80003FFFFF80007FFF8000000000FFFF
310
F80000000007FFF800000000000000007FFFFFF0001FFFFFFFFFC000000001FF
310
FFFFFFC000000001FFFFFF000000000003FFC0000000007FF000FF0000000000
310
3FFFFFE00007FFFF00003FFFFF80007FFE00000000003FFFF00000000003FFF8
310
00000000000000007FFFFFF0001FFFFFFFFF8000000000FFFFFFFF8000000000
310
FFFFFF000000000003FF80000000003FF000FE00000000001FFFFFE00003FFFF
310
00003FFFFF80007FFC00000000001FFFE00000000001FFF8000001FFFE000000
310
7FFFFFF0001FFFFFFFFE00000000003FFFFFFE00000000003FFFFF0000000000
310
03FF00000000001FF000FC00000000000FFFFFE00003FFFF00001FFFFF80007F
310
F800000000001FFFC00000000000FFF8000001FFFE0000007FFFFFF0001FFFFF
310
FFFC00000000001FFFFFFC00000000001FFFFF000000000003FE00000000000F
310
F000F8000000000007FFFFE00003FFFF00001FFFFF80007FF800000000000FFF
310
800000000000FFF8000001FFFE0000007FFFFFF0001FFFFFFFF800000000000F
310
FFFFF800000000000FFFFF000000000003FC000000000007F000F80000000000
310
03FFFFC00003FFFE00001FFFFF80007FF0000000000007FF0000000000007FF8
310
000001FFFE0000007FFFFFF0001FFFFFFFF0000000000007FFFFF00000000000
310
07FFFF000000000003F8000000000003F000F0000000000003FFFFC00001FFFE
310
00001FFFFF80007FE0000000000007FE0000000000003FF8000001FFFE000000
310
7FFFFFF0001FFFFFFFF0000000000007FFFFF0000000000007FFFF0000000000
310
03F800001F800003F000E00001FFF00001FFFFC00001FFFE00000FFFFF80007F
310
E00001FFE00003FE00001FFF00003FF8000001FFFE0000007FFFFFF0001FFFFF
310
FFE000003E000003FFFFE000003E000003FFFF000000000003F00001FFF80001
310
F000E00007FFFC0001FFFFC00001FFFE00000FFFFF80007FC0000FFFFC0003FC
310
0000FFFFC0001FF8000001FFFE0000007FFFFFF0001FFFFFFFC00003FFE00001
310
FFFFC00003FFE00001FFFF0001FFFFFFFFF00007FFFE0001F000E0000FFFFF00
310
00FFFF800001FFFC00000FFFFF80007FC0001FFFFE0001FC0001FFFFE0001FF8
310
000001FFFE0000007FFFFFF0001FFFFFFF80000FFFF80000FFFF80000FFFF800
310
00FFFF0003FFFFFFFFE0000FFFFF8000F000C0003FFFFF8000FFFF800000FFFC
310
000007FFFF80007F80003FFFFF0001FC0003FFFFF0001FF8000001FFFE000000
310
7FFFFFF0001FFFFFFF80003FFFFE0000FFFF80003FFFFE0000FFFF0003FFFFFF
310
FFE0003FFFFF8000F000C0003FFFFF8000FFFF800000FFFC000007FFFF80007F
310
80007FFFFF8001F80007FFFFF8000FF8000001FFFE0000007FFFFFF0001FFFFF
310
FF00007FFFFF00007FFF00007FFFFF00007FFF0003FFFFFFFFE0003FFFFFC000
310
F000C0007FFFFFC000FFFF000000FFFC000007FFFF80007F8000FFFFFF8000F8
310
000FFFFFF8000FF8000001FFFE0000007FFFFFF0001FFFFFFF0000FFFFFF8000
310
7FFF0000FFFFFF80007FFF0003FFFFFFFFC0007FFFFFC00070008000FFFFFFC0
310
00FFFF000000FFF8000007FFFF80007F8000FFFFFF8000F8000FFFFFF8000FF8
310
000001FFFE0000007FFFFFF0001FFFFFFE0001FFFFFFC0003FFE0001FFFFFFC0
310
003FFF0003FFFFFFFFC0007FFFFFE00070008000FFFFFFC0007FFF0000007FF8
310
000003FFFF80007F0001FFFFFF8000F8000FFFFFF8000FF8000001FFFE000000
310
7FFFFFF0001FFFFFFE0001FFFFFFC0003FFE0001FFFFFFC0003FFF0003FFFFFF
310
FFC000FFFFFFE00070008000FFFFFFC0007FFF0000007FF8000003FFFF80007F
310
0001FFFFFF8000F8001FFFFFF8000FF8000001FFFE0000007FFFFFF0001FFFFF
310
FE0003FFFFFFE0003FFE0003FFFFFFE0003FFF0003FFFFFFFFC000FFFFFFE000
310
70008000FFFFFFC0007FFE0000007FF8000003FFFF80007F0001FFFFFF8000F0
310
001FFFFFF8000FF8000001FFFE0000007FFFFFF0001FFFFFFC0003FFFFFFE000
310
1FFC0003FFFFFFE0001FFF0003FFFFFFFFC000FFFFFFC00070008000FFFFFF80
310
007FFE0000007FF0000003FFFF80007F0001FFFFFF0000F0001FFFFFF8000FF8
310
000001FFFE0000007FFFFFF0001FFFFFFC0007FFFFFFF0001FFC0007FFFFFFF0
310
001FFF0003FFFFFFFFC000FFFFFFC00070008001FFFFFF0000FFFE0000003FF0
310
000001FFFF80007F0001FFFFFF0000F8001FFFFFF0000FF8000001FFFE000000
310
7FFFFFF0001FFFFFFC0007FFFFFFF0001FFC0007FFFFFFF0001FFF0003FFFFFF
310
FFC001FFFFFF80007000FFFFFFFFFE0000FFFE0008003FF0008001FFFF80007F
310
FFFFFFFFFC0000FFFFFFFFFFE0000FF8000001FFFE0000007FFFFFF0001FFFFF
310
F8000FFFFFFFF8000FF8000FFFFFFFF8000FFF0003FFFFFFFFFFFFFFFFFF0000
310
7000FFFFFFFFFC0000FFFC0008003FF0008001FFFF80007FFFFFFFFFF80001FF
310
FFFFFFFF80000FF8000001FFFE0000007FFFFFF0001FFFFFF8000FFFFFFFF800
310
0FF8000FFFFFFFF8000FFF0003FFFFFFFFFFFFFFFFFE0000F000FFFFFFFFE000
310
00FFFC000C003FE000C001FFFF80007FFFFFFFFFC00001FFFFFFFFFE00001FF8
310
000001FFFE0000007FFFFFF0001FFFFFF8000FFFFFFFF8000FF8000FFFFFFFF8
310
000FFF0003FFFFFFFFFFFFFFFFF00000F000FFFFFFFE000001FFFC000C001FE0
310
00C000FFFF80007FFFFFFFFE000001FFFFFFFFE000001FF80FFFFFFFFFFFFFC0
310
7FFFFFF0001FFFFFF8000FFFFFFFF8000FF8000FFFFFFFF8000FFF0003FFFFFF
310
FFFFFFFFFF800000F000FFFFFFC0000001FFFC001C001FE001C000FFFF80007F
310
FFFFFF80000003FFFFFFF80000001FF80FFFFFFFFFFFFFC07FFFFFF0001FFFFF
310
F8001FFFFFFFFC000FF8001FFFFFFFFC000FFF0003FFFFFFFFFFFFFFF0000001
310
F000FFFFF800000001FFF8001C001FE001C000FFFF80007FFFFFF800000003FF
310
FFFF800000003FF80FFFFFFFFFFFFFC07FFFFFF0001FFFFFF8001FFFFFFFFC00
310
0FF8001FFFFFFFFC000FFF0003FFFFFFFFFFFFFE00000001F000FFFFC0000000
310
03FFF8001E001FC001E000FFFF80007FFFFF8000000007FFFFFC000000003FF8
310
0FFFFFFFFFFFFFC07FFFFFF0001FFFFFF8001FFFFFFFFC000FF8001FFFFFFFFC
310
000FFF0003FFFFFFFFFFFFE000000003F000FFFE0000000007FFF8001E000FC0
310
01E0007FFF80007FFFFE0000000007FFFFE0000000007FF80FFFFFFFFFFFFFC0
310
7FFFFFF0001FFFFFF0001FFFFFFFFC0007F0001FFFFFFFFC0007FF0003FFFFFF
310
FFFFFF0000000003F000FFF80000000007FFF8001E000FC003E0007FFF80007F
310
FFF0000000000FFFFF8000000000FFF80FFFFFFFFFFFFFC07FFFFFF0001FFFFF
310
F0001FFFFFFFFC0007F0001FFFFFFFFC0007FF0003FFFFFFFFFFFC0000000007
310
F000FFE0000000000FFFF0003E000FC003E0007FFF80007FFFC0000000001FFF
310
FE0000000001FFF80FFFFFFFFFFFFFC07FFFFFF0001FFFFFF0001FFFFFFFFC00
310
07F0001FFFFFFFFC0007FF0003FFFFFFFFFFF0000000000FF000FFC000000000
310
1FFFF0003F000F8003F0003FFF80007FFF80000000003FFFF80000000003FFF8
310
0FFFFFFFFFFFFFC07FFFFFF0001FFFFFF0001FFFFFFFFC0007F0001FFFFFFFFC
310
0007FF0003FFFFFFFFFFE0000000001FF000FF00000000007FFFF0003F000780
310
03F0003FFF80007FFF00000000007FFFF00000000007FFF80FFFFFFFFFFFFFC0
310
7FFFFFF0001FFFFFF0001FFFFFFFFC0007F0001FFFFFFFFC0007FF0003FFFFFF
310
FFFF80000000007FF000FE0000000000FFFFE0003F00078007F0003FFF80007F
310
FE0000000001FFFFE0000000001FFFF80FFFFFFFFFFFFFC07FFFFFF0001FFFFF
310
F0001FFFFFFFFC0007F0001FFFFFFFFC0007FF0003FFFFFFFFFF0000000000FF
310
F000FC0000000003FFFFE0007F00078007F0003FFF80007FFC0000000007FFFF
310
C0000000007FFFF80FFFFFFFFFFFFFC07FFFFFF0001FFFFFF8001FFFFFFFFC00
310
0FF8001FFFFFFFFC000FFF0003FFFFFFFFFE0000000003FFF000FC000000000F
310
FFFFE0007F80070007F8001FFF80007FF8000000001FFFFF8000000001FFFFF8
310
0FFFFFFFFFFFFFC07FFFFFF0001FFFFFF8001FFFFFFFFC000FF8001FFFFFFFFC
310
000FFF0003FFFFFFFFFC000000000FFFF000F8000000007FFFFFE0007F800700
310
07F8001FFF80007FF000000000FFFFFF800000000FFFFFF80FFFFFFFFFFFFFC0
310
7FFFFFF0001FFFFFF8000FFFFFFFF8000FF8000FFFFFFFF8000FFF0003FFFFFF
310
FFFC000000007FFFF000F800000007FFFFFFC0007F8003000FF8001FFF80007F
310
F000000007FFFFFF000000007FFFFFF80FFFFFFFFFFFFFC07FFFFFF0001FFFFF
310
F8000FFFFFFFF8000FF8000FFFFFFFF8000FFF0003FFFFFFFFF80000000FFFFF
310
F000F0000000FFFFFFFFC000FF8003000FF8001FFF80007FE0000000FFFFFFFF
310
0000000FFFFFFFF8000001FFFE0000007FFFFFF0001FFFFFF8000FFFFFFFF800
310
0FF8000FFFFFFFF8000FFF0003FFFFFFFFF8000000FFFFFFF000F000000FFFFF
310
FFFFC000FFC002000FF8000FFF80007FE000001FFFFFFFFE000001FFFFFFFFF8
310
000001FFFE0000007FFFFFF0001FFFFFF8000FFFFFFFF8000FF8000FFFFFFFF8
310
000FFF0003FFFFFFFFF000001FFFFFFFF000E00000FFFFFFFFFFC000FFC00200
310
0FFC000FFF80007FE00001FFFFFFFFFE00001FFFFFFFFFF8000001FFFE000000
310
7FFFFFF0001FFFFFFC000FFFFFFFF8001FFC000FFFFFFFF8001FFF0003FFFFFF
310
FFF00001FFFFFFFFF000E00007FFFFFFFFFF8000FFC000001FFC000FFF80007F
310
C0000FFFFFFFFFFE0000FFFFFFFFFFF8000001FFFE0000007FFFFFF0001FFFFF
310
FC0007FFFFFFF0001FFC0007FFFFFFF0001FFF0003FFFFFFFFF00007FFFFFFFF
310
F000E0001FFFFFFFFFFF8000FFC000001FFC000FFF80007FC0003FFFFFFFFFFE
310
0001FFFFFFFFFFF8000001FFFE0000007FFFFFF0001FFFFFFC0007FFFFFFF000
310
1FFC0007FFFFFFF0001FFF0003FFFFFFFFF0001FFFFFFFFFF000E0003FFFFF00
310
03FF8001FFE000001FFC0007FF80007FC0007FFFFF0007FC0003FFFFF0003FF8
310
000001FFFE0000007FFFFFF0001FFFFFFC0003FFFFFFE0001FFC0003FFFFFFE0
310
001FFF0003FFFFFFFFF0003FFFFFFFFFF000E0003FFFFF0001FF8001FFE00000
310
1FFE0007FF80007FC0007FFFFE0003FC0007FFFFE0003FF8000001FFFE000000
310
7FFFFFF0001FFFFFFE0003FFFFFFE0003FFE0003FFFFFFE0003FFF0003FFFFFF
310
FFF0003FFFFF8001F000E0003FFFFF0001FF0001FFE000001FFE0007FF80007F
310
C0007FFFFE0003FC0007FFFFE0003FF8000001FFFE0000007FFFFFF0001FFFFF
310
FE0001FFFFFFC0003FFE0001FFFFFFC0003FFF0003FFFFFFFFF0003FFFFF0001
310
F000E0003FFFFF0003FF0001FFE000003FFE0007FF80007FC0007FFFFE0003FC
310
0007FFFFE0003FF8000001FFFE0000007FFFFFF0001FFFFFFF0001FFFFFFC000
310
7FFF0001FFFFFFC0007FFF0003FFFFFFFFF0003FFFFF0001F000E0003FFFFE00
310
03FF0003FFF000003FFE0003FF80007FC0007FFFFC0003FE0007FFFFE0003FF8
310
000001FFFE0000007FFFFFF0001FFFFFFF0000FFFFFF80007FFF0000FFFFFF80
310
007FFF0003FFFFFFFFF0003FFFFF0001F000E0003FFFFE0003FF0003FFF00000
310
3FFF0003FF80007FC0007FFFFC0007FE0007FFFFC0003FF8000001FFFE000000
310
7FFFFFF0001FFFFFFF80007FFFFF0000FFFF80007FFFFF0000FFFF0003FFFFFF
310
FFF0003FFFFF0003F000E0003FFFFC0003FE0003FFF000003FFF0003FF80007F
310
E0003FFFF80007FE0003FFFFC0007FF8000001FFFE0000007FFFFFF0001FFFFF
310
FF80003FFFFE0000FFFF80003FFFFE0000FFFF0003FFFFFFFFF0001FFFFE0003
310
F000F0001FFFF80003FE0003FFF000007FFF0001FF80007FE0003FFFF00007FE
310
0001FFFF80007FF8000001FFFE0000007FFFFFF0001FFFFFFFC0000FFFF80001
310
FFFFC0000FFFF80001FFFF0003FFFFFFFFF0001FFFFC0003F000F0000FFFF000
310
07FE0007FFF800007FFF0001FF80007FE0001FFFE00007FF0000FFFE00007FF8
310
000001FFFE0000007FFFFFF0001FFFFFFFC00003FFE00001FFFFC00003FFE000
310
01FFFF0003FFFFFFFFF8000FFFF80003F000F00003FFC00007FC0007FFF80000
310
7FFF8001FF80007FF00007FF80000FFF00007FF80000FFF8000001FFFE000000
310
7F80000000000001FFE000003E000003FFFFE000003E000003FFFF0003FFFFFF
310
FFF80003FFE00007F000F800000000000FFC0007FFF800007FFF8001FF80007F
310
F000000000000FFF000000000000FFF8000001FFFE0000007F80000000000001
310
FFF0000000000007FFFFF0000000000007FFFF0003FFFFFFFFFC00007E000007
310
F000F800000000000FFC0007FFF80000FFFF8000FF80007FF800000000001FFF
310
800000000001FFF8000001FFFE0000007F80000000000001FFF800000000000F
310
FFFFF800000000000FFFFF0003FFFFFFFFFC00000000000FF000FC0000000000
310
1FFC0007FFFC0000FFFF8000FF80007FF800000000003FFFC00000000001FFF8
310
000001FFFE0000007F80000000000001FFF800000000000FFFFFF80000000000
310
0FFFFF0003FFFFFFFFFE00000000001FF000FE00000000003FF8000FFFFC0000
310
FFFF8000FF80007FFC00000000003FFFC00000000003FFF8000001FFFE000000
310
7F80000000000001FFFC00000000001FFFFFFC00000000001FFFFF0003FFFFFF
310
FFFF00000000001FF000FF00000000003FF8000FFFFC0000FFFFC000FF80007F
310
FE00000000007FFFE00000000007FFF8000001FFFE0000007F80000000000001
310
FFFE00000000003FFFFFFE00000000003FFFFF0003FFFFFFFFFF80000000003F
310
F000FF80000000007FF8000FFFFC0001FFFFC0007F80007FFF0000000000FFFF
310
F0000000000FFFF800000000000000007F80000000000001FFFF8000000000FF
310
FFFFFF8000000000FFFFFF0003FFFFFFFFFFC0000000007FF000FFC000000000
310
FFF8000FFFFE0001FFFFC0007F80007FFF8000000001FFFFF8000000001FFFF8
310
00000000000000007F80000000000001FFFFC000000001FFFFFFFFC000000001
310
FFFFFF0003FFFFFFFFFFE000000000FFF000FFE000000003FFF0001FFFFE0001
310
FFFFC0007F80007FFFC000000007FFFFFE000000003FFFF80000000000000000
310
7F80000000000001FFFFE000000003FFFFFFFFE000000003FFFFFF0003FFFFFF
310
FFFFF000000003FFF000FFF80000000FFFF0001FFFFE0001FFFFE0007F80007F
310
FFF00000000FFFFFFF00000000FFFFF800000000000000007F80000000000001
310
FFFFF80000000FFFFFFFFFF80000000FFFFFFF0003FFFFFFFFFFFC0000000FFF
310
F000FFFE0000003FFFF0001FFFFE0003FFFFE0003F80007FFFFC0000003FFFFF
310
FFC0000003FFFFF800000000000000007F80000000000001FFFFFE0000003FFF
310
FFFFFFFE0000003FFFFFFF0003FFFFFFFFFFFF0000003FFFF000FFFF800000FF
310
FFF0001FFFFF0003FFFFE0003F80007FFFFF000001FFFFFFFFF800001FFFFFF8
310
00000000000000007F80000000000001FFFFFFC00001FFFFFFFFFFFFC00001FF
310
FFFFFF0003FFFFFFFFFFFFC00000FFFFF000FFFFF8000FFFFFFFFFFFFFFFFFFF
310
FFFFFFFFFFFFFFFFFFFFF0001FFFFFFFFFFF0000FFFFFFF80000000000000000
310
7FFFFFFFFFFFFFFFFFFFFFFC001FFFFFFFFFFFFFFC001FFFFFFFFFFFFFFFFFFF
310
FFFFFFFC001FFFFFF000FFFFFFFFFFFFFFFFFFFFFFFFFFFFFFFFFFFFFFFFFFFF
310
FFFFFFFFFFFFFFFFFFFFFFFFFFFFFFFFFFFFFFFFFFFFFFFFFFFFFFFFFFFFFFFF
310
FFFFFFFFFFFFFFFFFFFFFFFFFFFFFFFFFFFFFFFFFFFFFFFFFFFFFFFFFFFFFFFF
310
F000FFFFFFFFFFFFFFFFFFFFFFFFFFFFFFFFFFFFFFFFFFFFFFFFFFFFFFFFFFFF
310
FFFFFFFFFFFFFFFFFFFFFFFFFFFFFFFFFFFFFFFFFFFFFFFFFFFFFFFFFFFFFFFF
310
FFFFFFFFFFFFFFFFFFFFFFFFFFFFFFFFFFFFFFFFFFFFFFFFF000FFFFFFFFFFFF
310
FFFFFFFFFFFFFFFFFFFFFFFFFFFFFFFFFFFFFFFFFFFFFFFFFFFFFFFFFFFFFFFF
310
FFFFFFFFFFFFFFFFFFFFFFFFFFFFFFFFFFFFFFFFFFFFFFFFFFFFFFFFFFFFFFFF
310
FFFFFFFFFFFFFFFFFFFFFFFFFFFFFFFFF000FFFFFFFFFFFFFFFFFFFFFFFFFFFF
310
FFFFFFFFFFFFFFFFFFFFFFFFFFFFFFFFFFFFFFFFFFFFFFFFFFFFFFFFFFFFFFFF
310
FFFFFFFFFFFFFFFFFFFFFFFFFFFFFFFFFFFFFFFFFFFFFFFFFFFFFFFFFFFFFFFF
310
FFFFFFFFFFFFFFFFF000FFFFFFFFFFFFFFFFFFFFFFFFFFFFFFFFFFFFFFFFFFFF
310
FFFFFFFFFFFFFFFFFFFFFFFFFFFFFFFFFFFFFFFFFFFFFFFFFFFFFFFFFFFFFFFF
310
FFFFFFFFFFFFFFFFFFFFFFFFFFFFFFFFFFFFFFFFFFFFFFFFFFFFFFFFFFFFFFFF
310
F000FFFFFFFFFFFFFFFFFFFFFFFFFFFFFFFFFFFFFFFFFFFFFFFFFFFFFFFFFFFF
310
FFFFFFFFFFFFFFFFFFFFFFFFFFFFFFFFFFFFFFFFFFFFFFFFFFFFFFFFFFFFFFFF
310
FFFFFFFFFFFFFFFFFFFFFFFFFFFFFFFFFFFFFFFFFFFFFFFFF000FFFFFFFFFFFF
310
FFFFFFFFFFFFFFFFFFFFFFFFFFFFFFFFFFFFFFFFFFFFFFFFFFFFFFFFFFFFFFFF
310
FFFFFFFFFFFFFFFFFFFFFFFFFFFFFFFFFFFFFFFFFFFFFFFFFFFFFFFFFFFFFFFF
310
FFFFFFFFFFFFFFFFFFFFFFFFFFFFFFFFF000FFFFFFFFFFFFFFFFFFFFFFFFFFFF
310
FFFFFFFFFFFFFFFFFFFFFFFFFFFFFFFFFFFFFFFFFFFFFFFFFFFFFFFFFFFFFFFF
310
FFFFFFFFFFFFFFFFFFFFFFFFFFFFFFFFFFFFFFFFFFFFFFFFFFFFFFFFFFFFFFFF
310
FFFFFFFFFFFFFFFFF000FFFFFFFFFFFFFFFFFFFFFFFFFFFFFFFFFFFFFFFFFFFF
310
FFFFFFFFFFFFFFFFFFFFFFFFFFFFFFFFFFFFFFFFFFFFFFFFFFFFFFFFFFFFFFFF
310
FFFFFFFFFFFFFFFFFFFFFFFFFFFFFFFFFFFFFFFFFFFFFFFFFFFFFFFFFFFFFFFF
310
F000FFFFFFFFFFFFFFFFFFFFFFFFFFFFFFFFFFFFFFFFFFFFFFFFFFFFFFFFFFFF
310
FFFFFFFFFFFFFFFFFFFFFFFFFFFFFFFFFFFFFFFFFFFFFFFFFFFFFFFFFFFFFFFF
310
FFFFFFFFFFFFFFFFFFFFFFFFFFFFFFFFFFFFFFFFFFFFFFFFF000FFFFFFFFFFFF
310
FFFFFFFFFFFFFFFFFFFFFFFFFFFFFFFFFFFFFFFFFFFFFFFFFFFFFFFFFFFFFFFF
310
FFFFFFFFFFFFFFFFFFFFFFFFFFFFFFFFFFFFFFFFFFFFFFFFFFFFFFFFFFFFFFFF
310
FFFFFFFFFFFFFFFFFFFFFFFFFFFFFFFFF000FFFFFFFFFFFFFFFFFFFFFFFFFFFF
310
FFFFFFFFFFFFFFFFFFFFFFFFFFFFFFFFFFFFFFFFFFFFFFFFFFFFFFFFFFFFFFFF
310
FFFFFFFFFFFFFFFFFFFFFFFFFFFFFFFFFFFFFFFFFFFFFFFFFFFFFFFFFFFFFFFF
310
FFFFFFFFFFFFFFFFF000FFFFFFFFFFFFFFFFFFFFFFFFFFFFFFFFFFFFFFFFFFFF
310
FFFFFFFFFFFFFFFFFFFFFFFFFFFFFFFFFFFFFFFFFFFFFFFFFFFFFFFFFFFFFFFF
310
FFFFFFFFFFFFFFFFFFFFFFFFFFFFFFFFFFFFFFFFFFFFFFFFFFFFFFFFFFFFFFFF
310
F000FFFFFFFFFFFFFFFFFFFFFFFFFFFFFFFFFFFFFFFFFFFFFFFFFFFFFFFFFFFF
310
FFFFFFFFFFFFFFFFFFFFFFFFFFFFFFFFFFFFFFFFFFFFFFFFFFFFFFFFFFFFFFFF
310
FFFFFFFFFFFFFFFFFFFFFFFFFFFFFFFFFFFFFFFFFFFFFFFFF000FFFFFFFFFFFF
310
FFFFFFFFFFFFFFFFFFFFFFFFFFFFFFFFFFFFFFFFFFFFFFFFFFFFFFFFFFFFFFFF
310
FFFFFFFFFFFFFFFFFFFFFFFFFFFFFFFFFFFFFFFFFFFFFFFFFFFFFFFFFFFFFFFF
310
FFFFFFFFFFFFFFFFFFFFFFFFFFFFFFFFF000FFFFFFFFFFFFFFFFFFFFFFFFFFFF
310
FFFFFFFFFFFFFFFFFFFFFFFFFFFFFFFFFFFFFFFFFFFFFFFFFFFFFFFFFFFFFFFF
310
FFFFFFFFFFFFFFFFFFFFFFFFFFFFFFFFFFFFFFFFFFFFFFFFFFFFFFFFFFFFFFFF
310
FFFFFFFFFFFFFFFFF000FFFFFFFFFFFFFFFFFFFFFFFFFFFFFFFFFFFFFFFFFFFF
310
FFFFFFFFFFFFFFFFFFFFFFFFFFFFFFFFFFFFFFFFFFFFFFFFFFFFFFFFFFFFFFFF
310
FFFFFFFFFFFFFFFFFFFFFFFFFFFFFFFFFFFFFFFFFFFFFFFFFFFFFFFFFFFFFFFF
310
F000FFFFFFFFFFFFFFFFFFFFFFFFFFFFFFFFFFFFFFFFFFFFFFFFFFFFFFFFFFFF
310
FFFFFFFFFFFFFFFFFFFFFFFFFFFFFFFFFFFFFFFFFFFFFFFFFFFFFFFFFFFFFFFF
310
FFFFFFFFFFFFFFFFFFFFFFFFFFFFFFFFFFFFFFFFFFFFFFFFF000FFFFFFFFFFFF
310
FFFFFFFFFFFFFFFFFFFFFFFFFFFFFFFFFFFFFFFFFFFFFFFFFFFFFFFFFFFFFFFF
310
FFFFFFFFFFFFFFFFFFFFFFFFFFFFFFFFFFFFFFFFFFFFFFFFFFFFFFFFFFFFFFFF
310
FFFFFFFFFFFFFFFFFFFFFFFFFFFFFFFFF000FFFFFFFFFFFFFFFFFFFFFFFFFFFF
310
FFFFFFFFFFFFFFFFFFFFFFFFFFFFFFFFFFFFFFFFFFFFFFFFFFFFFFFFFFFFFFFF
310
FFFFFFFFFFFFFFFFFFFFFFFFFFFFFFFFFFFFFFFFFFFFFFFFFFFFFFFFFFFFFFFF
310
FFFFFFFFFFFFFFFFF000FFFFFFFFFFFFFFFFFFFFFFFFFFFFFFFFFFFFFFFFFFFF
310
FFFFFFFFFFFFFFFFFFFFFFFFFFFFFFFFFFFFFFFFFFFFFFFFFFFFFFFFFFFFFFFF
310
FFFFFFFFFFFFFFFFFFFFFFFFFFFFFFFFFFFFFFFFFFFFFFFFFFFFFFFFFFFFFFFF
310
F000FFFFFFFFFFFFFFFFFFFFFFFFFFFFFFFFFFFFFFFFFFFFFFFFFFFFFFFFFFFF
310
FFFFFFFFFFFFFFFFFFFFFFFFFFFFFFFFFFFFFFFFFFFFFFFFFFFFFFFFFFFFFFFF
310
FFFFFFFFFFFFFFFFFFFFFFFFFFFFFFFFFFFFFFFFFFFFFFFFF000FFFFFFFFFFFF
310
FFFFFFFFFFFFFFFFFFFFFFFFFFFFFFFFFFFFFFFFFFFFFFFFFFFFFFFFFFFFFFFF
310
FFFFFFFFFFFFFFFFFFFFFFFFFFFFFFFFFFFFFFFFFFFFFFFFFFFFFFFFFFFFFFFF
310
FFFFFFFFFFFFFFFFFFFFFFFFFFFFFFFFF0000000000000000000000000000000
310
0000000000000000000000000000000000000000000000000000000000000000
310
0000000000000000000000000000000000000000000000000000000000000000
310
0000000000000000000000000000000000000000000000000000000000000000
310
0000000000000000000000000000000000000000000000000000000000000000
310
0000000000000000000000000000000000000000000000000000000000000000
310
0000000000000000000000000000000000000000000000000000000000000000
310
0000000000000000000000000000000000000000000000000000000000000000
310
0000000000000000000000000000000000000000000000000000000000000000
310
0000000000000000000000000000000000000000000000000000000000000000
310
0000000000000000000000000000000000000000000000000000000000000000
310
0000000000000000000000000000000000000000000000000000000000000000
310
0000000000000000000000000000000000000000000000000000000000000000
310
0000000000000000000000000000000000000000000000000000000000000000
310
0000000000000000000000000000000000000000000000000000000000000000
310
0000000000000000000000000000000000000000000000000000000000000000
  1
OLE
  0
ENDSEC
  0
SECTION
  2
OBJECTS
  0
DICTIONARY
  5
C
330
0
100
AcDbDictionary
281
     1
  3
ACAD_GROUP
350
D
  3
ACAD_LAYOUT
350
1A
  3
ACAD_MLINESTYLE
350
17
  3
ACAD_PLOTSETTINGS
350
19
  3
ACAD_PLOTSTYLENAME
350
E
  3
ACAD_SCALELIST
350
47
  0
DICTIONARY
  5
D
102
{ACAD_REACTORS
330
C
102
}
330
C
100
AcDbDictionary
281
     1
  0
DICTIONARY
  5
1A
102
{ACAD_REACTORS
330
C
102
}
330
C
100
AcDbDictionary
281
     1
  3
Layout1
350
1E
  3
Layout2
350
26
  3
Model
350
22
  0
DICTIONARY
  5
17
102
{ACAD_REACTORS
330
C
102
}
330
C
100
AcDbDictionary
281
     1
  3
Standard
350
18
  0
DICTIONARY
  5
19
102
{ACAD_REACTORS
330
C
102
}
330
C
100
AcDbDictionary
281
     1
  0
ACDBDICTIONARYWDFLT
  5
E
102
{ACAD_REACTORS
330
C
102
}
330
C
100
AcDbDictionary
281
     1
  3
Normal
350
F
100
AcDbDictionaryWithDefault
340
F
  0
DICTIONARY
  5
47
102
{ACAD_REACTORS
330
C
102
}
330
C
100
AcDbDictionary
281
     1
  3
A0
350
48
  3
A1
350
49
  3
A2
350
4A
  3
A3
350
4B
  3
A4
350
4C
  3
A5
350
4D
  3
A6
350
4E
  3
A7
350
4F
  3
A8
350
50
  3
A9
350
51
  3
B0
350
52
  3
B1
350
53
  3
B2
350
54
  3
B3
350
55
  3
B4
350
56
  3
B5
350
57
  3
B6
350
58
  3
B7
350
59
  3
B8
350
5A
  3
B9
350
5B
  3
C0
350
5C
  3
C1
350
5D
  3
C2
350
5E
  3
C3
350
5F
  3
C4
350
60
  3
C5
350
61
  3
C6
350
62
  3
C7
350
63
  3
C8
350
64
  3
C9
350
65
  3
D0
350
66
  3
D1
350
67
  3
D2
350
68
  0
LAYOUT
  5
1E
102
{ACAD_REACTORS
330
1A
102
}
330
1A
100
AcDbPlotSettings
  1

  2
none_device
  4

  6

 40
0.0
 41
0.0
 42
0.0
 43
0.0
 44
0.0
 45
0.0
 46
0.0
 47
0.0
 48
0.0
 49
0.0
140
0.0
141
0.0
142
1.0
143
1.0
 70
   688
 72
     1
 73
     0
 74
     5
  7

 75
    16
147
1.0
148
0.0
149
0.0
100
AcDbLayout
  1
Layout1
 70
     1
 71
     1
 10
0.0
 20
0.0
 11
420.0
 21
297.0
 12
0.0
 22
0.0
 32
0.0
 14
1.0000000000E+20
 24
1.0000000000E+20
 34
1.0000000000E+20
 15
-1.0000000000E+20
 25
-1.0000000000E+20
 35
-1.0000000000E+20
146
0.0
 13
0.0
 23
0.0
 33
0.0
 16
1.0
 26
0.0
 36
0.0
 17
0.0
 27
1.0
 37
0.0
 76
     0
330
1B
  0
LAYOUT
  5
26
102
{ACAD_REACTORS
330
1A
102
}
330
1A
100
AcDbPlotSettings
  1

  2
none_device
  4

  6

 40
0.0
 41
0.0
 42
0.0
 43
0.0
 44
0.0
 45
0.0
 46
0.0
 47
0.0
 48
0.0
 49
0.0
140
0.0
141
0.0
142
1.0
143
1.0
 70
   688
 72
     1
 73
     0
 74
     5
  7

 75
    16
147
1.0
148
0.0
149
0.0
100
AcDbLayout
  1
Layout2
 70
     1
 71
     2
 10
0.0
 20
0.0
 11
0.0
 21
0.0
 12
0.0
 22
0.0
 32
0.0
 14
0.0
 24
0.0
 34
0.0
 15
0.0
 25
0.0
 35
0.0
146
0.0
 13
0.0
 23
0.0
 33
0.0
 16
1.0
 26
0.0
 36
0.0
 17
0.0
 27
1.0
 37
0.0
 76
     0
330
23
  0
LAYOUT
  5
22
102
{ACAD_REACTORS
330
1A
102
}
330
1A
100
AcDbPlotSettings
  1

  2
none_device
  4
Letter_(8.50_x_11.00_Inches)
  6

 40
6.35
 41
6.35
 42
6.35000508
 43
6.35000508
 44
215.9
 45
279.4
 46
0.0
 47
0.0
 48
0.0
 49
0.0
140
0.0
141
0.0
142
1.0
143
1.0
 70
  1712
 72
     1
 73
     0
 74
     0
  7

 75
     0
147
1.0
148
0.0
149
0.0
100
AcDbLayout
  1
Model
 70
     1
 71
     0
 10
0.0
 20
0.0
 11
297.0
 21
210.0
 12
0.0
 22
0.0
 32
0.0
 14
0.0
 24
0.0
 34
0.0
 15
297.0
 25
210.0
 35
0.0
146
0.0
 13
0.0
 23
0.0
 33
0.0
 16
1.0
 26
0.0
 36
0.0
 17
0.0
 27
1.0
 37
0.0
 76
     0
330
1F
331
29
  0
MLINESTYLE
  5
18
102
{ACAD_REACTORS
330
17
102
}
330
17
100
AcDbMlineStyle
  2
Standard
 70
     0
  3

 62
   256
 51
90.0
 52
90.0
 71
     2
 49
0.5
 62
   256
  6
BYLAYER
 49
-0.5
 62
   256
  6
BYLAYER
  0
ACDBPLACEHOLDER
  5
F
102
{ACAD_REACTORS
330
E
102
}
330
E
  0
SCALE
  5
48
102
{ACAD_REACTORS
330
47
102
}
330
47
100
AcDbScale
 70
     0
300
1:1
140
1.0
141
1.0
290
     1
  0
SCALE
  5
49
102
{ACAD_REACTORS
330
47
102
}
330
47
100
AcDbScale
 70
     0
300
1:2
140
1.0
141
2.0
290
     0
  0
SCALE
  5
4A
102
{ACAD_REACTORS
330
47
102
}
330
47
100
AcDbScale
 70
     0
300
1:4
140
1.0
141
4.0
290
     0
  0
SCALE
  5
4B
102
{ACAD_REACTORS
330
47
102
}
330
47
100
AcDbScale
 70
     0
300
1:5
140
1.0
141
5.0
290
     0
  0
SCALE
  5
4C
102
{ACAD_REACTORS
330
47
102
}
330
47
100
AcDbScale
 70
     0
300
1:8
140
1.0
141
8.0
290
     0
  0
SCALE
  5
4D
102
{ACAD_REACTORS
330
47
102
}
330
47
100
AcDbScale
 70
     0
300
1:10
140
1.0
141
10.0
290
     0
  0
SCALE
  5
4E
102
{ACAD_REACTORS
330
47
102
}
330
47
100
AcDbScale
 70
     0
300
1:16
140
1.0
141
16.0
290
     0
  0
SCALE
  5
4F
102
{ACAD_REACTORS
330
47
102
}
330
47
100
AcDbScale
 70
     0
300
1:20
140
1.0
141
20.0
290
     0
  0
SCALE
  5
50
102
{ACAD_REACTORS
330
47
102
}
330
47
100
AcDbScale
 70
     0
300
1:30
140
1.0
141
30.0
290
     0
  0
SCALE
  5
51
102
{ACAD_REACTORS
330
47
102
}
330
47
100
AcDbScale
 70
     0
300
1:40
140
1.0
141
40.0
290
     0
  0
SCALE
  5
52
102
{ACAD_REACTORS
330
47
102
}
330
47
100
AcDbScale
 70
     0
300
1:50
140
1.0
141
50.0
290
     0
  0
SCALE
  5
53
102
{ACAD_REACTORS
330
47
102
}
330
47
100
AcDbScale
 70
     0
300
1:100
140
1.0
141
100.0
290
     0
  0
SCALE
  5
54
102
{ACAD_REACTORS
330
47
102
}
330
47
100
AcDbScale
 70
     0
300
2:1
140
2.0
141
1.0
290
     0
  0
SCALE
  5
55
102
{ACAD_REACTORS
330
47
102
}
330
47
100
AcDbScale
 70
     0
300
4:1
140
4.0
141
1.0
290
     0
  0
SCALE
  5
56
102
{ACAD_REACTORS
330
47
102
}
330
47
100
AcDbScale
 70
     0
300
8:1
140
8.0
141
1.0
290
     0
  0
SCALE
  5
57
102
{ACAD_REACTORS
330
47
102
}
330
47
100
AcDbScale
 70
     0
300
10:1
140
10.0
141
1.0
290
     0
  0
SCALE
  5
58
102
{ACAD_REACTORS
330
47
102
}
330
47
100
AcDbScale
 70
     0
300
100:1
140
100.0
141
1.0
290
     0
  0
SCALE
  5
59
102
{ACAD_REACTORS
330
47
102
}
330
47
100
AcDbScale
 70
     0
300
1/128" = 1'-0"
140
0.0078125
141
12.0
290
     0
  0
SCALE
  5
5A
102
{ACAD_REACTORS
330
47
102
}
330
47
100
AcDbScale
 70
     0
300
1/64" = 1'-0"
140
0.015625
141
12.0
290
     0
  0
SCALE
  5
5B
102
{ACAD_REACTORS
330
47
102
}
330
47
100
AcDbScale
 70
     0
300
1/32" = 1'-0"
140
0.03125
141
12.0
290
     0
  0
SCALE
  5
5C
102
{ACAD_REACTORS
330
47
102
}
330
47
100
AcDbScale
 70
     0
300
1/16" = 1'-0"
140
0.0625
141
12.0
290
     0
  0
SCALE
  5
5D
102
{ACAD_REACTORS
330
47
102
}
330
47
100
AcDbScale
 70
     0
300
3/32" = 1'-0"
140
0.09375
141
12.0
290
     0
  0
SCALE
  5
5E
102
{ACAD_REACTORS
330
47
102
}
330
47
100
AcDbScale
 70
     0
300
1/8" = 1'-0"
140
0.125
141
12.0
290
     0
  0
SCALE
  5
5F
102
{ACAD_REACTORS
330
47
102
}
330
47
100
AcDbScale
 70
     0
300
3/16" = 1'-0"
140
0.1875
141
12.0
290
     0
  0
SCALE
  5
60
102
{ACAD_REACTORS
330
47
102
}
330
47
100
AcDbScale
 70
     0
300
1/4" = 1'-0"
140
0.25
141
12.0
290
     0
  0
SCALE
  5
61
102
{ACAD_REACTORS
330
47
102
}
330
47
100
AcDbScale
 70
     0
300
3/8" = 1'-0"
140
0.375
141
12.0
290
     0
  0
SCALE
  5
62
102
{ACAD_REACTORS
330
47
102
}
330
47
100
AcDbScale
 70
     0
300
1/2" = 1'-0"
140
0.5
141
12.0
290
     0
  0
SCALE
  5
63
102
{ACAD_REACTORS
330
47
102
}
330
47
100
AcDbScale
 70
     0
300
3/4" = 1'-0"
140
0.75
141
12.0
290
     0
  0
SCALE
  5
64
102
{ACAD_REACTORS
330
47
102
}
330
47
100
AcDbScale
 70
     0
300
1" = 1'-0"
140
1.0
141
12.0
290
     0
  0
SCALE
  5
65
102
{ACAD_REACTORS
330
47
102
}
330
47
100
AcDbScale
 70
     0
300
1-1/2" = 1'-0"
140
1.5
141
12.0
290
     0
  0
SCALE
  5
66
102
{ACAD_REACTORS
330
47
102
}
330
47
100
AcDbScale
 70
     0
300
3" = 1'-0"
140
3.0
141
12.0
290
     0
  0
SCALE
  5
67
102
{ACAD_REACTORS
330
47
102
}
330
47
100
AcDbScale
 70
     0
300
6" = 1'-0"
140
6.0
141
12.0
290
     0
  0
SCALE
  5
68
102
{ACAD_REACTORS
330
47
102
}
330
47
100
AcDbScale
 70
     0
300
1'-0" = 1'-0"
140
12.0
141
12.0
290
     0
  0
ENDSEC
  0
EOF
