  0
SECTION
  2
HEADER
  9
$ACADVER
  1
AC1015
  9
$ACADMAINTVER
 70
     6
  9
$DWGCODEPAGE
  3
ANSI_1252
  9
$INSBASE
 10
0.0
 20
0.0
 30
0.0
  9
$EXTMIN
 10
0.0
 20
0.0
 30
0.0
  9
$EXTMAX
 10
297.0
 20
210.0
 30
0.0
  9
$LIMMIN
 10
0.0
 20
0.0
  9
$LIMMAX
 10
297.0
 20
210.0
  9
$ORTHOMODE
 70
     0
  9
$REGENMODE
 70
     1
  9
$FILLMODE
 70
     1
  9
$QTEXTMODE
 70
     0
  9
$MIRRTEXT
 70
     1
  9
$LTSCALE
 40
1.0
  9
$ATTMODE
 70
     1
  9
$TEXTSIZE
 40
2.0
  9
$TRACEWID
 40
1.0
  9
$TEXTSTYLE
  7
Standard
  9
$CLAYER
  8
0
  9
$CELTYPE
  6
ByLayer
  9
$CECOLOR
 62
   256
  9
$CELTSCALE
 40
1.0
  9
$DISPSILH
 70
     0
  9
$DIMSCALE
 40
1.0
  9
$DIMASZ
 40
3.0
  9
$DIMEXO
 40
0.0
  9
$DIMDLI
 40
3.75
  9
$DIMRND
 40
0.0
  9
$DIMDLE
 40
0.0
  9
$DIMEXE
 40
1.0
  9
$DIMTP
 40
0.0
  9
$DIMTM
 40
0.0
  9
$DIMTXT
 40
2.0
  9
$DIMCEN
 40
2.5
  9
$DIMTSZ
 40
0.0
  9
$DIMTOL
 70
     0
  9
$DIMLIM
 70
     0
  9
$DIMTIH
 70
     1
  9
$DIMTOH
 70
     1
  9
$DIMSE1
 70
     0
  9
$DIMSE2
 70
     0
  9
$DIMTAD
 70
     1
  9
$DIMZIN
 70
     0
  9
$DIMBLK
  1

  9
$DIMASO
 70
     1
  9
$DIMSHO
 70
     1
  9
$DIMPOST
  1

  9
$DIMAPOST
  1

  9
$DIMALT
 70
     0
  9
$DIMALTD
 70
     3
  9
$DIMALTF
 40
0.0393700787
  9
$DIMLFAC
 40
1.0
  9
$DIMTOFL
 70
     1
  9
$DIMTVP
 40
0.0
  9
$DIMTIX
 70
     0
  9
$DIMSOXD
 70
     0
  9
$DIMSAH
 70
     0
  9
$DIMBLK1
  1

  9
$DIMBLK2
  1

  9
$DIMSTYLE
  2
ISO-25
  9
$DIMCLRD
 70
     0
  9
$DIMCLRE
 70
     0
  9
$DIMCLRT
 70
     0
  9
$DIMTFAC
 40
1.0
  9
$DIMGAP
 40
1.524
  9
$DIMJUST
 70
     0
  9
$DIMSD1
 70
     0
  9
$DIMSD2
 70
     0
  9
$DIMTOLJ
 70
     0
  9
$DIMTZIN
 70
     0
  9
$DIMALTZ
 70
     0
  9
$DIMALTTZ
 70
     0
  9
$DIMUPT
 70
     0
  9
$DIMDEC
 70
     2
  9
$DIMTDEC
 70
     3
  9
$DIMALTU
 70
     2
  9
$DIMALTTD
 70
     3
  9
$DIMTXSTY
  7
Standard
  9
$DIMAUNIT
 70
     0
  9
$DIMADEC
 70
     2
  9
$DIMALTRND
 40
0.0
  9
$DIMAZIN
 70
     0
  9
$DIMDSEP
 70
    44
  9
$DIMATFIT
 70
     3
  9
$DIMFRAC
 70
     0
  9
$DIMLDRBLK
  1

  9
$DIMLUNIT
 70
     2
  9
$DIMLWD
 70
    -2
  9
$DIMLWE
 70
    -2
  9
$DIMTMOVE
 70
     0
  9
$LUNITS
 70
     2
  9
$LUPREC
 70
     2
  9
$SKETCHINC
 40
1.0
  9
$FILLETRAD
 40
10.0
  9
$AUNITS
 70
     0
  9
$AUPREC
 70
     2
  9
$MENU
  1
.
  9
$ELEVATION
 40
0.0
  9
$PELEVATION
 40
0.0
  9
$THICKNESS
 40
0.0
  9
$LIMCHECK
 70
     0
  9
$CHAMFERA
 40
10.0
  9
$CHAMFERB
 40
10.0
  9
$CHAMFERC
 40
20.0
  9
$CHAMFERD
 40
0.0
  9
$SKPOLY
 70
     0
  9
$TDCREATE
 40
2456552.346776991
  9
$TDUCREATE
 40
2456552.263443657
  9
$TDUPDATE
 40
2456552.346778252
  9
$TDUUPDATE
 40
2456552.263444919
  9
$TDINDWG
 40
0.0000000116
  9
$TDUSRTIMER
 40
0.0000000116
  9
$USRTIMER
 70
     1
  9
$ANGBASE
 50
0.0
  9
$ANGDIR
 70
     0
  9
$PDMODE
 70
     0
  9
$PDSIZE
 40
-1.0
  9
$PLINEWID
 40
0.0
  9
$SPLFRAME
 70
     0
  9
$SPLINETYPE
 70
     6
  9
$SPLINESEGS
 70
     8
  9
$HANDSEED
  5
370
  9
$SURFTAB1
 70
     6
  9
$SURFTAB2
 70
     6
  9
$SURFTYPE
 70
     6
  9
$SURFU
 70
     6
  9
$SURFV
 70
     6
  9
$UCSBASE
  2

  9
$UCSNAME
  2

  9
$UCSORG
 10
0.0
 20
0.0
 30
0.0
  9
$UCSXDIR
 10
1.0
 20
0.0
 30
0.0
  9
$UCSYDIR
 10
0.0
 20
1.0
 30
0.0
  9
$UCSORTHOREF
  2

  9
$UCSORTHOVIEW
 70
     0
  9
$UCSORGTOP
 10
0.0
 20
0.0
 30
0.0
  9
$UCSORGBOTTOM
 10
0.0
 20
0.0
 30
0.0
  9
$UCSORGLEFT
 10
0.0
 20
0.0
 30
0.0
  9
$UCSORGRIGHT
 10
0.0
 20
0.0
 30
0.0
  9
$UCSORGFRONT
 10
0.0
 20
0.0
 30
0.0
  9
$UCSORGBACK
 10
0.0
 20
0.0
 30
0.0
  9
$PUCSBASE
  2

  9
$PUCSNAME
  2

  9
$PUCSORG
 10
0.0
 20
0.0
 30
0.0
  9
$PUCSXDIR
 10
1.0
 20
0.0
 30
0.0
  9
$PUCSYDIR
 10
0.0
 20
1.0
 30
0.0
  9
$PUCSORTHOREF
  2

  9
$PUCSORTHOVIEW
 70
     0
  9
$PUCSORGTOP
 10
0.0
 20
0.0
 30
0.0
  9
$PUCSORGBOTTOM
 10
0.0
 20
0.0
 30
0.0
  9
$PUCSORGLEFT
 10
0.0
 20
0.0
 30
0.0
  9
$PUCSORGRIGHT
 10
0.0
 20
0.0
 30
0.0
  9
$PUCSORGFRONT
 10
0.0
 20
0.0
 30
0.0
  9
$PUCSORGBACK
 10
0.0
 20
0.0
 30
0.0
  9
$USERI1
 70
     0
  9
$USERI2
 70
     0
  9
$USERI3
 70
     0
  9
$USERI4
 70
     0
  9
$USERI5
 70
     0
  9
$USERR1
 40
0.0
  9
$USERR2
 40
0.0
  9
$USERR3
 40
0.0
  9
$USERR4
 40
0.0
  9
$USERR5
 40
0.0
  9
$WORLDVIEW
 70
     1
  9
$SHADEDGE
 70
     3
  9
$SHADEDIF
 70
    70
  9
$TILEMODE
 70
     1
  9
$MAXACTVP
 70
    64
  9
$PINSBASE
 10
0.0
 20
0.0
 30
0.0
  9
$PLIMCHECK
 70
     0
  9
$PEXTMIN
 10
1.0000000000E+20
 20
1.0000000000E+20
 30
1.0000000000E+20
  9
$PEXTMAX
 10
-1.0000000000E+20
 20
-1.0000000000E+20
 30
-1.0000000000E+20
  9
$PLIMMIN
 10
0.0
 20
0.0
  9
$PLIMMAX
 10
420.0
 20
297.0
  9
$UNITMODE
 70
     0
  9
$VISRETAIN
 70
     1
  9
$PLINEGEN
 70
     0
  9
$PSLTSCALE
 70
     1
  9
$TREEDEPTH
 70
  3020
  9
$CMLSTYLE
  2
Standard
  9
$CMLJUST
 70
     0
  9
$CMLSCALE
 40
20.0
  9
$PROXYGRAPHICS
 70
     1
  9
$MEASUREMENT
 70
     1
  9
$CELWEIGHT
370
    -1
  9
$ENDCAPS
280
     0
  9
$JOINSTYLE
280
     0
  9
$LWDISPLAY
290
     1
  9
$INSUNITS
 70
     4
  9
$HYPERLINKBASE
  1

  9
$STYLESHEET
  1

  9
$XEDIT
290
     1
  9
$CEPSNTYPE
380
     0
  9
$PSTYLEMODE
290
     1
  9
$FINGERPRINTGUID
  2
{18A40E90-6CAF-41AB-92A6-9D3486EB9A67}
  9
$VERSIONGUID
  2
{FAEB1C32-E019-11D5-929B-00C0DF256EC4}
  9
$EXTNAMES
290
     1
  9
$PSVPSCALE
 40
0.0
  9
$OLESTARTUP
290
     0
  0
ENDSEC
  0
SECTION
  2
CLASSES
  0
CLASS
  1
ACDBDICTIONARYWDFLT
  2
AcDbDictionaryWithDefault
  3
ObjectDBX Classes
 90
        0
280
     0
281
     0
  0
CLASS
  1
VISUALSTYLE
  2
AcDbVisualStyle
  3
ObjectDBX Classes
 90
     4095
280
     0
281
     0
  0
CLASS
  1
MATERIAL
  2
AcDbMaterial
  3
ObjectDBX Classes
 90
     1153
280
     0
281
     0
  0
CLASS
  1
ACDBPLACEHOLDER
  2
AcDbPlaceHolder
  3
ObjectDBX Classes
 90
        0
280
     0
281
     0
  0
CLASS
  1
LAYOUT
  2
AcDbLayout
  3
ObjectDBX Classes
 90
        0
280
     0
281
     0
  0
ENDSEC
  0
SECTION
  2
TABLES
  0
TABLE
  2
VPORT
  5
8
330
0
100
AcDbSymbolTable
 70
     1
  0
VPORT
  5
29
330
8
100
AcDbSymbolTableRecord
100
AcDbViewportTableRecord
  2
*Active
 70
     0
 10
0.0
 20
0.0
 11
1.0
 21
1.0
 12
148.5
 22
105.0
 13
0.0
 23
0.0
 14
10.0
 24
10.0
 15
10.0
 25
10.0
 16
0.0
 26
0.0
 36
1.0
 17
0.0
 27
0.0
 37
0.0
 40
210.0
 41
1.4142857143
 42
50.0
 43
0.0
 44
0.0
 50
0.0
 51
0.0
 71
     0
 72
  2000
 73
     1
 74
     3
 75
     0
 76
     0
 77
     0
 78
     0
281
     0
 65
     1
110
0.0
120
0.0
130
0.0
111
1.0
121
0.0
131
0.0
112
0.0
122
1.0
132
0.0
 79
     0
146
0.0
  0
ENDTAB
  0
TABLE
  2
LTYPE
  5
5
330
0
100
AcDbSymbolTable
 70
     6
  0
LTYPE
  5
14
330
5
100
AcDbSymbolTableRecord
100
AcDbLinetypeTableRecord
  2
ByBlock
 70
     0
  3

 72
    65
 73
     0
 40
0.0
  0
LTYPE
  5
15
330
5
100
AcDbSymbolTableRecord
100
AcDbLinetypeTableRecord
  2
ByLayer
 70
     0
  3

 72
    65
 73
     0
 40
0.0
  0
LTYPE
  5
16
330
5
100
AcDbSymbolTableRecord
100
AcDbLinetypeTableRecord
  2
Continuous
 70
     0
  3
Solid line
 72
    65
 73
     0
 40
0.0
  0
LTYPE
  5
3F
330
5
100
AcDbSymbolTableRecord
100
AcDbLinetypeTableRecord
  2
HIDDEN
 70
     0
  3
Hidden __ __ __ __ __ __ __ __ __ __ __ __ __ __
 72
    65
 73
     2
 40
1.905
 49
1.27
 74
     0
 49
-0.635
 74
     0
  0
LTYPE
  5
40
330
5
100
AcDbSymbolTableRecord
100
AcDbLinetypeTableRecord
  2
PHANTOM
 70
     0
  3
Phantom ______  __  __  ______  __  __  ______
 72
    65
 73
     6
 40
12.7
 49
6.35
 74
     0
 49
-1.27
 74
     0
 49
1.27
 74
     0
 49
-1.27
 74
     0
 49
1.27
 74
     0
 49
-1.27
 74
     0
  0
LTYPE
  5
41
330
5
100
AcDbSymbolTableRecord
100
AcDbLinetypeTableRecord
  2
CENTER
 70
     0
  3
Center ____ _ ____ _ ____ _ ____ _ ____ _ ____
 72
    65
 73
     4
 40
10.16
 49
6.35
 74
     0
 49
-1.27
 74
     0
 49
1.27
 74
     0
 49
-1.27
 74
     0
  0
LTYPE
  5
42
330
5
100
AcDbSymbolTableRecord
100
AcDbLinetypeTableRecord
  2
CENTERX2
 70
     0
  3
Center (2x) ________  __  ________  __  _____
 72
    65
 73
     4
 40
20.32
 49
12.7
 74
     0
 49
-2.54
 74
     0
 49
2.54
 74
     0
 49
-2.54
 74
     0
  0
LTYPE
  5
43
330
5
100
AcDbSymbolTableRecord
100
AcDbLinetypeTableRecord
  2
DOT2
 70
     0
  3
Dot (.5x) ........................................
 72
    65
 73
     2
 40
0.635
 49
0.0
 74
     0
 49
-0.635
 74
     0
  0
ENDTAB
  0
TABLE
  2
LAYER
  5
2
330
0
100
AcDbSymbolTable
 70
     5
  0
LAYER
  5
10
330
2
100
AcDbSymbolTableRecord
100
AcDbLayerTableRecord
  2
0
 70
     0
 62
     7
  6
Continuous
370
    -3
390
F
  0
LAYER
  5
44
330
2
100
AcDbSymbolTableRecord
100
AcDbLayerTableRecord
  2
FORMAT
 70
     0
 62
     7
  6
Continuous
370
    -3
390
F
  0
LAYER
  5
45
330
2
100
AcDbSymbolTableRecord
100
AcDbLayerTableRecord
  2
VERMASSUNG
 70
     0
 62
     7
  6
Continuous
370
    -3
390
F
  0
LAYER
  5
46
330
2
100
AcDbSymbolTableRecord
100
AcDbLayerTableRecord
  2
KOPF_DÜNN
 70
     0
 62
     7
  6
Continuous
370
    -3
390
F
  0
LAYER
  5
47
330
2
100
AcDbSymbolTableRecord
100
AcDbLayerTableRecord
  2
KOPF_DICK
 70
     0
 62
     7
  6
Continuous
370
    15
390
F
  0
ENDTAB
  0
TABLE
  2
STYLE
  5
3
330
0
100
AcDbSymbolTable
 70
     3
  0
STYLE
  5
11
330
3
100
AcDbSymbolTableRecord
100
AcDbTextStyleTableRecord
  2
Standard
 70
     0
 40
0.0
 41
1.0
 50
0.0
 71
     0
 42
2.0
  3
txt
  4

  0
STYLE
  5
48
330
3
100
AcDbSymbolTableRecord
100
AcDbTextStyleTableRecord
  2
SLDTEXTSTYLE0
 70
     0
 40
0.0
 41
0.7
 50
0.0
 71
     0
 42
0.2
  3
TXT
  4

  0
STYLE
  5
4C
330
3
100
AcDbSymbolTableRecord
100
AcDbTextStyleTableRecord
  2
SLDTEXTSTYLE1
 70
     0
 40
0.0
 41
0.6461538462
 50
0.0
 71
     0
 42
0.2
  3
TXT
  4

  0
ENDTAB
  0
TABLE
  2
VIEW
  5
6
330
0
100
AcDbSymbolTable
 70
     0
  0
ENDTAB
  0
TABLE
  2
UCS
  5
7
330
0
100
AcDbSymbolTable
 70
     0
  0
ENDTAB
  0
TABLE
  2
APPID
  5
9
330
0
100
AcDbSymbolTable
 70
     1
  0
APPID
  5
12
330
9
100
AcDbSymbolTableRecord
100
AcDbRegAppTableRecord
  2
ACAD
 70
     0
  0
ENDTAB
  0
TABLE
  2
DIMSTYLE
  5
A
330
0
100
AcDbSymbolTable
 70
     2
100
AcDbDimStyleTable
  0
DIMSTYLE
105
27
330
A
100
AcDbSymbolTableRecord
100
AcDbDimStyleTableRecord
  2
ISO-25
 70
     0
 41
2.5
 42
0.625
 43
3.75
 44
1.25
 73
     0
 74
     0
 77
     1
 78
     8
140
2.5
141
2.5
143
0.0393700787
147
0.625
171
     3
172
     1
178
     0
271
     2
272
     2
274
     3
278
    44
283
     0
284
     8
340
11
  0
DIMSTYLE
105
1B1
102
{ACAD_REACTORS
330
1B0
330
1BD
330
1C7
330
1D1
330
1DB
330
1E5
330
1EF
330
1F9
330
203
330
20E
102
}
330
A
100
AcDbSymbolTableRecord
100
AcDbDimStyleTableRecord
  2
SLDDIMSTYLE0
 70
     0
 41
3.0
 44
0.0
 45
0.000000001
 73
     0
 74
     0
 77
     1
 78
    12
 79
     3
140
2.0
147
0.5
173
     1
178
     0
271
     2
272
     3
276
     2
284
    12
340
48
  0
ENDTAB
  0
TABLE
  2
BLOCK_RECORD
  5
1
330
0
100
AcDbSymbolTable
 70
    12
  0
BLOCK_RECORD
  5
1F
330
1
100
AcDbSymbolTableRecord
100
AcDbBlockTableRecord
  2
*Model_Space
340
22
  0
BLOCK_RECORD
  5
1B
330
1
100
AcDbSymbolTableRecord
100
AcDbBlockTableRecord
  2
*Paper_Space
340
1E
  0
BLOCK_RECORD
  5
23
330
1
100
AcDbSymbolTableRecord
100
AcDbBlockTableRecord
  2
*Paper_Space0
340
26
  0
BLOCK_RECORD
  5
1B2
330
1
100
AcDbSymbolTableRecord
100
AcDbBlockTableRecord
  2
_D
340
0
  0
BLOCK_RECORD
  5
1BE
330
1
100
AcDbSymbolTableRecord
100
AcDbBlockTableRecord
  2
_D_1
340
0
  0
BLOCK_RECORD
  5
1C8
330
1
100
AcDbSymbolTableRecord
100
AcDbBlockTableRecord
  2
_D_2
340
0
  0
BLOCK_RECORD
  5
1D2
330
1
100
AcDbSymbolTableRecord
100
AcDbBlockTableRecord
  2
_D_3
340
0
  0
BLOCK_RECORD
  5
1DC
330
1
100
AcDbSymbolTableRecord
100
AcDbBlockTableRecord
  2
_D_4
340
0
  0
BLOCK_RECORD
  5
1E6
330
1
100
AcDbSymbolTableRecord
100
AcDbBlockTableRecord
  2
_D_5
340
0
  0
BLOCK_RECORD
  5
1F0
330
1
100
AcDbSymbolTableRecord
100
AcDbBlockTableRecord
  2
_D_6
340
0
  0
BLOCK_RECORD
  5
1FA
330
1
100
AcDbSymbolTableRecord
100
AcDbBlockTableRecord
  2
_D_7
340
0
  0
BLOCK_RECORD
  5
204
330
1
100
AcDbSymbolTableRecord
100
AcDbBlockTableRecord
  2
_D_8
340
0
  0
BLOCK_RECORD
  5
20F
330
1
100
AcDbSymbolTableRecord
100
AcDbBlockTableRecord
  2
_D_9
340
0
  0
BLOCK_RECORD
  5
363
330
1
100
AcDbSymbolTableRecord
100
AcDbBlockTableRecord
  2
SW_CENTERMARKSYMBOL_0
340
0
102
{BLKREFS
331
36E
102
}
  0
ENDTAB
  0
ENDSEC
  0
SECTION
  2
BLOCKS
  0
BLOCK
  5
20
330
1F
100
AcDbEntity
  8
0
100
AcDbBlockBegin
  2
*Model_Space
 70
     0
 10
0.0
 20
0.0
 30
0.0
  3
*Model_Space
  1

  0
ENDBLK
  5
21
330
1F
100
AcDbEntity
  8
0
100
AcDbBlockEnd
  0
BLOCK
  5
1C
330
1B
100
AcDbEntity
 67
     1
  8
0
100
AcDbBlockBegin
  2
*Paper_Space
 70
     0
 10
0.0
 20
0.0
 30
0.0
  3
*Paper_Space
  1

  0
ENDBLK
  5
1D
330
1B
100
AcDbEntity
 67
     1
  8
0
100
AcDbBlockEnd
  0
BLOCK
  5
24
330
23
100
AcDbEntity
  8
0
100
AcDbBlockBegin
  2
*Paper_Space0
 70
     0
 10
0.0
 20
0.0
 30
0.0
  3
*Paper_Space0
  1

  0
ENDBLK
  5
25
330
23
100
AcDbEntity
  8
0
100
AcDbBlockEnd
  0
BLOCK
  5
1B3
330
1B2
100
AcDbEntity
  8
0
100
AcDbBlockBegin
  2
_D
 70
     0
 10
0.0
 20
0.0
 30
0.0
  3
_D
  1

  0
SOLID
  5
1B5
330
1B2
100
AcDbEntity
  8
VERMASSUNG
100
AcDbTrace
 10
117.6213235943
 20
171.8399449867
 30
0.0
 11
117.1713235943
 21
168.8399449867
 31
0.0
 12
118.0713235943
 22
168.8399449867
 32
0.0
 13
118.0713235943
 23
168.8399449867
 33
0.0
  0
SOLID
  5
1B6
330
1B2
100
AcDbEntity
  8
VERMASSUNG
100
AcDbTrace
 10
117.6213235943
 20
71.8399449867
 30
0.0
 11
118.0713235943
 21
74.8399449867
 31
0.0
 12
117.1713235943
 22
74.8399449867
 32
0.0
 13
117.1713235943
 23
74.8399449867
 33
0.0
  0
LINE
  5
1B7
330
1B2
100
AcDbEntity
  8
VERMASSUNG
100
AcDbLine
 10
175.9045296804
 20
171.8399449867
 30
0.0
 11
116.6213235943
 21
171.8399449867
 31
0.0
  0
LINE
  5
1B8
330
1B2
100
AcDbEntity
  8
VERMASSUNG
100
AcDbLine
 10
175.9045296804
 20
71.8399449867
 30
0.0
 11
116.6213235943
 21
71.8399449867
 31
0.0
  0
LINE
  5
1B9
330
1B2
100
AcDbEntity
  8
VERMASSUNG
100
AcDbLine
 10
117.6213235943
 20
171.8399449867
 30
0.0
 11
117.6213235943
 21
71.8399449867
 31
0.0
  0
MTEXT
  5
1BA
330
1B2
100
AcDbEntity
  8
VERMASSUNG
100
AcDbMText
 10
114.8431881053
 20
113.1548949501
 30
0.0
 40
2.0
 41
0.0
 71
     1
 72
     1
  1
HSK T
  7
SLDTEXTSTYLE0
 11
-7.044195017643634E-15
 21
1.0
 31
0.0
 73
     1
 44
1.0
  0
MTEXT
  5
1BB
330
1B2
100
AcDbEntity
  8
VERMASSUNG
100
AcDbMText
 10
115.0431881148
 20
121.9548949024
 30
0.0
 40
2.0
 41
0.0
 71
     1
 72
     1
  1
%%c
  7
SLDTEXTSTYLE0
 11
-7.044195017643634E-15
 21
1.0
 31
0.0
 73
     1
 44
1.0
  0
MTEXT
  5
1BC
330
1B2
100
AcDbEntity
  8
VERMASSUNG
100
AcDbMText
 10
115.0431882312
 20
125.5642636886
 30
0.0
 40
2.0
 41
0.0
 71
     1
 72
     1
  1
100
  7
SLDTEXTSTYLE0
 11
-7.044195017643634E-15
 21
1.0
 31
0.0
 73
     1
 44
1.0
  0
ENDBLK
  5
1B4
330
1B2
100
AcDbEntity
  8
0
100
AcDbBlockEnd
  0
BLOCK
  5
1BF
330
1BE
100
AcDbEntity
  8
0
100
AcDbBlockBegin
  2
_D_1
 70
     0
 10
0.0
 20
0.0
 30
0.0
  3
_D_1
  1

  0
SOLID
  5
1C1
330
1BE
100
AcDbEntity
  8
VERMASSUNG
100
AcDbTrace
 10
275.4045296804
 20
189.3758433441
 30
0.0
 11
272.4045296804
 21
189.8258433441
 31
0.0
 12
272.4045296804
 22
188.9258433441
 32
0.0
 13
272.4045296804
 23
188.9258433441
 33
0.0
  0
SOLID
  5
1C2
330
1BE
100
AcDbEntity
  8
VERMASSUNG
100
AcDbTrace
 10
125.5045296804
 20
189.3758433441
 30
0.0
 11
128.5045296804
 21
188.9258433441
 31
0.0
 12
128.5045296804
 22
189.8258433441
 32
0.0
 13
128.5045296804
 23
189.8258433441
 33
0.0
  0
LINE
  5
1C3
330
1BE
100
AcDbEntity
  8
VERMASSUNG
100
AcDbLine
 10
275.4045296804
 20
148.8399449867
 30
0.0
 11
275.4045296804
 21
190.3758433441
 31
0.0
  0
LINE
  5
1C4
330
1BE
100
AcDbEntity
  8
VERMASSUNG
100
AcDbLine
 10
125.5045296804
 20
152.4204845332
 30
0.0
 11
125.5045296804
 21
190.3758433441
 31
0.0
  0
LINE
  5
1C5
330
1BE
100
AcDbEntity
  8
VERMASSUNG
100
AcDbLine
 10
275.4045296804
 20
189.3758433441
 30
0.0
 11
125.5045296804
 21
189.3758433441
 31
0.0
  0
MTEXT
  5
1C6
330
1BE
100
AcDbEntity
  8
VERMASSUNG
100
AcDbMText
 10
204.3356831302
 20
191.9539787073
 30
0.0
 40
2.0
 41
0.0
 71
     1
 72
     1
  1
149.9
  7
SLDTEXTSTYLE0
 73
     1
 44
1.0
  0
ENDBLK
  5
1C0
330
1BE
100
AcDbEntity
  8
0
100
AcDbBlockEnd
  0
BLOCK
  5
1C9
330
1C8
100
AcDbEntity
  8
0
100
AcDbBlockBegin
  2
_D_2
 70
     0
 10
0.0
 20
0.0
 30
0.0
  3
_D_2
  1

  0
SOLID
  5
1CB
330
1C8
100
AcDbEntity
  8
VERMASSUNG
100
AcDbTrace
 10
175.4045296804
 20
183.3758433441
 30
0.0
 11
178.4045296804
 21
182.9258433441
 31
0.0
 12
178.4045296804
 22
183.8258433441
 32
0.0
 13
178.4045296804
 23
183.8258433441
 33
0.0
  0
SOLID
  5
1CC
330
1C8
100
AcDbEntity
  8
VERMASSUNG
100
AcDbTrace
 10
275.4045296804
 20
183.3758433441
 30
0.0
 11
272.4045296804
 21
183.8258433441
 31
0.0
 12
272.4045296804
 22
182.9258433441
 32
0.0
 13
272.4045296804
 23
182.9258433441
 33
0.0
  0
LINE
  5
1CD
330
1C8
100
AcDbEntity
  8
VERMASSUNG
100
AcDbLine
 10
175.4045296804
 20
171.3399449867
 30
0.0
 11
175.4045296804
 21
184.3758433441
 31
0.0
  0
LINE
  5
1CE
330
1C8
100
AcDbEntity
  8
VERMASSUNG
100
AcDbLine
 10
275.4045296804
 20
148.8399449867
 30
0.0
 11
275.4045296804
 21
184.3758433441
 31
0.0
  0
LINE
  5
1CF
330
1C8
100
AcDbEntity
  8
VERMASSUNG
100
AcDbLine
 10
175.4045296804
 20
183.3758433441
 30
0.0
 11
275.4045296804
 21
183.3758433441
 31
0.0
  0
MTEXT
  5
1D0
330
1C8
100
AcDbEntity
  8
VERMASSUNG
100
AcDbMText
 10
222.2327698172
 20
185.9539787073
 30
0.0
 40
2.0
 41
0.0
 71
     1
 72
     1
  1
100
  7
SLDTEXTSTYLE0
 73
     1
 44
1.0
  0
ENDBLK
  5
1CA
330
1C8
100
AcDbEntity
  8
0
100
AcDbBlockEnd
  0
BLOCK
  5
1D3
330
1D2
100
AcDbEntity
  8
0
100
AcDbBlockBegin
  2
_D_3
 70
     0
 10
0.0
 20
0.0
 30
0.0
  3
_D_3
  1

  0
SOLID
  5
1D5
330
1D2
100
AcDbEntity
  8
VERMASSUNG
100
AcDbTrace
 10
204.3545296804
 20
177.3758433441
 30
0.0
 11
207.3545296804
 21
176.9258433441
 31
0.0
 12
207.3545296804
 22
177.8258433441
 32
0.0
 13
207.3545296804
 23
177.8258433441
 33
0.0
  0
SOLID
  5
1D6
330
1D2
100
AcDbEntity
  8
VERMASSUNG
100
AcDbTrace
 10
275.4045296804
 20
177.3758433441
 30
0.0
 11
272.4045296804
 21
177.8258433441
 31
0.0
 12
272.4045296804
 22
176.9258433441
 32
0.0
 13
272.4045296804
 23
176.9258433441
 33
0.0
  0
LINE
  5
1D7
330
1D2
100
AcDbEntity
  8
VERMASSUNG
100
AcDbLine
 10
204.3545296804
 20
169.8086848076
 30
0.0
 11
204.3545296804
 21
178.3758433441
 31
0.0
  0
LINE
  5
1D8
330
1D2
100
AcDbEntity
  8
VERMASSUNG
100
AcDbLine
 10
275.4045296804
 20
148.8399449867
 30
0.0
 11
275.4045296804
 21
178.3758433441
 31
0.0
  0
LINE
  5
1D9
330
1D2
100
AcDbEntity
  8
VERMASSUNG
100
AcDbLine
 10
204.3545296804
 20
177.3758433441
 30
0.0
 11
275.4045296804
 21
177.3758433441
 31
0.0
  0
MTEXT
  5
1DA
330
1D2
100
AcDbEntity
  8
VERMASSUNG
100
AcDbMText
 10
238.515081949
 20
179.9539787073
 30
0.0
 40
2.0
 41
0.0
 71
     1
 72
     1
  1
71.05
  7
SLDTEXTSTYLE0
 73
     1
 44
1.0
  0
ENDBLK
  5
1D4
330
1D2
100
AcDbEntity
  8
0
100
AcDbBlockEnd
  0
BLOCK
  5
1DD
330
1DC
100
AcDbEntity
  8
0
100
AcDbBlockBegin
  2
_D_4
 70
     0
 10
0.0
 20
0.0
 30
0.0
  3
_D_4
  1

  0
SOLID
  5
1DF
330
1DC
100
AcDbEntity
  8
VERMASSUNG
100
AcDbTrace
 10
264.9045296804
 20
85.945439606
 30
0.0
 11
267.9045296804
 21
85.495439606
 31
0.0
 12
267.9045296804
 22
86.395439606
 32
0.0
 13
267.9045296804
 23
86.395439606
 33
0.0
  0
SOLID
  5
1E0
330
1DC
100
AcDbEntity
  8
VERMASSUNG
100
AcDbTrace
 10
275.4045296804
 20
85.945439606
 30
0.0
 11
272.4045296804
 21
86.395439606
 31
0.0
 12
272.4045296804
 22
85.495439606
 32
0.0
 13
272.4045296804
 23
85.495439606
 33
0.0
  0
LINE
  5
1E1
330
1DC
100
AcDbEntity
  8
VERMASSUNG
100
AcDbLine
 10
264.9045296804
 20
136.8399449867
 30
0.0
 11
264.9045296804
 21
84.945439606
 31
0.0
  0
LINE
  5
1E2
330
1DC
100
AcDbEntity
  8
VERMASSUNG
100
AcDbLine
 10
275.4045296804
 20
94.8399449867
 30
0.0
 11
275.4045296804
 21
84.945439606
 31
0.0
  0
LINE
  5
1E3
330
1DC
100
AcDbEntity
  8
VERMASSUNG
100
AcDbLine
 10
264.9045296804
 20
85.945439606
 30
0.0
 11
275.4045296804
 21
85.945439606
 31
0.0
  0
MTEXT
  5
1E4
330
1DC
100
AcDbEntity
  8
VERMASSUNG
100
AcDbMText
 10
268.6433998032
 20
88.5235749692
 30
0.0
 40
2.0
 41
0.0
 71
     1
 72
     1
  1
10.5
  7
SLDTEXTSTYLE0
 73
     1
 44
1.0
  0
ENDBLK
  5
1DE
330
1DC
100
AcDbEntity
  8
0
100
AcDbBlockEnd
  0
BLOCK
  5
1E7
330
1E6
100
AcDbEntity
  8
0
100
AcDbBlockBegin
  2
_D_5
 70
     0
 10
0.0
 20
0.0
 30
0.0
  3
_D_5
  1

  0
SOLID
  5
1E9
330
1E6
100
AcDbEntity
  8
VERMASSUNG
100
AcDbTrace
 10
264.9045296804
 20
85.945439606
 30
0.0
 11
261.9045296804
 21
86.395439606
 31
0.0
 12
261.9045296804
 22
85.495439606
 32
0.0
 13
261.9045296804
 23
85.495439606
 33
0.0
  0
SOLID
  5
1EA
330
1E6
100
AcDbEntity
  8
VERMASSUNG
100
AcDbTrace
 10
249.4045296804
 20
85.945439606
 30
0.0
 11
252.4045296804
 21
85.495439606
 31
0.0
 12
252.4045296804
 22
86.395439606
 32
0.0
 13
252.4045296804
 23
86.395439606
 33
0.0
  0
LINE
  5
1EB
330
1E6
100
AcDbEntity
  8
VERMASSUNG
100
AcDbLine
 10
264.9045296804
 20
136.8399449867
 30
0.0
 11
264.9045296804
 21
84.945439606
 31
0.0
  0
LINE
  5
1EC
330
1E6
100
AcDbEntity
  8
VERMASSUNG
100
AcDbLine
 10
249.4045296804
 20
136.8399449867
 30
0.0
 11
249.4045296804
 21
84.945439606
 31
0.0
  0
LINE
  5
1ED
330
1E6
100
AcDbEntity
  8
VERMASSUNG
100
AcDbLine
 10
264.9045296804
 20
85.945439606
 30
0.0
 11
249.4045296804
 21
85.945439606
 31
0.0
  0
MTEXT
  5
1EE
330
1E6
100
AcDbEntity
  8
VERMASSUNG
100
AcDbMText
 10
255.4857149736
 20
88.5235749692
 30
0.0
 40
2.0
 41
0.0
 71
     1
 72
     1
  1
15.5
  7
SLDTEXTSTYLE0
 73
     1
 44
1.0
  0
ENDBLK
  5
1E8
330
1E6
100
AcDbEntity
  8
0
100
AcDbBlockEnd
  0
BLOCK
  5
1F1
330
1F0
100
AcDbEntity
  8
0
100
AcDbBlockBegin
  2
_D_6
 70
     0
 10
0.0
 20
0.0
 30
0.0
  3
_D_6
  1

  0
SOLID
  5
1F3
330
1F0
100
AcDbEntity
  8
VERMASSUNG
100
AcDbTrace
 10
249.4045296804
 20
85.945439606
 30
0.0
 11
246.4045296804
 21
86.395439606
 31
0.0
 12
246.4045296804
 22
85.495439606
 32
0.0
 13
246.4045296804
 23
85.495439606
 33
0.0
  0
SOLID
  5
1F4
330
1F0
100
AcDbEntity
  8
VERMASSUNG
100
AcDbTrace
 10
233.9045296804
 20
85.945439606
 30
0.0
 11
236.9045296804
 21
85.495439606
 31
0.0
 12
236.9045296804
 22
86.395439606
 32
0.0
 13
236.9045296804
 23
86.395439606
 33
0.0
  0
LINE
  5
1F5
330
1F0
100
AcDbEntity
  8
VERMASSUNG
100
AcDbLine
 10
249.4045296804
 20
136.8399449867
 30
0.0
 11
249.4045296804
 21
84.945439606
 31
0.0
  0
LINE
  5
1F6
330
1F0
100
AcDbEntity
  8
VERMASSUNG
100
AcDbLine
 10
233.9045296804
 20
136.8399449867
 30
0.0
 11
233.9045296804
 21
84.945439606
 31
0.0
  0
LINE
  5
1F7
330
1F0
100
AcDbEntity
  8
VERMASSUNG
100
AcDbLine
 10
249.4045296804
 20
85.945439606
 30
0.0
 11
233.9045296804
 21
85.945439606
 31
0.0
  0
MTEXT
  5
1F8
330
1F0
100
AcDbEntity
  8
VERMASSUNG
100
AcDbMText
 10
239.9697483332
 20
88.5235749692
 30
0.0
 40
2.0
 41
0.0
 71
     1
 72
     1
  1
15.5
  7
SLDTEXTSTYLE0
 73
     1
 44
1.0
  0
ENDBLK
  5
1F2
330
1F0
100
AcDbEntity
  8
0
100
AcDbBlockEnd
  0
BLOCK
  5
1FB
330
1FA
100
AcDbEntity
  8
0
100
AcDbBlockBegin
  2
_D_7
 70
     0
 10
0.0
 20
0.0
 30
0.0
  3
_D_7
  1

  0
SOLID
  5
1FD
330
1FA
100
AcDbEntity
  8
VERMASSUNG
100
AcDbTrace
 10
209.4045296804
 20
79.945439606
 30
0.0
 11
212.4045296804
 21
79.495439606
 31
0.0
 12
212.4045296804
 22
80.395439606
 32
0.0
 13
212.4045296804
 23
80.395439606
 33
0.0
  0
SOLID
  5
1FE
330
1FA
100
AcDbEntity
  8
VERMASSUNG
100
AcDbTrace
 10
275.4045296804
 20
79.945439606
 30
0.0
 11
272.4045296804
 21
80.395439606
 31
0.0
 12
272.4045296804
 22
79.495439606
 32
0.0
 13
272.4045296804
 23
79.495439606
 33
0.0
  0
LINE
  5
1FF
330
1FA
100
AcDbEntity
  8
VERMASSUNG
100
AcDbLine
 10
209.4045296804
 20
105.9399449867
 30
0.0
 11
209.4045296804
 21
78.945439606
 31
0.0
  0
LINE
  5
200
330
1FA
100
AcDbEntity
  8
VERMASSUNG
100
AcDbLine
 10
275.4045296804
 20
94.8399449867
 30
0.0
 11
275.4045296804
 21
78.945439606
 31
0.0
  0
LINE
  5
201
330
1FA
100
AcDbEntity
  8
VERMASSUNG
100
AcDbLine
 10
209.4045296804
 20
79.945439606
 30
0.0
 11
275.4045296804
 21
79.945439606
 31
0.0
  0
MTEXT
  5
202
330
1FA
100
AcDbEntity
  8
VERMASSUNG
100
AcDbMText
 10
243.0363798286
 20
82.5235749692
 30
0.0
 40
2.0
 41
0.0
 71
     1
 72
     1
  1
66
  7
SLDTEXTSTYLE0
 73
     1
 44
1.0
  0
ENDBLK
  5
1FC
330
1FA
100
AcDbEntity
  8
0
100
AcDbBlockEnd
  0
BLOCK
  5
205
330
204
100
AcDbEntity
  8
0
100
AcDbBlockBegin
  2
_D_8
 70
     0
 10
0.0
 20
0.0
 30
0.0
  3
_D_8
  1

  0
SOLID
  5
207
330
204
100
AcDbEntity
  8
VERMASSUNG
100
AcDbTrace
 10
289.8602853979
 20
149.8399449867
 30
0.0
 11
289.4102853979
 21
146.8399449867
 31
0.0
 12
290.3102853979
 22
146.8399449867
 32
0.0
 13
290.3102853979
 23
146.8399449867
 33
0.0
  0
SOLID
  5
208
330
204
100
AcDbEntity
  8
VERMASSUNG
100
AcDbTrace
 10
289.8602853979
 20
93.8399449867
 30
0.0
 11
290.3102853979
 21
96.8399449867
 31
0.0
 12
289.4102853979
 22
96.8399449867
 32
0.0
 13
289.4102853979
 23
96.8399449867
 33
0.0
  0
LINE
  5
209
330
204
100
AcDbEntity
  8
VERMASSUNG
100
AcDbLine
 10
274.4045296804
 20
149.8399449867
 30
0.0
 11
290.8602853979
 21
149.8399449867
 31
0.0
  0
LINE
  5
20A
330
204
100
AcDbEntity
  8
VERMASSUNG
100
AcDbLine
 10
274.4045296804
 20
93.8399449867
 30
0.0
 11
290.8602853979
 21
93.8399449867
 31
0.0
  0
LINE
  5
20B
330
204
100
AcDbEntity
  8
VERMASSUNG
100
AcDbLine
 10
289.8602853979
 20
149.8399449867
 30
0.0
 11
289.8602853979
 21
93.8399449867
 31
0.0
  0
MTEXT
  5
20C
330
204
100
AcDbEntity
  8
VERMASSUNG
100
AcDbMText
 10
287.2821499183
 20
119.4220767244
 30
0.0
 40
2.0
 41
0.0
 71
     1
 72
     1
  1
%%c
  7
SLDTEXTSTYLE0
 11
-7.044195017643634E-15
 21
1.0
 31
0.0
 73
     1
 44
1.0
  0
MTEXT
  5
20D
330
204
100
AcDbEntity
  8
VERMASSUNG
100
AcDbMText
 10
287.2821500347
 20
123.028887536
 30
0.0
 40
2.0
 41
0.0
 71
     1
 72
     1
  1
56
  7
SLDTEXTSTYLE0
 11
-7.044195017643634E-15
 21
1.0
 31
0.0
 73
     1
 44
1.0
  0
ENDBLK
  5
206
330
204
100
AcDbEntity
  8
0
100
AcDbBlockEnd
  0
BLOCK
  5
210
330
20F
100
AcDbEntity
  8
0
100
AcDbBlockBegin
  2
_D_9
 70
     0
 10
0.0
 20
0.0
 30
0.0
  3
_D_9
  1

  0
SOLID
  5
212
330
20F
100
AcDbEntity
  8
VERMASSUNG
100
AcDbTrace
 10
283.8602853979
 20
137.8399449867
 30
0.0
 11
283.4102853979
 21
134.8399449867
 31
0.0
 12
284.3102853979
 22
134.8399449867
 32
0.0
 13
284.3102853979
 23
134.8399449867
 33
0.0
  0
SOLID
  5
213
330
20F
100
AcDbEntity
  8
VERMASSUNG
100
AcDbTrace
 10
283.8602853979
 20
105.8399449867
 30
0.0
 11
284.3102853979
 21
108.8399449867
 31
0.0
 12
283.4102853979
 22
108.8399449867
 32
0.0
 13
283.4102853979
 23
108.8399449867
 33
0.0
  0
LINE
  5
214
330
20F
100
AcDbEntity
  8
VERMASSUNG
100
AcDbLine
 10
274.9045296804
 20
137.8399449867
 30
0.0
 11
284.8602853979
 21
137.8399449867
 31
0.0
  0
LINE
  5
215
330
20F
100
AcDbEntity
  8
VERMASSUNG
100
AcDbLine
 10
274.9045296804
 20
105.8399449867
 30
0.0
 11
284.8602853979
 21
105.8399449867
 31
0.0
  0
LINE
  5
216
330
20F
100
AcDbEntity
  8
VERMASSUNG
100
AcDbLine
 10
283.8602853979
 20
137.8399449867
 30
0.0
 11
283.8602853979
 21
105.8399449867
 31
0.0
  0
MTEXT
  5
217
330
20F
100
AcDbEntity
  8
VERMASSUNG
100
AcDbMText
 10
281.2821499183
 20
119.1933860934
 30
0.0
 40
2.0
 41
0.0
 71
     1
 72
     1
  1
%%c
  7
SLDTEXTSTYLE0
 11
-7.044195017643634E-15
 21
1.0
 31
0.0
 73
     1
 44
1.0
  0
MTEXT
  5
218
330
20F
100
AcDbEntity
  8
VERMASSUNG
100
AcDbMText
 10
281.2821500347
 20
122.800196905
 30
0.0
 40
2.0
 41
0.0
 71
     1
 72
     1
  1
32
  7
SLDTEXTSTYLE0
 11
-7.044195017643634E-15
 21
1.0
 31
0.0
 73
     1
 44
1.0
  0
ENDBLK
  5
211
330
20F
100
AcDbEntity
  8
0
100
AcDbBlockEnd
  0
BLOCK
  5
364
330
363
100
AcDbEntity
  8
0
100
AcDbBlockBegin
  2
SW_CENTERMARKSYMBOL_0
 70
     0
 10
0.0
 20
0.0
 30
0.0
  3
SW_CENTERMARKSYMBOL_0
  1

  0
LINE
  5
366
330
363
100
AcDbEntity
  8
VERMASSUNG
 62
     0
100
AcDbLine
 10
0.0
 20
0.0
 30
0.0
 11
0.0
 21
2.5
 31
0.0
  0
LINE
  5
367
330
363
100
AcDbEntity
  8
VERMASSUNG
 62
     0
100
AcDbLine
 10
0.0
 20
0.0
 30
0.0
 11
-2.5
 21
0.0
 31
0.0
  0
LINE
  5
368
330
363
100
AcDbEntity
  8
VERMASSUNG
 62
     0
100
AcDbLine
 10
0.0
 20
0.0
 30
0.0
 11
0.0
 21
-2.5
 31
0.0
  0
LINE
  5
369
330
363
100
AcDbEntity
  8
VERMASSUNG
 62
     0
100
AcDbLine
 10
0.0
 20
0.0
 30
0.0
 11
2.5
 21
0.0
 31
0.0
  0
LINE
  5
36A
330
363
100
AcDbEntity
  8
VERMASSUNG
 62
     0
100
AcDbLine
 10
0.0
 20
5.0
 30
0.0
 11
0.0
 21
54.6162657702
 31
0.0
  0
LINE
  5
36B
330
363
100
AcDbEntity
  8
VERMASSUNG
 62
     0
100
AcDbLine
 10
-5.0
 20
0.0
 30
0.0
 11
-53.6231375407
 21
0.0
 31
0.0
  0
LINE
  5
36C
330
363
100
AcDbEntity
  8
VERMASSUNG
 62
     0
100
AcDbLine
 10
0.0
 20
-5.0
 30
0.0
 11
0.0
 21
-53.9578640264
 31
0.0
  0
LINE
  5
36D
330
363
100
AcDbEntity
  8
VERMASSUNG
 62
     0
100
AcDbLine
 10
5.0
 20
0.0
 30
0.0
 11
53.2891127204
 21
0.0
 31
0.0
  0
ENDBLK
  5
365
330
363
100
AcDbEntity
  8
0
100
AcDbBlockEnd
  0
ENDSEC
  0
SECTION
  2
ENTITIES
  0
MTEXT
  5
49
330
1F
100
AcDbEntity
  8
KOPF_DÜNN
100
AcDbMText
 10
13.8892156294
 20
23.8442973028
 30
0.0
 40
3.0
 41
0.0
 71
     1
 72
     1
  1
HA0.B32.K01.100
  7
SLDTEXTSTYLE0
 73
     1
 44
1.0
  0
MTEXT
  5
4A
330
1F
100
AcDbEntity
  8
VERMASSUNG
100
AcDbMText
 10
13.9329988022
 20
28.8834360957
 30
0.0
 40
3.0
 41
0.0
 71
     1
 72
     1
  1
Bohrstangenhalter_Boring bar holder
  7
SLDTEXTSTYLE0
 73
     1
 44
1.0
  0
MTEXT
  5
4B
330
1F
100
AcDbEntity
  8
VERMASSUNG
100
AcDbMText
 10
98.8601118557
 20
13.8365368179
 30
0.0
 40
2.0
 41
0.0
 71
     1
 72
     1
  1
Datum: 31.10.2006
  7
SLDTEXTSTYLE0
 73
     1
 44
1.0
  0
MTEXT
  5
4D
330
1F
100
AcDbEntity
  8
VERMASSUNG
100
AcDbMText
 10
13.933048693
 20
18.0482802738
 30
0.0
 40
2.0
 41
0.0
 71
     1
 72
     1
  1
DIN 69893 HSK T 100  / ø32
  7
SLDTEXTSTYLE1
 73
     1
 44
1.0
  0
MTEXT
  5
4E
330
1F
100
AcDbEntity
  8
VERMASSUNG
100
AcDbMText
 10
13.9808475933
 20
13.9090973692
 30
0.0
 40
2.0
 41
0.0
 71
     1
 72
     1
  1
Gewicht: 2950g
  7
SLDTEXTSTYLE0
 73
     1
 44
1.0
  0
LINE
  5
4F
330
1F
100
AcDbEntity
  8
0
  6
Continuous
 62
     7
370
    15
100
AcDbLine
 10
175.9045297041
 20
71.8399442417
 30
0.0
 11
180.3545296536
 21
71.8399442417
 31
0.0
  0
LINE
  5
50
330
1F
100
AcDbEntity
  8
0
  6
Continuous
 62
     7
370
    15
100
AcDbLine
 10
180.3886025556
 20
171.8399457318
 30
0.0
 11
175.9045297041
 21
171.8399457318
 31
0.0
  0
ARC
  5
51
330
1F
100
AcDbEntity
  8
0
  6
Continuous
 62
     7
370
    15
100
AcDbCircle
 10
175.9045296804
 20
72.3399449867
 30
0.0
 40
0.5
100
AcDbArc
 50
180.0
 51
270.0
  0
ARC
  5
52
330
1F
100
AcDbEntity
  8
0
  6
Continuous
 62
     7
370
    15
100
AcDbCircle
 10
175.9045296804
 20
171.3399449867
 30
0.0
 40
0.5
100
AcDbArc
 50
90.0
 51
180.0
  0
ARC
  5
53
330
1F
100
AcDbEntity
  8
0
  6
Continuous
 62
     7
370
    15
100
AcDbCircle
 10
174.5075927619
 20
83.2114596623
 30
0.0
 40
0.9962338214386983
100
AcDbArc
 50
25.7988228126
 51
90.0
  0
ARC
  5
54
330
1F
100
AcDbEntity
  8
0
  6
Continuous
 62
     7
370
    15
100
AcDbCircle
 10
174.5075927619
 20
160.4684303112
 30
0.0
 40
0.9962338214386921
100
AcDbArc
 50
270.0
 51
334.2011771874
  0
LINE
  5
55
330
1F
100
AcDbEntity
  8
0
  6
Continuous
 62
     7
370
    15
100
AcDbLine
 10
172.9045297363
 20
83.9576951844
 30
0.0
 11
173.7103758025
 21
84.1736204606
 31
0.0
  0
LINE
  5
56
330
1F
100
AcDbEntity
  8
0
  6
Continuous
 62
     7
370
    15
100
AcDbLine
 10
173.7103758025
 20
159.5062695128
 30
0.0
 11
172.9045297363
 21
159.7221947891
 31
0.0
  0
LINE
  5
57
330
1F
100
AcDbEntity
  8
0
  6
Continuous
 62
     7
370
    15
100
AcDbLine
 10
153.9238501684
 20
158.7712622863
 30
0.0
 11
135.6045302347
 21
157.8534587902
 31
0.0
  0
LINE
  5
58
330
1F
100
AcDbEntity
  8
0
  6
Continuous
 62
     7
370
    15
100
AcDbLine
 10
172.9045297363
 20
159.7221947891
 30
0.0
 11
166.8364905164
 21
159.4181850237
 31
0.0
  0
LINE
  5
59
330
1F
100
AcDbEntity
  8
0
  6
Continuous
 62
     7
370
    15
100
AcDbLine
 10
166.836613451
 20
84.2616974992
 30
0.0
 11
172.9045297363
 21
83.9576951844
 31
0.0
  0
LINE
  5
5A
330
1F
100
AcDbEntity
  8
0
  6
Continuous
 62
     7
370
    15
100
AcDbLine
 10
140.6045291916
 20
85.5759314877
 30
0.0
 11
153.9244816051
 21
84.9085978848
 31
0.0
  0
ARC
  5
5B
330
1F
100
AcDbEntity
  8
0
  6
Continuous
 62
     7
370
    15
100
AcDbCircle
 10
173.9691948799
 20
83.2076934837
 30
0.0
 40
1.0
100
AcDbArc
 50
90.0
 51
105.0
  0
ARC
  5
5C
330
1F
100
AcDbEntity
  8
0
  6
Continuous
 62
     7
370
    15
100
AcDbCircle
 10
173.9691948799
 20
160.4721964897
 30
0.0
 40
1.000000000000023
100
AcDbArc
 50
255.0
 51
270.0
  0
LINE
  5
5D
330
1F
100
AcDbEntity
  8
0
  6
Continuous
 62
     7
370
    15
100
AcDbLine
 10
173.9691948862
 20
84.2076919657
 30
0.0
 11
174.5075927576
 21
84.2076919657
 31
0.0
  0
LINE
  5
5E
330
1F
100
AcDbEntity
  8
0
  6
Continuous
 62
     7
370
    15
100
AcDbLine
 10
174.5075927576
 20
159.4721980077
 30
0.0
 11
173.9691948862
 21
159.4721980077
 31
0.0
  0
ARC
  5
5F
330
1F
100
AcDbEntity
  8
0
  6
Continuous
 62
     7
370
    15
100
AcDbCircle
 10
209.3545296804
 20
88.8399449867
 30
0.0
 40
5.0
100
AcDbArc
 50
90.0
 51
180.0
  0
ARC
  5
60
330
1F
100
AcDbEntity
  8
0
  6
Continuous
 62
     7
370
    15
100
AcDbCircle
 10
209.3545296804
 20
154.8399449867
 30
0.0
 40
5.0
100
AcDbArc
 50
180.0
 51
270.0
  0
LINE
  5
61
330
1F
100
AcDbEntity
  8
0
  6
Continuous
 62
     7
370
    15
100
AcDbLine
 10
229.4115197257
 20
149.839945851
 30
0.0
 11
209.3545306817
 21
149.839945851
 31
0.0
  0
LINE
  5
62
330
1F
100
AcDbEntity
  8
0
  6
Continuous
 62
     7
370
    15
100
AcDbLine
 10
244.9115176097
 20
149.839945851
 30
0.0
 11
238.3485917345
 21
149.839945851
 31
0.0
  0
LINE
  5
63
330
1F
100
AcDbEntity
  8
0
  6
Continuous
 62
     7
370
    15
100
AcDbLine
 10
260.4115192191
 20
149.839945851
 30
0.0
 11
253.8485858933
 21
149.839945851
 31
0.0
  0
LINE
  5
64
330
1F
100
AcDbEntity
  8
0
  6
Continuous
 62
     7
370
    15
100
AcDbLine
 10
274.4045291439
 20
149.839945851
 30
0.0
 11
269.3485875026
 21
149.839945851
 31
0.0
  0
LINE
  5
65
330
1F
100
AcDbEntity
  8
0
  6
Continuous
 62
     7
370
    15
100
AcDbLine
 10
209.3545306817
 20
93.8399441224
 30
0.0
 11
274.4045291439
 21
93.8399441224
 31
0.0
  0
ARC
  5
66
330
1F
100
AcDbEntity
  8
0
  6
Continuous
 62
     7
370
    15
100
AcDbCircle
 10
274.4045296804
 20
148.8399449867
 30
0.0
 40
1.0
100
AcDbArc
 50
0.0
 51
90.0
  0
ARC
  5
67
330
1F
100
AcDbEntity
  8
0
  6
Continuous
 62
     7
370
    15
100
AcDbCircle
 10
274.4045296804
 20
94.8399449867
 30
0.0
 40
1.0
100
AcDbArc
 50
270.0
 51
0.0
  0
LINE
  5
68
330
1F
100
AcDbEntity
  8
0
  6
Continuous
 62
     7
370
    15
100
AcDbLine
 10
128.2497939066
 20
89.5899466854
 30
0.0
 11
138.7045305566
 21
89.5899466854
 31
0.0
  0
ARC
  5
69
330
1F
100
AcDbEntity
  8
0
  6
Continuous
 62
     7
370
    15
100
AcDbCircle
 10
138.7045296804
 20
87.6899449867
 30
0.0
 40
1.900000000000008
100
AcDbArc
 50
34.8098833305
 51
90.0
  0
LINE
  5
6A
330
1F
100
AcDbEntity
  8
0
  6
Continuous
 62
     7
370
    15
100
AcDbLine
 10
128.1545307831
 20
154.089943288
 30
0.0
 11
125.5807612435
 21
152.6039790046
 31
0.0
  0
ARC
  5
6B
330
1F
100
AcDbEntity
  8
0
  6
Continuous
 62
     7
370
    15
100
AcDbCircle
 10
133.7045296804
 20
155.9899449867
 30
0.0
 40
1.900000000000008
100
AcDbArc
 50
270.0
 51
310.9212832533
  0
LINE
  5
6C
330
1F
100
AcDbEntity
  8
0
  6
Continuous
 62
     7
370
    15
100
AcDbLine
 10
125.5613636569
 20
91.14211124
 30
0.0
 11
128.2497939066
 21
89.5899466854
 31
0.0
  0
LINE
  5
6D
330
1F
100
AcDbEntity
  8
0
  6
Continuous
 62
     7
370
    15
100
AcDbLine
 10
133.7045278744
 20
154.089943288
 30
0.0
 11
128.1545307831
 21
154.089943288
 31
0.0
  0
LINE
  5
6E
330
1F
100
AcDbEntity
  8
0
  6
Continuous
 62
     7
370
    15
100
AcDbLine
 10
198.6665591941
 20
73.0649500769
 30
0.0
 11
198.6665591941
 21
153.1899466795
 31
0.0
  0
SPLINE
  5
6F
330
1F
100
AcDbEntity
  8
0
  6
Continuous
 62
     7
370
    15
100
AcDbSpline
210
0.0
220
0.0
230
1.0
 70
     8
 71
     3
 72
     8
 73
     4
 74
     0
 42
0.00000001
 43
0.00000001
 12
1.0
 22
0.0
 32
0.0
 13
1.0
 23
0.0
 33
0.0
 40
0.0
 40
0.0
 40
0.0
 40
0.0
 40
1.0
 40
1.0
 40
1.0
 40
1.0
 10
198.666558701307
 20
73.0649513936795
 30
0.0
 10
198.2154539719068
 20
73.86591132549941
 30
0.0
 10
197.7647561446634
 20
74.66710133706009
 30
0.0
 10
197.3145296803856
 20
75.46855669968484
 30
0.0
  0
LINE
  5
70
330
1F
100
AcDbEntity
  8
0
  6
Continuous
 62
     7
370
    15
100
AcDbLine
 10
197.3145302729
 20
75.4685558063
 30
0.0
 11
197.3145302729
 21
153.1899466795
 31
0.0
  0
SPLINE
  5
71
330
1F
100
AcDbEntity
  8
0
  6
Continuous
 62
     7
370
    15
100
AcDbSpline
210
0.0
220
0.0
230
1.0
 70
    24
 71
     3
 72
     8
 73
     4
 74
     0
 42
0.00000001
 43
0.00000001
 12
1.0
 22
0.0
 32
0.0
 13
1.0
 23
0.0
 33
0.0
 40
0.0
 40
0.0
 40
0.0
 40
0.0
 40
1.0
 40
1.0
 40
1.0
 40
1.0
 10
197.3145296803856
 20
153.1899449867083
 30
0.0
 10
197.7587425627396
 20
153.1899449867083
 30
0.0
 10
198.2097571289788
 20
153.1899449867083
 30
0.0
 10
198.666558701307
 20
153.1899449867083
 30
0.0
  0
LINE
  5
72
330
1F
100
AcDbEntity
  8
0
  6
Continuous
 62
     7
370
    15
100
AcDbLine
 10
193.4945300565
 20
75.4685558063
 30
0.0
 11
193.4945300565
 21
153.1899466795
 31
0.0
  0
SPLINE
  5
73
330
1F
100
AcDbEntity
  8
0
  6
Continuous
 62
     7
370
    15
100
AcDbSpline
210
0.0
220
0.0
230
1.0
 70
     8
 71
     3
 72
     8
 73
     4
 74
     0
 42
0.00000001
 43
0.00000001
 12
1.0
 22
0.0
 32
0.0
 13
1.0
 23
0.0
 33
0.0
 40
0.0
 40
0.0
 40
0.0
 40
0.0
 40
1.0
 40
1.0
 40
1.0
 40
1.0
 10
193.4945296803856
 20
75.46855669968483
 30
0.0
 10
193.0443032161078
 20
74.66710133706007
 30
0.0
 10
192.5936053888644
 20
73.86591132549941
 30
0.0
 10
192.1425006594642
 20
73.0649513936795
 30
0.0
  0
LINE
  5
74
330
1F
100
AcDbEntity
  8
0
  6
Continuous
 62
     7
370
    15
100
AcDbLine
 10
192.1425011352
 20
73.0649500769
 30
0.0
 11
192.1425011352
 21
153.1899466795
 31
0.0
  0
SPLINE
  5
75
330
1F
100
AcDbEntity
  8
0
  6
Continuous
 62
     7
370
    15
100
AcDbSpline
210
0.0
220
0.0
230
1.0
 70
    24
 71
     3
 72
     8
 73
     4
 74
     0
 42
0.00000001
 43
0.00000001
 12
1.0
 22
0.0
 32
0.0
 13
1.0
 23
0.0
 33
0.0
 40
0.0
 40
0.0
 40
0.0
 40
0.0
 40
1.0
 40
1.0
 40
1.0
 40
1.0
 10
192.1425006594642
 20
153.1899449867083
 30
0.0
 10
192.5993022317925
 20
153.1899449867083
 30
0.0
 10
193.0503167980317
 20
153.1899449867083
 30
0.0
 10
193.4945296803856
 20
153.1899449867083
 30
0.0
  0
LINE
  5
76
330
1F
100
AcDbEntity
  8
0
  6
Continuous
 62
     7
370
    15
100
AcDbLine
 10
203.3545296983
 20
73.0649500769
 30
0.0
 11
198.6665591941
 21
73.0649500769
 31
0.0
  0
LINE
  5
77
330
1F
100
AcDbEntity
  8
0
  6
Continuous
 62
     7
370
    15
100
AcDbLine
 10
198.6665591941
 20
153.1899466795
 30
0.0
 11
203.3545296983
 21
153.1899466795
 31
0.0
  0
LINE
  5
78
330
1F
100
AcDbEntity
  8
0
  6
Continuous
 62
     7
370
    15
100
AcDbLine
 10
180.3545296536
 20
153.1899466795
 30
0.0
 11
192.1425011352
 21
153.1899466795
 31
0.0
  0
LINE
  5
79
330
1F
100
AcDbEntity
  8
0
  6
Continuous
 62
     7
370
    15
100
AcDbLine
 10
192.1425011352
 20
73.0649500769
 30
0.0
 11
190.35452943
 21
73.0649500769
 31
0.0
  0
SPLINE
  5
7A
330
1F
100
AcDbEntity
  8
0
  6
Continuous
 62
     7
370
    15
100
AcDbSpline
210
0.0
220
0.0
230
1.0
 70
     8
 71
     3
 72
    30
 73
    26
 74
     0
 42
0.00000001
 43
0.00000001
 12
1.0
 22
0.0
 32
0.0
 13
1.0
 23
0.0
 33
0.0
 40
0.0
 40
0.0
 40
0.0
 40
0.0
 40
0.1250000000000002
 40
0.1250000000000002
 40
0.1875000000000003
 40
0.1875000000000003
 40
0.2500000000000004
 40
0.2500000000000004
 40
0.3750000000000001
 40
0.3750000000000001
 40
0.4374999999999998
 40
0.4374999999999998
 40
0.4999999999999996
 40
0.4999999999999996
 40
0.6249999999999996
 40
0.6249999999999996
 40
0.6874999999999997
 40
0.6874999999999997
 40
0.7499999999999997
 40
0.7499999999999997
 40
0.8124999999999998
 40
0.8124999999999998
 40
0.8749999999999999
 40
0.8749999999999999
 40
1.0
 40
1.0
 40
1.0
 40
1.0
 10
190.3545296803856
 20
73.0649513936795
 30
0.0
 10
189.6917849865406
 20
73.06495139367951
 30
0.0
 10
189.0405291274249
 20
73.05011131709068
 30
0.0
 10
188.0800785891666
 20
73.00774175286107
 30
0.0
 10
187.7626871459336
 20
72.9902636500819
 30
0.0
 10
187.1335236443788
 20
72.94893536352959
 30
0.0
 10
186.821375457937
 20
72.92501009007191
 30
0.0
 10
185.9140681560888
 20
72.846203573605
 30
0.0
 10
185.3406431984475
 20
72.78389755362852
 30
0.0
 10
184.5267663288729
 20
72.68076823338916
 30
0.0
 10
184.261960132303
 20
72.64458431434265
 30
0.0
 10
183.7550527214887
 20
72.57078953014215
 30
0.0
 10
183.5136585701352
 20
72.5333156713705
 30
0.0
 10
182.8245170980028
 20
72.42060372803077
 30
0.0
 10
182.4114622831386
 20
72.34506763055698
 30
0.0
 10
181.8633074637636
 20
72.23667437353949
 30
0.0
 10
181.693844856418
 20
72.20160214187624
 30
0.0
 10
181.3858276084026
 20
72.13536668127638
 30
0.0
 10
181.2464475877942
 20
72.10403998452166
 30
0.0
 10
180.9966620751675
 20
72.04563121294072
 30
0.0
 10
180.8862559625136
 20
72.01854797775788
 30
0.0
 10
180.6949981088758
 20
71.9692882231443
 30
0.0
 10
180.6138785905916
 20
71.94702624333665
 30
0.0
 10
180.4197316704831
 20
71.88945933616837
 30
0.0
 10
180.3545296803856
 20
71.8631997313824
 30
0.0
 10
180.3545296803856
 20
71.84994598690835
 30
0.0
  0
LINE
  5
7B
330
1F
100
AcDbEntity
  8
0
  6
Continuous
 62
     7
370
    15
100
AcDbLine
 10
180.3545296536
 20
71.8499466461
 30
0.0
 11
180.3545296536
 21
71.8399442417
 31
0.0
  0
SPLINE
  5
7C
330
1F
100
AcDbEntity
  8
0
  6
Continuous
 62
     7
370
    15
100
AcDbSpline
210
0.0
220
0.0
230
1.0
 70
     8
 71
     3
 72
    17
 73
    13
 74
     0
 42
0.00000001
 43
0.00000001
 12
1.0
 22
0.0
 32
0.0
 13
1.0
 23
0.0
 33
0.0
 40
0.0
 40
0.0
 40
0.0
 40
0.0
 40
0.1043843958185158
 40
0.2118345569819801
 40
0.3162081801235555
 40
0.4235375330682647
 40
0.5292275935501746
 40
0.6379275752951962
 40
0.7444714855043735
 40
0.8541836194561564
 40
0.959308052615968
 40
1.0
 40
1.0
 40
1.0
 40
1.0
 10
190.3545294300461
 20
170.829740135081
 30
0.0
 10
189.8065908895325
 20
170.8351075754138
 30
0.0
 10
188.6946208764582
 20
170.8460000975778
 30
0.0
 10
187.0817655439357
 20
170.9311822813957
 30
0.0
 10
185.5482523931979
 20
171.0575527847272
 30
0.0
 10
184.1572315048237
 20
171.2144566562361
 30
0.0
 10
182.9217143885256
 20
171.3861520536718
 30
0.0
 10
181.8983592426692
 20
171.5514969078818
 30
0.0
 10
181.0980165698102
 20
171.6952012057139
 30
0.0
 10
180.5876850170502
 20
171.7933652016457
 30
0.0
 10
180.3477762585908
 20
171.8412865161184
 30
0.0
 10
180.3796951703602
 20
171.8349200081047
 30
0.0
 10
180.3886025556171
 20
171.8331433516814
 30
0.0
  0
LINE
  5
7D
330
1F
100
AcDbEntity
  8
0
  6
Continuous
 62
     7
370
    15
100
AcDbLine
 10
192.1425011352
 20
170.8297401351
 30
0.0
 11
190.35452943
 21
170.8297401351
 31
0.0
  0
LINE
  5
7E
330
1F
100
AcDbEntity
  8
0
  6
Continuous
 62
     7
370
    15
100
AcDbLine
 10
192.1425011352
 20
160.7909060699
 30
0.0
 11
192.1425011352
 21
170.8297401351
 31
0.0
  0
LINE
  5
7F
330
1F
100
AcDbEntity
  8
0
  6
Continuous
 62
     7
370
    15
100
AcDbLine
 10
190.062496473
 20
160.7909060699
 30
0.0
 11
192.1425011352
 21
160.7909060699
 31
0.0
  0
SPLINE
  5
80
330
1F
100
AcDbEntity
  8
0
  6
Continuous
 62
     7
370
    15
100
AcDbSpline
210
0.0
220
0.0
230
1.0
 70
     8
 71
     3
 72
    22
 73
    18
 74
     0
 42
0.00000001
 43
0.00000001
 12
1.0
 22
0.0
 32
0.0
 13
1.0
 23
0.0
 33
0.0
 40
0.0
 40
0.0
 40
0.0
 40
0.0
 40
0.2500000000000002
 40
0.2500000000000002
 40
0.3750000000000003
 40
0.3750000000000003
 40
0.5000000000000004
 40
0.5000000000000004
 40
0.6250000000000004
 40
0.6250000000000004
 40
0.7500000000000004
 40
0.7500000000000004
 40
0.8750000000000004
 40
0.8750000000000004
 40
0.9375000000000002
 40
0.9375000000000002
 40
1.0
 40
1.0
 40
1.0
 40
1.0
 10
180.3545296803856
 20
153.1899449867083
 30
0.0
 10
180.5572546363047
 20
154.2091913285729
 30
0.0
 10
180.8719983581001
 20
155.1682994785122
 30
0.0
 10
181.580053827771
 20
156.5107785560215
 30
0.0
 10
181.8585164579887
 20
156.9449871387615
 30
0.0
 10
182.4972838646259
 20
157.7566148542636
 30
0.0
 10
182.8576975444161
 20
158.1358951472005
 30
0.0
 10
183.6752297764054
 20
158.8388537262215
 30
0.0
 10
184.1363977596925
 20
159.1638825439221
 30
0.0
 10
185.1343880061763
 20
159.728897867313
 30
0.0
 10
185.6741472001686
 20
159.9726014615195
 30
0.0
 10
186.8487401641999
 20
160.3768013891644
 30
0.0
 10
187.4604763501918
 20
160.5292385822099
 30
0.0
 10
188.4123855750535
 20
160.6845661298186
 30
0.0
 10
188.7356187393141
 20
160.7240709098687
 30
0.0
 10
189.3946819105894
 20
160.7773800305374
 30
0.0
 10
189.7287459211634
 20
160.7909077475952
 30
0.0
 10
190.0624965285649
 20
160.7909077475952
 30
0.0
  0
LINE
  5
81
330
1F
100
AcDbEntity
  8
0
  6
Continuous
 62
     7
370
    15
100
AcDbLine
 10
175.4045296804
 20
72.3399452549
 30
0.0
 11
175.4045296804
 21
171.3399447185
 31
0.0
  0
LINE
  5
82
330
1F
100
AcDbEntity
  8
0
  6
Continuous
 62
     7
370
    15
100
AcDbLine
 10
204.3545298622
 20
74.0906007272
 30
0.0
 11
204.3545298622
 21
153.1899466795
 31
0.0
  0
SPLINE
  5
83
330
1F
100
AcDbEntity
  8
0
  6
Continuous
 62
     7
370
    15
100
AcDbSpline
210
0.0
220
0.0
230
1.0
 70
     8
 71
     3
 72
    14
 73
    10
 74
     0
 42
0.00000001
 43
0.00000001
 12
1.0
 22
0.0
 32
0.0
 13
1.0
 23
0.0
 33
0.0
 40
0.0
 40
0.0
 40
0.0
 40
0.0
 40
0.25
 40
0.25
 40
0.5
 40
0.5
 40
0.75
 40
0.75
 40
1.0
 40
1.0
 40
1.0
 40
1.0
 10
204.3545296803856
 20
74.09059944145501
 30
0.0
 10
204.3545296803856
 20
73.95717374540048
 30
0.0
 10
204.3292185804747
 20
73.82532593755612
 30
0.0
 10
204.23088381663
 20
73.57880338886203
 30
0.0
 10
204.1577398123739
 20
73.46499820062147
 30
0.0
 10
203.9743017512782
 20
73.2745410236742
 30
0.0
 10
203.8626154169396
 20
73.19690615982428
 30
0.0
 10
203.6201119866334
 20
73.09261474971181
 30
0.0
 10
203.4867375579391
 20
73.06495139367946
 30
0.0
 10
203.3545296803856
 20
73.06495139367946
 30
0.0
  0
SPLINE
  5
84
330
1F
100
AcDbEntity
  8
0
  6
Continuous
 62
     7
370
    15
100
AcDbSpline
210
0.0
220
0.0
230
1.0
 70
    24
 71
     3
 72
    12
 73
     8
 74
     0
 42
0.00000001
 43
0.00000001
 12
1.0
 22
0.0
 32
0.0
 13
1.0
 23
0.0
 33
0.0
 40
0.0
 40
0.0
 40
0.0
 40
0.0
 40
0.2500000000000032
 40
0.2500000000000032
 40
0.5000000000000064
 40
0.5000000000000064
 40
1.0
 40
1.0
 40
1.0
 40
1.0
 10
203.3545296803856
 20
153.1899449867083
 30
0.0
 10
203.5066199173306
 20
153.1899449867083
 30
0.0
 10
203.655079178406
 20
153.1899449867083
 30
0.0
 10
203.9124828106717
 20
153.1899449867083
 30
0.0
 10
204.0215875585137
 20
153.1899449867083
 30
0.0
 10
204.2756470349212
 20
153.1899449867083
 30
0.0
 10
204.3545296803856
 20
153.1899449867083
 30
0.0
 10
204.3545296803856
 20
153.1899449867083
 30
0.0
  0
SPLINE
  5
85
330
1F
100
AcDbEntity
  8
0
  6
Continuous
 62
     7
370
    15
100
AcDbSpline
210
0.0
220
0.0
230
1.0
 70
     8
 71
     3
 72
    12
 73
     8
 74
     0
 42
0.00000001
 43
0.00000001
 12
1.0
 22
0.0
 32
0.0
 13
1.0
 23
0.0
 33
0.0
 40
0.0
 40
0.0
 40
0.0
 40
0.0
 40
0.25
 40
0.25
 40
0.5
 40
0.5
 40
1.0
 40
1.0
 40
1.0
 40
1.0
 10
194.2945296803856
 20
77.20026952865867
 30
0.0
 10
194.1887690270367
 20
77.20026952865867
 30
0.0
 10
194.0807813988537
 20
77.17773002265827
 30
0.0
 10
193.8861867335881
 20
77.09315939066295
 30
0.0
 10
193.7973148207493
 20
77.03067773790417
 30
0.0
 10
193.5781225284234
 20
76.801288786432
 30
0.0
 10
193.4945296803856
 20
76.58870544890961
 30
0.0
 10
193.4945296803856
 20
76.37676620431341
 30
0.0
  0
SPLINE
  5
86
330
1F
100
AcDbEntity
  8
0
  6
Continuous
 62
     7
370
    15
100
AcDbSpline
210
0.0
220
0.0
230
1.0
 70
    24
 71
     3
 72
    14
 73
    10
 74
     0
 42
0.00000001
 43
0.00000001
 12
1.0
 22
0.0
 32
0.0
 13
1.0
 23
0.0
 33
0.0
 40
0.0
 40
0.0
 40
0.0
 40
0.0
 40
0.25
 40
0.25
 40
0.5
 40
0.5
 40
0.75
 40
0.75
 40
1.0
 40
1.0
 40
1.0
 40
1.0
 10
193.4945296803856
 20
153.1899449867083
 30
0.0
 10
193.4945296803856
 20
153.1899449867083
 30
0.0
 10
193.5102440008515
 20
153.1899449867083
 30
0.0
 10
193.5739279793199
 20
153.1899449867083
 30
0.0
 10
193.6225311737304
 20
153.1899449867083
 30
0.0
 10
193.755214696156
 20
153.1899449867083
 30
0.0
 10
193.8403168004666
 20
153.1899449867083
 30
0.0
 10
194.0467590353767
 20
153.1899449867083
 30
0.0
 10
194.1708399769997
 20
153.1899449867083
 30
0.0
 10
194.2945296803856
 20
153.1899449867083
 30
0.0
  0
SPLINE
  5
87
330
1F
100
AcDbEntity
  8
0
  6
Continuous
 62
     7
370
    15
100
AcDbSpline
210
0.0
220
0.0
230
1.0
 70
     8
 71
     3
 72
    14
 73
    10
 74
     0
 42
0.00000001
 43
0.00000001
 12
1.0
 22
0.0
 32
0.0
 13
1.0
 23
0.0
 33
0.0
 40
0.0
 40
0.0
 40
0.0
 40
0.0
 40
0.25
 40
0.25
 40
0.5
 40
0.5
 40
0.75
 40
0.75
 40
1.0
 40
1.0
 40
1.0
 40
1.0
 10
197.3145296803856
 20
76.37676620431341
 30
0.0
 10
197.3145296803856
 20
76.48381028530781
 30
0.0
 10
197.2944119932274
 20
76.58904542555025
 30
0.0
 10
197.2159208039618
 20
76.78689591239792
 30
0.0
 10
197.1577641791606
 20
76.87794767596286
 30
0.0
 10
197.0112489235426
 20
77.03111376988764
 30
0.0
 10
196.9226063749015
 20
77.09340821609705
 30
0.0
 10
196.7268830521012
 20
77.17820200163303
 30
0.0
 10
196.6216518610302
 20
77.20026952865867
 30
0.0
 10
196.5145296803856
 20
77.20026952865867
 30
0.0
  0
SPLINE
  5
88
330
1F
100
AcDbEntity
  8
0
  6
Continuous
 62
     7
370
    15
100
AcDbSpline
210
0.0
220
0.0
230
1.0
 70
    24
 71
     3
 72
    14
 73
    10
 74
     0
 42
0.00000001
 43
0.00000001
 12
1.0
 22
0.0
 32
0.0
 13
1.0
 23
0.0
 33
0.0
 40
0.0
 40
0.0
 40
0.0
 40
0.0
 40
0.25
 40
0.25
 40
0.5
 40
0.5
 40
0.75
 40
0.75
 40
1.0
 40
1.0
 40
1.0
 40
1.0
 10
196.5145296803856
 20
153.1899449867083
 30
0.0
 10
196.6382994451507
 20
153.1899449867083
 30
0.0
 10
196.7626665491576
 20
153.1899449867083
 30
0.0
 10
196.9690230178837
 20
153.1899449867083
 30
0.0
 10
197.054351161302
 20
153.1899449867083
 30
0.0
 10
197.1865432200173
 20
153.1899449867083
 30
0.0
 10
197.2351884637679
 20
153.1899449867083
 30
0.0
 10
197.2987242554966
 20
153.1899449867083
 30
0.0
 10
197.3145296803856
 20
153.1899449867083
 30
0.0
 10
197.3145296803856
 20
153.1899449867083
 30
0.0
  0
LINE
  5
89
330
1F
100
AcDbEntity
  8
0
  6
Continuous
 62
     7
370
    15
100
AcDbLine
 10
196.5145297692
 20
77.2002681774
 30
0.0
 11
194.2945305602
 21
77.2002681774
 31
0.0
  0
LINE
  5
8A
330
1F
100
AcDbEntity
  8
0
  6
Continuous
 62
     7
370
    15
100
AcDbLine
 10
194.2945305602
 20
153.1899466795
 30
0.0
 11
196.5145297692
 21
153.1899466795
 31
0.0
  0
LINE
  5
8B
330
1F
100
AcDbEntity
  8
0
  6
Continuous
 62
     7
370
    15
100
AcDbLine
 10
172.9045297363
 20
83.9576951844
 30
0.0
 11
172.9045297363
 21
159.7221947891
 31
0.0
  0
LINE
  5
8C
330
1F
100
AcDbEntity
  8
0
  6
Continuous
 62
     7
370
    15
100
AcDbLine
 10
140.6045291916
 20
85.5759314877
 30
0.0
 11
140.6045291916
 21
87.9614658338
 31
0.0
  0
SPLINE
  5
8D
330
1F
100
AcDbEntity
  8
0
  6
Continuous
 62
     7
370
    15
100
AcDbSpline
210
0.0
220
0.0
230
1.0
 70
     8
 71
     3
 72
    14
 73
    10
 74
     0
 42
0.00000001
 43
0.00000001
 12
1.0
 22
0.0
 32
0.0
 13
1.0
 23
0.0
 33
0.0
 40
0.0
 40
0.0
 40
0.0
 40
0.0
 40
0.25
 40
0.25
 40
0.5
 40
0.5
 40
0.75
 40
0.75
 40
1.0
 40
1.0
 40
1.0
 40
1.0
 10
139.6506133092944
 20
89.64716353662445
 30
0.0
 10
139.7315348920767
 20
89.48979425548116
 30
0.0
 10
139.845015781547
 20
89.33864809169049
 30
0.0
 10
140.0675327938577
 20
89.04390701994794
 30
0.0
 10
140.1781917523094
 20
88.9005276926573
 30
0.0
 10
140.3703790162698
 20
88.62030678441684
 30
0.0
 10
140.4525142965448
 20
88.48350839893348
 30
0.0
 10
140.5696078520129
 20
88.21620980067709
 30
0.0
 10
140.6045296803858
 20
88.08509608384006
 30
0.0
 10
140.6045296803858
 20
87.96146411761342
 30
0.0
  0
SPLINE
  5
8E
330
1F
100
AcDbEntity
  8
0
  6
Continuous
 62
     7
370
    15
100
AcDbSpline
210
0.0
220
0.0
230
1.0
 70
     8
 71
     3
 72
    16
 73
    12
 74
     0
 42
0.00000001
 43
0.00000001
 12
1.0
 22
0.0
 32
0.0
 13
1.0
 23
0.0
 33
0.0
 40
0.0
 40
0.0
 40
0.0
 40
0.0
 40
0.1250000000000024
 40
0.1250000000000024
 40
0.2500000000000047
 40
0.2500000000000047
 40
0.3750000000000071
 40
0.3750000000000071
 40
0.5000000000000094
 40
0.5000000000000094
 40
1.0
 40
1.0
 40
1.0
 40
1.0
 10
138.7045296803856
 20
90.35881522649922
 30
0.0
 10
138.7794529400096
 20
90.36659739772884
 30
0.0
 10
138.8604623508828
 20
90.3599734372775
 30
0.0
 10
139.0032062640397
 20
90.3234131648116
 30
0.0
 10
139.0639340819636
 20
90.29590264192305
 30
0.0
 10
139.1687660521831
 20
90.23634394407121
 30
0.0
 10
139.2139788484179
 20
90.20354403066962
 30
0.0
 10
139.2947259347001
 20
90.13654238415896
 30
0.0
 10
139.330146358224
 20
90.10236383490461
 30
0.0
 10
139.4923159288562
 20
89.92985331798293
 30
0.0
 10
139.5787086762997
 20
89.78699743528264
 30
0.0
 10
139.650613309299
 20
89.64716353662479
 30
0.0
  0
SPLINE
  5
8F
330
1F
100
AcDbEntity
  8
0
  6
Continuous
 62
     7
370
    15
100
AcDbSpline
210
0.0
220
0.0
230
1.0
 70
     8
 71
     3
 72
    10
 73
     6
 74
     0
 42
0.00000001
 43
0.00000001
 12
1.0
 22
0.0
 32
0.0
 13
1.0
 23
0.0
 33
0.0
 40
0.0
 40
0.0
 40
0.0
 40
0.0
 40
0.5
 40
0.5
 40
1.0
 40
1.0
 40
1.0
 40
1.0
 10
134.655468779606
 20
89.8842449972734
 30
0.0
 10
135.3197276473207
 20
89.97364262721005
 30
0.0
 10
135.9924739498465
 20
90.05677482399595
 30
0.0
 10
137.3433334299904
 20
90.21389688650824
 30
0.0
 10
138.0225563529821
 20
90.28797963773094
 30
0.0
 10
138.7045296803856
 20
90.3588152264992
 30
0.0
  0
SPLINE
  5
90
330
1F
100
AcDbEntity
  8
0
  6
Continuous
 62
     7
370
    15
100
AcDbSpline
210
0.0
220
0.0
230
1.0
 70
     8
 71
     3
 72
    14
 73
    10
 74
     0
 42
0.00000001
 43
0.00000001
 12
1.0
 22
0.0
 32
0.0
 13
1.0
 23
0.0
 33
0.0
 40
0.0
 40
0.0
 40
0.0
 40
0.0
 40
0.5000000000000016
 40
0.5000000000000016
 40
0.7500000000000021
 40
0.7500000000000021
 40
0.875000000000001
 40
0.875000000000001
 40
1.0
 40
1.0
 40
1.0
 40
1.0
 10
128.2497924748019
 20
89.60465723146618
 30
0.0
 10
129.3316157325352
 20
89.61649179986054
 30
0.0
 10
130.4103885128918
 20
89.6357045871621
 30
0.0
 10
132.0177741554609
 20
89.6908821897573
 30
0.0
 10
132.551785400152
 20
89.71363914720573
 30
0.0
 10
133.347279591646
 20
89.76134395523604
 30
0.0
 10
133.611513663442
 20
89.77953231512693
 30
0.0
 10
134.1367576567852
 20
89.8238444548439
 30
0.0
 10
134.3979233901261
 20
89.84958389067788
 30
0.0
 10
134.6554687796065
 20
89.88424499727307
 30
0.0
  0
SPLINE
  5
91
330
1F
100
AcDbEntity
  8
0
  6
Continuous
 62
     7
370
    15
100
AcDbSpline
210
0.0
220
0.0
230
1.0
 70
     8
 71
     3
 72
     8
 73
     4
 74
     0
 42
0.00000001
 43
0.00000001
 12
1.0
 22
0.0
 32
0.0
 13
1.0
 23
0.0
 33
0.0
 40
0.0
 40
0.0
 40
0.0
 40
0.0
 40
1.0
 40
1.0
 40
1.0
 40
1.0
 10
127.6355861880146
 20
90.21747143197823
 30
0.0
 10
127.7522808325909
 20
89.99198603461073
 30
0.0
 10
127.9757403142693
 20
89.7916999161551
 30
0.0
 10
128.2497924748019
 20
89.60465723146618
 30
0.0
  0
ELLIPSE
  5
92
330
1F
100
AcDbEntity
  8
0
  6
Continuous
 62
     7
370
    15
100
AcDbEllipse
 10
71.3912216646
 20
119.1656317584
 30
0.0
 11
56.60384371232787
 21
-31.64910923508762
 31
0.0
210
0.0
220
0.0
230
1.0
 40
0.1509348161
 41
0.2248113747306835
 42
0.2513566709929201
  0
ELLIPSE
  5
93
330
1F
100
AcDbEntity
  8
0
  6
Continuous
 62
     7
370
    15
100
AcDbEllipse
 10
71.2624070903
 20
124.5137319671
 30
0.0
 11
56.59270528120992
 21
31.64288136432769
 31
0.0
210
0.0
220
0.0
230
1.0
 40
0.1509348161
 41
6.047340212371936
 42
6.056747957719532
  0
SPLINE
  5
94
330
1F
100
AcDbEntity
  8
0
  6
Continuous
 62
     7
370
    15
100
AcDbSpline
210
0.0
220
0.0
230
1.0
 70
     8
 71
     3
 72
    10
 73
     6
 74
     0
 42
0.00000001
 43
0.00000001
 12
1.0
 22
0.0
 32
0.0
 13
1.0
 23
0.0
 33
0.0
 40
0.0
 40
0.0
 40
0.0
 40
0.0
 40
0.5
 40
0.5
 40
1.0
 40
1.0
 40
1.0
 40
1.0
 10
128.1545296803856
 20
154.0806557806309
 30
0.0
 10
128.0056021506277
 20
153.982750862901
 30
0.0
 10
127.8703591755112
 20
153.8807901161516
 30
0.0
 10
127.6405480659546
 20
153.6655302390751
 30
0.0
 10
127.5453417519782
 20
153.5512062619468
 30
0.0
 10
127.482686902691
 20
153.4311489129975
 30
0.0
  0
SPLINE
  5
95
330
1F
100
AcDbEntity
  8
0
  6
Continuous
 62
     7
370
    15
100
AcDbSpline
210
0.0
220
0.0
230
1.0
 70
     8
 71
     3
 72
    12
 73
     8
 74
     0
 42
0.00000001
 43
0.00000001
 12
1.0
 22
0.0
 32
0.0
 13
1.0
 23
0.0
 33
0.0
 40
0.0
 40
0.0
 40
0.0
 40
0.0
 40
0.2500000000000001
 40
0.2500000000000001
 40
0.5000000000000001
 40
0.5000000000000001
 40
1.0
 40
1.0
 40
1.0
 40
1.0
 10
133.7045296803856
 20
153.9264678782047
 30
0.0
 10
133.2473793900052
 20
153.9551315175657
 30
0.0
 10
132.7877883233367
 20
153.9765569237858
 30
0.0
 10
131.8660964870253
 20
154.0119919647961
 30
0.0
 10
131.4039358625469
 20
154.0258234280766
 30
0.0
 10
130.0149346895771
 20
154.0599013459503
 30
0.0
 10
129.0856223169632
 20
154.0728726681879
 30
0.0
 10
128.1545296803856
 20
154.0806557806309
 30
0.0
  0
SPLINE
  5
96
330
1F
100
AcDbEntity
  8
0
  6
Continuous
 62
     7
370
    15
100
AcDbSpline
210
0.0
220
0.0
230
1.0
 70
     8
 71
     3
 72
    20
 73
    16
 74
     0
 42
0.00000001
 43
0.00000001
 12
1.0
 22
0.0
 32
0.0
 13
1.0
 23
0.0
 33
0.0
 40
0.0
 40
0.0
 40
0.0
 40
0.0
 40
0.2500000000000003
 40
0.2500000000000003
 40
0.5000000000000007
 40
0.5000000000000007
 40
0.750000000000001
 40
0.750000000000001
 40
0.8750000000000007
 40
0.8750000000000007
 40
0.9375000000000012
 40
0.9375000000000012
 40
0.9687500000000007
 40
0.9687500000000007
 40
1.0
 40
1.0
 40
1.0
 40
1.0
 10
135.6045296803856
 20
155.5845537236929
 30
0.0
 10
135.6045296803856
 20
155.4488714039461
 30
0.0
 10
135.555817891169
 20
155.307784417806
 30
0.0
 10
135.3866564679438
 20
155.0157126990755
 30
0.0
 10
135.2648760540255
 20
154.8640639569851
 30
0.0
 10
134.967328959276
 20
154.561655516832
 30
0.0
 10
134.7934163535732
 20
154.4090668807087
 30
0.0
 10
134.4740015196914
 20
154.1837961168664
 30
0.0
 10
134.3589607442441
 20
154.1090730223557
 30
0.0
 10
134.1518764202277
 20
154.0096626130986
 30
0.0
 10
134.0757685854213
 20
153.978097520754
 30
0.0
 10
133.944374045868
 20
153.9436541365611
 30
0.0
 10
133.8978208268665
 20
153.9346025647935
 30
0.0
 10
133.8014874757858
 20
153.924426915955
 30
0.0
 10
133.7522280524303
 20
153.92347715728
 30
0.0
 10
133.7045296803836
 20
153.9264678781946
 30
0.0
  0
LINE
  5
97
330
1F
100
AcDbEntity
  8
0
  6
Continuous
 62
     7
370
    15
100
AcDbLine
 10
135.6045302347
 20
155.5845521075
 30
0.0
 11
135.6045302347
 21
157.8534587902
 31
0.0
  0
SPLINE
  5
98
330
1F
100
AcDbEntity
  8
0
  6
Continuous
 62
     7
370
    15
100
AcDbSpline
210
0.0
220
0.0
230
1.0
 70
     8
 71
     3
 72
    24
 73
    20
 74
     0
 42
0.00000001
 43
0.00000001
 12
1.0
 22
0.0
 32
0.0
 13
1.0
 23
0.0
 33
0.0
 40
0.0
 40
0.0
 40
0.0
 40
0.0
 40
0.0002934239329635
 40
0.0628079954843725
 40
0.1260453886222317
 40
0.1890746649056576
 40
0.2513200327496127
 40
0.3133304381321615
 40
0.3759158074016681
 40
0.4383740215105411
 40
0.5000631209931454
 40
0.5616593985498132
 40
0.6245050468179062
 40
0.6872231543007362
 40
0.7494953203649202
 40
0.811758388799549
 40
0.8747365576758938
 40
0.937898032705022
 40
1.0
 40
1.0
 40
1.0
 40
1.0
 10
153.9244853303576
 20
84.90869846761956
 30
0.0
 10
153.9242907865748
 20
84.90867477035894
 30
0.0
 10
153.8826482903191
 20
84.90360232305653
 30
0.0
 10
154.027671502492
 20
84.92204361320265
 30
0.0
 10
154.3827887295104
 20
84.96464594196944
 30
0.0
 10
154.9873542831464
 20
85.0327562752958
 30
0.0
 10
155.7937914415522
 20
85.10602158862373
 30
0.0
 10
156.7792685515734
 20
85.17053719193245
 30
0.0
 10
157.9109376929557
 20
85.20910410721173
 30
0.0
 10
159.133230606618
 20
85.21279340905856
 30
0.0
 10
160.4005597525783
 20
85.17037498266441
 30
0.0
 10
161.6670449956753
 20
85.0821201164129
 30
0.0
 10
162.883183126536
 20
84.95373450918188
 30
0.0
 10
164.0085925521517
 20
84.80108678251194
 30
0.0
 10
164.9860107453697
 20
84.63931640114694
 30
0.0
 10
165.7892754258873
 20
84.48678396467051
 30
0.0
 10
166.3777688349188
 20
84.36277032590962
 30
0.0
 10
166.7666755714042
 20
84.27784873475899
 30
0.0
 10
166.8134363877745
 20
84.2671230264509
 30
0.0
 10
166.8366190389538
 20
84.26180553258195
 30
0.0
  0
SPLINE
  5
99
330
1F
100
AcDbEntity
  8
0
  6
Continuous
 62
     7
370
    15
100
AcDbSpline
210
0.0
220
0.0
230
1.0
 70
     8
 71
     3
 72
    41
 73
    37
 74
     0
 42
0.00000001
 43
0.00000001
 12
1.0
 22
0.0
 32
0.0
 13
1.0
 23
0.0
 33
0.0
 40
0.0
 40
0.0
 40
0.0
 40
0.0
 40
0.0619930057521234
 40
0.1254347800038064
 40
0.1886508796717357
 40
0.2510246486109871
 40
0.3131658162995096
 40
0.3756581562437836
 40
0.4382226967008007
 40
0.4998044866844488
 40
0.5615163978929836
 40
0.624068334530221
 40
0.6867257381925814
 40
0.7488365438331015
 40
0.8110686224406509
 40
0.874174288746562
 40
0.9373212795039373
 40
0.9685511676011631
 40
0.9842086839263173
 40
0.9920641174372686
 40
0.9960004855111776
 40
0.9979710789827829
 40
0.9989570084930213
 40
0.9994501352406154
 40
0.9996967397140323
 40
0.9998200522691628
 40
0.9998817111565016
 40
0.9999125412175226
 40
0.9999279564094052
 40
0.9999356640470808
 40
0.9999395178742654
 40
0.99994144479064
 40
0.9999424082488272
 40
0.9999433717070145
 40
0.9999501690725197
 40
1.0
 40
1.0
 40
1.0
 40
1.0
 10
166.8364979670191
 20
159.4180397373511
 30
0.0
 10
166.8129263760601
 20
159.4127301523076
 30
0.0
 10
166.7652323291203
 20
159.4019868979073
 30
0.0
 10
166.3731892357411
 20
159.3167600127318
 30
0.0
 10
165.7826765905551
 20
159.1921913317722
 30
0.0
 10
164.978638142485
 20
159.0392424216154
 30
0.0
 10
164.0025633760971
 20
158.8774852189596
 30
0.0
 10
162.8807550631547
 20
158.7252518012091
 30
0.0
 10
161.667223427549
 20
158.5974764467173
 30
0.0
 10
160.4023929960923
 20
158.5096279312418
 30
0.0
 10
159.1343496267473
 20
158.4672398920725
 30
0.0
 10
157.9108423169422
 20
158.4709789635217
 30
0.0
 10
156.7773430044242
 20
158.5095674430094
 30
0.0
 10
155.7912382589832
 20
158.5740138729167
 30
0.0
 10
154.9826088770346
 20
158.647520745061
 30
0.0
 10
154.3859923596387
 20
158.7148342750913
 30
0.0
 10
154.0706001291553
 20
158.7527973688832
 30
0.0
 10
153.960533814591
 20
158.766596697233
 30
0.0
 10
153.9331154581371
 20
158.7700813117534
 30
0.0
 10
153.9261916442408
 20
158.7709625936822
 30
0.0
 10
153.9244231888763
 20
158.7711857015028
 30
0.0
 10
153.9239631571229
 20
158.7712387466077
 30
0.0
 10
153.9238386982624
 20
158.7712582961457
 30
0.0
 10
153.9238043325587
 20
158.7712516565529
 30
0.0
 10
153.9237932268562
 20
158.7712591726269
 30
0.0
 10
153.9237897367935
 20
158.7712585068372
 30
0.0
 10
153.9237865816064
 20
158.7712585658424
 30
0.0
 10
153.9237868613442
 20
158.7712585605659
 30
0.0
 10
153.9237868361534
 20
158.7712585611046
 30
0.0
 10
153.9237868389716
 20
158.7712585609562
 30
0.0
 10
153.9237868378932
 20
158.7712585611115
 30
0.0
 10
153.9237868391586
 20
158.7712585608972
 30
0.0
 10
153.9237868371435
 20
158.7712585612423
 30
0.0
 10
153.9237868558195
 20
158.7712585580409
 30
0.0
 10
153.9237846176576
 20
158.7712589417253
 30
0.0
 10
153.9238204764858
 20
158.7712527944978
 30
0.0
 10
153.9238520310068
 20
158.7712473851515
 30
0.0
  0
LINE
  5
9A
330
1F
100
AcDbEntity
  8
0
  6
Continuous
 62
     7
370
    15
100
AcDbLine
 10
125.5045306281
 20
91.2851661128
 30
0.0
 11
125.5045306281
 21
152.420484243
 31
0.0
  0
SPLINE
  5
9B
330
1F
100
AcDbEntity
  8
0
  6
Continuous
 62
     7
370
    15
100
AcDbSpline
210
0.0
220
0.0
230
1.0
 70
     8
 71
     3
 72
    14
 73
    10
 74
     0
 42
0.00000001
 43
0.00000001
 12
1.0
 22
0.0
 32
0.0
 13
1.0
 23
0.0
 33
0.0
 40
0.0
 40
0.0
 40
0.0
 40
0.0
 40
0.2500000000000018
 40
0.2500000000000018
 40
0.5000000000000012
 40
0.5000000000000012
 40
0.7500000000000007
 40
0.7500000000000007
 40
1.0
 40
1.0
 40
1.0
 40
1.0
 10
125.7926870236904
 20
152.5142702576564
 30
0.0
 10
125.7702207584757
 20
152.5643305132553
 30
0.0
 10
125.7385350911587
 20
152.5959015779871
 30
0.0
 10
125.6731911842459
 20
152.6280438120361
 30
0.0
 10
125.6394246519292
 20
152.6292011744056
 30
0.0
 10
125.5793085334355
 20
152.6074253407458
 30
0.0
 10
125.5527360654518
 20
152.5841172973603
 30
0.0
 10
125.5153793677675
 20
152.5166773756335
 30
0.0
 10
125.5045296803856
 20
152.4727950896972
 30
0.0
 10
125.5045296803856
 20
152.4204845331722
 30
0.0
  0
SPLINE
  5
9C
330
1F
100
AcDbEntity
  8
0
  6
Continuous
 62
     7
370
    15
100
AcDbSpline
210
0.0
220
0.0
230
1.0
 70
     8
 71
     3
 72
    26
 73
    22
 74
     0
 42
0.00000001
 43
0.00000001
 12
1.0
 22
0.0
 32
0.0
 13
1.0
 23
0.0
 33
0.0
 40
0.0
 40
0.0
 40
0.0
 40
0.0
 40
0.1250000000000012
 40
0.1250000000000012
 40
0.2500000000000012
 40
0.2500000000000012
 40
0.3750000000000012
 40
0.3750000000000012
 40
0.4375000000000027
 40
0.4375000000000027
 40
0.4687500000000033
 40
0.4687500000000033
 40
0.500000000000004
 40
0.500000000000004
 40
0.5625000000000022
 40
0.5625000000000022
 40
0.6250000000000002
 40
0.6250000000000002
 40
0.7500000000000006
 40
0.7500000000000006
 40
1.0
 40
1.0
 40
1.0
 40
1.0
 10
127.4044547963556
 20
153.2847304390786
 30
0.0
 10
127.361406773945
 20
153.2059630071086
 30
0.0
 10
127.3141281132791
 20
153.1255176638338
 30
0.0
 10
127.2070649054104
 20
152.9596670239325
 30
0.0
 10
127.1472334319412
 20
152.8740111130304
 30
0.0
 10
127.0078832057676
 20
152.6972002046144
 30
0.0
 10
126.9298134752729
 20
152.6059709496923
 30
0.0
 10
126.7732219474699
 20
152.4583925056563
 30
0.0
 10
126.7143343273065
 20
152.4076628248519
 30
0.0
 10
126.6130588442681
 20
152.3350023076732
 30
0.0
 10
126.5765396695788
 20
152.3111061570311
 30
0.0
 10
126.502828027613
 20
152.2687948985488
 30
0.0
 10
126.4650614780552
 20
152.2501291607767
 30
0.0
 10
126.3594897715898
 20
152.2065730562268
 30
0.0
 10
126.2996537888226
 20
152.193574894176
 30
0.0
 10
126.2025101157091
 20
152.1846299827438
 30
0.0
 10
126.1627685818992
 20
152.188065781137
 30
0.0
 10
126.0596456417132
 20
152.2091159034682
 30
0.0
 10
126.0108618682267
 20
152.2370040006383
 30
0.0
 10
125.8860004528727
 20
152.3355812896538
 30
0.0
 10
125.8341024537278
 20
152.4219866941181
 30
0.0
 10
125.7926870236904
 20
152.5142702576563
 30
0.0
  0
SPLINE
  5
9D
330
1F
100
AcDbEntity
  8
0
  6
Continuous
 62
     7
370
    15
100
AcDbSpline
210
0.0
220
0.0
230
1.0
 70
     8
 71
     3
 72
    28
 73
    24
 74
     0
 42
0.00000001
 43
0.00000001
 12
1.0
 22
0.0
 32
0.0
 13
1.0
 23
0.0
 33
0.0
 40
0.0
 40
0.0
 40
0.0
 40
0.0
 40
0.2499999999999961
 40
0.2499999999999961
 40
0.374999999999993
 40
0.374999999999993
 40
0.4374999999999914
 40
0.4374999999999914
 40
0.4999999999999898
 40
0.4999999999999898
 40
0.5624999999999882
 40
0.5624999999999882
 40
0.5937499999999893
 40
0.5937499999999893
 40
0.6249999999999903
 40
0.6249999999999903
 40
0.687499999999992
 40
0.687499999999992
 40
0.7499999999999937
 40
0.7499999999999937
 40
0.8749999999999969
 40
0.8749999999999969
 40
1.0
 40
1.0
 40
1.0
 40
1.0
 10
125.7268992489843
 20
91.25299476891469
 30
0.0
 10
125.7620291935537
 20
91.35778164785583
 30
0.0
 10
125.806513354168
 20
91.45661745102178
 30
0.0
 10
125.9096149700125
 20
91.58172943962047
 30
0.0
 10
125.9499666981767
 20
91.61962613128672
 30
0.0
 10
126.0299757613116
 20
91.66407721627155
 30
0.0
 10
126.05991299413
 20
91.67681545911579
 30
0.0
 10
126.1317469486806
 20
91.69468341572836
 30
0.0
 10
126.1734730942924
 20
91.69990990475488
 30
0.0
 10
126.2767644453875
 20
91.69329798896462
 30
0.0
 10
126.3402830279358
 20
91.68099144170169
 30
0.0
 10
126.4542780232013
 20
91.6356725208493
 30
0.0
 10
126.4954265783859
 20
91.6158563757554
 30
0.0
 10
126.5762989256966
 20
91.57015623301402
 30
0.0
 10
126.6162734934314
 20
91.54424292930936
 30
0.0
 10
126.7278883869274
 20
91.46460427201059
 30
0.0
 10
126.7919423349664
 20
91.40934533425649
 30
0.0
 10
126.905789730969
 20
91.30189943248777
 30
0.0
 10
126.9548111537645
 20
91.25029980135277
 30
0.0
 10
127.0899517959538
 20
91.09870475371729
 30
0.0
 10
127.1642585936049
 20
91.00156485324389
 30
0.0
 10
127.295770886136
 20
90.8144602737377
 30
0.0
 10
127.3528197519833
 20
90.72420117973905
 30
0.0
 10
127.4044547963559
 20
90.63598965662818
 30
0.0
  0
SPLINE
  5
9E
330
1F
100
AcDbEntity
  8
0
  6
Continuous
 62
     7
370
    15
100
AcDbSpline
210
0.0
220
0.0
230
1.0
 70
     8
 71
     3
 72
     8
 73
     4
 74
     0
 42
0.00000001
 43
0.00000001
 12
1.0
 22
0.0
 32
0.0
 13
1.0
 23
0.0
 33
0.0
 40
0.0
 40
0.0
 40
0.0
 40
0.0
 40
1.0
 40
1.0
 40
1.0
 40
1.0
 10
125.5045296803856
 20
91.2851669348467
 30
0.0
 10
125.5045296803856
 20
91.27375520109018
 30
0.0
 10
125.5051293797634
 20
91.26285677599772
 30
0.0
 10
125.5062881359928
 20
91.25250565998604
 30
0.0
  0
SPLINE
  5
9F
330
1F
100
AcDbEntity
  8
0
  6
Continuous
 62
     7
370
    15
100
AcDbSpline
210
0.0
220
0.0
230
1.0
 70
     8
 71
     3
 72
     9
 73
     5
 74
     0
 42
0.00000001
 43
0.00000001
 12
1.0
 22
0.0
 32
0.0
 13
1.0
 23
0.0
 33
0.0
 40
0.0
 40
0.0
 40
0.0
 40
0.0
 40
0.3600534851812829
 40
1.0
 40
1.0
 40
1.0
 40
1.0
 10
125.5813610152149
 20
91.17674712658658
 30
0.0
 10
125.5954034339873
 20
91.15504152577724
 30
0.0
 10
125.6344043584342
 20
91.09475714664285
 30
0.0
 10
125.6908063796741
 20
91.19124648803151
 30
0.0
 10
125.7269006565952
 20
91.25299450577035
 30
0.0
  0
LINE
  5
A0
330
1F
100
AcDbEntity
  8
0
  6
Continuous
 62
     7
370
    15
100
AcDbLine
 10
203.3545296983
 20
170.8297401351
 30
0.0
 11
198.6665591941
 21
170.8297401351
 31
0.0
  0
LINE
  5
A1
330
1F
100
AcDbEntity
  8
0
  6
Continuous
 62
     7
370
    15
100
AcDbLine
 10
198.6665591941
 20
160.7909060699
 30
0.0
 11
203.3545296983
 21
160.7909060699
 31
0.0
  0
LINE
  5
A2
330
1F
100
AcDbEntity
  8
0
  6
Continuous
 62
     7
370
    15
100
AcDbLine
 10
198.6665591941
 20
160.7909060699
 30
0.0
 11
198.6665591941
 21
170.8297401351
 31
0.0
  0
SPLINE
  5
A3
330
1F
100
AcDbEntity
  8
0
  6
Continuous
 62
     7
370
    15
100
AcDbSpline
210
0.0
220
0.0
230
1.0
 70
     8
 71
     3
 72
    10
 73
     6
 74
     0
 42
0.00000001
 43
0.00000001
 12
1.0
 22
0.0
 32
0.0
 13
1.0
 23
0.0
 33
0.0
 40
0.0
 40
0.0
 40
0.0
 40
0.0
 40
0.5
 40
0.5
 40
1.0
 40
1.0
 40
1.0
 40
1.0
 10
194.2945296803856
 20
166.7142207468808
 30
0.0
 10
194.0819933665292
 20
166.7142207468808
 30
0.0
 10
193.8720571948753
 20
166.8056333335109
 30
0.0
 10
193.578350053864
 20
167.1103781994151
 30
0.0
 10
193.4945296803856
 20
167.3225331693238
 30
0.0
 10
193.4945296803856
 20
167.5334962275563
 30
0.0
  0
SPLINE
  5
A4
330
1F
100
AcDbEntity
  8
0
  6
Continuous
 62
     7
370
    15
100
AcDbSpline
210
0.0
220
0.0
230
1.0
 70
     8
 71
     3
 72
    14
 73
    10
 74
     0
 42
0.00000001
 43
0.00000001
 12
1.0
 22
0.0
 32
0.0
 13
1.0
 23
0.0
 33
0.0
 40
0.0
 40
0.0
 40
0.0
 40
0.0
 40
0.25
 40
0.25
 40
0.5
 40
0.5
 40
0.75
 40
0.75
 40
1.0
 40
1.0
 40
1.0
 40
1.0
 10
193.4945296803856
 20
156.5541801792054
 30
0.0
 10
193.4945296803856
 20
156.4303133024161
 30
0.0
 10
193.5103888080132
 20
156.3060536255786
 30
0.0
 10
193.5737504535331
 20
156.0684452631728
 30
0.0
 10
193.6223401615825
 20
155.9516648784203
 30
0.0
 10
193.7546257663573
 20
155.7428623498113
 30
0.0
 10
193.8399505576179
 20
155.6483516462187
 30
0.0
 10
194.0468418059241
 20
155.5103948454164
 30
0.0
 10
194.1708097518141
 20
155.4684763997807
 30
0.0
 10
194.2945296803856
 20
155.4684763997807
 30
0.0
  0
SPLINE
  5
A5
330
1F
100
AcDbEntity
  8
0
  6
Continuous
 62
     7
370
    15
100
AcDbSpline
210
0.0
220
0.0
230
1.0
 70
     8
 71
     3
 72
    14
 73
    10
 74
     0
 42
0.00000001
 43
0.00000001
 12
1.0
 22
0.0
 32
0.0
 13
1.0
 23
0.0
 33
0.0
 40
0.0
 40
0.0
 40
0.0
 40
0.0
 40
0.25
 40
0.25
 40
0.5
 40
0.5
 40
0.75
 40
0.75
 40
1.0
 40
1.0
 40
1.0
 40
1.0
 10
197.3145296803856
 20
167.5334962275563
 30
0.0
 10
197.3145296803856
 20
167.4271395338039
 30
0.0
 10
197.2941421242444
 20
167.3212990460438
 30
0.0
 10
197.2155077787828
 20
167.1247341325074
 30
0.0
 10
197.1567764191442
 20
167.0335633902203
 30
0.0
 10
197.0101675135416
 20
166.8816523011886
 30
0.0
 10
196.9207621935151
 20
166.8195834643691
 30
0.0
 10
196.7268714609148
 20
166.7363154166104
 30
0.0
 10
196.620366471025
 20
166.7142207468807
 30
0.0
 10
196.5145296803856
 20
166.7142207468807
 30
0.0
  0
SPLINE
  5
A6
330
1F
100
AcDbEntity
  8
0
  6
Continuous
 62
     7
370
    15
100
AcDbSpline
210
0.0
220
0.0
230
1.0
 70
     8
 71
     3
 72
    12
 73
     8
 74
     0
 42
0.00000001
 43
0.00000001
 12
1.0
 22
0.0
 32
0.0
 13
1.0
 23
0.0
 33
0.0
 40
0.0
 40
0.0
 40
0.0
 40
0.0
 40
0.250000000000002
 40
0.250000000000002
 40
0.500000000000004
 40
0.500000000000004
 40
1.0
 40
1.0
 40
1.0
 40
1.0
 10
196.5145296803856
 20
155.4684763997808
 30
0.0
 10
196.6382306303656
 20
155.4684763997808
 30
0.0
 10
196.7623272426358
 20
155.5104700115133
 30
0.0
 10
196.9689824057228
 20
155.6482653381577
 30
0.0
 10
197.0540231724497
 20
155.7422389366226
 30
0.0
 10
197.2535017409233
 20
156.0570271428435
 30
0.0
 10
197.3145296803856
 20
156.3072661350711
 30
0.0
 10
197.3145296803856
 20
156.5541801792054
 30
0.0
  0
SPLINE
  5
A7
330
1F
100
AcDbEntity
  8
0
  6
Continuous
 62
     7
370
    15
100
AcDbSpline
210
0.0
220
0.0
230
1.0
 70
     8
 71
     3
 72
     8
 73
     4
 74
     0
 42
0.00000001
 43
0.00000001
 12
1.0
 22
0.0
 32
0.0
 13
1.0
 23
0.0
 33
0.0
 40
0.0
 40
0.0
 40
0.0
 40
0.0
 40
1.0
 40
1.0
 40
1.0
 40
1.0
 10
198.666558701307
 20
170.8297398423719
 30
0.0
 10
198.2155317325938
 20
170.032429272184
 30
0.0
 10
197.7648379160701
 20
169.2349309725268
 30
0.0
 10
197.3145296803856
 20
168.4372158474132
 30
0.0
  0
SPLINE
  5
A8
330
1F
100
AcDbEntity
  8
0
  6
Continuous
 62
     7
370
    15
100
AcDbSpline
210
0.0
220
0.0
230
1.0
 70
     8
 71
     3
 72
     8
 73
     4
 74
     0
 42
0.00000001
 43
0.00000001
 12
1.0
 22
0.0
 32
0.0
 13
1.0
 23
0.0
 33
0.0
 40
0.0
 40
0.0
 40
0.0
 40
0.0
 40
1.0
 40
1.0
 40
1.0
 40
1.0
 10
197.3145296803856
 20
157.7353924928461
 30
0.0
 10
197.7586796914111
 20
158.7567757237978
 30
0.0
 10
198.209754001669
 20
159.7752602605661
 30
0.0
 10
198.666558701307
 20
160.7909077475952
 30
0.0
  0
LINE
  5
A9
330
1F
100
AcDbEntity
  8
0
  6
Continuous
 62
     7
370
    15
100
AcDbLine
 10
197.3145302729
 20
157.7353931648
 30
0.0
 11
197.3145302729
 21
168.4372171444
 31
0.0
  0
SPLINE
  5
AA
330
1F
100
AcDbEntity
  8
0
  6
Continuous
 62
     7
370
    15
100
AcDbSpline
210
0.0
220
0.0
230
1.0
 70
     8
 71
     3
 72
     8
 73
     4
 74
     0
 42
0.00000001
 43
0.00000001
 12
1.0
 22
0.0
 32
0.0
 13
1.0
 23
0.0
 33
0.0
 40
0.0
 40
0.0
 40
0.0
 40
0.0
 40
1.0
 40
1.0
 40
1.0
 40
1.0
 10
193.4945296803856
 20
168.4372158474132
 30
0.0
 10
193.0442214447011
 20
169.2349309725269
 30
0.0
 10
192.5935276281775
 20
170.032429272184
 30
0.0
 10
192.1425006594642
 20
170.8297398423719
 30
0.0
  0
LINE
  5
AB
330
1F
100
AcDbEntity
  8
0
  6
Continuous
 62
     7
370
    15
100
AcDbLine
 10
193.4945300565
 20
157.7353931648
 30
0.0
 11
193.4945300565
 21
168.4372171444
 31
0.0
  0
SPLINE
  5
AC
330
1F
100
AcDbEntity
  8
0
  6
Continuous
 62
     7
370
    15
100
AcDbSpline
210
0.0
220
0.0
230
1.0
 70
     8
 71
     3
 72
     8
 73
     4
 74
     0
 42
0.00000001
 43
0.00000001
 12
1.0
 22
0.0
 32
0.0
 13
1.0
 23
0.0
 33
0.0
 40
0.0
 40
0.0
 40
0.0
 40
0.0
 40
1.0
 40
1.0
 40
1.0
 40
1.0
 10
192.1425006594642
 20
160.7909077475952
 30
0.0
 10
192.5994270132638
 20
159.7749897779209
 30
0.0
 10
193.0506326550668
 20
158.7561939488298
 30
0.0
 10
193.4945296803856
 20
157.7353924928462
 30
0.0
  0
SPLINE
  5
AD
330
1F
100
AcDbEntity
  8
0
  6
Continuous
 62
     7
370
    15
100
AcDbSpline
210
0.0
220
0.0
230
1.0
 70
     8
 71
     3
 72
    12
 73
     8
 74
     0
 42
0.00000001
 43
0.00000001
 12
1.0
 22
0.0
 32
0.0
 13
1.0
 23
0.0
 33
0.0
 40
0.0
 40
0.0
 40
0.0
 40
0.0
 40
0.4999999999999953
 40
0.4999999999999953
 40
0.7499999999999977
 40
0.7499999999999977
 40
1.0
 40
1.0
 40
1.0
 40
1.0
 10
204.3545296803856
 20
169.8086848075541
 30
0.0
 10
204.3545296803856
 20
170.0739542403205
 30
0.0
 10
204.2499229368991
 20
170.3364693459729
 30
0.0
 10
203.9732545851539
 20
170.6220069520102
 30
0.0
 10
203.8628893258019
 20
170.6983285688716
 30
0.0
 10
203.6188172771861
 20
170.8026707337118
 30
0.0
 10
203.4870648158544
 20
170.8297398423719
 30
0.0
 10
203.3545296803856
 20
170.8297398423719
 30
0.0
  0
SPLINE
  5
AE
330
1F
100
AcDbEntity
  8
0
  6
Continuous
 62
     7
370
    15
100
AcDbSpline
210
0.0
220
0.0
230
1.0
 70
     8
 71
     3
 72
    16
 73
    12
 74
     0
 42
0.00000001
 43
0.00000001
 12
1.0
 22
0.0
 32
0.0
 13
1.0
 23
0.0
 33
0.0
 40
0.0
 40
0.0
 40
0.0
 40
0.0
 40
0.1249999999999978
 40
0.1249999999999978
 40
0.2499999999999955
 40
0.2499999999999955
 40
0.499999999999997
 40
0.499999999999997
 40
0.7499999999999984
 40
0.7499999999999984
 40
1.0
 40
1.0
 40
1.0
 40
1.0
 10
203.3545296803856
 20
160.7909077475952
 30
0.0
 10
203.4301673867968
 20
160.7909077475952
 30
0.0
 10
203.506483051215
 20
160.7795627474603
 30
0.0
 10
203.650893789107
 20
160.7369101968218
 30
0.0
 10
203.7193402382154
 20
160.7059758721389
 30
0.0
 10
203.9142714908285
 20
160.5867195003713
 30
0.0
 10
204.0221126646094
 20
160.4765674867508
 30
0.0
 10
204.1908254128215
 20
160.2284314010927
 30
0.0
 10
204.253189825545
 20
160.088089077089
 30
0.0
 10
204.3344937500534
 20
159.7998173856004
 30
0.0
 10
204.3545296803856
 20
159.6490124126206
 30
0.0
 10
204.3545296803856
 20
159.4986425212753
 30
0.0
  0
LINE
  5
AF
330
1F
100
AcDbEntity
  8
0
  6
Continuous
 62
     7
370
    15
100
AcDbLine
 10
204.3545298622
 20
159.4986438435
 30
0.0
 11
204.3545298622
 21
169.808686493
 31
0.0
  0
LINE
  5
B0
330
1F
100
AcDbEntity
  8
0
  6
Continuous
 62
     7
370
    15
100
AcDbLine
 10
193.4945300565
 20
157.7353931648
 30
0.0
 11
193.4945300565
 21
156.5541818422
 31
0.0
  0
LINE
  5
B1
330
1F
100
AcDbEntity
  8
0
  6
Continuous
 62
     7
370
    15
100
AcDbLine
 10
194.2945305602
 20
155.4684757871
 30
0.0
 11
196.5145297692
 21
155.4684757871
 31
0.0
  0
LINE
  5
B2
330
1F
100
AcDbEntity
  8
0
  6
Continuous
 62
     7
370
    15
100
AcDbLine
 10
197.3145302729
 20
156.5541818422
 30
0.0
 11
197.3145302729
 21
157.7353931648
 31
0.0
  0
LINE
  5
B3
330
1F
100
AcDbEntity
  8
0
  6
Continuous
 62
     7
370
    15
100
AcDbLine
 10
204.3545298622
 20
159.4986438435
 30
0.0
 11
204.3545298622
 21
153.1899466795
 31
0.0
  0
LINE
  5
B4
330
1F
100
AcDbEntity
  8
0
  6
Continuous
 62
     7
370
    15
100
AcDbLine
 10
196.5145297692
 20
166.7142219526
 30
0.0
 11
194.2945305602
 21
166.7142219526
 31
0.0
  0
SPLINE
  5
B5
330
1F
100
AcDbEntity
  8
0
  6
Continuous
 62
     7
370
    15
100
AcDbSpline
210
0.0
220
0.0
230
1.0
 70
     8
 71
     3
 72
    12
 73
     8
 74
     0
 42
0.00000001
 43
0.00000001
 12
1.0
 22
0.0
 32
0.0
 13
1.0
 23
0.0
 33
0.0
 40
0.0
 40
0.0
 40
0.0
 40
0.0
 40
0.2129450518942126
 40
0.4258243839382623
 40
0.6404391482140376
 40
0.8562195686391473
 40
1.0
 40
1.0
 40
1.0
 40
1.0
 10
264.9045322433853
 20
149.4759719502999
 30
0.0
 10
265.4066234241963
 20
149.484154760784
 30
0.0
 10
266.4106508286737
 20
149.5005178563446
 30
0.0
 10
267.7541693471827
 20
149.615201039116
 30
0.0
 10
268.7657615395651
 20
149.7400422672381
 30
0.0
 10
269.3474402875856
 20
149.8306644366761
 30
0.0
 10
269.3482597983754
 20
149.8309317779929
 30
0.0
 10
269.3485875026131
 20
149.831038681872
 30
0.0
  0
SPLINE
  5
B6
330
1F
100
AcDbEntity
  8
0
  6
Continuous
 62
     7
370
    15
100
AcDbSpline
210
0.0
220
0.0
230
1.0
 70
     8
 71
     3
 72
    12
 73
     8
 74
     0
 42
0.00000001
 43
0.00000001
 12
1.0
 22
0.0
 32
0.0
 13
1.0
 23
0.0
 33
0.0
 40
0.0
 40
0.0
 40
0.0
 40
0.0
 40
0.2061375585303315
 40
0.4182331767443541
 40
0.6326184917507115
 40
0.8482953559151903
 40
1.0
 40
1.0
 40
1.0
 40
1.0
 10
260.4115192190552
 20
149.8388487529828
 30
0.0
 10
260.4547643816131
 20
149.8317143086246
 30
0.0
 10
260.5425046354727
 20
149.8172392107848
 30
0.0
 10
261.2857385585321
 20
149.7064797357979
 30
0.0
 10
262.4026619142058
 20
149.5799870013643
 30
0.0
 10
263.6828739507222
 20
149.4901282771999
 30
0.0
 10
264.5474985686315
 20
149.4801091836363
 30
0.0
 10
264.9045322433853
 20
149.4759719502999
 30
0.0
  0
SPLINE
  5
B7
330
1F
100
AcDbEntity
  8
0
  6
Continuous
 62
     7
370
    15
100
AcDbSpline
210
0.0
220
0.0
230
1.0
 70
     8
 71
     3
 72
    12
 73
     8
 74
     0
 42
0.00000001
 43
0.00000001
 12
1.0
 22
0.0
 32
0.0
 13
1.0
 23
0.0
 33
0.0
 40
0.0
 40
0.0
 40
0.0
 40
0.0
 40
0.2129459958168752
 40
0.4258243041360919
 40
0.6404389690443124
 40
0.85621969691944
 40
1.0
 40
1.0
 40
1.0
 40
1.0
 10
249.4045306340599
 20
149.4759719502999
 30
0.0
 10
249.90662453468
 20
149.4841546488292
 30
0.0
 10
250.9106527392132
 20
149.5005174449167
 30
0.0
 10
252.2541696126902
 20
149.6152013543155
 30
0.0
 10
253.2657572548861
 20
149.7400423578963
 30
0.0
 10
253.8474504691264
 20
149.8306643880144
 30
0.0
 10
253.8482615574563
 20
149.8309317641988
 30
0.0
 10
253.8485858932877
 20
149.831038681872
 30
0.0
  0
SPLINE
  5
B8
330
1F
100
AcDbEntity
  8
0
  6
Continuous
 62
     7
370
    15
100
AcDbSpline
210
0.0
220
0.0
230
1.0
 70
     8
 71
     3
 72
    12
 73
     8
 74
     0
 42
0.00000001
 43
0.00000001
 12
1.0
 22
0.0
 32
0.0
 13
1.0
 23
0.0
 33
0.0
 40
0.0
 40
0.0
 40
0.0
 40
0.0
 40
0.2061376156677429
 40
0.4182337899504757
 40
0.6326183899195433
 40
0.8482953138655477
 40
1.0
 40
1.0
 40
1.0
 40
1.0
 10
244.9115176097298
 20
149.8388487529828
 30
0.0
 10
244.9547620962097
 20
149.8317142655062
 30
0.0
 10
245.0425010826939
 20
149.8172390629722
 30
0.0
 10
245.7857459600589
 20
149.7064802039632
 30
0.0
 10
246.9026600016511
 20
149.5799866930615
 30
0.0
 10
248.1828726747771
 20
149.4901283085341
 30
0.0
 10
249.0474970567375
 20
149.4801091927938
 30
0.0
 10
249.4045306340599
 20
149.4759719502999
 30
0.0
  0
SPLINE
  5
B9
330
1F
100
AcDbEntity
  8
0
  6
Continuous
 62
     7
370
    15
100
AcDbSpline
210
0.0
220
0.0
230
1.0
 70
     8
 71
     3
 72
    12
 73
     8
 74
     0
 42
0.00000001
 43
0.00000001
 12
1.0
 22
0.0
 32
0.0
 13
1.0
 23
0.0
 33
0.0
 40
0.0
 40
0.0
 40
0.0
 40
0.0
 40
0.2129459275441987
 40
0.425824630192533
 40
0.6404392262930845
 40
0.8562196813075664
 40
1.0
 40
1.0
 40
1.0
 40
1.0
 10
233.9045290247345
 20
149.4759719502999
 30
0.0
 10
234.4066228604358
 20
149.4841546782787
 30
0.0
 10
235.4106520258449
 20
149.500517551031
 30
0.0
 10
236.7541706648489
 20
149.6152011983483
 30
0.0
 10
237.7657611954739
 20
149.740042312348
 30
0.0
 10
238.3474451486659
 20
149.8306644165008
 30
0.0
 10
238.3482642101557
 20
149.830931772273
 30
0.0
 10
238.3485917345429
 20
149.831038681872
 30
0.0
  0
SPLINE
  5
BA
330
1F
100
AcDbEntity
  8
0
  6
Continuous
 62
     7
370
    15
100
AcDbSpline
210
0.0
220
0.0
230
1.0
 70
     8
 71
     3
 72
    12
 73
     8
 74
     0
 42
0.00000001
 43
0.00000001
 12
1.0
 22
0.0
 32
0.0
 13
1.0
 23
0.0
 33
0.0
 40
0.0
 40
0.0
 40
0.0
 40
0.0
 40
0.2061375699216565
 40
0.4182337823898486
 40
0.632618808186559
 40
0.8482952865528764
 40
1.0
 40
1.0
 40
1.0
 40
1.0
 10
229.4115197256947
 20
149.8388487529828
 30
0.0
 10
229.4547627172387
 20
149.8317142690693
 30
0.0
 10
229.5424986885234
 20
149.8172390708137
 30
0.0
 10
230.2857444880254
 20
149.7064800402585
 30
0.0
 10
231.4026612090612
 20
149.5799869969764
 30
0.0
 10
232.6828719430864
 20
149.4901282239636
 30
0.0
 10
233.5474953707211
 20
149.4801091719387
 30
0.0
 10
233.9045290247345
 20
149.4759719502999
 30
0.0
  0
SPLINE
  5
BB
330
1F
100
AcDbEntity
  8
0
  6
Continuous
 62
     7
370
    15
100
AcDbSpline
210
0.0
220
0.0
230
1.0
 70
     8
 71
     3
 72
    70
 73
    66
 74
     0
 42
0.00000001
 43
0.00000001
 12
1.0
 22
0.0
 32
0.0
 13
1.0
 23
0.0
 33
0.0
 40
-0.0312499999999998
 40
-0.0312499999999998
 40
0.0
 40
0.0
 40
0.0312500000000004
 40
0.0312500000000004
 40
0.0625000000000007
 40
0.0625000000000007
 40
0.0937500000000011
 40
0.0937500000000011
 40
0.1250000000000014
 40
0.1250000000000014
 40
0.1562500000000018
 40
0.1562500000000018
 40
0.1875000000000021
 40
0.1875000000000021
 40
0.2187500000000024
 40
0.2187500000000024
 40
0.2500000000000028
 40
0.2500000000000028
 40
0.2812500000000031
 40
0.2812500000000031
 40
0.3125000000000034
 40
0.3125000000000034
 40
0.3437500000000037
 40
0.3437500000000037
 40
0.3750000000000039
 40
0.3750000000000039
 40
0.4062500000000038
 40
0.4062500000000038
 40
0.4375000000000036
 40
0.4375000000000036
 40
0.4687500000000034
 40
0.4687500000000034
 40
0.5000000000000031
 40
0.5000000000000031
 40
0.531250000000003
 40
0.531250000000003
 40
0.5625000000000028
 40
0.5625000000000028
 40
0.5937500000000027
 40
0.5937500000000027
 40
0.6250000000000024
 40
0.6250000000000024
 40
0.6562500000000022
 40
0.6562500000000022
 40
0.687500000000002
 40
0.687500000000002
 40
0.7187500000000018
 40
0.7187500000000018
 40
0.7500000000000016
 40
0.7500000000000016
 40
0.7812500000000014
 40
0.7812500000000014
 40
0.8125000000000012
 40
0.8125000000000012
 40
0.843750000000001
 40
0.843750000000001
 40
0.8750000000000008
 40
0.8750000000000008
 40
0.9062500000000006
 40
0.9062500000000006
 40
0.9375000000000004
 40
0.9375000000000004
 40
0.9687500000000002
 40
0.9687500000000002
 40
1.0
 40
1.0
 40
1.03125
 40
1.03125
 10
233.6067202499001
 20
117.3399449867086
 30
0.0
 10
234.2023391108712
 20
117.3399449867086
 30
0.0
 10
234.4950737429856
 20
117.3692160427255
 30
0.0
 10
235.0708391069523
 20
117.4838134572502
 30
0.0
 10
235.356889295582
 20
117.5705655899367
 30
0.0
 10
235.9015964751106
 20
117.7965957434648
 30
0.0
 10
236.1598675343024
 20
117.9348412201401
 30
0.0
 10
236.6486545356307
 20
118.2613750150854
 30
0.0
 10
236.8797026753585
 20
118.4511104589802
 30
0.0
 10
237.2940323135143
 20
118.8655331614306
 30
0.0
 10
237.4801332561522
 20
119.0917520804638
 30
0.0
 10
237.8091208427377
 20
119.5834714025842
 30
0.0
 10
237.9486185254825
 20
119.8446516184083
 30
0.0
 10
238.1732097744337
 20
120.3859090630471
 30
0.0
 10
238.2598702776888
 20
120.6699983010587
 30
0.0
 10
238.3756603686565
 20
121.2510839384274
 30
0.0
 10
238.4043610851387
 20
121.5433745323399
 30
0.0
 10
238.4046968086736
 20
122.1313768365175
 30
0.0
 10
238.3753714515595
 20
122.4300771940163
 30
0.0
 10
238.2603676260953
 20
123.0075741897053
 30
0.0
 10
238.17528255589
 20
123.2883169973541
 30
0.0
 10
237.9495177075372
 20
123.8337312001854
 30
0.0
 10
237.8088298235602
 20
124.0965400554707
 30
0.0
 10
237.483388186529
 20
124.5835835754006
 30
0.0
 10
237.2969771222566
 20
124.8113317571035
 30
0.0
 10
236.8779641103764
 20
125.2305978258651
 30
0.0
 10
236.6512516815862
 20
125.4164390890816
 30
0.0
 10
236.1644564784511
 20
125.7423189671946
 30
0.0
 10
235.9011692310106
 20
125.883490335121
 30
0.0
 10
235.3568260060474
 20
126.1093318117992
 30
0.0
 10
235.0763514313448
 20
126.1946640514524
 30
0.0
 10
234.4987555969608
 20
126.3102514537123
 30
0.0
 10
234.200192005917
 20
126.3398302116455
 30
0.0
 10
233.6123715052551
 20
126.340059079601
 30
0.0
 10
233.3199189733505
 20
126.3116579503888
 30
0.0
 10
232.7380064526171
 20
126.1962289613139
 30
0.0
 10
232.4545295651996
 20
126.1100086201148
 30
0.0
 10
231.9127728498684
 20
125.8857883469323
 30
0.0
 10
231.6504253530405
 20
125.7458595293736
 30
0.0
 10
231.1594511548768
 20
125.4178911324671
 30
0.0
 10
230.933133455594
 20
125.2321179012204
 30
0.0
 10
230.5179371051446
 20
124.8176997341612
 30
0.0
 10
230.3279274676694
 20
124.5865882149448
 30
0.0
 10
230.0014779312079
 20
124.0987764223105
 30
0.0
 10
229.8629677325329
 20
123.8406818353482
 30
0.0
 10
229.6362009671896
 20
123.2954658254264
 30
0.0
 10
229.5494350854261
 20
123.0100856171732
 30
0.0
 10
229.4343677585164
 20
122.4346973876122
 30
0.0
 10
229.4047745472698
 20
122.141005600166
 30
0.0
 10
229.4042878271537
 20
121.5462495434393
 30
0.0
 10
229.4332368636148
 20
121.2536245578291
 30
0.0
 10
229.5473530384087
 20
120.6775152859356
 30
0.0
 10
229.6340103456367
 20
120.3909953242248
 30
0.0
 10
229.8593682358808
 20
119.8465911794863
 30
0.0
 10
229.9973559944875
 20
119.5881544811203
 30
0.0
 10
230.323822244572
 20
119.0985765415811
 30
0.0
 10
230.5132062987719
 20
118.867622411883
 30
0.0
 10
230.9270807277804
 20
118.4531214746065
 30
0.0
 10
231.1532319289821
 20
118.2666906773147
 30
0.0
 10
231.6454886380522
 20
117.9368027595365
 30
0.0
 10
231.9056395886231
 20
117.7976311503041
 30
0.0
 10
232.4467376376684
 20
117.5725447112336
 30
0.0
 10
232.7311573614064
 20
117.4855138963063
 30
0.0
 10
233.3125063368123
 20
117.3692200923908
 30
0.0
 10
233.6067202499001
 20
117.3399449867086
 30
0.0
 10
234.2023391108712
 20
117.3399449867086
 30
0.0
  0
SPLINE
  5
BC
330
1F
100
AcDbEntity
  8
0
  6
Continuous
 62
     7
370
    15
100
AcDbSpline
210
0.0
220
0.0
230
1.0
 70
     8
 71
     3
 72
    70
 73
    66
 74
     0
 42
0.00000001
 43
0.00000001
 12
1.0
 22
0.0
 32
0.0
 13
1.0
 23
0.0
 33
0.0
 40
-0.03125
 40
-0.03125
 40
0.0
 40
0.0
 40
0.03125
 40
0.03125
 40
0.0625
 40
0.0625
 40
0.09375
 40
0.09375
 40
0.125
 40
0.125
 40
0.15625
 40
0.15625
 40
0.1875
 40
0.1875
 40
0.21875
 40
0.21875
 40
0.25
 40
0.25
 40
0.28125
 40
0.28125
 40
0.3125
 40
0.3125
 40
0.34375
 40
0.34375
 40
0.375
 40
0.375
 40
0.40625
 40
0.40625
 40
0.4375
 40
0.4375
 40
0.46875
 40
0.46875
 40
0.5
 40
0.5
 40
0.53125
 40
0.53125
 40
0.5625
 40
0.5625
 40
0.59375
 40
0.59375
 40
0.625
 40
0.625
 40
0.65625
 40
0.65625
 40
0.6875
 40
0.6875
 40
0.71875
 40
0.71875
 40
0.75
 40
0.75
 40
0.78125
 40
0.78125
 40
0.8125
 40
0.8125
 40
0.84375
 40
0.84375
 40
0.875
 40
0.875
 40
0.90625
 40
0.90625
 40
0.9375
 40
0.9375
 40
0.96875
 40
0.96875
 40
1.0
 40
1.0
 40
1.03125
 40
1.03125
 10
264.6067202499
 20
117.3399449867086
 30
0.0
 10
265.2023391108711
 20
117.3399449867086
 30
0.0
 10
265.4950737429855
 20
117.3692160427255
 30
0.0
 10
266.0708391069523
 20
117.4838134572502
 30
0.0
 10
266.356889295582
 20
117.5705655899367
 30
0.0
 10
266.9015964751105
 20
117.7965957434648
 30
0.0
 10
267.1598675343024
 20
117.9348412201401
 30
0.0
 10
267.6486545356306
 20
118.2613750150854
 30
0.0
 10
267.8797026753585
 20
118.4511104589802
 30
0.0
 10
268.2940323135143
 20
118.8655331614306
 30
0.0
 10
268.4801332561522
 20
119.0917520804638
 30
0.0
 10
268.8091208427376
 20
119.5834714025843
 30
0.0
 10
268.9486185254826
 20
119.8446516184083
 30
0.0
 10
269.1732097744337
 20
120.3859090630471
 30
0.0
 10
269.2598702776888
 20
120.6699983010587
 30
0.0
 10
269.3756603686564
 20
121.2510839384274
 30
0.0
 10
269.4043610851388
 20
121.5433745323399
 30
0.0
 10
269.4046968086736
 20
122.1313768365175
 30
0.0
 10
269.3753714515595
 20
122.4300771940163
 30
0.0
 10
269.2603676260953
 20
123.0075741897053
 30
0.0
 10
269.17528255589
 20
123.2883169973541
 30
0.0
 10
268.9495177075372
 20
123.8337312001854
 30
0.0
 10
268.8088298235602
 20
124.0965400554707
 30
0.0
 10
268.4833881865289
 20
124.5835835754006
 30
0.0
 10
268.2969771222566
 20
124.8113317571034
 30
0.0
 10
267.8779641103765
 20
125.2305978258651
 30
0.0
 10
267.6512516815862
 20
125.4164390890816
 30
0.0
 10
267.1644564784511
 20
125.7423189671946
 30
0.0
 10
266.9011692310107
 20
125.883490335121
 30
0.0
 10
266.3568260060474
 20
126.1093318117992
 30
0.0
 10
266.0763514313448
 20
126.1946640514524
 30
0.0
 10
265.4987555969609
 20
126.3102514537123
 30
0.0
 10
265.200192005917
 20
126.3398302116455
 30
0.0
 10
264.6123715052551
 20
126.340059079601
 30
0.0
 10
264.3199189733506
 20
126.3116579503888
 30
0.0
 10
263.7380064526171
 20
126.1962289613139
 30
0.0
 10
263.4545295651996
 20
126.1100086201148
 30
0.0
 10
262.9127728498684
 20
125.8857883469323
 30
0.0
 10
262.6504253530406
 20
125.7458595293736
 30
0.0
 10
262.1594511548769
 20
125.4178911324671
 30
0.0
 10
261.933133455594
 20
125.2321179012204
 30
0.0
 10
261.5179371051447
 20
124.8176997341612
 30
0.0
 10
261.3279274676694
 20
124.5865882149448
 30
0.0
 10
261.0014779312079
 20
124.0987764223105
 30
0.0
 10
260.8629677325329
 20
123.8406818353482
 30
0.0
 10
260.6362009671897
 20
123.2954658254264
 30
0.0
 10
260.5494350854261
 20
123.0100856171732
 30
0.0
 10
260.4343677585165
 20
122.4346973876122
 30
0.0
 10
260.4047745472698
 20
122.141005600166
 30
0.0
 10
260.4042878271537
 20
121.5462495434393
 30
0.0
 10
260.4332368636148
 20
121.2536245578291
 30
0.0
 10
260.5473530384087
 20
120.6775152859356
 30
0.0
 10
260.6340103456368
 20
120.3909953242248
 30
0.0
 10
260.8593682358808
 20
119.8465911794863
 30
0.0
 10
260.9973559944875
 20
119.5881544811203
 30
0.0
 10
261.323822244572
 20
119.0985765415811
 30
0.0
 10
261.5132062987719
 20
118.867622411883
 30
0.0
 10
261.9270807277804
 20
118.4531214746065
 30
0.0
 10
262.1532319289821
 20
118.2666906773147
 30
0.0
 10
262.6454886380523
 20
117.9368027595365
 30
0.0
 10
262.9056395886231
 20
117.7976311503041
 30
0.0
 10
263.4467376376684
 20
117.5725447112336
 30
0.0
 10
263.7311573614065
 20
117.4855138963063
 30
0.0
 10
264.3125063368123
 20
117.3692200923908
 30
0.0
 10
264.6067202499
 20
117.3399449867086
 30
0.0
 10
265.2023391108711
 20
117.3399449867086
 30
0.0
  0
SPLINE
  5
BD
330
1F
100
AcDbEntity
  8
0
  6
Continuous
 62
     7
370
    15
100
AcDbSpline
210
0.0
220
0.0
230
1.0
 70
     8
 71
     3
 72
    70
 73
    66
 74
     0
 42
0.00000001
 43
0.00000001
 12
1.0
 22
0.0
 32
0.0
 13
1.0
 23
0.0
 33
0.0
 40
-0.03125
 40
-0.03125
 40
0.0
 40
0.0
 40
0.03125
 40
0.03125
 40
0.0625
 40
0.0625
 40
0.09375
 40
0.09375
 40
0.125
 40
0.125
 40
0.15625
 40
0.15625
 40
0.1875
 40
0.1875
 40
0.21875
 40
0.21875
 40
0.25
 40
0.25
 40
0.28125
 40
0.28125
 40
0.3125
 40
0.3125
 40
0.34375
 40
0.34375
 40
0.375
 40
0.375
 40
0.40625
 40
0.40625
 40
0.4375
 40
0.4375
 40
0.46875
 40
0.46875
 40
0.5
 40
0.5
 40
0.53125
 40
0.53125
 40
0.5625
 40
0.5625
 40
0.59375
 40
0.59375
 40
0.625
 40
0.625
 40
0.65625
 40
0.65625
 40
0.6875
 40
0.6875
 40
0.71875
 40
0.71875
 40
0.75
 40
0.75
 40
0.78125
 40
0.78125
 40
0.8125
 40
0.8125
 40
0.84375
 40
0.84375
 40
0.875
 40
0.875
 40
0.90625
 40
0.90625
 40
0.9375
 40
0.9375
 40
0.96875
 40
0.96875
 40
1.0
 40
1.0
 40
1.03125
 40
1.03125
 10
249.1067202499001
 20
117.3399449867086
 30
0.0
 10
249.7023391108712
 20
117.3399449867086
 30
0.0
 10
249.9950737429855
 20
117.3692160427255
 30
0.0
 10
250.5708391069523
 20
117.4838134572502
 30
0.0
 10
250.856889295582
 20
117.5705655899367
 30
0.0
 10
251.4015964751106
 20
117.7965957434648
 30
0.0
 10
251.6598675343024
 20
117.9348412201401
 30
0.0
 10
252.1486545356306
 20
118.2613750150854
 30
0.0
 10
252.3797026753585
 20
118.4511104589802
 30
0.0
 10
252.7940323135143
 20
118.8655331614306
 30
0.0
 10
252.9801332561522
 20
119.0917520804638
 30
0.0
 10
253.3091208427376
 20
119.5834714025842
 30
0.0
 10
253.4486185254826
 20
119.8446516184083
 30
0.0
 10
253.6732097744337
 20
120.3859090630471
 30
0.0
 10
253.7598702776888
 20
120.6699983010587
 30
0.0
 10
253.8756603686565
 20
121.2510839384274
 30
0.0
 10
253.9043610851388
 20
121.5433745323399
 30
0.0
 10
253.9046968086736
 20
122.1313768365175
 30
0.0
 10
253.8753714515595
 20
122.4300771940163
 30
0.0
 10
253.7603676260953
 20
123.0075741897053
 30
0.0
 10
253.67528255589
 20
123.2883169973541
 30
0.0
 10
253.4495177075372
 20
123.8337312001854
 30
0.0
 10
253.3088298235602
 20
124.0965400554707
 30
0.0
 10
252.983388186529
 20
124.5835835754006
 30
0.0
 10
252.7969771222566
 20
124.8113317571035
 30
0.0
 10
252.3779641103764
 20
125.2305978258651
 30
0.0
 10
252.1512516815861
 20
125.4164390890816
 30
0.0
 10
251.664456478451
 20
125.7423189671946
 30
0.0
 10
251.4011692310106
 20
125.883490335121
 30
0.0
 10
250.8568260060474
 20
126.1093318117992
 30
0.0
 10
250.5763514313448
 20
126.1946640514524
 30
0.0
 10
249.9987555969609
 20
126.3102514537123
 30
0.0
 10
249.700192005917
 20
126.3398302116455
 30
0.0
 10
249.1123715052551
 20
126.340059079601
 30
0.0
 10
248.8199189733505
 20
126.3116579503888
 30
0.0
 10
248.2380064526171
 20
126.1962289613139
 30
0.0
 10
247.9545295651996
 20
126.1100086201148
 30
0.0
 10
247.4127728498683
 20
125.8857883469323
 30
0.0
 10
247.1504253530406
 20
125.7458595293736
 30
0.0
 10
246.6594511548769
 20
125.4178911324671
 30
0.0
 10
246.4331334555939
 20
125.2321179012204
 30
0.0
 10
246.0179371051446
 20
124.8176997341612
 30
0.0
 10
245.8279274676694
 20
124.5865882149448
 30
0.0
 10
245.5014779312079
 20
124.0987764223105
 30
0.0
 10
245.3629677325329
 20
123.8406818353482
 30
0.0
 10
245.1362009671896
 20
123.2954658254264
 30
0.0
 10
245.0494350854261
 20
123.0100856171732
 30
0.0
 10
244.9343677585164
 20
122.4346973876122
 30
0.0
 10
244.9047745472698
 20
122.141005600166
 30
0.0
 10
244.9042878271537
 20
121.5462495434393
 30
0.0
 10
244.9332368636148
 20
121.2536245578291
 30
0.0
 10
245.0473530384088
 20
120.6775152859356
 30
0.0
 10
245.1340103456367
 20
120.3909953242248
 30
0.0
 10
245.3593682358808
 20
119.8465911794863
 30
0.0
 10
245.4973559944875
 20
119.5881544811203
 30
0.0
 10
245.823822244572
 20
119.0985765415811
 30
0.0
 10
246.013206298772
 20
118.867622411883
 30
0.0
 10
246.4270807277803
 20
118.4531214746065
 30
0.0
 10
246.6532319289821
 20
118.2666906773147
 30
0.0
 10
247.1454886380523
 20
117.9368027595365
 30
0.0
 10
247.4056395886231
 20
117.7976311503041
 30
0.0
 10
247.9467376376684
 20
117.5725447112336
 30
0.0
 10
248.2311573614064
 20
117.4855138963063
 30
0.0
 10
248.8125063368123
 20
117.3692200923908
 30
0.0
 10
249.1067202499001
 20
117.3399449867086
 30
0.0
 10
249.7023391108712
 20
117.3399449867086
 30
0.0
  0
LINE
  5
BE
330
1F
100
AcDbEntity
  8
0
  6
Continuous
 62
     7
370
    15
100
AcDbLine
 10
275.4045311705
 20
121.8399449867
 30
0.0
 11
275.4045311705
 21
94.8399442864
 31
0.0
  0
LINE
  5
BF
330
1F
100
AcDbEntity
  8
0
  6
Continuous
 62
     7
370
    15
100
AcDbLine
 10
275.4045311705
 20
148.8399456871
 30
0.0
 11
275.4045311705
 21
121.8399449867
 31
0.0
  0
LINE
  5
C0
330
1F
100
AcDbEntity
  8
0
  6
Continuous
 62
     7
370
    15
100
AcDbLine
 10
128.2497939066
 20
89.5899466854
 30
0.0
 11
128.2497939066
 21
89.6046578568
 31
0.0
  0
LINE
  5
C1
330
1F
100
AcDbEntity
  8
0
  6
Continuous
 62
     7
370
    15
100
AcDbLine
 10
128.1545307831
 20
154.089943288
 30
0.0
 11
128.1545307831
 21
154.0806561393
 31
0.0
  0
CIRCLE
  5
C2
330
1F
100
AcDbEntity
  8
0
  6
Continuous
 62
     7
370
    15
100
AcDbCircle
 10
249.4045296804
 20
121.8399449867
 30
0.0
 40
4.200000000000018
  0
LINE
  5
C3
330
1F
100
AcDbEntity
  8
0
  6
Continuous
 62
     7
370
    15
100
AcDbLine
 10
249.1148520605
 20
124.7121254132
 30
0.0
 11
246.7723075644
 21
123.0251664678
 31
0.0
  0
LINE
  5
C4
330
1F
100
AcDbEntity
  8
0
  6
Continuous
 62
     7
370
    15
100
AcDbLine
 10
247.061986138
 20
120.1529861578
 30
0.0
 11
246.7723075644
 21
123.0251664678
 31
0.0
  0
LINE
  5
C5
330
1F
100
AcDbEntity
  8
0
  6
Continuous
 62
     7
370
    15
100
AcDbLine
 10
249.6942092077
 20
118.9677645602
 30
0.0
 11
247.061986138
 21
120.1529861578
 31
0.0
  0
LINE
  5
C6
330
1F
100
AcDbEntity
  8
0
  6
Continuous
 62
     7
370
    15
100
AcDbLine
 10
249.6942092077
 20
118.9677645602
 30
0.0
 11
252.0367462531
 21
120.6547235056
 31
0.0
  0
LINE
  5
C7
330
1F
100
AcDbEntity
  8
0
  6
Continuous
 62
     7
370
    15
100
AcDbLine
 10
251.7470751301
 20
123.5269038156
 30
0.0
 11
252.0367462531
 21
120.6547235056
 31
0.0
  0
LINE
  5
C8
330
1F
100
AcDbEntity
  8
0
  6
Continuous
 62
     7
370
    15
100
AcDbLine
 10
251.7470751301
 20
123.5269038156
 30
0.0
 11
249.1148520605
 21
124.7121254132
 31
0.0
  0
LINE
  5
C9
330
1F
100
AcDbEntity
  8
0
  6
Continuous
 62
     7
370
    15
100
AcDbLine
 10
229.7045287088
 20
149.839945851
 30
0.0
 11
238.1045330659
 21
149.839945851
 31
0.0
  0
CIRCLE
  5
CA
330
1F
100
AcDbEntity
  8
0
  6
Continuous
 62
     7
370
    15
100
AcDbCircle
 10
233.9045296804
 20
121.8399449867
 30
0.0
 40
4.20000000000001
  0
LINE
  5
CB
330
1F
100
AcDbEntity
  8
0
  6
Continuous
 62
     7
370
    15
100
AcDbLine
 10
235.493082215
 20
124.2503049002
 30
0.0
 11
232.6113727287
 21
124.4208517169
 31
0.0
  0
LINE
  5
CC
330
1F
100
AcDbEntity
  8
0
  6
Continuous
 62
     7
370
    15
100
AcDbLine
 10
231.0228195385
 20
122.0104918325
 30
0.0
 11
232.6113727287
 21
124.4208517169
 31
0.0
  0
LINE
  5
CD
330
1F
100
AcDbEntity
  8
0
  6
Continuous
 62
     7
370
    15
100
AcDbLine
 10
232.3159758345
 20
119.4295850732
 30
0.0
 11
231.0228195385
 21
122.0104918325
 31
0.0
  0
LINE
  5
CE
330
1F
100
AcDbEntity
  8
0
  6
Continuous
 62
     7
370
    15
100
AcDbLine
 10
232.3159758345
 20
119.4295850732
 30
0.0
 11
235.1976853207
 21
119.2590382566
 31
0.0
  0
LINE
  5
CF
330
1F
100
AcDbEntity
  8
0
  6
Continuous
 62
     7
370
    15
100
AcDbLine
 10
236.786238511
 20
121.6693981409
 30
0.0
 11
235.1976853207
 21
119.2590382566
 31
0.0
  0
LINE
  5
D0
330
1F
100
AcDbEntity
  8
0
  6
Continuous
 62
     7
370
    15
100
AcDbLine
 10
236.786238511
 20
121.6693981409
 30
0.0
 11
235.493082215
 21
124.2503049002
 31
0.0
  0
CIRCLE
  5
D1
330
1F
100
AcDbEntity
  8
0
  6
Continuous
 62
     7
370
    15
100
AcDbCircle
 10
264.9045296804
 20
121.8399449867
 30
0.0
 40
4.19999999999999
  0
LINE
  5
D2
330
1F
100
AcDbEntity
  8
0
  6
Continuous
 62
     7
370
    15
100
AcDbLine
 10
267.2566209332
 20
123.5135622705
 30
0.0
 11
264.6311778919
 21
124.7137254254
 31
0.0
  0
LINE
  5
D3
330
1F
100
AcDbEntity
  8
0
  6
Continuous
 62
     7
370
    15
100
AcDbLine
 10
262.2790892021
 20
123.0401080252
 30
0.0
 11
264.6311778919
 21
124.7137254254
 31
0.0
  0
LINE
  5
D4
330
1F
100
AcDbEntity
  8
0
  6
Continuous
 62
     7
370
    15
100
AcDbLine
 10
262.552436103
 20
120.1663277029
 30
0.0
 11
262.2790892021
 21
123.0401080252
 31
0.0
  0
LINE
  5
D5
330
1F
100
AcDbEntity
  8
0
  6
Continuous
 62
     7
370
    15
100
AcDbLine
 10
262.552436103
 20
120.1663277029
 30
0.0
 11
265.1778791443
 21
118.966164548
 31
0.0
  0
LINE
  5
D6
330
1F
100
AcDbEntity
  8
0
  6
Continuous
 62
     7
370
    15
100
AcDbLine
 10
267.5299678341
 20
120.6397819483
 30
0.0
 11
265.1778791443
 21
118.966164548
 31
0.0
  0
LINE
  5
D7
330
1F
100
AcDbEntity
  8
0
  6
Continuous
 62
     7
370
    15
100
AcDbLine
 10
267.5299678341
 20
120.6397819483
 30
0.0
 11
267.2566209332
 21
123.5135622705
 31
0.0
  0
LINE
  5
D8
330
1F
100
AcDbEntity
  8
0
  6
Continuous
 62
     7
370
    15
100
AcDbLine
 10
245.2045265929
 20
149.839945851
 30
0.0
 11
253.6045272247
 21
149.839945851
 31
0.0
  0
LINE
  5
D9
330
1F
100
AcDbEntity
  8
0
  6
Continuous
 62
     7
370
    15
100
AcDbLine
 10
264.4880000845
 20
149.839945851
 30
0.0
 11
269.104528834
 21
149.839945851
 31
0.0
  0
LINE
  5
DA
330
1F
100
AcDbEntity
  8
0
  6
Continuous
 62
     7
370
    15
100
AcDbLine
 10
260.7045282022
 20
149.839945851
 30
0.0
 11
264.4880000845
 21
149.839945851
 31
0.0
  0
LINE
  5
DB
330
1F
100
AcDbEntity
  8
0
  6
HIDDEN
 62
     7
370
     0
100
AcDbLine
 10
192.1425011352
 20
160.7909060699
 30
0.0
 11
192.1425011352
 21
153.1899466795
 31
0.0
  0
LINE
  5
DC
330
1F
100
AcDbEntity
  8
0
  6
HIDDEN
 62
     7
370
     0
100
AcDbLine
 10
155.8179535315
 20
85.1041383725
 30
0.0
 11
155.5423397914
 21
85.0797116441
 31
0.0
  0
SPLINE
  5
DD
330
1F
100
AcDbEntity
  8
0
  6
HIDDEN
 62
     7
370
     0
100
AcDbSpline
210
0.0
220
0.0
230
1.0
 70
     8
 71
     3
 72
    12
 73
     8
 74
     0
 42
0.00000001
 43
0.00000001
 12
1.0
 22
0.0
 32
0.0
 13
1.0
 23
0.0
 33
0.0
 40
0.0
 40
0.0
 40
0.0
 40
0.0
 40
0.1661350015207708
 40
0.3322015911273496
 40
0.5008935461924457
 40
0.7521135807103684
 40
0.9999999999999999
 40
0.9999999999999999
 40
0.9999999999999999
 40
0.9999999999999999
 10
153.9238520310068
 20
158.7712473851515
 30
0.0
 10
153.9342446705862
 20
158.769870488517
 30
0.0
 10
153.955025670211
 20
158.7671172622334
 30
0.0
 10
154.1283262412849
 20
158.7455115618032
 30
0.0
 10
154.4502569654777
 20
158.7076495825067
 30
0.0
 10
154.971450996494
 20
158.6472659100829
 30
0.0
 10
155.5369855149815
 20
158.5994733650402
 30
0.0
 10
155.8178641245509
 20
158.5757366997076
 30
0.0
  0
SPLINE
  5
DE
330
1F
100
AcDbEntity
  8
0
  6
HIDDEN
 62
     7
370
     0
100
AcDbSpline
210
0.0
220
0.0
230
1.0
 70
     8
 71
     3
 72
    15
 73
    11
 74
     0
 42
0.00000001
 43
0.00000001
 12
1.0
 22
0.0
 32
0.0
 13
1.0
 23
0.0
 33
0.0
 40
0.0
 40
0.0
 40
0.0
 40
0.0
 40
0.1285821426710073
 40
0.2571635607496992
 40
0.3853235406184768
 40
0.5113778076015207
 40
0.636926046588634
 40
0.7643185585868897
 40
0.893060358186539
 40
1.0
 40
1.0
 40
1.0
 40
1.0
 10
165.6577350915218
 20
90.47362279713883
 30
0.0
 10
165.272212964378
 20
90.53542856229882
 30
0.0
 10
164.5011708826036
 20
90.65903974432796
 30
0.0
 10
162.7226132192624
 20
90.84978920659452
 30
0.0
 10
160.728801957829
 20
90.9374355875167
 30
0.0
 10
158.7047643326697
 20
90.8905316841609
 30
0.0
 10
156.8766558438156
 20
90.73028055565003
 30
0.0
 10
155.445224888988
 20
90.52910297046867
 30
0.0
 10
154.5413396403539
 20
90.36655724244453
 30
0.0
 10
154.4787570032928
 20
90.35415757883618
 30
0.0
 10
154.4503603474045
 20
90.34853127420678
 30
0.0
  0
SPLINE
  5
DF
330
1F
100
AcDbEntity
  8
0
  6
HIDDEN
 62
     7
370
     0
100
AcDbSpline
210
0.0
220
0.0
230
1.0
 70
     8
 71
     3
 72
    16
 73
    12
 74
     0
 42
0.00000001
 43
0.00000001
 12
1.0
 22
0.0
 32
0.0
 13
1.0
 23
0.0
 33
0.0
 40
0.0
 40
0.0
 40
0.0
 40
0.0
 40
0.0205567972010308
 40
0.1461296555129789
 40
0.2720439735959893
 40
0.3999540038647748
 40
0.5285040859845025
 40
0.6552455845570215
 40
0.7805595113940985
 40
0.907037898122843
 40
1.0
 40
1.0
 40
1.0
 40
1.0
 10
154.4503603474045
 20
153.3313586992098
 30
0.0
 10
154.4356930657559
 20
153.334104395326
 30
0.0
 10
154.3314295078848
 20
153.353622398236
 30
0.0
 10
154.7822093986488
 20
153.2672562836932
 30
0.0
 10
155.7954477053617
 20
153.0961191804378
 30
0.0
 10
157.3897768631191
 20
152.8925780473031
 30
0.0
 10
159.3162762594078
 20
152.7601873163605
 30
0.0
 10
161.3627681091379
 20
152.7563922293096
 30
0.0
 10
163.2759278011282
 20
152.8791668920091
 30
0.0
 10
164.760636000286
 20
153.060984188291
 30
0.0
 10
165.3907839853084
 20
153.1630351022116
 30
0.0
 10
165.6577350915218
 20
153.2062671762778
 30
0.0
  0
SPLINE
  5
E0
330
1F
100
AcDbEntity
  8
0
  6
HIDDEN
 62
     7
370
     0
100
AcDbSpline
210
0.0
220
0.0
230
1.0
 70
     8
 71
     3
 72
     9
 73
     5
 74
     0
 42
0.00000001
 43
0.00000001
 12
1.0
 22
0.0
 32
0.0
 13
1.0
 23
0.0
 33
0.0
 40
0.0
 40
0.0
 40
0.0
 40
0.0
 40
0.6612244139381355
 40
1.0
 40
1.0
 40
1.0
 40
1.0
 10
165.6577350915218
 20
153.2062671762778
 30
0.0
 10
165.9492379780946
 20
153.2500528963768
 30
0.0
 10
166.3900911595988
 20
153.3162720485677
 30
0.0
 10
166.3386808122593
 20
153.3084662486542
 30
0.0
 10
166.3212642417097
 20
153.3058218342139
 30
0.0
  0
SPLINE
  5
E1
330
1F
100
AcDbEntity
  8
0
  6
HIDDEN
 62
     7
370
     0
100
AcDbSpline
210
0.0
220
0.0
230
1.0
 70
     8
 71
     3
 72
     9
 73
     5
 74
     0
 42
0.00000001
 43
0.00000001
 12
1.0
 22
0.0
 32
0.0
 13
1.0
 23
0.0
 33
0.0
 40
0.0
 40
0.0
 40
0.0
 40
0.0
 40
0.3224719725690395
 40
1.0
 40
1.0
 40
1.0
 40
1.0
 10
166.3212642417097
 20
90.37406813920273
 30
0.0
 10
166.3399054512846
 20
90.3713001348532
 30
0.0
 10
166.3977126753553
 20
90.36271642964776
 30
0.0
 10
165.9566007703776
 20
90.42882940402286
 30
0.0
 10
165.6577350915218
 20
90.47362279713883
 30
0.0
  0
LINE
  5
E2
330
1F
100
AcDbEntity
  8
0
  6
HIDDEN
 62
     7
370
     0
100
AcDbLine
 10
145.4011533753
 20
95.3399452996
 30
0.0
 11
145.4011533753
 21
148.3399446738
 31
0.0
  0
LINE
  5
E3
330
1F
100
AcDbEntity
  8
0
  6
HIDDEN
 62
     7
370
     0
100
AcDbLine
 10
265.1718590752
 20
149.4831189197
 30
0.0
 11
264.0770111576
 21
149.4918584508
 31
0.0
  0
LINE
  5
E4
330
1F
100
AcDbEntity
  8
0
  6
HIDDEN
 62
     7
370
     0
100
AcDbLine
 10
249.6718574659
 20
149.4831189197
 30
0.0
 11
248.5770169989
 21
149.4918584508
 31
0.0
  0
LINE
  5
E5
330
1F
100
AcDbEntity
  8
0
  6
HIDDEN
 62
     7
370
     0
100
AcDbLine
 10
234.1718595818
 20
149.4831189197
 30
0.0
 11
233.0770153896
 21
149.4918584508
 31
0.0
  0
LINE
  5
E6
330
1F
100
AcDbEntity
  8
0
  6
HIDDEN
 62
     7
370
     0
100
AcDbLine
 10
184.6886068926
 20
95.3399452996
 30
0.0
 11
184.6886068926
 21
148.3399446738
 31
0.0
  0
LINE
  5
E7
330
1F
100
AcDbEntity
  8
0
  6
HIDDEN
 62
     7
370
     0
100
AcDbLine
 10
187.8545299516
 20
96.9649448675
 30
0.0
 11
187.8545299516
 21
146.7149451059
 31
0.0
  0
SPLINE
  5
E8
330
1F
100
AcDbEntity
  8
0
  6
HIDDEN
 62
     7
370
     0
100
AcDbSpline
210
0.0
220
0.0
230
1.0
 70
     8
 71
     3
 72
    20
 73
    16
 74
     0
 42
0.00000001
 43
0.00000001
 12
1.0
 22
0.0
 32
0.0
 13
1.0
 23
0.0
 33
0.0
 40
0.0
 40
0.0
 40
0.0
 40
0.0
 40
0.2499999999999978
 40
0.2499999999999978
 40
0.3749999999999982
 40
0.3749999999999982
 40
0.4999999999999986
 40
0.4999999999999986
 40
0.6249999999999989
 40
0.6249999999999989
 40
0.7499999999999992
 40
0.7499999999999992
 40
0.8749999999999997
 40
0.8749999999999997
 40
1.0
 40
1.0
 40
1.0
 40
1.0
 10
135.6045296803856
 20
147.0684586171226
 30
0.0
 10
135.6045296803856
 20
146.9892556305903
 30
0.0
 10
135.5575471851729
 20
146.9081594121874
 30
0.0
 10
135.4197255943953
 20
146.7879627204365
 30
0.0
 10
135.3634433104853
 20
146.7490360164344
 30
0.0
 10
135.2303584590181
 20
146.67384728401
 30
0.0
 10
135.152518516785
 20
146.6372050786681
 30
0.0
 10
134.9798861606707
 20
146.5696145458362
 30
0.0
 10
134.8854931635796
 20
146.5386563640606
 30
0.0
 10
134.6800558572645
 20
146.4831319426909
 30
0.0
 10
134.5677096172773
 20
146.4584234288577
 30
0.0
 10
134.3354687533777
 20
146.4186272017494
 30
0.0
 10
134.2147581109549
 20
146.4032073643524
 30
0.0
 10
133.9636872516859
 20
146.3821273895128
 30
0.0
 10
133.8341652552701
 20
146.3766501444918
 30
0.0
 10
133.7045296803856
 20
146.3766501444918
 30
0.0
  0
LINE
  5
E9
330
1F
100
AcDbEntity
  8
0
  6
HIDDEN
 62
     7
370
     0
100
AcDbLine
 10
133.7045278744
 20
146.3766496313
 30
0.0
 11
128.1545307831
 21
146.3766496313
 31
0.0
  0
ELLIPSE
  5
EA
330
1F
100
AcDbEntity
  8
0
  6
HIDDEN
 62
     7
370
     0
100
AcDbEllipse
 10
145.4923582641
 20
121.8399449867
 30
0.0
 11
45.8993464005747
 21
1.421085471520200E-14
 31
0.0
210
0.0
220
0.0
230
1.0
 40
0.5773502692
 41
1.958146083801485
 42
1.981792402289877
  0
ELLIPSE
  5
EB
330
1F
100
AcDbEntity
  8
0
  6
HIDDEN
 62
     7
370
     0
100
AcDbEllipse
 10
145.4923582641
 20
121.8399449867
 30
0.0
 11
45.89934640057475
 21
1.421085471520200E-14
 31
0.0
210
0.0
220
0.0
230
1.0
 40
0.5773502692
 41
4.30139290488972
 42
4.32727974104156
  0
LINE
  5
EC
330
1F
100
AcDbEntity
  8
0
  6
HIDDEN
 62
     7
370
     0
100
AcDbLine
 10
128.2497939066
 20
97.2808736992
 30
0.0
 11
138.7045305566
 21
97.2808736992
 31
0.0
  0
SPLINE
  5
ED
330
1F
100
AcDbEntity
  8
0
  6
HIDDEN
 62
     7
370
     0
100
AcDbSpline
210
0.0
220
0.0
230
1.0
 70
     8
 71
     3
 72
    18
 73
    14
 74
     0
 42
0.00000001
 43
0.00000001
 12
1.0
 22
0.0
 32
0.0
 13
1.0
 23
0.0
 33
0.0
 40
0.0
 40
0.0
 40
0.0
 40
0.0
 40
0.1250000000000025
 40
0.1250000000000025
 40
0.2500000000000049
 40
0.2500000000000049
 40
0.5000000000000038
 40
0.5000000000000038
 40
0.7500000000000026
 40
0.7500000000000026
 40
0.8750000000000013
 40
0.8750000000000013
 40
1.0
 40
1.0
 40
1.0
 40
1.0
 10
138.7045296803856
 20
97.28087385199314
 30
0.0
 10
138.833942595722
 20
97.28087385199314
 30
0.0
 10
138.9609038081712
 20
97.27555949439434
 30
0.0
 10
139.2101766323913
 20
97.2549703969309
 30
0.0
 10
139.33376203834
 20
97.23941087037386
 30
0.0
 10
139.6827373365874
 20
97.18013477358106
 30
0.0
 10
139.8932572055987
 20
97.12276819476931
 30
0.0
 10
140.2372518110978
 20
96.98915776648117
 30
0.0
 10
140.3736761131016
 20
96.91200183788978
 30
0.0
 10
140.5107824840384
 20
96.79352388566681
 30
0.0
 10
140.5460235587555
 20
96.75288479207819
 30
0.0
 10
140.5926795760419
 20
96.67278148350573
 30
0.0
 10
140.6045296803856
 20
96.63309308171596
 30
0.0
 10
140.6045296803856
 20
96.59381706577753
 30
0.0
  0
LINE
  5
EE
330
1F
100
AcDbEntity
  8
0
  6
HIDDEN
 62
     7
370
     0
100
AcDbLine
 10
127.1545287565
 20
97.5467774701
 30
0.0
 11
127.1545287565
 21
146.1331125033
 31
0.0
  0
LINE
  5
EF
330
1F
100
AcDbEntity
  8
0
  6
HIDDEN
 62
     7
370
     0
100
AcDbLine
 10
128.2497939066
 20
94.4699447286
 30
0.0
 11
128.2497939066
 21
89.6046578568
 31
0.0
  0
LINE
  5
F0
330
1F
100
AcDbEntity
  8
0
  6
HIDDEN
 62
     7
370
     0
100
AcDbLine
 10
140.6045291916
 20
94.4699447286
 30
0.0
 11
140.6045291916
 21
87.9614658338
 31
0.0
  0
LINE
  5
F1
330
1F
100
AcDbEntity
  8
0
  6
HIDDEN
 62
     7
370
     0
100
AcDbLine
 10
128.1545307831
 20
149.2099452448
 30
0.0
 11
128.1545307831
 21
154.0806561393
 31
0.0
  0
LINE
  5
F2
330
1F
100
AcDbEntity
  8
0
  6
HIDDEN
 62
     7
370
     0
100
AcDbLine
 10
135.6045302347
 20
149.2099452448
 30
0.0
 11
135.6045302347
 21
155.5845521075
 31
0.0
  0
LINE
  5
F3
330
1F
100
AcDbEntity
  8
0
  6
HIDDEN
 62
     7
370
     0
100
AcDbLine
 10
214.580285956
 20
121.8399449867
 30
0.0
 11
214.580285956
 21
105.5399447364
 31
0.0
  0
LINE
  5
F4
330
1F
100
AcDbEntity
  8
0
  6
HIDDEN
 62
     7
370
     0
100
AcDbLine
 10
214.580285956
 20
138.139945237
 30
0.0
 11
214.580285956
 21
121.8399449867
 31
0.0
  0
LINE
  5
F5
330
1F
100
AcDbEntity
  8
0
  6
HIDDEN
 62
     7
370
     0
100
AcDbLine
 10
209.4045315281
 20
121.8399449867
 30
0.0
 11
209.4045315281
 21
105.9399440569
 31
0.0
  0
LINE
  5
F6
330
1F
100
AcDbEntity
  8
0
  6
HIDDEN
 62
     7
370
     0
100
AcDbLine
 10
209.4045315281
 20
137.7399459165
 30
0.0
 11
209.4045315281
 21
121.8399449867
 31
0.0
  0
LINE
  5
F7
330
1F
100
AcDbEntity
  8
0
  6
HIDDEN
 62
     7
370
     0
100
AcDbLine
 10
215.4045287863
 20
121.8399449867
 30
0.0
 11
215.4045287863
 21
105.8399442267
 31
0.0
  0
LINE
  5
F8
330
1F
100
AcDbEntity
  8
0
  6
HIDDEN
 62
     7
370
     0
100
AcDbLine
 10
215.4045287863
 20
137.8399457467
 30
0.0
 11
215.4045287863
 21
121.8399449867
 31
0.0
  0
SPLINE
  5
F9
330
1F
100
AcDbEntity
  8
0
  6
HIDDEN
 62
     7
370
     0
100
AcDbSpline
210
0.0
220
0.0
230
1.0
 70
     8
 71
     3
 72
    12
 73
     8
 74
     0
 42
0.00000001
 43
0.00000001
 12
1.0
 22
0.0
 32
0.0
 13
1.0
 23
0.0
 33
0.0
 40
0.0
 40
0.0
 40
0.0
 40
0.0
 40
0.2090013976966907
 40
0.4177981071838357
 40
0.6318597225380104
 40
0.849689944359166
 40
0.9999999999999999
 40
0.9999999999999999
 40
0.9999999999999999
 40
0.9999999999999999
 10
264.9045322433853
 20
137.1940977555586
 30
0.0
 10
264.4100360627442
 20
137.2084321950889
 30
0.0
 10
263.4215279926625
 20
137.2370870355317
 30
0.0
 10
262.0940747812769
 20
137.4366778302504
 30
0.0
 10
261.0751694819468
 20
137.6566824879992
 30
0.0
 10
260.4708748016253
 20
137.8210693340822
 30
0.0
 10
260.4606769949003
 20
137.824193631626
 30
0.0
 10
260.45651327528
 20
137.8254692685677
 30
0.0
  0
LINE
  5
FA
330
1F
100
AcDbEntity
  8
0
  6
HIDDEN
 62
     7
370
     0
100
AcDbLine
 10
264.5774070517
 20
137.2095707488
 30
0.0
 11
265.3928432957
 21
137.2148783562
 31
0.0
  0
SPLINE
  5
FB
330
1F
100
AcDbEntity
  8
0
  6
HIDDEN
 62
     7
370
     0
100
AcDbSpline
210
0.0
220
0.0
230
1.0
 70
     8
 71
     3
 72
    12
 73
     8
 74
     0
 42
0.00000001
 43
0.00000001
 12
1.0
 22
0.0
 32
0.0
 13
1.0
 23
0.0
 33
0.0
 40
0.0
 40
0.0
 40
0.0
 40
0.0
 40
0.1757791186738597
 40
0.3822888895246767
 40
0.5948304069677138
 40
0.8126291123814019
 40
1.0
 40
1.0
 40
1.0
 40
1.0
 10
269.3727944389725
 20
137.8311540615632
 30
0.0
 10
269.3517493574231
 20
137.82504768992
 30
0.0
 10
269.3059799798305
 20
137.8117673978576
 30
0.0
 10
268.6635637474959
 20
137.6399159225222
 30
0.0
 10
267.6249178173518
 20
137.4195066822253
 30
0.0
 10
266.3054660753883
 20
137.2304890475385
 30
0.0
 10
265.3475301889586
 20
137.2056052709141
 30
0.0
 10
264.9045322433853
 20
137.1940977555586
 30
0.0
  0
SPLINE
  5
FC
330
1F
100
AcDbEntity
  8
0
  6
HIDDEN
 62
     7
370
     0
100
AcDbSpline
210
0.0
220
0.0
230
1.0
 70
     8
 71
     3
 72
    12
 73
     8
 74
     0
 42
0.00000001
 43
0.00000001
 12
1.0
 22
0.0
 32
0.0
 13
1.0
 23
0.0
 33
0.0
 40
0.0
 40
0.0
 40
0.0
 40
0.0
 40
0.2090014693474977
 40
0.4177982504152776
 40
0.6318599391550261
 40
0.8496898189266155
 40
0.9999999999999999
 40
0.9999999999999999
 40
0.9999999999999999
 40
0.9999999999999999
 10
249.4045306340599
 20
137.1940977555586
 30
0.0
 10
248.9100343826373
 20
137.2084321930574
 30
0.0
 10
247.9215261710621
 20
137.2370870294391
 30
0.0
 10
246.5940740289913
 20
137.4366778548485
 30
0.0
 10
245.5751652060911
 20
137.6566822493464
 30
0.0
 10
244.9708849011952
 20
137.8210694442033
 30
0.0
 10
244.9606787844492
 20
137.8241936622637
 30
0.0
 10
244.9565116659546
 20
137.8254692685677
 30
0.0
  0
SPLINE
  5
FD
330
1F
100
AcDbEntity
  8
0
  6
HIDDEN
 62
     7
370
     0
100
AcDbSpline
210
0.0
220
0.0
230
1.0
 70
     8
 71
     3
 72
    12
 73
     8
 74
     0
 42
0.00000001
 43
0.00000001
 12
1.0
 22
0.0
 32
0.0
 13
1.0
 23
0.0
 33
0.0
 40
0.0
 40
0.0
 40
0.0
 40
0.0
 40
0.1757792170385442
 40
0.3822889632439428
 40
0.5948304553217171
 40
0.8126291347427357
 40
1.0
 40
1.0
 40
1.0
 40
1.0
 10
253.8728002802277
 20
137.8311540615632
 30
0.0
 10
253.8517521346318
 20
137.8250476990938
 30
0.0
 10
253.8059761100618
 20
137.8117674318531
 30
0.0
 10
253.1635628429149
 20
137.6399159226649
 30
0.0
 10
252.1249160115913
 20
137.4195066821856
 30
0.0
 10
250.8054645076781
 20
137.2304890475469
 30
0.0
 10
249.8475285927926
 20
137.2056052709168
 30
0.0
 10
249.4045306340599
 20
137.1940977555586
 30
0.0
  0
SPLINE
  5
FE
330
1F
100
AcDbEntity
  8
0
  6
HIDDEN
 62
     7
370
     0
100
AcDbSpline
210
0.0
220
0.0
230
1.0
 70
     8
 71
     3
 72
    12
 73
     8
 74
     0
 42
0.00000001
 43
0.00000001
 12
1.0
 22
0.0
 32
0.0
 13
1.0
 23
0.0
 33
0.0
 40
0.0
 40
0.0
 40
0.0
 40
0.0
 40
0.2090009921823401
 40
0.4177978153649149
 40
0.6318599018525369
 40
0.8496898255609182
 40
1.0
 40
1.0
 40
1.0
 40
1.0
 10
233.9045290247345
 20
137.1940977555586
 30
0.0
 10
233.4100340036889
 20
137.2084322293676
 30
0.0
 10
232.4215270241554
 20
137.2370871739171
 30
0.0
 10
231.0940760639733
 20
137.4366780887092
 30
0.0
 10
230.0751637163431
 20
137.6566820131884
 30
0.0
 10
229.4708819323895
 20
137.8210694571975
 30
0.0
 10
229.4606794257965
 20
137.8241936661628
 30
0.0
 10
229.4565137819195
 20
137.8254692685677
 30
0.0
  0
SPLINE
  5
FF
330
1F
100
AcDbEntity
  8
0
  6
HIDDEN
 62
     7
370
     0
100
AcDbSpline
210
0.0
220
0.0
230
1.0
 70
     8
 71
     3
 72
    12
 73
     8
 74
     0
 42
0.00000001
 43
0.00000001
 12
1.0
 22
0.0
 32
0.0
 13
1.0
 23
0.0
 33
0.0
 40
0.0
 40
0.0
 40
0.0
 40
0.0
 40
0.1757792170385442
 40
0.3822889632439428
 40
0.5948304553217171
 40
0.8126291347427357
 40
1.0
 40
1.0
 40
1.0
 40
1.0
 10
238.3727986709023
 20
137.8311540615632
 30
0.0
 10
238.3517505253064
 20
137.8250476990938
 30
0.0
 10
238.3059745007364
 20
137.8117674318531
 30
0.0
 10
237.6635612335895
 20
137.6399159226649
 30
0.0
 10
236.6249144022658
 20
137.4195066821856
 30
0.0
 10
235.3054628983527
 20
137.2304890475469
 30
0.0
 10
234.3475269834672
 20
137.2056052709168
 30
0.0
 10
233.9045290247345
 20
137.1940977555586
 30
0.0
  0
LINE
  5
100
330
1F
100
AcDbEntity
  8
0
  6
HIDDEN
 62
     7
370
     0
100
AcDbLine
 10
233.9045290247
 20
126.339944793
 30
0.0
 11
233.4104586736
 21
126.257819837
 31
0.0
  0
SPLINE
  5
101
330
1F
100
AcDbEntity
  8
0
  6
HIDDEN
 62
     7
370
     0
100
AcDbSpline
210
0.0
220
0.0
230
1.0
 70
     8
 71
     3
 72
     9
 73
     5
 74
     0
 42
0.00000001
 43
0.00000001
 12
1.0
 22
0.0
 32
0.0
 13
1.0
 23
0.0
 33
0.0
 40
0.0
 40
0.0
 40
0.0
 40
0.0
 40
0.7871423449606454
 40
1.0
 40
1.0
 40
1.0
 40
1.0
 10
233.4787842229748
 20
117.3908792120291
 30
0.0
 10
233.9121508648305
 20
117.3473922936986
 30
0.0
 10
234.4627077553728
 20
117.2921457190367
 30
0.0
 10
234.9614977050065
 20
117.4936081996972
 30
0.0
 10
235.0676689640427
 20
117.536491030909
 30
0.0
  0
LINE
  5
102
330
1F
100
AcDbEntity
  8
0
  6
HIDDEN
 62
     7
370
     0
100
AcDbLine
 10
234.1943007306
 20
126.2968608794
 30
0.0
 11
233.9045290247
 21
126.339944793
 31
0.0
  0
LINE
  5
103
330
1F
100
AcDbEntity
  8
0
  6
HIDDEN
 62
     7
370
     0
100
AcDbLine
 10
264.9045322434
 20
126.339944793
 30
0.0
 11
264.4104618923
 21
126.257819837
 31
0.0
  0
SPLINE
  5
104
330
1F
100
AcDbEntity
  8
0
  6
HIDDEN
 62
     7
370
     0
100
AcDbSpline
210
0.0
220
0.0
230
1.0
 70
     8
 71
     3
 72
     9
 73
     5
 74
     0
 42
0.00000001
 43
0.00000001
 12
1.0
 22
0.0
 32
0.0
 13
1.0
 23
0.0
 33
0.0
 40
0.0
 40
0.0
 40
0.0
 40
0.0
 40
0.7871384482873242
 40
1.0
 40
1.0
 40
1.0
 40
1.0
 10
264.4787837163353
 20
117.3908792120291
 30
0.0
 10
264.9121485804281
 20
117.3473938764164
 30
0.0
 10
265.4627059379499
 20
117.2921490389835
 30
0.0
 10
265.9614984372993
 20
117.4936081351025
 30
0.0
 10
266.0676721826935
 20
117.536491030909
 30
0.0
  0
LINE
  5
105
330
1F
100
AcDbEntity
  8
0
  6
HIDDEN
 62
     7
370
     0
100
AcDbLine
 10
265.194300224
 20
126.2968608794
 30
0.0
 11
264.9045322434
 21
126.339944793
 31
0.0
  0
LINE
  5
106
330
1F
100
AcDbEntity
  8
0
  6
HIDDEN
 62
     7
370
     0
100
AcDbLine
 10
249.4045306341
 20
126.339944793
 30
0.0
 11
248.9104602829
 21
126.257819837
 31
0.0
  0
SPLINE
  5
107
330
1F
100
AcDbEntity
  8
0
  6
HIDDEN
 62
     7
370
     0
100
AcDbSpline
210
0.0
220
0.0
230
1.0
 70
     8
 71
     3
 72
     9
 73
     5
 74
     0
 42
0.00000001
 43
0.00000001
 12
1.0
 22
0.0
 32
0.0
 13
1.0
 23
0.0
 33
0.0
 40
0.0
 40
0.0
 40
0.0
 40
0.0
 40
0.7871428369259834
 40
1.0
 40
1.0
 40
1.0
 40
1.0
 10
248.9787821070099
 20
117.3908792120291
 30
0.0
 10
249.4121500289732
 20
117.347392093872
 30
0.0
 10
249.9627082016877
 20
117.2921452998759
 30
0.0
 10
250.4614993125446
 20
117.4936082078524
 30
0.0
 10
250.5676705733681
 20
117.536491030909
 30
0.0
  0
LINE
  5
108
330
1F
100
AcDbEntity
  8
0
  6
HIDDEN
 62
     7
370
     0
100
AcDbLine
 10
249.6942986146
 20
126.2968608794
 30
0.0
 11
249.4045306341
 21
126.339944793
 31
0.0
  0
LINE
  5
109
330
1F
100
AcDbEntity
  8
0
  6
HIDDEN
 62
     7
370
     0
100
AcDbLine
 10
199.7045293794
 20
108.8399447185
 30
0.0
 11
199.7045293794
 21
134.8399452549
 31
0.0
  0
LINE
  5
10A
330
1F
100
AcDbEntity
  8
0
  6
HIDDEN
 62
     7
370
     0
100
AcDbLine
 10
203.704530035
 20
108.8399447185
 30
0.0
 11
203.704530035
 21
134.8399452549
 31
0.0
  0
LINE
  5
10B
330
1F
100
AcDbEntity
  8
0
  6
HIDDEN
 62
     7
370
     0
100
AcDbLine
 10
188.6045296089
 20
110.5899445397
 30
0.0
 11
188.6045296089
 21
133.0899454337
 31
0.0
  0
SPLINE
  5
10C
330
1F
100
AcDbEntity
  8
0
  6
HIDDEN
 62
     7
370
     0
100
AcDbSpline
210
0.0
220
0.0
230
1.0
 70
     8
 71
     3
 72
     8
 73
     4
 74
     0
 42
0.00000001
 43
0.00000001
 12
1.0
 22
0.0
 32
0.0
 13
1.0
 23
0.0
 33
0.0
 40
0.0000002430088911
 40
0.0000002430088911
 40
0.0000002430088911
 40
0.0000002430088911
 40
0.0020026613858125
 40
0.0020026613858125
 40
0.0020026613858125
 40
0.0020026613858125
 10
127.1545296803856
 20
146.1331130443637
 30
0.0
 10
126.6051931532771
 20
146.3408607321553
 30
0.0
 10
126.0551709653695
 20
146.5462044428389
 30
0.0
 10
125.5045296803856
 20
146.7492943133363
 30
0.0
  0
SPLINE
  5
10D
330
1F
100
AcDbEntity
  8
0
  6
HIDDEN
 62
     7
370
     0
100
AcDbSpline
210
0.0
220
0.0
230
1.0
 70
     8
 71
     3
 72
     8
 73
     4
 74
     0
 42
0.00000001
 43
0.00000001
 12
1.0
 22
0.0
 32
0.0
 13
1.0
 23
0.0
 33
0.0
 40
0.0000002424330798
 40
0.0000002424330798
 40
0.0000002424330798
 40
0.0000002424330798
 40
0.0020026608100012
 40
0.0020026608100012
 40
0.0020026608100012
 40
0.0020026608100012
 10
125.5045296803856
 20
96.93059566008033
 30
0.0
 10
126.0551709653695
 20
97.1336855305777
 30
0.0
 10
126.6051931532771
 20
97.33902924126134
 30
0.0
 10
127.1545296803856
 20
97.54677692905287
 30
0.0
  0
LINE
  5
10E
330
1F
100
AcDbEntity
  8
0
  6
HIDDEN
 62
     7
370
     0
100
AcDbLine
 10
204.3545298622
 20
77.9399431926
 30
0.0
 11
190.35452943
 21
77.9399431926
 31
0.0
  0
LINE
  5
10F
330
1F
100
AcDbEntity
  8
0
  6
HIDDEN
 62
     7
370
     0
100
AcDbLine
 10
180.3545296536
 20
71.8499466461
 30
0.0
 11
180.3545296536
 21
77.9399431926
 31
0.0
  0
LINE
  5
110
330
1F
100
AcDbEntity
  8
0
  6
HIDDEN
 62
     7
370
     0
100
AcDbLine
 10
190.35452943
 20
77.9399431926
 30
0.0
 11
180.3545296536
 21
77.9399431926
 31
0.0
  0
LINE
  5
111
330
1F
100
AcDbEntity
  8
0
  6
HIDDEN
 62
     7
370
     0
100
AcDbLine
 10
128.1545307831
 20
149.2099452448
 30
0.0
 11
128.1545307831
 21
146.3766496313
 31
0.0
  0
LINE
  5
112
330
1F
100
AcDbEntity
  8
0
  6
HIDDEN
 62
     7
370
     0
100
AcDbLine
 10
135.6045302347
 20
149.2099452448
 30
0.0
 11
135.6045302347
 21
147.0684583914
 31
0.0
  0
LINE
  5
113
330
1F
100
AcDbEntity
  8
0
  6
HIDDEN
 62
     7
370
     0
100
AcDbLine
 10
190.35452943
 20
165.7399467808
 30
0.0
 11
180.3545296536
 21
165.7399467808
 31
0.0
  0
LINE
  5
114
330
1F
100
AcDbEntity
  8
0
  6
HIDDEN
 62
     7
370
     0
100
AcDbLine
 10
204.3545298622
 20
165.7399467808
 30
0.0
 11
190.35452943
 21
165.7399467808
 31
0.0
  0
LINE
  5
115
330
1F
100
AcDbEntity
  8
0
  6
HIDDEN
 62
     7
370
     0
100
AcDbLine
 10
140.6045291916
 20
94.4699447286
 30
0.0
 11
140.6045291916
 21
96.5938165468
 31
0.0
  0
LINE
  5
116
330
1F
100
AcDbEntity
  8
0
  6
HIDDEN
 62
     7
370
     0
100
AcDbLine
 10
128.2497939066
 20
94.4699447286
 30
0.0
 11
128.2497939066
 21
97.2808736992
 31
0.0
  0
SPLINE
  5
117
330
1F
100
AcDbEntity
  8
0
  6
HIDDEN
 62
     7
370
     0
100
AcDbSpline
210
0.0
220
0.0
230
1.0
 70
     8
 71
     3
 72
    30
 73
    26
 74
     0
 42
0.00000001
 43
0.00000001
 12
1.0
 22
0.0
 32
0.0
 13
1.0
 23
0.0
 33
0.0
 40
0.0
 40
0.0
 40
0.0
 40
0.0
 40
0.0531240391750427
 40
0.1125059623743414
 40
0.1779044762929576
 40
0.2129291676420718
 40
0.2494829824103684
 40
0.2912495807895034
 40
0.3260925645614114
 40
0.3540082310100784
 40
0.374993862904934
 40
0.4414527449091561
 40
0.500171441851732
 40
0.5546871698086777
 40
0.6144323796323254
 40
0.6794589813777808
 40
0.7140165909283258
 40
0.7499141838233093
 40
0.7913794854642309
 40
0.8260470186182403
 40
0.853913153032556
 40
0.874974887807954
 40
0.9411625795235867
 40
0.9999141561345919
 40
1.0
 40
1.0
 40
1.0
 40
1.0
 10
166.4040355355287
 20
84.7400284987761
 30
0.0
 10
166.3878430971674
 20
84.74492661143582
 30
0.0
 10
166.3535507901568
 20
84.75529982264408
 30
0.0
 10
166.0522570773905
 20
84.83095124379622
 30
0.0
 10
165.610090323689
 20
84.92723818823066
 30
0.0
 10
165.1152579335577
 20
85.02689948122571
 30
0.0
 10
164.6447819864013
 20
85.11918001492916
 30
0.0
 10
164.1138604351242
 20
85.21480994584749
 30
0.0
 10
163.5757098119587
 20
85.30045952269842
 30
0.0
 10
163.1176628758144
 20
85.36775374181018
 30
0.0
 10
162.4620980630947
 20
85.45609654201527
 30
0.0
 10
161.5787922189587
 20
85.55276079106291
 30
0.0
 10
160.4501298564531
 20
85.63953231244133
 30
0.0
 10
159.3603683227248
 20
85.67761351842918
 30
0.0
 10
158.2643401380945
 20
85.67946427376994
 30
0.0
 10
157.3589488970827
 20
85.65330242184055
 30
0.0
 10
156.6626454296452
 20
85.61669618466172
 30
0.0
 10
156.1359678308458
 20
85.57767764418188
 30
0.0
 10
155.6693191107881
 20
85.5354693778462
 30
0.0
 10
155.2981066921437
 20
85.49846497390358
 30
0.0
 10
155.044056734681
 20
85.46976371093513
 30
0.0
 10
154.7430091207008
 20
85.43338330038947
 30
0.0
 10
154.4874753217322
 20
85.40058650336272
 30
0.0
 10
154.3883774104386
 20
85.38429980939507
 30
0.0
 10
154.4045789685762
 20
85.38685809662488
 30
0.0
 10
154.4046026066685
 20
85.38686182916894
 30
0.0
  0
SPLINE
  5
118
330
1F
100
AcDbEntity
  8
0
  6
HIDDEN
 62
     7
370
     0
100
AcDbSpline
210
0.0
220
0.0
230
1.0
 70
     8
 71
     3
 72
    30
 73
    26
 74
     0
 42
0.00000001
 43
0.00000001
 12
1.0
 22
0.0
 32
0.0
 13
1.0
 23
0.0
 33
0.0
 40
0.0
 40
0.0
 40
0.0
 40
0.0
 40
0.0001200924626513
 40
0.0285506589118017
 40
0.0588539810213277
 40
0.0910342602666201
 40
0.1250948847788617
 40
0.1546832084144714
 40
0.1963616788805199
 40
0.2501159685090525
 40
0.3205306857931834
 40
0.3856152434111749
 40
0.4454081299925645
 40
0.4999610417312227
 40
0.5283531264086037
 40
0.55863747670244
 40
0.5908217800266903
 40
0.6249123962576548
 40
0.654187145504397
 40
0.695865386411233
 40
0.7499326780588881
 40
0.8215919071510027
 40
0.8871431650515189
 40
0.9466382823408752
 40
1.0
 40
1.0
 40
1.0
 40
1.0
 10
154.4046324089909
 20
158.2929536384417
 30
0.0
 10
154.4045981302282
 20
158.2929611151516
 30
0.0
 10
154.3964487323404
 20
158.2947386204878
 30
0.0
 10
154.4251820521729
 20
158.289269840473
 30
0.0
 10
154.4985378240067
 20
158.2787338236438
 30
0.0
 10
154.6422049792614
 20
158.2590464689081
 30
0.0
 10
154.8432369656817
 20
158.2342061772319
 30
0.0
 10
155.1258700124159
 20
158.1999956199666
 30
0.0
 10
155.5392770549821
 20
158.156321643042
 30
0.0
 10
156.2155651085938
 20
158.0932767226134
 30
0.0
 10
157.153996689569
 20
158.0319771516704
 30
0.0
 10
158.2634894402003
 20
158.0006872222206
 30
0.0
 10
159.3609698415883
 20
158.0023491332123
 30
0.0
 10
160.2610013708376
 20
158.0336459572014
 30
0.0
 10
160.9723421030336
 20
158.0804879160548
 30
0.0
 10
161.5377596972207
 20
158.127647257389
 30
0.0
 10
162.1266822349531
 20
158.1870943439626
 30
0.0
 10
162.6910923333654
 20
158.2534453049835
 30
0.0
 10
163.2852886216178
 20
158.3353657654837
 30
0.0
 10
163.9518959678603
 20
158.437017888639
 30
0.0
 10
164.7532295879791
 20
158.5791507837487
 30
0.0
 10
165.5057394540849
 20
158.7303957951776
 30
0.0
 10
166.05102525546
 20
158.8482517152888
 30
0.0
 10
166.3537467734183
 20
158.9244749866755
 30
0.0
 10
166.3880378622001
 20
158.9349294851588
 30
0.0
 10
166.404251602366
 20
158.9398726505114
 30
0.0
  0
LINE
  5
119
330
1F
100
AcDbEntity
  8
0
  6
HIDDEN
 62
     7
370
     0
100
AcDbLine
 10
198.6665591941
 20
160.7909060699
 30
0.0
 11
198.6665591941
 21
153.1899466795
 31
0.0
  0
LINE
  5
11A
330
1F
100
AcDbEntity
  8
0
  6
HIDDEN
 62
     7
370
     0
100
AcDbLine
 10
193.4945300565
 20
156.5541818422
 30
0.0
 11
193.4945300565
 21
153.1899466795
 31
0.0
  0
LINE
  5
11B
330
1F
100
AcDbEntity
  8
0
  6
HIDDEN
 62
     7
370
     0
100
AcDbLine
 10
197.3145302729
 20
156.5541818422
 30
0.0
 11
197.3145302729
 21
153.1899466795
 31
0.0
  0
CIRCLE
  5
11C
330
1F
100
AcDbEntity
  8
0
  6
HIDDEN
 62
     7
370
     0
100
AcDbCircle
 10
182.4045296804
 20
121.8399449867
 30
0.0
 40
5.0
  0
CIRCLE
  5
11D
330
1F
100
AcDbEntity
  8
0
  6
HIDDEN
 62
     7
370
     0
100
AcDbCircle
 10
249.4045296804
 20
121.8399449867
 30
0.0
 40
5.000000000000002
  0
CIRCLE
  5
11E
330
1F
100
AcDbEntity
  8
0
  6
HIDDEN
 62
     7
370
     0
100
AcDbCircle
 10
249.4045296804
 20
121.8399449867
 30
0.0
 40
2.500000000000001
  0
CIRCLE
  5
11F
330
1F
100
AcDbEntity
  8
0
  6
HIDDEN
 62
     7
370
     0
100
AcDbCircle
 10
249.4045296804
 20
121.8399449867
 30
0.0
 40
3.5
  0
LINE
  5
120
330
1F
100
AcDbEntity
  8
0
  6
HIDDEN
 62
     7
370
     0
100
AcDbLine
 10
250.057119538
 20
119.0279238076
 30
0.0
 11
252.1661032335
 21
120.9990916691
 31
0.0
  0
LINE
  5
121
330
1F
100
AcDbEntity
  8
0
  6
HIDDEN
 62
     7
370
     0
100
AcDbLine
 10
247.295539488
 20
119.8687772416
 30
0.0
 11
250.057119538
 21
119.0279238076
 31
0.0
  0
LINE
  5
122
330
1F
100
AcDbEntity
  8
0
  6
HIDDEN
 62
     7
370
     0
100
AcDbLine
 10
247.295539488
 20
119.8687772416
 30
0.0
 11
246.6429505841
 21
122.6807983043
 31
0.0
  0
LINE
  5
123
330
1F
100
AcDbEntity
  8
0
  6
HIDDEN
 62
     7
370
     0
100
AcDbLine
 10
251.5135143296
 20
123.8111127318
 30
0.0
 11
252.1661032335
 21
120.9990916691
 31
0.0
  0
LINE
  5
124
330
1F
100
AcDbEntity
  8
0
  6
HIDDEN
 62
     7
370
     0
100
AcDbLine
 10
248.7519417302
 20
124.6519661658
 30
0.0
 11
246.6429505841
 21
122.6807983043
 31
0.0
  0
LINE
  5
125
330
1F
100
AcDbEntity
  8
0
  6
HIDDEN
 62
     7
370
     0
100
AcDbLine
 10
248.7519417302
 20
124.6519661658
 30
0.0
 11
251.5135143296
 21
123.8111127318
 31
0.0
  0
LINE
  5
126
330
1F
100
AcDbEntity
  8
0
  6
HIDDEN
 62
     7
370
     0
100
AcDbLine
 10
228.9045300678
 20
138.8399459106
 30
0.0
 11
238.9045317069
 21
138.8399459106
 31
0.0
  0
LINE
  5
127
330
1F
100
AcDbEntity
  8
0
  6
HIDDEN
 62
     7
370
     0
100
AcDbLine
 10
230.4045293824
 20
137.3399447334
 30
0.0
 11
237.4045286671
 21
137.3399447334
 31
0.0
  0
LINE
  5
128
330
1F
100
AcDbEntity
  8
0
  6
HIDDEN
 62
     7
370
     0
100
AcDbLine
 10
228.9045300678
 20
149.0399453473
 30
0.0
 11
238.9045317069
 21
149.0399453473
 31
0.0
  0
LINE
  5
129
330
1F
100
AcDbEntity
  8
0
  6
HIDDEN
 62
     7
370
     0
100
AcDbLine
 10
236.0844534234
 20
143.8399448675
 30
0.0
 11
233.3556074993
 21
143.8399448675
 31
0.0
  0
LINE
  5
12A
330
1F
100
AcDbEntity
  8
0
  6
HIDDEN
 62
     7
370
     0
100
AcDbLine
 10
231.1756831006
 20
143.8399448675
 30
0.0
 11
233.3556074993
 21
143.8399448675
 31
0.0
  0
LINE
  5
12B
330
1F
100
AcDbEntity
  8
0
  6
HIDDEN
 62
     7
370
     0
100
AcDbLine
 10
233.3556074993
 20
143.8399448675
 30
0.0
 11
233.3556074993
 21
149.839945851
 31
0.0
  0
LINE
  5
12C
330
1F
100
AcDbEntity
  8
0
  6
HIDDEN
 62
     7
370
     0
100
AcDbLine
 10
236.6333786742
 20
143.8399448675
 30
0.0
 11
236.0844534234
 21
143.8399448675
 31
0.0
  0
LINE
  5
12D
330
1F
100
AcDbEntity
  8
0
  6
HIDDEN
 62
     7
370
     0
100
AcDbLine
 10
236.0844534234
 20
143.8399448675
 30
0.0
 11
236.0844534234
 21
149.839945851
 31
0.0
  0
LINE
  5
12E
330
1F
100
AcDbEntity
  8
0
  6
HIDDEN
 62
     7
370
     0
100
AcDbLine
 10
231.7246046261
 20
143.8399448675
 30
0.0
 11
231.7246046261
 21
149.839945851
 31
0.0
  0
LINE
  5
12F
330
1F
100
AcDbEntity
  8
0
  6
HIDDEN
 62
     7
370
     0
100
AcDbLine
 10
231.1756831006
 20
143.8399448675
 30
0.0
 11
231.1756831006
 21
149.839945851
 31
0.0
  0
LINE
  5
130
330
1F
100
AcDbEntity
  8
0
  6
HIDDEN
 62
     7
370
     0
100
AcDbLine
 10
234.4534542755
 20
143.8399448675
 30
0.0
 11
234.4534542755
 21
149.839945851
 31
0.0
  0
LINE
  5
131
330
1F
100
AcDbEntity
  8
0
  6
HIDDEN
 62
     7
370
     0
100
AcDbLine
 10
236.6333786742
 20
143.8399448675
 30
0.0
 11
236.6333786742
 21
149.839945851
 31
0.0
  0
LINE
  5
132
330
1F
100
AcDbEntity
  8
0
  6
HIDDEN
 62
     7
370
     0
100
AcDbLine
 10
232.4044812814
 20
119.3735324927
 30
0.0
 11
231.0185317294
 21
121.9058182182
 31
0.0
  0
LINE
  5
133
330
1F
100
AcDbEntity
  8
0
  6
HIDDEN
 62
     7
370
     0
100
AcDbLine
 10
235.2904823021
 20
119.3076593486
 30
0.0
 11
236.7905300454
 21
121.7740717552
 31
0.0
  0
LINE
  5
134
330
1F
100
AcDbEntity
  8
0
  6
HIDDEN
 62
     7
370
     0
100
AcDbLine
 10
232.4044812814
 20
119.3735324927
 30
0.0
 11
235.2904823021
 21
119.3076593486
 31
0.0
  0
LINE
  5
135
330
1F
100
AcDbEntity
  8
0
  6
HIDDEN
 62
     7
370
     0
100
AcDbLine
 10
232.5185794727
 20
124.3722306249
 30
0.0
 11
231.0185317294
 21
121.9058182182
 31
0.0
  0
LINE
  5
136
330
1F
100
AcDbEntity
  8
0
  6
HIDDEN
 62
     7
370
     0
100
AcDbLine
 10
235.4045767681
 20
124.3063574807
 30
0.0
 11
236.7905300454
 21
121.7740717552
 31
0.0
  0
LINE
  5
137
330
1F
100
AcDbEntity
  8
0
  6
HIDDEN
 62
     7
370
     0
100
AcDbLine
 10
232.5185794727
 20
124.3722306249
 30
0.0
 11
235.4045767681
 21
124.3063574807
 31
0.0
  0
CIRCLE
  5
138
330
1F
100
AcDbEntity
  8
0
  6
HIDDEN
 62
     7
370
     0
100
AcDbCircle
 10
233.9045296804
 20
121.8399449867
 30
0.0
 40
4.999999999999992
  0
CIRCLE
  5
139
330
1F
100
AcDbEntity
  8
0
  6
HIDDEN
 62
     7
370
     0
100
AcDbCircle
 10
233.9045296804
 20
121.8399449867
 30
0.0
 40
2.500000000000009
  0
CIRCLE
  5
13A
330
1F
100
AcDbEntity
  8
0
  6
HIDDEN
 62
     7
370
     0
100
AcDbCircle
 10
233.9045296804
 20
121.8399449867
 30
0.0
 40
3.499999999999989
  0
CIRCLE
  5
13B
330
1F
100
AcDbEntity
  8
0
  6
HIDDEN
 62
     7
370
     0
100
AcDbCircle
 10
264.9045296804
 20
121.8399449867
 30
0.0
 40
5.000000000000003
  0
CIRCLE
  5
13C
330
1F
100
AcDbEntity
  8
0
  6
HIDDEN
 62
     7
370
     0
100
AcDbCircle
 10
264.9045296804
 20
121.8399449867
 30
0.0
 40
2.500000000000008
  0
CIRCLE
  5
13D
330
1F
100
AcDbEntity
  8
0
  6
HIDDEN
 62
     7
370
     0
100
AcDbCircle
 10
264.9045296804
 20
121.8399449867
 30
0.0
 40
3.500000000000011
  0
LINE
  5
13E
330
1F
100
AcDbEntity
  8
0
  6
HIDDEN
 62
     7
370
     0
100
AcDbLine
 10
254.4045333163
 20
138.8399459106
 30
0.0
 11
244.4045279519
 21
138.8399459106
 31
0.0
  0
LINE
  5
13F
330
1F
100
AcDbEntity
  8
0
  6
HIDDEN
 62
     7
370
     0
100
AcDbLine
 10
245.9045309917
 20
137.3399447334
 30
0.0
 11
252.9045302764
 21
137.3399447334
 31
0.0
  0
LINE
  5
140
330
1F
100
AcDbEntity
  8
0
  6
HIDDEN
 62
     7
370
     0
100
AcDbLine
 10
254.4045333163
 20
149.0399453473
 30
0.0
 11
244.4045279519
 21
149.0399453473
 31
0.0
  0
LINE
  5
141
330
1F
100
AcDbEntity
  8
0
  6
HIDDEN
 62
     7
370
     0
100
AcDbLine
 10
248.5144172207
 20
143.8399448675
 30
0.0
 11
251.3376582757
 21
143.8399448675
 31
0.0
  0
LINE
  5
142
330
1F
100
AcDbEntity
  8
0
  6
HIDDEN
 62
     7
370
     0
100
AcDbLine
 10
248.5144172207
 20
143.8399448675
 30
0.0
 11
248.5144172207
 21
149.839945851
 31
0.0
  0
LINE
  5
143
330
1F
100
AcDbEntity
  8
0
  6
HIDDEN
 62
     7
370
     0
100
AcDbLine
 10
246.581289579
 20
143.8399448675
 30
0.0
 11
248.5144172207
 21
143.8399448675
 31
0.0
  0
LINE
  5
144
330
1F
100
AcDbEntity
  8
0
  6
HIDDEN
 62
     7
370
     0
100
AcDbLine
 10
251.3376582757
 20
143.8399448675
 30
0.0
 11
251.3376582757
 21
149.839945851
 31
0.0
  0
LINE
  5
145
330
1F
100
AcDbEntity
  8
0
  6
HIDDEN
 62
     7
370
     0
100
AcDbLine
 10
252.2277716891
 20
143.8399448675
 30
0.0
 11
251.3376582757
 21
143.8399448675
 31
0.0
  0
LINE
  5
146
330
1F
100
AcDbEntity
  8
0
  6
HIDDEN
 62
     7
370
     0
100
AcDbLine
 10
247.4713955418
 20
143.8399448675
 30
0.0
 11
247.4713955418
 21
149.839945851
 31
0.0
  0
LINE
  5
147
330
1F
100
AcDbEntity
  8
0
  6
HIDDEN
 62
     7
370
     0
100
AcDbLine
 10
246.581289579
 20
143.8399448675
 30
0.0
 11
246.581289579
 21
149.839945851
 31
0.0
  0
LINE
  5
148
330
1F
100
AcDbEntity
  8
0
  6
HIDDEN
 62
     7
370
     0
100
AcDbLine
 10
250.2946440474
 20
143.8399448675
 30
0.0
 11
250.2946440474
 21
149.839945851
 31
0.0
  0
LINE
  5
149
330
1F
100
AcDbEntity
  8
0
  6
HIDDEN
 62
     7
370
     0
100
AcDbLine
 10
252.2277716891
 20
143.8399448675
 30
0.0
 11
252.2277716891
 21
149.839945851
 31
0.0
  0
LINE
  5
14A
330
1F
100
AcDbEntity
  8
0
  6
HIDDEN
 62
     7
370
     0
100
AcDbLine
 10
264.4086588518
 20
149.0399453473
 30
0.0
 11
269.904527475
 21
149.0399453473
 31
0.0
  0
LINE
  5
14B
330
1F
100
AcDbEntity
  8
0
  6
HIDDEN
 62
     7
370
     0
100
AcDbLine
 10
259.9045295612
 20
149.0399453473
 30
0.0
 11
264.4086588518
 21
149.0399453473
 31
0.0
  0
LINE
  5
14C
330
1F
100
AcDbEntity
  8
0
  6
HIDDEN
 62
     7
370
     0
100
AcDbLine
 10
264.4086588518
 20
138.8399459106
 30
0.0
 11
269.904527475
 21
138.8399459106
 31
0.0
  0
LINE
  5
14D
330
1F
100
AcDbEntity
  8
0
  6
HIDDEN
 62
     7
370
     0
100
AcDbLine
 10
259.9045295612
 20
138.8399459106
 30
0.0
 11
264.4086588518
 21
138.8399459106
 31
0.0
  0
LINE
  5
14E
330
1F
100
AcDbEntity
  8
0
  6
HIDDEN
 62
     7
370
     0
100
AcDbLine
 10
264.557417144
 20
137.3399447334
 30
0.0
 11
268.4045318858
 21
137.3399447334
 31
0.0
  0
LINE
  5
14F
330
1F
100
AcDbEntity
  8
0
  6
HIDDEN
 62
     7
370
     0
100
AcDbLine
 10
261.404532601
 20
137.3399447334
 30
0.0
 11
264.557417144
 21
137.3399447334
 31
0.0
  0
LINE
  5
150
330
1F
100
AcDbEntity
  8
0
  6
HIDDEN
 62
     7
370
     0
100
AcDbLine
 10
267.2490585939
 20
143.8399448675
 30
0.0
 11
264.6182362334
 21
143.8399448675
 31
0.0
  0
LINE
  5
151
330
1F
100
AcDbEntity
  8
0
  6
HIDDEN
 62
     7
370
     0
100
AcDbLine
 10
262.2737098829
 20
143.8399448675
 30
0.0
 11
264.6182362334
 21
143.8399448675
 31
0.0
  0
LINE
  5
152
330
1F
100
AcDbEntity
  8
0
  6
HIDDEN
 62
     7
370
     0
100
AcDbLine
 10
264.6182362334
 20
143.8399448675
 30
0.0
 11
264.6182362334
 21
149.839945851
 31
0.0
  0
LINE
  5
153
330
1F
100
AcDbEntity
  8
0
  6
HIDDEN
 62
     7
370
     0
100
AcDbLine
 10
267.2490585939
 20
143.8399448675
 30
0.0
 11
267.5353471533
 21
143.8399448675
 31
0.0
  0
LINE
  5
154
330
1F
100
AcDbEntity
  8
0
  6
HIDDEN
 62
     7
370
     0
100
AcDbLine
 10
267.2490585939
 20
143.8399448675
 30
0.0
 11
267.2490585939
 21
149.839945851
 31
0.0
  0
LINE
  5
155
330
1F
100
AcDbEntity
  8
0
  6
HIDDEN
 62
     7
370
     0
100
AcDbLine
 10
262.5599984423
 20
143.8399448675
 30
0.0
 11
262.5599984423
 21
149.839945851
 31
0.0
  0
LINE
  5
156
330
1F
100
AcDbEntity
  8
0
  6
HIDDEN
 62
     7
370
     0
100
AcDbLine
 10
262.2737098829
 20
143.8399448675
 30
0.0
 11
262.2737098829
 21
149.839945851
 31
0.0
  0
LINE
  5
157
330
1F
100
AcDbEntity
  8
0
  6
HIDDEN
 62
     7
370
     0
100
AcDbLine
 10
265.1908208028
 20
143.8399448675
 30
0.0
 11
265.1908208028
 21
149.839945851
 31
0.0
  0
LINE
  5
158
330
1F
100
AcDbEntity
  8
0
  6
HIDDEN
 62
     7
370
     0
100
AcDbLine
 10
267.5353471533
 20
143.8399448675
 30
0.0
 11
267.5353471533
 21
149.839945851
 31
0.0
  0
LINE
  5
159
330
1F
100
AcDbEntity
  8
0
  6
HIDDEN
 62
     7
370
     0
100
AcDbLine
 10
264.4217197195
 20
118.9938550965
 30
0.0
 11
267.1279121534
 21
119.9987736913
 31
0.0
  0
LINE
  5
15A
330
1F
100
AcDbEntity
  8
0
  6
HIDDEN
 62
     7
370
     0
100
AcDbLine
 10
262.1983398096
 20
120.8350265083
 30
0.0
 11
264.4217197195
 21
118.9938550965
 31
0.0
  0
LINE
  5
15B
330
1F
100
AcDbEntity
  8
0
  6
HIDDEN
 62
     7
370
     0
100
AcDbLine
 10
267.6107246772
 20
122.8448634651
 30
0.0
 11
267.1279121534
 21
119.9987736913
 31
0.0
  0
LINE
  5
15C
330
1F
100
AcDbEntity
  8
0
  6
HIDDEN
 62
     7
370
     0
100
AcDbLine
 10
262.1983398096
 20
120.8350265083
 30
0.0
 11
262.6811523334
 21
123.6811162821
 31
0.0
  0
LINE
  5
15D
330
1F
100
AcDbEntity
  8
0
  6
HIDDEN
 62
     7
370
     0
100
AcDbLine
 10
265.3873373166
 20
124.6860348769
 30
0.0
 11
262.6811523334
 21
123.6811162821
 31
0.0
  0
LINE
  5
15E
330
1F
100
AcDbEntity
  8
0
  6
HIDDEN
 62
     7
370
     0
100
AcDbLine
 10
265.3873373166
 20
124.6860348769
 30
0.0
 11
267.6107246772
 21
122.8448634651
 31
0.0
  0
LINE
  5
15F
330
1F
100
AcDbEntity
  8
0
  6
HIDDEN
 62
     7
370
     0
100
AcDbLine
 10
175.4045296804
 20
82.4352621716
 30
0.0
 11
175.4941313012
 21
83.0728120786
 31
0.0
  0
LINE
  5
160
330
1F
100
AcDbEntity
  8
0
  6
HIDDEN
 62
     7
370
     0
100
AcDbLine
 10
175.4941313012
 20
160.6070778948
 30
0.0
 11
175.4045296804
 21
161.2446278018
 31
0.0
  0
ARC
  5
161
330
1F
100
AcDbEntity
  8
0
  6
HIDDEN
 62
     7
370
     0
100
AcDbCircle
 10
174.5075927619
 20
83.2114596623
 30
0.0
 40
0.9962338214386983
100
AcDbArc
 50
352.0
 51
0.0
  0
ARC
  5
162
330
1F
100
AcDbEntity
  8
0
  6
HIDDEN
 62
     7
370
     0
100
AcDbCircle
 10
174.5075927619
 20
83.2114596623
 30
0.0
 40
0.9962338214386983
100
AcDbArc
 50
0.0
 51
25.7988228126
  0
ARC
  5
163
330
1F
100
AcDbEntity
  8
0
  6
HIDDEN
 62
     7
370
     0
100
AcDbCircle
 10
174.5075927619
 20
160.4684303112
 30
0.0
 40
0.9962338214386963
100
AcDbArc
 50
348.75
 51
8.0
  0
LWPOLYLINE
  5
164
330
1F
100
AcDbEntity
  8
0
  6
HIDDEN
 62
     7
370
     0
100
AcDbPolyline
 90
        3
 70
   128
 43
0.0
 10
175.484684227
 20
160.274074195
 10
175.4279927992
 20
160.0871875566
 10
175.4045296804
 20
160.0348584038
  0
LINE
  5
165
330
1F
100
AcDbEntity
  8
0
  6
HIDDEN
 62
     7
370
     0
100
AcDbLine
 10
175.5038265802
 20
83.2114599329
 30
0.0
 11
175.5038265802
 21
160.4684300405
 31
0.0
  0
ARC
  5
166
330
1F
100
AcDbEntity
  8
0
  6
HIDDEN
 62
     7
370
     0
100
AcDbCircle
 10
148.8652556225
 20
91.3399449867
 30
0.0
 40
1.000000000000008
100
AcDbArc
 50
210.0
 51
270.0
  0
ARC
  5
167
330
1F
100
AcDbEntity
  8
0
  6
HIDDEN
 62
     7
370
     0
100
AcDbCircle
 10
148.8652556225
 20
152.3399449867
 30
0.0
 40
1.000000000000008
100
AcDbArc
 50
90.0
 51
150.0
  0
LINE
  5
168
330
1F
100
AcDbEntity
  8
0
  6
HIDDEN
 62
     7
370
     0
100
AcDbLine
 10
148.8652561203
 20
90.3399444801
 30
0.0
 11
154.4503603474
 21
90.3399444801
 31
0.0
  0
LINE
  5
169
330
1F
100
AcDbEntity
  8
0
  6
HIDDEN
 62
     7
370
     0
100
AcDbLine
 10
154.4503603474
 20
153.3399454933
 30
0.0
 11
148.8652561203
 21
153.3399454933
 31
0.0
  0
ARC
  5
16A
330
1F
100
AcDbEntity
  8
0
  6
HIDDEN
 62
     7
370
     0
100
AcDbCircle
 10
165.6577353356
 20
102.3399449867
 30
0.0
 40
12.0
100
AcDbArc
 50
273.1716058394
 51
324.3146652873
  0
ARC
  5
16B
330
1F
100
AcDbEntity
  8
0
  6
HIDDEN
 62
     7
370
     0
100
AcDbCircle
 10
165.6577353356
 20
141.3399449867
 30
0.0
 40
12.0
100
AcDbArc
 50
35.6853347127
 51
86.8289623664
  0
LINE
  5
16C
330
1F
100
AcDbEntity
  8
0
  6
HIDDEN
 62
     7
370
     0
100
AcDbLine
 10
147.9992304341
 20
152.8399444801
 30
0.0
 11
145.4011533753
 21
148.3399446738
 31
0.0
  0
LINE
  5
16D
330
1F
100
AcDbEntity
  8
0
  6
HIDDEN
 62
     7
370
     0
100
AcDbLine
 10
145.4011533753
 20
95.3399452996
 30
0.0
 11
147.9992304341
 21
90.8399454933
 31
0.0
  0
ARC
  5
16E
330
1F
100
AcDbEntity
  8
0
  6
HIDDEN
 62
     7
370
     0
100
AcDbCircle
 10
185.8545296804
 20
96.9649449867
 30
0.0
 40
2.000000000000008
100
AcDbArc
 50
234.3409123039
 51
0.0
  0
ARC
  5
16F
330
1F
100
AcDbEntity
  8
0
  6
HIDDEN
 62
     7
370
     0
100
AcDbCircle
 10
185.8545296804
 20
146.7149449867
 30
0.0
 40
2.00000000000002
100
AcDbArc
 50
0.0
 51
125.6590876961
  0
LINE
  5
170
330
1F
100
AcDbEntity
  8
0
  6
HIDDEN
 62
     7
370
     0
100
AcDbLine
 10
175.4045296804
 20
95.3399452996
 30
0.0
 11
184.6886068926
 21
95.3399452996
 31
0.0
  0
LINE
  5
171
330
1F
100
AcDbEntity
  8
0
  6
HIDDEN
 62
     7
370
     0
100
AcDbLine
 10
184.6886068926
 20
148.3399446738
 30
0.0
 11
175.4045296804
 21
148.3399446738
 31
0.0
  0
LINE
  5
172
330
1F
100
AcDbEntity
  8
0
  6
HIDDEN
 62
     7
370
     0
100
AcDbLine
 10
140.6045291916
 20
95.3399452996
 30
0.0
 11
145.4011533753
 21
95.3399452996
 31
0.0
  0
LINE
  5
173
330
1F
100
AcDbEntity
  8
0
  6
HIDDEN
 62
     7
370
     0
100
AcDbLine
 10
145.4011533753
 20
148.3399446738
 30
0.0
 11
135.6045302347
 21
148.3399446738
 31
0.0
  0
ARC
  5
174
330
1F
100
AcDbEntity
  8
0
  6
HIDDEN
 62
     7
370
     0
100
AcDbCircle
 10
274.9045296804
 20
138.3399449867
 30
0.0
 40
0.5000000000000568
100
AcDbArc
 50
270.0
 51
0.0
  0
ARC
  5
175
330
1F
100
AcDbEntity
  8
0
  6
HIDDEN
 62
     7
370
     0
100
AcDbCircle
 10
274.9045296804
 20
105.3399449867
 30
0.0
 40
0.5000000000000568
100
AcDbArc
 50
0.0
 51
90.0
  0
LINE
  5
176
330
1F
100
AcDbEntity
  8
0
  6
HIDDEN
 62
     7
370
     0
100
AcDbLine
 10
214.580285956
 20
138.139945237
 30
0.0
 11
209.8045308486
 21
138.139945237
 31
0.0
  0
LINE
  5
177
330
1F
100
AcDbEntity
  8
0
  6
HIDDEN
 62
     7
370
     0
100
AcDbLine
 10
209.8045308486
 20
105.5399447364
 30
0.0
 11
214.580285956
 21
105.5399447364
 31
0.0
  0
ARC
  5
178
330
1F
100
AcDbEntity
  8
0
  6
HIDDEN
 62
     7
370
     0
100
AcDbCircle
 10
209.8045296804
 20
137.7399449867
 30
0.0
 40
0.4000000000000057
100
AcDbArc
 50
90.0
 51
180.0
  0
ARC
  5
179
330
1F
100
AcDbEntity
  8
0
  6
HIDDEN
 62
     7
370
     0
100
AcDbCircle
 10
209.8045296804
 20
105.9399449867
 30
0.0
 40
0.4000000000000199
100
AcDbArc
 50
180.0
 51
270.0
  0
LINE
  5
17A
330
1F
100
AcDbEntity
  8
0
  6
HIDDEN
 62
     7
370
     0
100
AcDbLine
 10
214.580285956
 20
105.5399447364
 30
0.0
 11
215.4045287863
 21
105.8399442267
 31
0.0
  0
LINE
  5
17B
330
1F
100
AcDbEntity
  8
0
  6
HIDDEN
 62
     7
370
     0
100
AcDbLine
 10
215.4045287863
 20
137.8399457467
 30
0.0
 11
214.580285956
 21
138.139945237
 31
0.0
  0
LINE
  5
17C
330
1F
100
AcDbEntity
  8
0
  6
HIDDEN
 62
     7
370
     0
100
AcDbLine
 10
229.4565137819
 20
137.8399457467
 30
0.0
 11
215.4045287863
 21
137.8399457467
 31
0.0
  0
LINE
  5
17D
330
1F
100
AcDbEntity
  8
0
  6
HIDDEN
 62
     7
370
     0
100
AcDbLine
 10
244.956511666
 20
137.8399457467
 30
0.0
 11
238.3727986709
 21
137.8399457467
 31
0.0
  0
LINE
  5
17E
330
1F
100
AcDbEntity
  8
0
  6
HIDDEN
 62
     7
370
     0
100
AcDbLine
 10
260.4565132753
 20
137.8399457467
 30
0.0
 11
253.8728002802
 21
137.8399457467
 31
0.0
  0
LINE
  5
17F
330
1F
100
AcDbEntity
  8
0
  6
HIDDEN
 62
     7
370
     0
100
AcDbLine
 10
274.9045301572
 20
137.8399457467
 30
0.0
 11
269.372794439
 21
137.8399457467
 31
0.0
  0
LINE
  5
180
330
1F
100
AcDbEntity
  8
0
  6
HIDDEN
 62
     7
370
     0
100
AcDbLine
 10
215.4045287863
 20
105.8399442267
 30
0.0
 11
274.9045301572
 21
105.8399442267
 31
0.0
  0
LINE
  5
181
330
1F
100
AcDbEntity
  8
0
  6
HIDDEN
 62
     7
370
     0
100
AcDbLine
 10
199.7045293794
 20
108.8399447185
 30
0.0
 11
203.704530035
 21
108.8399447185
 31
0.0
  0
LINE
  5
182
330
1F
100
AcDbEntity
  8
0
  6
HIDDEN
 62
     7
370
     0
100
AcDbLine
 10
203.704530035
 20
134.8399452549
 30
0.0
 11
199.7045293794
 21
134.8399452549
 31
0.0
  0
LINE
  5
183
330
1F
100
AcDbEntity
  8
0
  6
HIDDEN
 62
     7
370
     0
100
AcDbLine
 10
187.8545299516
 20
109.8399448824
 30
0.0
 11
188.6045296089
 21
110.5899445397
 31
0.0
  0
LINE
  5
184
330
1F
100
AcDbEntity
  8
0
  6
HIDDEN
 62
     7
370
     0
100
AcDbLine
 10
188.6045296089
 20
133.0899454337
 30
0.0
 11
187.8545299516
 21
133.839945091
 31
0.0
  0
LINE
  5
185
330
1F
100
AcDbEntity
  8
0
  6
HIDDEN
 62
     7
370
     0
100
AcDbLine
 10
188.6045296089
 20
110.5899445397
 30
0.0
 11
199.7045293794
 21
110.5899445397
 31
0.0
  0
LINE
  5
186
330
1F
100
AcDbEntity
  8
0
  6
HIDDEN
 62
     7
370
     0
100
AcDbLine
 10
199.7045293794
 20
133.0899454337
 30
0.0
 11
188.6045296089
 21
133.0899454337
 31
0.0
  0
LINE
  5
187
330
1F
100
AcDbEntity
  8
0
  6
HIDDEN
 62
     7
370
     0
100
AcDbLine
 10
180.3545296536
 20
171.8399457318
 30
0.0
 11
180.3545296536
 21
165.7399467808
 31
0.0
  0
LINE
  5
188
330
1F
100
AcDbEntity
  8
0
  6
HIDDEN
 62
     7
370
     0
100
AcDbLine
 10
166.8372420938
 20
84.2616639716
 30
0.0
 11
166.4045328618
 21
84.739890663
 31
0.0
  0
LINE
  5
189
330
1F
100
AcDbEntity
  8
0
  6
HIDDEN
 62
     7
370
     0
100
AcDbLine
 10
154.4045299635
 20
85.3868506533
 30
0.0
 11
153.9239023224
 21
84.9086276871
 31
0.0
  0
LINE
  5
18A
330
1F
100
AcDbEntity
  8
0
  6
HIDDEN
 62
     7
370
     0
100
AcDbLine
 10
153.9237849758
 20
158.771258561
 30
0.0
 11
154.4045299635
 21
158.2929759902
 31
0.0
  0
LINE
  5
18B
330
1F
100
AcDbEntity
  8
0
  6
HIDDEN
 62
     7
370
     0
100
AcDbLine
 10
166.4045300678
 20
158.9399508816
 30
0.0
 11
166.8373510585
 21
159.4182297272
 31
0.0
  0
LINE
  5
18C
330
1F
100
AcDbEntity
  8
0
  6
HIDDEN
 62
     7
370
     0
100
AcDbLine
 10
166.4045300678
 20
153.3058218342
 30
0.0
 11
166.4045300678
 21
159.0399525744
 31
0.0
  0
LINE
  5
18D
330
1F
100
AcDbEntity
  8
0
  6
HIDDEN
 62
     7
370
     0
100
AcDbLine
 10
154.4045299635
 20
158.2929685396
 30
0.0
 11
154.4045299635
 21
153.3314667326
 31
0.0
  0
LINE
  5
18E
330
1F
100
AcDbEntity
  8
0
  6
HIDDEN
 62
     7
370
     0
100
AcDbLine
 10
166.4045300678
 20
84.6397623104
 30
0.0
 11
166.4045300678
 21
90.3740681392
 31
0.0
  0
LINE
  5
18F
330
1F
100
AcDbEntity
  8
0
  6
HIDDEN
 62
     7
370
     0
100
AcDbLine
 10
154.4045299635
 20
90.3484232408
 30
0.0
 11
154.4045299635
 21
85.3868916315
 31
0.0
  0
LINE
  5
190
330
1F
100
AcDbEntity
  8
0
  6
HIDDEN
 62
     7
370
     0
100
AcDbLine
 10
203.704530035
 20
115.8399449346
 30
0.0
 11
209.4045315281
 21
115.8399449346
 31
0.0
  0
LINE
  5
191
330
1F
100
AcDbEntity
  8
0
  6
HIDDEN
 62
     7
370
     0
100
AcDbLine
 10
209.4045315281
 20
127.8399450389
 30
0.0
 11
203.704530035
 21
127.8399450389
 31
0.0
  0
LINE
  5
192
330
1F
100
AcDbEntity
  8
0
  6
HIDDEN
 62
     7
370
     0
100
AcDbLine
 10
260.4045305745
 20
149.839945851
 30
0.0
 11
260.4045305745
 21
137.8255344611
 31
0.0
  0
LINE
  5
193
330
1F
100
AcDbEntity
  8
0
  6
HIDDEN
 62
     7
370
     0
100
AcDbLine
 10
269.4045264617
 20
137.8312583697
 30
0.0
 11
269.4045264617
 21
149.839945851
 31
0.0
  0
LINE
  5
194
330
1F
100
AcDbEntity
  8
0
  6
HIDDEN
 62
     7
370
     0
100
AcDbLine
 10
244.9045289651
 20
149.839945851
 30
0.0
 11
244.9045289651
 21
137.8255344611
 31
0.0
  0
LINE
  5
195
330
1F
100
AcDbEntity
  8
0
  6
HIDDEN
 62
     7
370
     0
100
AcDbLine
 10
253.904532303
 20
137.8312583697
 30
0.0
 11
253.904532303
 21
149.839945851
 31
0.0
  0
LINE
  5
196
330
1F
100
AcDbEntity
  8
0
  6
HIDDEN
 62
     7
370
     0
100
AcDbLine
 10
229.4045310811
 20
149.839945851
 30
0.0
 11
229.4045310811
 21
137.8255344611
 31
0.0
  0
LINE
  5
197
330
1F
100
AcDbEntity
  8
0
  6
HIDDEN
 62
     7
370
     0
100
AcDbLine
 10
238.4045306937
 20
137.8312583697
 30
0.0
 11
238.4045306937
 21
149.839945851
 31
0.0
  0
LINE
  5
198
330
1F
100
AcDbEntity
  8
0
  6
HIDDEN
 62
     7
370
     0
100
AcDbLine
 10
228.9045300678
 20
138.8399459106
 30
0.0
 11
230.4045293824
 21
137.3399447334
 31
0.0
  0
LINE
  5
199
330
1F
100
AcDbEntity
  8
0
  6
HIDDEN
 62
     7
370
     0
100
AcDbLine
 10
237.4045286671
 20
137.3399447334
 30
0.0
 11
238.9045317069
 21
138.8399459106
 31
0.0
  0
LINE
  5
19A
330
1F
100
AcDbEntity
  8
0
  6
HIDDEN
 62
     7
370
     0
100
AcDbLine
 10
228.9045300678
 20
149.0399453473
 30
0.0
 11
228.9045300678
 21
138.8399459106
 31
0.0
  0
LINE
  5
19B
330
1F
100
AcDbEntity
  8
0
  6
HIDDEN
 62
     7
370
     0
100
AcDbLine
 10
238.9045317069
 20
138.8399459106
 30
0.0
 11
238.9045317069
 21
149.0399453473
 31
0.0
  0
LINE
  5
19C
330
1F
100
AcDbEntity
  8
0
  6
HIDDEN
 62
     7
370
     0
100
AcDbLine
 10
238.9045317069
 20
149.0399453473
 30
0.0
 11
238.1045330659
 21
149.839945851
 31
0.0
  0
LINE
  5
19D
330
1F
100
AcDbEntity
  8
0
  6
HIDDEN
 62
     7
370
     0
100
AcDbLine
 10
229.7045287088
 20
149.839945851
 30
0.0
 11
228.9045300678
 21
149.0399453473
 31
0.0
  0
LINE
  5
19E
330
1F
100
AcDbEntity
  8
0
  6
HIDDEN
 62
     7
370
     0
100
AcDbLine
 10
236.4045303658
 20
137.3399447334
 30
0.0
 11
233.9045290247
 21
138.783321498
 31
0.0
  0
LINE
  5
19F
330
1F
100
AcDbEntity
  8
0
  6
HIDDEN
 62
     7
370
     0
100
AcDbLine
 10
233.9045290247
 20
138.783321498
 30
0.0
 11
231.4045314089
 21
137.3399447334
 31
0.0
  0
LINE
  5
1A0
330
1F
100
AcDbEntity
  8
0
  6
HIDDEN
 62
     7
370
     0
100
AcDbLine
 10
244.4045279519
 20
138.8399459106
 30
0.0
 11
245.9045309917
 21
137.3399447334
 31
0.0
  0
LINE
  5
1A1
330
1F
100
AcDbEntity
  8
0
  6
HIDDEN
 62
     7
370
     0
100
AcDbLine
 10
252.9045302764
 20
137.3399447334
 30
0.0
 11
254.4045333163
 21
138.8399459106
 31
0.0
  0
LINE
  5
1A2
330
1F
100
AcDbEntity
  8
0
  6
HIDDEN
 62
     7
370
     0
100
AcDbLine
 10
244.4045279519
 20
149.0399453473
 30
0.0
 11
244.4045279519
 21
138.8399459106
 31
0.0
  0
LINE
  5
1A3
330
1F
100
AcDbEntity
  8
0
  6
HIDDEN
 62
     7
370
     0
100
AcDbLine
 10
254.4045333163
 20
138.8399459106
 30
0.0
 11
254.4045333163
 21
149.0399453473
 31
0.0
  0
LINE
  5
1A4
330
1F
100
AcDbEntity
  8
0
  6
HIDDEN
 62
     7
370
     0
100
AcDbLine
 10
254.4045333163
 20
149.0399453473
 30
0.0
 11
253.6045272247
 21
149.839945851
 31
0.0
  0
LINE
  5
1A5
330
1F
100
AcDbEntity
  8
0
  6
HIDDEN
 62
     7
370
     0
100
AcDbLine
 10
245.2045265929
 20
149.839945851
 30
0.0
 11
244.4045279519
 21
149.0399453473
 31
0.0
  0
LINE
  5
1A6
330
1F
100
AcDbEntity
  8
0
  6
HIDDEN
 62
     7
370
     0
100
AcDbLine
 10
251.9045282499
 20
137.3399447334
 30
0.0
 11
249.4045306341
 21
138.783321498
 31
0.0
  0
LINE
  5
1A7
330
1F
100
AcDbEntity
  8
0
  6
HIDDEN
 62
     7
370
     0
100
AcDbLine
 10
249.4045306341
 20
138.783321498
 30
0.0
 11
246.9045330182
 21
137.3399447334
 31
0.0
  0
LINE
  5
1A8
330
1F
100
AcDbEntity
  8
0
  6
HIDDEN
 62
     7
370
     0
100
AcDbLine
 10
269.904527475
 20
149.0399453473
 30
0.0
 11
269.104528834
 21
149.839945851
 31
0.0
  0
LINE
  5
1A9
330
1F
100
AcDbEntity
  8
0
  6
HIDDEN
 62
     7
370
     0
100
AcDbLine
 10
260.7045282022
 20
149.839945851
 30
0.0
 11
259.9045295612
 21
149.0399453473
 31
0.0
  0
LINE
  5
1AA
330
1F
100
AcDbEntity
  8
0
  6
HIDDEN
 62
     7
370
     0
100
AcDbLine
 10
259.9045295612
 20
138.8399459106
 30
0.0
 11
261.404532601
 21
137.3399447334
 31
0.0
  0
LINE
  5
1AB
330
1F
100
AcDbEntity
  8
0
  6
HIDDEN
 62
     7
370
     0
100
AcDbLine
 10
268.4045318858
 20
137.3399447334
 30
0.0
 11
269.904527475
 21
138.8399459106
 31
0.0
  0
LINE
  5
1AC
330
1F
100
AcDbEntity
  8
0
  6
HIDDEN
 62
     7
370
     0
100
AcDbLine
 10
259.9045295612
 20
149.0399453473
 30
0.0
 11
259.9045295612
 21
138.8399459106
 31
0.0
  0
LINE
  5
1AD
330
1F
100
AcDbEntity
  8
0
  6
HIDDEN
 62
     7
370
     0
100
AcDbLine
 10
269.904527475
 20
138.8399459106
 30
0.0
 11
269.904527475
 21
149.0399453473
 31
0.0
  0
LINE
  5
1AE
330
1F
100
AcDbEntity
  8
0
  6
HIDDEN
 62
     7
370
     0
100
AcDbLine
 10
267.4045298592
 20
137.3399447334
 30
0.0
 11
264.9045322434
 21
138.783321498
 31
0.0
  0
LINE
  5
1AF
330
1F
100
AcDbEntity
  8
0
  6
HIDDEN
 62
     7
370
     0
100
AcDbLine
 10
264.9045322434
 20
138.783321498
 30
0.0
 11
262.404527177
 21
137.3399447334
 31
0.0
  0
DIMENSION
  5
1B0
330
1F
100
AcDbEntity
  8
VERMASSUNG
100
AcDbDimension
  2
_D
 10
117.6213235943
 20
71.8399449867
 30
0.0
 11
117.6213235943
 21
121.2580971095
 31
0.0
 70
   160
  1
HSK T %%c<>
 71
     2
 42
-1.0
  3
SLDDIMSTYLE0
100
AcDbAlignedDimension
 13
175.9045296804
 23
171.8399449867
 33
0.0
 14
175.9045296804
 24
71.8399449867
 34
0.0
 50
90.0
100
AcDbRotatedDimension
  0
DIMENSION
  5
1BD
330
1F
100
AcDbEntity
  8
VERMASSUNG
100
AcDbDimension
  2
_D_1
 10
125.5045296804
 20
189.3758433441
 30
0.0
 11
207.3345206612
 21
189.3758433441
 31
0.0
 70
   160
  1
<>
 71
     2
 42
-1.0
  3
SLDDIMSTYLE0
100
AcDbAlignedDimension
 13
275.4045296804
 23
148.8399449867
 33
0.0
 14
125.5045296804
 24
152.4204845332
 34
0.0
100
AcDbRotatedDimension
  0
DIMENSION
  5
1C7
330
1F
100
AcDbEntity
  8
VERMASSUNG
100
AcDbDimension
  2
_D_2
 10
275.4045296804
 20
183.3758433441
 30
0.0
 11
224.1312876074
 21
183.3758433441
 31
0.0
 70
   160
  1
<>
 71
     2
 42
-1.0
  3
SLDDIMSTYLE0
100
AcDbAlignedDimension
 13
175.4045296804
 23
171.3399449867
 33
0.0
 14
275.4045296804
 24
148.8399449867
 34
0.0
100
AcDbRotatedDimension
  0
DIMENSION
  5
1D1
330
1F
100
AcDbEntity
  8
VERMASSUNG
100
AcDbDimension
  2
_D_3
 10
275.4045296804
 20
177.3758433441
 30
0.0
 11
241.4150771982
 21
177.3758433441
 31
0.0
 70
   160
  1
<>
 71
     2
 42
-1.0
  3
SLDDIMSTYLE0
100
AcDbAlignedDimension
 13
204.3545296804
 23
169.8086848076
 33
0.0
 14
275.4045296804
 24
148.8399449867
 34
0.0
100
AcDbRotatedDimension
  0
DIMENSION
  5
1DB
330
1F
100
AcDbEntity
  8
VERMASSUNG
100
AcDbDimension
  2
_D_4
 10
275.4045296804
 20
85.945439606
 30
0.0
 11
270.8421743362
 21
85.945439606
 31
0.0
 70
   160
  1
<>
 71
     2
 42
-1.0
  3
SLDDIMSTYLE0
100
AcDbAlignedDimension
 13
264.9045296804
 23
136.8399449867
 33
0.0
 14
275.4045296804
 24
94.8399449867
 34
0.0
100
AcDbRotatedDimension
  0
DIMENSION
  5
1E5
330
1F
100
AcDbEntity
  8
VERMASSUNG
100
AcDbDimension
  2
_D_5
 10
249.4045296804
 20
85.945439606
 30
0.0
 11
257.6844895066
 21
85.945439606
 31
0.0
 70
   160
  1
<>
 71
     2
 42
-1.0
  3
SLDDIMSTYLE0
100
AcDbAlignedDimension
 13
264.9045296804
 23
136.8399449867
 33
0.0
 14
249.4045296804
 24
136.8399449867
 34
0.0
100
AcDbRotatedDimension
  0
DIMENSION
  5
1EF
330
1F
100
AcDbEntity
  8
VERMASSUNG
100
AcDbDimension
  2
_D_6
 10
233.9045296804
 20
85.945439606
 30
0.0
 11
242.1685228662
 21
85.945439606
 31
0.0
 70
   160
  1
<>
 71
     2
 42
-1.0
  3
SLDDIMSTYLE0
100
AcDbAlignedDimension
 13
249.4045296804
 23
136.8399449867
 33
0.0
 14
233.9045296804
 24
136.8399449867
 34
0.0
100
AcDbRotatedDimension
  0
DIMENSION
  5
1F9
330
1F
100
AcDbEntity
  8
VERMASSUNG
100
AcDbDimension
  2
_D_7
 10
275.4045296804
 20
79.945439606
 30
0.0
 11
244.4350913636
 21
79.945439606
 31
0.0
 70
   160
  1
<>
 71
     2
 42
-1.0
  3
SLDDIMSTYLE0
100
AcDbAlignedDimension
 13
209.4045296804
 23
105.9399449867
 33
0.0
 14
275.4045296804
 24
94.8399449867
 34
0.0
100
AcDbRotatedDimension
  0
DIMENSION
  5
203
330
1F
100
AcDbEntity
  8
VERMASSUNG
100
AcDbDimension
  2
_D_8
 10
289.8602853979
 20
93.8399449867
 30
0.0
 11
289.8602853979
 21
122.6241936652
 31
0.0
 70
   160
  1
%%c<>
 71
     2
 42
-1.0
  3
SLDDIMSTYLE0
100
AcDbAlignedDimension
 13
274.4045296804
 23
149.8399449867
 33
0.0
 14
274.4045296804
 24
93.8399449867
 34
0.0
 50
90.0
100
AcDbRotatedDimension
  0
DIMENSION
  5
20E
330
1F
100
AcDbEntity
  8
VERMASSUNG
100
AcDbDimension
  2
_D_9
 10
283.8602853979
 20
105.8399449867
 30
0.0
 11
283.8602853979
 21
122.3955030342
 31
0.0
 70
   160
  1
%%c<>
 71
     2
 42
-1.0
  3
SLDDIMSTYLE0
100
AcDbAlignedDimension
 13
274.9045296804
 23
137.8399449867
 33
0.0
 14
274.9045296804
 24
105.8399449867
 34
0.0
 50
90.0
100
AcDbRotatedDimension
  0
LINE
  5
219
330
1F
100
AcDbEntity
  8
VERMASSUNG
  6
CENTERX2
 62
     7
370
     0
100
AcDbLine
 10
123.1971806299
 20
121.8399449867
 30
0.0
 11
278.273192384
 21
121.8399449867
 31
0.0
  0
LINE
  5
21A
330
1F
100
AcDbEntity
  8
VERMASSUNG
  6
CENTERX2
370
     0
100
AcDbLine
 10
233.9045296804
 20
136.8399449867
 30
0.0
 11
233.9045296804
 21
151.0399449867
 31
0.0
  0
LINE
  5
21B
330
1F
100
AcDbEntity
  8
VERMASSUNG
  6
CENTERX2
370
     0
100
AcDbLine
 10
249.4045296804
 20
136.8399449867
 30
0.0
 11
249.4045296804
 21
151.0399449867
 31
0.0
  0
LINE
  5
21C
330
1F
100
AcDbEntity
  8
VERMASSUNG
  6
CENTERX2
370
     0
100
AcDbLine
 10
264.9045296804
 20
151.0399449867
 30
0.0
 11
264.9045296804
 21
136.8399449867
 31
0.0
  0
LINE
  5
21D
330
1F
100
AcDbEntity
  8
0
  6
Continuous
 62
     7
370
    15
100
AcDbLine
 10
42.4628296781
 20
118.2482820154
 30
0.0
 11
42.5544932399
 21
118.3399448787
 31
0.0
  0
LINE
  5
21E
330
1F
100
AcDbEntity
  8
0
  6
Continuous
 62
     7
370
    15
100
AcDbLine
 10
42.5544932399
 20
125.3399450947
 30
0.0
 11
42.4628296781
 21
125.431607958
 31
0.0
  0
LINE
  5
21F
330
1F
100
AcDbEntity
  8
0
  6
Continuous
 62
     7
370
    15
100
AcDbLine
 10
30.4310388777
 20
126.4164906611
 30
0.0
 11
30.0544921223
 21
126.039944837
 31
0.0
  0
LINE
  5
220
330
1F
100
AcDbEntity
  8
0
  6
Continuous
 62
     7
370
    15
100
AcDbLine
 10
30.0544921223
 20
117.6399451365
 30
0.0
 11
30.4310388777
 21
117.2633993124
 31
0.0
  0
LINE
  5
221
330
1F
100
AcDbEntity
  8
0
  6
Continuous
 62
     7
370
    15
100
AcDbLine
 10
54.4628300152
 20
137.4316082951
 30
0.0
 11
54.5544928785
 21
137.3399447334
 31
0.0
  0
LINE
  5
222
330
1F
100
AcDbEntity
  8
0
  6
Continuous
 62
     7
370
    15
100
AcDbLine
 10
61.5544930946
 20
137.3399447334
 30
0.0
 11
61.6461559578
 21
137.4316082951
 31
0.0
  0
LINE
  5
223
330
1F
100
AcDbEntity
  8
0
  6
Continuous
 62
     7
370
    15
100
AcDbLine
 10
62.6310386609
 20
149.4633990955
 30
0.0
 11
62.2544928368
 21
149.839945851
 31
0.0
  0
LINE
  5
224
330
1F
100
AcDbEntity
  8
0
  6
Continuous
 62
     7
370
    15
100
AcDbLine
 10
53.8544931363
 20
149.839945851
 30
0.0
 11
53.4779473122
 21
149.4633990955
 31
0.0
  0
LINE
  5
225
330
1F
100
AcDbEntity
  8
0
  6
Continuous
 62
     7
370
    15
100
AcDbLine
 10
85.6779470954
 20
117.2633993124
 30
0.0
 11
86.0544938508
 21
117.6399451365
 31
0.0
  0
LINE
  5
226
330
1F
100
AcDbEntity
  8
0
  6
Continuous
 62
     7
370
    15
100
AcDbLine
 10
86.0544938508
 20
126.039944837
 30
0.0
 11
85.6779470954
 21
126.4164906611
 31
0.0
  0
LINE
  5
227
330
1F
100
AcDbEntity
  8
0
  6
Continuous
 62
     7
370
    15
100
AcDbLine
 10
73.646156295
 20
125.431607958
 30
0.0
 11
73.5544927332
 21
125.3399450947
 31
0.0
  0
LINE
  5
228
330
1F
100
AcDbEntity
  8
0
  6
Continuous
 62
     7
370
    15
100
AcDbLine
 10
73.5544927332
 20
118.3399448787
 30
0.0
 11
73.646156295
 21
118.2482820154
 31
0.0
  0
CIRCLE
  5
229
330
1F
100
AcDbEntity
  8
0
  6
Continuous
 62
     7
370
    15
100
AcDbCircle
 10
58.0544929865
 20
121.8399449867
 30
0.0
 40
27.99999999999999
  0
CIRCLE
  5
22A
330
1F
100
AcDbEntity
  8
0
  6
Continuous
 62
     7
370
    15
100
AcDbCircle
 10
58.0544929865
 20
121.8399449867
 30
0.0
 40
15.99999999999999
  0
CIRCLE
  5
22B
330
1F
100
AcDbEntity
  8
0
  6
Continuous
 62
     7
370
    15
100
AcDbCircle
 10
58.0544929865
 20
121.8399449867
 30
0.0
 40
5.999999999999993
  0
SPLINE
  5
22C
330
1F
100
AcDbEntity
  8
0
  6
Continuous
 62
     7
370
    15
100
AcDbSpline
210
0.0
220
0.0
230
1.0
 70
    24
 71
     3
 72
    12
 73
     8
 74
     0
 42
0.00000001
 43
0.00000001
 12
1.0
 22
0.0
 32
0.0
 13
1.0
 23
0.0
 33
0.0
 40
0.0
 40
0.0
 40
0.0
 40
0.0
 40
0.4999999999999953
 40
0.4999999999999953
 40
0.7499999999999977
 40
0.7499999999999977
 40
1.0
 40
1.0
 40
1.0
 40
1.0
 10
48.05449298653398
 20
169.8086848075541
 30
0.0
 10
48.05449298653399
 20
170.0739542403205
 30
0.0
 10
48.05449298653399
 20
170.3364693459729
 30
0.0
 10
48.05449298653398
 20
170.6220069520102
 30
0.0
 10
48.05449298653398
 20
170.6983285688716
 30
0.0
 10
48.05449298653398
 20
170.8026707337118
 30
0.0
 10
48.05449298653398
 20
170.8297398423719
 30
0.0
 10
48.05449298653398
 20
170.8297398423719
 30
0.0
  0
SPLINE
  5
22D
330
1F
100
AcDbEntity
  8
0
  6
Continuous
 62
     7
370
    15
100
AcDbSpline
210
0.0
220
0.0
230
1.0
 70
    24
 71
     3
 72
    16
 73
    12
 74
     0
 42
0.00000001
 43
0.00000001
 12
1.0
 22
0.0
 32
0.0
 13
1.0
 23
0.0
 33
0.0
 40
0.0
 40
0.0
 40
0.0
 40
0.0
 40
0.1249999999999978
 40
0.1249999999999978
 40
0.2499999999999955
 40
0.2499999999999955
 40
0.499999999999997
 40
0.499999999999997
 40
0.7499999999999984
 40
0.7499999999999984
 40
1.0
 40
1.0
 40
1.0
 40
1.0
 10
26.70449298653397
 20
160.7909077475952
 30
0.0
 10
26.70449298653397
 20
160.7909077475952
 30
0.0
 10
26.70449298653397
 20
160.7795627474603
 30
0.0
 10
26.70449298653397
 20
160.7369101968218
 30
0.0
 10
26.70449298653395
 20
160.7059758721389
 30
0.0
 10
26.70449298653397
 20
160.5867195003713
 30
0.0
 10
26.70449298653396
 20
160.4765674867508
 30
0.0
 10
26.70449298653396
 20
160.2284314010927
 30
0.0
 10
26.70449298653396
 20
160.088089077089
 30
0.0
 10
26.70449298653397
 20
159.7998173856004
 30
0.0
 10
26.70449298653398
 20
159.6490124126206
 30
0.0
 10
26.70449298653397
 20
159.4986425212753
 30
0.0
  0
ARC
  5
22E
330
1F
100
AcDbEntity
  8
0
  6
Continuous
 62
     7
370
    15
100
AcDbCircle
 10
58.0544929865
 20
121.8399449867
 30
0.0
 40
50.00000000000001
100
AcDbArc
 50
101.5369590328
 51
128.8291331614
  0
SPLINE
  5
22F
330
1F
100
AcDbEntity
  8
0
  6
Continuous
 62
     7
370
    15
100
AcDbSpline
210
0.0
220
0.0
230
1.0
 70
    24
 71
     3
 72
    14
 73
    10
 74
     0
 42
0.00000001
 43
0.00000001
 12
1.0
 22
0.0
 32
0.0
 13
1.0
 23
0.0
 33
0.0
 40
0.0
 40
0.0
 40
0.0
 40
0.0
 40
0.25
 40
0.25
 40
0.5
 40
0.5
 40
0.75
 40
0.75
 40
1.0
 40
1.0
 40
1.0
 40
1.0
 10
47.05449298653398
 20
74.09059944145501
 30
0.0
 10
47.05449298653398
 20
73.95717374540048
 30
0.0
 10
47.05449298653397
 20
73.82532593755612
 30
0.0
 10
47.05449298653398
 20
73.57880338886203
 30
0.0
 10
47.05449298653398
 20
73.46499820062147
 30
0.0
 10
47.05449298653397
 20
73.2745410236742
 30
0.0
 10
47.05449298653398
 20
73.19690615982428
 30
0.0
 10
47.05449298653397
 20
73.09261474971181
 30
0.0
 10
47.05449298653398
 20
73.06495139367946
 30
0.0
 10
47.05449298653398
 20
73.06495139367946
 30
0.0
  0
ARC
  5
230
330
1F
100
AcDbEntity
  8
0
  6
Continuous
 62
     7
370
    15
100
AcDbCircle
 10
58.0544929865
 20
121.8399449867
 30
0.0
 40
50.00000000000001
100
AcDbArc
 50
141.1708668386
 51
257.2909670056
  0
SPLINE
  5
231
330
1F
100
AcDbEntity
  8
0
  6
Continuous
 62
     7
370
    15
100
AcDbSpline
210
0.0
220
0.0
230
1.0
 70
    24
 71
     3
 72
    12
 73
     8
 74
     0
 42
0.00000001
 43
0.00000001
 12
1.0
 22
0.0
 32
0.0
 13
1.0
 23
0.0
 33
0.0
 40
0.0
 40
0.0
 40
0.0
 40
0.0
 40
0.2500000000000032
 40
0.2500000000000032
 40
0.5000000000000064
 40
0.5000000000000064
 40
1.0
 40
1.0
 40
1.0
 40
1.0
 10
19.10353022564705
 20
153.1899449867083
 30
0.0
 10
19.10353022564705
 20
153.1899449867083
 30
0.0
 10
19.14926901232054
 20
153.1899449867083
 30
0.0
 10
19.30650370424654
 20
153.1899449867083
 30
0.0
 10
19.41717291852539
 20
153.1899449867083
 30
0.0
 10
19.79060966640491
 20
153.1899449867083
 30
0.0
 10
20.09497343972479
 20
153.1899449867083
 30
0.0
 10
20.39579545196701
 20
153.1899449867083
 30
0.0
  0
SPLINE
  5
232
330
1F
100
AcDbEntity
  8
0
  6
Continuous
 62
     7
370
    15
100
AcDbSpline
210
0.0
220
0.0
230
1.0
 70
    24
 71
     3
 72
    14
 73
    10
 74
     0
 42
0.00000001
 43
0.00000001
 12
1.0
 22
0.0
 32
0.0
 13
1.0
 23
0.0
 33
0.0
 40
0.0
 40
0.0
 40
0.0
 40
0.0
 40
0.25
 40
0.25
 40
0.5
 40
0.5
 40
0.75
 40
0.75
 40
1.0
 40
1.0
 40
1.0
 40
1.0
 10
68.05449298653397
 20
170.8297398423719
 30
0.0
 10
68.05449298653397
 20
170.8297398423719
 30
0.0
 10
68.05449298653399
 20
170.8019333949235
 30
0.0
 10
68.05449298653397
 20
170.6980743854594
 30
0.0
 10
68.05449298653397
 20
170.620883376887
 30
0.0
 10
68.05449298653397
 20
170.431736299174
 30
0.0
 10
68.05449298653397
 20
170.3180320794714
 30
0.0
 10
68.05449298653397
 20
170.073233312436
 30
0.0
 10
68.05449298653397
 20
169.9411044985062
 30
0.0
 10
68.05449298653397
 20
169.8086848075541
 30
0.0
  0
ARC
  5
233
330
1F
100
AcDbEntity
  8
0
  6
Continuous
 62
     7
370
    15
100
AcDbCircle
 10
58.0544929865
 20
121.8399449867
 30
0.0
 40
50.00000000000001
100
AcDbArc
 50
282.7090329944
 51
78.4630409672
  0
SPLINE
  5
234
330
1F
100
AcDbEntity
  8
0
  6
Continuous
 62
     7
370
    15
100
AcDbSpline
210
0.0
220
0.0
230
1.0
 70
    24
 71
     3
 72
    14
 73
    10
 74
     0
 42
0.00000001
 43
0.00000001
 12
1.0
 22
0.0
 32
0.0
 13
1.0
 23
0.0
 33
0.0
 40
0.0
 40
0.0
 40
0.0
 40
0.0
 40
0.25
 40
0.25
 40
0.5
 40
0.5
 40
0.75
 40
0.75
 40
1.0
 40
1.0
 40
1.0
 40
1.0
 10
69.05449298653397
 20
73.06495139367951
 30
0.0
 10
69.05449298653397
 20
73.06495139367952
 30
0.0
 10
69.05449298653397
 20
73.09241737028198
 30
0.0
 10
69.05449298653397
 20
73.19751092704865
 30
0.0
 10
69.05449298653397
 20
73.27500834973425
 30
0.0
 10
69.05449298653397
 20
73.46549196307039
 30
0.0
 10
69.05449298653397
 20
73.57989301274593
 30
0.0
 10
69.05449298653397
 20
73.82515491120878
 30
0.0
 10
69.05449298653397
 20
73.95841410602753
 30
0.0
 10
69.05449298653397
 20
74.09059944145591
 30
0.0
  0
LINE
  5
235
330
1F
100
AcDbEntity
  8
0
  6
Continuous
 62
     7
370
    15
100
AcDbLine
 10
68.054492763
 20
165.7399467808
 30
0.0
 11
48.0544932101
 21
165.7399467808
 31
0.0
  0
LINE
  5
236
330
1F
100
AcDbEntity
  8
0
  6
Continuous
 62
     7
370
    15
100
AcDbLine
 10
69.0544929269
 20
77.9399431926
 30
0.0
 11
47.0544930461
 21
77.9399431926
 31
0.0
  0
LINE
  5
237
330
1F
100
AcDbEntity
  8
0
  6
Continuous
 62
     7
370
    15
100
AcDbLine
 10
69.0544929269
 20
74.0906007272
 30
0.0
 11
69.0544929269
 21
77.9399431926
 31
0.0
  0
LINE
  5
238
330
1F
100
AcDbEntity
  8
0
  6
Continuous
 62
     7
370
    15
100
AcDbLine
 10
68.054492763
 20
169.808686493
 30
0.0
 11
68.054492763
 21
165.7399467808
 31
0.0
  0
LINE
  5
239
330
1F
100
AcDbEntity
  8
0
  6
Continuous
 62
     7
370
    15
100
AcDbLine
 10
48.0544932101
 20
165.7399467808
 30
0.0
 11
48.0544932101
 21
169.808686493
 31
0.0
  0
LINE
  5
23A
330
1F
100
AcDbEntity
  8
0
  6
Continuous
 62
     7
370
    15
100
AcDbLine
 10
47.0544930461
 20
77.9399431926
 30
0.0
 11
47.0544930461
 21
74.0906007272
 31
0.0
  0
LINE
  5
23B
330
1F
100
AcDbEntity
  8
0
  6
Continuous
 62
     7
370
    15
100
AcDbLine
 10
20.3957941297
 20
153.1899466795
 30
0.0
 11
26.7044912938
 21
153.1899466795
 31
0.0
  0
LINE
  5
23C
330
1F
100
AcDbEntity
  8
0
  6
Continuous
 62
     7
370
    15
100
AcDbLine
 10
26.7044912938
 20
159.4986438435
 30
0.0
 11
26.7044912938
 21
153.1899466795
 31
0.0
  0
SPLINE
  5
23D
330
1F
100
AcDbEntity
  8
0
  6
Continuous
 62
     7
370
    15
100
AcDbSpline
210
0.0
220
0.0
230
1.0
 70
     8
 71
     3
 72
    30
 73
    26
 74
     0
 42
0.00000001
 43
0.00000001
 12
1.0
 22
0.0
 32
0.0
 13
1.0
 23
0.0
 33
0.0
 40
0.0
 40
0.0
 40
0.0
 40
0.0
 40
0.1249999999999996
 40
0.1249999999999996
 40
0.1874999999999994
 40
0.1874999999999994
 40
0.2499999999999993
 40
0.2499999999999993
 40
0.3749999999999992
 40
0.3749999999999992
 40
0.4374999999999993
 40
0.4374999999999993
 40
0.4999999999999994
 40
0.4999999999999994
 40
0.6249999999999992
 40
0.6249999999999992
 40
0.6874999999999993
 40
0.6874999999999993
 40
0.7499999999999994
 40
0.7499999999999994
 40
0.8124999999999997
 40
0.8124999999999997
 40
0.8749999999999998
 40
0.8749999999999998
 40
1.0
 40
1.0
 40
1.0
 40
1.0
 10
59.05449298653398
 20
71.84994598690835
 30
0.0
 10
59.71709578435099
 20
71.86320069407127
 30
0.0
 10
60.36801988394632
 20
71.88938556485586
 30
0.0
 10
61.32773865184405
 20
71.94617221765634
 30
0.0
 10
61.64484701147884
 20
71.96802176853183
 30
0.0
 10
62.27337392368563
 20
72.01725526463224
 30
0.0
 10
62.58533985377404
 20
72.04472765338576
 30
0.0
 10
63.49221717976886
 20
72.13280137507907
 30
0.0
 10
64.06533462354949
 20
72.19954823105911
 30
0.0
 10
64.8787546984419
 20
72.30708464230385
 30
0.0
 10
65.14330969045825
 20
72.34434493581249
 30
0.0
 10
65.65057237786597
 20
72.41965234754383
 30
0.0
 10
65.89211665049996
 20
72.4574997725626
 30
0.0
 10
66.58164667999696
 20
72.57023207915935
 30
0.0
 10
66.99487747361442
 20
72.64433568424373
 30
0.0
 10
67.54325718277568
 20
72.74821486459388
 30
0.0
 10
67.71321193631599
 20
72.78147061765239
 30
0.0
 10
68.02179252538305
 20
72.84323388205298
 30
0.0
 10
68.16138817157383
 20
72.87192487360328
 30
0.0
 10
68.41151192080748
 20
72.92421660744425
 30
0.0
 10
68.5220404843001
 20
72.94781841835108
 30
0.0
 10
68.71348675551418
 20
72.98919839234094
 30
0.0
 10
68.79468464276543
 20
73.00703911898542
 30
0.0
 10
68.98925137252634
 20
73.05010272180806
 30
0.0
 10
69.05449298653399
 20
73.0649513936795
 30
0.0
 10
69.05449298653397
 20
73.06495139367951
 30
0.0
  0
SPLINE
  5
23E
330
1F
100
AcDbEntity
  8
0
  6
Continuous
 62
     7
370
    15
100
AcDbSpline
210
0.0
220
0.0
230
1.0
 70
     8
 71
     3
 72
    30
 73
    26
 74
     0
 42
0.00000001
 43
0.00000001
 12
1.0
 22
0.0
 32
0.0
 13
1.0
 23
0.0
 33
0.0
 40
0.0
 40
0.0
 40
0.0
 40
0.0
 40
0.1250000000000002
 40
0.1250000000000002
 40
0.1875000000000003
 40
0.1875000000000003
 40
0.2500000000000004
 40
0.2500000000000004
 40
0.3750000000000001
 40
0.3750000000000001
 40
0.4374999999999998
 40
0.4374999999999998
 40
0.4999999999999996
 40
0.4999999999999996
 40
0.6249999999999996
 40
0.6249999999999996
 40
0.6874999999999997
 40
0.6874999999999997
 40
0.7499999999999997
 40
0.7499999999999997
 40
0.8124999999999998
 40
0.8124999999999998
 40
0.8749999999999999
 40
0.8749999999999999
 40
1.0
 40
1.0
 40
1.0
 40
1.0
 10
47.05449298653398
 20
73.0649513936795
 30
0.0
 10
47.05449298653398
 20
73.06495139367951
 30
0.0
 10
47.1197223603013
 20
73.05011131709068
 30
0.0
 10
47.31111377571026
 20
73.00774175286107
 30
0.0
 10
47.39061980536215
 20
72.9902636500819
 30
0.0
 10
47.58173136696526
 20
72.94893536352959
 30
0.0
 10
47.69372024853908
 20
72.92501009007191
 30
0.0
 10
48.07054722204842
 20
72.846203573605
 30
0.0
 10
48.37769457174755
 20
72.78389755362852
 30
0.0
 10
48.9216185614051
 20
72.68076823338916
 30
0.0
 10
49.11798566111302
 20
72.64458431434265
 30
0.0
 10
49.53422330429036
 20
72.57078953014215
 30
0.0
 10
49.7532598767602
 20
72.5333156713705
 30
0.0
 10
50.4423072366915
 20
72.42060372803077
 30
0.0
 10
50.94393642212316
 20
72.34506763055698
 30
0.0
 10
51.76233363812408
 20
72.23667437353949
 30
0.0
 10
52.04461330313184
 20
72.20160214187624
 30
0.0
 10
52.61954775504843
 20
72.13536668127638
 30
0.0
 10
52.91340912932348
 20
72.10403998452166
 30
0.0
 10
53.51386468056308
 20
72.04563121294072
 30
0.0
 10
53.82045848038094
 20
72.01854797775788
 30
0.0
 10
54.44669004103732
 20
71.9692882231443
 30
0.0
 10
54.76793147508996
 20
71.94702624333665
 30
0.0
 10
55.73753539521538
 20
71.88945933616837
 30
0.0
 10
56.39193831353413
 20
71.8631997313824
 30
0.0
 10
57.05449298653398
 20
71.84994598690835
 30
0.0
  0
SPLINE
  5
23F
330
1F
100
AcDbEntity
  8
0
  6
Continuous
 62
     7
370
    15
100
AcDbSpline
210
0.0
220
0.0
230
1.0
 70
     8
 71
     3
 72
    54
 73
    50
 74
     0
 42
0.00000001
 43
0.00000001
 12
1.0
 22
0.0
 32
0.0
 13
1.0
 23
0.0
 33
0.0
 40
0.0
 40
0.0
 40
0.0
 40
0.0
 40
0.0625000000000001
 40
0.0625000000000001
 40
0.0937500000000001
 40
0.0937500000000001
 40
0.1250000000000001
 40
0.1250000000000001
 40
0.1875000000000002
 40
0.1875000000000002
 40
0.2187500000000001
 40
0.2187500000000001
 40
0.2500000000000001
 40
0.2500000000000001
 40
0.3125
 40
0.3125
 40
0.3437499999999999
 40
0.3437499999999999
 40
0.3749999999999999
 40
0.3749999999999999
 40
0.4062499999999998
 40
0.4062499999999998
 40
0.4374999999999998
 40
0.4374999999999998
 40
0.4999999999999997
 40
0.4999999999999997
 40
0.5624999999999997
 40
0.5624999999999997
 40
0.6249999999999996
 40
0.6249999999999996
 40
0.6562499999999994
 40
0.6562499999999994
 40
0.6874999999999994
 40
0.6874999999999994
 40
0.7187499999999993
 40
0.7187499999999993
 40
0.7499999999999993
 40
0.7499999999999993
 40
0.8124999999999992
 40
0.8124999999999992
 40
0.8437499999999992
 40
0.8437499999999992
 40
0.8749999999999993
 40
0.8749999999999993
 40
0.9374999999999997
 40
0.9374999999999997
 40
0.9687499999999998
 40
0.9687499999999998
 40
1.0
 40
1.0
 40
1.0
 40
1.0
 10
48.05449298653398
 20
170.8297398423719
 30
0.0
 10
48.05449298653398
 20
170.8297398423719
 30
0.0
 10
48.11964586998667
 20
170.8431664521606
 30
0.0
 10
48.3108647931518
 20
170.881416568773
 30
0.0
 10
48.39030333334942
 20
170.8971860590865
 30
0.0
 10
48.58126617881519
 20
170.9344195957279
 30
0.0
 10
48.69320712734363
 20
170.95595720424
 30
0.0
 10
49.06996644557133
 20
171.0267684173337
 30
0.0
 10
49.37712400922204
 20
171.0825947845986
 30
0.0
 10
49.92117176198111
 20
171.1743438249404
 30
0.0
 10
50.11755130740691
 20
171.2064258202206
 30
0.0
 10
50.53425519487695
 20
171.2716200206411
 30
0.0
 10
50.75354271042302
 20
171.304579602944
 30
0.0
 10
51.44337062767715
 20
171.4031255925169
 30
0.0
 10
51.94555864247697
 20
171.4683935122906
 30
0.0
 10
52.76473438262732
 20
171.5601013559464
 30
0.0
 10
53.04761026468029
 20
171.5894652223602
 30
0.0
 10
53.62343406486756
 20
171.6440548080941
 30
0.0
 10
53.91769729890637
 20
171.669432252225
 30
0.0
 10
54.51884529888477
 20
171.7156913483848
 30
0.0
 10
54.82572976732565
 20
171.7365741609767
 30
0.0
 10
55.45240333769521
 20
171.7731768502636
 30
0.0
 10
55.77409387356403
 20
171.78896069017
 30
0.0
 10
56.74263331428556
 20
171.8269091237381
 30
0.0
 10
57.39247121652891
 20
171.8398381953986
 30
0.0
 10
58.70028418959795
 20
171.8400504608615
 30
0.0
 10
59.3647116884779
 20
171.8269026812583
 30
0.0
 10
60.64843078774595
 20
171.7767460385088
 30
0.0
 10
61.27257050314821
 20
171.7399833368746
 30
0.0
 10
62.18212778081332
 20
171.6702078153129
 30
0.0
 10
62.48173487460014
 20
171.6443993038473
 30
0.0
 10
63.05928840798822
 20
171.5896802960828
 30
0.0
 10
63.3387691564873
 20
171.5606696466665
 30
0.0
 10
63.87958935225009
 20
171.5002136899869
 30
0.0
 10
64.1409281854065
 20
171.4687668804464
 30
0.0
 10
64.64537590563538
 20
171.404296272054
 30
0.0
 10
64.88941152584272
 20
171.3711374460675
 30
0.0
 10
65.58678266680786
 20
171.2715660779966
 30
0.0
 10
65.99943219981292
 20
171.2060550925319
 30
0.0
 10
66.54267827122129
 20
171.1145269950173
 30
0.0
 10
66.71104383232223
 20
171.0851378084726
 30
0.0
 10
67.02162762330425
 20
171.0295311305711
 30
0.0
 10
67.16339636549367
 20
171.003388618997
 30
0.0
 10
67.53994360700139
 20
170.9326274224488
 30
0.0
 10
67.73004023971644
 20
170.8950269987811
 30
0.0
 10
67.92342509026255
 20
170.8563555100925
 30
0.0
 10
67.97258570369502
 20
170.8463991893532
 30
0.0
 10
68.03808177146685
 20
170.8330983005694
 30
0.0
 10
68.05449298653399
 20
170.8297398423719
 30
0.0
 10
68.05449298653399
 20
170.8297398423719
 30
0.0
  0
SPLINE
  5
240
330
1F
100
AcDbEntity
  8
0
  6
Continuous
 62
     7
370
    15
100
AcDbSpline
210
0.0
220
0.0
230
1.0
 70
     8
 71
     3
 72
    22
 73
    18
 74
     0
 42
0.00000001
 43
0.00000001
 12
1.0
 22
0.0
 32
0.0
 13
1.0
 23
0.0
 33
0.0
 40
0.0
 40
0.0
 40
0.0
 40
0.0
 40
0.2500000000000002
 40
0.2500000000000002
 40
0.3750000000000003
 40
0.3750000000000003
 40
0.5000000000000004
 40
0.5000000000000004
 40
0.6250000000000004
 40
0.6250000000000004
 40
0.7500000000000004
 40
0.7500000000000004
 40
0.8750000000000004
 40
0.8750000000000004
 40
0.9375000000000002
 40
0.9375000000000002
 40
1.0
 40
1.0
 40
1.0
 40
1.0
 10
19.10353022564705
 20
153.1899449867083
 30
0.0
 10
19.92387895524358
 20
154.2091913285729
 30
0.0
 10
20.76202956921379
 20
155.1682994785122
 30
0.0
 10
22.02242310670522
 20
156.5107785560215
 30
0.0
 10
22.44595026055845
 20
156.9449871387615
 30
0.0
 10
23.26476569254529
 20
157.7566148542636
 30
0.0
 10
23.66160207598464
 20
158.1358951472005
 30
0.0
 10
24.41898057296939
 20
158.8388537262215
 30
0.0
 10
24.78126872668467
 20
159.1638825439221
 30
0.0
 10
25.42611550569169
 20
159.728897867313
 30
0.0
 10
25.71257584941587
 20
159.9726014615195
 30
0.0
 10
26.19527465734944
 20
160.3768013891644
 30
0.0
 10
26.38170498074825
 20
160.5292385822099
 30
0.0
 10
26.57271821139116
 20
160.6845661298186
 30
0.0
 10
26.6216033219745
 20
160.7240709098687
 30
0.0
 10
26.68766411142846
 20
160.7773800305374
 30
0.0
 10
26.70449298653397
 20
160.7909077475952
 30
0.0
 10
26.70449298653398
 20
160.7909077475952
 30
0.0
  0
ARC
  5
241
330
1F
100
AcDbEntity
  8
0
  6
Continuous
 62
     7
370
    15
100
AcDbCircle
 10
58.0544929865
 20
121.8399449867
 30
0.0
 40
50.0
100
AcDbArc
 50
268.8540080016
 51
271.1459919984
  0
LINE
  5
242
330
1F
100
AcDbEntity
  8
0
  6
Continuous
 62
     7
370
    15
100
AcDbLine
 10
42.5544932399
 20
118.3399448787
 30
0.0
 11
42.5544932399
 21
125.3399450947
 31
0.0
  0
LINE
  5
243
330
1F
100
AcDbEntity
  8
0
  6
Continuous
 62
     7
370
    15
100
AcDbLine
 10
30.0544921223
 20
117.6399451365
 30
0.0
 11
30.0544921223
 21
126.039944837
 31
0.0
  0
LINE
  5
244
330
1F
100
AcDbEntity
  8
0
  6
Continuous
 62
     7
370
    15
100
AcDbLine
 10
54.5544928785
 20
137.3399447334
 30
0.0
 11
61.5544930946
 21
137.3399447334
 31
0.0
  0
LINE
  5
245
330
1F
100
AcDbEntity
  8
0
  6
Continuous
 62
     7
370
    15
100
AcDbLine
 10
53.8544931363
 20
149.839945851
 30
0.0
 11
62.2544928368
 21
149.839945851
 31
0.0
  0
LINE
  5
246
330
1F
100
AcDbEntity
  8
0
  6
Continuous
 62
     7
370
    15
100
AcDbLine
 10
86.0544938508
 20
126.039944837
 30
0.0
 11
86.0544938508
 21
117.6399451365
 31
0.0
  0
LINE
  5
247
330
1F
100
AcDbEntity
  8
0
  6
Continuous
 62
     7
370
    15
100
AcDbLine
 10
73.5544927332
 20
125.3399450947
 30
0.0
 11
73.5544927332
 21
118.3399448787
 31
0.0
  0
LINE
  5
248
330
1F
100
AcDbEntity
  8
0
  6
HIDDEN
 62
     7
370
     0
100
AcDbLine
 10
30.8544926259
 20
116.8651825433
 30
0.0
 11
30.8544926259
 21
126.8147074302
 31
0.0
  0
LINE
  5
249
330
1F
100
AcDbEntity
  8
0
  6
HIDDEN
 62
     7
370
     0
100
AcDbLine
 10
41.0544920627
 20
116.8651825433
 30
0.0
 11
41.0544920627
 21
126.8147074302
 31
0.0
  0
LINE
  5
24A
330
1F
100
AcDbEntity
  8
0
  6
HIDDEN
 62
     7
370
     0
100
AcDbLine
 10
42.5544932399
 20
118.3606868294
 30
0.0
 11
42.5544932399
 21
125.3394545206
 31
0.0
  0
LINE
  5
24B
330
1F
100
AcDbEntity
  8
0
  6
HIDDEN
 62
     7
370
     0
100
AcDbLine
 10
30.0544921223
 20
117.6413337384
 30
0.0
 11
30.0544921223
 21
126.038556235
 31
0.0
  0
LINE
  5
24C
330
1F
100
AcDbEntity
  8
0
  6
HIDDEN
 62
     7
370
     0
100
AcDbLine
 10
30.0544921223
 20
123.5269038156
 30
0.0
 11
30.0544921223
 21
120.6547235056
 31
0.0
  0
LINE
  5
24D
330
1F
100
AcDbEntity
  8
0
  6
HIDDEN
 62
     7
370
     0
100
AcDbLine
 10
36.0544931057
 20
123.5269038156
 30
0.0
 11
36.0544931057
 21
120.6547235056
 31
0.0
  0
LINE
  5
24E
330
1F
100
AcDbEntity
  8
0
  6
HIDDEN
 62
     7
370
     0
100
AcDbLine
 10
42.5544932399
 20
119.3429557756
 30
0.0
 11
42.5544932399
 21
124.3273262084
 31
0.0
  0
LINE
  5
24F
330
1F
100
AcDbEntity
  8
0
  6
HIDDEN
 62
     7
370
     0
100
AcDbLine
 10
36.0544931057
 20
118.9677645602
 30
0.0
 11
36.0544931057
 21
120.6547235056
 31
0.0
  0
LINE
  5
250
330
1F
100
AcDbEntity
  8
0
  6
HIDDEN
 62
     7
370
     0
100
AcDbLine
 10
36.0544931057
 20
120.6547235056
 30
0.0
 11
30.0544921223
 21
120.6547235056
 31
0.0
  0
LINE
  5
251
330
1F
100
AcDbEntity
  8
0
  6
HIDDEN
 62
     7
370
     0
100
AcDbLine
 10
30.0544921223
 20
118.9677645602
 30
0.0
 11
30.0544921223
 21
120.6547235056
 31
0.0
  0
LINE
  5
252
330
1F
100
AcDbEntity
  8
0
  6
HIDDEN
 62
     7
370
     0
100
AcDbLine
 10
36.0544931057
 20
123.5269038156
 30
0.0
 11
36.0544931057
 21
124.7121254132
 31
0.0
  0
LINE
  5
253
330
1F
100
AcDbEntity
  8
0
  6
HIDDEN
 62
     7
370
     0
100
AcDbLine
 10
36.0544931057
 20
123.5269038156
 30
0.0
 11
30.0544921223
 21
123.5269038156
 31
0.0
  0
LINE
  5
254
330
1F
100
AcDbEntity
  8
0
  6
HIDDEN
 62
     7
370
     0
100
AcDbLine
 10
30.0544921223
 20
123.5269038156
 30
0.0
 11
30.0544921223
 21
124.7121254132
 31
0.0
  0
LINE
  5
255
330
1F
100
AcDbEntity
  8
0
  6
HIDDEN
 62
     7
370
     0
100
AcDbLine
 10
36.0544931057
 20
120.1529861578
 30
0.0
 11
30.0544921223
 21
120.1529861578
 31
0.0
  0
LINE
  5
256
330
1F
100
AcDbEntity
  8
0
  6
HIDDEN
 62
     7
370
     0
100
AcDbLine
 10
36.0544931057
 20
118.9677645602
 30
0.0
 11
30.0544921223
 21
118.9677645602
 31
0.0
  0
LINE
  5
257
330
1F
100
AcDbEntity
  8
0
  6
HIDDEN
 62
     7
370
     0
100
AcDbLine
 10
36.0544931057
 20
118.9677645602
 30
0.0
 11
36.0544931057
 21
120.1529861578
 31
0.0
  0
LINE
  5
258
330
1F
100
AcDbEntity
  8
0
  6
HIDDEN
 62
     7
370
     0
100
AcDbLine
 10
30.0544921223
 20
118.9677645602
 30
0.0
 11
30.0544921223
 21
120.1529861578
 31
0.0
  0
LINE
  5
259
330
1F
100
AcDbEntity
  8
0
  6
HIDDEN
 62
     7
370
     0
100
AcDbLine
 10
36.0544931057
 20
123.0251664678
 30
0.0
 11
30.0544921223
 21
123.0251664678
 31
0.0
  0
LINE
  5
25A
330
1F
100
AcDbEntity
  8
0
  6
HIDDEN
 62
     7
370
     0
100
AcDbLine
 10
36.0544931057
 20
124.7121254132
 30
0.0
 11
30.0544921223
 21
124.7121254132
 31
0.0
  0
LINE
  5
25B
330
1F
100
AcDbEntity
  8
0
  6
HIDDEN
 62
     7
370
     0
100
AcDbLine
 10
36.0544931057
 20
124.7121254132
 30
0.0
 11
36.0544931057
 21
123.0251664678
 31
0.0
  0
LINE
  5
25C
330
1F
100
AcDbEntity
  8
0
  6
HIDDEN
 62
     7
370
     0
100
AcDbLine
 10
30.0544921223
 20
124.7121254132
 30
0.0
 11
30.0544921223
 21
123.0251664678
 31
0.0
  0
LINE
  5
25D
330
1F
100
AcDbEntity
  8
0
  6
HIDDEN
 62
     7
370
     0
100
AcDbLine
 10
36.0544931057
 20
120.1529861578
 30
0.0
 11
36.0544931057
 21
123.0251664678
 31
0.0
  0
LINE
  5
25E
330
1F
100
AcDbEntity
  8
0
  6
HIDDEN
 62
     7
370
     0
100
AcDbLine
 10
30.0544921223
 20
120.1529861578
 30
0.0
 11
30.0544921223
 21
123.0251664678
 31
0.0
  0
LINE
  5
25F
330
1F
100
AcDbEntity
  8
0
  6
HIDDEN
 62
     7
370
     0
100
AcDbLine
 10
86.0544938508
 20
117.650575718
 30
0.0
 11
86.0544938508
 21
126.0293142554
 31
0.0
  0
LINE
  5
260
330
1F
100
AcDbEntity
  8
0
  6
HIDDEN
 62
     7
370
     0
100
AcDbLine
 10
85.2544933471
 20
116.8408093658
 30
0.0
 11
85.2544933471
 21
126.8390806076
 31
0.0
  0
LINE
  5
261
330
1F
100
AcDbEntity
  8
0
  6
HIDDEN
 62
     7
370
     0
100
AcDbLine
 10
75.0544939104
 20
116.8408093658
 30
0.0
 11
75.0544939104
 21
126.8390806076
 31
0.0
  0
LINE
  5
262
330
1F
100
AcDbEntity
  8
0
  6
HIDDEN
 62
     7
370
     0
100
AcDbLine
 10
73.5544927332
 20
118.3599874061
 30
0.0
 11
73.5544927332
 21
125.3393399679
 31
0.0
  0
LINE
  5
263
330
1F
100
AcDbEntity
  8
0
  6
HIDDEN
 62
     7
370
     0
100
AcDbLine
 10
86.0544938508
 20
123.8111127318
 30
0.0
 11
86.0544938508
 21
120.9990916691
 31
0.0
  0
LINE
  5
264
330
1F
100
AcDbEntity
  8
0
  6
HIDDEN
 62
     7
370
     0
100
AcDbLine
 10
80.0544928673
 20
123.8111127318
 30
0.0
 11
80.0544928673
 21
120.9990916691
 31
0.0
  0
LINE
  5
265
330
1F
100
AcDbEntity
  8
0
  6
HIDDEN
 62
     7
370
     0
100
AcDbLine
 10
73.5544927332
 20
119.3462729138
 30
0.0
 11
73.5544927332
 21
124.3322589585
 31
0.0
  0
LINE
  5
266
330
1F
100
AcDbEntity
  8
0
  6
HIDDEN
 62
     7
370
     0
100
AcDbLine
 10
80.0544928673
 20
119.0279238076
 30
0.0
 11
80.0544928673
 21
120.9990916691
 31
0.0
  0
LINE
  5
267
330
1F
100
AcDbEntity
  8
0
  6
HIDDEN
 62
     7
370
     0
100
AcDbLine
 10
80.0544928673
 20
120.9990916691
 30
0.0
 11
86.0544938508
 21
120.9990916691
 31
0.0
  0
LINE
  5
268
330
1F
100
AcDbEntity
  8
0
  6
HIDDEN
 62
     7
370
     0
100
AcDbLine
 10
86.0544938508
 20
119.0279238076
 30
0.0
 11
86.0544938508
 21
120.9990916691
 31
0.0
  0
LINE
  5
269
330
1F
100
AcDbEntity
  8
0
  6
HIDDEN
 62
     7
370
     0
100
AcDbLine
 10
80.0544928673
 20
124.6519661658
 30
0.0
 11
80.0544928673
 21
123.8111127318
 31
0.0
  0
LINE
  5
26A
330
1F
100
AcDbEntity
  8
0
  6
HIDDEN
 62
     7
370
     0
100
AcDbLine
 10
80.0544928673
 20
123.8111127318
 30
0.0
 11
86.0544938508
 21
123.8111127318
 31
0.0
  0
LINE
  5
26B
330
1F
100
AcDbEntity
  8
0
  6
HIDDEN
 62
     7
370
     0
100
AcDbLine
 10
86.0544938508
 20
124.6519661658
 30
0.0
 11
86.0544938508
 21
123.8111127318
 31
0.0
  0
LINE
  5
26C
330
1F
100
AcDbEntity
  8
0
  6
HIDDEN
 62
     7
370
     0
100
AcDbLine
 10
80.0544928673
 20
119.8687772416
 30
0.0
 11
86.0544938508
 21
119.8687772416
 31
0.0
  0
LINE
  5
26D
330
1F
100
AcDbEntity
  8
0
  6
HIDDEN
 62
     7
370
     0
100
AcDbLine
 10
80.0544928673
 20
119.0279238076
 30
0.0
 11
86.0544938508
 21
119.0279238076
 31
0.0
  0
LINE
  5
26E
330
1F
100
AcDbEntity
  8
0
  6
HIDDEN
 62
     7
370
     0
100
AcDbLine
 10
80.0544928673
 20
119.8687772416
 30
0.0
 11
80.0544928673
 21
119.0279238076
 31
0.0
  0
LINE
  5
26F
330
1F
100
AcDbEntity
  8
0
  6
HIDDEN
 62
     7
370
     0
100
AcDbLine
 10
86.0544938508
 20
119.8687772416
 30
0.0
 11
86.0544938508
 21
119.0279238076
 31
0.0
  0
LINE
  5
270
330
1F
100
AcDbEntity
  8
0
  6
HIDDEN
 62
     7
370
     0
100
AcDbLine
 10
80.0544928673
 20
122.6807983043
 30
0.0
 11
86.0544938508
 21
122.6807983043
 31
0.0
  0
LINE
  5
271
330
1F
100
AcDbEntity
  8
0
  6
HIDDEN
 62
     7
370
     0
100
AcDbLine
 10
80.0544928673
 20
124.6519661658
 30
0.0
 11
86.0544938508
 21
124.6519661658
 31
0.0
  0
LINE
  5
272
330
1F
100
AcDbEntity
  8
0
  6
HIDDEN
 62
     7
370
     0
100
AcDbLine
 10
80.0544928673
 20
124.6519661658
 30
0.0
 11
80.0544928673
 21
122.6807983043
 31
0.0
  0
LINE
  5
273
330
1F
100
AcDbEntity
  8
0
  6
HIDDEN
 62
     7
370
     0
100
AcDbLine
 10
86.0544938508
 20
124.6519661658
 30
0.0
 11
86.0544938508
 21
122.6807983043
 31
0.0
  0
LINE
  5
274
330
1F
100
AcDbEntity
  8
0
  6
HIDDEN
 62
     7
370
     0
100
AcDbLine
 10
80.0544928673
 20
119.8687772416
 30
0.0
 11
80.0544928673
 21
122.6807983043
 31
0.0
  0
LINE
  5
275
330
1F
100
AcDbEntity
  8
0
  6
HIDDEN
 62
     7
370
     0
100
AcDbLine
 10
86.0544938508
 20
119.8687772416
 30
0.0
 11
86.0544938508
 21
122.6807983043
 31
0.0
  0
LINE
  5
276
330
1F
100
AcDbEntity
  8
0
  6
HIDDEN
 62
     7
370
     0
100
AcDbLine
 10
53.0553140591
 20
149.0399453473
 30
0.0
 11
63.0536719139
 21
149.0399453473
 31
0.0
  0
LINE
  5
277
330
1F
100
AcDbEntity
  8
0
  6
HIDDEN
 62
     7
370
     0
100
AcDbLine
 10
53.0553140591
 20
138.8399459106
 30
0.0
 11
63.0536719139
 21
138.8399459106
 31
0.0
  0
LINE
  5
278
330
1F
100
AcDbEntity
  8
0
  6
HIDDEN
 62
     7
370
     0
100
AcDbLine
 10
54.5620335646
 20
137.3399447334
 30
0.0
 11
61.5481929302
 21
137.3399447334
 31
0.0
  0
LINE
  5
279
330
1F
100
AcDbEntity
  8
0
  6
HIDDEN
 62
     7
370
     0
100
AcDbLine
 10
53.8567911747
 20
149.839945851
 30
0.0
 11
62.2521947983
 21
149.839945851
 31
0.0
  0
LINE
  5
27A
330
1F
100
AcDbEntity
  8
0
  6
HIDDEN
 62
     7
370
     0
100
AcDbLine
 10
58.9961514373
 20
143.8399448675
 30
0.0
 11
60.8885741707
 21
143.8399448675
 31
0.0
  0
LINE
  5
27B
330
1F
100
AcDbEntity
  8
0
  6
HIDDEN
 62
     7
370
     0
100
AcDbLine
 10
58.9961514373
 20
149.839945851
 30
0.0
 11
60.8885741707
 21
149.839945851
 31
0.0
  0
LINE
  5
27C
330
1F
100
AcDbEntity
  8
0
  6
HIDDEN
 62
     7
370
     0
100
AcDbLine
 10
55.5566681463
 20
137.3399447334
 30
0.0
 11
60.5399591762
 21
137.3399447334
 31
0.0
  0
LINE
  5
27D
330
1F
100
AcDbEntity
  8
0
  6
HIDDEN
 62
     7
370
     0
100
AcDbLine
 10
58.9961514373
 20
143.8399448675
 30
0.0
 11
58.9961514373
 21
149.839945851
 31
0.0
  0
LINE
  5
27E
330
1F
100
AcDbEntity
  8
0
  6
HIDDEN
 62
     7
370
     0
100
AcDbLine
 10
58.9961514373
 20
143.8399448675
 30
0.0
 11
56.1620703114
 21
143.8399448675
 31
0.0
  0
LINE
  5
27F
330
1F
100
AcDbEntity
  8
0
  6
HIDDEN
 62
     7
370
     0
100
AcDbLine
 10
58.9961514373
 20
149.839945851
 30
0.0
 11
56.1620703114
 21
149.839945851
 31
0.0
  0
LINE
  5
280
330
1F
100
AcDbEntity
  8
0
  6
HIDDEN
 62
     7
370
     0
100
AcDbLine
 10
56.1620703114
 20
143.8399448675
 30
0.0
 11
56.1620703114
 21
149.839945851
 31
0.0
  0
LINE
  5
281
330
1F
100
AcDbEntity
  8
0
  6
HIDDEN
 62
     7
370
     0
100
AcDbLine
 10
56.1620703114
 20
143.8399448675
 30
0.0
 11
55.2204118024
 21
143.8399448675
 31
0.0
  0
LINE
  5
282
330
1F
100
AcDbEntity
  8
0
  6
HIDDEN
 62
     7
370
     0
100
AcDbLine
 10
56.1620703114
 20
149.839945851
 30
0.0
 11
55.2204118024
 21
149.839945851
 31
0.0
  0
LINE
  5
283
330
1F
100
AcDbEntity
  8
0
  6
HIDDEN
 62
     7
370
     0
100
AcDbLine
 10
59.9469156617
 20
143.8399448675
 30
0.0
 11
59.9469156617
 21
149.839945851
 31
0.0
  0
LINE
  5
284
330
1F
100
AcDbEntity
  8
0
  6
HIDDEN
 62
     7
370
     0
100
AcDbLine
 10
60.8885741707
 20
143.8399448675
 30
0.0
 11
60.8885741707
 21
149.839945851
 31
0.0
  0
LINE
  5
285
330
1F
100
AcDbEntity
  8
0
  6
HIDDEN
 62
     7
370
     0
100
AcDbLine
 10
59.9469156617
 20
143.8399448675
 30
0.0
 11
60.8885741707
 21
143.8399448675
 31
0.0
  0
LINE
  5
286
330
1F
100
AcDbEntity
  8
0
  6
HIDDEN
 62
     7
370
     0
100
AcDbLine
 10
59.9469156617
 20
149.839945851
 30
0.0
 11
60.8885741707
 21
149.839945851
 31
0.0
  0
LINE
  5
287
330
1F
100
AcDbEntity
  8
0
  6
HIDDEN
 62
     7
370
     0
100
AcDbLine
 10
57.1128345358
 20
143.8399448675
 30
0.0
 11
57.1128345358
 21
149.839945851
 31
0.0
  0
LINE
  5
288
330
1F
100
AcDbEntity
  8
0
  6
HIDDEN
 62
     7
370
     0
100
AcDbLine
 10
55.2204118024
 20
143.8399448675
 30
0.0
 11
55.2204118024
 21
149.839945851
 31
0.0
  0
LINE
  5
289
330
1F
100
AcDbEntity
  8
0
  6
HIDDEN
 62
     7
370
     0
100
AcDbLine
 10
57.1128345358
 20
143.8399448675
 30
0.0
 11
55.2204118024
 21
143.8399448675
 31
0.0
  0
LINE
  5
28A
330
1F
100
AcDbEntity
  8
0
  6
HIDDEN
 62
     7
370
     0
100
AcDbLine
 10
57.1128345358
 20
149.839945851
 30
0.0
 11
55.2204118024
 21
149.839945851
 31
0.0
  0
LINE
  5
28B
330
1F
100
AcDbEntity
  8
0
  6
HIDDEN
 62
     7
370
     0
100
AcDbLine
 10
59.9469156617
 20
143.8399448675
 30
0.0
 11
57.1128345358
 21
143.8399448675
 31
0.0
  0
LINE
  5
28C
330
1F
100
AcDbEntity
  8
0
  6
HIDDEN
 62
     7
370
     0
100
AcDbLine
 10
59.9469156617
 20
149.839945851
 30
0.0
 11
57.1128345358
 21
149.839945851
 31
0.0
  0
LINE
  5
28D
330
1F
100
AcDbEntity
  8
0
  6
HIDDEN
 62
     7
370
     0
100
AcDbLine
 10
85.2544933471
 20
116.8567042482
 30
0.0
 11
85.2544933471
 21
126.8231857252
 31
0.0
  0
LINE
  5
28E
330
1F
100
AcDbEntity
  8
0
  6
HIDDEN
 62
     7
370
     0
100
AcDbLine
 10
75.0544939104
 20
116.8567042482
 30
0.0
 11
75.0544939104
 21
126.8231857252
 31
0.0
  0
LINE
  5
28F
330
1F
100
AcDbEntity
  8
0
  6
HIDDEN
 62
     7
370
     0
100
AcDbLine
 10
86.0544938508
 20
117.6410385092
 30
0.0
 11
86.0544938508
 21
126.0388514642
 31
0.0
  0
LINE
  5
290
330
1F
100
AcDbEntity
  8
0
  6
HIDDEN
 62
     7
370
     0
100
AcDbLine
 10
73.5544927332
 20
118.3527759426
 30
0.0
 11
73.5544927332
 21
125.3371439093
 31
0.0
  0
LINE
  5
291
330
1F
100
AcDbEntity
  8
0
  6
HIDDEN
 62
     7
370
     0
100
AcDbLine
 10
86.0544938508
 20
124.3063574807
 30
0.0
 11
86.0544938508
 21
121.7740717552
 31
0.0
  0
LINE
  5
292
330
1F
100
AcDbEntity
  8
0
  6
HIDDEN
 62
     7
370
     0
100
AcDbLine
 10
80.0544928673
 20
124.3063574807
 30
0.0
 11
80.0544928673
 21
121.7740717552
 31
0.0
  0
LINE
  5
293
330
1F
100
AcDbEntity
  8
0
  6
HIDDEN
 62
     7
370
     0
100
AcDbLine
 10
80.0544928673
 20
119.3076593486
 30
0.0
 11
80.0544928673
 21
121.7740717552
 31
0.0
  0
LINE
  5
294
330
1F
100
AcDbEntity
  8
0
  6
HIDDEN
 62
     7
370
     0
100
AcDbLine
 10
80.0544928673
 20
121.7740717552
 30
0.0
 11
86.0544938508
 21
121.7740717552
 31
0.0
  0
LINE
  5
295
330
1F
100
AcDbEntity
  8
0
  6
HIDDEN
 62
     7
370
     0
100
AcDbLine
 10
86.0544938508
 20
119.3076593486
 30
0.0
 11
86.0544938508
 21
121.7740717552
 31
0.0
  0
LINE
  5
296
330
1F
100
AcDbEntity
  8
0
  6
HIDDEN
 62
     7
370
     0
100
AcDbLine
 10
73.5544927332
 20
119.3518478108
 30
0.0
 11
73.5544927332
 21
124.3365684208
 31
0.0
  0
LINE
  5
297
330
1F
100
AcDbEntity
  8
0
  6
HIDDEN
 62
     7
370
     0
100
AcDbLine
 10
80.0544928673
 20
124.3722306249
 30
0.0
 11
80.0544928673
 21
124.3063574807
 31
0.0
  0
LINE
  5
298
330
1F
100
AcDbEntity
  8
0
  6
HIDDEN
 62
     7
370
     0
100
AcDbLine
 10
80.0544928673
 20
124.3063574807
 30
0.0
 11
86.0544938508
 21
124.3063574807
 31
0.0
  0
LINE
  5
299
330
1F
100
AcDbEntity
  8
0
  6
HIDDEN
 62
     7
370
     0
100
AcDbLine
 10
86.0544938508
 20
124.3722306249
 30
0.0
 11
86.0544938508
 21
124.3063574807
 31
0.0
  0
LINE
  5
29A
330
1F
100
AcDbEntity
  8
0
  6
HIDDEN
 62
     7
370
     0
100
AcDbLine
 10
80.0544928673
 20
119.3735324927
 30
0.0
 11
86.0544938508
 21
119.3735324927
 31
0.0
  0
LINE
  5
29B
330
1F
100
AcDbEntity
  8
0
  6
HIDDEN
 62
     7
370
     0
100
AcDbLine
 10
80.0544928673
 20
119.3076593486
 30
0.0
 11
86.0544938508
 21
119.3076593486
 31
0.0
  0
LINE
  5
29C
330
1F
100
AcDbEntity
  8
0
  6
HIDDEN
 62
     7
370
     0
100
AcDbLine
 10
80.0544928673
 20
119.3735324927
 30
0.0
 11
80.0544928673
 21
119.3076593486
 31
0.0
  0
LINE
  5
29D
330
1F
100
AcDbEntity
  8
0
  6
HIDDEN
 62
     7
370
     0
100
AcDbLine
 10
86.0544938508
 20
119.3735324927
 30
0.0
 11
86.0544938508
 21
119.3076593486
 31
0.0
  0
LINE
  5
29E
330
1F
100
AcDbEntity
  8
0
  6
HIDDEN
 62
     7
370
     0
100
AcDbLine
 10
80.0544928673
 20
121.9058182182
 30
0.0
 11
86.0544938508
 21
121.9058182182
 31
0.0
  0
LINE
  5
29F
330
1F
100
AcDbEntity
  8
0
  6
HIDDEN
 62
     7
370
     0
100
AcDbLine
 10
80.0544928673
 20
124.3722306249
 30
0.0
 11
86.0544938508
 21
124.3722306249
 31
0.0
  0
LINE
  5
2A0
330
1F
100
AcDbEntity
  8
0
  6
HIDDEN
 62
     7
370
     0
100
AcDbLine
 10
80.0544928673
 20
124.3722306249
 30
0.0
 11
80.0544928673
 21
121.9058182182
 31
0.0
  0
LINE
  5
2A1
330
1F
100
AcDbEntity
  8
0
  6
HIDDEN
 62
     7
370
     0
100
AcDbLine
 10
86.0544938508
 20
124.3722306249
 30
0.0
 11
86.0544938508
 21
121.9058182182
 31
0.0
  0
LINE
  5
2A2
330
1F
100
AcDbEntity
  8
0
  6
HIDDEN
 62
     7
370
     0
100
AcDbLine
 10
80.0544928673
 20
119.3735324927
 30
0.0
 11
80.0544928673
 21
121.9058182182
 31
0.0
  0
LINE
  5
2A3
330
1F
100
AcDbEntity
  8
0
  6
HIDDEN
 62
     7
370
     0
100
AcDbLine
 10
86.0544938508
 20
119.3735324927
 30
0.0
 11
86.0544938508
 21
121.9058182182
 31
0.0
  0
LINE
  5
2A4
330
1F
100
AcDbEntity
  8
0
  6
HIDDEN
 62
     7
370
     0
100
AcDbLine
 10
41.0544920627
 20
116.8451437411
 30
0.0
 11
41.0544920627
 21
126.8347462323
 31
0.0
  0
LINE
  5
2A5
330
1F
100
AcDbEntity
  8
0
  6
HIDDEN
 62
     7
370
     0
100
AcDbLine
 10
42.5544932399
 20
118.3424943742
 30
0.0
 11
42.5544932399
 21
125.3265568671
 31
0.0
  0
LINE
  5
2A6
330
1F
100
AcDbEntity
  8
0
  6
HIDDEN
 62
     7
370
     0
100
AcDbLine
 10
30.8544926259
 20
116.8451437411
 30
0.0
 11
30.8544926259
 21
126.8347462323
 31
0.0
  0
LINE
  5
2A7
330
1F
100
AcDbEntity
  8
0
  6
HIDDEN
 62
     7
370
     0
100
AcDbLine
 10
30.0544921223
 20
117.6404615548
 30
0.0
 11
30.0544921223
 21
126.0394284186
 31
0.0
  0
LINE
  5
2A8
330
1F
100
AcDbEntity
  8
0
  6
HIDDEN
 62
     7
370
     0
100
AcDbLine
 10
36.0544931057
 20
121.6693981409
 30
0.0
 11
36.0544931057
 21
119.2590382566
 31
0.0
  0
LINE
  5
2A9
330
1F
100
AcDbEntity
  8
0
  6
HIDDEN
 62
     7
370
     0
100
AcDbLine
 10
30.0544921223
 20
121.6693981409
 30
0.0
 11
30.0544921223
 21
119.2590382566
 31
0.0
  0
LINE
  5
2AA
330
1F
100
AcDbEntity
  8
0
  6
HIDDEN
 62
     7
370
     0
100
AcDbLine
 10
42.5544932399
 20
119.362327518
 30
0.0
 11
42.5544932399
 21
124.3396373615
 31
0.0
  0
LINE
  5
2AB
330
1F
100
AcDbEntity
  8
0
  6
HIDDEN
 62
     7
370
     0
100
AcDbLine
 10
36.0544931057
 20
121.6693981409
 30
0.0
 11
30.0544921223
 21
121.6693981409
 31
0.0
  0
LINE
  5
2AC
330
1F
100
AcDbEntity
  8
0
  6
HIDDEN
 62
     7
370
     0
100
AcDbLine
 10
36.0544931057
 20
121.6693981409
 30
0.0
 11
36.0544931057
 21
124.2503049002
 31
0.0
  0
LINE
  5
2AD
330
1F
100
AcDbEntity
  8
0
  6
HIDDEN
 62
     7
370
     0
100
AcDbLine
 10
30.0544921223
 20
121.6693981409
 30
0.0
 11
30.0544921223
 21
124.2503049002
 31
0.0
  0
LINE
  5
2AE
330
1F
100
AcDbEntity
  8
0
  6
HIDDEN
 62
     7
370
     0
100
AcDbLine
 10
36.0544931057
 20
124.2503049002
 30
0.0
 11
30.0544921223
 21
124.2503049002
 31
0.0
  0
LINE
  5
2AF
330
1F
100
AcDbEntity
  8
0
  6
HIDDEN
 62
     7
370
     0
100
AcDbLine
 10
36.0544931057
 20
124.2503049002
 30
0.0
 11
36.0544931057
 21
124.4208517169
 31
0.0
  0
LINE
  5
2B0
330
1F
100
AcDbEntity
  8
0
  6
HIDDEN
 62
     7
370
     0
100
AcDbLine
 10
30.0544921223
 20
124.2503049002
 30
0.0
 11
30.0544921223
 21
124.4208517169
 31
0.0
  0
LINE
  5
2B1
330
1F
100
AcDbEntity
  8
0
  6
HIDDEN
 62
     7
370
     0
100
AcDbLine
 10
36.0544931057
 20
119.4295850732
 30
0.0
 11
30.0544921223
 21
119.4295850732
 31
0.0
  0
LINE
  5
2B2
330
1F
100
AcDbEntity
  8
0
  6
HIDDEN
 62
     7
370
     0
100
AcDbLine
 10
36.0544931057
 20
119.2590382566
 30
0.0
 11
30.0544921223
 21
119.2590382566
 31
0.0
  0
LINE
  5
2B3
330
1F
100
AcDbEntity
  8
0
  6
HIDDEN
 62
     7
370
     0
100
AcDbLine
 10
36.0544931057
 20
119.4295850732
 30
0.0
 11
36.0544931057
 21
119.2590382566
 31
0.0
  0
LINE
  5
2B4
330
1F
100
AcDbEntity
  8
0
  6
HIDDEN
 62
     7
370
     0
100
AcDbLine
 10
30.0544921223
 20
119.4295850732
 30
0.0
 11
30.0544921223
 21
119.2590382566
 31
0.0
  0
LINE
  5
2B5
330
1F
100
AcDbEntity
  8
0
  6
HIDDEN
 62
     7
370
     0
100
AcDbLine
 10
36.0544931057
 20
122.0104918325
 30
0.0
 11
30.0544921223
 21
122.0104918325
 31
0.0
  0
LINE
  5
2B6
330
1F
100
AcDbEntity
  8
0
  6
HIDDEN
 62
     7
370
     0
100
AcDbLine
 10
36.0544931057
 20
124.4208517169
 30
0.0
 11
30.0544921223
 21
124.4208517169
 31
0.0
  0
LINE
  5
2B7
330
1F
100
AcDbEntity
  8
0
  6
HIDDEN
 62
     7
370
     0
100
AcDbLine
 10
36.0544931057
 20
122.0104918325
 30
0.0
 11
36.0544931057
 21
124.4208517169
 31
0.0
  0
LINE
  5
2B8
330
1F
100
AcDbEntity
  8
0
  6
HIDDEN
 62
     7
370
     0
100
AcDbLine
 10
30.0544921223
 20
122.0104918325
 30
0.0
 11
30.0544921223
 21
124.4208517169
 31
0.0
  0
LINE
  5
2B9
330
1F
100
AcDbEntity
  8
0
  6
HIDDEN
 62
     7
370
     0
100
AcDbLine
 10
36.0544931057
 20
119.4295850732
 30
0.0
 11
36.0544931057
 21
122.0104918325
 31
0.0
  0
LINE
  5
2BA
330
1F
100
AcDbEntity
  8
0
  6
HIDDEN
 62
     7
370
     0
100
AcDbLine
 10
30.0544921223
 20
119.4295850732
 30
0.0
 11
30.0544921223
 21
122.0104918325
 31
0.0
  0
LINE
  5
2BB
330
1F
100
AcDbEntity
  8
0
  6
HIDDEN
 62
     7
370
     0
100
AcDbLine
 10
41.0544920627
 20
116.8399450985
 30
0.0
 11
41.0544920627
 21
126.8399448749
 31
0.0
  0
LINE
  5
2BC
330
1F
100
AcDbEntity
  8
0
  6
HIDDEN
 62
     7
370
     0
100
AcDbLine
 10
42.5544932399
 20
125.3399450947
 30
0.0
 11
42.5544932399
 21
118.3399448787
 31
0.0
  0
LINE
  5
2BD
330
1F
100
AcDbEntity
  8
0
  6
HIDDEN
 62
     7
370
     0
100
AcDbLine
 10
30.8544926259
 20
116.8399450985
 30
0.0
 11
30.8544926259
 21
126.8399448749
 31
0.0
  0
LINE
  5
2BE
330
1F
100
AcDbEntity
  8
0
  6
HIDDEN
 62
     7
370
     0
100
AcDbLine
 10
30.0544921223
 20
126.039944837
 30
0.0
 11
30.0544921223
 21
117.6399451365
 31
0.0
  0
LINE
  5
2BF
330
1F
100
AcDbEntity
  8
0
  6
HIDDEN
 62
     7
370
     0
100
AcDbLine
 10
30.0544921223
 20
120.6397819483
 30
0.0
 11
30.0544921223
 21
118.966164548
 31
0.0
  0
LINE
  5
2C0
330
1F
100
AcDbEntity
  8
0
  6
HIDDEN
 62
     7
370
     0
100
AcDbLine
 10
36.0544931057
 20
120.6397819483
 30
0.0
 11
36.0544931057
 21
118.966164548
 31
0.0
  0
LINE
  5
2C1
330
1F
100
AcDbEntity
  8
0
  6
HIDDEN
 62
     7
370
     0
100
AcDbLine
 10
42.5544932399
 20
119.3511781898
 30
0.0
 11
42.5544932399
 21
124.3361965903
 31
0.0
  0
LINE
  5
2C2
330
1F
100
AcDbEntity
  8
0
  6
HIDDEN
 62
     7
370
     0
100
AcDbLine
 10
36.0544931057
 20
120.6397819483
 30
0.0
 11
36.0544931057
 21
123.5135622705
 31
0.0
  0
LINE
  5
2C3
330
1F
100
AcDbEntity
  8
0
  6
HIDDEN
 62
     7
370
     0
100
AcDbLine
 10
36.0544931057
 20
120.6397819483
 30
0.0
 11
30.0544921223
 21
120.6397819483
 31
0.0
  0
LINE
  5
2C4
330
1F
100
AcDbEntity
  8
0
  6
HIDDEN
 62
     7
370
     0
100
AcDbLine
 10
30.0544921223
 20
120.6397819483
 30
0.0
 11
30.0544921223
 21
123.5135622705
 31
0.0
  0
LINE
  5
2C5
330
1F
100
AcDbEntity
  8
0
  6
HIDDEN
 62
     7
370
     0
100
AcDbLine
 10
36.0544931057
 20
123.5135622705
 30
0.0
 11
30.0544921223
 21
123.5135622705
 31
0.0
  0
LINE
  5
2C6
330
1F
100
AcDbEntity
  8
0
  6
HIDDEN
 62
     7
370
     0
100
AcDbLine
 10
36.0544931057
 20
123.5135622705
 30
0.0
 11
36.0544931057
 21
124.7137254254
 31
0.0
  0
LINE
  5
2C7
330
1F
100
AcDbEntity
  8
0
  6
HIDDEN
 62
     7
370
     0
100
AcDbLine
 10
30.0544921223
 20
123.5135622705
 30
0.0
 11
30.0544921223
 21
124.7137254254
 31
0.0
  0
LINE
  5
2C8
330
1F
100
AcDbEntity
  8
0
  6
HIDDEN
 62
     7
370
     0
100
AcDbLine
 10
36.0544931057
 20
120.1663277029
 30
0.0
 11
30.0544921223
 21
120.1663277029
 31
0.0
  0
LINE
  5
2C9
330
1F
100
AcDbEntity
  8
0
  6
HIDDEN
 62
     7
370
     0
100
AcDbLine
 10
36.0544931057
 20
120.1663277029
 30
0.0
 11
36.0544931057
 21
118.966164548
 31
0.0
  0
LINE
  5
2CA
330
1F
100
AcDbEntity
  8
0
  6
HIDDEN
 62
     7
370
     0
100
AcDbLine
 10
36.0544931057
 20
118.966164548
 30
0.0
 11
30.0544921223
 21
118.966164548
 31
0.0
  0
LINE
  5
2CB
330
1F
100
AcDbEntity
  8
0
  6
HIDDEN
 62
     7
370
     0
100
AcDbLine
 10
30.0544921223
 20
120.1663277029
 30
0.0
 11
30.0544921223
 21
118.966164548
 31
0.0
  0
LINE
  5
2CC
330
1F
100
AcDbEntity
  8
0
  6
HIDDEN
 62
     7
370
     0
100
AcDbLine
 10
36.0544931057
 20
123.0401080252
 30
0.0
 11
30.0544921223
 21
123.0401080252
 31
0.0
  0
LINE
  5
2CD
330
1F
100
AcDbEntity
  8
0
  6
HIDDEN
 62
     7
370
     0
100
AcDbLine
 10
36.0544931057
 20
124.7137254254
 30
0.0
 11
30.0544921223
 21
124.7137254254
 31
0.0
  0
LINE
  5
2CE
330
1F
100
AcDbEntity
  8
0
  6
HIDDEN
 62
     7
370
     0
100
AcDbLine
 10
36.0544931057
 20
123.0401080252
 30
0.0
 11
36.0544931057
 21
124.7137254254
 31
0.0
  0
LINE
  5
2CF
330
1F
100
AcDbEntity
  8
0
  6
HIDDEN
 62
     7
370
     0
100
AcDbLine
 10
30.0544921223
 20
123.0401080252
 30
0.0
 11
30.0544921223
 21
124.7137254254
 31
0.0
  0
LINE
  5
2D0
330
1F
100
AcDbEntity
  8
0
  6
HIDDEN
 62
     7
370
     0
100
AcDbLine
 10
36.0544931057
 20
120.1663277029
 30
0.0
 11
36.0544931057
 21
123.0401080252
 31
0.0
  0
LINE
  5
2D1
330
1F
100
AcDbEntity
  8
0
  6
HIDDEN
 62
     7
370
     0
100
AcDbLine
 10
30.0544921223
 20
120.1663277029
 30
0.0
 11
30.0544921223
 21
123.0401080252
 31
0.0
  0
LINE
  5
2D2
330
1F
100
AcDbEntity
  8
0
  6
HIDDEN
 62
     7
370
     0
100
AcDbLine
 10
62.2467968527
 20
149.839945851
 30
0.0
 11
53.8621891204
 21
149.839945851
 31
0.0
  0
LINE
  5
2D3
330
1F
100
AcDbEntity
  8
0
  6
HIDDEN
 62
     7
370
     0
100
AcDbLine
 10
63.0274710159
 20
149.0399453473
 30
0.0
 11
53.0815149571
 21
149.0399453473
 31
0.0
  0
LINE
  5
2D4
330
1F
100
AcDbEntity
  8
0
  6
HIDDEN
 62
     7
370
     0
100
AcDbLine
 10
63.0274710159
 20
138.8399459106
 30
0.0
 11
53.0815149571
 21
138.8399459106
 31
0.0
  0
LINE
  5
2D5
330
1F
100
AcDbEntity
  8
0
  6
HIDDEN
 62
     7
370
     0
100
AcDbLine
 10
61.5537764418
 20
137.3399447334
 30
0.0
 11
54.5739260882
 21
137.3399447334
 31
0.0
  0
LINE
  5
2D6
330
1F
100
AcDbEntity
  8
0
  6
HIDDEN
 62
     7
370
     0
100
AcDbLine
 10
58.6566797604
 20
149.839945851
 30
0.0
 11
55.9105856258
 21
149.839945851
 31
0.0
  0
LINE
  5
2D7
330
1F
100
AcDbEntity
  8
0
  6
HIDDEN
 62
     7
370
     0
100
AcDbLine
 10
58.6566797604
 20
143.8399448675
 30
0.0
 11
55.9105856258
 21
143.8399448675
 31
0.0
  0
LINE
  5
2D8
330
1F
100
AcDbEntity
  8
0
  6
HIDDEN
 62
     7
370
     0
100
AcDbLine
 10
60.5316294271
 20
137.3399447334
 30
0.0
 11
55.5547468278
 21
137.3399447334
 31
0.0
  0
LINE
  5
2D9
330
1F
100
AcDbEntity
  8
0
  6
HIDDEN
 62
     7
370
     0
100
AcDbLine
 10
60.8005870048
 20
143.8399448675
 30
0.0
 11
58.6566797604
 21
143.8399448675
 31
0.0
  0
LINE
  5
2DA
330
1F
100
AcDbEntity
  8
0
  6
HIDDEN
 62
     7
370
     0
100
AcDbLine
 10
58.6566797604
 20
143.8399448675
 30
0.0
 11
58.6566797604
 21
149.839945851
 31
0.0
  0
LINE
  5
2DB
330
1F
100
AcDbEntity
  8
0
  6
HIDDEN
 62
     7
370
     0
100
AcDbLine
 10
60.8005870048
 20
149.839945851
 30
0.0
 11
58.6566797604
 21
149.839945851
 31
0.0
  0
LINE
  5
2DC
330
1F
100
AcDbEntity
  8
0
  6
HIDDEN
 62
     7
370
     0
100
AcDbLine
 10
55.3083989683
 20
143.8399448675
 30
0.0
 11
55.9105856258
 21
143.8399448675
 31
0.0
  0
LINE
  5
2DD
330
1F
100
AcDbEntity
  8
0
  6
HIDDEN
 62
     7
370
     0
100
AcDbLine
 10
55.9105856258
 20
143.8399448675
 30
0.0
 11
55.9105856258
 21
149.839945851
 31
0.0
  0
LINE
  5
2DE
330
1F
100
AcDbEntity
  8
0
  6
HIDDEN
 62
     7
370
     0
100
AcDbLine
 10
55.3083989683
 20
149.839945851
 30
0.0
 11
55.9105856258
 21
149.839945851
 31
0.0
  0
LINE
  5
2DF
330
1F
100
AcDbEntity
  8
0
  6
HIDDEN
 62
     7
370
     0
100
AcDbLine
 10
60.1984003473
 20
143.8399448675
 30
0.0
 11
60.1984003473
 21
149.839945851
 31
0.0
  0
LINE
  5
2E0
330
1F
100
AcDbEntity
  8
0
  6
HIDDEN
 62
     7
370
     0
100
AcDbLine
 10
60.8005870048
 20
143.8399448675
 30
0.0
 11
60.8005870048
 21
149.839945851
 31
0.0
  0
LINE
  5
2E1
330
1F
100
AcDbEntity
  8
0
  6
HIDDEN
 62
     7
370
     0
100
AcDbLine
 10
60.8005870048
 20
143.8399448675
 30
0.0
 11
60.1984003473
 21
143.8399448675
 31
0.0
  0
LINE
  5
2E2
330
1F
100
AcDbEntity
  8
0
  6
HIDDEN
 62
     7
370
     0
100
AcDbLine
 10
60.8005870048
 20
149.839945851
 30
0.0
 11
60.1984003473
 21
149.839945851
 31
0.0
  0
LINE
  5
2E3
330
1F
100
AcDbEntity
  8
0
  6
HIDDEN
 62
     7
370
     0
100
AcDbLine
 10
57.4523062126
 20
143.8399448675
 30
0.0
 11
57.4523062126
 21
149.839945851
 31
0.0
  0
LINE
  5
2E4
330
1F
100
AcDbEntity
  8
0
  6
HIDDEN
 62
     7
370
     0
100
AcDbLine
 10
55.3083989683
 20
143.8399448675
 30
0.0
 11
55.3083989683
 21
149.839945851
 31
0.0
  0
LINE
  5
2E5
330
1F
100
AcDbEntity
  8
0
  6
HIDDEN
 62
     7
370
     0
100
AcDbLine
 10
57.4523062126
 20
143.8399448675
 30
0.0
 11
55.3083989683
 21
143.8399448675
 31
0.0
  0
LINE
  5
2E6
330
1F
100
AcDbEntity
  8
0
  6
HIDDEN
 62
     7
370
     0
100
AcDbLine
 10
57.4523062126
 20
149.839945851
 30
0.0
 11
55.3083989683
 21
149.839945851
 31
0.0
  0
LINE
  5
2E7
330
1F
100
AcDbEntity
  8
0
  6
HIDDEN
 62
     7
370
     0
100
AcDbLine
 10
57.4523062126
 20
143.8399448675
 30
0.0
 11
60.1984003473
 21
143.8399448675
 31
0.0
  0
LINE
  5
2E8
330
1F
100
AcDbEntity
  8
0
  6
HIDDEN
 62
     7
370
     0
100
AcDbLine
 10
57.4523062126
 20
149.839945851
 30
0.0
 11
60.1984003473
 21
149.839945851
 31
0.0
  0
LINE
  5
2E9
330
1F
100
AcDbEntity
  8
0
  6
HIDDEN
 62
     7
370
     0
100
AcDbLine
 10
63.0544928748
 20
138.8399459106
 30
0.0
 11
53.0544930983
 21
138.8399459106
 31
0.0
  0
LINE
  5
2EA
330
1F
100
AcDbEntity
  8
0
  6
HIDDEN
 62
     7
370
     0
100
AcDbLine
 10
54.5717477247
 20
137.3399447334
 30
0.0
 11
54.5544928785
 21
137.3399447334
 31
0.0
  0
LINE
  5
2EB
330
1F
100
AcDbEntity
  8
0
  6
HIDDEN
 62
     7
370
     0
100
AcDbLine
 10
61.5544930946
 20
137.3399447334
 30
0.0
 11
54.5717477247
 21
137.3399447334
 31
0.0
  0
LINE
  5
2EC
330
1F
100
AcDbEntity
  8
0
  6
HIDDEN
 62
     7
370
     0
100
AcDbLine
 10
53.8751987654
 20
149.839945851
 30
0.0
 11
53.8544931363
 21
149.839945851
 31
0.0
  0
LINE
  5
2ED
330
1F
100
AcDbEntity
  8
0
  6
HIDDEN
 62
     7
370
     0
100
AcDbLine
 10
62.2544928368
 20
149.839945851
 30
0.0
 11
53.8751987654
 21
149.839945851
 31
0.0
  0
LINE
  5
2EE
330
1F
100
AcDbEntity
  8
0
  6
HIDDEN
 62
     7
370
     0
100
AcDbLine
 10
63.0544928748
 20
149.0399453473
 30
0.0
 11
53.0544930983
 21
149.0399453473
 31
0.0
  0
LINE
  5
2EF
330
1F
100
AcDbEntity
  8
0
  6
HIDDEN
 62
     7
370
     0
100
AcDbLine
 10
59.2428170524
 20
143.8399448675
 30
0.0
 11
60.9270128801
 21
143.8399448675
 31
0.0
  0
LINE
  5
2F0
330
1F
100
AcDbEntity
  8
0
  6
HIDDEN
 62
     7
370
     0
100
AcDbLine
 10
59.2428170524
 20
149.839945851
 30
0.0
 11
60.9270128801
 21
149.839945851
 31
0.0
  0
LINE
  5
2F1
330
1F
100
AcDbEntity
  8
0
  6
HIDDEN
 62
     7
370
     0
100
AcDbLine
 10
55.5668176997
 20
137.3399447334
 30
0.0
 11
60.5513357471
 21
137.3399447334
 31
0.0
  0
LINE
  5
2F2
330
1F
100
AcDbEntity
  8
0
  6
HIDDEN
 62
     7
370
     0
100
AcDbLine
 10
59.2428170524
 20
143.8399448675
 30
0.0
 11
59.2428170524
 21
149.839945851
 31
0.0
  0
LINE
  5
2F3
330
1F
100
AcDbEntity
  8
0
  6
HIDDEN
 62
     7
370
     0
100
AcDbLine
 10
56.3702971588
 20
143.8399448675
 30
0.0
 11
59.2428170524
 21
143.8399448675
 31
0.0
  0
LINE
  5
2F4
330
1F
100
AcDbEntity
  8
0
  6
HIDDEN
 62
     7
370
     0
100
AcDbLine
 10
56.3702971588
 20
149.839945851
 30
0.0
 11
59.2428170524
 21
149.839945851
 31
0.0
  0
LINE
  5
2F5
330
1F
100
AcDbEntity
  8
0
  6
HIDDEN
 62
     7
370
     0
100
AcDbLine
 10
56.3702971588
 20
143.8399448675
 30
0.0
 11
56.3702971588
 21
149.839945851
 31
0.0
  0
LINE
  5
2F6
330
1F
100
AcDbEntity
  8
0
  6
HIDDEN
 62
     7
370
     0
100
AcDbLine
 10
56.3702971588
 20
143.8399448675
 30
0.0
 11
55.181973093
 21
143.8399448675
 31
0.0
  0
LINE
  5
2F7
330
1F
100
AcDbEntity
  8
0
  6
HIDDEN
 62
     7
370
     0
100
AcDbLine
 10
56.3702971588
 20
149.839945851
 30
0.0
 11
55.181973093
 21
149.839945851
 31
0.0
  0
LINE
  5
2F8
330
1F
100
AcDbEntity
  8
0
  6
HIDDEN
 62
     7
370
     0
100
AcDbLine
 10
59.7386888142
 20
143.8399448675
 30
0.0
 11
59.7386888142
 21
149.839945851
 31
0.0
  0
LINE
  5
2F9
330
1F
100
AcDbEntity
  8
0
  6
HIDDEN
 62
     7
370
     0
100
AcDbLine
 10
60.9270128801
 20
143.8399448675
 30
0.0
 11
60.9270128801
 21
149.839945851
 31
0.0
  0
LINE
  5
2FA
330
1F
100
AcDbEntity
  8
0
  6
HIDDEN
 62
     7
370
     0
100
AcDbLine
 10
59.7386888142
 20
143.8399448675
 30
0.0
 11
60.9270128801
 21
143.8399448675
 31
0.0
  0
LINE
  5
2FB
330
1F
100
AcDbEntity
  8
0
  6
HIDDEN
 62
     7
370
     0
100
AcDbLine
 10
59.7386888142
 20
149.839945851
 30
0.0
 11
60.9270128801
 21
149.839945851
 31
0.0
  0
LINE
  5
2FC
330
1F
100
AcDbEntity
  8
0
  6
HIDDEN
 62
     7
370
     0
100
AcDbLine
 10
56.8661689207
 20
143.8399448675
 30
0.0
 11
56.8661689207
 21
149.839945851
 31
0.0
  0
LINE
  5
2FD
330
1F
100
AcDbEntity
  8
0
  6
HIDDEN
 62
     7
370
     0
100
AcDbLine
 10
55.181973093
 20
143.8399448675
 30
0.0
 11
55.181973093
 21
149.839945851
 31
0.0
  0
LINE
  5
2FE
330
1F
100
AcDbEntity
  8
0
  6
HIDDEN
 62
     7
370
     0
100
AcDbLine
 10
56.8661689207
 20
143.8399448675
 30
0.0
 11
55.181973093
 21
143.8399448675
 31
0.0
  0
LINE
  5
2FF
330
1F
100
AcDbEntity
  8
0
  6
HIDDEN
 62
     7
370
     0
100
AcDbLine
 10
56.8661689207
 20
149.839945851
 30
0.0
 11
55.181973093
 21
149.839945851
 31
0.0
  0
LINE
  5
300
330
1F
100
AcDbEntity
  8
0
  6
HIDDEN
 62
     7
370
     0
100
AcDbLine
 10
56.8661689207
 20
143.8399448675
 30
0.0
 11
59.7386888142
 21
143.8399448675
 31
0.0
  0
LINE
  5
301
330
1F
100
AcDbEntity
  8
0
  6
HIDDEN
 62
     7
370
     0
100
AcDbLine
 10
56.8661689207
 20
149.839945851
 30
0.0
 11
59.7386888142
 21
149.839945851
 31
0.0
  0
LINE
  5
302
330
1F
100
AcDbEntity
  8
0
  6
HIDDEN
 62
     7
370
     0
100
AcDbLine
 10
85.2544933471
 20
116.8399450985
 30
0.0
 11
85.2544933471
 21
126.8399448749
 31
0.0
  0
LINE
  5
303
330
1F
100
AcDbEntity
  8
0
  6
HIDDEN
 62
     7
370
     0
100
AcDbLine
 10
75.0544939104
 20
116.8399450985
 30
0.0
 11
75.0544939104
 21
126.8399448749
 31
0.0
  0
LINE
  5
304
330
1F
100
AcDbEntity
  8
0
  6
HIDDEN
 62
     7
370
     0
100
AcDbLine
 10
86.0544938508
 20
124.5187069439
 30
0.0
 11
86.0544938508
 21
126.039944837
 31
0.0
  0
LINE
  5
305
330
1F
100
AcDbEntity
  8
0
  6
HIDDEN
 62
     7
370
     0
100
AcDbLine
 10
86.0544938508
 20
117.6399451365
 30
0.0
 11
86.0544938508
 21
124.5187069439
 31
0.0
  0
LINE
  5
306
330
1F
100
AcDbEntity
  8
0
  6
HIDDEN
 62
     7
370
     0
100
AcDbLine
 10
73.5544927332
 20
124.0722465013
 30
0.0
 11
73.5544927332
 21
125.3399450947
 31
0.0
  0
LINE
  5
307
330
1F
100
AcDbEntity
  8
0
  6
HIDDEN
 62
     7
370
     0
100
AcDbLine
 10
73.5544927332
 20
118.3399448787
 30
0.0
 11
73.5544927332
 21
124.0722465013
 31
0.0
  0
LINE
  5
308
330
1F
100
AcDbEntity
  8
0
  6
HIDDEN
 62
     7
370
     0
100
AcDbLine
 10
86.0544938508
 20
122.8448634651
 30
0.0
 11
86.0544938508
 21
119.9987736913
 31
0.0
  0
LINE
  5
309
330
1F
100
AcDbEntity
  8
0
  6
HIDDEN
 62
     7
370
     0
100
AcDbLine
 10
80.0544928673
 20
122.8448634651
 30
0.0
 11
80.0544928673
 21
119.9987736913
 31
0.0
  0
LINE
  5
30A
330
1F
100
AcDbEntity
  8
0
  6
HIDDEN
 62
     7
370
     0
100
AcDbLine
 10
73.5544927332
 20
119.3614176159
 30
0.0
 11
73.5544927332
 21
124.3395200149
 31
0.0
  0
LINE
  5
30B
330
1F
100
AcDbEntity
  8
0
  6
HIDDEN
 62
     7
370
     0
100
AcDbLine
 10
80.0544928673
 20
124.6860348769
 30
0.0
 11
80.0544928673
 21
122.8448634651
 31
0.0
  0
LINE
  5
30C
330
1F
100
AcDbEntity
  8
0
  6
HIDDEN
 62
     7
370
     0
100
AcDbLine
 10
80.0544928673
 20
122.8448634651
 30
0.0
 11
86.0544938508
 21
122.8448634651
 31
0.0
  0
LINE
  5
30D
330
1F
100
AcDbEntity
  8
0
  6
HIDDEN
 62
     7
370
     0
100
AcDbLine
 10
86.0544938508
 20
124.6860348769
 30
0.0
 11
86.0544938508
 21
122.8448634651
 31
0.0
  0
LINE
  5
30E
330
1F
100
AcDbEntity
  8
0
  6
HIDDEN
 62
     7
370
     0
100
AcDbLine
 10
80.0544928673
 20
118.9938550965
 30
0.0
 11
80.0544928673
 21
119.9987736913
 31
0.0
  0
LINE
  5
30F
330
1F
100
AcDbEntity
  8
0
  6
HIDDEN
 62
     7
370
     0
100
AcDbLine
 10
80.0544928673
 20
119.9987736913
 30
0.0
 11
86.0544938508
 21
119.9987736913
 31
0.0
  0
LINE
  5
310
330
1F
100
AcDbEntity
  8
0
  6
HIDDEN
 62
     7
370
     0
100
AcDbLine
 10
86.0544938508
 20
118.9938550965
 30
0.0
 11
86.0544938508
 21
119.9987736913
 31
0.0
  0
LINE
  5
311
330
1F
100
AcDbEntity
  8
0
  6
HIDDEN
 62
     7
370
     0
100
AcDbLine
 10
80.0544928673
 20
123.6811162821
 30
0.0
 11
86.0544938508
 21
123.6811162821
 31
0.0
  0
LINE
  5
312
330
1F
100
AcDbEntity
  8
0
  6
HIDDEN
 62
     7
370
     0
100
AcDbLine
 10
80.0544928673
 20
124.6860348769
 30
0.0
 11
86.0544938508
 21
124.6860348769
 31
0.0
  0
LINE
  5
313
330
1F
100
AcDbEntity
  8
0
  6
HIDDEN
 62
     7
370
     0
100
AcDbLine
 10
80.0544928673
 20
124.6860348769
 30
0.0
 11
80.0544928673
 21
123.6811162821
 31
0.0
  0
LINE
  5
314
330
1F
100
AcDbEntity
  8
0
  6
HIDDEN
 62
     7
370
     0
100
AcDbLine
 10
86.0544938508
 20
124.6860348769
 30
0.0
 11
86.0544938508
 21
123.6811162821
 31
0.0
  0
LINE
  5
315
330
1F
100
AcDbEntity
  8
0
  6
HIDDEN
 62
     7
370
     0
100
AcDbLine
 10
80.0544928673
 20
120.8350265083
 30
0.0
 11
86.0544938508
 21
120.8350265083
 31
0.0
  0
LINE
  5
316
330
1F
100
AcDbEntity
  8
0
  6
HIDDEN
 62
     7
370
     0
100
AcDbLine
 10
80.0544928673
 20
118.9938550965
 30
0.0
 11
86.0544938508
 21
118.9938550965
 31
0.0
  0
LINE
  5
317
330
1F
100
AcDbEntity
  8
0
  6
HIDDEN
 62
     7
370
     0
100
AcDbLine
 10
80.0544928673
 20
120.8350265083
 30
0.0
 11
80.0544928673
 21
118.9938550965
 31
0.0
  0
LINE
  5
318
330
1F
100
AcDbEntity
  8
0
  6
HIDDEN
 62
     7
370
     0
100
AcDbLine
 10
86.0544938508
 20
120.8350265083
 30
0.0
 11
86.0544938508
 21
118.9938550965
 31
0.0
  0
LINE
  5
319
330
1F
100
AcDbEntity
  8
0
  6
HIDDEN
 62
     7
370
     0
100
AcDbLine
 10
80.0544928673
 20
120.8350265083
 30
0.0
 11
80.0544928673
 21
123.6811162821
 31
0.0
  0
LINE
  5
31A
330
1F
100
AcDbEntity
  8
0
  6
HIDDEN
 62
     7
370
     0
100
AcDbLine
 10
86.0544938508
 20
120.8350265083
 30
0.0
 11
86.0544938508
 21
123.6811162821
 31
0.0
  0
LINE
  5
31B
330
1F
100
AcDbEntity
  8
0
  6
HIDDEN
 62
     7
370
     0
100
AcDbLine
 10
30.8544926259
 20
116.8399450985
 30
0.0
 11
41.0544920627
 21
116.8399450985
 31
0.0
  0
LINE
  5
31C
330
1F
100
AcDbEntity
  8
0
  6
HIDDEN
 62
     7
370
     0
100
AcDbLine
 10
41.0544920627
 20
126.8399448749
 30
0.0
 11
30.8544926259
 21
126.8399448749
 31
0.0
  0
LINE
  5
31D
330
1F
100
AcDbEntity
  8
0
  6
HIDDEN
 62
     7
370
     0
100
AcDbLine
 10
41.0544920627
 20
116.8399450985
 30
0.0
 11
42.5544932399
 21
118.3399448787
 31
0.0
  0
LINE
  5
31E
330
1F
100
AcDbEntity
  8
0
  6
HIDDEN
 62
     7
370
     0
100
AcDbLine
 10
42.5544932399
 20
125.3399450947
 30
0.0
 11
41.0544920627
 21
126.8399448749
 31
0.0
  0
LINE
  5
31F
330
1F
100
AcDbEntity
  8
0
  6
HIDDEN
 62
     7
370
     0
100
AcDbLine
 10
30.8544926259
 20
126.8399448749
 30
0.0
 11
30.0544921223
 21
126.039944837
 31
0.0
  0
LINE
  5
320
330
1F
100
AcDbEntity
  8
0
  6
HIDDEN
 62
     7
370
     0
100
AcDbLine
 10
30.0544921223
 20
117.6399451365
 30
0.0
 11
30.8544926259
 21
116.8399450985
 31
0.0
  0
LINE
  5
321
330
1F
100
AcDbEntity
  8
0
  6
HIDDEN
 62
     7
370
     0
100
AcDbLine
 10
42.5544932399
 20
124.3399449308
 30
0.0
 11
41.1111164752
 21
121.8399449867
 31
0.0
  0
LINE
  5
322
330
1F
100
AcDbEntity
  8
0
  6
HIDDEN
 62
     7
370
     0
100
AcDbLine
 10
41.1111164752
 20
121.8399449867
 30
0.0
 11
42.5544932399
 21
119.3399450426
 31
0.0
  0
LINE
  5
323
330
1F
100
AcDbEntity
  8
0
  6
HIDDEN
 62
     7
370
     0
100
AcDbLine
 10
85.2544933471
 20
116.8399450985
 30
0.0
 11
86.0544938508
 21
117.6399451365
 31
0.0
  0
LINE
  5
324
330
1F
100
AcDbEntity
  8
0
  6
HIDDEN
 62
     7
370
     0
100
AcDbLine
 10
86.0544938508
 20
126.039944837
 30
0.0
 11
85.2544933471
 21
126.8399448749
 31
0.0
  0
LINE
  5
325
330
1F
100
AcDbEntity
  8
0
  6
HIDDEN
 62
     7
370
     0
100
AcDbLine
 10
85.2544933471
 20
126.8399448749
 30
0.0
 11
75.0544939104
 21
126.8399448749
 31
0.0
  0
LINE
  5
326
330
1F
100
AcDbEntity
  8
0
  6
HIDDEN
 62
     7
370
     0
100
AcDbLine
 10
75.0544939104
 20
116.8399450985
 30
0.0
 11
85.2544933471
 21
116.8399450985
 31
0.0
  0
LINE
  5
327
330
1F
100
AcDbEntity
  8
0
  6
HIDDEN
 62
     7
370
     0
100
AcDbLine
 10
75.0544939104
 20
126.8399448749
 30
0.0
 11
73.5544927332
 21
125.3399450947
 31
0.0
  0
LINE
  5
328
330
1F
100
AcDbEntity
  8
0
  6
HIDDEN
 62
     7
370
     0
100
AcDbLine
 10
73.5544927332
 20
118.3399448787
 30
0.0
 11
75.0544939104
 21
116.8399450985
 31
0.0
  0
LINE
  5
329
330
1F
100
AcDbEntity
  8
0
  6
HIDDEN
 62
     7
370
     0
100
AcDbLine
 10
73.5544927332
 20
119.3399450426
 30
0.0
 11
74.9978694979
 21
121.8399449867
 31
0.0
  0
LINE
  5
32A
330
1F
100
AcDbEntity
  8
0
  6
HIDDEN
 62
     7
370
     0
100
AcDbLine
 10
74.9978694979
 20
121.8399449867
 30
0.0
 11
73.5544927332
 21
124.3399449308
 31
0.0
  0
LINE
  5
32B
330
1F
100
AcDbEntity
  8
0
  6
HIDDEN
 62
     7
370
     0
100
AcDbLine
 10
53.0544930983
 20
149.0399453473
 30
0.0
 11
53.0544930983
 21
138.8399459106
 31
0.0
  0
LINE
  5
32C
330
1F
100
AcDbEntity
  8
0
  6
HIDDEN
 62
     7
370
     0
100
AcDbLine
 10
63.0544928748
 20
138.8399459106
 30
0.0
 11
63.0544928748
 21
149.0399453473
 31
0.0
  0
LINE
  5
32D
330
1F
100
AcDbEntity
  8
0
  6
HIDDEN
 62
     7
370
     0
100
AcDbLine
 10
53.0544930983
 20
138.8399459106
 30
0.0
 11
54.5544928785
 21
137.3399447334
 31
0.0
  0
LINE
  5
32E
330
1F
100
AcDbEntity
  8
0
  6
HIDDEN
 62
     7
370
     0
100
AcDbLine
 10
61.5544930946
 20
137.3399447334
 30
0.0
 11
63.0544928748
 21
138.8399459106
 31
0.0
  0
LINE
  5
32F
330
1F
100
AcDbEntity
  8
0
  6
HIDDEN
 62
     7
370
     0
100
AcDbLine
 10
63.0544928748
 20
149.0399453473
 30
0.0
 11
62.2544928368
 21
149.839945851
 31
0.0
  0
LINE
  5
330
330
1F
100
AcDbEntity
  8
0
  6
HIDDEN
 62
     7
370
     0
100
AcDbLine
 10
53.8544931363
 20
149.839945851
 30
0.0
 11
53.0544930983
 21
149.0399453473
 31
0.0
  0
LINE
  5
331
330
1F
100
AcDbEntity
  8
0
  6
HIDDEN
 62
     7
370
     0
100
AcDbLine
 10
60.5544929307
 20
137.3399447334
 30
0.0
 11
58.0544929865
 21
138.783321498
 31
0.0
  0
LINE
  5
332
330
1F
100
AcDbEntity
  8
0
  6
HIDDEN
 62
     7
370
     0
100
AcDbLine
 10
58.0544929865
 20
138.783321498
 30
0.0
 11
55.5544930424
 21
137.3399447334
 31
0.0
  0
LINE
  5
333
330
1F
100
AcDbEntity
  8
0
  6
HIDDEN
 62
     7
370
     0
100
AcDbLine
 10
85.2544933471
 20
126.8399448749
 30
0.0
 11
75.0544939104
 21
126.8399448749
 31
0.0
  0
LINE
  5
334
330
1F
100
AcDbEntity
  8
0
  6
HIDDEN
 62
     7
370
     0
100
AcDbLine
 10
75.0544939104
 20
116.8399450985
 30
0.0
 11
85.2544933471
 21
116.8399450985
 31
0.0
  0
LINE
  5
335
330
1F
100
AcDbEntity
  8
0
  6
HIDDEN
 62
     7
370
     0
100
AcDbLine
 10
85.2544933471
 20
116.8399450985
 30
0.0
 11
86.0544938508
 21
117.6399451365
 31
0.0
  0
LINE
  5
336
330
1F
100
AcDbEntity
  8
0
  6
HIDDEN
 62
     7
370
     0
100
AcDbLine
 10
86.0544938508
 20
126.039944837
 30
0.0
 11
85.2544933471
 21
126.8399448749
 31
0.0
  0
LINE
  5
337
330
1F
100
AcDbEntity
  8
0
  6
HIDDEN
 62
     7
370
     0
100
AcDbLine
 10
75.0544939104
 20
126.8399448749
 30
0.0
 11
73.5544927332
 21
125.3399450947
 31
0.0
  0
LINE
  5
338
330
1F
100
AcDbEntity
  8
0
  6
HIDDEN
 62
     7
370
     0
100
AcDbLine
 10
73.5544927332
 20
118.3399448787
 30
0.0
 11
75.0544939104
 21
116.8399450985
 31
0.0
  0
LINE
  5
339
330
1F
100
AcDbEntity
  8
0
  6
HIDDEN
 62
     7
370
     0
100
AcDbLine
 10
73.5544927332
 20
119.3399450426
 30
0.0
 11
74.9978694979
 21
121.8399449867
 31
0.0
  0
LINE
  5
33A
330
1F
100
AcDbEntity
  8
0
  6
HIDDEN
 62
     7
370
     0
100
AcDbLine
 10
74.9978694979
 20
121.8399449867
 30
0.0
 11
73.5544927332
 21
124.3399449308
 31
0.0
  0
LINE
  5
33B
330
1F
100
AcDbEntity
  8
0
  6
HIDDEN
 62
     7
370
     0
100
AcDbLine
 10
41.0544920627
 20
116.8399450985
 30
0.0
 11
42.5544932399
 21
118.3399448787
 31
0.0
  0
LINE
  5
33C
330
1F
100
AcDbEntity
  8
0
  6
HIDDEN
 62
     7
370
     0
100
AcDbLine
 10
42.5544932399
 20
125.3399450947
 30
0.0
 11
41.0544920627
 21
126.8399448749
 31
0.0
  0
LINE
  5
33D
330
1F
100
AcDbEntity
  8
0
  6
HIDDEN
 62
     7
370
     0
100
AcDbLine
 10
30.8544926259
 20
116.8399450985
 30
0.0
 11
41.0544920627
 21
116.8399450985
 31
0.0
  0
LINE
  5
33E
330
1F
100
AcDbEntity
  8
0
  6
HIDDEN
 62
     7
370
     0
100
AcDbLine
 10
41.0544920627
 20
126.8399448749
 30
0.0
 11
30.8544926259
 21
126.8399448749
 31
0.0
  0
LINE
  5
33F
330
1F
100
AcDbEntity
  8
0
  6
HIDDEN
 62
     7
370
     0
100
AcDbLine
 10
30.8544926259
 20
126.8399448749
 30
0.0
 11
30.0544921223
 21
126.039944837
 31
0.0
  0
LINE
  5
340
330
1F
100
AcDbEntity
  8
0
  6
HIDDEN
 62
     7
370
     0
100
AcDbLine
 10
30.0544921223
 20
117.6399451365
 30
0.0
 11
30.8544926259
 21
116.8399450985
 31
0.0
  0
LINE
  5
341
330
1F
100
AcDbEntity
  8
0
  6
HIDDEN
 62
     7
370
     0
100
AcDbLine
 10
42.5544932399
 20
124.3399449308
 30
0.0
 11
41.1111164752
 21
121.8399449867
 31
0.0
  0
LINE
  5
342
330
1F
100
AcDbEntity
  8
0
  6
HIDDEN
 62
     7
370
     0
100
AcDbLine
 10
41.1111164752
 20
121.8399449867
 30
0.0
 11
42.5544932399
 21
119.3399450426
 31
0.0
  0
LINE
  5
343
330
1F
100
AcDbEntity
  8
0
  6
HIDDEN
 62
     7
370
     0
100
AcDbLine
 10
41.0544920627
 20
116.8399450985
 30
0.0
 11
42.4628296781
 21
118.2482820154
 31
0.0
  0
LINE
  5
344
330
1F
100
AcDbEntity
  8
0
  6
HIDDEN
 62
     7
370
     0
100
AcDbLine
 10
42.4628296781
 20
125.431607958
 30
0.0
 11
41.0544920627
 21
126.8399448749
 31
0.0
  0
LINE
  5
345
330
1F
100
AcDbEntity
  8
0
  6
HIDDEN
 62
     7
370
     0
100
AcDbLine
 10
30.8544926259
 20
116.8399450985
 30
0.0
 11
41.0544920627
 21
116.8399450985
 31
0.0
  0
LINE
  5
346
330
1F
100
AcDbEntity
  8
0
  6
HIDDEN
 62
     7
370
     0
100
AcDbLine
 10
41.0544920627
 20
126.8399448749
 30
0.0
 11
30.8544926259
 21
126.8399448749
 31
0.0
  0
LINE
  5
347
330
1F
100
AcDbEntity
  8
0
  6
HIDDEN
 62
     7
370
     0
100
AcDbLine
 10
30.8544926259
 20
126.8399448749
 30
0.0
 11
30.4310388777
 21
126.4164906611
 31
0.0
  0
LINE
  5
348
330
1F
100
AcDbEntity
  8
0
  6
HIDDEN
 62
     7
370
     0
100
AcDbLine
 10
30.4310388777
 20
117.2633993124
 30
0.0
 11
30.8544926259
 21
116.8399450985
 31
0.0
  0
LINE
  5
349
330
1F
100
AcDbEntity
  8
0
  6
HIDDEN
 62
     7
370
     0
100
AcDbLine
 10
42.5544932399
 20
124.3399449308
 30
0.0
 11
41.1111164752
 21
121.8399449867
 31
0.0
  0
LINE
  5
34A
330
1F
100
AcDbEntity
  8
0
  6
HIDDEN
 62
     7
370
     0
100
AcDbLine
 10
41.1111164752
 20
121.8399449867
 30
0.0
 11
42.5544932399
 21
119.3399450426
 31
0.0
  0
LINE
  5
34B
330
1F
100
AcDbEntity
  8
0
  6
HIDDEN
 62
     7
370
     0
100
AcDbLine
 10
63.0544928748
 20
149.0399453473
 30
0.0
 11
62.2544928368
 21
149.839945851
 31
0.0
  0
LINE
  5
34C
330
1F
100
AcDbEntity
  8
0
  6
HIDDEN
 62
     7
370
     0
100
AcDbLine
 10
53.8544931363
 20
149.839945851
 30
0.0
 11
53.0544930983
 21
149.0399453473
 31
0.0
  0
LINE
  5
34D
330
1F
100
AcDbEntity
  8
0
  6
HIDDEN
 62
     7
370
     0
100
AcDbLine
 10
53.0544930983
 20
149.0399453473
 30
0.0
 11
53.0544930983
 21
138.8399459106
 31
0.0
  0
LINE
  5
34E
330
1F
100
AcDbEntity
  8
0
  6
HIDDEN
 62
     7
370
     0
100
AcDbLine
 10
63.0544928748
 20
138.8399459106
 30
0.0
 11
63.0544928748
 21
149.0399453473
 31
0.0
  0
LINE
  5
34F
330
1F
100
AcDbEntity
  8
0
  6
HIDDEN
 62
     7
370
     0
100
AcDbLine
 10
53.0544930983
 20
138.8399459106
 30
0.0
 11
54.5544928785
 21
137.3399447334
 31
0.0
  0
LINE
  5
350
330
1F
100
AcDbEntity
  8
0
  6
HIDDEN
 62
     7
370
     0
100
AcDbLine
 10
61.5544930946
 20
137.3399447334
 30
0.0
 11
63.0544928748
 21
138.8399459106
 31
0.0
  0
LINE
  5
351
330
1F
100
AcDbEntity
  8
0
  6
HIDDEN
 62
     7
370
     0
100
AcDbLine
 10
60.5544929307
 20
137.3399447334
 30
0.0
 11
58.0544929865
 21
138.783321498
 31
0.0
  0
LINE
  5
352
330
1F
100
AcDbEntity
  8
0
  6
HIDDEN
 62
     7
370
     0
100
AcDbLine
 10
58.0544929865
 20
138.783321498
 30
0.0
 11
55.5544930424
 21
137.3399447334
 31
0.0
  0
LINE
  5
353
330
1F
100
AcDbEntity
  8
0
  6
HIDDEN
 62
     7
370
     0
100
AcDbLine
 10
53.0544930983
 20
138.8399459106
 30
0.0
 11
54.4628300152
 21
137.4316082951
 31
0.0
  0
LINE
  5
354
330
1F
100
AcDbEntity
  8
0
  6
HIDDEN
 62
     7
370
     0
100
AcDbLine
 10
61.6461559578
 20
137.4316082951
 30
0.0
 11
63.0544928748
 21
138.8399459106
 31
0.0
  0
LINE
  5
355
330
1F
100
AcDbEntity
  8
0
  6
HIDDEN
 62
     7
370
     0
100
AcDbLine
 10
63.0544928748
 20
149.0399453473
 30
0.0
 11
62.6310386609
 21
149.4633990955
 31
0.0
  0
LINE
  5
356
330
1F
100
AcDbEntity
  8
0
  6
HIDDEN
 62
     7
370
     0
100
AcDbLine
 10
53.4779473122
 20
149.4633990955
 30
0.0
 11
53.0544930983
 21
149.0399453473
 31
0.0
  0
LINE
  5
357
330
1F
100
AcDbEntity
  8
0
  6
HIDDEN
 62
     7
370
     0
100
AcDbLine
 10
53.0544930983
 20
149.0399453473
 30
0.0
 11
53.0544930983
 21
138.8399459106
 31
0.0
  0
LINE
  5
358
330
1F
100
AcDbEntity
  8
0
  6
HIDDEN
 62
     7
370
     0
100
AcDbLine
 10
63.0544928748
 20
138.8399459106
 30
0.0
 11
63.0544928748
 21
149.0399453473
 31
0.0
  0
LINE
  5
359
330
1F
100
AcDbEntity
  8
0
  6
HIDDEN
 62
     7
370
     0
100
AcDbLine
 10
60.5544929307
 20
137.3399447334
 30
0.0
 11
58.0544929865
 21
138.783321498
 31
0.0
  0
LINE
  5
35A
330
1F
100
AcDbEntity
  8
0
  6
HIDDEN
 62
     7
370
     0
100
AcDbLine
 10
58.0544929865
 20
138.783321498
 30
0.0
 11
55.5544930424
 21
137.3399447334
 31
0.0
  0
LINE
  5
35B
330
1F
100
AcDbEntity
  8
0
  6
HIDDEN
 62
     7
370
     0
100
AcDbLine
 10
85.2544933471
 20
126.8399448749
 30
0.0
 11
75.0544939104
 21
126.8399448749
 31
0.0
  0
LINE
  5
35C
330
1F
100
AcDbEntity
  8
0
  6
HIDDEN
 62
     7
370
     0
100
AcDbLine
 10
75.0544939104
 20
116.8399450985
 30
0.0
 11
85.2544933471
 21
116.8399450985
 31
0.0
  0
LINE
  5
35D
330
1F
100
AcDbEntity
  8
0
  6
HIDDEN
 62
     7
370
     0
100
AcDbLine
 10
85.2544933471
 20
116.8399450985
 30
0.0
 11
85.6779470954
 21
117.2633993124
 31
0.0
  0
LINE
  5
35E
330
1F
100
AcDbEntity
  8
0
  6
HIDDEN
 62
     7
370
     0
100
AcDbLine
 10
85.6779470954
 20
126.4164906611
 30
0.0
 11
85.2544933471
 21
126.8399448749
 31
0.0
  0
LINE
  5
35F
330
1F
100
AcDbEntity
  8
0
  6
HIDDEN
 62
     7
370
     0
100
AcDbLine
 10
75.0544939104
 20
126.8399448749
 30
0.0
 11
73.646156295
 21
125.431607958
 31
0.0
  0
LINE
  5
360
330
1F
100
AcDbEntity
  8
0
  6
HIDDEN
 62
     7
370
     0
100
AcDbLine
 10
73.646156295
 20
118.2482820154
 30
0.0
 11
75.0544939104
 21
116.8399450985
 31
0.0
  0
LINE
  5
361
330
1F
100
AcDbEntity
  8
0
  6
HIDDEN
 62
     7
370
     0
100
AcDbLine
 10
73.5544927332
 20
119.3399450426
 30
0.0
 11
74.9978694979
 21
121.8399449867
 31
0.0
  0
LINE
  5
362
330
1F
100
AcDbEntity
  8
0
  6
HIDDEN
 62
     7
370
     0
100
AcDbLine
 10
74.9978694979
 20
121.8399449867
 30
0.0
 11
73.5544927332
 21
124.3399449308
 31
0.0
  0
INSERT
  5
36E
330
1F
100
AcDbEntity
  8
VERMASSUNG
100
AcDbBlockReference
  2
SW_CENTERMARKSYMBOL_0
 10
58.0544929865
 20
121.8399449867
 30
0.0
  0
OLE2FRAME
  5
36F
330
1F
100
AcDbEntity
  8
0
100
AcDbOle2Frame
 70
     2
  3
Paintbrush-Bild
 10
13.8511154363
 20
38.264191557
 30
0.0
 11
51.6290888628
 21
31.9806341108
 31
0.0
 71
     2
 72
     0
 73
     1
 90
    12928
310
80552BED0767C5B32B40DDAF6807D121434000000000000000006FFBDDFB85D0
310
4940DDAF6807D121434000000000000000006FFBDDFB85D04940416F4BD60AFB
310
3F4000000000000000002BED0767C5B32B40416F4BD60AFB3F40000000000000
310
0000000000000100000000010000010000000100000000000100000000320000
310
D0CF11E0A1B11AE1000000000000000000000000000000003E000300FEFF0900
310
0600000000000000000000000100000001000000000000000010000002000000
310
01000000FEFFFFFF0000000000000000FFFFFFFFFFFFFFFFFFFFFFFFFFFFFFFF
310
FFFFFFFFFFFFFFFFFFFFFFFFFFFFFFFFFFFFFFFFFFFFFFFFFFFFFFFFFFFFFFFF
310
FFFFFFFFFFFFFFFFFFFFFFFFFFFFFFFFFFFFFFFFFFFFFFFFFFFFFFFFFFFFFFFF
310
FFFFFFFFFFFFFFFFFFFFFFFFFFFFFFFFFFFFFFFFFFFFFFFFFFFFFFFFFFFFFFFF
310
FFFFFFFFFFFFFFFFFFFFFFFFFFFFFFFFFFFFFFFFFFFFFFFFFFFFFFFFFFFFFFFF
310
FFFFFFFFFFFFFFFFFFFFFFFFFFFFFFFFFFFFFFFFFFFFFFFFFFFFFFFFFFFFFFFF
310
FFFFFFFFFFFFFFFFFFFFFFFFFFFFFFFFFFFFFFFFFFFFFFFFFFFFFFFFFFFFFFFF
310
FFFFFFFFFFFFFFFFFFFFFFFFFFFFFFFFFFFFFFFFFFFFFFFFFFFFFFFFFFFFFFFF
310
FFFFFFFFFFFFFFFFFFFFFFFFFFFFFFFFFFFFFFFFFFFFFFFFFFFFFFFFFFFFFFFF
310
FFFFFFFFFFFFFFFFFFFFFFFFFFFFFFFFFFFFFFFFFFFFFFFFFFFFFFFFFFFFFFFF
310
FFFFFFFFFFFFFFFFFFFFFFFFFFFFFFFFFFFFFFFFFFFFFFFFFFFFFFFFFFFFFFFF
310
FFFFFFFFFFFFFFFFFFFFFFFFFFFFFFFFFFFFFFFFFFFFFFFFFFFFFFFFFFFFFFFF
310
FFFFFFFFFFFFFFFFFFFFFFFFFFFFFFFFFFFFFFFFFFFFFFFFFFFFFFFFFFFFFFFF
310
FFFFFFFFFFFFFFFFFFFFFFFFFFFFFFFFFFFFFFFFFFFFFFFFFFFFFFFFFFFFFFFF
310
FDFFFFFFFEFFFFFFFEFFFFFFFEFFFFFF05000000060000000700000008000000
310
090000000A0000000B0000000C0000000D0000000E0000000F00000010000000
310
11000000120000001300000014000000150000001600000017000000FEFFFFFF
310
FFFFFFFFFFFFFFFFFFFFFFFFFFFFFFFFFFFFFFFFFFFFFFFFFFFFFFFFFFFFFFFF
310
FFFFFFFFFFFFFFFFFFFFFFFFFFFFFFFFFFFFFFFFFFFFFFFFFFFFFFFFFFFFFFFF
310
FFFFFFFFFFFFFFFFFFFFFFFFFFFFFFFFFFFFFFFFFFFFFFFFFFFFFFFFFFFFFFFF
310
FFFFFFFFFFFFFFFFFFFFFFFFFFFFFFFFFFFFFFFFFFFFFFFFFFFFFFFFFFFFFFFF
310
FFFFFFFFFFFFFFFFFFFFFFFFFFFFFFFFFFFFFFFFFFFFFFFFFFFFFFFFFFFFFFFF
310
FFFFFFFFFFFFFFFFFFFFFFFFFFFFFFFFFFFFFFFFFFFFFFFFFFFFFFFFFFFFFFFF
310
FFFFFFFFFFFFFFFFFFFFFFFFFFFFFFFFFFFFFFFFFFFFFFFFFFFFFFFFFFFFFFFF
310
FFFFFFFFFFFFFFFFFFFFFFFFFFFFFFFFFFFFFFFFFFFFFFFFFFFFFFFFFFFFFFFF
310
FFFFFFFFFFFFFFFFFFFFFFFFFFFFFFFFFFFFFFFFFFFFFFFFFFFFFFFFFFFFFFFF
310
FFFFFFFFFFFFFFFFFFFFFFFFFFFFFFFFFFFFFFFFFFFFFFFFFFFFFFFFFFFFFFFF
310
FFFFFFFFFFFFFFFFFFFFFFFFFFFFFFFFFFFFFFFFFFFFFFFFFFFFFFFFFFFFFFFF
310
FFFFFFFFFFFFFFFFFFFFFFFFFFFFFFFFFFFFFFFFFFFFFFFFFFFFFFFFFFFFFFFF
310
FFFFFFFFFFFFFFFFFFFFFFFFFFFFFFFFFFFFFFFFFFFFFFFFFFFFFFFFFFFFFFFF
310
52006F006F007400200045006E00740072007900000000000000000000000000
310
0000000000000000000000000000000000000000000000000000000000000000
310
16000500FFFFFFFFFFFFFFFF020000000A00030000000000C000000000000046
310
0000000000000000000000009049BEAEA4B2CE0103000000C000000000000000
310
01004F006C006500000000000000000000000000000000000000000000000000
310
0000000000000000000000000000000000000000000000000000000000000000
310
0A000200FFFFFFFFFFFFFFFFFFFFFFFF00000000000000000000000000000000
310
0000000000000000000000000000000000000000000000001400000000000000
310
010043006F006D0070004F0062006A0000000000000000000000000000000000
310
0000000000000000000000000000000000000000000000000000000000000000
310
120002010100000003000000FFFFFFFF00000000000000000000000000000000
310
0000000000000000000000000000000000000000010000004D00000000000000
310
01004F006C006500310030004E00610074006900760065000000000000000000
310
0000000000000000000000000000000000000000000000000000000000000000
310
1A000200FFFFFFFFFFFFFFFFFFFFFFFF00000000000000000000000000000000
310
0000000000000000000000000000000000000000040000002426000000000000
310
FEFFFFFF02000000FEFFFFFFFFFFFFFFFFFFFFFFFFFFFFFFFFFFFFFFFFFFFFFF
310
FFFFFFFFFFFFFFFFFFFFFFFFFFFFFFFFFFFFFFFFFFFFFFFFFFFFFFFFFFFFFFFF
310
FFFFFFFFFFFFFFFFFFFFFFFFFFFFFFFFFFFFFFFFFFFFFFFFFFFFFFFFFFFFFFFF
310
FFFFFFFFFFFFFFFFFFFFFFFFFFFFFFFFFFFFFFFFFFFFFFFFFFFFFFFFFFFFFFFF
310
FFFFFFFFFFFFFFFFFFFFFFFFFFFFFFFFFFFFFFFFFFFFFFFFFFFFFFFFFFFFFFFF
310
FFFFFFFFFFFFFFFFFFFFFFFFFFFFFFFFFFFFFFFFFFFFFFFFFFFFFFFFFFFFFFFF
310
FFFFFFFFFFFFFFFFFFFFFFFFFFFFFFFFFFFFFFFFFFFFFFFFFFFFFFFFFFFFFFFF
310
FFFFFFFFFFFFFFFFFFFFFFFFFFFFFFFFFFFFFFFFFFFFFFFFFFFFFFFFFFFFFFFF
310
FFFFFFFFFFFFFFFFFFFFFFFFFFFFFFFFFFFFFFFFFFFFFFFFFFFFFFFFFFFFFFFF
310
FFFFFFFFFFFFFFFFFFFFFFFFFFFFFFFFFFFFFFFFFFFFFFFFFFFFFFFFFFFFFFFF
310
FFFFFFFFFFFFFFFFFFFFFFFFFFFFFFFFFFFFFFFFFFFFFFFFFFFFFFFFFFFFFFFF
310
FFFFFFFFFFFFFFFFFFFFFFFFFFFFFFFFFFFFFFFFFFFFFFFFFFFFFFFFFFFFFFFF
310
FFFFFFFFFFFFFFFFFFFFFFFFFFFFFFFFFFFFFFFFFFFFFFFFFFFFFFFFFFFFFFFF
310
FFFFFFFFFFFFFFFFFFFFFFFFFFFFFFFFFFFFFFFFFFFFFFFFFFFFFFFFFFFFFFFF
310
FFFFFFFFFFFFFFFFFFFFFFFFFFFFFFFFFFFFFFFFFFFFFFFFFFFFFFFFFFFFFFFF
310
FFFFFFFFFFFFFFFFFFFFFFFFFFFFFFFFFFFFFFFFFFFFFFFFFFFFFFFFFFFFFFFF
310
0100000200000000000000000000000000000000000000000000000000000000
310
0000000000000000000000000000000000000000000000000000000000000000
310
0100FEFF030A0000FFFFFFFF0A00030000000000C00000000000004607000000
310
5042727573680007000000504272757368000700000050427275736800F439B2
310
7100000000000000000000000000000000000000000000000000000000000000
310
0000000000000000000000000000000000000000000000000000000000000000
310
0000000000000000000000000000000000000000000000000000000000000000
310
0000000000000000000000000000000000000000000000000000000000000000
310
0000000000000000000000000000000000000000000000000000000000000000
310
0000000000000000000000000000000000000000000000000000000000000000
310
0000000000000000000000000000000000000000000000000000000000000000
310
0000000000000000000000000000000000000000000000000000000000000000
310
0000000000000000000000000000000000000000000000000000000000000000
310
0000000000000000000000000000000000000000000000000000000000000000
310
0000000000000000000000000000000000000000000000000000000000000000
310
0000000000000000000000000000000000000000000000000000000000000000
310
20260000424D0E260000000000003E00000028000000B40200006E0000000100
310
01000000000000000000130B0000130B00000200000002000000000000FFFFFF
310
FFFFFFFFFFFFFFFFFFFFFFFFFFFFFFFFFFFFFFFFFFFFFFFFFFFFFFFFFFFFFFFF
310
FFFFFFFFFFFFFFFFFFFFFFFFFFFFFFFFFFFFFFFFFFFFFFFFFFFFFFFFFFFFFFFF
310
FFFFFFFFFFFFFFFFFFFFFFFFFFFFFFFFFFFFFFFFFFFFFFFFF000FFFFFFFFFFFF
310
FFFFFFFFFFFFFFFFFFFFFFFFFFFFFFFFFFFFFFFFFFFFFFFFFFFFFFFFFFFFFFFF
310
FFFFFFFFFFFFFFFFFFFFFFFFFFFFFFFFFFFFFFFFFFFFFFFFFFFFFFFFFFFFFFFF
310
FFFFFFFFFFFFFFFFFFFFFFFFFFFFFFFFF000FFFFFFFFFFFFFFFFFFFFFFFFFFFF
310
FFFFFFFFFFFFFFFFFFFFFFFFFFFFFFFFFFFFFFFFFFFFFFFFFFFFFFFFFFFFFFFF
310
FFFFFFFFFFFFFFFFFFFFFFFFFFFFFFFFFFFFFFFFFFFFFFFFFFFFFFFFFFFFFFFF
310
FFFFFFFFFFFFFFFFF000FFFFFFFFFFFFFFFFFFFFFFFFFFFFFFFFFFFFFFFFFFFF
310
FFFFFFFFFFFFFFFFFFFFFFFFFFFFFFFFFFFFFFFFFFFFFFFFFFFFFFFFFFFFFFFF
310
FFFFFFFFFFFFFFFFFFFFFFFFFFFFFFFFFFFFFFFFFFFFFFFFFFFFFFFFFFFFFFFF
310
F000FFFFFFFFFFFFFFFFFFFFFFFFFFFFFFFFFFFFFFFFFFFFFFFFFFFFFFFFFFFF
310
FFFFFFFFFFFFFFFFFFFFFFFFFFFFFFFFFFFFFFFFFFFFFFFFFFFFFFFFFFFFFFFF
310
FFFFFFFFFFFFFFFFFFFFFFFFFFFFFFFFFFFFFFFFFFFFFFFFF000FFFFFFFFFFFF
310
FFFFFFFFFFFFFFFFFFFFFFFFFFFFFFFFFFFFFFFFFFFFFFFFFFFFFFFFFFFFFFFF
310
FFFFFFFFFFFFFFFFFFFFFFFFFFFFFFFFFFFFFFFFFFFFFFFFFFFFFFFFFFFFFFFF
310
FFFFFFFFFFFFFFFFFFFFFFFFFFFFFFFFF000FFFFFFFFFFFFFFFFFFFFFFFFFFFF
310
FFFFFFFFFFFFFFFFFFFFFFFFFFFFFFFFFFFFFFFFFFFFFFFFFFFFFFFFFFFFFFFF
310
FFFFFFFFFFFFFFFFFFFFFFFFFFFFFFFFFFFFFFFFFFFFFFFFFFFFFFFFFFFFFFFF
310
FFFFFFFFFFFFFFFFF000FFFFFFFFFFFFFFFFFFFFFFFFFFFFFFFFFFFFFFFFFFFF
310
FFFFFFFFFFFFFFFFFFFFFFFFFFFFFFFFFFFFFFFFFFFFFFFFFFFFFFFFFFFFFFFF
310
FFFFFFFFFFFFFFFFFFFFFFFFFFFFFFFFFFFFFFFFFFFFFFFFFFFFFFFFFFFFFFFF
310
F000FFFFFFFFFFFFFFFFFFFFFFFFFFFFFFFFFFFFFFFFFFFFFFFFFFFFFFFFFFFF
310
FFFFFFFFFFFFFFFFFFFFFFFFFFFFFFFFFFFFFFFFFFFFFFFFFFFFFFFFFFFFFFFF
310
FFFFFFFFFFFFFFFFFFFFFFFFFFFFFFFFFFFFFFFFFFFFFFFFF000FFFFFFFFFFFF
310
FFFFFFFFFFFFFFFFFFFFFFFFFFFFFFFFFFFFFFFFFFFFFFFFFFFFFFFFFFFFFFFF
310
FFFFFFFFFFFFFFFFFFFFFFFFFFFFFFFFFFFFFFFFFFFFFFFFFFFFFFFFFFFFFFFF
310
FFFFFFFFFFFFFFFFFFFFFFFFFFFFFFFFF000FFFFFFFFFFFFFFFFFFFFFFFFFFFF
310
FFFFFFFFFFFFFFFFFFFFFFFFFFFFFFFFFFFFFFFFFFFFFFFFFFFFFFFFFFFFFFFF
310
FFFFFFFFFFFFFFFFFFFFFFFFFFFFFFFFFFFFFFFFFFFFFFFFFFFFFFFFFFFFFFFF
310
FFFFFFFFFFFFFFFFF000FFFFFFFFFFFFFFFFFFFFFFFFFFFFFFFFFFFFFFFFFFFF
310
FFFFFFFFFFFFFFFFFFFFFFFFFFFFFFFFFFFFFFFFFFFFFFFFFFFFFFFFFFFFFFFF
310
FFFFFFFFFFFFFFFFFFFFFFFFFFFFFFFFFFFFFFFFFFFFFFFFFFFFFFFFFFFFFFFF
310
F000FFFFFFFFFFFFFFFFFFFFFFFFFFFFFFFFFFFFFFFFFFFFFFFFFFFFFFFFFFFF
310
FFFFFFFFFFFFFFFFFFFFFFFFFFFFFFFFFFFFFFFFFFFFFFFFFFFFFFFFFFFFFFFF
310
FFFFFFFFFFFFFFFFFFFFFFFFFFFFFFFFFFFFFFFFFFFFFFFFF000FFFFFFFFFFFF
310
FFFFFFFFFFFFFFFFFFFFFFFFFFFFFFFFFFFFFFFFFFFFFFFFFFFFFFFFFFFFFFFF
310
FFFFFFFFFFFFFFFFFFFFFFFFFFFFFFFFFFFFFFFFFFFFFFFFFFFFFFFFFFFFFFFF
310
FFFFFFFFFFFFFFFFFFFFFFFFFFFFFFFFF000FFFFFFFFFFFFFFFFFFFFFFFFFFFF
310
FFFFFFFFFFFFFFFFFFFFFFFFFFFFFFFFFFFFFFFFFFFFFFFFFFFFFFFFFFFFFFFF
310
FFFFFFFFFFFFFFFFFFFFFFFFFFFFFFFFFFFFFFFFFFFFFFFFFFFFFFFFFFFFFFFF
310
FFFFFFFFFFFFFFFFF000FFFFFFFFFFFFFFFFFFFFFFFFFFFFFFFFFFFFFFFFFFFF
310
FFFFFFFFFFFFFFFFFFFFFFFFFFFFFFFFFFFFFFFFFFFFFFFFFFFFFFFFFFFFFFFF
310
FFFFFFFFFFFFFFFFFFFFFFFFFFFFFFFFFFFFFFFFFFFFFFFFFFFFFFFFFFFFFFFF
310
F000FFFFFFFFFFFFFFFFFFFFFFFFFFFFFFFFFFFFFFFFFFFFFFFFFFFFFFFFFFFF
310
FFFFFFFFFFFFFFFFFFFFFFFFFFFFFFFFFFFFFFFFFFFFFFFFFFFFFFFFFFFFFFFF
310
FFFFFFFFFFFFFFFFFFFFFFFFFFFFFFFFFFFFFFFFFFFFFFFFF000FFFFFFFFFFFF
310
FFFFFFFFFFFFFFFFFFFFFFFFFFFFFFFFFFFFFFFFFFFFFFFFFFFFFFFFFFFFFFFF
310
FFFFFFFFFFFFFFFFFFFFFFFFFFFFFFFFFFFFFFFFFFFFFFFFFFFFFFFFFFFFFFFF
310
FFFFFFFFFFFFFFFFFFFFFFFFFFFFFFFFF000FFFFFFFFFFFFFFFFFFFFFFFFFFFF
310
FFFFFFFFFFFFFFFFFFFFFFFFFFFFFFFFFFFFFFFFFFFFFFFFFFFFFFFFFFFFFFFF
310
FFFFFFFFFFFFFFFFFFFFFFFFFFFFFFFFFFFFFFFFFFFFFFFFFFFFFFFFFFFFFFFF
310
FFFFFFFFFFFFFFFFF000FFFFF80003FFFFFFFFFFFFFFFFFFFFFFFFFFFFFFFFFF
310
FFFFF00007FFFFFFFFFF00007FFFFFF800000000000000007FFFFFFFFFFFFFFF
310
FFFFFFFC001FFFFFFFFFFFFFFC001FFFFFFFFFFFFFFFFFFFFFFFFFFE0007FFFF
310
F000FFFF8000007FFFFFFFF8000FFFFFC0007FFFFF80007FFFFF0000007FFFFF
310
FFF8000007FFFFF800000000000000007FFFFFF0001FFFFFFFFFFFC00001FFFF
310
FFFFFFFFC00001FFFFFFFF000000000003FFFFE000007FFFF000FFFE0000000F
310
FFFFFFF0000FFFFF80007FFFFF80007FFFFC0000001FFFFFFFC0000001FFFFF8
310
00000000000000007FFFFFF0001FFFFFFFFFFE0000003FFFFFFFFFFE0000003F
310
FFFFFF000000000003FFFF0000000FFFF000FFF800000003FFFFFFF00007FFFF
310
80007FFFFF80007FFFF000000007FFFFFF000000003FFFF80000000000000000
310
7FFFFFF0001FFFFFFFFFF80000000FFFFFFFFFF80000000FFFFFFF0000000000
310
03FFFC00000003FFF000FFE000000000FFFFFFF00007FFFF80003FFFFF80007F
310
FFC000000001FFFFFC000000001FFFF800000000000000007FFFFFF0001FFFFF
310
FFFFE000000003FFFFFFFFE000000003FFFFFF000000000003FFF000000000FF
310
F000FF80000000007FFFFFF00007FFFF80003FFFFF80007FFF8000000000FFFF
310
F80000000007FFF800000000000000007FFFFFF0001FFFFFFFFFC000000001FF
310
FFFFFFC000000001FFFFFF000000000003FFC0000000007FF000FF0000000000
310
3FFFFFE00007FFFF00003FFFFF80007FFE00000000003FFFF00000000003FFF8
310
00000000000000007FFFFFF0001FFFFFFFFF8000000000FFFFFFFF8000000000
310
FFFFFF000000000003FF80000000003FF000FE00000000001FFFFFE00003FFFF
310
00003FFFFF80007FFC00000000001FFFE00000000001FFF8000001FFFE000000
310
7FFFFFF0001FFFFFFFFE00000000003FFFFFFE00000000003FFFFF0000000000
310
03FF00000000001FF000FC00000000000FFFFFE00003FFFF00001FFFFF80007F
310
F800000000001FFFC00000000000FFF8000001FFFE0000007FFFFFF0001FFFFF
310
FFFC00000000001FFFFFFC00000000001FFFFF000000000003FE00000000000F
310
F000F8000000000007FFFFE00003FFFF00001FFFFF80007FF800000000000FFF
310
800000000000FFF8000001FFFE0000007FFFFFF0001FFFFFFFF800000000000F
310
FFFFF800000000000FFFFF000000000003FC000000000007F000F80000000000
310
03FFFFC00003FFFE00001FFFFF80007FF0000000000007FF0000000000007FF8
310
000001FFFE0000007FFFFFF0001FFFFFFFF0000000000007FFFFF00000000000
310
07FFFF000000000003F8000000000003F000F0000000000003FFFFC00001FFFE
310
00001FFFFF80007FE0000000000007FE0000000000003FF8000001FFFE000000
310
7FFFFFF0001FFFFFFFF0000000000007FFFFF0000000000007FFFF0000000000
310
03F800001F800003F000E00001FFF00001FFFFC00001FFFE00000FFFFF80007F
310
E00001FFE00003FE00001FFF00003FF8000001FFFE0000007FFFFFF0001FFFFF
310
FFE000003E000003FFFFE000003E000003FFFF000000000003F00001FFF80001
310
F000E00007FFFC0001FFFFC00001FFFE00000FFFFF80007FC0000FFFFC0003FC
310
0000FFFFC0001FF8000001FFFE0000007FFFFFF0001FFFFFFFC00003FFE00001
310
FFFFC00003FFE00001FFFF0001FFFFFFFFF00007FFFE0001F000E0000FFFFF00
310
00FFFF800001FFFC00000FFFFF80007FC0001FFFFE0001FC0001FFFFE0001FF8
310
000001FFFE0000007FFFFFF0001FFFFFFF80000FFFF80000FFFF80000FFFF800
310
00FFFF0003FFFFFFFFE0000FFFFF8000F000C0003FFFFF8000FFFF800000FFFC
310
000007FFFF80007F80003FFFFF0001FC0003FFFFF0001FF8000001FFFE000000
310
7FFFFFF0001FFFFFFF80003FFFFE0000FFFF80003FFFFE0000FFFF0003FFFFFF
310
FFE0003FFFFF8000F000C0003FFFFF8000FFFF800000FFFC000007FFFF80007F
310
80007FFFFF8001F80007FFFFF8000FF8000001FFFE0000007FFFFFF0001FFFFF
310
FF00007FFFFF00007FFF00007FFFFF00007FFF0003FFFFFFFFE0003FFFFFC000
310
F000C0007FFFFFC000FFFF000000FFFC000007FFFF80007F8000FFFFFF8000F8
310
000FFFFFF8000FF8000001FFFE0000007FFFFFF0001FFFFFFF0000FFFFFF8000
310
7FFF0000FFFFFF80007FFF0003FFFFFFFFC0007FFFFFC00070008000FFFFFFC0
310
00FFFF000000FFF8000007FFFF80007F8000FFFFFF8000F8000FFFFFF8000FF8
310
000001FFFE0000007FFFFFF0001FFFFFFE0001FFFFFFC0003FFE0001FFFFFFC0
310
003FFF0003FFFFFFFFC0007FFFFFE00070008000FFFFFFC0007FFF0000007FF8
310
000003FFFF80007F0001FFFFFF8000F8000FFFFFF8000FF8000001FFFE000000
310
7FFFFFF0001FFFFFFE0001FFFFFFC0003FFE0001FFFFFFC0003FFF0003FFFFFF
310
FFC000FFFFFFE00070008000FFFFFFC0007FFF0000007FF8000003FFFF80007F
310
0001FFFFFF8000F8001FFFFFF8000FF8000001FFFE0000007FFFFFF0001FFFFF
310
FE0003FFFFFFE0003FFE0003FFFFFFE0003FFF0003FFFFFFFFC000FFFFFFE000
310
70008000FFFFFFC0007FFE0000007FF8000003FFFF80007F0001FFFFFF8000F0
310
001FFFFFF8000FF8000001FFFE0000007FFFFFF0001FFFFFFC0003FFFFFFE000
310
1FFC0003FFFFFFE0001FFF0003FFFFFFFFC000FFFFFFC00070008000FFFFFF80
310
007FFE0000007FF0000003FFFF80007F0001FFFFFF0000F0001FFFFFF8000FF8
310
000001FFFE0000007FFFFFF0001FFFFFFC0007FFFFFFF0001FFC0007FFFFFFF0
310
001FFF0003FFFFFFFFC000FFFFFFC00070008001FFFFFF0000FFFE0000003FF0
310
000001FFFF80007F0001FFFFFF0000F8001FFFFFF0000FF8000001FFFE000000
310
7FFFFFF0001FFFFFFC0007FFFFFFF0001FFC0007FFFFFFF0001FFF0003FFFFFF
310
FFC001FFFFFF80007000FFFFFFFFFE0000FFFE0008003FF0008001FFFF80007F
310
FFFFFFFFFC0000FFFFFFFFFFE0000FF8000001FFFE0000007FFFFFF0001FFFFF
310
F8000FFFFFFFF8000FF8000FFFFFFFF8000FFF0003FFFFFFFFFFFFFFFFFF0000
310
7000FFFFFFFFFC0000FFFC0008003FF0008001FFFF80007FFFFFFFFFF80001FF
310
FFFFFFFF80000FF8000001FFFE0000007FFFFFF0001FFFFFF8000FFFFFFFF800
310
0FF8000FFFFFFFF8000FFF0003FFFFFFFFFFFFFFFFFE0000F000FFFFFFFFE000
310
00FFFC000C003FE000C001FFFF80007FFFFFFFFFC00001FFFFFFFFFE00001FF8
310
000001FFFE0000007FFFFFF0001FFFFFF8000FFFFFFFF8000FF8000FFFFFFFF8
310
000FFF0003FFFFFFFFFFFFFFFFF00000F000FFFFFFFE000001FFFC000C001FE0
310
00C000FFFF80007FFFFFFFFE000001FFFFFFFFE000001FF80FFFFFFFFFFFFFC0
310
7FFFFFF0001FFFFFF8000FFFFFFFF8000FF8000FFFFFFFF8000FFF0003FFFFFF
310
FFFFFFFFFF800000F000FFFFFFC0000001FFFC001C001FE001C000FFFF80007F
310
FFFFFF80000003FFFFFFF80000001FF80FFFFFFFFFFFFFC07FFFFFF0001FFFFF
310
F8001FFFFFFFFC000FF8001FFFFFFFFC000FFF0003FFFFFFFFFFFFFFF0000001
310
F000FFFFF800000001FFF8001C001FE001C000FFFF80007FFFFFF800000003FF
310
FFFF800000003FF80FFFFFFFFFFFFFC07FFFFFF0001FFFFFF8001FFFFFFFFC00
310
0FF8001FFFFFFFFC000FFF0003FFFFFFFFFFFFFE00000001F000FFFFC0000000
310
03FFF8001E001FC001E000FFFF80007FFFFF8000000007FFFFFC000000003FF8
310
0FFFFFFFFFFFFFC07FFFFFF0001FFFFFF8001FFFFFFFFC000FF8001FFFFFFFFC
310
000FFF0003FFFFFFFFFFFFE000000003F000FFFE0000000007FFF8001E000FC0
310
01E0007FFF80007FFFFE0000000007FFFFE0000000007FF80FFFFFFFFFFFFFC0
310
7FFFFFF0001FFFFFF0001FFFFFFFFC0007F0001FFFFFFFFC0007FF0003FFFFFF
310
FFFFFF0000000003F000FFF80000000007FFF8001E000FC003E0007FFF80007F
310
FFF0000000000FFFFF8000000000FFF80FFFFFFFFFFFFFC07FFFFFF0001FFFFF
310
F0001FFFFFFFFC0007F0001FFFFFFFFC0007FF0003FFFFFFFFFFFC0000000007
310
F000FFE0000000000FFFF0003E000FC003E0007FFF80007FFFC0000000001FFF
310
FE0000000001FFF80FFFFFFFFFFFFFC07FFFFFF0001FFFFFF0001FFFFFFFFC00
310
07F0001FFFFFFFFC0007FF0003FFFFFFFFFFF0000000000FF000FFC000000000
310
1FFFF0003F000F8003F0003FFF80007FFF80000000003FFFF80000000003FFF8
310
0FFFFFFFFFFFFFC07FFFFFF0001FFFFFF0001FFFFFFFFC0007F0001FFFFFFFFC
310
0007FF0003FFFFFFFFFFE0000000001FF000FF00000000007FFFF0003F000780
310
03F0003FFF80007FFF00000000007FFFF00000000007FFF80FFFFFFFFFFFFFC0
310
7FFFFFF0001FFFFFF0001FFFFFFFFC0007F0001FFFFFFFFC0007FF0003FFFFFF
310
FFFF80000000007FF000FE0000000000FFFFE0003F00078007F0003FFF80007F
310
FE0000000001FFFFE0000000001FFFF80FFFFFFFFFFFFFC07FFFFFF0001FFFFF
310
F0001FFFFFFFFC0007F0001FFFFFFFFC0007FF0003FFFFFFFFFF0000000000FF
310
F000FC0000000003FFFFE0007F00078007F0003FFF80007FFC0000000007FFFF
310
C0000000007FFFF80FFFFFFFFFFFFFC07FFFFFF0001FFFFFF8001FFFFFFFFC00
310
0FF8001FFFFFFFFC000FFF0003FFFFFFFFFE0000000003FFF000FC000000000F
310
FFFFE0007F80070007F8001FFF80007FF8000000001FFFFF8000000001FFFFF8
310
0FFFFFFFFFFFFFC07FFFFFF0001FFFFFF8001FFFFFFFFC000FF8001FFFFFFFFC
310
000FFF0003FFFFFFFFFC000000000FFFF000F8000000007FFFFFE0007F800700
310
07F8001FFF80007FF000000000FFFFFF800000000FFFFFF80FFFFFFFFFFFFFC0
310
7FFFFFF0001FFFFFF8000FFFFFFFF8000FF8000FFFFFFFF8000FFF0003FFFFFF
310
FFFC000000007FFFF000F800000007FFFFFFC0007F8003000FF8001FFF80007F
310
F000000007FFFFFF000000007FFFFFF80FFFFFFFFFFFFFC07FFFFFF0001FFFFF
310
F8000FFFFFFFF8000FF8000FFFFFFFF8000FFF0003FFFFFFFFF80000000FFFFF
310
F000F0000000FFFFFFFFC000FF8003000FF8001FFF80007FE0000000FFFFFFFF
310
0000000FFFFFFFF8000001FFFE0000007FFFFFF0001FFFFFF8000FFFFFFFF800
310
0FF8000FFFFFFFF8000FFF0003FFFFFFFFF8000000FFFFFFF000F000000FFFFF
310
FFFFC000FFC002000FF8000FFF80007FE000001FFFFFFFFE000001FFFFFFFFF8
310
000001FFFE0000007FFFFFF0001FFFFFF8000FFFFFFFF8000FF8000FFFFFFFF8
310
000FFF0003FFFFFFFFF000001FFFFFFFF000E00000FFFFFFFFFFC000FFC00200
310
0FFC000FFF80007FE00001FFFFFFFFFE00001FFFFFFFFFF8000001FFFE000000
310
7FFFFFF0001FFFFFFC000FFFFFFFF8001FFC000FFFFFFFF8001FFF0003FFFFFF
310
FFF00001FFFFFFFFF000E00007FFFFFFFFFF8000FFC000001FFC000FFF80007F
310
C0000FFFFFFFFFFE0000FFFFFFFFFFF8000001FFFE0000007FFFFFF0001FFFFF
310
FC0007FFFFFFF0001FFC0007FFFFFFF0001FFF0003FFFFFFFFF00007FFFFFFFF
310
F000E0001FFFFFFFFFFF8000FFC000001FFC000FFF80007FC0003FFFFFFFFFFE
310
0001FFFFFFFFFFF8000001FFFE0000007FFFFFF0001FFFFFFC0007FFFFFFF000
310
1FFC0007FFFFFFF0001FFF0003FFFFFFFFF0001FFFFFFFFFF000E0003FFFFF00
310
03FF8001FFE000001FFC0007FF80007FC0007FFFFF0007FC0003FFFFF0003FF8
310
000001FFFE0000007FFFFFF0001FFFFFFC0003FFFFFFE0001FFC0003FFFFFFE0
310
001FFF0003FFFFFFFFF0003FFFFFFFFFF000E0003FFFFF0001FF8001FFE00000
310
1FFE0007FF80007FC0007FFFFE0003FC0007FFFFE0003FF8000001FFFE000000
310
7FFFFFF0001FFFFFFE0003FFFFFFE0003FFE0003FFFFFFE0003FFF0003FFFFFF
310
FFF0003FFFFF8001F000E0003FFFFF0001FF0001FFE000001FFE0007FF80007F
310
C0007FFFFE0003FC0007FFFFE0003FF8000001FFFE0000007FFFFFF0001FFFFF
310
FE0001FFFFFFC0003FFE0001FFFFFFC0003FFF0003FFFFFFFFF0003FFFFF0001
310
F000E0003FFFFF0003FF0001FFE000003FFE0007FF80007FC0007FFFFE0003FC
310
0007FFFFE0003FF8000001FFFE0000007FFFFFF0001FFFFFFF0001FFFFFFC000
310
7FFF0001FFFFFFC0007FFF0003FFFFFFFFF0003FFFFF0001F000E0003FFFFE00
310
03FF0003FFF000003FFE0003FF80007FC0007FFFFC0003FE0007FFFFE0003FF8
310
000001FFFE0000007FFFFFF0001FFFFFFF0000FFFFFF80007FFF0000FFFFFF80
310
007FFF0003FFFFFFFFF0003FFFFF0001F000E0003FFFFE0003FF0003FFF00000
310
3FFF0003FF80007FC0007FFFFC0007FE0007FFFFC0003FF8000001FFFE000000
310
7FFFFFF0001FFFFFFF80007FFFFF0000FFFF80007FFFFF0000FFFF0003FFFFFF
310
FFF0003FFFFF0003F000E0003FFFFC0003FE0003FFF000003FFF0003FF80007F
310
E0003FFFF80007FE0003FFFFC0007FF8000001FFFE0000007FFFFFF0001FFFFF
310
FF80003FFFFE0000FFFF80003FFFFE0000FFFF0003FFFFFFFFF0001FFFFE0003
310
F000F0001FFFF80003FE0003FFF000007FFF0001FF80007FE0003FFFF00007FE
310
0001FFFF80007FF8000001FFFE0000007FFFFFF0001FFFFFFFC0000FFFF80001
310
FFFFC0000FFFF80001FFFF0003FFFFFFFFF0001FFFFC0003F000F0000FFFF000
310
07FE0007FFF800007FFF0001FF80007FE0001FFFE00007FF0000FFFE00007FF8
310
000001FFFE0000007FFFFFF0001FFFFFFFC00003FFE00001FFFFC00003FFE000
310
01FFFF0003FFFFFFFFF8000FFFF80003F000F00003FFC00007FC0007FFF80000
310
7FFF8001FF80007FF00007FF80000FFF00007FF80000FFF8000001FFFE000000
310
7F80000000000001FFE000003E000003FFFFE000003E000003FFFF0003FFFFFF
310
FFF80003FFE00007F000F800000000000FFC0007FFF800007FFF8001FF80007F
310
F000000000000FFF000000000000FFF8000001FFFE0000007F80000000000001
310
FFF0000000000007FFFFF0000000000007FFFF0003FFFFFFFFFC00007E000007
310
F000F800000000000FFC0007FFF80000FFFF8000FF80007FF800000000001FFF
310
800000000001FFF8000001FFFE0000007F80000000000001FFF800000000000F
310
FFFFF800000000000FFFFF0003FFFFFFFFFC00000000000FF000FC0000000000
310
1FFC0007FFFC0000FFFF8000FF80007FF800000000003FFFC00000000001FFF8
310
000001FFFE0000007F80000000000001FFF800000000000FFFFFF80000000000
310
0FFFFF0003FFFFFFFFFE00000000001FF000FE00000000003FF8000FFFFC0000
310
FFFF8000FF80007FFC00000000003FFFC00000000003FFF8000001FFFE000000
310
7F80000000000001FFFC00000000001FFFFFFC00000000001FFFFF0003FFFFFF
310
FFFF00000000001FF000FF00000000003FF8000FFFFC0000FFFFC000FF80007F
310
FE00000000007FFFE00000000007FFF8000001FFFE0000007F80000000000001
310
FFFE00000000003FFFFFFE00000000003FFFFF0003FFFFFFFFFF80000000003F
310
F000FF80000000007FF8000FFFFC0001FFFFC0007F80007FFF0000000000FFFF
310
F0000000000FFFF800000000000000007F80000000000001FFFF8000000000FF
310
FFFFFF8000000000FFFFFF0003FFFFFFFFFFC0000000007FF000FFC000000000
310
FFF8000FFFFE0001FFFFC0007F80007FFF8000000001FFFFF8000000001FFFF8
310
00000000000000007F80000000000001FFFFC000000001FFFFFFFFC000000001
310
FFFFFF0003FFFFFFFFFFE000000000FFF000FFE000000003FFF0001FFFFE0001
310
FFFFC0007F80007FFFC000000007FFFFFE000000003FFFF80000000000000000
310
7F80000000000001FFFFE000000003FFFFFFFFE000000003FFFFFF0003FFFFFF
310
FFFFF000000003FFF000FFF80000000FFFF0001FFFFE0001FFFFE0007F80007F
310
FFF00000000FFFFFFF00000000FFFFF800000000000000007F80000000000001
310
FFFFF80000000FFFFFFFFFF80000000FFFFFFF0003FFFFFFFFFFFC0000000FFF
310
F000FFFE0000003FFFF0001FFFFE0003FFFFE0003F80007FFFFC0000003FFFFF
310
FFC0000003FFFFF800000000000000007F80000000000001FFFFFE0000003FFF
310
FFFFFFFE0000003FFFFFFF0003FFFFFFFFFFFF0000003FFFF000FFFF800000FF
310
FFF0001FFFFF0003FFFFE0003F80007FFFFF000001FFFFFFFFF800001FFFFFF8
310
00000000000000007F80000000000001FFFFFFC00001FFFFFFFFFFFFC00001FF
310
FFFFFF0003FFFFFFFFFFFFC00000FFFFF000FFFFF8000FFFFFFFFFFFFFFFFFFF
310
FFFFFFFFFFFFFFFFFFFFF0001FFFFFFFFFFF0000FFFFFFF80000000000000000
310
7FFFFFFFFFFFFFFFFFFFFFFC001FFFFFFFFFFFFFFC001FFFFFFFFFFFFFFFFFFF
310
FFFFFFFC001FFFFFF000FFFFFFFFFFFFFFFFFFFFFFFFFFFFFFFFFFFFFFFFFFFF
310
FFFFFFFFFFFFFFFFFFFFFFFFFFFFFFFFFFFFFFFFFFFFFFFFFFFFFFFFFFFFFFFF
310
FFFFFFFFFFFFFFFFFFFFFFFFFFFFFFFFFFFFFFFFFFFFFFFFFFFFFFFFFFFFFFFF
310
F000FFFFFFFFFFFFFFFFFFFFFFFFFFFFFFFFFFFFFFFFFFFFFFFFFFFFFFFFFFFF
310
FFFFFFFFFFFFFFFFFFFFFFFFFFFFFFFFFFFFFFFFFFFFFFFFFFFFFFFFFFFFFFFF
310
FFFFFFFFFFFFFFFFFFFFFFFFFFFFFFFFFFFFFFFFFFFFFFFFF000FFFFFFFFFFFF
310
FFFFFFFFFFFFFFFFFFFFFFFFFFFFFFFFFFFFFFFFFFFFFFFFFFFFFFFFFFFFFFFF
310
FFFFFFFFFFFFFFFFFFFFFFFFFFFFFFFFFFFFFFFFFFFFFFFFFFFFFFFFFFFFFFFF
310
FFFFFFFFFFFFFFFFFFFFFFFFFFFFFFFFF000FFFFFFFFFFFFFFFFFFFFFFFFFFFF
310
FFFFFFFFFFFFFFFFFFFFFFFFFFFFFFFFFFFFFFFFFFFFFFFFFFFFFFFFFFFFFFFF
310
FFFFFFFFFFFFFFFFFFFFFFFFFFFFFFFFFFFFFFFFFFFFFFFFFFFFFFFFFFFFFFFF
310
FFFFFFFFFFFFFFFFF000FFFFFFFFFFFFFFFFFFFFFFFFFFFFFFFFFFFFFFFFFFFF
310
FFFFFFFFFFFFFFFFFFFFFFFFFFFFFFFFFFFFFFFFFFFFFFFFFFFFFFFFFFFFFFFF
310
FFFFFFFFFFFFFFFFFFFFFFFFFFFFFFFFFFFFFFFFFFFFFFFFFFFFFFFFFFFFFFFF
310
F000FFFFFFFFFFFFFFFFFFFFFFFFFFFFFFFFFFFFFFFFFFFFFFFFFFFFFFFFFFFF
310
FFFFFFFFFFFFFFFFFFFFFFFFFFFFFFFFFFFFFFFFFFFFFFFFFFFFFFFFFFFFFFFF
310
FFFFFFFFFFFFFFFFFFFFFFFFFFFFFFFFFFFFFFFFFFFFFFFFF000FFFFFFFFFFFF
310
FFFFFFFFFFFFFFFFFFFFFFFFFFFFFFFFFFFFFFFFFFFFFFFFFFFFFFFFFFFFFFFF
310
FFFFFFFFFFFFFFFFFFFFFFFFFFFFFFFFFFFFFFFFFFFFFFFFFFFFFFFFFFFFFFFF
310
FFFFFFFFFFFFFFFFFFFFFFFFFFFFFFFFF000FFFFFFFFFFFFFFFFFFFFFFFFFFFF
310
FFFFFFFFFFFFFFFFFFFFFFFFFFFFFFFFFFFFFFFFFFFFFFFFFFFFFFFFFFFFFFFF
310
FFFFFFFFFFFFFFFFFFFFFFFFFFFFFFFFFFFFFFFFFFFFFFFFFFFFFFFFFFFFFFFF
310
FFFFFFFFFFFFFFFFF000FFFFFFFFFFFFFFFFFFFFFFFFFFFFFFFFFFFFFFFFFFFF
310
FFFFFFFFFFFFFFFFFFFFFFFFFFFFFFFFFFFFFFFFFFFFFFFFFFFFFFFFFFFFFFFF
310
FFFFFFFFFFFFFFFFFFFFFFFFFFFFFFFFFFFFFFFFFFFFFFFFFFFFFFFFFFFFFFFF
310
F000FFFFFFFFFFFFFFFFFFFFFFFFFFFFFFFFFFFFFFFFFFFFFFFFFFFFFFFFFFFF
310
FFFFFFFFFFFFFFFFFFFFFFFFFFFFFFFFFFFFFFFFFFFFFFFFFFFFFFFFFFFFFFFF
310
FFFFFFFFFFFFFFFFFFFFFFFFFFFFFFFFFFFFFFFFFFFFFFFFF000FFFFFFFFFFFF
310
FFFFFFFFFFFFFFFFFFFFFFFFFFFFFFFFFFFFFFFFFFFFFFFFFFFFFFFFFFFFFFFF
310
FFFFFFFFFFFFFFFFFFFFFFFFFFFFFFFFFFFFFFFFFFFFFFFFFFFFFFFFFFFFFFFF
310
FFFFFFFFFFFFFFFFFFFFFFFFFFFFFFFFF000FFFFFFFFFFFFFFFFFFFFFFFFFFFF
310
FFFFFFFFFFFFFFFFFFFFFFFFFFFFFFFFFFFFFFFFFFFFFFFFFFFFFFFFFFFFFFFF
310
FFFFFFFFFFFFFFFFFFFFFFFFFFFFFFFFFFFFFFFFFFFFFFFFFFFFFFFFFFFFFFFF
310
FFFFFFFFFFFFFFFFF000FFFFFFFFFFFFFFFFFFFFFFFFFFFFFFFFFFFFFFFFFFFF
310
FFFFFFFFFFFFFFFFFFFFFFFFFFFFFFFFFFFFFFFFFFFFFFFFFFFFFFFFFFFFFFFF
310
FFFFFFFFFFFFFFFFFFFFFFFFFFFFFFFFFFFFFFFFFFFFFFFFFFFFFFFFFFFFFFFF
310
F000FFFFFFFFFFFFFFFFFFFFFFFFFFFFFFFFFFFFFFFFFFFFFFFFFFFFFFFFFFFF
310
FFFFFFFFFFFFFFFFFFFFFFFFFFFFFFFFFFFFFFFFFFFFFFFFFFFFFFFFFFFFFFFF
310
FFFFFFFFFFFFFFFFFFFFFFFFFFFFFFFFFFFFFFFFFFFFFFFFF000FFFFFFFFFFFF
310
FFFFFFFFFFFFFFFFFFFFFFFFFFFFFFFFFFFFFFFFFFFFFFFFFFFFFFFFFFFFFFFF
310
FFFFFFFFFFFFFFFFFFFFFFFFFFFFFFFFFFFFFFFFFFFFFFFFFFFFFFFFFFFFFFFF
310
FFFFFFFFFFFFFFFFFFFFFFFFFFFFFFFFF000FFFFFFFFFFFFFFFFFFFFFFFFFFFF
310
FFFFFFFFFFFFFFFFFFFFFFFFFFFFFFFFFFFFFFFFFFFFFFFFFFFFFFFFFFFFFFFF
310
FFFFFFFFFFFFFFFFFFFFFFFFFFFFFFFFFFFFFFFFFFFFFFFFFFFFFFFFFFFFFFFF
310
FFFFFFFFFFFFFFFFF000FFFFFFFFFFFFFFFFFFFFFFFFFFFFFFFFFFFFFFFFFFFF
310
FFFFFFFFFFFFFFFFFFFFFFFFFFFFFFFFFFFFFFFFFFFFFFFFFFFFFFFFFFFFFFFF
310
FFFFFFFFFFFFFFFFFFFFFFFFFFFFFFFFFFFFFFFFFFFFFFFFFFFFFFFFFFFFFFFF
310
F000FFFFFFFFFFFFFFFFFFFFFFFFFFFFFFFFFFFFFFFFFFFFFFFFFFFFFFFFFFFF
310
FFFFFFFFFFFFFFFFFFFFFFFFFFFFFFFFFFFFFFFFFFFFFFFFFFFFFFFFFFFFFFFF
310
FFFFFFFFFFFFFFFFFFFFFFFFFFFFFFFFFFFFFFFFFFFFFFFFF000FFFFFFFFFFFF
310
FFFFFFFFFFFFFFFFFFFFFFFFFFFFFFFFFFFFFFFFFFFFFFFFFFFFFFFFFFFFFFFF
310
FFFFFFFFFFFFFFFFFFFFFFFFFFFFFFFFFFFFFFFFFFFFFFFFFFFFFFFFFFFFFFFF
310
FFFFFFFFFFFFFFFFFFFFFFFFFFFFFFFFF000FFFFFFFFFFFFFFFFFFFFFFFFFFFF
310
FFFFFFFFFFFFFFFFFFFFFFFFFFFFFFFFFFFFFFFFFFFFFFFFFFFFFFFFFFFFFFFF
310
FFFFFFFFFFFFFFFFFFFFFFFFFFFFFFFFFFFFFFFFFFFFFFFFFFFFFFFFFFFFFFFF
310
FFFFFFFFFFFFFFFFF000FFFFFFFFFFFFFFFFFFFFFFFFFFFFFFFFFFFFFFFFFFFF
310
FFFFFFFFFFFFFFFFFFFFFFFFFFFFFFFFFFFFFFFFFFFFFFFFFFFFFFFFFFFFFFFF
310
FFFFFFFFFFFFFFFFFFFFFFFFFFFFFFFFFFFFFFFFFFFFFFFFFFFFFFFFFFFFFFFF
310
F000FFFFFFFFFFFFFFFFFFFFFFFFFFFFFFFFFFFFFFFFFFFFFFFFFFFFFFFFFFFF
310
FFFFFFFFFFFFFFFFFFFFFFFFFFFFFFFFFFFFFFFFFFFFFFFFFFFFFFFFFFFFFFFF
310
FFFFFFFFFFFFFFFFFFFFFFFFFFFFFFFFFFFFFFFFFFFFFFFFF000FFFFFFFFFFFF
310
FFFFFFFFFFFFFFFFFFFFFFFFFFFFFFFFFFFFFFFFFFFFFFFFFFFFFFFFFFFFFFFF
310
FFFFFFFFFFFFFFFFFFFFFFFFFFFFFFFFFFFFFFFFFFFFFFFFFFFFFFFFFFFFFFFF
310
FFFFFFFFFFFFFFFFFFFFFFFFFFFFFFFFF0000000000000000000000000000000
310
0000000000000000000000000000000000000000000000000000000000000000
310
0000000000000000000000000000000000000000000000000000000000000000
310
0000000000000000000000000000000000000000000000000000000000000000
310
0000000000000000000000000000000000000000000000000000000000000000
310
0000000000000000000000000000000000000000000000000000000000000000
310
0000000000000000000000000000000000000000000000000000000000000000
310
0000000000000000000000000000000000000000000000000000000000000000
310
0000000000000000000000000000000000000000000000000000000000000000
310
0000000000000000000000000000000000000000000000000000000000000000
310
0000000000000000000000000000000000000000000000000000000000000000
310
0000000000000000000000000000000000000000000000000000000000000000
310
0000000000000000000000000000000000000000000000000000000000000000
310
0000000000000000000000000000000000000000000000000000000000000000
310
0000000000000000000000000000000000000000000000000000000000000000
310
0000000000000000000000000000000000000000000000000000000000000000
  1
OLE
  0
ENDSEC
  0
SECTION
  2
OBJECTS
  0
DICTIONARY
  5
C
330
0
100
AcDbDictionary
281
     1
  3
ACAD_GROUP
350
D
  3
ACAD_LAYOUT
350
1A
  3
ACAD_MLINESTYLE
350
17
  3
ACAD_PLOTSETTINGS
350
19
  3
ACAD_PLOTSTYLENAME
350
E
  0
DICTIONARY
  5
D
102
{ACAD_REACTORS
330
C
102
}
330
C
100
AcDbDictionary
281
     1
  0
DICTIONARY
  5
1A
102
{ACAD_REACTORS
330
C
102
}
330
C
100
AcDbDictionary
281
     1
  3
Layout1
350
1E
  3
Layout2
350
26
  3
Model
350
22
  0
DICTIONARY
  5
17
102
{ACAD_REACTORS
330
C
102
}
330
C
100
AcDbDictionary
281
     1
  3
Standard
350
18
  0
DICTIONARY
  5
19
102
{ACAD_REACTORS
330
C
102
}
330
C
100
AcDbDictionary
281
     1
  0
ACDBDICTIONARYWDFLT
  5
E
102
{ACAD_REACTORS
330
C
102
}
330
C
100
AcDbDictionary
281
     1
  3
Normal
350
F
100
AcDbDictionaryWithDefault
340
F
  0
LAYOUT
  5
1E
102
{ACAD_REACTORS
330
1A
102
}
330
1A
100
AcDbPlotSettings
  1

  2
none_device
  4

  6

 40
0.0
 41
0.0
 42
0.0
 43
0.0
 44
0.0
 45
0.0
 46
0.0
 47
0.0
 48
0.0
 49
0.0
140
0.0
141
0.0
142
1.0
143
1.0
 70
   688
 72
     0
 73
     0
 74
     5
  7

 75
    16
147
1.0
148
0.0
149
0.0
100
AcDbLayout
  1
Layout1
 70
     1
 71
     1
 10
0.0
 20
0.0
 11
420.0
 21
297.0
 12
0.0
 22
0.0
 32
0.0
 14
1.0000000000E+20
 24
1.0000000000E+20
 34
1.0000000000E+20
 15
-1.0000000000E+20
 25
-1.0000000000E+20
 35
-1.0000000000E+20
146
0.0
 13
0.0
 23
0.0
 33
0.0
 16
1.0
 26
0.0
 36
0.0
 17
0.0
 27
1.0
 37
0.0
 76
     0
330
1B
  0
LAYOUT
  5
26
102
{ACAD_REACTORS
330
1A
102
}
330
1A
100
AcDbPlotSettings
  1

  2
none_device
  4

  6

 40
0.0
 41
0.0
 42
0.0
 43
0.0
 44
0.0
 45
0.0
 46
0.0
 47
0.0
 48
0.0
 49
0.0
140
0.0
141
0.0
142
1.0
143
1.0
 70
   688
 72
     0
 73
     0
 74
     5
  7

 75
    16
147
1.0
148
0.0
149
0.0
100
AcDbLayout
  1
Layout2
 70
     1
 71
     2
 10
0.0
 20
0.0
 11
0.0
 21
0.0
 12
0.0
 22
0.0
 32
0.0
 14
0.0
 24
0.0
 34
0.0
 15
0.0
 25
0.0
 35
0.0
146
0.0
 13
0.0
 23
0.0
 33
0.0
 16
1.0
 26
0.0
 36
0.0
 17
0.0
 27
1.0
 37
0.0
 76
     0
330
23
  0
LAYOUT
  5
22
102
{ACAD_REACTORS
330
1A
102
}
330
1A
100
AcDbPlotSettings
  1

  2
none_device
  4

  6

 40
0.0
 41
0.0
 42
0.0
 43
0.0
 44
0.0
 45
0.0
 46
0.0
 47
0.0
 48
0.0
 49
0.0
140
0.0
141
0.0
142
1.0
143
1.0
 70
  1712
 72
     0
 73
     0
 74
     0
  7

 75
     0
147
1.0
148
0.0
149
0.0
100
AcDbLayout
  1
Model
 70
     1
 71
     0
 10
0.0
 20
0.0
 11
297.0
 21
210.0
 12
0.0
 22
0.0
 32
0.0
 14
0.0
 24
0.0
 34
0.0
 15
297.0
 25
210.0
 35
0.0
146
0.0
 13
0.0
 23
0.0
 33
0.0
 16
1.0
 26
0.0
 36
0.0
 17
0.0
 27
1.0
 37
0.0
 76
     0
330
1F
331
29
  0
MLINESTYLE
  5
18
102
{ACAD_REACTORS
330
17
102
}
330
17
100
AcDbMlineStyle
  2
Standard
 70
     0
  3

 62
   256
 51
90.0
 52
90.0
 71
     2
 49
0.5
 62
   256
  6
BYLAYER
 49
-0.5
 62
   256
  6
BYLAYER
  0
ACDBPLACEHOLDER
  5
F
102
{ACAD_REACTORS
330
E
102
}
330
E
  0
ENDSEC
  0
EOF
