  0
SECTION
  2
HEADER
  9
$ACADVER
  1
AC1015
  9
$ACADMAINTVER
 70
     6
  9
$DWGCODEPAGE
  3
ANSI_1252
  9
$INSBASE
 10
0.0
 20
0.0
 30
0.0
  9
$EXTMIN
 10
0.0
 20
0.0
 30
0.0
  9
$EXTMAX
 10
297.0
 20
210.0
 30
0.0
  9
$LIMMIN
 10
0.0
 20
0.0
  9
$LIMMAX
 10
297.0
 20
210.0
  9
$ORTHOMODE
 70
     0
  9
$REGENMODE
 70
     1
  9
$FILLMODE
 70
     1
  9
$QTEXTMODE
 70
     0
  9
$MIRRTEXT
 70
     1
  9
$LTSCALE
 40
1.0
  9
$ATTMODE
 70
     1
  9
$TEXTSIZE
 40
2.0
  9
$TRACEWID
 40
1.0
  9
$TEXTSTYLE
  7
Standard
  9
$CLAYER
  8
0
  9
$CELTYPE
  6
ByLayer
  9
$CECOLOR
 62
   256
  9
$CELTSCALE
 40
1.0
  9
$DISPSILH
 70
     0
  9
$DIMSCALE
 40
1.0
  9
$DIMASZ
 40
3.0
  9
$DIMEXO
 40
0.0
  9
$DIMDLI
 40
3.75
  9
$DIMRND
 40
0.0
  9
$DIMDLE
 40
0.0
  9
$DIMEXE
 40
1.0
  9
$DIMTP
 40
0.0
  9
$DIMTM
 40
0.0
  9
$DIMTXT
 40
2.0
  9
$DIMCEN
 40
2.5
  9
$DIMTSZ
 40
0.0
  9
$DIMTOL
 70
     0
  9
$DIMLIM
 70
     0
  9
$DIMTIH
 70
     1
  9
$DIMTOH
 70
     1
  9
$DIMSE1
 70
     0
  9
$DIMSE2
 70
     0
  9
$DIMTAD
 70
     1
  9
$DIMZIN
 70
     0
  9
$DIMBLK
  1

  9
$DIMASO
 70
     1
  9
$DIMSHO
 70
     1
  9
$DIMPOST
  1

  9
$DIMAPOST
  1

  9
$DIMALT
 70
     0
  9
$DIMALTD
 70
     3
  9
$DIMALTF
 40
0.0393700787
  9
$DIMLFAC
 40
1.0
  9
$DIMTOFL
 70
     1
  9
$DIMTVP
 40
0.0
  9
$DIMTIX
 70
     0
  9
$DIMSOXD
 70
     0
  9
$DIMSAH
 70
     0
  9
$DIMBLK1
  1

  9
$DIMBLK2
  1

  9
$DIMSTYLE
  2
ISO-25
  9
$DIMCLRD
 70
     0
  9
$DIMCLRE
 70
     0
  9
$DIMCLRT
 70
     0
  9
$DIMTFAC
 40
1.0
  9
$DIMGAP
 40
1.524
  9
$DIMJUST
 70
     0
  9
$DIMSD1
 70
     0
  9
$DIMSD2
 70
     0
  9
$DIMTOLJ
 70
     0
  9
$DIMTZIN
 70
     0
  9
$DIMALTZ
 70
     0
  9
$DIMALTTZ
 70
     0
  9
$DIMUPT
 70
     0
  9
$DIMDEC
 70
     2
  9
$DIMTDEC
 70
     3
  9
$DIMALTU
 70
     2
  9
$DIMALTTD
 70
     3
  9
$DIMTXSTY
  7
Standard
  9
$DIMAUNIT
 70
     0
  9
$DIMADEC
 70
     2
  9
$DIMALTRND
 40
0.0
  9
$DIMAZIN
 70
     0
  9
$DIMDSEP
 70
    44
  9
$DIMATFIT
 70
     3
  9
$DIMFRAC
 70
     0
  9
$DIMLDRBLK
  1

  9
$DIMLUNIT
 70
     2
  9
$DIMLWD
 70
    -2
  9
$DIMLWE
 70
    -2
  9
$DIMTMOVE
 70
     0
  9
$LUNITS
 70
     2
  9
$LUPREC
 70
     2
  9
$SKETCHINC
 40
1.0
  9
$FILLETRAD
 40
10.0
  9
$AUNITS
 70
     0
  9
$AUPREC
 70
     2
  9
$MENU
  1
.
  9
$ELEVATION
 40
0.0
  9
$PELEVATION
 40
0.0
  9
$THICKNESS
 40
0.0
  9
$LIMCHECK
 70
     0
  9
$CHAMFERA
 40
0.0
  9
$CHAMFERB
 40
0.0
  9
$CHAMFERC
 40
0.0
  9
$CHAMFERD
 40
0.0
  9
$SKPOLY
 70
     0
  9
$TDCREATE
 40
2458176.338043264
  9
$TDUCREATE
 40
2458176.296376597
  9
$TDUPDATE
 40
2458176.338044329
  9
$TDUUPDATE
 40
2458176.296377662
  9
$TDINDWG
 40
0.0000000116
  9
$TDUSRTIMER
 40
0.0000000116
  9
$USRTIMER
 70
     1
  9
$ANGBASE
 50
0.0
  9
$ANGDIR
 70
     0
  9
$PDMODE
 70
     0
  9
$PDSIZE
 40
-1.0
  9
$PLINEWID
 40
0.0
  9
$SPLFRAME
 70
     0
  9
$SPLINETYPE
 70
     6
  9
$SPLINESEGS
 70
     8
  9
$HANDSEED
  5
1C9
  9
$SURFTAB1
 70
     6
  9
$SURFTAB2
 70
     6
  9
$SURFTYPE
 70
     6
  9
$SURFU
 70
     6
  9
$SURFV
 70
     6
  9
$UCSBASE
  2

  9
$UCSNAME
  2

  9
$UCSORG
 10
0.0
 20
0.0
 30
0.0
  9
$UCSXDIR
 10
1.0
 20
0.0
 30
0.0
  9
$UCSYDIR
 10
0.0
 20
1.0
 30
0.0
  9
$UCSORTHOREF
  2

  9
$UCSORTHOVIEW
 70
     0
  9
$UCSORGTOP
 10
0.0
 20
0.0
 30
0.0
  9
$UCSORGBOTTOM
 10
0.0
 20
0.0
 30
0.0
  9
$UCSORGLEFT
 10
0.0
 20
0.0
 30
0.0
  9
$UCSORGRIGHT
 10
0.0
 20
0.0
 30
0.0
  9
$UCSORGFRONT
 10
0.0
 20
0.0
 30
0.0
  9
$UCSORGBACK
 10
0.0
 20
0.0
 30
0.0
  9
$PUCSBASE
  2

  9
$PUCSNAME
  2

  9
$PUCSORG
 10
0.0
 20
0.0
 30
0.0
  9
$PUCSXDIR
 10
1.0
 20
0.0
 30
0.0
  9
$PUCSYDIR
 10
0.0
 20
1.0
 30
0.0
  9
$PUCSORTHOREF
  2

  9
$PUCSORTHOVIEW
 70
     0
  9
$PUCSORGTOP
 10
0.0
 20
0.0
 30
0.0
  9
$PUCSORGBOTTOM
 10
0.0
 20
0.0
 30
0.0
  9
$PUCSORGLEFT
 10
0.0
 20
0.0
 30
0.0
  9
$PUCSORGRIGHT
 10
0.0
 20
0.0
 30
0.0
  9
$PUCSORGFRONT
 10
0.0
 20
0.0
 30
0.0
  9
$PUCSORGBACK
 10
0.0
 20
0.0
 30
0.0
  9
$USERI1
 70
     0
  9
$USERI2
 70
     0
  9
$USERI3
 70
     0
  9
$USERI4
 70
     0
  9
$USERI5
 70
     0
  9
$USERR1
 40
0.0
  9
$USERR2
 40
0.0
  9
$USERR3
 40
0.0
  9
$USERR4
 40
0.0
  9
$USERR5
 40
0.0
  9
$WORLDVIEW
 70
     1
  9
$SHADEDGE
 70
     3
  9
$SHADEDIF
 70
    70
  9
$TILEMODE
 70
     1
  9
$MAXACTVP
 70
    64
  9
$PINSBASE
 10
0.0
 20
0.0
 30
0.0
  9
$PLIMCHECK
 70
     0
  9
$PEXTMIN
 10
1.0000000000E+20
 20
1.0000000000E+20
 30
1.0000000000E+20
  9
$PEXTMAX
 10
-1.0000000000E+20
 20
-1.0000000000E+20
 30
-1.0000000000E+20
  9
$PLIMMIN
 10
0.0
 20
0.0
  9
$PLIMMAX
 10
420.0
 20
297.0
  9
$UNITMODE
 70
     0
  9
$VISRETAIN
 70
     1
  9
$PLINEGEN
 70
     0
  9
$PSLTSCALE
 70
     1
  9
$TREEDEPTH
 70
  3020
  9
$CMLSTYLE
  2
Standard
  9
$CMLJUST
 70
     0
  9
$CMLSCALE
 40
20.0
  9
$PROXYGRAPHICS
 70
     1
  9
$MEASUREMENT
 70
     1
  9
$CELWEIGHT
370
    -1
  9
$ENDCAPS
280
     0
  9
$JOINSTYLE
280
     0
  9
$LWDISPLAY
290
     1
  9
$INSUNITS
 70
     4
  9
$HYPERLINKBASE
  1

  9
$STYLESHEET
  1

  9
$XEDIT
290
     1
  9
$CEPSNTYPE
380
     0
  9
$PSTYLEMODE
290
     1
  9
$FINGERPRINTGUID
  2
{B1A5BA23-01AD-443C-A61D-1B800E41BCDD}
  9
$VERSIONGUID
  2
{FAEB1C32-E019-11D5-929B-00C0DF256EC4}
  9
$EXTNAMES
290
     1
  9
$PSVPSCALE
 40
0.0
  9
$OLESTARTUP
290
     0
  0
ENDSEC
  0
SECTION
  2
CLASSES
  0
CLASS
  1
ACDBDICTIONARYWDFLT
  2
AcDbDictionaryWithDefault
  3
ObjectDBX Classes
 90
        0
280
     0
281
     0
  0
CLASS
  1
VISUALSTYLE
  2
AcDbVisualStyle
  3
ObjectDBX Classes
 90
     4095
280
     0
281
     0
  0
CLASS
  1
MATERIAL
  2
AcDbMaterial
  3
ObjectDBX Classes
 90
     1153
280
     0
281
     0
  0
CLASS
  1
SCALE
  2
AcDbScale
  3
ObjectDBX Classes
 90
     1153
280
     0
281
     0
  0
CLASS
  1
TABLESTYLE
  2
AcDbTableStyle
  3
ObjectDBX Classes
 90
     4095
280
     0
281
     0
  0
CLASS
  1
MLEADERSTYLE
  2
AcDbMLeaderStyle
  3
ACDB_MLEADERSTYLE_CLASS
 90
     4095
280
     0
281
     0
  0
CLASS
  1
SUN
  2
AcDbSun
  3
SCENEOE
 90
     1153
280
     0
281
     0
  0
CLASS
  1
ACDBPLACEHOLDER
  2
AcDbPlaceHolder
  3
ObjectDBX Classes
 90
        0
280
     0
281
     0
  0
CLASS
  1
LAYOUT
  2
AcDbLayout
  3
ObjectDBX Classes
 90
        0
280
     0
281
     0
  0
ENDSEC
  0
SECTION
  2
TABLES
  0
TABLE
  2
VPORT
  5
8
330
0
100
AcDbSymbolTable
 70
     1
  0
VPORT
  5
29
330
8
100
AcDbSymbolTableRecord
100
AcDbViewportTableRecord
  2
*Active
 70
     0
 10
0.0
 20
0.0
 11
1.0
 21
1.0
 12
148.5
 22
105.0
 13
0.0
 23
0.0
 14
10.0
 24
10.0
 15
10.0
 25
10.0
 16
0.0
 26
0.0
 36
1.0
 17
0.0
 27
0.0
 37
0.0
 40
210.0
 41
1.4142857143
 42
50.0
 43
0.0
 44
0.0
 50
0.0
 51
0.0
 71
     0
 72
  2000
 73
     1
 74
     3
 75
     0
 76
     0
 77
     0
 78
     0
281
     0
 65
     1
110
0.0
120
0.0
130
0.0
111
1.0
121
0.0
131
0.0
112
0.0
122
1.0
132
0.0
 79
     0
146
0.0
  0
ENDTAB
  0
TABLE
  2
LTYPE
  5
5
330
0
100
AcDbSymbolTable
 70
     6
  0
LTYPE
  5
14
330
5
100
AcDbSymbolTableRecord
100
AcDbLinetypeTableRecord
  2
ByBlock
 70
     0
  3

 72
    65
 73
     0
 40
0.0
  0
LTYPE
  5
15
330
5
100
AcDbSymbolTableRecord
100
AcDbLinetypeTableRecord
  2
ByLayer
 70
     0
  3

 72
    65
 73
     0
 40
0.0
  0
LTYPE
  5
16
330
5
100
AcDbSymbolTableRecord
100
AcDbLinetypeTableRecord
  2
Continuous
 70
     0
  3
Solid line
 72
    65
 73
     0
 40
0.0
  0
LTYPE
  5
6E
330
5
100
AcDbSymbolTableRecord
100
AcDbLinetypeTableRecord
  2
HIDDEN
 70
     0
  3
Hidden __ __ __ __ __ __ __ __ __ __ __ __ __ __
 72
    65
 73
     2
 40
1.905
 49
1.27
 74
     0
 49
-0.635
 74
     0
  0
LTYPE
  5
6F
330
5
100
AcDbSymbolTableRecord
100
AcDbLinetypeTableRecord
  2
PHANTOM
 70
     0
  3
Phantom ______  __  __  ______  __  __  ______
 72
    65
 73
     6
 40
12.7
 49
6.35
 74
     0
 49
-1.27
 74
     0
 49
1.27
 74
     0
 49
-1.27
 74
     0
 49
1.27
 74
     0
 49
-1.27
 74
     0
  0
LTYPE
  5
70
330
5
100
AcDbSymbolTableRecord
100
AcDbLinetypeTableRecord
  2
CENTER
 70
     0
  3
Center ____ _ ____ _ ____ _ ____ _ ____ _ ____
 72
    65
 73
     4
 40
10.16
 49
6.35
 74
     0
 49
-1.27
 74
     0
 49
1.27
 74
     0
 49
-1.27
 74
     0
  0
LTYPE
  5
71
330
5
100
AcDbSymbolTableRecord
100
AcDbLinetypeTableRecord
  2
CENTERX2
 70
     0
  3
Center (2x) ________  __  ________  __  _____
 72
    65
 73
     4
 40
20.32
 49
12.7
 74
     0
 49
-2.54
 74
     0
 49
2.54
 74
     0
 49
-2.54
 74
     0
  0
LTYPE
  5
72
330
5
100
AcDbSymbolTableRecord
100
AcDbLinetypeTableRecord
  2
DOT2
 70
     0
  3
Dot (.5x) ........................................
 72
    65
 73
     2
 40
0.635
 49
0.0
 74
     0
 49
-0.635
 74
     0
  0
ENDTAB
  0
TABLE
  2
LAYER
  5
2
330
0
100
AcDbSymbolTable
 70
     5
  0
LAYER
  5
10
330
2
100
AcDbSymbolTableRecord
100
AcDbLayerTableRecord
  2
0
 70
     0
 62
     7
  6
Continuous
370
    -3
390
F
  0
LAYER
  5
73
330
2
100
AcDbSymbolTableRecord
100
AcDbLayerTableRecord
  2
FORMAT
 70
     0
 62
     7
  6
Continuous
370
    -3
390
F
  0
LAYER
  5
74
330
2
100
AcDbSymbolTableRecord
100
AcDbLayerTableRecord
  2
VERMASSUNG
 70
     0
 62
     7
  6
Continuous
370
    -3
390
F
  0
LAYER
  5
75
330
2
100
AcDbSymbolTableRecord
100
AcDbLayerTableRecord
  2
KOPF_DÜNN
 70
     0
 62
     7
  6
Continuous
370
    -3
390
F
  0
LAYER
  5
76
330
2
100
AcDbSymbolTableRecord
100
AcDbLayerTableRecord
  2
KOPF_DICK
 70
     0
 62
     7
  6
Continuous
370
    25
390
F
  0
ENDTAB
  0
TABLE
  2
STYLE
  5
3
330
0
100
AcDbSymbolTable
 70
     2
  0
STYLE
  5
11
330
3
100
AcDbSymbolTableRecord
100
AcDbTextStyleTableRecord
  2
Standard
 70
     0
 40
0.0
 41
1.0
 50
0.0
 71
     0
 42
2.0
  3
txt
  4

  0
STYLE
  5
77
330
3
100
AcDbSymbolTableRecord
100
AcDbTextStyleTableRecord
  2
SLDTEXTSTYLE0
 70
     0
 40
0.0
 41
0.7
 50
0.0
 71
     0
 42
2.0
  3
TXT
  4

  0
ENDTAB
  0
TABLE
  2
VIEW
  5
6
330
0
100
AcDbSymbolTable
 70
     0
  0
ENDTAB
  0
TABLE
  2
UCS
  5
7
330
0
100
AcDbSymbolTable
 70
     0
  0
ENDTAB
  0
TABLE
  2
APPID
  5
9
330
0
100
AcDbSymbolTable
 70
     1
  0
APPID
  5
12
330
9
100
AcDbSymbolTableRecord
100
AcDbRegAppTableRecord
  2
ACAD
 70
     0
  0
ENDTAB
  0
TABLE
  2
DIMSTYLE
  5
A
330
0
100
AcDbSymbolTable
 70
     2
100
AcDbDimStyleTable
  0
DIMSTYLE
105
27
330
A
100
AcDbSymbolTableRecord
100
AcDbDimStyleTableRecord
  2
ISO-25
 70
     0
 41
2.5
 42
0.625
 43
3.75
 44
1.25
 73
     0
 74
     0
 77
     1
 78
     8
140
2.5
141
2.5
143
0.0393700787
147
0.625
171
     3
172
     1
178
     0
271
     2
272
     2
274
     3
278
    44
283
     0
284
     8
340
11
  0
DIMSTYLE
105
EF
102
{ACAD_REACTORS
330
EE
102
}
330
A
100
AcDbSymbolTableRecord
100
AcDbDimStyleTableRecord
  2
SLDDIMSTYLE0
 70
     0
 41
3.0
 44
0.0
 45
0.000000001
 73
     0
 74
     0
 76
     1
 77
     1
 78
    12
 79
     3
140
2.0
144
0.5
147
0.5
173
     1
178
     0
271
     2
272
     3
276
     2
282
     1
284
    12
340
77
  0
ENDTAB
  0
TABLE
  2
BLOCK_RECORD
  5
1
330
0
100
AcDbSymbolTable
 70
     2
  0
BLOCK_RECORD
  5
1F
330
1
100
AcDbSymbolTableRecord
100
AcDbBlockTableRecord
  2
*Model_Space
340
22
  0
BLOCK_RECORD
  5
1B
330
1
100
AcDbSymbolTableRecord
100
AcDbBlockTableRecord
  2
*Paper_Space
340
1E
  0
BLOCK_RECORD
  5
23
330
1
100
AcDbSymbolTableRecord
100
AcDbBlockTableRecord
  2
*Paper_Space0
340
26
  0
BLOCK_RECORD
  5
F0
330
1
100
AcDbSymbolTableRecord
100
AcDbBlockTableRecord
  2
_D
340
0
  0
ENDTAB
  0
ENDSEC
  0
SECTION
  2
BLOCKS
  0
BLOCK
  5
20
330
1F
100
AcDbEntity
  8
0
100
AcDbBlockBegin
  2
*Model_Space
 70
     0
 10
0.0
 20
0.0
 30
0.0
  3
*Model_Space
  1

  0
ENDBLK
  5
21
330
1F
100
AcDbEntity
  8
0
100
AcDbBlockEnd
  0
BLOCK
  5
1C
330
1B
100
AcDbEntity
 67
     1
  8
0
100
AcDbBlockBegin
  2
*Paper_Space
 70
     0
 10
0.0
 20
0.0
 30
0.0
  3
*Paper_Space
  1

  0
ENDBLK
  5
1D
330
1B
100
AcDbEntity
 67
     1
  8
0
100
AcDbBlockEnd
  0
BLOCK
  5
24
330
23
100
AcDbEntity
  8
0
100
AcDbBlockBegin
  2
*Paper_Space0
 70
     0
 10
0.0
 20
0.0
 30
0.0
  3
*Paper_Space0
  1

  0
ENDBLK
  5
25
330
23
100
AcDbEntity
  8
0
100
AcDbBlockEnd
  0
BLOCK
  5
F1
330
F0
100
AcDbEntity
  8
0
100
AcDbBlockBegin
  2
_D
 70
     0
 10
0.0
 20
0.0
 30
0.0
  3
_D
  1

  0
SOLID
  5
F3
330
F0
100
AcDbEntity
  8
VERMASSUNG
100
AcDbTrace
 10
213.4044635137
 20
142.8775655859
 30
0.0
 11
212.9544635137
 21
139.8775655859
 31
0.0
 12
213.8544635137
 22
139.8775655859
 32
0.0
 13
213.8544635137
 23
139.8775655859
 33
0.0
  0
LINE
  5
F4
330
F0
100
AcDbEntity
  8
VERMASSUNG
100
AcDbLine
 10
187.7862913779
 20
142.8775655859
 30
0.0
 11
214.4044635137
 21
142.8775655859
 31
0.0
  0
LINE
  5
F5
330
F0
100
AcDbEntity
  8
VERMASSUNG
100
AcDbLine
 10
213.4044635137
 20
142.8775655859
 30
0.0
 11
213.4044635137
 21
98.4264533015
 31
0.0
  0
MTEXT
  5
F6
330
F0
100
AcDbEntity
  8
VERMASSUNG
100
AcDbMText
 10
202.8289144421
 20
100.6144495421
 30
0.0
 40
2.0
 41
0.0
 71
     1
 72
     1
  1
%%c
  7
SLDTEXTSTYLE0
 11
-1.770233605404514E-14
 21
1.0
 31
0.0
 73
     1
 44
1.0
  0
MTEXT
  5
F7
330
F0
100
AcDbEntity
  8
VERMASSUNG
100
AcDbMText
 10
202.8289143839
 20
104.2243292414
 30
0.0
 40
2.0
 41
0.0
 71
     1
 72
     1
  1
84.9
  7
SLDTEXTSTYLE0
 11
-1.770233605404514E-14
 21
1.0
 31
0.0
 73
     1
 44
1.0
  0
MTEXT
  5
F8
330
F0
100
AcDbEntity
  8
VERMASSUNG
100
AcDbMText
 10
202.8289143839
 20
109.223863076
 30
0.0
 40
2.0
 41
0.0
 71
     1
 72
     1
  1
-105.1
  7
SLDTEXTSTYLE0
 11
-1.770233605404514E-14
 21
1.0
 31
0.0
 73
     1
 44
1.0
  0
MTEXT
  5
F9
330
F0
100
AcDbEntity
  8
VERMASSUNG
100
AcDbMText
 10
206.8276214419
 20
100.4108283015
 30
0.0
 40
2.0
 41
0.0
 71
     1
 72
     1
  1
%%c
  7
SLDTEXTSTYLE0
 11
-1.770233605404514E-14
 21
1.0
 31
0.0
 73
     1
 44
1.0
  0
MTEXT
  5
FA
330
F0
100
AcDbEntity
  8
VERMASSUNG
100
AcDbMText
 10
206.6276214906
 20
104.0208283158
 30
0.0
 40
2.0
 41
0.0
 71
     1
 72
     1
  1
104.9-134.1
  7
SLDTEXTSTYLE0
 11
-1.770233605404514E-14
 21
1.0
 31
0.0
 73
     1
 44
1.0
  0
MTEXT
  5
FB
330
F0
100
AcDbEntity
  8
VERMASSUNG
100
AcDbMText
 10
210.8263282088
 20
100.8111591286
 30
0.0
 40
2.0
 41
0.0
 71
     1
 72
     1
  1
%%c
  7
SLDTEXTSTYLE0
 11
-1.770233605404514E-14
 21
1.0
 31
0.0
 73
     1
 44
1.0
  0
MTEXT
  5
FC
330
F0
100
AcDbEntity
  8
VERMASSUNG
100
AcDbMText
 10
210.6263282575
 20
104.4211591429
 30
0.0
 40
2.0
 41
0.0
 71
     1
 72
     1
  1
133.9-171.1
  7
SLDTEXTSTYLE0
 11
-1.770233605404514E-14
 21
1.0
 31
0.0
 73
     1
 44
1.0
  0
ENDBLK
  5
F2
330
F0
100
AcDbEntity
  8
0
100
AcDbBlockEnd
  0
ENDSEC
  0
SECTION
  2
ENTITIES
  0
MTEXT
  5
78
330
1F
100
AcDbEntity
  8
KOPF_DÜNN
100
AcDbMText
 10
13.8892156294
 20
23.8442973028
 30
0.0
 40
3.0
 41
0.0
 71
     1
 72
     1
  1
C14.030.085.006
  7
SLDTEXTSTYLE0
 73
     1
 44
1.0
  0
MTEXT
  5
79
330
1F
100
AcDbEntity
  8
VERMASSUNG
100
AcDbMText
 10
13.9329988022
 20
28.8834360957
 30
0.0
 40
3.0
 41
0.0
 71
     1
 72
     1
  1
Wendeplattenhalter_Insert holder 90°
  7
SLDTEXTSTYLE0
 73
     1
 44
1.0
  0
MTEXT
  5
7A
330
1F
100
AcDbEntity
  8
VERMASSUNG
100
AcDbMText
 10
98.8601118557
 20
13.8365368761
 30
0.0
 40
2.0
 41
0.0
 71
     1
 72
     1
  1
Datum: 01.02.2008
  7
SLDTEXTSTYLE0
 73
     1
 44
1.0
  0
MTEXT
  5
7B
330
1F
100
AcDbEntity
  8
VERMASSUNG
100
AcDbMText
 10
13.933048693
 20
18.0482802738
 30
0.0
 40
2.0
 41
0.0
 71
     1
 72
     1
  1
für FBK ø55 / ø72 / ø94 CC..06 02..
  7
SLDTEXTSTYLE0
 73
     1
 44
1.0
  0
MTEXT
  5
7C
330
1F
100
AcDbEntity
  8
VERMASSUNG
100
AcDbMText
 10
13.9808475933
 20
13.9090974274
 30
0.0
 40
2.0
 41
0.0
 71
     1
 72
     1
  1
Gewicht: g
  7
SLDTEXTSTYLE0
 73
     1
 44
1.0
  0
LINE
  5
7D
330
1F
100
AcDbEntity
  8
0
  6
Continuous
 62
     7
370
    25
100
AcDbLine
 10
180.0511533165
 20
133.9282859445
 30
0.0
 11
180.0511533165
 21
133.9881586476
 31
0.0
  0
LINE
  5
7E
330
1F
100
AcDbEntity
  8
0
  6
Continuous
 62
     7
370
    25
100
AcDbLine
 10
182.4269089481
 20
133.9728871875
 30
0.0
 11
182.4269089481
 21
133.912970224
 31
0.0
  0
LINE
  5
7F
330
1F
100
AcDbEntity
  8
0
  6
Continuous
 62
     7
370
    25
100
AcDbLine
 10
182.4357568734
 20
136.1756824404
 30
0.0
 11
182.4357568734
 21
136.1158097373
 31
0.0
  0
LINE
  5
80
330
1F
100
AcDbEntity
  8
0
  6
Continuous
 62
     7
370
    25
100
AcDbLine
 10
180.0600012418
 20
136.1311254579
 30
0.0
 11
180.0600012418
 21
136.1910424214
 31
0.0
  0
LINE
  5
81
330
1F
100
AcDbEntity
  8
0
  6
Continuous
 62
     7
370
    25
100
AcDbLine
 10
177.843455095
 20
135.0691619167
 30
0.0
 11
177.843455095
 21
135.0220478409
 31
0.0
  0
LINE
  5
82
330
1F
100
AcDbEntity
  8
0
  6
Continuous
 62
     7
370
    25
100
AcDbLine
 10
184.643455095
 20
135.0220478409
 30
0.0
 11
184.643455095
 21
135.0691619167
 31
0.0
  0
ARC
  5
83
330
1F
100
AcDbEntity
  8
0
  6
Continuous
 62
     7
370
    25
100
AcDbCircle
 10
170.6862913779
 20
103.8242561607
 30
0.0
 40
2.799999999999997
100
AcDbArc
 50
90.0
 51
180.0
  0
LINE
  5
84
330
1F
100
AcDbEntity
  8
0
  6
Continuous
 62
     7
370
    25
100
AcDbLine
 10
167.8862913779
 20
88.9392062112
 30
0.0
 11
167.8862913779
 21
103.8242561607
 31
0.0
  0
LINE
  5
85
330
1F
100
AcDbEntity
  8
0
  6
Continuous
 62
     7
370
    25
100
AcDbLine
 10
103.9862913779
 20
127.6242561607
 30
0.0
 11
103.9862913779
 21
101.6242561607
 31
0.0
  0
LINE
  5
86
330
1F
100
AcDbEntity
  8
0
  6
Continuous
 62
     7
370
    25
100
AcDbLine
 10
112.9862913779
 20
136.6242561607
 30
0.0
 11
103.9862913779
 21
127.6242561607
 31
0.0
  0
CIRCLE
  5
87
330
1F
100
AcDbEntity
  8
0
  6
Continuous
 62
     7
370
    25
100
AcDbCircle
 10
181.2437204127
 20
135.0677317199
 30
0.0
 40
3.399358045745855
  0
CIRCLE
  5
88
330
1F
100
AcDbEntity
  8
0
  6
Continuous
 62
     7
370
    25
100
AcDbCircle
 10
181.2436621099
 20
135.0838801747
 30
0.0
 40
2.199645827130152
  0
CIRCLE
  5
89
330
1F
100
AcDbEntity
  8
0
  6
Continuous
 62
     7
370
    25
100
AcDbCircle
 10
181.243666983
 20
135.0839783111
 30
0.0
 40
2.099608590602611
  0
SPLINE
  5
8A
330
1F
100
AcDbEntity
  8
0
  6
Continuous
 62
     7
370
    25
100
AcDbSpline
210
0.0
220
0.0
230
1.0
 70
     8
 71
     3
 72
    16
 73
    12
 74
     0
 42
0.000000001
 43
0.00000001
 40
0.0
 40
0.0
 40
0.0
 40
0.0
 40
0.1242194589697379
 40
0.2489993218720088
 40
0.37273775746014
 40
0.4952944629268009
 40
0.6171957750165321
 40
0.7391031181773471
 40
0.8616668233222416
 40
0.9853929371716394
 40
1.0
 40
1.0
 40
1.0
 40
1.0
 10
181.7612017128694
 20
133.372291907337
 30
0.0
 10
181.7961096304348
 20
133.3418616796389
 30
0.0
 10
181.8660829492192
 20
133.2808639412485
 30
0.0
 10
182.0028248743457
 20
133.2397109513418
 30
0.0
 10
182.1437574181837
 20
133.2434302658795
 30
0.0
 10
182.275307307376
 20
133.2938491891967
 30
0.0
 10
182.3822450258041
 20
133.3838288345598
 30
0.0
 10
182.4535954900859
 20
133.5034791121249
 30
0.0
 10
182.4815491136582
 20
133.6396102280851
 30
0.0
 10
182.4687908760957
 20
133.7371884793718
 30
0.0
 10
182.4523639001636
 20
133.7853600360272
 30
0.0
 10
182.4506293208292
 20
133.7904466318208
 30
0.0
  0
SPLINE
  5
8B
330
1F
100
AcDbEntity
  8
0
  6
Continuous
 62
     7
370
    25
100
AcDbSpline
210
0.0
220
0.0
230
1.0
 70
     8
 71
     3
 72
    12
 73
     8
 74
     0
 42
0.000000001
 43
0.00000001
 40
0.0
 40
0.0
 40
0.0
 40
0.0
 40
0.2093653562126727
 40
0.4192620302417084
 40
0.6249526976742875
 40
0.828170787802629
 40
1.0
 40
1.0
 40
1.0
 40
1.0
 10
182.4506293208292
 20
133.7904466318208
 30
0.0
 10
182.4377458975864
 20
133.869387334528
 30
0.0
 10
182.4119463561389
 20
134.0274690720438
 30
0.0
 10
182.4753323656163
 20
134.2656043215307
 30
0.0
 10
182.607180858526
 20
134.4674246854558
 30
0.0
 10
182.7853070783979
 20
134.6112469323708
 30
0.0
 10
182.9220530658469
 20
134.6554686011522
 30
0.0
 10
182.9847037105756
 20
134.6757289108828
 30
0.0
  0
SPLINE
  5
8C
330
1F
100
AcDbEntity
  8
0
  6
Continuous
 62
     7
370
    25
100
AcDbSpline
210
0.0
220
0.0
230
1.0
 70
     8
 71
     3
 72
    16
 73
    12
 74
     0
 42
0.000000001
 43
0.00000001
 40
0.0
 40
0.0
 40
0.0
 40
0.0
 40
0.1231896672979954
 40
0.2479795154961795
 40
0.3717274745391597
 40
0.494290347974802
 40
0.6161927293768186
 40
0.738095547092049
 40
0.8606497678263847
 40
0.9843631542990985
 40
1.0
 40
1.0
 40
1.0
 40
1.0
 10
182.9847037105756
 20
134.6757289108828
 30
0.0
 10
183.0283778936867
 20
134.6906868779214
 30
0.0
 10
183.1162935688006
 20
134.7207971095698
 30
0.0
 10
183.2207762522705
 20
134.8182666899455
 30
0.0
 10
183.2886599206055
 20
134.9420940582832
 30
0.0
 10
183.3112227817955
 20
135.081159158783
 30
0.0
 10
183.2869917697913
 20
135.2187150949959
 30
0.0
 10
183.2190216895387
 20
135.3403142344951
 30
0.0
 10
183.1148183632787
 20
135.432579708546
 30
0.0
 10
183.0232032987298
 20
135.4705008192578
 30
0.0
 10
182.9726359059754
 20
135.4803410142551
 30
0.0
 10
182.9669616095952
 20
135.4814452076851
 30
0.0
  0
SPLINE
  5
8D
330
1F
100
AcDbEntity
  8
0
  6
Continuous
 62
     7
370
    25
100
AcDbSpline
210
0.0
220
0.0
230
1.0
 70
     8
 71
     3
 72
    12
 73
     8
 74
     0
 42
0.000000001
 43
0.00000001
 40
0.0
 40
0.0
 40
0.0
 40
0.0
 40
0.2093652529605158
 40
0.4192619297278838
 40
0.6249525996332777
 40
0.8281706892237388
 40
1.0
 40
1.0
 40
1.0
 40
1.0
 10
182.9669616095952
 20
135.4814452076851
 30
0.0
 10
182.8917603768051
 20
135.5095611517206
 30
0.0
 10
182.7411670308143
 20
135.5658644054159
 30
0.0
 10
182.5659730198479
 20
135.7394865412195
 30
0.0
 10
182.4571100100935
 20
135.9545695005489
 30
0.0
 10
182.4221836031431
 20
136.181017893339
 30
0.0
 10
182.4528892092144
 20
136.3218589290759
 30
0.0
 10
182.4669570926955
 20
136.3863857544213
 30
0.0
  0
SPLINE
  5
8E
330
1F
100
AcDbEntity
  8
0
  6
Continuous
 62
     7
370
    25
100
AcDbSpline
210
0.0
220
0.0
230
1.0
 70
     8
 71
     3
 72
    16
 73
    12
 74
     0
 42
0.000000001
 43
0.00000001
 40
0.0
 40
0.0
 40
0.0
 40
0.0
 40
0.1243654221089556
 40
0.2491438717990271
 40
0.3728809614209345
 40
0.495436798174889
 40
0.6173379650704808
 40
0.7392459561098925
 40
0.8618110113606362
 40
0.985538933565021
 40
1.0
 40
1.0
 40
1.0
 40
1.0
 10
182.4669570926955
 20
136.3863857544213
 30
0.0
 10
182.476090051842
 20
136.4322357717251
 30
0.0
 10
182.4943863014279
 20
136.5240880779321
 30
0.0
 10
182.46207086595
 20
136.6638590178887
 30
0.0
 10
182.3886255324834
 20
136.7844486227646
 30
0.0
 10
182.2792174771777
 20
136.8732102108695
 30
0.0
 10
182.1476517627529
 20
136.9205382188676
 30
0.0
 10
182.0079951664958
 20
136.9218965105542
 30
0.0
 10
181.8755984850481
 20
136.877158500029
 30
0.0
 10
181.7970566216004
 20
136.8165763850517
 30
0.0
 10
181.7633180272534
 20
136.7778785879073
 30
0.0
 10
181.7597873837551
 20
136.773828978594
 30
0.0
  0
SPLINE
  5
8F
330
1F
100
AcDbEntity
  8
0
  6
Continuous
 62
     7
370
    25
100
AcDbSpline
210
0.0
220
0.0
230
1.0
 70
     8
 71
     3
 72
    12
 73
     8
 74
     0
 42
0.000000001
 43
0.00000001
 40
0.0
 40
0.0
 40
0.0
 40
0.0
 40
0.2092378396812814
 40
0.4191378956982187
 40
0.6248316181529405
 40
0.8280490456279135
 40
1.0
 40
1.0
 40
1.0
 40
1.0
 10
181.7597873837551
 20
136.773828978594
 30
0.0
 10
181.6975111758107
 20
136.722624952977
 30
0.0
 10
181.5727616621011
 20
136.6200548462454
 30
0.0
 10
181.334242915759
 20
136.5548931111788
 30
0.0
 10
181.0935260829407
 20
136.5682242973768
 30
0.0
 10
180.8804095722319
 20
136.6515646377995
 30
0.0
 10
180.7743285846207
 20
136.7489643682082
 30
0.0
 10
180.7257084771088
 20
136.7936055944141
 30
0.0
  0
SPLINE
  5
90
330
1F
100
AcDbEntity
  8
0
  6
Continuous
 62
     7
370
    25
100
AcDbSpline
210
0.0
220
0.0
230
1.0
 70
     8
 71
     3
 72
    16
 73
    12
 74
     0
 42
0.000000001
 43
0.00000001
 40
0.0
 40
0.0
 40
0.0
 40
0.0
 40
0.1242194589696998
 40
0.2489993218719835
 40
0.3727377574601114
 40
0.4952944629267538
 40
0.6171957750166207
 40
0.7391031181772971
 40
0.8616668233223176
 40
0.9853929371716248
 40
1.0
 40
1.0
 40
1.0
 40
1.0
 10
180.7257084771088
 20
136.7936055944141
 30
0.0
 10
180.6908005595435
 20
136.8245242102792
 30
0.0
 10
180.620827240759
 20
136.886500928319
 30
0.0
 10
180.4840853156325
 20
136.9287240985346
 30
0.0
 10
180.3431527717945
 20
136.9256754984477
 30
0.0
 10
180.2116028826022
 20
136.8754682695332
 30
0.0
 10
180.104665164174
 20
136.7852423812626
 30
0.0
 10
180.0333146998925
 20
136.6649050266079
 30
0.0
 10
180.0053610763198
 20
136.5276870799398
 30
0.0
 10
180.0181193138824
 20
136.4291074845806
 30
0.0
 10
180.0345462898146
 20
136.3803614323422
 30
0.0
 10
180.036280869149
 20
136.3752141736384
 30
0.0
  0
SPLINE
  5
91
330
1F
100
AcDbEntity
  8
0
  6
Continuous
 62
     7
370
    25
100
AcDbSpline
210
0.0
220
0.0
230
1.0
 70
     8
 71
     3
 72
    12
 73
     8
 74
     0
 42
0.000000001
 43
0.00000001
 40
0.0
 40
0.0
 40
0.0
 40
0.0
 40
0.2093653562126358
 40
0.4192620302416994
 40
0.6249526976743112
 40
0.8281707878025761
 40
1.0
 40
1.0
 40
1.0
 40
1.0
 10
180.0362808691489
 20
136.3752141736384
 30
0.0
 10
180.0491642923919
 20
136.2954582122907
 30
0.0
 10
180.0749638338395
 20
136.1357438885676
 30
0.0
 10
180.0115778243618
 20
135.8963850970468
 30
0.0
 10
179.8797293314521
 20
135.6947975600744
 30
0.0
 10
179.7016031115803
 20
135.5524528138573
 30
0.0
 10
179.5648571241314
 20
135.5097383633568
 30
0.0
 10
179.5022064794025
 20
135.4901685908683
 30
0.0
  0
SPLINE
  5
92
330
1F
100
AcDbEntity
  8
0
  6
Continuous
 62
     7
370
    25
100
AcDbSpline
210
0.0
220
0.0
230
1.0
 70
     8
 71
     3
 72
    16
 73
    12
 74
     0
 42
0.000000001
 43
0.00000001
 40
0.0
 40
0.0
 40
0.0
 40
0.0
 40
0.1231896672979001
 40
0.2479795154960718
 40
0.3717274745391109
 40
0.4942903479747782
 40
0.6161927293766634
 40
0.7380955470920815
 40
0.8606497678263194
 40
0.9843631542991254
 40
1.0
 40
1.0
 40
1.0
 40
1.0
 10
179.5022064794025
 20
135.4901685908683
 30
0.0
 10
179.4585322962915
 20
135.4756950968891
 30
0.0
 10
179.3706166211776
 20
135.4465601044565
 30
0.0
 10
179.2661339377079
 20
135.3501610521141
 30
0.0
 10
179.1982502693726
 20
135.2270080330509
 30
0.0
 10
179.175687408183
 20
135.0881584377761
 30
0.0
 10
179.1999184201866
 20
134.9503599891337
 30
0.0
 10
179.2678885004396
 20
134.8280772840448
 30
0.0
 10
179.3720918266994
 20
134.7347280023666
 30
0.0
 10
179.4637068912484
 20
134.6958034342149
 30
0.0
 10
179.5142742840029
 20
134.685384709502
 30
0.0
 10
179.519948580383
 20
134.6842155977741
 30
0.0
  0
SPLINE
  5
93
330
1F
100
AcDbEntity
  8
0
  6
Continuous
 62
     7
370
    25
100
AcDbSpline
210
0.0
220
0.0
230
1.0
 70
     8
 71
     3
 72
    12
 73
     8
 74
     0
 42
0.000000001
 43
0.00000001
 40
0.0
 40
0.0
 40
0.0
 40
0.0
 40
0.2093652529604505
 40
0.4192619297278141
 40
0.6249525996332731
 40
0.8281706892237084
 40
0.9999999999999999
 40
0.9999999999999999
 40
0.9999999999999999
 40
0.9999999999999999
 10
179.519948580383
 20
134.6842155977741
 30
0.0
 10
179.5951498131731
 20
134.655284395481
 30
0.0
 10
179.7457431591638
 20
134.5973485559315
 30
0.0
 10
179.9209371701302
 20
134.4225028776149
 30
0.0
 10
180.0298001798848
 20
134.2076527445103
 30
0.0
 10
180.0647265868348
 20
133.9826818521419
 30
0.0
 10
180.0340209807637
 20
133.8433480350504
 30
0.0
 10
180.0199530972828
 20
133.7795117473298
 30
0.0
  0
SPLINE
  5
94
330
1F
100
AcDbEntity
  8
0
  6
Continuous
 62
     7
370
    25
100
AcDbSpline
210
0.0
220
0.0
230
1.0
 70
     8
 71
     3
 72
    16
 73
    12
 74
     0
 42
0.000000001
 43
0.00000001
 40
0.0
 40
0.0
 40
0.0
 40
0.0
 40
0.1243654221088783
 40
0.249143871799007
 40
0.3728809614208936
 40
0.4954367981749687
 40
0.6173379650704961
 40
0.7392459561098897
 40
0.8618110113606497
 40
0.985538933565025
 40
1.0
 40
1.0
 40
1.0
 40
1.0
 10
180.0199530972828
 20
133.7795117473298
 30
0.0
 10
180.0108201381362
 20
133.7341506729583
 30
0.0
 10
179.9925238885502
 20
133.6432778764348
 30
0.0
 10
180.0248393240283
 20
133.5045770656217
 30
0.0
 10
180.0982846574947
 20
133.3846576597354
 30
0.0
 10
180.2076927128006
 20
133.2961072257865
 30
0.0
 10
180.3392584272253
 20
133.2485324461475
 30
0.0
 10
180.4789150234824
 20
133.2464865797753
 30
0.0
 10
180.6113117049301
 20
133.2901373314438
 30
0.0
 10
180.6898535683778
 20
133.3497184033217
 30
0.0
 10
180.7235921627247
 20
133.3878422769409
 30
0.0
 10
180.727122806223
 20
133.3918318268653
 30
0.0
  0
SPLINE
  5
95
330
1F
100
AcDbEntity
  8
0
  6
Continuous
 62
     7
370
    25
100
AcDbSpline
210
0.0
220
0.0
230
1.0
 70
     8
 71
     3
 72
    12
 73
     8
 74
     0
 42
0.000000001
 43
0.00000001
 40
0.0
 40
0.0
 40
0.0
 40
0.0
 40
0.2092378396813249
 40
0.4191378956981419
 40
0.6248316181529043
 40
0.8280490456278641
 40
1.0
 40
1.0
 40
1.0
 40
1.0
 10
180.727122806223
 20
133.3918318268653
 30
0.0
 10
180.7893990141675
 20
133.4422210667881
 30
0.0
 10
180.9141485278771
 20
133.543159023418
 30
0.0
 10
181.1526672742192
 20
133.6070966247745
 30
0.0
 10
181.3933841070374
 20
133.5939973666963
 30
0.0
 10
181.6065006177463
 20
133.5121341855981
 30
0.0
 10
181.7125816053575
 20
133.4162421237098
 30
0.0
 10
181.7612017128694
 20
133.372291907337
 30
0.0
  0
LINE
  5
96
330
1F
100
AcDbEntity
  8
0
  6
Continuous
 62
     7
370
    25
100
AcDbLine
 10
182.4506293208
 20
133.72966407
 30
0.0
 11
182.4741128804
 21
133.5926382373
 31
0.0
  0
LINE
  5
97
330
1F
100
AcDbEntity
  8
0
  6
Continuous
 62
     7
370
    25
100
AcDbLine
 10
182.4506293208
 20
133.72966407
 30
0.0
 11
182.4506293208
 21
133.7904466318
 31
0.0
  0
LWPOLYLINE
  5
98
330
1F
100
AcDbEntity
  8
0
  6
Continuous
 62
     7
370
    25
100
AcDbPolyline
 90
        3
 70
   128
 43
0.0
 10
180.0199530973
 20
133.7186108374
 10
180.0478816749
 20
133.8597201324
 10
180.0511533165
 20
133.9282859445
  0
LWPOLYLINE
  5
99
330
1F
100
AcDbEntity
  8
0
  6
Continuous
 62
     7
370
    25
100
AcDbPolyline
 90
        3
 70
   128
 43
0.0
 10
182.4269089481
 20
133.912970224
 10
182.4280906387
 20
133.8717327685
 10
182.4506293208
 20
133.72966407
  0
ARC
  5
9A
330
1F
100
AcDbEntity
  8
0
  6
Continuous
 62
     7
370
    25
100
AcDbCircle
 10
182.8916614985
 20
135.0158239423
 30
0.0
 40
0.4117820815126069
100
AcDbArc
 50
0.0091339794
 51
79.4633767114
  0
LINE
  5
9B
330
1F
100
AcDbEntity
  8
0
  6
Continuous
 62
     7
370
    25
100
AcDbLine
 10
182.9669616096
 20
135.4206626459
 30
0.0
 11
182.9669616096
 21
135.4814452077
 31
0.0
  0
ARC
  5
9C
330
1F
100
AcDbEntity
  8
0
  6
Continuous
 62
     7
370
    25
100
AcDbCircle
 10
179.5952679801
 20
135.0281194181
 30
0.0
 40
0.4118013740761489
100
AcDbArc
 50
103.060887468
 51
179.987940377
  0
ARC
  5
9D
330
1F
100
AcDbEntity
  8
0
  6
Continuous
 62
     7
370
    25
100
AcDbCircle
 10
183.1564093169
 20
136.115968
 30
0.0
 40
0.7206524607844361
100
AcDbArc
 50
180.0125827409
 51
254.7587666833
  0
ARC
  5
9E
330
1F
100
AcDbEntity
  8
0
  6
Continuous
 62
     7
370
    25
100
AcDbCircle
 10
179.3393842953
 20
136.1312489736
 30
0.0
 40
0.7206169571720369
100
AcDbArc
 50
283.0586485011
 51
359.9901793439
  0
ARC
  5
9F
330
1F
100
AcDbEntity
  8
0
  6
Continuous
 62
     7
370
    25
100
AcDbCircle
 10
180.4248230232
 20
136.4511844522
 30
0.0
 40
0.4120506006943561
100
AcDbArc
 50
43.0955940781
 51
174.1865316937
  0
ARC
  5
A0
330
1F
100
AcDbEntity
  8
0
  6
Continuous
 62
     7
370
    25
100
AcDbCircle
 10
182.0727706922
 20
136.4450661108
 30
0.0
 40
0.4120339739922241
100
AcDbArc
 50
5.1743923043
 51
139.4294395779
  0
LINE
  5
A1
330
1F
100
AcDbEntity
  8
0
  6
Continuous
 62
     7
370
    25
100
AcDbLine
 10
181.7597873838
 20
136.7130464168
 30
0.0
 11
181.7597873838
 21
136.7738289786
 31
0.0
  0
ARC
  5
A2
330
1F
100
AcDbEntity
  8
0
  6
Continuous
 62
     7
370
    25
100
AcDbCircle
 10
181.252305107
 20
137.2256093053
 30
0.0
 40
0.7212898001740272
100
AcDbArc
 50
223.1072042577
 51
314.7146251828
  0
ARC
  5
A3
330
1F
100
AcDbEntity
  8
0
  6
Continuous
 62
     7
370
    25
100
AcDbCircle
 10
181.243455095
 20
135.0236400567
 30
0.0
 40
3.400000372816347
100
AcDbArc
 50
180.0268315403
 51
359.9731684597
  0
LINE
  5
A4
330
1F
100
AcDbEntity
  8
0
  6
Continuous
 62
     7
370
    25
100
AcDbLine
 10
176.02520992
 20
127.9169707769
 30
0.0
 11
187.12520992
 21
129.8730079714
 31
0.0
  0
LINE
  5
A5
330
1F
100
AcDbEntity
  8
0
  6
Continuous
 62
     7
370
    25
100
AcDbLine
 10
175.8862913779
 20
128.6882176576
 30
0.0
 11
176.02520992
 21
127.9169707769
 31
0.0
  0
LINE
  5
A6
330
1F
100
AcDbEntity
  8
0
  6
Continuous
 62
     7
370
    25
100
AcDbLine
 10
176.0605728252
 20
128.8922800354
 30
0.0
 11
175.8862913779
 21
128.6882176576
 31
0.0
  0
SPLINE
  5
A7
330
1F
100
AcDbEntity
  8
0
  6
Continuous
 62
     7
370
    25
100
AcDbSpline
210
0.0
220
0.0
230
1.0
 70
     8
 71
     3
 72
    11
 73
     7
 74
     0
 42
0.000000001
 43
0.00000001
 40
0.0
 40
0.0
 40
0.0
 40
0.0
 40
0.0074552814711575
 40
0.3066092506034784
 40
0.6526506519390254
 40
1.0
 40
1.0
 40
1.0
 40
1.0
 10
176.9450826344265
 20
129.951104081359
 30
0.0
 10
176.94310980729
 20
129.9486928056745
 30
0.0
 10
176.8619744333633
 20
129.8495256000493
 30
0.0
 10
176.6776227352094
 20
129.6257051749087
 30
0.0
 10
176.3714005256731
 20
129.2581907238634
 30
0.0
 10
176.1643122692468
 20
129.0144035505464
 30
0.0
 10
176.0605728251839
 20
128.8922800353553
 30
0.0
  0
LINE
  5
A8
330
1F
100
AcDbEntity
  8
0
  6
Continuous
 62
     7
370
    25
100
AcDbLine
 10
175.8862913779
 20
128.6882176576
 30
0.0
 11
175.0862913779
 21
128.7043370447
 31
0.0
  0
LINE
  5
A9
330
1F
100
AcDbEntity
  8
0
  6
Continuous
 62
     7
370
    25
100
AcDbLine
 10
175.0862913779
 20
139.9687063045
 30
0.0
 11
175.0862913779
 21
128.7043370447
 31
0.0
  0
SPLINE
  5
AA
330
1F
100
AcDbEntity
  8
0
  6
Continuous
 62
     7
370
    25
100
AcDbSpline
210
0.0
220
0.0
230
1.0
 70
     8
 71
     3
 72
    12
 73
     8
 74
     0
 42
0.000000001
 43
0.00000001
 40
0.0
 40
0.0
 40
0.0
 40
0.0
 40
0.0481906270125253
 40
0.4227687915308731
 40
0.5661203835287989
 40
0.9912408780624131
 40
1.0
 40
1.0
 40
1.0
 40
1.0
 10
187.0342690298601
 20
130.6052833002962
 30
0.0
 10
187.0191065423308
 20
130.6177876682011
 30
0.0
 10
186.8860884239381
 20
130.7274865211882
 30
0.0
 10
186.6957564506574
 20
130.8863411801489
 30
0.0
 10
186.3880205005811
 20
131.146186242596
 30
0.0
 10
186.2053974878456
 20
131.3024293497154
 30
0.0
 10
186.0816307316351
 20
131.4094579953118
 30
0.0
 10
186.0791321397025
 20
131.4116186798013
 30
0.0
  0
SPLINE
  5
AB
330
1F
100
AcDbEntity
  8
0
  6
Continuous
 62
     7
370
    25
100
AcDbSpline
210
0.0
220
0.0
230
1.0
 70
     8
 71
     3
 72
    10
 73
     6
 74
     0
 42
0.000000001
 43
0.00000001
 40
0.0
 40
0.0
 40
0.0
 40
0.0
 40
0.3658097627742014
 40
0.937926916205312
 40
0.9999999999999999
 40
0.9999999999999999
 40
0.9999999999999999
 40
0.9999999999999999
 10
187.0342690298584
 20
130.6052833002976
 30
0.0
 10
187.0366025028075
 20
130.5853356095933
 30
0.0
 10
187.0425854680257
 20
130.5341902386064
 30
0.0
 10
187.0315994043861
 20
130.4807104783686
 30
0.0
 10
187.0230931345144
 20
130.4477841758449
 30
0.0
 10
187.0222605603568
 20
130.4445614249799
 30
0.0
  0
SPLINE
  5
AC
330
1F
100
AcDbEntity
  8
0
  6
Continuous
 62
     7
370
    25
100
AcDbSpline
210
0.0
220
0.0
230
1.0
 70
     8
 71
     3
 72
    10
 73
     6
 74
     0
 42
0.000000001
 43
0.00000001
 40
0.0
 40
0.0
 40
0.0
 40
0.0
 40
0.0620730837953878
 40
0.6341902372120175
 40
0.9999999999999999
 40
0.9999999999999999
 40
0.9999999999999999
 40
0.9999999999999999
 10
187.1934296441655
 20
130.6484285295181
 30
0.0
 10
187.1903373074529
 20
130.6469766031761
 30
0.0
 10
187.1587434243497
 20
130.6321425164037
 30
0.0
 10
187.1069653066607
 20
130.610868403851
 30
0.0
 10
187.0546665596684
 20
130.6068504000331
 30
0.0
 10
187.0342690298601
 20
130.6052833002962
 30
0.0
  0
LINE
  5
AD
330
1F
100
AcDbEntity
  8
0
  6
Continuous
 62
     7
370
    25
100
AcDbLine
 10
186.9862913779
 20
141.908624112
 30
0.0
 11
187.7862913779
 21
141.9247434991
 31
0.0
  0
LINE
  5
AE
330
1F
100
AcDbEntity
  8
0
  6
Continuous
 62
     7
370
    25
100
AcDbLine
 10
187.7862913779
 20
130.6603742392
 30
0.0
 11
187.7862913779
 21
141.9247434991
 31
0.0
  0
LINE
  5
AF
330
1F
100
AcDbEntity
  8
0
  6
Continuous
 62
     7
370
    25
100
AcDbLine
 10
186.8120099306
 20
141.697538459
 30
0.0
 11
186.9862913779
 21
141.908624112
 31
0.0
  0
ARC
  5
B0
330
1F
100
AcDbEntity
  8
0
  6
Continuous
 62
     7
370
    25
100
AcDbCircle
 10
178.6859155965
 20
132.0399664395
 30
0.0
 40
1.99962436062469
100
AcDbArc
 50
180.0215498687
 51
280.0128315836
  0
ARC
  5
B1
330
1F
100
AcDbEntity
  8
0
  6
Continuous
 62
     7
370
    25
100
AcDbCircle
 10
184.1871616187
 20
133.0088915058
 30
0.0
 40
1.999129814333567
100
AcDbArc
 50
279.9790720631
 51
359.9865428609
  0
ARC
  5
B2
330
1F
100
AcDbEntity
  8
0
  6
Continuous
 62
     7
370
    25
100
AcDbCircle
 10
175.8861410657
 20
128.7046378813
 30
0.0
 40
0.7998497443891613
100
AcDbArc
 50
180.0215498833
 51
280.0128315546
  0
ARC
  5
B3
330
1F
100
AcDbEntity
  8
0
  6
Continuous
 62
     7
370
    25
100
AcDbCircle
 10
186.9866394742
 20
130.6605620546
 30
0.0
 40
0.7996519257336127
100
AcDbArc
 50
279.9790720631
 51
359.9865428617
  0
LINE
  5
B4
330
1F
100
AcDbEntity
  8
0
  6
Continuous
 62
     7
370
    25
100
AcDbLine
 10
179.0335877332
 20
130.070798679
 30
0.0
 11
184.5335877332
 21
131.0400062979
 31
0.0
  0
LINE
  5
B5
330
1F
100
AcDbEntity
  8
0
  6
Continuous
 62
     7
370
    25
100
AcDbLine
 10
183.8389950226
 20
140.5582818647
 30
0.0
 11
178.3389950226
 21
139.5890742458
 31
0.0
  0
ARC
  5
B6
330
1F
100
AcDbEntity
  8
0
  6
Continuous
 62
     7
370
    25
100
AcDbCircle
 10
184.1866671583
 20
138.5891141037
 30
0.0
 40
1.999624360996118
100
AcDbArc
 50
0.021549884
 51
100.0128315538
  0
LINE
  5
B7
330
1F
100
AcDbEntity
  8
0
  6
Continuous
 62
     7
370
    25
100
AcDbLine
 10
186.1862913779
 20
133.0084219674
 30
0.0
 11
186.1862913779
 21
138.5898661953
 31
0.0
  0
LINE
  5
B8
330
1F
100
AcDbEntity
  8
0
  6
Continuous
 62
     7
370
    25
100
AcDbLine
 10
176.6862913779
 20
137.6206585763
 30
0.0
 11
176.6862913773
 21
132.0392143485
 31
0.0
  0
ARC
  5
B9
330
1F
100
AcDbEntity
  8
0
  6
Continuous
 62
     7
370
    25
100
AcDbCircle
 10
178.6854211371
 20
137.620189038
 30
0.0
 40
1.999129814333643
100
AcDbArc
 50
99.9790720631
 51
179.9865428609
  0
CIRCLE
  5
BA
330
1F
100
AcDbEntity
  8
0
  6
Continuous
 62
     7
370
    25
100
AcDbCircle
 10
181.4346741588
 20
135.314267013
 30
0.0
 40
3.848382790622604
  0
CIRCLE
  5
BB
330
1F
100
AcDbEntity
  8
0
  6
Continuous
 62
     7
370
    25
100
AcDbCircle
 10
181.4346741588
 20
135.2619177679
 30
0.0
 40
3.848382790622632
  0
SPLINE
  5
BC
330
1F
100
AcDbEntity
  8
0
  6
Continuous
 62
     7
370
    25
100
AcDbSpline
210
0.0
220
0.0
230
1.0
 70
     8
 71
     3
 72
    12
 73
     8
 74
     0
 42
0.000000001
 43
0.00000001
 40
0.0
 40
0.0
 40
0.0
 40
0.0
 40
0.0087591219375936
 40
0.4338796164711625
 40
0.577231208469145
 40
0.9518093729874563
 40
1.0
 40
1.0
 40
1.0
 40
1.0
 10
176.793450616087
 20
139.1984841820241
 30
0.0
 10
176.7909520241544
 20
139.2005140783284
 30
0.0
 10
176.6671852679439
 20
139.3010641832643
 30
0.0
 10
176.4845622552083
 20
139.4511121834087
 30
0.0
 10
176.1768263051321
 20
139.7073947627178
 30
0.0
 10
175.9864943318514
 20
139.8677605019457
 30
0.0
 10
175.8534762134587
 20
139.9811565708871
 30
0.0
 10
175.8383137259295
 20
139.9940823775515
 30
0.0
  0
SPLINE
  5
BD
330
1F
100
AcDbEntity
  8
0
  6
Continuous
 62
     7
370
    25
100
AcDbSpline
210
0.0
220
0.0
230
1.0
 70
     8
 71
     3
 72
    10
 73
     6
 74
     0
 42
0.000000001
 43
0.00000001
 40
0.0
 40
0.0
 40
0.0
 40
0.0
 40
0.0620730837954707
 40
0.6341902372120397
 40
0.9999999999999999
 40
0.9999999999999999
 40
0.9999999999999999
 40
0.9999999999999999
 10
175.6791531116241
 20
139.956760594844
 30
0.0
 10
175.6822454483367
 20
139.9580883348754
 30
0.0
 10
175.7138393314399
 20
139.9716536310399
 30
0.0
 10
175.7656174491289
 20
139.9909256449065
 30
0.0
 10
175.8179161961211
 20
139.993196643769
 30
0.0
 10
175.8383137259295
 20
139.9940823775515
 30
0.0
  0
SPLINE
  5
BE
330
1F
100
AcDbEntity
  8
0
  6
Continuous
 62
     7
370
    25
100
AcDbSpline
210
0.0
220
0.0
230
1.0
 70
     8
 71
     3
 72
    11
 73
     7
 74
     0
 42
0.000000001
 43
0.00000001
 40
0.0
 40
0.0
 40
0.0
 40
0.0
 40
0.3473493480609489
 40
0.6933907493964618
 40
0.992544718528846
 40
1.0
 40
1.0
 40
1.0
 40
1.0
 10
186.8120099306057
 20
141.6975384590257
 30
0.0
 10
186.7082704865428
 20
141.5725488902767
 30
0.0
 10
186.5011822301163
 20
141.3230404019912
 30
0.0
 10
186.1949600205806
 20
140.9611166412462
 30
0.0
 10
186.0106083224254
 20
140.7458011420339
 30
0.0
 10
185.9294729484995
 20
140.6516994069129
 30
0.0
 10
185.927500121363
 20
140.6494112994248
 30
0.0
  0
SPLINE
  5
BF
330
1F
100
AcDbEntity
  8
0
  6
Continuous
 62
     7
370
    25
100
AcDbSpline
210
0.0
220
0.0
230
1.0
 70
     8
 71
     3
 72
    10
 73
     6
 74
     0
 42
0.000000001
 43
0.00000001
 40
0.0
 40
0.0
 40
0.0
 40
0.0
 40
0.3658097627742693
 40
0.937926916205418
 40
0.9999999999999999
 40
0.9999999999999999
 40
0.9999999999999999
 40
0.9999999999999999
 10
175.8383137259312
 20
139.99408237755
 30
0.0
 10
175.8359802529821
 20
140.0147114342087
 30
0.0
 10
175.8299972877638
 20
140.0676038101512
 30
0.0
 10
175.8409833514033
 20
140.1230856690751
 30
0.0
 10
175.8494896212751
 20
140.1572807622067
 30
0.0
 10
175.8503221954327
 20
140.1606276993822
 30
0.0
  0
LINE
  5
C0
330
1F
100
AcDbEntity
  8
0
  6
Continuous
 62
     7
370
    25
100
AcDbLine
 10
186.8473728358
 20
142.7121097669
 30
0.0
 11
175.7473728358
 21
140.7560725723
 31
0.0
  0
LINE
  5
C1
330
1F
100
AcDbEntity
  8
0
  6
Continuous
 62
     7
370
    25
100
AcDbLine
 10
186.9862913779
 20
141.908624112
 30
0.0
 11
186.8473728358
 21
142.7121097669
 31
0.0
  0
ARC
  5
C2
330
1F
100
AcDbEntity
  8
0
  6
Continuous
 62
     7
370
    25
100
AcDbCircle
 10
175.8859432816
 20
139.9685184892
 30
0.0
 40
0.7996519257393833
100
AcDbArc
 50
99.9790720634
 51
179.9865428605
  0
ARC
  5
C3
330
1F
100
AcDbEntity
  8
0
  6
Continuous
 62
     7
370
    25
100
AcDbCircle
 10
186.9864416901
 20
141.9244426624
 30
0.0
 40
0.7998497444077067
100
AcDbArc
 50
0.0215498848
 51
100.012831553
  0
LINE
  5
C4
330
1F
100
AcDbEntity
  8
0
  6
Continuous
 62
     7
370
    25
100
AcDbLine
 10
114.2077789812
 20
127.6242561607
 30
0.0
 11
161.131249328
 21
127.6242561607
 31
0.0
  0
SPLINE
  5
C5
330
1F
100
AcDbEntity
  8
0
  6
Continuous
 62
     7
370
    25
100
AcDbSpline
210
0.0
220
0.0
230
1.0
 70
     8
 71
     3
 72
    12
 73
     8
 74
     0
 42
0.000000001
 43
0.00000001
 40
0.0
 40
0.0
 40
0.0
 40
0.0
 40
0.5000000000000002
 40
0.5000000000000002
 40
0.7500000000000003
 40
0.7500000000000003
 40
1.0
 40
1.0
 40
1.0
 40
1.0
 10
161.1312493279784
 20
127.6242561606829
 30
0.0
 10
161.8493543199862
 20
126.0647793654724
 30
0.0
 10
162.5943666480824
 20
124.6111798146543
 30
0.0
 10
163.7038133656878
 20
122.6045755769729
 30
0.0
 10
164.0712224977619
 20
121.966748386267
 30
0.0
 10
164.7756598160016
 20
120.7809840760331
 30
0.0
 10
165.1148427874424
 20
120.2290972177075
 30
0.0
 10
165.4357540631555
 20
119.7186077825938
 30
0.0
  0
ELLIPSE
  5
C6
330
1F
100
AcDbEntity
  8
0
  6
Continuous
 62
     7
370
    25
100
AcDbEllipse
 10
134.7862913779
 20
3497.7321293976
 30
0.0
 11
-31.87503169220778
 21
3398.945731593634
 31
0.0
210
0.0
220
0.0
230
1.0
 40
0.0027319057
 41
3.030528538463775
 42
3.08324283309141
  0
LINE
  5
C7
330
1F
100
AcDbEntity
  8
0
  6
Continuous
 62
     7
370
    25
100
AcDbLine
 10
166.0655703254
 20
104.5658760095
 30
0.0
 11
114.2077789812
 21
104.5658760094
 31
0.0
  0
LINE
  5
C8
330
1F
100
AcDbEntity
  8
0
  6
Continuous
 62
     7
370
    25
100
AcDbLine
 10
119.7862913779
 20
136.6242561607
 30
0.0
 11
154.1024189064
 21
136.6242561607
 31
0.0
  0
SPLINE
  5
C9
330
1F
100
AcDbEntity
  8
0
  6
Continuous
 62
     7
370
    25
100
AcDbSpline
210
0.0
220
0.0
230
1.0
 70
     8
 71
     3
 72
     8
 73
     4
 74
     0
 42
0.000000001
 43
0.00000001
 40
0.0
 40
0.0
 40
0.0
 40
0.0
 40
1.0
 40
1.0
 40
1.0
 40
1.0
 10
161.1312493279777
 20
127.6242561606845
 30
0.0
 10
161.0516224694982
 20
127.7877937636296
 30
0.0
 10
160.9732655019996
 20
127.9506492603431
 30
0.0
 10
160.896155177767
 20
128.1127976644189
 30
0.0
  0
SPLINE
  5
CA
330
1F
100
AcDbEntity
  8
0
  6
Continuous
 62
     7
370
    25
100
AcDbSpline
210
0.0
220
0.0
230
1.0
 70
     8
 71
     3
 72
    10
 73
     6
 74
     0
 42
0.000000001
 43
0.00000001
 40
0.0
 40
0.0
 40
0.0
 40
0.0
 40
0.5
 40
0.5
 40
1.0
 40
1.0
 40
1.0
 40
1.0
 10
169.7862913778953
 20
106.4792783976123
 30
0.0
 10
169.5620760636616
 20
106.4042219885921
 30
0.0
 10
169.3564987387382
 20
106.3026215866762
 30
0.0
 10
169.0211086212147
 20
106.0987399146682
 30
0.0
 10
168.8902206948272
 20
105.9959944637831
 30
0.0
 10
168.8262530245237
 20
105.9501502228982
 30
0.0
  0
SPLINE
  5
CB
330
1F
100
AcDbEntity
  8
0
  6
Continuous
 62
     7
370
    25
100
AcDbSpline
210
0.0
220
0.0
230
1.0
 70
     8
 71
     3
 72
     8
 73
     4
 74
     0
 42
0.000000001
 43
0.00000001
 40
0.0
 40
0.0
 40
0.0
 40
0.0
 40
1.0
 40
1.0
 40
1.0
 40
1.0
 10
170.6759795736768
 20
106.6242561607405
 30
0.0
 10
170.371368392686
 20
106.6242561607405
 30
0.0
 10
170.0748169017286
 20
106.5758627446794
 30
0.0
 10
169.7862913778967
 20
106.4792783976041
 30
0.0
  0
SPLINE
  5
CC
330
1F
100
AcDbEntity
  8
0
  6
Continuous
 62
     7
370
    25
100
AcDbSpline
210
0.0
220
0.0
230
1.0
 70
     8
 71
     3
 72
    16
 73
    12
 74
     0
 42
0.000000001
 43
0.00000001
 40
0.0
 40
0.0
 40
0.0
 40
0.0
 40
0.499999999999999
 40
0.499999999999999
 40
0.7499999999999996
 40
0.7499999999999996
 40
0.874999999999999
 40
0.874999999999999
 40
0.9374999999999996
 40
0.9374999999999996
 40
1.0
 40
1.0
 40
1.0
 40
1.0
 10
114.2077789812005
 20
104.5658760094507
 30
0.0
 10
113.7652372209091
 20
104.5658760094507
 30
0.0
 10
113.3406815769408
 20
104.5352431455293
 30
0.0
 10
112.7318106743162
 20
104.4147938397182
 30
0.0
 10
112.5323824263614
 20
104.362710537994
 30
0.0
 10
112.2474848050472
 20
104.2403052535444
 30
0.0
 10
112.1544912692326
 20
104.1925238059756
 30
0.0
 10
112.0261777179342
 20
104.0933452461604
 30
0.0
 10
111.9847270453752
 20
104.0554764045041
 30
0.0
 10
111.9141902238294
 20
103.9587079413105
 30
0.0
 10
111.8840868676397
 20
103.8960805689802
 30
0.0
 10
111.8840868676397
 20
103.82425616074
 30
0.0
  0
SPLINE
  5
CD
330
1F
100
AcDbEntity
  8
0
  6
Continuous
 62
     7
370
    25
100
AcDbSpline
210
0.0
220
0.0
230
1.0
 70
     8
 71
     3
 72
    18
 73
    14
 74
     0
 42
0.000000001
 43
0.00000001
 40
0.0
 40
0.0
 40
0.0
 40
0.0
 40
0.1250000000000002
 40
0.1250000000000002
 40
0.2500000000000003
 40
0.2500000000000003
 40
0.3750000000000005
 40
0.3750000000000005
 40
0.5000000000000004
 40
0.5000000000000004
 40
0.7500000000000002
 40
0.7500000000000002
 40
1.0
 40
1.0
 40
1.0
 40
1.0
 10
166.0655703254359
 20
104.5658760095028
 30
0.0
 10
166.1835353375288
 20
104.4800332159626
 30
0.0
 10
166.3020182561635
 20
104.404523323975
 30
0.0
 10
166.5423541283612
 20
104.3207400707623
 30
0.0
 10
166.6605805748897
 20
104.3192599835981
 30
0.0
 10
166.8931899821361
 20
104.3935883917686
 30
0.0
 10
167.0078384319709
 20
104.4644498155533
 30
0.0
 10
167.2360150023684
 20
104.6289662602665
 30
0.0
 10
167.3495280058626
 20
104.7229288446734
 30
0.0
 10
167.6896782093993
 20
105.0127270480738
 30
0.0
 10
167.9158690245503
 20
105.2163585036589
 30
0.0
 10
168.3696715300507
 20
105.6022195704818
 30
0.0
 10
168.5972415104642
 20
105.7860226414786
 30
0.0
 10
168.8262530245237
 20
105.9501502228982
 30
0.0
  0
LINE
  5
CE
330
1F
100
AcDbEntity
  8
0
  6
Continuous
 62
     7
370
    25
100
AcDbLine
 10
111.8840868676
 20
103.8242561607
 30
0.0
 11
111.8840868676
 21
97.8090840295
 31
0.0
  0
LINE
  5
CF
330
1F
100
AcDbEntity
  8
0
  6
Continuous
 62
     7
370
    25
100
AcDbLine
 10
111.8840868676
 20
97.8090840295
 30
0.0
 11
167.8862913779
 21
88.9392062112
 31
0.0
  0
LINE
  5
D0
330
1F
100
AcDbEntity
  8
0
  6
Continuous
 62
     7
370
    25
100
AcDbLine
 10
109.0064748641
 20
127.6242561607
 30
0.0
 11
114.2077789812
 21
127.6242561607
 31
0.0
  0
LINE
  5
D1
330
1F
100
AcDbEntity
  8
0
  6
Continuous
 62
     7
370
    25
100
AcDbLine
 10
109.0064748641
 20
98.2648529961
 30
0.0
 11
111.8840868676
 21
97.8090840295
 31
0.0
  0
LINE
  5
D2
330
1F
100
AcDbEntity
  8
0
  6
Continuous
 62
     7
370
    25
100
AcDbLine
 10
116.9255741135
 20
136.6242561607
 30
0.0
 11
119.7862913779
 21
136.6242561607
 31
0.0
  0
LINE
  5
D3
330
1F
100
AcDbEntity
  8
0
  6
Continuous
 62
     7
370
    25
100
AcDbLine
 10
105.2000868251
 20
101.6242561607
 30
0.0
 11
105.2000868251
 21
98.8677256354
 31
0.0
  0
LINE
  5
D4
330
1F
100
AcDbEntity
  8
0
  6
Continuous
 62
     7
370
    25
100
AcDbLine
 10
105.2000868251
 20
101.6242561607
 30
0.0
 11
103.9862913779
 21
101.6242561607
 31
0.0
  0
LINE
  5
D5
330
1F
100
AcDbEntity
  8
0
  6
Continuous
 62
     7
370
    25
100
AcDbLine
 10
103.9862913779
 20
127.6242561607
 30
0.0
 11
109.0064748641
 21
127.6242561607
 31
0.0
  0
LINE
  5
D6
330
1F
100
AcDbEntity
  8
0
  6
Continuous
 62
     7
370
    25
100
AcDbLine
 10
105.2000868251
 20
98.8677256354
 30
0.0
 11
109.0064748641
 21
98.2648529961
 31
0.0
  0
LINE
  5
D7
330
1F
100
AcDbEntity
  8
0
  6
Continuous
 62
     7
370
    25
100
AcDbLine
 10
112.9862913779
 20
136.6242561607
 30
0.0
 11
116.9255741135
 21
136.6242561607
 31
0.0
  0
SPLINE
  5
D8
330
1F
100
AcDbEntity
  8
0
  6
Continuous
 62
     7
370
    25
100
AcDbSpline
210
0.0
220
0.0
230
1.0
 70
     8
 71
     3
 72
    10
 73
     6
 74
     0
 42
0.000000001
 43
0.00000001
 40
0.0
 40
0.0
 40
0.0
 40
0.0
 40
0.5
 40
0.5
 40
1.0
 40
1.0
 40
1.0
 40
1.0
 10
160.896155177767
 20
128.1127976644189
 30
0.0
 10
160.2340576601196
 20
129.5050633162304
 30
0.0
 10
159.6302501515583
 20
130.9223102146129
 30
0.0
 10
158.550862907894
 20
133.7649455315563
 30
0.0
 10
158.0739210349318
 20
135.1926902493801
 30
0.0
 10
157.6572582776126
 20
136.6242561606838
 30
0.0
  0
LINE
  5
D9
330
1F
100
AcDbEntity
  8
0
  6
Continuous
 62
     7
370
    25
100
AcDbLine
 10
154.1024189064
 20
136.6242561607
 30
0.0
 11
157.6572582776
 21
136.6242561607
 31
0.0
  0
SPLINE
  5
DA
330
1F
100
AcDbEntity
  8
0
  6
Continuous
 62
     7
370
    25
100
AcDbSpline
210
0.0
220
0.0
230
1.0
 70
     8
 71
     3
 72
     8
 73
     4
 74
     0
 42
0.000000001
 43
0.00000001
 40
0.0
 40
0.0
 40
0.0
 40
0.0
 40
1.0
 40
1.0
 40
1.0
 40
1.0
 10
168.7446663256356
 20
114.8136945971278
 30
0.0
 10
168.7706808476634
 20
114.7783941521125
 30
0.0
 10
168.7985471202717
 20
114.7601377790339
 30
0.0
 10
168.8262530245239
 20
114.7666279403757
 30
0.0
  0
ELLIPSE
  5
DB
330
1F
100
AcDbEntity
  8
0
  6
Continuous
 62
     7
370
    25
100
AcDbEllipse
 10
215.419559116
 20
146.9051557708
 30
0.0
 11
-43.78043270361209
 21
46.24396316840614
 31
0.0
210
0.0
220
0.0
230
1.0
 40
0.8872016155
 41
1.339125086210401
 42
1.432407087713966
  0
SPLINE
  5
DC
330
1F
100
AcDbEntity
  8
0
  6
Continuous
 62
     7
370
    25
100
AcDbSpline
210
0.0
220
0.0
230
1.0
 70
     8
 71
     3
 72
    10
 73
     6
 74
     0
 42
0.000000001
 43
0.00000001
 40
0.0
 40
0.0
 40
0.0
 40
0.0
 40
0.5
 40
0.5
 40
1.0
 40
1.0
 40
1.0
 40
1.0
 10
168.8262530245239
 20
114.7666279403757
 30
0.0
 10
168.8883931771935
 20
114.7811843906164
 30
0.0
 10
169.02105822937
 20
114.8216778295599
 30
0.0
 10
169.367390153046
 20
114.9358140398301
 30
0.0
 10
169.5779316917931
 20
115.0084411553154
 30
0.0
 10
169.7862913778952
 20
115.0828637539574
 30
0.0
  0
SPLINE
  5
DD
330
1F
100
AcDbEntity
  8
0
  6
Continuous
 62
     7
370
    25
100
AcDbSpline
210
0.0
220
0.0
230
1.0
 70
     8
 71
     3
 72
     8
 73
     4
 74
     0
 42
0.000000001
 43
0.00000001
 40
0.0
 40
0.0
 40
0.0
 40
0.0
 40
1.0
 40
1.0
 40
1.0
 40
1.0
 10
157.786291377895
 20
136.6242561606838
 30
0.0
 10
157.8552765425649
 20
136.6242561606838
 30
0.0
 10
157.9342080640521
 20
136.6311420295089
 30
0.0
 10
158.0219694435128
 20
136.6524249770997
 30
0.0
  0
SPLINE
  5
DE
330
1F
100
AcDbEntity
  8
0
  6
Continuous
 62
     7
370
    25
100
AcDbSpline
210
0.0
220
0.0
230
1.0
 70
    24
 71
     3
 72
     8
 73
     4
 74
     0
 42
0.000000001
 43
0.00000001
 40
0.0
 40
0.0
 40
0.0
 40
0.0
 40
1.0
 40
1.0
 40
1.0
 40
1.0
 10
158.0219694435128
 20
136.6524249770997
 30
0.0
 10
158.1774357131743
 20
136.6901269878208
 30
0.0
 10
158.3582153244141
 20
136.7339677183919
 30
0.0
 10
158.5436671324865
 20
136.7789414999809
 30
0.0
  0
ARC
  5
DF
330
1F
100
AcDbEntity
  8
0
  6
Continuous
 62
     7
370
    25
100
AcDbCircle
 10
215.3686255529
 20
152.4994350193
 30
0.0
 40
59.95005091897245
100
AcDbArc
 50
195.3554708772
 51
218.9483074123
  0
LINE
  5
E0
330
1F
100
AcDbEntity
  8
0
  6
Continuous
 62
     7
370
    25
100
AcDbLine
 10
157.6572582776
 20
136.6242561607
 30
0.0
 11
157.7862913779
 21
136.6242561607
 31
0.0
  0
ARC
  5
E1
330
1F
100
AcDbEntity
  8
0
  6
Continuous
 62
     7
370
    25
100
AcDbCircle
 10
176.2865640261
 20
129.1666827689
 30
0.0
 40
1.999468400690413
100
AcDbArc
 50
126.891091613
 51
333.6342684303
  0
LINE
  5
E2
330
1F
100
AcDbEntity
  8
0
  6
Continuous
 62
     7
370
    25
100
AcDbLine
 10
187.350703501
 20
129.9486256579
 30
0.0
 11
187.5356755884
 21
129.981221359
 31
0.0
  0
LINE
  5
E3
330
1F
100
AcDbEntity
  8
0
  6
Continuous
 62
     7
370
    25
100
AcDbLine
 10
187.5356755884
 20
129.981221359
 30
0.0
 11
187.5356755884
 21
118.7249165135
 31
0.0
  0
LINE
  5
E4
330
1F
100
AcDbEntity
  8
0
  6
Continuous
 62
     7
370
    25
100
AcDbLine
 10
187.5356755884
 20
118.7249165135
 30
0.0
 11
175.3367101083
 21
106.6242561607
 31
0.0
  0
LINE
  5
E5
330
1F
100
AcDbEntity
  8
0
  6
Continuous
 62
     7
370
    25
100
AcDbLine
 10
175.3367101083
 20
106.6242561607
 30
0.0
 11
170.6759795737
 21
106.6242561607
 31
0.0
  0
LINE
  5
E6
330
1F
100
AcDbEntity
  8
0
  6
Continuous
 62
     7
370
    25
100
AcDbLine
 10
158.5436671325
 20
136.7789415
 30
0.0
 11
168.7596555842
 21
139.2564133463
 31
0.0
  0
LINE
  5
E7
330
1F
100
AcDbEntity
  8
0
  6
Continuous
 62
     7
370
    25
100
AcDbLine
 10
168.7596555842
 20
139.2564133463
 30
0.0
 11
175.1354052023
 21
140.3799451837
 31
0.0
  0
LINE
  5
E8
330
1F
100
AcDbEntity
  8
0
  6
Continuous
 62
     7
370
    25
100
AcDbLine
 10
175.1354052023
 20
140.3799451837
 30
0.0
 11
175.1354052023
 21
140.2445272213
 31
0.0
  0
ARC
  5
E9
330
1F
100
AcDbEntity
  8
0
  6
Continuous
 62
     7
370
    25
100
AcDbCircle
 10
176.2846798772
 20
129.0130540596
 30
0.0
 40
1.998394677799131
100
AcDbArc
 50
126.8466667289
 51
177.7930753398
  0
LINE
  5
EA
330
1F
100
AcDbEntity
  8
0
  6
Continuous
 62
     7
370
    25
100
AcDbLine
 10
187.5356755884
 20
129.981221359
 30
0.0
 11
187.4654630069
 21
130.0201440465
 31
0.0
  0
LINE
  5
EB
330
1F
100
AcDbEntity
  8
0
  6
Continuous
 62
     7
370
    25
100
AcDbLine
 10
175.175279422
 20
140.3351735299
 30
0.0
 11
175.1354052023
 21
140.3799451837
 31
0.0
  0
POINT
  5
EC
330
1F
100
AcDbEntity
  8
VERMASSUNG
100
AcDbPoint
 10
187.7862913779
 20
142.8775655859
 30
0.0
  0
POINT
  5
ED
330
1F
100
AcDbEntity
  8
0
  6
Continuous
 62
     7
370
    18
100
AcDbPoint
 10
187.7862913779
 20
-26.9224344141
 30
0.0
  0
DIMENSION
  5
EE
330
1F
100
AcDbEntity
  8
VERMASSUNG
100
AcDbDimension
  2
_D
 10
213.4044635137
 20
-26.9224344141
 30
0.0
 11
213.4044635137
 21
108.3185172113
 31
0.0
 70
   160
  1
%%c<>-105.1\P%%c104.9-134.1\P%%c133.9-171.1
 71
     2
 42
-1.0
  3
SLDDIMSTYLE0
100
AcDbAlignedDimension
 13
187.7862913779
 23
142.8775655859
 33
0.0
 14
187.7862913779
 24
-26.9224344141
 34
0.0
 50
90.0
100
AcDbRotatedDimension
  0
LINE
  5
FD
330
1F
100
AcDbEntity
  8
0
  6
Continuous
 62
     7
100
AcDbLine
 10
252.8576188289
 20
56.7345534327
 30
0.0
 11
257.4170179919
 21
53.9119877173
 31
0.0
  0
LINE
  5
FE
330
1F
100
AcDbEntity
  8
0
  6
Continuous
 62
     7
370
    25
100
AcDbLine
 10
248.5596739126
 20
63.7927553118
 30
0.0
 11
248.6497587076
 21
63.8412506145
 31
0.0
  0
LINE
  5
FF
330
1F
100
AcDbEntity
  8
0
  6
Continuous
 62
     7
370
    25
100
AcDbLine
 10
247.3350403129
 20
66.9948552089
 30
0.0
 11
246.9480409636
 21
66.7865220425
 31
0.0
  0
LINE
  5
100
330
1F
100
AcDbEntity
  8
0
  6
Continuous
 62
     7
370
    25
100
AcDbLine
 10
247.4238169326
 20
65.9156341612
 30
0.0
 11
247.6203213814
 21
66.021418303
 31
0.0
  0
LINE
  5
101
330
1F
100
AcDbEntity
  8
0
  6
Continuous
 62
     7
370
    25
100
AcDbLine
 10
248.1679347712
 20
64.7088826966
 30
0.0
 11
247.8284544509
 21
64.5261304253
 31
0.0
  0
LINE
  5
102
330
1F
100
AcDbEntity
  8
0
  6
Continuous
 62
     7
370
    25
100
AcDbLine
 10
249.9714887302
 20
61.3238053551
 30
0.0
 11
250.4290729961
 21
61.6652772562
 31
0.0
  0
LINE
  5
103
330
1F
100
AcDbEntity
  8
0
  6
Continuous
 62
     7
370
    25
100
AcDbLine
 10
246.9495465397
 20
70.0244099422
 30
0.0
 11
245.082672418
 21
69.350170507
 31
0.0
  0
LINE
  5
104
330
1F
100
AcDbEntity
  8
0
  6
Continuous
 62
     7
370
    25
100
AcDbLine
 10
271.7301265023
 20
51.5164395236
 30
0.0
 11
267.010241357
 21
54.2411712205
 31
0.0
  0
LINE
  5
105
330
1F
100
AcDbEntity
  8
0
  6
Continuous
 62
     7
370
    25
100
AcDbLine
 10
238.5833705806
 20
41.6633399885
 30
0.0
 11
238.5833705806
 21
37.9895034853
 31
0.0
  0
LINE
  5
106
330
1F
100
AcDbEntity
  8
0
  6
Continuous
 62
     7
370
    25
100
AcDbLine
 10
241.6594781401
 20
30.6506237133
 30
0.0
 11
249.8974592196
 21
25.8949384637
 31
0.0
  0
LWPOLYLINE
  5
107
330
1F
100
AcDbEntity
  8
0
  6
Continuous
 62
     7
370
    25
100
AcDbPolyline
 90
       12
 70
   128
 43
0.0
 10
246.5944683306
 20
66.0125665106
 10
246.6271206182
 20
65.6600054032
 10
246.7252547542
 20
65.285919928
 10
246.8831675393
 20
64.9120505729
 10
247.0916816566
 20
64.560125266
 10
247.3386790234
 20
64.2505966269
 10
247.6098050505
 20
64.001453335
 10
247.8893028788
 20
63.8271746928
 10
248.1609291104
 20
63.7378891415
 10
248.408897816
 20
63.7387856329
 10
248.6187979558
 20
63.829812066
 10
248.6688370929
 20
63.8706865031
  0
LWPOLYLINE
  5
108
330
1F
100
AcDbEntity
  8
0
  6
Continuous
 62
     7
370
    25
100
AcDbPolyline
 90
        9
 70
   128
 43
0.0
 10
247.9567998516
 20
66.5306924038
 10
247.8979098257
 20
66.5778240194
 10
247.6184119974
 20
66.7521026616
 10
247.3467857658
 20
66.8413882128
 10
247.0988170602
 20
66.8404917215
 10
246.8889169203
 20
66.7494652883
 10
246.7292839794
 20
66.5735990387
 10
246.6291955238
 20
66.32311368
 10
246.5944683306
 20
66.0125665106
  0
LWPOLYLINE
  5
109
330
1F
100
AcDbEntity
  8
0
  6
Continuous
 62
     7
370
    25
100
AcDbPolyline
 90
       22
 70
   128
 43
0.0
 10
246.8391073388
 20
65.6688295436
 10
246.871609503
 20
65.3838136352
 10
246.9678816433
 20
65.0825586165
 10
247.1193695574
 20
64.7918323181
 10
247.3126128795
 20
64.5374670474
 10
247.5304410922
 20
64.3420642749
 10
247.753499203
 20
64.2229863945
 10
247.9619675199
 20
64.1908139984
 10
248.1373227181
 20
64.2484057452
 10
248.2639837186
 20
64.3906443555
 10
248.3306961358
 20
64.6048913045
 10
248.3315322785
 20
64.8721098106
 10
248.2664178519
 20
65.1685563369
 10
248.1411385585
 20
65.4678903086
 10
247.9668260133
 20
65.7435145886
 10
247.7589686509
 20
65.9709387502
 10
247.5360355101
 20
66.1299551586
 10
247.3178351789
 20
66.206434508
 10
247.1237557141
 20
66.1935812726
 10
246.9710419279
 20
66.0925375188
 10
246.8732631105
 20
65.9122814275
 10
246.8391073388
 20
65.6688295436
  0
LWPOLYLINE
  5
10A
330
1F
100
AcDbEntity
  8
0
  6
Continuous
 62
     7
370
    25
100
AcDbPolyline
 90
       21
 70
   128
 43
0.0
 10
246.8732070184
 20
65.6475669602
 10
246.9074277093
 20
65.3612858324
 10
247.0083948394
 20
65.0593199701
 10
247.1662250425
 20
64.7712278959
 10
247.3654687986
 20
64.5252100694
 10
247.5866227406
 20
64.3453484293
 10
247.8080387799
 20
64.2492490864
 10
248.0080431719
 20
64.2463189137
 10
248.1670580931
 20
64.3368447371
 10
248.2695180551
 20
64.5119652581
 10
248.3053935629
 20
64.7545384601
 10
248.271172872
 20
65.040819588
 10
248.1702057419
 20
65.3427854503
 10
248.0123755389
 20
65.6308775245
 10
247.8131317828
 20
65.876895351
 10
247.5919778408
 20
66.0567569911
 10
247.3705618014
 20
66.152856334
 10
247.1705574095
 20
66.1557865067
 10
247.0115424883
 20
66.0652606833
 10
246.9090825263
 20
65.8901401623
 10
246.8732070184
 20
65.6475669602
  0
SPLINE
  5
10B
330
1F
100
AcDbEntity
  8
0
  6
Continuous
 62
     7
370
    25
100
AcDbSpline
210
0.0
220
0.0
230
1.0
 70
     8
 71
     3
 72
    16
 73
    12
 74
     0
 42
0.000000001
 43
0.00000001
 40
0.0
 40
0.0
 40
0.0
 40
0.0
 40
0.1242194589697415
 40
0.2489993218720102
 40
0.3727377574601413
 40
0.4952944629268056
 40
0.6171957750165359
 40
0.7391031181773453
 40
0.861666823322247
 40
0.9853929371716394
 40
1.0
 40
1.0
 40
1.0
 40
1.0
 10
248.1930871677874
 20
65.06191200457842
 30
0.0
 10
248.2009948311898
 20
65.06830712879832
 30
0.0
 10
248.2168458326443
 20
65.0811262282152
 30
0.0
 10
248.2254634253207
 20
65.12512992246302
 30
0.0
 10
248.2207949230035
 20
65.18149167960422
 30
0.0
 10
248.2025186807772
 20
65.24523016519892
 30
0.0
 10
248.1730650492692
 20
65.30861650755304
 30
0.0
 10
248.1357219112866
 20
65.36503078447448
 30
0.0
 10
248.0947815047165
 20
65.4083783017479
 30
0.0
 10
248.0665623266885
 20
65.42671074414243
 30
0.0
 10
248.0530376234822
 20
65.43186027584588
 30
0.0
 10
248.0516095048326
 20
65.43240403212283
 30
0.0
  0
SPLINE
  5
10C
330
1F
100
AcDbEntity
  8
0
  6
Continuous
 62
     7
370
    25
100
AcDbSpline
210
0.0
220
0.0
230
1.0
 70
     8
 71
     3
 72
    12
 73
     8
 74
     0
 42
0.000000001
 43
0.00000001
 40
0.0
 40
0.0
 40
0.0
 40
0.0
 40
0.2093653562126785
 40
0.4192620302417154
 40
0.6249526976742913
 40
0.8281707878026289
 40
1.0
 40
1.0
 40
1.0
 40
1.0
 10
248.0516095048326
 20
65.43240403212283
 30
0.0
 10
248.0288064349323
 20
65.44620409465583
 30
0.0
 10
247.9831424265449
 20
65.47383924088881
 30
0.0
 10
247.9080903991591
 20
65.55359903422831
 30
0.0
 10
247.8380478123003
 20
65.64937803835501
 30
0.0
 10
247.781486092247
 20
65.74815814101093
 30
0.0
 10
247.7587581695974
 20
65.80891839490661
 30
0.0
 10
247.7483452936226
 20
65.83675591432102
 30
0.0
  0
SPLINE
  5
10D
330
1F
100
AcDbEntity
  8
0
  6
Continuous
 62
     7
370
    25
100
AcDbSpline
210
0.0
220
0.0
230
1.0
 70
     8
 71
     3
 72
    16
 73
    12
 74
     0
 42
0.000000001
 43
0.00000001
 40
0.0
 40
0.0
 40
0.0
 40
0.0
 40
0.1231896672980001
 40
0.2479795154961875
 40
0.3717274745391698
 40
0.4942903479748031
 40
0.6161927293768178
 40
0.7380955470920587
 40
0.8606497678263849
 40
0.9843631542991058
 40
1.0
 40
1.0
 40
1.0
 40
1.0
 10
247.7483452936226
 20
65.83675591432102
 30
0.0
 10
247.7407860290276
 20
65.85632882303919
 30
0.0
 10
247.7255693082352
 20
65.89572888415832
 30
0.0
 10
247.6868861424374
 20
65.95584223351028
 30
0.0
 10
247.6412175045817
 20
66.00774001686479
 30
0.0
 10
247.5926752483971
 20
66.0456958554095
 30
0.0
 10
247.5469693442553
 20
66.06556848454818
 30
0.0
 10
247.5089434432042
 20
66.06550368881254
 30
0.0
 10
247.4829549800407
 20
66.04562087478769
 30
0.0
 10
247.475101949396
 20
66.01916324829728
 30
0.0
 10
247.4746766229941
 20
66.00228935013331
 30
0.0
 10
247.4746288960315
 20
66.00039588689435
 30
0.0
  0
SPLINE
  5
10E
330
1F
100
AcDbEntity
  8
0
  6
Continuous
 62
     7
370
    25
100
AcDbSpline
210
0.0
220
0.0
230
1.0
 70
     8
 71
     3
 72
    12
 73
     8
 74
     0
 42
0.000000001
 43
0.00000001
 40
0.0
 40
0.0
 40
0.0
 40
0.0
 40
0.209365252960518
 40
0.4192619297278858
 40
0.6249525996332739
 40
0.8281706892237399
 40
1.0
 40
1.0
 40
1.0
 40
1.0
 10
247.4746288960315
 20
66.00039588689435
 30
0.0
 10
247.4691675893575
 20
65.97801774621189
 30
0.0
 10
247.4582311137837
 20
65.93320466326912
 30
0.0
 10
247.40519141701
 20
65.90193222812395
 30
0.0
 10
247.330623542997
 20
65.90223730191101
 30
0.0
 10
247.2458692021675
 20
65.931487396452
 30
0.0
 10
247.1901740700309
 20
65.96936335332859
 30
0.0
 10
247.1646571456122
 20
65.98671635873201
 30
0.0
  0
SPLINE
  5
10F
330
1F
100
AcDbEntity
  8
0
  6
Continuous
 62
     7
370
    25
100
AcDbSpline
210
0.0
220
0.0
230
1.0
 70
     8
 71
     3
 72
    16
 73
    12
 74
     0
 42
0.000000001
 43
0.00000001
 40
0.0
 40
0.0
 40
0.0
 40
0.0
 40
0.1243654221089445
 40
0.2491438717990237
 40
0.3728809614209315
 40
0.4954367981748853
 40
0.6173379650704753
 40
0.7392459561098875
 40
0.8618110113606354
 40
0.9855389335650169
 40
1.0
 40
1.0
 40
1.0
 40
1.0
 10
247.1646571456122
 20
65.98671635873201
 30
0.0
 10
247.1465346410842
 20
65.99869933952107
 30
0.0
 10
247.1102294457316
 20
66.0227050975433
 30
0.0
 10
247.0571147802229
 20
66.03590428244165
 30
0.0
 10
247.0125719253184
 20
66.02942984934617
 30
0.0
 10
246.9812156343452
 20
66.00289301699121
 30
0.0
 10
246.9663177213522
 20
65.9598977320713
 30
0.0
 10
246.9693391630484
 20
65.90517877816443
 30
0.0
 10
246.9901147447195
 20
65.8448563819446
 30
0.0
 10
247.0158594707326
 20
65.80292231240031
 30
0.0
 10
247.0319723026783
 20
65.78265298493025
 30
0.0
 10
247.0336584625924
 20
65.78053186012846
 30
0.0
  0
SPLINE
  5
110
330
1F
100
AcDbEntity
  8
0
  6
Continuous
 62
     7
370
    25
100
AcDbSpline
210
0.0
220
0.0
230
1.0
 70
     8
 71
     3
 72
    12
 73
     8
 74
     0
 42
0.000000001
 43
0.00000001
 40
0.0
 40
0.0
 40
0.0
 40
0.0
 40
0.2092378396812769
 40
0.4191378956982145
 40
0.624831618152943
 40
0.8280490456279085
 40
0.9999999999999999
 40
0.9999999999999999
 40
0.9999999999999999
 40
0.9999999999999999
 10
247.0336584625924
 20
65.78053186012846
 30
0.0
 10
247.0552592923728
 20
65.74667453009756
 30
0.0
 10
247.0985293163476
 20
65.67885271505341
 30
0.0
 10
247.1269673523731
 20
65.57129021386831
 30
0.0
 10
247.1212431544544
 20
65.4751499899724
 30
0.0
 10
247.0853200165504
 20
65.4014227045222
 30
0.0
 10
247.0444450832196
 20
65.37427534490072
 30
0.0
 10
247.0257108717663
 20
65.36183289340036
 30
0.0
  0
SPLINE
  5
111
330
1F
100
AcDbEntity
  8
0
  6
Continuous
 62
     7
370
    25
100
AcDbSpline
210
0.0
220
0.0
230
1.0
 70
     8
 71
     3
 72
    16
 73
    12
 74
     0
 42
0.000000001
 43
0.00000001
 40
0.0
 40
0.0
 40
0.0
 40
0.0
 40
0.1242194589696983
 40
0.2489993218719875
 40
0.3727377574601091
 40
0.4952944629267569
 40
0.6171957750166188
 40
0.739103118177298
 40
0.8616668233223121
 40
0.985392937171619
 40
1.0
 40
1.0
 40
1.0
 40
1.0
 10
247.0257108717663
 20
65.36183289340036
 30
0.0
 10
247.0126858782088
 20
65.35268295939393
 30
0.0
 10
246.9865771301101
 20
65.33434181234922
 30
0.0
 10
246.9667461904734
 20
65.28430164263244
 30
0.0
 10
246.9643869482325
 20
65.22415664327336
 30
0.0
 10
246.9804450569659
 20
65.15922407098317
 30
0.0
 10
247.0124788211241
 20
65.09722669015007
 30
0.0
 10
247.0570211513609
 20
65.04468795079929
 30
0.0
 10
247.1093493677344
 20
65.0074708274897
 30
0.0
 10
247.1480606267833
 20
64.99478658183108
 30
0.0
 10
247.1676048934633
 20
64.99287755872602
 30
0.0
 10
247.1696686379546
 20
64.99267597859097
 30
0.0
  0
SPLINE
  5
112
330
1F
100
AcDbEntity
  8
0
  6
Continuous
 62
     7
370
    25
100
AcDbSpline
210
0.0
220
0.0
230
1.0
 70
     8
 71
     3
 72
    12
 73
     8
 74
     0
 42
0.000000001
 43
0.00000001
 40
0.0
 40
0.0
 40
0.0
 40
0.0
 40
0.2093653562126361
 40
0.4192620302417001
 40
0.6249526976743071
 40
0.828170787802576
 40
1.0
 40
1.0
 40
1.0
 40
1.0
 10
247.1696686379546
 20
64.99267597859097
 30
0.0
 10
247.201013986124
 20
64.98347447645227
 30
0.0
 10
247.2637842292524
 20
64.965048121024
 30
0.0
 10
247.351656527417
 20
64.89218985764984
 30
0.0
 10
247.4192595539711
 20
64.79509756624275
 30
0.0
 10
247.4603400249124
 20
64.68798345048421
 30
0.0
 10
247.4672753176823
 20
64.61872155803283
 30
0.0
 10
247.470452745931
 20
64.58698898365775
 30
0.0
  0
SPLINE
  5
113
330
1F
100
AcDbEntity
  8
0
  6
Continuous
 62
     7
370
    25
100
AcDbSpline
210
0.0
220
0.0
230
1.0
 70
     8
 71
     3
 72
    16
 73
    12
 74
     0
 42
0.000000001
 43
0.00000001
 40
0.0
 40
0.0
 40
0.0
 40
0.0
 40
0.1231896672978951
 40
0.2479795154960677
 40
0.3717274745391103
 40
0.4942903479747771
 40
0.61619272937667
 40
0.7380955470920834
 40
0.8606497678263214
 40
0.9843631542991311
 40
0.9999999999999999
 40
0.9999999999999999
 40
0.9999999999999999
 40
0.9999999999999999
 10
247.470452745931
 20
64.58698898365775
 30
0.0
 10
247.4729357028602
 20
64.56468334876912
 30
0.0
 10
247.4779338692633
 20
64.51978233836914
 30
0.0
 10
247.5054000446475
 20
64.4536305521701
 30
0.0
 10
247.5440028522669
 20
64.39792902395331
 30
0.0
 10
247.5902870451708
 20
64.35875760333055
 30
0.0
 10
247.6385339940222
 20
64.34025289352111
 30
0.0
 10
247.6837222938429
 20
64.34417341980941
 30
0.0
 10
247.7210668909739
 20
64.37016957576115
 30
0.0
 10
247.7394341465005
 20
64.40228731968112
 30
0.0
 10
247.7459213060076
 20
64.4224244814331
 30
0.0
 10
247.7466492467557
 20
64.42468412381946
 30
0.0
  0
SPLINE
  5
114
330
1F
100
AcDbEntity
  8
0
  6
Continuous
 62
     7
370
    25
100
AcDbSpline
210
0.0
220
0.0
230
1.0
 70
     8
 71
     3
 72
    12
 73
     8
 74
     0
 42
0.000000001
 43
0.00000001
 40
0.0
 40
0.0
 40
0.0
 40
0.0
 40
0.2093652529604583
 40
0.4192619297278219
 40
0.6249525996332674
 40
0.8281706892237085
 40
1.0
 40
1.0
 40
1.0
 40
1.0
 10
247.7466492467557
 20
64.42468412381946
 30
0.0
 10
247.7606528276864
 20
64.45166082273614
 30
0.0
 10
247.7886955343012
 20
64.50568269449172
 30
0.0
 10
247.8545555068758
 20
64.54385666230591
 30
0.0
 10
247.9266838282098
 20
64.54223830534363
 30
0.0
 10
247.9959569228216
 20
64.50465419925806
 30
0.0
 10
248.0358594212585
 20
64.45827660176938
 30
0.0
 10
248.0541408939415
 20
64.43702853924677
 30
0.0
  0
SPLINE
  5
115
330
1F
100
AcDbEntity
  8
0
  6
Continuous
 62
     7
370
    25
100
AcDbSpline
210
0.0
220
0.0
230
1.0
 70
     8
 71
     3
 72
    16
 73
    12
 74
     0
 42
0.000000001
 43
0.00000001
 40
0.0
 40
0.0
 40
0.0
 40
0.0
 40
0.124365422108883
 40
0.2491438717990111
 40
0.3728809614208919
 40
0.4954367981749608
 40
0.6173379650704971
 40
0.7392459561098842
 40
0.8618110113606454
 40
0.9855389335650165
 40
1.0
 40
1.0
 40
1.0
 40
1.0
 10
248.0541408939415
 20
64.43702853924677
 30
0.0
 10
248.0671402554846
 20
64.42228761945334
 30
0.0
 10
248.0931821504971
 20
64.39275682408486
 30
0.0
 10
248.1350840051595
 20
64.37352145232391
 30
0.0
 10
248.1726045165005
 20
64.37621555071588
 30
0.0
 10
248.2017483346891
 20
64.4015613437019
 30
0.0
 10
248.2192319203972
 20
64.44594857252301
 30
0.0
 10
248.2234148847684
 20
64.50454587075005
 30
0.0
 10
248.2140315990403
 20
64.57100107595505
 30
0.0
 10
248.1987758004541
 20
64.61858164456258
 30
0.0
 10
248.188676537961
 20
64.64208825387259
 30
0.0
 10
248.1876196801947
 20
64.64454815058535
 30
0.0
  0
SPLINE
  5
116
330
1F
100
AcDbEntity
  8
0
  6
Continuous
 62
     7
370
    25
100
AcDbSpline
210
0.0
220
0.0
230
1.0
 70
     8
 71
     3
 72
    12
 73
     8
 74
     0
 42
0.000000001
 43
0.00000001
 40
0.0
 40
0.0
 40
0.0
 40
0.0
 40
0.2092378396813247
 40
0.4191378956981413
 40
0.6248316181529113
 40
0.8280490456278667
 40
1.0
 40
1.0
 40
1.0
 40
1.0
 10
248.1876196801947
 20
64.64454815058535
 30
0.0
 10
248.1745561731518
 20
64.68300137330162
 30
0.0
 10
248.1483878144041
 20
64.76002951924623
 30
0.0
 10
248.1327762487396
 20
64.87449688781473
 30
0.0
 10
248.1360703043233
 20
64.96932889440116
 30
0.0
 10
248.1565157700265
 20
65.0347240923056
 30
0.0
 10
248.1815933558684
 20
65.05336727374328
 30
0.0
 10
248.1930871677874
 20
65.06191200457842
 30
0.0
  0
LINE
  5
117
330
1F
100
AcDbEntity
  8
0
  6
Continuous
 62
     7
370
    25
100
AcDbLine
 10
247.5710750764
 20
66.052315711
 30
0.0
 11
247.474628896
 21
66.0003958869
 31
0.0
  0
LWPOLYLINE
  5
118
330
1F
100
AcDbEntity
  8
0
  6
Continuous
 62
     7
370
    25
100
AcDbPolyline
 90
        3
 70
   128
 43
0.0
 10
248.138309628
 20
64.8413212395
 10
248.1270958666
 20
64.8664230388
 10
248.1085723483
 20
64.9305075905
  0
ARC
  5
119
330
1F
100
AcDbEntity
  8
0
  6
Continuous
 62
     7
370
    25
100
AcDbCircle
 10
247.5822951448
 20
64.8531810283
 30
0.0
 40
0.5319277132276439
100
AcDbArc
 50
8.3587307441
 51
65.0652688249
  0
LWPOLYLINE
  5
11A
330
1F
100
AcDbEntity
  8
0
  6
Continuous
 62
     7
370
    25
100
AcDbPolyline
 90
        9
 70
   128
 43
0.0
 10
247.8065481887
 20
65.3355270291
 10
247.7595335255
 20
65.3550448214
 10
247.7125488794
 20
65.3939274041
 10
247.6710085332
 20
65.4476941369
 10
247.639699395
 20
65.5101492021
 10
247.6222293782
 20
65.5740955807
 10
247.6206116429
 20
65.6321644021
 10
247.6350326089
 20
65.6776640967
 10
247.6638304741
 20
65.7053515002
  0
ARC
  5
11B
330
1F
100
AcDbEntity
  8
0
  6
Continuous
 62
     7
370
    25
100
AcDbCircle
 10
247.5786292814
 20
65.841934982
 30
0.0
 40
0.1609791624304852
100
AcDbArc
 50
301.9560406408
 51
356.5597335839
  0
LINE
  5
11C
330
1F
100
AcDbEntity
  8
0
  6
Continuous
 62
     7
370
    25
100
AcDbLine
 10
247.2927329633
 20
65.9199993067
 30
0.0
 11
247.0336584626
 21
65.7805318601
 31
0.0
  0
LINE
  5
11D
330
1F
100
AcDbEntity
  8
0
  6
Continuous
 62
     7
370
    25
100
AcDbLine
 10
247.6638304741
 20
65.7053515002
 30
0.0
 11
247.0257108718
 21
65.3618328934
 31
0.0
  0
LINE
  5
11E
330
1F
100
AcDbEntity
  8
0
  6
Continuous
 62
     7
370
    25
100
AcDbLine
 10
247.8065481887
 20
65.3355270291
 30
0.0
 11
247.169668638
 21
64.9926759786
 31
0.0
  0
LINE
  5
11F
330
1F
100
AcDbEntity
  8
0
  6
Continuous
 62
     7
370
    25
100
AcDbLine
 10
250.0350368797
 20
61.55652703
 30
0.0
 11
249.36762323
 21
66.5015011535
 31
0.0
  0
LINE
  5
120
330
1F
100
AcDbEntity
  8
0
  6
Continuous
 62
     7
370
    25
100
AcDbLine
 10
249.9352808733
 20
61.7570488886
 30
0.0
 11
250.0350368797
 21
61.55652703
 31
0.0
  0
LINE
  5
121
330
1F
100
AcDbEntity
  8
0
  6
Continuous
 62
     7
370
    25
100
AcDbLine
 10
249.9012500906
 20
61.8918563834
 30
0.0
 11
249.9352808733
 21
61.7570488886
 31
0.0
  0
LINE
  5
122
330
1F
100
AcDbEntity
  8
0
  6
Continuous
 62
     7
370
    25
100
AcDbLine
 10
250.9295174961
 20
67.3886183023
 30
0.0
 11
250.9119743234
 21
67.5185984657
 31
0.0
  0
SPLINE
  5
123
330
1F
100
AcDbEntity
  8
0
  6
Continuous
 62
     7
370
    25
100
AcDbSpline
210
0.0
220
0.0
230
1.0
 70
     8
 71
     3
 72
    12
 73
     8
 74
     0
 42
0.000000001
 43
0.00000001
 40
0.0
 40
0.0
 40
0.0
 40
0.0
 40
0.0481906270125285
 40
0.4227687915308683
 40
0.5661203835288005
 40
0.99124087806241
 40
1.0
 40
1.0
 40
1.0
 40
1.0
 10
249.2683724263516
 20
66.7059941692705
 30
0.0
 10
249.2662418663345
 20
66.70367816190942
 30
0.0
 10
249.2475507983911
 20
66.68336019358416
 30
0.0
 10
249.2010072236226
 20
66.64362936388676
 30
0.0
 10
249.0942901873833
 20
66.56245325733418
 30
0.0
 10
249.0095796885082
 20
66.50277042573943
 30
0.0
 10
248.9402249560992
 20
66.45589201437544
 30
0.0
 10
248.9388248291168
 20
66.45494563730264
 30
0.0
  0
SPLINE
  5
124
330
1F
100
AcDbEntity
  8
0
  6
Continuous
 62
     7
370
    25
100
AcDbSpline
210
0.0
220
0.0
230
1.0
 70
     8
 71
     3
 72
    10
 73
     6
 74
     0
 42
0.000000001
 43
0.00000001
 40
0.0
 40
0.0
 40
0.0
 40
0.0
 40
0.3658097627742338
 40
0.9379269162053437
 40
0.9999999999999999
 40
0.9999999999999999
 40
0.9999999999999999
 40
0.9999999999999999
 10
249.2683724263514
 20
66.70599416927023
 30
0.0
 10
249.2717252866663
 20
66.70073969402694
 30
0.0
 10
249.2803219351312
 20
66.68726735331128
 30
0.0
 10
249.288422177739
 20
66.66562758413362
 30
0.0
 10
249.2932261312881
 20
66.65148733899701
 30
0.0
 10
249.2936963312276
 20
66.65010332428075
 30
0.0
  0
ARC
  5
125
330
1F
100
AcDbEntity
  8
0
  6
Continuous
 62
     7
370
    25
100
AcDbCircle
 10
248.7301761772
 20
66.4097486269
 30
0.0
 40
0.6440165147787567
100
AcDbArc
 50
8.1907543077
 51
55.0651988794
  0
SPLINE
  5
126
330
1F
100
AcDbEntity
  8
0
  6
Continuous
 62
     7
370
    25
100
AcDbSpline
210
0.0
220
0.0
230
1.0
 70
     8
 71
     3
 72
    10
 73
     6
 74
     0
 42
0.000000001
 43
0.00000001
 40
0.0
 40
0.0
 40
0.0
 40
0.0
 40
0.0620730837953883
 40
0.634190237212017
 40
0.9999999999999999
 40
0.9999999999999999
 40
0.9999999999999999
 40
0.9999999999999999
 10
249.22413544113
 20
66.76304932745651
 30
0.0
 10
249.2252602739359
 20
66.76184348782682
 30
0.0
 10
249.2367525011677
 20
66.74952362752616
 30
0.0
 10
249.2541588057847
 20
66.7297484211366
 30
0.0
 10
249.2643842888299
 20
66.71265927072876
 30
0.0
 10
249.2683724263516
 20
66.7059941692705
 30
0.0
  0
ARC
  5
127
330
1F
100
AcDbEntity
  8
0
  6
Continuous
 62
     7
370
    25
100
AcDbCircle
 10
250.7402257764
 20
67.4938774114
 30
0.0
 40
0.1735185693956517
100
AcDbArc
 50
8.1907543289
 51
55.0651988266
  0
LINE
  5
128
330
1F
100
AcDbEntity
  8
0
  6
Continuous
 62
     7
370
    25
100
AcDbLine
 10
245.4243851969
 20
69.0813892855
 30
0.0
 11
245.2554862943
 21
69.3170823484
 31
0.0
  0
LINE
  5
129
330
1F
100
AcDbEntity
  8
0
  6
Continuous
 62
     7
370
    25
100
AcDbLine
 10
249.0989683209
 20
66.9377160748
 30
0.0
 11
245.2554862943
 21
69.3170823484
 31
0.0
  0
LINE
  5
12A
330
1F
100
AcDbEntity
  8
0
  6
Continuous
 62
     7
370
    25
100
AcDbLine
 10
245.5320058425
 20
68.9861973849
 30
0.0
 11
245.4243851969
 21
69.0813892855
 31
0.0
  0
LINE
  5
12B
330
1F
100
AcDbEntity
  8
0
  6
Continuous
 62
     7
370
    25
100
AcDbLine
 10
250.8395901308
 20
67.6361286644
 30
0.0
 11
246.9961081042
 21
70.015494938
 31
0.0
  0
LINE
  5
12C
330
1F
100
AcDbEntity
  8
0
  6
Continuous
 62
     7
370
    25
100
AcDbLine
 10
245.7217326158
 20
67.4168811539
 30
0.0
 11
246.0524330729
 21
64.9666687504
 31
0.0
  0
LWPOLYLINE
  5
12D
330
1F
100
AcDbEntity
  8
0
  6
Continuous
 62
     7
370
    25
100
AcDbPolyline
 90
        9
 70
   128
 43
0.0
 10
246.3933698883
 20
67.9594254741
 10
246.2457584266
 20
68.0314513273
 10
246.1051449269
 20
68.0613520247
 10
245.9781955921
 20
68.0477100344
 10
245.8709288344
 20
67.9911720958
 10
245.7884299547
 20
67.8944185586
 10
245.7346100588
 20
67.7620363132
 10
245.7120206396
 20
67.6003013351
 10
245.7217326158
 20
67.4168811539
  0
LINE
  5
12E
330
1F
100
AcDbEntity
  8
0
  6
Continuous
 62
     7
370
    25
100
AcDbLine
 10
248.2977979195
 20
66.7804602034
 30
0.0
 11
246.3933698883
 21
67.9594254741
 31
0.0
  0
ARC
  5
12F
330
1F
100
AcDbEntity
  8
0
  6
Continuous
 62
     7
370
    25
100
AcDbCircle
 10
247.3758175577
 20
65.4605415826
 30
0.0
 40
1.61004128932073
100
AcDbArc
 50
8.1907543289
 51
55.0651988266
  0
LINE
  5
130
330
1F
100
AcDbEntity
  8
0
  6
Continuous
 62
     7
370
    25
100
AcDbLine
 10
249.3001356492
 20
63.2397104965
 30
0.0
 11
248.969435192
 21
65.6899228999
 31
0.0
  0
LWPOLYLINE
  5
131
330
1F
100
AcDbEntity
  8
0
  6
Continuous
 62
     7
370
    25
100
AcDbPolyline
 90
        9
 70
   128
 43
0.0
 10
248.6284983767
 20
62.697166176
 10
248.7761098385
 20
62.6251403228
 10
248.9167233383
 20
62.5952396254
 10
249.0436726731
 20
62.6088816157
 10
249.1509394308
 20
62.6654195543
 10
249.2334383104
 20
62.7621730915
 10
249.2872582063
 20
62.894555337
 10
249.3098476256
 20
63.0562903151
 10
249.3001356492
 20
63.2397104965
  0
LINE
  5
132
330
1F
100
AcDbEntity
  8
0
  6
Continuous
 62
     7
370
    25
100
AcDbLine
 10
246.7240703454
 20
63.8761314469
 30
0.0
 11
248.6284983767
 21
62.697166176
 31
0.0
  0
ARC
  5
133
330
1F
100
AcDbEntity
  8
0
  6
Continuous
 62
     7
370
    25
100
AcDbCircle
 10
247.6460507073
 20
65.1960500678
 30
0.0
 40
1.61004128932116
100
AcDbArc
 50
188.1907543289
 51
235.0651988266
  0
LWPOLYLINE
  5
134
330
1F
100
AcDbEntity
  8
0
  6
Continuous
 62
     7
370
    25
100
AcDbPolyline
 90
       29
 70
   128
 43
0.0
 10
247.5109341326
 20
63.7564547623
 10
247.8030700383
 20
63.6150129035
 10
248.0805570298
 20
63.5594822044
 10
248.3294807507
 20
63.5926472062
 10
248.5373591262
 20
63.7128448772
 10
248.6937682666
 20
63.9140480043
 10
248.7908651644
 20
64.1861674224
 10
248.8237809757
 20
64.5155579278
 10
248.7908651644
 20
64.8857025051
 10
248.6937682666
 20
65.2780405596
 10
248.5373591262
 20
65.6728986229
 10
248.3294807507
 20
66.050476863
 10
248.0805570298
 20
66.3918419303
 10
247.8030700383
 20
66.679876355
 10
247.5109341326
 20
66.9001368881
 10
247.2187982269
 20
67.0415787469
 10
246.9413112354
 20
67.097109446
 10
246.6923875145
 20
67.0639444442
 10
246.484509139
 20
66.9437467732
 10
246.3280999986
 20
66.7425436462
 10
246.2310031008
 20
66.470424228
 10
246.1980872895
 20
66.1410337226
 10
246.2310031008
 20
65.7708891453
 10
246.3280999986
 20
65.3785510909
 10
246.484509139
 20
64.9836930275
 10
246.6923875145
 20
64.6061147874
 10
246.9413112354
 20
64.2647497201
 10
247.2187982269
 20
63.9767152955
 10
247.5109341326
 20
63.7564547623
  0
SPLINE
  5
135
330
1F
100
AcDbEntity
  8
0
  6
Continuous
 62
     7
370
    25
100
AcDbSpline
210
0.0
220
0.0
230
1.0
 70
     8
 71
     3
 72
    11
 73
     7
 74
     0
 42
0.000000001
 43
0.00000001
 40
0.0
 40
0.0
 40
0.0
 40
0.0
 40
0.0074552814711575
 40
0.3066092506034776
 40
0.6526506519390255
 40
0.9999999999999999
 40
0.9999999999999999
 40
0.9999999999999999
 40
0.9999999999999999
 10
249.4857558283676
 20
62.44533210030563
 30
0.0
 10
249.4872028377125
 20
62.44437770156946
 30
0.0
 10
249.5467131932311
 20
62.40512667095312
 30
0.0
 10
249.6661886241108
 20
62.30746862111647
 30
0.0
 10
249.8199229689546
 20
62.12117521400147
 30
0.0
 10
249.8741069808578
 20
61.96839205882036
 30
0.0
 10
249.901250090607
 20
61.89185638338333
 30
0.0
  0
SPLINE
  5
136
330
1F
100
AcDbEntity
  8
0
  6
Continuous
 62
     7
370
    25
100
AcDbSpline
210
0.0
220
0.0
230
1.0
 70
     8
 71
     3
 72
    11
 73
     7
 74
     0
 42
0.000000001
 43
0.00000001
 40
0.0
 40
0.0
 40
0.0
 40
0.0
 40
0.3473493480609498
 40
0.6933907493964672
 40
0.992544718528846
 40
0.9999999999999999
 40
0.9999999999999999
 40
0.9999999999999999
 40
0.9999999999999999
 10
245.5320058425043
 20
68.98619738488836
 30
0.0
 10
245.5891794552229
 20
68.9258280151165
 30
0.0
 10
245.7033113929679
 20
68.80531659691353
 30
0.0
 10
245.7984664969554
 20
68.58748825632509
 30
0.0
 10
245.8288273324074
 20
68.441857190839
 30
0.0
 10
245.8352616989516
 20
68.37403378958632
 30
0.0
 10
245.8354181522014
 20
68.37238464643205
 30
0.0
  0
LWPOLYLINE
  5
137
330
1F
100
AcDbEntity
  8
0
  6
Continuous
 62
     7
370
    25
100
AcDbPolyline
 90
        9
 70
   128
 43
0.0
 10
249.7663819707
 20
61.3395093019
 10
249.8254265554
 20
61.3106989607
 10
249.8816719553
 20
61.2987386817
 10
249.9324516892
 20
61.3041954778
 10
249.9753583923
 20
61.3268106533
 10
250.0083579442
 20
61.3655120682
 10
250.0298859025
 20
61.4184649664
 10
250.0389216703
 20
61.4831589576
 10
250.0350368797
 20
61.55652703
  0
LINE
  5
138
330
1F
100
AcDbEntity
  8
0
  6
Continuous
 62
     7
370
    25
100
AcDbLine
 10
249.9352808733
 20
61.7570488886
 30
0.0
 11
249.7663819707
 21
61.3395093019
 31
0.0
  0
LINE
  5
139
330
1F
100
AcDbEntity
  8
0
  6
Continuous
 62
     7
370
    25
100
AcDbLine
 10
245.9228999441
 20
63.7188755755
 30
0.0
 11
249.7663819707
 21
61.3395093019
 31
0.0
  0
LINE
  5
13A
330
1F
100
AcDbEntity
  8
0
  6
Continuous
 62
     7
370
    25
100
AcDbLine
 10
244.9868313853
 20
69.1000646203
 30
0.0
 11
245.6542450351
 21
64.1550904969
 31
0.0
  0
LINE
  5
13B
330
1F
100
AcDbEntity
  8
0
  6
Continuous
 62
     7
370
    25
100
AcDbLine
 10
245.4243851969
 20
69.0813892855
 30
0.0
 11
244.9868313853
 21
69.1000646203
 31
0.0
  0
LWPOLYLINE
  5
13C
330
1F
100
AcDbEntity
  8
0
  6
Continuous
 62
     7
370
    25
100
AcDbPolyline
 90
        9
 70
   128
 43
0.0
 10
245.2554862943
 20
69.3170823484
 10
245.1964417096
 20
69.3458926897
 10
245.1401963097
 20
69.3578529686
 10
245.0894165758
 20
69.3523961725
 10
245.0465098727
 20
69.3297809971
 10
245.0135103209
 20
69.2910795822
 10
244.9919823626
 20
69.2381266841
 10
244.9829465949
 20
69.1734326928
 10
244.9868313853
 20
69.1000646203
  0
ARC
  5
13D
330
1F
100
AcDbEntity
  8
0
  6
Continuous
 62
     7
370
    25
100
AcDbCircle
 10
246.9640157411
 20
69.9739310382
 30
0.0
 40
0.0525116895706428
100
AcDbArc
 50
52.3275129825
 51
105.9943453449
  0
SPLINE
  5
13E
330
1F
100
AcDbEntity
  8
0
  6
Continuous
 62
     7
370
    25
100
AcDbSpline
210
0.0
220
0.0
230
1.0
 70
     8
 71
     3
 72
    12
 73
     8
 74
     0
 42
0.000000001
 43
0.00000001
 40
0.0
 40
0.0
 40
0.0
 40
0.0
 40
0.0087591219375934
 40
0.433879616471168
 40
0.577231208469146
 40
0.9518093729874565
 40
1.0
 40
1.0
 40
1.0
 40
1.0
 10
246.281891545877
 20
64.3086918167981
 30
0.0
 10
246.2818618172154
 20
64.30848316556893
 30
0.0
 10
246.2803892198054
 20
64.29814771003618
 30
0.0
 10
246.2605910383884
 20
64.27340909387871
 30
0.0
 10
246.1912016927477
 20
64.21232758436331
 30
0.0
 10
246.1288250222141
 20
64.16407333213023
 30
0.0
 10
246.0713945335152
 20
64.12290079077766
 30
0.0
 10
246.06484813909
 20
64.11820760948514
 30
0.0
  0
SPLINE
  5
13F
330
1F
100
AcDbEntity
  8
0
  6
Continuous
 62
     7
370
    25
100
AcDbSpline
210
0.0
220
0.0
230
1.0
 70
     8
 71
     3
 72
    10
 73
     6
 74
     0
 42
0.000000001
 43
0.00000001
 40
0.0
 40
0.0
 40
0.0
 40
0.0
 40
0.0620730837954576
 40
0.6341902372120408
 40
1.0
 40
1.0
 40
1.0
 40
1.0
 10
246.0480670643547
 20
64.02830462955725
 30
0.0
 10
246.0482434554413
 20
64.0302109563951
 30
0.0
 10
246.0500456134499
 20
64.04968757646253
 30
0.0
 10
246.0536172945257
 20
64.0807558514128
 30
0.0
 10
246.0616969256186
 20
64.1076991847724
 30
0.0
 10
246.06484813909
 20
64.11820760948513
 30
0.0
  0
SPLINE
  5
140
330
1F
100
AcDbEntity
  8
0
  6
Continuous
 62
     7
370
    25
100
AcDbSpline
210
0.0
220
0.0
230
1.0
 70
     8
 71
     3
 72
    10
 73
     6
 74
     0
 42
0.000000001
 43
0.00000001
 40
0.0
 40
0.0
 40
0.0
 40
0.0
 40
0.3658097627742677
 40
0.9379269162054179
 40
1.0
 40
1.0
 40
1.0
 40
1.0
 10
246.0648481390907
 20
64.11820760948565
 30
0.0
 10
246.0543559277829
 20
64.11961876147458
 30
0.0
 10
246.0274541651797
 20
64.12323691923845
 30
0.0
 10
245.9983759368785
 20
64.13358361985492
 30
0.0
 10
245.9802775980889
 20
64.14056710522476
 30
0.0
 10
245.9785061742569
 20
64.14125063273292
 30
0.0
  0
ARC
  5
141
330
1F
100
AcDbEntity
  8
0
  6
Continuous
 62
     7
370
    25
100
AcDbCircle
 10
246.2916920893
 20
64.2468430241
 30
0.0
 40
0.6440165162322071
100
AcDbArc
 50
188.1907543483
 51
235.0651988072
  0
ELLIPSE
  5
142
330
1F
100
AcDbEntity
  8
0
  6
Continuous
 62
     7
370
    25
100
AcDbEllipse
 10
265.3491724036
 20
36.9782839062
 30
0.0
 11
6.023074869843526
 21
8.050698210827946
 31
0.0
210
0.0
220
0.0
230
1.0
 40
0.4807028563
 41
4.479349670269501
 42
4.727830022166321
  0
ELLIPSE
  5
143
330
1F
100
AcDbEntity
  8
0
  6
Continuous
 62
     7
370
    25
100
AcDbEllipse
 10
262.761032158
 20
42.0753856714
 30
0.0
 11
12.58822647797303
 21
16.82595926063041
 31
0.0
210
0.0
220
0.0
230
1.0
 40
0.4807028563
 41
4.225782200580755
 42
4.479349670269506
  0
LINE
  5
144
330
1F
100
AcDbEntity
  8
0
  6
Continuous
 62
     7
370
    25
100
AcDbLine
 10
264.1145157279
 20
29.4669939084
 30
0.0
 11
264.0238459232
 21
28.8582731527
 31
0.0
  0
SPLINE
  5
145
330
1F
100
AcDbEntity
  8
0
  6
Continuous
 62
     7
370
    25
100
AcDbSpline
210
0.0
220
0.0
230
1.0
 70
     8
 71
     3
 72
    12
 73
     8
 74
     0
 42
0.000000001
 43
0.00000001
 40
0.0
 40
0.0
 40
0.0
 40
0.0
 40
0.5
 40
0.5
 40
0.75
 40
0.75
 40
1.0
 40
1.0
 40
1.0
 40
1.0
 10
266.2897593749881
 20
31.56237307473778
 30
0.0
 10
265.9438676938723
 20
31.17355037833227
 30
0.0
 10
265.5876787864824
 20
30.80296325138131
 30
0.0
 10
265.0425564214338
 20
30.27551600305517
 30
0.0
 10
264.8587318560446
 20
30.10422690263945
 30
0.0
 10
264.4887641085313
 20
29.77422954383711
 30
0.0
 10
264.3022508217789
 20
29.61373389004055
 30
0.0
 10
264.114515727927
 20
29.46699390840796
 30
0.0
  0
ELLIPSE
  5
146
330
1F
100
AcDbEntity
  8
0
  6
Continuous
 62
     7
370
    25
100
AcDbEllipse
 10
262.1450612431
 20
37.9400036461
 30
0.0
 11
9.03461230476529
 21
12.07604731624192
 31
0.0
210
0.0
220
0.0
230
1.0
 40
0.4807028563
 41
4.537527216729276
 42
9.7140678333843
  0
SPLINE
  5
147
330
1F
100
AcDbEntity
  8
0
  6
Continuous
 62
     7
370
    25
100
AcDbSpline
210
0.0
220
0.0
230
1.0
 70
     8
 71
     3
 72
    12
 73
     8
 74
     0
 42
0.000000001
 43
0.00000001
 40
0.0
 40
0.0
 40
0.0
 40
0.0
 40
0.2499999999999998
 40
0.2499999999999998
 40
0.4999999999999996
 40
0.4999999999999996
 40
1.0
 40
1.0
 40
1.0
 40
1.0
 10
257.0434479160612
 20
25.38495334929975
 30
0.0
 10
256.8680847655455
 20
25.32210998679916
 30
0.0
 10
256.6987695740779
 20
25.27721666095465
 30
0.0
 10
256.367198946941
 20
25.20206074497742
 30
0.0
 10
256.2050752023464
 20
25.17342146274232
 30
0.0
 10
255.7284766298037
 20
25.11136077965007
 30
0.0
 10
255.4261255587689
 20
25.10177714419988
 30
0.0
 10
255.1418662885445
 20
25.12683138029051
 30
0.0
  0
LINE
  5
148
330
1F
100
AcDbEntity
  8
0
  6
Continuous
 62
     7
370
    25
100
AcDbLine
 10
256.9527781113
 20
24.7762325936
 30
0.0
 11
257.0434479161
 21
25.3849533493
 31
0.0
  0
ELLIPSE
  5
149
330
1F
100
AcDbEntity
  8
0
  6
Continuous
 62
     7
370
    25
100
AcDbEllipse
 10
262.761032158
 20
42.0753856714
 30
0.0
 11
12.58822647797303
 21
16.82595926063041
 31
0.0
210
0.0
220
0.0
230
1.0
 40
0.4807028563
 41
3.489060072664482
 42
3.742627542353239
  0
ELLIPSE
  5
14A
330
1F
100
AcDbEntity
  8
0
  6
Continuous
 62
     7
370
    25
100
AcDbEllipse
 10
258.0246297135
 20
32.7499154146
 30
0.0
 11
6.023074869843526
 21
8.050698210827946
 31
0.0
210
0.0
220
0.0
230
1.0
 40
0.4807028563
 41
3.240579720767667
 42
3.489060072664474
  0
ELLIPSE
  5
14B
330
1F
100
AcDbEntity
  8
0
  6
Continuous
 62
     7
370
    25
100
AcDbEllipse
 10
262.1450612431
 20
37.9400036461
 30
0.0
 11
9.968188909591049
 21
13.32390553892026
 31
0.0
210
0.0
220
0.0
230
1.0
 40
0.4807028563
 41
4.790870688667255
 42
9.460724361446319
  0
LINE
  5
14C
330
1F
100
AcDbEntity
  8
0
  6
Continuous
 62
     7
370
    25
100
AcDbLine
 10
250.2868086509
 20
25.6802056094
 30
0.0
 11
252.4134931529
 21
24.4524967789
 31
0.0
  0
ARC
  5
14D
330
1F
100
AcDbEntity
  8
0
  6
Continuous
 62
     7
370
    25
100
AcDbCircle
 10
264.7064698216
 20
46.522884318
 30
0.0
 40
6.358500479999051
100
AcDbArc
 50
23.7715759766
 51
41.1929402065
  0
ARC
  5
14E
330
1F
100
AcDbEntity
  8
0
  6
Continuous
 62
     7
370
    25
100
AcDbCircle
 10
255.8188503074
 20
30.3311465264
 30
0.0
 40
5.248161916493755
100
AcDbArc
 50
241.9219070982
 51
262.5885078468
  0
SPLINE
  5
14F
330
1F
100
AcDbEntity
  8
0
  6
Continuous
 62
     7
370
    25
100
AcDbSpline
210
0.0
220
0.0
230
1.0
 70
     8
 71
     3
 72
    10
 73
     6
 74
     0
 42
0.000000001
 43
0.00000001
 40
0.0
 40
0.0
 40
0.0
 40
0.0
 40
0.5
 40
0.5
 40
1.0
 40
1.0
 40
1.0
 40
1.0
 10
257.4912358740958
 20
54.56278030393646
 30
0.0
 10
257.5168456488106
 20
54.45538570424359
 30
0.0
 10
257.5256269417754
 20
54.335050202725
 30
0.0
 10
257.5067850119194
 20
54.10401780327688
 30
0.0
 10
257.4790029701367
 20
53.9926007953221
 30
0.0
 10
257.4170179918909
 20
53.91198771725549
 30
0.0
  0
SPLINE
  5
150
330
1F
100
AcDbEntity
  8
0
  6
Continuous
 62
     7
370
    25
100
AcDbSpline
210
0.0
220
0.0
230
1.0
 70
     8
 71
     3
 72
     8
 73
     4
 74
     0
 42
0.000000001
 43
0.00000001
 40
0.0
 40
0.0
 40
0.0
 40
0.0
 40
1.0
 40
1.0
 40
1.0
 40
1.0
 10
257.441768441523
 20
54.95663723474391
 30
0.0
 10
257.441768441523
 20
54.83227350422607
 30
0.0
 10
257.4582806154891
 20
54.70097819304475
 30
0.0
 10
257.4912358740987
 20
54.56278030393528
 30
0.0
  0
SPLINE
  5
151
330
1F
100
AcDbEntity
  8
0
  6
Continuous
 62
     7
370
    25
100
AcDbSpline
210
0.0
220
0.0
230
1.0
 70
     8
 71
     3
 72
    11
 73
     7
 74
     0
 42
0.000000001
 43
0.00000001
 40
0.0
 40
0.0
 40
0.0
 40
0.0
 40
0.0066952767297755
 40
0.3634709177859434
 40
0.721203299994946
 40
1.0
 40
1.0
 40
1.0
 40
1.0
 10
268.4051093311271
 20
53.43593107903169
 30
0.0
 10
268.4031266131945
 20
53.44032523791957
 30
0.0
 10
268.2954894929153
 20
53.67887384887799
 30
0.0
 10
268.1100091962567
 20
54.14037985278041
 30
0.0
 10
267.8684082370147
 20
54.76937623404722
 30
0.0
 10
267.7499860112784
 20
55.15334077139303
 30
0.0
 10
267.6981176416076
 20
55.3215154061774
 30
0.0
  0
SPLINE
  5
152
330
1F
100
AcDbEntity
  8
0
  6
Continuous
 62
     7
370
    25
100
AcDbSpline
210
0.0
220
0.0
230
1.0
 70
     8
 71
     3
 72
    16
 73
    12
 74
     0
 42
0.000000001
 43
0.00000001
 40
0.0
 40
0.0
 40
0.0
 40
0.0
 40
0.499999999999999
 40
0.499999999999999
 40
0.7499999999999996
 40
0.7499999999999996
 40
0.874999999999999
 40
0.874999999999999
 40
0.9374999999999996
 40
0.9374999999999996
 40
1.0
 40
1.0
 40
1.0
 40
1.0
 10
249.262544309919
 20
26.3403373440577
 30
0.0
 10
249.3861286882801
 20
26.23100438297043
 30
0.0
 10
249.5262692025096
 20
26.12606781539537
 30
0.0
 10
249.770416051159
 20
25.96925892531991
 30
0.0
 10
249.8577146964814
 20
25.91697409378817
 30
0.0
 10
250.0034478850939
 20
25.83482247173379
 30
0.0
 10
250.0545046021075
 20
25.80682579777318
 30
0.0
 10
250.1375705923926
 20
25.76190705720442
 30
0.0
 10
250.166625559918
 20
25.74629883526284
 30
0.0
 10
250.2276918746302
 20
25.71325229244212
 30
0.0
 10
250.2614148878351
 20
25.6948651167318
 30
0.0
 10
250.2868086508959
 20
25.68020560935325
 30
0.0
  0
LWPOLYLINE
  5
153
330
1F
100
AcDbEntity
  8
0
  6
Continuous
 62
     7
370
    25
100
AcDbPolyline
 90
       26
 70
   128
 43
0.0
 10
254.5391419526
 20
50.5584538482
 10
253.7119005848
 20
49.6996085985
 10
252.9120782499
 20
48.78525413
 10
252.1442804132
 20
47.8206553964
 10
251.4129281392
 20
46.8113666638
 10
250.7222326349
 20
45.7631995278
 10
250.0761710013
 20
44.6821894504
 10
249.4784633323
 20
43.5745610067
 10
248.9325512947
 20
42.4466920435
 10
248.4415783102
 20
41.3050769545
 10
248.0083714553
 20
40.1562892854
 10
247.6354251829
 20
39.0069438822
 10
247.3248869586
 20
37.8636588023
 10
247.0785448959
 20
36.7330172074
 10
246.8978174595
 20
35.6215294563
 10
246.7837452979
 20
34.5355956181
 10
246.7369852511
 20
33.4814686196
 10
246.7578065687
 20
32.4652182401
 10
246.8460893593
 20
31.4926961614
 10
247.0013252807
 20
30.5695022729
 10
247.2226204675
 20
29.7009524268
 10
247.5087006776
 20
28.8920478287
 10
247.8579186295
 20
28.1474462406
 10
248.2682634879
 20
27.4714351605
 10
248.7373724417
 20
26.8679071347
 10
249.2625443099
 20
26.3403373441
  0
SPLINE
  5
154
330
1F
100
AcDbEntity
  8
0
  6
Continuous
 62
     7
370
    25
100
AcDbSpline
210
0.0
220
0.0
230
1.0
 70
     8
 71
     3
 72
    18
 73
    14
 74
     0
 42
0.000000001
 43
0.00000001
 40
0.0
 40
0.0
 40
0.0
 40
0.0
 40
0.1250000000000002
 40
0.1250000000000002
 40
0.2500000000000003
 40
0.2500000000000003
 40
0.3750000000000005
 40
0.3750000000000005
 40
0.5000000000000004
 40
0.5000000000000004
 40
0.7500000000000002
 40
0.7500000000000002
 40
1.0
 40
1.0
 40
1.0
 40
1.0
 10
254.5391419525587
 20
50.55845384820611
 30
0.0
 10
254.7115874319663
 20
50.67112475135312
 30
0.0
 10
254.8811357532215
 20
50.78655253893605
 30
0.0
 10
255.2013804922042
 20
51.03534725193669
 30
0.0
 10
255.3453580840414
 20
51.16612792825381
 30
0.0
 10
255.6022776341901
 20
51.43975312235647
 30
0.0
 10
255.7172297498967
 20
51.58184705598342
 30
0.0
 10
255.9379970807365
 20
51.86960734432606
 30
0.0
 10
256.0436890078735
 20
52.01532190320407
 30
0.0
 10
256.3575938550819
 20
52.4537053779649
 30
0.0
 10
256.562605074747
 20
52.74752603792047
 30
0.0
 10
256.9816542634464
 20
53.33222217094995
 30
0.0
 10
257.1951047402486
 20
53.62338375570042
 30
0.0
 10
257.4170179918908
 20
53.91198771725549
 30
0.0
  0
SPLINE
  5
155
330
1F
100
AcDbEntity
  8
0
  6
Continuous
 62
     7
370
    25
100
AcDbSpline
210
0.0
220
0.0
230
1.0
 70
     8
 71
     3
 72
    10
 73
     6
 74
     0
 42
0.000000001
 43
0.00000001
 40
0.0
 40
0.0
 40
0.0
 40
0.0
 40
0.5
 40
0.5
 40
1.0
 40
1.0
 40
1.0
 40
1.0
 10
264.1145157279267
 20
29.46699390841324
 30
0.0
 10
264.1129948946723
 20
29.47501260173402
 30
0.0
 10
264.1118371923054
 20
29.48299870468363
 30
0.0
 10
264.1103028002316
 20
29.4985877496079
 30
0.0
 10
264.1099253814618
 20
29.50614833016117
 30
0.0
 10
264.1099253814617
 20
29.51348238629949
 30
0.0
  0
ARC
  5
156
330
1F
100
AcDbEntity
  8
0
  6
Continuous
 62
     7
370
    25
100
AcDbCircle
 10
246.6241813024
 20
46.8847787335
 30
0.0
 40
24.65148902138255
100
AcDbArc
 50
316.8303200318
 51
345.7881866864
  0
SPLINE
  5
157
330
1F
100
AcDbEntity
  8
0
  6
Continuous
 62
     7
370
    25
100
AcDbSpline
210
0.0
220
0.0
230
1.0
 70
     8
 71
     3
 72
    10
 73
     6
 74
     0
 42
0.000000001
 43
0.00000001
 40
0.0
 40
0.0
 40
0.0
 40
0.0
 40
0.5
 40
0.5
 40
1.0
 40
1.0
 40
1.0
 40
1.0
 10
257.0388575695962
 20
25.43144182719027
 30
0.0
 10
257.0388575695962
 20
25.42408864170726
 30
0.0
 10
257.0392370169127
 20
25.41653798799754
 30
0.0
 10
257.0407603167022
 20
25.40103887639244
 30
0.0
 10
257.0419138519526
 20
25.39304180316922
 30
0.0
 10
257.0434479160612
 20
25.38495334929963
 30
0.0
  0
LINE
  5
158
330
1F
100
AcDbEntity
  8
0
  6
Continuous
 62
     7
370
    25
100
AcDbLine
 10
264.1099253814
 20
29.5134823863
 30
0.0
 11
264.1099253815
 21
39.016822243
 31
0.0
  0
LWPOLYLINE
  5
159
330
1F
100
AcDbEntity
  8
0
  6
Continuous
 62
     7
370
    25
100
AcDbPolyline
 90
       31
 70
   128
 43
0.0
 10
264.1099253815
 20
39.016822243
 10
264.2939676842
 20
39.6825645494
 10
264.411949389
 20
40.333462262
 10
264.4617751113
 20
40.9579552756
 10
264.4425599339
 20
41.5449524391
 10
264.3546451233
 20
42.084028537
 10
264.1995920683
 20
42.5656094438
 10
263.9801545496
 20
42.9811421628
 10
263.7002298321
 20
43.3232467298
 10
263.3647894485
 20
43.5858472824
 10
262.9797909033
 20
43.7642799697
 10
262.5520718664
 20
43.8553757828
 10
262.0892287341
 20
43.8575168374
 10
261.5994817156
 20
43.7706651079
 10
261.0915288396
 20
43.5963631024
 10
260.5743914755
 20
43.3377064681
 10
260.0572541114
 20
42.9992890109
 10
259.5493012354
 20
42.5871211091
 10
259.0595542169
 20
42.1085229671
 10
258.5967110847
 20
41.5719946067
 10
258.1689920477
 20
40.9870649051
 10
257.7839935025
 20
40.3641223591
 10
257.4485531189
 20
39.7142305833
 10
257.1686284015
 20
39.048931817
 10
256.9491908828
 20
38.3800419317
 10
256.7941378277
 20
37.7194405782
 10
256.7062230171
 20
37.0788602005
 10
256.6870078398
 20
36.4696776655
 10
256.7368335621
 20
35.9027122063
 10
256.8548152668
 20
35.3880332705
 10
257.0388575696
 20
34.9347816839
  0
LINE
  5
15A
330
1F
100
AcDbEntity
  8
0
  6
Continuous
 62
     7
370
    25
100
AcDbLine
 10
257.0388575696
 20
34.9347816839
 30
0.0
 11
257.0388575696
 21
25.4314418272
 31
0.0
  0
LWPOLYLINE
  5
15B
330
1F
100
AcDbEntity
  8
0
  6
Continuous
 62
     7
370
    25
100
AcDbPolyline
 90
       21
 70
   128
 43
0.0
 10
241.1101758259
 20
31.0465994943
 10
240.5630628346
 20
31.5992661711
 10
240.0772136357
 20
32.2345934275
 10
239.6556784557
 20
32.9485925937
 10
239.3011037488
 20
33.7367810872
 10
239.0157155828
 20
34.5942105549
 10
238.8013056627
 20
35.5154979397
 10
238.6592200828
 20
36.4948592759
 10
238.5903508754
 20
37.5261460015
 10
238.5951304106
 20
38.6028835603
 10
238.6735286819
 20
39.7183120495
 10
238.8250534944
 20
40.8654286595
 10
239.048753555
 20
42.0370316382
 10
239.3432244448
 20
43.2257655052
 10
239.7066174359
 20
44.4241672298
 10
240.1366510985
 20
45.6247130852
 10
240.6306256236
 20
46.8198658836
 10
241.1854397728
 20
48.0021222955
 10
241.7976103486
 20
49.1640599565
 10
242.4632940619
 20
50.2983840662
 10
243.1783116612
 20
51.3979731857
  0
SPLINE
  5
15C
330
1F
100
AcDbEntity
  8
0
  6
Continuous
 62
     7
370
    25
100
AcDbSpline
210
0.0
220
0.0
230
1.0
 70
     8
 71
     3
 72
    12
 73
     8
 74
     0
 42
0.000000001
 43
0.00000001
 40
0.0
 40
0.0
 40
0.0
 40
0.0
 40
0.5000000000000002
 40
0.5000000000000002
 40
0.7500000000000003
 40
0.7500000000000003
 40
1.0
 40
1.0
 40
1.0
 40
1.0
 10
243.1783116612005
 20
51.39797318568906
 30
0.0
 10
244.060734690824
 20
51.56398142124408
 30
0.0
 10
244.953800731995
 20
51.79033872620238
 30
0.0
 10
246.323918730452
 20
52.21514128415708
 30
0.0
 10
246.7848378893605
 20
52.37086288014211
 30
0.0
 10
247.6973866691305
 20
52.70123318646857
 30
0.0
 10
248.1516293228997
 20
52.87665780426106
 30
0.0
 10
248.6046157718376
 20
53.06079603386787
 30
0.0
  0
ELLIPSE
  5
15D
330
1F
100
AcDbEntity
  8
0
  6
Continuous
 62
     7
370
    25
100
AcDbEllipse
 10
-941.1917220997
 20
732.6115421705
 30
0.0
 11
1198.45697105874
 21
-682.5745369339359
 31
0.0
210
0.0
220
0.0
230
1.0
 40
0.0105314273
 41
6.168741593944079
 42
6.221455888571682
  0
LWPOLYLINE
  5
15E
330
1F
100
AcDbEntity
  8
0
  6
Continuous
 62
     7
370
    25
100
AcDbPolyline
 90
       13
 70
   128
 43
0.0
 10
249.3476500543
 20
61.5987316928
 10
249.3511366826
 20
61.5935421926
 10
249.5537191706
 20
61.3484213802
 10
249.7778497651
 20
61.1757629642
 10
249.998935224
 20
61.0945122839
 10
250.1927164398
 20
61.1135847561
 10
250.3379303257
 20
61.2308876102
 10
250.4186429558
 20
61.4335495222
 10
250.4259979523
 20
61.6993329506
 10
250.3591882713
 20
61.9990742008
 10
250.225544758
 20
62.2998834788
 10
250.0397317523
 20
62.5687537987
 10
250.0397317523
 20
62.5687537987
  0
LINE
  5
15F
330
1F
100
AcDbEntity
  8
0
  6
Continuous
 62
     7
370
    25
100
AcDbLine
 10
250.0397317523
 20
62.5687537987
 30
0.0
 11
249.4722076198
 21
66.7736305654
 31
0.0
  0
LINE
  5
160
330
1F
100
AcDbEntity
  8
0
  6
Continuous
 62
     7
370
    25
100
AcDbLine
 10
249.4722076198
 20
66.7736305654
 30
0.0
 11
253.3129380114
 21
64.3959677334
 31
0.0
  0
LINE
  5
161
330
1F
100
AcDbEntity
  8
0
  6
Continuous
 62
     7
370
    25
100
AcDbLine
 10
253.3129380114
 20
64.3959677334
 30
0.0
 11
257.4417684415
 21
56.8594755821
 31
0.0
  0
LINE
  5
162
330
1F
100
AcDbEntity
  8
0
  6
Continuous
 62
     7
370
    25
100
AcDbLine
 10
257.4417684415
 20
56.8594755821
 30
0.0
 11
257.4417684415
 21
54.9566372347
 31
0.0
  0
LINE
  5
163
330
1F
100
AcDbEntity
  8
0
  6
Continuous
 62
     7
370
    25
100
AcDbLine
 10
247.1527776916
 20
56.3729300399
 30
0.0
 11
246.3074468707
 21
61.0671307527
 31
0.0
  0
LINE
  5
164
330
1F
100
AcDbEntity
  8
0
  6
Continuous
 62
     7
370
    25
100
AcDbLine
 10
246.3074468707
 20
61.0671307527
 30
0.0
 11
245.9519753374
 21
63.7008760091
 31
0.0
  0
LINE
  5
165
330
1F
100
AcDbEntity
  8
0
  6
Continuous
 62
     7
370
    25
100
AcDbLine
 10
257.4417684415
 20
56.8594755821
 30
0.0
 11
266.0623894956
 21
60.9645317723
 31
0.0
  0
LINE
  5
166
330
1F
100
AcDbEntity
  8
0
  6
Continuous
 62
     7
370
    25
100
AcDbLine
 10
257.6818912521
 20
66.148980323
 30
0.0
 11
253.3129380114
 21
64.3959677334
 31
0.0
  0
LINE
  5
167
330
1F
100
AcDbEntity
  8
0
  6
Continuous
 62
     7
370
    25
100
AcDbLine
 10
262.2570283446
 20
65.6671554856
 30
0.0
 11
257.6818912521
 21
66.148980323
 31
0.0
  0
LINE
  5
168
330
1F
100
AcDbEntity
  8
0
  6
Continuous
 62
     7
370
    25
100
AcDbLine
 10
262.2570283446
 20
65.6671554856
 30
0.0
 11
266.0623894956
 21
60.9645317723
 31
0.0
  0
ELLIPSE
  5
169
330
1F
100
AcDbEntity
  8
0
  6
Continuous
 62
     7
370
    25
100
AcDbEllipse
 10
299.9857438792
 20
114.2270574579
 30
0.0
 11
76.60444794283194
 21
63.85741966061555
 31
0.0
210
0.0
220
0.0
230
1.0
 40
0.2295839768
 41
3.80410238389371
 42
3.897384385397271
  0
SPLINE
  5
16A
330
1F
100
AcDbEntity
  8
0
  6
Continuous
 62
     7
370
    25
100
AcDbSpline
210
0.0
220
0.0
230
1.0
 70
     8
 71
     3
 72
     8
 73
     4
 74
     0
 42
0.000000001
 43
0.00000001
 40
0.0
 40
0.0
 40
0.0
 40
0.0
 40
1.0
 40
1.0
 40
1.0
 40
1.0
 10
254.2937055443438
 20
55.69376314891901
 30
0.0
 10
254.3373199793833
 20
55.71515240097483
 30
0.0
 10
254.3773660314293
 20
55.74219514363153
 30
0.0
 10
254.4087737783727
 20
55.77428726096552
 30
0.0
  0
SPLINE
  5
16B
330
1F
100
AcDbEntity
  8
0
  6
Continuous
 62
     7
370
    25
100
AcDbSpline
210
0.0
220
0.0
230
1.0
 70
     8
 71
     3
 72
     8
 73
     4
 74
     0
 42
0.000000001
 43
0.00000001
 40
0.0
 40
0.0
 40
0.0
 40
0.0
 40
1.0
 40
1.0
 40
1.0
 40
1.0
 10
243.1783116611999
 20
51.39797318568906
 30
0.0
 10
243.1787954022579
 20
51.43249986643855
 30
0.0
 10
243.1798874923279
 20
51.46761775997321
 30
0.0
 10
243.1816013404585
 20
51.50331491626588
 30
0.0
  0
SPLINE
  5
16C
330
1F
100
AcDbEntity
  8
0
  6
Continuous
 62
     7
370
    25
100
AcDbSpline
210
0.0
220
0.0
230
1.0
 70
     8
 71
     3
 72
    10
 73
     6
 74
     0
 42
0.000000001
 43
0.00000001
 40
0.0
 40
0.0
 40
0.0
 40
0.0
 40
0.5
 40
0.5
 40
1.0
 40
1.0
 40
1.0
 40
1.0
 10
243.1816013404585
 20
51.50331491626588
 30
0.0
 10
243.1963170689191
 20
51.8098237891524
 30
0.0
 10
243.201299233102
 20
52.14470912683061
 30
0.0
 10
243.2225463434652
 20
52.87666822027344
 30
0.0
 10
243.2369853505033
 20
53.27309361414753
 30
0.0
 10
243.2567325775987
 20
53.69875338392413
 30
0.0
  0
ELLIPSE
  5
16D
330
1F
100
AcDbEntity
  8
0
  6
Continuous
 62
     7
370
    25
100
AcDbEllipse
 10
407.708987712
 20
172.2176575093
 30
0.0
 11
607.7442550233246
 21
351.2710690111695
 31
0.0
210
0.0
220
0.0
230
1.0
 40
0.0302179159
 41
4.420957396470302
 42
4.427095774263615
  0
LINE
  5
16E
330
1F
100
AcDbEntity
  8
0
  6
Continuous
 62
     7
370
    25
100
AcDbLine
 10
257.6818912521
 20
66.148980323
 30
0.0
 11
250.3293231237
 21
70.332064036
 31
0.0
  0
LINE
  5
16F
330
1F
100
AcDbEntity
  8
0
  6
Continuous
 62
     7
370
    25
100
AcDbLine
 10
249.4722076198
 20
66.7736305654
 30
0.0
 11
249.921747764
 21
67.0027561894
 31
0.0
  0
LINE
  5
170
330
1F
100
AcDbEntity
  8
0
  6
Continuous
 62
     7
370
    25
100
AcDbLine
 10
249.921747764
 20
67.0027561894
 30
0.0
 11
249.9198981659
 21
67.0039012114
 31
0.0
  0
LINE
  5
171
330
1F
100
AcDbEntity
  8
0
  6
Continuous
 62
     7
370
    25
100
AcDbLine
 10
249.9198981659
 20
67.0039012114
 30
0.0
 11
251.0390768512
 21
67.4303660731
 31
0.0
  0
LINE
  5
172
330
1F
100
AcDbEntity
  8
0
  6
Continuous
 62
     7
370
    25
100
AcDbLine
 10
250.9133804351
 20
67.5081803601
 30
0.0
 11
251.0390768512
 21
67.4303660731
 31
0.0
  0
LINE
  5
173
330
1F
100
AcDbEntity
  8
0
  6
Continuous
 62
     7
370
    25
100
AcDbLine
 10
247.4350206973
 20
69.7437793911
 30
0.0
 11
250.3293231237
 21
70.332064036
 31
0.0
  0
LINE
  5
174
330
1F
100
AcDbEntity
  8
0
  6
Continuous
 62
     7
370
    25
100
AcDbLine
 10
267.6981176416
 20
55.3215154062
 30
0.0
 11
266.0623894956
 21
60.9645317723
 31
0.0
  0
ARC
  5
175
330
1F
100
AcDbEntity
  8
0
  6
Continuous
 62
     7
370
    25
100
AcDbCircle
 10
256.6342162468
 20
40.941755563
 30
0.0
 40
18.0652626149663
100
AcDbArc
 50
144.1836550615
 51
177.710814139
  0
SPLINE
  5
176
330
1F
100
AcDbEntity
  8
0
  6
Continuous
 62
     7
370
    25
100
AcDbSpline
210
0.0
220
0.0
230
1.0
 70
     8
 71
     3
 72
    10
 73
     6
 74
     0
 42
0.000000001
 43
0.00000001
 40
0.0
 40
0.0
 40
0.0
 40
0.0
 40
0.5
 40
0.5
 40
1.0
 40
1.0
 40
1.0
 40
1.0
 10
254.4087737783727
 20
55.77428726096551
 30
0.0
 10
254.4792166042882
 20
55.84626502615484
 30
0.0
 10
254.531073130961
 20
55.94689396251553
 30
0.0
 10
254.5821426569024
 20
56.16436371133236
 30
0.0
 10
254.5810255458653
 20
56.27932337945995
 30
0.0
 10
254.5556320317099
 20
56.38011071601555
 30
0.0
  0
SPLINE
  5
177
330
1F
100
AcDbEntity
  8
0
  6
Continuous
 62
     7
370
    25
100
AcDbSpline
210
0.0
220
0.0
230
1.0
 70
     8
 71
     3
 72
     8
 73
     4
 74
     0
 42
0.000000001
 43
0.00000001
 40
0.0000003052629808
 40
0.0000003052629808
 40
0.0000003052629808
 40
0.0000003052629808
 40
0.001333347252627
 40
0.001333347252627
 40
0.001333347252627
 40
0.001333347252627
 10
254.5219572308777
 20
70.13251699165873
 30
0.0
 10
254.0972178339867
 20
70.24609772686324
 30
0.0
 10
253.6724703741167
 20
70.35972338821364
 30
0.0
 10
253.2477154637593
 20
70.47339117400871
 30
0.0
  0
LINE
  5
178
330
1F
100
AcDbEntity
  8
0
  6
Continuous
 62
     7
370
    25
100
AcDbLine
 10
250.3293231237
 20
70.332064036
 30
0.0
 11
253.2477154638
 21
70.473391174
 31
0.0
  0
LINE
  5
179
330
1F
100
AcDbEntity
  8
0
  6
Continuous
 62
     7
370
    25
100
AcDbLine
 10
254.5219572309
 20
70.1325169917
 30
0.0
 11
262.2570283446
 21
65.6671554856
 31
0.0
  0
LINE
  5
17A
330
1F
100
AcDbEntity
  8
0
  6
Continuous
 62
     7
370
    25
100
AcDbLine
 10
264.1099253815
 20
39.016822243
 30
0.0
 11
263.0492652097
 21
39.6291283269
 31
0.0
  0
LWPOLYLINE
  5
17B
330
1F
100
AcDbEntity
  8
0
  6
Continuous
 62
     7
370
    25
100
AcDbPolyline
 90
       15
 70
   128
 43
0.0
 10
257.0388575696
 20
34.5660346197
 10
257.3046137405
 20
34.4876338763
 10
257.7528909058
 20
34.4382382114
 10
258.2328546001
 20
34.4791924278
 10
258.7358678206
 20
34.6097595497
 10
259.2528787855
 20
34.8275900064
 10
259.774583822
 20
35.1287639133
 10
260.2915947869
 20
35.5078616107
 10
260.7946080074
 20
35.9580611913
 10
261.2745717017
 20
36.4712612608
 10
261.722848867
 20
37.0382267239
 10
262.1313727032
 20
37.6487549708
 10
262.492791776
 20
38.2918594743
 10
262.8006023071
 20
38.9559674935
 10
263.0492652097
 20
39.6291283269
  0
LWPOLYLINE
  5
17C
330
1F
100
AcDbEntity
  8
0
  6
Continuous
 62
     7
370
    25
100
AcDbPolyline
 90
        3
 70
   128
 43
0.0
 10
261.6350516473
 20
42.7246705339
 10
261.6003512198
 20
43.3032267166
 10
261.5185504215
 20
43.7484037689
  0
ARC
  5
17D
330
1F
100
AcDbEntity
  8
0
  6
Continuous
 62
     7
370
    25
100
AcDbCircle
 10
253.7122949049
 20
42.8749710543
 30
0.0
 40
7.924182269806649
100
AcDbArc
 50
292.9472708995
 51
358.9131873018
  0
LINE
  5
17E
330
1F
100
AcDbEntity
  8
0
  6
Continuous
 62
     7
370
    25
100
AcDbLine
 10
249.9198981659
 20
67.0039012114
 30
0.0
 11
249.9201618079
 21
67.0019478452
 31
0.0
  0
SPLINE
  5
17F
330
1F
100
AcDbEntity
  8
0
  6
Continuous
 62
     7
370
    25
100
AcDbSpline
210
0.0
220
0.0
230
1.0
 70
     8
 71
     3
 72
     8
 73
     4
 74
     0
 42
0.000000001
 43
0.00000001
 40
0.0
 40
0.0
 40
0.0
 40
0.0
 40
1.0
 40
1.0
 40
1.0
 40
1.0
 10
246.8517885203753
 20
55.73389725049811
 30
0.0
 10
246.9335690497644
 20
55.78020370101875
 30
0.0
 10
247.0127784567597
 20
55.8591798303792
 30
0.0
 10
247.0754897000616
 20
55.9559553423934
 30
0.0
  0
SPLINE
  5
180
330
1F
100
AcDbEntity
  8
0
  6
Continuous
 62
     7
370
    25
100
AcDbSpline
210
0.0
220
0.0
230
1.0
 70
     8
 71
     3
 72
     8
 73
     4
 74
     0
 42
0.000000001
 43
0.00000001
 40
0.0
 40
0.0
 40
0.0
 40
0.0
 40
1.0
 40
1.0
 40
1.0
 40
1.0
 10
247.0754897000616
 20
55.95595534239341
 30
0.0
 10
247.1046484798941
 20
56.00095294887396
 30
0.0
 10
247.1271338452113
 20
56.04896971787547
 30
0.0
 10
247.1403762799899
 20
56.10113257229808
 30
0.0
  0
SPLINE
  5
181
330
1F
100
AcDbEntity
  8
0
  6
Continuous
 62
     7
370
    25
100
AcDbSpline
210
0.0
220
0.0
230
1.0
 70
     8
 71
     3
 72
     8
 73
     4
 74
     0
 42
0.000000001
 43
0.00000001
 40
0.0
 40
0.0
 40
0.0
 40
0.0
 40
1.0
 40
1.0
 40
1.0
 40
1.0
 10
247.1403762799899
 20
56.10113257229808
 30
0.0
 10
247.1638347984057
 20
56.19353727744078
 30
0.0
 10
247.168123062206
 20
56.2877157687391
 30
0.0
 10
247.152777691576
 20
56.37293003985592
 30
0.0
  0
ARC
  5
182
330
1F
100
AcDbEntity
  8
0
  6
Continuous
 62
     7
370
    25
100
AcDbCircle
 10
228.4457204679
 20
60.8539326403
 30
0.0
 40
16.4487893142781
100
AcDbArc
 50
325.3989779432
 51
334.2148767027
  0
ARC
  5
183
330
1F
100
AcDbEntity
  8
0
  6
Continuous
 62
     7
370
    25
100
AcDbCircle
 10
243.3444531129
 20
33.5670282846
 30
0.0
 40
3.368168090011585
100
AcDbArc
 50
228.4440660868
 51
239.9824983464
  0
LINE
  5
184
330
1F
100
AcDbEntity
  8
0
  6
Continuous
 62
     7
370
    25
100
AcDbLine
 10
263.0492652097
 20
29.4208866231
 30
0.0
 11
263.0492652097
 21
39.6291283269
 31
0.0
  0
ARC
  5
185
330
1F
100
AcDbEntity
  8
0
  6
Continuous
 62
     7
370
    25
100
AcDbCircle
 10
249.1899134461
 20
45.075586139
 30
0.0
 40
20.90816223968159
100
AcDbArc
 50
292.0490966191
 51
311.5189715897
  0
LINE
  5
186
330
1F
100
AcDbEntity
  8
0
  6
Continuous
 62
     7
370
    25
100
AcDbLine
 10
264.0238459232
 20
28.8582731527
 30
0.0
 11
263.0492652097
 21
29.4208866231
 31
0.0
  0
LINE
  5
187
330
1F
100
AcDbEntity
  8
0
  6
Continuous
 62
     7
370
    18
100
AcDbLine
 10
248.2184013327
 20
64.5254547792
 30
0.0
 11
248.0541408939
 21
64.4370285392
 31
0.0
  0
LINE
  5
188
330
1F
100
AcDbEntity
  8
0
  6
Continuous
 62
     7
370
    18
100
AcDbLine
 10
248.1085723483
 20
64.9305075905
 30
0.0
 11
247.4704527459
 21
64.5869889837
 31
0.0
  0
SPLINE
  5
189
330
1F
100
AcDbEntity
  8
0
  6
Continuous
 62
     7
370
    18
100
AcDbSpline
210
0.0
220
0.0
230
1.0
 70
     8
 71
     3
 72
    11
 73
     7
 74
     0
 42
0.000000001
 43
0.00000001
 40
0.0
 40
0.0
 40
0.0
 40
0.0
 40
0.2396813672081368
 40
0.4856904147690514
 40
0.7406032906406703
 40
1.0
 40
1.0
 40
1.0
 40
1.0
 10
249.824975966374
 20
63.04557853548623
 30
0.0
 10
249.8393790197314
 20
62.93142677179926
 30
0.0
 10
249.8685653725988
 20
62.70010959392452
 30
0.0
 10
249.8934359909469
 20
62.39417688558606
 30
0.0
 10
249.9056443335394
 20
62.11853639944668
 30
0.0
 10
249.9027233268528
 20
61.96785427903889
 30
0.0
 10
249.901250090607
 20
61.89185638338328
 30
0.0
  0
LINE
  5
18A
330
1F
100
AcDbEntity
  8
0
  6
Continuous
 62
     7
370
    18
100
AcDbLine
 10
249.4942755093
 20
65.495790939
 30
0.0
 11
249.8249759664
 21
63.0455785355
 31
0.0
  0
SPLINE
  5
18B
330
1F
100
AcDbEntity
  8
0
  6
Continuous
 62
     7
370
    18
100
AcDbSpline
210
0.0
220
0.0
230
1.0
 70
     8
 71
     3
 72
    10
 73
     6
 74
     0
 42
0.000000001
 43
0.00000001
 40
0.0
 40
0.0
 40
0.0
 40
0.0
 40
0.3357690842053336
 40
0.6637814394947067
 40
1.0
 40
1.0
 40
1.0
 40
1.0
 10
249.2936963312275
 20
66.65010332428132
 30
0.0
 10
249.320340338798
 20
66.51667608975964
 30
0.0
 10
249.3730128406187
 20
66.25290397384786
 30
0.0
 10
249.4417119232272
 20
65.86130732794601
 30
0.0
 10
249.4766105959887
 20
65.61862912025568
 30
0.0
 10
249.4942755092596
 20
65.4957909389614
 30
0.0
  0
LINE
  5
18C
330
1F
100
AcDbEntity
  8
0
  6
Continuous
 62
     7
370
    18
100
AcDbLine
 10
249.2936963312
 20
66.6501033243
 30
0.0
 11
249.36762323
 21
66.5015011535
 31
0.0
  0
LINE
  5
18D
330
1F
100
AcDbEntity
  8
0
  6
Continuous
 62
     7
370
    18
100
AcDbLine
 10
250.9119743234
 20
67.5185984657
 30
0.0
 11
250.4195594509
 21
67.1942979582
 31
0.0
  0
LINE
  5
18E
330
1F
100
AcDbEntity
  8
0
  6
Continuous
 62
     7
370
    18
100
AcDbLine
 10
249.4974006328
 20
66.5869715158
 30
0.0
 11
249.36762323
 21
66.5015011535
 31
0.0
  0
LINE
  5
18F
330
1F
100
AcDbEntity
  8
0
  6
Continuous
 62
     7
370
    18
100
AcDbLine
 10
250.4105047847
 20
61.8038071975
 30
0.0
 11
250.0350368797
 21
61.55652703
 31
0.0
  0
SPLINE
  5
190
330
1F
100
AcDbEntity
  8
0
  6
Continuous
 62
     7
370
    18
100
AcDbSpline
210
0.0
220
0.0
230
1.0
 70
     8
 71
     3
 72
     9
 73
     5
 74
     0
 42
0.000000001
 43
0.00000001
 40
0.0
 40
0.0
 40
0.0
 40
0.0
 40
0.763083289691884
 40
1.0
 40
1.0
 40
1.0
 40
1.0
 10
249.0241294184878
 20
65.68758848309108
 30
0.0
 10
249.0020673609925
 20
65.87719624033663
 30
0.0
 10
248.973155631705
 20
66.12567207489738
 30
0.0
 10
248.945400486753
 20
66.39187719579292
 30
0.0
 10
248.9388248291168
 20
66.45494563730264
 30
0.0
  0
SPLINE
  5
191
330
1F
100
AcDbEntity
  8
0
  6
Continuous
 62
     7
370
    18
100
AcDbSpline
210
0.0
220
0.0
230
1.0
 70
     8
 71
     3
 72
    10
 73
     6
 74
     0
 42
0.000000001
 43
0.00000001
 40
0.0
 40
0.0
 40
0.0
 40
0.0
 40
0.2765306019330231
 40
0.5626682704062547
 40
1.0
 40
1.0
 40
1.0
 40
1.0
 10
249.0241294184878
 20
65.68758848309106
 30
0.0
 10
249.0860281026471
 20
65.68208043476706
 30
0.0
 10
249.2119759193185
 20
65.67087298068381
 30
0.0
 10
249.3960061582414
 20
65.61119717115076
 30
0.0
 10
249.4572525393273
 20
65.5392702274688
 30
0.0
 10
249.4942755092596
 20
65.4957909389614
 30
0.0
  0
LINE
  5
192
330
1F
100
AcDbEntity
  8
0
  6
Continuous
 62
     7
370
    18
100
AcDbLine
 10
249.2241354411
 20
66.7630493275
 30
0.0
 11
249.0989683209
 21
66.9377160748
 31
0.0
  0
LINE
  5
193
330
1F
100
AcDbEntity
  8
0
  6
Continuous
 62
     7
370
    18
100
AcDbLine
 10
250.8395901308
 20
67.6361286644
 30
0.0
 11
249.0989683209
 21
66.9377160748
 31
0.0
  0
SPLINE
  5
194
330
1F
100
AcDbEntity
  8
0
  6
Continuous
 62
     7
370
    18
100
AcDbSpline
210
0.0
220
0.0
230
1.0
 70
     8
 71
     3
 72
    10
 73
     6
 74
     0
 42
0.000000001
 43
0.00000001
 40
0.0
 40
0.0
 40
0.0
 40
0.0
 40
0.3277890466739259
 40
0.6642318503530502
 40
1.0
 40
1.0
 40
1.0
 40
1.0
 10
248.3189102823301
 20
67.40423122008559
 30
0.0
 10
248.4121220444369
 20
67.34466003350329
 30
0.0
 10
248.6010063950494
 20
67.22394495808267
 30
0.0
 10
248.9081606891445
 20
67.00542136452198
 30
0.0
 10
249.1188810191917
 20
66.84378593218533
 30
0.0
 10
249.22413544113
 20
66.76304932745651
 30
0.0
  0
SPLINE
  5
195
330
1F
100
AcDbEntity
  8
0
  6
Continuous
 62
     7
370
    18
100
AcDbSpline
210
0.0
220
0.0
230
1.0
 70
     8
 71
     3
 72
     9
 73
     5
 74
     0
 42
0.000000001
 43
0.00000001
 40
0.0
 40
0.0
 40
0.0
 40
0.0
 40
0.2369167103081191
 40
1.0
 40
1.0
 40
1.0
 40
1.0
 10
248.9388248291168
 20
66.45494563730264
 30
0.0
 10
248.8867599517872
 20
66.48709182055059
 30
0.0
 10
248.6669996940077
 20
66.62277740898433
 30
0.0
 10
248.4695674945689
 20
66.74181616569443
 30
0.0
 10
248.3189102823301
 20
66.83265265176559
 30
0.0
  0
SPLINE
  5
196
330
1F
100
AcDbEntity
  8
0
  6
Continuous
 62
     7
370
    18
100
AcDbSpline
210
0.0
220
0.0
230
1.0
 70
     8
 71
     3
 72
    10
 73
     6
 74
     0
 42
0.000000001
 43
0.00000001
 40
0.0
 40
0.0
 40
0.0
 40
0.0
 40
0.2765306019330337
 40
0.5626682704062671
 40
1.0
 40
1.0
 40
1.0
 40
1.0
 10
248.3189102823301
 20
67.40423122008559
 30
0.0
 10
248.3397747796676
 20
67.36557601643293
 30
0.0
 10
248.3822286366647
 20
67.28692267235665
 30
0.0
 10
248.3985027317142
 20
67.09173451594889
 30
0.0
 10
248.3488967311044
 20
66.93026172283703
 30
0.0
 10
248.3189102823301
 20
66.83265265176559
 30
0.0
  0
LINE
  5
197
330
1F
100
AcDbEntity
  8
0
  6
Continuous
 62
     7
370
    18
100
AcDbLine
 10
246.4144822511
 20
68.5831964908
 30
0.0
 11
248.3189102823
 21
67.4042312201
 31
0.0
  0
SPLINE
  5
198
330
1F
100
AcDbEntity
  8
0
  6
Continuous
 62
     7
370
    18
100
AcDbSpline
210
0.0
220
0.0
230
1.0
 70
     8
 71
     3
 72
    11
 73
     7
 74
     0
 42
0.000000001
 43
0.00000001
 40
0.0
 40
0.0
 40
0.0
 40
0.0
 40
0.255178120274314
 40
0.5143095951803739
 40
0.7541545795646496
 40
1.0
 40
1.0
 40
1.0
 40
1.0
 10
245.5320058425043
 20
68.98619738488841
 30
0.0
 10
245.5879986476959
 20
68.9723652090532
 30
0.0
 10
245.7008517282819
 20
68.94448656198652
 30
0.0
 10
245.9086481327764
 20
68.86070170271036
 30
0.0
 10
246.144380006578
 20
68.74475228980609
 30
0.0
 10
246.3237096634096
 20
68.63749014526152
 30
0.0
 10
246.4144822511379
 20
68.58319649078393
 30
0.0
  0
LINE
  5
199
330
1F
100
AcDbEntity
  8
0
  6
Continuous
 62
     7
370
    18
100
AcDbLine
 10
246.9961081042
 20
70.015494938
 30
0.0
 11
245.2554862943
 21
69.3170823484
 31
0.0
  0
LINE
  5
19A
330
1F
100
AcDbEntity
  8
0
  6
Continuous
 62
     7
370
    18
100
AcDbLine
 10
249.3548298756
 20
63.2373760796
 30
0.0
 11
249.0241294185
 21
65.6875884831
 31
0.0
  0
ARC
  5
19B
330
1F
100
AcDbEntity
  8
0
  6
Continuous
 62
     7
370
    18
100
AcDbCircle
 10
249.4056351537
 20
62.689788675
 30
0.0
 40
0.5499392166078426
100
AcDbArc
 50
40.312950992
 51
95.300739717
  0
LINE
  5
19C
330
1F
100
AcDbEntity
  8
0
  6
Continuous
 62
     7
370
    18
100
AcDbLine
 10
248.3189102823
 20
66.8326526518
 30
0.0
 11
248.2977979195
 21
66.7804602034
 31
0.0
  0
LINE
  5
19D
330
1F
100
AcDbEntity
  8
0
  6
Continuous
 62
     7
370
    18
100
AcDbLine
 10
249.0241294185
 20
65.6875884831
 30
0.0
 11
248.969435192
 21
65.6899228999
 31
0.0
  0
LINE
  5
19E
330
1F
100
AcDbEntity
  8
0
  6
Continuous
 62
     7
370
    18
100
AcDbLine
 10
249.3548298756
 20
63.2373760796
 30
0.0
 11
249.3001356492
 21
63.2397104965
 31
0.0
  0
LINE
  5
19F
330
1F
100
AcDbEntity
  8
0
  6
Continuous
 62
     7
370
    18
100
AcDbLine
 10
248.3189102823
 20
66.8326526518
 30
0.0
 11
246.4144822511
 21
68.0116179225
 31
0.0
  0
ARC
  5
1A0
330
1F
100
AcDbEntity
  8
0
  6
Continuous
 62
     7
370
    18
100
AcDbCircle
 10
245.8630559766
 20
68.2974072066
 30
0.0
 40
0.6210848985565004
100
AcDbArc
 50
332.6035174885
 51
27.3964825115
  0
ARC
  5
1A1
330
1F
100
AcDbEntity
  8
0
  6
Continuous
 62
     7
370
    18
100
AcDbCircle
 10
247.8295987977
 20
66.5336885669
 30
0.0
 40
1.077061084072311
100
AcDbArc
 50
148.4150698496
 51
175.7531751085
  0
LINE
  5
1A2
330
1F
100
AcDbEntity
  8
0
  6
Continuous
 62
     7
370
    18
100
AcDbLine
 10
246.4144822511
 20
68.0116179225
 30
0.0
 11
246.3933698883
 21
67.9594254741
 31
0.0
  0
LWPOLYLINE
  5
1A3
330
1F
100
AcDbEntity
  8
0
  6
Continuous
 62
     7
370
    18
100
AcDbPolyline
 90
        3
 70
   128
 43
0.0
 10
247.0469770586
 20
67.0859306855
 10
246.9529693696
 20
66.8693910784
 10
246.9295814919
 20
66.7761008979
  0
SPLINE
  5
1A4
330
1F
100
AcDbEntity
  8
0
  6
Continuous
 62
     7
370
    18
100
AcDbSpline
210
0.0
220
0.0
230
1.0
 70
     8
 71
     3
 72
     9
 73
     5
 74
     0
 42
0.000000001
 43
0.00000001
 40
0.0
 40
0.0
 40
0.0
 40
0.0
 40
0.4242757353264069
 40
1.0
 40
1.0
 40
1.0
 40
1.0
 10
249.4857558283676
 20
62.44533210030563
 30
0.0
 10
249.4690677643955
 20
62.53981957766089
 30
0.0
 10
249.4297347019961
 20
62.76252257358534
 30
0.0
 10
249.3821979418704
 20
63.06387828452816
 30
0.0
 10
249.3548298756022
 20
63.23737607961589
 30
0.0
  0
LINE
  5
1A5
330
1F
100
AcDbEntity
  8
0
  6
Continuous
 62
     7
370
    18
100
AcDbLine
 10
248.6496107394
 20
62.6677045433
 30
0.0
 11
248.6284983767
 21
62.697166176
 31
0.0
  0
SPLINE
  5
1A6
330
1F
100
AcDbEntity
  8
0
  6
Continuous
 62
     7
370
    18
100
AcDbSpline
210
0.0
220
0.0
230
1.0
 70
     8
 71
     3
 72
     9
 73
     5
 74
     0
 42
0.000000001
 43
0.00000001
 40
0.0
 40
0.0
 40
0.0
 40
0.0
 40
0.5757242646735885
 40
1.0
 40
1.0
 40
1.0
 40
1.0
 10
248.6496107394445
 20
62.66770454333034
 30
0.0
 10
248.8008891988827
 20
62.59430077635343
 30
0.0
 10
249.0636511992371
 20
62.4668026466393
 30
0.0
 10
249.3600156030257
 20
62.45172793476917
 30
0.0
 10
249.4857558283676
 20
62.44533210030563
 30
0.0
  0
SPLINE
  5
1A7
330
1F
100
AcDbEntity
  8
0
  6
Continuous
 62
     7
370
    18
100
AcDbSpline
210
0.0
220
0.0
230
1.0
 70
     8
 71
     3
 72
     9
 73
     5
 74
     0
 42
0.000000001
 43
0.00000001
 40
0.0
 40
0.0
 40
0.0
 40
0.0
 40
0.5757242646735922
 40
1.0
 40
1.0
 40
1.0
 40
1.0
 10
246.4144822511379
 20
68.01161792246391
 30
0.0
 10
246.2831696476715
 20
68.09576989871445
 30
0.0
 10
246.0550871930597
 20
68.24193705096788
 30
0.0
 10
245.900855090799
 20
68.3335257737332
 30
0.0
 10
245.8354181522014
 20
68.37238464643205
 30
0.0
  0
SPLINE
  5
1A8
330
1F
100
AcDbEntity
  8
0
  6
Continuous
 62
     7
370
    18
100
AcDbSpline
210
0.0
220
0.0
230
1.0
 70
     8
 71
     3
 72
    11
 73
     7
 74
     0
 42
0.000000001
 43
0.00000001
 40
0.0
 40
0.0
 40
0.0
 40
0.0
 40
0.2551781202742497
 40
0.5143095951803796
 40
0.7541545795646535
 40
1.0
 40
1.0
 40
1.0
 40
1.0
 10
249.901250090607
 20
61.89185638338328
 30
0.0
 10
249.7915969429499
 20
61.87680161385906
 30
0.0
 10
249.5705918429781
 20
61.84645883834517
 30
0.0
 10
249.247250601026
 20
61.8680425029802
 30
0.0
 10
248.9342804761841
 20
61.94241228677769
 30
0.0
 10
248.7452789879401
 20
62.04446779914854
 30
0.0
 10
248.6496107394444
 20
62.09612597501034
 30
0.0
  0
SPLINE
  5
1A9
330
1F
100
AcDbEntity
  8
0
  6
Continuous
 62
     7
370
    18
100
AcDbSpline
210
0.0
220
0.0
230
1.0
 70
     8
 71
     3
 72
    10
 73
     6
 74
     0
 42
0.000000001
 43
0.00000001
 40
0.0
 40
0.0
 40
0.0
 40
0.0
 40
0.2765306019330337
 40
0.5626682704062671
 40
1.0
 40
1.0
 40
1.0
 40
1.0
 10
248.6496107394445
 20
62.66770454333034
 30
0.0
 10
248.6704752367819
 20
62.62904933967766
 30
0.0
 10
248.712929093779
 20
62.55039599560141
 30
0.0
 10
248.7292031888284
 20
62.35520783919362
 30
0.0
 10
248.6795971882187
 20
62.19373504608178
 30
0.0
 10
248.6496107394444
 20
62.09612597501033
 30
0.0
  0
LINE
  5
1AA
330
1F
100
AcDbEntity
  8
0
  6
Continuous
 62
     7
370
    18
100
AcDbLine
 10
246.0480670644
 20
64.0283046296
 30
0.0
 11
245.9228999441
 21
63.7188755755
 31
0.0
  0
SPLINE
  5
1AB
330
1F
100
AcDbEntity
  8
0
  6
Continuous
 62
     7
370
    18
100
AcDbSpline
210
0.0
220
0.0
230
1.0
 70
     8
 71
     3
 72
    10
 73
     6
 74
     0
 42
0.000000001
 43
0.00000001
 40
0.0
 40
0.0
 40
0.0
 40
0.0
 40
0.3277890466739303
 40
0.6642318503530468
 40
1.0
 40
1.0
 40
1.0
 40
1.0
 10
246.7451827082522
 20
63.27509124570867
 30
0.0
 10
246.6567803583422
 20
63.3372514807569
 30
0.0
 10
246.4776418024567
 20
63.46321300498543
 30
0.0
 10
246.2435810804861
 20
63.72108502472215
 30
0.0
 10
246.1131947830076
 20
63.92596663668963
 30
0.0
 10
246.0480670643547
 20
64.02830462955725
 30
0.0
  0
LINE
  5
1AC
330
1F
100
AcDbEntity
  8
0
  6
Continuous
 62
     7
370
    18
100
AcDbLine
 10
248.6496107394
 20
62.096125975
 30
0.0
 11
246.7451827083
 21
63.2750912457
 31
0.0
  0
LINE
  5
1AD
330
1F
100
AcDbEntity
  8
0
  6
Continuous
 62
     7
370
    18
100
AcDbLine
 10
245.709263115
 20
67.4419463862
 30
0.0
 11
245.7217326158
 21
67.4168811539
 31
0.0
  0
SPLINE
  5
1AE
330
1F
100
AcDbEntity
  8
0
  6
Continuous
 62
     7
370
    18
100
AcDbSpline
210
0.0
220
0.0
230
1.0
 70
     8
 71
     3
 72
     9
 73
     5
 74
     0
 42
0.000000001
 43
0.00000001
 40
0.0
 40
0.0
 40
0.0
 40
0.0
 40
0.4242757353264066
 40
1.0
 40
1.0
 40
1.0
 40
1.0
 10
245.8354181522014
 20
68.37238464643205
 30
0.0
 10
245.7918029294292
 20
68.24543413084149
 30
0.0
 10
245.6890036903008
 20
67.94621712402184
 30
0.0
 10
245.7018609046838
 20
67.62619239053971
 30
0.0
 10
245.7092631149802
 20
67.44194638617836
 30
0.0
  0
SPLINE
  5
1AF
330
1F
100
AcDbEntity
  8
0
  6
Continuous
 62
     7
370
    18
100
AcDbSpline
210
0.0
220
0.0
230
1.0
 70
     8
 71
     3
 72
    11
 73
     7
 74
     0
 42
0.000000001
 43
0.00000001
 40
0.0
 40
0.0
 40
0.0
 40
0.0
 40
0.2396813672081498
 40
0.485690414769056
 40
0.7406032906406766
 40
0.9999999999999999
 40
0.9999999999999999
 40
0.9999999999999999
 40
0.9999999999999999
 10
245.2391170242084
 20
67.63374393030801
 30
0.0
 10
245.229378562561
 20
67.7504067813206
 30
0.0
 10
245.2096445401304
 20
67.9868124275185
 30
0.0
 10
245.2610797417379
 20
68.33382280980368
 30
0.0
 10
245.3650194315057
 20
68.67198920819477
 30
0.0
 10
245.476021128636
 20
68.8808543527094
 30
0.0
 10
245.5320058425043
 20
68.98619738488841
 30
0.0
  0
LINE
  5
1B0
330
1F
100
AcDbEntity
  8
0
  6
Continuous
 62
     7
370
    18
100
AcDbLine
 10
245.5698174813
 20
65.1835315268
 30
0.0
 11
245.2391170242
 21
67.6337439303
 31
0.0
  0
SPLINE
  5
1B1
330
1F
100
AcDbEntity
  8
0
  6
Continuous
 62
     7
370
    18
100
AcDbSpline
210
0.0
220
0.0
230
1.0
 70
     8
 71
     3
 72
    10
 73
     6
 74
     0
 42
0.000000001
 43
0.00000001
 40
0.0
 40
0.0
 40
0.0
 40
0.0
 40
0.3357690842053363
 40
0.66378143949471
 40
1.0
 40
1.0
 40
1.0
 40
1.0
 10
245.9785061742572
 20
64.14125063273246
 30
0.0
 10
245.9117327827697
 20
64.25307503605232
 30
0.0
 10
245.7797285572277
 20
64.47414054475443
 30
0.0
 10
245.6373933186899
 20
64.82609667561155
 30
0.0
 10
245.5925275244611
 20
65.06340928778036
 30
0.0
 10
245.5698174813227
 20
65.18353152683284
 30
0.0
  0
LINE
  5
1B2
330
1F
100
AcDbEntity
  8
0
  6
Continuous
 62
     7
370
    18
100
AcDbLine
 10
245.9785061743
 20
64.1412506327
 30
0.0
 11
245.6542450351
 21
64.1550904969
 31
0.0
  0
SPLINE
  5
1B3
330
1F
100
AcDbEntity
  8
0
  6
Continuous
 62
     7
370
    18
100
AcDbSpline
210
0.0
220
0.0
230
1.0
 70
     8
 71
     3
 72
    10
 73
     6
 74
     0
 42
0.000000001
 43
0.00000001
 40
0.0
 40
0.0
 40
0.0
 40
0.0
 40
0.2765306019330317
 40
0.5626682704062669
 40
1.0
 40
1.0
 40
1.0
 40
1.0
 10
245.2391170242084
 20
67.63374393030801
 30
0.0
 10
245.3010157083676
 20
67.62823588198401
 30
0.0
 10
245.4269635250391
 20
67.61702842790076
 30
0.0
 10
245.610993763962
 20
67.55735261836772
 30
0.0
 10
245.6722401450478
 20
67.48542567468576
 30
0.0
 10
245.7092631149802
 20
67.44194638617836
 30
0.0
  0
LINE
  5
1B4
330
1F
100
AcDbEntity
  8
0
  6
Continuous
 62
     7
370
    18
100
AcDbLine
 10
246.7451827083
 20
63.846669814
 30
0.0
 11
248.6496107394
 21
62.6677045433
 31
0.0
  0
LINE
  5
1B5
330
1F
100
AcDbEntity
  8
0
  6
Continuous
 62
     7
370
    18
100
AcDbLine
 10
246.7451827083
 20
63.846669814
 30
0.0
 11
246.7240703454
 21
63.8761314469
 31
0.0
  0
ARC
  5
1B6
330
1F
100
AcDbEntity
  8
0
  6
Continuous
 62
     7
370
    18
100
AcDbCircle
 10
246.1937564337
 20
63.5608805299
 30
0.0
 40
0.621084898556056
100
AcDbArc
 50
332.6035174884
 51
27.3964825116
  0
LINE
  5
1B7
330
1F
100
AcDbEntity
  8
0
  6
Continuous
 62
     7
370
    18
100
AcDbLine
 10
246.0399635721
 20
64.9917339827
 30
0.0
 11
246.0524330729
 21
64.9666687504
 31
0.0
  0
LINE
  5
1B8
330
1F
100
AcDbEntity
  8
0
  6
Continuous
 62
     7
370
    18
100
AcDbLine
 10
245.709263115
 20
67.4419463862
 30
0.0
 11
246.0399635721
 21
64.9917339827
 31
0.0
  0
ARC
  5
1B9
330
1F
100
AcDbEntity
  8
0
  6
Continuous
 62
     7
370
    18
100
AcDbCircle
 10
245.6206227595
 20
64.6359441222
 30
0.0
 40
0.5499392166078311
100
AcDbArc
 50
40.312950992
 51
95.300739717
  0
SPLINE
  5
1BA
330
1F
100
AcDbEntity
  8
0
  6
Continuous
 62
     7
370
    18
100
AcDbSpline
210
0.0
220
0.0
230
1.0
 70
     8
 71
     3
 72
     9
 73
     5
 74
     0
 42
0.000000001
 43
0.00000001
 40
0.0
 40
0.0
 40
0.0
 40
0.0
 40
0.2369167103081208
 40
1.0
 40
1.0
 40
1.0
 40
1.0
 10
246.281891545877
 20
64.3086918167981
 30
0.0
 10
246.3123444780376
 20
64.2649112859012
 30
0.0
 10
246.440883035411
 20
64.08011836504744
 30
0.0
 10
246.6134782126328
 20
63.94770910657188
 30
0.0
 10
246.7451827082522
 20
63.84666981402869
 30
0.0
  0
SPLINE
  5
1BB
330
1F
100
AcDbEntity
  8
0
  6
Continuous
 62
     7
370
    18
100
AcDbSpline
210
0.0
220
0.0
230
1.0
 70
     8
 71
     3
 72
     9
 73
     5
 74
     0
 42
0.000000001
 43
0.00000001
 40
0.0
 40
0.0
 40
0.0
 40
0.0
 40
0.7630832896918783
 40
1.0
 40
1.0
 40
1.0
 40
1.0
 10
246.0399635720945
 20
64.9917339827032
 30
0.0
 10
246.0809783462093
 20
64.81232903192965
 30
0.0
 10
246.1347270977136
 20
64.57722369913435
 30
0.0
 10
246.2537039430719
 20
64.36012591065888
 30
0.0
 10
246.281891545877
 20
64.3086918167981
 30
0.0
  0
LWPOLYLINE
  5
1BC
330
1F
100
AcDbEntity
  8
0
  6
Continuous
 62
     7
370
    18
100
AcDbPolyline
 90
       42
 70
   128
 43
0.0
 10
250.2868086509
 20
25.6802056094
 10
249.6922832529
 20
26.1105752129
 10
249.150733661
 20
26.6217677788
 10
248.6653321661
 20
27.2107888416
 10
248.2389221545
 20
27.8741880321
 10
247.8740014519
 20
28.6080792885
 10
247.572707692
 20
29.4081636203
 10
247.3368057943
 20
30.2697542913
 10
247.1676776256
 20
31.187804273
 10
247.0663139053
 20
32.1569358095
 10
247.0333084023
 20
33.1714719193
 10
247.0688544561
 20
34.2254696497
 10
247.1727438451
 20
35.3127548896
 10
247.3443680057
 20
36.4269585364
 10
247.5827215973
 20
37.5615538046
 10
247.8864083916
 20
38.7098944586
 10
248.2536494512
 20
39.8652537453
 10
248.6822935502
 20
41.0208637975
 10
249.1698297761
 20
42.1699552793
 10
249.7134022376
 20
43.3057970391
 10
250.3098267945
 20
44.4217355396
 10
250.955609709
 20
45.5112338332
 10
251.6469681123
 20
46.5679098533
 10
252.3798521629
 20
47.5855738001
 10
253.1499687705
 20
48.5582643987
 10
253.9528067438
 20
49.4802838192
 10
254.783663216
 20
50.3462310535
 10
255.6376711938
 20
51.1510335534
 10
256.5098280665
 20
51.8899769442
 10
257.3950249111
 20
52.5587326414
 10
258.2880764188
 20
53.1533832057
 10
259.18375127
 20
53.6704452913
 10
260.0768027778
 20
54.1068900504
 10
260.9619996224
 20
54.4601608756
 10
261.8341564951
 20
54.7281883759
 10
262.6881644728
 20
54.9094024992
 10
263.519020945
 20
55.0027417288
 10
264.3218589183
 20
55.0076593018
 10
265.0919755259
 20
54.9241264121
 10
265.8248595765
 20
54.7526323789
 10
266.5162179798
 20
54.4941817805
 10
267.010241357
 20
54.2411712205
  0
LWPOLYLINE
  5
1BD
330
1F
100
AcDbEntity
  8
0
  6
Continuous
 62
     7
370
    18
100
AcDbPolyline
 90
       19
 70
   128
 43
0.0
 10
266.289759375
 20
31.5623730747
 10
267.0006266928
 20
32.5268615065
 10
267.6704003393
 20
33.5321390158
 10
268.2947009551
 20
34.5716325293
 10
268.8694465094
 20
35.6385452496
 10
269.3908789904
 20
36.7259010976
 10
269.8555889772
 20
37.8265903249
 10
270.2605379329
 20
38.9334160022
 10
270.6030780719
 20
40.0391410766
 10
270.8809696729
 20
41.1365356915
 10
271.0923957232
 20
42.2184244597
 10
271.2359737995
 20
43.2777333797
 10
271.3107651073
 20
44.3075360902
 10
271.3162806185
 20
45.3010991579
 10
271.2524842695
 20
46.251926105
 10
271.1197931972
 20
47.1537998867
 10
270.9190750107
 20
48.0008235414
 10
270.6516421193
 20
48.7874587489
 10
270.5255135387
 20
49.0859408084
  0
LWPOLYLINE
  5
1BE
330
1F
100
AcDbEntity
  8
0
  6
Continuous
 62
     7
370
    18
100
AcDbPolyline
 90
       13
 70
   128
 43
0.0
 10
257.4417684415
 20
54.9566372347
 10
258.4200213095
 20
55.5048976165
 10
259.3942692718
 20
55.9638849693
 10
260.3587238398
 20
56.3308722224
 10
261.3076547119
 20
56.6036789231
 10
262.2354238207
 20
56.780684192
 10
263.1365188314
 20
56.8608363532
 10
264.005585893
 20
56.8436591832
 10
264.8374614483
 20
56.7292547399
 10
265.6272029135
 20
56.5183027567
 10
266.3701180441
 20
56.2120566037
 10
267.0617928141
 20
55.8123358406
 10
267.6981176416
 20
55.3215154062
  0
LINE
  5
1BF
330
1F
100
AcDbEntity
  8
0
  6
Continuous
 62
     7
370
    18
100
AcDbLine
 10
264.1099253814
 20
29.5134823863
 30
0.0
 11
264.603270944
 21
30.0191851586
 31
0.0
  0
LWPOLYLINE
  5
1C0
330
1F
100
AcDbEntity
  8
0
  6
Continuous
 62
     7
370
    18
100
AcDbPolyline
 90
       13
 70
   128
 43
0.0
 10
270.5212053768
 20
40.8326591575
 10
270.7055905363
 20
41.6666964695
 10
270.8847122888
 20
42.7274790908
 10
270.9961053096
 20
43.7627689964
 10
271.0390378553
 20
44.7657653432
 10
271.0132279012
 20
45.7298794256
 10
270.9188449934
 20
46.648777956
 10
270.7565091354
 20
47.5164246694
 10
270.5272867151
 20
48.3271199746
 10
270.2326834998
 20
49.0755383958
 10
269.8746347448
 20
49.7567635553
 10
269.4554924803
 20
50.3663204697
 10
269.1202456065
 20
50.7555654678
  0
ARC
  5
1C1
330
1F
100
AcDbEntity
  8
0
  6
Continuous
 62
     7
370
    18
100
AcDbCircle
 10
255.9356560036
 20
30.9068106105
 30
0.0
 40
5.585402134940007
100
AcDbArc
 50
230.4754503665
 51
281.3916895164
  0
LINE
  5
1C2
330
1F
100
AcDbEntity
  8
0
  6
Continuous
 62
     7
370
    18
100
AcDbLine
 10
241.1101758259
 20
31.0465994943
 30
0.0
 11
249.2625443099
 21
26.3403373441
 31
0.0
  0
LINE
  5
1C3
330
1F
100
AcDbEntity
  8
0
  6
Continuous
 62
     7
370
    18
100
AcDbLine
 10
254.5556320317
 20
56.380110716
 30
0.0
 11
257.4912358741
 21
54.5627803039
 31
0.0
  0
ARC
  5
1C4
330
1F
100
AcDbEntity
  8
0
  6
Continuous
 62
     7
370
    18
100
AcDbCircle
 10
250.8432016119
 20
67.7202229981
 30
0.0
 40
11.93232107311877
100
AcDbArc
 50
251.9841766053
 51
288.1269757395
  0
LINE
  5
1C5
330
1F
100
AcDbEntity
  8
0
  6
Continuous
 62
     7
370
    18
100
AcDbLine
 10
257.4170179919
 20
53.9119877173
 30
0.0
 11
254.4087737784
 21
55.774287261
 31
0.0
  0
ARC
  5
1C6
330
1F
100
AcDbEntity
  8
0
  6
Continuous
 62
     7
370
    18
100
AcDbCircle
 10
250.6354397822
 20
67.3387133797
 30
0.0
 40
12.20605481978441
100
AcDbArc
 50
251.9418840076
 51
287.4401321221
  0
LINE
  5
1C7
330
1F
100
AcDbEntity
  8
0
  6
Continuous
 62
     7
370
    18
100
AcDbLine
 10
243.1816013405
 20
51.5033149163
 30
0.0
 11
241.9851505533
 21
51.5133489932
 31
0.0
  0
OLE2FRAME
  5
1C8
330
1F
100
AcDbEntity
  8
0
100
AcDbOle2Frame
 70
     2
  3
Paintbrush-Bild
 10
13.8511154363
 20
38.264191557
 30
0.0
 11
51.6290888628
 21
31.9806341108
 31
0.0
 71
     2
 72
     0
 73
     1
 90
    12928
310
80552BED0767C5B32B40DDAF6807D121434000000000000000006FFBDDFB85D0
310
4940DDAF6807D121434000000000000000006FFBDDFB85D04940416F4BD60AFB
310
3F4000000000000000002BED0767C5B32B40416F4BD60AFB3F40000000000000
310
0000000000000100000000010000010000000100000000000100000000320000
310
D0CF11E0A1B11AE1000000000000000000000000000000003E000300FEFF0900
310
0600000000000000000000000100000001000000000000000010000002000000
310
01000000FEFFFFFF0000000000000000FFFFFFFFFFFFFFFFFFFFFFFFFFFFFFFF
310
FFFFFFFFFFFFFFFFFFFFFFFFFFFFFFFFFFFFFFFFFFFFFFFFFFFFFFFFFFFFFFFF
310
FFFFFFFFFFFFFFFFFFFFFFFFFFFFFFFFFFFFFFFFFFFFFFFFFFFFFFFFFFFFFFFF
310
FFFFFFFFFFFFFFFFFFFFFFFFFFFFFFFFFFFFFFFFFFFFFFFFFFFFFFFFFFFFFFFF
310
FFFFFFFFFFFFFFFFFFFFFFFFFFFFFFFFFFFFFFFFFFFFFFFFFFFFFFFFFFFFFFFF
310
FFFFFFFFFFFFFFFFFFFFFFFFFFFFFFFFFFFFFFFFFFFFFFFFFFFFFFFFFFFFFFFF
310
FFFFFFFFFFFFFFFFFFFFFFFFFFFFFFFFFFFFFFFFFFFFFFFFFFFFFFFFFFFFFFFF
310
FFFFFFFFFFFFFFFFFFFFFFFFFFFFFFFFFFFFFFFFFFFFFFFFFFFFFFFFFFFFFFFF
310
FFFFFFFFFFFFFFFFFFFFFFFFFFFFFFFFFFFFFFFFFFFFFFFFFFFFFFFFFFFFFFFF
310
FFFFFFFFFFFFFFFFFFFFFFFFFFFFFFFFFFFFFFFFFFFFFFFFFFFFFFFFFFFFFFFF
310
FFFFFFFFFFFFFFFFFFFFFFFFFFFFFFFFFFFFFFFFFFFFFFFFFFFFFFFFFFFFFFFF
310
FFFFFFFFFFFFFFFFFFFFFFFFFFFFFFFFFFFFFFFFFFFFFFFFFFFFFFFFFFFFFFFF
310
FFFFFFFFFFFFFFFFFFFFFFFFFFFFFFFFFFFFFFFFFFFFFFFFFFFFFFFFFFFFFFFF
310
FFFFFFFFFFFFFFFFFFFFFFFFFFFFFFFFFFFFFFFFFFFFFFFFFFFFFFFFFFFFFFFF
310
FDFFFFFFFEFFFFFFFEFFFFFFFEFFFFFF05000000060000000700000008000000
310
090000000A0000000B0000000C0000000D0000000E0000000F00000010000000
310
11000000120000001300000014000000150000001600000017000000FEFFFFFF
310
FFFFFFFFFFFFFFFFFFFFFFFFFFFFFFFFFFFFFFFFFFFFFFFFFFFFFFFFFFFFFFFF
310
FFFFFFFFFFFFFFFFFFFFFFFFFFFFFFFFFFFFFFFFFFFFFFFFFFFFFFFFFFFFFFFF
310
FFFFFFFFFFFFFFFFFFFFFFFFFFFFFFFFFFFFFFFFFFFFFFFFFFFFFFFFFFFFFFFF
310
FFFFFFFFFFFFFFFFFFFFFFFFFFFFFFFFFFFFFFFFFFFFFFFFFFFFFFFFFFFFFFFF
310
FFFFFFFFFFFFFFFFFFFFFFFFFFFFFFFFFFFFFFFFFFFFFFFFFFFFFFFFFFFFFFFF
310
FFFFFFFFFFFFFFFFFFFFFFFFFFFFFFFFFFFFFFFFFFFFFFFFFFFFFFFFFFFFFFFF
310
FFFFFFFFFFFFFFFFFFFFFFFFFFFFFFFFFFFFFFFFFFFFFFFFFFFFFFFFFFFFFFFF
310
FFFFFFFFFFFFFFFFFFFFFFFFFFFFFFFFFFFFFFFFFFFFFFFFFFFFFFFFFFFFFFFF
310
FFFFFFFFFFFFFFFFFFFFFFFFFFFFFFFFFFFFFFFFFFFFFFFFFFFFFFFFFFFFFFFF
310
FFFFFFFFFFFFFFFFFFFFFFFFFFFFFFFFFFFFFFFFFFFFFFFFFFFFFFFFFFFFFFFF
310
FFFFFFFFFFFFFFFFFFFFFFFFFFFFFFFFFFFFFFFFFFFFFFFFFFFFFFFFFFFFFFFF
310
FFFFFFFFFFFFFFFFFFFFFFFFFFFFFFFFFFFFFFFFFFFFFFFFFFFFFFFFFFFFFFFF
310
FFFFFFFFFFFFFFFFFFFFFFFFFFFFFFFFFFFFFFFFFFFFFFFFFFFFFFFFFFFFFFFF
310
52006F006F007400200045006E00740072007900000000000000000000000000
310
0000000000000000000000000000000000000000000000000000000000000000
310
16000500FFFFFFFFFFFFFFFF020000000A00030000000000C000000000000046
310
00000000000000000000000040E3935DD0AED30103000000C000000000000000
310
01004F006C006500000000000000000000000000000000000000000000000000
310
0000000000000000000000000000000000000000000000000000000000000000
310
0A000200FFFFFFFFFFFFFFFFFFFFFFFF00000000000000000000000000000000
310
0000000000000000000000000000000000000000000000001400000000000000
310
010043006F006D0070004F0062006A0000000000000000000000000000000000
310
0000000000000000000000000000000000000000000000000000000000000000
310
120002010100000003000000FFFFFFFF00000000000000000000000000000000
310
0000000000000000000000000000000000000000010000004D00000000000000
310
01004F006C006500310030004E00610074006900760065000000000000000000
310
0000000000000000000000000000000000000000000000000000000000000000
310
1A000200FFFFFFFFFFFFFFFFFFFFFFFF00000000000000000000000000000000
310
0000000000000000000000000000000000000000040000002426000000000000
310
FEFFFFFF02000000FEFFFFFFFFFFFFFFFFFFFFFFFFFFFFFFFFFFFFFFFFFFFFFF
310
FFFFFFFFFFFFFFFFFFFFFFFFFFFFFFFFFFFFFFFFFFFFFFFFFFFFFFFFFFFFFFFF
310
FFFFFFFFFFFFFFFFFFFFFFFFFFFFFFFFFFFFFFFFFFFFFFFFFFFFFFFFFFFFFFFF
310
FFFFFFFFFFFFFFFFFFFFFFFFFFFFFFFFFFFFFFFFFFFFFFFFFFFFFFFFFFFFFFFF
310
FFFFFFFFFFFFFFFFFFFFFFFFFFFFFFFFFFFFFFFFFFFFFFFFFFFFFFFFFFFFFFFF
310
FFFFFFFFFFFFFFFFFFFFFFFFFFFFFFFFFFFFFFFFFFFFFFFFFFFFFFFFFFFFFFFF
310
FFFFFFFFFFFFFFFFFFFFFFFFFFFFFFFFFFFFFFFFFFFFFFFFFFFFFFFFFFFFFFFF
310
FFFFFFFFFFFFFFFFFFFFFFFFFFFFFFFFFFFFFFFFFFFFFFFFFFFFFFFFFFFFFFFF
310
FFFFFFFFFFFFFFFFFFFFFFFFFFFFFFFFFFFFFFFFFFFFFFFFFFFFFFFFFFFFFFFF
310
FFFFFFFFFFFFFFFFFFFFFFFFFFFFFFFFFFFFFFFFFFFFFFFFFFFFFFFFFFFFFFFF
310
FFFFFFFFFFFFFFFFFFFFFFFFFFFFFFFFFFFFFFFFFFFFFFFFFFFFFFFFFFFFFFFF
310
FFFFFFFFFFFFFFFFFFFFFFFFFFFFFFFFFFFFFFFFFFFFFFFFFFFFFFFFFFFFFFFF
310
FFFFFFFFFFFFFFFFFFFFFFFFFFFFFFFFFFFFFFFFFFFFFFFFFFFFFFFFFFFFFFFF
310
FFFFFFFFFFFFFFFFFFFFFFFFFFFFFFFFFFFFFFFFFFFFFFFFFFFFFFFFFFFFFFFF
310
FFFFFFFFFFFFFFFFFFFFFFFFFFFFFFFFFFFFFFFFFFFFFFFFFFFFFFFFFFFFFFFF
310
FFFFFFFFFFFFFFFFFFFFFFFFFFFFFFFFFFFFFFFFFFFFFFFFFFFFFFFFFFFFFFFF
310
0100000200000000000000000000000000000000000000000000000000000000
310
0000000000000000000000000000000000000000000000000000000000000000
310
0100FEFF030A0000FFFFFFFF0A00030000000000C00000000000004607000000
310
5042727573680007000000504272757368000700000050427275736800F439B2
310
7100000000000000000000000000000000000000000000000000000000000000
310
0000000000000000000000000000000000000000000000000000000000000000
310
0000000000000000000000000000000000000000000000000000000000000000
310
0000000000000000000000000000000000000000000000000000000000000000
310
0000000000000000000000000000000000000000000000000000000000000000
310
0000000000000000000000000000000000000000000000000000000000000000
310
0000000000000000000000000000000000000000000000000000000000000000
310
0000000000000000000000000000000000000000000000000000000000000000
310
0000000000000000000000000000000000000000000000000000000000000000
310
0000000000000000000000000000000000000000000000000000000000000000
310
0000000000000000000000000000000000000000000000000000000000000000
310
0000000000000000000000000000000000000000000000000000000000000000
310
20260000424D0E260000000000003E00000028000000B40200006E0000000100
310
01000000000000000000130B0000130B00000200000002000000000000FFFFFF
310
FFFFFFFFFFFFFFFFFFFFFFFFFFFFFFFFFFFFFFFFFFFFFFFFFFFFFFFFFFFFFFFF
310
FFFFFFFFFFFFFFFFFFFFFFFFFFFFFFFFFFFFFFFFFFFFFFFFFFFFFFFFFFFFFFFF
310
FFFFFFFFFFFFFFFFFFFFFFFFFFFFFFFFFFFFFFFFFFFFFFFFF000FFFFFFFFFFFF
310
FFFFFFFFFFFFFFFFFFFFFFFFFFFFFFFFFFFFFFFFFFFFFFFFFFFFFFFFFFFFFFFF
310
FFFFFFFFFFFFFFFFFFFFFFFFFFFFFFFFFFFFFFFFFFFFFFFFFFFFFFFFFFFFFFFF
310
FFFFFFFFFFFFFFFFFFFFFFFFFFFFFFFFF000FFFFFFFFFFFFFFFFFFFFFFFFFFFF
310
FFFFFFFFFFFFFFFFFFFFFFFFFFFFFFFFFFFFFFFFFFFFFFFFFFFFFFFFFFFFFFFF
310
FFFFFFFFFFFFFFFFFFFFFFFFFFFFFFFFFFFFFFFFFFFFFFFFFFFFFFFFFFFFFFFF
310
FFFFFFFFFFFFFFFFF000FFFFFFFFFFFFFFFFFFFFFFFFFFFFFFFFFFFFFFFFFFFF
310
FFFFFFFFFFFFFFFFFFFFFFFFFFFFFFFFFFFFFFFFFFFFFFFFFFFFFFFFFFFFFFFF
310
FFFFFFFFFFFFFFFFFFFFFFFFFFFFFFFFFFFFFFFFFFFFFFFFFFFFFFFFFFFFFFFF
310
F000FFFFFFFFFFFFFFFFFFFFFFFFFFFFFFFFFFFFFFFFFFFFFFFFFFFFFFFFFFFF
310
FFFFFFFFFFFFFFFFFFFFFFFFFFFFFFFFFFFFFFFFFFFFFFFFFFFFFFFFFFFFFFFF
310
FFFFFFFFFFFFFFFFFFFFFFFFFFFFFFFFFFFFFFFFFFFFFFFFF000FFFFFFFFFFFF
310
FFFFFFFFFFFFFFFFFFFFFFFFFFFFFFFFFFFFFFFFFFFFFFFFFFFFFFFFFFFFFFFF
310
FFFFFFFFFFFFFFFFFFFFFFFFFFFFFFFFFFFFFFFFFFFFFFFFFFFFFFFFFFFFFFFF
310
FFFFFFFFFFFFFFFFFFFFFFFFFFFFFFFFF000FFFFFFFFFFFFFFFFFFFFFFFFFFFF
310
FFFFFFFFFFFFFFFFFFFFFFFFFFFFFFFFFFFFFFFFFFFFFFFFFFFFFFFFFFFFFFFF
310
FFFFFFFFFFFFFFFFFFFFFFFFFFFFFFFFFFFFFFFFFFFFFFFFFFFFFFFFFFFFFFFF
310
FFFFFFFFFFFFFFFFF000FFFFFFFFFFFFFFFFFFFFFFFFFFFFFFFFFFFFFFFFFFFF
310
FFFFFFFFFFFFFFFFFFFFFFFFFFFFFFFFFFFFFFFFFFFFFFFFFFFFFFFFFFFFFFFF
310
FFFFFFFFFFFFFFFFFFFFFFFFFFFFFFFFFFFFFFFFFFFFFFFFFFFFFFFFFFFFFFFF
310
F000FFFFFFFFFFFFFFFFFFFFFFFFFFFFFFFFFFFFFFFFFFFFFFFFFFFFFFFFFFFF
310
FFFFFFFFFFFFFFFFFFFFFFFFFFFFFFFFFFFFFFFFFFFFFFFFFFFFFFFFFFFFFFFF
310
FFFFFFFFFFFFFFFFFFFFFFFFFFFFFFFFFFFFFFFFFFFFFFFFF000FFFFFFFFFFFF
310
FFFFFFFFFFFFFFFFFFFFFFFFFFFFFFFFFFFFFFFFFFFFFFFFFFFFFFFFFFFFFFFF
310
FFFFFFFFFFFFFFFFFFFFFFFFFFFFFFFFFFFFFFFFFFFFFFFFFFFFFFFFFFFFFFFF
310
FFFFFFFFFFFFFFFFFFFFFFFFFFFFFFFFF000FFFFFFFFFFFFFFFFFFFFFFFFFFFF
310
FFFFFFFFFFFFFFFFFFFFFFFFFFFFFFFFFFFFFFFFFFFFFFFFFFFFFFFFFFFFFFFF
310
FFFFFFFFFFFFFFFFFFFFFFFFFFFFFFFFFFFFFFFFFFFFFFFFFFFFFFFFFFFFFFFF
310
FFFFFFFFFFFFFFFFF000FFFFFFFFFFFFFFFFFFFFFFFFFFFFFFFFFFFFFFFFFFFF
310
FFFFFFFFFFFFFFFFFFFFFFFFFFFFFFFFFFFFFFFFFFFFFFFFFFFFFFFFFFFFFFFF
310
FFFFFFFFFFFFFFFFFFFFFFFFFFFFFFFFFFFFFFFFFFFFFFFFFFFFFFFFFFFFFFFF
310
F000FFFFFFFFFFFFFFFFFFFFFFFFFFFFFFFFFFFFFFFFFFFFFFFFFFFFFFFFFFFF
310
FFFFFFFFFFFFFFFFFFFFFFFFFFFFFFFFFFFFFFFFFFFFFFFFFFFFFFFFFFFFFFFF
310
FFFFFFFFFFFFFFFFFFFFFFFFFFFFFFFFFFFFFFFFFFFFFFFFF000FFFFFFFFFFFF
310
FFFFFFFFFFFFFFFFFFFFFFFFFFFFFFFFFFFFFFFFFFFFFFFFFFFFFFFFFFFFFFFF
310
FFFFFFFFFFFFFFFFFFFFFFFFFFFFFFFFFFFFFFFFFFFFFFFFFFFFFFFFFFFFFFFF
310
FFFFFFFFFFFFFFFFFFFFFFFFFFFFFFFFF000FFFFFFFFFFFFFFFFFFFFFFFFFFFF
310
FFFFFFFFFFFFFFFFFFFFFFFFFFFFFFFFFFFFFFFFFFFFFFFFFFFFFFFFFFFFFFFF
310
FFFFFFFFFFFFFFFFFFFFFFFFFFFFFFFFFFFFFFFFFFFFFFFFFFFFFFFFFFFFFFFF
310
FFFFFFFFFFFFFFFFF000FFFFFFFFFFFFFFFFFFFFFFFFFFFFFFFFFFFFFFFFFFFF
310
FFFFFFFFFFFFFFFFFFFFFFFFFFFFFFFFFFFFFFFFFFFFFFFFFFFFFFFFFFFFFFFF
310
FFFFFFFFFFFFFFFFFFFFFFFFFFFFFFFFFFFFFFFFFFFFFFFFFFFFFFFFFFFFFFFF
310
F000FFFFFFFFFFFFFFFFFFFFFFFFFFFFFFFFFFFFFFFFFFFFFFFFFFFFFFFFFFFF
310
FFFFFFFFFFFFFFFFFFFFFFFFFFFFFFFFFFFFFFFFFFFFFFFFFFFFFFFFFFFFFFFF
310
FFFFFFFFFFFFFFFFFFFFFFFFFFFFFFFFFFFFFFFFFFFFFFFFF000FFFFFFFFFFFF
310
FFFFFFFFFFFFFFFFFFFFFFFFFFFFFFFFFFFFFFFFFFFFFFFFFFFFFFFFFFFFFFFF
310
FFFFFFFFFFFFFFFFFFFFFFFFFFFFFFFFFFFFFFFFFFFFFFFFFFFFFFFFFFFFFFFF
310
FFFFFFFFFFFFFFFFFFFFFFFFFFFFFFFFF000FFFFFFFFFFFFFFFFFFFFFFFFFFFF
310
FFFFFFFFFFFFFFFFFFFFFFFFFFFFFFFFFFFFFFFFFFFFFFFFFFFFFFFFFFFFFFFF
310
FFFFFFFFFFFFFFFFFFFFFFFFFFFFFFFFFFFFFFFFFFFFFFFFFFFFFFFFFFFFFFFF
310
FFFFFFFFFFFFFFFFF000FFFFF80003FFFFFFFFFFFFFFFFFFFFFFFFFFFFFFFFFF
310
FFFFF00007FFFFFFFFFF00007FFFFFF800000000000000007FFFFFFFFFFFFFFF
310
FFFFFFFC001FFFFFFFFFFFFFFC001FFFFFFFFFFFFFFFFFFFFFFFFFFE0007FFFF
310
F000FFFF8000007FFFFFFFF8000FFFFFC0007FFFFF80007FFFFF0000007FFFFF
310
FFF8000007FFFFF800000000000000007FFFFFF0001FFFFFFFFFFFC00001FFFF
310
FFFFFFFFC00001FFFFFFFF000000000003FFFFE000007FFFF000FFFE0000000F
310
FFFFFFF0000FFFFF80007FFFFF80007FFFFC0000001FFFFFFFC0000001FFFFF8
310
00000000000000007FFFFFF0001FFFFFFFFFFE0000003FFFFFFFFFFE0000003F
310
FFFFFF000000000003FFFF0000000FFFF000FFF800000003FFFFFFF00007FFFF
310
80007FFFFF80007FFFF000000007FFFFFF000000003FFFF80000000000000000
310
7FFFFFF0001FFFFFFFFFF80000000FFFFFFFFFF80000000FFFFFFF0000000000
310
03FFFC00000003FFF000FFE000000000FFFFFFF00007FFFF80003FFFFF80007F
310
FFC000000001FFFFFC000000001FFFF800000000000000007FFFFFF0001FFFFF
310
FFFFE000000003FFFFFFFFE000000003FFFFFF000000000003FFF000000000FF
310
F000FF80000000007FFFFFF00007FFFF80003FFFFF80007FFF8000000000FFFF
310
F80000000007FFF800000000000000007FFFFFF0001FFFFFFFFFC000000001FF
310
FFFFFFC000000001FFFFFF000000000003FFC0000000007FF000FF0000000000
310
3FFFFFE00007FFFF00003FFFFF80007FFE00000000003FFFF00000000003FFF8
310
00000000000000007FFFFFF0001FFFFFFFFF8000000000FFFFFFFF8000000000
310
FFFFFF000000000003FF80000000003FF000FE00000000001FFFFFE00003FFFF
310
00003FFFFF80007FFC00000000001FFFE00000000001FFF8000001FFFE000000
310
7FFFFFF0001FFFFFFFFE00000000003FFFFFFE00000000003FFFFF0000000000
310
03FF00000000001FF000FC00000000000FFFFFE00003FFFF00001FFFFF80007F
310
F800000000001FFFC00000000000FFF8000001FFFE0000007FFFFFF0001FFFFF
310
FFFC00000000001FFFFFFC00000000001FFFFF000000000003FE00000000000F
310
F000F8000000000007FFFFE00003FFFF00001FFFFF80007FF800000000000FFF
310
800000000000FFF8000001FFFE0000007FFFFFF0001FFFFFFFF800000000000F
310
FFFFF800000000000FFFFF000000000003FC000000000007F000F80000000000
310
03FFFFC00003FFFE00001FFFFF80007FF0000000000007FF0000000000007FF8
310
000001FFFE0000007FFFFFF0001FFFFFFFF0000000000007FFFFF00000000000
310
07FFFF000000000003F8000000000003F000F0000000000003FFFFC00001FFFE
310
00001FFFFF80007FE0000000000007FE0000000000003FF8000001FFFE000000
310
7FFFFFF0001FFFFFFFF0000000000007FFFFF0000000000007FFFF0000000000
310
03F800001F800003F000E00001FFF00001FFFFC00001FFFE00000FFFFF80007F
310
E00001FFE00003FE00001FFF00003FF8000001FFFE0000007FFFFFF0001FFFFF
310
FFE000003E000003FFFFE000003E000003FFFF000000000003F00001FFF80001
310
F000E00007FFFC0001FFFFC00001FFFE00000FFFFF80007FC0000FFFFC0003FC
310
0000FFFFC0001FF8000001FFFE0000007FFFFFF0001FFFFFFFC00003FFE00001
310
FFFFC00003FFE00001FFFF0001FFFFFFFFF00007FFFE0001F000E0000FFFFF00
310
00FFFF800001FFFC00000FFFFF80007FC0001FFFFE0001FC0001FFFFE0001FF8
310
000001FFFE0000007FFFFFF0001FFFFFFF80000FFFF80000FFFF80000FFFF800
310
00FFFF0003FFFFFFFFE0000FFFFF8000F000C0003FFFFF8000FFFF800000FFFC
310
000007FFFF80007F80003FFFFF0001FC0003FFFFF0001FF8000001FFFE000000
310
7FFFFFF0001FFFFFFF80003FFFFE0000FFFF80003FFFFE0000FFFF0003FFFFFF
310
FFE0003FFFFF8000F000C0003FFFFF8000FFFF800000FFFC000007FFFF80007F
310
80007FFFFF8001F80007FFFFF8000FF8000001FFFE0000007FFFFFF0001FFFFF
310
FF00007FFFFF00007FFF00007FFFFF00007FFF0003FFFFFFFFE0003FFFFFC000
310
F000C0007FFFFFC000FFFF000000FFFC000007FFFF80007F8000FFFFFF8000F8
310
000FFFFFF8000FF8000001FFFE0000007FFFFFF0001FFFFFFF0000FFFFFF8000
310
7FFF0000FFFFFF80007FFF0003FFFFFFFFC0007FFFFFC00070008000FFFFFFC0
310
00FFFF000000FFF8000007FFFF80007F8000FFFFFF8000F8000FFFFFF8000FF8
310
000001FFFE0000007FFFFFF0001FFFFFFE0001FFFFFFC0003FFE0001FFFFFFC0
310
003FFF0003FFFFFFFFC0007FFFFFE00070008000FFFFFFC0007FFF0000007FF8
310
000003FFFF80007F0001FFFFFF8000F8000FFFFFF8000FF8000001FFFE000000
310
7FFFFFF0001FFFFFFE0001FFFFFFC0003FFE0001FFFFFFC0003FFF0003FFFFFF
310
FFC000FFFFFFE00070008000FFFFFFC0007FFF0000007FF8000003FFFF80007F
310
0001FFFFFF8000F8001FFFFFF8000FF8000001FFFE0000007FFFFFF0001FFFFF
310
FE0003FFFFFFE0003FFE0003FFFFFFE0003FFF0003FFFFFFFFC000FFFFFFE000
310
70008000FFFFFFC0007FFE0000007FF8000003FFFF80007F0001FFFFFF8000F0
310
001FFFFFF8000FF8000001FFFE0000007FFFFFF0001FFFFFFC0003FFFFFFE000
310
1FFC0003FFFFFFE0001FFF0003FFFFFFFFC000FFFFFFC00070008000FFFFFF80
310
007FFE0000007FF0000003FFFF80007F0001FFFFFF0000F0001FFFFFF8000FF8
310
000001FFFE0000007FFFFFF0001FFFFFFC0007FFFFFFF0001FFC0007FFFFFFF0
310
001FFF0003FFFFFFFFC000FFFFFFC00070008001FFFFFF0000FFFE0000003FF0
310
000001FFFF80007F0001FFFFFF0000F8001FFFFFF0000FF8000001FFFE000000
310
7FFFFFF0001FFFFFFC0007FFFFFFF0001FFC0007FFFFFFF0001FFF0003FFFFFF
310
FFC001FFFFFF80007000FFFFFFFFFE0000FFFE0008003FF0008001FFFF80007F
310
FFFFFFFFFC0000FFFFFFFFFFE0000FF8000001FFFE0000007FFFFFF0001FFFFF
310
F8000FFFFFFFF8000FF8000FFFFFFFF8000FFF0003FFFFFFFFFFFFFFFFFF0000
310
7000FFFFFFFFFC0000FFFC0008003FF0008001FFFF80007FFFFFFFFFF80001FF
310
FFFFFFFF80000FF8000001FFFE0000007FFFFFF0001FFFFFF8000FFFFFFFF800
310
0FF8000FFFFFFFF8000FFF0003FFFFFFFFFFFFFFFFFE0000F000FFFFFFFFE000
310
00FFFC000C003FE000C001FFFF80007FFFFFFFFFC00001FFFFFFFFFE00001FF8
310
000001FFFE0000007FFFFFF0001FFFFFF8000FFFFFFFF8000FF8000FFFFFFFF8
310
000FFF0003FFFFFFFFFFFFFFFFF00000F000FFFFFFFE000001FFFC000C001FE0
310
00C000FFFF80007FFFFFFFFE000001FFFFFFFFE000001FF80FFFFFFFFFFFFFC0
310
7FFFFFF0001FFFFFF8000FFFFFFFF8000FF8000FFFFFFFF8000FFF0003FFFFFF
310
FFFFFFFFFF800000F000FFFFFFC0000001FFFC001C001FE001C000FFFF80007F
310
FFFFFF80000003FFFFFFF80000001FF80FFFFFFFFFFFFFC07FFFFFF0001FFFFF
310
F8001FFFFFFFFC000FF8001FFFFFFFFC000FFF0003FFFFFFFFFFFFFFF0000001
310
F000FFFFF800000001FFF8001C001FE001C000FFFF80007FFFFFF800000003FF
310
FFFF800000003FF80FFFFFFFFFFFFFC07FFFFFF0001FFFFFF8001FFFFFFFFC00
310
0FF8001FFFFFFFFC000FFF0003FFFFFFFFFFFFFE00000001F000FFFFC0000000
310
03FFF8001E001FC001E000FFFF80007FFFFF8000000007FFFFFC000000003FF8
310
0FFFFFFFFFFFFFC07FFFFFF0001FFFFFF8001FFFFFFFFC000FF8001FFFFFFFFC
310
000FFF0003FFFFFFFFFFFFE000000003F000FFFE0000000007FFF8001E000FC0
310
01E0007FFF80007FFFFE0000000007FFFFE0000000007FF80FFFFFFFFFFFFFC0
310
7FFFFFF0001FFFFFF0001FFFFFFFFC0007F0001FFFFFFFFC0007FF0003FFFFFF
310
FFFFFF0000000003F000FFF80000000007FFF8001E000FC003E0007FFF80007F
310
FFF0000000000FFFFF8000000000FFF80FFFFFFFFFFFFFC07FFFFFF0001FFFFF
310
F0001FFFFFFFFC0007F0001FFFFFFFFC0007FF0003FFFFFFFFFFFC0000000007
310
F000FFE0000000000FFFF0003E000FC003E0007FFF80007FFFC0000000001FFF
310
FE0000000001FFF80FFFFFFFFFFFFFC07FFFFFF0001FFFFFF0001FFFFFFFFC00
310
07F0001FFFFFFFFC0007FF0003FFFFFFFFFFF0000000000FF000FFC000000000
310
1FFFF0003F000F8003F0003FFF80007FFF80000000003FFFF80000000003FFF8
310
0FFFFFFFFFFFFFC07FFFFFF0001FFFFFF0001FFFFFFFFC0007F0001FFFFFFFFC
310
0007FF0003FFFFFFFFFFE0000000001FF000FF00000000007FFFF0003F000780
310
03F0003FFF80007FFF00000000007FFFF00000000007FFF80FFFFFFFFFFFFFC0
310
7FFFFFF0001FFFFFF0001FFFFFFFFC0007F0001FFFFFFFFC0007FF0003FFFFFF
310
FFFF80000000007FF000FE0000000000FFFFE0003F00078007F0003FFF80007F
310
FE0000000001FFFFE0000000001FFFF80FFFFFFFFFFFFFC07FFFFFF0001FFFFF
310
F0001FFFFFFFFC0007F0001FFFFFFFFC0007FF0003FFFFFFFFFF0000000000FF
310
F000FC0000000003FFFFE0007F00078007F0003FFF80007FFC0000000007FFFF
310
C0000000007FFFF80FFFFFFFFFFFFFC07FFFFFF0001FFFFFF8001FFFFFFFFC00
310
0FF8001FFFFFFFFC000FFF0003FFFFFFFFFE0000000003FFF000FC000000000F
310
FFFFE0007F80070007F8001FFF80007FF8000000001FFFFF8000000001FFFFF8
310
0FFFFFFFFFFFFFC07FFFFFF0001FFFFFF8001FFFFFFFFC000FF8001FFFFFFFFC
310
000FFF0003FFFFFFFFFC000000000FFFF000F8000000007FFFFFE0007F800700
310
07F8001FFF80007FF000000000FFFFFF800000000FFFFFF80FFFFFFFFFFFFFC0
310
7FFFFFF0001FFFFFF8000FFFFFFFF8000FF8000FFFFFFFF8000FFF0003FFFFFF
310
FFFC000000007FFFF000F800000007FFFFFFC0007F8003000FF8001FFF80007F
310
F000000007FFFFFF000000007FFFFFF80FFFFFFFFFFFFFC07FFFFFF0001FFFFF
310
F8000FFFFFFFF8000FF8000FFFFFFFF8000FFF0003FFFFFFFFF80000000FFFFF
310
F000F0000000FFFFFFFFC000FF8003000FF8001FFF80007FE0000000FFFFFFFF
310
0000000FFFFFFFF8000001FFFE0000007FFFFFF0001FFFFFF8000FFFFFFFF800
310
0FF8000FFFFFFFF8000FFF0003FFFFFFFFF8000000FFFFFFF000F000000FFFFF
310
FFFFC000FFC002000FF8000FFF80007FE000001FFFFFFFFE000001FFFFFFFFF8
310
000001FFFE0000007FFFFFF0001FFFFFF8000FFFFFFFF8000FF8000FFFFFFFF8
310
000FFF0003FFFFFFFFF000001FFFFFFFF000E00000FFFFFFFFFFC000FFC00200
310
0FFC000FFF80007FE00001FFFFFFFFFE00001FFFFFFFFFF8000001FFFE000000
310
7FFFFFF0001FFFFFFC000FFFFFFFF8001FFC000FFFFFFFF8001FFF0003FFFFFF
310
FFF00001FFFFFFFFF000E00007FFFFFFFFFF8000FFC000001FFC000FFF80007F
310
C0000FFFFFFFFFFE0000FFFFFFFFFFF8000001FFFE0000007FFFFFF0001FFFFF
310
FC0007FFFFFFF0001FFC0007FFFFFFF0001FFF0003FFFFFFFFF00007FFFFFFFF
310
F000E0001FFFFFFFFFFF8000FFC000001FFC000FFF80007FC0003FFFFFFFFFFE
310
0001FFFFFFFFFFF8000001FFFE0000007FFFFFF0001FFFFFFC0007FFFFFFF000
310
1FFC0007FFFFFFF0001FFF0003FFFFFFFFF0001FFFFFFFFFF000E0003FFFFF00
310
03FF8001FFE000001FFC0007FF80007FC0007FFFFF0007FC0003FFFFF0003FF8
310
000001FFFE0000007FFFFFF0001FFFFFFC0003FFFFFFE0001FFC0003FFFFFFE0
310
001FFF0003FFFFFFFFF0003FFFFFFFFFF000E0003FFFFF0001FF8001FFE00000
310
1FFE0007FF80007FC0007FFFFE0003FC0007FFFFE0003FF8000001FFFE000000
310
7FFFFFF0001FFFFFFE0003FFFFFFE0003FFE0003FFFFFFE0003FFF0003FFFFFF
310
FFF0003FFFFF8001F000E0003FFFFF0001FF0001FFE000001FFE0007FF80007F
310
C0007FFFFE0003FC0007FFFFE0003FF8000001FFFE0000007FFFFFF0001FFFFF
310
FE0001FFFFFFC0003FFE0001FFFFFFC0003FFF0003FFFFFFFFF0003FFFFF0001
310
F000E0003FFFFF0003FF0001FFE000003FFE0007FF80007FC0007FFFFE0003FC
310
0007FFFFE0003FF8000001FFFE0000007FFFFFF0001FFFFFFF0001FFFFFFC000
310
7FFF0001FFFFFFC0007FFF0003FFFFFFFFF0003FFFFF0001F000E0003FFFFE00
310
03FF0003FFF000003FFE0003FF80007FC0007FFFFC0003FE0007FFFFE0003FF8
310
000001FFFE0000007FFFFFF0001FFFFFFF0000FFFFFF80007FFF0000FFFFFF80
310
007FFF0003FFFFFFFFF0003FFFFF0001F000E0003FFFFE0003FF0003FFF00000
310
3FFF0003FF80007FC0007FFFFC0007FE0007FFFFC0003FF8000001FFFE000000
310
7FFFFFF0001FFFFFFF80007FFFFF0000FFFF80007FFFFF0000FFFF0003FFFFFF
310
FFF0003FFFFF0003F000E0003FFFFC0003FE0003FFF000003FFF0003FF80007F
310
E0003FFFF80007FE0003FFFFC0007FF8000001FFFE0000007FFFFFF0001FFFFF
310
FF80003FFFFE0000FFFF80003FFFFE0000FFFF0003FFFFFFFFF0001FFFFE0003
310
F000F0001FFFF80003FE0003FFF000007FFF0001FF80007FE0003FFFF00007FE
310
0001FFFF80007FF8000001FFFE0000007FFFFFF0001FFFFFFFC0000FFFF80001
310
FFFFC0000FFFF80001FFFF0003FFFFFFFFF0001FFFFC0003F000F0000FFFF000
310
07FE0007FFF800007FFF0001FF80007FE0001FFFE00007FF0000FFFE00007FF8
310
000001FFFE0000007FFFFFF0001FFFFFFFC00003FFE00001FFFFC00003FFE000
310
01FFFF0003FFFFFFFFF8000FFFF80003F000F00003FFC00007FC0007FFF80000
310
7FFF8001FF80007FF00007FF80000FFF00007FF80000FFF8000001FFFE000000
310
7F80000000000001FFE000003E000003FFFFE000003E000003FFFF0003FFFFFF
310
FFF80003FFE00007F000F800000000000FFC0007FFF800007FFF8001FF80007F
310
F000000000000FFF000000000000FFF8000001FFFE0000007F80000000000001
310
FFF0000000000007FFFFF0000000000007FFFF0003FFFFFFFFFC00007E000007
310
F000F800000000000FFC0007FFF80000FFFF8000FF80007FF800000000001FFF
310
800000000001FFF8000001FFFE0000007F80000000000001FFF800000000000F
310
FFFFF800000000000FFFFF0003FFFFFFFFFC00000000000FF000FC0000000000
310
1FFC0007FFFC0000FFFF8000FF80007FF800000000003FFFC00000000001FFF8
310
000001FFFE0000007F80000000000001FFF800000000000FFFFFF80000000000
310
0FFFFF0003FFFFFFFFFE00000000001FF000FE00000000003FF8000FFFFC0000
310
FFFF8000FF80007FFC00000000003FFFC00000000003FFF8000001FFFE000000
310
7F80000000000001FFFC00000000001FFFFFFC00000000001FFFFF0003FFFFFF
310
FFFF00000000001FF000FF00000000003FF8000FFFFC0000FFFFC000FF80007F
310
FE00000000007FFFE00000000007FFF8000001FFFE0000007F80000000000001
310
FFFE00000000003FFFFFFE00000000003FFFFF0003FFFFFFFFFF80000000003F
310
F000FF80000000007FF8000FFFFC0001FFFFC0007F80007FFF0000000000FFFF
310
F0000000000FFFF800000000000000007F80000000000001FFFF8000000000FF
310
FFFFFF8000000000FFFFFF0003FFFFFFFFFFC0000000007FF000FFC000000000
310
FFF8000FFFFE0001FFFFC0007F80007FFF8000000001FFFFF8000000001FFFF8
310
00000000000000007F80000000000001FFFFC000000001FFFFFFFFC000000001
310
FFFFFF0003FFFFFFFFFFE000000000FFF000FFE000000003FFF0001FFFFE0001
310
FFFFC0007F80007FFFC000000007FFFFFE000000003FFFF80000000000000000
310
7F80000000000001FFFFE000000003FFFFFFFFE000000003FFFFFF0003FFFFFF
310
FFFFF000000003FFF000FFF80000000FFFF0001FFFFE0001FFFFE0007F80007F
310
FFF00000000FFFFFFF00000000FFFFF800000000000000007F80000000000001
310
FFFFF80000000FFFFFFFFFF80000000FFFFFFF0003FFFFFFFFFFFC0000000FFF
310
F000FFFE0000003FFFF0001FFFFE0003FFFFE0003F80007FFFFC0000003FFFFF
310
FFC0000003FFFFF800000000000000007F80000000000001FFFFFE0000003FFF
310
FFFFFFFE0000003FFFFFFF0003FFFFFFFFFFFF0000003FFFF000FFFF800000FF
310
FFF0001FFFFF0003FFFFE0003F80007FFFFF000001FFFFFFFFF800001FFFFFF8
310
00000000000000007F80000000000001FFFFFFC00001FFFFFFFFFFFFC00001FF
310
FFFFFF0003FFFFFFFFFFFFC00000FFFFF000FFFFF8000FFFFFFFFFFFFFFFFFFF
310
FFFFFFFFFFFFFFFFFFFFF0001FFFFFFFFFFF0000FFFFFFF80000000000000000
310
7FFFFFFFFFFFFFFFFFFFFFFC001FFFFFFFFFFFFFFC001FFFFFFFFFFFFFFFFFFF
310
FFFFFFFC001FFFFFF000FFFFFFFFFFFFFFFFFFFFFFFFFFFFFFFFFFFFFFFFFFFF
310
FFFFFFFFFFFFFFFFFFFFFFFFFFFFFFFFFFFFFFFFFFFFFFFFFFFFFFFFFFFFFFFF
310
FFFFFFFFFFFFFFFFFFFFFFFFFFFFFFFFFFFFFFFFFFFFFFFFFFFFFFFFFFFFFFFF
310
F000FFFFFFFFFFFFFFFFFFFFFFFFFFFFFFFFFFFFFFFFFFFFFFFFFFFFFFFFFFFF
310
FFFFFFFFFFFFFFFFFFFFFFFFFFFFFFFFFFFFFFFFFFFFFFFFFFFFFFFFFFFFFFFF
310
FFFFFFFFFFFFFFFFFFFFFFFFFFFFFFFFFFFFFFFFFFFFFFFFF000FFFFFFFFFFFF
310
FFFFFFFFFFFFFFFFFFFFFFFFFFFFFFFFFFFFFFFFFFFFFFFFFFFFFFFFFFFFFFFF
310
FFFFFFFFFFFFFFFFFFFFFFFFFFFFFFFFFFFFFFFFFFFFFFFFFFFFFFFFFFFFFFFF
310
FFFFFFFFFFFFFFFFFFFFFFFFFFFFFFFFF000FFFFFFFFFFFFFFFFFFFFFFFFFFFF
310
FFFFFFFFFFFFFFFFFFFFFFFFFFFFFFFFFFFFFFFFFFFFFFFFFFFFFFFFFFFFFFFF
310
FFFFFFFFFFFFFFFFFFFFFFFFFFFFFFFFFFFFFFFFFFFFFFFFFFFFFFFFFFFFFFFF
310
FFFFFFFFFFFFFFFFF000FFFFFFFFFFFFFFFFFFFFFFFFFFFFFFFFFFFFFFFFFFFF
310
FFFFFFFFFFFFFFFFFFFFFFFFFFFFFFFFFFFFFFFFFFFFFFFFFFFFFFFFFFFFFFFF
310
FFFFFFFFFFFFFFFFFFFFFFFFFFFFFFFFFFFFFFFFFFFFFFFFFFFFFFFFFFFFFFFF
310
F000FFFFFFFFFFFFFFFFFFFFFFFFFFFFFFFFFFFFFFFFFFFFFFFFFFFFFFFFFFFF
310
FFFFFFFFFFFFFFFFFFFFFFFFFFFFFFFFFFFFFFFFFFFFFFFFFFFFFFFFFFFFFFFF
310
FFFFFFFFFFFFFFFFFFFFFFFFFFFFFFFFFFFFFFFFFFFFFFFFF000FFFFFFFFFFFF
310
FFFFFFFFFFFFFFFFFFFFFFFFFFFFFFFFFFFFFFFFFFFFFFFFFFFFFFFFFFFFFFFF
310
FFFFFFFFFFFFFFFFFFFFFFFFFFFFFFFFFFFFFFFFFFFFFFFFFFFFFFFFFFFFFFFF
310
FFFFFFFFFFFFFFFFFFFFFFFFFFFFFFFFF000FFFFFFFFFFFFFFFFFFFFFFFFFFFF
310
FFFFFFFFFFFFFFFFFFFFFFFFFFFFFFFFFFFFFFFFFFFFFFFFFFFFFFFFFFFFFFFF
310
FFFFFFFFFFFFFFFFFFFFFFFFFFFFFFFFFFFFFFFFFFFFFFFFFFFFFFFFFFFFFFFF
310
FFFFFFFFFFFFFFFFF000FFFFFFFFFFFFFFFFFFFFFFFFFFFFFFFFFFFFFFFFFFFF
310
FFFFFFFFFFFFFFFFFFFFFFFFFFFFFFFFFFFFFFFFFFFFFFFFFFFFFFFFFFFFFFFF
310
FFFFFFFFFFFFFFFFFFFFFFFFFFFFFFFFFFFFFFFFFFFFFFFFFFFFFFFFFFFFFFFF
310
F000FFFFFFFFFFFFFFFFFFFFFFFFFFFFFFFFFFFFFFFFFFFFFFFFFFFFFFFFFFFF
310
FFFFFFFFFFFFFFFFFFFFFFFFFFFFFFFFFFFFFFFFFFFFFFFFFFFFFFFFFFFFFFFF
310
FFFFFFFFFFFFFFFFFFFFFFFFFFFFFFFFFFFFFFFFFFFFFFFFF000FFFFFFFFFFFF
310
FFFFFFFFFFFFFFFFFFFFFFFFFFFFFFFFFFFFFFFFFFFFFFFFFFFFFFFFFFFFFFFF
310
FFFFFFFFFFFFFFFFFFFFFFFFFFFFFFFFFFFFFFFFFFFFFFFFFFFFFFFFFFFFFFFF
310
FFFFFFFFFFFFFFFFFFFFFFFFFFFFFFFFF000FFFFFFFFFFFFFFFFFFFFFFFFFFFF
310
FFFFFFFFFFFFFFFFFFFFFFFFFFFFFFFFFFFFFFFFFFFFFFFFFFFFFFFFFFFFFFFF
310
FFFFFFFFFFFFFFFFFFFFFFFFFFFFFFFFFFFFFFFFFFFFFFFFFFFFFFFFFFFFFFFF
310
FFFFFFFFFFFFFFFFF000FFFFFFFFFFFFFFFFFFFFFFFFFFFFFFFFFFFFFFFFFFFF
310
FFFFFFFFFFFFFFFFFFFFFFFFFFFFFFFFFFFFFFFFFFFFFFFFFFFFFFFFFFFFFFFF
310
FFFFFFFFFFFFFFFFFFFFFFFFFFFFFFFFFFFFFFFFFFFFFFFFFFFFFFFFFFFFFFFF
310
F000FFFFFFFFFFFFFFFFFFFFFFFFFFFFFFFFFFFFFFFFFFFFFFFFFFFFFFFFFFFF
310
FFFFFFFFFFFFFFFFFFFFFFFFFFFFFFFFFFFFFFFFFFFFFFFFFFFFFFFFFFFFFFFF
310
FFFFFFFFFFFFFFFFFFFFFFFFFFFFFFFFFFFFFFFFFFFFFFFFF000FFFFFFFFFFFF
310
FFFFFFFFFFFFFFFFFFFFFFFFFFFFFFFFFFFFFFFFFFFFFFFFFFFFFFFFFFFFFFFF
310
FFFFFFFFFFFFFFFFFFFFFFFFFFFFFFFFFFFFFFFFFFFFFFFFFFFFFFFFFFFFFFFF
310
FFFFFFFFFFFFFFFFFFFFFFFFFFFFFFFFF000FFFFFFFFFFFFFFFFFFFFFFFFFFFF
310
FFFFFFFFFFFFFFFFFFFFFFFFFFFFFFFFFFFFFFFFFFFFFFFFFFFFFFFFFFFFFFFF
310
FFFFFFFFFFFFFFFFFFFFFFFFFFFFFFFFFFFFFFFFFFFFFFFFFFFFFFFFFFFFFFFF
310
FFFFFFFFFFFFFFFFF000FFFFFFFFFFFFFFFFFFFFFFFFFFFFFFFFFFFFFFFFFFFF
310
FFFFFFFFFFFFFFFFFFFFFFFFFFFFFFFFFFFFFFFFFFFFFFFFFFFFFFFFFFFFFFFF
310
FFFFFFFFFFFFFFFFFFFFFFFFFFFFFFFFFFFFFFFFFFFFFFFFFFFFFFFFFFFFFFFF
310
F000FFFFFFFFFFFFFFFFFFFFFFFFFFFFFFFFFFFFFFFFFFFFFFFFFFFFFFFFFFFF
310
FFFFFFFFFFFFFFFFFFFFFFFFFFFFFFFFFFFFFFFFFFFFFFFFFFFFFFFFFFFFFFFF
310
FFFFFFFFFFFFFFFFFFFFFFFFFFFFFFFFFFFFFFFFFFFFFFFFF000FFFFFFFFFFFF
310
FFFFFFFFFFFFFFFFFFFFFFFFFFFFFFFFFFFFFFFFFFFFFFFFFFFFFFFFFFFFFFFF
310
FFFFFFFFFFFFFFFFFFFFFFFFFFFFFFFFFFFFFFFFFFFFFFFFFFFFFFFFFFFFFFFF
310
FFFFFFFFFFFFFFFFFFFFFFFFFFFFFFFFF000FFFFFFFFFFFFFFFFFFFFFFFFFFFF
310
FFFFFFFFFFFFFFFFFFFFFFFFFFFFFFFFFFFFFFFFFFFFFFFFFFFFFFFFFFFFFFFF
310
FFFFFFFFFFFFFFFFFFFFFFFFFFFFFFFFFFFFFFFFFFFFFFFFFFFFFFFFFFFFFFFF
310
FFFFFFFFFFFFFFFFF000FFFFFFFFFFFFFFFFFFFFFFFFFFFFFFFFFFFFFFFFFFFF
310
FFFFFFFFFFFFFFFFFFFFFFFFFFFFFFFFFFFFFFFFFFFFFFFFFFFFFFFFFFFFFFFF
310
FFFFFFFFFFFFFFFFFFFFFFFFFFFFFFFFFFFFFFFFFFFFFFFFFFFFFFFFFFFFFFFF
310
F000FFFFFFFFFFFFFFFFFFFFFFFFFFFFFFFFFFFFFFFFFFFFFFFFFFFFFFFFFFFF
310
FFFFFFFFFFFFFFFFFFFFFFFFFFFFFFFFFFFFFFFFFFFFFFFFFFFFFFFFFFFFFFFF
310
FFFFFFFFFFFFFFFFFFFFFFFFFFFFFFFFFFFFFFFFFFFFFFFFF000FFFFFFFFFFFF
310
FFFFFFFFFFFFFFFFFFFFFFFFFFFFFFFFFFFFFFFFFFFFFFFFFFFFFFFFFFFFFFFF
310
FFFFFFFFFFFFFFFFFFFFFFFFFFFFFFFFFFFFFFFFFFFFFFFFFFFFFFFFFFFFFFFF
310
FFFFFFFFFFFFFFFFFFFFFFFFFFFFFFFFF0000000000000000000000000000000
310
0000000000000000000000000000000000000000000000000000000000000000
310
0000000000000000000000000000000000000000000000000000000000000000
310
0000000000000000000000000000000000000000000000000000000000000000
310
0000000000000000000000000000000000000000000000000000000000000000
310
0000000000000000000000000000000000000000000000000000000000000000
310
0000000000000000000000000000000000000000000000000000000000000000
310
0000000000000000000000000000000000000000000000000000000000000000
310
0000000000000000000000000000000000000000000000000000000000000000
310
0000000000000000000000000000000000000000000000000000000000000000
310
0000000000000000000000000000000000000000000000000000000000000000
310
0000000000000000000000000000000000000000000000000000000000000000
310
0000000000000000000000000000000000000000000000000000000000000000
310
0000000000000000000000000000000000000000000000000000000000000000
310
0000000000000000000000000000000000000000000000000000000000000000
310
0000000000000000000000000000000000000000000000000000000000000000
  1
OLE
  0
ENDSEC
  0
SECTION
  2
OBJECTS
  0
DICTIONARY
  5
C
330
0
100
AcDbDictionary
281
     1
  3
ACAD_GROUP
350
D
  3
ACAD_LAYOUT
350
1A
  3
ACAD_MLINESTYLE
350
17
  3
ACAD_PLOTSETTINGS
350
19
  3
ACAD_PLOTSTYLENAME
350
E
  3
ACAD_SCALELIST
350
47
  0
DICTIONARY
  5
D
102
{ACAD_REACTORS
330
C
102
}
330
C
100
AcDbDictionary
281
     1
  0
DICTIONARY
  5
1A
102
{ACAD_REACTORS
330
C
102
}
330
C
100
AcDbDictionary
281
     1
  3
Layout1
350
1E
  3
Layout2
350
26
  3
Model
350
22
  0
DICTIONARY
  5
17
102
{ACAD_REACTORS
330
C
102
}
330
C
100
AcDbDictionary
281
     1
  3
Standard
350
18
  0
DICTIONARY
  5
19
102
{ACAD_REACTORS
330
C
102
}
330
C
100
AcDbDictionary
281
     1
  0
ACDBDICTIONARYWDFLT
  5
E
102
{ACAD_REACTORS
330
C
102
}
330
C
100
AcDbDictionary
281
     1
  3
Normal
350
F
100
AcDbDictionaryWithDefault
340
F
  0
DICTIONARY
  5
47
102
{ACAD_REACTORS
330
C
102
}
330
C
100
AcDbDictionary
281
     1
  3
A0
350
48
  3
A1
350
49
  3
A2
350
4A
  3
A3
350
4B
  3
A4
350
4C
  3
A5
350
4D
  3
A6
350
4E
  3
A7
350
4F
  3
A8
350
50
  3
A9
350
51
  3
B0
350
52
  3
B1
350
53
  3
B2
350
54
  3
B3
350
55
  3
B4
350
56
  3
B5
350
57
  3
B6
350
58
  3
B7
350
59
  3
B8
350
5A
  3
B9
350
5B
  3
C0
350
5C
  3
C1
350
5D
  3
C2
350
5E
  3
C3
350
5F
  3
C4
350
60
  3
C5
350
61
  3
C6
350
62
  3
C7
350
63
  3
C8
350
64
  3
C9
350
65
  3
D0
350
66
  3
D1
350
67
  3
D2
350
68
  0
LAYOUT
  5
1E
102
{ACAD_REACTORS
330
1A
102
}
330
1A
100
AcDbPlotSettings
  1

  2
none_device
  4

  6

 40
0.0
 41
0.0
 42
0.0
 43
0.0
 44
0.0
 45
0.0
 46
0.0
 47
0.0
 48
0.0
 49
0.0
140
0.0
141
0.0
142
1.0
143
1.0
 70
   688
 72
     1
 73
     0
 74
     5
  7

 75
    16
147
1.0
148
0.0
149
0.0
100
AcDbLayout
  1
Layout1
 70
     1
 71
     1
 10
0.0
 20
0.0
 11
420.0
 21
297.0
 12
0.0
 22
0.0
 32
0.0
 14
1.0000000000E+20
 24
1.0000000000E+20
 34
1.0000000000E+20
 15
-1.0000000000E+20
 25
-1.0000000000E+20
 35
-1.0000000000E+20
146
0.0
 13
0.0
 23
0.0
 33
0.0
 16
1.0
 26
0.0
 36
0.0
 17
0.0
 27
1.0
 37
0.0
 76
     0
330
1B
  0
LAYOUT
  5
26
102
{ACAD_REACTORS
330
1A
102
}
330
1A
100
AcDbPlotSettings
  1

  2
none_device
  4

  6

 40
0.0
 41
0.0
 42
0.0
 43
0.0
 44
0.0
 45
0.0
 46
0.0
 47
0.0
 48
0.0
 49
0.0
140
0.0
141
0.0
142
1.0
143
1.0
 70
   688
 72
     1
 73
     0
 74
     5
  7

 75
    16
147
1.0
148
0.0
149
0.0
100
AcDbLayout
  1
Layout2
 70
     1
 71
     2
 10
0.0
 20
0.0
 11
0.0
 21
0.0
 12
0.0
 22
0.0
 32
0.0
 14
0.0
 24
0.0
 34
0.0
 15
0.0
 25
0.0
 35
0.0
146
0.0
 13
0.0
 23
0.0
 33
0.0
 16
1.0
 26
0.0
 36
0.0
 17
0.0
 27
1.0
 37
0.0
 76
     0
330
23
  0
LAYOUT
  5
22
102
{ACAD_REACTORS
330
1A
102
}
330
1A
100
AcDbPlotSettings
  1

  2
none_device
  4
Letter_(8.50_x_11.00_Inches)
  6

 40
6.35
 41
6.35
 42
6.35000508
 43
6.35000508
 44
215.9
 45
279.4
 46
0.0
 47
0.0
 48
0.0
 49
0.0
140
0.0
141
0.0
142
1.0
143
1.0
 70
  1712
 72
     1
 73
     0
 74
     0
  7

 75
     0
147
1.0
148
0.0
149
0.0
100
AcDbLayout
  1
Model
 70
     1
 71
     0
 10
0.0
 20
0.0
 11
297.0
 21
210.0
 12
0.0
 22
0.0
 32
0.0
 14
0.0
 24
0.0
 34
0.0
 15
297.0
 25
210.0
 35
0.0
146
0.0
 13
0.0
 23
0.0
 33
0.0
 16
1.0
 26
0.0
 36
0.0
 17
0.0
 27
1.0
 37
0.0
 76
     0
330
1F
331
29
  0
MLINESTYLE
  5
18
102
{ACAD_REACTORS
330
17
102
}
330
17
100
AcDbMlineStyle
  2
Standard
 70
     0
  3

 62
   256
 51
90.0
 52
90.0
 71
     2
 49
0.5
 62
   256
  6
BYLAYER
 49
-0.5
 62
   256
  6
BYLAYER
  0
ACDBPLACEHOLDER
  5
F
102
{ACAD_REACTORS
330
E
102
}
330
E
  0
SCALE
  5
48
102
{ACAD_REACTORS
330
47
102
}
330
47
100
AcDbScale
 70
     0
300
1:1
140
1.0
141
1.0
290
     1
  0
SCALE
  5
49
102
{ACAD_REACTORS
330
47
102
}
330
47
100
AcDbScale
 70
     0
300
1:2
140
1.0
141
2.0
290
     0
  0
SCALE
  5
4A
102
{ACAD_REACTORS
330
47
102
}
330
47
100
AcDbScale
 70
     0
300
1:4
140
1.0
141
4.0
290
     0
  0
SCALE
  5
4B
102
{ACAD_REACTORS
330
47
102
}
330
47
100
AcDbScale
 70
     0
300
1:5
140
1.0
141
5.0
290
     0
  0
SCALE
  5
4C
102
{ACAD_REACTORS
330
47
102
}
330
47
100
AcDbScale
 70
     0
300
1:8
140
1.0
141
8.0
290
     0
  0
SCALE
  5
4D
102
{ACAD_REACTORS
330
47
102
}
330
47
100
AcDbScale
 70
     0
300
1:10
140
1.0
141
10.0
290
     0
  0
SCALE
  5
4E
102
{ACAD_REACTORS
330
47
102
}
330
47
100
AcDbScale
 70
     0
300
1:16
140
1.0
141
16.0
290
     0
  0
SCALE
  5
4F
102
{ACAD_REACTORS
330
47
102
}
330
47
100
AcDbScale
 70
     0
300
1:20
140
1.0
141
20.0
290
     0
  0
SCALE
  5
50
102
{ACAD_REACTORS
330
47
102
}
330
47
100
AcDbScale
 70
     0
300
1:30
140
1.0
141
30.0
290
     0
  0
SCALE
  5
51
102
{ACAD_REACTORS
330
47
102
}
330
47
100
AcDbScale
 70
     0
300
1:40
140
1.0
141
40.0
290
     0
  0
SCALE
  5
52
102
{ACAD_REACTORS
330
47
102
}
330
47
100
AcDbScale
 70
     0
300
1:50
140
1.0
141
50.0
290
     0
  0
SCALE
  5
53
102
{ACAD_REACTORS
330
47
102
}
330
47
100
AcDbScale
 70
     0
300
1:100
140
1.0
141
100.0
290
     0
  0
SCALE
  5
54
102
{ACAD_REACTORS
330
47
102
}
330
47
100
AcDbScale
 70
     0
300
2:1
140
2.0
141
1.0
290
     0
  0
SCALE
  5
55
102
{ACAD_REACTORS
330
47
102
}
330
47
100
AcDbScale
 70
     0
300
4:1
140
4.0
141
1.0
290
     0
  0
SCALE
  5
56
102
{ACAD_REACTORS
330
47
102
}
330
47
100
AcDbScale
 70
     0
300
8:1
140
8.0
141
1.0
290
     0
  0
SCALE
  5
57
102
{ACAD_REACTORS
330
47
102
}
330
47
100
AcDbScale
 70
     0
300
10:1
140
10.0
141
1.0
290
     0
  0
SCALE
  5
58
102
{ACAD_REACTORS
330
47
102
}
330
47
100
AcDbScale
 70
     0
300
100:1
140
100.0
141
1.0
290
     0
  0
SCALE
  5
59
102
{ACAD_REACTORS
330
47
102
}
330
47
100
AcDbScale
 70
     0
300
1/128" = 1'-0"
140
0.0078125
141
12.0
290
     0
  0
SCALE
  5
5A
102
{ACAD_REACTORS
330
47
102
}
330
47
100
AcDbScale
 70
     0
300
1/64" = 1'-0"
140
0.015625
141
12.0
290
     0
  0
SCALE
  5
5B
102
{ACAD_REACTORS
330
47
102
}
330
47
100
AcDbScale
 70
     0
300
1/32" = 1'-0"
140
0.03125
141
12.0
290
     0
  0
SCALE
  5
5C
102
{ACAD_REACTORS
330
47
102
}
330
47
100
AcDbScale
 70
     0
300
1/16" = 1'-0"
140
0.0625
141
12.0
290
     0
  0
SCALE
  5
5D
102
{ACAD_REACTORS
330
47
102
}
330
47
100
AcDbScale
 70
     0
300
3/32" = 1'-0"
140
0.09375
141
12.0
290
     0
  0
SCALE
  5
5E
102
{ACAD_REACTORS
330
47
102
}
330
47
100
AcDbScale
 70
     0
300
1/8" = 1'-0"
140
0.125
141
12.0
290
     0
  0
SCALE
  5
5F
102
{ACAD_REACTORS
330
47
102
}
330
47
100
AcDbScale
 70
     0
300
3/16" = 1'-0"
140
0.1875
141
12.0
290
     0
  0
SCALE
  5
60
102
{ACAD_REACTORS
330
47
102
}
330
47
100
AcDbScale
 70
     0
300
1/4" = 1'-0"
140
0.25
141
12.0
290
     0
  0
SCALE
  5
61
102
{ACAD_REACTORS
330
47
102
}
330
47
100
AcDbScale
 70
     0
300
3/8" = 1'-0"
140
0.375
141
12.0
290
     0
  0
SCALE
  5
62
102
{ACAD_REACTORS
330
47
102
}
330
47
100
AcDbScale
 70
     0
300
1/2" = 1'-0"
140
0.5
141
12.0
290
     0
  0
SCALE
  5
63
102
{ACAD_REACTORS
330
47
102
}
330
47
100
AcDbScale
 70
     0
300
3/4" = 1'-0"
140
0.75
141
12.0
290
     0
  0
SCALE
  5
64
102
{ACAD_REACTORS
330
47
102
}
330
47
100
AcDbScale
 70
     0
300
1" = 1'-0"
140
1.0
141
12.0
290
     0
  0
SCALE
  5
65
102
{ACAD_REACTORS
330
47
102
}
330
47
100
AcDbScale
 70
     0
300
1-1/2" = 1'-0"
140
1.5
141
12.0
290
     0
  0
SCALE
  5
66
102
{ACAD_REACTORS
330
47
102
}
330
47
100
AcDbScale
 70
     0
300
3" = 1'-0"
140
3.0
141
12.0
290
     0
  0
SCALE
  5
67
102
{ACAD_REACTORS
330
47
102
}
330
47
100
AcDbScale
 70
     0
300
6" = 1'-0"
140
6.0
141
12.0
290
     0
  0
SCALE
  5
68
102
{ACAD_REACTORS
330
47
102
}
330
47
100
AcDbScale
 70
     0
300
1'-0" = 1'-0"
140
12.0
141
12.0
290
     0
  0
ENDSEC
  0
EOF
