  0
SECTION
  2
HEADER
  9
$ACADVER
  1
AC1015
  9
$ACADMAINTVER
 70
     6
  9
$DWGCODEPAGE
  3
ANSI_1252
  9
$INSBASE
 10
0.0
 20
0.0
 30
0.0
  9
$EXTMIN
 10
0.0
 20
0.0
 30
0.0
  9
$EXTMAX
 10
297.0
 20
210.0
 30
0.0
  9
$LIMMIN
 10
0.0
 20
0.0
  9
$LIMMAX
 10
297.0
 20
210.0
  9
$ORTHOMODE
 70
     0
  9
$REGENMODE
 70
     1
  9
$FILLMODE
 70
     1
  9
$QTEXTMODE
 70
     0
  9
$MIRRTEXT
 70
     1
  9
$LTSCALE
 40
1.0
  9
$ATTMODE
 70
     1
  9
$TEXTSIZE
 40
2.0
  9
$TRACEWID
 40
1.0
  9
$TEXTSTYLE
  7
Standard
  9
$CLAYER
  8
0
  9
$CELTYPE
  6
ByLayer
  9
$CECOLOR
 62
   256
  9
$CELTSCALE
 40
1.0
  9
$DISPSILH
 70
     0
  9
$DIMSCALE
 40
1.0
  9
$DIMASZ
 40
3.0
  9
$DIMEXO
 40
0.0
  9
$DIMDLI
 40
3.75
  9
$DIMRND
 40
0.0
  9
$DIMDLE
 40
0.0
  9
$DIMEXE
 40
1.0
  9
$DIMTP
 40
0.0
  9
$DIMTM
 40
0.0
  9
$DIMTXT
 40
2.0
  9
$DIMCEN
 40
2.5
  9
$DIMTSZ
 40
0.0
  9
$DIMTOL
 70
     0
  9
$DIMLIM
 70
     0
  9
$DIMTIH
 70
     1
  9
$DIMTOH
 70
     1
  9
$DIMSE1
 70
     0
  9
$DIMSE2
 70
     0
  9
$DIMTAD
 70
     1
  9
$DIMZIN
 70
     0
  9
$DIMBLK
  1

  9
$DIMASO
 70
     1
  9
$DIMSHO
 70
     1
  9
$DIMPOST
  1

  9
$DIMAPOST
  1

  9
$DIMALT
 70
     0
  9
$DIMALTD
 70
     3
  9
$DIMALTF
 40
0.0393700787
  9
$DIMLFAC
 40
1.0
  9
$DIMTOFL
 70
     1
  9
$DIMTVP
 40
0.0
  9
$DIMTIX
 70
     0
  9
$DIMSOXD
 70
     0
  9
$DIMSAH
 70
     0
  9
$DIMBLK1
  1

  9
$DIMBLK2
  1

  9
$DIMSTYLE
  2
ISO-25
  9
$DIMCLRD
 70
     0
  9
$DIMCLRE
 70
     0
  9
$DIMCLRT
 70
     0
  9
$DIMTFAC
 40
1.0
  9
$DIMGAP
 40
1.524
  9
$DIMJUST
 70
     0
  9
$DIMSD1
 70
     0
  9
$DIMSD2
 70
     0
  9
$DIMTOLJ
 70
     0
  9
$DIMTZIN
 70
     0
  9
$DIMALTZ
 70
     0
  9
$DIMALTTZ
 70
     0
  9
$DIMUPT
 70
     0
  9
$DIMDEC
 70
     2
  9
$DIMTDEC
 70
     3
  9
$DIMALTU
 70
     2
  9
$DIMALTTD
 70
     3
  9
$DIMTXSTY
  7
Standard
  9
$DIMAUNIT
 70
     0
  9
$DIMADEC
 70
     2
  9
$DIMALTRND
 40
0.0
  9
$DIMAZIN
 70
     0
  9
$DIMDSEP
 70
    44
  9
$DIMATFIT
 70
     3
  9
$DIMFRAC
 70
     0
  9
$DIMLDRBLK
  1

  9
$DIMLUNIT
 70
     2
  9
$DIMLWD
 70
    -2
  9
$DIMLWE
 70
    -2
  9
$DIMTMOVE
 70
     0
  9
$LUNITS
 70
     2
  9
$LUPREC
 70
     2
  9
$SKETCHINC
 40
1.0
  9
$FILLETRAD
 40
10.0
  9
$AUNITS
 70
     0
  9
$AUPREC
 70
     2
  9
$MENU
  1
.
  9
$ELEVATION
 40
0.0
  9
$PELEVATION
 40
0.0
  9
$THICKNESS
 40
0.0
  9
$LIMCHECK
 70
     0
  9
$CHAMFERA
 40
0.0
  9
$CHAMFERB
 40
0.0
  9
$CHAMFERC
 40
0.0
  9
$CHAMFERD
 40
0.0
  9
$SKPOLY
 70
     0
  9
$TDCREATE
 40
2457583.593509502
  9
$TDUCREATE
 40
2457583.510176169
  9
$TDUPDATE
 40
2457583.593510428
  9
$TDUUPDATE
 40
2457583.510177095
  9
$TDINDWG
 40
0.0000000116
  9
$TDUSRTIMER
 40
0.0000000116
  9
$USRTIMER
 70
     1
  9
$ANGBASE
 50
0.0
  9
$ANGDIR
 70
     0
  9
$PDMODE
 70
     0
  9
$PDSIZE
 40
-1.0
  9
$PLINEWID
 40
0.0
  9
$SPLFRAME
 70
     0
  9
$SPLINETYPE
 70
     6
  9
$SPLINESEGS
 70
     8
  9
$HANDSEED
  5
140
  9
$SURFTAB1
 70
     6
  9
$SURFTAB2
 70
     6
  9
$SURFTYPE
 70
     6
  9
$SURFU
 70
     6
  9
$SURFV
 70
     6
  9
$UCSBASE
  2

  9
$UCSNAME
  2

  9
$UCSORG
 10
0.0
 20
0.0
 30
0.0
  9
$UCSXDIR
 10
1.0
 20
0.0
 30
0.0
  9
$UCSYDIR
 10
0.0
 20
1.0
 30
0.0
  9
$UCSORTHOREF
  2

  9
$UCSORTHOVIEW
 70
     0
  9
$UCSORGTOP
 10
0.0
 20
0.0
 30
0.0
  9
$UCSORGBOTTOM
 10
0.0
 20
0.0
 30
0.0
  9
$UCSORGLEFT
 10
0.0
 20
0.0
 30
0.0
  9
$UCSORGRIGHT
 10
0.0
 20
0.0
 30
0.0
  9
$UCSORGFRONT
 10
0.0
 20
0.0
 30
0.0
  9
$UCSORGBACK
 10
0.0
 20
0.0
 30
0.0
  9
$PUCSBASE
  2

  9
$PUCSNAME
  2

  9
$PUCSORG
 10
0.0
 20
0.0
 30
0.0
  9
$PUCSXDIR
 10
1.0
 20
0.0
 30
0.0
  9
$PUCSYDIR
 10
0.0
 20
1.0
 30
0.0
  9
$PUCSORTHOREF
  2

  9
$PUCSORTHOVIEW
 70
     0
  9
$PUCSORGTOP
 10
0.0
 20
0.0
 30
0.0
  9
$PUCSORGBOTTOM
 10
0.0
 20
0.0
 30
0.0
  9
$PUCSORGLEFT
 10
0.0
 20
0.0
 30
0.0
  9
$PUCSORGRIGHT
 10
0.0
 20
0.0
 30
0.0
  9
$PUCSORGFRONT
 10
0.0
 20
0.0
 30
0.0
  9
$PUCSORGBACK
 10
0.0
 20
0.0
 30
0.0
  9
$USERI1
 70
     0
  9
$USERI2
 70
     0
  9
$USERI3
 70
     0
  9
$USERI4
 70
     0
  9
$USERI5
 70
     0
  9
$USERR1
 40
0.0
  9
$USERR2
 40
0.0
  9
$USERR3
 40
0.0
  9
$USERR4
 40
0.0
  9
$USERR5
 40
0.0
  9
$WORLDVIEW
 70
     1
  9
$SHADEDGE
 70
     3
  9
$SHADEDIF
 70
    70
  9
$TILEMODE
 70
     1
  9
$MAXACTVP
 70
    64
  9
$PINSBASE
 10
0.0
 20
0.0
 30
0.0
  9
$PLIMCHECK
 70
     0
  9
$PEXTMIN
 10
1.0000000000E+20
 20
1.0000000000E+20
 30
1.0000000000E+20
  9
$PEXTMAX
 10
-1.0000000000E+20
 20
-1.0000000000E+20
 30
-1.0000000000E+20
  9
$PLIMMIN
 10
0.0
 20
0.0
  9
$PLIMMAX
 10
420.0
 20
297.0
  9
$UNITMODE
 70
     0
  9
$VISRETAIN
 70
     1
  9
$PLINEGEN
 70
     0
  9
$PSLTSCALE
 70
     1
  9
$TREEDEPTH
 70
  3020
  9
$CMLSTYLE
  2
Standard
  9
$CMLJUST
 70
     0
  9
$CMLSCALE
 40
20.0
  9
$PROXYGRAPHICS
 70
     1
  9
$MEASUREMENT
 70
     1
  9
$CELWEIGHT
370
    -1
  9
$ENDCAPS
280
     0
  9
$JOINSTYLE
280
     0
  9
$LWDISPLAY
290
     1
  9
$INSUNITS
 70
     4
  9
$HYPERLINKBASE
  1

  9
$STYLESHEET
  1

  9
$XEDIT
290
     1
  9
$CEPSNTYPE
380
     0
  9
$PSTYLEMODE
290
     1
  9
$FINGERPRINTGUID
  2
{78191FCE-DF66-4D85-ADF2-7F54F36DF812}
  9
$VERSIONGUID
  2
{FAEB1C32-E019-11D5-929B-00C0DF256EC4}
  9
$EXTNAMES
290
     1
  9
$PSVPSCALE
 40
0.0
  9
$OLESTARTUP
290
     0
  0
ENDSEC
  0
SECTION
  2
CLASSES
  0
CLASS
  1
ACDBDICTIONARYWDFLT
  2
AcDbDictionaryWithDefault
  3
ObjectDBX Classes
 90
        0
280
     0
281
     0
  0
CLASS
  1
VISUALSTYLE
  2
AcDbVisualStyle
  3
ObjectDBX Classes
 90
     4095
280
     0
281
     0
  0
CLASS
  1
MATERIAL
  2
AcDbMaterial
  3
ObjectDBX Classes
 90
     1153
280
     0
281
     0
  0
CLASS
  1
SCALE
  2
AcDbScale
  3
ObjectDBX Classes
 90
     1153
280
     0
281
     0
  0
CLASS
  1
TABLESTYLE
  2
AcDbTableStyle
  3
ObjectDBX Classes
 90
     4095
280
     0
281
     0
  0
CLASS
  1
MLEADERSTYLE
  2
AcDbMLeaderStyle
  3
ACDB_MLEADERSTYLE_CLASS
 90
     4095
280
     0
281
     0
  0
CLASS
  1
SUN
  2
AcDbSun
  3
SCENEOE
 90
     1153
280
     0
281
     0
  0
CLASS
  1
ACDBPLACEHOLDER
  2
AcDbPlaceHolder
  3
ObjectDBX Classes
 90
        0
280
     0
281
     0
  0
CLASS
  1
LAYOUT
  2
AcDbLayout
  3
ObjectDBX Classes
 90
        0
280
     0
281
     0
  0
ENDSEC
  0
SECTION
  2
TABLES
  0
TABLE
  2
VPORT
  5
8
330
0
100
AcDbSymbolTable
 70
     1
  0
VPORT
  5
29
330
8
100
AcDbSymbolTableRecord
100
AcDbViewportTableRecord
  2
*Active
 70
     0
 10
0.0
 20
0.0
 11
1.0
 21
1.0
 12
148.5
 22
105.0
 13
0.0
 23
0.0
 14
10.0
 24
10.0
 15
10.0
 25
10.0
 16
0.0
 26
0.0
 36
1.0
 17
0.0
 27
0.0
 37
0.0
 40
210.0
 41
1.4142857143
 42
50.0
 43
0.0
 44
0.0
 50
0.0
 51
0.0
 71
     0
 72
  2000
 73
     1
 74
     3
 75
     0
 76
     0
 77
     0
 78
     0
281
     0
 65
     1
110
0.0
120
0.0
130
0.0
111
1.0
121
0.0
131
0.0
112
0.0
122
1.0
132
0.0
 79
     0
146
0.0
  0
ENDTAB
  0
TABLE
  2
LTYPE
  5
5
330
0
100
AcDbSymbolTable
 70
     6
  0
LTYPE
  5
14
330
5
100
AcDbSymbolTableRecord
100
AcDbLinetypeTableRecord
  2
ByBlock
 70
     0
  3

 72
    65
 73
     0
 40
0.0
  0
LTYPE
  5
15
330
5
100
AcDbSymbolTableRecord
100
AcDbLinetypeTableRecord
  2
ByLayer
 70
     0
  3

 72
    65
 73
     0
 40
0.0
  0
LTYPE
  5
16
330
5
100
AcDbSymbolTableRecord
100
AcDbLinetypeTableRecord
  2
Continuous
 70
     0
  3
Solid line
 72
    65
 73
     0
 40
0.0
  0
LTYPE
  5
6E
330
5
100
AcDbSymbolTableRecord
100
AcDbLinetypeTableRecord
  2
HIDDEN
 70
     0
  3
Hidden __ __ __ __ __ __ __ __ __ __ __ __ __ __
 72
    65
 73
     2
 40
1.905
 49
1.27
 74
     0
 49
-0.635
 74
     0
  0
LTYPE
  5
6F
330
5
100
AcDbSymbolTableRecord
100
AcDbLinetypeTableRecord
  2
PHANTOM
 70
     0
  3
Phantom ______  __  __  ______  __  __  ______
 72
    65
 73
     6
 40
12.7
 49
6.35
 74
     0
 49
-1.27
 74
     0
 49
1.27
 74
     0
 49
-1.27
 74
     0
 49
1.27
 74
     0
 49
-1.27
 74
     0
  0
LTYPE
  5
70
330
5
100
AcDbSymbolTableRecord
100
AcDbLinetypeTableRecord
  2
CENTER
 70
     0
  3
Center ____ _ ____ _ ____ _ ____ _ ____ _ ____
 72
    65
 73
     4
 40
10.16
 49
6.35
 74
     0
 49
-1.27
 74
     0
 49
1.27
 74
     0
 49
-1.27
 74
     0
  0
LTYPE
  5
71
330
5
100
AcDbSymbolTableRecord
100
AcDbLinetypeTableRecord
  2
CENTERX2
 70
     0
  3
Center (2x) ________  __  ________  __  _____
 72
    65
 73
     4
 40
20.32
 49
12.7
 74
     0
 49
-2.54
 74
     0
 49
2.54
 74
     0
 49
-2.54
 74
     0
  0
LTYPE
  5
72
330
5
100
AcDbSymbolTableRecord
100
AcDbLinetypeTableRecord
  2
DOT2
 70
     0
  3
Dot (.5x) ........................................
 72
    65
 73
     2
 40
0.635
 49
0.0
 74
     0
 49
-0.635
 74
     0
  0
ENDTAB
  0
TABLE
  2
LAYER
  5
2
330
0
100
AcDbSymbolTable
 70
     5
  0
LAYER
  5
10
330
2
100
AcDbSymbolTableRecord
100
AcDbLayerTableRecord
  2
0
 70
     0
 62
     7
  6
Continuous
370
    -3
390
F
  0
LAYER
  5
73
330
2
100
AcDbSymbolTableRecord
100
AcDbLayerTableRecord
  2
FORMAT
 70
     0
 62
     7
  6
Continuous
370
    -3
390
F
  0
LAYER
  5
74
330
2
100
AcDbSymbolTableRecord
100
AcDbLayerTableRecord
  2
VERMASSUNG
 70
     0
 62
     7
  6
Continuous
370
    -3
390
F
  0
LAYER
  5
75
330
2
100
AcDbSymbolTableRecord
100
AcDbLayerTableRecord
  2
KOPF_DÜNN
 70
     0
 62
     7
  6
Continuous
370
    -3
390
F
  0
LAYER
  5
76
330
2
100
AcDbSymbolTableRecord
100
AcDbLayerTableRecord
  2
KOPF_DICK
 70
     0
 62
     7
  6
Continuous
370
    15
390
F
  0
ENDTAB
  0
TABLE
  2
STYLE
  5
3
330
0
100
AcDbSymbolTable
 70
     3
  0
STYLE
  5
11
330
3
100
AcDbSymbolTableRecord
100
AcDbTextStyleTableRecord
  2
Standard
 70
     0
 40
0.0
 41
1.0
 50
0.0
 71
     0
 42
2.0
  3
txt
  4

  0
STYLE
  5
77
330
3
100
AcDbSymbolTableRecord
100
AcDbTextStyleTableRecord
  2
SLDTEXTSTYLE0
 70
     0
 40
0.0
 41
0.7
 50
0.0
 71
     0
 42
2.0
  3
TXT
  4

  0
STYLE
  5
7B
330
3
100
AcDbSymbolTableRecord
100
AcDbTextStyleTableRecord
  2
SLDTEXTSTYLE1
 70
     0
 40
0.0
 41
0.6538461538
 50
0.0
 71
     0
 42
2.0
  3
TXT
  4

  0
ENDTAB
  0
TABLE
  2
VIEW
  5
6
330
0
100
AcDbSymbolTable
 70
     0
  0
ENDTAB
  0
TABLE
  2
UCS
  5
7
330
0
100
AcDbSymbolTable
 70
     0
  0
ENDTAB
  0
TABLE
  2
APPID
  5
9
330
0
100
AcDbSymbolTable
 70
     1
  0
APPID
  5
12
330
9
100
AcDbSymbolTableRecord
100
AcDbRegAppTableRecord
  2
ACAD
 70
     0
  0
ENDTAB
  0
TABLE
  2
DIMSTYLE
  5
A
330
0
100
AcDbSymbolTable
 70
     2
100
AcDbDimStyleTable
  0
DIMSTYLE
105
27
330
A
100
AcDbSymbolTableRecord
100
AcDbDimStyleTableRecord
  2
ISO-25
 70
     0
 41
2.5
 42
0.625
 43
3.75
 44
1.25
 73
     0
 74
     0
 77
     1
 78
     8
140
2.5
141
2.5
143
0.0393700787
147
0.625
171
     3
172
     1
178
     0
271
     2
272
     2
274
     3
278
    44
283
     0
284
     8
340
11
  0
DIMSTYLE
105
111
102
{ACAD_REACTORS
330
110
330
11C
330
128
330
132
102
}
330
A
100
AcDbSymbolTableRecord
100
AcDbDimStyleTableRecord
  2
SLDDIMSTYLE0
 70
     0
 41
3.0
 44
0.0
 45
0.000000001
 73
     0
 74
     0
 77
     1
 78
    12
 79
     3
140
2.0
147
0.5
173
     1
178
     0
271
     2
272
     3
276
     2
284
    12
340
77
  0
ENDTAB
  0
TABLE
  2
BLOCK_RECORD
  5
1
330
0
100
AcDbSymbolTable
 70
     5
  0
BLOCK_RECORD
  5
1F
330
1
100
AcDbSymbolTableRecord
100
AcDbBlockTableRecord
  2
*Model_Space
340
22
  0
BLOCK_RECORD
  5
1B
330
1
100
AcDbSymbolTableRecord
100
AcDbBlockTableRecord
  2
*Paper_Space
340
1E
  0
BLOCK_RECORD
  5
23
330
1
100
AcDbSymbolTableRecord
100
AcDbBlockTableRecord
  2
*Paper_Space0
340
26
  0
BLOCK_RECORD
  5
112
330
1
100
AcDbSymbolTableRecord
100
AcDbBlockTableRecord
  2
_D
340
0
  0
BLOCK_RECORD
  5
11D
330
1
100
AcDbSymbolTableRecord
100
AcDbBlockTableRecord
  2
_D_1
340
0
  0
BLOCK_RECORD
  5
129
330
1
100
AcDbSymbolTableRecord
100
AcDbBlockTableRecord
  2
_D_2
340
0
  0
BLOCK_RECORD
  5
133
330
1
100
AcDbSymbolTableRecord
100
AcDbBlockTableRecord
  2
_D_3
340
0
  0
ENDTAB
  0
ENDSEC
  0
SECTION
  2
BLOCKS
  0
BLOCK
  5
20
330
1F
100
AcDbEntity
  8
0
100
AcDbBlockBegin
  2
*Model_Space
 70
     0
 10
0.0
 20
0.0
 30
0.0
  3
*Model_Space
  1

  0
ENDBLK
  5
21
330
1F
100
AcDbEntity
  8
0
100
AcDbBlockEnd
  0
BLOCK
  5
1C
330
1B
100
AcDbEntity
 67
     1
  8
0
100
AcDbBlockBegin
  2
*Paper_Space
 70
     0
 10
0.0
 20
0.0
 30
0.0
  3
*Paper_Space
  1

  0
ENDBLK
  5
1D
330
1B
100
AcDbEntity
 67
     1
  8
0
100
AcDbBlockEnd
  0
BLOCK
  5
24
330
23
100
AcDbEntity
  8
0
100
AcDbBlockBegin
  2
*Paper_Space0
 70
     0
 10
0.0
 20
0.0
 30
0.0
  3
*Paper_Space0
  1

  0
ENDBLK
  5
25
330
23
100
AcDbEntity
  8
0
100
AcDbBlockEnd
  0
BLOCK
  5
113
330
112
100
AcDbEntity
  8
0
100
AcDbBlockBegin
  2
_D
 70
     0
 10
0.0
 20
0.0
 30
0.0
  3
_D
  1

  0
SOLID
  5
115
330
112
100
AcDbEntity
  8
VERMASSUNG
100
AcDbTrace
 10
190.7168060633
 20
113.0398769604
 30
0.0
 11
190.2668060633
 21
110.0398769604
 31
0.0
 12
191.1668060633
 22
110.0398769604
 32
0.0
 13
191.1668060633
 23
110.0398769604
 33
0.0
  0
SOLID
  5
116
330
112
100
AcDbEntity
  8
VERMASSUNG
100
AcDbTrace
 10
190.7168060633
 20
95.0398769604
 30
0.0
 11
191.1668060633
 21
98.0398769604
 31
0.0
 12
190.2668060633
 22
98.0398769604
 32
0.0
 13
190.2668060633
 23
98.0398769604
 33
0.0
  0
LINE
  5
117
330
112
100
AcDbEntity
  8
VERMASSUNG
100
AcDbLine
 10
179.7168060633
 20
113.0398769604
 30
0.0
 11
191.7168060633
 21
113.0398769604
 31
0.0
  0
LINE
  5
118
330
112
100
AcDbEntity
  8
VERMASSUNG
100
AcDbLine
 10
179.7168060633
 20
95.0398769604
 30
0.0
 11
191.7168060633
 21
95.0398769604
 31
0.0
  0
LINE
  5
119
330
112
100
AcDbEntity
  8
VERMASSUNG
100
AcDbLine
 10
190.7168060633
 20
113.0398769604
 30
0.0
 11
190.7168060633
 21
95.0398769604
 31
0.0
  0
MTEXT
  5
11A
330
112
100
AcDbEntity
  8
VERMASSUNG
100
AcDbMText
 10
188.1386707584
 20
101.0348768963
 30
0.0
 40
2.0
 41
0.0
 71
     1
 72
     1
  1
%%c
  7
SLDTEXTSTYLE0
 11
-7.044195017643634E-15
 21
1.0
 31
0.0
 73
     1
 44
1.0
  0
MTEXT
  5
11B
330
112
100
AcDbEntity
  8
VERMASSUNG
100
AcDbMText
 10
187.9386708071
 20
104.6448769106
 30
0.0
 40
2.0
 41
0.0
 71
     1
 72
     1
  1
18
  7
SLDTEXTSTYLE0
 11
-7.044195017643634E-15
 21
1.0
 31
0.0
 73
     1
 44
1.0
  0
ENDBLK
  5
114
330
112
100
AcDbEntity
  8
0
100
AcDbBlockEnd
  0
BLOCK
  5
11E
330
11D
100
AcDbEntity
  8
0
100
AcDbBlockBegin
  2
_D_1
 70
     0
 10
0.0
 20
0.0
 30
0.0
  3
_D_1
  1

  0
SOLID
  5
120
330
11D
100
AcDbEntity
  8
VERMASSUNG
100
AcDbTrace
 10
196.9168060633
 20
120.0398769604
 30
0.0
 11
196.4668060633
 21
117.0398769604
 31
0.0
 12
197.3668060633
 22
117.0398769604
 32
0.0
 13
197.3668060633
 23
117.0398769604
 33
0.0
  0
SOLID
  5
121
330
11D
100
AcDbEntity
  8
VERMASSUNG
100
AcDbTrace
 10
196.9168060633
 20
88.0398769604
 30
0.0
 11
197.3668060633
 21
91.0398769604
 31
0.0
 12
196.4668060633
 22
91.0398769604
 32
0.0
 13
196.4668060633
 23
91.0398769604
 33
0.0
  0
LINE
  5
122
330
11D
100
AcDbEntity
  8
VERMASSUNG
100
AcDbLine
 10
180.4168060633
 20
120.0398769604
 30
0.0
 11
197.9168060633
 21
120.0398769604
 31
0.0
  0
LINE
  5
123
330
11D
100
AcDbEntity
  8
VERMASSUNG
100
AcDbLine
 10
180.4168060633
 20
88.0398769604
 30
0.0
 11
197.9168060633
 21
88.0398769604
 31
0.0
  0
LINE
  5
124
330
11D
100
AcDbEntity
  8
VERMASSUNG
100
AcDbLine
 10
196.9168060633
 20
120.0398769604
 30
0.0
 11
196.9168060633
 21
88.0398769604
 31
0.0
  0
MTEXT
  5
125
330
11D
100
AcDbEntity
  8
VERMASSUNG
100
AcDbMText
 10
194.1386708071
 20
98.9348769712
 30
0.0
 40
2.0
 41
0.0
 71
     1
 72
     1
  1
WH
  7
SLDTEXTSTYLE0
 11
-7.044195017643634E-15
 21
1.0
 31
0.0
 73
     1
 44
1.0
  0
MTEXT
  5
126
330
11D
100
AcDbEntity
  8
VERMASSUNG
100
AcDbMText
 10
194.3386707584
 20
102.7348770352
 30
0.0
 40
2.0
 41
0.0
 71
     1
 72
     1
  1
%%c
  7
SLDTEXTSTYLE0
 11
-7.044195017643634E-15
 21
1.0
 31
0.0
 73
     1
 44
1.0
  0
MTEXT
  5
127
330
11D
100
AcDbEntity
  8
VERMASSUNG
100
AcDbMText
 10
194.1386708071
 20
106.3448770495
 30
0.0
 40
2.0
 41
0.0
 71
     1
 72
     1
  1
32
  7
SLDTEXTSTYLE0
 11
-7.044195017643634E-15
 21
1.0
 31
0.0
 73
     1
 44
1.0
  0
ENDBLK
  5
11F
330
11D
100
AcDbEntity
  8
0
100
AcDbBlockEnd
  0
BLOCK
  5
12A
330
129
100
AcDbEntity
  8
0
100
AcDbBlockBegin
  2
_D_2
 70
     0
 10
0.0
 20
0.0
 30
0.0
  3
_D_2
  1

  0
SOLID
  5
12C
330
129
100
AcDbEntity
  8
VERMASSUNG
100
AcDbTrace
 10
180.7168060633
 20
130.1398769604
 30
0.0
 11
177.7168060633
 21
130.5898769604
 31
0.0
 12
177.7168060633
 22
129.6898769604
 32
0.0
 13
177.7168060633
 23
129.6898769604
 33
0.0
  0
SOLID
  5
12D
330
129
100
AcDbEntity
  8
VERMASSUNG
100
AcDbTrace
 10
140.7168060633
 20
130.1398769604
 30
0.0
 11
143.7168060633
 21
129.6898769604
 31
0.0
 12
143.7168060633
 22
130.5898769604
 32
0.0
 13
143.7168060633
 23
130.5898769604
 33
0.0
  0
LINE
  5
12E
330
129
100
AcDbEntity
  8
VERMASSUNG
100
AcDbLine
 10
180.7168060633
 20
119.7398769604
 30
0.0
 11
180.7168060633
 21
131.1398769604
 31
0.0
  0
LINE
  5
12F
330
129
100
AcDbEntity
  8
VERMASSUNG
100
AcDbLine
 10
140.7168060633
 20
119.7398769604
 30
0.0
 11
140.7168060633
 21
131.1398769604
 31
0.0
  0
LINE
  5
130
330
129
100
AcDbEntity
  8
VERMASSUNG
100
AcDbLine
 10
180.7168060633
 20
130.1398769604
 30
0.0
 11
140.7168060633
 21
130.1398769604
 31
0.0
  0
MTEXT
  5
131
330
129
100
AcDbEntity
  8
VERMASSUNG
100
AcDbMText
 10
159.2168060503
 20
132.7180125564
 30
0.0
 40
2.0
 41
0.0
 71
     1
 72
     1
  1
40
  7
SLDTEXTSTYLE0
 73
     1
 44
1.0
  0
ENDBLK
  5
12B
330
129
100
AcDbEntity
  8
0
100
AcDbBlockEnd
  0
BLOCK
  5
134
330
133
100
AcDbEntity
  8
0
100
AcDbBlockBegin
  2
_D_3
 70
     0
 10
0.0
 20
0.0
 30
0.0
  3
_D_3
  1

  0
ARC
  5
136
330
133
100
AcDbEntity
  8
VERMASSUNG
100
AcDbCircle
 10
152.1168062064
 20
138.0398772253
 30
0.0
 40
4.248529228887633
100
AcDbArc
 50
153.4349488229
 51
206.5650511771
  0
ARC
  5
137
330
133
100
AcDbEntity
  8
VERMASSUNG
100
AcDbCircle
 10
147.3168059784
 20
138.0398772253
 30
0.0
 40
4.248529228887608
100
AcDbArc
 50
333.4349488229
 51
26.5650511771
  0
SOLID
  5
138
330
133
100
AcDbEntity
  8
VERMASSUNG
100
AcDbTrace
 10
180.7168060633
 20
136.1398769604
 30
0.0
 11
177.7168060633
 21
136.5898769604
 31
0.0
 12
177.7168060633
 22
135.6898769604
 32
0.0
 13
177.7168060633
 23
135.6898769604
 33
0.0
  0
SOLID
  5
139
330
133
100
AcDbEntity
  8
VERMASSUNG
100
AcDbTrace
 10
118.7168060633
 20
136.1398769604
 30
0.0
 11
121.7168060633
 21
135.6898769604
 31
0.0
 12
121.7168060633
 22
136.5898769604
 32
0.0
 13
121.7168060633
 23
136.5898769604
 33
0.0
  0
LINE
  5
13A
330
133
100
AcDbEntity
  8
VERMASSUNG
100
AcDbLine
 10
180.7168060633
 20
119.7398769604
 30
0.0
 11
180.7168060633
 21
137.1398769604
 31
0.0
  0
LINE
  5
13B
330
133
100
AcDbEntity
  8
VERMASSUNG
100
AcDbLine
 10
118.7168060633
 20
111.8298769604
 30
0.0
 11
118.7168060633
 21
137.1398769604
 31
0.0
  0
LINE
  5
13C
330
133
100
AcDbEntity
  8
VERMASSUNG
100
AcDbLine
 10
180.7168060633
 20
136.1398769604
 30
0.0
 11
118.7168060633
 21
136.1398769604
 31
0.0
  0
MTEXT
  5
13D
330
133
100
AcDbEntity
  8
VERMASSUNG
100
AcDbMText
 10
148.3168061423
 20
138.7180127892
 30
0.0
 40
2.0
 41
0.0
 71
     1
 72
     1
  1
62
  7
SLDTEXTSTYLE0
 73
     1
 44
1.0
  0
ENDBLK
  5
135
330
133
100
AcDbEntity
  8
0
100
AcDbBlockEnd
  0
ENDSEC
  0
SECTION
  2
ENTITIES
  0
MTEXT
  5
78
330
1F
100
AcDbEntity
  8
KOPF_DÜNN
100
AcDbMText
 10
13.8892156294
 20
23.8442973028
 30
0.0
 40
3.0
 41
0.0
 71
     1
 72
     1
  1
A64.032.032.040
  7
SLDTEXTSTYLE0
 73
     1
 44
1.0
  0
MTEXT
  5
79
330
1F
100
AcDbEntity
  8
VERMASSUNG
100
AcDbMText
 10
13.9329988022
 20
28.8834360957
 30
0.0
 40
3.0
 41
0.0
 71
     1
 72
     1
  1
Verlängerung_Extensions
  7
SLDTEXTSTYLE0
 73
     1
 44
1.0
  0
MTEXT
  5
7A
330
1F
100
AcDbEntity
  8
VERMASSUNG
100
AcDbMText
 10
98.8601118557
 20
13.8365368761
 30
0.0
 40
2.0
 41
0.0
 71
     1
 72
     1
  1
Datum: 02.12.2011
  7
SLDTEXTSTYLE0
 73
     1
 44
1.0
  0
MTEXT
  5
7C
330
1F
100
AcDbEntity
  8
VERMASSUNG
100
AcDbMText
 10
13.933048693
 20
18.0482802738
 30
0.0
 40
2.0
 41
0.0
 71
     1
 72
     1
  1
WH3 / 40 lang
  7
SLDTEXTSTYLE1
 73
     1
 44
1.0
  0
MTEXT
  5
7D
330
1F
100
AcDbEntity
  8
VERMASSUNG
100
AcDbMText
 10
13.9808475933
 20
13.9090974274
 30
0.0
 40
2.0
 41
0.0
 71
     1
 72
     1
  1
Gewicht: 237g
  7
SLDTEXTSTYLE0
 73
     1
 44
1.0
  0
LINE
  5
7E
330
1F
100
AcDbEntity
  8
0
  6
Continuous
 62
     7
370
    15
100
AcDbLine
 10
164.4297055966
 20
120.0398769604
 30
0.0
 11
141.0168060633
 21
120.0398769604
 31
0.0
  0
LINE
  5
7F
330
1F
100
AcDbEntity
  8
0
  6
Continuous
 62
     7
370
    15
100
AcDbLine
 10
180.4168060633
 20
120.0398769604
 30
0.0
 11
172.9153442564
 21
120.0398769604
 31
0.0
  0
LINE
  5
80
330
1F
100
AcDbEntity
  8
0
  6
Continuous
 62
     7
370
    15
100
AcDbLine
 10
141.0168060633
 20
88.0398769604
 30
0.0
 11
180.4168060633
 21
88.0398769604
 31
0.0
  0
LINE
  5
81
330
1F
100
AcDbEntity
  8
0
  6
Continuous
 62
     7
370
    15
100
AcDbLine
 10
141.0168060633
 20
120.0398769604
 30
0.0
 11
140.7168060633
 21
119.7398769604
 31
0.0
  0
LINE
  5
82
330
1F
100
AcDbEntity
  8
0
  6
Continuous
 62
     7
370
    15
100
AcDbLine
 10
140.7168060633
 20
88.3398769604
 30
0.0
 11
141.0168060633
 21
88.0398769604
 31
0.0
  0
LINE
  5
83
330
1F
100
AcDbEntity
  8
0
  6
Continuous
 62
     7
370
    15
100
AcDbLine
 10
180.4168060633
 20
88.0398769604
 30
0.0
 11
180.7168060633
 21
88.3398769604
 31
0.0
  0
LINE
  5
84
330
1F
100
AcDbEntity
  8
0
  6
Continuous
 62
     7
370
    15
100
AcDbLine
 10
180.7168060633
 20
119.7398769604
 30
0.0
 11
180.4168060633
 21
120.0398769604
 31
0.0
  0
ARC
  5
85
330
1F
100
AcDbEntity
  8
0
  6
Continuous
 62
     7
370
    15
100
AcDbCircle
 10
140.3168060633
 20
94.7898769604
 30
0.0
 40
0.6000000000000085
100
AcDbArc
 50
48.1896851042
 51
90.0
  0
ARC
  5
86
330
1F
100
AcDbEntity
  8
0
  6
Continuous
 62
     7
370
    15
100
AcDbCircle
 10
140.3168060633
 20
113.2898769604
 30
0.0
 40
0.6000000000000085
100
AcDbArc
 50
270.0
 51
311.8103148958
  0
LINE
  5
87
330
1F
100
AcDbEntity
  8
0
  6
Continuous
 62
     7
370
    15
100
AcDbLine
 10
124.2168060633
 20
95.0398769604
 30
0.0
 11
138.2168060633
 21
95.0398769604
 31
0.0
  0
LINE
  5
88
330
1F
100
AcDbEntity
  8
0
  6
Continuous
 62
     7
370
    15
100
AcDbLine
 10
138.2168060633
 20
113.0398769604
 30
0.0
 11
133.7036103402
 21
113.0398769604
 31
0.0
  0
LINE
  5
89
330
1F
100
AcDbEntity
  8
0
  6
Continuous
 62
     7
370
    15
100
AcDbLine
 10
124.2168060633
 20
113.0398769604
 30
0.0
 11
121.2326986373
 21
112.6467307408
 31
0.0
  0
LINE
  5
8A
330
1F
100
AcDbEntity
  8
0
  6
Continuous
 62
     7
370
    15
100
AcDbLine
 10
121.2326986373
 20
95.4330231801
 30
0.0
 11
124.2168060633
 21
95.0398769604
 31
0.0
  0
LINE
  5
8B
330
1F
100
AcDbEntity
  8
0
  6
Continuous
 62
     7
370
    15
100
AcDbLine
 10
138.2168060633
 20
95.0398769604
 30
0.0
 11
139.4467239174
 21
95.3694324562
 31
0.0
  0
LINE
  5
8C
330
1F
100
AcDbEntity
  8
0
  6
Continuous
 62
     7
370
    15
100
AcDbLine
 10
139.4467239174
 20
112.7103214647
 30
0.0
 11
138.2168060633
 21
113.0398769604
 31
0.0
  0
ARC
  5
8D
330
1F
100
AcDbEntity
  8
0
  6
Continuous
 62
     7
370
    15
100
AcDbCircle
 10
119.9168060633
 20
96.2498769604
 30
0.0
 40
1.200000000000005
100
AcDbArc
 50
180.0
 51
300.0
  0
ARC
  5
8E
330
1F
100
AcDbEntity
  8
0
  6
Continuous
 62
     7
370
    15
100
AcDbCircle
 10
119.9168060633
 20
111.8298769604
 30
0.0
 40
1.200000000000005
100
AcDbArc
 50
60.0
 51
180.0
  0
LINE
  5
8F
330
1F
100
AcDbEntity
  8
0
  6
Continuous
 62
     7
370
    15
100
AcDbLine
 10
120.5168060633
 20
95.2106464759
 30
0.0
 11
120.7282042631
 21
95.3326972835
 31
0.0
  0
LINE
  5
90
330
1F
100
AcDbEntity
  8
0
  6
Continuous
 62
     7
370
    15
100
AcDbLine
 10
120.7282042631
 20
112.7470566374
 30
0.0
 11
120.5168060633
 21
112.869107445
 31
0.0
  0
ARC
  5
91
330
1F
100
AcDbEntity
  8
0
  6
Continuous
 62
     7
370
    15
100
AcDbCircle
 10
121.1282042631
 20
94.6398769604
 30
0.0
 40
0.7999999999999869
100
AcDbArc
 50
82.4946962461
 51
120.0
  0
ARC
  5
92
330
1F
100
AcDbEntity
  8
0
  6
Continuous
 62
     7
370
    15
100
AcDbCircle
 10
121.1282042631
 20
113.4398769604
 30
0.0
 40
0.800000000000001
100
AcDbArc
 50
240.0
 51
277.5053037539
  0
ARC
  5
93
330
1F
100
AcDbEntity
  8
0
  6
Continuous
 62
     7
370
    15
100
AcDbCircle
 10
139.6020153445
 20
94.7898769604
 30
0.0
 40
0.6000000000000145
100
AcDbArc
 50
90.0
 51
105.0
  0
ARC
  5
94
330
1F
100
AcDbEntity
  8
0
  6
Continuous
 62
     7
370
    15
100
AcDbCircle
 10
139.6020153445
 20
113.2898769604
 30
0.0
 40
0.6000000000000145
100
AcDbArc
 50
255.0
 51
270.0
  0
LINE
  5
95
330
1F
100
AcDbEntity
  8
0
  6
Continuous
 62
     7
370
    15
100
AcDbLine
 10
139.6020153445
 20
95.3898769604
 30
0.0
 11
140.3168060633
 21
95.3898769604
 31
0.0
  0
LINE
  5
96
330
1F
100
AcDbEntity
  8
0
  6
Continuous
 62
     7
370
    15
100
AcDbLine
 10
140.3168060633
 20
112.6898769604
 30
0.0
 11
139.6020153445
 21
112.6898769604
 31
0.0
  0
SPLINE
  5
97
330
1F
100
AcDbEntity
  8
0
  6
Continuous
 62
     7
370
    15
100
AcDbSpline
210
0.0
220
0.0
230
1.0
 70
    24
 71
     3
 72
    11
 73
     7
 74
     0
 42
0.000000001
 43
0.00000001
 40
0.0
 40
0.0
 40
0.0
 40
0.0
 40
0.2164526859271175
 40
0.4403055508633992
 40
0.7518960204221897
 40
1.0
 40
1.0
 40
1.0
 40
1.0
 10
169.3924184743038
 20
101.847430846542
 30
0.0
 10
169.497628314663
 20
101.9655676157255
 30
0.0
 10
169.711644955377
 20
102.2058800655793
 30
0.0
 10
170.1088049680494
 20
102.6518383579387
 30
0.0
 10
170.5348354912986
 20
103.1302144244585
 30
0.0
 10
170.8074711062117
 20
103.4363482480649
 30
0.0
 10
170.9283262998606
 20
103.5720526847219
 30
0.0
  0
SPLINE
  5
98
330
1F
100
AcDbEntity
  8
0
  6
Continuous
 62
     7
370
    15
100
AcDbSpline
210
0.0
220
0.0
230
1.0
 70
    24
 71
     3
 72
    11
 73
     7
 74
     0
 42
0.000000001
 43
0.00000001
 40
0.0
 40
0.0
 40
0.0
 40
0.0
 40
0.2164526859271182
 40
0.4403055508634
 40
0.7518960204221908
 40
1.0
 40
1.0
 40
1.0
 40
1.0
 10
170.9283262998606
 20
103.5720526847219
 30
0.0
 10
170.8786217768062
 20
103.7222354637928
 30
0.0
 10
170.7775134107442
 20
104.0277355364106
 30
0.0
 10
170.5898822068688
 20
104.594665342932
 30
0.0
 10
170.3886116423249
 20
105.2028066321133
 30
0.0
 10
170.2598097815806
 20
105.5919829124076
 30
0.0
 10
170.2027138888538
 20
105.7644987986153
 30
0.0
  0
SPLINE
  5
99
330
1F
100
AcDbEntity
  8
0
  6
Continuous
 62
     7
370
    15
100
AcDbSpline
210
0.0
220
0.0
230
1.0
 70
    24
 71
     3
 72
    13
 73
     9
 74
     0
 42
0.000000001
 43
0.00000001
 40
0.0
 40
0.0
 40
0.0
 40
0.0
 40
0.184429191489861
 40
0.3522661073098667
 40
0.5197722555606427
 40
0.6955582578112938
 40
0.8717925323418632
 40
1.0
 40
1.0
 40
1.0
 40
1.0
 10
170.2027138888538
 20
105.7644987986153
 30
0.0
 10
170.0709340274874
 20
105.7917591419899
 30
0.0
 10
169.8192299539058
 20
105.8438273366554
 30
0.0
 10
169.4216121154861
 20
105.9260796527135
 30
0.0
 10
169.0183216346712
 20
106.009505427128
 30
0.0
 10
168.6105991249692
 20
106.0938480231877
 30
0.0
 10
168.2488572689421
 20
106.1686789351801
 30
0.0
 10
168.0323639867869
 20
106.2134633290067
 30
0.0
 10
167.9411936522902
 20
106.2323230743288
 30
0.0
  0
SPLINE
  5
9A
330
1F
100
AcDbEntity
  8
0
  6
Continuous
 62
     7
370
    15
100
AcDbSpline
210
0.0
220
0.0
230
1.0
 70
    24
 71
     3
 72
    11
 73
     7
 74
     0
 42
0.000000001
 43
0.00000001
 40
0.0
 40
0.0
 40
0.0
 40
0.0
 40
0.2164526859271176
 40
0.4403055508633995
 40
0.75189602042219
 40
1.0
 40
1.0
 40
1.0
 40
1.0
 10
167.9411936522902
 20
106.2323230743288
 30
0.0
 10
167.835983811931
 20
106.1141863051453
 30
0.0
 10
167.6219671712171
 20
105.8738738552915
 30
0.0
 10
167.2248071585446
 20
105.4279155629321
 30
0.0
 10
166.7987766352954
 20
104.9495394964124
 30
0.0
 10
166.5261410203823
 20
104.6434056728059
 30
0.0
 10
166.4052858267335
 20
104.507701236149
 30
0.0
  0
SPLINE
  5
9B
330
1F
100
AcDbEntity
  8
0
  6
Continuous
 62
     7
370
    15
100
AcDbSpline
210
0.0
220
0.0
230
1.0
 70
    24
 71
     3
 72
    11
 73
     7
 74
     0
 42
0.000000001
 43
0.00000001
 40
0.0
 40
0.0
 40
0.0
 40
0.0
 40
0.2164526859271179
 40
0.4403055508634
 40
0.7518960204221905
 40
1.0
 40
1.0
 40
1.0
 40
1.0
 10
166.4052858267335
 20
104.507701236149
 30
0.0
 10
166.4549903497878
 20
104.357518457078
 30
0.0
 10
166.5560987158499
 20
104.0520183844603
 30
0.0
 10
166.7437299197252
 20
103.4850885779388
 30
0.0
 10
166.9450004842692
 20
102.8769472887576
 30
0.0
 10
167.0738023450135
 20
102.4877710084632
 30
0.0
 10
167.1308982377403
 20
102.3152551222556
 30
0.0
  0
SPLINE
  5
9C
330
1F
100
AcDbEntity
  8
0
  6
Continuous
 62
     7
370
    15
100
AcDbSpline
210
0.0
220
0.0
230
1.0
 70
    24
 71
     3
 72
    13
 73
     9
 74
     0
 42
0.000000001
 43
0.00000001
 40
0.0
 40
0.0
 40
0.0
 40
0.0
 40
0.1282074676581381
 40
0.3044417421887077
 40
0.4802277444393573
 40
0.6477338926901346
 40
0.815570808510139
 40
1.0
 40
1.0
 40
1.0
 40
1.0
 10
167.1308982377403
 20
102.3152551222556
 30
0.0
 10
167.222068572237
 20
102.2963953769334
 30
0.0
 10
167.4385618543921
 20
102.2516109831068
 30
0.0
 10
167.8003037104192
 20
102.1767800711145
 30
0.0
 10
168.2080262201213
 20
102.0924374750547
 30
0.0
 10
168.6113167009361
 20
102.0090117006402
 30
0.0
 10
169.0089345393559
 20
101.9267593845822
 30
0.0
 10
169.2606386129375
 20
101.8746911899166
 30
0.0
 10
169.3924184743038
 20
101.847430846542
 30
0.0
  0
CIRCLE
  5
9D
330
1F
100
AcDbEntity
  8
0
  6
Continuous
 62
     7
370
    15
100
AcDbCircle
 10
168.6668060633
 20
104.0398769604
 30
0.0
 40
2.399999999999991
  0
CIRCLE
  5
9E
330
1F
100
AcDbEntity
  8
0
  6
Continuous
 62
     7
370
    15
100
AcDbCircle
 10
168.6668060633
 20
104.0398769604
 30
0.0
 40
3.299999999999992
  0
ARC
  5
9F
330
1F
100
AcDbEntity
  8
0
  6
Continuous
 62
     7
370
    15
100
AcDbCircle
 10
168.6668060633
 20
104.0398769604
 30
0.0
 40
1.999999999999999
100
AcDbArc
 50
78.3124885099
 51
138.3124885099
  0
ARC
  5
A0
330
1F
100
AcDbEntity
  8
0
  6
Continuous
 62
     7
370
    15
100
AcDbCircle
 10
168.6668060633
 20
104.0398769604
 30
0.0
 40
1.999999999999999
100
AcDbArc
 50
138.3124885099
 51
198.3124885099
  0
ARC
  5
A1
330
1F
100
AcDbEntity
  8
0
  6
Continuous
 62
     7
370
    15
100
AcDbCircle
 10
168.6668060633
 20
104.0398769604
 30
0.0
 40
2.000000000000016
100
AcDbArc
 50
18.3124885099
 51
78.3124885099
  0
ARC
  5
A2
330
1F
100
AcDbEntity
  8
0
  6
Continuous
 62
     7
370
    15
100
AcDbCircle
 10
168.6668060633
 20
104.0398769604
 30
0.0
 40
2.000000000000016
100
AcDbArc
 50
318.3124885099
 51
18.3124885099
  0
ARC
  5
A3
330
1F
100
AcDbEntity
  8
0
  6
Continuous
 62
     7
370
    15
100
AcDbCircle
 10
168.6668060633
 20
104.0398769604
 30
0.0
 40
2.000000000000009
100
AcDbArc
 50
198.3124885099
 51
258.3124885099
  0
ARC
  5
A4
330
1F
100
AcDbEntity
  8
0
  6
Continuous
 62
     7
370
    15
100
AcDbCircle
 10
168.6668060633
 20
104.0398769604
 30
0.0
 40
2.000000000000011
100
AcDbArc
 50
258.3124885099
 51
318.3124885099
  0
CIRCLE
  5
A5
330
1F
100
AcDbEntity
  8
0
  6
Continuous
 62
     7
370
    15
100
AcDbCircle
 10
168.6668060633
 20
104.0398769604
 30
0.0
 40
3.5
  0
SPLINE
  5
A6
330
1F
100
AcDbEntity
  8
0
  6
Continuous
 62
     7
370
    15
100
AcDbSpline
210
0.0
220
0.0
230
1.0
 70
    11
 71
     3
 72
    73
 73
    69
 74
     0
 42
0.000000001
 43
0.00000001
 40
0.0
 40
0.0
 40
0.0
 40
0.0
 40
0.0312500000000003
 40
0.0312500000000003
 40
0.0625000000000005
 40
0.0625000000000005
 40
0.0937500000000008
 40
0.0937500000000008
 40
0.1093750000000008
 40
0.1093750000000008
 40
0.1250000000000009
 40
0.140625000000001
 40
0.140625000000001
 40
0.1562500000000011
 40
0.1562500000000011
 40
0.1875000000000012
 40
0.1875000000000012
 40
0.2187500000000013
 40
0.2187500000000013
 40
0.2500000000000014
 40
0.2500000000000014
 40
0.2812500000000015
 40
0.2812500000000015
 40
0.3125000000000016
 40
0.3125000000000016
 40
0.3750000000000014
 40
0.3750000000000014
 40
0.4062500000000013
 40
0.4062500000000013
 40
0.4375000000000013
 40
0.4375000000000013
 40
0.4687500000000012
 40
0.4687500000000012
 40
0.5000000000000011
 40
0.5000000000000011
 40
0.531250000000001
 40
0.531250000000001
 40
0.562500000000001
 40
0.562500000000001
 40
0.5937500000000009
 40
0.5937500000000009
 40
0.6250000000000008
 40
0.6250000000000008
 40
0.6406250000000008
 40
0.6406250000000008
 40
0.6562500000000009
 40
0.6562500000000009
 40
0.6875000000000008
 40
0.6875000000000008
 40
0.7187500000000007
 40
0.7187500000000007
 40
0.7500000000000006
 40
0.7500000000000006
 40
0.7812500000000006
 40
0.7812500000000006
 40
0.8125000000000004
 40
0.8125000000000004
 40
0.8437500000000003
 40
0.8437500000000003
 40
0.8750000000000003
 40
0.8750000000000003
 40
0.9062500000000002
 40
0.9062500000000002
 40
0.9375000000000001
 40
0.9375000000000001
 40
0.9687500000000001
 40
0.9687500000000001
 40
1.0
 40
1.0
 40
1.0
 40
1.0
 10
165.8025562047939
 20
101.2426061758
 30
0.0
 10
165.5975634541454
 20
101.4099731031912
 30
0.0
 10
165.4113354177398
 20
101.5943797814255
 30
0.0
 10
165.0776716750156
 20
101.9989287464623
 30
0.0
 10
164.9294292794554
 20
102.2215496289616
 30
0.0
 10
164.6884139127347
 20
102.6860846586248
 30
0.0
 10
164.5936870390684
 20
102.9295597380832
 30
0.0
 10
164.4935522300372
 20
103.3131526664045
 30
0.0
 10
164.4672762209296
 20
103.4445876414632
 30
0.0
 10
164.4308270300099
 20
103.7061474939683
 30
0.0
 10
164.4098920979004
 20
103.9681891002159
 30
0.0
 10
164.4196537748998
 20
104.2311847142322
 30
0.0
 10
164.4450915306918
 20
104.4946673255058
 30
0.0
 10
164.4658526984201
 20
104.6271109387024
 30
0.0
 10
164.5499931855707
 20
105.0145837334547
 30
0.0
 10
164.635088027445
 20
105.2632637081767
 30
0.0
 10
164.8608534005539
 20
105.742286776975
 30
0.0
 10
164.9996491127263
 20
105.9677385442153
 30
0.0
 10
165.3187283873586
 20
106.3839317259433
 30
0.0
 10
165.5018597561194
 20
106.5777377124333
 30
0.0
 10
165.897283314683
 20
106.922718510885
 30
0.0
 10
166.1100782646398
 20
107.0752926284413
 30
0.0
 10
166.5648140129963
 20
107.3425240070369
 30
0.0
 10
166.8047825924549
 20
107.4555429740565
 30
0.0
 10
167.5426325345434
 20
107.7281705818083
 30
0.0
 10
168.0729903319151
 20
107.8254672840046
 30
0.0
 10
168.8607065432405
 20
107.8369300961646
 30
0.0
 10
169.1249729656506
 20
107.8188398659384
 30
0.0
 10
169.6495303975248
 20
107.7376237758848
 30
0.0
 10
169.9046669797319
 20
107.6755080049781
 30
0.0
 10
170.4010089676561
 20
107.5089808312218
 30
0.0
 10
170.6437938423106
 20
107.4037171890617
 30
0.0
 10
171.1072185725338
 20
107.1508036620752
 30
0.0
 10
171.3241960627278
 20
107.0055365255718
 30
0.0
 10
171.7284235374798
 20
106.6764972705198
 30
0.0
 10
171.9174700261768
 20
106.49055496062
 30
0.0
 10
172.2531137919267
 20
106.0848847975991
 30
0.0
 10
172.3980810498993
 20
105.8680613361101
 30
0.0
 10
172.6403245527887
 20
105.404881797944
 30
0.0
 10
172.7383426578234
 20
105.1545558283482
 30
0.0
 10
172.8722118927268
 20
104.6450993694054
 30
0.0
 10
172.9094969631935
 20
104.3853240677294
 30
0.0
 10
172.9190170865451
 20
103.9877378285077
 30
0.0
 10
172.9142360207594
 20
103.8535235294373
 30
0.0
 10
172.8891947172887
 20
103.5900677847471
 30
0.0
 10
172.8690101996151
 20
103.4598764734554
 30
0.0
 10
172.78610018444
 20
103.0737775734492
 30
0.0
 10
172.6995746242152
 20
102.8194661818451
 30
0.0
 10
172.4753618022364
 20
102.3422553485692
 30
0.0
 10
172.3382136404174
 20
102.1180799842459
 30
0.0
 10
172.0161429219525
 20
101.6969531615633
 30
0.0
 10
171.8354157300318
 20
101.5056599315176
 30
0.0
 10
171.4405291197721
 20
101.1602610362732
 30
0.0
 10
171.2237847482374
 20
101.0046874299064
 30
0.0
 10
170.7704792149618
 20
100.7381394687131
 30
0.0
 10
170.5333009362115
 20
100.6260590012132
 30
0.0
 10
170.0383642875449
 20
100.4427957242003
 30
0.0
 10
169.7805777109303
 20
100.3722038891388
 30
0.0
 10
169.2632492276639
 20
100.2765711378263
 30
0.0
 10
169.0013808747829
 20
100.2505577208118
 30
0.0
 10
168.4711219529839
 20
100.2427544497223
 30
0.0
 10
168.2050210079935
 20
100.261418467447
 30
0.0
 10
167.6857529657547
 20
100.3419273788171
 30
0.0
 10
167.4303557099834
 20
100.4036821744564
 30
0.0
 10
166.9283739031847
 20
100.5722830371413
 30
0.0
 10
166.6852653448185
 20
100.6783290626438
 30
0.0
 10
166.225945791315
 20
100.9293891616459
 30
0.0
 10
166.0075489554423
 20
101.0752392484087
 30
0.0
 10
165.8025562047939
 20
101.2426061757999
 30
0.0
  0
LINE
  5
A7
330
1F
100
AcDbEntity
  8
0
  6
Continuous
 62
     7
370
    15
100
AcDbLine
 10
180.4168060633
 20
120.0398769604
 30
0.0
 11
180.4168060633
 21
88.0398769604
 31
0.0
  0
SPLINE
  5
A8
330
1F
100
AcDbEntity
  8
0
  6
Continuous
 62
     7
370
    15
100
AcDbSpline
210
0.0
220
0.0
230
1.0
 70
     8
 71
     3
 72
    27
 73
    23
 74
     0
 42
0.000000001
 43
0.00000001
 40
0.0
 40
0.0
 40
0.0
 40
0.0
 40
0.001379252880006
 40
0.0487234291597173
 40
0.0920215166126834
 40
0.1364700329190968
 40
0.1819366710888113
 40
0.2284772730587163
 40
0.2790498687896567
 40
0.3308187790729968
 40
0.3868765873152408
 40
0.4443840794296715
 40
0.5036942273960386
 40
0.5646774882918619
 40
0.6247571892299919
 40
0.6866271137971286
 40
0.7457315045932216
 40
0.8068045016381633
 40
0.8616220041351179
 40
0.9185054261278057
 40
0.9664492037681515
 40
0.9999999999999999
 40
0.9999999999999999
 40
0.9999999999999999
 40
0.9999999999999999
 10
172.9153442563886
 20
120.0395716677402
 30
0.0
 10
172.9158296275852
 20
120.0396730315776
 30
0.0
 10
172.9329758300387
 20
120.0432538062289
 30
0.0
 10
172.8723919247223
 20
120.0305199574244
 30
0.0
 10
172.73182828351
 20
120.0015835081855
 30
0.0
 10
172.4984160402385
 20
119.9554653446529
 30
0.0
 10
172.1842933862113
 20
119.8974297829296
 30
0.0
 10
171.7836689337481
 20
119.8300690247236
 30
0.0
 10
171.299777371843
 20
119.7589503042431
 30
0.0
 10
170.7262612872756
 20
119.6895571778914
 30
0.0
 10
170.0787145788858
 20
119.6310088929969
 30
0.0
 10
169.3658182182894
 20
119.5915972691267
 30
0.0
 10
168.6138848182205
 20
119.5786184926884
 30
0.0
 10
167.8522535664915
 20
119.5958119416976
 30
0.0
 10
167.1029838225202
 20
119.6421195140315
 30
0.0
 10
166.4056404711516
 20
119.7112293619709
 30
0.0
 10
165.771184784997
 20
119.7952421048071
 30
0.0
 10
165.2468899642198
 20
119.8797215834946
 30
0.0
 10
164.8327839114448
 20
119.9556162146999
 30
0.0
 10
164.568063495568
 20
120.0083503857295
 30
0.0
 10
164.4300371188969
 20
120.0370894672758
 30
0.0
 10
164.4298022788092
 20
120.0371504276175
 30
0.0
 10
164.4297055966431
 20
120.0371755246013
 30
0.0
  0
LINE
  5
A9
330
1F
100
AcDbEntity
  8
0
  6
Continuous
 62
     7
370
    15
100
AcDbLine
 10
141.0168060633
 20
104.0398769604
 30
0.0
 11
141.0168060633
 21
120.0398769604
 31
0.0
  0
LINE
  5
AA
330
1F
100
AcDbEntity
  8
0
  6
Continuous
 62
     7
370
    15
100
AcDbLine
 10
141.0168060633
 20
88.0398769604
 30
0.0
 11
141.0168060633
 21
104.0398769604
 31
0.0
  0
LINE
  5
AB
330
1F
100
AcDbEntity
  8
0
  6
Continuous
 62
     7
370
    15
100
AcDbLine
 10
140.7168060633
 20
104.0398769604
 30
0.0
 11
140.7168060633
 21
119.7398769604
 31
0.0
  0
LINE
  5
AC
330
1F
100
AcDbEntity
  8
0
  6
Continuous
 62
     7
370
    15
100
AcDbLine
 10
140.7168060633
 20
88.3398769604
 30
0.0
 11
140.7168060633
 21
104.0398769604
 31
0.0
  0
LINE
  5
AD
330
1F
100
AcDbEntity
  8
0
  6
Continuous
 62
     7
370
    15
100
AcDbLine
 10
180.7168060633
 20
119.7398769604
 30
0.0
 11
180.7168060633
 21
88.3398769604
 31
0.0
  0
LINE
  5
AE
330
1F
100
AcDbEntity
  8
0
  6
Continuous
 62
     7
370
    15
100
AcDbLine
 10
124.2168060633
 20
104.0398769604
 30
0.0
 11
124.2168060633
 21
113.0398769604
 31
0.0
  0
SPLINE
  5
AF
330
1F
100
AcDbEntity
  8
0
  6
Continuous
 62
     7
370
    15
100
AcDbSpline
210
0.0
220
0.0
230
1.0
 70
     8
 71
     3
 72
    28
 73
    24
 74
     0
 42
0.000000001
 43
0.00000001
 40
0.0
 40
0.0
 40
0.0
 40
0.0
 40
0.0089924382809622
 40
0.0456218997130051
 40
0.0833093386905753
 40
0.1203373312275052
 40
0.1581687655600726
 40
0.210988943262734
 40
0.2653324647165524
 40
0.3190937755631361
 40
0.3740107401368706
 40
0.436254205744369
 40
0.5002491753845351
 40
0.5633088458051813
 40
0.628202682187606
 40
0.6912580720465212
 40
0.7561893224396935
 40
0.8063747173721729
 40
0.8578643069359017
 40
0.8982050446862992
 40
0.9396256011777622
 40
0.98001681593649
 40
1.0
 40
1.0
 40
1.0
 40
1.0
 10
124.216806063297
 20
113.0398769604354
 30
0.0
 10
124.2173162928522
 20
113.0397008806591
 30
0.0
 10
124.2199048723751
 20
113.0388075641141
 30
0.0
 10
124.2672168001426
 20
113.0224472805139
 30
0.0
 10
124.4075313026997
 20
112.9747099585679
 30
0.0
 10
124.6220686041382
 20
112.9039320955256
 30
0.0
 10
124.9354358805668
 20
112.8050907491873
 30
0.0
 10
125.3724832923753
 20
112.676781890624
 30
0.0
 10
125.9388844839013
 20
112.5299785398036
 30
0.0
 10
126.5765009949859
 20
112.3916961485258
 30
0.0
 10
127.2960942820823
 20
112.271204554695
 30
0.0
 10
128.1004539524567
 20
112.1847165628086
 30
0.0
 10
128.965359856488
 20
112.1529156643433
 30
0.0
 10
129.8422063103647
 20
112.1850821714772
 30
0.0
 10
130.6901978942439
 20
112.2770813323213
 30
0.0
 10
131.4973690674372
 20
112.4174826326326
 30
0.0
 10
132.1770724758969
 20
112.5744544765756
 30
0.0
 10
132.7350387780671
 20
112.7263622415984
 30
0.0
 10
133.1360539396086
 20
112.8476945183932
 30
0.0
 10
133.4324129000246
 20
112.9433989918195
 30
0.0
 10
133.6190392809808
 20
113.006166379687
 30
0.0
 10
133.7147008911753
 20
113.0391468258074
 30
0.0
 10
133.7063683191121
 20
113.0362741289222
 30
0.0
 10
133.7036103401589
 20
113.0353233015561
 30
0.0
  0
LINE
  5
B0
330
1F
100
AcDbEntity
  8
0
  6
Continuous
 62
     7
370
    15
100
AcDbLine
 10
124.2168060633
 20
95.0398769604
 30
0.0
 11
124.2168060633
 21
104.0398769604
 31
0.0
  0
SPLINE
  5
B1
330
1F
100
AcDbEntity
  8
0
  6
Continuous
 62
     7
370
    15
100
AcDbSpline
210
0.0
220
0.0
230
1.0
 70
    11
 71
     3
 72
    70
 73
    66
 74
     0
 42
0.000000001
 43
0.00000001
 40
0.0
 40
0.0
 40
0.0
 40
0.0
 40
0.0312500000000002
 40
0.0312500000000002
 40
0.0625000000000004
 40
0.0625000000000004
 40
0.0937500000000006
 40
0.0937500000000006
 40
0.1250000000000006
 40
0.1250000000000006
 40
0.1875000000000008
 40
0.1875000000000008
 40
0.2500000000000009
 40
0.2500000000000009
 40
0.312500000000001
 40
0.312500000000001
 40
0.3437500000000009
 40
0.3437500000000009
 40
0.3750000000000009
 40
0.3750000000000009
 40
0.4062500000000009
 40
0.4062500000000009
 40
0.4218750000000009
 40
0.4218750000000009
 40
0.4375000000000009
 40
0.4375000000000009
 40
0.4687500000000009
 40
0.4687500000000009
 40
0.5000000000000009
 40
0.5000000000000009
 40
0.515625000000001
 40
0.515625000000001
 40
0.531250000000001
 40
0.531250000000001
 40
0.5625000000000009
 40
0.5625000000000009
 40
0.5937500000000009
 40
0.5937500000000009
 40
0.6250000000000009
 40
0.6250000000000009
 40
0.6562500000000009
 40
0.6562500000000009
 40
0.6875000000000008
 40
0.6875000000000008
 40
0.7187500000000008
 40
0.7187500000000008
 40
0.7500000000000008
 40
0.7500000000000008
 40
0.7812500000000008
 40
0.7812500000000008
 40
0.8125000000000007
 40
0.8125000000000007
 40
0.8437500000000007
 40
0.8437500000000007
 40
0.8750000000000007
 40
0.8750000000000007
 40
0.9062500000000007
 40
0.9062500000000007
 40
0.9375000000000004
 40
0.9375000000000004
 40
0.9687500000000003
 40
0.9687500000000003
 40
0.9843750000000002
 40
0.9843750000000002
 40
1.0
 40
1.0
 40
1.0
 40
1.0
 10
124.216806063297
 20
104.0398769604354
 30
0.0
 10
124.216806063297
 20
103.7554917482993
 30
0.0
 10
124.2572360583863
 20
103.4661906146895
 30
0.0
 10
124.4102395993427
 20
102.9181008419144
 30
0.0
 10
124.5235681999559
 20
102.6535636205115
 30
0.0
 10
124.8063523593658
 20
102.1629904902183
 30
0.0
 10
124.974678268535
 20
101.9370581121653
 30
0.0
 10
125.3575769485718
 20
101.5204352275474
 30
0.0
 10
125.5680603508228
 20
101.3340873882075
 30
0.0
 10
126.2511628553358
 20
100.8320372240989
 30
0.0
 10
126.7518666446878
 20
100.5868782327311
 30
0.0
 10
127.8394731770128
 20
100.2487755071915
 30
0.0
 10
128.400105038287
 20
100.1654388187221
 30
0.0
 10
129.5483577291005
 20
100.1669291891087
 30
0.0
 10
130.1089705812164
 20
100.2518743712715
 30
0.0
 10
130.9224681923657
 20
100.507061240825
 30
0.0
 10
131.1847880955129
 20
100.612712714456
 30
0.0
 10
131.6838452935951
 20
100.8625890260233
 30
0.0
 10
131.9219942062439
 20
101.0071785483571
 30
0.0
 10
132.3736795406693
 20
101.3410158142577
 30
0.0
 10
132.5841396976013
 20
101.5285147298063
 30
0.0
 10
132.8667079559672
 20
101.8370937226424
 30
0.0
 10
132.9557659431505
 20
101.9448520108682
 30
0.0
 10
133.1227422873459
 20
102.1711966009465
 30
0.0
 10
133.201029414424
 20
102.290534437269
 30
0.0
 10
133.4122756918323
 20
102.65832426902
 30
0.0
 10
133.5234512520573
 20
102.9177630521864
 30
0.0
 10
133.6773128611591
 20
103.4701702952787
 30
0.0
 10
133.7166515182794
 20
103.7534996108316
 30
0.0
 10
133.7168826527078
 20
104.1805414638468
 30
0.0
 10
133.7070325405216
 20
104.3248252191974
 30
0.0
 10
133.6677024091842
 20
104.6093736969811
 30
0.0
 10
133.6385256450902
 20
104.7488079387051
 30
0.0
 10
133.5242569652172
 20
105.1591638604283
 30
0.0
 10
133.4106520845115
 20
105.4247499135103
 30
0.0
 10
133.1290934533378
 20
105.9139643882624
 30
0.0
 10
132.9591735580125
 20
106.1421803468972
 30
0.0
 10
132.5791830437101
 20
106.5561459668725
 30
0.0
 10
132.3709097085
 20
106.7409245667568
 30
0.0
 10
131.9217689480579
 20
107.0726016291493
 30
0.0
 10
131.6787543965981
 20
107.2201903733089
 30
0.0
 10
131.1758715746831
 20
107.4710157298885
 30
0.0
 10
130.9149222849449
 20
107.57544360021
 30
0.0
 10
130.3740841497483
 20
107.7443221989211
 30
0.0
 10
130.0937983011573
 20
107.8083284788894
 30
0.0
 10
129.5331557204006
 20
107.8925679214098
 30
0.0
 10
129.2504405709381
 20
107.9136500167288
 30
0.0
 10
128.680142849897
 20
107.9134990539815
 30
0.0
 10
128.3916933791945
 20
107.8916976709639
 30
0.0
 10
127.8308997375601
 20
107.8065283560727
 30
0.0
 10
127.555886394282
 20
107.7433476309221
 30
0.0
 10
127.0165963561452
 20
107.5746256357072
 30
0.0
 10
126.7511467445464
 20
107.468103147019
 30
0.0
 10
126.2503731029498
 20
107.217568897406
 30
0.0
 10
126.0126040592459
 20
107.0730855710903
 30
0.0
 10
125.5636108117958
 20
106.7416730449256
 30
0.0
 10
125.3509328230879
 20
106.5527095659678
 30
0.0
 10
124.9729134522912
 20
106.1401414307801
 30
0.0
 10
124.8054300017099
 20
105.9156418025447
 30
0.0
 10
124.5214566452634
 20
105.4220435710078
 30
0.0
 10
124.4100500630328
 20
105.1612420417185
 30
0.0
 10
124.295250777801
 20
104.7496052154176
 30
0.0
 10
124.2656068820717
 20
104.6076068006773
 30
0.0
 10
124.2265322221425
 20
104.3240546563864
 30
0.0
 10
124.216806063297
 20
104.1820695665034
 30
0.0
 10
124.216806063297
 20
104.0398769604354
 30
0.0
  0
LINE
  5
B2
330
1F
100
AcDbEntity
  8
0
  6
Continuous
 62
     7
370
    15
100
AcDbLine
 10
138.2168060633
 20
104.0398769604
 30
0.0
 11
138.2168060633
 21
113.0398769604
 31
0.0
  0
LINE
  5
B3
330
1F
100
AcDbEntity
  8
0
  6
Continuous
 62
     7
370
    15
100
AcDbLine
 10
138.2168060633
 20
95.0398769604
 30
0.0
 11
138.2168060633
 21
104.0398769604
 31
0.0
  0
CIRCLE
  5
B4
330
1F
100
AcDbEntity
  8
0
  6
Continuous
 62
     7
370
    15
100
AcDbCircle
 10
128.9668060633
 20
104.0398769604
 30
0.0
 40
3.815068716574103
  0
LINE
  5
B5
330
1F
100
AcDbEntity
  8
0
  6
Continuous
 62
     7
370
    15
100
AcDbLine
 10
118.7168060633
 20
104.0398769604
 30
0.0
 11
118.7168060633
 21
111.8298769604
 31
0.0
  0
LINE
  5
B6
330
1F
100
AcDbEntity
  8
0
  6
Continuous
 62
     7
370
    15
100
AcDbLine
 10
118.7168060633
 20
96.2498769604
 30
0.0
 11
118.7168060633
 21
104.0398769604
 31
0.0
  0
SPLINE
  5
B7
330
1F
100
AcDbEntity
  8
0
  6
Continuous
 62
     7
370
    15
100
AcDbSpline
210
0.0
220
0.0
230
1.0
 70
    11
 71
     3
 72
    66
 73
    62
 74
     0
 42
0.000000001
 43
0.00000001
 40
0.0
 40
0.0
 40
0.0
 40
0.0
 40
0.0624999999999994
 40
0.0624999999999994
 40
0.0937499999999993
 40
0.0937499999999993
 40
0.1249999999999992
 40
0.1249999999999992
 40
0.1562499999999991
 40
0.1562499999999991
 40
0.1874999999999989
 40
0.1874999999999989
 40
0.2187499999999988
 40
0.2187499999999988
 40
0.2499999999999987
 40
0.2499999999999987
 40
0.2812499999999986
 40
0.2812499999999986
 40
0.3124999999999985
 40
0.3124999999999985
 40
0.3437499999999984
 40
0.3437499999999984
 40
0.3749999999999982
 40
0.3749999999999982
 40
0.4062499999999981
 40
0.4062499999999981
 40
0.437499999999998
 40
0.437499999999998
 40
0.4687499999999979
 40
0.4687499999999979
 40
0.4999999999999978
 40
0.4999999999999978
 40
0.5624999999999978
 40
0.5624999999999978
 40
0.5937499999999979
 40
0.5937499999999979
 40
0.6249999999999981
 40
0.6249999999999981
 40
0.6562499999999982
 40
0.6562499999999982
 40
0.6874999999999984
 40
0.6874999999999984
 40
0.7187499999999986
 40
0.7187499999999986
 40
0.7499999999999987
 40
0.7499999999999987
 40
0.7812499999999989
 40
0.7812499999999989
 40
0.812499999999999
 40
0.812499999999999
 40
0.8437499999999992
 40
0.8437499999999992
 40
0.8749999999999993
 40
0.8749999999999993
 40
0.9062499999999996
 40
0.9062499999999996
 40
0.9374999999999997
 40
0.9374999999999997
 40
0.9687499999999999
 40
0.9687499999999999
 40
1.0
 40
1.0
 40
1.0
 40
1.0
 10
127.213030636121
 20
102.3392554630044
 30
0.0
 10
127.4515206122582
 20
102.1380467390803
 30
0.0
 10
127.719028733379
 20
101.9866727466176
 30
0.0
 10
128.1737528370439
 20
101.8263803473003
 30
0.0
 10
128.32967026667
 20
101.786285182287
 30
0.0
 10
128.6508970055785
 20
101.7324817708399
 30
0.0
 10
128.8183931083091
 20
101.7189802273288
 30
0.0
 10
129.1477956182575
 20
101.720830227133
 30
0.0
 10
129.3108705572366
 20
101.7356319457314
 30
0.0
 10
129.6339010027483
 20
101.7931779243664
 30
0.0
 10
129.7905082653108
 20
101.8354989699974
 30
0.0
 10
130.089129632801
 20
101.9444880358723
 30
0.0
 10
130.2333066104141
 20
102.0121030674908
 30
0.0
 10
130.5023381361513
 20
102.169198931854
 30
0.0
 10
130.6279739094622
 20
102.2587107439517
 30
0.0
 10
130.8624031170241
 20
102.4618831369882
 30
0.0
 10
130.9706803011462
 20
102.5756206591956
 30
0.0
 10
131.1609009871097
 20
102.8208254348765
 30
0.0
 10
131.2441442517745
 20
102.9532500044068
 30
0.0
 10
131.3840012379529
 20
103.2417513355943
 30
0.0
 10
131.4393753655336
 20
103.3965937846579
 30
0.0
 10
131.513310217076
 20
103.7151107020658
 30
0.0
 10
131.532475379627
 20
103.8829116792571
 30
0.0
 10
131.5312415419561
 20
104.2128030456273
 30
0.0
 10
131.5112054096731
 20
104.3785878670143
 30
0.0
 10
131.4345309075933
 20
104.6986831725396
 30
0.0
 10
131.3790005671551
 20
104.8506617421549
 30
0.0
 10
131.2362232888464
 20
105.1402761294034
 30
0.0
 10
131.1509102969454
 20
105.2738344914599
 30
0.0
 10
130.9565775265777
 20
105.5200154221739
 30
0.0
 10
130.8467938987464
 20
105.6330847652017
 30
0.0
 10
130.4929586520986
 20
105.9343065737238
 30
0.0
 10
130.217037997401
 20
106.0912781214132
 30
0.0
 10
129.7692938385289
 20
106.2505002059766
 30
0.0
 10
129.6125653541472
 20
106.2916217901489
 30
0.0
 10
129.2873680935906
 20
106.3468792735731
 30
0.0
 10
129.1233301199435
 20
106.3603946801921
 30
0.0
 10
128.792262263414
 20
106.3593661952017
 30
0.0
 10
128.6247576623978
 20
106.3443147571738
 30
0.0
 10
128.3032754474403
 20
106.2873744694898
 30
0.0
 10
128.1460211290374
 20
106.2452156073403
 30
0.0
 10
127.8446712204704
 20
106.1354377687645
 30
0.0
 10
127.7023330345627
 20
106.0687174041726
 30
0.0
 10
127.4321157045016
 20
105.9111626321063
 30
0.0
 10
127.3040384063219
 20
105.8197876316579
 30
0.0
 10
127.070444077391
 20
105.6170755489745
 30
0.0
 10
126.9636576117332
 20
105.505157788504
 30
0.0
 10
126.7710008654668
 20
105.2566344455212
 30
0.0
 10
126.6860034395574
 20
105.1204360457182
 30
0.0
 10
126.5472880399402
 20
104.8320864552612
 30
0.0
 10
126.4919711288703
 20
104.6760192712136
 30
0.0
 10
126.418989940625
 20
104.3562409563482
 30
0.0
 10
126.4007090991431
 20
104.1929953904722
 30
0.0
 10
126.4028567630284
 20
103.8592940818225
 30
0.0
 10
126.4236408913702
 20
103.693791275543
 30
0.0
 10
126.5011073898433
 20
103.3749306704255
 30
0.0
 10
126.5584809345836
 20
103.2198382268679
 30
0.0
 10
126.7013748331019
 20
102.9328774056007
 30
0.0
 10
126.7883312144263
 20
102.7976908148301
 30
0.0
 10
126.9842769325495
 20
102.551735971123
 30
0.0
 10
127.0937856480523
 20
102.4398598249664
 30
0.0
 10
127.213030636121
 20
102.3392554630044
 30
0.0
  0
LINE
  5
B8
330
1F
100
AcDbEntity
  8
0
  6
HIDDEN
 62
     7
370
     0
100
AcDbLine
 10
167.8565106487
 20
113.3353578653
 30
0.0
 11
172.6668060633
 21
113.3353578653
 31
0.0
  0
LINE
  5
B9
330
1F
100
AcDbEntity
  8
0
  6
HIDDEN
 62
     7
370
     0
100
AcDbLine
 10
164.6668060633
 20
113.3353578653
 30
0.0
 11
167.8565106487
 21
113.3353578653
 31
0.0
  0
LINE
  5
BA
330
1F
100
AcDbEntity
  8
0
  6
HIDDEN
 62
     7
370
     0
100
AcDbLine
 10
167.8565106487
 20
118.5301019769
 30
0.0
 11
172.6668060633
 21
118.5301019769
 31
0.0
  0
LINE
  5
BB
330
1F
100
AcDbEntity
  8
0
  6
HIDDEN
 62
     7
370
     0
100
AcDbLine
 10
164.6668060633
 20
118.5301019769
 30
0.0
 11
167.8565106487
 21
118.5301019769
 31
0.0
  0
LINE
  5
BC
330
1F
100
AcDbEntity
  8
0
  6
HIDDEN
 62
     7
370
     0
100
AcDbLine
 10
167.9983123463
 20
119.2301019769
 30
0.0
 11
171.9668060633
 21
119.2301019769
 31
0.0
  0
LINE
  5
BD
330
1F
100
AcDbEntity
  8
0
  6
HIDDEN
 62
     7
370
     0
100
AcDbLine
 10
165.3668060633
 20
119.2301019769
 30
0.0
 11
167.9983123463
 21
119.2301019769
 31
0.0
  0
LINE
  5
BE
330
1F
100
AcDbEntity
  8
0
  6
HIDDEN
 62
     7
370
     0
100
AcDbLine
 10
168.1259740032
 20
109.2301019769
 30
0.0
 11
171.3366079669
 21
109.2301019769
 31
0.0
  0
LINE
  5
BF
330
1F
100
AcDbEntity
  8
0
  6
HIDDEN
 62
     7
370
     0
100
AcDbLine
 10
165.9970041597
 20
109.2301019769
 30
0.0
 11
168.1259740032
 21
109.2301019769
 31
0.0
  0
SPLINE
  5
C0
330
1F
100
AcDbEntity
  8
0
  6
HIDDEN
 62
     7
370
     0
100
AcDbSpline
210
0.0
220
0.0
230
1.0
 70
     8
 71
     3
 72
    11
 73
     7
 74
     0
 42
0.000000001
 43
0.00000001
 40
0.0
 40
0.0
 40
0.0
 40
0.0
 40
0.2164526859271176
 40
0.4403055508633993
 40
0.7518960204221898
 40
1.0
 40
1.0
 40
1.0
 40
1.0
 10
169.3924184743038
 20
119.1395030536947
 30
0.0
 10
169.497628314663
 20
119.0670651230319
 30
0.0
 10
169.711644955377
 20
118.9197127220799
 30
0.0
 10
170.1088049680494
 20
118.7968908365497
 30
0.0
 10
170.5348354912987
 20
118.8709375862739
 30
0.0
 10
170.8074711062118
 20
119.0570169298354
 30
0.0
 10
170.9283262998606
 20
119.1395030536947
 30
0.0
  0
SPLINE
  5
C1
330
1F
100
AcDbEntity
  8
0
  6
HIDDEN
 62
     7
370
     0
100
AcDbSpline
210
0.0
220
0.0
230
1.0
 70
     8
 71
     3
 72
    11
 73
     7
 74
     0
 42
0.000000001
 43
0.00000001
 40
0.0
 40
0.0
 40
0.0
 40
0.0
 40
0.2164526859271182
 40
0.4403055508634001
 40
0.7518960204221908
 40
1.0
 40
1.0
 40
1.0
 40
1.0
 10
170.9283262998606
 20
119.1395030536947
 30
0.0
 10
170.8786217768062
 20
119.0670651230319
 30
0.0
 10
170.7775134107441
 20
118.9197127220799
 30
0.0
 10
170.5898822068689
 20
118.7968908365498
 30
0.0
 10
170.3886116423248
 20
118.8709375862739
 30
0.0
 10
170.2598097815806
 20
119.0570169298354
 30
0.0
 10
170.2027138888538
 20
119.1395030536947
 30
0.0
  0
SPLINE
  5
C2
330
1F
100
AcDbEntity
  8
0
  6
HIDDEN
 62
     7
370
     0
100
AcDbSpline
210
0.0
220
0.0
230
1.0
 70
     8
 71
     3
 72
    13
 73
     9
 74
     0
 42
0.000000001
 43
0.00000001
 40
0.0
 40
0.0
 40
0.0
 40
0.0
 40
0.1844291914898609
 40
0.3522661073098666
 40
0.5197722555606425
 40
0.6955582578112937
 40
0.8717925323418633
 40
1.0
 40
1.0
 40
1.0
 40
1.0
 10
170.2027138888538
 20
119.1395030536947
 30
0.0
 10
170.0709340274874
 20
119.0769189975252
 30
0.0
 10
169.8192299539058
 20
118.9573812949068
 30
0.0
 10
169.4216121154861
 20
118.850746036978
 30
0.0
 10
169.0183216346712
 20
118.815327412524
 30
0.0
 10
168.6105991249692
 20
118.8732144925617
 30
0.0
 10
168.2488572689421
 20
118.9903674553088
 30
0.0
 10
168.0323639867869
 20
119.0953095200615
 30
0.0
 10
167.9411936522902
 20
119.1395030536947
 30
0.0
  0
SPLINE
  5
C3
330
1F
100
AcDbEntity
  8
0
  6
HIDDEN
 62
     7
370
     0
100
AcDbSpline
210
0.0
220
0.0
230
1.0
 70
     8
 71
     3
 72
    11
 73
     7
 74
     0
 42
0.000000001
 43
0.00000001
 40
0.0
 40
0.0
 40
0.0
 40
0.0
 40
0.2164526859271177
 40
0.4403055508633995
 40
0.7518960204221901
 40
1.0
 40
1.0
 40
1.0
 40
1.0
 10
167.9411936522902
 20
119.1395030536947
 30
0.0
 10
167.835983811931
 20
119.0670651230319
 30
0.0
 10
167.6219671712171
 20
118.9197127220799
 30
0.0
 10
167.2248071585446
 20
118.7968908365498
 30
0.0
 10
166.7987766352954
 20
118.8709375862739
 30
0.0
 10
166.5261410203823
 20
119.0570169298354
 30
0.0
 10
166.4052858267335
 20
119.1395030536947
 30
0.0
  0
SPLINE
  5
C4
330
1F
100
AcDbEntity
  8
0
  6
HIDDEN
 62
     7
370
     0
100
AcDbSpline
210
0.0
220
0.0
230
1.0
 70
     8
 71
     3
 72
    11
 73
     7
 74
     0
 42
0.000000001
 43
0.00000001
 40
0.0
 40
0.0
 40
0.0
 40
0.0
 40
0.2164526859271181
 40
0.4403055508633998
 40
0.7518960204221902
 40
1.0
 40
1.0
 40
1.0
 40
1.0
 10
166.4052858267335
 20
119.1395030536947
 30
0.0
 10
166.4549903497878
 20
119.0670651230319
 30
0.0
 10
166.5560987158499
 20
118.9197127220799
 30
0.0
 10
166.7437299197252
 20
118.7968908365498
 30
0.0
 10
166.9450004842692
 20
118.8709375862739
 30
0.0
 10
167.0738023450135
 20
119.0570169298354
 30
0.0
 10
167.1308982377403
 20
119.1395030536947
 30
0.0
  0
SPLINE
  5
C5
330
1F
100
AcDbEntity
  8
0
  6
HIDDEN
 62
     7
370
     0
100
AcDbSpline
210
0.0
220
0.0
230
1.0
 70
     8
 71
     3
 72
    13
 73
     9
 74
     0
 42
0.000000001
 43
0.00000001
 40
0.0
 40
0.0
 40
0.0
 40
0.0
 40
0.1282074676581368
 40
0.3044417421887077
 40
0.4802277444393573
 40
0.6477338926901345
 40
0.8155708085101389
 40
1.0
 40
1.0
 40
1.0
 40
1.0
 10
167.1308982377403
 20
119.1395030536947
 30
0.0
 10
167.222068572237
 20
119.0953095200615
 30
0.0
 10
167.4385618543921
 20
118.9903674553088
 30
0.0
 10
167.8003037104192
 20
118.8732144925617
 30
0.0
 10
168.2080262201213
 20
118.815327412524
 30
0.0
 10
168.6113167009361
 20
118.850746036978
 30
0.0
 10
169.0089345393559
 20
118.9573812949068
 30
0.0
 10
169.2606386129375
 20
119.0769189975252
 30
0.0
 10
169.3924184743038
 20
119.1395030536947
 30
0.0
  0
LINE
  5
C6
330
1F
100
AcDbEntity
  8
0
  6
HIDDEN
 62
     7
370
     0
100
AcDbLine
 10
168.261658356
 20
113.2301019769
 30
0.0
 11
170.6668060633
 21
113.2301019769
 31
0.0
  0
LINE
  5
C7
330
1F
100
AcDbEntity
  8
0
  6
HIDDEN
 62
     7
370
     0
100
AcDbLine
 10
166.6668060633
 20
113.2301019769
 30
0.0
 11
168.261658356
 21
113.2301019769
 31
0.0
  0
LINE
  5
C8
330
1F
100
AcDbEntity
  8
0
  6
HIDDEN
 62
     7
370
     0
100
AcDbLine
 10
170.1603723871
 20
114.2301019769
 30
0.0
 11
169.3924184743
 21
114.2301019769
 31
0.0
  0
LINE
  5
C9
330
1F
100
AcDbEntity
  8
0
  6
HIDDEN
 62
     7
370
     0
100
AcDbLine
 10
169.3924184743
 20
114.2301019769
 30
0.0
 11
168.261658356
 21
114.2301019769
 31
0.0
  0
LINE
  5
CA
330
1F
100
AcDbEntity
  8
0
  6
HIDDEN
 62
     7
370
     0
100
AcDbLine
 10
169.3924184743
 20
114.2301019769
 30
0.0
 11
169.3924184743
 21
119.1395030537
 31
0.0
  0
LINE
  5
CB
330
1F
100
AcDbEntity
  8
0
  6
HIDDEN
 62
     7
370
     0
100
AcDbLine
 10
168.261658356
 20
114.2301019769
 30
0.0
 11
167.1308982377
 21
114.2301019769
 31
0.0
  0
LINE
  5
CC
330
1F
100
AcDbEntity
  8
0
  6
HIDDEN
 62
     7
370
     0
100
AcDbLine
 10
167.1308982377
 20
114.2301019769
 30
0.0
 11
166.7680920322
 21
114.2301019769
 31
0.0
  0
LINE
  5
CD
330
1F
100
AcDbEntity
  8
0
  6
HIDDEN
 62
     7
370
     0
100
AcDbLine
 10
167.1308982377
 20
114.2301019769
 30
0.0
 11
167.1308982377
 21
119.1395030537
 31
0.0
  0
LINE
  5
CE
330
1F
100
AcDbEntity
  8
0
  6
HIDDEN
 62
     7
370
     0
100
AcDbLine
 10
170.9283262999
 20
114.2301019769
 30
0.0
 11
170.1603723871
 21
114.2301019769
 31
0.0
  0
LINE
  5
CF
330
1F
100
AcDbEntity
  8
0
  6
HIDDEN
 62
     7
370
     0
100
AcDbLine
 10
166.7680920322
 20
114.2301019769
 30
0.0
 11
166.4052858267
 21
114.2301019769
 31
0.0
  0
LINE
  5
D0
330
1F
100
AcDbEntity
  8
0
  6
HIDDEN
 62
     7
370
     0
100
AcDbLine
 10
170.2027138889
 20
114.2301019769
 30
0.0
 11
170.2027138889
 21
119.1395030537
 31
0.0
  0
LINE
  5
D1
330
1F
100
AcDbEntity
  8
0
  6
HIDDEN
 62
     7
370
     0
100
AcDbLine
 10
170.9283262999
 20
114.2301019769
 30
0.0
 11
170.9283262999
 21
119.1395030537
 31
0.0
  0
LINE
  5
D2
330
1F
100
AcDbEntity
  8
0
  6
HIDDEN
 62
     7
370
     0
100
AcDbLine
 10
167.9411936523
 20
114.2301019769
 30
0.0
 11
167.9411936523
 21
119.1395030537
 31
0.0
  0
LINE
  5
D3
330
1F
100
AcDbEntity
  8
0
  6
HIDDEN
 62
     7
370
     0
100
AcDbLine
 10
166.4052858267
 20
114.2301019769
 30
0.0
 11
166.4052858267
 21
119.1395030537
 31
0.0
  0
ARC
  5
D4
330
1F
100
AcDbEntity
  8
0
  6
HIDDEN
 62
     7
370
     0
100
AcDbCircle
 10
168.6668060633
 20
104.0398769604
 30
0.0
 40
3.999999999999999
100
AcDbArc
 50
258.3124885099
 51
131.9005635372
  0
ARC
  5
D5
330
1F
100
AcDbEntity
  8
0
  6
HIDDEN
 62
     7
370
     0
100
AcDbCircle
 10
168.6668060633
 20
104.0398769604
 30
0.0
 40
3.999999999999999
100
AcDbArc
 50
136.6548026682
 51
258.3124885099
  0
SPLINE
  5
D6
330
1F
100
AcDbEntity
  8
0
  6
HIDDEN
 62
     7
370
     0
100
AcDbSpline
210
0.0
220
0.0
230
1.0
 70
     8
 71
     3
 72
     9
 73
     5
 74
     0
 42
0.000000001
 43
0.00000001
 40
0.0
 40
0.0
 40
0.0
 40
0.0
 40
0.992284842979347
 40
1.0
 40
1.0
 40
1.0
 40
1.0
 10
165.8025562047939
 20
119.7934567585051
 30
0.0
 10
165.9903361471554
 20
119.7655588488485
 30
0.0
 10
166.1795761055103
 20
119.7374440289418
 30
0.0
 10
166.399233143524
 20
119.7157149876469
 30
0.0
 10
166.400927832063
 20
119.7155473446814
 30
0.0
  0
LINE
  5
D7
330
1F
100
AcDbEntity
  8
0
  6
HIDDEN
 62
     7
370
     0
100
AcDbLine
 10
158.2168060633
 20
112.7398769604
 30
0.0
 11
158.2168060633
 21
95.3398769604
 31
0.0
  0
LINE
  5
D8
330
1F
100
AcDbEntity
  8
0
  6
HIDDEN
 62
     7
370
     0
100
AcDbLine
 10
161.5828314671
 20
113.0398769604
 30
0.0
 11
161.5828314671
 21
95.0398769604
 31
0.0
  0
SPLINE
  5
D9
330
1F
100
AcDbEntity
  8
0
  6
HIDDEN
 62
     7
370
     0
100
AcDbSpline
210
0.0
220
0.0
230
1.0
 70
     8
 71
     3
 72
    27
 73
    23
 74
     0
 42
0.000000001
 43
0.00000001
 40
0.0
 40
0.0
 40
0.0
 40
0.0
 40
0.0502798996615414
 40
0.1020815958434398
 40
0.1523451846184314
 40
0.2039612009162773
 40
0.2562926305703659
 40
0.3100211317533154
 40
0.3643984459946342
 40
0.4204878619743402
 40
0.4724363672698233
 40
0.5261085115503358
 40
0.5747890124075472
 40
0.6248348633336006
 40
0.6745588077235825
 40
0.7255396080705395
 40
0.778824645433835
 40
0.8335957636189002
 40
0.887697233340735
 40
0.943553193010875
 40
0.9945989271325593
 40
1.0
 40
1.0
 40
1.0
 40
1.0
 10
165.166806063297
 20
113.0398769604354
 30
0.0
 10
165.1754266539855
 20
113.0365066747732
 30
0.0
 10
165.1929287504597
 20
113.029664096702
 30
0.0
 10
165.3331438786918
 20
112.9759842354815
 30
0.0
 10
165.5531869672853
 20
112.8956956128725
 30
0.0
 10
165.8539757507919
 20
112.7935928264855
 30
0.0
 10
166.2340666241155
 20
112.6778806125232
 30
0.0
 10
166.6875649063046
 20
112.5599876584577
 30
0.0
 10
167.210543358532
 20
112.4524707443088
 30
0.0
 10
167.7748827786131
 20
112.3725850268465
 30
0.0
 10
168.3657878557858
 20
112.3299749777302
 30
0.0
 10
168.9397694568253
 20
112.3294222343305
 30
0.0
 10
169.4973630012086
 20
112.3673099336858
 30
0.0
 10
170.0174450702778
 20
112.4357415438899
 30
0.0
 10
170.5087579787879
 20
112.5294373667407
 30
0.0
 10
170.9620680622324
 20
112.6399004313854
 30
0.0
 10
171.3688296757929
 20
112.758139287332
 30
0.0
 10
171.7078568561427
 20
112.8700296830678
 30
0.0
 10
171.9683242242338
 20
112.9638934307743
 30
0.0
 10
172.1174714088477
 20
113.0206420057551
 30
0.0
 10
172.1791165833759
 20
113.0446429016958
 30
0.0
 10
172.1637849978875
 20
113.0387070597377
 30
0.0
 10
172.1623180059563
 20
113.0381390928915
 30
0.0
  0
LINE
  5
DA
330
1F
100
AcDbEntity
  8
0
  6
HIDDEN
 62
     7
370
     0
100
AcDbLine
 10
125.1517373467
 20
112.104945677
 30
0.0
 11
132.7818747799
 21
112.104945677
 31
0.0
  0
LINE
  5
DB
330
1F
100
AcDbEntity
  8
0
  6
HIDDEN
 62
     7
370
     0
100
AcDbLine
 10
168.6668060633
 20
119.2898769604
 30
0.0
 11
172.1668060633
 21
119.2898769604
 31
0.0
  0
LINE
  5
DC
330
1F
100
AcDbEntity
  8
0
  6
HIDDEN
 62
     7
370
     0
100
AcDbLine
 10
165.1668060633
 20
119.2898769604
 30
0.0
 11
168.6668060633
 21
119.2898769604
 31
0.0
  0
LINE
  5
DD
330
1F
100
AcDbEntity
  8
0
  6
HIDDEN
 62
     7
370
     0
100
AcDbLine
 10
119.7560365478
 20
104.0398769604
 30
0.0
 11
119.7560365478
 21
107.4398769604
 31
0.0
  0
LINE
  5
DE
330
1F
100
AcDbEntity
  8
0
  6
HIDDEN
 62
     7
370
     0
100
AcDbLine
 10
119.7560365478
 20
100.6398769604
 30
0.0
 11
119.7560365478
 21
104.0398769604
 31
0.0
  0
SPLINE
  5
DF
330
1F
100
AcDbEntity
  8
0
  6
HIDDEN
 62
     7
370
     0
100
AcDbSpline
210
0.0
220
0.0
230
1.0
 70
     8
 71
     3
 72
    22
 73
    18
 74
     0
 42
0.000000001
 43
0.00000001
 40
0.0
 40
0.0
 40
0.0
 40
0.0
 40
0.0382878818145237
 40
0.1153736315345463
 40
0.197867654570097
 40
0.2958460902764218
 40
0.3533212837558189
 40
0.4125094489149932
 40
0.50524430734887
 40
0.5980557787052547
 40
0.692279723261112
 40
0.7479668527394557
 40
0.8051151287708669
 40
0.8988726930884997
 40
0.9453686009643987
 40
0.9937210492090899
 40
1.0
 40
1.0
 40
1.0
 40
1.0
 10
126.4270691983698
 20
107.424027010297
 30
0.0
 10
126.421509016711
 20
107.4274969211129
 30
0.0
 10
126.4047544113482
 20
107.4379528720029
 30
0.0
 10
126.5790664342261
 20
107.3291628394804
 30
0.0
 10
126.9234720248158
 20
107.1280997822366
 30
0.0
 10
127.3756627464821
 20
106.8979470124566
 30
0.0
 10
127.8503234799099
 20
106.7122570643334
 30
0.0
 10
128.3590662863809
 20
106.5672796824749
 30
0.0
 10
129.0107066750365
 20
106.4948349232511
 30
0.0
 10
129.7490390827638
 20
106.5977725720934
 30
0.0
 10
130.3177847406712
 20
106.7964363988083
 30
0.0
 10
130.7366975158069
 20
106.9883909047315
 30
0.0
 10
131.0974221500655
 20
107.1774577415537
 30
0.0
 10
131.3635431905905
 20
107.335516686564
 30
0.0
 10
131.4929032785188
 20
107.4154016586485
 30
0.0
 10
131.5472703129984
 20
107.449453313205
 30
0.0
 10
131.5273691672603
 20
107.437073533446
 30
0.0
 10
131.5250818688023
 20
107.4356506881724
 30
0.0
  0
LINE
  5
E0
330
1F
100
AcDbEntity
  8
0
  6
HIDDEN
 62
     7
370
     0
100
AcDbLine
 10
127.338018787
 20
106.9305607911
 30
0.0
 11
127.2130306361
 21
106.9840044241
 31
0.0
  0
LINE
  5
E1
330
1F
100
AcDbEntity
  8
0
  6
HIDDEN
 62
     7
370
     0
100
AcDbLine
 10
164.6668060633
 20
118.5301019769
 30
0.0
 11
164.6668060633
 21
113.3353578653
 31
0.0
  0
LINE
  5
E2
330
1F
100
AcDbEntity
  8
0
  6
HIDDEN
 62
     7
370
     0
100
AcDbLine
 10
172.6668060633
 20
113.3353578653
 30
0.0
 11
172.6668060633
 21
118.5301019769
 31
0.0
  0
LINE
  5
E3
330
1F
100
AcDbEntity
  8
0
  6
HIDDEN
 62
     7
370
     0
100
AcDbLine
 10
172.6668060633
 20
118.5301019769
 30
0.0
 11
171.9668060633
 21
119.2301019769
 31
0.0
  0
LINE
  5
E4
330
1F
100
AcDbEntity
  8
0
  6
HIDDEN
 62
     7
370
     0
100
AcDbLine
 10
165.3668060633
 20
119.2301019769
 30
0.0
 11
164.6668060633
 21
118.5301019769
 31
0.0
  0
LINE
  5
E5
330
1F
100
AcDbEntity
  8
0
  6
HIDDEN
 62
     7
370
     0
100
AcDbLine
 10
164.6668060633
 20
113.3353578653
 30
0.0
 11
165.7072264118
 21
109.4524562634
 31
0.0
  0
LINE
  5
E6
330
1F
100
AcDbEntity
  8
0
  6
HIDDEN
 62
     7
370
     0
100
AcDbLine
 10
171.6263857148
 20
109.4524562634
 30
0.0
 11
172.6668060633
 21
113.3353578653
 31
0.0
  0
ARC
  5
E7
330
1F
100
AcDbEntity
  8
0
  6
HIDDEN
 62
     7
370
     0
100
AcDbCircle
 10
165.9970041597
 20
109.5301019769
 30
0.0
 40
0.2999999999999972
100
AcDbArc
 50
195.0
 51
270.0
  0
ARC
  5
E8
330
1F
100
AcDbEntity
  8
0
  6
HIDDEN
 62
     7
370
     0
100
AcDbCircle
 10
171.3366079669
 20
109.5301019769
 30
0.0
 40
0.2999999999999972
100
AcDbArc
 50
270.0
 51
345.0
  0
LINE
  5
E9
330
1F
100
AcDbEntity
  8
0
  6
HIDDEN
 62
     7
370
     0
100
AcDbLine
 10
166.2668060633
 20
119.2301019769
 30
0.0
 11
166.5594204821
 21
118.9374875581
 31
0.0
  0
LINE
  5
EA
330
1F
100
AcDbEntity
  8
0
  6
HIDDEN
 62
     7
370
     0
100
AcDbLine
 10
170.7741916445
 20
118.9374875581
 30
0.0
 11
171.0668060633
 21
119.2301019769
 31
0.0
  0
LINE
  5
EB
330
1F
100
AcDbEntity
  8
0
  6
HIDDEN
 62
     7
370
     0
100
AcDbLine
 10
166.6668060633
 20
114.2301019769
 30
0.0
 11
166.6668060633
 21
113.2301019769
 31
0.0
  0
LINE
  5
EC
330
1F
100
AcDbEntity
  8
0
  6
HIDDEN
 62
     7
370
     0
100
AcDbLine
 10
170.6668060633
 20
113.2301019769
 30
0.0
 11
170.6668060633
 21
114.2301019769
 31
0.0
  0
LINE
  5
ED
330
1F
100
AcDbEntity
  8
0
  6
HIDDEN
 62
     7
370
     0
100
AcDbLine
 10
166.6668060633
 20
113.2301019769
 30
0.0
 11
168.6668060633
 21
112.5021615084
 31
0.0
  0
LINE
  5
EE
330
1F
100
AcDbEntity
  8
0
  6
HIDDEN
 62
     7
370
     0
100
AcDbLine
 10
168.6668060633
 20
112.5021615084
 30
0.0
 11
170.6668060633
 21
113.2301019769
 31
0.0
  0
LINE
  5
EF
330
1F
100
AcDbEntity
  8
0
  6
HIDDEN
 62
     7
370
     0
100
AcDbLine
 10
140.7168060633
 20
93.3248469288
 30
0.0
 11
140.9109669045
 21
94.7063730999
 31
0.0
  0
LINE
  5
F0
330
1F
100
AcDbEntity
  8
0
  6
HIDDEN
 62
     7
370
     0
100
AcDbLine
 10
140.9109669045
 20
113.373380821
 30
0.0
 11
140.7168060633
 21
114.7549069921
 31
0.0
  0
ARC
  5
F1
330
1F
100
AcDbEntity
  8
0
  6
HIDDEN
 62
     7
370
     0
100
AcDbCircle
 10
179.7168060633
 20
114.0398769604
 30
0.0
 40
1.0
100
AcDbArc
 50
270.0
 51
0.0
  0
ARC
  5
F2
330
1F
100
AcDbEntity
  8
0
  6
HIDDEN
 62
     7
370
     0
100
AcDbCircle
 10
179.7168060633
 20
94.0398769604
 30
0.0
 40
1.0
100
AcDbArc
 50
0.0
 51
90.0
  0
ARC
  5
F3
330
1F
100
AcDbEntity
  8
0
  6
HIDDEN
 62
     7
370
     0
100
AcDbCircle
 10
159.6114840652
 20
112.7398769604
 30
0.0
 40
0.7999999999999982
100
AcDbArc
 50
75.0
 51
90.0
  0
ARC
  5
F4
330
1F
100
AcDbEntity
  8
0
  6
HIDDEN
 62
     7
370
     0
100
AcDbCircle
 10
159.6114840652
 20
95.3398769604
 30
0.0
 40
0.7999999999999982
100
AcDbArc
 50
270.0
 51
285.0
  0
LINE
  5
F5
330
1F
100
AcDbEntity
  8
0
  6
HIDDEN
 62
     7
370
     0
100
AcDbLine
 10
159.6114840652
 20
113.5398769604
 30
0.0
 11
159.0168060633
 21
113.5398769604
 31
0.0
  0
LINE
  5
F6
330
1F
100
AcDbEntity
  8
0
  6
HIDDEN
 62
     7
370
     0
100
AcDbLine
 10
159.0168060633
 20
94.5398769604
 30
0.0
 11
159.6114840652
 21
94.5398769604
 31
0.0
  0
ARC
  5
F7
330
1F
100
AcDbEntity
  8
0
  6
HIDDEN
 62
     7
370
     0
100
AcDbCircle
 10
159.0168060633
 20
112.7398769604
 30
0.0
 40
0.8000000000000114
100
AcDbArc
 50
90.0
 51
180.0
  0
ARC
  5
F8
330
1F
100
AcDbEntity
  8
0
  6
HIDDEN
 62
     7
370
     0
100
AcDbCircle
 10
159.0168060633
 20
95.3398769604
 30
0.0
 40
0.8000000000000114
100
AcDbArc
 50
180.0
 51
270.0
  0
LINE
  5
F9
330
1F
100
AcDbEntity
  8
0
  6
HIDDEN
 62
     7
370
     0
100
AcDbLine
 10
159.8185393013
 20
94.5671362994
 30
0.0
 11
161.5828314671
 21
95.0398769604
 31
0.0
  0
LINE
  5
FA
330
1F
100
AcDbEntity
  8
0
  6
HIDDEN
 62
     7
370
     0
100
AcDbLine
 10
161.5828314671
 20
113.0398769604
 30
0.0
 11
159.8185393013
 21
113.5126176215
 31
0.0
  0
ARC
  5
FB
330
1F
100
AcDbEntity
  8
0
  6
HIDDEN
 62
     7
370
     0
100
AcDbCircle
 10
140.3168060633
 20
94.7898769604
 30
0.0
 40
0.5999999999999871
100
AcDbArc
 50
352.0
 51
0.0
  0
ARC
  5
FC
330
1F
100
AcDbEntity
  8
0
  6
HIDDEN
 62
     7
370
     0
100
AcDbCircle
 10
140.3168060633
 20
94.7898769604
 30
0.0
 40
0.5999999999999864
100
AcDbArc
 50
0.0
 51
48.1896851042
  0
ARC
  5
FD
330
1F
100
AcDbEntity
  8
0
  6
HIDDEN
 62
     7
370
     0
100
AcDbCircle
 10
140.3168060633
 20
113.2898769604
 30
0.0
 40
0.5999999999999851
100
AcDbArc
 50
348.75
 51
8.0
  0
ARC
  5
FE
330
1F
100
AcDbEntity
  8
0
  6
HIDDEN
 62
     7
370
     0
100
AcDbCircle
 10
140.3168060633
 20
113.2898769604
 30
0.0
 40
0.5999999999999864
100
AcDbArc
 50
311.8103148958
 51
348.75
  0
LINE
  5
FF
330
1F
100
AcDbEntity
  8
0
  6
HIDDEN
 62
     7
370
     0
100
AcDbLine
 10
140.9168060633
 20
94.7898769604
 30
0.0
 11
140.9168060633
 21
113.2898769604
 31
0.0
  0
LINE
  5
100
330
1F
100
AcDbEntity
  8
0
  6
HIDDEN
 62
     7
370
     0
100
AcDbLine
 10
165.1668060633
 20
113.0398769604
 30
0.0
 11
161.5828314671
 21
113.0398769604
 31
0.0
  0
LINE
  5
101
330
1F
100
AcDbEntity
  8
0
  6
HIDDEN
 62
     7
370
     0
100
AcDbLine
 10
179.7168060633
 20
113.0398769604
 30
0.0
 11
172.162318006
 21
113.0398769604
 31
0.0
  0
LINE
  5
102
330
1F
100
AcDbEntity
  8
0
  6
HIDDEN
 62
     7
370
     0
100
AcDbLine
 10
161.5828314671
 20
95.0398769604
 30
0.0
 11
179.7168060633
 21
95.0398769604
 31
0.0
  0
LINE
  5
103
330
1F
100
AcDbEntity
  8
0
  6
HIDDEN
 62
     7
370
     0
100
AcDbLine
 10
124.2168060633
 20
113.0398769604
 30
0.0
 11
125.1517373467
 21
112.104945677
 31
0.0
  0
LINE
  5
104
330
1F
100
AcDbEntity
  8
0
  6
HIDDEN
 62
     7
370
     0
100
AcDbLine
 10
132.7818747799
 20
112.104945677
 30
0.0
 11
133.7168060633
 21
113.0398769604
 31
0.0
  0
LINE
  5
105
330
1F
100
AcDbEntity
  8
0
  6
HIDDEN
 62
     7
370
     0
100
AcDbLine
 10
164.4168060633
 20
120.0398769604
 30
0.0
 11
165.1668060633
 21
119.2898769604
 31
0.0
  0
LINE
  5
106
330
1F
100
AcDbEntity
  8
0
  6
HIDDEN
 62
     7
370
     0
100
AcDbLine
 10
172.1668060633
 20
119.2898769604
 30
0.0
 11
172.9168060633
 21
120.0398769604
 31
0.0
  0
LINE
  5
107
330
1F
100
AcDbEntity
  8
0
  6
HIDDEN
 62
     7
370
     0
100
AcDbLine
 10
118.7168060633
 20
100.0398769604
 30
0.0
 11
119.7560365478
 21
100.6398769604
 31
0.0
  0
LINE
  5
108
330
1F
100
AcDbEntity
  8
0
  6
HIDDEN
 62
     7
370
     0
100
AcDbLine
 10
119.7560365478
 20
107.4398769604
 30
0.0
 11
118.7168060633
 21
108.0398769604
 31
0.0
  0
LINE
  5
109
330
1F
100
AcDbEntity
  8
0
  6
HIDDEN
 62
     7
370
     0
100
AcDbLine
 10
125.1517373467
 20
112.104945677
 30
0.0
 11
126.4073980483
 21
107.4187561415
 31
0.0
  0
LINE
  5
10A
330
1F
100
AcDbEntity
  8
0
  6
HIDDEN
 62
     7
370
     0
100
AcDbLine
 10
131.5303618713
 20
107.4342359158
 30
0.0
 11
132.7818747799
 21
112.104945677
 31
0.0
  0
LINE
  5
10B
330
1F
100
AcDbEntity
  8
0
  6
HIDDEN
 62
     7
370
     0
100
AcDbLine
 10
165.1668060633
 20
119.2898769604
 30
0.0
 11
165.1668060633
 21
113.0398769604
 31
0.0
  0
LINE
  5
10C
330
1F
100
AcDbEntity
  8
0
  6
HIDDEN
 62
     7
370
     0
100
AcDbLine
 10
172.1668060633
 20
113.0381456017
 30
0.0
 11
172.1668060633
 21
119.2898769604
 31
0.0
  0
LINE
  5
10D
330
1F
100
AcDbEntity
  8
0
  6
HIDDEN
 62
     7
370
     0
100
AcDbLine
 10
126.4270701341
 20
107.4398769604
 30
0.0
 11
119.7560365478
 21
107.4398769604
 31
0.0
  0
LINE
  5
10E
330
1F
100
AcDbEntity
  8
0
  6
HIDDEN
 62
     7
370
     0
100
AcDbLine
 10
158.2168060633
 20
107.4398769604
 30
0.0
 11
131.5250538099
 21
107.4398769604
 31
0.0
  0
LINE
  5
10F
330
1F
100
AcDbEntity
  8
0
  6
HIDDEN
 62
     7
370
     0
100
AcDbLine
 10
119.7560365478
 20
100.6398769604
 30
0.0
 11
158.2168060633
 21
100.6398769604
 31
0.0
  0
DIMENSION
  5
110
330
1F
100
AcDbEntity
  8
VERMASSUNG
100
AcDbDimension
  2
_D
 10
190.7168060633
 20
95.0398769604
 30
0.0
 11
190.7168060633
 21
104.0398769604
 31
0.0
 70
   160
  1
%%c<>
 71
     2
 42
-1.0
  3
SLDDIMSTYLE0
100
AcDbAlignedDimension
 13
179.7168060633
 23
113.0398769604
 33
0.0
 14
179.7168060633
 24
95.0398769604
 34
0.0
 50
90.0
100
AcDbRotatedDimension
  0
DIMENSION
  5
11C
330
1F
100
AcDbEntity
  8
VERMASSUNG
100
AcDbDimension
  2
_D_1
 10
196.9168060633
 20
88.0398769604
 30
0.0
 11
196.9168060633
 21
104.0398769604
 31
0.0
 70
   160
  1
WH%%c<>
 71
     2
 42
-1.0
  3
SLDDIMSTYLE0
100
AcDbAlignedDimension
 13
180.4168060633
 23
120.0398769604
 33
0.0
 14
180.4168060633
 24
88.0398769604
 34
0.0
 50
90.0
100
AcDbRotatedDimension
  0
DIMENSION
  5
128
330
1F
100
AcDbEntity
  8
VERMASSUNG
100
AcDbDimension
  2
_D_2
 10
140.7168060633
 20
130.1398769604
 30
0.0
 11
160.7168060633
 21
130.1398769604
 31
0.0
 70
   160
  1
<>
 71
     2
 42
-1.0
  3
SLDDIMSTYLE0
100
AcDbAlignedDimension
 13
180.7168060633
 23
119.7398769604
 33
0.0
 14
140.7168060633
 24
119.7398769604
 34
0.0
100
AcDbRotatedDimension
  0
DIMENSION
  5
132
330
1F
100
AcDbEntity
  8
VERMASSUNG
100
AcDbDimension
  2
_D_3
 10
118.7168060633
 20
136.1398769604
 30
0.0
 11
149.7168060633
 21
136.1398769604
 31
0.0
 70
   160
  1
(<>)
 71
     2
 42
-1.0
  3
SLDDIMSTYLE0
100
AcDbAlignedDimension
 13
180.7168060633
 23
119.7398769604
 33
0.0
 14
118.7168060633
 24
111.8298769604
 34
0.0
100
AcDbRotatedDimension
  0
LINE
  5
13E
330
1F
100
AcDbEntity
  8
VERMASSUNG
  6
CENTERX2
370
     0
100
AcDbLine
 10
116.7351744406
 20
104.0398769604
 30
0.0
 11
182.9259336261
 21
104.0398769604
 31
0.0
  0
OLE2FRAME
  5
13F
330
1F
100
AcDbEntity
  8
0
100
AcDbOle2Frame
 70
     2
  3
Paintbrush-Bild
 10
13.8511154363
 20
38.264191557
 30
0.0
 11
51.6290888628
 21
31.9806341108
 31
0.0
 71
     2
 72
     0
 73
     1
 90
    12928
310
80552BED0767C5B32B40DDAF6807D121434000000000000000006FFBDDFB85D0
310
4940DDAF6807D121434000000000000000006FFBDDFB85D04940416F4BD60AFB
310
3F4000000000000000002BED0767C5B32B40416F4BD60AFB3F40000000000000
310
0000000000000100000000010000010000000100000000000100000000320000
310
D0CF11E0A1B11AE1000000000000000000000000000000003E000300FEFF0900
310
0600000000000000000000000100000001000000000000000010000002000000
310
01000000FEFFFFFF0000000000000000FFFFFFFFFFFFFFFFFFFFFFFFFFFFFFFF
310
FFFFFFFFFFFFFFFFFFFFFFFFFFFFFFFFFFFFFFFFFFFFFFFFFFFFFFFFFFFFFFFF
310
FFFFFFFFFFFFFFFFFFFFFFFFFFFFFFFFFFFFFFFFFFFFFFFFFFFFFFFFFFFFFFFF
310
FFFFFFFFFFFFFFFFFFFFFFFFFFFFFFFFFFFFFFFFFFFFFFFFFFFFFFFFFFFFFFFF
310
FFFFFFFFFFFFFFFFFFFFFFFFFFFFFFFFFFFFFFFFFFFFFFFFFFFFFFFFFFFFFFFF
310
FFFFFFFFFFFFFFFFFFFFFFFFFFFFFFFFFFFFFFFFFFFFFFFFFFFFFFFFFFFFFFFF
310
FFFFFFFFFFFFFFFFFFFFFFFFFFFFFFFFFFFFFFFFFFFFFFFFFFFFFFFFFFFFFFFF
310
FFFFFFFFFFFFFFFFFFFFFFFFFFFFFFFFFFFFFFFFFFFFFFFFFFFFFFFFFFFFFFFF
310
FFFFFFFFFFFFFFFFFFFFFFFFFFFFFFFFFFFFFFFFFFFFFFFFFFFFFFFFFFFFFFFF
310
FFFFFFFFFFFFFFFFFFFFFFFFFFFFFFFFFFFFFFFFFFFFFFFFFFFFFFFFFFFFFFFF
310
FFFFFFFFFFFFFFFFFFFFFFFFFFFFFFFFFFFFFFFFFFFFFFFFFFFFFFFFFFFFFFFF
310
FFFFFFFFFFFFFFFFFFFFFFFFFFFFFFFFFFFFFFFFFFFFFFFFFFFFFFFFFFFFFFFF
310
FFFFFFFFFFFFFFFFFFFFFFFFFFFFFFFFFFFFFFFFFFFFFFFFFFFFFFFFFFFFFFFF
310
FFFFFFFFFFFFFFFFFFFFFFFFFFFFFFFFFFFFFFFFFFFFFFFFFFFFFFFFFFFFFFFF
310
FDFFFFFFFEFFFFFFFEFFFFFFFEFFFFFF05000000060000000700000008000000
310
090000000A0000000B0000000C0000000D0000000E0000000F00000010000000
310
11000000120000001300000014000000150000001600000017000000FEFFFFFF
310
FFFFFFFFFFFFFFFFFFFFFFFFFFFFFFFFFFFFFFFFFFFFFFFFFFFFFFFFFFFFFFFF
310
FFFFFFFFFFFFFFFFFFFFFFFFFFFFFFFFFFFFFFFFFFFFFFFFFFFFFFFFFFFFFFFF
310
FFFFFFFFFFFFFFFFFFFFFFFFFFFFFFFFFFFFFFFFFFFFFFFFFFFFFFFFFFFFFFFF
310
FFFFFFFFFFFFFFFFFFFFFFFFFFFFFFFFFFFFFFFFFFFFFFFFFFFFFFFFFFFFFFFF
310
FFFFFFFFFFFFFFFFFFFFFFFFFFFFFFFFFFFFFFFFFFFFFFFFFFFFFFFFFFFFFFFF
310
FFFFFFFFFFFFFFFFFFFFFFFFFFFFFFFFFFFFFFFFFFFFFFFFFFFFFFFFFFFFFFFF
310
FFFFFFFFFFFFFFFFFFFFFFFFFFFFFFFFFFFFFFFFFFFFFFFFFFFFFFFFFFFFFFFF
310
FFFFFFFFFFFFFFFFFFFFFFFFFFFFFFFFFFFFFFFFFFFFFFFFFFFFFFFFFFFFFFFF
310
FFFFFFFFFFFFFFFFFFFFFFFFFFFFFFFFFFFFFFFFFFFFFFFFFFFFFFFFFFFFFFFF
310
FFFFFFFFFFFFFFFFFFFFFFFFFFFFFFFFFFFFFFFFFFFFFFFFFFFFFFFFFFFFFFFF
310
FFFFFFFFFFFFFFFFFFFFFFFFFFFFFFFFFFFFFFFFFFFFFFFFFFFFFFFFFFFFFFFF
310
FFFFFFFFFFFFFFFFFFFFFFFFFFFFFFFFFFFFFFFFFFFFFFFFFFFFFFFFFFFFFFFF
310
FFFFFFFFFFFFFFFFFFFFFFFFFFFFFFFFFFFFFFFFFFFFFFFFFFFFFFFFFFFFFFFF
310
52006F006F007400200045006E00740072007900000000000000000000000000
310
0000000000000000000000000000000000000000000000000000000000000000
310
16000500FFFFFFFFFFFFFFFF020000000A00030000000000C000000000000046
310
0000000000000000000000003001F32000DDD10103000000C000000000000000
310
01004F006C006500000000000000000000000000000000000000000000000000
310
0000000000000000000000000000000000000000000000000000000000000000
310
0A000200FFFFFFFFFFFFFFFFFFFFFFFF00000000000000000000000000000000
310
0000000000000000000000000000000000000000000000001400000000000000
310
010043006F006D0070004F0062006A0000000000000000000000000000000000
310
0000000000000000000000000000000000000000000000000000000000000000
310
120002010100000003000000FFFFFFFF00000000000000000000000000000000
310
0000000000000000000000000000000000000000010000004D00000000000000
310
01004F006C006500310030004E00610074006900760065000000000000000000
310
0000000000000000000000000000000000000000000000000000000000000000
310
1A000200FFFFFFFFFFFFFFFFFFFFFFFF00000000000000000000000000000000
310
0000000000000000000000000000000000000000040000002426000000000000
310
FEFFFFFF02000000FEFFFFFFFFFFFFFFFFFFFFFFFFFFFFFFFFFFFFFFFFFFFFFF
310
FFFFFFFFFFFFFFFFFFFFFFFFFFFFFFFFFFFFFFFFFFFFFFFFFFFFFFFFFFFFFFFF
310
FFFFFFFFFFFFFFFFFFFFFFFFFFFFFFFFFFFFFFFFFFFFFFFFFFFFFFFFFFFFFFFF
310
FFFFFFFFFFFFFFFFFFFFFFFFFFFFFFFFFFFFFFFFFFFFFFFFFFFFFFFFFFFFFFFF
310
FFFFFFFFFFFFFFFFFFFFFFFFFFFFFFFFFFFFFFFFFFFFFFFFFFFFFFFFFFFFFFFF
310
FFFFFFFFFFFFFFFFFFFFFFFFFFFFFFFFFFFFFFFFFFFFFFFFFFFFFFFFFFFFFFFF
310
FFFFFFFFFFFFFFFFFFFFFFFFFFFFFFFFFFFFFFFFFFFFFFFFFFFFFFFFFFFFFFFF
310
FFFFFFFFFFFFFFFFFFFFFFFFFFFFFFFFFFFFFFFFFFFFFFFFFFFFFFFFFFFFFFFF
310
FFFFFFFFFFFFFFFFFFFFFFFFFFFFFFFFFFFFFFFFFFFFFFFFFFFFFFFFFFFFFFFF
310
FFFFFFFFFFFFFFFFFFFFFFFFFFFFFFFFFFFFFFFFFFFFFFFFFFFFFFFFFFFFFFFF
310
FFFFFFFFFFFFFFFFFFFFFFFFFFFFFFFFFFFFFFFFFFFFFFFFFFFFFFFFFFFFFFFF
310
FFFFFFFFFFFFFFFFFFFFFFFFFFFFFFFFFFFFFFFFFFFFFFFFFFFFFFFFFFFFFFFF
310
FFFFFFFFFFFFFFFFFFFFFFFFFFFFFFFFFFFFFFFFFFFFFFFFFFFFFFFFFFFFFFFF
310
FFFFFFFFFFFFFFFFFFFFFFFFFFFFFFFFFFFFFFFFFFFFFFFFFFFFFFFFFFFFFFFF
310
FFFFFFFFFFFFFFFFFFFFFFFFFFFFFFFFFFFFFFFFFFFFFFFFFFFFFFFFFFFFFFFF
310
FFFFFFFFFFFFFFFFFFFFFFFFFFFFFFFFFFFFFFFFFFFFFFFFFFFFFFFFFFFFFFFF
310
0100000200000000000000000000000000000000000000000000000000000000
310
0000000000000000000000000000000000000000000000000000000000000000
310
0100FEFF030A0000FFFFFFFF0A00030000000000C00000000000004607000000
310
5042727573680007000000504272757368000700000050427275736800F439B2
310
7100000000000000000000000000000000000000000000000000000000000000
310
0000000000000000000000000000000000000000000000000000000000000000
310
0000000000000000000000000000000000000000000000000000000000000000
310
0000000000000000000000000000000000000000000000000000000000000000
310
0000000000000000000000000000000000000000000000000000000000000000
310
0000000000000000000000000000000000000000000000000000000000000000
310
0000000000000000000000000000000000000000000000000000000000000000
310
0000000000000000000000000000000000000000000000000000000000000000
310
0000000000000000000000000000000000000000000000000000000000000000
310
0000000000000000000000000000000000000000000000000000000000000000
310
0000000000000000000000000000000000000000000000000000000000000000
310
0000000000000000000000000000000000000000000000000000000000000000
310
20260000424D0E260000000000003E00000028000000B40200006E0000000100
310
01000000000000000000130B0000130B00000200000002000000000000FFFFFF
310
FFFFFFFFFFFFFFFFFFFFFFFFFFFFFFFFFFFFFFFFFFFFFFFFFFFFFFFFFFFFFFFF
310
FFFFFFFFFFFFFFFFFFFFFFFFFFFFFFFFFFFFFFFFFFFFFFFFFFFFFFFFFFFFFFFF
310
FFFFFFFFFFFFFFFFFFFFFFFFFFFFFFFFFFFFFFFFFFFFFFFFF000FFFFFFFFFFFF
310
FFFFFFFFFFFFFFFFFFFFFFFFFFFFFFFFFFFFFFFFFFFFFFFFFFFFFFFFFFFFFFFF
310
FFFFFFFFFFFFFFFFFFFFFFFFFFFFFFFFFFFFFFFFFFFFFFFFFFFFFFFFFFFFFFFF
310
FFFFFFFFFFFFFFFFFFFFFFFFFFFFFFFFF000FFFFFFFFFFFFFFFFFFFFFFFFFFFF
310
FFFFFFFFFFFFFFFFFFFFFFFFFFFFFFFFFFFFFFFFFFFFFFFFFFFFFFFFFFFFFFFF
310
FFFFFFFFFFFFFFFFFFFFFFFFFFFFFFFFFFFFFFFFFFFFFFFFFFFFFFFFFFFFFFFF
310
FFFFFFFFFFFFFFFFF000FFFFFFFFFFFFFFFFFFFFFFFFFFFFFFFFFFFFFFFFFFFF
310
FFFFFFFFFFFFFFFFFFFFFFFFFFFFFFFFFFFFFFFFFFFFFFFFFFFFFFFFFFFFFFFF
310
FFFFFFFFFFFFFFFFFFFFFFFFFFFFFFFFFFFFFFFFFFFFFFFFFFFFFFFFFFFFFFFF
310
F000FFFFFFFFFFFFFFFFFFFFFFFFFFFFFFFFFFFFFFFFFFFFFFFFFFFFFFFFFFFF
310
FFFFFFFFFFFFFFFFFFFFFFFFFFFFFFFFFFFFFFFFFFFFFFFFFFFFFFFFFFFFFFFF
310
FFFFFFFFFFFFFFFFFFFFFFFFFFFFFFFFFFFFFFFFFFFFFFFFF000FFFFFFFFFFFF
310
FFFFFFFFFFFFFFFFFFFFFFFFFFFFFFFFFFFFFFFFFFFFFFFFFFFFFFFFFFFFFFFF
310
FFFFFFFFFFFFFFFFFFFFFFFFFFFFFFFFFFFFFFFFFFFFFFFFFFFFFFFFFFFFFFFF
310
FFFFFFFFFFFFFFFFFFFFFFFFFFFFFFFFF000FFFFFFFFFFFFFFFFFFFFFFFFFFFF
310
FFFFFFFFFFFFFFFFFFFFFFFFFFFFFFFFFFFFFFFFFFFFFFFFFFFFFFFFFFFFFFFF
310
FFFFFFFFFFFFFFFFFFFFFFFFFFFFFFFFFFFFFFFFFFFFFFFFFFFFFFFFFFFFFFFF
310
FFFFFFFFFFFFFFFFF000FFFFFFFFFFFFFFFFFFFFFFFFFFFFFFFFFFFFFFFFFFFF
310
FFFFFFFFFFFFFFFFFFFFFFFFFFFFFFFFFFFFFFFFFFFFFFFFFFFFFFFFFFFFFFFF
310
FFFFFFFFFFFFFFFFFFFFFFFFFFFFFFFFFFFFFFFFFFFFFFFFFFFFFFFFFFFFFFFF
310
F000FFFFFFFFFFFFFFFFFFFFFFFFFFFFFFFFFFFFFFFFFFFFFFFFFFFFFFFFFFFF
310
FFFFFFFFFFFFFFFFFFFFFFFFFFFFFFFFFFFFFFFFFFFFFFFFFFFFFFFFFFFFFFFF
310
FFFFFFFFFFFFFFFFFFFFFFFFFFFFFFFFFFFFFFFFFFFFFFFFF000FFFFFFFFFFFF
310
FFFFFFFFFFFFFFFFFFFFFFFFFFFFFFFFFFFFFFFFFFFFFFFFFFFFFFFFFFFFFFFF
310
FFFFFFFFFFFFFFFFFFFFFFFFFFFFFFFFFFFFFFFFFFFFFFFFFFFFFFFFFFFFFFFF
310
FFFFFFFFFFFFFFFFFFFFFFFFFFFFFFFFF000FFFFFFFFFFFFFFFFFFFFFFFFFFFF
310
FFFFFFFFFFFFFFFFFFFFFFFFFFFFFFFFFFFFFFFFFFFFFFFFFFFFFFFFFFFFFFFF
310
FFFFFFFFFFFFFFFFFFFFFFFFFFFFFFFFFFFFFFFFFFFFFFFFFFFFFFFFFFFFFFFF
310
FFFFFFFFFFFFFFFFF000FFFFFFFFFFFFFFFFFFFFFFFFFFFFFFFFFFFFFFFFFFFF
310
FFFFFFFFFFFFFFFFFFFFFFFFFFFFFFFFFFFFFFFFFFFFFFFFFFFFFFFFFFFFFFFF
310
FFFFFFFFFFFFFFFFFFFFFFFFFFFFFFFFFFFFFFFFFFFFFFFFFFFFFFFFFFFFFFFF
310
F000FFFFFFFFFFFFFFFFFFFFFFFFFFFFFFFFFFFFFFFFFFFFFFFFFFFFFFFFFFFF
310
FFFFFFFFFFFFFFFFFFFFFFFFFFFFFFFFFFFFFFFFFFFFFFFFFFFFFFFFFFFFFFFF
310
FFFFFFFFFFFFFFFFFFFFFFFFFFFFFFFFFFFFFFFFFFFFFFFFF000FFFFFFFFFFFF
310
FFFFFFFFFFFFFFFFFFFFFFFFFFFFFFFFFFFFFFFFFFFFFFFFFFFFFFFFFFFFFFFF
310
FFFFFFFFFFFFFFFFFFFFFFFFFFFFFFFFFFFFFFFFFFFFFFFFFFFFFFFFFFFFFFFF
310
FFFFFFFFFFFFFFFFFFFFFFFFFFFFFFFFF000FFFFFFFFFFFFFFFFFFFFFFFFFFFF
310
FFFFFFFFFFFFFFFFFFFFFFFFFFFFFFFFFFFFFFFFFFFFFFFFFFFFFFFFFFFFFFFF
310
FFFFFFFFFFFFFFFFFFFFFFFFFFFFFFFFFFFFFFFFFFFFFFFFFFFFFFFFFFFFFFFF
310
FFFFFFFFFFFFFFFFF000FFFFFFFFFFFFFFFFFFFFFFFFFFFFFFFFFFFFFFFFFFFF
310
FFFFFFFFFFFFFFFFFFFFFFFFFFFFFFFFFFFFFFFFFFFFFFFFFFFFFFFFFFFFFFFF
310
FFFFFFFFFFFFFFFFFFFFFFFFFFFFFFFFFFFFFFFFFFFFFFFFFFFFFFFFFFFFFFFF
310
F000FFFFFFFFFFFFFFFFFFFFFFFFFFFFFFFFFFFFFFFFFFFFFFFFFFFFFFFFFFFF
310
FFFFFFFFFFFFFFFFFFFFFFFFFFFFFFFFFFFFFFFFFFFFFFFFFFFFFFFFFFFFFFFF
310
FFFFFFFFFFFFFFFFFFFFFFFFFFFFFFFFFFFFFFFFFFFFFFFFF000FFFFFFFFFFFF
310
FFFFFFFFFFFFFFFFFFFFFFFFFFFFFFFFFFFFFFFFFFFFFFFFFFFFFFFFFFFFFFFF
310
FFFFFFFFFFFFFFFFFFFFFFFFFFFFFFFFFFFFFFFFFFFFFFFFFFFFFFFFFFFFFFFF
310
FFFFFFFFFFFFFFFFFFFFFFFFFFFFFFFFF000FFFFFFFFFFFFFFFFFFFFFFFFFFFF
310
FFFFFFFFFFFFFFFFFFFFFFFFFFFFFFFFFFFFFFFFFFFFFFFFFFFFFFFFFFFFFFFF
310
FFFFFFFFFFFFFFFFFFFFFFFFFFFFFFFFFFFFFFFFFFFFFFFFFFFFFFFFFFFFFFFF
310
FFFFFFFFFFFFFFFFF000FFFFF80003FFFFFFFFFFFFFFFFFFFFFFFFFFFFFFFFFF
310
FFFFF00007FFFFFFFFFF00007FFFFFF800000000000000007FFFFFFFFFFFFFFF
310
FFFFFFFC001FFFFFFFFFFFFFFC001FFFFFFFFFFFFFFFFFFFFFFFFFFE0007FFFF
310
F000FFFF8000007FFFFFFFF8000FFFFFC0007FFFFF80007FFFFF0000007FFFFF
310
FFF8000007FFFFF800000000000000007FFFFFF0001FFFFFFFFFFFC00001FFFF
310
FFFFFFFFC00001FFFFFFFF000000000003FFFFE000007FFFF000FFFE0000000F
310
FFFFFFF0000FFFFF80007FFFFF80007FFFFC0000001FFFFFFFC0000001FFFFF8
310
00000000000000007FFFFFF0001FFFFFFFFFFE0000003FFFFFFFFFFE0000003F
310
FFFFFF000000000003FFFF0000000FFFF000FFF800000003FFFFFFF00007FFFF
310
80007FFFFF80007FFFF000000007FFFFFF000000003FFFF80000000000000000
310
7FFFFFF0001FFFFFFFFFF80000000FFFFFFFFFF80000000FFFFFFF0000000000
310
03FFFC00000003FFF000FFE000000000FFFFFFF00007FFFF80003FFFFF80007F
310
FFC000000001FFFFFC000000001FFFF800000000000000007FFFFFF0001FFFFF
310
FFFFE000000003FFFFFFFFE000000003FFFFFF000000000003FFF000000000FF
310
F000FF80000000007FFFFFF00007FFFF80003FFFFF80007FFF8000000000FFFF
310
F80000000007FFF800000000000000007FFFFFF0001FFFFFFFFFC000000001FF
310
FFFFFFC000000001FFFFFF000000000003FFC0000000007FF000FF0000000000
310
3FFFFFE00007FFFF00003FFFFF80007FFE00000000003FFFF00000000003FFF8
310
00000000000000007FFFFFF0001FFFFFFFFF8000000000FFFFFFFF8000000000
310
FFFFFF000000000003FF80000000003FF000FE00000000001FFFFFE00003FFFF
310
00003FFFFF80007FFC00000000001FFFE00000000001FFF8000001FFFE000000
310
7FFFFFF0001FFFFFFFFE00000000003FFFFFFE00000000003FFFFF0000000000
310
03FF00000000001FF000FC00000000000FFFFFE00003FFFF00001FFFFF80007F
310
F800000000001FFFC00000000000FFF8000001FFFE0000007FFFFFF0001FFFFF
310
FFFC00000000001FFFFFFC00000000001FFFFF000000000003FE00000000000F
310
F000F8000000000007FFFFE00003FFFF00001FFFFF80007FF800000000000FFF
310
800000000000FFF8000001FFFE0000007FFFFFF0001FFFFFFFF800000000000F
310
FFFFF800000000000FFFFF000000000003FC000000000007F000F80000000000
310
03FFFFC00003FFFE00001FFFFF80007FF0000000000007FF0000000000007FF8
310
000001FFFE0000007FFFFFF0001FFFFFFFF0000000000007FFFFF00000000000
310
07FFFF000000000003F8000000000003F000F0000000000003FFFFC00001FFFE
310
00001FFFFF80007FE0000000000007FE0000000000003FF8000001FFFE000000
310
7FFFFFF0001FFFFFFFF0000000000007FFFFF0000000000007FFFF0000000000
310
03F800001F800003F000E00001FFF00001FFFFC00001FFFE00000FFFFF80007F
310
E00001FFE00003FE00001FFF00003FF8000001FFFE0000007FFFFFF0001FFFFF
310
FFE000003E000003FFFFE000003E000003FFFF000000000003F00001FFF80001
310
F000E00007FFFC0001FFFFC00001FFFE00000FFFFF80007FC0000FFFFC0003FC
310
0000FFFFC0001FF8000001FFFE0000007FFFFFF0001FFFFFFFC00003FFE00001
310
FFFFC00003FFE00001FFFF0001FFFFFFFFF00007FFFE0001F000E0000FFFFF00
310
00FFFF800001FFFC00000FFFFF80007FC0001FFFFE0001FC0001FFFFE0001FF8
310
000001FFFE0000007FFFFFF0001FFFFFFF80000FFFF80000FFFF80000FFFF800
310
00FFFF0003FFFFFFFFE0000FFFFF8000F000C0003FFFFF8000FFFF800000FFFC
310
000007FFFF80007F80003FFFFF0001FC0003FFFFF0001FF8000001FFFE000000
310
7FFFFFF0001FFFFFFF80003FFFFE0000FFFF80003FFFFE0000FFFF0003FFFFFF
310
FFE0003FFFFF8000F000C0003FFFFF8000FFFF800000FFFC000007FFFF80007F
310
80007FFFFF8001F80007FFFFF8000FF8000001FFFE0000007FFFFFF0001FFFFF
310
FF00007FFFFF00007FFF00007FFFFF00007FFF0003FFFFFFFFE0003FFFFFC000
310
F000C0007FFFFFC000FFFF000000FFFC000007FFFF80007F8000FFFFFF8000F8
310
000FFFFFF8000FF8000001FFFE0000007FFFFFF0001FFFFFFF0000FFFFFF8000
310
7FFF0000FFFFFF80007FFF0003FFFFFFFFC0007FFFFFC00070008000FFFFFFC0
310
00FFFF000000FFF8000007FFFF80007F8000FFFFFF8000F8000FFFFFF8000FF8
310
000001FFFE0000007FFFFFF0001FFFFFFE0001FFFFFFC0003FFE0001FFFFFFC0
310
003FFF0003FFFFFFFFC0007FFFFFE00070008000FFFFFFC0007FFF0000007FF8
310
000003FFFF80007F0001FFFFFF8000F8000FFFFFF8000FF8000001FFFE000000
310
7FFFFFF0001FFFFFFE0001FFFFFFC0003FFE0001FFFFFFC0003FFF0003FFFFFF
310
FFC000FFFFFFE00070008000FFFFFFC0007FFF0000007FF8000003FFFF80007F
310
0001FFFFFF8000F8001FFFFFF8000FF8000001FFFE0000007FFFFFF0001FFFFF
310
FE0003FFFFFFE0003FFE0003FFFFFFE0003FFF0003FFFFFFFFC000FFFFFFE000
310
70008000FFFFFFC0007FFE0000007FF8000003FFFF80007F0001FFFFFF8000F0
310
001FFFFFF8000FF8000001FFFE0000007FFFFFF0001FFFFFFC0003FFFFFFE000
310
1FFC0003FFFFFFE0001FFF0003FFFFFFFFC000FFFFFFC00070008000FFFFFF80
310
007FFE0000007FF0000003FFFF80007F0001FFFFFF0000F0001FFFFFF8000FF8
310
000001FFFE0000007FFFFFF0001FFFFFFC0007FFFFFFF0001FFC0007FFFFFFF0
310
001FFF0003FFFFFFFFC000FFFFFFC00070008001FFFFFF0000FFFE0000003FF0
310
000001FFFF80007F0001FFFFFF0000F8001FFFFFF0000FF8000001FFFE000000
310
7FFFFFF0001FFFFFFC0007FFFFFFF0001FFC0007FFFFFFF0001FFF0003FFFFFF
310
FFC001FFFFFF80007000FFFFFFFFFE0000FFFE0008003FF0008001FFFF80007F
310
FFFFFFFFFC0000FFFFFFFFFFE0000FF8000001FFFE0000007FFFFFF0001FFFFF
310
F8000FFFFFFFF8000FF8000FFFFFFFF8000FFF0003FFFFFFFFFFFFFFFFFF0000
310
7000FFFFFFFFFC0000FFFC0008003FF0008001FFFF80007FFFFFFFFFF80001FF
310
FFFFFFFF80000FF8000001FFFE0000007FFFFFF0001FFFFFF8000FFFFFFFF800
310
0FF8000FFFFFFFF8000FFF0003FFFFFFFFFFFFFFFFFE0000F000FFFFFFFFE000
310
00FFFC000C003FE000C001FFFF80007FFFFFFFFFC00001FFFFFFFFFE00001FF8
310
000001FFFE0000007FFFFFF0001FFFFFF8000FFFFFFFF8000FF8000FFFFFFFF8
310
000FFF0003FFFFFFFFFFFFFFFFF00000F000FFFFFFFE000001FFFC000C001FE0
310
00C000FFFF80007FFFFFFFFE000001FFFFFFFFE000001FF80FFFFFFFFFFFFFC0
310
7FFFFFF0001FFFFFF8000FFFFFFFF8000FF8000FFFFFFFF8000FFF0003FFFFFF
310
FFFFFFFFFF800000F000FFFFFFC0000001FFFC001C001FE001C000FFFF80007F
310
FFFFFF80000003FFFFFFF80000001FF80FFFFFFFFFFFFFC07FFFFFF0001FFFFF
310
F8001FFFFFFFFC000FF8001FFFFFFFFC000FFF0003FFFFFFFFFFFFFFF0000001
310
F000FFFFF800000001FFF8001C001FE001C000FFFF80007FFFFFF800000003FF
310
FFFF800000003FF80FFFFFFFFFFFFFC07FFFFFF0001FFFFFF8001FFFFFFFFC00
310
0FF8001FFFFFFFFC000FFF0003FFFFFFFFFFFFFE00000001F000FFFFC0000000
310
03FFF8001E001FC001E000FFFF80007FFFFF8000000007FFFFFC000000003FF8
310
0FFFFFFFFFFFFFC07FFFFFF0001FFFFFF8001FFFFFFFFC000FF8001FFFFFFFFC
310
000FFF0003FFFFFFFFFFFFE000000003F000FFFE0000000007FFF8001E000FC0
310
01E0007FFF80007FFFFE0000000007FFFFE0000000007FF80FFFFFFFFFFFFFC0
310
7FFFFFF0001FFFFFF0001FFFFFFFFC0007F0001FFFFFFFFC0007FF0003FFFFFF
310
FFFFFF0000000003F000FFF80000000007FFF8001E000FC003E0007FFF80007F
310
FFF0000000000FFFFF8000000000FFF80FFFFFFFFFFFFFC07FFFFFF0001FFFFF
310
F0001FFFFFFFFC0007F0001FFFFFFFFC0007FF0003FFFFFFFFFFFC0000000007
310
F000FFE0000000000FFFF0003E000FC003E0007FFF80007FFFC0000000001FFF
310
FE0000000001FFF80FFFFFFFFFFFFFC07FFFFFF0001FFFFFF0001FFFFFFFFC00
310
07F0001FFFFFFFFC0007FF0003FFFFFFFFFFF0000000000FF000FFC000000000
310
1FFFF0003F000F8003F0003FFF80007FFF80000000003FFFF80000000003FFF8
310
0FFFFFFFFFFFFFC07FFFFFF0001FFFFFF0001FFFFFFFFC0007F0001FFFFFFFFC
310
0007FF0003FFFFFFFFFFE0000000001FF000FF00000000007FFFF0003F000780
310
03F0003FFF80007FFF00000000007FFFF00000000007FFF80FFFFFFFFFFFFFC0
310
7FFFFFF0001FFFFFF0001FFFFFFFFC0007F0001FFFFFFFFC0007FF0003FFFFFF
310
FFFF80000000007FF000FE0000000000FFFFE0003F00078007F0003FFF80007F
310
FE0000000001FFFFE0000000001FFFF80FFFFFFFFFFFFFC07FFFFFF0001FFFFF
310
F0001FFFFFFFFC0007F0001FFFFFFFFC0007FF0003FFFFFFFFFF0000000000FF
310
F000FC0000000003FFFFE0007F00078007F0003FFF80007FFC0000000007FFFF
310
C0000000007FFFF80FFFFFFFFFFFFFC07FFFFFF0001FFFFFF8001FFFFFFFFC00
310
0FF8001FFFFFFFFC000FFF0003FFFFFFFFFE0000000003FFF000FC000000000F
310
FFFFE0007F80070007F8001FFF80007FF8000000001FFFFF8000000001FFFFF8
310
0FFFFFFFFFFFFFC07FFFFFF0001FFFFFF8001FFFFFFFFC000FF8001FFFFFFFFC
310
000FFF0003FFFFFFFFFC000000000FFFF000F8000000007FFFFFE0007F800700
310
07F8001FFF80007FF000000000FFFFFF800000000FFFFFF80FFFFFFFFFFFFFC0
310
7FFFFFF0001FFFFFF8000FFFFFFFF8000FF8000FFFFFFFF8000FFF0003FFFFFF
310
FFFC000000007FFFF000F800000007FFFFFFC0007F8003000FF8001FFF80007F
310
F000000007FFFFFF000000007FFFFFF80FFFFFFFFFFFFFC07FFFFFF0001FFFFF
310
F8000FFFFFFFF8000FF8000FFFFFFFF8000FFF0003FFFFFFFFF80000000FFFFF
310
F000F0000000FFFFFFFFC000FF8003000FF8001FFF80007FE0000000FFFFFFFF
310
0000000FFFFFFFF8000001FFFE0000007FFFFFF0001FFFFFF8000FFFFFFFF800
310
0FF8000FFFFFFFF8000FFF0003FFFFFFFFF8000000FFFFFFF000F000000FFFFF
310
FFFFC000FFC002000FF8000FFF80007FE000001FFFFFFFFE000001FFFFFFFFF8
310
000001FFFE0000007FFFFFF0001FFFFFF8000FFFFFFFF8000FF8000FFFFFFFF8
310
000FFF0003FFFFFFFFF000001FFFFFFFF000E00000FFFFFFFFFFC000FFC00200
310
0FFC000FFF80007FE00001FFFFFFFFFE00001FFFFFFFFFF8000001FFFE000000
310
7FFFFFF0001FFFFFFC000FFFFFFFF8001FFC000FFFFFFFF8001FFF0003FFFFFF
310
FFF00001FFFFFFFFF000E00007FFFFFFFFFF8000FFC000001FFC000FFF80007F
310
C0000FFFFFFFFFFE0000FFFFFFFFFFF8000001FFFE0000007FFFFFF0001FFFFF
310
FC0007FFFFFFF0001FFC0007FFFFFFF0001FFF0003FFFFFFFFF00007FFFFFFFF
310
F000E0001FFFFFFFFFFF8000FFC000001FFC000FFF80007FC0003FFFFFFFFFFE
310
0001FFFFFFFFFFF8000001FFFE0000007FFFFFF0001FFFFFFC0007FFFFFFF000
310
1FFC0007FFFFFFF0001FFF0003FFFFFFFFF0001FFFFFFFFFF000E0003FFFFF00
310
03FF8001FFE000001FFC0007FF80007FC0007FFFFF0007FC0003FFFFF0003FF8
310
000001FFFE0000007FFFFFF0001FFFFFFC0003FFFFFFE0001FFC0003FFFFFFE0
310
001FFF0003FFFFFFFFF0003FFFFFFFFFF000E0003FFFFF0001FF8001FFE00000
310
1FFE0007FF80007FC0007FFFFE0003FC0007FFFFE0003FF8000001FFFE000000
310
7FFFFFF0001FFFFFFE0003FFFFFFE0003FFE0003FFFFFFE0003FFF0003FFFFFF
310
FFF0003FFFFF8001F000E0003FFFFF0001FF0001FFE000001FFE0007FF80007F
310
C0007FFFFE0003FC0007FFFFE0003FF8000001FFFE0000007FFFFFF0001FFFFF
310
FE0001FFFFFFC0003FFE0001FFFFFFC0003FFF0003FFFFFFFFF0003FFFFF0001
310
F000E0003FFFFF0003FF0001FFE000003FFE0007FF80007FC0007FFFFE0003FC
310
0007FFFFE0003FF8000001FFFE0000007FFFFFF0001FFFFFFF0001FFFFFFC000
310
7FFF0001FFFFFFC0007FFF0003FFFFFFFFF0003FFFFF0001F000E0003FFFFE00
310
03FF0003FFF000003FFE0003FF80007FC0007FFFFC0003FE0007FFFFE0003FF8
310
000001FFFE0000007FFFFFF0001FFFFFFF0000FFFFFF80007FFF0000FFFFFF80
310
007FFF0003FFFFFFFFF0003FFFFF0001F000E0003FFFFE0003FF0003FFF00000
310
3FFF0003FF80007FC0007FFFFC0007FE0007FFFFC0003FF8000001FFFE000000
310
7FFFFFF0001FFFFFFF80007FFFFF0000FFFF80007FFFFF0000FFFF0003FFFFFF
310
FFF0003FFFFF0003F000E0003FFFFC0003FE0003FFF000003FFF0003FF80007F
310
E0003FFFF80007FE0003FFFFC0007FF8000001FFFE0000007FFFFFF0001FFFFF
310
FF80003FFFFE0000FFFF80003FFFFE0000FFFF0003FFFFFFFFF0001FFFFE0003
310
F000F0001FFFF80003FE0003FFF000007FFF0001FF80007FE0003FFFF00007FE
310
0001FFFF80007FF8000001FFFE0000007FFFFFF0001FFFFFFFC0000FFFF80001
310
FFFFC0000FFFF80001FFFF0003FFFFFFFFF0001FFFFC0003F000F0000FFFF000
310
07FE0007FFF800007FFF0001FF80007FE0001FFFE00007FF0000FFFE00007FF8
310
000001FFFE0000007FFFFFF0001FFFFFFFC00003FFE00001FFFFC00003FFE000
310
01FFFF0003FFFFFFFFF8000FFFF80003F000F00003FFC00007FC0007FFF80000
310
7FFF8001FF80007FF00007FF80000FFF00007FF80000FFF8000001FFFE000000
310
7F80000000000001FFE000003E000003FFFFE000003E000003FFFF0003FFFFFF
310
FFF80003FFE00007F000F800000000000FFC0007FFF800007FFF8001FF80007F
310
F000000000000FFF000000000000FFF8000001FFFE0000007F80000000000001
310
FFF0000000000007FFFFF0000000000007FFFF0003FFFFFFFFFC00007E000007
310
F000F800000000000FFC0007FFF80000FFFF8000FF80007FF800000000001FFF
310
800000000001FFF8000001FFFE0000007F80000000000001FFF800000000000F
310
FFFFF800000000000FFFFF0003FFFFFFFFFC00000000000FF000FC0000000000
310
1FFC0007FFFC0000FFFF8000FF80007FF800000000003FFFC00000000001FFF8
310
000001FFFE0000007F80000000000001FFF800000000000FFFFFF80000000000
310
0FFFFF0003FFFFFFFFFE00000000001FF000FE00000000003FF8000FFFFC0000
310
FFFF8000FF80007FFC00000000003FFFC00000000003FFF8000001FFFE000000
310
7F80000000000001FFFC00000000001FFFFFFC00000000001FFFFF0003FFFFFF
310
FFFF00000000001FF000FF00000000003FF8000FFFFC0000FFFFC000FF80007F
310
FE00000000007FFFE00000000007FFF8000001FFFE0000007F80000000000001
310
FFFE00000000003FFFFFFE00000000003FFFFF0003FFFFFFFFFF80000000003F
310
F000FF80000000007FF8000FFFFC0001FFFFC0007F80007FFF0000000000FFFF
310
F0000000000FFFF800000000000000007F80000000000001FFFF8000000000FF
310
FFFFFF8000000000FFFFFF0003FFFFFFFFFFC0000000007FF000FFC000000000
310
FFF8000FFFFE0001FFFFC0007F80007FFF8000000001FFFFF8000000001FFFF8
310
00000000000000007F80000000000001FFFFC000000001FFFFFFFFC000000001
310
FFFFFF0003FFFFFFFFFFE000000000FFF000FFE000000003FFF0001FFFFE0001
310
FFFFC0007F80007FFFC000000007FFFFFE000000003FFFF80000000000000000
310
7F80000000000001FFFFE000000003FFFFFFFFE000000003FFFFFF0003FFFFFF
310
FFFFF000000003FFF000FFF80000000FFFF0001FFFFE0001FFFFE0007F80007F
310
FFF00000000FFFFFFF00000000FFFFF800000000000000007F80000000000001
310
FFFFF80000000FFFFFFFFFF80000000FFFFFFF0003FFFFFFFFFFFC0000000FFF
310
F000FFFE0000003FFFF0001FFFFE0003FFFFE0003F80007FFFFC0000003FFFFF
310
FFC0000003FFFFF800000000000000007F80000000000001FFFFFE0000003FFF
310
FFFFFFFE0000003FFFFFFF0003FFFFFFFFFFFF0000003FFFF000FFFF800000FF
310
FFF0001FFFFF0003FFFFE0003F80007FFFFF000001FFFFFFFFF800001FFFFFF8
310
00000000000000007F80000000000001FFFFFFC00001FFFFFFFFFFFFC00001FF
310
FFFFFF0003FFFFFFFFFFFFC00000FFFFF000FFFFF8000FFFFFFFFFFFFFFFFFFF
310
FFFFFFFFFFFFFFFFFFFFF0001FFFFFFFFFFF0000FFFFFFF80000000000000000
310
7FFFFFFFFFFFFFFFFFFFFFFC001FFFFFFFFFFFFFFC001FFFFFFFFFFFFFFFFFFF
310
FFFFFFFC001FFFFFF000FFFFFFFFFFFFFFFFFFFFFFFFFFFFFFFFFFFFFFFFFFFF
310
FFFFFFFFFFFFFFFFFFFFFFFFFFFFFFFFFFFFFFFFFFFFFFFFFFFFFFFFFFFFFFFF
310
FFFFFFFFFFFFFFFFFFFFFFFFFFFFFFFFFFFFFFFFFFFFFFFFFFFFFFFFFFFFFFFF
310
F000FFFFFFFFFFFFFFFFFFFFFFFFFFFFFFFFFFFFFFFFFFFFFFFFFFFFFFFFFFFF
310
FFFFFFFFFFFFFFFFFFFFFFFFFFFFFFFFFFFFFFFFFFFFFFFFFFFFFFFFFFFFFFFF
310
FFFFFFFFFFFFFFFFFFFFFFFFFFFFFFFFFFFFFFFFFFFFFFFFF000FFFFFFFFFFFF
310
FFFFFFFFFFFFFFFFFFFFFFFFFFFFFFFFFFFFFFFFFFFFFFFFFFFFFFFFFFFFFFFF
310
FFFFFFFFFFFFFFFFFFFFFFFFFFFFFFFFFFFFFFFFFFFFFFFFFFFFFFFFFFFFFFFF
310
FFFFFFFFFFFFFFFFFFFFFFFFFFFFFFFFF000FFFFFFFFFFFFFFFFFFFFFFFFFFFF
310
FFFFFFFFFFFFFFFFFFFFFFFFFFFFFFFFFFFFFFFFFFFFFFFFFFFFFFFFFFFFFFFF
310
FFFFFFFFFFFFFFFFFFFFFFFFFFFFFFFFFFFFFFFFFFFFFFFFFFFFFFFFFFFFFFFF
310
FFFFFFFFFFFFFFFFF000FFFFFFFFFFFFFFFFFFFFFFFFFFFFFFFFFFFFFFFFFFFF
310
FFFFFFFFFFFFFFFFFFFFFFFFFFFFFFFFFFFFFFFFFFFFFFFFFFFFFFFFFFFFFFFF
310
FFFFFFFFFFFFFFFFFFFFFFFFFFFFFFFFFFFFFFFFFFFFFFFFFFFFFFFFFFFFFFFF
310
F000FFFFFFFFFFFFFFFFFFFFFFFFFFFFFFFFFFFFFFFFFFFFFFFFFFFFFFFFFFFF
310
FFFFFFFFFFFFFFFFFFFFFFFFFFFFFFFFFFFFFFFFFFFFFFFFFFFFFFFFFFFFFFFF
310
FFFFFFFFFFFFFFFFFFFFFFFFFFFFFFFFFFFFFFFFFFFFFFFFF000FFFFFFFFFFFF
310
FFFFFFFFFFFFFFFFFFFFFFFFFFFFFFFFFFFFFFFFFFFFFFFFFFFFFFFFFFFFFFFF
310
FFFFFFFFFFFFFFFFFFFFFFFFFFFFFFFFFFFFFFFFFFFFFFFFFFFFFFFFFFFFFFFF
310
FFFFFFFFFFFFFFFFFFFFFFFFFFFFFFFFF000FFFFFFFFFFFFFFFFFFFFFFFFFFFF
310
FFFFFFFFFFFFFFFFFFFFFFFFFFFFFFFFFFFFFFFFFFFFFFFFFFFFFFFFFFFFFFFF
310
FFFFFFFFFFFFFFFFFFFFFFFFFFFFFFFFFFFFFFFFFFFFFFFFFFFFFFFFFFFFFFFF
310
FFFFFFFFFFFFFFFFF000FFFFFFFFFFFFFFFFFFFFFFFFFFFFFFFFFFFFFFFFFFFF
310
FFFFFFFFFFFFFFFFFFFFFFFFFFFFFFFFFFFFFFFFFFFFFFFFFFFFFFFFFFFFFFFF
310
FFFFFFFFFFFFFFFFFFFFFFFFFFFFFFFFFFFFFFFFFFFFFFFFFFFFFFFFFFFFFFFF
310
F000FFFFFFFFFFFFFFFFFFFFFFFFFFFFFFFFFFFFFFFFFFFFFFFFFFFFFFFFFFFF
310
FFFFFFFFFFFFFFFFFFFFFFFFFFFFFFFFFFFFFFFFFFFFFFFFFFFFFFFFFFFFFFFF
310
FFFFFFFFFFFFFFFFFFFFFFFFFFFFFFFFFFFFFFFFFFFFFFFFF000FFFFFFFFFFFF
310
FFFFFFFFFFFFFFFFFFFFFFFFFFFFFFFFFFFFFFFFFFFFFFFFFFFFFFFFFFFFFFFF
310
FFFFFFFFFFFFFFFFFFFFFFFFFFFFFFFFFFFFFFFFFFFFFFFFFFFFFFFFFFFFFFFF
310
FFFFFFFFFFFFFFFFFFFFFFFFFFFFFFFFF000FFFFFFFFFFFFFFFFFFFFFFFFFFFF
310
FFFFFFFFFFFFFFFFFFFFFFFFFFFFFFFFFFFFFFFFFFFFFFFFFFFFFFFFFFFFFFFF
310
FFFFFFFFFFFFFFFFFFFFFFFFFFFFFFFFFFFFFFFFFFFFFFFFFFFFFFFFFFFFFFFF
310
FFFFFFFFFFFFFFFFF000FFFFFFFFFFFFFFFFFFFFFFFFFFFFFFFFFFFFFFFFFFFF
310
FFFFFFFFFFFFFFFFFFFFFFFFFFFFFFFFFFFFFFFFFFFFFFFFFFFFFFFFFFFFFFFF
310
FFFFFFFFFFFFFFFFFFFFFFFFFFFFFFFFFFFFFFFFFFFFFFFFFFFFFFFFFFFFFFFF
310
F000FFFFFFFFFFFFFFFFFFFFFFFFFFFFFFFFFFFFFFFFFFFFFFFFFFFFFFFFFFFF
310
FFFFFFFFFFFFFFFFFFFFFFFFFFFFFFFFFFFFFFFFFFFFFFFFFFFFFFFFFFFFFFFF
310
FFFFFFFFFFFFFFFFFFFFFFFFFFFFFFFFFFFFFFFFFFFFFFFFF000FFFFFFFFFFFF
310
FFFFFFFFFFFFFFFFFFFFFFFFFFFFFFFFFFFFFFFFFFFFFFFFFFFFFFFFFFFFFFFF
310
FFFFFFFFFFFFFFFFFFFFFFFFFFFFFFFFFFFFFFFFFFFFFFFFFFFFFFFFFFFFFFFF
310
FFFFFFFFFFFFFFFFFFFFFFFFFFFFFFFFF000FFFFFFFFFFFFFFFFFFFFFFFFFFFF
310
FFFFFFFFFFFFFFFFFFFFFFFFFFFFFFFFFFFFFFFFFFFFFFFFFFFFFFFFFFFFFFFF
310
FFFFFFFFFFFFFFFFFFFFFFFFFFFFFFFFFFFFFFFFFFFFFFFFFFFFFFFFFFFFFFFF
310
FFFFFFFFFFFFFFFFF000FFFFFFFFFFFFFFFFFFFFFFFFFFFFFFFFFFFFFFFFFFFF
310
FFFFFFFFFFFFFFFFFFFFFFFFFFFFFFFFFFFFFFFFFFFFFFFFFFFFFFFFFFFFFFFF
310
FFFFFFFFFFFFFFFFFFFFFFFFFFFFFFFFFFFFFFFFFFFFFFFFFFFFFFFFFFFFFFFF
310
F000FFFFFFFFFFFFFFFFFFFFFFFFFFFFFFFFFFFFFFFFFFFFFFFFFFFFFFFFFFFF
310
FFFFFFFFFFFFFFFFFFFFFFFFFFFFFFFFFFFFFFFFFFFFFFFFFFFFFFFFFFFFFFFF
310
FFFFFFFFFFFFFFFFFFFFFFFFFFFFFFFFFFFFFFFFFFFFFFFFF000FFFFFFFFFFFF
310
FFFFFFFFFFFFFFFFFFFFFFFFFFFFFFFFFFFFFFFFFFFFFFFFFFFFFFFFFFFFFFFF
310
FFFFFFFFFFFFFFFFFFFFFFFFFFFFFFFFFFFFFFFFFFFFFFFFFFFFFFFFFFFFFFFF
310
FFFFFFFFFFFFFFFFFFFFFFFFFFFFFFFFF000FFFFFFFFFFFFFFFFFFFFFFFFFFFF
310
FFFFFFFFFFFFFFFFFFFFFFFFFFFFFFFFFFFFFFFFFFFFFFFFFFFFFFFFFFFFFFFF
310
FFFFFFFFFFFFFFFFFFFFFFFFFFFFFFFFFFFFFFFFFFFFFFFFFFFFFFFFFFFFFFFF
310
FFFFFFFFFFFFFFFFF000FFFFFFFFFFFFFFFFFFFFFFFFFFFFFFFFFFFFFFFFFFFF
310
FFFFFFFFFFFFFFFFFFFFFFFFFFFFFFFFFFFFFFFFFFFFFFFFFFFFFFFFFFFFFFFF
310
FFFFFFFFFFFFFFFFFFFFFFFFFFFFFFFFFFFFFFFFFFFFFFFFFFFFFFFFFFFFFFFF
310
F000FFFFFFFFFFFFFFFFFFFFFFFFFFFFFFFFFFFFFFFFFFFFFFFFFFFFFFFFFFFF
310
FFFFFFFFFFFFFFFFFFFFFFFFFFFFFFFFFFFFFFFFFFFFFFFFFFFFFFFFFFFFFFFF
310
FFFFFFFFFFFFFFFFFFFFFFFFFFFFFFFFFFFFFFFFFFFFFFFFF000FFFFFFFFFFFF
310
FFFFFFFFFFFFFFFFFFFFFFFFFFFFFFFFFFFFFFFFFFFFFFFFFFFFFFFFFFFFFFFF
310
FFFFFFFFFFFFFFFFFFFFFFFFFFFFFFFFFFFFFFFFFFFFFFFFFFFFFFFFFFFFFFFF
310
FFFFFFFFFFFFFFFFFFFFFFFFFFFFFFFFF0000000000000000000000000000000
310
0000000000000000000000000000000000000000000000000000000000000000
310
0000000000000000000000000000000000000000000000000000000000000000
310
0000000000000000000000000000000000000000000000000000000000000000
310
0000000000000000000000000000000000000000000000000000000000000000
310
0000000000000000000000000000000000000000000000000000000000000000
310
0000000000000000000000000000000000000000000000000000000000000000
310
0000000000000000000000000000000000000000000000000000000000000000
310
0000000000000000000000000000000000000000000000000000000000000000
310
0000000000000000000000000000000000000000000000000000000000000000
310
0000000000000000000000000000000000000000000000000000000000000000
310
0000000000000000000000000000000000000000000000000000000000000000
310
0000000000000000000000000000000000000000000000000000000000000000
310
0000000000000000000000000000000000000000000000000000000000000000
310
0000000000000000000000000000000000000000000000000000000000000000
310
0000000000000000000000000000000000000000000000000000000000000000
  1
OLE
  0
ENDSEC
  0
SECTION
  2
OBJECTS
  0
DICTIONARY
  5
C
330
0
100
AcDbDictionary
281
     1
  3
ACAD_GROUP
350
D
  3
ACAD_LAYOUT
350
1A
  3
ACAD_MLINESTYLE
350
17
  3
ACAD_PLOTSETTINGS
350
19
  3
ACAD_PLOTSTYLENAME
350
E
  3
ACAD_SCALELIST
350
47
  0
DICTIONARY
  5
D
102
{ACAD_REACTORS
330
C
102
}
330
C
100
AcDbDictionary
281
     1
  0
DICTIONARY
  5
1A
102
{ACAD_REACTORS
330
C
102
}
330
C
100
AcDbDictionary
281
     1
  3
Layout1
350
1E
  3
Layout2
350
26
  3
Model
350
22
  0
DICTIONARY
  5
17
102
{ACAD_REACTORS
330
C
102
}
330
C
100
AcDbDictionary
281
     1
  3
Standard
350
18
  0
DICTIONARY
  5
19
102
{ACAD_REACTORS
330
C
102
}
330
C
100
AcDbDictionary
281
     1
  0
ACDBDICTIONARYWDFLT
  5
E
102
{ACAD_REACTORS
330
C
102
}
330
C
100
AcDbDictionary
281
     1
  3
Normal
350
F
100
AcDbDictionaryWithDefault
340
F
  0
DICTIONARY
  5
47
102
{ACAD_REACTORS
330
C
102
}
330
C
100
AcDbDictionary
281
     1
  3
A0
350
48
  3
A1
350
49
  3
A2
350
4A
  3
A3
350
4B
  3
A4
350
4C
  3
A5
350
4D
  3
A6
350
4E
  3
A7
350
4F
  3
A8
350
50
  3
A9
350
51
  3
B0
350
52
  3
B1
350
53
  3
B2
350
54
  3
B3
350
55
  3
B4
350
56
  3
B5
350
57
  3
B6
350
58
  3
B7
350
59
  3
B8
350
5A
  3
B9
350
5B
  3
C0
350
5C
  3
C1
350
5D
  3
C2
350
5E
  3
C3
350
5F
  3
C4
350
60
  3
C5
350
61
  3
C6
350
62
  3
C7
350
63
  3
C8
350
64
  3
C9
350
65
  3
D0
350
66
  3
D1
350
67
  3
D2
350
68
  0
LAYOUT
  5
1E
102
{ACAD_REACTORS
330
1A
102
}
330
1A
100
AcDbPlotSettings
  1

  2
none_device
  4

  6

 40
0.0
 41
0.0
 42
0.0
 43
0.0
 44
0.0
 45
0.0
 46
0.0
 47
0.0
 48
0.0
 49
0.0
140
0.0
141
0.0
142
1.0
143
1.0
 70
   688
 72
     1
 73
     0
 74
     5
  7

 75
    16
147
1.0
148
0.0
149
0.0
100
AcDbLayout
  1
Layout1
 70
     1
 71
     1
 10
0.0
 20
0.0
 11
420.0
 21
297.0
 12
0.0
 22
0.0
 32
0.0
 14
1.0000000000E+20
 24
1.0000000000E+20
 34
1.0000000000E+20
 15
-1.0000000000E+20
 25
-1.0000000000E+20
 35
-1.0000000000E+20
146
0.0
 13
0.0
 23
0.0
 33
0.0
 16
1.0
 26
0.0
 36
0.0
 17
0.0
 27
1.0
 37
0.0
 76
     0
330
1B
  0
LAYOUT
  5
26
102
{ACAD_REACTORS
330
1A
102
}
330
1A
100
AcDbPlotSettings
  1

  2
none_device
  4

  6

 40
0.0
 41
0.0
 42
0.0
 43
0.0
 44
0.0
 45
0.0
 46
0.0
 47
0.0
 48
0.0
 49
0.0
140
0.0
141
0.0
142
1.0
143
1.0
 70
   688
 72
     1
 73
     0
 74
     5
  7

 75
    16
147
1.0
148
0.0
149
0.0
100
AcDbLayout
  1
Layout2
 70
     1
 71
     2
 10
0.0
 20
0.0
 11
0.0
 21
0.0
 12
0.0
 22
0.0
 32
0.0
 14
0.0
 24
0.0
 34
0.0
 15
0.0
 25
0.0
 35
0.0
146
0.0
 13
0.0
 23
0.0
 33
0.0
 16
1.0
 26
0.0
 36
0.0
 17
0.0
 27
1.0
 37
0.0
 76
     0
330
23
  0
LAYOUT
  5
22
102
{ACAD_REACTORS
330
1A
102
}
330
1A
100
AcDbPlotSettings
  1

  2
none_device
  4
Letter_(8.50_x_11.00_Inches)
  6

 40
6.35
 41
6.35
 42
6.35000508
 43
6.35000508
 44
215.9
 45
279.4
 46
0.0
 47
0.0
 48
0.0
 49
0.0
140
0.0
141
0.0
142
1.0
143
1.0
 70
  1712
 72
     1
 73
     0
 74
     0
  7

 75
     0
147
1.0
148
0.0
149
0.0
100
AcDbLayout
  1
Model
 70
     1
 71
     0
 10
0.0
 20
0.0
 11
297.0
 21
210.0
 12
0.0
 22
0.0
 32
0.0
 14
0.0
 24
0.0
 34
0.0
 15
297.0
 25
210.0
 35
0.0
146
0.0
 13
0.0
 23
0.0
 33
0.0
 16
1.0
 26
0.0
 36
0.0
 17
0.0
 27
1.0
 37
0.0
 76
     0
330
1F
331
29
  0
MLINESTYLE
  5
18
102
{ACAD_REACTORS
330
17
102
}
330
17
100
AcDbMlineStyle
  2
Standard
 70
     0
  3

 62
   256
 51
90.0
 52
90.0
 71
     2
 49
0.5
 62
   256
  6
BYLAYER
 49
-0.5
 62
   256
  6
BYLAYER
  0
ACDBPLACEHOLDER
  5
F
102
{ACAD_REACTORS
330
E
102
}
330
E
  0
SCALE
  5
48
102
{ACAD_REACTORS
330
47
102
}
330
47
100
AcDbScale
 70
     0
300
1:1
140
1.0
141
1.0
290
     1
  0
SCALE
  5
49
102
{ACAD_REACTORS
330
47
102
}
330
47
100
AcDbScale
 70
     0
300
1:2
140
1.0
141
2.0
290
     0
  0
SCALE
  5
4A
102
{ACAD_REACTORS
330
47
102
}
330
47
100
AcDbScale
 70
     0
300
1:4
140
1.0
141
4.0
290
     0
  0
SCALE
  5
4B
102
{ACAD_REACTORS
330
47
102
}
330
47
100
AcDbScale
 70
     0
300
1:5
140
1.0
141
5.0
290
     0
  0
SCALE
  5
4C
102
{ACAD_REACTORS
330
47
102
}
330
47
100
AcDbScale
 70
     0
300
1:8
140
1.0
141
8.0
290
     0
  0
SCALE
  5
4D
102
{ACAD_REACTORS
330
47
102
}
330
47
100
AcDbScale
 70
     0
300
1:10
140
1.0
141
10.0
290
     0
  0
SCALE
  5
4E
102
{ACAD_REACTORS
330
47
102
}
330
47
100
AcDbScale
 70
     0
300
1:16
140
1.0
141
16.0
290
     0
  0
SCALE
  5
4F
102
{ACAD_REACTORS
330
47
102
}
330
47
100
AcDbScale
 70
     0
300
1:20
140
1.0
141
20.0
290
     0
  0
SCALE
  5
50
102
{ACAD_REACTORS
330
47
102
}
330
47
100
AcDbScale
 70
     0
300
1:30
140
1.0
141
30.0
290
     0
  0
SCALE
  5
51
102
{ACAD_REACTORS
330
47
102
}
330
47
100
AcDbScale
 70
     0
300
1:40
140
1.0
141
40.0
290
     0
  0
SCALE
  5
52
102
{ACAD_REACTORS
330
47
102
}
330
47
100
AcDbScale
 70
     0
300
1:50
140
1.0
141
50.0
290
     0
  0
SCALE
  5
53
102
{ACAD_REACTORS
330
47
102
}
330
47
100
AcDbScale
 70
     0
300
1:100
140
1.0
141
100.0
290
     0
  0
SCALE
  5
54
102
{ACAD_REACTORS
330
47
102
}
330
47
100
AcDbScale
 70
     0
300
2:1
140
2.0
141
1.0
290
     0
  0
SCALE
  5
55
102
{ACAD_REACTORS
330
47
102
}
330
47
100
AcDbScale
 70
     0
300
4:1
140
4.0
141
1.0
290
     0
  0
SCALE
  5
56
102
{ACAD_REACTORS
330
47
102
}
330
47
100
AcDbScale
 70
     0
300
8:1
140
8.0
141
1.0
290
     0
  0
SCALE
  5
57
102
{ACAD_REACTORS
330
47
102
}
330
47
100
AcDbScale
 70
     0
300
10:1
140
10.0
141
1.0
290
     0
  0
SCALE
  5
58
102
{ACAD_REACTORS
330
47
102
}
330
47
100
AcDbScale
 70
     0
300
100:1
140
100.0
141
1.0
290
     0
  0
SCALE
  5
59
102
{ACAD_REACTORS
330
47
102
}
330
47
100
AcDbScale
 70
     0
300
1/128" = 1'-0"
140
0.0078125
141
12.0
290
     0
  0
SCALE
  5
5A
102
{ACAD_REACTORS
330
47
102
}
330
47
100
AcDbScale
 70
     0
300
1/64" = 1'-0"
140
0.015625
141
12.0
290
     0
  0
SCALE
  5
5B
102
{ACAD_REACTORS
330
47
102
}
330
47
100
AcDbScale
 70
     0
300
1/32" = 1'-0"
140
0.03125
141
12.0
290
     0
  0
SCALE
  5
5C
102
{ACAD_REACTORS
330
47
102
}
330
47
100
AcDbScale
 70
     0
300
1/16" = 1'-0"
140
0.0625
141
12.0
290
     0
  0
SCALE
  5
5D
102
{ACAD_REACTORS
330
47
102
}
330
47
100
AcDbScale
 70
     0
300
3/32" = 1'-0"
140
0.09375
141
12.0
290
     0
  0
SCALE
  5
5E
102
{ACAD_REACTORS
330
47
102
}
330
47
100
AcDbScale
 70
     0
300
1/8" = 1'-0"
140
0.125
141
12.0
290
     0
  0
SCALE
  5
5F
102
{ACAD_REACTORS
330
47
102
}
330
47
100
AcDbScale
 70
     0
300
3/16" = 1'-0"
140
0.1875
141
12.0
290
     0
  0
SCALE
  5
60
102
{ACAD_REACTORS
330
47
102
}
330
47
100
AcDbScale
 70
     0
300
1/4" = 1'-0"
140
0.25
141
12.0
290
     0
  0
SCALE
  5
61
102
{ACAD_REACTORS
330
47
102
}
330
47
100
AcDbScale
 70
     0
300
3/8" = 1'-0"
140
0.375
141
12.0
290
     0
  0
SCALE
  5
62
102
{ACAD_REACTORS
330
47
102
}
330
47
100
AcDbScale
 70
     0
300
1/2" = 1'-0"
140
0.5
141
12.0
290
     0
  0
SCALE
  5
63
102
{ACAD_REACTORS
330
47
102
}
330
47
100
AcDbScale
 70
     0
300
3/4" = 1'-0"
140
0.75
141
12.0
290
     0
  0
SCALE
  5
64
102
{ACAD_REACTORS
330
47
102
}
330
47
100
AcDbScale
 70
     0
300
1" = 1'-0"
140
1.0
141
12.0
290
     0
  0
SCALE
  5
65
102
{ACAD_REACTORS
330
47
102
}
330
47
100
AcDbScale
 70
     0
300
1-1/2" = 1'-0"
140
1.5
141
12.0
290
     0
  0
SCALE
  5
66
102
{ACAD_REACTORS
330
47
102
}
330
47
100
AcDbScale
 70
     0
300
3" = 1'-0"
140
3.0
141
12.0
290
     0
  0
SCALE
  5
67
102
{ACAD_REACTORS
330
47
102
}
330
47
100
AcDbScale
 70
     0
300
6" = 1'-0"
140
6.0
141
12.0
290
     0
  0
SCALE
  5
68
102
{ACAD_REACTORS
330
47
102
}
330
47
100
AcDbScale
 70
     0
300
1'-0" = 1'-0"
140
12.0
141
12.0
290
     0
  0
ENDSEC
  0
EOF
