  0
SECTION
  2
HEADER
  9
$ACADVER
  1
AC1015
  9
$ACADMAINTVER
 70
     6
  9
$DWGCODEPAGE
  3
ANSI_1252
  9
$INSBASE
 10
0.0
 20
0.0
 30
0.0
  9
$EXTMIN
 10
0.0
 20
0.0
 30
0.0
  9
$EXTMAX
 10
297.0
 20
210.0
 30
0.0
  9
$LIMMIN
 10
0.0
 20
0.0
  9
$LIMMAX
 10
297.0
 20
210.0
  9
$ORTHOMODE
 70
     0
  9
$REGENMODE
 70
     1
  9
$FILLMODE
 70
     1
  9
$QTEXTMODE
 70
     0
  9
$MIRRTEXT
 70
     1
  9
$LTSCALE
 40
1.0
  9
$ATTMODE
 70
     1
  9
$TEXTSIZE
 40
2.0
  9
$TRACEWID
 40
1.0
  9
$TEXTSTYLE
  7
Standard
  9
$CLAYER
  8
0
  9
$CELTYPE
  6
ByLayer
  9
$CECOLOR
 62
   256
  9
$CELTSCALE
 40
1.0
  9
$DISPSILH
 70
     0
  9
$DIMSCALE
 40
1.0
  9
$DIMASZ
 40
3.0
  9
$DIMEXO
 40
0.0
  9
$DIMDLI
 40
3.75
  9
$DIMRND
 40
0.0
  9
$DIMDLE
 40
0.0
  9
$DIMEXE
 40
1.0
  9
$DIMTP
 40
0.0
  9
$DIMTM
 40
0.0
  9
$DIMTXT
 40
2.0
  9
$DIMCEN
 40
2.5
  9
$DIMTSZ
 40
0.0
  9
$DIMTOL
 70
     0
  9
$DIMLIM
 70
     0
  9
$DIMTIH
 70
     1
  9
$DIMTOH
 70
     1
  9
$DIMSE1
 70
     0
  9
$DIMSE2
 70
     0
  9
$DIMTAD
 70
     1
  9
$DIMZIN
 70
     0
  9
$DIMBLK
  1

  9
$DIMASO
 70
     1
  9
$DIMSHO
 70
     1
  9
$DIMPOST
  1

  9
$DIMAPOST
  1

  9
$DIMALT
 70
     0
  9
$DIMALTD
 70
     3
  9
$DIMALTF
 40
0.0393700787
  9
$DIMLFAC
 40
0.5
  9
$DIMTOFL
 70
     1
  9
$DIMTVP
 40
0.0
  9
$DIMTIX
 70
     0
  9
$DIMSOXD
 70
     0
  9
$DIMSAH
 70
     0
  9
$DIMBLK1
  1

  9
$DIMBLK2
  1

  9
$DIMSTYLE
  2
ISO-25
  9
$DIMCLRD
 70
     0
  9
$DIMCLRE
 70
     0
  9
$DIMCLRT
 70
     0
  9
$DIMTFAC
 40
1.0
  9
$DIMGAP
 40
1.524
  9
$DIMJUST
 70
     0
  9
$DIMSD1
 70
     0
  9
$DIMSD2
 70
     0
  9
$DIMTOLJ
 70
     0
  9
$DIMTZIN
 70
     0
  9
$DIMALTZ
 70
     0
  9
$DIMALTTZ
 70
     0
  9
$DIMUPT
 70
     0
  9
$DIMDEC
 70
     2
  9
$DIMTDEC
 70
     3
  9
$DIMALTU
 70
     2
  9
$DIMALTTD
 70
     3
  9
$DIMTXSTY
  7
Standard
  9
$DIMAUNIT
 70
     0
  9
$DIMADEC
 70
     2
  9
$DIMALTRND
 40
0.0
  9
$DIMAZIN
 70
     0
  9
$DIMDSEP
 70
    44
  9
$DIMATFIT
 70
     3
  9
$DIMFRAC
 70
     0
  9
$DIMLDRBLK
  1

  9
$DIMLUNIT
 70
     2
  9
$DIMLWD
 70
    -2
  9
$DIMLWE
 70
    -2
  9
$DIMTMOVE
 70
     0
  9
$LUNITS
 70
     2
  9
$LUPREC
 70
     2
  9
$SKETCHINC
 40
1.0
  9
$FILLETRAD
 40
10.0
  9
$AUNITS
 70
     0
  9
$AUPREC
 70
     2
  9
$MENU
  1
.
  9
$ELEVATION
 40
0.0
  9
$PELEVATION
 40
0.0
  9
$THICKNESS
 40
0.0
  9
$LIMCHECK
 70
     0
  9
$CHAMFERA
 40
0.0
  9
$CHAMFERB
 40
0.0
  9
$CHAMFERC
 40
0.0
  9
$CHAMFERD
 40
0.0
  9
$SKPOLY
 70
     0
  9
$TDCREATE
 40
2457583.592603669
  9
$TDUCREATE
 40
2457583.509270336
  9
$TDUPDATE
 40
2457583.592604491
  9
$TDUUPDATE
 40
2457583.509271157
  9
$TDINDWG
 40
0.0000000116
  9
$TDUSRTIMER
 40
0.0000000116
  9
$USRTIMER
 70
     1
  9
$ANGBASE
 50
0.0
  9
$ANGDIR
 70
     0
  9
$PDMODE
 70
     0
  9
$PDSIZE
 40
-1.0
  9
$PLINEWID
 40
0.0
  9
$SPLFRAME
 70
     0
  9
$SPLINETYPE
 70
     6
  9
$SPLINESEGS
 70
     8
  9
$HANDSEED
  5
FF
  9
$SURFTAB1
 70
     6
  9
$SURFTAB2
 70
     6
  9
$SURFTYPE
 70
     6
  9
$SURFU
 70
     6
  9
$SURFV
 70
     6
  9
$UCSBASE
  2

  9
$UCSNAME
  2

  9
$UCSORG
 10
0.0
 20
0.0
 30
0.0
  9
$UCSXDIR
 10
1.0
 20
0.0
 30
0.0
  9
$UCSYDIR
 10
0.0
 20
1.0
 30
0.0
  9
$UCSORTHOREF
  2

  9
$UCSORTHOVIEW
 70
     0
  9
$UCSORGTOP
 10
0.0
 20
0.0
 30
0.0
  9
$UCSORGBOTTOM
 10
0.0
 20
0.0
 30
0.0
  9
$UCSORGLEFT
 10
0.0
 20
0.0
 30
0.0
  9
$UCSORGRIGHT
 10
0.0
 20
0.0
 30
0.0
  9
$UCSORGFRONT
 10
0.0
 20
0.0
 30
0.0
  9
$UCSORGBACK
 10
0.0
 20
0.0
 30
0.0
  9
$PUCSBASE
  2

  9
$PUCSNAME
  2

  9
$PUCSORG
 10
0.0
 20
0.0
 30
0.0
  9
$PUCSXDIR
 10
1.0
 20
0.0
 30
0.0
  9
$PUCSYDIR
 10
0.0
 20
1.0
 30
0.0
  9
$PUCSORTHOREF
  2

  9
$PUCSORTHOVIEW
 70
     0
  9
$PUCSORGTOP
 10
0.0
 20
0.0
 30
0.0
  9
$PUCSORGBOTTOM
 10
0.0
 20
0.0
 30
0.0
  9
$PUCSORGLEFT
 10
0.0
 20
0.0
 30
0.0
  9
$PUCSORGRIGHT
 10
0.0
 20
0.0
 30
0.0
  9
$PUCSORGFRONT
 10
0.0
 20
0.0
 30
0.0
  9
$PUCSORGBACK
 10
0.0
 20
0.0
 30
0.0
  9
$USERI1
 70
     0
  9
$USERI2
 70
     0
  9
$USERI3
 70
     0
  9
$USERI4
 70
     0
  9
$USERI5
 70
     0
  9
$USERR1
 40
0.0
  9
$USERR2
 40
0.0
  9
$USERR3
 40
0.0
  9
$USERR4
 40
0.0
  9
$USERR5
 40
0.0
  9
$WORLDVIEW
 70
     1
  9
$SHADEDGE
 70
     3
  9
$SHADEDIF
 70
    70
  9
$TILEMODE
 70
     1
  9
$MAXACTVP
 70
    64
  9
$PINSBASE
 10
0.0
 20
0.0
 30
0.0
  9
$PLIMCHECK
 70
     0
  9
$PEXTMIN
 10
1.0000000000E+20
 20
1.0000000000E+20
 30
1.0000000000E+20
  9
$PEXTMAX
 10
-1.0000000000E+20
 20
-1.0000000000E+20
 30
-1.0000000000E+20
  9
$PLIMMIN
 10
0.0
 20
0.0
  9
$PLIMMAX
 10
420.0
 20
297.0
  9
$UNITMODE
 70
     0
  9
$VISRETAIN
 70
     1
  9
$PLINEGEN
 70
     0
  9
$PSLTSCALE
 70
     1
  9
$TREEDEPTH
 70
  3020
  9
$CMLSTYLE
  2
Standard
  9
$CMLJUST
 70
     0
  9
$CMLSCALE
 40
20.0
  9
$PROXYGRAPHICS
 70
     1
  9
$MEASUREMENT
 70
     1
  9
$CELWEIGHT
370
    -1
  9
$ENDCAPS
280
     0
  9
$JOINSTYLE
280
     0
  9
$LWDISPLAY
290
     1
  9
$INSUNITS
 70
     4
  9
$HYPERLINKBASE
  1

  9
$STYLESHEET
  1

  9
$XEDIT
290
     1
  9
$CEPSNTYPE
380
     0
  9
$PSTYLEMODE
290
     1
  9
$FINGERPRINTGUID
  2
{F976CD43-6A11-4EEB-BB30-CA3E5EFBB4AD}
  9
$VERSIONGUID
  2
{FAEB1C32-E019-11D5-929B-00C0DF256EC4}
  9
$EXTNAMES
290
     1
  9
$PSVPSCALE
 40
0.0
  9
$OLESTARTUP
290
     0
  0
ENDSEC
  0
SECTION
  2
CLASSES
  0
CLASS
  1
ACDBDICTIONARYWDFLT
  2
AcDbDictionaryWithDefault
  3
ObjectDBX Classes
 90
        0
280
     0
281
     0
  0
CLASS
  1
VISUALSTYLE
  2
AcDbVisualStyle
  3
ObjectDBX Classes
 90
     4095
280
     0
281
     0
  0
CLASS
  1
MATERIAL
  2
AcDbMaterial
  3
ObjectDBX Classes
 90
     1153
280
     0
281
     0
  0
CLASS
  1
SCALE
  2
AcDbScale
  3
ObjectDBX Classes
 90
     1153
280
     0
281
     0
  0
CLASS
  1
TABLESTYLE
  2
AcDbTableStyle
  3
ObjectDBX Classes
 90
     4095
280
     0
281
     0
  0
CLASS
  1
MLEADERSTYLE
  2
AcDbMLeaderStyle
  3
ACDB_MLEADERSTYLE_CLASS
 90
     4095
280
     0
281
     0
  0
CLASS
  1
SUN
  2
AcDbSun
  3
SCENEOE
 90
     1153
280
     0
281
     0
  0
CLASS
  1
ACDBPLACEHOLDER
  2
AcDbPlaceHolder
  3
ObjectDBX Classes
 90
        0
280
     0
281
     0
  0
CLASS
  1
LAYOUT
  2
AcDbLayout
  3
ObjectDBX Classes
 90
        0
280
     0
281
     0
  0
ENDSEC
  0
SECTION
  2
TABLES
  0
TABLE
  2
VPORT
  5
8
330
0
100
AcDbSymbolTable
 70
     1
  0
VPORT
  5
29
330
8
100
AcDbSymbolTableRecord
100
AcDbViewportTableRecord
  2
*Active
 70
     0
 10
0.0
 20
0.0
 11
1.0
 21
1.0
 12
148.5
 22
105.0
 13
0.0
 23
0.0
 14
10.0
 24
10.0
 15
10.0
 25
10.0
 16
0.0
 26
0.0
 36
1.0
 17
0.0
 27
0.0
 37
0.0
 40
210.0
 41
1.4142857143
 42
50.0
 43
0.0
 44
0.0
 50
0.0
 51
0.0
 71
     0
 72
  2000
 73
     1
 74
     3
 75
     0
 76
     0
 77
     0
 78
     0
281
     0
 65
     1
110
0.0
120
0.0
130
0.0
111
1.0
121
0.0
131
0.0
112
0.0
122
1.0
132
0.0
 79
     0
146
0.0
  0
ENDTAB
  0
TABLE
  2
LTYPE
  5
5
330
0
100
AcDbSymbolTable
 70
     6
  0
LTYPE
  5
14
330
5
100
AcDbSymbolTableRecord
100
AcDbLinetypeTableRecord
  2
ByBlock
 70
     0
  3

 72
    65
 73
     0
 40
0.0
  0
LTYPE
  5
15
330
5
100
AcDbSymbolTableRecord
100
AcDbLinetypeTableRecord
  2
ByLayer
 70
     0
  3

 72
    65
 73
     0
 40
0.0
  0
LTYPE
  5
16
330
5
100
AcDbSymbolTableRecord
100
AcDbLinetypeTableRecord
  2
Continuous
 70
     0
  3
Solid line
 72
    65
 73
     0
 40
0.0
  0
LTYPE
  5
6E
330
5
100
AcDbSymbolTableRecord
100
AcDbLinetypeTableRecord
  2
HIDDEN
 70
     0
  3
Hidden __ __ __ __ __ __ __ __ __ __ __ __ __ __
 72
    65
 73
     2
 40
1.905
 49
1.27
 74
     0
 49
-0.635
 74
     0
  0
LTYPE
  5
6F
330
5
100
AcDbSymbolTableRecord
100
AcDbLinetypeTableRecord
  2
PHANTOM
 70
     0
  3
Phantom ______  __  __  ______  __  __  ______
 72
    65
 73
     6
 40
12.7
 49
6.35
 74
     0
 49
-1.27
 74
     0
 49
1.27
 74
     0
 49
-1.27
 74
     0
 49
1.27
 74
     0
 49
-1.27
 74
     0
  0
LTYPE
  5
70
330
5
100
AcDbSymbolTableRecord
100
AcDbLinetypeTableRecord
  2
CENTER
 70
     0
  3
Center ____ _ ____ _ ____ _ ____ _ ____ _ ____
 72
    65
 73
     4
 40
10.16
 49
6.35
 74
     0
 49
-1.27
 74
     0
 49
1.27
 74
     0
 49
-1.27
 74
     0
  0
LTYPE
  5
71
330
5
100
AcDbSymbolTableRecord
100
AcDbLinetypeTableRecord
  2
CENTERX2
 70
     0
  3
Center (2x) ________  __  ________  __  _____
 72
    65
 73
     4
 40
20.32
 49
12.7
 74
     0
 49
-2.54
 74
     0
 49
2.54
 74
     0
 49
-2.54
 74
     0
  0
LTYPE
  5
72
330
5
100
AcDbSymbolTableRecord
100
AcDbLinetypeTableRecord
  2
DOT2
 70
     0
  3
Dot (.5x) ........................................
 72
    65
 73
     2
 40
0.635
 49
0.0
 74
     0
 49
-0.635
 74
     0
  0
ENDTAB
  0
TABLE
  2
LAYER
  5
2
330
0
100
AcDbSymbolTable
 70
     5
  0
LAYER
  5
10
330
2
100
AcDbSymbolTableRecord
100
AcDbLayerTableRecord
  2
0
 70
     0
 62
     7
  6
Continuous
370
    -3
390
F
  0
LAYER
  5
73
330
2
100
AcDbSymbolTableRecord
100
AcDbLayerTableRecord
  2
FORMAT
 70
     0
 62
     7
  6
Continuous
370
    -3
390
F
  0
LAYER
  5
74
330
2
100
AcDbSymbolTableRecord
100
AcDbLayerTableRecord
  2
VERMASSUNG
 70
     0
 62
     7
  6
Continuous
370
    -3
390
F
  0
LAYER
  5
75
330
2
100
AcDbSymbolTableRecord
100
AcDbLayerTableRecord
  2
KOPF_DÜNN
 70
     0
 62
     7
  6
Continuous
370
    -3
390
F
  0
LAYER
  5
76
330
2
100
AcDbSymbolTableRecord
100
AcDbLayerTableRecord
  2
KOPF_DICK
 70
     0
 62
     7
  6
Continuous
370
    15
390
F
  0
ENDTAB
  0
TABLE
  2
STYLE
  5
3
330
0
100
AcDbSymbolTable
 70
     3
  0
STYLE
  5
11
330
3
100
AcDbSymbolTableRecord
100
AcDbTextStyleTableRecord
  2
Standard
 70
     0
 40
0.0
 41
1.0
 50
0.0
 71
     0
 42
2.0
  3
txt
  4

  0
STYLE
  5
77
330
3
100
AcDbSymbolTableRecord
100
AcDbTextStyleTableRecord
  2
SLDTEXTSTYLE0
 70
     0
 40
0.0
 41
0.7
 50
0.0
 71
     0
 42
2.0
  3
TXT
  4

  0
STYLE
  5
7B
330
3
100
AcDbSymbolTableRecord
100
AcDbTextStyleTableRecord
  2
SLDTEXTSTYLE1
 70
     0
 40
0.0
 41
0.6538461538
 50
0.0
 71
     0
 42
2.0
  3
TXT
  4

  0
ENDTAB
  0
TABLE
  2
VIEW
  5
6
330
0
100
AcDbSymbolTable
 70
     0
  0
ENDTAB
  0
TABLE
  2
UCS
  5
7
330
0
100
AcDbSymbolTable
 70
     0
  0
ENDTAB
  0
TABLE
  2
APPID
  5
9
330
0
100
AcDbSymbolTable
 70
     1
  0
APPID
  5
12
330
9
100
AcDbSymbolTableRecord
100
AcDbRegAppTableRecord
  2
ACAD
 70
     0
  0
ENDTAB
  0
TABLE
  2
DIMSTYLE
  5
A
330
0
100
AcDbSymbolTable
 70
     2
100
AcDbDimStyleTable
  0
DIMSTYLE
105
27
330
A
100
AcDbSymbolTableRecord
100
AcDbDimStyleTableRecord
  2
ISO-25
 70
     0
 41
2.5
 42
0.625
 43
3.75
 44
1.25
 73
     0
 74
     0
 77
     1
 78
     8
140
2.5
141
2.5
143
0.0393700787
147
0.625
171
     3
172
     1
178
     0
271
     2
272
     2
274
     3
278
    44
283
     0
284
     8
340
11
  0
DIMSTYLE
105
D0
102
{ACAD_REACTORS
330
CF
330
DC
330
E7
330
F1
102
}
330
A
100
AcDbSymbolTableRecord
100
AcDbDimStyleTableRecord
  2
SLDDIMSTYLE0
 70
     0
 41
3.0
 44
0.0
 45
0.000000001
 73
     0
 74
     0
 77
     1
 78
    12
 79
     3
140
2.0
147
0.5
173
     1
178
     0
271
     2
272
     3
276
     2
284
    12
340
77
  0
ENDTAB
  0
TABLE
  2
BLOCK_RECORD
  5
1
330
0
100
AcDbSymbolTable
 70
     5
  0
BLOCK_RECORD
  5
1F
330
1
100
AcDbSymbolTableRecord
100
AcDbBlockTableRecord
  2
*Model_Space
340
22
  0
BLOCK_RECORD
  5
1B
330
1
100
AcDbSymbolTableRecord
100
AcDbBlockTableRecord
  2
*Paper_Space
340
1E
  0
BLOCK_RECORD
  5
23
330
1
100
AcDbSymbolTableRecord
100
AcDbBlockTableRecord
  2
*Paper_Space0
340
26
  0
BLOCK_RECORD
  5
D1
330
1
100
AcDbSymbolTableRecord
100
AcDbBlockTableRecord
  2
_D
340
0
  0
BLOCK_RECORD
  5
DD
330
1
100
AcDbSymbolTableRecord
100
AcDbBlockTableRecord
  2
_D_1
340
0
  0
BLOCK_RECORD
  5
E8
330
1
100
AcDbSymbolTableRecord
100
AcDbBlockTableRecord
  2
_D_2
340
0
  0
BLOCK_RECORD
  5
F2
330
1
100
AcDbSymbolTableRecord
100
AcDbBlockTableRecord
  2
_D_3
340
0
  0
ENDTAB
  0
ENDSEC
  0
SECTION
  2
BLOCKS
  0
BLOCK
  5
20
330
1F
100
AcDbEntity
  8
0
100
AcDbBlockBegin
  2
*Model_Space
 70
     0
 10
0.0
 20
0.0
 30
0.0
  3
*Model_Space
  1

  0
ENDBLK
  5
21
330
1F
100
AcDbEntity
  8
0
100
AcDbBlockEnd
  0
BLOCK
  5
1C
330
1B
100
AcDbEntity
 67
     1
  8
0
100
AcDbBlockBegin
  2
*Paper_Space
 70
     0
 10
0.0
 20
0.0
 30
0.0
  3
*Paper_Space
  1

  0
ENDBLK
  5
1D
330
1B
100
AcDbEntity
 67
     1
  8
0
100
AcDbBlockEnd
  0
BLOCK
  5
24
330
23
100
AcDbEntity
  8
0
100
AcDbBlockBegin
  2
*Paper_Space0
 70
     0
 10
0.0
 20
0.0
 30
0.0
  3
*Paper_Space0
  1

  0
ENDBLK
  5
25
330
23
100
AcDbEntity
  8
0
100
AcDbBlockEnd
  0
BLOCK
  5
D2
330
D1
100
AcDbEntity
  8
0
100
AcDbBlockBegin
  2
_D
 70
     0
 10
0.0
 20
0.0
 30
0.0
  3
_D
  1

  0
SOLID
  5
D4
330
D1
100
AcDbEntity
  8
VERMASSUNG
100
AcDbTrace
 10
175.8879162513
 20
136.1963362069
 30
0.0
 11
175.4379162513
 21
133.1963362069
 31
0.0
 12
176.3379162513
 22
133.1963362069
 32
0.0
 13
176.3379162513
 23
133.1963362069
 33
0.0
  0
SOLID
  5
D5
330
D1
100
AcDbEntity
  8
VERMASSUNG
100
AcDbTrace
 10
175.8879162513
 20
111.1963362069
 30
0.0
 11
176.3379162513
 21
114.1963362069
 31
0.0
 12
175.4379162513
 22
114.1963362069
 32
0.0
 13
175.4379162513
 23
114.1963362069
 33
0.0
  0
LINE
  5
D6
330
D1
100
AcDbEntity
  8
VERMASSUNG
100
AcDbLine
 10
162.0285560345
 20
136.1963362069
 30
0.0
 11
176.8879162513
 21
136.1963362069
 31
0.0
  0
LINE
  5
D7
330
D1
100
AcDbEntity
  8
VERMASSUNG
100
AcDbLine
 10
162.0285560345
 20
111.1963362069
 30
0.0
 11
176.8879162513
 21
111.1963362069
 31
0.0
  0
LINE
  5
D8
330
D1
100
AcDbEntity
  8
VERMASSUNG
100
AcDbLine
 10
175.8879162513
 20
136.1963362069
 30
0.0
 11
175.8879162513
 21
111.1963362069
 31
0.0
  0
MTEXT
  5
D9
330
D1
100
AcDbEntity
  8
VERMASSUNG
100
AcDbMText
 10
173.1097809951
 20
118.5913362176
 30
0.0
 40
2.0
 41
0.0
 71
     1
 72
     1
  1
WH
  7
SLDTEXTSTYLE0
 11
-7.044195017643634E-15
 21
1.0
 31
0.0
 73
     1
 44
1.0
  0
MTEXT
  5
DA
330
D1
100
AcDbEntity
  8
VERMASSUNG
100
AcDbMText
 10
173.3097809464
 20
122.3913362817
 30
0.0
 40
2.0
 41
0.0
 71
     1
 72
     1
  1
%%c
  7
SLDTEXTSTYLE0
 11
-7.044195017643634E-15
 21
1.0
 31
0.0
 73
     1
 44
1.0
  0
MTEXT
  5
DB
330
D1
100
AcDbEntity
  8
VERMASSUNG
100
AcDbMText
 10
173.1097809951
 20
126.001336296
 30
0.0
 40
2.0
 41
0.0
 71
     1
 72
     1
  1
25
  7
SLDTEXTSTYLE0
 11
-7.044195017643634E-15
 21
1.0
 31
0.0
 73
     1
 44
1.0
  0
ENDBLK
  5
D3
330
D1
100
AcDbEntity
  8
0
100
AcDbBlockEnd
  0
BLOCK
  5
DE
330
DD
100
AcDbEntity
  8
0
100
AcDbBlockBegin
  2
_D_1
 70
     0
 10
0.0
 20
0.0
 30
0.0
  3
_D_1
  1

  0
SOLID
  5
E0
330
DD
100
AcDbEntity
  8
VERMASSUNG
100
AcDbTrace
 10
169.5879162513
 20
130.6963362069
 30
0.0
 11
169.1379162513
 21
127.6963362069
 31
0.0
 12
170.0379162513
 22
127.6963362069
 32
0.0
 13
170.0379162513
 23
127.6963362069
 33
0.0
  0
SOLID
  5
E1
330
DD
100
AcDbEntity
  8
VERMASSUNG
100
AcDbTrace
 10
169.5879162513
 20
116.6963362069
 30
0.0
 11
170.0379162513
 21
119.6963362069
 31
0.0
 12
169.1379162513
 22
119.6963362069
 32
0.0
 13
169.1379162513
 23
119.6963362069
 33
0.0
  0
LINE
  5
E2
330
DD
100
AcDbEntity
  8
VERMASSUNG
100
AcDbLine
 10
161.2285560345
 20
130.6963362069
 30
0.0
 11
170.5879162513
 21
130.6963362069
 31
0.0
  0
LINE
  5
E3
330
DD
100
AcDbEntity
  8
VERMASSUNG
100
AcDbLine
 10
161.2285560345
 20
116.6963362069
 30
0.0
 11
170.5879162513
 21
116.6963362069
 31
0.0
  0
LINE
  5
E4
330
DD
100
AcDbEntity
  8
VERMASSUNG
100
AcDbLine
 10
169.5879162513
 20
130.6963362069
 30
0.0
 11
169.5879162513
 21
116.6963362069
 31
0.0
  0
MTEXT
  5
E5
330
DD
100
AcDbEntity
  8
VERMASSUNG
100
AcDbMText
 10
167.0097809464
 20
120.5913360798
 30
0.0
 40
2.0
 41
0.0
 71
     1
 72
     1
  1
%%c
  7
SLDTEXTSTYLE0
 11
-7.044195017643634E-15
 21
1.0
 31
0.0
 73
     1
 44
1.0
  0
MTEXT
  5
E6
330
DD
100
AcDbEntity
  8
VERMASSUNG
100
AcDbMText
 10
166.8097809951
 20
124.2013360941
 30
0.0
 40
2.0
 41
0.0
 71
     1
 72
     1
  1
14
  7
SLDTEXTSTYLE0
 11
-7.044195017643634E-15
 21
1.0
 31
0.0
 73
     1
 44
1.0
  0
ENDBLK
  5
DF
330
DD
100
AcDbEntity
  8
0
100
AcDbBlockEnd
  0
BLOCK
  5
E9
330
E8
100
AcDbEntity
  8
0
100
AcDbBlockBegin
  2
_D_2
 70
     0
 10
0.0
 20
0.0
 30
0.0
  3
_D_2
  1

  0
SOLID
  5
EB
330
E8
100
AcDbEntity
  8
VERMASSUNG
100
AcDbTrace
 10
132.2285560345
 20
142.6918322931
 30
0.0
 11
135.2285560345
 21
142.2418322931
 31
0.0
 12
135.2285560345
 22
143.1418322931
 32
0.0
 13
135.2285560345
 23
143.1418322931
 33
0.0
  0
SOLID
  5
EC
330
E8
100
AcDbEntity
  8
VERMASSUNG
100
AcDbTrace
 10
162.2285560345
 20
142.6918322931
 30
0.0
 11
159.2285560345
 21
143.1418322931
 31
0.0
 12
159.2285560345
 22
142.2418322931
 32
0.0
 13
159.2285560345
 23
142.2418322931
 33
0.0
  0
LINE
  5
ED
330
E8
100
AcDbEntity
  8
VERMASSUNG
100
AcDbLine
 10
132.2285560345
 20
135.9963362069
 30
0.0
 11
132.2285560345
 21
143.6918322931
 31
0.0
  0
LINE
  5
EE
330
E8
100
AcDbEntity
  8
VERMASSUNG
100
AcDbLine
 10
162.2285560345
 20
135.9963362069
 30
0.0
 11
162.2285560345
 21
143.6918322931
 31
0.0
  0
LINE
  5
EF
330
E8
100
AcDbEntity
  8
VERMASSUNG
100
AcDbLine
 10
132.2285560345
 20
142.6918322931
 30
0.0
 11
162.2285560345
 21
142.6918322931
 31
0.0
  0
MTEXT
  5
F0
330
E8
100
AcDbEntity
  8
VERMASSUNG
100
AcDbMText
 10
145.8285560844
 20
145.2699678891
 30
0.0
 40
2.0
 41
0.0
 71
     1
 72
     1
  1
30
  7
SLDTEXTSTYLE0
 73
     1
 44
1.0
  0
ENDBLK
  5
EA
330
E8
100
AcDbEntity
  8
0
100
AcDbBlockEnd
  0
BLOCK
  5
F3
330
F2
100
AcDbEntity
  8
0
100
AcDbBlockBegin
  2
_D_3
 70
     0
 10
0.0
 20
0.0
 30
0.0
  3
_D_3
  1

  0
ARC
  5
F5
330
F2
100
AcDbEntity
  8
VERMASSUNG
100
AcDbCircle
 10
140.5285561146
 20
150.591832558
 30
0.0
 40
4.248529228887608
100
AcDbArc
 50
153.4349488229
 51
206.5650511771
  0
ARC
  5
F6
330
F2
100
AcDbEntity
  8
VERMASSUNG
100
AcDbCircle
 10
135.9285560126
 20
150.591832558
 30
0.0
 40
4.248529228887633
100
AcDbArc
 50
333.4349488229
 51
26.5650511771
  0
SOLID
  5
F7
330
F2
100
AcDbEntity
  8
VERMASSUNG
100
AcDbTrace
 10
162.2285560345
 20
148.6918322931
 30
0.0
 11
159.2285560345
 21
149.1418322931
 31
0.0
 12
159.2285560345
 22
148.2418322931
 32
0.0
 13
159.2285560345
 23
148.2418322931
 33
0.0
  0
SOLID
  5
F8
330
F2
100
AcDbEntity
  8
VERMASSUNG
100
AcDbTrace
 10
114.2285560345
 20
148.6918322931
 30
0.0
 11
117.2285560345
 21
148.2418322931
 31
0.0
 12
117.2285560345
 22
149.1418322931
 32
0.0
 13
117.2285560345
 23
149.1418322931
 33
0.0
  0
LINE
  5
F9
330
F2
100
AcDbEntity
  8
VERMASSUNG
100
AcDbLine
 10
162.2285560345
 20
135.9963362069
 30
0.0
 11
162.2285560345
 21
149.6918322931
 31
0.0
  0
LINE
  5
FA
330
F2
100
AcDbEntity
  8
VERMASSUNG
100
AcDbLine
 10
114.2285560345
 20
129.6863362069
 30
0.0
 11
114.2285560345
 21
149.6918322931
 31
0.0
  0
LINE
  5
FB
330
F2
100
AcDbEntity
  8
VERMASSUNG
100
AcDbLine
 10
162.2285560345
 20
148.6918322931
 30
0.0
 11
114.2285560345
 21
148.6918322931
 31
0.0
  0
MTEXT
  5
FC
330
F2
100
AcDbEntity
  8
VERMASSUNG
100
AcDbMText
 10
136.7285560505
 20
151.2699681219
 30
0.0
 40
2.0
 41
0.0
 71
     1
 72
     1
  1
48
  7
SLDTEXTSTYLE0
 73
     1
 44
1.0
  0
ENDBLK
  5
F4
330
F2
100
AcDbEntity
  8
0
100
AcDbBlockEnd
  0
ENDSEC
  0
SECTION
  2
ENTITIES
  0
MTEXT
  5
78
330
1F
100
AcDbEntity
  8
KOPF_DÜNN
100
AcDbMText
 10
13.8892156294
 20
23.8442973028
 30
0.0
 40
3.0
 41
0.0
 71
     1
 72
     1
  1
A64.025.025.030
  7
SLDTEXTSTYLE0
 73
     1
 44
1.0
  0
MTEXT
  5
79
330
1F
100
AcDbEntity
  8
VERMASSUNG
100
AcDbMText
 10
13.9329988022
 20
28.8834360957
 30
0.0
 40
3.0
 41
0.0
 71
     1
 72
     1
  1
Verlängerung_Extensions
  7
SLDTEXTSTYLE0
 73
     1
 44
1.0
  0
MTEXT
  5
7A
330
1F
100
AcDbEntity
  8
VERMASSUNG
100
AcDbMText
 10
98.8601118557
 20
13.8365368761
 30
0.0
 40
2.0
 41
0.0
 71
     1
 72
     1
  1
Datum: 02.12.2011
  7
SLDTEXTSTYLE0
 73
     1
 44
1.0
  0
MTEXT
  5
7C
330
1F
100
AcDbEntity
  8
VERMASSUNG
100
AcDbMText
 10
13.933048693
 20
18.0482802738
 30
0.0
 40
2.0
 41
0.0
 71
     1
 72
     1
  1
WH2 / 30 lang
  7
SLDTEXTSTYLE1
 73
     1
 44
1.0
  0
MTEXT
  5
7D
330
1F
100
AcDbEntity
  8
VERMASSUNG
100
AcDbMText
 10
13.9808475933
 20
13.9090974274
 30
0.0
 40
2.0
 41
0.0
 71
     1
 72
     1
  1
Gewicht: 109g
  7
SLDTEXTSTYLE0
 73
     1
 44
1.0
  0
LINE
  5
7E
330
1F
100
AcDbEntity
  8
0
  6
Continuous
 62
     7
370
    15
100
AcDbLine
 10
162.0285560345
 20
111.1963362069
 30
0.0
 11
162.2285560345
 21
111.3963362069
 31
0.0
  0
LINE
  5
7F
330
1F
100
AcDbEntity
  8
0
  6
Continuous
 62
     7
370
    15
100
AcDbLine
 10
162.2285560345
 20
135.9963362069
 30
0.0
 11
162.0285560345
 21
136.1963362069
 31
0.0
  0
LINE
  5
80
330
1F
100
AcDbEntity
  8
0
  6
Continuous
 62
     7
370
    15
100
AcDbLine
 10
162.0285560345
 20
136.1963362069
 30
0.0
 11
132.4285560345
 21
136.1963362069
 31
0.0
  0
LINE
  5
81
330
1F
100
AcDbEntity
  8
0
  6
Continuous
 62
     7
370
    15
100
AcDbLine
 10
132.4285560345
 20
111.1963362069
 30
0.0
 11
162.0285560345
 21
111.1963362069
 31
0.0
  0
LINE
  5
82
330
1F
100
AcDbEntity
  8
0
  6
Continuous
 62
     7
370
    15
100
AcDbLine
 10
132.4285560345
 20
136.1963362069
 30
0.0
 11
132.2285560345
 21
135.9963362069
 31
0.0
  0
LINE
  5
83
330
1F
100
AcDbEntity
  8
0
  6
Continuous
 62
     7
370
    15
100
AcDbLine
 10
132.2285560345
 20
111.3963362069
 30
0.0
 11
132.4285560345
 21
111.1963362069
 31
0.0
  0
ARC
  5
84
330
1F
100
AcDbEntity
  8
0
  6
Continuous
 62
     7
370
    15
100
AcDbCircle
 10
131.7285560345
 20
116.3463362069
 30
0.0
 40
0.5999999999999943
100
AcDbArc
 50
33.5573097619
 51
90.0
  0
ARC
  5
85
330
1F
100
AcDbEntity
  8
0
  6
Continuous
 62
     7
370
    15
100
AcDbCircle
 10
131.7285560345
 20
131.0463362069
 30
0.0
 40
0.6000000000000019
100
AcDbArc
 50
270.0
 51
326.4426902381
  0
LINE
  5
86
330
1F
100
AcDbEntity
  8
0
  6
Continuous
 62
     7
370
    15
100
AcDbLine
 10
117.7285560345
 20
116.6963362069
 30
0.0
 11
130.2285560345
 21
116.6963362069
 31
0.0
  0
LINE
  5
87
330
1F
100
AcDbEntity
  8
0
  6
Continuous
 62
     7
370
    15
100
AcDbLine
 10
130.2285560345
 20
130.6963362069
 30
0.0
 11
117.7285560345
 21
130.6963362069
 31
0.0
  0
LINE
  5
88
330
1F
100
AcDbEntity
  8
0
  6
Continuous
 62
     7
370
    15
100
AcDbLine
 10
117.7285560345
 20
130.6963362069
 30
0.0
 11
116.1650725744
 21
130.4534478941
 31
0.0
  0
LINE
  5
89
330
1F
100
AcDbEntity
  8
0
  6
Continuous
 62
     7
370
    15
100
AcDbLine
 10
116.1650725744
 20
116.9392245197
 30
0.0
 11
117.7285560345
 21
116.6963362069
 31
0.0
  0
LINE
  5
8A
330
1F
100
AcDbEntity
  8
0
  6
Continuous
 62
     7
370
    15
100
AcDbLine
 10
130.2285560345
 20
116.6963362069
 30
0.0
 11
131.0852688079
 21
116.9258917027
 31
0.0
  0
LINE
  5
8B
330
1F
100
AcDbEntity
  8
0
  6
Continuous
 62
     7
370
    15
100
AcDbLine
 10
131.0852688079
 20
130.4667807111
 30
0.0
 11
130.2285560345
 21
130.6963362069
 31
0.0
  0
ARC
  5
8C
330
1F
100
AcDbEntity
  8
0
  6
Continuous
 62
     7
370
    15
100
AcDbCircle
 10
115.2285560345
 20
117.7063362069
 30
0.0
 40
1.000000000000008
100
AcDbArc
 50
180.0
 51
300.0
  0
ARC
  5
8D
330
1F
100
AcDbEntity
  8
0
  6
Continuous
 62
     7
370
    15
100
AcDbCircle
 10
115.2285560345
 20
129.6863362069
 30
0.0
 40
1.000000000000008
100
AcDbArc
 50
60.0
 51
180.0
  0
LINE
  5
8E
330
1F
100
AcDbEntity
  8
0
  6
Continuous
 62
     7
370
    15
100
AcDbLine
 10
115.7285560345
 20
116.8403108031
 30
0.0
 11
115.7729669362
 21
116.8659514492
 31
0.0
  0
LINE
  5
8F
330
1F
100
AcDbEntity
  8
0
  6
Continuous
 62
     7
370
    15
100
AcDbLine
 10
115.7729669362
 20
130.5267209646
 30
0.0
 11
115.7285560345
 21
130.5523616107
 31
0.0
  0
ARC
  5
90
330
1F
100
AcDbEntity
  8
0
  6
Continuous
 62
     7
370
    15
100
AcDbCircle
 10
116.0729669362
 20
116.3463362069
 30
0.0
 40
0.5999999999999962
100
AcDbArc
 50
81.1696436028
 51
120.0
  0
ARC
  5
91
330
1F
100
AcDbEntity
  8
0
  6
Continuous
 62
     7
370
    15
100
AcDbCircle
 10
116.0729669362
 20
131.0463362069
 30
0.0
 40
0.6000000000000094
100
AcDbArc
 50
240.0
 51
278.8303563972
  0
ARC
  5
92
330
1F
100
AcDbEntity
  8
0
  6
Continuous
 62
     7
370
    15
100
AcDbCircle
 10
131.2405602349
 20
116.3463362069
 30
0.0
 40
0.5999999999999943
100
AcDbArc
 50
90.0
 51
105.0
  0
ARC
  5
93
330
1F
100
AcDbEntity
  8
0
  6
Continuous
 62
     7
370
    15
100
AcDbCircle
 10
131.2405602349
 20
131.0463362069
 30
0.0
 40
0.5999999999999943
100
AcDbArc
 50
255.0
 51
270.0
  0
LINE
  5
94
330
1F
100
AcDbEntity
  8
0
  6
Continuous
 62
     7
370
    15
100
AcDbLine
 10
131.2405602349
 20
116.9463362069
 30
0.0
 11
131.7285560345
 21
116.9463362069
 31
0.0
  0
LINE
  5
95
330
1F
100
AcDbEntity
  8
0
  6
Continuous
 62
     7
370
    15
100
AcDbLine
 10
131.7285560345
 20
130.4463362069
 30
0.0
 11
131.2405602349
 21
130.4463362069
 31
0.0
  0
SPLINE
  5
96
330
1F
100
AcDbEntity
  8
0
  6
Continuous
 62
     7
370
    15
100
AcDbSpline
210
0.0
220
0.0
230
1.0
 70
    24
 71
     3
 72
    12
 73
     8
 74
     0
 42
0.000000001
 43
0.00000001
 40
0.0
 40
0.0
 40
0.0
 40
0.0
 40
0.2161830523198944
 40
0.4397570652973676
 40
0.5934133834694157
 40
0.7522050818260413
 40
1.0
 40
1.0
 40
1.0
 40
1.0
 10
154.4301396480054
 20
121.7554931447983
 30
0.0
 10
154.5023766461229
 20
121.8961513166568
 30
0.0
 10
154.6493203124147
 20
122.1822765434165
 30
0.0
 10
154.8653537979901
 20
122.6029318299477
 30
0.0
 10
155.0628675495585
 20
122.9875259290457
 30
0.0
 10
155.2657286666188
 20
123.3825322915814
 30
0.0
 10
155.4020723460366
 20
123.6480174749522
 30
0.0
 10
155.4851672377799
 20
123.8098178801183
 30
0.0
  0
SPLINE
  5
97
330
1F
100
AcDbEntity
  8
0
  6
Continuous
 62
     7
370
    15
100
AcDbSpline
210
0.0
220
0.0
230
1.0
 70
    24
 71
     3
 72
    12
 73
     8
 74
     0
 42
0.000000001
 43
0.00000001
 40
0.0
 40
0.0
 40
0.0
 40
0.0
 40
0.2161830523198941
 40
0.4397570652973686
 40
0.5934133834694172
 40
0.7522050818260423
 40
1.0
 40
1.0
 40
1.0
 40
1.0
 10
155.4851672377799
 20
123.8098178801183
 30
0.0
 10
155.3994721867593
 20
123.9427060415105
 30
0.0
 10
155.2251523048678
 20
124.2130256028242
 30
0.0
 10
154.9688708832832
 20
124.6104437326662
 30
0.0
 10
154.734559499103
 20
124.9737927086703
 30
0.0
 10
154.4939045130207
 20
125.3469787707525
 30
0.0
 10
154.3321594396021
 20
125.5977984524591
 30
0.0
 10
154.2335836242573
 20
125.7506609422166
 30
0.0
  0
SPLINE
  5
98
330
1F
100
AcDbEntity
  8
0
  6
Continuous
 62
     7
370
    15
100
AcDbSpline
210
0.0
220
0.0
230
1.0
 70
    24
 71
     3
 72
    13
 73
     9
 74
     0
 42
0.000000001
 43
0.00000001
 40
0.0
 40
0.0
 40
0.0
 40
0.0
 40
0.1840187439226635
 40
0.3511654572065111
 40
0.5179850771817598
 40
0.6927577357084527
 40
0.8679671654568176
 40
1.0
 40
1.0
 40
1.0
 40
1.0
 10
154.2335836242573
 20
125.7506609422166
 30
0.0
 10
154.0994785983996
 20
125.7440631841289
 30
0.0
 10
153.8435641642766
 20
125.7314725931596
 30
0.0
 10
153.4395132652969
 20
125.7115939191908
 30
0.0
 10
153.0301854731206
 20
125.691455630308
 30
0.0
 10
152.6163827120853
 20
125.6710971799377
 30
0.0
 10
152.2456795402819
 20
125.6528591621284
 30
0.0
 10
152.0227661603839
 20
125.6418921715501
 30
0.0
 10
151.9269724209601
 20
125.6371792689948
 30
0.0
  0
SPLINE
  5
99
330
1F
100
AcDbEntity
  8
0
  6
Continuous
 62
     7
370
    15
100
AcDbSpline
210
0.0
220
0.0
230
1.0
 70
    24
 71
     3
 72
    12
 73
     8
 74
     0
 42
0.000000001
 43
0.00000001
 40
0.0
 40
0.0
 40
0.0
 40
0.0
 40
0.2161830523198946
 40
0.4397570652973681
 40
0.593413383469417
 40
0.752205081826042
 40
1.0
 40
1.0
 40
1.0
 40
1.0
 10
151.9269724209601
 20
125.6371792689948
 30
0.0
 10
151.8547354228426
 20
125.4965210971362
 30
0.0
 10
151.7077917565508
 20
125.2103958703766
 30
0.0
 10
151.4917582709754
 20
124.7897405838454
 30
0.0
 10
151.294244519407
 20
124.4051464847474
 30
0.0
 10
151.0913834023466
 20
124.0101401222117
 30
0.0
 10
150.9550397229288
 20
123.7446549388409
 30
0.0
 10
150.8719448311855
 20
123.5828545336747
 30
0.0
  0
SPLINE
  5
9A
330
1F
100
AcDbEntity
  8
0
  6
Continuous
 62
     7
370
    15
100
AcDbSpline
210
0.0
220
0.0
230
1.0
 70
    24
 71
     3
 72
    12
 73
     8
 74
     0
 42
0.000000001
 43
0.00000001
 40
0.0
 40
0.0
 40
0.0
 40
0.0
 40
0.2161830523198939
 40
0.4397570652973684
 40
0.593413383469417
 40
0.752205081826042
 40
1.0
 40
1.0
 40
1.0
 40
1.0
 10
150.8719448311855
 20
123.5828545336747
 30
0.0
 10
150.9576398822062
 20
123.4499663722826
 30
0.0
 10
151.1319597640977
 20
123.1796468109688
 30
0.0
 10
151.3882411856822
 20
122.7822286811268
 30
0.0
 10
151.6225525698625
 20
122.4188797051228
 30
0.0
 10
151.8632075559447
 20
122.0456936430406
 30
0.0
 10
152.0249526293633
 20
121.7948739613339
 30
0.0
 10
152.1235284447082
 20
121.6420114715765
 30
0.0
  0
SPLINE
  5
9B
330
1F
100
AcDbEntity
  8
0
  6
Continuous
 62
     7
370
    15
100
AcDbSpline
210
0.0
220
0.0
230
1.0
 70
    24
 71
     3
 72
    13
 73
     9
 74
     0
 42
0.000000001
 43
0.00000001
 40
0.0
 40
0.0
 40
0.0
 40
0.0
 40
0.1320328345431823
 40
0.3072422642915459
 40
0.4820149228182403
 40
0.648834542793489
 40
0.8159812560773366
 40
1.0
 40
1.0
 40
1.0
 40
1.0
 10
152.1235284447082
 20
121.6420114715765
 30
0.0
 10
152.219322184132
 20
121.6467243741317
 30
0.0
 10
152.44223556403
 20
121.65769136471
 30
0.0
 10
152.8129387358334
 20
121.6759293825193
 30
0.0
 10
153.2267414968687
 20
121.6962878328897
 30
0.0
 10
153.6360692890451
 20
121.7164261217725
 30
0.0
 10
154.0401201880246
 20
121.7363047957413
 30
0.0
 10
154.2960346221477
 20
121.7488953867105
 30
0.0
 10
154.4301396480054
 20
121.7554931447983
 30
0.0
  0
CIRCLE
  5
9C
330
1F
100
AcDbEntity
  8
0
  6
Continuous
 62
     7
370
    15
100
AcDbCircle
 10
153.1785560345
 20
123.6963362069
 30
0.0
 40
2.350000000000023
  0
CIRCLE
  5
9D
330
1F
100
AcDbEntity
  8
0
  6
Continuous
 62
     7
370
    15
100
AcDbCircle
 10
153.1785560345
 20
123.6963362069
 30
0.0
 40
3.299999999999999
  0
ARC
  5
9E
330
1F
100
AcDbEntity
  8
0
  6
Continuous
 62
     7
370
    15
100
AcDbCircle
 10
153.1785560345
 20
123.6963362069
 30
0.0
 40
2.000000000000027
100
AcDbArc
 50
332.8165919363
 51
32.8165919363
  0
ARC
  5
9F
330
1F
100
AcDbEntity
  8
0
  6
Continuous
 62
     7
370
    15
100
AcDbCircle
 10
153.1785560345
 20
123.6963362069
 30
0.0
 40
2.000000000000027
100
AcDbArc
 50
272.8165919363
 51
332.8165919363
  0
ARC
  5
A0
330
1F
100
AcDbEntity
  8
0
  6
Continuous
 62
     7
370
    15
100
AcDbCircle
 10
153.1785560345
 20
123.6963362069
 30
0.0
 40
1.999999999999993
100
AcDbArc
 50
92.8165919363
 51
152.8165919363
  0
ARC
  5
A1
330
1F
100
AcDbEntity
  8
0
  6
Continuous
 62
     7
370
    15
100
AcDbCircle
 10
153.1785560345
 20
123.6963362069
 30
0.0
 40
2.00000000000001
100
AcDbArc
 50
32.8165919363
 51
92.8165919363
  0
ARC
  5
A2
330
1F
100
AcDbEntity
  8
0
  6
Continuous
 62
     7
370
    15
100
AcDbCircle
 10
153.1785560345
 20
123.6963362069
 30
0.0
 40
2.000000000000022
100
AcDbArc
 50
212.8165919363
 51
272.8165919363
  0
ARC
  5
A3
330
1F
100
AcDbEntity
  8
0
  6
Continuous
 62
     7
370
    15
100
AcDbCircle
 10
153.1785560345
 20
123.6963362069
 30
0.0
 40
1.999999999999994
100
AcDbArc
 50
152.8165919363
 51
212.8165919363
  0
LINE
  5
A4
330
1F
100
AcDbEntity
  8
0
  6
Continuous
 62
     7
370
    15
100
AcDbLine
 10
162.2285560345
 20
123.6963362069
 30
0.0
 11
162.2285560345
 21
111.3963362069
 31
0.0
  0
LINE
  5
A5
330
1F
100
AcDbEntity
  8
0
  6
Continuous
 62
     7
370
    15
100
AcDbLine
 10
162.2285560345
 20
135.9963362069
 30
0.0
 11
162.2285560345
 21
123.6963362069
 31
0.0
  0
LINE
  5
A6
330
1F
100
AcDbEntity
  8
0
  6
Continuous
 62
     7
370
    15
100
AcDbLine
 10
162.0285560345
 20
123.6963362069
 30
0.0
 11
162.0285560345
 21
111.1963362069
 31
0.0
  0
LINE
  5
A7
330
1F
100
AcDbEntity
  8
0
  6
Continuous
 62
     7
370
    15
100
AcDbLine
 10
162.0285560345
 20
136.1963362069
 30
0.0
 11
162.0285560345
 21
123.6963362069
 31
0.0
  0
SPLINE
  5
A8
330
1F
100
AcDbEntity
  8
0
  6
Continuous
 62
     7
370
    15
100
AcDbSpline
210
0.0
220
0.0
230
1.0
 70
    11
 71
     3
 72
    74
 73
    70
 74
     0
 42
0.000000001
 43
0.00000001
 40
0.0
 40
0.0
 40
0.0
 40
0.0
 40
0.0312499999999997
 40
0.0312499999999997
 40
0.0624999999999993
 40
0.0624999999999993
 40
0.093749999999999
 40
0.093749999999999
 40
0.1249999999999986
 40
0.1249999999999986
 40
0.1562499999999983
 40
0.1562499999999983
 40
0.1874999999999979
 40
0.1874999999999979
 40
0.2187499999999976
 40
0.2187499999999976
 40
0.2499999999999973
 40
0.2499999999999973
 40
0.2812499999999969
 40
0.2812499999999969
 40
0.2968749999999969
 40
0.2968749999999969
 40
0.3124999999999969
 40
0.3124999999999969
 40
0.3437499999999971
 40
0.3437499999999971
 40
0.3749999999999972
 40
0.3749999999999972
 40
0.4062499999999974
 40
0.4062499999999974
 40
0.4374999999999976
 40
0.4374999999999976
 40
0.4687499999999977
 40
0.4687499999999977
 40
0.4999999999999979
 40
0.4999999999999979
 40
0.531249999999998
 40
0.531249999999998
 40
0.5624999999999981
 40
0.5624999999999981
 40
0.5937499999999982
 40
0.5937499999999982
 40
0.6249999999999983
 40
0.6249999999999983
 40
0.6562499999999984
 40
0.6562499999999984
 40
0.6874999999999986
 40
0.6874999999999986
 40
0.7187499999999987
 40
0.7187499999999987
 40
0.7499999999999987
 40
0.7499999999999987
 40
0.7812499999999988
 40
0.7812499999999988
 40
0.8124999999999989
 40
0.8124999999999989
 40
0.843749999999999
 40
0.843749999999999
 40
0.8593749999999991
 40
0.8593749999999991
 40
0.8749999999999991
 40
0.8749999999999991
 40
0.9062499999999993
 40
0.9062499999999993
 40
0.9374999999999996
 40
0.9374999999999996
 40
0.9687499999999998
 40
0.9687499999999998
 40
1.0
 40
1.0
 40
1.0
 40
1.0
 10
150.3339365661037
 20
126.4323972947489
 30
0.0
 10
150.5391287456341
 20
126.5935743384854
 30
0.0
 10
150.7562203080768
 20
126.7331425833579
 30
0.0
 10
151.2121862963837
 20
126.9736231726933
 30
0.0
 10
151.4523238532439
 20
127.0748823337647
 30
0.0
 10
151.9496146614191
 20
127.2366300420783
 30
0.0
 10
152.2023473964697
 20
127.2959120338649
 30
0.0
 10
152.715689921385
 20
127.3734019093062
 30
0.0
 10
152.9783739395177
 20
127.391531875047
 30
0.0
 10
153.5020581731318
 20
127.3848510767157
 30
0.0
 10
153.7606022462292
 20
127.3604455679716
 30
0.0
 10
154.2712518354371
 20
127.2702838023509
 30
0.0
 10
154.5254530826162
 20
127.2037532199327
 30
0.0
 10
155.0166701044917
 20
127.0296738720078
 30
0.0
 10
155.2516974801436
 20
126.9232850714096
 30
0.0
 10
155.7006055752854
 20
126.6710501090118
 30
0.0
 10
155.9165067685093
 20
126.5235095519438
 30
0.0
 10
156.3146406484082
 20
126.1917799627491
 30
0.0
 10
156.4953496882572
 20
126.0095708279414
 30
0.0
 10
156.7375234113992
 20
125.7099907346804
 30
0.0
 10
156.8133969191271
 20
125.6057206655877
 30
0.0
 10
156.9546788089205
 20
125.387579462245
 30
0.0
 10
157.0202184398299
 20
125.273238413503
 30
0.0
 10
157.1949057344884
 20
124.9239420792165
 30
0.0
 10
157.2843136371067
 20
124.6802234955674
 30
0.0
 10
157.4040067643766
 20
124.1688187138772
 30
0.0
 10
157.432237635505
 20
123.9070401290764
 30
0.0
 10
157.424099368141
 20
123.386473377023
 30
0.0
 10
157.3869005490465
 20
123.122187951323
 30
0.0
 10
157.2524333483143
 20
122.618535835002
 30
0.0
 10
157.1549267170124
 20
122.3749073939111
 30
0.0
 10
156.907281535572
 20
121.914303619577
 30
0.0
 10
156.7598645550341
 20
121.7013226943969
 30
0.0
 10
156.4223010711152
 20
121.3061815755231
 30
0.0
 10
156.2325614801367
 20
121.1254094482563
 30
0.0
 10
155.8267279905555
 20
120.8053246513965
 30
0.0
 10
155.6075137757734
 20
120.6633394982472
 30
0.0
 10
155.1466803681674
 20
120.4196631846071
 30
0.0
 10
154.9078983817306
 20
120.3191105744512
 30
0.0
 10
154.4143183976038
 20
120.1579582149186
 30
0.0
 10
154.1570705961356
 20
120.0971508414773
 30
0.0
 10
153.6406353300868
 20
120.0191094789139
 30
0.0
 10
153.3813055611491
 20
120.0013239725175
 30
0.0
 10
152.86044860917
 20
120.0075396075375
 30
0.0
 10
152.5965049621004
 20
120.0321442333375
 30
0.0
 10
152.0828891767827
 20
120.122997145512
 30
0.0
 10
151.8323037668298
 20
120.1888099892001
 30
0.0
 10
151.3435724741645
 20
120.3617707628781
 30
0.0
 10
151.1032357535993
 20
120.4703545719097
 30
0.0
 10
150.651997556946
 20
120.7244166742036
 30
0.0
 10
150.4398982412315
 20
120.8697901743394
 30
0.0
 10
150.0438945115673
 20
121.1996686018658
 30
0.0
 10
149.8583142727311
 20
121.3866029347112
 30
0.0
 10
149.5334242679541
 20
121.790056299115
 30
0.0
 10
149.3926140048755
 20
122.0070096116573
 30
0.0
 10
149.159330906727
 20
122.4755120063642
 30
0.0
 10
149.0699438946762
 20
122.722257409615
 30
0.0
 10
148.9821091839302
 20
123.1011729906182
 30
0.0
 10
148.9603271314189
 20
123.229477212656
 30
0.0
 10
148.9325467998051
 20
123.4903049714093
 30
0.0
 10
148.9266957705195
 20
123.6232261598919
 30
0.0
 10
148.9338579761861
 20
124.0160275697542
 30
0.0
 10
148.9706520235691
 20
124.2740242758088
 30
0.0
 10
149.1074047336747
 20
124.7824126437946
 30
0.0
 10
149.2056560991366
 20
125.0253134159057
 30
0.0
 10
149.4530480042262
 20
125.4832300289668
 30
0.0
 10
149.6038538786539
 20
125.7000800294217
 30
0.0
 10
149.9408591640128
 20
126.0925352982968
 30
0.0
 10
150.1287443865732
 20
126.2712202510123
 30
0.0
 10
150.3339365661037
 20
126.4323972947489
 30
0.0
  0
LINE
  5
A9
330
1F
100
AcDbEntity
  8
0
  6
Continuous
 62
     7
370
    15
100
AcDbLine
 10
132.4285560345
 20
111.1963362069
 30
0.0
 11
132.4285560345
 21
136.1963362069
 31
0.0
  0
LINE
  5
AA
330
1F
100
AcDbEntity
  8
0
  6
Continuous
 62
     7
370
    15
100
AcDbLine
 10
132.2285560345
 20
111.3963362069
 30
0.0
 11
132.2285560345
 21
135.9963362069
 31
0.0
  0
SPLINE
  5
AB
330
1F
100
AcDbEntity
  8
0
  6
Continuous
 62
     7
370
    15
100
AcDbSpline
210
0.0
220
0.0
230
1.0
 70
    11
 71
     3
 72
    82
 73
    78
 74
     0
 42
0.000000001
 43
0.00000001
 40
0.0
 40
0.0
 40
0.0
 40
0.0
 40
0.0312500000000002
 40
0.0312500000000002
 40
0.0625000000000003
 40
0.0625000000000003
 40
0.0781250000000004
 40
0.0781250000000004
 40
0.0937500000000005
 40
0.0937500000000005
 40
0.1093750000000006
 40
0.1093750000000006
 40
0.1250000000000007
 40
0.1250000000000007
 40
0.1406250000000008
 40
0.1406250000000008
 40
0.1562500000000009
 40
0.1562500000000009
 40
0.1875000000000009
 40
0.1875000000000009
 40
0.2187500000000011
 40
0.2187500000000011
 40
0.2500000000000012
 40
0.2500000000000012
 40
0.2812500000000013
 40
0.2812500000000013
 40
0.3125000000000014
 40
0.3125000000000014
 40
0.3437500000000015
 40
0.3437500000000015
 40
0.3750000000000016
 40
0.3750000000000016
 40
0.4062500000000015
 40
0.4062500000000015
 40
0.4375000000000015
 40
0.4375000000000015
 40
0.4687500000000015
 40
0.4687500000000015
 40
0.5000000000000014
 40
0.5000000000000014
 40
0.5312500000000014
 40
0.5312500000000014
 40
0.5625000000000014
 40
0.5625000000000014
 40
0.5781250000000014
 40
0.5781250000000014
 40
0.5937500000000013
 40
0.5937500000000013
 40
0.6093750000000013
 40
0.6093750000000013
 40
0.6250000000000013
 40
0.6250000000000013
 40
0.6406250000000012
 40
0.6406250000000012
 40
0.6562500000000012
 40
0.6562500000000012
 40
0.6875000000000012
 40
0.6875000000000012
 40
0.7187500000000011
 40
0.7187500000000011
 40
0.750000000000001
 40
0.750000000000001
 40
0.781250000000001
 40
0.781250000000001
 40
0.8125000000000009
 40
0.8125000000000009
 40
0.8437500000000009
 40
0.8437500000000009
 40
0.8750000000000007
 40
0.8750000000000007
 40
0.9062500000000006
 40
0.9062500000000006
 40
0.9375000000000003
 40
0.9375000000000003
 40
0.9687500000000002
 40
0.9687500000000002
 40
1.0
 40
1.0
 40
1.0
 40
1.0
 10
120.2990999049694
 20
126.5903025918349
 30
0.0
 10
120.0596454907376
 20
126.4293794530753
 30
0.0
 10
119.837250482762
 20
126.2498292232365
 30
0.0
 10
119.4298064888803
 20
125.847047180289
 30
0.0
 10
119.2438130727046
 20
125.6216506916309
 30
0.0
 10
119.0107509067552
 20
125.2569228285838
 30
0.0
 10
118.9402580118474
 20
125.1304911952681
 30
0.0
 10
118.8153194971183
 20
124.8666243113845
 30
0.0
 10
118.7607560457208
 20
124.7283770115556
 30
0.0
 10
118.6727583735319
 20
124.4481953283123
 30
0.0
 10
118.6388116396224
 20
124.3054228643702
 30
0.0
 10
118.5922032773811
 20
124.0141644388665
 30
0.0
 10
118.5796251672441
 20
123.8642561510326
 30
0.0
 10
118.5776203530941
 20
123.5678741239413
 30
0.0
 10
118.5878832526924
 20
123.4209538761543
 30
0.0
 10
118.6301957513593
 20
123.1295666504405
 30
0.0
 10
118.6626092697713
 20
122.9840026401157
 30
0.0
 10
118.7899593989483
 20
122.5594600033407
 30
0.0
 10
118.9138250244631
 20
122.2935845326181
 30
0.0
 10
119.2223964011328
 20
121.7991391005366
 30
0.0
 10
119.4026705433802
 20
121.5766943568571
 30
0.0
 10
119.8056729974986
 20
121.1703886352592
 30
0.0
 10
120.0299741851528
 20
120.9862980389871
 30
0.0
 10
120.5005431623885
 20
120.6643367032028
 30
0.0
 10
120.7487138842074
 20
120.5243496502623
 30
0.0
 10
121.2699523314522
 20
120.281755844483
 30
0.0
 10
121.5445447862682
 20
120.1791041321153
 30
0.0
 10
122.1014326765167
 20
120.0161261173546
 30
0.0
 10
122.3856803986882
 20
119.9547079047141
 30
0.0
 10
122.9662364917486
 20
119.8712923176196
 30
0.0
 10
123.264566596063
 20
119.8496055264871
 30
0.0
 10
123.8527132147625
 20
119.8477693498212
 30
0.0
 10
124.1447417014677
 20
119.8670437618458
 30
0.0
 10
124.7247858087868
 20
119.9459784247458
 30
0.0
 10
125.015171112994
 20
120.0064783627123
 30
0.0
 10
125.5746168782079
 20
120.1660799603801
 30
0.0
 10
125.8449287888575
 20
120.2649387203559
 30
0.0
 10
126.3672251803607
 20
120.5027698249961
 30
0.0
 10
126.621299748289
 20
120.6432283761188
 30
0.0
 10
127.0961746924466
 20
120.962485978181
 30
0.0
 10
127.317591028559
 20
121.1409248593159
 30
0.0
 10
127.7247160110236
 20
121.542742920802
 30
0.0
 10
127.9109818974154
 20
121.7679822071431
 30
0.0
 10
128.1443706815012
 20
122.1323472075077
 30
0.0
 10
128.2150382249485
 20
122.2587362611865
 30
0.0
 10
128.3404075316085
 20
122.5227427459007
 30
0.0
 10
128.3950828509346
 20
122.6608467105035
 30
0.0
 10
128.483355400539
 20
122.9407089028064
 30
0.0
 10
128.5174987386544
 20
123.083438971209
 30
0.0
 10
128.5645174521818
 20
123.3748934031528
 30
0.0
 10
128.5772744042878
 20
123.5249006856775
 30
0.0
 10
128.5796499050994
 20
123.8209688556806
 30
0.0
 10
128.5695949860464
 20
123.9678684065055
 30
0.0
 10
128.5276328460827
 20
124.2594661451527
 30
0.0
 10
128.4953217677084
 20
124.4053443673233
 30
0.0
 10
128.3685522158131
 20
124.8297161749389
 30
0.0
 10
128.2447104004777
 20
125.0962797907662
 30
0.0
 10
127.9368768780558
 20
125.5905915034414
 30
0.0
 10
127.7568294558266
 20
125.8132385204282
 30
0.0
 10
127.3538503435824
 20
126.2201808464795
 30
0.0
 10
127.129748747655
 20
126.4043467419724
 30
0.0
 10
126.6595673296319
 20
126.726522632069
 30
0.0
 10
126.4114311899208
 20
126.8667275758017
 30
0.0
 10
125.8898779265016
 20
127.1098330344384
 30
0.0
 10
125.615463623863
 20
127.2125592509117
 30
0.0
 10
125.0588910908657
 20
127.3757659957586
 30
0.0
 10
124.7745972516388
 20
127.4373715042074
 30
0.0
 10
124.1934730429713
 20
127.52114369027
 30
0.0
 10
123.8952727297343
 20
127.5429215748566
 30
0.0
 10
123.3075815042209
 20
127.5450285570871
 30
0.0
 10
123.015528251639
 20
127.5259204468302
 30
0.0
 10
122.4349563463619
 20
127.4471884752755
 30
0.0
 10
122.1443484582433
 20
127.3867460812988
 30
0.0
 10
121.5852188774692
 20
127.2275030439867
 30
0.0
 10
121.3148389514942
 20
127.1287921157469
 30
0.0
 10
120.7920354875642
 20
126.891030442505
 30
0.0
 10
120.5385543192011
 20
126.7512257305945
 30
0.0
 10
120.2990999049694
 20
126.5903025918349
 30
0.0
  0
LINE
  5
AC
330
1F
100
AcDbEntity
  8
0
  6
Continuous
 62
     7
370
    15
100
AcDbLine
 10
117.7285560345
 20
116.6963362069
 30
0.0
 11
117.7285560345
 21
130.6963362069
 31
0.0
  0
LINE
  5
AD
330
1F
100
AcDbEntity
  8
0
  6
Continuous
 62
     7
370
    15
100
AcDbLine
 10
130.2285560345
 20
116.6963362069
 30
0.0
 11
130.2285560345
 21
130.6963362069
 31
0.0
  0
CIRCLE
  5
AE
330
1F
100
AcDbEntity
  8
0
  6
Continuous
 62
     7
370
    15
100
AcDbCircle
 10
123.5785560345
 20
123.6963362069
 30
0.0
 40
3.723562365627984
  0
LINE
  5
AF
330
1F
100
AcDbEntity
  8
0
  6
Continuous
 62
     7
370
    15
100
AcDbLine
 10
114.2285560345
 20
117.7063362069
 30
0.0
 11
114.2285560345
 21
129.6863362069
 31
0.0
  0
SPLINE
  5
B0
330
1F
100
AcDbEntity
  8
0
  6
Continuous
 62
     7
370
    15
100
AcDbSpline
210
0.0
220
0.0
230
1.0
 70
    11
 71
     3
 72
    72
 73
    68
 74
     0
 42
0.000000001
 43
0.00000001
 40
0.0
 40
0.0
 40
0.0
 40
0.0
 40
0.0312500000000002
 40
0.0312500000000002
 40
0.0625000000000003
 40
0.0625000000000003
 40
0.0937500000000005
 40
0.0937500000000005
 40
0.1250000000000006
 40
0.1250000000000006
 40
0.1562500000000008
 40
0.1562500000000008
 40
0.1875000000000009
 40
0.1875000000000009
 40
0.2187500000000011
 40
0.2187500000000011
 40
0.2500000000000013
 40
0.2500000000000013
 40
0.2812500000000014
 40
0.2812500000000014
 40
0.3125000000000016
 40
0.3125000000000016
 40
0.3437500000000018
 40
0.3437500000000018
 40
0.3750000000000019
 40
0.3750000000000019
 40
0.4062500000000021
 40
0.4062500000000021
 40
0.4375000000000022
 40
0.4375000000000022
 40
0.4531250000000022
 40
0.4531250000000022
 40
0.4687500000000021
 40
0.4687500000000021
 40
0.5000000000000019
 40
0.5000000000000019
 40
0.5312500000000018
 40
0.5312500000000018
 40
0.5625000000000017
 40
0.5625000000000017
 40
0.5937500000000014
 40
0.5937500000000014
 40
0.6250000000000013
 40
0.6250000000000013
 40
0.6562500000000011
 40
0.6562500000000011
 40
0.687500000000001
 40
0.687500000000001
 40
0.7187500000000008
 40
0.7187500000000008
 40
0.7500000000000006
 40
0.7500000000000006
 40
0.7812500000000004
 40
0.7812500000000004
 40
0.8125000000000002
 40
0.8125000000000002
 40
0.8749999999999999
 40
0.8749999999999999
 40
0.9062499999999998
 40
0.9062499999999998
 40
0.9374999999999996
 40
0.9374999999999996
 40
0.9531249999999997
 40
0.9531249999999997
 40
0.9687499999999998
 40
0.9687499999999998
 40
1.0
 40
1.0
 40
1.0
 40
1.0
 10
122.7048824120933
 20
125.9912871897682
 30
0.0
 10
122.5382279177131
 20
125.9531499836767
 30
0.0
 10
122.3832377304887
 20
125.9042445857935
 30
0.0
 10
122.0869435524555
 20
125.7830967309584
 30
0.0
 10
121.945859348791
 20
125.7108841473907
 30
0.0
 10
121.6750702770779
 20
125.5385395526366
 30
0.0
 10
121.547243365959
 20
125.4393863482737
 30
0.0
 10
121.3110138646871
 20
125.2139300580463
 30
0.0
 10
121.2009360864438
 20
125.0859172046558
 30
0.0
 10
121.0071448748051
 20
124.7993175558575
 30
0.0
 10
120.9246046475451
 20
124.6432016049309
 30
0.0
 10
120.7950118150275
 20
124.2981461746884
 30
0.0
 10
120.7507814625352
 20
124.115946602303
 30
0.0
 10
120.7106950699316
 20
123.7344404353939
 30
0.0
 10
120.7158698691589
 20
123.5426990685259
 30
0.0
 10
120.7752849402768
 20
123.166400672723
 30
0.0
 10
120.8287046357568
 20
122.987053790386
 30
0.0
 10
120.9733224524091
 20
122.6529248691036
 30
0.0
 10
121.0626354963337
 20
122.5018278908862
 30
0.0
 10
121.2656330172423
 20
122.228871423311
 30
0.0
 10
121.3807368611983
 20
122.1058207032706
 30
0.0
 10
121.6244645549647
 20
121.8916341893269
 30
0.0
 10
121.7540939900157
 20
121.7989592447567
 30
0.0
 10
122.0293643751887
 20
121.6376875956308
 30
0.0
 10
122.1753091659019
 20
121.5692715014898
 30
0.0
 10
122.4781412517157
 20
121.4574759863168
 30
0.0
 10
122.6358472691881
 20
121.4134140026655
 30
0.0
 10
122.9737574432585
 20
121.3468360800946
 30
0.0
 10
123.1555932786401
 20
121.3244935560756
 30
0.0
 10
123.4387224467663
 20
121.3094010317276
 30
0.0
 10
123.5364133368047
 20
121.3074067212463
 30
0.0
 10
123.7274078124006
 20
121.3096961288291
 30
0.0
 10
123.8216668880643
 20
121.313873644981
 30
0.0
 10
124.1012387815631
 20
121.3355732862801
 30
0.0
 10
124.2774995095546
 20
121.3618923983418
 30
0.0
 10
124.6092952222005
 20
121.4368612461888
 30
0.0
 10
124.7673923439001
 20
121.4861663536272
 30
0.0
 10
125.0651828668629
 20
121.607163003995
 30
0.0
 10
125.2062193617015
 20
121.6790902763764
 30
0.0
 10
125.4757194863999
 20
121.8496243826393
 30
0.0
 10
125.6052169105025
 20
121.9493367113639
 30
0.0
 10
125.8433216711296
 20
122.1756172294214
 30
0.0
 10
125.9524910072092
 20
122.3020489618884
 30
0.0
 10
126.1475405566891
 20
122.5890455615028
 30
0.0
 10
126.2311945634402
 20
122.7469394803305
 30
0.0
 10
126.3605331170294
 20
123.0894105462451
 30
0.0
 10
126.4057695951833
 20
123.2750104119285
 30
0.0
 10
126.4460628994805
 20
123.651320305911
 30
0.0
 10
126.4412734824487
 20
123.8480944696849
 30
0.0
 10
126.3827329299364
 20
124.2221891306614
 30
0.0
 10
126.3286840941796
 20
124.4046022214879
 30
0.0
 10
126.1849766672474
 20
124.7373783287925
 30
0.0
 10
126.094091359
 20
124.8914757075396
 30
0.0
 10
125.8907609071735
 20
125.1646527976798
 30
0.0
 10
125.7774195950053
 20
125.2860144871122
 30
0.0
 10
125.4066668973689
 20
125.6115874559247
 30
0.0
 10
125.1342516830278
 20
125.767443505086
 30
0.0
 10
124.6746819289443
 20
125.9366169521657
 30
0.0
 10
124.5145737901653
 20
125.980969830269
 30
0.0
 10
124.1746805026882
 20
126.0471340872903
 30
0.0
 10
123.9930893274356
 20
126.0689978322607
 30
0.0
 10
123.7097357816081
 20
126.0835349799084
 30
0.0
 10
123.6121641765546
 20
126.0853350509325
 30
0.0
 10
123.4215032444044
 20
126.0826905637297
 30
0.0
 10
123.3273476927546
 20
126.0783448766087
 30
0.0
 10
123.0479249806351
 20
126.0561093348389
 30
0.0
 10
122.8715369064736
 20
126.0294243958598
 30
0.0
 10
122.7048824120933
 20
125.9912871897682
 30
0.0
  0
CIRCLE
  5
B1
330
1F
100
AcDbEntity
  8
0
  6
HIDDEN
 62
     7
370
     0
100
AcDbCircle
 10
153.1785560345
 20
123.6963362069
 30
0.0
 40
4.000000000000001
  0
CIRCLE
  5
B2
330
1F
100
AcDbEntity
  8
0
  6
HIDDEN
 62
     7
370
     0
100
AcDbCircle
 10
153.1785560345
 20
123.6963362069
 30
0.0
 40
3.499999999999972
  0
LINE
  5
B3
330
1F
100
AcDbEntity
  8
0
  6
HIDDEN
 62
     7
370
     0
100
AcDbLine
 10
143.7285560345
 20
123.6963362069
 30
0.0
 11
143.7285560345
 21
116.9963362069
 31
0.0
  0
LINE
  5
B4
330
1F
100
AcDbEntity
  8
0
  6
HIDDEN
 62
     7
370
     0
100
AcDbLine
 10
143.7285560345
 20
130.3963362069
 30
0.0
 11
143.7285560345
 21
123.6963362069
 31
0.0
  0
LINE
  5
B5
330
1F
100
AcDbEntity
  8
0
  6
HIDDEN
 62
     7
370
     0
100
AcDbLine
 10
147.0945814383
 20
123.6963362069
 30
0.0
 11
147.0945814383
 21
116.6963362069
 31
0.0
  0
LINE
  5
B6
330
1F
100
AcDbEntity
  8
0
  6
HIDDEN
 62
     7
370
     0
100
AcDbLine
 10
147.0945814383
 20
130.6963362069
 30
0.0
 11
147.0945814383
 21
123.6963362069
 31
0.0
  0
LINE
  5
B7
330
1F
100
AcDbEntity
  8
0
  6
HIDDEN
 62
     7
370
     0
100
AcDbLine
 10
115.0945814383
 20
121.1963362069
 30
0.0
 11
115.0945814383
 21
126.1963362069
 31
0.0
  0
LINE
  5
B8
330
1F
100
AcDbEntity
  8
0
  6
HIDDEN
 62
     7
370
     0
100
AcDbLine
 10
132.2285560345
 20
115.5928431475
 30
0.0
 11
132.3227168757
 21
116.2628323463
 31
0.0
  0
LINE
  5
B9
330
1F
100
AcDbEntity
  8
0
  6
HIDDEN
 62
     7
370
     0
100
AcDbLine
 10
132.3227168757
 20
131.1298400675
 30
0.0
 11
132.2285560345
 21
131.7998292663
 31
0.0
  0
ARC
  5
BA
330
1F
100
AcDbEntity
  8
0
  6
HIDDEN
 62
     7
370
     0
100
AcDbCircle
 10
161.2285560345
 20
131.6963362069
 30
0.0
 40
1.0
100
AcDbArc
 50
270.0
 51
0.0
  0
ARC
  5
BB
330
1F
100
AcDbEntity
  8
0
  6
HIDDEN
 62
     7
370
     0
100
AcDbCircle
 10
161.2285560345
 20
115.6963362069
 30
0.0
 40
1.0
100
AcDbArc
 50
0.0
 51
90.0
  0
LINE
  5
BC
330
1F
100
AcDbEntity
  8
0
  6
HIDDEN
 62
     7
370
     0
100
AcDbLine
 10
145.1232340364
 20
131.1963362069
 30
0.0
 11
144.5285560345
 21
131.1963362069
 31
0.0
  0
LINE
  5
BD
330
1F
100
AcDbEntity
  8
0
  6
HIDDEN
 62
     7
370
     0
100
AcDbLine
 10
144.5285560345
 20
116.1963362069
 30
0.0
 11
145.1232340364
 21
116.1963362069
 31
0.0
  0
ARC
  5
BE
330
1F
100
AcDbEntity
  8
0
  6
HIDDEN
 62
     7
370
     0
100
AcDbCircle
 10
145.1232340364
 20
130.3963362069
 30
0.0
 40
0.7999999999999845
100
AcDbArc
 50
75.0
 51
90.0
  0
ARC
  5
BF
330
1F
100
AcDbEntity
  8
0
  6
HIDDEN
 62
     7
370
     0
100
AcDbCircle
 10
145.1232340364
 20
116.9963362069
 30
0.0
 40
0.8000000000000114
100
AcDbArc
 50
270.0
 51
285.0
  0
ARC
  5
C0
330
1F
100
AcDbEntity
  8
0
  6
HIDDEN
 62
     7
370
     0
100
AcDbCircle
 10
144.5285560345
 20
130.3963362069
 30
0.0
 40
0.8000000000000114
100
AcDbArc
 50
90.0
 51
180.0
  0
ARC
  5
C1
330
1F
100
AcDbEntity
  8
0
  6
HIDDEN
 62
     7
370
     0
100
AcDbCircle
 10
144.5285560345
 20
116.9963362069
 30
0.0
 40
0.8000000000000114
100
AcDbArc
 50
180.0
 51
270.0
  0
LINE
  5
C2
330
1F
100
AcDbEntity
  8
0
  6
HIDDEN
 62
     7
370
     0
100
AcDbLine
 10
145.3302892725
 20
116.2235955459
 30
0.0
 11
147.0945814383
 21
116.6963362069
 31
0.0
  0
LINE
  5
C3
330
1F
100
AcDbEntity
  8
0
  6
HIDDEN
 62
     7
370
     0
100
AcDbLine
 10
147.0945814383
 20
130.6963362069
 30
0.0
 11
145.3302892725
 21
131.1690768679
 31
0.0
  0
ARC
  5
C4
330
1F
100
AcDbEntity
  8
0
  6
HIDDEN
 62
     7
370
     0
100
AcDbCircle
 10
131.7285560345
 20
116.3463362069
 30
0.0
 40
0.6000000000000227
100
AcDbArc
 50
352.0
 51
0.0
  0
ARC
  5
C5
330
1F
100
AcDbEntity
  8
0
  6
HIDDEN
 62
     7
370
     0
100
AcDbCircle
 10
131.7285560345
 20
116.3463362069
 30
0.0
 40
0.6000000000000227
100
AcDbArc
 50
0.0
 51
33.5573097619
  0
ARC
  5
C6
330
1F
100
AcDbEntity
  8
0
  6
HIDDEN
 62
     7
370
     0
100
AcDbCircle
 10
131.7285560345
 20
131.0463362069
 30
0.0
 40
0.6000000000000258
100
AcDbArc
 50
348.75
 51
8.0
  0
LWPOLYLINE
  5
C7
330
1F
100
AcDbEntity
  8
0
  6
HIDDEN
 62
     7
370
     0
100
AcDbPolyline
 90
        3
 70
   128
 43
0.0
 10
132.3170272027
 20
130.9292820137
 10
132.282883754
 20
130.8167261475
 10
132.2285560345
 20
130.7146737279
  0
LINE
  5
C8
330
1F
100
AcDbEntity
  8
0
  6
HIDDEN
 62
     7
370
     0
100
AcDbLine
 10
132.3285560345
 20
116.3463362069
 30
0.0
 11
132.3285560345
 21
131.0463362069
 31
0.0
  0
LINE
  5
C9
330
1F
100
AcDbEntity
  8
0
  6
HIDDEN
 62
     7
370
     0
100
AcDbLine
 10
161.2285560345
 20
130.6963362069
 30
0.0
 11
147.0945814383
 21
130.6963362069
 31
0.0
  0
LINE
  5
CA
330
1F
100
AcDbEntity
  8
0
  6
HIDDEN
 62
     7
370
     0
100
AcDbLine
 10
147.0945814383
 20
116.6963362069
 30
0.0
 11
161.2285560345
 21
116.6963362069
 31
0.0
  0
LINE
  5
CB
330
1F
100
AcDbEntity
  8
0
  6
HIDDEN
 62
     7
370
     0
100
AcDbLine
 10
114.2285560345
 20
120.6963362069
 30
0.0
 11
115.0945814383
 21
121.1963362069
 31
0.0
  0
LINE
  5
CC
330
1F
100
AcDbEntity
  8
0
  6
HIDDEN
 62
     7
370
     0
100
AcDbLine
 10
115.0945814383
 20
126.1963362069
 30
0.0
 11
114.2285560345
 21
126.6963362069
 31
0.0
  0
LINE
  5
CD
330
1F
100
AcDbEntity
  8
0
  6
HIDDEN
 62
     7
370
     0
100
AcDbLine
 10
143.7285560345
 20
126.1963362069
 30
0.0
 11
115.0945814383
 21
126.1963362069
 31
0.0
  0
LINE
  5
CE
330
1F
100
AcDbEntity
  8
0
  6
HIDDEN
 62
     7
370
     0
100
AcDbLine
 10
115.0945814383
 20
121.1963362069
 30
0.0
 11
143.7285560345
 21
121.1963362069
 31
0.0
  0
DIMENSION
  5
CF
330
1F
100
AcDbEntity
  8
VERMASSUNG
100
AcDbDimension
  2
_D
 10
175.8879162513
 20
111.1963362069
 30
0.0
 11
175.8879162513
 21
123.6963362069
 31
0.0
 70
   160
  1
WH%%c<>
 71
     2
 42
-1.0
  3
SLDDIMSTYLE0
100
AcDbAlignedDimension
 13
162.0285560345
 23
136.1963362069
 33
0.0
 14
162.0285560345
 24
111.1963362069
 34
0.0
 50
90.0
100
AcDbRotatedDimension
  0
DIMENSION
  5
DC
330
1F
100
AcDbEntity
  8
VERMASSUNG
100
AcDbDimension
  2
_D_1
 10
169.5879162513
 20
116.6963362069
 30
0.0
 11
169.5879162513
 21
123.6963362069
 31
0.0
 70
   160
  1
%%c<>
 71
     2
 42
-1.0
  3
SLDDIMSTYLE0
100
AcDbAlignedDimension
 13
161.2285560345
 23
130.6963362069
 33
0.0
 14
161.2285560345
 24
116.6963362069
 34
0.0
 50
90.0
100
AcDbRotatedDimension
  0
DIMENSION
  5
E7
330
1F
100
AcDbEntity
  8
VERMASSUNG
100
AcDbDimension
  2
_D_2
 10
162.2285560345
 20
142.6918322931
 30
0.0
 11
147.2285560345
 21
142.6918322931
 31
0.0
 70
   160
  1
<>
 71
     2
 42
-1.0
  3
SLDDIMSTYLE0
100
AcDbAlignedDimension
 13
132.2285560345
 23
135.9963362069
 33
0.0
 14
162.2285560345
 24
135.9963362069
 34
0.0
100
AcDbRotatedDimension
  0
DIMENSION
  5
F1
330
1F
100
AcDbEntity
  8
VERMASSUNG
100
AcDbDimension
  2
_D_3
 10
114.2285560345
 20
148.6918322931
 30
0.0
 11
138.2285560345
 21
148.6918322931
 31
0.0
 70
   160
  1
(<>)
 71
     2
 42
-1.0
  3
SLDDIMSTYLE0
100
AcDbAlignedDimension
 13
162.2285560345
 23
135.9963362069
 33
0.0
 14
114.2285560345
 24
129.6863362069
 34
0.0
100
AcDbRotatedDimension
  0
LINE
  5
FD
330
1F
100
AcDbEntity
  8
VERMASSUNG
  6
CENTERX2
370
     0
100
AcDbLine
 10
112.2285560345
 20
123.6963362069
 30
0.0
 11
164.0285560345
 21
123.6963362069
 31
0.0
  0
OLE2FRAME
  5
FE
330
1F
100
AcDbEntity
  8
0
100
AcDbOle2Frame
 70
     2
  3
Paintbrush-Bild
 10
13.8511154363
 20
38.264191557
 30
0.0
 11
51.6290888628
 21
31.9806341108
 31
0.0
 71
     2
 72
     0
 73
     1
 90
    12928
310
80552BED0767C5B32B40DDAF6807D121434000000000000000006FFBDDFB85D0
310
4940DDAF6807D121434000000000000000006FFBDDFB85D04940416F4BD60AFB
310
3F4000000000000000002BED0767C5B32B40416F4BD60AFB3F40000000000000
310
0000000000000100000000010000010000000100000000000100000000320000
310
D0CF11E0A1B11AE1000000000000000000000000000000003E000300FEFF0900
310
0600000000000000000000000100000001000000000000000010000002000000
310
01000000FEFFFFFF0000000000000000FFFFFFFFFFFFFFFFFFFFFFFFFFFFFFFF
310
FFFFFFFFFFFFFFFFFFFFFFFFFFFFFFFFFFFFFFFFFFFFFFFFFFFFFFFFFFFFFFFF
310
FFFFFFFFFFFFFFFFFFFFFFFFFFFFFFFFFFFFFFFFFFFFFFFFFFFFFFFFFFFFFFFF
310
FFFFFFFFFFFFFFFFFFFFFFFFFFFFFFFFFFFFFFFFFFFFFFFFFFFFFFFFFFFFFFFF
310
FFFFFFFFFFFFFFFFFFFFFFFFFFFFFFFFFFFFFFFFFFFFFFFFFFFFFFFFFFFFFFFF
310
FFFFFFFFFFFFFFFFFFFFFFFFFFFFFFFFFFFFFFFFFFFFFFFFFFFFFFFFFFFFFFFF
310
FFFFFFFFFFFFFFFFFFFFFFFFFFFFFFFFFFFFFFFFFFFFFFFFFFFFFFFFFFFFFFFF
310
FFFFFFFFFFFFFFFFFFFFFFFFFFFFFFFFFFFFFFFFFFFFFFFFFFFFFFFFFFFFFFFF
310
FFFFFFFFFFFFFFFFFFFFFFFFFFFFFFFFFFFFFFFFFFFFFFFFFFFFFFFFFFFFFFFF
310
FFFFFFFFFFFFFFFFFFFFFFFFFFFFFFFFFFFFFFFFFFFFFFFFFFFFFFFFFFFFFFFF
310
FFFFFFFFFFFFFFFFFFFFFFFFFFFFFFFFFFFFFFFFFFFFFFFFFFFFFFFFFFFFFFFF
310
FFFFFFFFFFFFFFFFFFFFFFFFFFFFFFFFFFFFFFFFFFFFFFFFFFFFFFFFFFFFFFFF
310
FFFFFFFFFFFFFFFFFFFFFFFFFFFFFFFFFFFFFFFFFFFFFFFFFFFFFFFFFFFFFFFF
310
FFFFFFFFFFFFFFFFFFFFFFFFFFFFFFFFFFFFFFFFFFFFFFFFFFFFFFFFFFFFFFFF
310
FDFFFFFFFEFFFFFFFEFFFFFFFEFFFFFF05000000060000000700000008000000
310
090000000A0000000B0000000C0000000D0000000E0000000F00000010000000
310
11000000120000001300000014000000150000001600000017000000FEFFFFFF
310
FFFFFFFFFFFFFFFFFFFFFFFFFFFFFFFFFFFFFFFFFFFFFFFFFFFFFFFFFFFFFFFF
310
FFFFFFFFFFFFFFFFFFFFFFFFFFFFFFFFFFFFFFFFFFFFFFFFFFFFFFFFFFFFFFFF
310
FFFFFFFFFFFFFFFFFFFFFFFFFFFFFFFFFFFFFFFFFFFFFFFFFFFFFFFFFFFFFFFF
310
FFFFFFFFFFFFFFFFFFFFFFFFFFFFFFFFFFFFFFFFFFFFFFFFFFFFFFFFFFFFFFFF
310
FFFFFFFFFFFFFFFFFFFFFFFFFFFFFFFFFFFFFFFFFFFFFFFFFFFFFFFFFFFFFFFF
310
FFFFFFFFFFFFFFFFFFFFFFFFFFFFFFFFFFFFFFFFFFFFFFFFFFFFFFFFFFFFFFFF
310
FFFFFFFFFFFFFFFFFFFFFFFFFFFFFFFFFFFFFFFFFFFFFFFFFFFFFFFFFFFFFFFF
310
FFFFFFFFFFFFFFFFFFFFFFFFFFFFFFFFFFFFFFFFFFFFFFFFFFFFFFFFFFFFFFFF
310
FFFFFFFFFFFFFFFFFFFFFFFFFFFFFFFFFFFFFFFFFFFFFFFFFFFFFFFFFFFFFFFF
310
FFFFFFFFFFFFFFFFFFFFFFFFFFFFFFFFFFFFFFFFFFFFFFFFFFFFFFFFFFFFFFFF
310
FFFFFFFFFFFFFFFFFFFFFFFFFFFFFFFFFFFFFFFFFFFFFFFFFFFFFFFFFFFFFFFF
310
FFFFFFFFFFFFFFFFFFFFFFFFFFFFFFFFFFFFFFFFFFFFFFFFFFFFFFFFFFFFFFFF
310
FFFFFFFFFFFFFFFFFFFFFFFFFFFFFFFFFFFFFFFFFFFFFFFFFFFFFFFFFFFFFFFF
310
52006F006F007400200045006E00740072007900000000000000000000000000
310
0000000000000000000000000000000000000000000000000000000000000000
310
16000500FFFFFFFFFFFFFFFF020000000A00030000000000C000000000000046
310
000000000000000000000000207E4BF2FFDCD10103000000C000000000000000
310
01004F006C006500000000000000000000000000000000000000000000000000
310
0000000000000000000000000000000000000000000000000000000000000000
310
0A000200FFFFFFFFFFFFFFFFFFFFFFFF00000000000000000000000000000000
310
0000000000000000000000000000000000000000000000001400000000000000
310
010043006F006D0070004F0062006A0000000000000000000000000000000000
310
0000000000000000000000000000000000000000000000000000000000000000
310
120002010100000003000000FFFFFFFF00000000000000000000000000000000
310
0000000000000000000000000000000000000000010000004D00000000000000
310
01004F006C006500310030004E00610074006900760065000000000000000000
310
0000000000000000000000000000000000000000000000000000000000000000
310
1A000200FFFFFFFFFFFFFFFFFFFFFFFF00000000000000000000000000000000
310
0000000000000000000000000000000000000000040000002426000000000000
310
FEFFFFFF02000000FEFFFFFFFFFFFFFFFFFFFFFFFFFFFFFFFFFFFFFFFFFFFFFF
310
FFFFFFFFFFFFFFFFFFFFFFFFFFFFFFFFFFFFFFFFFFFFFFFFFFFFFFFFFFFFFFFF
310
FFFFFFFFFFFFFFFFFFFFFFFFFFFFFFFFFFFFFFFFFFFFFFFFFFFFFFFFFFFFFFFF
310
FFFFFFFFFFFFFFFFFFFFFFFFFFFFFFFFFFFFFFFFFFFFFFFFFFFFFFFFFFFFFFFF
310
FFFFFFFFFFFFFFFFFFFFFFFFFFFFFFFFFFFFFFFFFFFFFFFFFFFFFFFFFFFFFFFF
310
FFFFFFFFFFFFFFFFFFFFFFFFFFFFFFFFFFFFFFFFFFFFFFFFFFFFFFFFFFFFFFFF
310
FFFFFFFFFFFFFFFFFFFFFFFFFFFFFFFFFFFFFFFFFFFFFFFFFFFFFFFFFFFFFFFF
310
FFFFFFFFFFFFFFFFFFFFFFFFFFFFFFFFFFFFFFFFFFFFFFFFFFFFFFFFFFFFFFFF
310
FFFFFFFFFFFFFFFFFFFFFFFFFFFFFFFFFFFFFFFFFFFFFFFFFFFFFFFFFFFFFFFF
310
FFFFFFFFFFFFFFFFFFFFFFFFFFFFFFFFFFFFFFFFFFFFFFFFFFFFFFFFFFFFFFFF
310
FFFFFFFFFFFFFFFFFFFFFFFFFFFFFFFFFFFFFFFFFFFFFFFFFFFFFFFFFFFFFFFF
310
FFFFFFFFFFFFFFFFFFFFFFFFFFFFFFFFFFFFFFFFFFFFFFFFFFFFFFFFFFFFFFFF
310
FFFFFFFFFFFFFFFFFFFFFFFFFFFFFFFFFFFFFFFFFFFFFFFFFFFFFFFFFFFFFFFF
310
FFFFFFFFFFFFFFFFFFFFFFFFFFFFFFFFFFFFFFFFFFFFFFFFFFFFFFFFFFFFFFFF
310
FFFFFFFFFFFFFFFFFFFFFFFFFFFFFFFFFFFFFFFFFFFFFFFFFFFFFFFFFFFFFFFF
310
FFFFFFFFFFFFFFFFFFFFFFFFFFFFFFFFFFFFFFFFFFFFFFFFFFFFFFFFFFFFFFFF
310
0100000200000000000000000000000000000000000000000000000000000000
310
0000000000000000000000000000000000000000000000000000000000000000
310
0100FEFF030A0000FFFFFFFF0A00030000000000C00000000000004607000000
310
5042727573680007000000504272757368000700000050427275736800F439B2
310
7100000000000000000000000000000000000000000000000000000000000000
310
0000000000000000000000000000000000000000000000000000000000000000
310
0000000000000000000000000000000000000000000000000000000000000000
310
0000000000000000000000000000000000000000000000000000000000000000
310
0000000000000000000000000000000000000000000000000000000000000000
310
0000000000000000000000000000000000000000000000000000000000000000
310
0000000000000000000000000000000000000000000000000000000000000000
310
0000000000000000000000000000000000000000000000000000000000000000
310
0000000000000000000000000000000000000000000000000000000000000000
310
0000000000000000000000000000000000000000000000000000000000000000
310
0000000000000000000000000000000000000000000000000000000000000000
310
0000000000000000000000000000000000000000000000000000000000000000
310
20260000424D0E260000000000003E00000028000000B40200006E0000000100
310
01000000000000000000130B0000130B00000200000002000000000000FFFFFF
310
FFFFFFFFFFFFFFFFFFFFFFFFFFFFFFFFFFFFFFFFFFFFFFFFFFFFFFFFFFFFFFFF
310
FFFFFFFFFFFFFFFFFFFFFFFFFFFFFFFFFFFFFFFFFFFFFFFFFFFFFFFFFFFFFFFF
310
FFFFFFFFFFFFFFFFFFFFFFFFFFFFFFFFFFFFFFFFFFFFFFFFF000FFFFFFFFFFFF
310
FFFFFFFFFFFFFFFFFFFFFFFFFFFFFFFFFFFFFFFFFFFFFFFFFFFFFFFFFFFFFFFF
310
FFFFFFFFFFFFFFFFFFFFFFFFFFFFFFFFFFFFFFFFFFFFFFFFFFFFFFFFFFFFFFFF
310
FFFFFFFFFFFFFFFFFFFFFFFFFFFFFFFFF000FFFFFFFFFFFFFFFFFFFFFFFFFFFF
310
FFFFFFFFFFFFFFFFFFFFFFFFFFFFFFFFFFFFFFFFFFFFFFFFFFFFFFFFFFFFFFFF
310
FFFFFFFFFFFFFFFFFFFFFFFFFFFFFFFFFFFFFFFFFFFFFFFFFFFFFFFFFFFFFFFF
310
FFFFFFFFFFFFFFFFF000FFFFFFFFFFFFFFFFFFFFFFFFFFFFFFFFFFFFFFFFFFFF
310
FFFFFFFFFFFFFFFFFFFFFFFFFFFFFFFFFFFFFFFFFFFFFFFFFFFFFFFFFFFFFFFF
310
FFFFFFFFFFFFFFFFFFFFFFFFFFFFFFFFFFFFFFFFFFFFFFFFFFFFFFFFFFFFFFFF
310
F000FFFFFFFFFFFFFFFFFFFFFFFFFFFFFFFFFFFFFFFFFFFFFFFFFFFFFFFFFFFF
310
FFFFFFFFFFFFFFFFFFFFFFFFFFFFFFFFFFFFFFFFFFFFFFFFFFFFFFFFFFFFFFFF
310
FFFFFFFFFFFFFFFFFFFFFFFFFFFFFFFFFFFFFFFFFFFFFFFFF000FFFFFFFFFFFF
310
FFFFFFFFFFFFFFFFFFFFFFFFFFFFFFFFFFFFFFFFFFFFFFFFFFFFFFFFFFFFFFFF
310
FFFFFFFFFFFFFFFFFFFFFFFFFFFFFFFFFFFFFFFFFFFFFFFFFFFFFFFFFFFFFFFF
310
FFFFFFFFFFFFFFFFFFFFFFFFFFFFFFFFF000FFFFFFFFFFFFFFFFFFFFFFFFFFFF
310
FFFFFFFFFFFFFFFFFFFFFFFFFFFFFFFFFFFFFFFFFFFFFFFFFFFFFFFFFFFFFFFF
310
FFFFFFFFFFFFFFFFFFFFFFFFFFFFFFFFFFFFFFFFFFFFFFFFFFFFFFFFFFFFFFFF
310
FFFFFFFFFFFFFFFFF000FFFFFFFFFFFFFFFFFFFFFFFFFFFFFFFFFFFFFFFFFFFF
310
FFFFFFFFFFFFFFFFFFFFFFFFFFFFFFFFFFFFFFFFFFFFFFFFFFFFFFFFFFFFFFFF
310
FFFFFFFFFFFFFFFFFFFFFFFFFFFFFFFFFFFFFFFFFFFFFFFFFFFFFFFFFFFFFFFF
310
F000FFFFFFFFFFFFFFFFFFFFFFFFFFFFFFFFFFFFFFFFFFFFFFFFFFFFFFFFFFFF
310
FFFFFFFFFFFFFFFFFFFFFFFFFFFFFFFFFFFFFFFFFFFFFFFFFFFFFFFFFFFFFFFF
310
FFFFFFFFFFFFFFFFFFFFFFFFFFFFFFFFFFFFFFFFFFFFFFFFF000FFFFFFFFFFFF
310
FFFFFFFFFFFFFFFFFFFFFFFFFFFFFFFFFFFFFFFFFFFFFFFFFFFFFFFFFFFFFFFF
310
FFFFFFFFFFFFFFFFFFFFFFFFFFFFFFFFFFFFFFFFFFFFFFFFFFFFFFFFFFFFFFFF
310
FFFFFFFFFFFFFFFFFFFFFFFFFFFFFFFFF000FFFFFFFFFFFFFFFFFFFFFFFFFFFF
310
FFFFFFFFFFFFFFFFFFFFFFFFFFFFFFFFFFFFFFFFFFFFFFFFFFFFFFFFFFFFFFFF
310
FFFFFFFFFFFFFFFFFFFFFFFFFFFFFFFFFFFFFFFFFFFFFFFFFFFFFFFFFFFFFFFF
310
FFFFFFFFFFFFFFFFF000FFFFFFFFFFFFFFFFFFFFFFFFFFFFFFFFFFFFFFFFFFFF
310
FFFFFFFFFFFFFFFFFFFFFFFFFFFFFFFFFFFFFFFFFFFFFFFFFFFFFFFFFFFFFFFF
310
FFFFFFFFFFFFFFFFFFFFFFFFFFFFFFFFFFFFFFFFFFFFFFFFFFFFFFFFFFFFFFFF
310
F000FFFFFFFFFFFFFFFFFFFFFFFFFFFFFFFFFFFFFFFFFFFFFFFFFFFFFFFFFFFF
310
FFFFFFFFFFFFFFFFFFFFFFFFFFFFFFFFFFFFFFFFFFFFFFFFFFFFFFFFFFFFFFFF
310
FFFFFFFFFFFFFFFFFFFFFFFFFFFFFFFFFFFFFFFFFFFFFFFFF000FFFFFFFFFFFF
310
FFFFFFFFFFFFFFFFFFFFFFFFFFFFFFFFFFFFFFFFFFFFFFFFFFFFFFFFFFFFFFFF
310
FFFFFFFFFFFFFFFFFFFFFFFFFFFFFFFFFFFFFFFFFFFFFFFFFFFFFFFFFFFFFFFF
310
FFFFFFFFFFFFFFFFFFFFFFFFFFFFFFFFF000FFFFFFFFFFFFFFFFFFFFFFFFFFFF
310
FFFFFFFFFFFFFFFFFFFFFFFFFFFFFFFFFFFFFFFFFFFFFFFFFFFFFFFFFFFFFFFF
310
FFFFFFFFFFFFFFFFFFFFFFFFFFFFFFFFFFFFFFFFFFFFFFFFFFFFFFFFFFFFFFFF
310
FFFFFFFFFFFFFFFFF000FFFFFFFFFFFFFFFFFFFFFFFFFFFFFFFFFFFFFFFFFFFF
310
FFFFFFFFFFFFFFFFFFFFFFFFFFFFFFFFFFFFFFFFFFFFFFFFFFFFFFFFFFFFFFFF
310
FFFFFFFFFFFFFFFFFFFFFFFFFFFFFFFFFFFFFFFFFFFFFFFFFFFFFFFFFFFFFFFF
310
F000FFFFFFFFFFFFFFFFFFFFFFFFFFFFFFFFFFFFFFFFFFFFFFFFFFFFFFFFFFFF
310
FFFFFFFFFFFFFFFFFFFFFFFFFFFFFFFFFFFFFFFFFFFFFFFFFFFFFFFFFFFFFFFF
310
FFFFFFFFFFFFFFFFFFFFFFFFFFFFFFFFFFFFFFFFFFFFFFFFF000FFFFFFFFFFFF
310
FFFFFFFFFFFFFFFFFFFFFFFFFFFFFFFFFFFFFFFFFFFFFFFFFFFFFFFFFFFFFFFF
310
FFFFFFFFFFFFFFFFFFFFFFFFFFFFFFFFFFFFFFFFFFFFFFFFFFFFFFFFFFFFFFFF
310
FFFFFFFFFFFFFFFFFFFFFFFFFFFFFFFFF000FFFFFFFFFFFFFFFFFFFFFFFFFFFF
310
FFFFFFFFFFFFFFFFFFFFFFFFFFFFFFFFFFFFFFFFFFFFFFFFFFFFFFFFFFFFFFFF
310
FFFFFFFFFFFFFFFFFFFFFFFFFFFFFFFFFFFFFFFFFFFFFFFFFFFFFFFFFFFFFFFF
310
FFFFFFFFFFFFFFFFF000FFFFF80003FFFFFFFFFFFFFFFFFFFFFFFFFFFFFFFFFF
310
FFFFF00007FFFFFFFFFF00007FFFFFF800000000000000007FFFFFFFFFFFFFFF
310
FFFFFFFC001FFFFFFFFFFFFFFC001FFFFFFFFFFFFFFFFFFFFFFFFFFE0007FFFF
310
F000FFFF8000007FFFFFFFF8000FFFFFC0007FFFFF80007FFFFF0000007FFFFF
310
FFF8000007FFFFF800000000000000007FFFFFF0001FFFFFFFFFFFC00001FFFF
310
FFFFFFFFC00001FFFFFFFF000000000003FFFFE000007FFFF000FFFE0000000F
310
FFFFFFF0000FFFFF80007FFFFF80007FFFFC0000001FFFFFFFC0000001FFFFF8
310
00000000000000007FFFFFF0001FFFFFFFFFFE0000003FFFFFFFFFFE0000003F
310
FFFFFF000000000003FFFF0000000FFFF000FFF800000003FFFFFFF00007FFFF
310
80007FFFFF80007FFFF000000007FFFFFF000000003FFFF80000000000000000
310
7FFFFFF0001FFFFFFFFFF80000000FFFFFFFFFF80000000FFFFFFF0000000000
310
03FFFC00000003FFF000FFE000000000FFFFFFF00007FFFF80003FFFFF80007F
310
FFC000000001FFFFFC000000001FFFF800000000000000007FFFFFF0001FFFFF
310
FFFFE000000003FFFFFFFFE000000003FFFFFF000000000003FFF000000000FF
310
F000FF80000000007FFFFFF00007FFFF80003FFFFF80007FFF8000000000FFFF
310
F80000000007FFF800000000000000007FFFFFF0001FFFFFFFFFC000000001FF
310
FFFFFFC000000001FFFFFF000000000003FFC0000000007FF000FF0000000000
310
3FFFFFE00007FFFF00003FFFFF80007FFE00000000003FFFF00000000003FFF8
310
00000000000000007FFFFFF0001FFFFFFFFF8000000000FFFFFFFF8000000000
310
FFFFFF000000000003FF80000000003FF000FE00000000001FFFFFE00003FFFF
310
00003FFFFF80007FFC00000000001FFFE00000000001FFF8000001FFFE000000
310
7FFFFFF0001FFFFFFFFE00000000003FFFFFFE00000000003FFFFF0000000000
310
03FF00000000001FF000FC00000000000FFFFFE00003FFFF00001FFFFF80007F
310
F800000000001FFFC00000000000FFF8000001FFFE0000007FFFFFF0001FFFFF
310
FFFC00000000001FFFFFFC00000000001FFFFF000000000003FE00000000000F
310
F000F8000000000007FFFFE00003FFFF00001FFFFF80007FF800000000000FFF
310
800000000000FFF8000001FFFE0000007FFFFFF0001FFFFFFFF800000000000F
310
FFFFF800000000000FFFFF000000000003FC000000000007F000F80000000000
310
03FFFFC00003FFFE00001FFFFF80007FF0000000000007FF0000000000007FF8
310
000001FFFE0000007FFFFFF0001FFFFFFFF0000000000007FFFFF00000000000
310
07FFFF000000000003F8000000000003F000F0000000000003FFFFC00001FFFE
310
00001FFFFF80007FE0000000000007FE0000000000003FF8000001FFFE000000
310
7FFFFFF0001FFFFFFFF0000000000007FFFFF0000000000007FFFF0000000000
310
03F800001F800003F000E00001FFF00001FFFFC00001FFFE00000FFFFF80007F
310
E00001FFE00003FE00001FFF00003FF8000001FFFE0000007FFFFFF0001FFFFF
310
FFE000003E000003FFFFE000003E000003FFFF000000000003F00001FFF80001
310
F000E00007FFFC0001FFFFC00001FFFE00000FFFFF80007FC0000FFFFC0003FC
310
0000FFFFC0001FF8000001FFFE0000007FFFFFF0001FFFFFFFC00003FFE00001
310
FFFFC00003FFE00001FFFF0001FFFFFFFFF00007FFFE0001F000E0000FFFFF00
310
00FFFF800001FFFC00000FFFFF80007FC0001FFFFE0001FC0001FFFFE0001FF8
310
000001FFFE0000007FFFFFF0001FFFFFFF80000FFFF80000FFFF80000FFFF800
310
00FFFF0003FFFFFFFFE0000FFFFF8000F000C0003FFFFF8000FFFF800000FFFC
310
000007FFFF80007F80003FFFFF0001FC0003FFFFF0001FF8000001FFFE000000
310
7FFFFFF0001FFFFFFF80003FFFFE0000FFFF80003FFFFE0000FFFF0003FFFFFF
310
FFE0003FFFFF8000F000C0003FFFFF8000FFFF800000FFFC000007FFFF80007F
310
80007FFFFF8001F80007FFFFF8000FF8000001FFFE0000007FFFFFF0001FFFFF
310
FF00007FFFFF00007FFF00007FFFFF00007FFF0003FFFFFFFFE0003FFFFFC000
310
F000C0007FFFFFC000FFFF000000FFFC000007FFFF80007F8000FFFFFF8000F8
310
000FFFFFF8000FF8000001FFFE0000007FFFFFF0001FFFFFFF0000FFFFFF8000
310
7FFF0000FFFFFF80007FFF0003FFFFFFFFC0007FFFFFC00070008000FFFFFFC0
310
00FFFF000000FFF8000007FFFF80007F8000FFFFFF8000F8000FFFFFF8000FF8
310
000001FFFE0000007FFFFFF0001FFFFFFE0001FFFFFFC0003FFE0001FFFFFFC0
310
003FFF0003FFFFFFFFC0007FFFFFE00070008000FFFFFFC0007FFF0000007FF8
310
000003FFFF80007F0001FFFFFF8000F8000FFFFFF8000FF8000001FFFE000000
310
7FFFFFF0001FFFFFFE0001FFFFFFC0003FFE0001FFFFFFC0003FFF0003FFFFFF
310
FFC000FFFFFFE00070008000FFFFFFC0007FFF0000007FF8000003FFFF80007F
310
0001FFFFFF8000F8001FFFFFF8000FF8000001FFFE0000007FFFFFF0001FFFFF
310
FE0003FFFFFFE0003FFE0003FFFFFFE0003FFF0003FFFFFFFFC000FFFFFFE000
310
70008000FFFFFFC0007FFE0000007FF8000003FFFF80007F0001FFFFFF8000F0
310
001FFFFFF8000FF8000001FFFE0000007FFFFFF0001FFFFFFC0003FFFFFFE000
310
1FFC0003FFFFFFE0001FFF0003FFFFFFFFC000FFFFFFC00070008000FFFFFF80
310
007FFE0000007FF0000003FFFF80007F0001FFFFFF0000F0001FFFFFF8000FF8
310
000001FFFE0000007FFFFFF0001FFFFFFC0007FFFFFFF0001FFC0007FFFFFFF0
310
001FFF0003FFFFFFFFC000FFFFFFC00070008001FFFFFF0000FFFE0000003FF0
310
000001FFFF80007F0001FFFFFF0000F8001FFFFFF0000FF8000001FFFE000000
310
7FFFFFF0001FFFFFFC0007FFFFFFF0001FFC0007FFFFFFF0001FFF0003FFFFFF
310
FFC001FFFFFF80007000FFFFFFFFFE0000FFFE0008003FF0008001FFFF80007F
310
FFFFFFFFFC0000FFFFFFFFFFE0000FF8000001FFFE0000007FFFFFF0001FFFFF
310
F8000FFFFFFFF8000FF8000FFFFFFFF8000FFF0003FFFFFFFFFFFFFFFFFF0000
310
7000FFFFFFFFFC0000FFFC0008003FF0008001FFFF80007FFFFFFFFFF80001FF
310
FFFFFFFF80000FF8000001FFFE0000007FFFFFF0001FFFFFF8000FFFFFFFF800
310
0FF8000FFFFFFFF8000FFF0003FFFFFFFFFFFFFFFFFE0000F000FFFFFFFFE000
310
00FFFC000C003FE000C001FFFF80007FFFFFFFFFC00001FFFFFFFFFE00001FF8
310
000001FFFE0000007FFFFFF0001FFFFFF8000FFFFFFFF8000FF8000FFFFFFFF8
310
000FFF0003FFFFFFFFFFFFFFFFF00000F000FFFFFFFE000001FFFC000C001FE0
310
00C000FFFF80007FFFFFFFFE000001FFFFFFFFE000001FF80FFFFFFFFFFFFFC0
310
7FFFFFF0001FFFFFF8000FFFFFFFF8000FF8000FFFFFFFF8000FFF0003FFFFFF
310
FFFFFFFFFF800000F000FFFFFFC0000001FFFC001C001FE001C000FFFF80007F
310
FFFFFF80000003FFFFFFF80000001FF80FFFFFFFFFFFFFC07FFFFFF0001FFFFF
310
F8001FFFFFFFFC000FF8001FFFFFFFFC000FFF0003FFFFFFFFFFFFFFF0000001
310
F000FFFFF800000001FFF8001C001FE001C000FFFF80007FFFFFF800000003FF
310
FFFF800000003FF80FFFFFFFFFFFFFC07FFFFFF0001FFFFFF8001FFFFFFFFC00
310
0FF8001FFFFFFFFC000FFF0003FFFFFFFFFFFFFE00000001F000FFFFC0000000
310
03FFF8001E001FC001E000FFFF80007FFFFF8000000007FFFFFC000000003FF8
310
0FFFFFFFFFFFFFC07FFFFFF0001FFFFFF8001FFFFFFFFC000FF8001FFFFFFFFC
310
000FFF0003FFFFFFFFFFFFE000000003F000FFFE0000000007FFF8001E000FC0
310
01E0007FFF80007FFFFE0000000007FFFFE0000000007FF80FFFFFFFFFFFFFC0
310
7FFFFFF0001FFFFFF0001FFFFFFFFC0007F0001FFFFFFFFC0007FF0003FFFFFF
310
FFFFFF0000000003F000FFF80000000007FFF8001E000FC003E0007FFF80007F
310
FFF0000000000FFFFF8000000000FFF80FFFFFFFFFFFFFC07FFFFFF0001FFFFF
310
F0001FFFFFFFFC0007F0001FFFFFFFFC0007FF0003FFFFFFFFFFFC0000000007
310
F000FFE0000000000FFFF0003E000FC003E0007FFF80007FFFC0000000001FFF
310
FE0000000001FFF80FFFFFFFFFFFFFC07FFFFFF0001FFFFFF0001FFFFFFFFC00
310
07F0001FFFFFFFFC0007FF0003FFFFFFFFFFF0000000000FF000FFC000000000
310
1FFFF0003F000F8003F0003FFF80007FFF80000000003FFFF80000000003FFF8
310
0FFFFFFFFFFFFFC07FFFFFF0001FFFFFF0001FFFFFFFFC0007F0001FFFFFFFFC
310
0007FF0003FFFFFFFFFFE0000000001FF000FF00000000007FFFF0003F000780
310
03F0003FFF80007FFF00000000007FFFF00000000007FFF80FFFFFFFFFFFFFC0
310
7FFFFFF0001FFFFFF0001FFFFFFFFC0007F0001FFFFFFFFC0007FF0003FFFFFF
310
FFFF80000000007FF000FE0000000000FFFFE0003F00078007F0003FFF80007F
310
FE0000000001FFFFE0000000001FFFF80FFFFFFFFFFFFFC07FFFFFF0001FFFFF
310
F0001FFFFFFFFC0007F0001FFFFFFFFC0007FF0003FFFFFFFFFF0000000000FF
310
F000FC0000000003FFFFE0007F00078007F0003FFF80007FFC0000000007FFFF
310
C0000000007FFFF80FFFFFFFFFFFFFC07FFFFFF0001FFFFFF8001FFFFFFFFC00
310
0FF8001FFFFFFFFC000FFF0003FFFFFFFFFE0000000003FFF000FC000000000F
310
FFFFE0007F80070007F8001FFF80007FF8000000001FFFFF8000000001FFFFF8
310
0FFFFFFFFFFFFFC07FFFFFF0001FFFFFF8001FFFFFFFFC000FF8001FFFFFFFFC
310
000FFF0003FFFFFFFFFC000000000FFFF000F8000000007FFFFFE0007F800700
310
07F8001FFF80007FF000000000FFFFFF800000000FFFFFF80FFFFFFFFFFFFFC0
310
7FFFFFF0001FFFFFF8000FFFFFFFF8000FF8000FFFFFFFF8000FFF0003FFFFFF
310
FFFC000000007FFFF000F800000007FFFFFFC0007F8003000FF8001FFF80007F
310
F000000007FFFFFF000000007FFFFFF80FFFFFFFFFFFFFC07FFFFFF0001FFFFF
310
F8000FFFFFFFF8000FF8000FFFFFFFF8000FFF0003FFFFFFFFF80000000FFFFF
310
F000F0000000FFFFFFFFC000FF8003000FF8001FFF80007FE0000000FFFFFFFF
310
0000000FFFFFFFF8000001FFFE0000007FFFFFF0001FFFFFF8000FFFFFFFF800
310
0FF8000FFFFFFFF8000FFF0003FFFFFFFFF8000000FFFFFFF000F000000FFFFF
310
FFFFC000FFC002000FF8000FFF80007FE000001FFFFFFFFE000001FFFFFFFFF8
310
000001FFFE0000007FFFFFF0001FFFFFF8000FFFFFFFF8000FF8000FFFFFFFF8
310
000FFF0003FFFFFFFFF000001FFFFFFFF000E00000FFFFFFFFFFC000FFC00200
310
0FFC000FFF80007FE00001FFFFFFFFFE00001FFFFFFFFFF8000001FFFE000000
310
7FFFFFF0001FFFFFFC000FFFFFFFF8001FFC000FFFFFFFF8001FFF0003FFFFFF
310
FFF00001FFFFFFFFF000E00007FFFFFFFFFF8000FFC000001FFC000FFF80007F
310
C0000FFFFFFFFFFE0000FFFFFFFFFFF8000001FFFE0000007FFFFFF0001FFFFF
310
FC0007FFFFFFF0001FFC0007FFFFFFF0001FFF0003FFFFFFFFF00007FFFFFFFF
310
F000E0001FFFFFFFFFFF8000FFC000001FFC000FFF80007FC0003FFFFFFFFFFE
310
0001FFFFFFFFFFF8000001FFFE0000007FFFFFF0001FFFFFFC0007FFFFFFF000
310
1FFC0007FFFFFFF0001FFF0003FFFFFFFFF0001FFFFFFFFFF000E0003FFFFF00
310
03FF8001FFE000001FFC0007FF80007FC0007FFFFF0007FC0003FFFFF0003FF8
310
000001FFFE0000007FFFFFF0001FFFFFFC0003FFFFFFE0001FFC0003FFFFFFE0
310
001FFF0003FFFFFFFFF0003FFFFFFFFFF000E0003FFFFF0001FF8001FFE00000
310
1FFE0007FF80007FC0007FFFFE0003FC0007FFFFE0003FF8000001FFFE000000
310
7FFFFFF0001FFFFFFE0003FFFFFFE0003FFE0003FFFFFFE0003FFF0003FFFFFF
310
FFF0003FFFFF8001F000E0003FFFFF0001FF0001FFE000001FFE0007FF80007F
310
C0007FFFFE0003FC0007FFFFE0003FF8000001FFFE0000007FFFFFF0001FFFFF
310
FE0001FFFFFFC0003FFE0001FFFFFFC0003FFF0003FFFFFFFFF0003FFFFF0001
310
F000E0003FFFFF0003FF0001FFE000003FFE0007FF80007FC0007FFFFE0003FC
310
0007FFFFE0003FF8000001FFFE0000007FFFFFF0001FFFFFFF0001FFFFFFC000
310
7FFF0001FFFFFFC0007FFF0003FFFFFFFFF0003FFFFF0001F000E0003FFFFE00
310
03FF0003FFF000003FFE0003FF80007FC0007FFFFC0003FE0007FFFFE0003FF8
310
000001FFFE0000007FFFFFF0001FFFFFFF0000FFFFFF80007FFF0000FFFFFF80
310
007FFF0003FFFFFFFFF0003FFFFF0001F000E0003FFFFE0003FF0003FFF00000
310
3FFF0003FF80007FC0007FFFFC0007FE0007FFFFC0003FF8000001FFFE000000
310
7FFFFFF0001FFFFFFF80007FFFFF0000FFFF80007FFFFF0000FFFF0003FFFFFF
310
FFF0003FFFFF0003F000E0003FFFFC0003FE0003FFF000003FFF0003FF80007F
310
E0003FFFF80007FE0003FFFFC0007FF8000001FFFE0000007FFFFFF0001FFFFF
310
FF80003FFFFE0000FFFF80003FFFFE0000FFFF0003FFFFFFFFF0001FFFFE0003
310
F000F0001FFFF80003FE0003FFF000007FFF0001FF80007FE0003FFFF00007FE
310
0001FFFF80007FF8000001FFFE0000007FFFFFF0001FFFFFFFC0000FFFF80001
310
FFFFC0000FFFF80001FFFF0003FFFFFFFFF0001FFFFC0003F000F0000FFFF000
310
07FE0007FFF800007FFF0001FF80007FE0001FFFE00007FF0000FFFE00007FF8
310
000001FFFE0000007FFFFFF0001FFFFFFFC00003FFE00001FFFFC00003FFE000
310
01FFFF0003FFFFFFFFF8000FFFF80003F000F00003FFC00007FC0007FFF80000
310
7FFF8001FF80007FF00007FF80000FFF00007FF80000FFF8000001FFFE000000
310
7F80000000000001FFE000003E000003FFFFE000003E000003FFFF0003FFFFFF
310
FFF80003FFE00007F000F800000000000FFC0007FFF800007FFF8001FF80007F
310
F000000000000FFF000000000000FFF8000001FFFE0000007F80000000000001
310
FFF0000000000007FFFFF0000000000007FFFF0003FFFFFFFFFC00007E000007
310
F000F800000000000FFC0007FFF80000FFFF8000FF80007FF800000000001FFF
310
800000000001FFF8000001FFFE0000007F80000000000001FFF800000000000F
310
FFFFF800000000000FFFFF0003FFFFFFFFFC00000000000FF000FC0000000000
310
1FFC0007FFFC0000FFFF8000FF80007FF800000000003FFFC00000000001FFF8
310
000001FFFE0000007F80000000000001FFF800000000000FFFFFF80000000000
310
0FFFFF0003FFFFFFFFFE00000000001FF000FE00000000003FF8000FFFFC0000
310
FFFF8000FF80007FFC00000000003FFFC00000000003FFF8000001FFFE000000
310
7F80000000000001FFFC00000000001FFFFFFC00000000001FFFFF0003FFFFFF
310
FFFF00000000001FF000FF00000000003FF8000FFFFC0000FFFFC000FF80007F
310
FE00000000007FFFE00000000007FFF8000001FFFE0000007F80000000000001
310
FFFE00000000003FFFFFFE00000000003FFFFF0003FFFFFFFFFF80000000003F
310
F000FF80000000007FF8000FFFFC0001FFFFC0007F80007FFF0000000000FFFF
310
F0000000000FFFF800000000000000007F80000000000001FFFF8000000000FF
310
FFFFFF8000000000FFFFFF0003FFFFFFFFFFC0000000007FF000FFC000000000
310
FFF8000FFFFE0001FFFFC0007F80007FFF8000000001FFFFF8000000001FFFF8
310
00000000000000007F80000000000001FFFFC000000001FFFFFFFFC000000001
310
FFFFFF0003FFFFFFFFFFE000000000FFF000FFE000000003FFF0001FFFFE0001
310
FFFFC0007F80007FFFC000000007FFFFFE000000003FFFF80000000000000000
310
7F80000000000001FFFFE000000003FFFFFFFFE000000003FFFFFF0003FFFFFF
310
FFFFF000000003FFF000FFF80000000FFFF0001FFFFE0001FFFFE0007F80007F
310
FFF00000000FFFFFFF00000000FFFFF800000000000000007F80000000000001
310
FFFFF80000000FFFFFFFFFF80000000FFFFFFF0003FFFFFFFFFFFC0000000FFF
310
F000FFFE0000003FFFF0001FFFFE0003FFFFE0003F80007FFFFC0000003FFFFF
310
FFC0000003FFFFF800000000000000007F80000000000001FFFFFE0000003FFF
310
FFFFFFFE0000003FFFFFFF0003FFFFFFFFFFFF0000003FFFF000FFFF800000FF
310
FFF0001FFFFF0003FFFFE0003F80007FFFFF000001FFFFFFFFF800001FFFFFF8
310
00000000000000007F80000000000001FFFFFFC00001FFFFFFFFFFFFC00001FF
310
FFFFFF0003FFFFFFFFFFFFC00000FFFFF000FFFFF8000FFFFFFFFFFFFFFFFFFF
310
FFFFFFFFFFFFFFFFFFFFF0001FFFFFFFFFFF0000FFFFFFF80000000000000000
310
7FFFFFFFFFFFFFFFFFFFFFFC001FFFFFFFFFFFFFFC001FFFFFFFFFFFFFFFFFFF
310
FFFFFFFC001FFFFFF000FFFFFFFFFFFFFFFFFFFFFFFFFFFFFFFFFFFFFFFFFFFF
310
FFFFFFFFFFFFFFFFFFFFFFFFFFFFFFFFFFFFFFFFFFFFFFFFFFFFFFFFFFFFFFFF
310
FFFFFFFFFFFFFFFFFFFFFFFFFFFFFFFFFFFFFFFFFFFFFFFFFFFFFFFFFFFFFFFF
310
F000FFFFFFFFFFFFFFFFFFFFFFFFFFFFFFFFFFFFFFFFFFFFFFFFFFFFFFFFFFFF
310
FFFFFFFFFFFFFFFFFFFFFFFFFFFFFFFFFFFFFFFFFFFFFFFFFFFFFFFFFFFFFFFF
310
FFFFFFFFFFFFFFFFFFFFFFFFFFFFFFFFFFFFFFFFFFFFFFFFF000FFFFFFFFFFFF
310
FFFFFFFFFFFFFFFFFFFFFFFFFFFFFFFFFFFFFFFFFFFFFFFFFFFFFFFFFFFFFFFF
310
FFFFFFFFFFFFFFFFFFFFFFFFFFFFFFFFFFFFFFFFFFFFFFFFFFFFFFFFFFFFFFFF
310
FFFFFFFFFFFFFFFFFFFFFFFFFFFFFFFFF000FFFFFFFFFFFFFFFFFFFFFFFFFFFF
310
FFFFFFFFFFFFFFFFFFFFFFFFFFFFFFFFFFFFFFFFFFFFFFFFFFFFFFFFFFFFFFFF
310
FFFFFFFFFFFFFFFFFFFFFFFFFFFFFFFFFFFFFFFFFFFFFFFFFFFFFFFFFFFFFFFF
310
FFFFFFFFFFFFFFFFF000FFFFFFFFFFFFFFFFFFFFFFFFFFFFFFFFFFFFFFFFFFFF
310
FFFFFFFFFFFFFFFFFFFFFFFFFFFFFFFFFFFFFFFFFFFFFFFFFFFFFFFFFFFFFFFF
310
FFFFFFFFFFFFFFFFFFFFFFFFFFFFFFFFFFFFFFFFFFFFFFFFFFFFFFFFFFFFFFFF
310
F000FFFFFFFFFFFFFFFFFFFFFFFFFFFFFFFFFFFFFFFFFFFFFFFFFFFFFFFFFFFF
310
FFFFFFFFFFFFFFFFFFFFFFFFFFFFFFFFFFFFFFFFFFFFFFFFFFFFFFFFFFFFFFFF
310
FFFFFFFFFFFFFFFFFFFFFFFFFFFFFFFFFFFFFFFFFFFFFFFFF000FFFFFFFFFFFF
310
FFFFFFFFFFFFFFFFFFFFFFFFFFFFFFFFFFFFFFFFFFFFFFFFFFFFFFFFFFFFFFFF
310
FFFFFFFFFFFFFFFFFFFFFFFFFFFFFFFFFFFFFFFFFFFFFFFFFFFFFFFFFFFFFFFF
310
FFFFFFFFFFFFFFFFFFFFFFFFFFFFFFFFF000FFFFFFFFFFFFFFFFFFFFFFFFFFFF
310
FFFFFFFFFFFFFFFFFFFFFFFFFFFFFFFFFFFFFFFFFFFFFFFFFFFFFFFFFFFFFFFF
310
FFFFFFFFFFFFFFFFFFFFFFFFFFFFFFFFFFFFFFFFFFFFFFFFFFFFFFFFFFFFFFFF
310
FFFFFFFFFFFFFFFFF000FFFFFFFFFFFFFFFFFFFFFFFFFFFFFFFFFFFFFFFFFFFF
310
FFFFFFFFFFFFFFFFFFFFFFFFFFFFFFFFFFFFFFFFFFFFFFFFFFFFFFFFFFFFFFFF
310
FFFFFFFFFFFFFFFFFFFFFFFFFFFFFFFFFFFFFFFFFFFFFFFFFFFFFFFFFFFFFFFF
310
F000FFFFFFFFFFFFFFFFFFFFFFFFFFFFFFFFFFFFFFFFFFFFFFFFFFFFFFFFFFFF
310
FFFFFFFFFFFFFFFFFFFFFFFFFFFFFFFFFFFFFFFFFFFFFFFFFFFFFFFFFFFFFFFF
310
FFFFFFFFFFFFFFFFFFFFFFFFFFFFFFFFFFFFFFFFFFFFFFFFF000FFFFFFFFFFFF
310
FFFFFFFFFFFFFFFFFFFFFFFFFFFFFFFFFFFFFFFFFFFFFFFFFFFFFFFFFFFFFFFF
310
FFFFFFFFFFFFFFFFFFFFFFFFFFFFFFFFFFFFFFFFFFFFFFFFFFFFFFFFFFFFFFFF
310
FFFFFFFFFFFFFFFFFFFFFFFFFFFFFFFFF000FFFFFFFFFFFFFFFFFFFFFFFFFFFF
310
FFFFFFFFFFFFFFFFFFFFFFFFFFFFFFFFFFFFFFFFFFFFFFFFFFFFFFFFFFFFFFFF
310
FFFFFFFFFFFFFFFFFFFFFFFFFFFFFFFFFFFFFFFFFFFFFFFFFFFFFFFFFFFFFFFF
310
FFFFFFFFFFFFFFFFF000FFFFFFFFFFFFFFFFFFFFFFFFFFFFFFFFFFFFFFFFFFFF
310
FFFFFFFFFFFFFFFFFFFFFFFFFFFFFFFFFFFFFFFFFFFFFFFFFFFFFFFFFFFFFFFF
310
FFFFFFFFFFFFFFFFFFFFFFFFFFFFFFFFFFFFFFFFFFFFFFFFFFFFFFFFFFFFFFFF
310
F000FFFFFFFFFFFFFFFFFFFFFFFFFFFFFFFFFFFFFFFFFFFFFFFFFFFFFFFFFFFF
310
FFFFFFFFFFFFFFFFFFFFFFFFFFFFFFFFFFFFFFFFFFFFFFFFFFFFFFFFFFFFFFFF
310
FFFFFFFFFFFFFFFFFFFFFFFFFFFFFFFFFFFFFFFFFFFFFFFFF000FFFFFFFFFFFF
310
FFFFFFFFFFFFFFFFFFFFFFFFFFFFFFFFFFFFFFFFFFFFFFFFFFFFFFFFFFFFFFFF
310
FFFFFFFFFFFFFFFFFFFFFFFFFFFFFFFFFFFFFFFFFFFFFFFFFFFFFFFFFFFFFFFF
310
FFFFFFFFFFFFFFFFFFFFFFFFFFFFFFFFF000FFFFFFFFFFFFFFFFFFFFFFFFFFFF
310
FFFFFFFFFFFFFFFFFFFFFFFFFFFFFFFFFFFFFFFFFFFFFFFFFFFFFFFFFFFFFFFF
310
FFFFFFFFFFFFFFFFFFFFFFFFFFFFFFFFFFFFFFFFFFFFFFFFFFFFFFFFFFFFFFFF
310
FFFFFFFFFFFFFFFFF000FFFFFFFFFFFFFFFFFFFFFFFFFFFFFFFFFFFFFFFFFFFF
310
FFFFFFFFFFFFFFFFFFFFFFFFFFFFFFFFFFFFFFFFFFFFFFFFFFFFFFFFFFFFFFFF
310
FFFFFFFFFFFFFFFFFFFFFFFFFFFFFFFFFFFFFFFFFFFFFFFFFFFFFFFFFFFFFFFF
310
F000FFFFFFFFFFFFFFFFFFFFFFFFFFFFFFFFFFFFFFFFFFFFFFFFFFFFFFFFFFFF
310
FFFFFFFFFFFFFFFFFFFFFFFFFFFFFFFFFFFFFFFFFFFFFFFFFFFFFFFFFFFFFFFF
310
FFFFFFFFFFFFFFFFFFFFFFFFFFFFFFFFFFFFFFFFFFFFFFFFF000FFFFFFFFFFFF
310
FFFFFFFFFFFFFFFFFFFFFFFFFFFFFFFFFFFFFFFFFFFFFFFFFFFFFFFFFFFFFFFF
310
FFFFFFFFFFFFFFFFFFFFFFFFFFFFFFFFFFFFFFFFFFFFFFFFFFFFFFFFFFFFFFFF
310
FFFFFFFFFFFFFFFFFFFFFFFFFFFFFFFFF000FFFFFFFFFFFFFFFFFFFFFFFFFFFF
310
FFFFFFFFFFFFFFFFFFFFFFFFFFFFFFFFFFFFFFFFFFFFFFFFFFFFFFFFFFFFFFFF
310
FFFFFFFFFFFFFFFFFFFFFFFFFFFFFFFFFFFFFFFFFFFFFFFFFFFFFFFFFFFFFFFF
310
FFFFFFFFFFFFFFFFF000FFFFFFFFFFFFFFFFFFFFFFFFFFFFFFFFFFFFFFFFFFFF
310
FFFFFFFFFFFFFFFFFFFFFFFFFFFFFFFFFFFFFFFFFFFFFFFFFFFFFFFFFFFFFFFF
310
FFFFFFFFFFFFFFFFFFFFFFFFFFFFFFFFFFFFFFFFFFFFFFFFFFFFFFFFFFFFFFFF
310
F000FFFFFFFFFFFFFFFFFFFFFFFFFFFFFFFFFFFFFFFFFFFFFFFFFFFFFFFFFFFF
310
FFFFFFFFFFFFFFFFFFFFFFFFFFFFFFFFFFFFFFFFFFFFFFFFFFFFFFFFFFFFFFFF
310
FFFFFFFFFFFFFFFFFFFFFFFFFFFFFFFFFFFFFFFFFFFFFFFFF000FFFFFFFFFFFF
310
FFFFFFFFFFFFFFFFFFFFFFFFFFFFFFFFFFFFFFFFFFFFFFFFFFFFFFFFFFFFFFFF
310
FFFFFFFFFFFFFFFFFFFFFFFFFFFFFFFFFFFFFFFFFFFFFFFFFFFFFFFFFFFFFFFF
310
FFFFFFFFFFFFFFFFFFFFFFFFFFFFFFFFF0000000000000000000000000000000
310
0000000000000000000000000000000000000000000000000000000000000000
310
0000000000000000000000000000000000000000000000000000000000000000
310
0000000000000000000000000000000000000000000000000000000000000000
310
0000000000000000000000000000000000000000000000000000000000000000
310
0000000000000000000000000000000000000000000000000000000000000000
310
0000000000000000000000000000000000000000000000000000000000000000
310
0000000000000000000000000000000000000000000000000000000000000000
310
0000000000000000000000000000000000000000000000000000000000000000
310
0000000000000000000000000000000000000000000000000000000000000000
310
0000000000000000000000000000000000000000000000000000000000000000
310
0000000000000000000000000000000000000000000000000000000000000000
310
0000000000000000000000000000000000000000000000000000000000000000
310
0000000000000000000000000000000000000000000000000000000000000000
310
0000000000000000000000000000000000000000000000000000000000000000
310
0000000000000000000000000000000000000000000000000000000000000000
  1
OLE
  0
ENDSEC
  0
SECTION
  2
OBJECTS
  0
DICTIONARY
  5
C
330
0
100
AcDbDictionary
281
     1
  3
ACAD_GROUP
350
D
  3
ACAD_LAYOUT
350
1A
  3
ACAD_MLINESTYLE
350
17
  3
ACAD_PLOTSETTINGS
350
19
  3
ACAD_PLOTSTYLENAME
350
E
  3
ACAD_SCALELIST
350
47
  0
DICTIONARY
  5
D
102
{ACAD_REACTORS
330
C
102
}
330
C
100
AcDbDictionary
281
     1
  0
DICTIONARY
  5
1A
102
{ACAD_REACTORS
330
C
102
}
330
C
100
AcDbDictionary
281
     1
  3
Layout1
350
1E
  3
Layout2
350
26
  3
Model
350
22
  0
DICTIONARY
  5
17
102
{ACAD_REACTORS
330
C
102
}
330
C
100
AcDbDictionary
281
     1
  3
Standard
350
18
  0
DICTIONARY
  5
19
102
{ACAD_REACTORS
330
C
102
}
330
C
100
AcDbDictionary
281
     1
  0
ACDBDICTIONARYWDFLT
  5
E
102
{ACAD_REACTORS
330
C
102
}
330
C
100
AcDbDictionary
281
     1
  3
Normal
350
F
100
AcDbDictionaryWithDefault
340
F
  0
DICTIONARY
  5
47
102
{ACAD_REACTORS
330
C
102
}
330
C
100
AcDbDictionary
281
     1
  3
A0
350
48
  3
A1
350
49
  3
A2
350
4A
  3
A3
350
4B
  3
A4
350
4C
  3
A5
350
4D
  3
A6
350
4E
  3
A7
350
4F
  3
A8
350
50
  3
A9
350
51
  3
B0
350
52
  3
B1
350
53
  3
B2
350
54
  3
B3
350
55
  3
B4
350
56
  3
B5
350
57
  3
B6
350
58
  3
B7
350
59
  3
B8
350
5A
  3
B9
350
5B
  3
C0
350
5C
  3
C1
350
5D
  3
C2
350
5E
  3
C3
350
5F
  3
C4
350
60
  3
C5
350
61
  3
C6
350
62
  3
C7
350
63
  3
C8
350
64
  3
C9
350
65
  3
D0
350
66
  3
D1
350
67
  3
D2
350
68
  0
LAYOUT
  5
1E
102
{ACAD_REACTORS
330
1A
102
}
330
1A
100
AcDbPlotSettings
  1

  2
none_device
  4

  6

 40
0.0
 41
0.0
 42
0.0
 43
0.0
 44
0.0
 45
0.0
 46
0.0
 47
0.0
 48
0.0
 49
0.0
140
0.0
141
0.0
142
1.0
143
1.0
 70
   688
 72
     1
 73
     0
 74
     5
  7

 75
    16
147
1.0
148
0.0
149
0.0
100
AcDbLayout
  1
Layout1
 70
     1
 71
     1
 10
0.0
 20
0.0
 11
420.0
 21
297.0
 12
0.0
 22
0.0
 32
0.0
 14
1.0000000000E+20
 24
1.0000000000E+20
 34
1.0000000000E+20
 15
-1.0000000000E+20
 25
-1.0000000000E+20
 35
-1.0000000000E+20
146
0.0
 13
0.0
 23
0.0
 33
0.0
 16
1.0
 26
0.0
 36
0.0
 17
0.0
 27
1.0
 37
0.0
 76
     0
330
1B
  0
LAYOUT
  5
26
102
{ACAD_REACTORS
330
1A
102
}
330
1A
100
AcDbPlotSettings
  1

  2
none_device
  4

  6

 40
0.0
 41
0.0
 42
0.0
 43
0.0
 44
0.0
 45
0.0
 46
0.0
 47
0.0
 48
0.0
 49
0.0
140
0.0
141
0.0
142
1.0
143
1.0
 70
   688
 72
     1
 73
     0
 74
     5
  7

 75
    16
147
1.0
148
0.0
149
0.0
100
AcDbLayout
  1
Layout2
 70
     1
 71
     2
 10
0.0
 20
0.0
 11
0.0
 21
0.0
 12
0.0
 22
0.0
 32
0.0
 14
0.0
 24
0.0
 34
0.0
 15
0.0
 25
0.0
 35
0.0
146
0.0
 13
0.0
 23
0.0
 33
0.0
 16
1.0
 26
0.0
 36
0.0
 17
0.0
 27
1.0
 37
0.0
 76
     0
330
23
  0
LAYOUT
  5
22
102
{ACAD_REACTORS
330
1A
102
}
330
1A
100
AcDbPlotSettings
  1

  2
none_device
  4
Letter_(8.50_x_11.00_Inches)
  6

 40
6.35
 41
6.35
 42
6.35000508
 43
6.35000508
 44
215.9
 45
279.4
 46
0.0
 47
0.0
 48
0.0
 49
0.0
140
0.0
141
0.0
142
1.0
143
1.0
 70
  1712
 72
     1
 73
     0
 74
     0
  7

 75
     0
147
1.0
148
0.0
149
0.0
100
AcDbLayout
  1
Model
 70
     1
 71
     0
 10
0.0
 20
0.0
 11
297.0
 21
210.0
 12
0.0
 22
0.0
 32
0.0
 14
0.0
 24
0.0
 34
0.0
 15
297.0
 25
210.0
 35
0.0
146
0.0
 13
0.0
 23
0.0
 33
0.0
 16
1.0
 26
0.0
 36
0.0
 17
0.0
 27
1.0
 37
0.0
 76
     0
330
1F
331
29
  0
MLINESTYLE
  5
18
102
{ACAD_REACTORS
330
17
102
}
330
17
100
AcDbMlineStyle
  2
Standard
 70
     0
  3

 62
   256
 51
90.0
 52
90.0
 71
     2
 49
0.5
 62
   256
  6
BYLAYER
 49
-0.5
 62
   256
  6
BYLAYER
  0
ACDBPLACEHOLDER
  5
F
102
{ACAD_REACTORS
330
E
102
}
330
E
  0
SCALE
  5
48
102
{ACAD_REACTORS
330
47
102
}
330
47
100
AcDbScale
 70
     0
300
1:1
140
1.0
141
1.0
290
     1
  0
SCALE
  5
49
102
{ACAD_REACTORS
330
47
102
}
330
47
100
AcDbScale
 70
     0
300
1:2
140
1.0
141
2.0
290
     0
  0
SCALE
  5
4A
102
{ACAD_REACTORS
330
47
102
}
330
47
100
AcDbScale
 70
     0
300
1:4
140
1.0
141
4.0
290
     0
  0
SCALE
  5
4B
102
{ACAD_REACTORS
330
47
102
}
330
47
100
AcDbScale
 70
     0
300
1:5
140
1.0
141
5.0
290
     0
  0
SCALE
  5
4C
102
{ACAD_REACTORS
330
47
102
}
330
47
100
AcDbScale
 70
     0
300
1:8
140
1.0
141
8.0
290
     0
  0
SCALE
  5
4D
102
{ACAD_REACTORS
330
47
102
}
330
47
100
AcDbScale
 70
     0
300
1:10
140
1.0
141
10.0
290
     0
  0
SCALE
  5
4E
102
{ACAD_REACTORS
330
47
102
}
330
47
100
AcDbScale
 70
     0
300
1:16
140
1.0
141
16.0
290
     0
  0
SCALE
  5
4F
102
{ACAD_REACTORS
330
47
102
}
330
47
100
AcDbScale
 70
     0
300
1:20
140
1.0
141
20.0
290
     0
  0
SCALE
  5
50
102
{ACAD_REACTORS
330
47
102
}
330
47
100
AcDbScale
 70
     0
300
1:30
140
1.0
141
30.0
290
     0
  0
SCALE
  5
51
102
{ACAD_REACTORS
330
47
102
}
330
47
100
AcDbScale
 70
     0
300
1:40
140
1.0
141
40.0
290
     0
  0
SCALE
  5
52
102
{ACAD_REACTORS
330
47
102
}
330
47
100
AcDbScale
 70
     0
300
1:50
140
1.0
141
50.0
290
     0
  0
SCALE
  5
53
102
{ACAD_REACTORS
330
47
102
}
330
47
100
AcDbScale
 70
     0
300
1:100
140
1.0
141
100.0
290
     0
  0
SCALE
  5
54
102
{ACAD_REACTORS
330
47
102
}
330
47
100
AcDbScale
 70
     0
300
2:1
140
2.0
141
1.0
290
     0
  0
SCALE
  5
55
102
{ACAD_REACTORS
330
47
102
}
330
47
100
AcDbScale
 70
     0
300
4:1
140
4.0
141
1.0
290
     0
  0
SCALE
  5
56
102
{ACAD_REACTORS
330
47
102
}
330
47
100
AcDbScale
 70
     0
300
8:1
140
8.0
141
1.0
290
     0
  0
SCALE
  5
57
102
{ACAD_REACTORS
330
47
102
}
330
47
100
AcDbScale
 70
     0
300
10:1
140
10.0
141
1.0
290
     0
  0
SCALE
  5
58
102
{ACAD_REACTORS
330
47
102
}
330
47
100
AcDbScale
 70
     0
300
100:1
140
100.0
141
1.0
290
     0
  0
SCALE
  5
59
102
{ACAD_REACTORS
330
47
102
}
330
47
100
AcDbScale
 70
     0
300
1/128" = 1'-0"
140
0.0078125
141
12.0
290
     0
  0
SCALE
  5
5A
102
{ACAD_REACTORS
330
47
102
}
330
47
100
AcDbScale
 70
     0
300
1/64" = 1'-0"
140
0.015625
141
12.0
290
     0
  0
SCALE
  5
5B
102
{ACAD_REACTORS
330
47
102
}
330
47
100
AcDbScale
 70
     0
300
1/32" = 1'-0"
140
0.03125
141
12.0
290
     0
  0
SCALE
  5
5C
102
{ACAD_REACTORS
330
47
102
}
330
47
100
AcDbScale
 70
     0
300
1/16" = 1'-0"
140
0.0625
141
12.0
290
     0
  0
SCALE
  5
5D
102
{ACAD_REACTORS
330
47
102
}
330
47
100
AcDbScale
 70
     0
300
3/32" = 1'-0"
140
0.09375
141
12.0
290
     0
  0
SCALE
  5
5E
102
{ACAD_REACTORS
330
47
102
}
330
47
100
AcDbScale
 70
     0
300
1/8" = 1'-0"
140
0.125
141
12.0
290
     0
  0
SCALE
  5
5F
102
{ACAD_REACTORS
330
47
102
}
330
47
100
AcDbScale
 70
     0
300
3/16" = 1'-0"
140
0.1875
141
12.0
290
     0
  0
SCALE
  5
60
102
{ACAD_REACTORS
330
47
102
}
330
47
100
AcDbScale
 70
     0
300
1/4" = 1'-0"
140
0.25
141
12.0
290
     0
  0
SCALE
  5
61
102
{ACAD_REACTORS
330
47
102
}
330
47
100
AcDbScale
 70
     0
300
3/8" = 1'-0"
140
0.375
141
12.0
290
     0
  0
SCALE
  5
62
102
{ACAD_REACTORS
330
47
102
}
330
47
100
AcDbScale
 70
     0
300
1/2" = 1'-0"
140
0.5
141
12.0
290
     0
  0
SCALE
  5
63
102
{ACAD_REACTORS
330
47
102
}
330
47
100
AcDbScale
 70
     0
300
3/4" = 1'-0"
140
0.75
141
12.0
290
     0
  0
SCALE
  5
64
102
{ACAD_REACTORS
330
47
102
}
330
47
100
AcDbScale
 70
     0
300
1" = 1'-0"
140
1.0
141
12.0
290
     0
  0
SCALE
  5
65
102
{ACAD_REACTORS
330
47
102
}
330
47
100
AcDbScale
 70
     0
300
1-1/2" = 1'-0"
140
1.5
141
12.0
290
     0
  0
SCALE
  5
66
102
{ACAD_REACTORS
330
47
102
}
330
47
100
AcDbScale
 70
     0
300
3" = 1'-0"
140
3.0
141
12.0
290
     0
  0
SCALE
  5
67
102
{ACAD_REACTORS
330
47
102
}
330
47
100
AcDbScale
 70
     0
300
6" = 1'-0"
140
6.0
141
12.0
290
     0
  0
SCALE
  5
68
102
{ACAD_REACTORS
330
47
102
}
330
47
100
AcDbScale
 70
     0
300
1'-0" = 1'-0"
140
12.0
141
12.0
290
     0
  0
ENDSEC
  0
EOF
