  0
SECTION
  2
HEADER
  9
$ACADVER
  1
AC1015
  9
$ACADMAINTVER
 70
     6
  9
$DWGCODEPAGE
  3
ANSI_1252
  9
$INSBASE
 10
0.0
 20
0.0
 30
0.0
  9
$EXTMIN
 10
0.0
 20
0.0
 30
0.0
  9
$EXTMAX
 10
297.0
 20
210.0
 30
0.0
  9
$LIMMIN
 10
0.0
 20
0.0
  9
$LIMMAX
 10
297.0
 20
210.0
  9
$ORTHOMODE
 70
     0
  9
$REGENMODE
 70
     1
  9
$FILLMODE
 70
     1
  9
$QTEXTMODE
 70
     0
  9
$MIRRTEXT
 70
     1
  9
$LTSCALE
 40
1.0
  9
$ATTMODE
 70
     1
  9
$TEXTSIZE
 40
2.0
  9
$TRACEWID
 40
1.0
  9
$TEXTSTYLE
  7
Standard
  9
$CLAYER
  8
0
  9
$CELTYPE
  6
ByLayer
  9
$CECOLOR
 62
   256
  9
$CELTSCALE
 40
1.0
  9
$DISPSILH
 70
     0
  9
$DIMSCALE
 40
1.0
  9
$DIMASZ
 40
3.0
  9
$DIMEXO
 40
0.0
  9
$DIMDLI
 40
3.75
  9
$DIMRND
 40
0.0
  9
$DIMDLE
 40
0.0
  9
$DIMEXE
 40
1.0
  9
$DIMTP
 40
0.0
  9
$DIMTM
 40
0.0
  9
$DIMTXT
 40
2.0
  9
$DIMCEN
 40
2.5
  9
$DIMTSZ
 40
0.0
  9
$DIMTOL
 70
     0
  9
$DIMLIM
 70
     0
  9
$DIMTIH
 70
     1
  9
$DIMTOH
 70
     1
  9
$DIMSE1
 70
     0
  9
$DIMSE2
 70
     0
  9
$DIMTAD
 70
     1
  9
$DIMZIN
 70
     0
  9
$DIMBLK
  1

  9
$DIMASO
 70
     1
  9
$DIMSHO
 70
     1
  9
$DIMPOST
  1

  9
$DIMAPOST
  1

  9
$DIMALT
 70
     0
  9
$DIMALTD
 70
     3
  9
$DIMALTF
 40
0.0393700787
  9
$DIMLFAC
 40
2.0
  9
$DIMTOFL
 70
     1
  9
$DIMTVP
 40
0.0
  9
$DIMTIX
 70
     0
  9
$DIMSOXD
 70
     0
  9
$DIMSAH
 70
     0
  9
$DIMBLK1
  1

  9
$DIMBLK2
  1

  9
$DIMSTYLE
  2
ISO-25
  9
$DIMCLRD
 70
     0
  9
$DIMCLRE
 70
     0
  9
$DIMCLRT
 70
     0
  9
$DIMTFAC
 40
1.0
  9
$DIMGAP
 40
1.524
  9
$DIMJUST
 70
     0
  9
$DIMSD1
 70
     0
  9
$DIMSD2
 70
     0
  9
$DIMTOLJ
 70
     0
  9
$DIMTZIN
 70
     0
  9
$DIMALTZ
 70
     0
  9
$DIMALTTZ
 70
     0
  9
$DIMUPT
 70
     0
  9
$DIMDEC
 70
     2
  9
$DIMTDEC
 70
     3
  9
$DIMALTU
 70
     2
  9
$DIMALTTD
 70
     3
  9
$DIMTXSTY
  7
Standard
  9
$DIMAUNIT
 70
     0
  9
$DIMADEC
 70
     2
  9
$DIMALTRND
 40
0.0
  9
$DIMAZIN
 70
     0
  9
$DIMDSEP
 70
    44
  9
$DIMATFIT
 70
     3
  9
$DIMFRAC
 70
     0
  9
$DIMLDRBLK
  1

  9
$DIMLUNIT
 70
     2
  9
$DIMLWD
 70
    -2
  9
$DIMLWE
 70
    -2
  9
$DIMTMOVE
 70
     0
  9
$LUNITS
 70
     2
  9
$LUPREC
 70
     2
  9
$SKETCHINC
 40
1.0
  9
$FILLETRAD
 40
10.0
  9
$AUNITS
 70
     0
  9
$AUPREC
 70
     2
  9
$MENU
  1
.
  9
$ELEVATION
 40
0.0
  9
$PELEVATION
 40
0.0
  9
$THICKNESS
 40
0.0
  9
$LIMCHECK
 70
     0
  9
$CHAMFERA
 40
0.0
  9
$CHAMFERB
 40
0.0
  9
$CHAMFERC
 40
0.0
  9
$CHAMFERD
 40
0.0
  9
$SKPOLY
 70
     0
  9
$TDCREATE
 40
2457675.393874271
  9
$TDUCREATE
 40
2457675.310540937
  9
$TDUPDATE
 40
2457675.393875787
  9
$TDUUPDATE
 40
2457675.310542454
  9
$TDINDWG
 40
0.0000000116
  9
$TDUSRTIMER
 40
0.0000000116
  9
$USRTIMER
 70
     1
  9
$ANGBASE
 50
0.0
  9
$ANGDIR
 70
     0
  9
$PDMODE
 70
     0
  9
$PDSIZE
 40
-1.0
  9
$PLINEWID
 40
0.0
  9
$SPLFRAME
 70
     0
  9
$SPLINETYPE
 70
     6
  9
$SPLINESEGS
 70
     8
  9
$HANDSEED
  5
289
  9
$SURFTAB1
 70
     6
  9
$SURFTAB2
 70
     6
  9
$SURFTYPE
 70
     6
  9
$SURFU
 70
     6
  9
$SURFV
 70
     6
  9
$UCSBASE
  2

  9
$UCSNAME
  2

  9
$UCSORG
 10
0.0
 20
0.0
 30
0.0
  9
$UCSXDIR
 10
1.0
 20
0.0
 30
0.0
  9
$UCSYDIR
 10
0.0
 20
1.0
 30
0.0
  9
$UCSORTHOREF
  2

  9
$UCSORTHOVIEW
 70
     0
  9
$UCSORGTOP
 10
0.0
 20
0.0
 30
0.0
  9
$UCSORGBOTTOM
 10
0.0
 20
0.0
 30
0.0
  9
$UCSORGLEFT
 10
0.0
 20
0.0
 30
0.0
  9
$UCSORGRIGHT
 10
0.0
 20
0.0
 30
0.0
  9
$UCSORGFRONT
 10
0.0
 20
0.0
 30
0.0
  9
$UCSORGBACK
 10
0.0
 20
0.0
 30
0.0
  9
$PUCSBASE
  2

  9
$PUCSNAME
  2

  9
$PUCSORG
 10
0.0
 20
0.0
 30
0.0
  9
$PUCSXDIR
 10
1.0
 20
0.0
 30
0.0
  9
$PUCSYDIR
 10
0.0
 20
1.0
 30
0.0
  9
$PUCSORTHOREF
  2

  9
$PUCSORTHOVIEW
 70
     0
  9
$PUCSORGTOP
 10
0.0
 20
0.0
 30
0.0
  9
$PUCSORGBOTTOM
 10
0.0
 20
0.0
 30
0.0
  9
$PUCSORGLEFT
 10
0.0
 20
0.0
 30
0.0
  9
$PUCSORGRIGHT
 10
0.0
 20
0.0
 30
0.0
  9
$PUCSORGFRONT
 10
0.0
 20
0.0
 30
0.0
  9
$PUCSORGBACK
 10
0.0
 20
0.0
 30
0.0
  9
$USERI1
 70
     0
  9
$USERI2
 70
     0
  9
$USERI3
 70
     0
  9
$USERI4
 70
     0
  9
$USERI5
 70
     0
  9
$USERR1
 40
0.0
  9
$USERR2
 40
0.0
  9
$USERR3
 40
0.0
  9
$USERR4
 40
0.0
  9
$USERR5
 40
0.0
  9
$WORLDVIEW
 70
     1
  9
$SHADEDGE
 70
     3
  9
$SHADEDIF
 70
    70
  9
$TILEMODE
 70
     1
  9
$MAXACTVP
 70
    64
  9
$PINSBASE
 10
0.0
 20
0.0
 30
0.0
  9
$PLIMCHECK
 70
     0
  9
$PEXTMIN
 10
1.0000000000E+20
 20
1.0000000000E+20
 30
1.0000000000E+20
  9
$PEXTMAX
 10
-1.0000000000E+20
 20
-1.0000000000E+20
 30
-1.0000000000E+20
  9
$PLIMMIN
 10
0.0
 20
0.0
  9
$PLIMMAX
 10
420.0
 20
297.0
  9
$UNITMODE
 70
     0
  9
$VISRETAIN
 70
     1
  9
$PLINEGEN
 70
     0
  9
$PSLTSCALE
 70
     1
  9
$TREEDEPTH
 70
  3020
  9
$CMLSTYLE
  2
Standard
  9
$CMLJUST
 70
     0
  9
$CMLSCALE
 40
20.0
  9
$PROXYGRAPHICS
 70
     1
  9
$MEASUREMENT
 70
     1
  9
$CELWEIGHT
370
    -1
  9
$ENDCAPS
280
     0
  9
$JOINSTYLE
280
     0
  9
$LWDISPLAY
290
     1
  9
$INSUNITS
 70
     4
  9
$HYPERLINKBASE
  1

  9
$STYLESHEET
  1

  9
$XEDIT
290
     1
  9
$CEPSNTYPE
380
     0
  9
$PSTYLEMODE
290
     1
  9
$FINGERPRINTGUID
  2
{40B58F6C-8FA7-4B3B-870E-30354AF2EA1A}
  9
$VERSIONGUID
  2
{FAEB1C32-E019-11D5-929B-00C0DF256EC4}
  9
$EXTNAMES
290
     1
  9
$PSVPSCALE
 40
0.0
  9
$OLESTARTUP
290
     0
  0
ENDSEC
  0
SECTION
  2
CLASSES
  0
CLASS
  1
ACDBDICTIONARYWDFLT
  2
AcDbDictionaryWithDefault
  3
ObjectDBX Classes
 90
        0
280
     0
281
     0
  0
CLASS
  1
VISUALSTYLE
  2
AcDbVisualStyle
  3
ObjectDBX Classes
 90
     4095
280
     0
281
     0
  0
CLASS
  1
MATERIAL
  2
AcDbMaterial
  3
ObjectDBX Classes
 90
     1153
280
     0
281
     0
  0
CLASS
  1
SCALE
  2
AcDbScale
  3
ObjectDBX Classes
 90
     1153
280
     0
281
     0
  0
CLASS
  1
TABLESTYLE
  2
AcDbTableStyle
  3
ObjectDBX Classes
 90
     4095
280
     0
281
     0
  0
CLASS
  1
MLEADERSTYLE
  2
AcDbMLeaderStyle
  3
ACDB_MLEADERSTYLE_CLASS
 90
     4095
280
     0
281
     0
  0
CLASS
  1
SUN
  2
AcDbSun
  3
SCENEOE
 90
     1153
280
     0
281
     0
  0
CLASS
  1
ACDBPLACEHOLDER
  2
AcDbPlaceHolder
  3
ObjectDBX Classes
 90
        0
280
     0
281
     0
  0
CLASS
  1
LAYOUT
  2
AcDbLayout
  3
ObjectDBX Classes
 90
        0
280
     0
281
     0
  0
ENDSEC
  0
SECTION
  2
TABLES
  0
TABLE
  2
VPORT
  5
8
330
0
100
AcDbSymbolTable
 70
     1
  0
VPORT
  5
29
330
8
100
AcDbSymbolTableRecord
100
AcDbViewportTableRecord
  2
*Active
 70
     0
 10
0.0
 20
0.0
 11
1.0
 21
1.0
 12
148.5
 22
105.0
 13
0.0
 23
0.0
 14
10.0
 24
10.0
 15
10.0
 25
10.0
 16
0.0
 26
0.0
 36
1.0
 17
0.0
 27
0.0
 37
0.0
 40
210.0
 41
1.4142857143
 42
50.0
 43
0.0
 44
0.0
 50
0.0
 51
0.0
 71
     0
 72
  2000
 73
     1
 74
     3
 75
     0
 76
     0
 77
     0
 78
     0
281
     0
 65
     1
110
0.0
120
0.0
130
0.0
111
1.0
121
0.0
131
0.0
112
0.0
122
1.0
132
0.0
 79
     0
146
0.0
  0
ENDTAB
  0
TABLE
  2
LTYPE
  5
5
330
0
100
AcDbSymbolTable
 70
     6
  0
LTYPE
  5
14
330
5
100
AcDbSymbolTableRecord
100
AcDbLinetypeTableRecord
  2
ByBlock
 70
     0
  3

 72
    65
 73
     0
 40
0.0
  0
LTYPE
  5
15
330
5
100
AcDbSymbolTableRecord
100
AcDbLinetypeTableRecord
  2
ByLayer
 70
     0
  3

 72
    65
 73
     0
 40
0.0
  0
LTYPE
  5
16
330
5
100
AcDbSymbolTableRecord
100
AcDbLinetypeTableRecord
  2
Continuous
 70
     0
  3
Solid line
 72
    65
 73
     0
 40
0.0
  0
LTYPE
  5
6E
330
5
100
AcDbSymbolTableRecord
100
AcDbLinetypeTableRecord
  2
HIDDEN
 70
     0
  3
Hidden __ __ __ __ __ __ __ __ __ __ __ __ __ __
 72
    65
 73
     2
 40
1.905
 49
1.27
 74
     0
 49
-0.635
 74
     0
  0
LTYPE
  5
6F
330
5
100
AcDbSymbolTableRecord
100
AcDbLinetypeTableRecord
  2
PHANTOM
 70
     0
  3
Phantom ______  __  __  ______  __  __  ______
 72
    65
 73
     6
 40
12.7
 49
6.35
 74
     0
 49
-1.27
 74
     0
 49
1.27
 74
     0
 49
-1.27
 74
     0
 49
1.27
 74
     0
 49
-1.27
 74
     0
  0
LTYPE
  5
70
330
5
100
AcDbSymbolTableRecord
100
AcDbLinetypeTableRecord
  2
CENTER
 70
     0
  3
Center ____ _ ____ _ ____ _ ____ _ ____ _ ____
 72
    65
 73
     4
 40
10.16
 49
6.35
 74
     0
 49
-1.27
 74
     0
 49
1.27
 74
     0
 49
-1.27
 74
     0
  0
LTYPE
  5
71
330
5
100
AcDbSymbolTableRecord
100
AcDbLinetypeTableRecord
  2
CENTERX2
 70
     0
  3
Center (2x) ________  __  ________  __  _____
 72
    65
 73
     4
 40
20.32
 49
12.7
 74
     0
 49
-2.54
 74
     0
 49
2.54
 74
     0
 49
-2.54
 74
     0
  0
LTYPE
  5
72
330
5
100
AcDbSymbolTableRecord
100
AcDbLinetypeTableRecord
  2
DOT2
 70
     0
  3
Dot (.5x) ........................................
 72
    65
 73
     2
 40
0.635
 49
0.0
 74
     0
 49
-0.635
 74
     0
  0
ENDTAB
  0
TABLE
  2
LAYER
  5
2
330
0
100
AcDbSymbolTable
 70
     5
  0
LAYER
  5
10
330
2
100
AcDbSymbolTableRecord
100
AcDbLayerTableRecord
  2
0
 70
     0
 62
     7
  6
Continuous
370
    -3
390
F
  0
LAYER
  5
73
330
2
100
AcDbSymbolTableRecord
100
AcDbLayerTableRecord
  2
FORMAT
 70
     0
 62
     7
  6
Continuous
370
    -3
390
F
  0
LAYER
  5
74
330
2
100
AcDbSymbolTableRecord
100
AcDbLayerTableRecord
  2
VERMASSUNG
 70
     0
 62
     7
  6
Continuous
370
    -3
390
F
  0
LAYER
  5
75
330
2
100
AcDbSymbolTableRecord
100
AcDbLayerTableRecord
  2
KOPF_DÜNN
 70
     0
 62
     7
  6
Continuous
370
    -3
390
F
  0
LAYER
  5
76
330
2
100
AcDbSymbolTableRecord
100
AcDbLayerTableRecord
  2
KOPF_DICK
 70
     0
 62
     7
  6
Continuous
370
    15
390
F
  0
ENDTAB
  0
TABLE
  2
STYLE
  5
3
330
0
100
AcDbSymbolTable
 70
     2
  0
STYLE
  5
11
330
3
100
AcDbSymbolTableRecord
100
AcDbTextStyleTableRecord
  2
Standard
 70
     0
 40
0.0
 41
1.0
 50
0.0
 71
     0
 42
2.0
  3
txt
  4

  0
STYLE
  5
77
330
3
100
AcDbSymbolTableRecord
100
AcDbTextStyleTableRecord
  2
SLDTEXTSTYLE0
 70
     0
 40
0.0
 41
0.7
 50
0.0
 71
     0
 42
2.0
  3
TXT
  4

  0
ENDTAB
  0
TABLE
  2
VIEW
  5
6
330
0
100
AcDbSymbolTable
 70
     0
  0
ENDTAB
  0
TABLE
  2
UCS
  5
7
330
0
100
AcDbSymbolTable
 70
     0
  0
ENDTAB
  0
TABLE
  2
APPID
  5
9
330
0
100
AcDbSymbolTable
 70
     1
  0
APPID
  5
12
330
9
100
AcDbSymbolTableRecord
100
AcDbRegAppTableRecord
  2
ACAD
 70
     0
  0
ENDTAB
  0
TABLE
  2
DIMSTYLE
  5
A
330
0
100
AcDbSymbolTable
 70
     2
100
AcDbDimStyleTable
  0
DIMSTYLE
105
27
330
A
100
AcDbSymbolTableRecord
100
AcDbDimStyleTableRecord
  2
ISO-25
 70
     0
 41
2.5
 42
0.625
 43
3.75
 44
1.25
 73
     0
 74
     0
 77
     1
 78
     8
140
2.5
141
2.5
143
0.0393700787
147
0.625
171
     3
172
     1
178
     0
271
     2
272
     2
274
     3
278
    44
283
     0
284
     8
340
11
  0
DIMSTYLE
105
19C
102
{ACAD_REACTORS
330
19B
330
1A8
330
1B2
330
1BC
330
1C6
330
1D1
102
}
330
A
100
AcDbSymbolTableRecord
100
AcDbDimStyleTableRecord
  2
SLDDIMSTYLE0
 70
     0
 41
3.0
 44
0.0
 45
0.000000001
 73
     0
 74
     0
 77
     1
 78
    12
 79
     3
140
2.0
147
0.5
173
     1
178
     0
271
     2
272
     3
276
     2
284
    12
340
77
  0
ENDTAB
  0
TABLE
  2
BLOCK_RECORD
  5
1
330
0
100
AcDbSymbolTable
 70
     7
  0
BLOCK_RECORD
  5
1F
330
1
100
AcDbSymbolTableRecord
100
AcDbBlockTableRecord
  2
*Model_Space
340
22
  0
BLOCK_RECORD
  5
1B
330
1
100
AcDbSymbolTableRecord
100
AcDbBlockTableRecord
  2
*Paper_Space
340
1E
  0
BLOCK_RECORD
  5
23
330
1
100
AcDbSymbolTableRecord
100
AcDbBlockTableRecord
  2
*Paper_Space0
340
26
  0
BLOCK_RECORD
  5
19D
330
1
100
AcDbSymbolTableRecord
100
AcDbBlockTableRecord
  2
_D
340
0
  0
BLOCK_RECORD
  5
1A9
330
1
100
AcDbSymbolTableRecord
100
AcDbBlockTableRecord
  2
_D_1
340
0
  0
BLOCK_RECORD
  5
1B3
330
1
100
AcDbSymbolTableRecord
100
AcDbBlockTableRecord
  2
_D_2
340
0
  0
BLOCK_RECORD
  5
1BD
330
1
100
AcDbSymbolTableRecord
100
AcDbBlockTableRecord
  2
_D_3
340
0
  0
BLOCK_RECORD
  5
1C7
330
1
100
AcDbSymbolTableRecord
100
AcDbBlockTableRecord
  2
_D_4
340
0
  0
BLOCK_RECORD
  5
1D2
330
1
100
AcDbSymbolTableRecord
100
AcDbBlockTableRecord
  2
_D_5
340
0
  0
ENDTAB
  0
ENDSEC
  0
SECTION
  2
BLOCKS
  0
BLOCK
  5
20
330
1F
100
AcDbEntity
  8
0
100
AcDbBlockBegin
  2
*Model_Space
 70
     0
 10
0.0
 20
0.0
 30
0.0
  3
*Model_Space
  1

  0
ENDBLK
  5
21
330
1F
100
AcDbEntity
  8
0
100
AcDbBlockEnd
  0
BLOCK
  5
1C
330
1B
100
AcDbEntity
 67
     1
  8
0
100
AcDbBlockBegin
  2
*Paper_Space
 70
     0
 10
0.0
 20
0.0
 30
0.0
  3
*Paper_Space
  1

  0
ENDBLK
  5
1D
330
1B
100
AcDbEntity
 67
     1
  8
0
100
AcDbBlockEnd
  0
BLOCK
  5
24
330
23
100
AcDbEntity
  8
0
100
AcDbBlockBegin
  2
*Paper_Space0
 70
     0
 10
0.0
 20
0.0
 30
0.0
  3
*Paper_Space0
  1

  0
ENDBLK
  5
25
330
23
100
AcDbEntity
  8
0
100
AcDbBlockEnd
  0
BLOCK
  5
19E
330
19D
100
AcDbEntity
  8
0
100
AcDbBlockBegin
  2
_D
 70
     0
 10
0.0
 20
0.0
 30
0.0
  3
_D
  1

  0
SOLID
  5
1A0
330
19D
100
AcDbEntity
  8
VERMASSUNG
100
AcDbTrace
 10
102.696937698
 20
147.6129214413
 30
0.0
 11
102.246937698
 21
144.6129214413
 31
0.0
 12
103.146937698
 22
144.6129214413
 32
0.0
 13
103.146937698
 23
144.6129214413
 33
0.0
  0
SOLID
  5
1A1
330
19D
100
AcDbEntity
  8
VERMASSUNG
100
AcDbTrace
 10
102.696937698
 20
84.6129214413
 30
0.0
 11
103.146937698
 21
87.6129214413
 31
0.0
 12
102.246937698
 22
87.6129214413
 32
0.0
 13
102.246937698
 23
87.6129214413
 33
0.0
  0
LINE
  5
1A2
330
19D
100
AcDbEntity
  8
VERMASSUNG
100
AcDbLine
 10
140.803285307
 20
147.6129214413
 30
0.0
 11
101.696937698
 21
147.6129214413
 31
0.0
  0
LINE
  5
1A3
330
19D
100
AcDbEntity
  8
VERMASSUNG
100
AcDbLine
 10
140.803285307
 20
84.6129214413
 30
0.0
 11
101.696937698
 21
84.6129214413
 31
0.0
  0
LINE
  5
1A4
330
19D
100
AcDbEntity
  8
VERMASSUNG
100
AcDbLine
 10
102.696937698
 20
147.6129214413
 30
0.0
 11
102.696937698
 21
84.6129214413
 31
0.0
  0
MTEXT
  5
1A5
330
19D
100
AcDbEntity
  8
VERMASSUNG
100
AcDbMText
 10
99.9188024418
 20
108.4079221434
 30
0.0
 40
2.0
 41
0.0
 71
     1
 72
     1
  1
HSK A
  7
SLDTEXTSTYLE0
 11
-7.044195017643634E-15
 21
1.0
 31
0.0
 73
     1
 44
1.0
  0
MTEXT
  5
1A6
330
19D
100
AcDbEntity
  8
VERMASSUNG
100
AcDbMText
 10
100.1188023931
 20
117.407921756
 30
0.0
 40
2.0
 41
0.0
 71
     1
 72
     1
  1
%%c
  7
SLDTEXTSTYLE0
 11
-7.044195017643634E-15
 21
1.0
 31
0.0
 73
     1
 44
1.0
  0
MTEXT
  5
1A7
330
19D
100
AcDbEntity
  8
VERMASSUNG
100
AcDbMText
 10
99.9188024418
 20
121.0179217703
 30
0.0
 40
2.0
 41
0.0
 71
     1
 72
     1
  1
63
  7
SLDTEXTSTYLE0
 11
-7.044195017643634E-15
 21
1.0
 31
0.0
 73
     1
 44
1.0
  0
ENDBLK
  5
19F
330
19D
100
AcDbEntity
  8
0
100
AcDbBlockEnd
  0
BLOCK
  5
1AA
330
1A9
100
AcDbEntity
  8
0
100
AcDbBlockBegin
  2
_D_1
 70
     0
 10
0.0
 20
0.0
 30
0.0
  3
_D_1
  1

  0
SOLID
  5
1AC
330
1A9
100
AcDbEntity
  8
VERMASSUNG
100
AcDbTrace
 10
166.453285307
 20
151.4104015131
 30
0.0
 11
169.453285307
 21
150.9604015131
 31
0.0
 12
169.453285307
 22
151.8604015131
 32
0.0
 13
169.453285307
 23
151.8604015131
 33
0.0
  0
SOLID
  5
1AD
330
1A9
100
AcDbEntity
  8
VERMASSUNG
100
AcDbTrace
 10
195.503285307
 20
151.4104015131
 30
0.0
 11
192.503285307
 21
151.8604015131
 31
0.0
 12
192.503285307
 22
150.9604015131
 32
0.0
 13
192.503285307
 23
150.9604015131
 33
0.0
  0
LINE
  5
1AE
330
1A9
100
AcDbEntity
  8
VERMASSUNG
100
AcDbLine
 10
166.453285307
 20
145.959361765
 30
0.0
 11
166.453285307
 21
152.4104015131
 31
0.0
  0
LINE
  5
1AF
330
1A9
100
AcDbEntity
  8
VERMASSUNG
100
AcDbLine
 10
195.503285307
 20
135.7129214413
 30
0.0
 11
195.503285307
 21
152.4104015131
 31
0.0
  0
LINE
  5
1B0
330
1A9
100
AcDbEntity
  8
VERMASSUNG
100
AcDbLine
 10
166.453285307
 20
151.4104015131
 30
0.0
 11
195.503285307
 21
151.4104015131
 31
0.0
  0
MTEXT
  5
1B1
330
1A9
100
AcDbEntity
  8
VERMASSUNG
100
AcDbMText
 10
177.8782854508
 20
153.9885371091
 30
0.0
 40
2.0
 41
0.0
 71
     1
 72
     1
  1
29.05
  7
SLDTEXTSTYLE0
 73
     1
 44
1.0
  0
ENDBLK
  5
1AB
330
1A9
100
AcDbEntity
  8
0
100
AcDbBlockEnd
  0
BLOCK
  5
1B4
330
1B3
100
AcDbEntity
  8
0
100
AcDbBlockBegin
  2
_D_2
 70
     0
 10
0.0
 20
0.0
 30
0.0
  3
_D_2
  1

  0
SOLID
  5
1B6
330
1B3
100
AcDbEntity
  8
VERMASSUNG
100
AcDbTrace
 10
195.503285307
 20
157.4104015131
 30
0.0
 11
192.503285307
 21
157.8604015131
 31
0.0
 12
192.503285307
 22
156.9604015131
 32
0.0
 13
192.503285307
 23
156.9604015131
 33
0.0
  0
SOLID
  5
1B7
330
1B3
100
AcDbEntity
  8
VERMASSUNG
100
AcDbTrace
 10
140.503285307
 20
157.4104015131
 30
0.0
 11
143.503285307
 21
156.9604015131
 31
0.0
 12
143.503285307
 22
157.8604015131
 32
0.0
 13
143.503285307
 23
157.8604015131
 33
0.0
  0
LINE
  5
1B8
330
1B3
100
AcDbEntity
  8
VERMASSUNG
100
AcDbLine
 10
195.503285307
 20
135.7129214413
 30
0.0
 11
195.503285307
 21
158.4104015131
 31
0.0
  0
LINE
  5
1B9
330
1B3
100
AcDbEntity
  8
VERMASSUNG
100
AcDbLine
 10
140.503285307
 20
147.3129214413
 30
0.0
 11
140.503285307
 21
158.4104015131
 31
0.0
  0
LINE
  5
1BA
330
1B3
100
AcDbEntity
  8
VERMASSUNG
100
AcDbLine
 10
195.503285307
 20
157.4104015131
 30
0.0
 11
140.503285307
 21
157.4104015131
 31
0.0
  0
MTEXT
  5
1BB
330
1B3
100
AcDbEntity
  8
VERMASSUNG
100
AcDbMText
 10
166.6032853569
 20
159.9885371091
 30
0.0
 40
2.0
 41
0.0
 71
     1
 72
     1
  1
55
  7
SLDTEXTSTYLE0
 73
     1
 44
1.0
  0
ENDBLK
  5
1B5
330
1B3
100
AcDbEntity
  8
0
100
AcDbBlockEnd
  0
BLOCK
  5
1BE
330
1BD
100
AcDbEntity
  8
0
100
AcDbBlockBegin
  2
_D_3
 70
     0
 10
0.0
 20
0.0
 30
0.0
  3
_D_3
  1

  0
SOLID
  5
1C0
330
1BD
100
AcDbEntity
  8
VERMASSUNG
100
AcDbTrace
 10
195.503285307
 20
163.4104015131
 30
0.0
 11
192.503285307
 21
163.8604015131
 31
0.0
 12
192.503285307
 22
162.9604015131
 32
0.0
 13
192.503285307
 23
162.9604015131
 33
0.0
  0
SOLID
  5
1C1
330
1BD
100
AcDbEntity
  8
VERMASSUNG
100
AcDbTrace
 10
108.603285307
 20
163.4104015131
 30
0.0
 11
111.603285307
 21
162.9604015131
 31
0.0
 12
111.603285307
 22
163.8604015131
 32
0.0
 13
111.603285307
 23
163.8604015131
 33
0.0
  0
LINE
  5
1C2
330
1BD
100
AcDbEntity
  8
VERMASSUNG
100
AcDbLine
 10
195.503285307
 20
135.7129214413
 30
0.0
 11
195.503285307
 21
164.4104015131
 31
0.0
  0
LINE
  5
1C3
330
1BD
100
AcDbEntity
  8
VERMASSUNG
100
AcDbLine
 10
108.603285307
 20
135.8035991877
 30
0.0
 11
108.603285307
 21
164.4104015131
 31
0.0
  0
LINE
  5
1C4
330
1BD
100
AcDbEntity
  8
VERMASSUNG
100
AcDbLine
 10
195.503285307
 20
163.4104015131
 30
0.0
 11
108.603285307
 21
163.4104015131
 31
0.0
  0
MTEXT
  5
1C5
330
1BD
100
AcDbEntity
  8
VERMASSUNG
100
AcDbMText
 10
149.6532854258
 20
165.9885371091
 30
0.0
 40
2.0
 41
0.0
 71
     1
 72
     1
  1
86.9
  7
SLDTEXTSTYLE0
 73
     1
 44
1.0
  0
ENDBLK
  5
1BF
330
1BD
100
AcDbEntity
  8
0
100
AcDbBlockEnd
  0
BLOCK
  5
1C8
330
1C7
100
AcDbEntity
  8
0
100
AcDbBlockBegin
  2
_D_4
 70
     0
 10
0.0
 20
0.0
 30
0.0
  3
_D_4
  1

  0
SOLID
  5
1CA
330
1C7
100
AcDbEntity
  8
VERMASSUNG
100
AcDbTrace
 10
203.1243928194
 20
127.1129214413
 30
0.0
 11
202.6743928194
 21
124.1129214413
 31
0.0
 12
203.5743928194
 22
124.1129214413
 32
0.0
 13
203.5743928194
 23
124.1129214413
 33
0.0
  0
SOLID
  5
1CB
330
1C7
100
AcDbEntity
  8
VERMASSUNG
100
AcDbTrace
 10
203.1243928194
 20
105.1129214413
 30
0.0
 11
203.5743928194
 21
108.1129214413
 31
0.0
 12
202.6743928194
 22
108.1129214413
 32
0.0
 13
202.6743928194
 23
108.1129214413
 33
0.0
  0
LINE
  5
1CC
330
1C7
100
AcDbEntity
  8
VERMASSUNG
100
AcDbLine
 10
194.503285307
 20
127.1129214413
 30
0.0
 11
204.1243928194
 21
127.1129214413
 31
0.0
  0
LINE
  5
1CD
330
1C7
100
AcDbEntity
  8
VERMASSUNG
100
AcDbLine
 10
194.503285307
 20
105.1129214413
 30
0.0
 11
204.1243928194
 21
105.1129214413
 31
0.0
  0
LINE
  5
1CE
330
1C7
100
AcDbEntity
  8
VERMASSUNG
100
AcDbLine
 10
203.1243928194
 20
127.1129214413
 30
0.0
 11
203.1243928194
 21
105.1129214413
 31
0.0
  0
MTEXT
  5
1CF
330
1C7
100
AcDbEntity
  8
VERMASSUNG
100
AcDbMText
 10
200.5462575145
 20
112.907921484
 30
0.0
 40
2.0
 41
0.0
 71
     1
 72
     1
  1
%%c
  7
SLDTEXTSTYLE0
 11
-7.044195017643634E-15
 21
1.0
 31
0.0
 73
     1
 44
1.0
  0
MTEXT
  5
1D0
330
1C7
100
AcDbEntity
  8
VERMASSUNG
100
AcDbMText
 10
200.3462575632
 20
116.5179214983
 30
0.0
 40
2.0
 41
0.0
 71
     1
 72
     1
  1
22
  7
SLDTEXTSTYLE0
 11
-7.044195017643634E-15
 21
1.0
 31
0.0
 73
     1
 44
1.0
  0
ENDBLK
  5
1C9
330
1C7
100
AcDbEntity
  8
0
100
AcDbBlockEnd
  0
BLOCK
  5
1D3
330
1D2
100
AcDbEntity
  8
0
100
AcDbBlockBegin
  2
_D_5
 70
     0
 10
0.0
 20
0.0
 30
0.0
  3
_D_5
  1

  0
SOLID
  5
1D5
330
1D2
100
AcDbEntity
  8
VERMASSUNG
100
AcDbTrace
 10
209.1243928194
 20
136.1129214413
 30
0.0
 11
208.6743928194
 21
133.1129214413
 31
0.0
 12
209.5743928194
 22
133.1129214413
 32
0.0
 13
209.5743928194
 23
133.1129214413
 33
0.0
  0
SOLID
  5
1D6
330
1D2
100
AcDbEntity
  8
VERMASSUNG
100
AcDbTrace
 10
209.1243928194
 20
96.1129214413
 30
0.0
 11
209.5743928194
 21
99.1129214413
 31
0.0
 12
208.6743928194
 22
99.1129214413
 32
0.0
 13
208.6743928194
 23
99.1129214413
 33
0.0
  0
LINE
  5
1D7
330
1D2
100
AcDbEntity
  8
VERMASSUNG
100
AcDbLine
 10
195.103285307
 20
136.1129214413
 30
0.0
 11
210.1243928194
 21
136.1129214413
 31
0.0
  0
LINE
  5
1D8
330
1D2
100
AcDbEntity
  8
VERMASSUNG
100
AcDbLine
 10
195.103285307
 20
96.1129214413
 30
0.0
 11
210.1243928194
 21
96.1129214413
 31
0.0
  0
LINE
  5
1D9
330
1D2
100
AcDbEntity
  8
VERMASSUNG
100
AcDbLine
 10
209.1243928194
 20
136.1129214413
 30
0.0
 11
209.1243928194
 21
96.1129214413
 31
0.0
  0
MTEXT
  5
1DA
330
1D2
100
AcDbEntity
  8
VERMASSUNG
100
AcDbMText
 10
206.3462575632
 20
110.9079216219
 30
0.0
 40
2.0
 41
0.0
 71
     1
 72
     1
  1
WH
  7
SLDTEXTSTYLE0
 11
-7.044195017643634E-15
 21
1.0
 31
0.0
 73
     1
 44
1.0
  0
MTEXT
  5
1DB
330
1D2
100
AcDbEntity
  8
VERMASSUNG
100
AcDbMText
 10
206.5462575145
 20
114.7079216859
 30
0.0
 40
2.0
 41
0.0
 71
     1
 72
     1
  1
%%c
  7
SLDTEXTSTYLE0
 11
-7.044195017643634E-15
 21
1.0
 31
0.0
 73
     1
 44
1.0
  0
MTEXT
  5
1DC
330
1D2
100
AcDbEntity
  8
VERMASSUNG
100
AcDbMText
 10
206.3462575632
 20
118.3179217003
 30
0.0
 40
2.0
 41
0.0
 71
     1
 72
     1
  1
40
  7
SLDTEXTSTYLE0
 11
-7.044195017643634E-15
 21
1.0
 31
0.0
 73
     1
 44
1.0
  0
ENDBLK
  5
1D4
330
1D2
100
AcDbEntity
  8
0
100
AcDbBlockEnd
  0
ENDSEC
  0
SECTION
  2
ENTITIES
  0
MTEXT
  5
78
330
1F
100
AcDbEntity
  8
KOPF_DÜNN
100
AcDbMText
 10
13.8892156294
 20
23.8442973028
 30
0.0
 40
3.0
 41
0.0
 71
     1
 72
     1
  1
A44.806.040.055
  7
SLDTEXTSTYLE0
 73
     1
 44
1.0
  0
MTEXT
  5
79
330
1F
100
AcDbEntity
  8
VERMASSUNG
100
AcDbMText
 10
13.9329988022
 20
28.8834360957
 30
0.0
 40
3.0
 41
0.0
 71
     1
 72
     1
  1
Aufnahme Master shank WH40
  7
SLDTEXTSTYLE0
 73
     1
 44
1.0
  0
MTEXT
  5
7A
330
1F
100
AcDbEntity
  8
VERMASSUNG
100
AcDbMText
 10
98.8601118557
 20
13.8365368761
 30
0.0
 40
2.0
 41
0.0
 71
     1
 72
     1
  1
Datum: 25.11.2011
  7
SLDTEXTSTYLE0
 73
     1
 44
1.0
  0
MTEXT
  5
7B
330
1F
100
AcDbEntity
  8
VERMASSUNG
100
AcDbMText
 10
13.933048693
 20
18.0482802738
 30
0.0
 40
2.0
 41
0.0
 71
     1
 72
     1
  1
DIN 69893
  7
SLDTEXTSTYLE0
 73
     1
 44
1.0
  0
MTEXT
  5
7C
330
1F
100
AcDbEntity
  8
VERMASSUNG
100
AcDbMText
 10
13.9808475933
 20
13.9090974274
 30
0.0
 40
2.0
 41
0.0
 71
     1
 72
     1
  1
Gewicht: 843g
  7
SLDTEXTSTYLE0
 73
     1
 44
1.0
  0
LINE
  5
7D
330
1F
100
AcDbEntity
  8
0
  6
Continuous
 62
     7
370
    15
100
AcDbLine
 10
188.0422323533
 20
135.8239743949
 30
0.0
 11
187.753285307
 21
136.1129214413
 31
0.0
  0
LINE
  5
7E
330
1F
100
AcDbEntity
  8
0
  6
Continuous
 62
     7
370
    15
100
AcDbLine
 10
179.153285307
 20
136.1129214413
 30
0.0
 11
178.863437753
 21
135.8230738873
 31
0.0
  0
LINE
  5
7F
330
1F
100
AcDbEntity
  8
0
  6
Continuous
 62
     7
370
    15
100
AcDbLine
 10
140.803285307
 20
84.6129214413
 30
0.0
 11
145.453285307
 21
84.6129214413
 31
0.0
  0
LINE
  5
80
330
1F
100
AcDbEntity
  8
0
  6
Continuous
 62
     7
370
    15
100
AcDbLine
 10
145.4812736661
 20
147.6129214413
 30
0.0
 11
140.803285307
 21
147.6129214413
 31
0.0
  0
ARC
  5
81
330
1F
100
AcDbEntity
  8
0
  6
Continuous
 62
     7
370
    15
100
AcDbCircle
 10
140.803285307
 20
84.9129214413
 30
0.0
 40
0.3000000000000114
100
AcDbArc
 50
180.0
 51
270.0
  0
ARC
  5
82
330
1F
100
AcDbEntity
  8
0
  6
Continuous
 62
     7
370
    15
100
AcDbCircle
 10
140.803285307
 20
147.3129214413
 30
0.0
 40
0.3000000000000114
100
AcDbArc
 50
90.0
 51
180.0
  0
ARC
  5
83
330
1F
100
AcDbEntity
  8
0
  6
Continuous
 62
     7
370
    15
100
AcDbCircle
 10
140.0032785543
 20
91.5424838269
 30
0.0
 40
0.6000067526677242
100
AcDbArc
 50
33.5571153394
 51
90.0
  0
ARC
  5
84
330
1F
100
AcDbEntity
  8
0
  6
Continuous
 62
     7
370
    15
100
AcDbCircle
 10
140.0032785543
 20
140.6833590557
 30
0.0
 40
0.6000067526677242
100
AcDbArc
 50
270.0
 51
326.4428846606
  0
LINE
  5
85
330
1F
100
AcDbEntity
  8
0
  6
Continuous
 62
     7
370
    15
100
AcDbLine
 10
138.503285307
 20
91.8924905795
 30
0.0
 11
139.3599980804
 21
92.1220460753
 31
0.0
  0
LINE
  5
86
330
1F
100
AcDbEntity
  8
0
  6
Continuous
 62
     7
370
    15
100
AcDbLine
 10
139.3599980804
 20
140.1037968072
 30
0.0
 11
138.503285307
 21
140.333352303
 31
0.0
  0
LINE
  5
87
330
1F
100
AcDbEntity
  8
0
  6
Continuous
 62
     7
370
    15
100
AcDbLine
 10
127.2717765082
 20
139.7706514614
 30
0.0
 11
114.703285307
 21
139.1409675335
 31
0.0
  0
LINE
  5
88
330
1F
100
AcDbEntity
  8
0
  6
Continuous
 62
     7
370
    15
100
AcDbLine
 10
138.503285307
 20
140.333352303
 30
0.0
 11
135.6862836496
 21
140.1922199554
 31
0.0
  0
LINE
  5
89
330
1F
100
AcDbEntity
  8
0
  6
Continuous
 62
     7
370
    15
100
AcDbLine
 10
135.6863397397
 20
92.033620117
 30
0.0
 11
138.503285307
 21
91.8924905795
 31
0.0
  0
LINE
  5
8A
330
1F
100
AcDbEntity
  8
0
  6
Continuous
 62
     7
370
    15
100
AcDbLine
 10
118.703285307
 20
92.8844745475
 30
0.0
 11
127.2721790268
 21
92.4551712549
 31
0.0
  0
ARC
  5
8B
330
1F
100
AcDbEntity
  8
0
  6
Continuous
 62
     7
370
    15
100
AcDbCircle
 10
139.5152895074
 20
91.5424905795
 30
0.0
 40
0.5999999999999943
100
AcDbArc
 50
90.0
 51
105.0
  0
ARC
  5
8C
330
1F
100
AcDbEntity
  8
0
  6
Continuous
 62
     7
370
    15
100
AcDbCircle
 10
139.5152895074
 20
140.683352303
 30
0.0
 40
0.5999999999999943
100
AcDbArc
 50
255.0
 51
270.0
  0
LINE
  5
8D
330
1F
100
AcDbEntity
  8
0
  6
Continuous
 62
     7
370
    15
100
AcDbLine
 10
139.5152895074
 20
92.1424905795
 30
0.0
 11
140.0032785543
 21
92.1424905795
 31
0.0
  0
LINE
  5
8E
330
1F
100
AcDbEntity
  8
0
  6
Continuous
 62
     7
370
    15
100
AcDbLine
 10
140.0032785543
 20
140.083352303
 30
0.0
 11
139.5152895074
 21
140.083352303
 31
0.0
  0
ARC
  5
8F
330
1F
100
AcDbEntity
  8
0
  6
Continuous
 62
     7
370
    15
100
AcDbCircle
 10
169.453285307
 20
93.1129214413
 30
0.0
 40
3.0
100
AcDbArc
 50
90.0
 51
180.0
  0
ARC
  5
90
330
1F
100
AcDbEntity
  8
0
  6
Continuous
 62
     7
370
    15
100
AcDbCircle
 10
169.453285307
 20
139.1129214413
 30
0.0
 40
3.0
100
AcDbArc
 50
180.0
 51
270.0
  0
LINE
  5
91
330
1F
100
AcDbEntity
  8
0
  6
Continuous
 62
     7
370
    15
100
AcDbLine
 10
177.4674605961
 20
136.1129214413
 30
0.0
 11
169.453285307
 21
136.1129214413
 31
0.0
  0
LINE
  5
92
330
1F
100
AcDbEntity
  8
0
  6
Continuous
 62
     7
370
    15
100
AcDbLine
 10
195.103285307
 20
136.1129214413
 30
0.0
 11
189.4531336258
 21
136.1129214413
 31
0.0
  0
LINE
  5
93
330
1F
100
AcDbEntity
  8
0
  6
Continuous
 62
     7
370
    15
100
AcDbLine
 10
169.453285307
 20
96.1129214413
 30
0.0
 11
195.103285307
 21
96.1129214413
 31
0.0
  0
LINE
  5
94
330
1F
100
AcDbEntity
  8
0
  6
Continuous
 62
     7
370
    15
100
AcDbLine
 10
195.103285307
 20
96.1129214413
 30
0.0
 11
195.503285307
 21
96.5129214413
 31
0.0
  0
LINE
  5
95
330
1F
100
AcDbEntity
  8
0
  6
Continuous
 62
     7
370
    15
100
AcDbLine
 10
195.503285307
 20
135.7129214413
 30
0.0
 11
195.103285307
 21
136.1129214413
 31
0.0
  0
LINE
  5
96
330
1F
100
AcDbEntity
  8
0
  6
Continuous
 62
     7
370
    15
100
AcDbLine
 10
109.886621947
 20
95.2429214413
 30
0.0
 11
117.303285307
 21
95.2429214413
 31
0.0
  0
ARC
  5
97
330
1F
100
AcDbEntity
  8
0
  6
Continuous
 62
     7
370
    15
100
AcDbCircle
 10
117.303285307
 20
93.8429214413
 30
0.0
 40
1.399999999999997
100
AcDbArc
 50
42.2465410162
 51
90.0
  0
LINE
  5
98
330
1F
100
AcDbEntity
  8
0
  6
Continuous
 62
     7
370
    15
100
AcDbLine
 10
108.6043178011
 20
96.3918889471
 30
0.0
 11
109.7444487652
 21
95.2517579831
 31
0.0
  0
LINE
  5
99
330
1F
100
AcDbEntity
  8
0
  6
Continuous
 62
     7
370
    15
100
AcDbLine
 10
109.7444487652
 20
136.9740848994
 30
0.0
 11
108.6131860804
 21
135.8428222146
 31
0.0
  0
ARC
  5
9A
330
1F
100
AcDbEntity
  8
0
  6
Continuous
 62
     7
370
    15
100
AcDbCircle
 10
113.303285307
 20
138.3829214413
 30
0.0
 40
1.400000000000006
100
AcDbArc
 50
270.0
 51
301.7485287426
  0
LINE
  5
9B
330
1F
100
AcDbEntity
  8
0
  6
Continuous
 62
     7
370
    15
100
AcDbLine
 10
113.303285307
 20
136.9829214413
 30
0.0
 11
109.8775510409
 21
136.9829214413
 31
0.0
  0
SPLINE
  5
9C
330
1F
100
AcDbEntity
  8
0
  6
Continuous
 62
     7
370
    15
100
AcDbSpline
210
0.0
220
0.0
230
1.0
 70
    24
 71
     3
 72
    11
 73
     7
 74
     0
 42
0.000000001
 43
0.00000001
 40
0.0
 40
0.0
 40
0.0
 40
0.0
 40
0.2164543009644954
 40
0.4403089937225387
 40
0.7518987489759498
 40
1.0
 40
1.0
 40
1.0
 40
1.0
 10
181.4752764954235
 20
114.0103481429672
 30
0.0
 10
181.6677554529409
 20
113.9650199644299
 30
0.0
 10
182.0592940627981
 20
113.8728138747837
 30
0.0
 10
182.7858868234942
 20
113.7017036048323
 30
0.0
 10
183.5652916771109
 20
113.5181562560037
 30
0.0
 10
184.064065197651
 20
113.4006966880576
 30
0.0
 10
184.2851627908509
 20
113.3486289124004
 30
0.0
  0
SPLINE
  5
9D
330
1F
100
AcDbEntity
  8
0
  6
Continuous
 62
     7
370
    15
100
AcDbSpline
210
0.0
220
0.0
230
1.0
 70
    24
 71
     3
 72
    11
 73
     7
 74
     0
 42
0.000000001
 43
0.00000001
 40
0.0
 40
0.0
 40
0.0
 40
0.0
 40
0.1849308168246174
 40
0.5198464202157792
 40
0.8714438233692648
 40
0.9999999999999999
 40
0.9999999999999999
 40
0.9999999999999999
 40
0.9999999999999999
 10
184.2851627908509
 20
113.3486289124004
 30
0.0
 10
184.4002925684796
 20
113.4710089517951
 30
0.0
 10
184.7239260428143
 20
113.8150231430348
 30
0.0
 10
185.3280497255744
 20
114.4571913259175
 30
0.0
 10
185.8859826642868
 20
115.0502599170815
 30
0.0
 10
186.1835113583573
 20
115.3665253876779
 30
0.0
 10
186.2631716024084
 20
115.4512022107028
 30
0.0
  0
SPLINE
  5
9E
330
1F
100
AcDbEntity
  8
0
  6
Continuous
 62
     7
370
    15
100
AcDbSpline
210
0.0
220
0.0
230
1.0
 70
    24
 71
     3
 72
    11
 73
     7
 74
     0
 42
0.000000001
 43
0.00000001
 40
0.0
 40
0.0
 40
0.0
 40
0.0
 40
0.2164543009645232
 40
0.4403089937225239
 40
0.7518987489759633
 40
1.0
 40
1.0
 40
1.0
 40
1.0
 10
186.2631716024084
 20
115.4512022107028
 30
0.0
 10
186.2061874777703
 20
115.6405579668755
 30
0.0
 10
186.0902709888589
 20
116.0257433943975
 30
0.0
 10
185.8751604491372
 20
116.7405463183419
 30
0.0
 10
185.6444146892115
 20
117.5073043958211
 30
0.0
 10
185.4967508987006
 20
117.9979847193169
 30
0.0
 10
185.4312941185382
 20
118.2154947395723
 30
0.0
  0
SPLINE
  5
9F
330
1F
100
AcDbEntity
  8
0
  6
Continuous
 62
     7
370
    15
100
AcDbSpline
210
0.0
220
0.0
230
1.0
 70
    24
 71
     3
 72
    11
 73
     7
 74
     0
 42
0.000000001
 43
0.00000001
 40
0.0
 40
0.0
 40
0.0
 40
0.0
 40
0.2164543009644996
 40
0.4403089937225389
 40
0.7518987489759327
 40
0.9999999999999999
 40
0.9999999999999999
 40
0.9999999999999999
 40
0.9999999999999999
 10
185.4312941185382
 20
118.2154947395723
 30
0.0
 10
185.2388151610208
 20
118.2608229181096
 30
0.0
 10
184.8472765511636
 20
118.3530290077558
 30
0.0
 10
184.1206837904675
 20
118.5241392777073
 30
0.0
 10
183.3412789368507
 20
118.7076866265358
 30
0.0
 10
182.8425054163107
 20
118.825146194482
 30
0.0
 10
182.6214078231107
 20
118.8772139701392
 30
0.0
  0
SPLINE
  5
A0
330
1F
100
AcDbEntity
  8
0
  6
Continuous
 62
     7
370
    15
100
AcDbSpline
210
0.0
220
0.0
230
1.0
 70
    24
 71
     3
 72
    11
 73
     7
 74
     0
 42
0.000000001
 43
0.00000001
 40
0.0
 40
0.0
 40
0.0
 40
0.0
 40
0.1285561766307394
 40
0.4801535797842298
 40
0.8150691831753929
 40
1.0
 40
1.0
 40
1.0
 40
1.0
 10
182.6214078231107
 20
118.8772139701392
 30
0.0
 10
182.5417475790596
 20
118.7925371471143
 30
0.0
 10
182.2442188849893
 20
118.4762716765178
 30
0.0
 10
181.6862859462768
 20
117.8832030853538
 30
0.0
 10
181.0821622635166
 20
117.2410349024711
 30
0.0
 10
180.758528789182
 20
116.8970207112314
 30
0.0
 10
180.6433990115534
 20
116.7746406718367
 30
0.0
  0
CIRCLE
  5
A1
330
1F
100
AcDbEntity
  8
0
  6
Continuous
 62
     7
370
    15
100
AcDbCircle
 10
183.453285307
 20
116.1129214413
 30
0.0
 40
3.000000000000002
  0
SPLINE
  5
A2
330
1F
100
AcDbEntity
  8
0
  6
Continuous
 62
     7
370
    15
100
AcDbSpline
210
0.0
220
0.0
230
1.0
 70
    24
 71
     3
 72
    11
 73
     7
 74
     0
 42
0.000000001
 43
0.00000001
 40
0.0
 40
0.0
 40
0.0
 40
0.0
 40
0.2164543009645234
 40
0.4403089937225443
 40
0.7518987489759371
 40
1.0
 40
1.0
 40
1.0
 40
1.0
 10
180.6433990115534
 20
116.7746406718367
 30
0.0
 10
180.7003831361915
 20
116.585284915664
 30
0.0
 10
180.8162996251028
 20
116.2000994881421
 30
0.0
 10
181.0314101648245
 20
115.4852965641977
 30
0.0
 10
181.26215592475
 20
114.7185384867184
 30
0.0
 10
181.4098197152611
 20
114.2278581632227
 30
0.0
 10
181.4752764954235
 20
114.0103481429672
 30
0.0
  0
CIRCLE
  5
A3
330
1F
100
AcDbEntity
  8
0
  6
Continuous
 62
     7
370
    15
100
AcDbCircle
 10
183.453285307
 20
116.1129214413
 30
0.0
 40
5.000000000000014
  0
CIRCLE
  5
A4
330
1F
100
AcDbEntity
  8
0
  6
Continuous
 62
     7
370
    15
100
AcDbCircle
 10
183.453285307
 20
116.1129214413
 30
0.0
 40
4.300000000000001
  0
ARC
  5
A5
330
1F
100
AcDbEntity
  8
0
  6
Continuous
 62
     7
370
    15
100
AcDbCircle
 10
183.453285307
 20
116.1129214413
 30
0.0
 40
2.500000000000032
100
AcDbArc
 50
256.7484769442
 51
316.7484769442
  0
ARC
  5
A6
330
1F
100
AcDbEntity
  8
0
  6
Continuous
 62
     7
370
    15
100
AcDbCircle
 10
183.453285307
 20
116.1129214413
 30
0.0
 40
2.500000000000032
100
AcDbArc
 50
316.7484769442
 51
16.7484769442
  0
ARC
  5
A7
330
1F
100
AcDbEntity
  8
0
  6
Continuous
 62
     7
370
    15
100
AcDbCircle
 10
183.453285307
 20
116.1129214413
 30
0.0
 40
2.500000000000023
100
AcDbArc
 50
196.7484769442
 51
256.7484769442
  0
ARC
  5
A8
330
1F
100
AcDbEntity
  8
0
  6
Continuous
 62
     7
370
    15
100
AcDbCircle
 10
183.453285307
 20
116.1129214413
 30
0.0
 40
2.500000000000023
100
AcDbArc
 50
136.7484769442
 51
196.7484769442
  0
ARC
  5
A9
330
1F
100
AcDbEntity
  8
0
  6
Continuous
 62
     7
370
    15
100
AcDbCircle
 10
183.453285307
 20
116.1129214413
 30
0.0
 40
2.500000000000007
100
AcDbArc
 50
16.7484769442
 51
76.7484769442
  0
ARC
  5
AA
330
1F
100
AcDbEntity
  8
0
  6
Continuous
 62
     7
370
    15
100
AcDbCircle
 10
183.453285307
 20
116.1129214413
 30
0.0
 40
2.500000000000012
100
AcDbArc
 50
76.7484769442
 51
136.7484769442
  0
LINE
  5
AB
330
1F
100
AcDbEntity
  8
0
  6
Continuous
 62
     7
370
    15
100
AcDbLine
 10
182.7359937851
 20
135.4129214413
 30
0.0
 11
184.1151013287
 21
135.4129214413
 31
0.0
  0
LINE
  5
AC
330
1F
100
AcDbEntity
  8
0
  6
Continuous
 62
     7
370
    15
100
AcDbLine
 10
179.153285307
 20
136.1129214413
 30
0.0
 11
187.753285307
 21
136.1129214413
 31
0.0
  0
LINE
  5
AD
330
1F
100
AcDbEntity
  8
0
  6
Continuous
 62
     7
370
    15
100
AcDbLine
 10
145.453285307
 20
135.9629214413
 30
0.0
 11
155.1113524755
 21
135.9629214413
 31
0.0
  0
LINE
  5
AE
330
1F
100
AcDbEntity
  8
0
  6
Continuous
 62
     7
370
    15
100
AcDbLine
 10
155.1113524755
 20
85.926003745
 30
0.0
 11
155.1113524755
 21
135.9629214413
 31
0.0
  0
LINE
  5
AF
330
1F
100
AcDbEntity
  8
0
  6
Continuous
 62
     7
370
    15
100
AcDbLine
 10
155.1113524755
 20
85.926003745
 30
0.0
 11
153.453285307
 21
85.926003745
 31
0.0
  0
SPLINE
  5
B0
330
1F
100
AcDbEntity
  8
0
  6
Continuous
 62
     7
370
    15
100
AcDbSpline
210
0.0
220
0.0
230
1.0
 70
     8
 71
     3
 72
    28
 73
    24
 74
     0
 42
0.000000001
 43
0.00000001
 40
0.0
 40
0.0
 40
0.0
 40
0.0
 40
0.1250000000000001
 40
0.1250000000000001
 40
0.1875000000000001
 40
0.1875000000000001
 40
0.2500000000000001
 40
0.2500000000000001
 40
0.3749999999999999
 40
0.3749999999999999
 40
0.4375
 40
0.4375
 40
0.4999999999999999
 40
0.4999999999999999
 40
0.6249999999999999
 40
0.6249999999999999
 40
0.7499999999999997
 40
0.7499999999999997
 40
0.8124999999999998
 40
0.8124999999999998
 40
0.8749999999999998
 40
0.8749999999999998
 40
1.0
 40
1.0
 40
1.0
 40
1.0
 10
153.4532853069808
 20
85.92600374502263
 30
0.0
 10
152.9215775494879
 20
85.92600374502263
 30
0.0
 10
152.3993389841775
 20
85.91021903107242
 30
0.0
 10
151.6294684979025
 20
85.86522361699622
 30
0.0
 10
151.3751089257112
 20
85.84666862192047
 30
0.0
 10
150.8709873450127
 20
85.80281589947397
 30
0.0
 10
150.6212645275848
 20
85.77747129252178
 30
0.0
 10
149.8956745761383
 20
85.69406921477169
 30
0.0
 10
149.4373143145568
 20
85.6282036556206
 30
0.0
 10
148.7868163711629
 20
85.5192333151288
 30
0.0
 10
148.5751343203705
 20
85.48099367936216
 30
0.0
 10
148.1710628312325
 20
85.4032349419428
 30
0.0
 10
147.9785563174116
 20
85.36373397976743
 30
0.0
 10
147.4287213463903
 20
85.24482623740144
 30
0.0
 10
147.0987925680815
 20
85.16500855597684
 30
0.0
 10
146.5143212995128
 20
85.01166539418077
 30
0.0
 10
146.2680441614994
 20
84.94033164091152
 30
0.0
 10
145.9682013688013
 20
84.8463881338369
 30
0.0
 10
145.8797445117292
 20
84.81719434047696
 30
0.0
 10
145.726383158424
 20
84.76372776621355
 30
0.0
 10
145.6612949441978
 20
84.73936843193837
 30
0.0
 10
145.505700928257
 20
84.67577828649364
 30
0.0
 10
145.4532853069808
 20
84.64567535140438
 30
0.0
 10
145.4532853069808
 20
84.62879845840746
 30
0.0
  0
LINE
  5
B1
330
1F
100
AcDbEntity
  8
0
  6
Continuous
 62
     7
370
    15
100
AcDbLine
 10
145.453285307
 20
84.6287984584
 30
0.0
 11
145.453285307
 21
84.6129214413
 31
0.0
  0
SPLINE
  5
B2
330
1F
100
AcDbEntity
  8
0
  6
Continuous
 62
     7
370
    15
100
AcDbSpline
210
0.0
220
0.0
230
1.0
 70
     8
 71
     3
 72
    17
 73
    13
 74
     0
 42
0.000000001
 43
0.00000001
 40
0.0
 40
0.0
 40
0.0
 40
0.0
 40
0.1034796923964056
 40
0.210023918880785
 40
0.3134862136955583
 40
0.4198361274354882
 40
0.5254127712915682
 40
0.633961069541979
 40
0.7409508756305031
 40
0.8511696089308174
 40
0.9558996534551937
 40
1.0
 40
1.0
 40
1.0
 40
1.0
 10
153.4532853069808
 20
146.580116914434
 30
0.0
 10
153.0180369578708
 20
146.5855651109674
 30
0.0
 10
152.1346504513058
 20
146.5966228514792
 30
0.0
 10
150.8538228660771
 20
146.6829812443808
 30
0.0
 10
149.6364063302031
 20
146.8108514209185
 30
0.0
 10
148.5286004779566
 20
146.9697967195117
 30
0.0
 10
147.5403616740083
 20
147.1442904072273
 30
0.0
 10
146.7156381164768
 20
147.3134562578671
 30
0.0
 10
146.0666846158175
 20
147.4613400403955
 30
0.0
 10
145.6496498003558
 20
147.5631306246263
 30
0.0
 10
145.4510530873912
 20
147.6134821472294
 30
0.0
 10
145.4743658088245
 20
147.6075764630071
 30
0.0
 10
145.4812736660621
 20
147.6058265333125
 30
0.0
  0
LINE
  5
B3
330
1F
100
AcDbEntity
  8
0
  6
Continuous
 62
     7
370
    15
100
AcDbLine
 10
155.1113524755
 20
146.5801169144
 30
0.0
 11
153.453285307
 21
146.5801169144
 31
0.0
  0
LINE
  5
B4
330
1F
100
AcDbEntity
  8
0
  6
Continuous
 62
     7
370
    15
100
AcDbLine
 10
155.1113524755
 20
140.5716111036
 30
0.0
 11
155.1113524755
 21
146.5801169144
 31
0.0
  0
LINE
  5
B5
330
1F
100
AcDbEntity
  8
0
  6
Continuous
 62
     7
370
    15
100
AcDbLine
 10
152.6989056527
 20
140.5716111036
 30
0.0
 11
155.1113524755
 21
140.5716111036
 31
0.0
  0
SPLINE
  5
B6
330
1F
100
AcDbEntity
  8
0
  6
Continuous
 62
     7
370
    15
100
AcDbSpline
210
0.0
220
0.0
230
1.0
 70
     8
 71
     3
 72
    20
 73
    16
 74
     0
 42
0.000000001
 43
0.00000001
 40
0.0
 40
0.0
 40
0.0
 40
0.0
 40
0.2499999999999997
 40
0.2499999999999997
 40
0.3749999999999997
 40
0.3749999999999997
 40
0.4999999999999998
 40
0.4999999999999998
 40
0.6249999999999998
 40
0.6249999999999998
 40
0.7499999999999999
 40
0.7499999999999999
 40
0.8749999999999999
 40
0.8749999999999999
 40
1.0
 40
1.0
 40
1.0
 40
1.0
 10
145.4532853069808
 20
135.9629214412698
 30
0.0
 10
145.7016590412689
 20
136.6167838695672
 30
0.0
 10
146.0212291336141
 20
137.2205696515643
 30
0.0
 10
146.6435353668188
 20
138.0474083877329
 30
0.0
 10
146.8749596272496
 20
138.3098370256859
 30
0.0
 10
147.3961739668993
 20
138.8064996797908
 30
0.0
 10
147.6827944495344
 20
139.0370865588123
 30
0.0
 10
148.302279190842
 20
139.453640783395
 30
0.0
 10
148.6365795703289
 20
139.6411385853625
 30
0.0
 10
149.3618400429537
 20
139.9725355629989
 30
0.0
 10
149.7437551003442
 20
140.1120395504942
 30
0.0
 10
150.5385432765159
 20
140.3374930579651
 30
0.0
 10
150.9527014707223
 20
140.4241191695088
 30
0.0
 10
151.8182478113036
 20
140.5420999583629
 30
0.0
 10
152.2561354263155
 20
140.5716111036373
 30
0.0
 10
152.6989056526701
 20
140.5716111036373
 30
0.0
  0
LINE
  5
B7
330
1F
100
AcDbEntity
  8
0
  6
Continuous
 62
     7
370
    15
100
AcDbLine
 10
140.503285307
 20
84.9129214413
 30
0.0
 11
140.503285307
 21
147.3129214379
 31
0.0
  0
LINE
  5
B8
330
1F
100
AcDbEntity
  8
0
  6
Continuous
 62
     7
370
    15
100
AcDbLine
 10
156.593285307
 20
88.6150842822
 30
0.0
 11
156.593285307
 21
135.9629214413
 31
0.0
  0
SPLINE
  5
B9
330
1F
100
AcDbEntity
  8
0
  6
Continuous
 62
     7
370
    15
100
AcDbSpline
210
0.0
220
0.0
230
1.0
 70
     8
 71
     3
 72
     8
 73
     4
 74
     0
 42
0.000000001
 43
0.00000001
 40
0.0
 40
0.0
 40
0.0
 40
0.0
 40
1.0
 40
1.0
 40
1.0
 40
1.0
 10
156.5932853069808
 20
88.61508428221492
 30
0.0
 10
156.1009461841996
 20
87.71781424800822
 30
0.0
 10
155.6068321361575
 20
86.82152983295599
 30
0.0
 10
155.1113524754918
 20
85.92600374502263
 30
0.0
  0
SPLINE
  5
BA
330
1F
100
AcDbEntity
  8
0
  6
Continuous
 62
     7
370
    15
100
AcDbSpline
210
0.0
220
0.0
230
1.0
 70
    24
 71
     3
 72
     8
 73
     4
 74
     0
 42
0.000000001
 43
0.00000001
 40
0.0
 40
0.0
 40
0.0
 40
0.0
 40
1.0
 40
1.0
 40
1.0
 40
1.0
 10
155.1113524754917
 20
135.9629214412698
 30
0.0
 10
155.6180325836423
 20
135.9629214412698
 30
0.0
 10
156.1133333126159
 20
135.9629214412698
 30
0.0
 10
156.5932853069808
 20
135.9629214412698
 30
0.0
  0
LINE
  5
BB
330
1F
100
AcDbEntity
  8
0
  6
Continuous
 62
     7
370
    15
100
AcDbLine
 10
166.453285307
 20
86.5526440407
 30
0.0
 11
166.453285307
 21
135.9629214413
 31
0.0
  0
SPLINE
  5
BC
330
1F
100
AcDbEntity
  8
0
  6
Continuous
 62
     7
370
    15
100
AcDbSpline
210
0.0
220
0.0
230
1.0
 70
     8
 71
     3
 72
    10
 73
     6
 74
     0
 42
0.000000001
 43
0.00000001
 40
0.0
 40
0.0
 40
0.0
 40
0.0
 40
0.5
 40
0.5
 40
1.0
 40
1.0
 40
1.0
 40
1.0
 10
166.4532853069808
 20
86.55264404067695
 30
0.0
 10
166.4532853069808
 20
86.39275677248328
 30
0.0
 10
166.391975655745
 20
86.2316295169687
 30
0.0
 10
166.1728760182099
 20
85.99753051861386
 30
0.0
 10
166.0148278118964
 20
85.92600374502263
 30
0.0
 10
165.8532853069808
 20
85.92600374502263
 30
0.0
  0
SPLINE
  5
BD
330
1F
100
AcDbEntity
  8
0
  6
Continuous
 62
     7
370
    15
100
AcDbSpline
210
0.0
220
0.0
230
1.0
 70
    24
 71
     3
 72
    12
 73
     8
 74
     0
 42
0.000000001
 43
0.00000001
 40
0.0
 40
0.0
 40
0.0
 40
0.0
 40
0.2500000000000033
 40
0.2500000000000033
 40
0.5000000000000067
 40
0.5000000000000067
 40
1.0
 40
1.0
 40
1.0
 40
1.0
 10
165.8532853069808
 20
135.9629214412698
 30
0.0
 10
165.9435243746679
 20
135.9629214412698
 30
0.0
 10
166.0344224887743
 20
135.9629214412698
 30
0.0
 10
166.1890195252629
 20
135.9629214412698
 30
0.0
 10
166.253997941371
 20
135.9629214412698
 30
0.0
 10
166.4058329693072
 20
135.9629214412698
 30
0.0
 10
166.4532853069808
 20
135.9629214412698
 30
0.0
 10
166.4532853069808
 20
135.9629214412698
 30
0.0
  0
LINE
  5
BE
330
1F
100
AcDbEntity
  8
0
  6
Continuous
 62
     7
370
    15
100
AcDbLine
 10
165.853285307
 20
85.926003745
 30
0.0
 11
161.8952181385
 21
85.926003745
 31
0.0
  0
LINE
  5
BF
330
1F
100
AcDbEntity
  8
0
  6
Continuous
 62
     7
370
    15
100
AcDbLine
 10
161.8952181385
 20
85.926003745
 30
0.0
 11
161.8952181385
 21
135.9629214413
 31
0.0
  0
LINE
  5
C0
330
1F
100
AcDbEntity
  8
0
  6
Continuous
 62
     7
370
    15
100
AcDbLine
 10
161.8952181385
 20
135.9629214413
 30
0.0
 11
165.853285307
 21
135.9629214413
 31
0.0
  0
SPLINE
  5
C1
330
1F
100
AcDbEntity
  8
0
  6
Continuous
 62
     7
370
    15
100
AcDbSpline
210
0.0
220
0.0
230
1.0
 70
     8
 71
     3
 72
     8
 73
     4
 74
     0
 42
0.000000001
 43
0.00000001
 40
0.0
 40
0.0
 40
0.0
 40
0.0
 40
1.0
 40
1.0
 40
1.0
 40
1.0
 10
161.8952181384699
 20
85.92600374502263
 30
0.0
 10
161.3997384778041
 20
86.82152983295599
 30
0.0
 10
160.905624429762
 20
87.71781424800822
 30
0.0
 10
160.4132853069808
 20
88.61508428221492
 30
0.0
  0
LINE
  5
C2
330
1F
100
AcDbEntity
  8
0
  6
Continuous
 62
     7
370
    15
100
AcDbLine
 10
160.413285307
 20
88.6150842822
 30
0.0
 11
160.413285307
 21
135.9629214413
 31
0.0
  0
SPLINE
  5
C3
330
1F
100
AcDbEntity
  8
0
  6
Continuous
 62
     7
370
    15
100
AcDbSpline
210
0.0
220
0.0
230
1.0
 70
    24
 71
     3
 72
     8
 73
     4
 74
     0
 42
0.000000001
 43
0.00000001
 40
0.0
 40
0.0
 40
0.0
 40
0.0
 40
1.0
 40
1.0
 40
1.0
 40
1.0
 10
160.4132853069808
 20
135.9629214412698
 30
0.0
 10
160.8932373013457
 20
135.9629214412698
 30
0.0
 10
161.3885380303193
 20
135.9629214412698
 30
0.0
 10
161.8952181384699
 20
135.9629214412698
 30
0.0
  0
SPLINE
  5
C4
330
1F
100
AcDbEntity
  8
0
  6
Continuous
 62
     7
370
    15
100
AcDbSpline
210
0.0
220
0.0
230
1.0
 70
     8
 71
     3
 72
    10
 73
     6
 74
     0
 42
0.000000001
 43
0.00000001
 40
0.0
 40
0.0
 40
0.0
 40
0.0
 40
0.5
 40
0.5
 40
1.0
 40
1.0
 40
1.0
 40
1.0
 10
156.9875828386718
 20
142.5129214412698
 30
0.0
 10
156.8660425750033
 20
142.5876476084815
 30
0.0
 10
156.7647082146543
 20
142.6965926243983
 30
0.0
 10
156.6290692717659
 20
142.9470231051599
 30
0.0
 10
156.5932853069808
 20
143.0894424672589
 30
0.0
 10
156.5932853069808
 20
143.2325752923056
 30
0.0
  0
SPLINE
  5
C5
330
1F
100
AcDbEntity
  8
0
  6
Continuous
 62
     7
370
    15
100
AcDbSpline
210
0.0
220
0.0
230
1.0
 70
    24
 71
     3
 72
    12
 73
     8
 74
     0
 42
0.000000001
 43
0.00000001
 40
0.0
 40
0.0
 40
0.0
 40
0.0
 40
0.2500000000000046
 40
0.2500000000000046
 40
0.5000000000000091
 40
0.5000000000000091
 40
1.0
 40
1.0
 40
1.0
 40
1.0
 10
157.3932853069808
 20
142.5129214412698
 30
0.0
 10
157.3434086246633
 20
142.5129214412698
 30
0.0
 10
157.2954054312598
 20
142.5129214412698
 30
0.0
 10
157.2123573285478
 20
142.5129214412698
 30
0.0
 10
157.1762277490799
 20
142.5129214412698
 30
0.0
 10
157.0803157181357
 20
142.5129214412698
 30
0.0
 10
157.0305570501669
 20
142.5129214412698
 30
0.0
 10
156.9875828386718
 20
142.5129214412698
 30
0.0
  0
SPLINE
  5
C6
330
1F
100
AcDbEntity
  8
0
  6
Continuous
 62
     7
370
    15
100
AcDbSpline
210
0.0
220
0.0
230
1.0
 70
    24
 71
     3
 72
    14
 73
    10
 74
     0
 42
0.000000001
 43
0.00000001
 40
0.0
 40
0.0
 40
0.0
 40
0.0
 40
0.1249999999999991
 40
0.1249999999999991
 40
0.2499999999999982
 40
0.2499999999999982
 40
0.4999999999999998
 40
0.4999999999999998
 40
1.0
 40
1.0
 40
1.0
 40
1.0
 10
157.3932853069808
 20
89.7129214412698
 30
0.0
 10
157.3248474590943
 20
89.7129214412698
 30
0.0
 10
157.2592974203293
 20
89.7129214412698
 30
0.0
 10
157.1548707809214
 20
89.7129214412698
 30
0.0
 10
157.1123261711599
 20
89.7129214412698
 30
0.0
 10
156.9997167106197
 20
89.71292144126978
 30
0.0
 10
156.9441776636002
 20
89.7129214412698
 30
0.0
 10
156.8015659681364
 20
89.71292144126978
 30
0.0
 10
156.7381606131406
 20
89.71292144126978
 30
0.0
 10
156.6909601093131
 20
89.7129214412698
 30
0.0
  0
SPLINE
  5
C7
330
1F
100
AcDbEntity
  8
0
  6
Continuous
 62
     7
370
    15
100
AcDbSpline
210
0.0
220
0.0
230
1.0
 70
     8
 71
     3
 72
    10
 73
     6
 74
     0
 42
0.000000001
 43
0.00000001
 40
0.0
 40
0.0
 40
0.0
 40
0.0
 40
0.5
 40
0.5
 40
1.0
 40
1.0
 40
1.0
 40
1.0
 10
156.5932853069808
 20
136.2487880727312
 30
0.0
 10
156.5932853069808
 20
136.2010165647379
 30
0.0
 10
156.5954465505779
 20
136.1533068426762
 30
0.0
 10
156.6041179244381
 20
136.0580117251279
 30
0.0
 10
156.6106471073941
 20
136.0103191611613
 30
0.0
 10
156.6194329301409
 20
135.9629214412698
 30
0.0
  0
SPLINE
  5
C8
330
1F
100
AcDbEntity
  8
0
  6
Continuous
 62
     7
370
    15
100
AcDbSpline
210
0.0
220
0.0
230
1.0
 70
    24
 71
     3
 72
    14
 73
    10
 74
     0
 42
0.000000001
 43
0.00000001
 40
0.0
 40
0.0
 40
0.0
 40
0.0
 40
0.5000000000000022
 40
0.5000000000000022
 40
0.7500000000000008
 40
0.7500000000000008
 40
0.8750000000000004
 40
0.8750000000000004
 40
1.0
 40
1.0
 40
1.0
 40
1.0
 10
160.3156105046485
 20
89.7129214412698
 30
0.0
 10
160.2684003454187
 20
89.71292144126978
 30
0.0
 10
160.2051658718751
 20
89.7129214412698
 30
0.0
 10
160.0613539411472
 20
89.7129214412698
 30
0.0
 10
160.0060288666707
 20
89.7129214412698
 30
0.0
 10
159.8941176934357
 20
89.7129214412698
 30
0.0
 10
159.8513306069947
 20
89.7129214412698
 30
0.0
 10
159.7469652739611
 20
89.71292144126978
 30
0.0
 10
159.6827414796593
 20
89.71292144126978
 30
0.0
 10
159.6132853070363
 20
89.7129214412698
 30
0.0
  0
SPLINE
  5
C9
330
1F
100
AcDbEntity
  8
0
  6
Continuous
 62
     7
370
    15
100
AcDbSpline
210
0.0
220
0.0
230
1.0
 70
    24
 71
     3
 72
    12
 73
     8
 74
     0
 42
0.000000001
 43
0.00000001
 40
0.0
 40
0.0
 40
0.0
 40
0.0
 40
0.4999999999999983
 40
0.4999999999999983
 40
0.7499999999999991
 40
0.7499999999999991
 40
1.0
 40
1.0
 40
1.0
 40
1.0
 10
160.01898777529
 20
142.5129214412698
 30
0.0
 10
159.9755495874871
 20
142.5129214412698
 30
0.0
 10
159.9263553391891
 20
142.5129214412698
 30
0.0
 10
159.829636581808
 20
142.5129214412698
 30
0.0
 10
159.7934491003064
 20
142.5129214412698
 30
0.0
 10
159.7105712417816
 20
142.5129214412698
 30
0.0
 10
159.6626177944749
 20
142.5129214412698
 30
0.0
 10
159.6132853069808
 20
142.5129214412698
 30
0.0
  0
SPLINE
  5
CA
330
1F
100
AcDbEntity
  8
0
  6
Continuous
 62
     7
370
    15
100
AcDbSpline
210
0.0
220
0.0
230
1.0
 70
     8
 71
     3
 72
    10
 73
     6
 74
     0
 42
0.000000001
 43
0.00000001
 40
0.0
 40
0.0
 40
0.0
 40
0.0
 40
0.5
 40
0.5
 40
1.0
 40
1.0
 40
1.0
 40
1.0
 10
160.4132853069808
 20
143.2325752923056
 30
0.0
 10
160.4132853069808
 20
143.0888052344878
 30
0.0
 10
160.377236248262
 20
142.9463858719928
 30
0.0
 10
160.2417273874884
 20
142.6964915786359
 30
0.0
 10
160.1418513943926
 20
142.5884612423878
 30
0.0
 10
160.0189877752909
 20
142.5129214412704
 30
0.0
  0
SPLINE
  5
CB
330
1F
100
AcDbEntity
  8
0
  6
Continuous
 62
     7
370
    15
100
AcDbSpline
210
0.0
220
0.0
230
1.0
 70
     8
 71
     3
 72
     9
 73
     5
 74
     0
 42
0.000000001
 43
0.00000001
 40
0.0
 40
0.0
 40
0.0
 40
0.0
 40
0.5
 40
1.0
 40
1.0
 40
1.0
 40
1.0
 10
160.3871376838207
 20
135.9629214412698
 30
0.0
 10
160.395876253703
 20
136.0100642416052
 30
0.0
 10
160.4088955400394
 20
136.1048603232757
 30
0.0
 10
160.4132853069808
 20
136.2006445948361
 30
0.0
 10
160.4132853069808
 20
136.2487880727312
 30
0.0
  0
LINE
  5
CC
330
1F
100
AcDbEntity
  8
0
  6
Continuous
 62
     7
370
    15
100
AcDbLine
 10
159.613285307
 20
142.5129214413
 30
0.0
 11
157.393285307
 21
142.5129214413
 31
0.0
  0
LINE
  5
CD
330
1F
100
AcDbEntity
  8
0
  6
Continuous
 62
     7
370
    15
100
AcDbLine
 10
159.613285307
 20
89.7129214413
 30
0.0
 11
157.393285307
 21
89.7129214413
 31
0.0
  0
LINE
  5
CE
330
1F
100
AcDbEntity
  8
0
  6
Continuous
 62
     7
370
    15
100
AcDbLine
 10
138.503285307
 20
91.8924905795
 30
0.0
 11
138.503285307
 21
140.333352303
 31
0.0
  0
LINE
  5
CF
330
1F
100
AcDbEntity
  8
0
  6
Continuous
 62
     7
370
    15
100
AcDbLine
 10
118.703285307
 20
92.8844745475
 30
0.0
 11
118.703285307
 21
94.1491839101
 31
0.0
  0
SPLINE
  5
D0
330
1F
100
AcDbEntity
  8
0
  6
Continuous
 62
     7
370
    15
100
AcDbSpline
210
0.0
220
0.0
230
1.0
 70
     8
 71
     3
 72
    14
 73
    10
 74
     0
 42
0.000000001
 43
0.00000001
 40
0.0
 40
0.0
 40
0.0
 40
0.0
 40
0.25
 40
0.25
 40
0.5
 40
0.5
 40
0.75
 40
0.75
 40
1.0
 40
1.0
 40
1.0
 40
1.0
 10
117.9249981890651
 20
95.27977011770984
 30
0.0
 10
117.9816248642672
 20
95.17207266387298
 30
0.0
 10
118.0761475245569
 20
95.06928308215366
 30
0.0
 10
118.2591925001191
 20
94.87092576993352
 30
0.0
 10
118.3508190770738
 20
94.77486626125527
 30
0.0
 10
118.5096723947671
 20
94.58733721854603
 30
0.0
 10
118.5775630023888
 20
94.49592824576247
 30
0.0
 10
118.6744800280963
 20
94.31755202485232
 30
0.0
 10
118.7032853069814
 20
94.23033011860613
 30
0.0
 10
118.7032853069814
 20
94.14918391007188
 30
0.0
  0
SPLINE
  5
D1
330
1F
100
AcDbEntity
  8
0
  6
Continuous
 62
     7
370
    15
100
AcDbSpline
210
0.0
220
0.0
230
1.0
 70
     8
 71
     3
 72
    14
 73
    10
 74
     0
 42
0.000000001
 43
0.00000001
 40
0.0
 40
0.0
 40
0.0
 40
0.0
 40
0.1250000000000025
 40
0.1250000000000025
 40
0.250000000000005
 40
0.250000000000005
 40
0.5000000000000009
 40
0.5000000000000009
 40
1.0
 40
1.0
 40
1.0
 40
1.0
 10
117.3032853069808
 20
95.72645197998915
 30
0.0
 10
117.351829715638
 20
95.73220029326946
 30
0.0
 10
117.4047450704229
 20
95.72909940461322
 30
0.0
 10
117.5000404154059
 20
95.7069045604509
 30
0.0
 10
117.5402914126909
 20
95.68967233335503
 30
0.0
 10
117.6445614262038
 20
95.63334441690297
 30
0.0
 10
117.6948834013572
 20
95.58915807095718
 30
0.0
 10
117.8225663488825
 20
95.45815017210654
 30
0.0
 10
117.8786517959448
 20
95.36791565187626
 30
0.0
 10
117.9249981890665
 20
95.27977011771038
 30
0.0
  0
SPLINE
  5
D2
330
1F
100
AcDbEntity
  8
0
  6
Continuous
 62
     7
370
    15
100
AcDbSpline
210
0.0
220
0.0
230
1.0
 70
     8
 71
     3
 72
     8
 73
     4
 74
     0
 42
0.000000001
 43
0.00000001
 40
0.0
 40
0.0
 40
0.0
 40
0.0
 40
1.0
 40
1.0
 40
1.0
 40
1.0
 10
115.0347602140346
 20
95.41660669340638
 30
0.0
 10
115.7693372405176
 20
95.53523170447532
 30
0.0
 10
116.5328123099132
 20
95.63521757661161
 30
0.0
 10
117.3032853069808
 20
95.72645197998916
 30
0.0
  0
SPLINE
  5
D3
330
1F
100
AcDbEntity
  8
0
  6
Continuous
 62
     7
370
    15
100
AcDbSpline
210
0.0
220
0.0
230
1.0
 70
     8
 71
     3
 72
    14
 73
    10
 74
     0
 42
0.000000001
 43
0.00000001
 40
0.0
 40
0.0
 40
0.0
 40
0.0
 40
0.4999999999999999
 40
0.4999999999999999
 40
0.7499999999999998
 40
0.7499999999999998
 40
0.8749999999999999
 40
0.8749999999999999
 40
1.0
 40
1.0
 40
1.0
 40
1.0
 10
109.7532853069808
 20
95.24298367587473
 30
0.0
 10
110.6454314375344
 20
95.24226144967407
 30
0.0
 10
111.535407873328
 20
95.24684765613154
 30
0.0
 10
112.8620030404036
 20
95.27457266052308
 30
0.0
 10
113.3028499689024
 20
95.28717919814724
 30
0.0
 10
113.9592902063248
 20
95.31819534615468
 30
0.0
 10
114.1773038629167
 20
95.33053851878147
 30
0.0
 10
114.6100127165994
 20
95.36356257394473
 30
0.0
 10
114.8252891817642
 20
95.38277973908319
 30
0.0
 10
115.0347602140346
 20
95.41660669340637
 30
0.0
  0
SPLINE
  5
D4
330
1F
100
AcDbEntity
  8
0
  6
Continuous
 62
     7
370
    15
100
AcDbSpline
210
0.0
220
0.0
230
1.0
 70
     8
 71
     3
 72
     8
 73
     4
 74
     0
 42
0.000000001
 43
0.00000001
 40
0.0000005163856998
 40
0.0000005163856998
 40
0.0000005163856998
 40
0.0000005163856998
 40
0.000026289209185
 40
0.000026289209185
 40
0.000026289209185
 40
0.000026289209185
 10
109.7432403765732
 20
95.2529675489715
 30
0.0
 10
109.746568114781
 20
95.2496333021024
 30
0.0
 10
109.7499165677566
 20
95.24630534482708
 30
0.0
 10
109.7532853069808
 20
95.24298367587471
 30
0.0
  0
SPLINE
  5
D5
330
1F
100
AcDbEntity
  8
0
  6
Continuous
 62
     7
370
    15
100
AcDbSpline
210
0.0
220
0.0
230
1.0
 70
     8
 71
     3
 72
     8
 73
     4
 74
     0
 42
0.000000001
 43
0.00000001
 40
0.0000005099763573
 40
0.0000005099763573
 40
0.0000005099763573
 40
0.0000005099763573
 40
0.0000262827998699
 40
0.0000262827998699
 40
0.0000262827998699
 40
0.0000262827998699
 10
109.7532853069808
 20
136.9828592066649
 30
0.0
 10
109.749916567753
 20
136.979537537709
 30
0.0
 10
109.7465681147739
 20
136.9762095804301
 30
0.0
 10
109.7432403765626
 20
136.9728753335574
 30
0.0
  0
SPLINE
  5
D6
330
1F
100
AcDbEntity
  8
0
  6
Continuous
 62
     7
370
    15
100
AcDbSpline
210
0.0
220
0.0
230
1.0
 70
     8
 71
     3
 72
    10
 73
     6
 74
     0
 42
0.000000001
 43
0.00000001
 40
0.0
 40
0.0
 40
0.0
 40
0.0
 40
0.5
 40
0.5
 40
1.0
 40
1.0
 40
1.0
 40
1.0
 10
113.3032853069808
 20
136.9360088330975
 30
0.0
 10
112.7156997598902
 20
136.957074353334
 30
0.0
 10
112.1249533664298
 20
136.9678328392062
 30
0.0
 10
110.940934201131
 20
136.9811976197418
 30
0.0
 10
110.3475202129255
 20
136.9833402624064
 30
0.0
 10
109.7532853069808
 20
136.9828592066649
 30
0.0
  0
SPLINE
  5
D7
330
1F
100
AcDbEntity
  8
0
  6
Continuous
 62
     7
370
    15
100
AcDbSpline
210
0.0
220
0.0
230
1.0
 70
     8
 71
     3
 72
    18
 73
    14
 74
     0
 42
0.000000001
 43
0.00000001
 40
0.0
 40
0.0
 40
0.0
 40
0.0
 40
0.2499999999999996
 40
0.2499999999999996
 40
0.5
 40
0.5
 40
0.7500000000000003
 40
0.7500000000000003
 40
0.8750000000000002
 40
0.8750000000000002
 40
0.9375000000000001
 40
0.9375000000000001
 40
1.0
 40
1.0
 40
1.0
 40
1.0
 10
114.7032853069808
 20
137.9570291136328
 30
0.0
 10
114.7032853069808
 20
137.8738222047756
 30
0.0
 10
114.6674362070426
 20
137.785085549462
 30
0.0
 10
114.5425644710086
 20
137.6029603589018
 30
0.0
 10
114.4521640533608
 20
137.5078303102752
 30
0.0
 10
114.2299213986186
 20
137.3186488011508
 30
0.0
 10
114.1001566121728
 20
137.2237036330561
 30
0.0
 10
113.8595191548613
 20
137.0854249254762
 30
0.0
 10
113.7717518567239
 20
137.0397144921738
 30
0.0
 10
113.617227769517
 20
136.9818911869523
 30
0.0
 10
113.5606168834623
 20
136.9641764229145
 30
0.0
 10
113.4365728525557
 20
136.9396371196815
 30
0.0
 10
113.3688581775374
 20
136.9336579811433
 30
0.0
 10
113.3032853069808
 20
136.9360088330975
 30
0.0
  0
LINE
  5
D8
330
1F
100
AcDbEntity
  8
0
  6
Continuous
 62
     7
370
    15
100
AcDbLine
 10
114.703285307
 20
137.9570291136
 30
0.0
 11
114.703285307
 21
139.1409675335
 31
0.0
  0
SPLINE
  5
D9
330
1F
100
AcDbEntity
  8
0
  6
Continuous
 62
     7
370
    15
100
AcDbSpline
210
0.0
220
0.0
230
1.0
 70
     8
 71
     3
 72
    24
 73
    20
 74
     0
 42
0.000000001
 43
0.00000001
 40
0.0
 40
0.0
 40
0.0
 40
0.0
 40
0.0010489762969675
 40
0.0637843125639742
 40
0.1272220590447992
 40
0.1903788924487996
 40
0.2526748653693623
 40
0.3146354154423325
 40
0.3770891997149642
 40
0.4393540298503623
 40
0.5008133242537848
 40
0.5621845104596915
 40
0.6248438451115951
 40
0.6874304766627318
 40
0.7496743174679439
 40
0.8119848426973817
 40
0.8750960525412996
 40
0.9384412526960664
 40
1.0
 40
1.0
 40
1.0
 40
1.0
 10
127.2721911389565
 20
92.45541301268965
 30
0.0
 10
127.2717446788523
 20
92.45535472687075
 30
0.0
 10
127.2445971151583
 20
92.45181058492828
 30
0.0
 10
127.340208892771
 20
92.46464432961103
 30
0.0
 10
127.5737691506667
 20
92.49389101481117
 30
0.0
 10
127.9693234579848
 20
92.54050533787392
 30
0.0
 10
128.4963637618209
 20
92.59068847953333
 30
0.0
 10
129.1398941738105
 20
92.63506494198298
 30
0.0
 10
129.8785680290494
 20
92.66200972292111
 30
0.0
 10
130.6760825344833
 20
92.66548157362809
 30
0.0
 10
131.5026614169304
 20
92.63785432959737
 30
0.0
 10
132.3281844345423
 20
92.5793754406247
 30
0.0
 10
133.1203109825467
 20
92.49393041126324
 30
0.0
 10
133.8528832565457
 20
92.39219617142699
 30
0.0
 10
134.488523493275
 20
92.28435304945477
 30
0.0
 10
135.0104346002788
 20
92.18272289271606
 30
0.0
 10
135.392063377396
 20
92.10023773603801
 30
0.0
 10
135.6428778476322
 20
92.0440885296881
 30
0.0
 10
135.6719994036156
 20
92.03723907107437
 30
0.0
 10
135.6863519244315
 20
92.03386332434619
 30
0.0
  0
SPLINE
  5
DA
330
1F
100
AcDbEntity
  8
0
  6
Continuous
 62
     7
370
    15
100
AcDbSpline
210
0.0
220
0.0
230
1.0
 70
     8
 71
     3
 72
    24
 73
    20
 74
     0
 42
0.000000001
 43
0.00000001
 40
0.0
 40
0.0
 40
0.0
 40
0.0
 40
0.0614384276247849
 40
0.1250736755369546
 40
0.1884253490727482
 40
0.2508623904037504
 40
0.3129665632512366
 40
0.3753451453465248
 40
0.4377328972326114
 40
0.4990927322917333
 40
0.5605807588448609
 40
0.6229469893028933
 40
0.6854686282029175
 40
0.7475477813740337
 40
0.8098225060806368
 40
0.8730684085990423
 40
0.9364041844528856
 40
0.9991757196257862
 40
1.0
 40
1.0
 40
1.0
 40
1.0
 10
135.6862971536285
 20
140.1919504157272
 30
0.0
 10
135.671696429325
 20
140.1885823588746
 30
0.0
 10
135.6419729105965
 20
140.1817258154008
 30
0.0
 10
135.3892350949491
 20
140.125387194875
 30
0.0
 10
135.0062391785004
 20
140.0425301127449
 30
0.0
 10
134.4838835940618
 20
139.9406230827937
 30
0.0
 10
133.8490991160615
 20
139.8327839437497
 30
0.0
 10
133.1188755118883
 20
139.7313169917745
 30
0.0
 10
132.3284069266547
 20
139.6462572780839
 30
0.0
 10
131.5039234118261
 20
139.5880529841976
 30
0.0
 10
130.6768869529431
 20
139.5604695453709
 30
0.0
 10
129.8785626852902
 20
139.5639625228638
 30
0.0
 10
129.138738721001
 20
139.5909184427169
 30
0.0
 10
128.494484488026
 20
139.6352723847162
 30
0.0
 10
127.9670772328128
 20
139.6854778344742
 30
0.0
 10
127.5724126306617
 20
139.7320876896722
 30
0.0
 10
127.3398833514761
 20
139.7612832822198
 30
0.0
 10
127.2445033189239
 20
139.774061351161
 30
0.0
 10
127.2714369558254
 20
139.7705070926532
 30
0.0
 10
127.2717860490497
 20
139.7704610250698
 30
0.0
  0
SPLINE
  5
DB
330
1F
100
AcDbEntity
  8
0
  6
Continuous
 62
     7
370
    15
100
AcDbSpline
210
0.0
220
0.0
230
1.0
 70
     8
 71
     3
 72
     9
 73
     5
 74
     0
 42
0.000000001
 43
0.00000001
 40
0.0
 40
0.0
 40
0.0
 40
0.0
 40
0.7009329310330055
 40
1.0
 40
1.0
 40
1.0
 40
1.0
 10
108.6240699912163
 20
96.41164113716715
 30
0.0
 10
108.6332092678915
 20
96.39381185162564
 30
0.0
 10
108.6462479999452
 20
96.36837534443337
 30
0.0
 10
108.6614132537104
 20
96.42225520462515
 30
0.0
 10
108.6659486817042
 20
96.43836889648907
 30
0.0
  0
LINE
  5
DC
330
1F
100
AcDbEntity
  8
0
  6
Continuous
 62
     7
370
    15
100
AcDbLine
 10
108.603285307
 20
96.4222436948
 30
0.0
 11
108.603285307
 21
135.8035991877
 31
0.0
  0
SPLINE
  5
DD
330
1F
100
AcDbEntity
  8
0
  6
Continuous
 62
     7
370
    15
100
AcDbSpline
210
0.0
220
0.0
230
1.0
 70
     8
 71
     3
 72
    10
 73
     6
 74
     0
 42
0.000000001
 43
0.00000001
 40
0.0
 40
0.0
 40
0.0
 40
0.0
 40
0.5
 40
0.5
 40
1.0
 40
1.0
 40
1.0
 40
1.0
 10
108.6659486817042
 20
135.7874739860505
 30
0.0
 10
108.6570443925955
 20
135.8332155052637
 30
0.0
 10
108.6405290124025
 20
135.8504063447327
 30
0.0
 10
108.6134210663409
 20
135.850083067797
 30
0.0
 10
108.6032853069808
 20
135.8322055255005
 30
0.0
 10
108.6032853069808
 20
135.8035991877479
 30
0.0
  0
SPLINE
  5
DE
330
1F
100
AcDbEntity
  8
0
  6
Continuous
 62
     7
370
    15
100
AcDbSpline
210
0.0
220
0.0
230
1.0
 70
     8
 71
     3
 72
    26
 73
    22
 74
     0
 42
0.000000001
 43
0.00000001
 40
0.0
 40
0.0
 40
0.0
 40
0.0
 40
0.250000000000008
 40
0.250000000000008
 40
0.3750000000000121
 40
0.3750000000000121
 40
0.4375000000000128
 40
0.4375000000000128
 40
0.4687500000000128
 40
0.4687500000000128
 40
0.5000000000000127
 40
0.5000000000000127
 40
0.5312500000000125
 40
0.5312500000000125
 40
0.5625000000000124
 40
0.5625000000000124
 40
0.62500000000001
 40
0.62500000000001
 40
0.7500000000000072
 40
0.7500000000000072
 40
1.0
 40
1.0
 40
1.0
 40
1.0
 10
109.4274389530853
 20
136.5030407748676
 30
0.0
 10
109.3888384302168
 20
136.3852660785122
 30
0.0
 10
109.3425414276626
 20
136.2608763923503
 30
0.0
 10
109.2486020792287
 20
136.0556570599968
 30
0.0
 10
109.2132906123152
 20
135.9840841935504
 30
0.0
 10
109.1471106365696
 20
135.8681309609499
 30
0.0
 10
109.1225722699013
 20
135.8275464261396
 30
0.0
 10
109.0791995243475
 20
135.7634047442679
 30
0.0
 10
109.0636911229223
 20
135.7415383189828
 30
0.0
 10
109.0286484783353
 20
135.6959440506396
 30
0.0
 10
109.0090981876155
 20
135.6722737596722
 30
0.0
 10
108.9671709072449
 20
135.6276572003323
 30
0.0
 10
108.9445187970133
 20
135.6067771878144
 30
0.0
 10
108.9035450829267
 20
135.5759037740636
 30
0.0
 10
108.8859457830312
 20
135.5660649042312
 30
0.0
 10
108.8413187971751
 20
135.547075288535
 30
0.0
 10
108.8207595745218
 20
135.5467509638815
 30
0.0
 10
108.7696341350251
 20
135.5559744047578
 30
0.0
 10
108.7487227220365
 20
135.5772213009747
 30
0.0
 10
108.6972728144756
 20
135.6511901798055
 30
0.0
 10
108.679607515171
 20
135.7173082731203
 30
0.0
 10
108.6659486817042
 20
135.7874739860505
 30
0.0
  0
SPLINE
  5
DF
330
1F
100
AcDbEntity
  8
0
  6
Continuous
 62
     7
370
    15
100
AcDbSpline
210
0.0
220
0.0
230
1.0
 70
     8
 71
     3
 72
    10
 73
     6
 74
     0
 42
0.000000001
 43
0.00000001
 40
0.0
 40
0.0
 40
0.0
 40
0.0
 40
0.5
 40
0.5
 40
1.0
 40
1.0
 40
1.0
 40
1.0
 10
109.7432403765626
 20
136.9728753335574
 30
0.0
 10
109.6756811216443
 20
136.9051839407477
 30
0.0
 10
109.6120444663079
 20
136.830476775994
 30
0.0
 10
109.501823711736
 20
136.6715106435674
 30
0.0
 10
109.4550074185134
 20
136.5871553775594
 30
0.0
 10
109.4274389530853
 20
136.5030407748676
 30
0.0
  0
SPLINE
  5
E0
330
1F
100
AcDbEntity
  8
0
  6
Continuous
 62
     7
370
    15
100
AcDbSpline
210
0.0
220
0.0
230
1.0
 70
     8
 71
     3
 72
    10
 73
     6
 74
     0
 42
0.000000001
 43
0.00000001
 40
0.0
 40
0.0
 40
0.0
 40
0.0
 40
0.5
 40
0.5
 40
1.0
 40
1.0
 40
1.0
 40
1.0
 10
109.4274389530853
 20
95.72280210767184
 30
0.0
 10
109.4549163678393
 20
95.63896531120395
 30
0.0
 10
109.5016249981287
 20
95.55465482361481
 30
0.0
 10
109.6119034608747
 20
95.39553359312808
 30
0.0
 10
109.6757909994886
 20
95.32054884903846
 30
0.0
 10
109.7432403765732
 20
95.2529675489715
 30
0.0
  0
SPLINE
  5
E1
330
1F
100
AcDbEntity
  8
0
  6
Continuous
 62
     7
370
    15
100
AcDbSpline
210
0.0
220
0.0
230
1.0
 70
     8
 71
     3
 72
    24
 73
    20
 74
     0
 42
0.000000001
 43
0.00000001
 40
0.0
 40
0.0
 40
0.0
 40
0.0
 40
0.2500000000000034
 40
0.2500000000000034
 40
0.3750000000000043
 40
0.3750000000000043
 40
0.4375000000000036
 40
0.4375000000000036
 40
0.4687500000000054
 40
0.4687500000000054
 40
0.5000000000000073
 40
0.5000000000000073
 40
0.5625000000000063
 40
0.5625000000000063
 40
0.6250000000000052
 40
0.6250000000000052
 40
0.7500000000000029
 40
0.7500000000000029
 40
1.0
 40
1.0
 40
1.0
 40
1.0
 10
108.6659486817042
 20
96.43836889648907
 30
0.0
 10
108.6797018003744
 20
96.50901895447933
 30
0.0
 10
108.6974743677803
 20
96.57561706724427
 30
0.0
 10
108.7497254593357
 20
96.64971508747746
 30
0.0
 10
108.7707605349172
 20
96.67097289463902
 30
0.0
 10
108.8236609425457
 20
96.67911882078526
 30
0.0
 10
108.8447666154236
 20
96.67817901738948
 30
0.0
 10
108.8908187841016
 20
96.65716302581214
 30
0.0
 10
108.9091892560849
 20
96.64625421970452
 30
0.0
 10
108.9507408911507
 20
96.61361930875714
 30
0.0
 10
108.9733075639076
 20
96.59212732838577
 30
0.0
 10
109.0360885803676
 20
96.52366138479947
 30
0.0
 10
109.0692183413355
 20
96.47758692659437
 30
0.0
 10
109.1261360278205
 20
96.39257903825971
 30
0.0
 10
109.1503220533242
 20
96.35229873707833
 30
0.0
 10
109.215530003704
 20
96.2373625106124
 30
0.0
 10
109.2502460638952
 20
96.16677952546537
 30
0.0
 10
109.3434613342261
 20
95.96257376638677
 30
0.0
 10
109.3891338695868
 20
95.8396753840594
 30
0.0
 10
109.4274389530853
 20
95.72280210767184
 30
0.0
  0
SPLINE
  5
E2
330
1F
100
AcDbEntity
  8
0
  6
Continuous
 62
     7
370
    15
100
AcDbSpline
210
0.0
220
0.0
230
1.0
 70
     8
 71
     3
 72
    38
 73
    34
 74
     0
 42
0.000000001
 43
0.00000001
 40
0.0
 40
0.0
 40
0.0
 40
0.0
 40
0.0534244789507602
 40
0.0886627543335578
 40
0.1389124168335152
 40
0.1763522794458209
 40
0.2296309194924661
 40
0.2718602846979554
 40
0.2888740884959492
 40
0.332008461451612
 40
0.3792751845846346
 40
0.3983313558070674
 40
0.446725133879775
 40
0.491749192129555
 40
0.5068960362648551
 40
0.522042880853776
 40
0.5529160805574576
 40
0.5684133447314297
 40
0.6138224654647402
 40
0.6445952230293797
 40
0.6758283160163713
 40
0.6915246890099614
 40
0.7363281982839248
 40
0.7514224775458834
 40
0.7665168833130204
 40
0.7974022354779412
 40
0.812926846155199
 40
0.8541466976846641
 40
0.8819545030785145
 40
0.924857699528138
 40
0.9641886001300981
 40
0.9800896229114816
 40
0.9999999999999999
 40
0.9999999999999999
 40
0.9999999999999999
 40
0.9999999999999999
 10
189.4531336257916
 20
136.1128866923424
 30
0.0
 10
189.4346211725974
 20
136.1085804216978
 30
0.0
 10
189.4038980823228
 20
136.1014337761197
 30
0.0
 10
189.1748993185573
 20
136.04964782278
 30
0.0
 10
188.8725023355319
 20
135.9838606883052
 30
0.0
 10
188.4134065308188
 20
135.8904698091414
 30
0.0
 10
187.8867703910087
 20
135.7923287876815
 30
0.0
 10
187.3739638493158
 20
135.7087555494358
 30
0.0
 10
186.8765185048953
 20
135.6359369123321
 30
0.0
 10
186.3234787321097
 20
135.5642052746071
 30
0.0
 10
185.7227691734993
 20
135.50326289302
 30
0.0
 10
185.0735805224642
 20
135.4520702274093
 30
0.0
 10
184.4192236031267
 20
135.4154825551328
 30
0.0
 10
183.775770726519
 20
135.4011348414456
 30
0.0
 10
183.3288954880428
 20
135.4009499652179
 30
0.0
 10
182.9662661729963
 20
135.4047719402668
 30
0.0
 10
182.6027477209068
 20
135.4146710798193
 30
0.0
 10
182.0657899139496
 20
135.4381582955858
 30
0.0
 10
181.5372197019298
 20
135.4727903513138
 30
0.0
 10
180.9393033661326
 20
135.5273377204299
 30
0.0
 10
180.5220448576586
 20
135.57379534573
 30
0.0
 10
180.0466457982806
 20
135.6334915111666
 30
0.0
 10
179.6738491152156
 20
135.6871852209589
 30
0.0
 10
179.3287215925598
 20
135.7422296468034
 30
0.0
 10
179.0582364436857
 20
135.7874397396126
 30
0.0
 10
178.803073732424
 20
135.8329992247323
 30
0.0
 10
178.4683445285865
 20
135.8960336511105
 30
0.0
 10
178.1806043861577
 20
135.9537022902764
 30
0.0
 10
177.8675256809078
 20
136.0198512244535
 30
0.0
 10
177.631762813713
 20
136.0720548547736
 30
0.0
 10
177.511748069115
 20
136.0994633079343
 30
0.0
 10
177.4577023022736
 20
136.1118991675982
 30
0.0
 10
177.4639737849901
 20
136.1104560323502
 30
0.0
 10
177.4674605960683
 20
136.1096536798289
 30
0.0
  0
SPLINE
  5
E3
330
1F
100
AcDbEntity
  8
0
  6
Continuous
 62
     7
370
    15
100
AcDbSpline
210
0.0
220
0.0
230
1.0
 70
    11
 71
     3
 72
    85
 73
    81
 74
     0
 42
0.000000001
 43
0.00000001
 40
0.0
 40
0.0
 40
0.0
 40
0.0
 40
0.0312499999999998
 40
0.0312499999999998
 40
0.0624999999999997
 40
0.0624999999999997
 40
0.0937499999999995
 40
0.0937499999999995
 40
0.1249999999999993
 40
0.1249999999999993
 40
0.1562499999999992
 40
0.1562499999999992
 40
0.1718749999999991
 40
0.1718749999999991
 40
0.187499999999999
 40
0.187499999999999
 40
0.2187499999999993
 40
0.2187499999999993
 40
0.2343749999999993
 40
0.2343749999999993
 40
0.2499999999999992
 40
0.2499999999999992
 40
0.2812499999999989
 40
0.2812499999999989
 40
0.2968749999999986
 40
0.2968749999999986
 40
0.3124999999999983
 40
0.3124999999999983
 40
0.3437499999999981
 40
0.3437499999999981
 40
0.359374999999998
 40
0.359374999999998
 40
0.3749999999999979
 40
0.3906249999999978
 40
0.3906249999999978
 40
0.4062499999999977
 40
0.4062499999999977
 40
0.4374999999999977
 40
0.4374999999999977
 40
0.4531249999999978
 40
0.4531249999999978
 40
0.4687499999999979
 40
0.4687499999999979
 40
0.4999999999999982
 40
0.4999999999999982
 40
0.5312499999999983
 40
0.5312499999999983
 40
0.5624999999999986
 40
0.5624999999999986
 40
0.5937499999999987
 40
0.5937499999999987
 40
0.6249999999999989
 40
0.6249999999999989
 40
0.656249999999999
 40
0.656249999999999
 40
0.6874999999999992
 40
0.6874999999999992
 40
0.7187499999999993
 40
0.7187499999999993
 40
0.7499999999999996
 40
0.7499999999999996
 40
0.7812499999999997
 40
0.7812499999999997
 40
0.8124999999999999
 40
0.8124999999999999
 40
0.8281249999999999
 40
0.8281249999999999
 40
0.8437499999999999
 40
0.8437499999999999
 40
0.875
 40
0.875
 40
0.890625
 40
0.890625
 40
0.90625
 40
0.90625
 40
0.9375
 40
0.9375
 40
0.9687499999999999
 40
0.9687499999999999
 40
1.0
 40
1.0
 40
1.0
 40
1.0
 10
179.446917352085
 20
120.0406527721514
 30
0.0
 10
179.737706878668
 20
120.2712817137961
 30
0.0
 10
180.0456348103497
 20
120.4710381702479
 30
0.0
 10
180.6929283371945
 20
120.8149543293278
 30
0.0
 10
181.0343807324905
 20
120.9597014848382
 30
0.0
 10
181.7405367222186
 20
121.1898563796425
 30
0.0
 10
182.0995373294884
 20
121.2738044253798
 30
0.0
 10
182.8289536898789
 20
121.3823075870734
 30
0.0
 10
183.2026514972569
 20
121.4067017695634
 30
0.0
 10
183.9454170694938
 20
121.3933884821157
 30
0.0
 10
184.3121623762028
 20
121.3563483774201
 30
0.0
 10
184.8554538025607
 20
121.2558569837528
 30
0.0
 10
185.0354066925319
 20
121.2148253665648
 30
0.0
 10
185.3929631516857
 20
121.1172160996586
 30
0.0
 10
185.5710850720278
 20
121.060376087058
 30
0.0
 10
186.091685667877
 20
120.8692773216016
 30
0.0
 10
186.4236592354544
 20
120.7139832431091
 30
0.0
 10
186.8988234534876
 20
120.4382224035374
 30
0.0
 10
187.053387527285
 20
120.3391179348491
 30
0.0
 10
187.3545008075043
 20
120.1257127347836
 30
0.0
 10
187.5012970027924
 20
120.0110618549814
 30
0.0
 10
187.9193691006611
 20
119.6510811279661
 30
0.0
 10
188.1719635052602
 20
119.3877335175252
 30
0.0
 10
188.5095856293977
 20
118.9551684903596
 30
0.0
 10
188.6151973235807
 20
118.8046772328545
 30
0.0
 10
188.8114528881924
 20
118.4899776615196
 30
0.0
 10
188.9014356568175
 20
118.3265299946528
 30
0.0
 10
189.1405680427499
 20
117.8285138359255
 30
0.0
 10
189.2618329444296
 20
117.482395167434
 30
0.0
 10
189.3823799222055
 20
116.9403455615818
 30
0.0
 10
189.4123302931751
 20
116.7543334580752
 30
0.0
 10
189.449093120813
 20
116.3836304669768
 30
0.0
 10
189.4632719910609
 20
116.0136600357452
 30
0.0
 10
189.4332649901317
 20
115.6451235554608
 30
0.0
 10
189.3809409565339
 20
115.2773105930515
 30
0.0
 10
189.343240847898
 20
115.0927267808105
 30
0.0
 10
189.1994906529736
 20
114.5538003215832
 30
0.0
 10
189.0631529407896
 20
114.2106477665298
 30
0.0
 10
188.8014900832395
 20
113.7184705765435
 30
0.0
 10
188.7047898046699
 20
113.5587219913065
 30
0.0
 10
188.4971090108477
 20
113.2533891002178
 30
0.0
 10
188.3856624265291
 20
113.106891050215
 30
0.0
 10
188.0295207029596
 20
112.6849402313607
 30
0.0
 10
187.7603992366564
 20
112.425051174956
 30
0.0
 10
187.1844041127004
 20
111.9656085495183
 30
0.0
 10
186.8767696334864
 20
111.7642171638538
 30
0.0
 10
186.2235501178712
 20
111.4151916204806
 30
0.0
 10
185.8802115738805
 20
111.26944926423
 30
0.0
 10
185.1798487336611
 20
111.0398170196831
 30
0.0
 10
184.8201963394499
 20
110.9544882179968
 30
0.0
 10
184.0814882592944
 20
110.8436306662264
 30
0.0
 10
183.7108543437838
 20
110.8195319570813
 30
0.0
 10
182.9727864376493
 20
110.8317435416112
 30
0.0
 10
182.6043203329377
 20
110.8679235539479
 30
0.0
 10
181.8691027383692
 20
111.0033933577915
 30
0.0
 10
181.5129290693417
 20
111.1007138173792
 30
0.0
 10
180.8227295789906
 20
111.3533105860535
 30
0.0
 10
180.4880392466272
 20
111.5089205984351
 30
0.0
 10
179.8451469999625
 20
111.8819483806833
 30
0.0
 10
179.5458060339952
 20
112.0940800073705
 30
0.0
 10
178.9915247379861
 20
112.5707379120325
 30
0.0
 10
178.7351291871076
 20
112.8369827894858
 30
0.0
 10
178.2788988372676
 20
113.4224303575198
 30
0.0
 10
178.0847992907606
 20
113.7336165777203
 30
0.0
 10
177.8465434747948
 20
114.2294892611126
 30
0.0
 10
177.7760073079896
 20
114.3996646328108
 30
0.0
 10
177.6539641818472
 20
114.7505308614301
 30
0.0
 10
177.602488740704
 20
114.9318994840454
 30
0.0
 10
177.4825798455489
 20
115.4757602488191
 30
0.0
 10
177.4461555544777
 20
115.8431177119433
 30
0.0
 10
177.4585568938787
 20
116.401541297824
 30
0.0
 10
177.4742251987822
 20
116.5898518244401
 30
0.0
 10
177.5274442681524
 20
116.9584780596263
 30
0.0
 10
177.5649100082339
 20
117.1399606642882
 30
0.0
 10
177.7087038023897
 20
117.6762432872563
 30
0.0
 10
177.8486077459382
 20
118.0266821135227
 30
0.0
 10
178.1976253827773
 20
118.679667858317
 30
0.0
 10
178.4061965920363
 20
118.9842432568125
 30
0.0
 10
178.8878607452322
 20
119.5524737963294
 30
0.0
 10
179.156127825502
 20
119.8100238305067
 30
0.0
 10
179.446917352085
 20
120.0406527721514
 30
0.0
  0
LINE
  5
E4
330
1F
100
AcDbEntity
  8
0
  6
Continuous
 62
     7
370
    15
100
AcDbLine
 10
195.103285307
 20
116.1129214413
 30
0.0
 11
195.103285307
 21
96.1129214413
 31
0.0
  0
LINE
  5
E5
330
1F
100
AcDbEntity
  8
0
  6
Continuous
 62
     7
370
    15
100
AcDbLine
 10
195.103285307
 20
136.1129214413
 30
0.0
 11
195.103285307
 21
116.1129214413
 31
0.0
  0
LINE
  5
E6
330
1F
100
AcDbEntity
  8
0
  6
Continuous
 62
     7
370
    15
100
AcDbLine
 10
195.503285307
 20
116.1129214413
 30
0.0
 11
195.503285307
 21
96.5129214413
 31
0.0
  0
LINE
  5
E7
330
1F
100
AcDbEntity
  8
0
  6
Continuous
 62
     7
370
    15
100
AcDbLine
 10
195.503285307
 20
135.7129214413
 30
0.0
 11
195.503285307
 21
116.1129214413
 31
0.0
  0
SPLINE
  5
E8
330
1F
100
AcDbEntity
  8
0
  6
Continuous
 62
     7
370
    15
100
AcDbSpline
210
0.0
220
0.0
230
1.0
 70
     8
 71
     3
 72
    10
 73
     6
 74
     0
 42
0.000000001
 43
0.00000001
 40
0.0
 40
0.0
 40
0.0
 40
0.0
 40
0.5
 40
0.5
 40
1.0
 40
1.0
 40
1.0
 40
1.0
 10
166.4532853069808
 20
145.9593617650337
 30
0.0
 10
166.4532853069808
 20
146.1197670313845
 30
0.0
 10
166.3910474758739
 20
146.2788288443731
 30
0.0
 10
166.1719125521314
 20
146.5097413100034
 30
0.0
 10
166.0143238571395
 20
146.580116914434
 30
0.0
 10
165.8532853069808
 20
146.580116914434
 30
0.0
  0
SPLINE
  5
E9
330
1F
100
AcDbEntity
  8
0
  6
Continuous
 62
     7
370
    15
100
AcDbSpline
210
0.0
220
0.0
230
1.0
 70
     8
 71
     3
 72
    12
 73
     8
 74
     0
 42
0.000000001
 43
0.00000001
 40
0.0
 40
0.0
 40
0.0
 40
0.0
 40
0.249999999999998
 40
0.249999999999998
 40
0.499999999999996
 40
0.499999999999996
 40
1.0
 40
1.0
 40
1.0
 40
1.0
 10
165.8532853069808
 20
140.5716111036373
 30
0.0
 10
165.9444850288065
 20
140.5716111036373
 30
0.0
 10
166.0350800379425
 20
140.5433914050493
 30
0.0
 10
166.1884927643892
 20
140.4489483978012
 30
0.0
 10
166.2537016317128
 20
140.3826614210959
 30
0.0
 10
166.4064861610528
 20
140.1570365978076
 30
0.0
 10
166.4532853069808
 20
139.9746103347751
 30
0.0
 10
166.4532853069808
 20
139.7938737025282
 30
0.0
  0
LINE
  5
EA
330
1F
100
AcDbEntity
  8
0
  6
Continuous
 62
     7
370
    15
100
AcDbLine
 10
166.453285307
 20
139.7938737025
 30
0.0
 11
166.453285307
 21
145.959361765
 31
0.0
  0
SPLINE
  5
EB
330
1F
100
AcDbEntity
  8
0
  6
Continuous
 62
     7
370
    15
100
AcDbSpline
210
0.0
220
0.0
230
1.0
 70
     8
 71
     3
 72
     8
 73
     4
 74
     0
 42
0.000000001
 43
0.00000001
 40
0.0
 40
0.0
 40
0.0
 40
0.0
 40
1.0
 40
1.0
 40
1.0
 40
1.0
 10
156.5932853069808
 20
143.9181556324414
 30
0.0
 10
156.100575210135
 20
144.8061746305678
 30
0.0
 10
155.6064925048561
 20
145.6934372662538
 30
0.0
 10
155.1113524754918
 20
146.580116914434
 30
0.0
  0
SPLINE
  5
EC
330
1F
100
AcDbEntity
  8
0
  6
Continuous
 62
     7
370
    15
100
AcDbSpline
210
0.0
220
0.0
230
1.0
 70
     8
 71
     3
 72
     8
 73
     4
 74
     0
 42
0.000000001
 43
0.00000001
 40
0.0
 40
0.0
 40
0.0
 40
0.0
 40
1.0
 40
1.0
 40
1.0
 40
1.0
 10
155.1113524754917
 20
140.5716111036372
 30
0.0
 10
155.618439317251
 20
139.4404607494735
 30
0.0
 10
156.114007156391
 20
138.3040763387057
 30
0.0
 10
156.5932853069808
 20
137.1630651088531
 30
0.0
  0
LINE
  5
ED
330
1F
100
AcDbEntity
  8
0
  6
Continuous
 62
     7
370
    15
100
AcDbLine
 10
156.593285307
 20
137.1630651089
 30
0.0
 11
156.593285307
 21
143.9181556324
 31
0.0
  0
LINE
  5
EE
330
1F
100
AcDbEntity
  8
0
  6
Continuous
 62
     7
370
    15
100
AcDbLine
 10
160.413285307
 20
136.2487880727
 30
0.0
 11
160.413285307
 21
137.1630651089
 31
0.0
  0
SPLINE
  5
EF
330
1F
100
AcDbEntity
  8
0
  6
Continuous
 62
     7
370
    15
100
AcDbSpline
210
0.0
220
0.0
230
1.0
 70
     8
 71
     3
 72
     8
 73
     4
 74
     0
 42
0.000000001
 43
0.00000001
 40
0.0
 40
0.0
 40
0.0
 40
0.0
 40
1.0
 40
1.0
 40
1.0
 40
1.0
 10
160.4132853069808
 20
137.1630651088531
 30
0.0
 10
160.8925634575706
 20
138.3040763387057
 30
0.0
 10
161.3881312967106
 20
139.4404607494735
 30
0.0
 10
161.8952181384699
 20
140.5716111036372
 30
0.0
  0
LINE
  5
F0
330
1F
100
AcDbEntity
  8
0
  6
Continuous
 62
     7
370
    15
100
AcDbLine
 10
161.8952181385
 20
140.5716111036
 30
0.0
 11
165.853285307
 21
140.5716111036
 31
0.0
  0
LINE
  5
F1
330
1F
100
AcDbEntity
  8
0
  6
Continuous
 62
     7
370
    15
100
AcDbLine
 10
166.453285307
 20
139.7938737025
 30
0.0
 11
166.453285307
 21
135.9629214413
 31
0.0
  0
LINE
  5
F2
330
1F
100
AcDbEntity
  8
0
  6
Continuous
 62
     7
370
    15
100
AcDbLine
 10
165.853285307
 20
146.5801169144
 30
0.0
 11
161.8952181385
 21
146.5801169144
 31
0.0
  0
LINE
  5
F3
330
1F
100
AcDbEntity
  8
0
  6
Continuous
 62
     7
370
    15
100
AcDbLine
 10
161.8952181385
 20
140.5716111036
 30
0.0
 11
161.8952181385
 21
146.5801169144
 31
0.0
  0
SPLINE
  5
F4
330
1F
100
AcDbEntity
  8
0
  6
Continuous
 62
     7
370
    15
100
AcDbSpline
210
0.0
220
0.0
230
1.0
 70
     8
 71
     3
 72
     8
 73
     4
 74
     0
 42
0.000000001
 43
0.00000001
 40
0.0
 40
0.0
 40
0.0
 40
0.0
 40
1.0
 40
1.0
 40
1.0
 40
1.0
 10
161.8952181384699
 20
146.580116914434
 30
0.0
 10
161.4000781091055
 20
145.6934372662538
 30
0.0
 10
160.9059954038266
 20
144.8061746305678
 30
0.0
 10
160.4132853069808
 20
143.9181556324414
 30
0.0
  0
LINE
  5
F5
330
1F
100
AcDbEntity
  8
0
  6
Continuous
 62
     7
370
    15
100
AcDbLine
 10
160.413285307
 20
137.1630651089
 30
0.0
 11
160.413285307
 21
143.9181556324
 31
0.0
  0
LINE
  5
F6
330
1F
100
AcDbEntity
  8
0
  6
Continuous
 62
     7
370
    15
100
AcDbLine
 10
156.593285307
 20
137.1630651089
 30
0.0
 11
156.593285307
 21
136.2487880727
 31
0.0
  0
LINE
  5
F7
330
1F
100
AcDbEntity
  8
0
  6
HIDDEN
 62
     7
370
     0
100
AcDbLine
 10
178.453285307
 20
128.890420516
 30
0.0
 11
188.453285307
 21
128.890420516
 31
0.0
  0
LINE
  5
F8
330
1F
100
AcDbEntity
  8
0
  6
HIDDEN
 62
     7
370
     0
100
AcDbLine
 10
178.453285307
 20
135.4129214413
 30
0.0
 11
182.7359937851
 21
135.4129214413
 31
0.0
  0
LINE
  5
F9
330
1F
100
AcDbEntity
  8
0
  6
HIDDEN
 62
     7
370
     0
100
AcDbLine
 10
184.1151013287
 20
135.4129214413
 30
0.0
 11
188.453285307
 21
135.4129214413
 31
0.0
  0
LINE
  5
FA
330
1F
100
AcDbEntity
  8
0
  6
HIDDEN
 62
     7
370
     0
100
AcDbLine
 10
180.6334834034
 20
121.6129214413
 30
0.0
 11
186.2730872106
 21
121.6129214413
 31
0.0
  0
SPLINE
  5
FB
330
1F
100
AcDbEntity
  8
0
  6
HIDDEN
 62
     7
370
     0
100
AcDbSpline
210
0.0
220
0.0
230
1.0
 70
     8
 71
     3
 72
    11
 73
     7
 74
     0
 42
0.000000001
 43
0.00000001
 40
0.0
 40
0.0
 40
0.0
 40
0.0
 40
0.2164543009645229
 40
0.4403089937225439
 40
0.7518987489759371
 40
1.0
 40
1.0
 40
1.0
 40
1.0
 10
180.6433990115534
 20
135.9996727872179
 30
0.0
 10
180.7003831361914
 20
135.9091247368218
 30
0.0
 10
180.8162996251028
 20
135.7249328738014
 30
0.0
 10
181.0314101648245
 20
135.571406968703
 30
0.0
 10
181.26215592475
 20
135.6639682952136
 30
0.0
 10
181.4098197152611
 20
135.8965661980078
 30
0.0
 10
181.4752764954235
 20
135.9996727872179
 30
0.0
  0
SPLINE
  5
FC
330
1F
100
AcDbEntity
  8
0
  6
HIDDEN
 62
     7
370
     0
100
AcDbSpline
210
0.0
220
0.0
230
1.0
 70
     8
 71
     3
 72
    11
 73
     7
 74
     0
 42
0.000000001
 43
0.00000001
 40
0.0
 40
0.0
 40
0.0
 40
0.0
 40
0.2164543009644956
 40
0.4403089937225388
 40
0.7518987489759497
 40
1.0
 40
1.0
 40
1.0
 40
1.0
 10
181.4752764954235
 20
135.9996727872179
 30
0.0
 10
181.6677554529409
 20
135.9091247368218
 30
0.0
 10
182.0592940627981
 20
135.7249328738014
 30
0.0
 10
182.7858868234942
 20
135.571406968703
 30
0.0
 10
183.5652916771109
 20
135.6639682952136
 30
0.0
 10
184.0640651976509
 20
135.8965661980078
 30
0.0
 10
184.2851627908509
 20
135.9996727872179
 30
0.0
  0
SPLINE
  5
FD
330
1F
100
AcDbEntity
  8
0
  6
HIDDEN
 62
     7
370
     0
100
AcDbSpline
210
0.0
220
0.0
230
1.0
 70
     8
 71
     3
 72
    11
 73
     7
 74
     0
 42
0.000000001
 43
0.00000001
 40
0.0
 40
0.0
 40
0.0
 40
0.0
 40
0.1849308168246177
 40
0.5198464202157794
 40
0.8714438233692648
 40
1.0
 40
1.0
 40
1.0
 40
1.0
 10
184.2851627908509
 20
135.9996727872179
 30
0.0
 10
184.4002925684796
 20
135.9216680517041
 30
0.0
 10
184.7239260428143
 20
135.702394254005
 30
0.0
 10
185.3280497255744
 20
135.5403899229849
 30
0.0
 10
185.8859826642868
 20
135.7387739696235
 30
0.0
 10
186.1835113583573
 20
135.9445723816076
 30
0.0
 10
186.2631716024084
 20
135.9996727872179
 30
0.0
  0
SPLINE
  5
FE
330
1F
100
AcDbEntity
  8
0
  6
HIDDEN
 62
     7
370
     0
100
AcDbSpline
210
0.0
220
0.0
230
1.0
 70
     8
 71
     3
 72
    11
 73
     7
 74
     0
 42
0.000000001
 43
0.00000001
 40
0.0
 40
0.0
 40
0.0
 40
0.0
 40
0.2164543009645231
 40
0.4403089937225239
 40
0.7518987489759633
 40
1.0
 40
1.0
 40
1.0
 40
1.0
 10
186.2631716024084
 20
135.9996727872179
 30
0.0
 10
186.2061874777703
 20
135.9091247368218
 30
0.0
 10
186.0902709888589
 20
135.7249328738014
 30
0.0
 10
185.8751604491372
 20
135.5714069687031
 30
0.0
 10
185.6444146892115
 20
135.6639682952136
 30
0.0
 10
185.4967508987006
 20
135.8965661980079
 30
0.0
 10
185.4312941185382
 20
135.9996727872179
 30
0.0
  0
SPLINE
  5
FF
330
1F
100
AcDbEntity
  8
0
  6
HIDDEN
 62
     7
370
     0
100
AcDbSpline
210
0.0
220
0.0
230
1.0
 70
     8
 71
     3
 72
    11
 73
     7
 74
     0
 42
0.000000001
 43
0.00000001
 40
0.0
 40
0.0
 40
0.0
 40
0.0
 40
0.2164543009644994
 40
0.4403089937225388
 40
0.7518987489759328
 40
1.0
 40
1.0
 40
1.0
 40
1.0
 10
185.4312941185382
 20
135.9996727872179
 30
0.0
 10
185.2388151610208
 20
135.9091247368218
 30
0.0
 10
184.8472765511636
 20
135.7249328738014
 30
0.0
 10
184.1206837904675
 20
135.5714069687031
 30
0.0
 10
183.3412789368507
 20
135.6639682952137
 30
0.0
 10
182.8425054163107
 20
135.8965661980079
 30
0.0
 10
182.6214078231107
 20
135.9996727872179
 30
0.0
  0
SPLINE
  5
100
330
1F
100
AcDbEntity
  8
0
  6
HIDDEN
 62
     7
370
     0
100
AcDbSpline
210
0.0
220
0.0
230
1.0
 70
     8
 71
     3
 72
    11
 73
     7
 74
     0
 42
0.000000001
 43
0.00000001
 40
0.0
 40
0.0
 40
0.0
 40
0.0
 40
0.1285561766307377
 40
0.4801535797842304
 40
0.815069183175394
 40
1.0
 40
1.0
 40
1.0
 40
1.0
 10
182.6214078231107
 20
135.9996727872179
 30
0.0
 10
182.5417475790596
 20
135.9445723816076
 30
0.0
 10
182.2442188849893
 20
135.7387739696235
 30
0.0
 10
181.6862859462769
 20
135.5403899229849
 30
0.0
 10
181.0821622635166
 20
135.702394254005
 30
0.0
 10
180.758528789182
 20
135.9216680517041
 30
0.0
 10
180.6433990115534
 20
135.9996727872179
 30
0.0
  0
LINE
  5
101
330
1F
100
AcDbEntity
  8
0
  6
HIDDEN
 62
     7
370
     0
100
AcDbLine
 10
180.953285307
 20
128.1129214413
 30
0.0
 11
185.953285307
 21
128.1129214413
 31
0.0
  0
LINE
  5
102
330
1F
100
AcDbEntity
  8
0
  6
HIDDEN
 62
     7
370
     0
100
AcDbLine
 10
184.2851627909
 20
129.1129214413
 30
0.0
 11
182.8802196431
 21
129.1129214413
 31
0.0
  0
LINE
  5
103
330
1F
100
AcDbEntity
  8
0
  6
HIDDEN
 62
     7
370
     0
100
AcDbLine
 10
182.8802196431
 20
129.1129214413
 30
0.0
 11
181.4752764954
 21
129.1129214413
 31
0.0
  0
LINE
  5
104
330
1F
100
AcDbEntity
  8
0
  6
HIDDEN
 62
     7
370
     0
100
AcDbLine
 10
185.2741671966
 20
129.1129214413
 30
0.0
 11
184.2851627909
 21
129.1129214413
 31
0.0
  0
LINE
  5
105
330
1F
100
AcDbEntity
  8
0
  6
HIDDEN
 62
     7
370
     0
100
AcDbLine
 10
184.2851627909
 20
129.1129214413
 30
0.0
 11
184.2851627909
 21
135.9996727872
 31
0.0
  0
LINE
  5
106
330
1F
100
AcDbEntity
  8
0
  6
HIDDEN
 62
     7
370
     0
100
AcDbLine
 10
181.4752764954
 20
129.1129214413
 30
0.0
 11
181.0593377535
 21
129.1129214413
 31
0.0
  0
LINE
  5
107
330
1F
100
AcDbEntity
  8
0
  6
HIDDEN
 62
     7
370
     0
100
AcDbLine
 10
181.4752764954
 20
129.1129214413
 30
0.0
 11
181.4752764954
 21
135.9996727872
 31
0.0
  0
LINE
  5
108
330
1F
100
AcDbEntity
  8
0
  6
HIDDEN
 62
     7
370
     0
100
AcDbLine
 10
186.2631716024
 20
129.1129214413
 30
0.0
 11
185.2741671966
 21
129.1129214413
 31
0.0
  0
LINE
  5
109
330
1F
100
AcDbEntity
  8
0
  6
HIDDEN
 62
     7
370
     0
100
AcDbLine
 10
185.4312941185
 20
129.1129214413
 30
0.0
 11
185.4312941185
 21
135.9996727872
 31
0.0
  0
LINE
  5
10A
330
1F
100
AcDbEntity
  8
0
  6
HIDDEN
 62
     7
370
     0
100
AcDbLine
 10
186.2631716024
 20
129.1129214413
 30
0.0
 11
186.2631716024
 21
135.9996727872
 31
0.0
  0
LINE
  5
10B
330
1F
100
AcDbEntity
  8
0
  6
HIDDEN
 62
     7
370
     0
100
AcDbLine
 10
181.0593377535
 20
129.1129214413
 30
0.0
 11
180.6433990116
 21
129.1129214413
 31
0.0
  0
LINE
  5
10C
330
1F
100
AcDbEntity
  8
0
  6
HIDDEN
 62
     7
370
     0
100
AcDbLine
 10
182.6214078231
 20
129.1129214413
 30
0.0
 11
182.6214078231
 21
135.9996727872
 31
0.0
  0
LINE
  5
10D
330
1F
100
AcDbEntity
  8
0
  6
HIDDEN
 62
     7
370
     0
100
AcDbLine
 10
180.6433990116
 20
129.1129214413
 30
0.0
 11
180.6433990116
 21
135.9996727872
 31
0.0
  0
LINE
  5
10E
330
1F
100
AcDbEntity
  8
0
  6
HIDDEN
 62
     7
370
     0
100
AcDbLine
 10
155.1113524755
 20
140.5716111036
 30
0.0
 11
155.1113524755
 21
135.9629214413
 31
0.0
  0
LINE
  5
10F
330
1F
100
AcDbEntity
  8
0
  6
HIDDEN
 62
     7
370
     0
100
AcDbLine
 10
128.4984355116
 20
92.5883218184
 30
0.0
 11
128.2495706927
 21
92.5650588519
 31
0.0
  0
SPLINE
  5
110
330
1F
100
AcDbEntity
  8
0
  6
HIDDEN
 62
     7
370
     0
100
AcDbSpline
210
0.0
220
0.0
230
1.0
 70
     8
 71
     3
 72
    10
 73
     6
 74
     0
 42
0.000000001
 43
0.00000001
 40
0.0
 40
0.0
 40
0.0
 40
0.0
 40
0.4476079395221241
 40
0.8951991190808309
 40
1.0
 40
1.0
 40
1.0
 40
1.0
 10
134.2582873085824
 20
135.9504499170863
 30
0.0
 10
134.5049912219549
 20
135.979962312015
 30
0.0
 10
134.9983898112663
 20
136.0389859968281
 30
0.0
 10
135.2874032000184
 20
136.0529240504804
 30
0.0
 10
135.2270494829163
 20
136.0490342296907
 30
0.0
 10
135.2155990599801
 20
136.0482962454318
 30
0.0
  0
SPLINE
  5
111
330
1F
100
AcDbEntity
  8
0
  6
HIDDEN
 62
     7
370
     0
100
AcDbSpline
210
0.0
220
0.0
230
1.0
 70
     8
 71
     3
 72
    10
 73
     6
 74
     0
 42
0.000000001
 43
0.00000001
 40
0.0
 40
0.0
 40
0.0
 40
0.0
 40
0.3456501241481014
 40
0.7967514839515537
 40
1.0
 40
1.0
 40
1.0
 40
1.0
 10
135.2156303652087
 20
96.17754450905544
 30
0.0
 10
135.2060708042907
 20
96.17809997472997
 30
0.0
 10
135.1840352434295
 20
96.1793803680224
 30
0.0
 10
134.7670183596972
 20
96.20934313472279
 30
0.0
 10
134.3788552016468
 20
96.25973933292786
 30
0.0
 10
134.2582873085824
 20
96.27539296545334
 30
0.0
  0
SPLINE
  5
112
330
1F
100
AcDbEntity
  8
0
  6
HIDDEN
 62
     7
370
     0
100
AcDbSpline
210
0.0
220
0.0
230
1.0
 70
     8
 71
     3
 72
    15
 73
    11
 74
     0
 42
0.000000001
 43
0.00000001
 40
0.0
 40
0.0
 40
0.0
 40
0.0
 40
0.1409172169897704
 40
0.2818898291171903
 40
0.4212989265166054
 40
0.5593768372264384
 40
0.6988856205980564
 40
0.8403671979046404
 40
0.981316445467026
 40
1.0
 40
1.0
 40
1.0
 40
1.0
 10
134.2582873085824
 20
96.27539296545334
 30
0.0
 10
133.9422456223098
 20
96.31574678277495
 30
0.0
 10
133.3100380124778
 20
96.39647028066977
 30
0.0
 10
132.0758748908006
 20
96.47302537827207
 30
0.0
 10
130.8051528899421
 20
96.46834932713301
 30
0.0
 10
129.6165934849146
 20
96.3875533154008
 30
0.0
 10
128.6234708121336
 20
96.26315651888906
 30
0.0
 10
127.984061805837
 20
96.15675298022694
 30
0.0
 10
127.7030416992534
 20
96.10367231954977
 30
0.0
 10
127.7696024369466
 20
96.11592835956404
 30
0.0
 10
127.7773927604649
 20
96.11736281657386
 30
0.0
  0
SPLINE
  5
113
330
1F
100
AcDbEntity
  8
0
  6
HIDDEN
 62
     7
370
     0
100
AcDbSpline
210
0.0
220
0.0
230
1.0
 70
     8
 71
     3
 72
    15
 73
    11
 74
     0
 42
0.000000001
 43
0.00000001
 40
0.0
 40
0.0
 40
0.0
 40
0.0
 40
0.1201202395113821
 40
0.2584739316900685
 40
0.3987301965958632
 40
0.5404022890432693
 40
0.6807395403003639
 40
0.8190356063860867
 40
0.9577823106998834
 40
1.0
 40
1.0
 40
1.0
 40
1.0
 10
127.7773927604649
 20
136.1084800659658
 30
0.0
 10
127.7981018969353
 20
136.1044554721121
 30
0.0
 10
127.8426636789231
 20
136.0957953778512
 30
0.0
 10
128.4051032847958
 20
135.9965042512426
 30
0.0
 10
129.2985654971172
 20
135.8725866612613
 30
0.0
 10
130.4575446513093
 20
135.7728762244399
 30
0.0
 10
131.7305815314347
 20
135.7457377353643
 30
0.0
 10
132.9648668060783
 20
135.8010765695282
 30
0.0
 10
133.7928296028443
 20
135.8875551685123
 30
0.0
 10
134.1702401475083
 20
135.9385525868022
 30
0.0
 10
134.2582873085825
 20
135.9504499170862
 30
0.0
  0
CIRCLE
  5
114
330
1F
100
AcDbEntity
  8
0
  6
HIDDEN
 62
     7
370
     0
100
AcDbCircle
 10
183.453285307
 20
116.1129214413
 30
0.0
 40
4.499999999999986
  0
LINE
  5
115
330
1F
100
AcDbEntity
  8
0
  6
HIDDEN
 62
     7
370
     0
100
AcDbLine
 10
121.5072599032
 20
99.1129214413
 30
0.0
 11
121.5072599032
 21
133.1129214413
 31
0.0
  0
SPLINE
  5
116
330
1F
100
AcDbEntity
  8
0
  6
HIDDEN
 62
     7
370
     0
100
AcDbSpline
210
0.0
220
0.0
230
1.0
 70
     8
 71
     3
 72
     8
 73
     4
 74
     0
 42
0.000000001
 43
0.00000001
 40
0.0
 40
0.0
 40
0.0
 40
0.0
 40
0.0011559732291308
 40
0.0011559732291308
 40
0.0011559732291308
 40
0.0011559732291308
 10
108.6032853069808
 20
118.1127620598964
 30
0.0
 10
108.9366198820481
 20
118.1087947800972
 30
0.0
 10
109.2699510730749
 20
118.1046148975266
 30
0.0
 10
109.6032853069808
 20
118.1000497441188
 30
0.0
  0
SPLINE
  5
117
330
1F
100
AcDbEntity
  8
0
  6
HIDDEN
 62
     7
370
     0
100
AcDbSpline
210
0.0
220
0.0
230
1.0
 70
     8
 71
     3
 72
    11
 73
     7
 74
     0
 42
0.000000001
 43
0.00000001
 40
0.0
 40
0.0
 40
0.0
 40
0.0
 40
0.0005782382535738
 40
0.0005782382535738
 40
0.0005782382535738
 40
0.0011564766069467
 40
0.0011564766069467
 40
0.0011564766069467
 40
0.0011564766069467
 10
109.6032853069808
 20
114.1162211390515
 30
0.0
 10
109.4366313530122
 20
114.1157835612899
 30
0.0
 10
109.2699706808102
 20
114.1153034966175
 30
0.0
 10
109.1033037921448
 20
114.1147839572481
 30
0.0
 10
108.9366368737488
 20
114.1142644177861
 30
0.0
 10
108.7699637439155
 20
114.1137055887642
 30
0.0
 10
108.6032853069808
 20
114.1131200451811
 30
0.0
  0
LINE
  5
118
330
1F
100
AcDbEntity
  8
0
  6
HIDDEN
 62
     7
370
     0
100
AcDbLine
 10
148.1631112755
 20
99.1129214413
 30
0.0
 11
148.1631112755
 21
133.1129214413
 31
0.0
  0
LINE
  5
119
330
1F
100
AcDbEntity
  8
0
  6
HIDDEN
 62
     7
370
     0
100
AcDbLine
 10
150.453285307
 20
100.3879214413
 30
0.0
 11
150.453285307
 21
131.8379214413
 31
0.0
  0
SPLINE
  5
11A
330
1F
100
AcDbEntity
  8
0
  6
HIDDEN
 62
     7
370
     0
100
AcDbSpline
210
0.0
220
0.0
230
1.0
 70
     8
 71
     3
 72
    16
 73
    12
 74
     0
 42
0.000000001
 43
0.00000001
 40
0.0
 40
0.0
 40
0.0
 40
0.0
 40
0.124999999999998
 40
0.124999999999998
 40
0.249999999999996
 40
0.249999999999996
 40
0.4999999999999973
 40
0.4999999999999973
 40
0.7499999999999987
 40
0.7499999999999987
 40
1.0
 40
1.0
 40
1.0
 40
1.0
 10
117.3032853069808
 20
100.3114310052381
 30
0.0
 10
117.3984070616466
 20
100.3114310052381
 30
0.0
 10
117.4917371303747
 20
100.3076151718453
 30
0.0
 10
117.6749988911127
 20
100.2928446191155
 30
0.0
 10
117.7658766066697
 20
100.2816865711399
 30
0.0
 10
118.0226783041895
 20
100.2392153009982
 30
0.0
 10
118.1777456690615
 20
100.1981691037954
 30
0.0
 10
118.4314921306161
 20
100.1030229872135
 30
0.0
 10
118.5323625822839
 20
100.048260253132
 30
0.0
 10
118.6676089969788
 20
99.93699912922807
 30
0.0
 10
118.7032853069808
 20
99.87982939189939
 30
0.0
 10
118.7032853069808
 20
99.82540781886567
 30
0.0
  0
SPLINE
  5
11B
330
1F
100
AcDbEntity
  8
0
  6
HIDDEN
 62
     7
370
     0
100
AcDbSpline
210
0.0
220
0.0
230
1.0
 70
     8
 71
     3
 72
     8
 73
     4
 74
     0
 42
0.000000001
 43
0.00000001
 40
0.0
 40
0.0
 40
0.0
 40
0.0
 40
1.0
 40
1.0
 40
1.0
 40
1.0
 10
109.9032853069819
 20
102.4562339513204
 30
0.0
 10
109.9032853069838
 20
101.5723368090034
 30
0.0
 10
109.8898046810743
 20
100.8577535639415
 30
0.0
 10
109.8884533128832
 20
100.3114310052381
 30
0.0
  0
SPLINE
  5
11C
330
1F
100
AcDbEntity
  8
0
  6
HIDDEN
 62
     7
370
     0
100
AcDbSpline
210
0.0
220
0.0
230
1.0
 70
     8
 71
     3
 72
    10
 73
     6
 74
     0
 42
0.000000001
 43
0.00000001
 40
0.0
 40
0.0
 40
0.0
 40
0.0
 40
0.5
 40
0.5
 40
1.0
 40
1.0
 40
1.0
 40
1.0
 10
109.6032853069808
 20
103.4811442106157
 30
0.0
 10
109.69467642162
 20
103.3065054240692
 30
0.0
 10
109.7673282546603
 20
103.1329035979228
 30
0.0
 10
109.8748271464806
 20
102.7892901810816
 30
0.0
 10
109.9032853069763
 20
102.6209643555971
 30
0.0
 10
109.9032853069819
 20
102.4562339513799
 30
0.0
  0
LINE
  5
11D
330
1F
100
AcDbEntity
  8
0
  6
HIDDEN
 62
     7
370
     0
100
AcDbLine
 10
109.603285307
 20
106.5120946565
 30
0.0
 11
109.603285307
 21
103.4811442106
 31
0.0
  0
SPLINE
  5
11E
330
1F
100
AcDbEntity
  8
0
  6
HIDDEN
 62
     7
370
     0
100
AcDbSpline
210
0.0
220
0.0
230
1.0
 70
     8
 71
     3
 72
    10
 73
     6
 74
     0
 42
0.000000001
 43
0.00000001
 40
0.0
 40
0.0
 40
0.0
 40
0.0
 40
0.5
 40
0.5
 40
1.0
 40
1.0
 40
1.0
 40
1.0
 10
109.9032853069443
 20
107.879935065627
 30
0.0
 10
109.9032853069443
 20
107.637951099455
 30
0.0
 10
109.8751352781981
 20
107.4036086718358
 30
0.0
 10
109.7715453652274
 20
106.948233652101
 30
0.0
 10
109.6949166564657
 20
106.7266290902188
 30
0.0
 10
109.6032853069808
 20
106.5120946565095
 30
0.0
  0
LINE
  5
11F
330
1F
100
AcDbEntity
  8
0
  6
HIDDEN
 62
     7
370
     0
100
AcDbLine
 10
109.9032853069
 20
119.7175550628
 30
0.0
 11
109.9032853069
 21
107.8799350656
 31
0.0
  0
SPLINE
  5
120
330
1F
100
AcDbEntity
  8
0
  6
HIDDEN
 62
     7
370
     0
100
AcDbSpline
210
0.0
220
0.0
230
1.0
 70
     8
 71
     3
 72
     8
 73
     4
 74
     0
 42
0.000000001
 43
0.00000001
 40
0.0
 40
0.0
 40
0.0
 40
0.0
 40
1.0
 40
1.0
 40
1.0
 40
1.0
 10
109.6032853069808
 20
125.719860754549
 30
0.0
 10
109.7843167716478
 20
125.2877532711376
 30
0.0
 10
109.90328530695
 20
124.8336078675612
 30
0.0
 10
109.9032853069443
 20
124.3459078168817
 30
0.0
  0
LINE
  5
121
330
1F
100
AcDbEntity
  8
0
  6
HIDDEN
 62
     7
370
     0
100
AcDbLine
 10
109.603285307
 20
128.7530637547
 30
0.0
 11
109.603285307
 21
125.7198607545
 31
0.0
  0
SPLINE
  5
122
330
1F
100
AcDbEntity
  8
0
  6
HIDDEN
 62
     7
370
     0
100
AcDbSpline
210
0.0
220
0.0
230
1.0
 70
     8
 71
     3
 72
    10
 73
     6
 74
     0
 42
0.000000001
 43
0.00000001
 40
0.0
 40
0.0
 40
0.0
 40
0.0
 40
0.5
 40
0.5
 40
1.0
 40
1.0
 40
1.0
 40
1.0
 10
109.9032853070859
 20
129.7696089311896
 30
0.0
 10
109.9032853070841
 20
129.6049725855964
 30
0.0
 10
109.8761266366593
 20
129.43781736281
 30
0.0
 10
109.7703616425998
 20
129.0991943571478
 30
0.0
 10
109.693946855079
 20
128.9269225809912
 30
0.0
 10
109.6032853069809
 20
128.7530637547407
 30
0.0
  0
SPLINE
  5
123
330
1F
100
AcDbEntity
  8
0
  6
HIDDEN
 62
     7
370
     0
100
AcDbSpline
210
0.0
220
0.0
230
1.0
 70
     8
 71
     3
 72
    18
 73
    14
 74
     0
 42
0.000000001
 43
0.00000001
 40
0.0
 40
0.0
 40
0.0
 40
0.0
 40
0.2500000000000033
 40
0.2500000000000033
 40
0.3750000000000029
 40
0.3750000000000029
 40
0.5000000000000026
 40
0.5000000000000026
 40
0.6250000000000022
 40
0.6250000000000022
 40
0.7500000000000018
 40
0.7500000000000018
 40
1.0
 40
1.0
 40
1.0
 40
1.0
 10
114.7032853069808
 20
132.4004350636739
 30
0.0
 10
114.7032853069808
 20
132.3459605431217
 30
0.0
 10
114.6683746155886
 20
132.2895794837692
 30
0.0
 10
114.5663653142556
 20
132.2055026429157
 30
0.0
 10
114.5247289595775
 20
132.1781689389248
 30
0.0
 10
114.4263231640887
 20
132.1252150233259
 30
0.0
 10
114.3687799523845
 20
132.0993276696087
 30
0.0
 10
114.2414817788115
 20
132.0515501247754
 30
0.0
 10
114.171894474054
 20
132.0296022065975
 30
0.0
 10
114.0204602288991
 20
131.9901696416848
 30
0.0
 10
113.9377763258051
 20
131.972613392459
 30
0.0
 10
113.6816648637671
 20
131.9301746270384
 30
0.0
 10
113.4937498598791
 20
131.9144118773015
 30
0.0
 10
113.3032853069808
 20
131.9144118773015
 30
0.0
  0
LINE
  5
124
330
1F
100
AcDbEntity
  8
0
  6
HIDDEN
 62
     7
370
     0
100
AcDbLine
 10
113.303285307
 20
131.9144118773
 30
0.0
 11
109.9032853071
 21
131.9144118773
 31
0.0
  0
LINE
  5
125
330
1F
100
AcDbEntity
  8
0
  6
HIDDEN
 62
     7
370
     0
100
AcDbLine
 10
109.8343163203
 20
100.3114310052
 30
0.0
 11
117.303285307
 21
100.3114310052
 31
0.0
  0
SPLINE
  5
126
330
1F
100
AcDbEntity
  8
0
  6
HIDDEN
 62
     7
370
     0
100
AcDbSpline
210
0.0
220
0.0
230
1.0
 70
     8
 71
     3
 72
    22
 73
    18
 74
     0
 42
0.000000001
 43
0.00000001
 40
0.0
 40
0.0
 40
0.0
 40
0.0
 40
0.1249999999999999
 40
0.1249999999999999
 40
0.2499999999999997
 40
0.2499999999999997
 40
0.4999999999999999
 40
0.4999999999999999
 40
0.5624999999999998
 40
0.5624999999999998
 40
0.6249999999999998
 40
0.6249999999999998
 40
0.7499999999999998
 40
0.7499999999999998
 40
0.8749999999999999
 40
0.8749999999999999
 40
1.0
 40
1.0
 40
1.0
 40
1.0
 10
109.8343163203387
 20
100.3114310052381
 30
0.0
 10
109.8212339276103
 20
100.5665367153858
 30
0.0
 10
109.8080143641705
 20
100.8596949744897
 30
0.0
 10
109.7855671863764
 20
101.5219954401145
 30
0.0
 10
109.7760887193519
 20
101.8922693607259
 30
0.0
 10
109.7568907584154
 20
103.1148261638397
 30
0.0
 10
109.7580045314123
 20
104.0519650899716
 30
0.0
 10
109.7769153243654
 20
105.3718363194865
 30
0.0
 10
109.7815448522243
 20
105.6433382284629
 30
0.0
 10
109.7920260719703
 20
106.2017230632651
 30
0.0
 10
109.7978213332547
 20
106.4888459192048
 30
0.0
 10
109.8161305541596
 20
107.3614351735765
 30
0.0
 10
109.83016548844
 20
107.9618908499323
 30
0.0
 10
109.8596226605769
 20
109.1993653424284
 30
0.0
 10
109.8751783515584
 20
109.8363814990718
 30
0.0
 10
109.8989729015553
 20
111.1478700967564
 30
0.0
 10
109.9069919537007
 20
111.8239927084169
 30
0.0
 10
109.9032853069808
 20
112.5082878197017
 30
0.0
  0
LINE
  5
127
330
1F
100
AcDbEntity
  8
0
  6
HIDDEN
 62
     7
370
     0
100
AcDbLine
 10
109.9032853071
 20
119.7175550628
 30
0.0
 11
109.9032853071
 21
131.9144118773
 31
0.0
  0
SPLINE
  5
128
330
1F
100
AcDbEntity
  8
0
  6
HIDDEN
 62
     7
370
     0
100
AcDbSpline
210
0.0
220
0.0
230
1.0
 70
     8
 71
     3
 72
    10
 73
     6
 74
     0
 42
0.000000001
 43
0.00000001
 40
0.0
 40
0.0
 40
0.0
 40
0.0
 40
0.5
 40
0.5
 40
1.0
 40
1.0
 40
1.0
 40
1.0
 10
109.9032853069808
 20
112.5082878196866
 30
0.0
 10
109.9032853069806
 20
112.7822029677607
 30
0.0
 10
109.8775260771118
 20
113.0531445464903
 30
0.0
 10
109.7743201443784
 20
113.5888356280925
 30
0.0
 10
109.696981980504
 20
113.8545824316142
 30
0.0
 10
109.6032853069808
 20
114.1162211390516
 30
0.0
  0
SPLINE
  5
129
330
1F
100
AcDbEntity
  8
0
  6
HIDDEN
 62
     7
370
     0
100
AcDbSpline
210
0.0
220
0.0
230
1.0
 70
     8
 71
     3
 72
    10
 73
     6
 74
     0
 42
0.000000001
 43
0.00000001
 40
0.0
 40
0.0
 40
0.0
 40
0.0
 40
0.5
 40
0.5
 40
1.0
 40
1.0
 40
1.0
 40
1.0
 10
109.6032853069808
 20
118.1000497441188
 30
0.0
 10
109.6965158873319
 20
118.3639435507171
 30
0.0
 10
109.7715454988606
 20
118.6301238598155
 30
0.0
 10
109.8766125968402
 20
119.1684464316341
 30
0.0
 10
109.9032853070847
 20
119.4411945462498
 30
0.0
 10
109.9032853070859
 20
119.7175550628369
 30
0.0
  0
LINE
  5
12A
330
1F
100
AcDbEntity
  8
0
  6
HIDDEN
 62
     7
370
     0
100
AcDbLine
 10
109.603285307
 20
114.1162211391
 30
0.0
 11
109.603285307
 21
118.1000497441
 31
0.0
  0
LINE
  5
12B
330
1F
100
AcDbEntity
  8
0
  6
HIDDEN
 62
     7
370
     0
100
AcDbLine
 10
167.003285307
 20
116.1129214413
 30
0.0
 11
167.003285307
 21
105.6129214413
 31
0.0
  0
LINE
  5
12C
330
1F
100
AcDbEntity
  8
0
  6
HIDDEN
 62
     7
370
     0
100
AcDbLine
 10
167.003285307
 20
126.6129214413
 30
0.0
 11
167.003285307
 21
116.1129214413
 31
0.0
  0
LINE
  5
12D
330
1F
100
AcDbEntity
  8
0
  6
HIDDEN
 62
     7
370
     0
100
AcDbLine
 10
109.753285307
 20
98.1229214413
 30
0.0
 11
109.753285307
 21
95.2429836759
 31
0.0
  0
LINE
  5
12E
330
1F
100
AcDbEntity
  8
0
  6
HIDDEN
 62
     7
370
     0
100
AcDbLine
 10
170.8693107108
 20
116.1129214413
 30
0.0
 11
170.8693107108
 21
105.1129214413
 31
0.0
  0
LINE
  5
12F
330
1F
100
AcDbEntity
  8
0
  6
HIDDEN
 62
     7
370
     0
100
AcDbLine
 10
170.8693107108
 20
127.1129214413
 30
0.0
 11
170.8693107108
 21
116.1129214413
 31
0.0
  0
SPLINE
  5
130
330
1F
100
AcDbEntity
  8
0
  6
HIDDEN
 62
     7
370
     0
100
AcDbSpline
210
0.0
220
0.0
230
1.0
 70
     8
 71
     3
 72
    23
 73
    19
 74
     0
 42
0.000000001
 43
0.00000001
 40
0.0
 40
0.0
 40
0.0
 40
0.0
 40
0.0496379100584459
 40
0.1507191781645372
 40
0.2022728257491687
 40
0.2519055354140389
 40
0.3527220019295763
 40
0.4039851185790567
 40
0.4563101469956986
 40
0.5625956856621603
 40
0.6166735122522568
 40
0.6710090739617403
 40
0.725745456557293
 40
0.7817945218764748
 40
0.8383206859664202
 40
0.8898723053993951
 40
0.9949379420502087
 40
1.0
 40
1.0
 40
1.0
 40
1.0
 10
183.4532853069808
 20
126.1503513912121
 30
0.0
 10
183.5715010148511
 20
126.1516118919669
 30
0.0
 10
183.9304479228771
 20
126.1554392416201
 30
0.0
 10
184.407665337224
 20
126.1911245237027
 30
0.0
 10
184.8678113833211
 20
126.2476349736382
 30
0.0
 10
185.3137823842208
 20
126.3173356641205
 30
0.0
 10
185.7356329312888
 20
126.4033470058703
 30
0.0
 10
186.1307372997865
 20
126.5000444908038
 30
0.0
 10
186.5123555541981
 20
126.603439340189
 30
0.0
 10
186.859199144893
 20
126.7106702692074
 30
0.0
 10
187.1612067185483
 20
126.8126888148952
 30
0.0
 10
187.364855194711
 20
126.8851028602148
 30
0.0
 10
187.5429864348168
 20
126.9511856359259
 30
0.0
 10
187.6928793114641
 20
127.0087458097768
 30
0.0
 10
187.8087646881354
 20
127.0544780769799
 30
0.0
 10
187.9146788010716
 20
127.0970477758751
 30
0.0
 10
187.962045435197
 20
127.1165016820567
 30
0.0
 10
187.9523362408721
 20
127.1125336492752
 30
0.0
 10
187.9518899543636
 20
127.1123512572624
 30
0.0
  0
LINE
  5
131
330
1F
100
AcDbEntity
  8
0
  6
HIDDEN
 62
     7
370
     0
100
AcDbLine
 10
183.8660802379
 20
126.1607274613
 30
0.0
 11
183.2014235805
 21
126.154200809
 31
0.0
  0
SPLINE
  5
132
330
1F
100
AcDbEntity
  8
0
  6
HIDDEN
 62
     7
370
     0
100
AcDbSpline
210
0.0
220
0.0
230
1.0
 70
     8
 71
     3
 72
    27
 73
    23
 74
     0
 42
0.000000001
 43
0.00000001
 40
0.0
 40
0.0
 40
0.0
 40
0.0
 40
0.02105350681786
 40
0.107407165834691
 40
0.1515459205400464
 40
0.1910685496807531
 40
0.2715540122445652
 40
0.3126195612505097
 40
0.3509230976269902
 40
0.4287441779132152
 40
0.4683276219432709
 40
0.5083849400420921
 40
0.5897125977555869
 40
0.6310547997827485
 40
0.6736540013057457
 40
0.716545497322706
 40
0.7603794343532739
 40
0.8045525953324776
 40
0.8466604718606313
 40
0.9325329262245472
 40
0.9764538641713553
 40
1.0
 40
1.0
 40
1.0
 40
1.0
 10
179.349786764626
 20
126.9569905813846
 30
0.0
 10
179.323558299412
 20
126.966884783865
 30
0.0
 10
179.1897504194614
 20
127.0173613270751
 30
0.0
 10
179.0647680217269
 20
127.0677323896345
 30
0.0
 10
178.9807409490459
 20
127.1016744758059
 30
0.0
 10
178.9423011551582
 20
127.1174319706589
 30
0.0
 10
178.9629779667352
 20
127.1088986590445
 30
0.0
 10
179.0420092258536
 20
127.0768546090998
 30
0.0
 10
179.1561723482989
 20
127.0312372557223
 30
0.0
 10
179.3211219589719
 20
126.9669328889034
 30
0.0
 10
179.536225887576
 20
126.8871727531997
 30
0.0
 10
179.7880840605831
 20
126.7973463850175
 30
0.0
 10
180.0899954066157
 20
126.6967490524073
 30
0.0
 10
180.438519558418
 20
126.5922142199714
 30
0.0
 10
180.7268663371732
 20
126.5126878205223
 30
0.0
 10
181.0408102408391
 20
126.4345862084448
 30
0.0
 10
181.3772428220812
 20
126.3609038449532
 30
0.0
 10
181.7284878535272
 20
126.2954536057452
 30
0.0
 10
182.2116319840509
 20
126.2217931394818
 30
0.0
 10
182.7182203187904
 20
126.1716746258837
 30
0.0
 10
183.1788435467327
 20
126.1521150475377
 30
0.0
 10
183.3822841524016
 20
126.1508076688402
 30
0.0
 10
183.4532853069808
 20
126.1503513912121
 30
0.0
  0
LINE
  5
133
330
1F
100
AcDbEntity
  8
0
  6
HIDDEN
 62
     7
370
     0
100
AcDbLine
 10
118.703285307
 20
98.1229214413
 30
0.0
 11
118.703285307
 21
94.1491839101
 31
0.0
  0
LINE
  5
134
330
1F
100
AcDbEntity
  8
0
  6
HIDDEN
 62
     7
370
     0
100
AcDbLine
 10
109.753285307
 20
134.1029214413
 30
0.0
 11
109.753285307
 21
136.9828592067
 31
0.0
  0
LINE
  5
135
330
1F
100
AcDbEntity
  8
0
  6
HIDDEN
 62
     7
370
     0
100
AcDbLine
 10
114.703285307
 20
134.1029214413
 30
0.0
 11
114.703285307
 21
137.9570291136
 31
0.0
  0
LINE
  5
136
330
1F
100
AcDbEntity
  8
0
  6
HIDDEN
 62
     7
370
     0
100
AcDbLine
 10
162.303285307
 20
106.6129214413
 30
0.0
 11
162.303285307
 21
125.6129214413
 31
0.0
  0
LINE
  5
137
330
1F
100
AcDbEntity
  8
0
  6
HIDDEN
 62
     7
370
     0
100
AcDbLine
 10
159.303285307
 20
106.6129214413
 30
0.0
 11
159.303285307
 21
125.6129214413
 31
0.0
  0
LINE
  5
138
330
1F
100
AcDbEntity
  8
0
  6
HIDDEN
 62
     7
370
     0
100
AcDbLine
 10
150.953285307
 20
107.6129214413
 30
0.0
 11
150.953285307
 21
124.6129214413
 31
0.0
  0
LINE
  5
139
330
1F
100
AcDbEntity
  8
0
  6
HIDDEN
 62
     7
370
     0
100
AcDbLine
 10
166.453285307
 20
89.7129214413
 30
0.0
 11
160.3156105046
 21
89.7129214413
 31
0.0
  0
LINE
  5
13A
330
1F
100
AcDbEntity
  8
0
  6
HIDDEN
 62
     7
370
     0
100
AcDbLine
 10
156.6909601093
 20
89.7129214413
 30
0.0
 11
153.453285307
 21
89.7129214413
 31
0.0
  0
LINE
  5
13B
330
1F
100
AcDbEntity
  8
0
  6
HIDDEN
 62
     7
370
     0
100
AcDbLine
 10
145.453285307
 20
84.6287984584
 30
0.0
 11
145.453285307
 21
89.7129214413
 31
0.0
  0
LINE
  5
13C
330
1F
100
AcDbEntity
  8
0
  6
HIDDEN
 62
     7
370
     0
100
AcDbLine
 10
153.453285307
 20
89.7129214413
 30
0.0
 11
145.453285307
 21
89.7129214413
 31
0.0
  0
LINE
  5
13D
330
1F
100
AcDbEntity
  8
0
  6
HIDDEN
 62
     7
370
     0
100
AcDbLine
 10
166.453285307
 20
142.5129214413
 30
0.0
 11
160.0189877753
 21
142.5129214413
 31
0.0
  0
LINE
  5
13E
330
1F
100
AcDbEntity
  8
0
  6
HIDDEN
 62
     7
370
     0
100
AcDbLine
 10
156.9875828387
 20
142.5129214413
 30
0.0
 11
153.453285307
 21
142.5129214413
 31
0.0
  0
LINE
  5
13F
330
1F
100
AcDbEntity
  8
0
  6
HIDDEN
 62
     7
370
     0
100
AcDbLine
 10
153.453285307
 20
142.5129214413
 30
0.0
 11
145.453285307
 21
142.5129214413
 31
0.0
  0
SPLINE
  5
140
330
1F
100
AcDbEntity
  8
0
  6
HIDDEN
 62
     7
370
     0
100
AcDbSpline
210
0.0
220
0.0
230
1.0
 70
     8
 71
     3
 72
    11
 73
     7
 74
     0
 42
0.000000001
 43
0.00000001
 40
0.0
 40
0.0
 40
0.0
 40
0.0
 40
0.0008203708524183
 40
0.0008203708524183
 40
0.0008203708524183
 40
0.0016409967870154
 40
0.0016409967870154
 40
0.0016409967870154
 40
0.0016409967870154
 10
109.7532853069808
 20
100.2608886906271
 30
0.0
 10
109.5621270066821
 20
100.2197096620079
 30
0.0
 10
109.3706999366099
 20
100.1809556897779
 30
0.0
 10
109.1790543130893
 20
100.1445879304994
 30
0.0
 10
108.9873489080088
 20
100.1082088267333
 30
0.0
 10
108.7954099559499
 20
100.0742145759658
 30
0.0
 10
108.6032853088791
 20
100.0425664505746
 30
0.0
  0
ELLIPSE
  5
141
330
1F
100
AcDbEntity
  8
0
  6
HIDDEN
 62
     7
370
     0
100
AcDbEllipse
 10
104.3608534442
 20
116.1129214413
 30
0.0
 11
20.19992452772426
 21
-1.421085471520200E-14
 31
0.0
210
0.0
220
0.0
230
1.0
 40
0.816496581
 41
1.300566354937166
 42
1.359198697442763
  0
LINE
  5
142
330
1F
100
AcDbEntity
  8
0
  6
HIDDEN
 62
     7
370
     0
100
AcDbLine
 10
109.753285307
 20
98.1229214413
 30
0.0
 11
109.753285307
 21
100.2608886906
 31
0.0
  0
LINE
  5
143
330
1F
100
AcDbEntity
  8
0
  6
HIDDEN
 62
     7
370
     0
100
AcDbLine
 10
109.8343163203
 20
100.3114310052
 30
0.0
 11
109.753285307
 21
100.2608886906
 31
0.0
  0
LINE
  5
144
330
1F
100
AcDbEntity
  8
0
  6
HIDDEN
 62
     7
370
     0
100
AcDbLine
 10
118.703285307
 20
98.1229214413
 30
0.0
 11
118.703285307
 21
99.8254078189
 31
0.0
  0
LINE
  5
145
330
1F
100
AcDbEntity
  8
0
  6
HIDDEN
 62
     7
370
     0
100
AcDbLine
 10
114.703285307
 20
134.1029214413
 30
0.0
 11
114.703285307
 21
132.4004350637
 31
0.0
  0
LINE
  5
146
330
1F
100
AcDbEntity
  8
0
  6
HIDDEN
 62
     7
370
     0
100
AcDbLine
 10
109.753285307
 20
134.1029214413
 30
0.0
 11
109.753285307
 21
132.0075458903
 31
0.0
  0
SPLINE
  5
147
330
1F
100
AcDbEntity
  8
0
  6
HIDDEN
 62
     7
370
     0
100
AcDbSpline
210
0.0
220
0.0
230
1.0
 70
     8
 71
     3
 72
     8
 73
     4
 74
     0
 42
0.000000001
 43
0.00000001
 40
0.0
 40
0.0
 40
0.0
 40
0.0
 40
1.0
 40
1.0
 40
1.0
 40
1.0
 10
109.7532853069808
 20
132.0075458902683
 30
0.0
 10
109.8032908048283
 20
131.9765101167355
 30
0.0
 10
109.8532908743966
 20
131.9454654723947
 30
0.0
 10
109.903285307086
 20
131.9144118773014
 30
0.0
  0
LINE
  5
148
330
1F
100
AcDbEntity
  8
0
  6
HIDDEN
 62
     7
370
     0
100
AcDbLine
 10
183.453285307
 20
134.6129214413
 30
0.0
 11
187.953285307
 21
134.6129214413
 31
0.0
  0
LINE
  5
149
330
1F
100
AcDbEntity
  8
0
  6
HIDDEN
 62
     7
370
     0
100
AcDbLine
 10
178.953285307
 20
134.6129214413
 30
0.0
 11
183.453285307
 21
134.6129214413
 31
0.0
  0
LWPOLYLINE
  5
14A
330
1F
100
AcDbEntity
  8
0
  6
HIDDEN
 62
     7
370
     0
100
AcDbPolyline
 90
       25
 70
   128
 43
0.0
 10
135.2523650019
 20
92.5128882897
 10
135.2020933614
 20
92.5276704911
 10
135.02325907
 20
92.5740365659
 10
134.686147535
 20
92.6517202156
 10
134.4505032973
 20
92.7023061309
 10
134.1674564128
 20
92.76072144
 10
133.4256800042
 20
92.8908264742
 10
132.6954706894
 20
92.9914052851
 10
132.2520475789
 20
93.0420543684
 10
131.8590866376
 20
93.0795806859
 10
131.5240505383
 20
93.1039842374
 10
130.8836183347
 20
93.1284279038
 10
130.2024705545
 20
93.1300674138
 10
129.5139276466
 20
93.1089027675
 10
129.1807201253
 20
93.0897688857
 10
128.863801293
 20
93.0649339648
 10
128.2831552821
 20
93.0079583129
 10
127.947177987
 20
92.9671952043
 10
127.7924776258
 20
92.9426446389
 10
127.7533051178
 20
92.9343066166
 10
127.7899542059
 20
92.9422009151
 10
127.9423043887
 20
92.9663560664
 10
128.2742920036
 20
93.0067720704
 10
128.8471425325
 20
93.0634489272
 10
128.8471425325
 20
93.0634489272
  0
SPLINE
  5
14B
330
1F
100
AcDbEntity
  8
0
  6
HIDDEN
 62
     7
370
     0
100
AcDbSpline
210
0.0
220
0.0
230
1.0
 70
     8
 71
     3
 72
    27
 73
    23
 74
     0
 42
0.000000001
 43
0.00000001
 40
0.0
 40
0.0
 40
0.0
 40
0.0
 40
0.0008319703706513
 40
0.0457147209866782
 40
0.102296688146507
 40
0.1705751422242037
 40
0.209167020039407
 40
0.25069448039954
 40
0.3211406331758528
 40
0.3862347144993193
 40
0.4267140800406526
 40
0.4648455361558895
 40
0.5006500437392564
 40
0.5452420457196333
 40
0.6017366029794664
 40
0.6701429423607468
 40
0.7088804789316592
 40
0.7506094468769285
 40
0.8222744142605191
 40
0.8878141883160869
 40
0.9472882603967959
 40
1.0
 40
1.0
 40
1.0
 40
1.0
 10
127.7539727508974
 20
139.2913315008632
 30
0.0
 10
127.7537438708962
 20
139.2913808413639
 30
0.0
 10
127.7411674790369
 20
139.294091980249
 30
0.0
 10
127.7902372430567
 20
139.2822614394871
 30
0.0
 10
127.9353508229152
 20
139.2588151306857
 30
0.0
 10
128.2084001741949
 20
139.2249116357208
 30
0.0
 10
128.5369271095532
 20
139.1913427329461
 30
0.0
 10
128.9296547531324
 20
139.1531594226774
 30
0.0
 10
129.4793827809332
 20
139.1141907379029
 30
0.0
 10
130.1054054120477
 20
139.0947296367794
 30
0.0
 10
130.648596924723
 20
139.092543958425
 30
0.0
 10
131.0936658210798
 20
139.101058839703
 30
0.0
 10
131.5601136177979
 20
139.1208422366299
 30
0.0
 10
132.097354266324
 20
139.1650046220003
 30
0.0
 10
132.7455677002614
 20
139.2374202428126
 30
0.0
 10
133.3311063178582
 20
139.3183223328142
 30
0.0
 10
133.8120759619593
 20
139.3964883288931
 30
0.0
 10
134.2574907318707
 20
139.481260435318
 30
0.0
 10
134.6959912595702
 20
139.5750436850777
 30
0.0
 10
135.0350135758144
 20
139.6529466965476
 30
0.0
 10
135.2223337510289
 20
139.7031326588231
 30
0.0
 10
135.2428224297751
 20
139.7097984529235
 30
0.0
 10
135.2524492612137
 20
139.7129304497206
 30
0.0
  0
SPLINE
  5
14C
330
1F
100
AcDbEntity
  8
0
  6
HIDDEN
 62
     7
370
     0
100
AcDbSpline
210
0.0
220
0.0
230
1.0
 70
     8
 71
     3
 72
     8
 73
     4
 74
     0
 42
0.000000001
 43
0.00000001
 40
0.0
 40
0.0
 40
0.0
 40
0.0
 40
0.000159097691435
 40
0.000159097691435
 40
0.000159097691435
 40
0.000159097691435
 10
109.8884533128832
 20
100.3114310052381
 30
0.0
 10
109.8434018434838
 20
100.2834521216042
 30
0.0
 10
109.7983458061742
 20
100.2554805919187
 30
0.0
 10
109.7532853069808
 20
100.2275162532553
 30
0.0
  0
SPLINE
  5
14D
330
1F
100
AcDbEntity
  8
0
  6
HIDDEN
 62
     7
370
     0
100
AcDbSpline
210
0.0
220
0.0
230
1.0
 70
     8
 71
     3
 72
    11
 73
     7
 74
     0
 42
0.000000001
 43
0.00000001
 40
0.0
 40
0.0
 40
0.0
 40
0.0
 40
0.0008212909311356
 40
0.0008212909311356
 40
0.0008212909311356
 40
0.0016428257242859
 40
0.0016428257242859
 40
0.0016428257242859
 40
0.0016428257242859
 10
109.7532853069808
 20
100.2275162532553
 30
0.0
 10
109.5621402854985
 20
100.1842300644255
 30
0.0
 10
109.3707219498219
 20
100.1432935548115
 30
0.0
 10
109.1790758751608
 20
100.1046917834487
 30
0.0
 10
108.9873727936192
 20
100.0660785296353
 30
0.0
 10
108.7954276703338
 20
100.0297983203736
 30
0.0
 10
108.6032853069808
 20
99.99583141404688
 30
0.0
  0
LINE
  5
14E
330
1F
100
AcDbEntity
  8
0
  6
HIDDEN
 62
     7
370
     0
100
AcDbLine
 10
156.593285307
 20
136.2487880727
 30
0.0
 11
156.593285307
 21
135.9629214413
 31
0.0
  0
LINE
  5
14F
330
1F
100
AcDbEntity
  8
0
  6
HIDDEN
 62
     7
370
     0
100
AcDbLine
 10
160.413285307
 20
136.2487880727
 30
0.0
 11
160.413285307
 21
135.9629214413
 31
0.0
  0
LINE
  5
150
330
1F
100
AcDbEntity
  8
0
  6
HIDDEN
 62
     7
370
     0
100
AcDbLine
 10
161.8952181385
 20
140.5716111036
 30
0.0
 11
161.8952181385
 21
135.9629214413
 31
0.0
  0
SPLINE
  5
151
330
1F
100
AcDbEntity
  8
0
  6
HIDDEN
 62
     7
370
     0
100
AcDbSpline
210
0.0
220
0.0
230
1.0
 70
     8
 71
     3
 72
     8
 73
     4
 74
     0
 42
0.000000001
 43
0.00000001
 40
0.0000000000000004
 40
0.0000000000000004
 40
0.0000000000000004
 40
0.0000000000000004
 40
0.001156372467817
 40
0.001156372467817
 40
0.001156372467817
 40
0.001156372467817
 10
109.6032853069811
 20
128.7530637547455
 30
0.0
 10
109.2699641917839
 20
128.8821227803723
 30
0.0
 10
108.9366315109758
 20
129.0110831165408
 30
0.0
 10
108.6032853069808
 20
129.1399946463138
 30
0.0
  0
SPLINE
  5
152
330
1F
100
AcDbEntity
  8
0
  6
HIDDEN
 62
     7
370
     0
100
AcDbSpline
210
0.0
220
0.0
230
1.0
 70
     8
 71
     3
 72
    11
 73
     7
 74
     0
 42
0.000000001
 43
0.00000001
 40
0.0
 40
0.0
 40
0.0
 40
0.0
 40
0.000577874610501
 40
0.000577874610501
 40
0.000577874610501
 40
0.001155749485703
 40
0.001155749485703
 40
0.001155749485703
 40
0.001155749485703
 10
108.6032853069808
 20
103.0856995788191
 30
0.0
 10
108.7699521833939
 20
103.1515117056021
 30
0.0
 10
108.9366189029552
 20
103.2173701858297
 30
0.0
 10
109.1032855510038
 20
103.283277758852
 30
0.0
 10
109.2699522755225
 20
103.3491853621141
 30
0.0
 10
109.4366189699431
 20
103.4151424705961
 30
0.0
 10
109.6032853069808
 20
103.4811442106157
 30
0.0
  0
SPLINE
  5
153
330
1F
100
AcDbEntity
  8
0
  6
HIDDEN
 62
     7
370
     0
100
AcDbSpline
210
0.0
220
0.0
230
1.0
 70
     8
 71
     3
 72
    11
 73
     7
 74
     0
 42
0.000000001
 43
0.00000001
 40
0.0000000000000006
 40
0.0000000000000006
 40
0.0000000000000006
 40
0.0000000000000006
 40
0.000578048606266
 40
0.000578048606266
 40
0.000578048606266
 40
0.001156097351391
 40
0.001156097351391
 40
0.001156097351391
 40
0.001156097351391
 10
108.6032853069808
 20
126.0937359345571
 30
0.0
 10
108.769955163026
 20
126.0313640731519
 30
0.0
 10
108.9366228671104
 20
125.9690102129604
 30
0.0
 10
109.1032891715641
 20
125.9066906528769
 30
0.0
 10
109.2699555122578
 20
125.8443710792425
 30
0.0
 10
109.4366204688865
 20
125.7820858750219
 30
0.0
 10
109.6032853069808
 20
125.719860754549
 30
0.0
  0
SPLINE
  5
154
330
1F
100
AcDbEntity
  8
0
  6
HIDDEN
 62
     7
370
     0
100
AcDbSpline
210
0.0
220
0.0
230
1.0
 70
     8
 71
     3
 72
    11
 73
     7
 74
     0
 42
0.000000001
 43
0.00000001
 40
0.0
 40
0.0
 40
0.0
 40
0.0
 40
0.0005782401583357
 40
0.0005782401583357
 40
0.0005782401583357
 40
0.001156480596064
 40
0.001156480596064
 40
0.001156480596064
 40
0.001156480596064
 10
109.6032853069808
 20
106.5120946565095
 30
0.0
 10
109.4366343566321
 20
106.4486691985704
 30
0.0
 10
109.2699747640495
 20
106.3853136750406
 30
0.0
 10
109.103307711621
 20
106.3220160908193
 30
0.0
 10
108.9366405750571
 20
106.2587184746446
 30
0.0
 10
108.769965967611
 20
106.1954786798357
 30
0.0
 10
108.6032853069808
 20
106.1322786733315
 30
0.0
  0
CIRCLE
  5
155
330
1F
100
AcDbEntity
  8
0
  6
HIDDEN
 62
     7
370
     0
100
AcDbCircle
 10
147.503285307
 20
116.1129214413
 30
0.0
 40
5.0
  0
LINE
  5
156
330
1F
100
AcDbEntity
  8
0
  6
HIDDEN
 62
     7
370
     0
100
AcDbLine
 10
178.453285307
 20
135.4129214413
 30
0.0
 11
178.453285307
 21
128.890420516
 31
0.0
  0
LINE
  5
157
330
1F
100
AcDbEntity
  8
0
  6
HIDDEN
 62
     7
370
     0
100
AcDbLine
 10
188.453285307
 20
128.890420516
 30
0.0
 11
188.453285307
 21
135.4129214413
 31
0.0
  0
LINE
  5
158
330
1F
100
AcDbEntity
  8
0
  6
HIDDEN
 62
     7
370
     0
100
AcDbLine
 10
188.453285307
 20
135.4129214413
 30
0.0
 11
188.0422323533
 21
135.8239743949
 31
0.0
  0
LINE
  5
159
330
1F
100
AcDbEntity
  8
0
  6
HIDDEN
 62
     7
370
     0
100
AcDbLine
 10
178.863437753
 20
135.8230738873
 30
0.0
 11
178.453285307
 21
135.4129214413
 31
0.0
  0
LINE
  5
15A
330
1F
100
AcDbEntity
  8
0
  6
HIDDEN
 62
     7
370
     0
100
AcDbLine
 10
178.453285307
 20
128.890420516
 30
0.0
 11
180.3437056555
 21
121.8352757277
 31
0.0
  0
LINE
  5
15B
330
1F
100
AcDbEntity
  8
0
  6
HIDDEN
 62
     7
370
     0
100
AcDbLine
 10
186.5628649585
 20
121.8352757277
 30
0.0
 11
188.453285307
 21
128.890420516
 31
0.0
  0
ARC
  5
15C
330
1F
100
AcDbEntity
  8
0
  6
HIDDEN
 62
     7
370
     0
100
AcDbCircle
 10
180.6334834034
 20
121.9129214413
 30
0.0
 40
0.2999999999999972
100
AcDbArc
 50
195.0
 51
270.0
  0
ARC
  5
15D
330
1F
100
AcDbEntity
  8
0
  6
HIDDEN
 62
     7
370
     0
100
AcDbCircle
 10
186.2730872106
 20
121.9129214413
 30
0.0
 40
0.2999999999999972
100
AcDbArc
 50
270.0
 51
345.0
  0
LINE
  5
15E
330
1F
100
AcDbEntity
  8
0
  6
HIDDEN
 62
     7
370
     0
100
AcDbLine
 10
180.453285307
 20
136.1129214413
 30
0.0
 11
180.8377386177
 21
135.7284681306
 31
0.0
  0
LINE
  5
15F
330
1F
100
AcDbEntity
  8
0
  6
HIDDEN
 62
     7
370
     0
100
AcDbLine
 10
186.0688319963
 20
135.7284681306
 30
0.0
 11
186.453285307
 21
136.1129214413
 31
0.0
  0
LINE
  5
160
330
1F
100
AcDbEntity
  8
0
  6
HIDDEN
 62
     7
370
     0
100
AcDbLine
 10
180.953285307
 20
129.1129214413
 30
0.0
 11
180.953285307
 21
128.1129214413
 31
0.0
  0
LINE
  5
161
330
1F
100
AcDbEntity
  8
0
  6
HIDDEN
 62
     7
370
     0
100
AcDbLine
 10
185.953285307
 20
128.1129214413
 30
0.0
 11
185.953285307
 21
129.1129214413
 31
0.0
  0
LINE
  5
162
330
1F
100
AcDbEntity
  8
0
  6
HIDDEN
 62
     7
370
     0
100
AcDbLine
 10
180.953285307
 20
128.1129214413
 30
0.0
 11
183.453285307
 21
127.2029958556
 31
0.0
  0
LINE
  5
163
330
1F
100
AcDbEntity
  8
0
  6
HIDDEN
 62
     7
370
     0
100
AcDbLine
 10
183.453285307
 20
127.2029958556
 30
0.0
 11
185.953285307
 21
128.1129214413
 31
0.0
  0
LINE
  5
164
330
1F
100
AcDbEntity
  8
0
  6
HIDDEN
 62
     7
370
     0
100
AcDbLine
 10
140.503285307
 20
90.7889902953
 30
0.0
 11
140.5974460825
 21
91.4589790265
 31
0.0
  0
LINE
  5
165
330
1F
100
AcDbEntity
  8
0
  6
HIDDEN
 62
     7
370
     0
100
AcDbLine
 10
140.5974460825
 20
140.766863856
 30
0.0
 11
140.503285307
 21
141.4368525873
 31
0.0
  0
ARC
  5
166
330
1F
100
AcDbEntity
  8
0
  6
HIDDEN
 62
     7
370
     0
100
AcDbCircle
 10
140.0032785543
 20
91.5424838269
 30
0.0
 40
0.6000067526676958
100
AcDbArc
 50
352.0
 51
0.0
  0
ARC
  5
167
330
1F
100
AcDbEntity
  8
0
  6
HIDDEN
 62
     7
370
     0
100
AcDbCircle
 10
140.0032785543
 20
91.5424838269
 30
0.0
 40
0.6000067526677203
100
AcDbArc
 50
0.0
 51
33.5571153394
  0
ARC
  5
168
330
1F
100
AcDbEntity
  8
0
  6
HIDDEN
 62
     7
370
     0
100
AcDbCircle
 10
140.0032785543
 20
140.6833590557
 30
0.0
 40
0.600006752667703
100
AcDbArc
 50
348.75
 51
8.0
  0
LWPOLYLINE
  5
169
330
1F
100
AcDbEntity
  8
0
  6
HIDDEN
 62
     7
370
     0
100
AcDbPolyline
 90
        3
 70
   128
 43
0.0
 10
140.5917563455
 20
140.5663035451
 10
140.5576125125
 20
140.4537464121
 10
140.503285307
 20
140.3516945406
  0
LINE
  5
16A
330
1F
100
AcDbEntity
  8
0
  6
HIDDEN
 62
     7
370
     0
100
AcDbLine
 10
140.603285307
 20
91.5424838269
 30
0.0
 11
140.603285307
 21
140.6833590557
 31
0.0
  0
ARC
  5
16B
330
1F
100
AcDbEntity
  8
0
  6
HIDDEN
 62
     7
370
     0
100
AcDbCircle
 10
134.2582873086
 20
104.1129214413
 30
0.0
 40
7.999999999999996
100
AcDbArc
 50
276.882742972
 51
321.3178125465
  0
ARC
  5
16C
330
1F
100
AcDbEntity
  8
0
  6
HIDDEN
 62
     7
370
     0
100
AcDbCircle
 10
134.2582873086
 20
128.1129214413
 30
0.0
 40
8.000000000000023
100
AcDbArc
 50
38.6821874535
 51
83.12434375
  0
LINE
  5
16D
330
1F
100
AcDbEntity
  8
0
  6
HIDDEN
 62
     7
370
     0
100
AcDbLine
 10
123.5857208723
 20
96.1129214413
 30
0.0
 11
127.7773927605
 21
96.1129214413
 31
0.0
  0
LINE
  5
16E
330
1F
100
AcDbEntity
  8
0
  6
HIDDEN
 62
     7
370
     0
100
AcDbLine
 10
127.7773927605
 20
136.1129214413
 30
0.0
 11
123.5857208723
 21
136.1129214413
 31
0.0
  0
ARC
  5
16F
330
1F
100
AcDbEntity
  8
0
  6
HIDDEN
 62
     7
370
     0
100
AcDbCircle
 10
123.5857208723
 20
96.7129214413
 30
0.0
 40
0.5999999999999943
100
AcDbArc
 50
210.0
 51
270.0
  0
ARC
  5
170
330
1F
100
AcDbEntity
  8
0
  6
HIDDEN
 62
     7
370
     0
100
AcDbCircle
 10
123.5857208723
 20
135.5129214413
 30
0.0
 40
0.5999999999999943
100
AcDbArc
 50
90.0
 51
150.0
  0
LINE
  5
171
330
1F
100
AcDbEntity
  8
0
  6
HIDDEN
 62
     7
370
     0
100
AcDbLine
 10
123.06610563
 20
135.8129214413
 30
0.0
 11
121.5072599032
 21
133.1129214413
 31
0.0
  0
LINE
  5
172
330
1F
100
AcDbEntity
  8
0
  6
HIDDEN
 62
     7
370
     0
100
AcDbLine
 10
121.5072599032
 20
99.1129214413
 30
0.0
 11
123.06610563
 21
96.4129214413
 31
0.0
  0
ARC
  5
173
330
1F
100
AcDbEntity
  8
0
  6
HIDDEN
 62
     7
370
     0
100
AcDbCircle
 10
148.953285307
 20
100.3879214413
 30
0.0
 40
1.500000000000016
100
AcDbArc
 50
238.2116693829
 51
0.0
  0
ARC
  5
174
330
1F
100
AcDbEntity
  8
0
  6
HIDDEN
 62
     7
370
     0
100
AcDbCircle
 10
148.953285307
 20
131.8379214413
 30
0.0
 40
1.500000000000016
100
AcDbArc
 50
0.0
 51
121.7883306171
  0
LINE
  5
175
330
1F
100
AcDbEntity
  8
0
  6
HIDDEN
 62
     7
370
     0
100
AcDbLine
 10
140.503285307
 20
99.1129214413
 30
0.0
 11
148.1631112755
 21
99.1129214413
 31
0.0
  0
LINE
  5
176
330
1F
100
AcDbEntity
  8
0
  6
HIDDEN
 62
     7
370
     0
100
AcDbLine
 10
148.1631112755
 20
133.1129214413
 30
0.0
 11
140.503285307
 21
133.1129214413
 31
0.0
  0
LINE
  5
177
330
1F
100
AcDbEntity
  8
0
  6
HIDDEN
 62
     7
370
     0
100
AcDbLine
 10
118.703285307
 20
99.1129214413
 30
0.0
 11
121.5072599032
 21
99.1129214413
 31
0.0
  0
LINE
  5
178
330
1F
100
AcDbEntity
  8
0
  6
HIDDEN
 62
     7
370
     0
100
AcDbLine
 10
121.5072599032
 20
133.1129214413
 30
0.0
 11
114.703285307
 21
133.1129214413
 31
0.0
  0
ARC
  5
179
330
1F
100
AcDbEntity
  8
0
  6
HIDDEN
 62
     7
370
     0
100
AcDbCircle
 10
194.503285307
 20
128.1129214413
 30
0.0
 40
1.000000000000028
100
AcDbArc
 50
270.0
 51
0.0
  0
ARC
  5
17A
330
1F
100
AcDbEntity
  8
0
  6
HIDDEN
 62
     7
370
     0
100
AcDbCircle
 10
194.503285307
 20
104.1129214413
 30
0.0
 40
1.000000000000028
100
AcDbArc
 50
0.0
 51
90.0
  0
ARC
  5
17B
330
1F
100
AcDbEntity
  8
0
  6
HIDDEN
 62
     7
370
     0
100
AcDbCircle
 10
168.003285307
 20
126.6129214413
 30
0.0
 40
1.0
100
AcDbArc
 50
90.0
 51
180.0
  0
ARC
  5
17C
330
1F
100
AcDbEntity
  8
0
  6
HIDDEN
 62
     7
370
     0
100
AcDbCircle
 10
168.003285307
 20
105.6129214413
 30
0.0
 40
1.0
100
AcDbArc
 50
180.0
 51
270.0
  0
LINE
  5
17D
330
1F
100
AcDbEntity
  8
0
  6
HIDDEN
 62
     7
370
     0
100
AcDbLine
 10
168.8716328094
 20
127.6129214413
 30
0.0
 11
168.003285307
 21
127.6129214413
 31
0.0
  0
LINE
  5
17E
330
1F
100
AcDbEntity
  8
0
  6
HIDDEN
 62
     7
370
     0
100
AcDbLine
 10
168.003285307
 20
104.6129214413
 30
0.0
 11
168.8716328094
 21
104.6129214413
 31
0.0
  0
ARC
  5
17F
330
1F
100
AcDbEntity
  8
0
  6
HIDDEN
 62
     7
370
     0
100
AcDbCircle
 10
168.8716328094
 20
126.6129214413
 30
0.0
 40
1.0
100
AcDbArc
 50
75.0
 51
90.0
  0
ARC
  5
180
330
1F
100
AcDbEntity
  8
0
  6
HIDDEN
 62
     7
370
     0
100
AcDbCircle
 10
168.8716328094
 20
105.6129214413
 30
0.0
 40
1.0
100
AcDbArc
 50
270.0
 51
285.0
  0
LINE
  5
181
330
1F
100
AcDbEntity
  8
0
  6
HIDDEN
 62
     7
370
     0
100
AcDbLine
 10
169.1304518545
 20
104.646995615
 30
0.0
 11
170.8693107108
 21
105.1129214413
 31
0.0
  0
LINE
  5
182
330
1F
100
AcDbEntity
  8
0
  6
HIDDEN
 62
     7
370
     0
100
AcDbLine
 10
170.8693107108
 20
127.1129214413
 30
0.0
 11
169.1304518545
 21
127.5788472676
 31
0.0
  0
LINE
  5
183
330
1F
100
AcDbEntity
  8
0
  6
HIDDEN
 62
     7
370
     0
100
AcDbLine
 10
178.9639687419
 20
127.1129214413
 30
0.0
 11
170.8693107108
 21
127.1129214413
 31
0.0
  0
LINE
  5
184
330
1F
100
AcDbEntity
  8
0
  6
HIDDEN
 62
     7
370
     0
100
AcDbLine
 10
194.503285307
 20
127.1129214413
 30
0.0
 11
187.9518899544
 21
127.1129214413
 31
0.0
  0
LINE
  5
185
330
1F
100
AcDbEntity
  8
0
  6
HIDDEN
 62
     7
370
     0
100
AcDbLine
 10
170.8693107108
 20
105.1129214413
 30
0.0
 11
194.503285307
 21
105.1129214413
 31
0.0
  0
LINE
  5
186
330
1F
100
AcDbEntity
  8
0
  6
HIDDEN
 62
     7
370
     0
100
AcDbLine
 10
159.303285307
 20
106.6129214413
 30
0.0
 11
162.303285307
 21
106.6129214413
 31
0.0
  0
LINE
  5
187
330
1F
100
AcDbEntity
  8
0
  6
HIDDEN
 62
     7
370
     0
100
AcDbLine
 10
162.303285307
 20
125.6129214413
 30
0.0
 11
159.303285307
 21
125.6129214413
 31
0.0
  0
LINE
  5
188
330
1F
100
AcDbEntity
  8
0
  6
HIDDEN
 62
     7
370
     0
100
AcDbLine
 10
150.453285307
 20
107.1129214413
 30
0.0
 11
150.953285307
 21
107.6129214413
 31
0.0
  0
LINE
  5
189
330
1F
100
AcDbEntity
  8
0
  6
HIDDEN
 62
     7
370
     0
100
AcDbLine
 10
150.953285307
 20
124.6129214413
 30
0.0
 11
150.453285307
 21
125.1129214413
 31
0.0
  0
LINE
  5
18A
330
1F
100
AcDbEntity
  8
0
  6
HIDDEN
 62
     7
370
     0
100
AcDbLine
 10
150.953285307
 20
107.6129214413
 30
0.0
 11
159.303285307
 21
107.6129214413
 31
0.0
  0
LINE
  5
18B
330
1F
100
AcDbEntity
  8
0
  6
HIDDEN
 62
     7
370
     0
100
AcDbLine
 10
159.303285307
 20
124.6129214413
 30
0.0
 11
150.953285307
 21
124.6129214413
 31
0.0
  0
LINE
  5
18C
330
1F
100
AcDbEntity
  8
0
  6
HIDDEN
 62
     7
370
     0
100
AcDbLine
 10
145.453285307
 20
147.6129214413
 30
0.0
 11
145.453285307
 21
142.5129214413
 31
0.0
  0
LINE
  5
18D
330
1F
100
AcDbEntity
  8
0
  6
HIDDEN
 62
     7
370
     0
100
AcDbLine
 10
177.453285307
 20
136.1129214413
 30
0.0
 11
178.953285307
 21
134.6129214413
 31
0.0
  0
LINE
  5
18E
330
1F
100
AcDbEntity
  8
0
  6
HIDDEN
 62
     7
370
     0
100
AcDbLine
 10
187.953285307
 20
134.6129214413
 30
0.0
 11
189.453285307
 21
136.1129214413
 31
0.0
  0
LINE
  5
18F
330
1F
100
AcDbEntity
  8
0
  6
HIDDEN
 62
     7
370
     0
100
AcDbLine
 10
178.953285307
 20
134.6129214413
 30
0.0
 11
178.953285307
 21
127.1085683988
 31
0.0
  0
LINE
  5
190
330
1F
100
AcDbEntity
  8
0
  6
HIDDEN
 62
     7
370
     0
100
AcDbLine
 10
187.953285307
 20
127.112351825
 30
0.0
 11
187.953285307
 21
134.6129214413
 31
0.0
  0
LINE
  5
191
330
1F
100
AcDbEntity
  8
0
  6
HIDDEN
 62
     7
370
     0
100
AcDbLine
 10
135.6877231375
 20
92.0335501077
 30
0.0
 11
135.253290988
 21
92.5126161268
 31
0.0
  0
LINE
  5
192
330
1F
100
AcDbEntity
  8
0
  6
HIDDEN
 62
     7
370
     0
100
AcDbLine
 10
127.7532876629
 20
92.934304086
 30
0.0
 11
127.2708539196
 21
92.4552381105
 31
0.0
  0
LINE
  5
193
330
1F
100
AcDbEntity
  8
0
  6
HIDDEN
 62
     7
370
     0
100
AcDbLine
 10
127.2707319913
 20
139.7705994816
 30
0.0
 11
127.7532827423
 21
139.2914792237
 31
0.0
  0
LINE
  5
194
330
1F
100
AcDbEntity
  8
0
  6
HIDDEN
 62
     7
370
     0
100
AcDbLine
 10
135.253285189
 20
139.7131770014
 30
0.0
 11
135.6878275793
 21
140.1922972519
 31
0.0
  0
LINE
  5
195
330
1F
100
AcDbEntity
  8
0
  6
HIDDEN
 62
     7
370
     0
100
AcDbLine
 10
162.303285307
 20
111.9129214413
 30
0.0
 11
167.003285307
 21
111.9129214413
 31
0.0
  0
LINE
  5
196
330
1F
100
AcDbEntity
  8
0
  6
HIDDEN
 62
     7
370
     0
100
AcDbLine
 10
167.003285307
 20
120.3129214413
 30
0.0
 11
162.303285307
 21
120.3129214413
 31
0.0
  0
LINE
  5
197
330
1F
100
AcDbEntity
  8
0
  6
HIDDEN
 62
     7
370
     0
100
AcDbLine
 10
135.253285307
 20
136.0483217795
 30
0.0
 11
135.253285307
 21
139.7128856953
 31
0.0
  0
LINE
  5
198
330
1F
100
AcDbEntity
  8
0
  6
HIDDEN
 62
     7
370
     0
100
AcDbLine
 10
127.753285307
 20
139.2913354445
 30
0.0
 11
127.753285307
 21
136.1085436732
 31
0.0
  0
LINE
  5
199
330
1F
100
AcDbEntity
  8
0
  6
HIDDEN
 62
     7
370
     0
100
AcDbLine
 10
135.253285307
 20
92.5128710929
 30
0.0
 11
135.253285307
 21
96.177521103
 31
0.0
  0
LINE
  5
19A
330
1F
100
AcDbEntity
  8
0
  6
HIDDEN
 62
     7
370
     0
100
AcDbLine
 10
127.753285307
 20
96.1172992093
 30
0.0
 11
127.753285307
 21
92.9344855111
 31
0.0
  0
DIMENSION
  5
19B
330
1F
100
AcDbEntity
  8
VERMASSUNG
100
AcDbDimension
  2
_D
 10
102.696937698
 20
84.6129214413
 30
0.0
 11
102.696937698
 21
116.1129214413
 31
0.0
 70
   160
  1
HSK A %%c<>
 71
     2
 42
-1.0
  3
SLDDIMSTYLE0
100
AcDbAlignedDimension
 13
140.803285307
 23
147.6129214413
 33
0.0
 14
140.803285307
 24
84.6129214413
 34
0.0
 50
90.0
100
AcDbRotatedDimension
  0
DIMENSION
  5
1A8
330
1F
100
AcDbEntity
  8
VERMASSUNG
100
AcDbDimension
  2
_D_1
 10
195.503285307
 20
151.4104015131
 30
0.0
 11
180.978285307
 21
151.4104015131
 31
0.0
 70
   160
  1
<>
 71
     2
 42
-1.0
  3
SLDDIMSTYLE0
100
AcDbAlignedDimension
 13
166.453285307
 23
145.959361765
 33
0.0
 14
195.503285307
 24
135.7129214413
 34
0.0
100
AcDbRotatedDimension
  0
DIMENSION
  5
1B2
330
1F
100
AcDbEntity
  8
VERMASSUNG
100
AcDbDimension
  2
_D_2
 10
140.503285307
 20
157.4104015131
 30
0.0
 11
168.003285307
 21
157.4104015131
 31
0.0
 70
   160
  1
<>
 71
     2
 42
-1.0
  3
SLDDIMSTYLE0
100
AcDbAlignedDimension
 13
195.503285307
 23
135.7129214413
 33
0.0
 14
140.503285307
 24
147.3129214413
 34
0.0
100
AcDbRotatedDimension
  0
DIMENSION
  5
1BC
330
1F
100
AcDbEntity
  8
VERMASSUNG
100
AcDbDimension
  2
_D_3
 10
108.603285307
 20
163.4104015131
 30
0.0
 11
152.053285307
 21
163.4104015131
 31
0.0
 70
   160
  1
<>
 71
     2
 42
-1.0
  3
SLDDIMSTYLE0
100
AcDbAlignedDimension
 13
195.503285307
 23
135.7129214413
 33
0.0
 14
108.603285307
 24
135.8035991877
 34
0.0
100
AcDbRotatedDimension
  0
DIMENSION
  5
1C6
330
1F
100
AcDbEntity
  8
VERMASSUNG
100
AcDbDimension
  2
_D_4
 10
203.1243928194
 20
105.1129214413
 30
0.0
 11
203.1243928194
 21
116.1129214413
 31
0.0
 70
   160
  1
%%c<>
 71
     2
 42
-1.0
  3
SLDDIMSTYLE0
100
AcDbAlignedDimension
 13
194.503285307
 23
127.1129214413
 33
0.0
 14
194.503285307
 24
105.1129214413
 34
0.0
 50
90.0
100
AcDbRotatedDimension
  0
DIMENSION
  5
1D1
330
1F
100
AcDbEntity
  8
VERMASSUNG
100
AcDbDimension
  2
_D_5
 10
209.1243928194
 20
96.1129214413
 30
0.0
 11
209.1243928194
 21
116.1129214413
 31
0.0
 70
   160
  1
WH%%c<>
 71
     2
 42
-1.0
  3
SLDDIMSTYLE0
100
AcDbAlignedDimension
 13
195.103285307
 23
136.1129214413
 33
0.0
 14
195.103285307
 24
96.1129214413
 34
0.0
 50
90.0
100
AcDbRotatedDimension
  0
LINE
  5
1DD
330
1F
100
AcDbEntity
  8
VERMASSUNG
  6
CENTERX2
370
     0
100
AcDbLine
 10
106.8703396669
 20
116.1129214413
 30
0.0
 11
197.8198125771
 21
116.1129214413
 31
0.0
  0
LINE
  5
1DE
330
1F
100
AcDbEntity
  8
0
  6
Continuous
 62
     7
370
    15
100
AcDbLine
 10
258.0906707412
 20
50.3638706428
 30
0.0
 11
257.8431431539
 21
50.5068117262
 31
0.0
  0
LINE
  5
1DF
330
1F
100
AcDbEntity
  8
0
  6
Continuous
 62
     7
370
    15
100
AcDbLine
 10
254.8020899389
 20
50.5068117262
 30
0.0
 11
254.5545623516
 21
50.3638706428
 31
0.0
  0
LINE
  5
1E0
330
1F
100
AcDbEntity
  8
0
  6
Continuous
 62
     7
370
    15
100
AcDbLine
 10
253.8226165464
 20
49.3435263512
 30
0.0
 11
253.8226165464
 21
49.2210452294
 31
0.0
  0
LINE
  5
1E1
330
1F
100
AcDbEntity
  8
0
  6
Continuous
 62
     7
370
    15
100
AcDbLine
 10
258.8226165464
 20
49.2210452294
 30
0.0
 11
258.8226165464
 21
49.3435263512
 31
0.0
  0
LINE
  5
1E2
330
1F
100
AcDbEntity
  8
0
  6
Continuous
 62
     7
370
    15
100
AcDbLine
 10
258.9617078034
 20
41.2246779002
 30
0.0
 11
261.0717476348
 21
41.6545827141
 31
0.0
  0
SPLINE
  5
1E3
330
1F
100
AcDbEntity
  8
0
  6
Continuous
 62
     7
370
    15
100
AcDbSpline
210
0.0
220
0.0
230
1.0
 70
     8
 71
     3
 72
    10
 73
     6
 74
     0
 42
0.000000001
 43
0.00000001
 40
0.0
 40
0.0
 40
0.0
 40
0.0
 40
0.2882992366287412
 40
0.6760390480958296
 40
1.0
 40
1.0
 40
1.0
 40
1.0
 10
258.1637459426741
 20
41.46116648641772
 30
0.0
 10
258.2317836392741
 20
41.41375191342892
 30
0.0
 10
258.391326689689
 20
41.3025684667988
 30
0.0
 10
258.6371058361674
 20
41.21410022059572
 30
0.0
 10
258.8027401908633
 20
41.21780312603041
 30
0.0
 10
258.8781357306421
 20
41.21948866134409
 30
0.0
  0
LINE
  5
1E4
330
1F
100
AcDbEntity
  8
0
  6
Continuous
 62
     7
370
    15
100
AcDbLine
 10
260.4426627942
 20
30.9213743262
 30
0.0
 11
260.5840611655
 21
31.0030284063
 31
0.0
  0
LINE
  5
1E5
330
1F
100
AcDbEntity
  8
0
  6
Continuous
 62
     7
370
    15
100
AcDbLine
 10
267.5125813586
 20
43.0048778275
 30
0.0
 11
267.5125813586
 21
43.1681594499
 31
0.0
  0
LINE
  5
1E6
330
1F
100
AcDbEntity
  8
0
  6
Continuous
 62
     7
370
    15
100
AcDbLine
 10
265.44110721
 20
47.7466075146
 30
0.0
 11
256.3724627412
 21
52.9818245317
 31
0.0
  0
LINE
  5
1E7
330
1F
100
AcDbEntity
  8
0
  6
Continuous
 62
     7
370
    15
100
AcDbLine
 10
246.3732754149
 20
35.6608472841
 30
0.0
 11
255.4419198836
 21
30.425630267
 31
0.0
  0
SPLINE
  5
1E8
330
1F
100
AcDbEntity
  8
0
  6
Continuous
 62
     7
370
    15
100
AcDbSpline
210
0.0
220
0.0
230
1.0
 70
     8
 71
     3
 72
    27
 73
    23
 74
     0
 42
0.000000001
 43
0.00000001
 40
0.0
 40
0.0
 40
0.0
 40
0.0
 40
0.0219015831862491
 40
0.0797555251222506
 40
0.1367026045006536
 40
0.1912168569080348
 40
0.2440422773996646
 40
0.2960774664436802
 40
0.3478566569390901
 40
0.3996110464449873
 40
0.4514489159369158
 40
0.5034164795074993
 40
0.5555107846517559
 40
0.6077062649208469
 40
0.6599677561884466
 40
0.7122563697398723
 40
0.7645269132458111
 40
0.8167299084849521
 40
0.8688246217296505
 40
0.9207725800904397
 40
0.9725429484521797
 40
1.0
 40
1.0
 40
1.0
 40
1.0
 10
257.5259937437872
 20
34.43071200034402
 30
0.0
 10
257.484215242858
 20
34.45031236691497
 30
0.0
 10
257.3320770959441
 20
34.52168791612351
 30
0.0
 10
257.1153864763156
 20
34.72143305411589
 30
0.0
 10
256.8772998763801
 20
35.03273848003131
 30
0.0
 10
256.6937851578318
 20
35.41813169430191
 30
0.0
 10
256.5651142575946
 20
35.86095235916626
 30
0.0
 10
256.4931141178719
 20
36.35628965272591
 30
0.0
 10
256.4789026251246
 20
36.89765856667029
 30
0.0
 10
256.523756482152
 20
37.47747659550041
 30
0.0
 10
256.628041972491
 20
38.08662986456234
 30
0.0
 10
256.7910382487348
 20
38.71519326019985
 30
0.0
 10
257.0108309956311
 20
39.35267201968558
 30
0.0
 10
257.2843069742008
 20
39.98825908063197
 30
0.0
 10
257.6072228728157
 20
40.61114051095741
 30
0.0
 10
257.9742879496956
 20
41.21071281883015
 30
0.0
 10
258.3792531722116
 20
41.77682432462164
 30
0.0
 10
258.8150086493709
 20
42.29986620853848
 30
0.0
 10
259.2737815622204
 20
42.77153599034577
 30
0.0
 10
259.746999681785
 20
43.18300048289087
 30
0.0
 10
260.151941775629
 20
43.47836633048813
 30
0.0
 10
260.3950942749304
 20
43.62424488243172
 30
0.0
 10
260.4793611955865
 20
43.67480054769267
 30
0.0
  0
SPLINE
  5
1E9
330
1F
100
AcDbEntity
  8
0
  6
Continuous
 62
     7
370
    15
100
AcDbSpline
210
0.0
220
0.0
230
1.0
 70
     8
 71
     3
 72
    14
 73
    10
 74
     0
 42
0.000000001
 43
0.00000001
 40
0.0
 40
0.0
 40
0.0
 40
0.0
 40
0.0834537357078432
 40
0.242743223145384
 40
0.4018984370926468
 40
0.5615266190911583
 40
0.7230573628842054
 40
0.8888536035213923
 40
1.0
 40
1.0
 40
1.0
 40
1.0
 10
260.4793611955865
 20
43.67480054769267
 30
0.0
 10
260.5616579286997
 20
43.72046970187482
 30
0.0
 10
260.8010357597913
 20
43.85330830508976
 30
0.0
 10
261.1893178969078
 20
44.01849407478018
 30
0.0
 10
261.6297098764933
 20
44.14403599870482
 30
0.0
 10
262.0414399995705
 20
44.19614985159457
 30
0.0
 10
262.4181015230749
 20
44.17516447689304
 30
0.0
 10
262.7237616344943
 20
44.10502346943101
 30
0.0
 10
262.8870649364845
 20
44.0129758075627
 30
0.0
 10
262.95260404501
 20
43.97603398442021
 30
0.0
  0
LINE
  5
1EA
330
1F
100
AcDbEntity
  8
0
  6
Continuous
 62
     7
370
    15
100
AcDbLine
 10
233.3692044181
 20
36.5285894263
 30
0.0
 11
238.4278700783
 21
33.6082839011
 31
0.0
  0
LINE
  5
1EB
330
1F
100
AcDbEntity
  8
0
  6
Continuous
 62
     7
370
    15
100
AcDbLine
 10
251.3112249618
 20
62.542963161
 30
0.0
 11
249.1179244571
 21
63.8091285913
 31
0.0
  0
SPLINE
  5
1EC
330
1F
100
AcDbEntity
  8
0
  6
Continuous
 62
     7
370
    15
100
AcDbSpline
210
0.0
220
0.0
230
1.0
 70
     8
 71
     3
 72
    10
 73
     6
 74
     0
 42
0.000000001
 43
0.00000001
 40
0.0
 40
0.0
 40
0.0
 40
0.0
 40
0.0896544476272575
 40
0.5823135484808208
 40
1.0
 40
1.0
 40
1.0
 40
1.0
 10
230.1980363565771
 20
45.84228258416581
 30
0.0
 10
230.1887904490744
 20
45.77904928507445
 30
0.0
 10
230.1287374639828
 20
45.36834342774624
 30
0.0
 10
230.0794679966896
 20
44.68338782534276
 30
0.0
 10
230.0679728676816
 20
44.0784393357176
 30
0.0
 10
230.0626986510586
 20
43.80087573657128
 30
0.0
  0
SPLINE
  5
1ED
330
1F
100
AcDbEntity
  8
0
  6
Continuous
 62
     7
370
    15
100
AcDbSpline
210
0.0
220
0.0
230
1.0
 70
     8
 71
     3
 72
    13
 73
     9
 74
     0
 42
0.000000001
 43
0.00000001
 40
0.0
 40
0.0
 40
0.0
 40
0.0
 40
0.0875031369145699
 40
0.2732399075400264
 40
0.4589947145475471
 40
0.6447372713760983
 40
0.8304555087662717
 40
1.0
 40
1.0
 40
1.0
 40
1.0
 10
242.457638092567
 20
63.68541543586688
 30
0.0
 10
242.3262811209547
 20
63.62919460015328
 30
0.0
 10
241.9161019200295
 20
63.45363774020655
 30
0.0
 10
241.2215686183022
 20
63.07691089442746
 30
0.0
 10
240.3800379694779
 20
62.56254858327726
 30
0.0
 10
239.543719009821
 20
61.97227923048712
 30
0.0
 10
238.7397259183815
 20
61.34044715958643
 30
0.0
 10
238.2241817107694
 20
60.8748164705509
 30
0.0
 10
237.9781449797938
 20
60.65260031356441
 30
0.0
  0
SPLINE
  5
1EE
330
1F
100
AcDbEntity
  8
0
  6
Continuous
 62
     7
370
    15
100
AcDbSpline
210
0.0
220
0.0
230
1.0
 70
     8
 71
     3
 72
    10
 73
     6
 74
     0
 42
0.000000001
 43
0.00000001
 40
0.0
 40
0.0
 40
0.0
 40
0.0
 40
0.304393421298996
 40
0.8827226822283769
 40
1.0
 40
1.0
 40
1.0
 40
1.0
 10
230.0626986510586
 20
43.80087573657128
 30
0.0
 10
230.0648595216294
 20
43.63156725494452
 30
0.0
 10
230.0711259168035
 20
43.14058280334961
 30
0.0
 10
230.1004440795559
 20
42.59613484867391
 30
0.0
 10
230.153903610164
 20
42.24113389797552
 30
0.0
 10
230.1629167370536
 20
42.18128173357818
 30
0.0
  0
SPLINE
  5
1EF
330
1F
100
AcDbEntity
  8
0
  6
Continuous
 62
     7
370
    15
100
AcDbSpline
210
0.0
220
0.0
230
1.0
 70
     8
 71
     3
 72
    17
 73
    13
 74
     0
 42
0.000000001
 43
0.00000001
 40
0.0
 40
0.0
 40
0.0
 40
0.0
 40
0.0428826270347764
 40
0.1612280031695155
 40
0.280018373886098
 40
0.3992106458170253
 40
0.5187192978684622
 40
0.6384475540176349
 40
0.7583083686136304
 40
0.8782338631400936
 40
0.9981723305807301
 40
1.0
 40
1.0
 40
1.0
 40
1.0
 10
244.4662967880348
 20
30.70292748081656
 30
0.0
 10
244.5538713567254
 20
30.69045338650773
 30
0.0
 10
244.883129935659
 20
30.64355389699818
 30
0.0
 10
245.4850278828448
 20
30.64688594667166
 30
0.0
 10
246.267276489422
 20
30.71278640035266
 30
0.0
 10
247.0736511413792
 20
30.86604064229356
 30
0.0
 10
247.89693202615
 20
31.0987990330432
 30
0.0
 10
248.7328168596685
 20
31.41236799067755
 30
0.0
 10
249.5765056900113
 20
31.80155727647944
 30
0.0
 10
250.4217861629863
 20
32.27457491574468
 30
0.0
 10
250.9906713667628
 20
32.62043517348592
 30
0.0
 10
251.2736131306905
 20
32.82639941909038
 30
0.0
 10
251.2778599929356
 20
32.82949087425897
 30
0.0
  0
LINE
  5
1F0
330
1F
100
AcDbEntity
  8
0
  6
Continuous
 62
     7
370
    15
100
AcDbLine
 10
240.8263287848
 20
32.2236831619
 30
0.0
 11
242.2257168524
 21
31.415833626
 31
0.0
  0
LINE
  5
1F1
330
1F
100
AcDbEntity
  8
0
  6
Continuous
 62
     7
370
    15
100
AcDbLine
 10
241.8938025743
 20
63.4222803916
 30
0.0
 11
235.7512482104
 21
66.4826703919
 31
0.0
  0
LINE
  5
1F2
330
1F
100
AcDbEntity
  8
0
  6
Continuous
 62
     7
370
    15
100
AcDbLine
 10
224.3695503972
 20
46.7668552535
 30
0.0
 11
230.0937554519
 21
42.9765244135
 31
0.0
  0
SPLINE
  5
1F3
330
1F
100
AcDbEntity
  8
0
  6
Continuous
 62
     7
370
    15
100
AcDbSpline
210
0.0
220
0.0
230
1.0
 70
     8
 71
     3
 72
    10
 73
     6
 74
     0
 42
0.000000001
 43
0.00000001
 40
0.0
 40
0.0
 40
0.0
 40
0.0
 40
0.0556531686025219
 40
0.8629529065776173
 40
1.0
 40
1.0
 40
1.0
 40
1.0
 10
259.4035356153119
 20
57.50893933687411
 30
0.0
 10
259.3931789324744
 20
57.52223005740577
 30
0.0
 10
259.2325891622691
 20
57.72831474586652
 30
0.0
 10
259.0164376450771
 20
57.92998055782741
 30
0.0
 10
258.8041475699894
 20
58.1065933325777
 30
0.0
 10
258.7733392517043
 20
58.13222402951664
 30
0.0
  0
SPLINE
  5
1F4
330
1F
100
AcDbEntity
  8
0
  6
Continuous
 62
     7
370
    15
100
AcDbSpline
210
0.0
220
0.0
230
1.0
 70
     8
 71
     3
 72
    12
 73
     8
 74
     0
 42
0.000000001
 43
0.00000001
 40
0.0
 40
0.0
 40
0.0
 40
0.0
 40
0.1189014203416125
 40
0.3437364864992359
 40
0.5682769126909754
 40
0.7921971996556728
 40
1.0
 40
1.0
 40
1.0
 40
1.0
 10
260.9644341546544
 20
54.40703804181292
 30
0.0
 10
260.9249191228221
 20
54.5515488702838
 30
0.0
 10
260.8106836648529
 20
54.96932053606339
 30
0.0
 10
260.5740436840413
 20
55.61915366989697
 30
0.0
 10
260.2342161526056
 20
56.33124490497573
 30
0.0
 10
259.8484230894696
 20
56.96910973405178
 30
0.0
 10
259.5480940526682
 20
57.33353110815194
 30
0.0
 10
259.4035356153119
 20
57.50893933687411
 30
0.0
  0
SPLINE
  5
1F5
330
1F
100
AcDbEntity
  8
0
  6
Continuous
 62
     7
370
    15
100
AcDbSpline
210
0.0
220
0.0
230
1.0
 70
     8
 71
     3
 72
    28
 73
    24
 74
     0
 42
0.000000001
 43
0.00000001
 40
0.0
 40
0.0
 40
0.0
 40
0.0
 40
0.0228420564631943
 40
0.0705585002189025
 40
0.1184828102619376
 40
0.1668258910481423
 40
0.2156881737220705
 40
0.26505482743359
 40
0.3148280871753246
 40
0.3648766431151344
 40
0.4150774577292219
 40
0.4653372399135159
 40
0.5155827907988432
 40
0.5657881225057189
 40
0.6159439380025866
 40
0.6660509597925857
 40
0.7161156562196064
 40
0.7661476104849382
 40
0.8161580132485583
 40
0.8661588592524596
 40
0.9161625535525777
 40
0.9661781211672651
 40
1.0
 40
1.0
 40
1.0
 40
1.0
 10
235.6470701588208
 20
66.52055566917647
 30
0.0
 10
235.5594697264857
 20
66.56391890691495
 30
0.0
 10
235.2888743388047
 20
66.69786678609967
 30
0.0
 10
234.7928105045114
 20
66.83678745403527
 30
0.0
 10
234.1678087198613
 20
66.93984380994573
 30
0.0
 10
233.51118196325
 20
66.95681887523067
 30
0.0
 10
232.829568596095
 20
66.89266672035386
 30
0.0
 10
232.1268517726655
 20
66.74563569602462
 30
0.0
 10
231.408809195391
 20
66.51671799256162
 30
0.0
 10
230.681553098828
 20
66.2074770340929
 30
0.0
 10
229.9514432520974
 20
65.82067552235104
 30
0.0
 10
229.2247327871559
 20
65.35992720137422
 30
0.0
 10
228.5073454842388
 20
64.82948062093317
 30
0.0
 10
227.8048591998842
 20
64.23403089475451
 30
0.0
 10
227.1225011202671
 20
63.57856592462441
 30
0.0
 10
226.4652847511154
 20
62.86840512349076
 30
0.0
 10
225.8380458509516
 20
62.10918052323307
 30
0.0
 10
225.2453508567308
 20
61.30682500634673
 30
0.0
 10
224.6917899600667
 20
60.46751489346373
 30
0.0
 10
224.1807827751219
 20
59.59774880744422
 30
0.0
 10
223.718919805346
 20
58.70390245223157
 30
0.0
 10
223.3449667765255
 20
57.89211577229391
 30
0.0
 10
223.1499491675877
 20
57.37768969178589
 30
0.0
 10
223.0712747539547
 20
57.17015884130546
 30
0.0
  0
LINE
  5
1F6
330
1F
100
AcDbEntity
  8
0
  6
Continuous
 62
     7
370
    15
100
AcDbLine
 10
223.1853646754
 20
55.3229953464
 30
0.0
 11
225.738924574
 21
53.8488565949
 31
0.0
  0
LINE
  5
1F7
330
1F
100
AcDbEntity
  8
0
  6
Continuous
 62
     7
370
    15
100
AcDbLine
 10
222.887072398
 20
56.4513050637
 30
0.0
 11
222.887072398
 21
55.98589898
 31
0.0
  0
LINE
  5
1F8
330
1F
100
AcDbEntity
  8
0
  6
Continuous
 62
     7
370
    15
100
AcDbLine
 10
222.887072398
 20
48.979956635
 30
0.0
 11
222.887072398
 21
48.5145505512
 31
0.0
  0
SPLINE
  5
1F9
330
1F
100
AcDbEntity
  8
0
  6
Continuous
 62
     7
370
    15
100
AcDbSpline
210
0.0
220
0.0
230
1.0
 70
     8
 71
     3
 72
    11
 73
     7
 74
     0
 42
0.000000001
 43
0.00000001
 40
0.0
 40
0.0
 40
0.0
 40
0.0
 40
0.2193607490024615
 40
0.55431558055744
 40
0.8853667438996045
 40
1.0
 40
1.0
 40
1.0
 40
1.0
 10
223.0031460938413
 20
48.22721650396576
 30
0.0
 10
223.0780818316649
 20
48.10247808567797
 30
0.0
 10
223.2674413556686
 20
47.78726923876507
 30
0.0
 10
223.6426857441211
 20
47.36109483587479
 30
0.0
 10
224.0009353240754
 20
47.01755536183104
 30
0.0
 10
224.2361357137039
 20
46.86733573963414
 30
0.0
 10
224.296630955007
 20
46.82869816633925
 30
0.0
  0
LWPOLYLINE
  5
1FA
330
1F
100
AcDbEntity
  8
0
  6
Continuous
 62
     7
370
    15
100
AcDbPolyline
 90
       25
 70
   128
 43
0.0
 10
254.5545623516
 20
50.3638706428
 10
254.4589239341
 20
50.305477176
 10
254.1616444201
 20
50.0692115566
 10
253.9528353587
 20
49.8032362996
 10
253.8410454177
 20
49.5184404633
 10
253.8308512902
 20
49.2264836227
 10
253.9226703251
 20
48.9393185252
 10
254.1127434402
 20
48.6687017436
 10
254.39328902
 20
48.4257123606
 10
254.7528214954
 20
48.2202983903
 10
255.1766215646
 20
48.0608695047
 10
255.647338803
 20
47.9539527411
 10
256.1457019916
 20
47.9039252843
 10
256.6513080829
 20
47.9128352644
 10
257.143457504
 20
47.9803179057
 10
257.6020015998
 20
48.1036104609
 10
258.0081675213
 20
48.2776653183
 10
258.3453267878
 20
48.4953566516
 10
258.5996760593
 20
48.7477721521
 10
258.7608022469
 20
49.0245778995
 10
258.8221088254
 20
49.314441434
 10
258.7810858963
 20
49.6054957084
 10
258.6394129432
 20
49.8858249266
 10
258.4028900733
 20
50.1439523773
 10
258.0906707412
 20
50.3638706428
  0
LWPOLYLINE
  5
1FB
330
1F
100
AcDbEntity
  8
0
  6
Continuous
 62
     7
370
    15
100
AcDbPolyline
 90
       30
 70
   128
 43
0.0
 10
256.2570158684
 20
50.869906331
 10
255.7965783223
 20
50.8327609794
 10
255.3607377389
 20
50.739343861
 10
254.9698735395
 20
50.5940230564
 10
254.6422620996
 20
50.4035936051
 10
254.3932221661
 20
50.1769597764
 10
254.2343985694
 20
49.9247187164
 10
254.1732177245
 20
49.6586649366
 10
254.2125403796
 20
49.3912388161
 10
254.350527851
 20
49.134944903
 10
254.5807279981
 20
48.901767216
 10
254.8923769177
 20
48.7026088844
 10
255.2709022527
 20
48.5467823306
 10
255.6986045792
 20
48.4415738309
 10
256.1554850117
 20
48.3919028179
 10
256.6201803291
 20
48.400091853
 10
257.0709618947
 20
48.4657580259
 10
257.4867516635
 20
48.5858308595
 10
257.8481077681
 20
48.7546958814
 10
258.1381335986
 20
48.964457151
 10
258.3432678696
 20
49.2053064643
 10
258.4539187305
 20
49.4659819753
 10
258.46491227
 20
49.7342947866
 10
258.3757344425
 20
49.9976988895
 10
258.190555104
 20
50.2438778009
 10
257.9180330347
 20
50.4613204684
 10
257.5709110635
 20
50.6398595147
 10
257.1654202281
 20
50.7711466523
 10
256.7205208293
 20
50.8490430406
 10
256.2570158684
 20
50.869906331
  0
LWPOLYLINE
  5
1FC
330
1F
100
AcDbEntity
  8
0
  6
Continuous
 62
     7
370
    15
100
AcDbPolyline
 90
       25
 70
   128
 43
0.0
 10
256.2768486315
 20
50.4948440277
 10
255.8903603261
 20
50.4585135389
 10
255.5333295677
 20
50.3656745834
 10
255.2300874126
 20
50.2226539824
 10
255.0012993124
 20
50.0391983536
 10
254.8625567982
 20
49.8278098949
 10
254.823314943
 20
49.6028943805
 10
254.8862480143
 20
49.3797794309
 10
255.0470672273
 20
49.1736699612
 10
255.2948130185
 20
48.9986119913
 10
255.6126019216
 20
48.8665354324
 10
255.9787771481
 20
48.7864410838
 10
256.3683844613
 20
48.763787243
 10
256.7548727667
 20
48.8001177317
 10
257.111903525
 20
48.8929566873
 10
257.4151456802
 20
49.0359772883
 10
257.6439337803
 20
49.2194329171
 10
257.7826762945
 20
49.4308213758
 10
257.8219181498
 20
49.6557368902
 10
257.7589850785
 20
49.8788518398
 10
257.5981658654
 20
50.0849613094
 10
257.3504200742
 20
50.2600192794
 10
257.0326311711
 20
50.3920958382
 10
256.6664559447
 20
50.4721901869
 10
256.2768486315
 20
50.4948440277
  0
SPLINE
  5
1FD
330
1F
100
AcDbEntity
  8
0
  6
Continuous
 62
     7
370
    15
100
AcDbSpline
210
0.0
220
0.0
230
1.0
 70
     8
 71
     3
 72
    11
 73
     7
 74
     0
 42
0.000000001
 43
0.00000001
 40
0.0
 40
0.0
 40
0.0
 40
0.0
 40
0.2164543009645226
 40
0.440308993722544
 40
0.7518987489759374
 40
1.0
 40
1.0
 40
1.0
 40
1.0
 10
255.5631247970296
 20
50.29164128949159
 30
0.0
 10
255.5163243578821
 20
50.2043947309592
 30
0.0
 10
255.4211234116549
 20
50.02691872691597
 30
0.0
 10
255.2444554749594
 20
49.77444141956116
 30
0.0
 10
255.0549465026884
 20
49.60863891380238
 30
0.0
 10
254.9336718444222
 20
49.57331442579527
 30
0.0
 10
254.8799129058366
 20
49.55765569701805
 30
0.0
  0
SPLINE
  5
1FE
330
1F
100
AcDbEntity
  8
0
  6
Continuous
 62
     7
370
    15
100
AcDbSpline
210
0.0
220
0.0
230
1.0
 70
     8
 71
     3
 72
    10
 73
     6
 74
     0
 42
0.000000001
 43
0.00000001
 40
0.0
 40
0.0
 40
0.0
 40
0.0
 40
0.3100049610967946
 40
0.6306087329348748
 40
1.0
 40
1.0
 40
1.0
 40
1.0
 10
254.8799129058366
 20
49.55765569701805
 30
0.0
 10
254.9318770604381
 20
49.47261962100519
 30
0.0
 10
255.0375819806929
 20
49.29964015655241
 30
0.0
 10
255.2209685664234
 20
49.06357108356197
 30
0.0
 10
255.3472328616361
 20
48.98204244878332
 30
0.0
 10
255.4148288954683
 20
48.93839580785841
 30
0.0
  0
SPLINE
  5
1FF
330
1F
100
AcDbEntity
  8
0
  6
Continuous
 62
     7
370
    15
100
AcDbSpline
210
0.0
220
0.0
230
1.0
 70
     8
 71
     3
 72
    10
 73
     6
 74
     0
 42
0.000000001
 43
0.00000001
 40
0.0
 40
0.0
 40
0.0
 40
0.0
 40
0.2569721117248489
 40
0.6706287102004638
 40
1.0
 40
1.0
 40
1.0
 40
1.0
 10
257.245653320586
 20
48.9413608272242
 30
0.0
 10
257.2904047856989
 20
48.97011194174436
 30
0.0
 10
257.4071941801854
 20
49.0451446864187
 30
0.0
 10
257.5904942205564
 20
49.28482154154501
 30
0.0
 10
257.7116250189093
 20
49.50908939981644
 30
0.0
 10
257.765320186907
 20
49.60850342572994
 30
0.0
  0
SPLINE
  5
200
330
1F
100
AcDbEntity
  8
0
  6
Continuous
 62
     7
370
    15
100
AcDbSpline
210
0.0
220
0.0
230
1.0
 70
     8
 71
     3
 72
    11
 73
     7
 74
     0
 42
0.000000001
 43
0.00000001
 40
0.0
 40
0.0
 40
0.0
 40
0.0
 40
0.2164543009644988
 40
0.4403089937225396
 40
0.7518987489759328
 40
1.0
 40
1.0
 40
1.0
 40
1.0
 10
257.765320186907
 20
49.60850342572994
 30
0.0
 10
257.7132945300702
 20
49.62007225516849
 30
0.0
 10
257.6074645026348
 20
49.64360544266322
 30
0.0
 10
257.4110717846168
 20
49.76414836812312
 30
0.0
 10
257.2004043434885
 20
49.99847891581565
 30
0.0
 10
257.0655895026684
 20
50.21921617906435
 30
0.0
 10
257.0058284375647
 20
50.31706515384755
 30
0.0
  0
SPLINE
  5
201
330
1F
100
AcDbEntity
  8
0
  6
Continuous
 62
     7
370
    15
100
AcDbSpline
210
0.0
220
0.0
230
1.0
 70
     8
 71
     3
 72
    11
 73
     7
 74
     0
 42
0.000000001
 43
0.00000001
 40
0.0
 40
0.0
 40
0.0
 40
0.0
 40
0.1285561766307393
 40
0.4801535797842311
 40
0.8150691831753948
 40
1.0
 40
1.0
 40
1.0
 40
1.0
 10
257.0058284375647
 20
50.31706515384755
 30
0.0
 10
256.9477265102998
 20
50.29354539493944
 30
0.0
 10
256.7307175022556
 20
50.20569977964993
 30
0.0
 10
256.3237770087897
 20
50.11753418647731
 30
0.0
 10
255.8831462940229
 20
50.17591080083984
 30
0.0
 10
255.6470971981374
 20
50.26127405758758
 30
0.0
 10
255.5631247970296
 20
50.29164128949159
 30
0.0
  0
LINE
  5
202
330
1F
100
AcDbEntity
  8
0
  6
Continuous
 62
     7
370
    15
100
AcDbLine
 10
255.563124797
 20
48.882587278
 30
0.0
 11
255.563124797
 21
50.2916412895
 31
0.0
  0
LINE
  5
203
330
1F
100
AcDbEntity
  8
0
  6
Continuous
 62
     7
370
    15
100
AcDbLine
 10
257.0058284376
 20
48.8584211114
 30
0.0
 11
257.0058284376
 21
50.3170651538
 31
0.0
  0
LINE
  5
204
330
1F
100
AcDbEntity
  8
0
  6
Continuous
 62
     7
370
    15
100
AcDbLine
 10
258.9617078034
 20
41.2246779002
 30
0.0
 11
258.8907661268
 21
41.2146506799
 31
0.0
  0
LWPOLYLINE
  5
205
330
1F
100
AcDbEntity
  8
0
  6
Continuous
 62
     7
370
    15
100
AcDbPolyline
 90
       63
 70
   128
 43
0.0
 10
260.582934903
 20
47.0065780361
 10
259.8818741991
 20
46.5608081193
 10
259.1880073268
 20
46.0375000309
 10
258.508454299
 20
45.44202362
 10
257.8501882494
 20
44.7804892806
 10
257.2199638785
 20
44.05968525
 10
256.6242481411
 20
43.2870079531
 10
256.0691538868
 20
42.4703861045
 10
255.5603771339
 20
41.6181993494
 10
255.1031386204
 20
40.7391922772
 10
254.702130232
 20
39.8423846899
 10
254.3614668575
 20
38.9369790468
 10
254.0846441642
 20
38.0322660352
 10
253.8745027275
 20
37.1375292348
 10
253.7331988828
 20
36.2619498559
 10
253.6621825989
 20
35.4145125278
 10
253.6621825989
 20
34.6039131043
 10
253.7331988828
 20
33.8384694324
 10
253.8745027275
 20
33.1260359998
 10
254.0846441642
 20
32.4739233379
 10
254.3614668575
 20
31.8888230048
 10
254.702130232
 20
31.3767389218
 10
255.1031386204
 20
30.9429257646
 10
255.5603771339
 20
30.5918350431
 10
256.0691538868
 20
30.3270694233
 10
256.6242481411
 20
30.1513457588
 10
257.2199638785
 20
30.066467212
 10
257.8501882494
 20
30.0733047518
 10
258.508454299
 20
30.1717882158
 10
259.1880073268
 20
30.3609070303
 10
259.8818741991
 20
30.6387205804
 10
260.582934903
 20
31.0023781231
 10
261.2839956069
 20
31.44814804
 10
261.9778624793
 20
31.9714561284
 10
262.6574155071
 20
32.5669325392
 10
263.3156815567
 20
33.2284668786
 10
263.9459059276
 20
33.9492709092
 10
264.541621665
 20
34.7219482061
 10
265.0967159192
 20
35.5385700547
 10
265.6054926721
 20
36.3907568098
 10
266.0627311857
 20
37.269763882
 10
266.4637395741
 20
38.1665714694
 10
266.8044029485
 20
39.0719771124
 10
267.0812256418
 20
39.976690124
 10
267.2913670785
 20
40.8714269244
 10
267.4326709232
 20
41.7470063033
 10
267.5036872071
 20
42.5944436314
 10
267.5036872071
 20
43.4050430549
 10
267.4326709232
 20
44.1704867269
 10
267.2913670785
 20
44.8829201594
 10
267.0812256418
 20
45.5350328214
 10
266.8044029485
 20
46.1201331544
 10
266.4637395741
 20
46.6322172374
 10
266.0627311857
 20
47.0660303946
 10
265.6054926721
 20
47.4171211161
 10
265.0967159192
 20
47.6818867359
 10
264.541621665
 20
47.8576104004
 10
263.9459059276
 20
47.9424889472
 10
263.3156815567
 20
47.9356514074
 10
262.6574155071
 20
47.8371679434
 10
261.9778624793
 20
47.6480491289
 10
261.2839956069
 20
47.3702355788
 10
260.582934903
 20
47.0065780361
  0
LWPOLYLINE
  5
206
330
1F
100
AcDbEntity
  8
0
  6
Continuous
 62
     7
370
    15
100
AcDbPolyline
 90
       33
 70
   128
 43
0.0
 10
260.4415135468
 20
47.2515270097
 10
259.7374625516
 20
46.8045112743
 10
259.0404087316
 20
46.2807866878
 10
258.3572797206
 20
45.6855582604
 10
257.6948647618
 20
45.0247416396
 10
257.0597472327
 20
44.3049043179
 10
256.4582392164
 20
43.5332003619
 10
255.8963187701
 20
42.7172993124
 10
255.3795705114
 20
41.8653099605
 10
254.9131301168
 20
40.9856997591
 10
254.5016332805
 20
40.0872106696
 10
254.1491696428
 20
39.1787722803
 10
253.8592421458
 20
38.2694130599
 10
253.6347322193
 20
37.368170629
 10
253.4778711436
 20
36.4840019398
 10
253.3902178747
 20
35.6256942579
 10
253.3726435501
 20
34.8017778306
 10
253.4253228313
 20
34.0204411097
 10
253.5477321681
 20
33.2894493703
 10
253.7386550013
 20
32.6160675369
 10
253.9961938542
 20
32.0069879807
 10
254.3177891898
 20
31.4682640079
 10
254.7002448493
 20
31.0052496994
 10
255.1397598165
 20
30.6225466994
 10
255.6319659942
 20
30.3239584822
 10
256.1719716163
 20
30.1124525518
 10
256.7544098642
 20
29.990130949
 10
257.373492205
 20
29.958209361
 10
258.0230659203
 20
30.0170050387
 10
258.6966752546
 20
30.1659336444
 10
259.3876255758
 20
30.4035150586
 10
260.0890499091
 20
30.7273880905
 10
260.4426627942
 20
30.9213743262
  0
LWPOLYLINE
  5
207
330
1F
100
AcDbEntity
  8
0
  6
Continuous
 62
     7
370
    15
100
AcDbPolyline
 90
       17
 70
   128
 43
0.0
 10
267.5125813586
 20
43.1681594499
 10
267.4928092189
 20
43.7669469495
 10
267.40515595
 20
44.5240523213
 10
267.2482948743
 20
45.2271130675
 10
267.0237849477
 20
45.8691418547
 10
266.7338574508
 20
46.4437579122
 10
266.3813938131
 20
46.9452504476
 10
265.9698969768
 20
47.3686354027
 10
265.5034565822
 20
47.7097049877
 10
264.9867083235
 20
47.9650694997
 10
264.4247878771
 20
48.1321910115
 10
263.8232798609
 20
48.2094085944
 10
263.1881623317
 20
48.1959548255
 10
262.5257473729
 20
48.0919634143
 10
261.842618362
 20
47.8984678741
 10
261.1455645419
 20
47.6173912507
 10
260.4415135468
 20
47.2515270097
  0
SPLINE
  5
208
330
1F
100
AcDbEntity
  8
0
  6
Continuous
 62
     7
370
    15
100
AcDbSpline
210
0.0
220
0.0
230
1.0
 70
    11
 71
     3
 72
    85
 73
    81
 74
     0
 42
0.000000001
 43
0.00000001
 40
0.0
 40
0.0
 40
0.0
 40
0.0
 40
0.0312499999999998
 40
0.0312499999999998
 40
0.0624999999999997
 40
0.0624999999999997
 40
0.0937499999999995
 40
0.0937499999999995
 40
0.1249999999999993
 40
0.1249999999999993
 40
0.1562499999999992
 40
0.1562499999999992
 40
0.1718749999999991
 40
0.1718749999999991
 40
0.187499999999999
 40
0.187499999999999
 40
0.2187499999999993
 40
0.2187499999999993
 40
0.2343749999999993
 40
0.2343749999999993
 40
0.2499999999999992
 40
0.2499999999999992
 40
0.2812499999999989
 40
0.2812499999999989
 40
0.2968749999999986
 40
0.2968749999999986
 40
0.3124999999999983
 40
0.3124999999999983
 40
0.3437499999999981
 40
0.3437499999999981
 40
0.359374999999998
 40
0.359374999999998
 40
0.3749999999999979
 40
0.3906249999999978
 40
0.3906249999999978
 40
0.4062499999999977
 40
0.4062499999999977
 40
0.4374999999999977
 40
0.4374999999999977
 40
0.4531249999999978
 40
0.4531249999999978
 40
0.4687499999999979
 40
0.4687499999999979
 40
0.4999999999999982
 40
0.4999999999999982
 40
0.5312499999999983
 40
0.5312499999999983
 40
0.5624999999999986
 40
0.5624999999999986
 40
0.5937499999999987
 40
0.5937499999999987
 40
0.6249999999999989
 40
0.6249999999999989
 40
0.656249999999999
 40
0.656249999999999
 40
0.6874999999999992
 40
0.6874999999999992
 40
0.7187499999999993
 40
0.7187499999999993
 40
0.7499999999999996
 40
0.7499999999999996
 40
0.7812499999999997
 40
0.7812499999999997
 40
0.8124999999999999
 40
0.8124999999999999
 40
0.8281249999999999
 40
0.8281249999999999
 40
0.8437499999999999
 40
0.8437499999999999
 40
0.875
 40
0.875
 40
0.890625
 40
0.890625
 40
0.90625
 40
0.90625
 40
0.9375
 40
0.9375
 40
0.9687499999999999
 40
0.9687499999999999
 40
1.0
 40
1.0
 40
1.0
 40
1.0
 10
256.2948143013268
 20
51.08967278859906
 30
0.0
 10
256.4791635686866
 20
51.05853508825847
 30
0.0
 10
256.6586571054626
 20
51.01843402482031
 30
0.0
 10
257.0091026507101
 20
50.92386189895129
 30
0.0
 10
257.1810001504026
 20
50.86900758753984
 30
0.0
 10
257.5120360382784
 20
50.74779029805143
 30
0.0
 10
257.6686420364078
 20
50.68246153997806
 30
0.0
 10
257.9648913244849
 20
50.54376679288748
 30
0.0
 10
258.1056380972708
 20
50.46971342791684
 30
0.0
 10
258.3635384258341
 20
50.31688608924468
 30
0.0
 10
258.4801068179021
 20
50.23864699204672
 30
0.0
 10
258.6366602708147
 20
50.11824305968405
 30
0.0
 10
258.6857763578327
 20
50.07759241973785
 30
0.0
 10
258.777681569027
 20
49.99509833151442
 30
0.0
 10
258.8205611987267
 20
49.95312172767619
 30
0.0
 10
258.9370576880688
 20
49.82750869793563
 30
0.0
 10
258.999523320483
 20
49.74350305319002
 30
0.0
 10
259.0700230610338
 20
49.61573296428168
 30
0.0
 10
259.0896309924611
 20
49.57284489644385
 30
0.0
 10
259.1206404815819
 20
49.48616983584604
 30
0.0
 10
259.1320055668637
 20
49.44228352665395
 30
0.0
 10
259.152543967993
 20
49.31175403227589
 30
0.0
 10
259.148742135608
 20
49.22529461055566
 30
0.0
 10
259.1151747503296
 20
49.09476760179916
 30
0.0
 10
259.0993074285487
 20
49.0511193798211
 30
0.0
 10
259.0574311483763
 20
48.96324606304354
 30
0.0
 10
259.0314573845133
 20
48.91925722205702
 30
0.0
 10
258.9399281488721
 20
48.78973014260076
 30
0.0
 10
258.8604303372281
 20
48.70546608949369
 30
0.0
 10
258.7114066539278
 20
48.58139782997848
 30
0.0
 10
258.6562304992474
 20
48.54012673578723
 30
0.0
 10
258.5381648222007
 20
48.46041415670923
 30
0.0
 10
258.4123735094705
 20
48.38334875061784
 30
0.0
 10
258.2714671103886
 20
48.31142292025746
 30
0.0
 10
258.1229262509366
 20
48.24213516092259
 30
0.0
 10
258.0443370170362
 20
48.20864087897505
 30
0.0
 10
257.8029743712819
 20
48.11476091624087
 30
0.0
 10
257.6334489615437
 20
48.06017150794117
 30
0.0
 10
257.3669262567723
 20
47.99057350592724
 30
0.0
 10
257.2762578914596
 20
47.96953796947006
 30
0.0
 10
257.0948801637386
 20
47.9325786201267
 30
0.0
 10
257.0036829636889
 20
47.91652261079383
 30
0.0
 10
256.7285857071196
 20
47.87564507720885
 30
0.0
 10
256.5415522431568
 20
47.85807666614487
 30
0.0
 10
256.1754697161104
 20
47.84439695986754
 30
0.0
 10
255.9955018956829
 20
47.84797241481314
 30
0.0
 10
255.6411547568722
 20
47.87697460539017
 30
0.0
 10
255.4682385463175
 20
47.90250007526993
 30
0.0
 10
255.1394356308633
 20
47.97458569329778
 30
0.0
 10
254.9821110203034
 20
48.02124468050665
 30
0.0
 10
254.6817442106045
 20
48.13716871451098
 30
0.0
 10
254.5421851527797
 20
48.20516908412539
 30
0.0
 10
254.2855561891929
 20
48.35966929248912
 30
0.0
 10
254.1680753145867
 20
48.44633910104111
 30
0.0
 10
253.9560324496751
 20
48.638870688997
 30
0.0
 10
253.8645140198117
 20
48.74194914127211
 30
0.0
 10
253.70979809383
 20
48.96035661738966
 30
0.0
 10
253.6464836395119
 20
49.0759303590115
 30
0.0
 10
253.5510721431169
 20
49.31777185027696
 30
0.0
 10
253.520238985523
 20
49.44065131778494
 30
0.0
 10
253.4927949723229
 20
49.6885288268756
 30
0.0
 10
253.4962772351285
 20
49.81430046138371
 30
0.0
 10
253.541962420744
 20
50.06296493315629
 30
0.0
 10
253.5833588112216
 20
50.18256151586656
 30
0.0
 10
253.6744401281743
 20
50.3532465138009
 30
0.0
 10
253.7096679069002
 20
50.40868301289738
 30
0.0
 10
253.790569090627
 20
50.5162520080013
 30
0.0
 10
253.8364932653514
 20
50.5685140161065
 30
0.0
 10
253.9863828863034
 20
50.71510381354266
 30
0.0
 10
254.1033854313425
 20
50.80098712733329
 30
0.0
 10
254.305202519111
 20
50.91126316546327
 30
0.0
 10
254.377319926604
 20
50.94502160879252
 30
0.0
 10
254.5264647643358
 20
51.00441829885632
 30
0.0
 10
254.6038746939846
 20
51.03032024548153
 30
0.0
 10
254.8443180171213
 20
51.09720355930187
 30
0.0
 10
255.0176803659423
 20
51.1274829530148
 30
0.0
 10
255.3719420589047
 20
51.1594723497094
 30
0.0
 10
255.5533667819477
 20
51.16174536467766
 30
0.0
 10
255.9245606103222
 20
51.14234774727426
 30
0.0
 10
256.1104650339669
 20
51.12081048893965
 30
0.0
 10
256.2948143013268
 20
51.08967278859906
 30
0.0
  0
SPLINE
  5
209
330
1F
100
AcDbEntity
  8
0
  6
Continuous
 62
     7
370
    15
100
AcDbSpline
210
0.0
220
0.0
230
1.0
 70
     8
 71
     3
 72
    10
 73
     6
 74
     0
 42
0.000000001
 43
0.00000001
 40
0.0
 40
0.0
 40
0.0
 40
0.0
 40
0.5
 40
0.5
 40
1.0
 40
1.0
 40
1.0
 40
1.0
 10
239.8610726044288
 20
42.57476308081777
 30
0.0
 10
239.8045439186463
 20
42.54212976513516
 30
0.0
 10
239.7259005960716
 20
42.52175678967619
 30
0.0
 10
239.5656706817404
 20
42.51869538971484
 30
0.0
 10
239.4845036691997
 20
42.53635458959508
 30
0.0
 10
239.4273897688619
 20
42.5693257424494
 30
0.0
  0
SPLINE
  5
20A
330
1F
100
AcDbEntity
  8
0
  6
Continuous
 62
     7
370
    15
100
AcDbSpline
210
0.0
220
0.0
230
1.0
 70
     8
 71
     3
 72
    12
 73
     8
 74
     0
 42
0.000000001
 43
0.00000001
 40
0.0
 40
0.0
 40
0.0
 40
0.0
 40
0.2500000000000033
 40
0.2500000000000033
 40
0.5000000000000067
 40
0.5000000000000067
 40
1.0
 40
1.0
 40
1.0
 40
1.0
 10
257.1181116752067
 20
59.09328762070449
 30
0.0
 10
257.1500160035514
 20
59.07486964398874
 30
0.0
 10
257.1821533399923
 20
59.04495510335668
 30
0.0
 10
257.2368116464185
 20
58.97455768341376
 30
0.0
 10
257.2597849857489
 20
58.93417698673794
 30
0.0
 10
257.3134667746866
 20
58.81165315670256
 30
0.0
 10
257.3302437095626
 20
58.72685183509688
 30
0.0
 10
257.3302437095626
 20
58.65329923946327
 30
0.0
  0
LINE
  5
20B
330
1F
100
AcDbEntity
  8
0
  6
Continuous
 62
     7
370
    15
100
AcDbLine
 10
239.4273897689
 20
42.5693257424
 30
0.0
 11
238.0280017012
 21
43.3771752783
 31
0.0
  0
LWPOLYLINE
  5
20C
330
1F
100
AcDbEntity
  8
0
  6
Continuous
 62
     7
370
    15
100
AcDbPolyline
 90
       25
 70
   128
 43
0.0
 10
238.0280017012
 20
43.3771752783
 10
238.3236173714
 20
44.5423596418
 10
238.6886017066
 20
45.7163785931
 10
239.1205148587
 20
46.8913840484
 10
239.6164695741
 20
48.0595213291
 10
240.1731504938
 20
49.2129816692
 10
240.7868363162
 20
50.3440544149
 10
241.4534246733
 20
51.4451785694
 10
242.1684595541
 20
52.5089933358
 10
242.9271610922
 20
53.5283873235
 10
243.7244575183
 20
54.4965460858
 10
244.5550190638
 20
55.4069976733
 10
245.4132935895
 20
56.2536558977
 10
246.2935437004
 20
57.0308610166
 10
247.189885099
 20
57.7334175679
 10
248.0963259209
 20
58.3566291004
 10
249.0068067887
 20
58.8963295685
 10
249.9152413185
 20
59.3489111817
 10
250.8155568056
 20
59.7113485216
 10
251.7017348195
 20
59.9812187664
 10
252.5678514358
 20
60.156717887
 10
253.4081168367
 20
60.2366727068
 10
254.2169140146
 20
60.2205487434
 10
254.9888363207
 20
60.1084537825
 10
255.7187236076
 20
59.9011371566
  0
LINE
  5
20D
330
1F
100
AcDbEntity
  8
0
  6
Continuous
 62
     7
370
    15
100
AcDbLine
 10
255.7187236076
 20
59.9011371566
 30
0.0
 11
257.1181116752
 21
59.0932876207
 31
0.0
  0
LINE
  5
20E
330
1F
100
AcDbEntity
  8
0
  6
Continuous
 62
     7
370
    15
100
AcDbLine
 10
259.6460184179
 20
53.5880987773
 30
0.0
 11
260.8645190799
 21
54.2915242366
 31
0.0
  0
LINE
  5
20F
330
1F
100
AcDbEntity
  8
0
  6
Continuous
 62
     7
370
    15
100
AcDbLine
 10
259.6460184179
 20
51.0920410647
 30
0.0
 11
259.6460184179
 21
53.5880987773
 31
0.0
  0
LINE
  5
210
330
1F
100
AcDbEntity
  8
0
  6
Continuous
 62
     7
370
    15
100
AcDbLine
 10
239.8610726044
 20
35.2258957738
 30
0.0
 11
240.9783993946
 21
35.8709148002
 31
0.0
  0
LINE
  5
211
330
1F
100
AcDbEntity
  8
0
  6
Continuous
 62
     7
370
    15
100
AcDbLine
 10
240.9783993946
 20
35.8709148002
 30
0.0
 11
240.9783993946
 21
43.2197821072
 31
0.0
  0
LINE
  5
212
330
1F
100
AcDbEntity
  8
0
  6
Continuous
 62
     7
370
    15
100
AcDbLine
 10
240.9783993946
 20
43.2197821072
 30
0.0
 11
239.8610726044
 21
42.5747630808
 31
0.0
  0
LINE
  5
213
330
1F
100
AcDbEntity
  8
0
  6
Continuous
 62
     7
370
    15
100
AcDbLine
 10
257.3302437096
 20
58.6532992395
 30
0.0
 11
257.3302437096
 21
57.0892348046
 31
0.0
  0
LINE
  5
214
330
1F
100
AcDbEntity
  8
0
  6
Continuous
 62
     7
370
    15
100
AcDbLine
 10
258.6846898707
 20
57.8711399301
 30
0.0
 11
257.3302437096
 21
57.0892348046
 31
0.0
  0
LINE
  5
215
330
1F
100
AcDbEntity
  8
0
  6
Continuous
 62
     7
370
    15
100
AcDbLine
 10
257.4796049977
 20
34.4453113645
 30
0.0
 11
257.5301016348
 21
34.4172116314
 31
0.0
  0
LINE
  5
216
330
1F
100
AcDbEntity
  8
0
  6
Continuous
 62
     7
370
    15
100
AcDbLine
 10
262.9791580272
 20
43.9718488507
 30
0.0
 11
262.9525906759
 21
43.9868923641
 31
0.0
  0
LWPOLYLINE
  5
217
330
1F
100
AcDbEntity
  8
0
  6
Continuous
 62
     7
370
    15
100
AcDbPolyline
 90
       23
 70
   128
 43
0.0
 10
237.1042189135
 20
45.0081573123
 10
237.4045649797
 20
46.1080391105
 10
237.7709923179
 20
47.2137988161
 10
238.2009308798
 20
48.3176808514
 10
238.6913651625
 20
49.4119428085
 10
239.2388553577
 20
50.4889097528
 10
239.8395614788
 20
51.5410280532
 10
240.489270293
 20
52.5609183624
 10
241.1834248726
 20
53.5414273736
 10
241.9171565561
 20
54.4756779925
 10
242.6853190961
 20
55.357117572
 10
243.4825247541
 20
56.179563871
 10
244.303182089
 20
56.9372484157
 10
245.1415351741
 20
57.624856958
 10
245.9917039686
 20
58.237566749
 10
246.8477255584
 20
58.7710803648
 10
247.7035959792
 20
59.2216558475
 10
248.5533123268
 20
59.5861329506
 10
249.3909148608
 20
59.8619553047
 10
250.2105288043
 20
60.0471883469
 10
251.0064055489
 20
60.1405328896
 10
251.7729629742
 20
60.1413342328
 10
252.2192849612
 20
60.0969888185
  0
SPLINE
  5
218
330
1F
100
AcDbEntity
  8
0
  6
Continuous
 62
     7
370
    15
100
AcDbSpline
210
0.0
220
0.0
230
1.0
 70
     8
 71
     3
 72
     8
 73
     4
 74
     0
 42
0.000000001
 43
0.00000001
 40
0.0
 40
0.0
 40
0.0
 40
0.0
 40
1.0
 40
1.0
 40
1.0
 40
1.0
 10
237.1042189134709
 20
45.00815731229606
 30
0.0
 10
236.6129178844184
 20
44.92551009209217
 30
0.0
 10
236.1213377935157
 20
44.84342630460173
 30
0.0
 10
235.6295429947637
 20
44.76177601751999
 30
0.0
  0
LWPOLYLINE
  5
219
330
1F
100
AcDbEntity
  8
0
  6
Continuous
 62
     7
370
    15
100
AcDbPolyline
 90
       25
 70
   128
 43
0.0
 10
235.6295429948
 20
44.7617760175
 10
235.925158665
 20
45.926960381
 10
236.2901430001
 20
47.1009793323
 10
236.7220561522
 20
48.2759847876
 10
237.2180108676
 20
49.4441220683
 10
237.7746917873
 20
50.5975824084
 10
238.3883776097
 20
51.7286551541
 10
239.0549659668
 20
52.8297793086
 10
239.7700008476
 20
53.893594075
 10
240.5287023858
 20
54.9129880627
 10
241.3259988118
 20
55.881146825
 10
242.1565603574
 20
56.7915984125
 10
243.0148348831
 20
57.6382566369
 10
243.895084994
 20
58.4154617557
 10
244.7914263926
 20
59.1180183071
 10
245.6978672144
 20
59.7412298396
 10
246.6083480822
 20
60.2809303077
 10
247.5167826121
 20
60.7335119209
 10
248.4170980992
 20
61.0959492607
 10
249.303276113
 20
61.3658195056
 10
250.1693927293
 20
61.5413186262
 10
251.0096581302
 20
61.621273446
 10
251.8184553081
 20
61.6051494826
 10
252.5903776143
 20
61.4930545217
 10
253.3202649011
 20
61.2857378958
  0
LINE
  5
21A
330
1F
100
AcDbEntity
  8
0
  6
Continuous
 62
     7
370
    15
100
AcDbLine
 10
253.3202649011
 20
61.2857378958
 30
0.0
 11
253.6441504863
 21
60.2393064921
 31
0.0
  0
LINE
  5
21B
330
1F
100
AcDbEntity
  8
0
  6
Continuous
 62
     7
370
    15
100
AcDbLine
 10
249.9056225071
 20
63.256968991
 30
0.0
 11
253.3202649011
 21
61.2857378958
 31
0.0
  0
LINE
  5
21C
330
1F
100
AcDbEntity
  8
0
  6
Continuous
 62
     7
370
    15
100
AcDbLine
 10
235.6295429948
 20
44.7617760175
 30
0.0
 11
235.0433277255
 21
45.1001908891
 31
0.0
  0
SPLINE
  5
21D
330
1F
100
AcDbEntity
  8
0
  6
Continuous
 62
     7
370
    15
100
AcDbSpline
210
0.0
220
0.0
230
1.0
 70
     8
 71
     3
 72
    28
 73
    24
 74
     0
 42
0.000000001
 43
0.00000001
 40
0.0
 40
0.0
 40
0.0
 40
0.0
 40
0.1250000000000001
 40
0.1250000000000001
 40
0.1875000000000001
 40
0.1875000000000001
 40
0.2500000000000001
 40
0.2500000000000001
 40
0.3749999999999999
 40
0.3749999999999999
 40
0.4375
 40
0.4375
 40
0.4999999999999999
 40
0.4999999999999999
 40
0.6249999999999999
 40
0.6249999999999999
 40
0.7499999999999997
 40
0.7499999999999997
 40
0.8124999999999998
 40
0.8124999999999998
 40
0.8749999999999998
 40
0.8749999999999998
 40
1.0
 40
1.0
 40
1.0
 40
1.0
 10
235.0433277255053
 20
45.1001908890998
 30
0.0
 10
234.8553406450389
 20
45.20871352068387
 30
0.0
 10
234.6651206904383
 20
45.29065724123178
 30
0.0
 10
234.3770220884903
 20
45.37581497127024
 30
0.0
 10
234.2805322178907
 20
45.39786490167404
 30
0.0
 10
234.0867940450558
 20
45.429138725133
 30
0.0
 10
233.9895430245244
 20
45.43826597645644
 30
0.0
 10
233.7035211496391
 20
45.44604881856484
 30
0.0
 10
233.5181793332825
 20
45.42574227492777
 30
0.0
 10
233.2496667464667
 20
45.35852162179464
 30
0.0
 10
233.1613060868009
 20
45.32973526418904
 30
0.0
 10
232.9909533765112
 20
45.26072337409389
 30
0.0
 10
232.9089263467298
 20
45.22058348418376
 30
0.0
 10
232.6724900929772
 20
45.08396371642055
 30
0.0
 10
232.5276228428548
 20
44.97144922673148
 30
0.0
 10
232.2667660493707
 20
44.70319226173201
 30
0.0
 10
232.1544736418684
 20
44.55103887535473
 30
0.0
 10
232.0152491604146
 20
44.29912248765643
 30
0.0
 10
231.9736533740488
 20
44.21108020198005
 30
0.0
 10
231.9005286589876
 20
44.02673914692822
 30
0.0
 10
231.8689041749346
 20
43.92995038424645
 30
0.0
 10
231.7914108715124
 20
43.63193530534963
 30
0.0
 10
231.7622361561226
 20
43.42246242821311
 30
0.0
 10
231.7562692733808
 20
43.20208163552925
 30
0.0
  0
ARC
  5
21E
330
1F
100
AcDbEntity
  8
0
  6
Continuous
 62
     7
370
    15
100
AcDbCircle
 10
246.5996357357
 20
42.7938112296
 30
0.0
 40
14.84898018918629
100
AcDbArc
 50
178.4244628824
 51
181.5755371176
  0
SPLINE
  5
21F
330
1F
100
AcDbEntity
  8
0
  6
Continuous
 62
     7
370
    15
100
AcDbSpline
210
0.0
220
0.0
230
1.0
 70
     8
 71
     3
 72
    30
 73
    26
 74
     0
 42
0.000000001
 43
0.00000001
 40
0.0
 40
0.0
 40
0.0
 40
0.0
 40
0.125
 40
0.125
 40
0.1874999999999999
 40
0.1874999999999999
 40
0.2499999999999999
 40
0.2499999999999999
 40
0.3749999999999999
 40
0.3749999999999999
 40
0.4374999999999999
 40
0.4374999999999999
 40
0.4999999999999998
 40
0.4999999999999998
 40
0.6249999999999997
 40
0.6249999999999997
 40
0.6874999999999997
 40
0.6874999999999997
 40
0.7499999999999997
 40
0.7499999999999997
 40
0.8124999999999996
 40
0.8124999999999996
 40
0.8749999999999996
 40
0.8749999999999996
 40
1.0
 40
1.0
 40
1.0
 40
1.0
 10
231.7562692733808
 20
42.3855408236435
 30
0.0
 10
231.7622368720723
 20
42.17202363086878
 30
0.0
 10
231.7913820920717
 20
41.95447373284965
 30
0.0
 10
231.8678167533306
 20
41.62217470331406
 30
0.0
 10
231.898782736908
 20
41.51040040201449
 30
0.0
 10
231.9717526777236
 20
41.28469852847949
 30
0.0
 10
232.0138888762822
 20
41.17061075590697
 30
0.0
 10
232.1537806656466
 20
40.83244802854578
 30
0.0
 10
232.2656245901889
 20
40.60993780927301
 30
0.0
 10
232.4594111873335
 20
40.27932755332345
 30
0.0
 10
232.5287518249367
 20
40.1691009136173
 30
0.0
 10
232.6742442093834
 20
39.95237091316375
 30
0.0
 10
232.7501315001025
 20
39.84617397753303
 30
0.0
 10
232.9865194485739
 20
39.53353580428342
 30
0.0
 10
233.1556649508247
 20
39.33299325644826
 30
0.0
 10
233.4255309481588
 20
39.04288841702593
 30
0.0
 10
233.5177224542097
 20
38.94854500065347
 30
0.0
 10
233.7033210492444
 20
38.76723997259307
 30
0.0
 10
233.7971499295312
 20
38.67982063909892
 30
0.0
 10
233.9865999799966
 20
38.51121308877428
 30
0.0
 10
234.0822213952022
 20
38.43002490300493
 30
0.0
 10
234.2750830846286
 20
38.2738622234568
 30
0.0
 10
234.372817993527
 20
38.19853524376008
 30
0.0
 10
234.6640739486474
 20
37.98524501031625
 30
0.0
 10
234.8553313396206
 20
37.85985158561582
 30
0.0
 10
235.0433277255053
 20
37.75132358212805
 30
0.0
  0
LINE
  5
220
330
1F
100
AcDbEntity
  8
0
  6
Continuous
 62
     7
370
    15
100
AcDbLine
 10
235.0433277255
 20
37.7513235821
 30
0.0
 11
235.6295429948
 21
37.4129087105
 31
0.0
  0
ARC
  5
221
330
1F
100
AcDbEntity
  8
0
  6
Continuous
 62
     7
370
    15
100
AcDbCircle
 10
241.455648928
 20
38.8087842796
 30
0.0
 40
5.990991483022884
100
AcDbArc
 50
193.4735086399
 51
253.1486627168
  0
LINE
  5
222
330
1F
100
AcDbEntity
  8
0
  6
Continuous
 62
     7
370
    15
100
AcDbLine
 10
254.9496827574
 20
60.3447892028
 30
0.0
 11
255.2839951612
 21
60.0374610926
 31
0.0
  0
LINE
  5
223
330
1F
100
AcDbEntity
  8
0
  6
Continuous
 62
     7
370
    15
100
AcDbLine
 10
254.0967540036
 20
60.8371744916
 30
0.0
 11
254.9496827574
 21
60.3447892028
 31
0.0
  0
SPLINE
  5
224
330
1F
100
AcDbEntity
  8
0
  6
Continuous
 62
     7
370
    15
100
AcDbSpline
210
0.0
220
0.0
230
1.0
 70
     8
 71
     3
 72
    20
 73
    16
 74
     0
 42
0.000000001
 43
0.00000001
 40
0.0
 40
0.0
 40
0.0
 40
0.0
 40
0.2499999999999997
 40
0.2499999999999997
 40
0.3749999999999997
 40
0.3749999999999997
 40
0.4999999999999998
 40
0.4999999999999998
 40
0.6249999999999998
 40
0.6249999999999998
 40
0.7499999999999999
 40
0.7499999999999999
 40
0.8749999999999999
 40
0.8749999999999999
 40
1.0
 40
1.0
 40
1.0
 40
1.0
 10
249.9056225071039
 20
63.25696899100024
 30
0.0
 10
250.2246111615019
 20
63.12307860174045
 30
0.0
 10
250.5510667615999
 20
62.96318225467845
 30
0.0
 10
251.063416878983
 20
62.68526332720893
 30
0.0
 10
251.2380202456608
 20
62.58626431439863
 30
0.0
 10
251.5978941080097
 20
62.37532360949994
 30
0.0
 10
251.7807545243632
 20
62.2647677922899
 30
0.0
 10
252.1470496135404
 20
62.03934992327906
 30
0.0
 10
252.3315331297991
 20
61.9238693218996
 30
0.0
 10
252.7051179540346
 20
61.68903697760383
 30
0.0
 10
252.8894674252738
 20
61.57270705232857
 30
0.0
 10
253.2501773317503
 20
61.3470123655292
 30
0.0
 10
253.4272313210041
 20
61.23720239143251
 30
0.0
 10
253.7749606723565
 20
61.0258076278966
 30
0.0
 10
253.9402110888147
 20
60.92754479275359
 30
0.0
 10
254.0967540035961
 20
60.83717449163621
 30
0.0
  0
LWPOLYLINE
  5
225
330
1F
100
AcDbEntity
  8
0
  6
Continuous
 62
     7
370
    15
100
AcDbPolyline
 90
       10
 70
   128
 43
0.0
 10
242.530935382
 20
63.6863491909
 10
243.2259148629
 20
63.9683920312
 10
244.0903494409
 20
64.245541575
 10
244.9367857276
 20
64.4336937993
 10
245.7598722801
 20
64.5316591452
 10
246.5544052804
 20
64.5388182443
 10
247.3153614349
 20
64.4551258343
 10
248.0379297338
 20
64.2811110458
 10
248.7175418678
 20
64.0178740561
 10
249.1179244571
 20
63.8091285913
  0
LWPOLYLINE
  5
226
330
1F
100
AcDbEntity
  8
0
  6
Continuous
 62
     7
370
    15
100
AcDbPolyline
 90
       10
 70
   128
 43
0.0
 10
233.3692044181
 20
36.5285894263
 10
232.8400297214
 20
36.8781987581
 10
232.2859457016
 20
37.3560028807
 10
231.7884946315
 20
37.914814005
 10
231.350821557
 20
38.5510991473
 10
230.9756935881
 20
39.2608355081
 10
230.6654824047
 20
40.0395359054
 10
230.4221492618
 20
40.8822771448
 10
230.2472325898
 20
41.7837311447
 10
230.2016933695
 20
42.1177948584
  0
SPLINE
  5
227
330
1F
100
AcDbEntity
  8
0
  6
Continuous
 62
     7
370
    15
100
AcDbSpline
210
0.0
220
0.0
230
1.0
 70
     8
 71
     3
 72
    27
 73
    23
 74
     0
 42
0.000000001
 43
0.00000001
 40
0.0
 40
0.0
 40
0.0
 40
0.0
 40
0.0321283976598213
 40
0.0758933163970701
 40
0.1199810788292235
 40
0.1651261497886096
 40
0.2106555029432136
 40
0.252178077924967
 40
0.3368038534839893
 40
0.3800352839954744
 40
0.419211070894192
 40
0.4988721361274552
 40
0.5394348676891058
 40
0.5792772858013673
 40
0.6601690561648722
 40
0.7012836125548098
 40
0.7438228114645491
 40
0.8302564420754805
 40
0.8742515027381786
 40
0.917953118039237
 40
0.9619829819950688
 40
1.0
 40
1.0
 40
1.0
 40
1.0
 10
261.335037315914
 20
44.04924451899674
 30
0.0
 10
261.3620059594214
 20
44.01147604436402
 30
0.0
 10
261.4257109663183
 20
43.92225980564945
 30
0.0
 10
261.5138919790791
 20
43.77688722934309
 30
0.0
 10
261.6004942409114
 20
43.61333840248677
 30
0.0
 10
261.6738377193088
 20
43.44536234752339
 30
0.0
 10
261.7307248647051
 20
43.27952634369561
 30
0.0
 10
261.7844667616142
 20
43.06444179864484
 30
0.0
 10
261.8074782323717
 20
42.85414557716619
 30
0.0
 10
261.7989179418336
 20
42.65449820509414
 30
0.0
 10
261.7713910603188
 20
42.46690535956677
 30
0.0
 10
261.7173546517558
 20
42.29276350860487
 30
0.0
 10
261.6381470785284
 20
42.13287116824693
 30
0.0
 10
261.5425819643477
 20
41.98270373612072
 30
0.0
 10
261.4243942313525
 20
41.84992375913754
 30
0.0
 10
261.2857363269087
 20
41.73665383306373
 30
0.0
 10
261.1307055597055
 20
41.63566012224135
 30
0.0
 10
260.9568106297918
 20
41.55965166548127
 30
0.0
 10
260.7712793769886
 20
41.51323194832218
 30
0.0
 10
260.626862902745
 20
41.49458412169782
 30
0.0
 10
260.4865686401499
 20
41.49094429405013
 30
0.0
 10
260.3945273055695
 20
41.50254134920403
 30
0.0
 10
260.3518792854337
 20
41.50791492884598
 30
0.0
  0
LINE
  5
228
330
1F
100
AcDbEntity
  8
0
  6
Continuous
 62
     7
370
    15
100
AcDbLine
 10
238.2388334683
 20
44.2338985439
 30
0.0
 11
237.7752056758
 21
44.5015451715
 31
0.0
  0
LINE
  5
229
330
1F
100
AcDbEntity
  8
0
  6
Continuous
 62
     7
370
    15
100
AcDbLine
 10
237.3493875178
 20
45.149690135
 30
0.0
 11
237.1042189135
 21
45.0081573123
 31
0.0
  0
SPLINE
  5
22A
330
1F
100
AcDbEntity
  8
0
  6
Continuous
 62
     7
370
    15
100
AcDbSpline
210
0.0
220
0.0
230
1.0
 70
     8
 71
     3
 72
    14
 73
    10
 74
     0
 42
0.000000001
 43
0.00000001
 40
0.0
 40
0.0
 40
0.0
 40
0.0
 40
0.1249999999999991
 40
0.1249999999999991
 40
0.2499999999999982
 40
0.2499999999999982
 40
0.4999999999999998
 40
0.4999999999999998
 40
1.0
 40
1.0
 40
1.0
 40
1.0
 10
237.7752056758487
 20
44.50154517147408
 30
0.0
 10
237.7510092426835
 20
44.51551347501663
 30
0.0
 10
237.7278338042246
 20
44.54287865101417
 30
0.0
 10
237.6909134117936
 20
44.6006804201397
 30
0.0
 10
237.675871620761
 20
44.63165089925605
 30
0.0
 10
237.6360581641742
 20
44.72467737218526
 30
0.0
 10
237.6164221457901
 20
44.78728842647003
 30
0.0
 10
237.5660012973206
 20
44.97161917738502
 30
0.0
 10
237.5435841190801
 20
45.0931634122857
 30
0.0
 10
237.5268962209142
 20
45.21229247758806
 30
0.0
  0
SPLINE
  5
22B
330
1F
100
AcDbEntity
  8
0
  6
Continuous
 62
     7
370
    15
100
AcDbSpline
210
0.0
220
0.0
230
1.0
 70
     8
 71
     3
 72
    10
 73
     6
 74
     0
 42
0.000000001
 43
0.00000001
 40
0.0
 40
0.0
 40
0.0
 40
0.0
 40
0.5
 40
0.5
 40
1.0
 40
1.0
 40
1.0
 40
1.0
 10
237.5268962209142
 20
45.21229247758806
 30
0.0
 10
237.4935062027264
 20
45.20614270838784
 30
0.0
 10
237.4612668512983
 20
45.19759610053976
 30
0.0
 10
237.401278957036
 20
45.17636012677087
 30
0.0
 10
237.374017083787
 20
45.16390848076269
 30
0.0
 10
237.3493875178371
 20
45.14969013498583
 30
0.0
  0
ARC
  5
22C
330
1F
100
AcDbEntity
  8
0
  6
Continuous
 62
     7
370
    15
100
AcDbCircle
 10
255.2097312157
 20
42.1515945905
 30
0.0
 40
25.25251457349342
100
AcDbArc
 50
133.2373460981
 51
171.3428161268
  0
LINE
  5
22D
330
1F
100
AcDbEntity
  8
0
  6
Continuous
 62
     7
370
    15
100
AcDbLine
 10
238.8084036579
 20
37.1236266743
 30
0.0
 11
240.9783993946
 21
35.8709148002
 31
0.0
  0
SPLINE
  5
22E
330
1F
100
AcDbEntity
  8
0
  6
Continuous
 62
     7
370
    15
100
AcDbSpline
210
0.0
220
0.0
230
1.0
 70
     8
 71
     3
 72
    14
 73
    10
 74
     0
 42
0.000000001
 43
0.00000001
 40
0.0
 40
0.0
 40
0.0
 40
0.0
 40
0.1249999999999993
 40
0.1249999999999993
 40
0.2499999999999987
 40
0.2499999999999987
 40
0.4999999999999973
 40
0.4999999999999973
 40
1.0
 40
1.0
 40
1.0
 40
1.0
 10
238.5600942029657
 20
37.83437398041215
 30
0.0
 10
238.5843227809184
 20
37.82038712007875
 30
0.0
 10
238.6074086222843
 20
37.79308835026202
 30
0.0
 10
238.6441509963475
 20
37.7356491419546
 30
0.0
 10
238.6593092960312
 20
37.7044986669522
 30
0.0
 10
238.6988722229189
 20
37.61219912674645
 30
0.0
 10
238.7184820961618
 20
37.54996134599091
 30
0.0
 10
238.7693049451167
 20
37.36450557979435
 30
0.0
 10
238.7917366292408
 20
37.24260675949664
 30
0.0
 10
238.8084036579002
 20
37.12362667429804
 30
0.0
  0
LINE
  5
22F
330
1F
100
AcDbEntity
  8
0
  6
Continuous
 62
     7
370
    15
100
AcDbLine
 10
237.7752056758
 20
38.2874804825
 30
0.0
 11
238.560094203
 21
37.8343739804
 31
0.0
  0
SPLINE
  5
230
330
1F
100
AcDbEntity
  8
0
  6
Continuous
 62
     7
370
    15
100
AcDbSpline
210
0.0
220
0.0
230
1.0
 70
     8
 71
     3
 72
    14
 73
    10
 74
     0
 42
0.000000001
 43
0.00000001
 40
0.0
 40
0.0
 40
0.0
 40
0.0
 40
0.4999999999999972
 40
0.4999999999999972
 40
0.7499999999999973
 40
0.7499999999999973
 40
0.8749999999999987
 40
0.8749999999999987
 40
1.0
 40
1.0
 40
1.0
 40
1.0
 10
237.5268962209141
 20
37.86342517061608
 30
0.0
 10
237.5435203023679
 20
37.96290491484619
 30
0.0
 10
237.5659377039722
 20
38.05874004824219
 30
0.0
 10
237.6163687618209
 20
38.18495599781583
 30
0.0
 10
237.6359034557521
 20
38.22478954651008
 30
0.0
 10
237.6758466130875
 20
38.27204987798194
 30
0.0
 10
237.6908635802532
 20
38.28565249158719
 30
0.0
 10
237.7279249477749
 20
38.3008728931629
 30
0.0
 10
237.7509086101233
 20
38.30150687995678
 30
0.0
 10
237.7752056758487
 20
38.28748048247374
 30
0.0
  0
LINE
  5
231
330
1F
100
AcDbEntity
  8
0
  6
Continuous
 62
     7
370
    15
100
AcDbLine
 10
236.3822053169
 20
38.5242411636
 30
0.0
 11
237.5268962209
 21
37.8634251706
 31
0.0
  0
ARC
  5
232
330
1F
100
AcDbEntity
  8
0
  6
Continuous
 62
     7
370
    15
100
AcDbCircle
 10
239.6686701068
 20
43.6876688192
 30
0.0
 40
6.120607483709549
100
AcDbArc
 50
182.476303705
 51
237.5236964406
  0
LINE
  5
233
330
1F
100
AcDbEntity
  8
0
  6
Continuous
 62
     7
370
    15
100
AcDbLine
 10
233.5537781922
 20
44.2397614467
 30
0.0
 11
233.5537781922
 21
43.4232206348
 31
0.0
  0
ARC
  5
234
330
1F
100
AcDbEntity
  8
0
  6
Continuous
 62
     7
370
    15
100
AcDbCircle
 10
236.1329882683
 20
44.3254626655
 30
0.0
 40
2.580633510525421
100
AcDbArc
 50
153.8624172446
 51
181.9031067878
  0
ARC
  5
235
330
1F
100
AcDbEntity
  8
0
  6
Continuous
 62
     7
370
    15
100
AcDbCircle
 10
244.9531905226
 20
36.140338234
 30
0.0
 40
5.451253063916009
100
AcDbArc
 50
216.0245893757
 51
264.0471732872
  0
SPLINE
  5
236
330
1F
100
AcDbEntity
  8
0
  6
Continuous
 62
     7
370
    15
100
AcDbSpline
210
0.0
220
0.0
230
1.0
 70
     8
 71
     3
 72
    12
 73
     8
 74
     0
 42
0.000000001
 43
0.00000001
 40
0.0
 40
0.0
 40
0.0
 40
0.0
 40
0.2500000000000001
 40
0.2500000000000001
 40
0.5000000000000002
 40
0.5000000000000002
 40
1.0
 40
1.0
 40
1.0
 40
1.0
 10
239.4273897688619
 20
35.22045843547765
 30
0.0
 10
239.4556319689342
 20
35.20415456041362
 30
0.0
 10
239.4901781008397
 20
35.19119876700362
 30
0.0
 10
239.5649021605373
 20
35.17448702881109
 30
0.0
 10
239.6051925518391
 20
35.17060012002363
 30
0.0
 10
239.7263055692754
 20
35.17286351791293
 30
0.0
 10
239.8044231316933
 20
35.19319272933967
 30
0.0
 10
239.8610726044288
 20
35.22589577384601
 30
0.0
  0
ARC
  5
237
330
1F
100
AcDbEntity
  8
0
  6
Continuous
 62
     7
370
    15
100
AcDbCircle
 10
244.2135397131
 20
37.6464061149
 30
0.0
 40
6.393678291764688
100
AcDbArc
 50
194.6597165733
 51
238.0097461351
  0
LINE
  5
238
330
1F
100
AcDbEntity
  8
0
  6
Continuous
 62
     7
370
    15
100
AcDbLine
 10
238.0280017012
 20
36.0283079714
 30
0.0
 11
239.4273897689
 21
35.2204584355
 31
0.0
  0
SPLINE
  5
239
330
1F
100
AcDbEntity
  8
0
  6
Continuous
 62
     7
370
    15
100
AcDbSpline
210
0.0
220
0.0
230
1.0
 70
     8
 71
     3
 72
     8
 73
     4
 74
     0
 42
0.000000001
 43
0.00000001
 40
0.0
 40
0.0
 40
0.0
 40
0.0
 40
1.0
 40
1.0
 40
1.0
 40
1.0
 10
238.4547928655372
 20
36.87962025853362
 30
0.0
 10
238.3116281688467
 20
36.59599821152662
 30
0.0
 10
238.1694394719941
 20
36.3122150655426
 30
0.0
 10
238.0280017012389
 20
36.02830797135552
 30
0.0
  0
LINE
  5
23A
330
1F
100
AcDbEntity
  8
0
  6
Continuous
 62
     7
370
    15
100
AcDbLine
 10
238.6999614699
 20
37.0211530812
 30
0.0
 11
238.4547928655
 21
36.8796202585
 31
0.0
  0
SPLINE
  5
23B
330
1F
100
AcDbEntity
  8
0
  6
Continuous
 62
     7
370
    15
100
AcDbSpline
210
0.0
220
0.0
230
1.0
 70
     8
 71
     3
 72
    10
 73
     6
 74
     0
 42
0.000000001
 43
0.00000001
 40
0.0
 40
0.0
 40
0.0
 40
0.0
 40
0.5
 40
0.5
 40
1.0
 40
1.0
 40
1.0
 40
1.0
 10
238.8084036579003
 20
37.12362667429814
 30
0.0
 10
238.7977507909304
 20
37.10435102709199
 30
0.0
 10
238.7829460277782
 20
37.08573964566691
 30
0.0
 10
238.7461602564473
 20
37.05110937143533
 30
0.0
 10
238.7245910358533
 20
37.03537142700021
 30
0.0
 10
238.6999614699033
 20
37.02115308122335
 30
0.0
  0
SPLINE
  5
23C
330
1F
100
AcDbEntity
  8
0
  6
Continuous
 62
     7
370
    15
100
AcDbSpline
210
0.0
220
0.0
230
1.0
 70
     8
 71
     3
 72
    14
 73
    10
 74
     0
 42
0.000000001
 43
0.00000001
 40
0.0
 40
0.0
 40
0.0
 40
0.0
 40
0.4999999999999999
 40
0.4999999999999999
 40
0.7499999999999998
 40
0.7499999999999998
 40
0.8749999999999999
 40
0.8749999999999999
 40
1.0
 40
1.0
 40
1.0
 40
1.0
 10
222.8870944012215
 20
48.51868602143482
 30
0.0
 10
223.2022603450614
 20
48.29159803053896
 30
0.0
 10
223.5185360003273
 20
48.06175165549082
 30
0.0
 10
223.9973604888984
 20
47.7064430535017
 30
0.0
 10
224.1576804993225
 20
47.58630473930616
 30
0.0
 10
224.4007330352762
 20
47.40003590506235
 30
0.0
 10
224.4821764732928
 20
47.33694266383534
 30
0.0
 10
224.6468379223261
 20
47.20659742142319
 30
0.0
 10
224.7297439403924
 20
47.14007297944595
 30
0.0
 10
224.815762768477
 20
47.06627950812238
 30
0.0
  0
SPLINE
  5
23D
330
1F
100
AcDbEntity
  8
0
  6
Continuous
 62
     7
370
    15
100
AcDbSpline
210
0.0
220
0.0
230
1.0
 70
     8
 71
     3
 72
     8
 73
     4
 74
     0
 42
0.000000001
 43
0.00000001
 40
0.0
 40
0.0
 40
0.0
 40
0.0
 40
1.0
 40
1.0
 40
1.0
 40
1.0
 10
224.815762768477
 20
47.06627950812238
 30
0.0
 10
225.1174152417146
 20
46.80749915004056
 30
0.0
 10
225.422694785238
 20
46.5599241346359
 30
0.0
 10
225.7273543583646
 20
46.31895127806938
 30
0.0
  0
SPLINE
  5
23E
330
1F
100
AcDbEntity
  8
0
  6
Continuous
 62
     7
370
    15
100
AcDbSpline
210
0.0
220
0.0
230
1.0
 70
     8
 71
     3
 72
    14
 73
    10
 74
     0
 42
0.000000001
 43
0.00000001
 40
0.0
 40
0.0
 40
0.0
 40
0.0
 40
0.1250000000000012
 40
0.1250000000000012
 40
0.2500000000000024
 40
0.2500000000000024
 40
0.5000000000000016
 40
0.5000000000000016
 40
1.0
 40
1.0
 40
1.0
 40
1.0
 10
225.7273543583647
 20
46.31895127806933
 30
0.0
 10
225.7465497342902
 20
46.30376854633312
 30
0.0
 10
225.7641618076906
 20
46.29240072783634
 30
0.0
 10
225.7900067376099
 20
46.2811322586239
 30
0.0
 10
225.7981451018575
 20
46.28074878838685
 30
0.0
 10
225.8150951928256
 20
46.28652458108123
 30
0.0
 10
225.8172644653353
 20
46.29919000669927
 30
0.0
 10
225.8160889175207
 20
46.34362683374304
 30
0.0
 10
225.8040153969166
 20
46.38411010451649
 30
0.0
 10
225.7892371688765
 20
46.42811377439897
 30
0.0
  0
SPLINE
  5
23F
330
1F
100
AcDbEntity
  8
0
  6
Continuous
 62
     7
370
    15
100
AcDbSpline
210
0.0
220
0.0
230
1.0
 70
     8
 71
     3
 72
    14
 73
    10
 74
     0
 42
0.000000001
 43
0.00000001
 40
0.0
 40
0.0
 40
0.0
 40
0.0
 40
0.25
 40
0.25
 40
0.5
 40
0.5
 40
0.75
 40
0.75
 40
1.0
 40
1.0
 40
1.0
 40
1.0
 10
225.7892371688758
 20
46.42811377439968
 30
0.0
 10
225.7711809219293
 20
46.48187807738645
 30
0.0
 10
225.768258123828
 20
46.5264286864835
 30
0.0
 10
225.7628443952847
 20
46.61869003632822
 30
0.0
 10
225.7612771172437
 20
46.66598443924846
 30
0.0
 10
225.7511387174365
 20
46.77074549407624
 30
0.0
 10
225.7428237196923
 20
46.82800670111126
 30
0.0
 10
225.7140235450334
 20
46.95762805848567
 30
0.0
 10
225.6933701483629
 20
47.03042225809872
 30
0.0
 10
225.6646806312018
 20
47.11010895705849
 30
0.0
  0
ARC
  5
240
330
1F
100
AcDbEntity
  8
0
  6
Continuous
 62
     7
370
    15
100
AcDbCircle
 10
236.0196479085
 20
50.196670455
 30
0.0
 40
10.80519362138017
100
AcDbArc
 50
163.4019732888
 51
196.5980267112
  0
SPLINE
  5
241
330
1F
100
AcDbEntity
  8
0
  6
Continuous
 62
     7
370
    15
100
AcDbSpline
210
0.0
220
0.0
230
1.0
 70
     8
 71
     3
 72
    14
 73
    10
 74
     0
 42
0.000000001
 43
0.00000001
 40
0.0
 40
0.0
 40
0.0
 40
0.0
 40
0.25
 40
0.25
 40
0.5
 40
0.5
 40
0.75
 40
0.75
 40
1.0
 40
1.0
 40
1.0
 40
1.0
 10
225.7892371688758
 20
54.74443696932266
 30
0.0
 10
225.7711809219293
 20
54.6235948903781
 30
0.0
 10
225.768258123828
 20
54.49850062381199
 30
0.0
 10
225.7628443952847
 20
54.25054931316064
 30
0.0
 10
225.7612771172437
 20
54.12664068884688
 30
0.0
 10
225.7511387174365
 20
53.88048494960668
 30
0.0
 10
225.7428237196923
 20
53.75819700774527
 30
0.0
 10
225.7140235450334
 20
53.51619983053649
 30
0.0
 10
225.6933701483629
 20
53.39604286335689
 30
0.0
 10
225.6646806312018
 20
53.28323195295162
 30
0.0
  0
SPLINE
  5
242
330
1F
100
AcDbEntity
  8
0
  6
Continuous
 62
     7
370
    15
100
AcDbSpline
210
0.0
220
0.0
230
1.0
 70
     8
 71
     3
 72
    14
 73
    10
 74
     0
 42
0.000000001
 43
0.00000001
 40
0.0
 40
0.0
 40
0.0
 40
0.0
 40
0.1250000000000025
 40
0.1250000000000025
 40
0.250000000000005
 40
0.250000000000005
 40
0.5000000000000009
 40
0.5000000000000009
 40
1.0
 40
1.0
 40
1.0
 40
1.0
 10
225.7273543583648
 20
55.28972253361668
 30
0.0
 10
225.7465497342903
 20
55.28743572564285
 30
0.0
 10
225.7641618076907
 20
55.27593748637003
 30
0.0
 10
225.7900067376099
 20
55.23924598384351
 30
0.0
 10
225.7981451018576
 20
55.21616456874145
 30
0.0
 10
225.8150951928256
 20
55.14483204966435
 30
0.0
 10
225.8172644653353
 20
55.09358794405627
 30
0.0
 10
225.8160889175207
 20
54.94355246429469
 30
0.0
 10
225.8040153969166
 20
54.84334078941162
 30
0.0
 10
225.7892371688765
 20
54.74443696932299
 30
0.0
  0
SPLINE
  5
243
330
1F
100
AcDbEntity
  8
0
  6
Continuous
 62
     7
370
    15
100
AcDbSpline
210
0.0
220
0.0
230
1.0
 70
     8
 71
     3
 72
     8
 73
     4
 74
     0
 42
0.000000001
 43
0.00000001
 40
0.0
 40
0.0
 40
0.0
 40
0.0
 40
1.0
 40
1.0
 40
1.0
 40
1.0
 10
224.815762768477
 20
55.34193534475276
 30
0.0
 10
225.1174152417146
 20
55.34928159189587
 30
0.0
 10
225.4226947852381
 20
55.32601762592593
 30
0.0
 10
225.7273543583648
 20
55.28972253361668
 30
0.0
  0
SPLINE
  5
244
330
1F
100
AcDbEntity
  8
0
  6
Continuous
 62
     7
370
    15
100
AcDbSpline
210
0.0
220
0.0
230
1.0
 70
     8
 71
     3
 72
    14
 73
    10
 74
     0
 42
0.000000001
 43
0.00000001
 40
0.0
 40
0.0
 40
0.0
 40
0.0
 40
0.4999999999999999
 40
0.4999999999999999
 40
0.7499999999999998
 40
0.7499999999999998
 40
0.8749999999999999
 40
0.8749999999999999
 40
1.0
 40
1.0
 40
1.0
 40
1.0
 10
222.8870944012215
 20
55.97457468973775
 30
0.0
 10
223.2022603450614
 20
55.83719019601163
 30
0.0
 10
223.5185360003273
 20
55.70561668838047
 30
0.0
 10
223.9973604888984
 20
55.5307212218597
 30
0.0
 10
224.1576804993225
 20
55.47605007159519
 30
0.0
 10
224.4007330352762
 20
55.40701825587514
 30
0.0
 10
224.4821764732928
 20
55.38615597136635
 30
0.0
 10
224.6468379223261
 20
55.35334825793671
 30
0.0
 10
224.7297439403924
 20
55.33984049844407
 30
0.0
 10
224.815762768477
 20
55.34193534475276
 30
0.0
  0
SPLINE
  5
245
330
1F
100
AcDbEntity
  8
0
  6
Continuous
 62
     7
370
    15
100
AcDbSpline
210
0.0
220
0.0
230
1.0
 70
     8
 71
     3
 72
     8
 73
     4
 74
     0
 42
0.000000001
 43
0.00000001
 40
0.0000005163856998
 40
0.0000005163856998
 40
0.0000005163856998
 40
0.0000005163856998
 40
0.000026289209185
 40
0.000026289209185
 40
0.000026289209185
 40
0.000026289209185
 10
222.8870728142022
 20
55.98745380092895
 30
0.0
 10
222.887070513043
 20
55.98316096590241
 30
0.0
 10
222.8870777593673
 20
55.97886789822688
 30
0.0
 10
222.8870944012215
 20
55.97457468973775
 30
0.0
  0
LINE
  5
246
330
1F
100
AcDbEntity
  8
0
  6
Continuous
 62
     7
370
    15
100
AcDbLine
 10
235.6616575323
 20
66.5258588213
 30
0.0
 11
235.7512482104
 21
66.4826703919
 31
0.0
  0
LINE
  5
247
330
1F
100
AcDbEntity
  8
0
  6
Continuous
 62
     7
370
    15
100
AcDbLine
 10
224.3695503972
 20
46.7668552535
 30
0.0
 11
224.2985010213
 21
46.8150599116
 31
0.0
  0
SPLINE
  5
248
330
1F
100
AcDbEntity
  8
0
  6
Continuous
 62
     7
370
    15
100
AcDbSpline
210
0.0
220
0.0
230
1.0
 70
     8
 71
     3
 72
     8
 73
     4
 74
     0
 42
0.000000001
 43
0.00000001
 40
0.0000005163857002
 40
0.0000005163857002
 40
0.0000005163857002
 40
0.0000005163857002
 40
0.0000262892091854
 40
0.0000262892091854
 40
0.0000262892091854
 40
0.0000262892091854
 10
222.8870728142022
 20
48.51398274906918
 30
0.0
 10
222.887070513043
 20
48.51555613476688
 30
0.0
 10
222.8870777593673
 20
48.51712386469905
 30
0.0
 10
222.8870944012215
 20
48.51868602143482
 30
0.0
  0
SPLINE
  5
249
330
1F
100
AcDbEntity
  8
0
  6
Continuous
 62
     7
370
    15
100
AcDbSpline
210
0.0
220
0.0
230
1.0
 70
     8
 71
     3
 72
    18
 73
    14
 74
     0
 42
0.000000001
 43
0.00000001
 40
0.0
 40
0.0
 40
0.0
 40
0.0
 40
0.1246309188538922
 40
0.2499424602364259
 40
0.375231122216434
 40
0.4998069052083796
 40
0.6233199326026053
 40
0.6854481945560713
 40
0.7467726875944013
 40
0.8080092656867882
 40
0.8705311668727066
 40
0.9944823383762338
 40
1.0
 40
1.0
 40
1.0
 40
1.0
 10
228.5759411126562
 20
46.64101163381292
 30
0.0
 10
228.442894299565
 20
46.88594639973135
 30
0.0
 10
228.1760740907722
 20
47.37715354603228
 30
0.0
 10
228.0513795935966
 20
48.12917470182259
 30
0.0
 10
228.1872048967424
 20
48.75386160940925
 30
0.0
 10
228.5542829006335
 20
49.17072749645696
 30
0.0
 10
228.9969161165593
 20
49.26470819321026
 30
0.0
 10
229.373154748354
 20
49.18276961464553
 30
0.0
 10
229.6553381060193
 20
49.04047963333645
 30
0.0
 10
229.9278671525098
 20
48.82384660018115
 30
0.0
 10
230.2533714079638
 20
48.44577568466248
 30
0.0
 10
230.5003198639835
 20
48.08285191848522
 30
0.0
 10
230.5874007783384
 20
47.80892422783245
 30
0.0
 10
230.5911119650982
 20
47.79725006448446
 30
0.0
  0
SPLINE
  5
24A
330
1F
100
AcDbEntity
  8
0
  6
Continuous
 62
     7
370
    15
100
AcDbSpline
210
0.0
220
0.0
230
1.0
 70
     8
 71
     3
 72
    12
 73
     8
 74
     0
 42
0.000000001
 43
0.00000001
 40
0.0
 40
0.0
 40
0.0
 40
0.0
 40
0.155828156831389
 40
0.323539852205506
 40
0.4913765993175064
 40
0.6616361664026722
 40
1.0
 40
1.0
 40
1.0
 40
1.0
 10
230.1423040888526
 20
45.31157075337802
 30
0.0
 10
230.0673796883049
 20
45.33102111548237
 30
0.0
 10
229.9118171123706
 20
45.37140513470293
 30
0.0
 10
229.6463656496044
 20
45.51760410016533
 30
0.0
 10
229.3649339691369
 20
45.72495062729077
 30
0.0
 10
228.9847521537928
 20
46.0741581598205
 30
0.0
 10
228.7392574715072
 20
46.41455873489629
 30
0.0
 10
228.5759411126562
 20
46.64101163381292
 30
0.0
  0
ARC
  5
24B
330
1F
100
AcDbEntity
  8
0
  6
Continuous
 62
     7
370
    15
100
AcDbCircle
 10
243.3873450354
 20
39.7118928057
 30
0.0
 40
6.609905605978927
100
AcDbArc
 50
198.0914363868
 51
217.3775948369
  0
SPLINE
  5
24C
330
1F
100
AcDbEntity
  8
0
  6
Continuous
 62
     7
370
    15
100
AcDbSpline
210
0.0
220
0.0
230
1.0
 70
     8
 71
     3
 72
     8
 73
     4
 74
     0
 42
0.000000001
 43
0.00000001
 40
0.0
 40
0.0
 40
0.0
 40
0.0
 40
1.0
 40
1.0
 40
1.0
 40
1.0
 10
235.6295429947637
 20
37.41290871054824
 30
0.0
 10
236.1213377935157
 20
37.49455899762998
 30
0.0
 10
236.6129178844184
 20
37.57664278512042
 30
0.0
 10
237.1042189134709
 20
37.65929000532431
 30
0.0
  0
LINE
  5
24D
330
1F
100
AcDbEntity
  8
0
  6
Continuous
 62
     7
370
    15
100
AcDbLine
 10
237.1042189135
 20
37.6592900053
 30
0.0
 11
237.3493875178
 21
37.800822828
 31
0.0
  0
SPLINE
  5
24E
330
1F
100
AcDbEntity
  8
0
  6
Continuous
 62
     7
370
    15
100
AcDbSpline
210
0.0
220
0.0
230
1.0
 70
     8
 71
     3
 72
    10
 73
     6
 74
     0
 42
0.000000001
 43
0.00000001
 40
0.0
 40
0.0
 40
0.0
 40
0.0
 40
0.5
 40
0.5
 40
1.0
 40
1.0
 40
1.0
 40
1.0
 10
237.3493875178371
 20
37.80082282801408
 30
0.0
 10
237.374219821189
 20
37.81515821160193
 30
0.0
 10
237.4018948186825
 20
37.82775365173801
 30
0.0
 10
237.4620198281369
 20
37.84895154987829
 30
0.0
 10
237.4937142283317
 20
37.85731371554495
 30
0.0
 10
237.5268962209134
 20
37.86342517061619
 30
0.0
  0
SPLINE
  5
24F
330
1F
100
AcDbEntity
  8
0
  6
Continuous
 62
     7
370
    15
100
AcDbSpline
210
0.0
220
0.0
230
1.0
 70
     8
 71
     3
 72
    12
 73
     8
 74
     0
 42
0.000000001
 43
0.00000001
 40
0.0
 40
0.0
 40
0.0
 40
0.0
 40
0.0831829969834455
 40
0.3407314610385561
 40
0.5974375611012213
 40
0.8576737586782393
 40
1.0
 40
1.0
 40
1.0
 40
1.0
 10
229.5956936635383
 20
48.96361254170984
 30
0.0
 10
229.5818419849102
 20
48.91600137156573
 30
0.0
 10
229.5251031937155
 20
48.72097805967201
 30
0.0
 10
229.6031636526913
 20
48.28643971972857
 30
0.0
 10
229.8266662830265
 20
47.73833264082658
 30
0.0
 10
230.1304937082999
 20
47.27977943964319
 30
0.0
 10
230.3583895933158
 20
47.06416089939408
 30
0.0
 10
230.43896234823
 20
46.98792880859871
 30
0.0
  0
LINE
  5
250
330
1F
100
AcDbEntity
  8
0
  6
Continuous
 62
     7
370
    15
100
AcDbLine
 10
257.2531331486
 20
58.9391399422
 30
0.0
 11
257.3481414639
 21
58.9601884636
 31
0.0
  0
LINE
  5
251
330
1F
100
AcDbEntity
  8
0
  6
Continuous
 62
     7
370
    15
100
AcDbLine
 10
257.3481414639
 20
58.9601884636
 30
0.0
 11
258.7475295315
 21
58.1523389277
 31
0.0
  0
SPLINE
  5
252
330
1F
100
AcDbEntity
  8
0
  6
Continuous
 62
     7
370
    15
100
AcDbSpline
210
0.0
220
0.0
230
1.0
 70
     8
 71
     3
 72
    12
 73
     8
 74
     0
 42
0.000000001
 43
0.00000001
 40
0.0
 40
0.0
 40
0.0
 40
0.0
 40
0.249999999999998
 40
0.249999999999998
 40
0.499999999999996
 40
0.499999999999996
 40
1.0
 40
1.0
 40
1.0
 40
1.0
 10
258.7475295315289
 20
58.15233892769249
 30
0.0
 10
258.7797735024015
 20
58.13372487951888
 30
0.0
 10
258.8018265049351
 20
58.10947455672147
 30
0.0
 10
258.8226754491001
 20
58.05888669883392
 30
0.0
 10
258.8222942798728
 20
58.03204813039986
 30
0.0
 10
258.7965413469755
 20
57.95481401413105
 30
0.0
 10
258.7485899198668
 20
57.90802864330322
 30
0.0
 10
258.6846898707316
 20
57.87113993013575
 30
0.0
  0
SPLINE
  5
253
330
1F
100
AcDbEntity
  8
0
  6
Continuous
 62
     7
370
    15
100
AcDbSpline
210
0.0
220
0.0
230
1.0
 70
     8
 71
     3
 72
    11
 73
     7
 74
     0
 42
0.000000001
 43
0.00000001
 40
0.0
 40
0.0
 40
0.0
 40
0.0
 40
0.2050858226835956
 40
0.3942514619994382
 40
0.7239896424710295
 40
1.0
 40
1.0
 40
1.0
 40
1.0
 10
228.8672104625053
 20
46.8239347190013
 30
0.0
 10
228.9468309335222
 20
46.70934654925974
 30
0.0
 10
229.0998911826059
 20
46.48906533792439
 30
0.0
 10
229.4236276618624
 20
46.13828955249641
 30
0.0
 10
229.8061032258456
 20
45.82228568165582
 30
0.0
 10
230.0581450142148
 20
45.71527824554808
 30
0.0
 10
230.172988286226
 20
45.66652012423945
 30
0.0
  0
SPLINE
  5
254
330
1F
100
AcDbEntity
  8
0
  6
Continuous
 62
     7
370
    15
100
AcDbSpline
210
0.0
220
0.0
230
1.0
 70
     8
 71
     3
 72
    16
 73
    12
 74
     0
 42
0.000000001
 43
0.00000001
 40
0.0
 40
0.0
 40
0.0
 40
0.0
 40
0.1460145430676681
 40
0.2335492809463516
 40
0.3282846594090686
 40
0.4359414638269612
 40
0.5278790608188775
 40
0.664099532270754
 40
0.8013223014818099
 40
0.8930413578181003
 40
1.0
 40
1.0
 40
1.0
 40
1.0
 10
229.8068179344519
 20
48.90590363645886
 30
0.0
 10
229.659957328524
 20
48.9793745363962
 30
0.0
 10
229.4250547757152
 20
49.09689074738687
 30
0.0
 10
229.1082036860751
 20
49.08692081384583
 30
0.0
 10
228.8550745269874
 20
48.99918547156143
 30
0.0
 10
228.6463512514373
 20
48.81739325664387
 30
0.0
 10
228.4833203350285
 20
48.52552788200308
 30
0.0
 10
228.4062925285498
 20
48.11564450821386
 30
0.0
 10
228.4816918685931
 20
47.65107534600508
 30
0.0
 10
228.6404344056882
 20
47.20913067950328
 30
0.0
 10
228.7878492875188
 20
46.95873556374009
 30
0.0
 10
228.8672104625053
 20
46.8239347190013
 30
0.0
  0
SPLINE
  5
255
330
1F
100
AcDbEntity
  8
0
  6
Continuous
 62
     7
370
    15
100
AcDbSpline
210
0.0
220
0.0
230
1.0
 70
     8
 71
     3
 72
    10
 73
     6
 74
     0
 42
0.000000001
 43
0.00000001
 40
0.0
 40
0.0
 40
0.0
 40
0.0
 40
0.3338028530159354
 40
0.7036967240285971
 40
1.0
 40
1.0
 40
1.0
 40
1.0
 10
260.8645190798927
 20
54.29152423660657
 30
0.0
 10
260.8852819348538
 20
54.30595288008353
 30
0.0
 10
260.9290525404242
 20
54.33637020292898
 30
0.0
 10
260.9610356813646
 20
54.39169516916847
 30
0.0
 10
260.9544892769121
 20
54.42905233615826
 30
0.0
 10
260.9515776446815
 20
54.44566761439864
 30
0.0
  0
SPLINE
  5
256
330
1F
100
AcDbEntity
  8
0
  6
Continuous
 62
     7
370
    15
100
AcDbSpline
210
0.0
220
0.0
230
1.0
 70
     8
 71
     3
 72
     8
 73
     4
 74
     0
 42
0.000000001
 43
0.00000001
 40
0.0
 40
0.0
 40
0.0
 40
0.0
 40
1.0
 40
1.0
 40
1.0
 40
1.0
 10
254.9496827574307
 20
60.34478920276308
 30
0.0
 10
254.8979687356782
 20
60.26641942443478
 30
0.0
 10
254.8459235278802
 20
60.18811526973022
 30
0.0
 10
254.7935244360717
 20
60.10988123619006
 30
0.0
  0
LINE
  5
257
330
1F
100
AcDbEntity
  8
0
  6
Continuous
 62
     7
370
    15
100
AcDbLine
 10
224.7268502463
 20
50.6936672247
 30
0.0
 11
225.2272330818
 21
50.4048023625
 31
0.0
  0
SPLINE
  5
258
330
1F
100
AcDbEntity
  8
0
  6
Continuous
 62
     7
370
    15
100
AcDbSpline
210
0.0
220
0.0
230
1.0
 70
     8
 71
     3
 72
     9
 73
     5
 74
     0
 42
0.000000001
 43
0.00000001
 40
0.0
 40
0.0
 40
0.0
 40
0.0
 40
0.7009329310329868
 40
1.0
 40
1.0
 40
1.0
 40
1.0
 10
222.9010393055052
 20
56.45104565541842
 30
0.0
 10
222.8979669234062
 20
56.50504983024344
 30
0.0
 10
222.8935836479702
 20
56.58209596751858
 30
0.0
 10
222.9179947821136
 20
56.67172826290181
 30
0.0
 10
222.925295348452
 20
56.69853433076685
 30
0.0
  0
SPLINE
  5
259
330
1F
100
AcDbEntity
  8
0
  6
Continuous
 62
     7
370
    15
100
AcDbSpline
210
0.0
220
0.0
230
1.0
 70
     8
 71
     3
 72
    10
 73
     6
 74
     0
 42
0.000000001
 43
0.00000001
 40
0.0
 40
0.0
 40
0.0
 40
0.0
 40
0.5
 40
0.5
 40
1.0
 40
1.0
 40
1.0
 40
1.0
 10
222.9415317514203
 20
56.50339598005061
 30
0.0
 10
222.9216057009236
 20
56.41943550603258
 30
0.0
 10
222.9083114367828
 20
56.33398964351883
 30
0.0
 10
222.8910429106421
 20
56.16157617258154
 30
0.0
 10
222.88711945602
 20
56.07446456631524
 30
0.0
 10
222.8870728142023
 20
55.98745380092894
 30
0.0
  0
SPLINE
  5
25A
330
1F
100
AcDbEntity
  8
0
  6
Continuous
 62
     7
370
    15
100
AcDbSpline
210
0.0
220
0.0
230
1.0
 70
     8
 71
     3
 72
    24
 73
    20
 74
     0
 42
0.000000001
 43
0.00000001
 40
0.0
 40
0.0
 40
0.0
 40
0.0
 40
0.2500000000000034
 40
0.2500000000000034
 40
0.3750000000000043
 40
0.3750000000000043
 40
0.4375000000000036
 40
0.4375000000000036
 40
0.4687500000000054
 40
0.4687500000000054
 40
0.5000000000000073
 40
0.5000000000000073
 40
0.5625000000000063
 40
0.5625000000000063
 40
0.6250000000000052
 40
0.6250000000000052
 40
0.7500000000000029
 40
0.7500000000000029
 40
1.0
 40
1.0
 40
1.0
 40
1.0
 10
222.925295348452
 20
56.69853433076685
 30
0.0
 10
222.9551363777372
 20
56.8058133873231
 30
0.0
 10
222.9849659177783
 20
56.91169796069377
 30
0.0
 10
223.0296370746495
 20
57.06164600394407
 30
0.0
 10
223.0445898667413
 20
57.110646266707
 30
0.0
 10
223.0661730050307
 20
57.17379654860974
 30
0.0
 10
223.0733027165603
 20
57.19343673283826
 30
0.0
 10
223.0821543418617
 20
57.21114666232625
 30
0.0
 10
223.0847924391316
 20
57.21486302881193
 30
0.0
 10
223.0879449771766
 20
57.21271468042971
 30
0.0
 10
223.0883249383134
 20
57.20655227136315
 30
0.0
 10
223.0863150130526
 20
57.17790718801039
 30
0.0
 10
223.0817383714542
 20
57.1496061830222
 30
0.0
 10
223.0718069853478
 20
57.09322717287291
 30
0.0
 10
223.0661167996128
 20
57.06375742491687
 30
0.0
 10
223.0485351989942
 20
56.97590300435053
 30
0.0
 10
223.0358543260659
 20
56.91667801130122
 30
0.0
 10
222.9966132624456
 20
56.73818470417142
 30
0.0
 10
222.9693098024091
 20
56.62044166999772
 30
0.0
 10
222.9415317514204
 20
56.50339598005062
 30
0.0
  0
ARC
  5
25B
330
1F
100
AcDbEntity
  8
0
  6
Continuous
 62
     7
370
    15
100
AcDbCircle
 10
223.6042097884
 20
55.9087865462
 30
0.0
 40
0.7201267655271137
100
AcDbArc
 50
174.7583590299
 51
234.4349468916
  0
ARC
  5
25C
330
1F
100
AcDbEntity
  8
0
  6
Continuous
 62
     7
370
    15
100
AcDbCircle
 10
225.0995437335
 20
48.4088901688
 30
0.0
 40
2.215172042338733
100
AcDbArc
 50
122.6235698331
 51
177.1589486026
  0
LINE
  5
25D
330
1F
100
AcDbEntity
  8
0
  6
Continuous
 62
     7
370
    15
100
AcDbLine
 10
223.9053061629
 20
50.2745760486
 30
0.0
 11
224.6493927945
 21
50.7041281178
 31
0.0
  0
SPLINE
  5
25E
330
1F
100
AcDbEntity
  8
0
  6
Continuous
 62
     7
370
    15
100
AcDbSpline
210
0.0
220
0.0
230
1.0
 70
     8
 71
     3
 72
     8
 73
     4
 74
     0
 42
0.000000001
 43
0.00000001
 40
0.0
 40
0.0
 40
0.0
 40
0.0
 40
0.000159097691435
 40
0.000159097691435
 40
0.000159097691435
 40
0.000159097691435
 10
224.7268502463479
 20
50.69366722471467
 30
0.0
 10
224.7010301174168
 20
50.69715177409185
 30
0.0
 10
224.6752109734989
 20
50.70063875674453
 30
0.0
 10
224.6493927944771
 20
50.70412811777899
 30
0.0
  0
SPLINE
  5
25F
330
1F
100
AcDbEntity
  8
0
  6
Continuous
 62
     7
370
    15
100
AcDbSpline
210
0.0
220
0.0
230
1.0
 70
     8
 71
     3
 72
    10
 73
     6
 74
     0
 42
0.000000001
 43
0.00000001
 40
0.0
 40
0.0
 40
0.0
 40
0.0
 40
0.5
 40
0.5
 40
1.0
 40
1.0
 40
1.0
 40
1.0
 10
222.9415317514203
 20
48.31874036434663
 30
0.0
 10
222.9216057009236
 20
48.3572619258633
 30
0.0
 10
222.9083114367828
 20
48.38922525305711
 30
0.0
 10
222.8910429106421
 20
48.45166867655555
 30
0.0
 10
222.88711945602
 20
48.4820920537686
 30
0.0
 10
222.8870728142023
 20
48.51398274906917
 30
0.0
  0
LINE
  5
260
330
1F
100
AcDbEntity
  8
0
  6
Continuous
 62
     7
370
    15
100
AcDbLine
 10
222.8974393801
 20
49.1158529255
 30
0.0
 11
222.9010393055
 21
48.9802160433
 31
0.0
  0
ARC
  5
261
330
1F
100
AcDbEntity
  8
0
  6
Continuous
 62
     7
370
    15
100
AcDbCircle
 10
224.2341649788
 20
48.9035477837
 30
0.0
 40
1.353480254557491
100
AcDbArc
 50
122.9135798094
 51
170.9753897871
  0
LINE
  5
262
330
1F
100
AcDbEntity
  8
0
  6
Continuous
 62
     7
370
    15
100
AcDbLine
 10
223.9053061629
 20
50.2745760486
 30
0.0
 11
223.4987197637
 21
50.0397824139
 31
0.0
  0
LINE
  5
263
330
1F
100
AcDbEntity
  8
0
  6
Continuous
 62
     7
370
    15
100
AcDbLine
 10
222.996839074
 20
48.2227598566
 30
0.0
 11
222.9415317514
 21
48.3187403643
 31
0.0
  0
LWPOLYLINE
  5
264
330
1F
100
AcDbEntity
  8
0
  6
Continuous
 62
     7
370
     0
100
AcDbPolyline
 90
        8
 70
   128
 43
0.0
 10
259.2838247648
 20
42.7524269804
 10
259.3142138909
 20
42.673715761
 10
259.415903129
 20
42.3050934671
 10
259.4446648564
 20
41.9587392021
 10
259.3985390087
 20
41.6582564367
 10
259.2806689864
 20
41.4241225749
 10
259.0990874366
 20
41.2722934524
 10
258.9617078034
 20
41.2246779002
  0
LWPOLYLINE
  5
265
330
1F
100
AcDbEntity
  8
0
  6
Continuous
 62
     7
370
     0
100
AcDbPolyline
 90
       10
 70
   128
 43
0.0
 10
259.1492994398
 20
42.6135836764
 10
259.2053292623
 20
42.434338881
 10
259.2615330032
 20
42.0951629395
 10
259.2439886619
 20
41.7924248964
 10
259.1539974218
 20
41.5485774475
 10
258.9982335216
 20
41.3817056426
 10
258.7882492571
 20
41.3041856001
 10
258.5396182008
 20
41.3217666267
 10
258.2707801805
 20
41.4331448184
 10
258.1889898488
 20
41.4838981799
  0
LWPOLYLINE
  5
266
330
1F
100
AcDbEntity
  8
0
  6
Continuous
 62
     7
370
     0
100
AcDbPolyline
 90
        9
 70
   128
 43
0.0
 10
244.3018012662
 20
40.2392953487
 10
244.3369389906
 20
39.4465678223
 10
244.4420029492
 20
38.7022879311
 10
244.6159489692
 20
38.0138526632
 10
244.8570482969
 20
37.3881039976
 10
245.1629047789
 20
36.8312609056
 10
245.5304786761
 20
36.348857544
 10
245.9561168739
 20
35.9456882541
 10
246.3732754149
 20
35.6608472841
  0
LWPOLYLINE
  5
267
330
1F
100
AcDbEntity
  8
0
  6
Continuous
 62
     7
370
     0
100
AcDbPolyline
 90
       25
 70
   128
 43
0.0
 10
256.3724627412
 20
52.9818245317
 10
256.0516945059
 20
53.1446338564
 10
255.5005601692
 20
53.3340064379
 10
254.908402984
 20
53.4338070506
 10
254.2811080744
 20
53.4430438311
 10
253.6249097792
 20
53.3616249802
 10
252.9463296916
 20
53.1903596749
 10
252.2521118456
 20
52.9309500269
 10
251.5491556899
 20
52.5859741657
 10
250.8444475187
 20
52.1588606165
 10
250.1449910384
 20
51.6538542256
 10
249.4577377616
 20
51.0759739733
 10
248.7895179203
 20
50.4309630933
 10
248.1469725834
 20
49.7252319935
 10
247.5364876552
 20
48.9657945465
 10
246.9641304091
 20
48.160198383
 10
246.4355891886
 20
47.3164498795
 10
245.9561168739
 20
46.4429345878
 10
245.5304786761
 20
45.5483338952
 10
245.1629047789
 20
44.6415387454
 10
244.8570482969
 20
43.7315612759
 10
244.6159489692
 20
42.8274452517
 10
244.4420029492
 20
41.9381761839
 10
244.3369389906
 20
41.0725920282
 10
244.3018012662
 20
40.2392953487
  0
LWPOLYLINE
  5
268
330
1F
100
AcDbEntity
  8
0
  6
Continuous
 62
     7
370
     0
100
AcDbPolyline
 90
       49
 70
   128
 43
0.0
 10
260.582934903
 20
43.9037229509
 10
260.0291591692
 20
43.5421213055
 10
259.4848586917
 20
43.1028793264
 10
258.9593466026
 20
42.5935125657
 10
258.4616145595
 20
42.0227364298
 10
258.0001788956
 20
41.4003170568
 10
257.582934903
 20
40.7369042146
 10
257.2170217422
 20
40.0438490809
 10
256.9087002888
 20
39.3330100212
 10
256.6632460084
 20
38.6165496889
 10
256.4848586917
 20
37.9067269189
 10
256.3765905951
 20
37.2156869757
 10
256.3402942159
 20
36.5552537441
 10
256.3765905951
 20
35.9367274201
 10
256.4848586917
 20
35.3706911603
 10
256.6632460084
 20
34.8668300022
 10
256.9087002888
 20
34.4337651499
 10
257.2170217422
 20
34.078906463
 10
257.582934903
 20
33.8083256722
 10
258.0001788956
 20
33.6266524896
 10
258.4616145595
 20
33.536995394
 10
258.9593466026
 20
33.5408884429
 10
259.4848586917
 20
33.6382650253
 10
260.0291591692
 20
33.8274590009
 10
260.582934903
 20
34.1052332083
 10
261.1367106369
 20
34.4668348537
 10
261.6810111144
 20
34.9060768328
 10
262.2065232035
 20
35.4154435936
 10
262.7042552466
 20
35.9862197294
 10
263.1656909105
 20
36.6086391025
 10
263.582934903
 20
37.2720519447
 10
263.9488480638
 20
37.9651070784
 10
264.2571695172
 20
38.675946138
 10
264.5026237976
 20
39.3924064703
 10
264.6810111144
 20
40.1022292403
 10
264.7892792109
 20
40.7932691836
 10
264.8255755901
 20
41.4537024151
 10
264.7892792109
 20
42.0722287392
 10
264.6810111144
 20
42.6382649989
 10
264.5026237976
 20
43.142126157
 10
264.2571695172
 20
43.5751910094
 10
263.9488480638
 20
43.9300496962
 10
263.582934903
 20
44.2006304871
 10
263.1656909105
 20
44.3823036696
 10
262.7042552466
 20
44.4719607653
 10
262.2065232035
 20
44.4680677163
 10
261.6810111144
 20
44.3706911339
 10
261.1367106369
 20
44.1814971583
 10
260.582934903
 20
43.9037229509
  0
LWPOLYLINE
  5
269
330
1F
100
AcDbEntity
  8
0
  6
Continuous
 62
     7
370
     0
100
AcDbPolyline
 90
       25
 70
   128
 43
0.0
 10
239.8610726044
 20
42.5747630808
 10
240.1576370666
 20
43.7245142657
 10
240.5227805483
 20
44.8824313087
 10
240.9540370487
 20
46.0406942037
 10
241.4484940722
 20
47.1914806087
 10
242.0028122974
 20
48.3270186742
 10
242.6132481296
 20
49.4396395306
 10
243.2756789834
 20
50.52182908
 10
243.9856311243
 20
51.5662787425
 10
244.7383098821
 20
52.5659348154
 10
245.5286320321
 20
53.5140461094
 10
246.3512601244
 20
54.404209544
 10
247.2006385306
 20
55.2304133899
 10
248.0710309637
 20
55.98707787
 10
248.9565592182
 20
56.6690928416
 10
249.8512428687
 20
57.2718523089
 10
250.7490396587
 20
57.7912855286
 10
251.6438863071
 20
58.2238845025
 10
252.5297394567
 20
58.5667276683
 10
253.4006164877
 20
58.8174996306
 10
254.2506359221
 20
58.9745067982
 10
255.0740571436
 20
59.0366888213
 10
255.8653191674
 20
59.0036257529
 10
256.6190781962
 20
58.8755408847
 10
257.3302437096
 20
58.6532992395
  0
LWPOLYLINE
  5
26A
330
1F
100
AcDbEntity
  8
0
  6
Continuous
 62
     7
370
     0
100
AcDbPolyline
 90
       25
 70
   128
 43
0.0
 10
239.4273897689
 20
42.5693257424
 10
239.7230054391
 20
43.7345101059
 10
240.0879897742
 20
44.9085290572
 10
240.5199029263
 20
46.0835345125
 10
241.0158576417
 20
47.2516717932
 10
241.5725385614
 20
48.4051321333
 10
242.1862243838
 20
49.5362048791
 10
242.8528127409
 20
50.6373290335
 10
243.5678476217
 20
51.7011437999
 10
244.3265491599
 20
52.7205377876
 10
245.1238455859
 20
53.6886965499
 10
245.9544071315
 20
54.5991481374
 10
246.8126816572
 20
55.4458063618
 10
247.6929317681
 20
56.2230114807
 10
248.5892731667
 20
56.925568032
 10
249.4957139885
 20
57.5487795645
 10
250.4061948563
 20
58.0884800326
 10
251.3146293862
 20
58.5410616458
 10
252.2149448733
 20
58.9034989857
 10
253.1011228871
 20
59.1733692305
 10
253.9672395034
 20
59.3488683512
 10
254.8075049043
 20
59.4288231709
 10
255.6163020822
 20
59.4126992075
 10
256.3882243884
 20
59.3006042466
 10
257.1181116752
 20
59.0932876207
  0
LWPOLYLINE
  5
26B
330
1F
100
AcDbEntity
  8
0
  6
Continuous
 62
     7
370
     0
100
AcDbPolyline
 90
       18
 70
   128
 43
0.0
 10
251.2016950324
 20
32.8734599701
 10
250.4960812481
 20
32.426020644
 10
249.6143319082
 20
31.9409768645
 10
248.7371312233
 20
31.5406172797
 10
247.8701966527
 20
31.2275513718
 10
247.0191787427
 20
31.0038196562
 10
246.1896242972
 20
30.8708803819
 10
245.3869402247
 20
30.8296000267
 10
244.6163582966
 20
30.8802476496
 10
243.8829010474
 20
31.0224931371
 10
243.1913490388
 20
31.2554093551
 10
242.5462097005
 20
31.5774781914
 10
241.9516879516
 20
31.9866004508
 10
241.4116587935
 20
32.4801095373
 10
240.9296420532
 20
33.0547888345
 10
240.5087794418
 20
33.7068926712
 10
240.1518140771
 20
34.4321707346
 10
239.8610726044
 20
35.2258957738
  0
ARC
  5
26C
330
1F
100
AcDbEntity
  8
0
  6
Continuous
 62
     7
370
     0
100
AcDbCircle
 10
254.3380672217
 20
52.7707189571
 30
0.0
 40
6.701300064527543
100
AcDbArc
 50
13.1170908933
 51
49.5620782406
  0
LWPOLYLINE
  5
26D
330
1F
100
AcDbEntity
  8
0
  6
Continuous
 62
     7
370
     0
100
AcDbPolyline
 90
       32
 70
   128
 43
0.0
 10
242.1804809226
 20
40.2392953487
 10
242.2162118816
 20
41.139236518
 10
242.3230907535
 20
42.0725230591
 10
242.500178283
 20
43.0309532161
 10
242.7459182185
 20
44.0061042706
 10
243.0581509886
 20
44.9894065599
 10
243.4341326805
 20
45.9722187881
 10
243.8705591537
 20
46.9459039662
 10
244.3635950764
 20
47.9019053136
 10
244.9089076314
 20
48.8318214563
 10
245.5017045923
 20
49.7274802576
 10
246.136776438
 20
50.5810106359
 10
246.8085421344
 20
51.3849117355
 10
247.5110981804
 20
52.1321188447
 10
248.2382704881
 20
52.8160654804
 10
248.9836686413
 20
53.430741095
 10
249.7407420541
 20
53.9707438973
 10
250.5028375381
 20
54.431328323
 10
251.2632577708
 20
54.8084467398
 10
252.0153201519
 20
55.0987850174
 10
252.7524155302
 20
55.2997916525
 10
253.4680662849
 20
55.4097001917
 10
254.1559832515
 20
55.4275447548
 10
254.8101209909
 20
55.3531685231
 10
255.4247309172
 20
55.1872251176
 10
255.9944118163
 20
54.9311728549
 10
256.5141573118
 20
54.5872619314
 10
256.9793998618
 20
54.1585146489
 10
257.386050898
 20
53.6486988537
 10
257.7305367563
 20
53.0622948255
 10
258.0098300828
 20
52.4044559039
 10
258.1514874786
 20
51.9548154113
  0
LWPOLYLINE
  5
26E
330
1F
100
AcDbEntity
  8
0
  6
Continuous
 62
     7
370
     0
100
AcDbPolyline
 90
       15
 70
   128
 43
0.0
 10
248.1523001522
 20
34.6338381637
 10
247.5110981804
 20
34.5010715343
 10
246.8085421344
 20
34.4371246986
 10
246.136776438
 20
34.4654216344
 10
245.5017045923
 20
34.585713667
 10
244.9089076314
 20
34.7969436658
 10
244.3635950764
 20
35.097255334
 10
243.8705591537
 20
35.4840095218
 10
243.4341326805
 20
35.9538074195
 10
243.0581509886
 20
36.5025204263
 10
242.7459182185
 20
37.1253264326
 10
242.500178283
 20
37.8167521968
 10
242.3230907535
 20
38.5707214444
 10
242.2162118816
 20
39.3806082665
 10
242.1804809226
 20
40.2392953487
  0
LWPOLYLINE
  5
26F
330
1F
100
AcDbEntity
  8
0
  6
Continuous
 62
     7
370
     0
100
AcDbPolyline
 90
       25
 70
   128
 43
0.0
 10
257.5301016348
 20
34.4172116314
 10
257.7750254052
 20
34.3080108867
 10
258.2086741729
 20
34.2048748622
 10
258.679964895
 20
34.194948399
 10
259.1801183171
 20
34.2784164084
 10
259.6998175272
 20
34.4537240393
 10
260.2293815124
 20
34.7176056422
 10
260.7589454976
 20
35.0651456021
 10
261.2786447078
 20
35.4898699072
 10
261.7787981299
 20
35.9838667473
 10
262.250088852
 20
36.5379338959
 10
262.6837376197
 20
37.1417501303
 10
263.0716663769
 20
37.7840674966
 10
263.406648745
 20
38.4529208376
 10
263.6824446361
 20
39.1358506811
 10
263.8939164947
 20
39.8201353361
 10
264.0371250001
 20
40.4930278743
 10
264.1094024488
 20
41.1419935809
 10
264.1094024488
 20
41.7549434527
 10
264.0371250001
 20
42.3204593932
 10
263.8939164947
 20
42.8280069105
 10
263.6824446361
 20
43.2681313548
 10
263.406648745
 20
43.6326340402
 10
263.0716663769
 20
43.9147249716
 10
262.9791580272
 20
43.9718488507
  0
LWPOLYLINE
  5
270
330
1F
100
AcDbEntity
  8
0
  6
Continuous
 62
     7
370
     0
100
AcDbPolyline
 90
       23
 70
   128
 43
0.0
 10
230.1066326339
 20
43.7396451282
 10
230.1418382682
 20
44.7817391938
 10
230.2472325898
 20
45.8578923654
 10
230.4221492618
 20
46.9613008561
 10
230.6654824047
 20
48.0849885622
 10
230.9756935881
 20
49.2218511682
 10
231.350821557
 20
50.3647010627
 10
231.7884946315
 20
51.5063127806
 10
232.2859457016
 20
52.6394686852
 10
232.8400297214
 20
53.7570046
 10
233.4472435934
 20
54.851855103
 10
234.1037483159
 20
55.917098197
 10
234.8053932548
 20
56.945999072
 10
235.5477423848
 20
57.9320526855
 10
236.3261023357
 20
58.8690248891
 10
237.1355520653
 20
59.7509918428
 10
237.9709739718
 20
60.5723774675
 10
238.8270862488
 20
61.3279886989
 10
239.6984762791
 20
62.0130483195
 10
240.5796348541
 20
62.6232251619
 10
241.4649910057
 20
63.1546614914
 10
242.3489472273
 20
63.6039973966
 10
242.530935382
 20
63.6863491909
  0
LWPOLYLINE
  5
271
330
1F
100
AcDbEntity
  8
0
  6
Continuous
 62
     7
370
     0
100
AcDbPolyline
 90
        3
 70
   128
 43
0.0
 10
230.2016933695
 20
42.1177948584
 10
230.1418382682
 20
42.7381986227
 10
230.1066326339
 20
43.7396451282
  0
LWPOLYLINE
  5
272
330
1F
100
AcDbEntity
  8
0
  6
Continuous
 62
     7
370
     0
100
AcDbPolyline
 90
       19
 70
   128
 43
0.0
 10
237.7752056758
 20
44.5015451715
 10
238.0408415292
 20
45.5693026098
 10
238.3735186851
 20
46.6460315208
 10
238.7707776506
 20
47.7237716127
 10
239.2296814773
 20
48.7945551179
 10
239.7468374742
 20
49.8504656992
 10
240.3184222902
 20
50.8836969753
 10
240.9402101803
 20
51.8866102338
 10
241.6076042462
 20
52.8517909045
 10
242.3156704221
 20
53.7721033751
 10
243.0591739517
 20
54.6407437458
 10
243.8326180891
 20
55.45129013
 10
244.6302847368
 20
56.197750132
 10
245.4462767193
 20
56.8746051487
 10
246.2745613814
 20
57.4768511689
 10
247.1090151875
 20
58.0000357683
 10
247.9434689937
 20
58.4402910261
 10
248.7717536557
 20
58.7943621208
 10
248.9212688298
 20
58.8492859309
  0
LWPOLYLINE
  5
273
330
1F
100
AcDbEntity
  8
0
  6
Continuous
 62
     7
370
     0
100
AcDbPolyline
 90
       22
 70
   128
 43
0.0
 10
237.3493875178
 20
45.149690135
 10
237.6512796879
 20
46.2332021472
 10
238.018457378
 20
47.3217868206
 10
238.4483078723
 20
48.4076981447
 10
238.9377724961
 20
49.4832091315
 10
239.48336838
 20
50.5406667986
 10
240.0812132433
 20
51.572546625
 10
240.7270530184
 20
52.571506093
 10
241.4162921219
 20
53.5304369357
 10
242.144026155
 20
54.4425157166
 10
242.9050768016
 20
55.3012523828
 10
243.6940286756
 20
56.1005364468
 10
244.5052678549
 20
56.834680466
 10
245.3330218282
 20
57.4984605128
 10
246.1714005705
 20
58.0871533469
 10
247.0144384544
 20
58.5965700236
 10
247.8561366994
 20
59.0230857013
 10
248.6905060578
 20
59.3636654347
 10
249.5116094314
 20
59.6158857705
 10
250.3136041188
 20
59.7779519917
 10
251.0907833894
 20
59.8487108883
 10
251.2406649857
 20
59.8518317022
  0
LINE
  5
274
330
1F
100
AcDbEntity
  8
0
  6
Continuous
 62
     7
370
     0
100
AcDbLine
 10
231.7562692734
 20
43.2020816355
 30
0.0
 11
233.5537781922
 21
44.2397614467
 31
0.0
  0
ARC
  5
275
330
1F
100
AcDbEntity
  8
0
  6
Continuous
 62
     7
370
     0
100
AcDbCircle
 10
246.4750128318
 20
37.2479297724
 30
0.0
 40
7.333459678743919
100
AcDbArc
 50
196.0495523182
 51
216.0304325794
  0
LWPOLYLINE
  5
276
330
1F
100
AcDbEntity
  8
0
  6
Continuous
 62
     7
370
     0
100
AcDbPolyline
 90
       21
 70
   128
 43
0.0
 10
222.8870728142
 20
55.9874538009
 10
223.2329476418
 20
56.9898490152
 10
223.6441535272
 20
57.9877684069
 10
224.1168686427
 20
58.9719371186
 10
224.6466994818
 20
59.9332080946
 10
225.2287216936
 20
60.8626470951
 10
225.8575258501
 20
61.7516157328
 10
226.527267723
 20
62.59185176
 10
227.2317226007
 20
63.3755458592
 10
227.9643431423
 20
64.0954142248
 10
228.7183202298
 20
64.7447662599
 10
229.4866462531
 20
65.3175667601
 10
230.2621802404
 20
65.808492006
 10
231.0377142278
 20
66.2129792425
 10
231.8060402511
 20
66.5272690866
 10
232.5600173386
 20
66.7484404671
 10
233.2926378802
 20
66.8744377741
 10
233.9970927579
 20
66.9040899641
 10
234.6668346308
 20
66.8371214439
 10
235.2956387873
 20
66.6741546319
 10
235.6616575323
 20
66.5258588213
  0
ARC
  5
277
330
1F
100
AcDbEntity
  8
0
  6
Continuous
 62
     7
370
     0
100
AcDbCircle
 10
226.7950191468
 20
50.3248663408
 30
0.0
 40
4.307127107652686
100
AcDbArc
 50
204.86229737
 51
234.575835467
  0
LINE
  5
278
330
1F
100
AcDbEntity
  8
0
  6
Continuous
 62
     7
370
     0
100
AcDbLine
 10
231.7562692734
 20
42.3855408236
 30
0.0
 11
233.5537781922
 21
43.4232206348
 31
0.0
  0
LINE
  5
279
330
1F
100
AcDbEntity
  8
0
  6
Continuous
 62
     7
370
     0
100
AcDbLine
 10
235.0433277255
 20
37.7513235821
 30
0.0
 11
236.3822053169
 21
38.5242411636
 31
0.0
  0
LINE
  5
27A
330
1F
100
AcDbEntity
  8
0
  6
Continuous
 62
     7
370
     0
100
AcDbLine
 10
238.7684034341
 20
37.2170282806
 30
0.0
 11
238.560094203
 21
37.8343739804
 31
0.0
  0
ARC
  5
27B
330
1F
100
AcDbEntity
  8
0
  6
Continuous
 62
     7
370
     0
100
AcDbCircle
 10
244.3675524107
 20
40.1515173873
 30
0.0
 40
6.850815210968409
100
AcDbArc
 50
195.7886597367
 51
209.4228437997
  0
ARC
  5
27C
330
1F
100
AcDbEntity
  8
0
  6
Continuous
 62
     7
370
     0
100
AcDbCircle
 10
243.541155344
 20
39.9035375954
 30
0.0
 40
6.539067074572282
100
AcDbArc
 50
198.7574076987
 51
214.1516135038
  0
LINE
  5
27D
330
1F
100
AcDbEntity
  8
0
  6
Continuous
 62
     7
370
     0
100
AcDbLine
 10
254.0967540036
 20
60.8371744916
 30
0.0
 11
253.5557650257
 21
60.5248682023
 31
0.0
  0
ARC
  5
27E
330
1F
100
AcDbEntity
  8
0
  6
Continuous
 62
     7
370
     0
100
AcDbCircle
 10
226.6495105433
 20
54.4913631895
 30
0.0
 40
1.102095792745746
100
AcDbArc
 50
159.4111972489
 51
213.1915491986
  0
ARC
  5
27F
330
1F
100
AcDbEntity
  8
0
  6
Continuous
 62
     7
370
     0
100
AcDbCircle
 10
225.3176997344
 20
54.3198783668
 30
0.0
 40
0.6345057597332026
100
AcDbArc
 50
41.9989524423
 51
61.7721687695
  0
LINE
  5
280
330
1F
100
AcDbEntity
  8
0
  6
Continuous
 62
     7
370
     0
100
AcDbLine
 10
225.6178075067
 20
54.8789247728
 30
0.0
 11
225.7273543584
 21
55.2897225336
 31
0.0
  0
LINE
  5
281
330
1F
100
AcDbEntity
  8
0
  6
Continuous
 62
     7
370
     0
100
AcDbLine
 10
225.6178075067
 20
54.8789247728
 30
0.0
 11
224.8157627685
 21
55.3419353448
 31
0.0
  0
LINE
  5
282
330
1F
100
AcDbEntity
  8
0
  6
Continuous
 62
     7
370
     0
100
AcDbLine
 10
222.9415317514
 20
56.5033959801
 30
0.0
 11
222.9252953485
 21
56.6985343308
 31
0.0
  0
ARC
  5
283
330
1F
100
AcDbEntity
  8
0
  6
Continuous
 62
     7
370
     0
100
AcDbCircle
 10
225.4078475253
 20
46.2263054605
 30
0.0
 40
0.4314912001446978
100
AcDbArc
 50
27.8850837496
 51
60.8831993912
  0
ARC
  5
284
330
1F
100
AcDbEntity
  8
0
  6
Continuous
 62
     7
370
     0
100
AcDbCircle
 10
226.857546202
 20
46.9983636562
 30
0.0
 40
1.301173266866359
100
AcDbArc
 50
165.9701785416
 51
197.6766607319
  0
LINE
  5
285
330
1F
100
AcDbEntity
  8
0
  6
Continuous
 62
     7
370
     0
100
AcDbLine
 10
225.226036341
 20
49.5121347458
 30
0.0
 11
223.9053061629
 21
50.2745760486
 31
0.0
  0
LINE
  5
286
330
1F
100
AcDbEntity
  8
0
  6
Continuous
 62
     7
370
     0
100
AcDbLine
 10
225.6178075067
 20
46.6032689362
 30
0.0
 11
224.8157627685
 21
47.0662795081
 31
0.0
  0
LINE
  5
287
330
1F
100
AcDbEntity
  8
0
  6
Continuous
 62
     7
370
     0
100
AcDbLine
 10
225.6178075067
 20
46.6032689362
 30
0.0
 11
225.7273543584
 21
46.3189512781
 31
0.0
  0
OLE2FRAME
  5
288
330
1F
100
AcDbEntity
  8
0
100
AcDbOle2Frame
 70
     2
  3
Paintbrush-Bild
 10
13.8511154363
 20
38.264191557
 30
0.0
 11
51.6290888628
 21
31.9806341108
 31
0.0
 71
     2
 72
     0
 73
     1
 90
    12928
310
80552BED0767C5B32B40DDAF6807D121434000000000000000006FFBDDFB85D0
310
4940DDAF6807D121434000000000000000006FFBDDFB85D04940416F4BD60AFB
310
3F4000000000000000002BED0767C5B32B40416F4BD60AFB3F40000000000000
310
0000000000000100000000010000010000000100000000000100000000320000
310
D0CF11E0A1B11AE1000000000000000000000000000000003E000300FEFF0900
310
0600000000000000000000000100000001000000000000000010000002000000
310
01000000FEFFFFFF0000000000000000FFFFFFFFFFFFFFFFFFFFFFFFFFFFFFFF
310
FFFFFFFFFFFFFFFFFFFFFFFFFFFFFFFFFFFFFFFFFFFFFFFFFFFFFFFFFFFFFFFF
310
FFFFFFFFFFFFFFFFFFFFFFFFFFFFFFFFFFFFFFFFFFFFFFFFFFFFFFFFFFFFFFFF
310
FFFFFFFFFFFFFFFFFFFFFFFFFFFFFFFFFFFFFFFFFFFFFFFFFFFFFFFFFFFFFFFF
310
FFFFFFFFFFFFFFFFFFFFFFFFFFFFFFFFFFFFFFFFFFFFFFFFFFFFFFFFFFFFFFFF
310
FFFFFFFFFFFFFFFFFFFFFFFFFFFFFFFFFFFFFFFFFFFFFFFFFFFFFFFFFFFFFFFF
310
FFFFFFFFFFFFFFFFFFFFFFFFFFFFFFFFFFFFFFFFFFFFFFFFFFFFFFFFFFFFFFFF
310
FFFFFFFFFFFFFFFFFFFFFFFFFFFFFFFFFFFFFFFFFFFFFFFFFFFFFFFFFFFFFFFF
310
FFFFFFFFFFFFFFFFFFFFFFFFFFFFFFFFFFFFFFFFFFFFFFFFFFFFFFFFFFFFFFFF
310
FFFFFFFFFFFFFFFFFFFFFFFFFFFFFFFFFFFFFFFFFFFFFFFFFFFFFFFFFFFFFFFF
310
FFFFFFFFFFFFFFFFFFFFFFFFFFFFFFFFFFFFFFFFFFFFFFFFFFFFFFFFFFFFFFFF
310
FFFFFFFFFFFFFFFFFFFFFFFFFFFFFFFFFFFFFFFFFFFFFFFFFFFFFFFFFFFFFFFF
310
FFFFFFFFFFFFFFFFFFFFFFFFFFFFFFFFFFFFFFFFFFFFFFFFFFFFFFFFFFFFFFFF
310
FFFFFFFFFFFFFFFFFFFFFFFFFFFFFFFFFFFFFFFFFFFFFFFFFFFFFFFFFFFFFFFF
310
FDFFFFFFFEFFFFFFFEFFFFFFFEFFFFFF05000000060000000700000008000000
310
090000000A0000000B0000000C0000000D0000000E0000000F00000010000000
310
11000000120000001300000014000000150000001600000017000000FEFFFFFF
310
FFFFFFFFFFFFFFFFFFFFFFFFFFFFFFFFFFFFFFFFFFFFFFFFFFFFFFFFFFFFFFFF
310
FFFFFFFFFFFFFFFFFFFFFFFFFFFFFFFFFFFFFFFFFFFFFFFFFFFFFFFFFFFFFFFF
310
FFFFFFFFFFFFFFFFFFFFFFFFFFFFFFFFFFFFFFFFFFFFFFFFFFFFFFFFFFFFFFFF
310
FFFFFFFFFFFFFFFFFFFFFFFFFFFFFFFFFFFFFFFFFFFFFFFFFFFFFFFFFFFFFFFF
310
FFFFFFFFFFFFFFFFFFFFFFFFFFFFFFFFFFFFFFFFFFFFFFFFFFFFFFFFFFFFFFFF
310
FFFFFFFFFFFFFFFFFFFFFFFFFFFFFFFFFFFFFFFFFFFFFFFFFFFFFFFFFFFFFFFF
310
FFFFFFFFFFFFFFFFFFFFFFFFFFFFFFFFFFFFFFFFFFFFFFFFFFFFFFFFFFFFFFFF
310
FFFFFFFFFFFFFFFFFFFFFFFFFFFFFFFFFFFFFFFFFFFFFFFFFFFFFFFFFFFFFFFF
310
FFFFFFFFFFFFFFFFFFFFFFFFFFFFFFFFFFFFFFFFFFFFFFFFFFFFFFFFFFFFFFFF
310
FFFFFFFFFFFFFFFFFFFFFFFFFFFFFFFFFFFFFFFFFFFFFFFFFFFFFFFFFFFFFFFF
310
FFFFFFFFFFFFFFFFFFFFFFFFFFFFFFFFFFFFFFFFFFFFFFFFFFFFFFFFFFFFFFFF
310
FFFFFFFFFFFFFFFFFFFFFFFFFFFFFFFFFFFFFFFFFFFFFFFFFFFFFFFFFFFFFFFF
310
FFFFFFFFFFFFFFFFFFFFFFFFFFFFFFFFFFFFFFFFFFFFFFFFFFFFFFFFFFFFFFFF
310
52006F006F007400200045006E00740072007900000000000000000000000000
310
0000000000000000000000000000000000000000000000000000000000000000
310
16000500FFFFFFFFFFFFFFFF020000000A00030000000000C000000000000046
310
00000000000000000000000020FF15362325D20103000000C000000000000000
310
01004F006C006500000000000000000000000000000000000000000000000000
310
0000000000000000000000000000000000000000000000000000000000000000
310
0A000200FFFFFFFFFFFFFFFFFFFFFFFF00000000000000000000000000000000
310
0000000000000000000000000000000000000000000000001400000000000000
310
010043006F006D0070004F0062006A0000000000000000000000000000000000
310
0000000000000000000000000000000000000000000000000000000000000000
310
120002010100000003000000FFFFFFFF00000000000000000000000000000000
310
0000000000000000000000000000000000000000010000004D00000000000000
310
01004F006C006500310030004E00610074006900760065000000000000000000
310
0000000000000000000000000000000000000000000000000000000000000000
310
1A000200FFFFFFFFFFFFFFFFFFFFFFFF00000000000000000000000000000000
310
0000000000000000000000000000000000000000040000002426000000000000
310
FEFFFFFF02000000FEFFFFFFFFFFFFFFFFFFFFFFFFFFFFFFFFFFFFFFFFFFFFFF
310
FFFFFFFFFFFFFFFFFFFFFFFFFFFFFFFFFFFFFFFFFFFFFFFFFFFFFFFFFFFFFFFF
310
FFFFFFFFFFFFFFFFFFFFFFFFFFFFFFFFFFFFFFFFFFFFFFFFFFFFFFFFFFFFFFFF
310
FFFFFFFFFFFFFFFFFFFFFFFFFFFFFFFFFFFFFFFFFFFFFFFFFFFFFFFFFFFFFFFF
310
FFFFFFFFFFFFFFFFFFFFFFFFFFFFFFFFFFFFFFFFFFFFFFFFFFFFFFFFFFFFFFFF
310
FFFFFFFFFFFFFFFFFFFFFFFFFFFFFFFFFFFFFFFFFFFFFFFFFFFFFFFFFFFFFFFF
310
FFFFFFFFFFFFFFFFFFFFFFFFFFFFFFFFFFFFFFFFFFFFFFFFFFFFFFFFFFFFFFFF
310
FFFFFFFFFFFFFFFFFFFFFFFFFFFFFFFFFFFFFFFFFFFFFFFFFFFFFFFFFFFFFFFF
310
FFFFFFFFFFFFFFFFFFFFFFFFFFFFFFFFFFFFFFFFFFFFFFFFFFFFFFFFFFFFFFFF
310
FFFFFFFFFFFFFFFFFFFFFFFFFFFFFFFFFFFFFFFFFFFFFFFFFFFFFFFFFFFFFFFF
310
FFFFFFFFFFFFFFFFFFFFFFFFFFFFFFFFFFFFFFFFFFFFFFFFFFFFFFFFFFFFFFFF
310
FFFFFFFFFFFFFFFFFFFFFFFFFFFFFFFFFFFFFFFFFFFFFFFFFFFFFFFFFFFFFFFF
310
FFFFFFFFFFFFFFFFFFFFFFFFFFFFFFFFFFFFFFFFFFFFFFFFFFFFFFFFFFFFFFFF
310
FFFFFFFFFFFFFFFFFFFFFFFFFFFFFFFFFFFFFFFFFFFFFFFFFFFFFFFFFFFFFFFF
310
FFFFFFFFFFFFFFFFFFFFFFFFFFFFFFFFFFFFFFFFFFFFFFFFFFFFFFFFFFFFFFFF
310
FFFFFFFFFFFFFFFFFFFFFFFFFFFFFFFFFFFFFFFFFFFFFFFFFFFFFFFFFFFFFFFF
310
0100000200000000000000000000000000000000000000000000000000000000
310
0000000000000000000000000000000000000000000000000000000000000000
310
0100FEFF030A0000FFFFFFFF0A00030000000000C00000000000004607000000
310
5042727573680007000000504272757368000700000050427275736800F439B2
310
7100000000000000000000000000000000000000000000000000000000000000
310
0000000000000000000000000000000000000000000000000000000000000000
310
0000000000000000000000000000000000000000000000000000000000000000
310
0000000000000000000000000000000000000000000000000000000000000000
310
0000000000000000000000000000000000000000000000000000000000000000
310
0000000000000000000000000000000000000000000000000000000000000000
310
0000000000000000000000000000000000000000000000000000000000000000
310
0000000000000000000000000000000000000000000000000000000000000000
310
0000000000000000000000000000000000000000000000000000000000000000
310
0000000000000000000000000000000000000000000000000000000000000000
310
0000000000000000000000000000000000000000000000000000000000000000
310
0000000000000000000000000000000000000000000000000000000000000000
310
20260000424D0E260000000000003E00000028000000B40200006E0000000100
310
01000000000000000000130B0000130B00000200000002000000000000FFFFFF
310
FFFFFFFFFFFFFFFFFFFFFFFFFFFFFFFFFFFFFFFFFFFFFFFFFFFFFFFFFFFFFFFF
310
FFFFFFFFFFFFFFFFFFFFFFFFFFFFFFFFFFFFFFFFFFFFFFFFFFFFFFFFFFFFFFFF
310
FFFFFFFFFFFFFFFFFFFFFFFFFFFFFFFFFFFFFFFFFFFFFFFFF000FFFFFFFFFFFF
310
FFFFFFFFFFFFFFFFFFFFFFFFFFFFFFFFFFFFFFFFFFFFFFFFFFFFFFFFFFFFFFFF
310
FFFFFFFFFFFFFFFFFFFFFFFFFFFFFFFFFFFFFFFFFFFFFFFFFFFFFFFFFFFFFFFF
310
FFFFFFFFFFFFFFFFFFFFFFFFFFFFFFFFF000FFFFFFFFFFFFFFFFFFFFFFFFFFFF
310
FFFFFFFFFFFFFFFFFFFFFFFFFFFFFFFFFFFFFFFFFFFFFFFFFFFFFFFFFFFFFFFF
310
FFFFFFFFFFFFFFFFFFFFFFFFFFFFFFFFFFFFFFFFFFFFFFFFFFFFFFFFFFFFFFFF
310
FFFFFFFFFFFFFFFFF000FFFFFFFFFFFFFFFFFFFFFFFFFFFFFFFFFFFFFFFFFFFF
310
FFFFFFFFFFFFFFFFFFFFFFFFFFFFFFFFFFFFFFFFFFFFFFFFFFFFFFFFFFFFFFFF
310
FFFFFFFFFFFFFFFFFFFFFFFFFFFFFFFFFFFFFFFFFFFFFFFFFFFFFFFFFFFFFFFF
310
F000FFFFFFFFFFFFFFFFFFFFFFFFFFFFFFFFFFFFFFFFFFFFFFFFFFFFFFFFFFFF
310
FFFFFFFFFFFFFFFFFFFFFFFFFFFFFFFFFFFFFFFFFFFFFFFFFFFFFFFFFFFFFFFF
310
FFFFFFFFFFFFFFFFFFFFFFFFFFFFFFFFFFFFFFFFFFFFFFFFF000FFFFFFFFFFFF
310
FFFFFFFFFFFFFFFFFFFFFFFFFFFFFFFFFFFFFFFFFFFFFFFFFFFFFFFFFFFFFFFF
310
FFFFFFFFFFFFFFFFFFFFFFFFFFFFFFFFFFFFFFFFFFFFFFFFFFFFFFFFFFFFFFFF
310
FFFFFFFFFFFFFFFFFFFFFFFFFFFFFFFFF000FFFFFFFFFFFFFFFFFFFFFFFFFFFF
310
FFFFFFFFFFFFFFFFFFFFFFFFFFFFFFFFFFFFFFFFFFFFFFFFFFFFFFFFFFFFFFFF
310
FFFFFFFFFFFFFFFFFFFFFFFFFFFFFFFFFFFFFFFFFFFFFFFFFFFFFFFFFFFFFFFF
310
FFFFFFFFFFFFFFFFF000FFFFFFFFFFFFFFFFFFFFFFFFFFFFFFFFFFFFFFFFFFFF
310
FFFFFFFFFFFFFFFFFFFFFFFFFFFFFFFFFFFFFFFFFFFFFFFFFFFFFFFFFFFFFFFF
310
FFFFFFFFFFFFFFFFFFFFFFFFFFFFFFFFFFFFFFFFFFFFFFFFFFFFFFFFFFFFFFFF
310
F000FFFFFFFFFFFFFFFFFFFFFFFFFFFFFFFFFFFFFFFFFFFFFFFFFFFFFFFFFFFF
310
FFFFFFFFFFFFFFFFFFFFFFFFFFFFFFFFFFFFFFFFFFFFFFFFFFFFFFFFFFFFFFFF
310
FFFFFFFFFFFFFFFFFFFFFFFFFFFFFFFFFFFFFFFFFFFFFFFFF000FFFFFFFFFFFF
310
FFFFFFFFFFFFFFFFFFFFFFFFFFFFFFFFFFFFFFFFFFFFFFFFFFFFFFFFFFFFFFFF
310
FFFFFFFFFFFFFFFFFFFFFFFFFFFFFFFFFFFFFFFFFFFFFFFFFFFFFFFFFFFFFFFF
310
FFFFFFFFFFFFFFFFFFFFFFFFFFFFFFFFF000FFFFFFFFFFFFFFFFFFFFFFFFFFFF
310
FFFFFFFFFFFFFFFFFFFFFFFFFFFFFFFFFFFFFFFFFFFFFFFFFFFFFFFFFFFFFFFF
310
FFFFFFFFFFFFFFFFFFFFFFFFFFFFFFFFFFFFFFFFFFFFFFFFFFFFFFFFFFFFFFFF
310
FFFFFFFFFFFFFFFFF000FFFFFFFFFFFFFFFFFFFFFFFFFFFFFFFFFFFFFFFFFFFF
310
FFFFFFFFFFFFFFFFFFFFFFFFFFFFFFFFFFFFFFFFFFFFFFFFFFFFFFFFFFFFFFFF
310
FFFFFFFFFFFFFFFFFFFFFFFFFFFFFFFFFFFFFFFFFFFFFFFFFFFFFFFFFFFFFFFF
310
F000FFFFFFFFFFFFFFFFFFFFFFFFFFFFFFFFFFFFFFFFFFFFFFFFFFFFFFFFFFFF
310
FFFFFFFFFFFFFFFFFFFFFFFFFFFFFFFFFFFFFFFFFFFFFFFFFFFFFFFFFFFFFFFF
310
FFFFFFFFFFFFFFFFFFFFFFFFFFFFFFFFFFFFFFFFFFFFFFFFF000FFFFFFFFFFFF
310
FFFFFFFFFFFFFFFFFFFFFFFFFFFFFFFFFFFFFFFFFFFFFFFFFFFFFFFFFFFFFFFF
310
FFFFFFFFFFFFFFFFFFFFFFFFFFFFFFFFFFFFFFFFFFFFFFFFFFFFFFFFFFFFFFFF
310
FFFFFFFFFFFFFFFFFFFFFFFFFFFFFFFFF000FFFFFFFFFFFFFFFFFFFFFFFFFFFF
310
FFFFFFFFFFFFFFFFFFFFFFFFFFFFFFFFFFFFFFFFFFFFFFFFFFFFFFFFFFFFFFFF
310
FFFFFFFFFFFFFFFFFFFFFFFFFFFFFFFFFFFFFFFFFFFFFFFFFFFFFFFFFFFFFFFF
310
FFFFFFFFFFFFFFFFF000FFFFFFFFFFFFFFFFFFFFFFFFFFFFFFFFFFFFFFFFFFFF
310
FFFFFFFFFFFFFFFFFFFFFFFFFFFFFFFFFFFFFFFFFFFFFFFFFFFFFFFFFFFFFFFF
310
FFFFFFFFFFFFFFFFFFFFFFFFFFFFFFFFFFFFFFFFFFFFFFFFFFFFFFFFFFFFFFFF
310
F000FFFFFFFFFFFFFFFFFFFFFFFFFFFFFFFFFFFFFFFFFFFFFFFFFFFFFFFFFFFF
310
FFFFFFFFFFFFFFFFFFFFFFFFFFFFFFFFFFFFFFFFFFFFFFFFFFFFFFFFFFFFFFFF
310
FFFFFFFFFFFFFFFFFFFFFFFFFFFFFFFFFFFFFFFFFFFFFFFFF000FFFFFFFFFFFF
310
FFFFFFFFFFFFFFFFFFFFFFFFFFFFFFFFFFFFFFFFFFFFFFFFFFFFFFFFFFFFFFFF
310
FFFFFFFFFFFFFFFFFFFFFFFFFFFFFFFFFFFFFFFFFFFFFFFFFFFFFFFFFFFFFFFF
310
FFFFFFFFFFFFFFFFFFFFFFFFFFFFFFFFF000FFFFFFFFFFFFFFFFFFFFFFFFFFFF
310
FFFFFFFFFFFFFFFFFFFFFFFFFFFFFFFFFFFFFFFFFFFFFFFFFFFFFFFFFFFFFFFF
310
FFFFFFFFFFFFFFFFFFFFFFFFFFFFFFFFFFFFFFFFFFFFFFFFFFFFFFFFFFFFFFFF
310
FFFFFFFFFFFFFFFFF000FFFFF80003FFFFFFFFFFFFFFFFFFFFFFFFFFFFFFFFFF
310
FFFFF00007FFFFFFFFFF00007FFFFFF800000000000000007FFFFFFFFFFFFFFF
310
FFFFFFFC001FFFFFFFFFFFFFFC001FFFFFFFFFFFFFFFFFFFFFFFFFFE0007FFFF
310
F000FFFF8000007FFFFFFFF8000FFFFFC0007FFFFF80007FFFFF0000007FFFFF
310
FFF8000007FFFFF800000000000000007FFFFFF0001FFFFFFFFFFFC00001FFFF
310
FFFFFFFFC00001FFFFFFFF000000000003FFFFE000007FFFF000FFFE0000000F
310
FFFFFFF0000FFFFF80007FFFFF80007FFFFC0000001FFFFFFFC0000001FFFFF8
310
00000000000000007FFFFFF0001FFFFFFFFFFE0000003FFFFFFFFFFE0000003F
310
FFFFFF000000000003FFFF0000000FFFF000FFF800000003FFFFFFF00007FFFF
310
80007FFFFF80007FFFF000000007FFFFFF000000003FFFF80000000000000000
310
7FFFFFF0001FFFFFFFFFF80000000FFFFFFFFFF80000000FFFFFFF0000000000
310
03FFFC00000003FFF000FFE000000000FFFFFFF00007FFFF80003FFFFF80007F
310
FFC000000001FFFFFC000000001FFFF800000000000000007FFFFFF0001FFFFF
310
FFFFE000000003FFFFFFFFE000000003FFFFFF000000000003FFF000000000FF
310
F000FF80000000007FFFFFF00007FFFF80003FFFFF80007FFF8000000000FFFF
310
F80000000007FFF800000000000000007FFFFFF0001FFFFFFFFFC000000001FF
310
FFFFFFC000000001FFFFFF000000000003FFC0000000007FF000FF0000000000
310
3FFFFFE00007FFFF00003FFFFF80007FFE00000000003FFFF00000000003FFF8
310
00000000000000007FFFFFF0001FFFFFFFFF8000000000FFFFFFFF8000000000
310
FFFFFF000000000003FF80000000003FF000FE00000000001FFFFFE00003FFFF
310
00003FFFFF80007FFC00000000001FFFE00000000001FFF8000001FFFE000000
310
7FFFFFF0001FFFFFFFFE00000000003FFFFFFE00000000003FFFFF0000000000
310
03FF00000000001FF000FC00000000000FFFFFE00003FFFF00001FFFFF80007F
310
F800000000001FFFC00000000000FFF8000001FFFE0000007FFFFFF0001FFFFF
310
FFFC00000000001FFFFFFC00000000001FFFFF000000000003FE00000000000F
310
F000F8000000000007FFFFE00003FFFF00001FFFFF80007FF800000000000FFF
310
800000000000FFF8000001FFFE0000007FFFFFF0001FFFFFFFF800000000000F
310
FFFFF800000000000FFFFF000000000003FC000000000007F000F80000000000
310
03FFFFC00003FFFE00001FFFFF80007FF0000000000007FF0000000000007FF8
310
000001FFFE0000007FFFFFF0001FFFFFFFF0000000000007FFFFF00000000000
310
07FFFF000000000003F8000000000003F000F0000000000003FFFFC00001FFFE
310
00001FFFFF80007FE0000000000007FE0000000000003FF8000001FFFE000000
310
7FFFFFF0001FFFFFFFF0000000000007FFFFF0000000000007FFFF0000000000
310
03F800001F800003F000E00001FFF00001FFFFC00001FFFE00000FFFFF80007F
310
E00001FFE00003FE00001FFF00003FF8000001FFFE0000007FFFFFF0001FFFFF
310
FFE000003E000003FFFFE000003E000003FFFF000000000003F00001FFF80001
310
F000E00007FFFC0001FFFFC00001FFFE00000FFFFF80007FC0000FFFFC0003FC
310
0000FFFFC0001FF8000001FFFE0000007FFFFFF0001FFFFFFFC00003FFE00001
310
FFFFC00003FFE00001FFFF0001FFFFFFFFF00007FFFE0001F000E0000FFFFF00
310
00FFFF800001FFFC00000FFFFF80007FC0001FFFFE0001FC0001FFFFE0001FF8
310
000001FFFE0000007FFFFFF0001FFFFFFF80000FFFF80000FFFF80000FFFF800
310
00FFFF0003FFFFFFFFE0000FFFFF8000F000C0003FFFFF8000FFFF800000FFFC
310
000007FFFF80007F80003FFFFF0001FC0003FFFFF0001FF8000001FFFE000000
310
7FFFFFF0001FFFFFFF80003FFFFE0000FFFF80003FFFFE0000FFFF0003FFFFFF
310
FFE0003FFFFF8000F000C0003FFFFF8000FFFF800000FFFC000007FFFF80007F
310
80007FFFFF8001F80007FFFFF8000FF8000001FFFE0000007FFFFFF0001FFFFF
310
FF00007FFFFF00007FFF00007FFFFF00007FFF0003FFFFFFFFE0003FFFFFC000
310
F000C0007FFFFFC000FFFF000000FFFC000007FFFF80007F8000FFFFFF8000F8
310
000FFFFFF8000FF8000001FFFE0000007FFFFFF0001FFFFFFF0000FFFFFF8000
310
7FFF0000FFFFFF80007FFF0003FFFFFFFFC0007FFFFFC00070008000FFFFFFC0
310
00FFFF000000FFF8000007FFFF80007F8000FFFFFF8000F8000FFFFFF8000FF8
310
000001FFFE0000007FFFFFF0001FFFFFFE0001FFFFFFC0003FFE0001FFFFFFC0
310
003FFF0003FFFFFFFFC0007FFFFFE00070008000FFFFFFC0007FFF0000007FF8
310
000003FFFF80007F0001FFFFFF8000F8000FFFFFF8000FF8000001FFFE000000
310
7FFFFFF0001FFFFFFE0001FFFFFFC0003FFE0001FFFFFFC0003FFF0003FFFFFF
310
FFC000FFFFFFE00070008000FFFFFFC0007FFF0000007FF8000003FFFF80007F
310
0001FFFFFF8000F8001FFFFFF8000FF8000001FFFE0000007FFFFFF0001FFFFF
310
FE0003FFFFFFE0003FFE0003FFFFFFE0003FFF0003FFFFFFFFC000FFFFFFE000
310
70008000FFFFFFC0007FFE0000007FF8000003FFFF80007F0001FFFFFF8000F0
310
001FFFFFF8000FF8000001FFFE0000007FFFFFF0001FFFFFFC0003FFFFFFE000
310
1FFC0003FFFFFFE0001FFF0003FFFFFFFFC000FFFFFFC00070008000FFFFFF80
310
007FFE0000007FF0000003FFFF80007F0001FFFFFF0000F0001FFFFFF8000FF8
310
000001FFFE0000007FFFFFF0001FFFFFFC0007FFFFFFF0001FFC0007FFFFFFF0
310
001FFF0003FFFFFFFFC000FFFFFFC00070008001FFFFFF0000FFFE0000003FF0
310
000001FFFF80007F0001FFFFFF0000F8001FFFFFF0000FF8000001FFFE000000
310
7FFFFFF0001FFFFFFC0007FFFFFFF0001FFC0007FFFFFFF0001FFF0003FFFFFF
310
FFC001FFFFFF80007000FFFFFFFFFE0000FFFE0008003FF0008001FFFF80007F
310
FFFFFFFFFC0000FFFFFFFFFFE0000FF8000001FFFE0000007FFFFFF0001FFFFF
310
F8000FFFFFFFF8000FF8000FFFFFFFF8000FFF0003FFFFFFFFFFFFFFFFFF0000
310
7000FFFFFFFFFC0000FFFC0008003FF0008001FFFF80007FFFFFFFFFF80001FF
310
FFFFFFFF80000FF8000001FFFE0000007FFFFFF0001FFFFFF8000FFFFFFFF800
310
0FF8000FFFFFFFF8000FFF0003FFFFFFFFFFFFFFFFFE0000F000FFFFFFFFE000
310
00FFFC000C003FE000C001FFFF80007FFFFFFFFFC00001FFFFFFFFFE00001FF8
310
000001FFFE0000007FFFFFF0001FFFFFF8000FFFFFFFF8000FF8000FFFFFFFF8
310
000FFF0003FFFFFFFFFFFFFFFFF00000F000FFFFFFFE000001FFFC000C001FE0
310
00C000FFFF80007FFFFFFFFE000001FFFFFFFFE000001FF80FFFFFFFFFFFFFC0
310
7FFFFFF0001FFFFFF8000FFFFFFFF8000FF8000FFFFFFFF8000FFF0003FFFFFF
310
FFFFFFFFFF800000F000FFFFFFC0000001FFFC001C001FE001C000FFFF80007F
310
FFFFFF80000003FFFFFFF80000001FF80FFFFFFFFFFFFFC07FFFFFF0001FFFFF
310
F8001FFFFFFFFC000FF8001FFFFFFFFC000FFF0003FFFFFFFFFFFFFFF0000001
310
F000FFFFF800000001FFF8001C001FE001C000FFFF80007FFFFFF800000003FF
310
FFFF800000003FF80FFFFFFFFFFFFFC07FFFFFF0001FFFFFF8001FFFFFFFFC00
310
0FF8001FFFFFFFFC000FFF0003FFFFFFFFFFFFFE00000001F000FFFFC0000000
310
03FFF8001E001FC001E000FFFF80007FFFFF8000000007FFFFFC000000003FF8
310
0FFFFFFFFFFFFFC07FFFFFF0001FFFFFF8001FFFFFFFFC000FF8001FFFFFFFFC
310
000FFF0003FFFFFFFFFFFFE000000003F000FFFE0000000007FFF8001E000FC0
310
01E0007FFF80007FFFFE0000000007FFFFE0000000007FF80FFFFFFFFFFFFFC0
310
7FFFFFF0001FFFFFF0001FFFFFFFFC0007F0001FFFFFFFFC0007FF0003FFFFFF
310
FFFFFF0000000003F000FFF80000000007FFF8001E000FC003E0007FFF80007F
310
FFF0000000000FFFFF8000000000FFF80FFFFFFFFFFFFFC07FFFFFF0001FFFFF
310
F0001FFFFFFFFC0007F0001FFFFFFFFC0007FF0003FFFFFFFFFFFC0000000007
310
F000FFE0000000000FFFF0003E000FC003E0007FFF80007FFFC0000000001FFF
310
FE0000000001FFF80FFFFFFFFFFFFFC07FFFFFF0001FFFFFF0001FFFFFFFFC00
310
07F0001FFFFFFFFC0007FF0003FFFFFFFFFFF0000000000FF000FFC000000000
310
1FFFF0003F000F8003F0003FFF80007FFF80000000003FFFF80000000003FFF8
310
0FFFFFFFFFFFFFC07FFFFFF0001FFFFFF0001FFFFFFFFC0007F0001FFFFFFFFC
310
0007FF0003FFFFFFFFFFE0000000001FF000FF00000000007FFFF0003F000780
310
03F0003FFF80007FFF00000000007FFFF00000000007FFF80FFFFFFFFFFFFFC0
310
7FFFFFF0001FFFFFF0001FFFFFFFFC0007F0001FFFFFFFFC0007FF0003FFFFFF
310
FFFF80000000007FF000FE0000000000FFFFE0003F00078007F0003FFF80007F
310
FE0000000001FFFFE0000000001FFFF80FFFFFFFFFFFFFC07FFFFFF0001FFFFF
310
F0001FFFFFFFFC0007F0001FFFFFFFFC0007FF0003FFFFFFFFFF0000000000FF
310
F000FC0000000003FFFFE0007F00078007F0003FFF80007FFC0000000007FFFF
310
C0000000007FFFF80FFFFFFFFFFFFFC07FFFFFF0001FFFFFF8001FFFFFFFFC00
310
0FF8001FFFFFFFFC000FFF0003FFFFFFFFFE0000000003FFF000FC000000000F
310
FFFFE0007F80070007F8001FFF80007FF8000000001FFFFF8000000001FFFFF8
310
0FFFFFFFFFFFFFC07FFFFFF0001FFFFFF8001FFFFFFFFC000FF8001FFFFFFFFC
310
000FFF0003FFFFFFFFFC000000000FFFF000F8000000007FFFFFE0007F800700
310
07F8001FFF80007FF000000000FFFFFF800000000FFFFFF80FFFFFFFFFFFFFC0
310
7FFFFFF0001FFFFFF8000FFFFFFFF8000FF8000FFFFFFFF8000FFF0003FFFFFF
310
FFFC000000007FFFF000F800000007FFFFFFC0007F8003000FF8001FFF80007F
310
F000000007FFFFFF000000007FFFFFF80FFFFFFFFFFFFFC07FFFFFF0001FFFFF
310
F8000FFFFFFFF8000FF8000FFFFFFFF8000FFF0003FFFFFFFFF80000000FFFFF
310
F000F0000000FFFFFFFFC000FF8003000FF8001FFF80007FE0000000FFFFFFFF
310
0000000FFFFFFFF8000001FFFE0000007FFFFFF0001FFFFFF8000FFFFFFFF800
310
0FF8000FFFFFFFF8000FFF0003FFFFFFFFF8000000FFFFFFF000F000000FFFFF
310
FFFFC000FFC002000FF8000FFF80007FE000001FFFFFFFFE000001FFFFFFFFF8
310
000001FFFE0000007FFFFFF0001FFFFFF8000FFFFFFFF8000FF8000FFFFFFFF8
310
000FFF0003FFFFFFFFF000001FFFFFFFF000E00000FFFFFFFFFFC000FFC00200
310
0FFC000FFF80007FE00001FFFFFFFFFE00001FFFFFFFFFF8000001FFFE000000
310
7FFFFFF0001FFFFFFC000FFFFFFFF8001FFC000FFFFFFFF8001FFF0003FFFFFF
310
FFF00001FFFFFFFFF000E00007FFFFFFFFFF8000FFC000001FFC000FFF80007F
310
C0000FFFFFFFFFFE0000FFFFFFFFFFF8000001FFFE0000007FFFFFF0001FFFFF
310
FC0007FFFFFFF0001FFC0007FFFFFFF0001FFF0003FFFFFFFFF00007FFFFFFFF
310
F000E0001FFFFFFFFFFF8000FFC000001FFC000FFF80007FC0003FFFFFFFFFFE
310
0001FFFFFFFFFFF8000001FFFE0000007FFFFFF0001FFFFFFC0007FFFFFFF000
310
1FFC0007FFFFFFF0001FFF0003FFFFFFFFF0001FFFFFFFFFF000E0003FFFFF00
310
03FF8001FFE000001FFC0007FF80007FC0007FFFFF0007FC0003FFFFF0003FF8
310
000001FFFE0000007FFFFFF0001FFFFFFC0003FFFFFFE0001FFC0003FFFFFFE0
310
001FFF0003FFFFFFFFF0003FFFFFFFFFF000E0003FFFFF0001FF8001FFE00000
310
1FFE0007FF80007FC0007FFFFE0003FC0007FFFFE0003FF8000001FFFE000000
310
7FFFFFF0001FFFFFFE0003FFFFFFE0003FFE0003FFFFFFE0003FFF0003FFFFFF
310
FFF0003FFFFF8001F000E0003FFFFF0001FF0001FFE000001FFE0007FF80007F
310
C0007FFFFE0003FC0007FFFFE0003FF8000001FFFE0000007FFFFFF0001FFFFF
310
FE0001FFFFFFC0003FFE0001FFFFFFC0003FFF0003FFFFFFFFF0003FFFFF0001
310
F000E0003FFFFF0003FF0001FFE000003FFE0007FF80007FC0007FFFFE0003FC
310
0007FFFFE0003FF8000001FFFE0000007FFFFFF0001FFFFFFF0001FFFFFFC000
310
7FFF0001FFFFFFC0007FFF0003FFFFFFFFF0003FFFFF0001F000E0003FFFFE00
310
03FF0003FFF000003FFE0003FF80007FC0007FFFFC0003FE0007FFFFE0003FF8
310
000001FFFE0000007FFFFFF0001FFFFFFF0000FFFFFF80007FFF0000FFFFFF80
310
007FFF0003FFFFFFFFF0003FFFFF0001F000E0003FFFFE0003FF0003FFF00000
310
3FFF0003FF80007FC0007FFFFC0007FE0007FFFFC0003FF8000001FFFE000000
310
7FFFFFF0001FFFFFFF80007FFFFF0000FFFF80007FFFFF0000FFFF0003FFFFFF
310
FFF0003FFFFF0003F000E0003FFFFC0003FE0003FFF000003FFF0003FF80007F
310
E0003FFFF80007FE0003FFFFC0007FF8000001FFFE0000007FFFFFF0001FFFFF
310
FF80003FFFFE0000FFFF80003FFFFE0000FFFF0003FFFFFFFFF0001FFFFE0003
310
F000F0001FFFF80003FE0003FFF000007FFF0001FF80007FE0003FFFF00007FE
310
0001FFFF80007FF8000001FFFE0000007FFFFFF0001FFFFFFFC0000FFFF80001
310
FFFFC0000FFFF80001FFFF0003FFFFFFFFF0001FFFFC0003F000F0000FFFF000
310
07FE0007FFF800007FFF0001FF80007FE0001FFFE00007FF0000FFFE00007FF8
310
000001FFFE0000007FFFFFF0001FFFFFFFC00003FFE00001FFFFC00003FFE000
310
01FFFF0003FFFFFFFFF8000FFFF80003F000F00003FFC00007FC0007FFF80000
310
7FFF8001FF80007FF00007FF80000FFF00007FF80000FFF8000001FFFE000000
310
7F80000000000001FFE000003E000003FFFFE000003E000003FFFF0003FFFFFF
310
FFF80003FFE00007F000F800000000000FFC0007FFF800007FFF8001FF80007F
310
F000000000000FFF000000000000FFF8000001FFFE0000007F80000000000001
310
FFF0000000000007FFFFF0000000000007FFFF0003FFFFFFFFFC00007E000007
310
F000F800000000000FFC0007FFF80000FFFF8000FF80007FF800000000001FFF
310
800000000001FFF8000001FFFE0000007F80000000000001FFF800000000000F
310
FFFFF800000000000FFFFF0003FFFFFFFFFC00000000000FF000FC0000000000
310
1FFC0007FFFC0000FFFF8000FF80007FF800000000003FFFC00000000001FFF8
310
000001FFFE0000007F80000000000001FFF800000000000FFFFFF80000000000
310
0FFFFF0003FFFFFFFFFE00000000001FF000FE00000000003FF8000FFFFC0000
310
FFFF8000FF80007FFC00000000003FFFC00000000003FFF8000001FFFE000000
310
7F80000000000001FFFC00000000001FFFFFFC00000000001FFFFF0003FFFFFF
310
FFFF00000000001FF000FF00000000003FF8000FFFFC0000FFFFC000FF80007F
310
FE00000000007FFFE00000000007FFF8000001FFFE0000007F80000000000001
310
FFFE00000000003FFFFFFE00000000003FFFFF0003FFFFFFFFFF80000000003F
310
F000FF80000000007FF8000FFFFC0001FFFFC0007F80007FFF0000000000FFFF
310
F0000000000FFFF800000000000000007F80000000000001FFFF8000000000FF
310
FFFFFF8000000000FFFFFF0003FFFFFFFFFFC0000000007FF000FFC000000000
310
FFF8000FFFFE0001FFFFC0007F80007FFF8000000001FFFFF8000000001FFFF8
310
00000000000000007F80000000000001FFFFC000000001FFFFFFFFC000000001
310
FFFFFF0003FFFFFFFFFFE000000000FFF000FFE000000003FFF0001FFFFE0001
310
FFFFC0007F80007FFFC000000007FFFFFE000000003FFFF80000000000000000
310
7F80000000000001FFFFE000000003FFFFFFFFE000000003FFFFFF0003FFFFFF
310
FFFFF000000003FFF000FFF80000000FFFF0001FFFFE0001FFFFE0007F80007F
310
FFF00000000FFFFFFF00000000FFFFF800000000000000007F80000000000001
310
FFFFF80000000FFFFFFFFFF80000000FFFFFFF0003FFFFFFFFFFFC0000000FFF
310
F000FFFE0000003FFFF0001FFFFE0003FFFFE0003F80007FFFFC0000003FFFFF
310
FFC0000003FFFFF800000000000000007F80000000000001FFFFFE0000003FFF
310
FFFFFFFE0000003FFFFFFF0003FFFFFFFFFFFF0000003FFFF000FFFF800000FF
310
FFF0001FFFFF0003FFFFE0003F80007FFFFF000001FFFFFFFFF800001FFFFFF8
310
00000000000000007F80000000000001FFFFFFC00001FFFFFFFFFFFFC00001FF
310
FFFFFF0003FFFFFFFFFFFFC00000FFFFF000FFFFF8000FFFFFFFFFFFFFFFFFFF
310
FFFFFFFFFFFFFFFFFFFFF0001FFFFFFFFFFF0000FFFFFFF80000000000000000
310
7FFFFFFFFFFFFFFFFFFFFFFC001FFFFFFFFFFFFFFC001FFFFFFFFFFFFFFFFFFF
310
FFFFFFFC001FFFFFF000FFFFFFFFFFFFFFFFFFFFFFFFFFFFFFFFFFFFFFFFFFFF
310
FFFFFFFFFFFFFFFFFFFFFFFFFFFFFFFFFFFFFFFFFFFFFFFFFFFFFFFFFFFFFFFF
310
FFFFFFFFFFFFFFFFFFFFFFFFFFFFFFFFFFFFFFFFFFFFFFFFFFFFFFFFFFFFFFFF
310
F000FFFFFFFFFFFFFFFFFFFFFFFFFFFFFFFFFFFFFFFFFFFFFFFFFFFFFFFFFFFF
310
FFFFFFFFFFFFFFFFFFFFFFFFFFFFFFFFFFFFFFFFFFFFFFFFFFFFFFFFFFFFFFFF
310
FFFFFFFFFFFFFFFFFFFFFFFFFFFFFFFFFFFFFFFFFFFFFFFFF000FFFFFFFFFFFF
310
FFFFFFFFFFFFFFFFFFFFFFFFFFFFFFFFFFFFFFFFFFFFFFFFFFFFFFFFFFFFFFFF
310
FFFFFFFFFFFFFFFFFFFFFFFFFFFFFFFFFFFFFFFFFFFFFFFFFFFFFFFFFFFFFFFF
310
FFFFFFFFFFFFFFFFFFFFFFFFFFFFFFFFF000FFFFFFFFFFFFFFFFFFFFFFFFFFFF
310
FFFFFFFFFFFFFFFFFFFFFFFFFFFFFFFFFFFFFFFFFFFFFFFFFFFFFFFFFFFFFFFF
310
FFFFFFFFFFFFFFFFFFFFFFFFFFFFFFFFFFFFFFFFFFFFFFFFFFFFFFFFFFFFFFFF
310
FFFFFFFFFFFFFFFFF000FFFFFFFFFFFFFFFFFFFFFFFFFFFFFFFFFFFFFFFFFFFF
310
FFFFFFFFFFFFFFFFFFFFFFFFFFFFFFFFFFFFFFFFFFFFFFFFFFFFFFFFFFFFFFFF
310
FFFFFFFFFFFFFFFFFFFFFFFFFFFFFFFFFFFFFFFFFFFFFFFFFFFFFFFFFFFFFFFF
310
F000FFFFFFFFFFFFFFFFFFFFFFFFFFFFFFFFFFFFFFFFFFFFFFFFFFFFFFFFFFFF
310
FFFFFFFFFFFFFFFFFFFFFFFFFFFFFFFFFFFFFFFFFFFFFFFFFFFFFFFFFFFFFFFF
310
FFFFFFFFFFFFFFFFFFFFFFFFFFFFFFFFFFFFFFFFFFFFFFFFF000FFFFFFFFFFFF
310
FFFFFFFFFFFFFFFFFFFFFFFFFFFFFFFFFFFFFFFFFFFFFFFFFFFFFFFFFFFFFFFF
310
FFFFFFFFFFFFFFFFFFFFFFFFFFFFFFFFFFFFFFFFFFFFFFFFFFFFFFFFFFFFFFFF
310
FFFFFFFFFFFFFFFFFFFFFFFFFFFFFFFFF000FFFFFFFFFFFFFFFFFFFFFFFFFFFF
310
FFFFFFFFFFFFFFFFFFFFFFFFFFFFFFFFFFFFFFFFFFFFFFFFFFFFFFFFFFFFFFFF
310
FFFFFFFFFFFFFFFFFFFFFFFFFFFFFFFFFFFFFFFFFFFFFFFFFFFFFFFFFFFFFFFF
310
FFFFFFFFFFFFFFFFF000FFFFFFFFFFFFFFFFFFFFFFFFFFFFFFFFFFFFFFFFFFFF
310
FFFFFFFFFFFFFFFFFFFFFFFFFFFFFFFFFFFFFFFFFFFFFFFFFFFFFFFFFFFFFFFF
310
FFFFFFFFFFFFFFFFFFFFFFFFFFFFFFFFFFFFFFFFFFFFFFFFFFFFFFFFFFFFFFFF
310
F000FFFFFFFFFFFFFFFFFFFFFFFFFFFFFFFFFFFFFFFFFFFFFFFFFFFFFFFFFFFF
310
FFFFFFFFFFFFFFFFFFFFFFFFFFFFFFFFFFFFFFFFFFFFFFFFFFFFFFFFFFFFFFFF
310
FFFFFFFFFFFFFFFFFFFFFFFFFFFFFFFFFFFFFFFFFFFFFFFFF000FFFFFFFFFFFF
310
FFFFFFFFFFFFFFFFFFFFFFFFFFFFFFFFFFFFFFFFFFFFFFFFFFFFFFFFFFFFFFFF
310
FFFFFFFFFFFFFFFFFFFFFFFFFFFFFFFFFFFFFFFFFFFFFFFFFFFFFFFFFFFFFFFF
310
FFFFFFFFFFFFFFFFFFFFFFFFFFFFFFFFF000FFFFFFFFFFFFFFFFFFFFFFFFFFFF
310
FFFFFFFFFFFFFFFFFFFFFFFFFFFFFFFFFFFFFFFFFFFFFFFFFFFFFFFFFFFFFFFF
310
FFFFFFFFFFFFFFFFFFFFFFFFFFFFFFFFFFFFFFFFFFFFFFFFFFFFFFFFFFFFFFFF
310
FFFFFFFFFFFFFFFFF000FFFFFFFFFFFFFFFFFFFFFFFFFFFFFFFFFFFFFFFFFFFF
310
FFFFFFFFFFFFFFFFFFFFFFFFFFFFFFFFFFFFFFFFFFFFFFFFFFFFFFFFFFFFFFFF
310
FFFFFFFFFFFFFFFFFFFFFFFFFFFFFFFFFFFFFFFFFFFFFFFFFFFFFFFFFFFFFFFF
310
F000FFFFFFFFFFFFFFFFFFFFFFFFFFFFFFFFFFFFFFFFFFFFFFFFFFFFFFFFFFFF
310
FFFFFFFFFFFFFFFFFFFFFFFFFFFFFFFFFFFFFFFFFFFFFFFFFFFFFFFFFFFFFFFF
310
FFFFFFFFFFFFFFFFFFFFFFFFFFFFFFFFFFFFFFFFFFFFFFFFF000FFFFFFFFFFFF
310
FFFFFFFFFFFFFFFFFFFFFFFFFFFFFFFFFFFFFFFFFFFFFFFFFFFFFFFFFFFFFFFF
310
FFFFFFFFFFFFFFFFFFFFFFFFFFFFFFFFFFFFFFFFFFFFFFFFFFFFFFFFFFFFFFFF
310
FFFFFFFFFFFFFFFFFFFFFFFFFFFFFFFFF000FFFFFFFFFFFFFFFFFFFFFFFFFFFF
310
FFFFFFFFFFFFFFFFFFFFFFFFFFFFFFFFFFFFFFFFFFFFFFFFFFFFFFFFFFFFFFFF
310
FFFFFFFFFFFFFFFFFFFFFFFFFFFFFFFFFFFFFFFFFFFFFFFFFFFFFFFFFFFFFFFF
310
FFFFFFFFFFFFFFFFF000FFFFFFFFFFFFFFFFFFFFFFFFFFFFFFFFFFFFFFFFFFFF
310
FFFFFFFFFFFFFFFFFFFFFFFFFFFFFFFFFFFFFFFFFFFFFFFFFFFFFFFFFFFFFFFF
310
FFFFFFFFFFFFFFFFFFFFFFFFFFFFFFFFFFFFFFFFFFFFFFFFFFFFFFFFFFFFFFFF
310
F000FFFFFFFFFFFFFFFFFFFFFFFFFFFFFFFFFFFFFFFFFFFFFFFFFFFFFFFFFFFF
310
FFFFFFFFFFFFFFFFFFFFFFFFFFFFFFFFFFFFFFFFFFFFFFFFFFFFFFFFFFFFFFFF
310
FFFFFFFFFFFFFFFFFFFFFFFFFFFFFFFFFFFFFFFFFFFFFFFFF000FFFFFFFFFFFF
310
FFFFFFFFFFFFFFFFFFFFFFFFFFFFFFFFFFFFFFFFFFFFFFFFFFFFFFFFFFFFFFFF
310
FFFFFFFFFFFFFFFFFFFFFFFFFFFFFFFFFFFFFFFFFFFFFFFFFFFFFFFFFFFFFFFF
310
FFFFFFFFFFFFFFFFFFFFFFFFFFFFFFFFF000FFFFFFFFFFFFFFFFFFFFFFFFFFFF
310
FFFFFFFFFFFFFFFFFFFFFFFFFFFFFFFFFFFFFFFFFFFFFFFFFFFFFFFFFFFFFFFF
310
FFFFFFFFFFFFFFFFFFFFFFFFFFFFFFFFFFFFFFFFFFFFFFFFFFFFFFFFFFFFFFFF
310
FFFFFFFFFFFFFFFFF000FFFFFFFFFFFFFFFFFFFFFFFFFFFFFFFFFFFFFFFFFFFF
310
FFFFFFFFFFFFFFFFFFFFFFFFFFFFFFFFFFFFFFFFFFFFFFFFFFFFFFFFFFFFFFFF
310
FFFFFFFFFFFFFFFFFFFFFFFFFFFFFFFFFFFFFFFFFFFFFFFFFFFFFFFFFFFFFFFF
310
F000FFFFFFFFFFFFFFFFFFFFFFFFFFFFFFFFFFFFFFFFFFFFFFFFFFFFFFFFFFFF
310
FFFFFFFFFFFFFFFFFFFFFFFFFFFFFFFFFFFFFFFFFFFFFFFFFFFFFFFFFFFFFFFF
310
FFFFFFFFFFFFFFFFFFFFFFFFFFFFFFFFFFFFFFFFFFFFFFFFF000FFFFFFFFFFFF
310
FFFFFFFFFFFFFFFFFFFFFFFFFFFFFFFFFFFFFFFFFFFFFFFFFFFFFFFFFFFFFFFF
310
FFFFFFFFFFFFFFFFFFFFFFFFFFFFFFFFFFFFFFFFFFFFFFFFFFFFFFFFFFFFFFFF
310
FFFFFFFFFFFFFFFFFFFFFFFFFFFFFFFFF0000000000000000000000000000000
310
0000000000000000000000000000000000000000000000000000000000000000
310
0000000000000000000000000000000000000000000000000000000000000000
310
0000000000000000000000000000000000000000000000000000000000000000
310
0000000000000000000000000000000000000000000000000000000000000000
310
0000000000000000000000000000000000000000000000000000000000000000
310
0000000000000000000000000000000000000000000000000000000000000000
310
0000000000000000000000000000000000000000000000000000000000000000
310
0000000000000000000000000000000000000000000000000000000000000000
310
0000000000000000000000000000000000000000000000000000000000000000
310
0000000000000000000000000000000000000000000000000000000000000000
310
0000000000000000000000000000000000000000000000000000000000000000
310
0000000000000000000000000000000000000000000000000000000000000000
310
0000000000000000000000000000000000000000000000000000000000000000
310
0000000000000000000000000000000000000000000000000000000000000000
310
0000000000000000000000000000000000000000000000000000000000000000
  1
OLE
  0
ENDSEC
  0
SECTION
  2
OBJECTS
  0
DICTIONARY
  5
C
330
0
100
AcDbDictionary
281
     1
  3
ACAD_GROUP
350
D
  3
ACAD_LAYOUT
350
1A
  3
ACAD_MLINESTYLE
350
17
  3
ACAD_PLOTSETTINGS
350
19
  3
ACAD_PLOTSTYLENAME
350
E
  3
ACAD_SCALELIST
350
47
  0
DICTIONARY
  5
D
102
{ACAD_REACTORS
330
C
102
}
330
C
100
AcDbDictionary
281
     1
  0
DICTIONARY
  5
1A
102
{ACAD_REACTORS
330
C
102
}
330
C
100
AcDbDictionary
281
     1
  3
Layout1
350
1E
  3
Layout2
350
26
  3
Model
350
22
  0
DICTIONARY
  5
17
102
{ACAD_REACTORS
330
C
102
}
330
C
100
AcDbDictionary
281
     1
  3
Standard
350
18
  0
DICTIONARY
  5
19
102
{ACAD_REACTORS
330
C
102
}
330
C
100
AcDbDictionary
281
     1
  0
ACDBDICTIONARYWDFLT
  5
E
102
{ACAD_REACTORS
330
C
102
}
330
C
100
AcDbDictionary
281
     1
  3
Normal
350
F
100
AcDbDictionaryWithDefault
340
F
  0
DICTIONARY
  5
47
102
{ACAD_REACTORS
330
C
102
}
330
C
100
AcDbDictionary
281
     1
  3
A0
350
48
  3
A1
350
49
  3
A2
350
4A
  3
A3
350
4B
  3
A4
350
4C
  3
A5
350
4D
  3
A6
350
4E
  3
A7
350
4F
  3
A8
350
50
  3
A9
350
51
  3
B0
350
52
  3
B1
350
53
  3
B2
350
54
  3
B3
350
55
  3
B4
350
56
  3
B5
350
57
  3
B6
350
58
  3
B7
350
59
  3
B8
350
5A
  3
B9
350
5B
  3
C0
350
5C
  3
C1
350
5D
  3
C2
350
5E
  3
C3
350
5F
  3
C4
350
60
  3
C5
350
61
  3
C6
350
62
  3
C7
350
63
  3
C8
350
64
  3
C9
350
65
  3
D0
350
66
  3
D1
350
67
  3
D2
350
68
  0
LAYOUT
  5
1E
102
{ACAD_REACTORS
330
1A
102
}
330
1A
100
AcDbPlotSettings
  1

  2
none_device
  4

  6

 40
0.0
 41
0.0
 42
0.0
 43
0.0
 44
0.0
 45
0.0
 46
0.0
 47
0.0
 48
0.0
 49
0.0
140
0.0
141
0.0
142
1.0
143
1.0
 70
   688
 72
     1
 73
     0
 74
     5
  7

 75
    16
147
1.0
148
0.0
149
0.0
100
AcDbLayout
  1
Layout1
 70
     1
 71
     1
 10
0.0
 20
0.0
 11
420.0
 21
297.0
 12
0.0
 22
0.0
 32
0.0
 14
1.0000000000E+20
 24
1.0000000000E+20
 34
1.0000000000E+20
 15
-1.0000000000E+20
 25
-1.0000000000E+20
 35
-1.0000000000E+20
146
0.0
 13
0.0
 23
0.0
 33
0.0
 16
1.0
 26
0.0
 36
0.0
 17
0.0
 27
1.0
 37
0.0
 76
     0
330
1B
  0
LAYOUT
  5
26
102
{ACAD_REACTORS
330
1A
102
}
330
1A
100
AcDbPlotSettings
  1

  2
none_device
  4

  6

 40
0.0
 41
0.0
 42
0.0
 43
0.0
 44
0.0
 45
0.0
 46
0.0
 47
0.0
 48
0.0
 49
0.0
140
0.0
141
0.0
142
1.0
143
1.0
 70
   688
 72
     1
 73
     0
 74
     5
  7

 75
    16
147
1.0
148
0.0
149
0.0
100
AcDbLayout
  1
Layout2
 70
     1
 71
     2
 10
0.0
 20
0.0
 11
0.0
 21
0.0
 12
0.0
 22
0.0
 32
0.0
 14
0.0
 24
0.0
 34
0.0
 15
0.0
 25
0.0
 35
0.0
146
0.0
 13
0.0
 23
0.0
 33
0.0
 16
1.0
 26
0.0
 36
0.0
 17
0.0
 27
1.0
 37
0.0
 76
     0
330
23
  0
LAYOUT
  5
22
102
{ACAD_REACTORS
330
1A
102
}
330
1A
100
AcDbPlotSettings
  1

  2
none_device
  4
Letter_(8.50_x_11.00_Inches)
  6

 40
6.35
 41
6.35
 42
6.35000508
 43
6.35000508
 44
215.9
 45
279.4
 46
0.0
 47
0.0
 48
0.0
 49
0.0
140
0.0
141
0.0
142
1.0
143
1.0
 70
  1712
 72
     1
 73
     0
 74
     0
  7

 75
     0
147
1.0
148
0.0
149
0.0
100
AcDbLayout
  1
Model
 70
     1
 71
     0
 10
0.0
 20
0.0
 11
297.0
 21
210.0
 12
0.0
 22
0.0
 32
0.0
 14
0.0
 24
0.0
 34
0.0
 15
297.0
 25
210.0
 35
0.0
146
0.0
 13
0.0
 23
0.0
 33
0.0
 16
1.0
 26
0.0
 36
0.0
 17
0.0
 27
1.0
 37
0.0
 76
     0
330
1F
331
29
  0
MLINESTYLE
  5
18
102
{ACAD_REACTORS
330
17
102
}
330
17
100
AcDbMlineStyle
  2
Standard
 70
     0
  3

 62
   256
 51
90.0
 52
90.0
 71
     2
 49
0.5
 62
   256
  6
BYLAYER
 49
-0.5
 62
   256
  6
BYLAYER
  0
ACDBPLACEHOLDER
  5
F
102
{ACAD_REACTORS
330
E
102
}
330
E
  0
SCALE
  5
48
102
{ACAD_REACTORS
330
47
102
}
330
47
100
AcDbScale
 70
     0
300
1:1
140
1.0
141
1.0
290
     1
  0
SCALE
  5
49
102
{ACAD_REACTORS
330
47
102
}
330
47
100
AcDbScale
 70
     0
300
1:2
140
1.0
141
2.0
290
     0
  0
SCALE
  5
4A
102
{ACAD_REACTORS
330
47
102
}
330
47
100
AcDbScale
 70
     0
300
1:4
140
1.0
141
4.0
290
     0
  0
SCALE
  5
4B
102
{ACAD_REACTORS
330
47
102
}
330
47
100
AcDbScale
 70
     0
300
1:5
140
1.0
141
5.0
290
     0
  0
SCALE
  5
4C
102
{ACAD_REACTORS
330
47
102
}
330
47
100
AcDbScale
 70
     0
300
1:8
140
1.0
141
8.0
290
     0
  0
SCALE
  5
4D
102
{ACAD_REACTORS
330
47
102
}
330
47
100
AcDbScale
 70
     0
300
1:10
140
1.0
141
10.0
290
     0
  0
SCALE
  5
4E
102
{ACAD_REACTORS
330
47
102
}
330
47
100
AcDbScale
 70
     0
300
1:16
140
1.0
141
16.0
290
     0
  0
SCALE
  5
4F
102
{ACAD_REACTORS
330
47
102
}
330
47
100
AcDbScale
 70
     0
300
1:20
140
1.0
141
20.0
290
     0
  0
SCALE
  5
50
102
{ACAD_REACTORS
330
47
102
}
330
47
100
AcDbScale
 70
     0
300
1:30
140
1.0
141
30.0
290
     0
  0
SCALE
  5
51
102
{ACAD_REACTORS
330
47
102
}
330
47
100
AcDbScale
 70
     0
300
1:40
140
1.0
141
40.0
290
     0
  0
SCALE
  5
52
102
{ACAD_REACTORS
330
47
102
}
330
47
100
AcDbScale
 70
     0
300
1:50
140
1.0
141
50.0
290
     0
  0
SCALE
  5
53
102
{ACAD_REACTORS
330
47
102
}
330
47
100
AcDbScale
 70
     0
300
1:100
140
1.0
141
100.0
290
     0
  0
SCALE
  5
54
102
{ACAD_REACTORS
330
47
102
}
330
47
100
AcDbScale
 70
     0
300
2:1
140
2.0
141
1.0
290
     0
  0
SCALE
  5
55
102
{ACAD_REACTORS
330
47
102
}
330
47
100
AcDbScale
 70
     0
300
4:1
140
4.0
141
1.0
290
     0
  0
SCALE
  5
56
102
{ACAD_REACTORS
330
47
102
}
330
47
100
AcDbScale
 70
     0
300
8:1
140
8.0
141
1.0
290
     0
  0
SCALE
  5
57
102
{ACAD_REACTORS
330
47
102
}
330
47
100
AcDbScale
 70
     0
300
10:1
140
10.0
141
1.0
290
     0
  0
SCALE
  5
58
102
{ACAD_REACTORS
330
47
102
}
330
47
100
AcDbScale
 70
     0
300
100:1
140
100.0
141
1.0
290
     0
  0
SCALE
  5
59
102
{ACAD_REACTORS
330
47
102
}
330
47
100
AcDbScale
 70
     0
300
1/128" = 1'-0"
140
0.0078125
141
12.0
290
     0
  0
SCALE
  5
5A
102
{ACAD_REACTORS
330
47
102
}
330
47
100
AcDbScale
 70
     0
300
1/64" = 1'-0"
140
0.015625
141
12.0
290
     0
  0
SCALE
  5
5B
102
{ACAD_REACTORS
330
47
102
}
330
47
100
AcDbScale
 70
     0
300
1/32" = 1'-0"
140
0.03125
141
12.0
290
     0
  0
SCALE
  5
5C
102
{ACAD_REACTORS
330
47
102
}
330
47
100
AcDbScale
 70
     0
300
1/16" = 1'-0"
140
0.0625
141
12.0
290
     0
  0
SCALE
  5
5D
102
{ACAD_REACTORS
330
47
102
}
330
47
100
AcDbScale
 70
     0
300
3/32" = 1'-0"
140
0.09375
141
12.0
290
     0
  0
SCALE
  5
5E
102
{ACAD_REACTORS
330
47
102
}
330
47
100
AcDbScale
 70
     0
300
1/8" = 1'-0"
140
0.125
141
12.0
290
     0
  0
SCALE
  5
5F
102
{ACAD_REACTORS
330
47
102
}
330
47
100
AcDbScale
 70
     0
300
3/16" = 1'-0"
140
0.1875
141
12.0
290
     0
  0
SCALE
  5
60
102
{ACAD_REACTORS
330
47
102
}
330
47
100
AcDbScale
 70
     0
300
1/4" = 1'-0"
140
0.25
141
12.0
290
     0
  0
SCALE
  5
61
102
{ACAD_REACTORS
330
47
102
}
330
47
100
AcDbScale
 70
     0
300
3/8" = 1'-0"
140
0.375
141
12.0
290
     0
  0
SCALE
  5
62
102
{ACAD_REACTORS
330
47
102
}
330
47
100
AcDbScale
 70
     0
300
1/2" = 1'-0"
140
0.5
141
12.0
290
     0
  0
SCALE
  5
63
102
{ACAD_REACTORS
330
47
102
}
330
47
100
AcDbScale
 70
     0
300
3/4" = 1'-0"
140
0.75
141
12.0
290
     0
  0
SCALE
  5
64
102
{ACAD_REACTORS
330
47
102
}
330
47
100
AcDbScale
 70
     0
300
1" = 1'-0"
140
1.0
141
12.0
290
     0
  0
SCALE
  5
65
102
{ACAD_REACTORS
330
47
102
}
330
47
100
AcDbScale
 70
     0
300
1-1/2" = 1'-0"
140
1.5
141
12.0
290
     0
  0
SCALE
  5
66
102
{ACAD_REACTORS
330
47
102
}
330
47
100
AcDbScale
 70
     0
300
3" = 1'-0"
140
3.0
141
12.0
290
     0
  0
SCALE
  5
67
102
{ACAD_REACTORS
330
47
102
}
330
47
100
AcDbScale
 70
     0
300
6" = 1'-0"
140
6.0
141
12.0
290
     0
  0
SCALE
  5
68
102
{ACAD_REACTORS
330
47
102
}
330
47
100
AcDbScale
 70
     0
300
1'-0" = 1'-0"
140
12.0
141
12.0
290
     0
  0
ENDSEC
  0
EOF
