  0
SECTION
  2
HEADER
  9
$ACADVER
  1
AC1015
  9
$ACADMAINTVER
 70
     6
  9
$DWGCODEPAGE
  3
ANSI_1252
  9
$INSBASE
 10
0.0
 20
0.0
 30
0.0
  9
$EXTMIN
 10
0.0
 20
0.0
 30
0.0
  9
$EXTMAX
 10
297.0
 20
210.0
 30
0.0
  9
$LIMMIN
 10
0.0
 20
0.0
  9
$LIMMAX
 10
297.0
 20
210.0
  9
$ORTHOMODE
 70
     0
  9
$REGENMODE
 70
     1
  9
$FILLMODE
 70
     1
  9
$QTEXTMODE
 70
     0
  9
$MIRRTEXT
 70
     1
  9
$LTSCALE
 40
1.0
  9
$ATTMODE
 70
     1
  9
$TEXTSIZE
 40
2.0
  9
$TRACEWID
 40
1.0
  9
$TEXTSTYLE
  7
Standard
  9
$CLAYER
  8
0
  9
$CELTYPE
  6
ByLayer
  9
$CECOLOR
 62
   256
  9
$CELTSCALE
 40
1.0
  9
$DISPSILH
 70
     0
  9
$DIMSCALE
 40
1.0
  9
$DIMASZ
 40
3.0
  9
$DIMEXO
 40
0.0
  9
$DIMDLI
 40
3.75
  9
$DIMRND
 40
0.0
  9
$DIMDLE
 40
0.0
  9
$DIMEXE
 40
1.0
  9
$DIMTP
 40
0.0
  9
$DIMTM
 40
0.0
  9
$DIMTXT
 40
2.0
  9
$DIMCEN
 40
2.5
  9
$DIMTSZ
 40
0.0
  9
$DIMTOL
 70
     0
  9
$DIMLIM
 70
     0
  9
$DIMTIH
 70
     1
  9
$DIMTOH
 70
     1
  9
$DIMSE1
 70
     0
  9
$DIMSE2
 70
     0
  9
$DIMTAD
 70
     1
  9
$DIMZIN
 70
     0
  9
$DIMBLK
  1

  9
$DIMASO
 70
     1
  9
$DIMSHO
 70
     1
  9
$DIMPOST
  1

  9
$DIMAPOST
  1

  9
$DIMALT
 70
     0
  9
$DIMALTD
 70
     3
  9
$DIMALTF
 40
0.0393700787
  9
$DIMLFAC
 40
2.0
  9
$DIMTOFL
 70
     1
  9
$DIMTVP
 40
0.0
  9
$DIMTIX
 70
     0
  9
$DIMSOXD
 70
     0
  9
$DIMSAH
 70
     0
  9
$DIMBLK1
  1

  9
$DIMBLK2
  1

  9
$DIMSTYLE
  2
ISO-25
  9
$DIMCLRD
 70
     0
  9
$DIMCLRE
 70
     0
  9
$DIMCLRT
 70
     0
  9
$DIMTFAC
 40
1.0
  9
$DIMGAP
 40
1.524
  9
$DIMJUST
 70
     0
  9
$DIMSD1
 70
     0
  9
$DIMSD2
 70
     0
  9
$DIMTOLJ
 70
     0
  9
$DIMTZIN
 70
     0
  9
$DIMALTZ
 70
     0
  9
$DIMALTTZ
 70
     0
  9
$DIMUPT
 70
     0
  9
$DIMDEC
 70
     2
  9
$DIMTDEC
 70
     3
  9
$DIMALTU
 70
     2
  9
$DIMALTTD
 70
     3
  9
$DIMTXSTY
  7
Standard
  9
$DIMAUNIT
 70
     0
  9
$DIMADEC
 70
     2
  9
$DIMALTRND
 40
0.0
  9
$DIMAZIN
 70
     0
  9
$DIMDSEP
 70
    44
  9
$DIMATFIT
 70
     3
  9
$DIMFRAC
 70
     0
  9
$DIMLDRBLK
  1

  9
$DIMLUNIT
 70
     2
  9
$DIMLWD
 70
    -2
  9
$DIMLWE
 70
    -2
  9
$DIMTMOVE
 70
     0
  9
$LUNITS
 70
     2
  9
$LUPREC
 70
     2
  9
$SKETCHINC
 40
1.0
  9
$FILLETRAD
 40
10.0
  9
$AUNITS
 70
     0
  9
$AUPREC
 70
     2
  9
$MENU
  1
.
  9
$ELEVATION
 40
0.0
  9
$PELEVATION
 40
0.0
  9
$THICKNESS
 40
0.0
  9
$LIMCHECK
 70
     0
  9
$CHAMFERA
 40
0.0
  9
$CHAMFERB
 40
0.0
  9
$CHAMFERC
 40
0.0
  9
$CHAMFERD
 40
0.0
  9
$SKPOLY
 70
     0
  9
$TDCREATE
 40
2457675.395728079
  9
$TDUCREATE
 40
2457675.312394745
  9
$TDUPDATE
 40
2457675.395729664
  9
$TDUUPDATE
 40
2457675.312396331
  9
$TDINDWG
 40
0.0000000116
  9
$TDUSRTIMER
 40
0.0000000116
  9
$USRTIMER
 70
     1
  9
$ANGBASE
 50
0.0
  9
$ANGDIR
 70
     0
  9
$PDMODE
 70
     0
  9
$PDSIZE
 40
-1.0
  9
$PLINEWID
 40
0.0
  9
$SPLFRAME
 70
     0
  9
$SPLINETYPE
 70
     6
  9
$SPLINESEGS
 70
     8
  9
$HANDSEED
  5
2B0
  9
$SURFTAB1
 70
     6
  9
$SURFTAB2
 70
     6
  9
$SURFTYPE
 70
     6
  9
$SURFU
 70
     6
  9
$SURFV
 70
     6
  9
$UCSBASE
  2

  9
$UCSNAME
  2

  9
$UCSORG
 10
0.0
 20
0.0
 30
0.0
  9
$UCSXDIR
 10
1.0
 20
0.0
 30
0.0
  9
$UCSYDIR
 10
0.0
 20
1.0
 30
0.0
  9
$UCSORTHOREF
  2

  9
$UCSORTHOVIEW
 70
     0
  9
$UCSORGTOP
 10
0.0
 20
0.0
 30
0.0
  9
$UCSORGBOTTOM
 10
0.0
 20
0.0
 30
0.0
  9
$UCSORGLEFT
 10
0.0
 20
0.0
 30
0.0
  9
$UCSORGRIGHT
 10
0.0
 20
0.0
 30
0.0
  9
$UCSORGFRONT
 10
0.0
 20
0.0
 30
0.0
  9
$UCSORGBACK
 10
0.0
 20
0.0
 30
0.0
  9
$PUCSBASE
  2

  9
$PUCSNAME
  2

  9
$PUCSORG
 10
0.0
 20
0.0
 30
0.0
  9
$PUCSXDIR
 10
1.0
 20
0.0
 30
0.0
  9
$PUCSYDIR
 10
0.0
 20
1.0
 30
0.0
  9
$PUCSORTHOREF
  2

  9
$PUCSORTHOVIEW
 70
     0
  9
$PUCSORGTOP
 10
0.0
 20
0.0
 30
0.0
  9
$PUCSORGBOTTOM
 10
0.0
 20
0.0
 30
0.0
  9
$PUCSORGLEFT
 10
0.0
 20
0.0
 30
0.0
  9
$PUCSORGRIGHT
 10
0.0
 20
0.0
 30
0.0
  9
$PUCSORGFRONT
 10
0.0
 20
0.0
 30
0.0
  9
$PUCSORGBACK
 10
0.0
 20
0.0
 30
0.0
  9
$USERI1
 70
     0
  9
$USERI2
 70
     0
  9
$USERI3
 70
     0
  9
$USERI4
 70
     0
  9
$USERI5
 70
     0
  9
$USERR1
 40
0.0
  9
$USERR2
 40
0.0
  9
$USERR3
 40
0.0
  9
$USERR4
 40
0.0
  9
$USERR5
 40
0.0
  9
$WORLDVIEW
 70
     1
  9
$SHADEDGE
 70
     3
  9
$SHADEDIF
 70
    70
  9
$TILEMODE
 70
     1
  9
$MAXACTVP
 70
    64
  9
$PINSBASE
 10
0.0
 20
0.0
 30
0.0
  9
$PLIMCHECK
 70
     0
  9
$PEXTMIN
 10
1.0000000000E+20
 20
1.0000000000E+20
 30
1.0000000000E+20
  9
$PEXTMAX
 10
-1.0000000000E+20
 20
-1.0000000000E+20
 30
-1.0000000000E+20
  9
$PLIMMIN
 10
0.0
 20
0.0
  9
$PLIMMAX
 10
420.0
 20
297.0
  9
$UNITMODE
 70
     0
  9
$VISRETAIN
 70
     1
  9
$PLINEGEN
 70
     0
  9
$PSLTSCALE
 70
     1
  9
$TREEDEPTH
 70
  3020
  9
$CMLSTYLE
  2
Standard
  9
$CMLJUST
 70
     0
  9
$CMLSCALE
 40
20.0
  9
$PROXYGRAPHICS
 70
     1
  9
$MEASUREMENT
 70
     1
  9
$CELWEIGHT
370
    -1
  9
$ENDCAPS
280
     0
  9
$JOINSTYLE
280
     0
  9
$LWDISPLAY
290
     1
  9
$INSUNITS
 70
     4
  9
$HYPERLINKBASE
  1

  9
$STYLESHEET
  1

  9
$XEDIT
290
     1
  9
$CEPSNTYPE
380
     0
  9
$PSTYLEMODE
290
     1
  9
$FINGERPRINTGUID
  2
{9F53161B-74F9-44FB-947B-763C69C0AA59}
  9
$VERSIONGUID
  2
{FAEB1C32-E019-11D5-929B-00C0DF256EC4}
  9
$EXTNAMES
290
     1
  9
$PSVPSCALE
 40
0.0
  9
$OLESTARTUP
290
     0
  0
ENDSEC
  0
SECTION
  2
CLASSES
  0
CLASS
  1
ACDBDICTIONARYWDFLT
  2
AcDbDictionaryWithDefault
  3
ObjectDBX Classes
 90
        0
280
     0
281
     0
  0
CLASS
  1
VISUALSTYLE
  2
AcDbVisualStyle
  3
ObjectDBX Classes
 90
     4095
280
     0
281
     0
  0
CLASS
  1
MATERIAL
  2
AcDbMaterial
  3
ObjectDBX Classes
 90
     1153
280
     0
281
     0
  0
CLASS
  1
SCALE
  2
AcDbScale
  3
ObjectDBX Classes
 90
     1153
280
     0
281
     0
  0
CLASS
  1
TABLESTYLE
  2
AcDbTableStyle
  3
ObjectDBX Classes
 90
     4095
280
     0
281
     0
  0
CLASS
  1
MLEADERSTYLE
  2
AcDbMLeaderStyle
  3
ACDB_MLEADERSTYLE_CLASS
 90
     4095
280
     0
281
     0
  0
CLASS
  1
SUN
  2
AcDbSun
  3
SCENEOE
 90
     1153
280
     0
281
     0
  0
CLASS
  1
ACDBPLACEHOLDER
  2
AcDbPlaceHolder
  3
ObjectDBX Classes
 90
        0
280
     0
281
     0
  0
CLASS
  1
LAYOUT
  2
AcDbLayout
  3
ObjectDBX Classes
 90
        0
280
     0
281
     0
  0
ENDSEC
  0
SECTION
  2
TABLES
  0
TABLE
  2
VPORT
  5
8
330
0
100
AcDbSymbolTable
 70
     1
  0
VPORT
  5
29
330
8
100
AcDbSymbolTableRecord
100
AcDbViewportTableRecord
  2
*Active
 70
     0
 10
0.0
 20
0.0
 11
1.0
 21
1.0
 12
148.5
 22
105.0
 13
0.0
 23
0.0
 14
10.0
 24
10.0
 15
10.0
 25
10.0
 16
0.0
 26
0.0
 36
1.0
 17
0.0
 27
0.0
 37
0.0
 40
210.0
 41
1.4142857143
 42
50.0
 43
0.0
 44
0.0
 50
0.0
 51
0.0
 71
     0
 72
  2000
 73
     1
 74
     3
 75
     0
 76
     0
 77
     0
 78
     0
281
     0
 65
     1
110
0.0
120
0.0
130
0.0
111
1.0
121
0.0
131
0.0
112
0.0
122
1.0
132
0.0
 79
     0
146
0.0
  0
ENDTAB
  0
TABLE
  2
LTYPE
  5
5
330
0
100
AcDbSymbolTable
 70
     6
  0
LTYPE
  5
14
330
5
100
AcDbSymbolTableRecord
100
AcDbLinetypeTableRecord
  2
ByBlock
 70
     0
  3

 72
    65
 73
     0
 40
0.0
  0
LTYPE
  5
15
330
5
100
AcDbSymbolTableRecord
100
AcDbLinetypeTableRecord
  2
ByLayer
 70
     0
  3

 72
    65
 73
     0
 40
0.0
  0
LTYPE
  5
16
330
5
100
AcDbSymbolTableRecord
100
AcDbLinetypeTableRecord
  2
Continuous
 70
     0
  3
Solid line
 72
    65
 73
     0
 40
0.0
  0
LTYPE
  5
6E
330
5
100
AcDbSymbolTableRecord
100
AcDbLinetypeTableRecord
  2
HIDDEN
 70
     0
  3
Hidden __ __ __ __ __ __ __ __ __ __ __ __ __ __
 72
    65
 73
     2
 40
1.905
 49
1.27
 74
     0
 49
-0.635
 74
     0
  0
LTYPE
  5
6F
330
5
100
AcDbSymbolTableRecord
100
AcDbLinetypeTableRecord
  2
PHANTOM
 70
     0
  3
Phantom ______  __  __  ______  __  __  ______
 72
    65
 73
     6
 40
12.7
 49
6.35
 74
     0
 49
-1.27
 74
     0
 49
1.27
 74
     0
 49
-1.27
 74
     0
 49
1.27
 74
     0
 49
-1.27
 74
     0
  0
LTYPE
  5
70
330
5
100
AcDbSymbolTableRecord
100
AcDbLinetypeTableRecord
  2
CENTER
 70
     0
  3
Center ____ _ ____ _ ____ _ ____ _ ____ _ ____
 72
    65
 73
     4
 40
10.16
 49
6.35
 74
     0
 49
-1.27
 74
     0
 49
1.27
 74
     0
 49
-1.27
 74
     0
  0
LTYPE
  5
71
330
5
100
AcDbSymbolTableRecord
100
AcDbLinetypeTableRecord
  2
CENTERX2
 70
     0
  3
Center (2x) ________  __  ________  __  _____
 72
    65
 73
     4
 40
20.32
 49
12.7
 74
     0
 49
-2.54
 74
     0
 49
2.54
 74
     0
 49
-2.54
 74
     0
  0
LTYPE
  5
72
330
5
100
AcDbSymbolTableRecord
100
AcDbLinetypeTableRecord
  2
DOT2
 70
     0
  3
Dot (.5x) ........................................
 72
    65
 73
     2
 40
0.635
 49
0.0
 74
     0
 49
-0.635
 74
     0
  0
ENDTAB
  0
TABLE
  2
LAYER
  5
2
330
0
100
AcDbSymbolTable
 70
     5
  0
LAYER
  5
10
330
2
100
AcDbSymbolTableRecord
100
AcDbLayerTableRecord
  2
0
 70
     0
 62
     7
  6
Continuous
370
    -3
390
F
  0
LAYER
  5
73
330
2
100
AcDbSymbolTableRecord
100
AcDbLayerTableRecord
  2
FORMAT
 70
     0
 62
     7
  6
Continuous
370
    -3
390
F
  0
LAYER
  5
74
330
2
100
AcDbSymbolTableRecord
100
AcDbLayerTableRecord
  2
VERMASSUNG
 70
     0
 62
     7
  6
Continuous
370
    -3
390
F
  0
LAYER
  5
75
330
2
100
AcDbSymbolTableRecord
100
AcDbLayerTableRecord
  2
KOPF_DÜNN
 70
     0
 62
     7
  6
Continuous
370
    -3
390
F
  0
LAYER
  5
76
330
2
100
AcDbSymbolTableRecord
100
AcDbLayerTableRecord
  2
KOPF_DICK
 70
     0
 62
     7
  6
Continuous
370
    15
390
F
  0
ENDTAB
  0
TABLE
  2
STYLE
  5
3
330
0
100
AcDbSymbolTable
 70
     2
  0
STYLE
  5
11
330
3
100
AcDbSymbolTableRecord
100
AcDbTextStyleTableRecord
  2
Standard
 70
     0
 40
0.0
 41
1.0
 50
0.0
 71
     0
 42
2.0
  3
txt
  4

  0
STYLE
  5
77
330
3
100
AcDbSymbolTableRecord
100
AcDbTextStyleTableRecord
  2
SLDTEXTSTYLE0
 70
     0
 40
0.0
 41
0.7
 50
0.0
 71
     0
 42
2.0
  3
TXT
  4

  0
ENDTAB
  0
TABLE
  2
VIEW
  5
6
330
0
100
AcDbSymbolTable
 70
     0
  0
ENDTAB
  0
TABLE
  2
UCS
  5
7
330
0
100
AcDbSymbolTable
 70
     0
  0
ENDTAB
  0
TABLE
  2
APPID
  5
9
330
0
100
AcDbSymbolTable
 70
     1
  0
APPID
  5
12
330
9
100
AcDbSymbolTableRecord
100
AcDbRegAppTableRecord
  2
ACAD
 70
     0
  0
ENDTAB
  0
TABLE
  2
DIMSTYLE
  5
A
330
0
100
AcDbSymbolTable
 70
     2
100
AcDbDimStyleTable
  0
DIMSTYLE
105
27
330
A
100
AcDbSymbolTableRecord
100
AcDbDimStyleTableRecord
  2
ISO-25
 70
     0
 41
2.5
 42
0.625
 43
3.75
 44
1.25
 73
     0
 74
     0
 77
     1
 78
     8
140
2.5
141
2.5
143
0.0393700787
147
0.625
171
     3
172
     1
178
     0
271
     2
272
     2
274
     3
278
    44
283
     0
284
     8
340
11
  0
DIMSTYLE
105
1BC
102
{ACAD_REACTORS
330
1BB
330
1C8
330
1D4
330
1DE
330
1EA
330
1F5
102
}
330
A
100
AcDbSymbolTableRecord
100
AcDbDimStyleTableRecord
  2
SLDDIMSTYLE0
 70
     0
 41
3.0
 44
0.0
 45
0.000000001
 73
     0
 74
     0
 77
     1
 78
    12
 79
     3
140
2.0
147
0.5
173
     1
178
     0
271
     2
272
     3
276
     2
284
    12
340
77
  0
ENDTAB
  0
TABLE
  2
BLOCK_RECORD
  5
1
330
0
100
AcDbSymbolTable
 70
     7
  0
BLOCK_RECORD
  5
1F
330
1
100
AcDbSymbolTableRecord
100
AcDbBlockTableRecord
  2
*Model_Space
340
22
  0
BLOCK_RECORD
  5
1B
330
1
100
AcDbSymbolTableRecord
100
AcDbBlockTableRecord
  2
*Paper_Space
340
1E
  0
BLOCK_RECORD
  5
23
330
1
100
AcDbSymbolTableRecord
100
AcDbBlockTableRecord
  2
*Paper_Space0
340
26
  0
BLOCK_RECORD
  5
1BD
330
1
100
AcDbSymbolTableRecord
100
AcDbBlockTableRecord
  2
_D
340
0
  0
BLOCK_RECORD
  5
1C9
330
1
100
AcDbSymbolTableRecord
100
AcDbBlockTableRecord
  2
_D_1
340
0
  0
BLOCK_RECORD
  5
1D5
330
1
100
AcDbSymbolTableRecord
100
AcDbBlockTableRecord
  2
_D_2
340
0
  0
BLOCK_RECORD
  5
1DF
330
1
100
AcDbSymbolTableRecord
100
AcDbBlockTableRecord
  2
_D_3
340
0
  0
BLOCK_RECORD
  5
1EB
330
1
100
AcDbSymbolTableRecord
100
AcDbBlockTableRecord
  2
_D_4
340
0
  0
BLOCK_RECORD
  5
1F6
330
1
100
AcDbSymbolTableRecord
100
AcDbBlockTableRecord
  2
_D_5
340
0
  0
ENDTAB
  0
ENDSEC
  0
SECTION
  2
BLOCKS
  0
BLOCK
  5
20
330
1F
100
AcDbEntity
  8
0
100
AcDbBlockBegin
  2
*Model_Space
 70
     0
 10
0.0
 20
0.0
 30
0.0
  3
*Model_Space
  1

  0
ENDBLK
  5
21
330
1F
100
AcDbEntity
  8
0
100
AcDbBlockEnd
  0
BLOCK
  5
1C
330
1B
100
AcDbEntity
 67
     1
  8
0
100
AcDbBlockBegin
  2
*Paper_Space
 70
     0
 10
0.0
 20
0.0
 30
0.0
  3
*Paper_Space
  1

  0
ENDBLK
  5
1D
330
1B
100
AcDbEntity
 67
     1
  8
0
100
AcDbBlockEnd
  0
BLOCK
  5
24
330
23
100
AcDbEntity
  8
0
100
AcDbBlockBegin
  2
*Paper_Space0
 70
     0
 10
0.0
 20
0.0
 30
0.0
  3
*Paper_Space0
  1

  0
ENDBLK
  5
25
330
23
100
AcDbEntity
  8
0
100
AcDbBlockEnd
  0
BLOCK
  5
1BE
330
1BD
100
AcDbEntity
  8
0
100
AcDbBlockBegin
  2
_D
 70
     0
 10
0.0
 20
0.0
 30
0.0
  3
_D
  1

  0
SOLID
  5
1C0
330
1BD
100
AcDbEntity
  8
VERMASSUNG
100
AcDbTrace
 10
105.4708003799
 20
139.331197734
 30
0.0
 11
105.0208003799
 21
136.331197734
 31
0.0
 12
105.9208003799
 22
136.331197734
 32
0.0
 13
105.9208003799
 23
136.331197734
 33
0.0
  0
SOLID
  5
1C1
330
1BD
100
AcDbEntity
  8
VERMASSUNG
100
AcDbTrace
 10
105.4708003799
 20
76.331197734
 30
0.0
 11
105.9208003799
 21
79.331197734
 31
0.0
 12
105.0208003799
 22
79.331197734
 32
0.0
 13
105.0208003799
 23
79.331197734
 33
0.0
  0
LINE
  5
1C2
330
1BD
100
AcDbEntity
  8
VERMASSUNG
100
AcDbLine
 10
147.8161042223
 20
139.331197734
 30
0.0
 11
104.4708003799
 21
139.331197734
 31
0.0
  0
LINE
  5
1C3
330
1BD
100
AcDbEntity
  8
VERMASSUNG
100
AcDbLine
 10
147.8161042223
 20
76.331197734
 30
0.0
 11
104.4708003799
 21
76.331197734
 31
0.0
  0
LINE
  5
1C4
330
1BD
100
AcDbEntity
  8
VERMASSUNG
100
AcDbLine
 10
105.4708003799
 20
139.331197734
 30
0.0
 11
105.4708003799
 21
76.331197734
 31
0.0
  0
MTEXT
  5
1C5
330
1BD
100
AcDbEntity
  8
VERMASSUNG
100
AcDbMText
 10
102.6926651237
 20
100.1261984361
 30
0.0
 40
2.0
 41
0.0
 71
     1
 72
     1
  1
HSK A
  7
SLDTEXTSTYLE0
 11
-7.044195017643634E-15
 21
1.0
 31
0.0
 73
     1
 44
1.0
  0
MTEXT
  5
1C6
330
1BD
100
AcDbEntity
  8
VERMASSUNG
100
AcDbMText
 10
102.892665075
 20
109.1261980487
 30
0.0
 40
2.0
 41
0.0
 71
     1
 72
     1
  1
%%c
  7
SLDTEXTSTYLE0
 11
-7.044195017643634E-15
 21
1.0
 31
0.0
 73
     1
 44
1.0
  0
MTEXT
  5
1C7
330
1BD
100
AcDbEntity
  8
VERMASSUNG
100
AcDbMText
 10
102.6926651237
 20
112.736198063
 30
0.0
 40
2.0
 41
0.0
 71
     1
 72
     1
  1
63
  7
SLDTEXTSTYLE0
 11
-7.044195017643634E-15
 21
1.0
 31
0.0
 73
     1
 44
1.0
  0
ENDBLK
  5
1BF
330
1BD
100
AcDbEntity
  8
0
100
AcDbBlockEnd
  0
BLOCK
  5
1CA
330
1C9
100
AcDbEntity
  8
0
100
AcDbBlockBegin
  2
_D_1
 70
     0
 10
0.0
 20
0.0
 30
0.0
  3
_D_1
  1

  0
ARC
  5
1CC
330
1C9
100
AcDbEntity
  8
VERMASSUNG
100
AcDbCircle
 10
156.9661044343
 20
156.918219148
 30
0.0
 40
4.24852922888762
100
AcDbArc
 50
153.4349488229
 51
206.5650511771
  0
ARC
  5
1CD
330
1C9
100
AcDbEntity
  8
VERMASSUNG
100
AcDbCircle
 10
154.1661040685
 20
156.918219148
 30
0.0
 40
4.24852922888762
100
AcDbArc
 50
333.4349488229
 51
26.5650511771
  0
SOLID
  5
1CE
330
1C9
100
AcDbEntity
  8
VERMASSUNG
100
AcDbTrace
 10
115.6161042223
 20
155.0182188831
 30
0.0
 11
118.6161042223
 21
154.5682188831
 31
0.0
 12
118.6161042223
 22
155.4682188831
 32
0.0
 13
118.6161042223
 23
155.4682188831
 33
0.0
  0
SOLID
  5
1CF
330
1C9
100
AcDbEntity
  8
VERMASSUNG
100
AcDbTrace
 10
195.5161042223
 20
155.0182188831
 30
0.0
 11
192.5161042223
 21
155.4682188831
 31
0.0
 12
192.5161042223
 22
154.5682188831
 32
0.0
 13
192.5161042223
 23
154.5682188831
 33
0.0
  0
LINE
  5
1D0
330
1C9
100
AcDbEntity
  8
VERMASSUNG
100
AcDbLine
 10
115.6161042223
 20
127.5218754805
 30
0.0
 11
115.6161042223
 21
156.0182188831
 31
0.0
  0
LINE
  5
1D1
330
1C9
100
AcDbEntity
  8
VERMASSUNG
100
AcDbLine
 10
195.5161042223
 20
123.531197734
 30
0.0
 11
195.5161042223
 21
156.0182188831
 31
0.0
  0
LINE
  5
1D2
330
1C9
100
AcDbEntity
  8
VERMASSUNG
100
AcDbLine
 10
115.6161042223
 20
155.0182188831
 30
0.0
 11
195.5161042223
 21
155.0182188831
 31
0.0
  0
MTEXT
  5
1D3
330
1C9
100
AcDbEntity
  8
VERMASSUNG
100
AcDbMText
 10
153.1661043702
 20
157.5963547119
 30
0.0
 40
2.0
 41
0.0
 71
     1
 72
     1
  1
79.9
  7
SLDTEXTSTYLE0
 73
     1
 44
1.0
  0
ENDBLK
  5
1CB
330
1C9
100
AcDbEntity
  8
0
100
AcDbBlockEnd
  0
BLOCK
  5
1D6
330
1D5
100
AcDbEntity
  8
0
100
AcDbBlockBegin
  2
_D_2
 70
     0
 10
0.0
 20
0.0
 30
0.0
  3
_D_2
  1

  0
SOLID
  5
1D8
330
1D5
100
AcDbEntity
  8
VERMASSUNG
100
AcDbTrace
 10
147.5161042223
 20
149.0182188831
 30
0.0
 11
150.5161042223
 21
148.5682188831
 31
0.0
 12
150.5161042223
 22
149.4682188831
 32
0.0
 13
150.5161042223
 23
149.4682188831
 33
0.0
  0
SOLID
  5
1D9
330
1D5
100
AcDbEntity
  8
VERMASSUNG
100
AcDbTrace
 10
195.5161042223
 20
149.0182188831
 30
0.0
 11
192.5161042223
 21
149.4682188831
 31
0.0
 12
192.5161042223
 22
148.5682188831
 32
0.0
 13
192.5161042223
 23
148.5682188831
 33
0.0
  0
LINE
  5
1DA
330
1D5
100
AcDbEntity
  8
VERMASSUNG
100
AcDbLine
 10
147.5161042223
 20
139.031197734
 30
0.0
 11
147.5161042223
 21
150.0182188831
 31
0.0
  0
LINE
  5
1DB
330
1D5
100
AcDbEntity
  8
VERMASSUNG
100
AcDbLine
 10
195.5161042223
 20
123.531197734
 30
0.0
 11
195.5161042223
 21
150.0182188831
 31
0.0
  0
LINE
  5
1DC
330
1D5
100
AcDbEntity
  8
VERMASSUNG
100
AcDbLine
 10
147.5161042223
 20
149.0182188831
 30
0.0
 11
195.5161042223
 21
149.0182188831
 31
0.0
  0
MTEXT
  5
1DD
330
1D5
100
AcDbEntity
  8
VERMASSUNG
100
AcDbMText
 10
170.0161042092
 20
151.596354479
 30
0.0
 40
2.0
 41
0.0
 71
     1
 72
     1
  1
48
  7
SLDTEXTSTYLE0
 73
     1
 44
1.0
  0
ENDBLK
  5
1D7
330
1D5
100
AcDbEntity
  8
0
100
AcDbBlockEnd
  0
BLOCK
  5
1E0
330
1DF
100
AcDbEntity
  8
0
100
AcDbBlockBegin
  2
_D_3
 70
     0
 10
0.0
 20
0.0
 30
0.0
  3
_D_3
  1

  0
ARC
  5
1E2
330
1DF
100
AcDbEntity
  8
VERMASSUNG
100
AcDbCircle
 10
185.1911044592
 20
144.918219148
 30
0.0
 40
4.24852922888762
100
AcDbArc
 50
153.4349488229
 51
206.5650511771
  0
ARC
  5
1E3
330
1DF
100
AcDbEntity
  8
VERMASSUNG
100
AcDbCircle
 10
183.7911040435
 20
144.918219148
 30
0.0
 40
4.24852922888762
100
AcDbArc
 50
333.4349488229
 51
26.5650511771
  0
SOLID
  5
1E4
330
1DF
100
AcDbEntity
  8
VERMASSUNG
100
AcDbTrace
 10
173.4661042223
 20
143.0182188831
 30
0.0
 11
176.4661042223
 21
142.5682188831
 31
0.0
 12
176.4661042223
 22
143.4682188831
 32
0.0
 13
176.4661042223
 23
143.4682188831
 33
0.0
  0
SOLID
  5
1E5
330
1DF
100
AcDbEntity
  8
VERMASSUNG
100
AcDbTrace
 10
195.5161042223
 20
143.0182188831
 30
0.0
 11
192.5161042223
 21
143.4682188831
 31
0.0
 12
192.5161042223
 22
142.5682188831
 32
0.0
 13
192.5161042223
 23
142.5682188831
 33
0.0
  0
LINE
  5
1E6
330
1DF
100
AcDbEntity
  8
VERMASSUNG
100
AcDbLine
 10
173.4661042223
 20
137.6776380578
 30
0.0
 11
173.4661042223
 21
144.0182188831
 31
0.0
  0
LINE
  5
1E7
330
1DF
100
AcDbEntity
  8
VERMASSUNG
100
AcDbLine
 10
195.5161042223
 20
123.531197734
 30
0.0
 11
195.5161042223
 21
144.0182188831
 31
0.0
  0
LINE
  5
1E8
330
1DF
100
AcDbEntity
  8
VERMASSUNG
100
AcDbLine
 10
173.4661042223
 20
143.0182188831
 30
0.0
 11
195.5161042223
 21
143.0182188831
 31
0.0
  0
MTEXT
  5
1E9
330
1DF
100
AcDbEntity
  8
VERMASSUNG
100
AcDbMText
 10
181.3911043952
 20
145.5963547119
 30
0.0
 40
2.0
 41
0.0
 71
     1
 72
     1
  1
22.05
  7
SLDTEXTSTYLE0
 73
     1
 44
1.0
  0
ENDBLK
  5
1E1
330
1DF
100
AcDbEntity
  8
0
100
AcDbBlockEnd
  0
BLOCK
  5
1EC
330
1EB
100
AcDbEntity
  8
0
100
AcDbBlockBegin
  2
_D_4
 70
     0
 10
0.0
 20
0.0
 30
0.0
  3
_D_4
  1

  0
SOLID
  5
1EE
330
1EB
100
AcDbEntity
  8
VERMASSUNG
100
AcDbTrace
 10
205.5161042223
 20
116.831197734
 30
0.0
 11
205.0661042223
 21
113.831197734
 31
0.0
 12
205.9661042223
 22
113.831197734
 32
0.0
 13
205.9661042223
 23
113.831197734
 33
0.0
  0
SOLID
  5
1EF
330
1EB
100
AcDbEntity
  8
VERMASSUNG
100
AcDbTrace
 10
205.5161042223
 20
98.831197734
 30
0.0
 11
205.9661042223
 21
101.831197734
 31
0.0
 12
205.0661042223
 22
101.831197734
 32
0.0
 13
205.0661042223
 23
101.831197734
 33
0.0
  0
LINE
  5
1F0
330
1EB
100
AcDbEntity
  8
VERMASSUNG
100
AcDbLine
 10
194.5161042223
 20
116.831197734
 30
0.0
 11
206.5161042223
 21
116.831197734
 31
0.0
  0
LINE
  5
1F1
330
1EB
100
AcDbEntity
  8
VERMASSUNG
100
AcDbLine
 10
194.5161042223
 20
98.831197734
 30
0.0
 11
206.5161042223
 21
98.831197734
 31
0.0
  0
LINE
  5
1F2
330
1EB
100
AcDbEntity
  8
VERMASSUNG
100
AcDbLine
 10
205.5161042223
 20
116.831197734
 30
0.0
 11
205.5161042223
 21
98.831197734
 31
0.0
  0
MTEXT
  5
1F3
330
1EB
100
AcDbEntity
  8
VERMASSUNG
100
AcDbMText
 10
202.9379689173
 20
104.8261976699
 30
0.0
 40
2.0
 41
0.0
 71
     1
 72
     1
  1
%%c
  7
SLDTEXTSTYLE0
 11
-7.044195017643634E-15
 21
1.0
 31
0.0
 73
     1
 44
1.0
  0
MTEXT
  5
1F4
330
1EB
100
AcDbEntity
  8
VERMASSUNG
100
AcDbMText
 10
202.737968966
 20
108.4361976842
 30
0.0
 40
2.0
 41
0.0
 71
     1
 72
     1
  1
18
  7
SLDTEXTSTYLE0
 11
-7.044195017643634E-15
 21
1.0
 31
0.0
 73
     1
 44
1.0
  0
ENDBLK
  5
1ED
330
1EB
100
AcDbEntity
  8
0
100
AcDbBlockEnd
  0
BLOCK
  5
1F7
330
1F6
100
AcDbEntity
  8
0
100
AcDbBlockBegin
  2
_D_5
 70
     0
 10
0.0
 20
0.0
 30
0.0
  3
_D_5
  1

  0
SOLID
  5
1F9
330
1F6
100
AcDbEntity
  8
VERMASSUNG
100
AcDbTrace
 10
211.7161042223
 20
123.831197734
 30
0.0
 11
211.2661042223
 21
120.831197734
 31
0.0
 12
212.1661042223
 22
120.831197734
 32
0.0
 13
212.1661042223
 23
120.831197734
 33
0.0
  0
SOLID
  5
1FA
330
1F6
100
AcDbEntity
  8
VERMASSUNG
100
AcDbTrace
 10
211.7161042223
 20
91.831197734
 30
0.0
 11
212.1661042223
 21
94.831197734
 31
0.0
 12
211.2661042223
 22
94.831197734
 32
0.0
 13
211.2661042223
 23
94.831197734
 33
0.0
  0
LINE
  5
1FB
330
1F6
100
AcDbEntity
  8
VERMASSUNG
100
AcDbLine
 10
195.2161042223
 20
123.831197734
 30
0.0
 11
212.7161042223
 21
123.831197734
 31
0.0
  0
LINE
  5
1FC
330
1F6
100
AcDbEntity
  8
VERMASSUNG
100
AcDbLine
 10
195.2161042223
 20
91.831197734
 30
0.0
 11
212.7161042223
 21
91.831197734
 31
0.0
  0
LINE
  5
1FD
330
1F6
100
AcDbEntity
  8
VERMASSUNG
100
AcDbLine
 10
211.7161042223
 20
123.831197734
 30
0.0
 11
211.7161042223
 21
91.831197734
 31
0.0
  0
MTEXT
  5
1FE
330
1F6
100
AcDbEntity
  8
VERMASSUNG
100
AcDbMText
 10
208.937968966
 20
102.7261977447
 30
0.0
 40
2.0
 41
0.0
 71
     1
 72
     1
  1
WH
  7
SLDTEXTSTYLE0
 11
-7.044195017643634E-15
 21
1.0
 31
0.0
 73
     1
 44
1.0
  0
MTEXT
  5
1FF
330
1F6
100
AcDbEntity
  8
VERMASSUNG
100
AcDbMText
 10
209.1379689173
 20
106.5261978088
 30
0.0
 40
2.0
 41
0.0
 71
     1
 72
     1
  1
%%c
  7
SLDTEXTSTYLE0
 11
-7.044195017643634E-15
 21
1.0
 31
0.0
 73
     1
 44
1.0
  0
MTEXT
  5
200
330
1F6
100
AcDbEntity
  8
VERMASSUNG
100
AcDbMText
 10
208.937968966
 20
110.1361978231
 30
0.0
 40
2.0
 41
0.0
 71
     1
 72
     1
  1
32
  7
SLDTEXTSTYLE0
 11
-7.044195017643634E-15
 21
1.0
 31
0.0
 73
     1
 44
1.0
  0
ENDBLK
  5
1F8
330
1F6
100
AcDbEntity
  8
0
100
AcDbBlockEnd
  0
ENDSEC
  0
SECTION
  2
ENTITIES
  0
MTEXT
  5
78
330
1F
100
AcDbEntity
  8
KOPF_DÜNN
100
AcDbMText
 10
13.8892156294
 20
23.8442973028
 30
0.0
 40
3.0
 41
0.0
 71
     1
 72
     1
  1
A44.806.032.048
  7
SLDTEXTSTYLE0
 73
     1
 44
1.0
  0
MTEXT
  5
79
330
1F
100
AcDbEntity
  8
VERMASSUNG
100
AcDbMText
 10
13.9329988022
 20
28.8834360957
 30
0.0
 40
3.0
 41
0.0
 71
     1
 72
     1
  1
Aufnahme Master shank WH32
  7
SLDTEXTSTYLE0
 73
     1
 44
1.0
  0
MTEXT
  5
7A
330
1F
100
AcDbEntity
  8
VERMASSUNG
100
AcDbMText
 10
98.8601118557
 20
13.8365368761
 30
0.0
 40
2.0
 41
0.0
 71
     1
 72
     1
  1
Datum: 25.11.2011
  7
SLDTEXTSTYLE0
 73
     1
 44
1.0
  0
MTEXT
  5
7B
330
1F
100
AcDbEntity
  8
VERMASSUNG
100
AcDbMText
 10
13.933048693
 20
18.0482802738
 30
0.0
 40
2.0
 41
0.0
 71
     1
 72
     1
  1
DIN 69893
  7
SLDTEXTSTYLE0
 73
     1
 44
1.0
  0
MTEXT
  5
7C
330
1F
100
AcDbEntity
  8
VERMASSUNG
100
AcDbMText
 10
13.9808475933
 20
13.9090974274
 30
0.0
 40
2.0
 41
0.0
 71
     1
 72
     1
  1
Gewicht: 737g
  7
SLDTEXTSTYLE0
 73
     1
 44
1.0
  0
LINE
  5
7D
330
1F
100
AcDbEntity
  8
0
  6
Continuous
 62
     7
370
    15
100
AcDbLine
 10
187.0577920386
 20
123.5395082636
 30
0.0
 11
186.7661055336
 21
123.831198494
 31
0.0
  0
LINE
  5
7E
330
1F
100
AcDbEntity
  8
0
  6
Continuous
 62
     7
370
    15
100
AcDbLine
 10
180.1661055693
 20
123.831198494
 30
0.0
 11
179.875301958
 21
123.5403948827
 31
0.0
  0
LINE
  5
7F
330
1F
100
AcDbEntity
  8
0
  6
Continuous
 62
     7
370
    15
100
AcDbLine
 10
187.0577920386
 20
123.5395082636
 30
0.0
 11
186.7661055336
 21
123.831198494
 31
0.0
  0
LINE
  5
80
330
1F
100
AcDbEntity
  8
0
  6
Continuous
 62
     7
370
    15
100
AcDbLine
 10
180.1661055693
 20
123.831198494
 30
0.0
 11
179.875301958
 21
123.5403948827
 31
0.0
  0
ARC
  5
81
330
1F
100
AcDbEntity
  8
0
  6
Continuous
 62
     7
370
    15
100
AcDbCircle
 10
147.8161042223
 20
76.631197734
 30
0.0
 40
0.2999999999999972
100
AcDbArc
 50
180.0
 51
270.0
  0
ARC
  5
82
330
1F
100
AcDbEntity
  8
0
  6
Continuous
 62
     7
370
    15
100
AcDbCircle
 10
147.8161042223
 20
139.031197734
 30
0.0
 40
0.2999999999999829
100
AcDbArc
 50
90.0
 51
180.0
  0
LINE
  5
83
330
1F
100
AcDbEntity
  8
0
  6
Continuous
 62
     7
370
    15
100
AcDbLine
 10
147.8161042365
 20
76.3311972274
 30
0.0
 11
152.4661041954
 21
76.3311972274
 31
0.0
  0
LINE
  5
84
330
1F
100
AcDbEntity
  8
0
  6
Continuous
 62
     7
370
    15
100
AcDbLine
 10
152.4940927671
 20
139.3311982406
 30
0.0
 11
147.8161042365
 21
139.3311982406
 31
0.0
  0
ARC
  5
85
330
1F
100
AcDbEntity
  8
0
  6
Continuous
 62
     7
370
    15
100
AcDbCircle
 10
147.0160974696
 20
83.2607601196
 30
0.0
 40
0.6000067526677242
100
AcDbArc
 50
33.5571153394
 51
90.0
  0
ARC
  5
86
330
1F
100
AcDbEntity
  8
0
  6
Continuous
 62
     7
370
    15
100
AcDbCircle
 10
147.0160974696
 20
132.4016353484
 30
0.0
 40
0.6000067526677242
100
AcDbArc
 50
270.0
 51
326.4428846606
  0
LINE
  5
87
330
1F
100
AcDbEntity
  8
0
  6
Continuous
 62
     7
370
    15
100
AcDbLine
 10
134.2845957884
 20
131.4889275832
 30
0.0
 11
121.7161033461
 21
130.8592436267
 31
0.0
  0
LINE
  5
88
330
1F
100
AcDbEntity
  8
0
  6
Continuous
 62
     7
370
    15
100
AcDbLine
 10
145.5161041273
 20
132.0516289575
 30
0.0
 11
142.6991027007
 21
131.9104963346
 31
0.0
  0
LINE
  5
89
330
1F
100
AcDbEntity
  8
0
  6
Continuous
 62
     7
370
    15
100
AcDbLine
 10
142.69915858
 20
83.7518972708
 30
0.0
 11
145.5161041273
 21
83.6107665105
 31
0.0
  0
LINE
  5
8A
330
1F
100
AcDbEntity
  8
0
  6
Continuous
 62
     7
370
    15
100
AcDbLine
 10
125.7161040017
 20
84.6027517123
 30
0.0
 11
134.2849981198
 21
84.1734473957
 31
0.0
  0
LINE
  5
8B
330
1F
100
AcDbEntity
  8
0
  6
Continuous
 62
     7
370
    15
100
AcDbLine
 10
145.5161041273
 20
83.6107665105
 30
0.0
 11
146.3728170534
 21
83.840322624
 31
0.0
  0
LINE
  5
8C
330
1F
100
AcDbEntity
  8
0
  6
Continuous
 62
     7
370
    15
100
AcDbLine
 10
146.3728170534
 20
131.822072844
 30
0.0
 11
145.5161041273
 21
132.0516289575
 31
0.0
  0
ARC
  5
8D
330
1F
100
AcDbEntity
  8
0
  6
Continuous
 62
     7
370
    15
100
AcDbCircle
 10
146.5281084227
 20
83.2607668723
 30
0.0
 40
0.6000000000000085
100
AcDbArc
 50
90.0
 51
105.0
  0
ARC
  5
8E
330
1F
100
AcDbEntity
  8
0
  6
Continuous
 62
     7
370
    15
100
AcDbCircle
 10
146.5281084227
 20
132.4016285957
 30
0.0
 40
0.5999999999999943
100
AcDbArc
 50
255.0
 51
270.0
  0
LINE
  5
8F
330
1F
100
AcDbEntity
  8
0
  6
Continuous
 62
     7
370
    15
100
AcDbLine
 10
146.5281084571
 20
83.8607670171
 30
0.0
 11
147.0160974464
 21
83.8607670171
 31
0.0
  0
LINE
  5
90
330
1F
100
AcDbEntity
  8
0
  6
Continuous
 62
     7
370
    15
100
AcDbLine
 10
147.0160974464
 20
131.8016284509
 30
0.0
 11
146.5281084571
 21
131.8016284509
 31
0.0
  0
ARC
  5
91
330
1F
100
AcDbEntity
  8
0
  6
Continuous
 62
     7
370
    15
100
AcDbCircle
 10
176.4661042223
 20
88.831197734
 30
0.0
 40
3.000000000000014
100
AcDbArc
 50
90.0
 51
180.0
  0
ARC
  5
92
330
1F
100
AcDbEntity
  8
0
  6
Continuous
 62
     7
370
    15
100
AcDbCircle
 10
176.4661042223
 20
126.831197734
 30
0.0
 40
3.0
100
AcDbArc
 50
180.0
 51
270.0
  0
LINE
  5
93
330
1F
100
AcDbEntity
  8
0
  6
Continuous
 62
     7
370
    15
100
AcDbLine
 10
195.2161032865
 20
91.831196974
 30
0.0
 11
195.5161046395
 21
92.1311983271
 31
0.0
  0
LINE
  5
94
330
1F
100
AcDbEntity
  8
0
  6
Continuous
 62
     7
370
    15
100
AcDbLine
 10
195.5161046395
 20
123.5311971409
 30
0.0
 11
195.2161032865
 21
123.831198494
 31
0.0
  0
LINE
  5
95
330
1F
100
AcDbEntity
  8
0
  6
Continuous
 62
     7
370
    15
100
AcDbLine
 10
178.4829113791
 20
123.831198494
 30
0.0
 11
176.4661044041
 21
123.831198494
 31
0.0
  0
LINE
  5
96
330
1F
100
AcDbEntity
  8
0
  6
Continuous
 62
     7
370
    15
100
AcDbLine
 10
195.2161032865
 20
123.831198494
 30
0.0
 11
188.4563256213
 21
123.831198494
 31
0.0
  0
LINE
  5
97
330
1F
100
AcDbEntity
  8
0
  6
Continuous
 62
     7
370
    15
100
AcDbLine
 10
176.4661044041
 20
91.831196974
 30
0.0
 11
195.2161032865
 21
91.831196974
 31
0.0
  0
LINE
  5
98
330
1F
100
AcDbEntity
  8
0
  6
Continuous
 62
     7
370
    15
100
AcDbLine
 10
116.8994408259
 20
86.96119761
 30
0.0
 11
124.3161045173
 21
86.96119761
 31
0.0
  0
ARC
  5
99
330
1F
100
AcDbEntity
  8
0
  6
Continuous
 62
     7
370
    15
100
AcDbCircle
 10
124.3161042223
 20
85.561197734
 30
0.0
 40
1.400000000000007
100
AcDbArc
 50
42.2465410162
 51
90.0
  0
LINE
  5
9A
330
1F
100
AcDbEntity
  8
0
  6
Continuous
 62
     7
370
    15
100
AcDbLine
 10
115.6171363005
 20
88.1101646824
 30
0.0
 11
116.7572669843
 21
86.9700339986
 31
0.0
  0
LINE
  5
9B
330
1F
100
AcDbEntity
  8
0
  6
Continuous
 62
     7
370
    15
100
AcDbLine
 10
116.7572669843
 20
128.6923614694
 30
0.0
 11
115.6260062167
 21
127.5610988392
 31
0.0
  0
ARC
  5
9C
330
1F
100
AcDbEntity
  8
0
  6
Continuous
 62
     7
370
    15
100
AcDbCircle
 10
120.3161042223
 20
130.101197734
 30
0.0
 40
1.400000000000015
100
AcDbArc
 50
270.0
 51
301.7485287426
  0
LINE
  5
9D
330
1F
100
AcDbEntity
  8
0
  6
Continuous
 62
     7
370
    15
100
AcDbLine
 10
120.3161038616
 20
128.701197858
 30
0.0
 11
116.9069919893
 21
128.701197858
 31
0.0
  0
SPLINE
  5
9E
330
1F
100
AcDbEntity
  8
0
  6
Continuous
 62
     7
370
    15
100
AcDbSpline
210
0.0
220
0.0
230
1.0
 70
     8
 71
     3
 72
    11
 73
     7
 74
     0
 42
0.000000001
 43
0.00000001
 40
0.0
 40
0.0
 40
0.0
 40
0.0
 40
0.1849308365257007
 40
0.5198463536376045
 40
0.8714436532767867
 40
1.0
 40
1.0
 40
1.0
 40
1.0
 10
185.5059851119121
 20
106.7485053222722
 30
0.0
 10
185.5011941267891
 20
106.8828383577028
 30
0.0
 10
185.4877265180696
 20
107.2604527131755
 30
0.0
 10
185.4625945015548
 20
107.9653421902021
 30
0.0
 10
185.4393751459857
 20
108.616337208069
 30
0.0
 10
185.4269965254531
 20
108.9634921545395
 30
0.0
 10
185.4236822733482
 20
109.0564394267371
 30
0.0
  0
SPLINE
  5
9F
330
1F
100
AcDbEntity
  8
0
  6
Continuous
 62
     7
370
    15
100
AcDbSpline
210
0.0
220
0.0
230
1.0
 70
     8
 71
     3
 72
    11
 73
     7
 74
     0
 42
0.000000001
 43
0.00000001
 40
0.0
 40
0.0
 40
0.0
 40
0.0
 40
0.1285563536561193
 40
0.4801536168361495
 40
0.8150691535011776
 40
1.0
 40
1.0
 40
1.0
 40
1.0
 10
181.4262259909709
 20
108.9138901457286
 30
0.0
 10
181.4295403294357
 20
108.8209428765619
 30
0.0
 10
181.4419192710907
 20
108.4737879814813
 30
0.0
 10
181.4651330373182
 20
107.8227928177033
 30
0.0
 10
181.4902666883759
 20
107.1179034392519
 30
0.0
 10
181.5037341658314
 20
106.740289078269
 30
0.0
 10
181.5085251042446
 20
106.6059560412636
 30
0.0
  0
CIRCLE
  5
A0
330
1F
100
AcDbEntity
  8
0
  6
Continuous
 62
     7
370
    15
100
AcDbCircle
 10
183.4661042223
 20
107.831197734
 30
0.0
 40
2.399999999999996
  0
SPLINE
  5
A1
330
1F
100
AcDbEntity
  8
0
  6
Continuous
 62
     7
370
    15
100
AcDbSpline
210
0.0
220
0.0
230
1.0
 70
     8
 71
     3
 72
    11
 73
     7
 74
     0
 42
0.000000001
 43
0.00000001
 40
0.0
 40
0.0
 40
0.0
 40
0.0
 40
0.2164527208577642
 40
0.4403048997746942
 40
0.7518958602584441
 40
1.0
 40
1.0
 40
1.0
 40
1.0
 10
181.5085251042446
 20
106.6059560412636
 30
0.0
 10
181.6482572093267
 20
106.5317915980254
 30
0.0
 10
181.9324981755741
 20
106.3809273925886
 30
0.0
 10
182.4599755764434
 20
106.1009597730443
 30
0.0
 10
183.0257991841345
 20
105.8006436978884
 30
0.0
 10
183.3878937645204
 20
105.6084569234607
 30
0.0
 10
183.5484046647152
 20
105.5232635131201
 30
0.0
  0
SPLINE
  5
A2
330
1F
100
AcDbEntity
  8
0
  6
Continuous
 62
     7
370
    15
100
AcDbSpline
210
0.0
220
0.0
230
1.0
 70
     8
 71
     3
 72
    11
 73
     7
 74
     0
 42
0.000000001
 43
0.00000001
 40
0.0
 40
0.0
 40
0.0
 40
0.0
 40
0.2164523116079818
 40
0.4403062467042618
 40
0.751896117409059
 40
0.9999999999999999
 40
0.9999999999999999
 40
0.9999999999999999
 40
0.9999999999999999
 10
183.3838027128776
 20
110.1391319548806
 30
0.0
 10
183.2497090263548
 20
110.0552024973594
 30
0.0
 10
182.976936296967
 20
109.8844736002892
 30
0.0
 10
182.4707376542533
 20
109.56764956754
 30
0.0
 10
181.9277450374616
 20
109.2277895948748
 30
0.0
 10
181.5802606366543
 20
109.0103000244117
 30
0.0
 10
181.4262259909709
 20
108.9138901457286
 30
0.0
  0
SPLINE
  5
A3
330
1F
100
AcDbEntity
  8
0
  6
Continuous
 62
     7
370
    15
100
AcDbSpline
210
0.0
220
0.0
230
1.0
 70
     8
 71
     3
 72
    11
 73
     7
 74
     0
 42
0.000000001
 43
0.00000001
 40
0.0
 40
0.0
 40
0.0
 40
0.0
 40
0.2164532765120283
 40
0.4403056684133291
 40
0.7518951825543074
 40
1.0
 40
1.0
 40
1.0
 40
1.0
 10
183.5484046647152
 20
105.5232635131201
 30
0.0
 10
183.6824998082448
 20
105.6071926731469
 30
0.0
 10
183.9552739272337
 20
105.777919979753
 30
0.0
 10
184.4614699493138
 20
106.0947473333983
 30
0.0
 10
185.0044628321106
 20
106.4346066763573
 30
0.0
 10
185.3519491812923
 20
106.6520955076116
 30
0.0
 10
185.5059851119121
 20
106.7485053222722
 30
0.0
  0
SPLINE
  5
A4
330
1F
100
AcDbEntity
  8
0
  6
Continuous
 62
     7
370
    15
100
AcDbSpline
210
0.0
220
0.0
230
1.0
 70
     8
 71
     3
 72
    11
 73
     7
 74
     0
 42
0.000000001
 43
0.00000001
 40
0.0
 40
0.0
 40
0.0
 40
0.0
 40
0.2164527208577642
 40
0.4403048997746942
 40
0.7518958602584441
 40
1.0
 40
1.0
 40
1.0
 40
1.0
 10
185.4236822733482
 20
109.0564394267371
 30
0.0
 10
185.283950168266
 20
109.1306038699753
 30
0.0
 10
184.9997092020187
 20
109.2814680754121
 30
0.0
 10
184.4722318011493
 20
109.5614356949564
 30
0.0
 10
183.9064081934582
 20
109.8617517701123
 30
0.0
 10
183.5443136130723
 20
110.05393854454
 30
0.0
 10
183.3838027128776
 20
110.1391319548806
 30
0.0
  0
CIRCLE
  5
A5
330
1F
100
AcDbEntity
  8
0
  6
Continuous
 62
     7
370
    15
100
AcDbCircle
 10
183.4661042223
 20
107.831197734
 30
0.0
 40
4.000000000000013
  0
CIRCLE
  5
A6
330
1F
100
AcDbEntity
  8
0
  6
Continuous
 62
     7
370
    15
100
AcDbCircle
 10
183.4661042223
 20
107.831197734
 30
0.0
 40
3.300000000000002
  0
ARC
  5
A7
330
1F
100
AcDbEntity
  8
0
  6
Continuous
 62
     7
370
    15
100
AcDbCircle
 10
183.4661042223
 20
107.831197734
 30
0.0
 40
2.000000000000011
100
AcDbArc
 50
242.0423004038
 51
302.0423004038
  0
ARC
  5
A8
330
1F
100
AcDbEntity
  8
0
  6
Continuous
 62
     7
370
    15
100
AcDbCircle
 10
183.4661042223
 20
107.831197734
 30
0.0
 40
2.000000000000006
100
AcDbArc
 50
2.0423004038
 51
62.0423004038
  0
ARC
  5
A9
330
1F
100
AcDbEntity
  8
0
  6
Continuous
 62
     7
370
    15
100
AcDbCircle
 10
183.4661042223
 20
107.831197734
 30
0.0
 40
2.000000000000011
100
AcDbArc
 50
302.0423004038
 51
2.0423004038
  0
ARC
  5
AA
330
1F
100
AcDbEntity
  8
0
  6
Continuous
 62
     7
370
    15
100
AcDbCircle
 10
183.4661042223
 20
107.831197734
 30
0.0
 40
2.000000000000008
100
AcDbArc
 50
182.0423004038
 51
242.0423004038
  0
ARC
  5
AB
330
1F
100
AcDbEntity
  8
0
  6
Continuous
 62
     7
370
    15
100
AcDbCircle
 10
183.4661042223
 20
107.831197734
 30
0.0
 40
2.000000000000011
100
AcDbArc
 50
62.0423004038
 51
122.0423004038
  0
ARC
  5
AC
330
1F
100
AcDbEntity
  8
0
  6
Continuous
 62
     7
370
    15
100
AcDbCircle
 10
183.4661042223
 20
107.831197734
 30
0.0
 40
2.000000000000011
100
AcDbArc
 50
122.0423004038
 51
182.0423004038
  0
LINE
  5
AD
330
1F
100
AcDbEntity
  8
0
  6
Continuous
 62
     7
370
    15
100
AcDbLine
 10
186.7661055336
 20
123.831198494
 30
0.0
 11
180.1661055693
 21
123.831198494
 31
0.0
  0
LINE
  5
AE
330
1F
100
AcDbEntity
  8
0
  6
Continuous
 62
     7
370
    15
100
AcDbLine
 10
168.9080361435
 20
77.6442801012
 30
0.0
 11
168.9080361435
 21
127.6811984731
 31
0.0
  0
SPLINE
  5
AF
330
1F
100
AcDbEntity
  8
0
  6
Continuous
 62
     7
370
    15
100
AcDbSpline
210
0.0
220
0.0
230
1.0
 70
     8
 71
     3
 72
     8
 73
     4
 74
     0
 42
0.000000001
 43
0.00000001
 40
0.0
 40
0.0
 40
0.0
 40
0.0
 40
1.0
 40
1.0
 40
1.0
 40
1.0
 10
168.908037053747
 20
77.64428003775319
 30
0.0
 10
168.4125573930812
 20
78.53980612568654
 30
0.0
 10
167.9184433450391
 20
79.43609054073879
 30
0.0
 10
167.4261042222579
 20
80.33336057494547
 30
0.0
  0
LINE
  5
B0
330
1F
100
AcDbEntity
  8
0
  6
Continuous
 62
     7
370
    15
100
AcDbLine
 10
167.4261044869
 20
80.333360414
 30
0.0
 11
167.4261044869
 21
127.6811984731
 31
0.0
  0
SPLINE
  5
B1
330
1F
100
AcDbEntity
  8
0
  6
Continuous
 62
     7
370
    15
100
AcDbSpline
210
0.0
220
0.0
230
1.0
 70
    24
 71
     3
 72
     8
 73
     4
 74
     0
 42
0.000000001
 43
0.00000001
 40
0.0
 40
0.0
 40
0.0
 40
0.0
 40
1.0
 40
1.0
 40
1.0
 40
1.0
 10
167.4261042222579
 20
127.6811977340004
 30
0.0
 10
167.9060562166229
 20
127.6811977340004
 30
0.0
 10
168.4013569455965
 20
127.6811977340004
 30
0.0
 10
168.908037053747
 20
127.6811977340004
 30
0.0
  0
LINE
  5
B2
330
1F
100
AcDbEntity
  8
0
  6
Continuous
 62
     7
370
    15
100
AcDbLine
 10
163.6061042705
 20
80.333360414
 30
0.0
 11
163.6061042705
 21
127.6811984731
 31
0.0
  0
SPLINE
  5
B3
330
1F
100
AcDbEntity
  8
0
  6
Continuous
 62
     7
370
    15
100
AcDbSpline
210
0.0
220
0.0
230
1.0
 70
     8
 71
     3
 72
     8
 73
     4
 74
     0
 42
0.000000001
 43
0.00000001
 40
0.0
 40
0.0
 40
0.0
 40
0.0
 40
1.0
 40
1.0
 40
1.0
 40
1.0
 10
163.6061042222579
 20
80.33336057494549
 30
0.0
 10
163.1137650994768
 20
79.43609054073879
 30
0.0
 10
162.6196510514346
 20
78.53980612568654
 30
0.0
 10
162.1241713907689
 20
77.64428003775319
 30
0.0
  0
LINE
  5
B4
330
1F
100
AcDbEntity
  8
0
  6
Continuous
 62
     7
370
    15
100
AcDbLine
 10
162.1241716826
 20
77.6442801012
 30
0.0
 11
162.1241716826
 21
127.6811984731
 31
0.0
  0
SPLINE
  5
B5
330
1F
100
AcDbEntity
  8
0
  6
Continuous
 62
     7
370
    15
100
AcDbSpline
210
0.0
220
0.0
230
1.0
 70
    24
 71
     3
 72
     8
 73
     4
 74
     0
 42
0.000000001
 43
0.00000001
 40
0.0
 40
0.0
 40
0.0
 40
0.0
 40
1.0
 40
1.0
 40
1.0
 40
1.0
 10
162.1241713907689
 20
127.6811977340004
 30
0.0
 10
162.6308514989194
 20
127.6811977340004
 30
0.0
 10
163.1261522278931
 20
127.6811977340004
 30
0.0
 10
163.6061042222579
 20
127.6811977340004
 30
0.0
  0
LINE
  5
B6
330
1F
100
AcDbEntity
  8
0
  6
Continuous
 62
     7
370
    15
100
AcDbLine
 10
173.4661039123
 20
78.2709204955
 30
0.0
 11
173.4661039123
 21
127.6811984731
 31
0.0
  0
SPLINE
  5
B7
330
1F
100
AcDbEntity
  8
0
  6
Continuous
 62
     7
370
    15
100
AcDbSpline
210
0.0
220
0.0
230
1.0
 70
     8
 71
     3
 72
    10
 73
     6
 74
     0
 42
0.000000001
 43
0.00000001
 40
0.0
 40
0.0
 40
0.0
 40
0.0
 40
0.5
 40
0.5
 40
1.0
 40
1.0
 40
1.0
 40
1.0
 10
173.4661042222579
 20
78.27092033340752
 30
0.0
 10
173.4661042222579
 20
78.11103306521385
 30
0.0
 10
173.4047945710221
 20
77.94990580969923
 30
0.0
 10
173.185694933487
 20
77.71580681134442
 30
0.0
 10
173.0276467271736
 20
77.64428003775319
 30
0.0
 10
172.8661042222579
 20
77.64428003775319
 30
0.0
  0
SPLINE
  5
B8
330
1F
100
AcDbEntity
  8
0
  6
Continuous
 62
     7
370
    15
100
AcDbSpline
210
0.0
220
0.0
230
1.0
 70
    24
 71
     3
 72
    12
 73
     8
 74
     0
 42
0.000000001
 43
0.00000001
 40
0.0
 40
0.0
 40
0.0
 40
0.0
 40
0.2500000000000033
 40
0.2500000000000033
 40
0.5000000000000067
 40
0.5000000000000067
 40
1.0
 40
1.0
 40
1.0
 40
1.0
 10
172.8661042222579
 20
127.6811977340004
 30
0.0
 10
172.956343289945
 20
127.6811977340004
 30
0.0
 10
173.0472414040515
 20
127.6811977340004
 30
0.0
 10
173.20183844054
 20
127.6811977340004
 30
0.0
 10
173.2668168566481
 20
127.6811977340004
 30
0.0
 10
173.4186518845844
 20
127.6811977340004
 30
0.0
 10
173.4661042222579
 20
127.6811977340004
 30
0.0
 10
173.4661042222579
 20
127.6811977340004
 30
0.0
  0
LINE
  5
B9
330
1F
100
AcDbEntity
  8
0
  6
Continuous
 62
     7
370
    15
100
AcDbLine
 10
147.5161042223
 20
76.6311985804
 30
0.0
 11
147.5161042223
 21
139.0311968876
 31
0.0
  0
LINE
  5
BA
330
1F
100
AcDbEntity
  8
0
  6
Continuous
 62
     7
370
    15
100
AcDbLine
 10
172.8661049316
 20
77.6442801012
 30
0.0
 11
168.9080361435
 21
77.6442801012
 31
0.0
  0
LINE
  5
BB
330
1F
100
AcDbEntity
  8
0
  6
Continuous
 62
     7
370
    15
100
AcDbLine
 10
168.9080361435
 20
127.6811984731
 30
0.0
 11
172.8661049316
 21
127.6811984731
 31
0.0
  0
LINE
  5
BC
330
1F
100
AcDbEntity
  8
0
  6
Continuous
 62
     7
370
    15
100
AcDbLine
 10
152.4661041954
 20
127.6811984731
 30
0.0
 11
162.1241716826
 21
127.6811984731
 31
0.0
  0
LINE
  5
BD
330
1F
100
AcDbEntity
  8
0
  6
Continuous
 62
     7
370
    15
100
AcDbLine
 10
162.1241716826
 20
77.6442801012
 30
0.0
 11
160.4661045754
 21
77.6442801012
 31
0.0
  0
SPLINE
  5
BE
330
1F
100
AcDbEntity
  8
0
  6
Continuous
 62
     7
370
    15
100
AcDbSpline
210
0.0
220
0.0
230
1.0
 70
     8
 71
     3
 72
    28
 73
    24
 74
     0
 42
0.000000001
 43
0.00000001
 40
0.0
 40
0.0
 40
0.0
 40
0.0
 40
0.1250000000000001
 40
0.1250000000000001
 40
0.1875000000000001
 40
0.1875000000000001
 40
0.2500000000000001
 40
0.2500000000000001
 40
0.3749999999999999
 40
0.3749999999999999
 40
0.4375
 40
0.4375
 40
0.4999999999999999
 40
0.4999999999999999
 40
0.6249999999999999
 40
0.6249999999999999
 40
0.7499999999999997
 40
0.7499999999999997
 40
0.8124999999999998
 40
0.8124999999999998
 40
0.8749999999999998
 40
0.8749999999999998
 40
1.0
 40
1.0
 40
1.0
 40
1.0
 10
160.4661042222579
 20
77.64428003775319
 30
0.0
 10
159.934396464765
 20
77.6442800377532
 30
0.0
 10
159.4121578994547
 20
77.62849532380298
 30
0.0
 10
158.6422874131797
 20
77.58349990972677
 30
0.0
 10
158.3879278409883
 20
77.56494491465105
 30
0.0
 10
157.8838062602898
 20
77.52109219220453
 30
0.0
 10
157.6340834428619
 20
77.49574758525233
 30
0.0
 10
156.9084934914155
 20
77.41234550750222
 30
0.0
 10
156.4501332298339
 20
77.34647994835115
 30
0.0
 10
155.7996352864401
 20
77.23750960785935
 30
0.0
 10
155.5879532356476
 20
77.1992699720927
 30
0.0
 10
155.1838817465096
 20
77.12151123467333
 30
0.0
 10
154.9913752326887
 20
77.082010272498
 30
0.0
 10
154.4415402616675
 20
76.963102530132
 30
0.0
 10
154.1116114833587
 20
76.88328484870739
 30
0.0
 10
153.52714021479
 20
76.72994168691133
 30
0.0
 10
153.2808630767765
 20
76.65860793364207
 30
0.0
 10
152.9810202840785
 20
76.56466442656745
 30
0.0
 10
152.8925634270063
 20
76.53547063320752
 30
0.0
 10
152.7392020737011
 20
76.48200405894411
 30
0.0
 10
152.6741138594749
 20
76.45764472466892
 30
0.0
 10
152.5185198435341
 20
76.39405457922419
 30
0.0
 10
152.4661042222579
 20
76.36395164413493
 30
0.0
 10
152.4661042222579
 20
76.34707475113802
 30
0.0
  0
LINE
  5
BF
330
1F
100
AcDbEntity
  8
0
  6
Continuous
 62
     7
370
    15
100
AcDbLine
 10
152.4661041954
 20
76.3470744146
 30
0.0
 11
152.4661041954
 21
76.3311972274
 31
0.0
  0
SPLINE
  5
C0
330
1F
100
AcDbEntity
  8
0
  6
Continuous
 62
     7
370
    15
100
AcDbSpline
210
0.0
220
0.0
230
1.0
 70
     8
 71
     3
 72
    17
 73
    13
 74
     0
 42
0.000000001
 43
0.00000001
 40
0.0
 40
0.0
 40
0.0
 40
0.0
 40
0.1034797280380778
 40
0.2100239090909901
 40
0.3134862262879433
 40
0.4198361712144981
 40
0.5254127947779869
 40
0.6339610881168427
 40
0.7409508662120068
 40
0.8511696072047016
 40
0.9558996557845765
 40
1.0
 40
1.0
 40
1.0
 40
1.0
 10
160.4661045754155
 20
138.2983931703588
 30
0.0
 10
160.0308560836895
 20
138.3038411619964
 30
0.0
 10
159.1474696331125
 20
138.3148984823251
 30
0.0
 10
157.8666417708898
 20
138.4012572427001
 30
0.0
 10
156.6492255754479
 20
138.5291283858331
 30
0.0
 10
155.541418959122
 20
138.6880727931516
 30
0.0
 10
154.5531804797932
 20
138.8625673661362
 30
0.0
 10
153.7284573799774
 20
139.0317337993231
 30
0.0
 10
153.0795037224788
 20
139.1796146077908
 30
0.0
 10
152.6624684189991
 20
139.2814053593134
 30
0.0
 10
152.4638716761212
 20
139.3317622589478
 30
0.0
 10
152.4871847931091
 20
139.3258526539723
 30
0.0
 10
152.4940927671095
 20
139.3241015626213
 30
0.0
  0
LINE
  5
C1
330
1F
100
AcDbEntity
  8
0
  6
Continuous
 62
     7
370
    15
100
AcDbLine
 10
162.1241716826
 20
138.2983931704
 30
0.0
 11
160.4661045754
 21
138.2983931704
 31
0.0
  0
LINE
  5
C2
330
1F
100
AcDbEntity
  8
0
  6
Continuous
 62
     7
370
    15
100
AcDbLine
 10
162.1241716826
 20
132.2898873491
 30
0.0
 11
162.1241716826
 21
138.2983931704
 31
0.0
  0
LINE
  5
C3
330
1F
100
AcDbEntity
  8
0
  6
Continuous
 62
     7
370
    15
100
AcDbLine
 10
159.7117249081
 20
132.2898873491
 30
0.0
 11
162.1241716826
 21
132.2898873491
 31
0.0
  0
SPLINE
  5
C4
330
1F
100
AcDbEntity
  8
0
  6
Continuous
 62
     7
370
    15
100
AcDbSpline
210
0.0
220
0.0
230
1.0
 70
     8
 71
     3
 72
    20
 73
    16
 74
     0
 42
0.000000001
 43
0.00000001
 40
0.0
 40
0.0
 40
0.0
 40
0.0
 40
0.2499999999999997
 40
0.2499999999999997
 40
0.3749999999999997
 40
0.3749999999999997
 40
0.4999999999999998
 40
0.4999999999999998
 40
0.6249999999999998
 40
0.6249999999999998
 40
0.7499999999999999
 40
0.7499999999999999
 40
0.8749999999999999
 40
0.8749999999999999
 40
1.0
 40
1.0
 40
1.0
 40
1.0
 10
152.4661042222579
 20
127.6811977340004
 30
0.0
 10
152.714477956546
 20
128.3350601622978
 30
0.0
 10
153.0340480488913
 20
128.9388459442949
 30
0.0
 10
153.6563542820959
 20
129.7656846804635
 30
0.0
 10
153.8877785425267
 20
130.0281133184164
 30
0.0
 10
154.4089928821764
 20
130.5247759725214
 30
0.0
 10
154.6956133648115
 20
130.7553628515429
 30
0.0
 10
155.3150981061191
 20
131.1719170761255
 30
0.0
 10
155.649398485606
 20
131.3594148780931
 30
0.0
 10
156.3746589582309
 20
131.6908118557295
 30
0.0
 10
156.7565740156213
 20
131.8303158432248
 30
0.0
 10
157.551362191793
 20
132.0557693506957
 30
0.0
 10
157.9655203859994
 20
132.1423954622393
 30
0.0
 10
158.8310667265808
 20
132.2603762510935
 30
0.0
 10
159.2689543415926
 20
132.2898873963678
 30
0.0
 10
159.7117245679472
 20
132.2898873963678
 30
0.0
  0
SPLINE
  5
C5
330
1F
100
AcDbEntity
  8
0
  6
Continuous
 62
     7
370
    15
100
AcDbSpline
210
0.0
220
0.0
230
1.0
 70
    24
 71
     3
 72
    14
 73
    10
 74
     0
 42
0.000000001
 43
0.00000001
 40
0.0
 40
0.0
 40
0.0
 40
0.0
 40
0.5000000000000022
 40
0.5000000000000022
 40
0.7500000000000008
 40
0.7500000000000008
 40
0.8750000000000004
 40
0.8750000000000004
 40
1.0
 40
1.0
 40
1.0
 40
1.0
 10
167.3284294199256
 20
81.43119773400035
 30
0.0
 10
167.2812192606958
 20
81.43119773400035
 30
0.0
 10
167.2179847871522
 20
81.43119773400036
 30
0.0
 10
167.0741728564243
 20
81.43119773400036
 30
0.0
 10
167.0188477819478
 20
81.43119773400036
 30
0.0
 10
166.9069366087128
 20
81.43119773400036
 30
0.0
 10
166.8641495222718
 20
81.43119773400035
 30
0.0
 10
166.7597841892382
 20
81.43119773400035
 30
0.0
 10
166.6955603949365
 20
81.43119773400035
 30
0.0
 10
166.6261042223134
 20
81.43119773400035
 30
0.0
  0
SPLINE
  5
C6
330
1F
100
AcDbEntity
  8
0
  6
Continuous
 62
     7
370
    15
100
AcDbSpline
210
0.0
220
0.0
230
1.0
 70
    24
 71
     3
 72
    12
 73
     8
 74
     0
 42
0.000000001
 43
0.00000001
 40
0.0
 40
0.0
 40
0.0
 40
0.0
 40
0.4999999999999983
 40
0.4999999999999983
 40
0.7499999999999991
 40
0.7499999999999991
 40
1.0
 40
1.0
 40
1.0
 40
1.0
 10
167.0318066905672
 20
134.2311977340003
 30
0.0
 10
166.9883685027642
 20
134.2311977340003
 30
0.0
 10
166.9391742544662
 20
134.2311977340003
 30
0.0
 10
166.8424554970852
 20
134.2311977340003
 30
0.0
 10
166.8062680155835
 20
134.2311977340003
 30
0.0
 10
166.7233901570588
 20
134.2311977340003
 30
0.0
 10
166.675436709752
 20
134.2311977340003
 30
0.0
 10
166.6261042222579
 20
134.2311977340003
 30
0.0
  0
SPLINE
  5
C7
330
1F
100
AcDbEntity
  8
0
  6
Continuous
 62
     7
370
    15
100
AcDbSpline
210
0.0
220
0.0
230
1.0
 70
     8
 71
     3
 72
    10
 73
     6
 74
     0
 42
0.000000001
 43
0.00000001
 40
0.0
 40
0.0
 40
0.0
 40
0.0
 40
0.5
 40
0.5
 40
1.0
 40
1.0
 40
1.0
 40
1.0
 10
167.4261042222579
 20
134.9508515850361
 30
0.0
 10
167.4261042222579
 20
134.8070815272183
 30
0.0
 10
167.3900551635392
 20
134.6646621647234
 30
0.0
 10
167.2545463027655
 20
134.4147678713664
 30
0.0
 10
167.1546703096697
 20
134.3067375351183
 30
0.0
 10
167.0318066905681
 20
134.231197734001
 30
0.0
  0
SPLINE
  5
C8
330
1F
100
AcDbEntity
  8
0
  6
Continuous
 62
     7
370
    15
100
AcDbSpline
210
0.0
220
0.0
230
1.0
 70
     8
 71
     3
 72
     9
 73
     5
 74
     0
 42
0.000000001
 43
0.00000001
 40
0.0
 40
0.0
 40
0.0
 40
0.0
 40
0.5
 40
1.0
 40
1.0
 40
1.0
 40
1.0
 10
167.3999565990978
 20
127.6811977340004
 30
0.0
 10
167.4086951689802
 20
127.7283405343357
 30
0.0
 10
167.4217144553166
 20
127.8231366160063
 30
0.0
 10
167.4261042222579
 20
127.9189208875666
 30
0.0
 10
167.4261042222579
 20
127.9670643654617
 30
0.0
  0
SPLINE
  5
C9
330
1F
100
AcDbEntity
  8
0
  6
Continuous
 62
     7
370
    15
100
AcDbSpline
210
0.0
220
0.0
230
1.0
 70
     8
 71
     3
 72
    10
 73
     6
 74
     0
 42
0.000000001
 43
0.00000001
 40
0.0
 40
0.0
 40
0.0
 40
0.0
 40
0.5
 40
0.5
 40
1.0
 40
1.0
 40
1.0
 40
1.0
 10
164.0004017539489
 20
134.2311977340003
 30
0.0
 10
163.8788614902804
 20
134.3059239012121
 30
0.0
 10
163.7775271299314
 20
134.4148689171289
 30
0.0
 10
163.641888187043
 20
134.6652993978905
 30
0.0
 10
163.6061042222579
 20
134.8077187599894
 30
0.0
 10
163.6061042222579
 20
134.9508515850361
 30
0.0
  0
SPLINE
  5
CA
330
1F
100
AcDbEntity
  8
0
  6
Continuous
 62
     7
370
    15
100
AcDbSpline
210
0.0
220
0.0
230
1.0
 70
    24
 71
     3
 72
    12
 73
     8
 74
     0
 42
0.000000001
 43
0.00000001
 40
0.0
 40
0.0
 40
0.0
 40
0.0
 40
0.2500000000000046
 40
0.2500000000000046
 40
0.5000000000000091
 40
0.5000000000000091
 40
1.0
 40
1.0
 40
1.0
 40
1.0
 10
164.4061042222579
 20
134.2311977340003
 30
0.0
 10
164.3562275399405
 20
134.2311977340003
 30
0.0
 10
164.3082243465369
 20
134.2311977340003
 30
0.0
 10
164.2251762438249
 20
134.2311977340003
 30
0.0
 10
164.1890466643571
 20
134.2311977340003
 30
0.0
 10
164.0931346334129
 20
134.2311977340003
 30
0.0
 10
164.0433759654441
 20
134.2311977340003
 30
0.0
 10
164.0004017539489
 20
134.2311977340003
 30
0.0
  0
SPLINE
  5
CB
330
1F
100
AcDbEntity
  8
0
  6
Continuous
 62
     7
370
    15
100
AcDbSpline
210
0.0
220
0.0
230
1.0
 70
    24
 71
     3
 72
    14
 73
    10
 74
     0
 42
0.000000001
 43
0.00000001
 40
0.0
 40
0.0
 40
0.0
 40
0.0
 40
0.1249999999999991
 40
0.1249999999999991
 40
0.2499999999999982
 40
0.2499999999999982
 40
0.4999999999999998
 40
0.4999999999999998
 40
1.0
 40
1.0
 40
1.0
 40
1.0
 10
164.4061042222579
 20
81.43119773400035
 30
0.0
 10
164.3376663743715
 20
81.43119773400035
 30
0.0
 10
164.2721163356064
 20
81.43119773400036
 30
0.0
 10
164.1676896961985
 20
81.43119773400036
 30
0.0
 10
164.125145086437
 20
81.43119773400036
 30
0.0
 10
164.0125356258968
 20
81.43119773400035
 30
0.0
 10
163.9569965788773
 20
81.43119773400035
 30
0.0
 10
163.8143848834135
 20
81.43119773400035
 30
0.0
 10
163.7509795284178
 20
81.43119773400035
 30
0.0
 10
163.7037790245902
 20
81.43119773400035
 30
0.0
  0
SPLINE
  5
CC
330
1F
100
AcDbEntity
  8
0
  6
Continuous
 62
     7
370
    15
100
AcDbSpline
210
0.0
220
0.0
230
1.0
 70
     8
 71
     3
 72
    10
 73
     6
 74
     0
 42
0.000000001
 43
0.00000001
 40
0.0
 40
0.0
 40
0.0
 40
0.0
 40
0.5
 40
0.5
 40
1.0
 40
1.0
 40
1.0
 40
1.0
 10
163.6061042222579
 20
127.9670643654617
 30
0.0
 10
163.6061042222579
 20
127.9192928574684
 30
0.0
 10
163.6082654658551
 20
127.8715831354068
 30
0.0
 10
163.6169368397153
 20
127.7762880178585
 30
0.0
 10
163.6234660226712
 20
127.7285954538918
 30
0.0
 10
163.6322518454181
 20
127.6811977340004
 30
0.0
  0
LINE
  5
CD
330
1F
100
AcDbEntity
  8
0
  6
Continuous
 62
     7
370
    15
100
AcDbLine
 10
166.6261039832
 20
134.2311975909
 30
0.0
 11
164.4061047742
 21
134.2311975909
 31
0.0
  0
LINE
  5
CE
330
1F
100
AcDbEntity
  8
0
  6
Continuous
 62
     7
370
    15
100
AcDbLine
 10
166.6261039832
 20
81.4311978771
 30
0.0
 11
164.4061047742
 21
81.4311978771
 31
0.0
  0
LINE
  5
CF
330
1F
100
AcDbEntity
  8
0
  6
Continuous
 62
     7
370
    15
100
AcDbLine
 10
125.7161040017
 20
84.6027517123
 30
0.0
 11
125.7161040017
 21
85.867459829
 31
0.0
  0
SPLINE
  5
D0
330
1F
100
AcDbEntity
  8
0
  6
Continuous
 62
     7
370
    15
100
AcDbSpline
210
0.0
220
0.0
230
1.0
 70
     8
 71
     3
 72
    14
 73
    10
 74
     0
 42
0.000000001
 43
0.00000001
 40
0.0
 40
0.0
 40
0.0
 40
0.0
 40
0.25
 40
0.25
 40
0.5
 40
0.5
 40
0.75
 40
0.75
 40
1.0
 40
1.0
 40
1.0
 40
1.0
 10
124.9378171043422
 20
86.9980464104404
 30
0.0
 10
124.9944437795443
 20
86.89034895660353
 30
0.0
 10
125.088966439834
 20
86.78755937488422
 30
0.0
 10
125.2720114153963
 20
86.58920206266407
 30
0.0
 10
125.363637992351
 20
86.49314255398582
 30
0.0
 10
125.5224913100442
 20
86.30561351127658
 30
0.0
 10
125.5903819176659
 20
86.21420453849302
 30
0.0
 10
125.6872989433735
 20
86.03582831758287
 30
0.0
 10
125.7161042222585
 20
85.9486064113367
 30
0.0
 10
125.7161042222585
 20
85.86746020280245
 30
0.0
  0
SPLINE
  5
D1
330
1F
100
AcDbEntity
  8
0
  6
Continuous
 62
     7
370
    15
100
AcDbSpline
210
0.0
220
0.0
230
1.0
 70
     8
 71
     3
 72
    14
 73
    10
 74
     0
 42
0.000000001
 43
0.00000001
 40
0.0
 40
0.0
 40
0.0
 40
0.0
 40
0.1250000000000025
 40
0.1250000000000025
 40
0.250000000000005
 40
0.250000000000005
 40
0.5000000000000009
 40
0.5000000000000009
 40
1.0
 40
1.0
 40
1.0
 40
1.0
 10
124.3161042222579
 20
87.4447282727197
 30
0.0
 10
124.3646486309151
 20
87.45047658600001
 30
0.0
 10
124.4175639857
 20
87.44737569734376
 30
0.0
 10
124.512859330683
 20
87.42518085318143
 30
0.0
 10
124.553110327968
 20
87.40794862608558
 30
0.0
 10
124.657380341481
 20
87.35162070963352
 30
0.0
 10
124.7077023166343
 20
87.30743436368773
 30
0.0
 10
124.8353852641597
 20
87.1764264648371
 30
0.0
 10
124.8914707112219
 20
87.08619194460681
 30
0.0
 10
124.9378171043437
 20
86.99804641044092
 30
0.0
  0
SPLINE
  5
D2
330
1F
100
AcDbEntity
  8
0
  6
Continuous
 62
     7
370
    15
100
AcDbSpline
210
0.0
220
0.0
230
1.0
 70
     8
 71
     3
 72
     8
 73
     4
 74
     0
 42
0.000000001
 43
0.00000001
 40
0.0
 40
0.0
 40
0.0
 40
0.0
 40
1.0
 40
1.0
 40
1.0
 40
1.0
 10
122.0475791293117
 20
87.13488298613692
 30
0.0
 10
122.7821561557947
 20
87.25350799720589
 30
0.0
 10
123.5456312251903
 20
87.35349386934216
 30
0.0
 10
124.3161042222579
 20
87.4447282727197
 30
0.0
  0
SPLINE
  5
D3
330
1F
100
AcDbEntity
  8
0
  6
Continuous
 62
     7
370
    15
100
AcDbSpline
210
0.0
220
0.0
230
1.0
 70
     8
 71
     3
 72
    14
 73
    10
 74
     0
 42
0.000000001
 43
0.00000001
 40
0.0
 40
0.0
 40
0.0
 40
0.0
 40
0.4999999999999999
 40
0.4999999999999999
 40
0.7499999999999998
 40
0.7499999999999998
 40
0.8749999999999999
 40
0.8749999999999999
 40
1.0
 40
1.0
 40
1.0
 40
1.0
 10
116.7661042222579
 20
86.96125996860528
 30
0.0
 10
117.6582503528115
 20
86.96053774240463
 30
0.0
 10
118.5482267886051
 20
86.96512394886209
 30
0.0
 10
119.8748219556807
 20
86.99284895325363
 30
0.0
 10
120.3156688841795
 20
87.0054554908778
 30
0.0
 10
120.9721091216019
 20
87.03647163888525
 30
0.0
 10
121.1901227781938
 20
87.04881481151203
 30
0.0
 10
121.6228316318766
 20
87.0818388666753
 30
0.0
 10
121.8381080970413
 20
87.10105603181374
 30
0.0
 10
122.0475791293117
 20
87.13488298613692
 30
0.0
  0
SPLINE
  5
D4
330
1F
100
AcDbEntity
  8
0
  6
Continuous
 62
     7
370
    15
100
AcDbSpline
210
0.0
220
0.0
230
1.0
 70
     8
 71
     3
 72
     8
 73
     4
 74
     0
 42
0.000000001
 43
0.00000001
 40
0.0000005163856998
 40
0.0000005163856998
 40
0.0000005163856998
 40
0.0000005163856998
 40
0.000026289209185
 40
0.000026289209185
 40
0.000026289209185
 40
0.000026289209185
 10
116.7560592918503
 20
86.97124384170206
 30
0.0
 10
116.7593870300582
 20
86.96790959483295
 30
0.0
 10
116.7627354830338
 20
86.96458163755763
 30
0.0
 10
116.7661042222579
 20
86.96125996860526
 30
0.0
  0
SPLINE
  5
D5
330
1F
100
AcDbEntity
  8
0
  6
Continuous
 62
     7
370
    15
100
AcDbSpline
210
0.0
220
0.0
230
1.0
 70
     8
 71
     3
 72
     8
 73
     4
 74
     0
 42
0.000000001
 43
0.00000001
 40
0.0000005099763573
 40
0.0000005099763573
 40
0.0000005099763573
 40
0.0000005099763573
 40
0.0000262827998699
 40
0.0000262827998699
 40
0.0000262827998699
 40
0.0000262827998699
 10
116.7661042222579
 20
128.7011354993954
 30
0.0
 10
116.7627354830302
 20
128.6978138304395
 30
0.0
 10
116.759387030051
 20
128.6944858731607
 30
0.0
 10
116.7560592918397
 20
128.691151626288
 30
0.0
  0
SPLINE
  5
D6
330
1F
100
AcDbEntity
  8
0
  6
Continuous
 62
     7
370
    15
100
AcDbSpline
210
0.0
220
0.0
230
1.0
 70
     8
 71
     3
 72
    10
 73
     6
 74
     0
 42
0.000000001
 43
0.00000001
 40
0.0
 40
0.0
 40
0.0
 40
0.0
 40
0.5
 40
0.5
 40
1.0
 40
1.0
 40
1.0
 40
1.0
 10
120.3161042222579
 20
128.6542851258281
 30
0.0
 10
119.7285186751674
 20
128.6753506460645
 30
0.0
 10
119.137772281707
 20
128.6861091319367
 30
0.0
 10
117.9537531164081
 20
128.6994739124724
 30
0.0
 10
117.3603391282027
 20
128.701616555137
 30
0.0
 10
116.7661042222579
 20
128.7011354993954
 30
0.0
  0
SPLINE
  5
D7
330
1F
100
AcDbEntity
  8
0
  6
Continuous
 62
     7
370
    15
100
AcDbSpline
210
0.0
220
0.0
230
1.0
 70
     8
 71
     3
 72
    18
 73
    14
 74
     0
 42
0.000000001
 43
0.00000001
 40
0.0
 40
0.0
 40
0.0
 40
0.0
 40
0.2499999999999996
 40
0.2499999999999996
 40
0.5
 40
0.5
 40
0.7500000000000003
 40
0.7500000000000003
 40
0.8750000000000002
 40
0.8750000000000002
 40
0.9375000000000001
 40
0.9375000000000001
 40
1.0
 40
1.0
 40
1.0
 40
1.0
 10
121.716104222258
 20
129.6753054063633
 30
0.0
 10
121.716104222258
 20
129.5920984975061
 30
0.0
 10
121.6802551223197
 20
129.5033618421926
 30
0.0
 10
121.5553833862858
 20
129.3212366516323
 30
0.0
 10
121.4649829686379
 20
129.2261066030057
 30
0.0
 10
121.2427403138957
 20
129.0369250938814
 30
0.0
 10
121.11297552745
 20
128.9419799257867
 30
0.0
 10
120.8723380701384
 20
128.8037012182067
 30
0.0
 10
120.784570772001
 20
128.7579907849044
 30
0.0
 10
120.6300466847942
 20
128.7001674796829
 30
0.0
 10
120.5734357987394
 20
128.682452715645
 30
0.0
 10
120.4493917678328
 20
128.6579134124121
 30
0.0
 10
120.3816770928146
 20
128.6519342738738
 30
0.0
 10
120.3161042222579
 20
128.6542851258281
 30
0.0
  0
LINE
  5
D8
330
1F
100
AcDbEntity
  8
0
  6
Continuous
 62
     7
370
    15
100
AcDbLine
 10
121.7161033461
 20
129.6753053917
 30
0.0
 11
121.7161033461
 21
130.8592436267
 31
0.0
  0
LINE
  5
D9
330
1F
100
AcDbEntity
  8
0
  6
Continuous
 62
     7
370
    15
100
AcDbLine
 10
145.5161041273
 20
83.6107665105
 30
0.0
 11
145.5161041273
 21
132.0516289575
 31
0.0
  0
SPLINE
  5
DA
330
1F
100
AcDbEntity
  8
0
  6
Continuous
 62
     7
370
    15
100
AcDbSpline
210
0.0
220
0.0
230
1.0
 70
     8
 71
     3
 72
    24
 73
    20
 74
     0
 42
0.000000001
 43
0.00000001
 40
0.0
 40
0.0
 40
0.0
 40
0.0
 40
0.0010489815523775
 40
0.0637843212772741
 40
0.1272220630088516
 40
0.1903789073370505
 40
0.2526748662763491
 40
0.3146354150030102
 40
0.3770891884518245
 40
0.4393540587943444
 40
0.5008133488401828
 40
0.5621845177353679
 40
0.6248438462901906
 40
0.6874304788646655
 40
0.7496743245911356
 40
0.811984857412469
 40
0.8750960476811308
 40
0.9384412548145236
 40
1.0
 40
1.0
 40
1.0
 40
1.0
 10
134.2850102269848
 20
84.17368953955379
 30
0.0
 10
134.2845635612341
 20
84.1736308945873
 30
0.0
 10
134.2574036253105
 20
84.17006493160662
 30
0.0
 10
134.3530335484423
 20
84.18292954108182
 30
0.0
 10
134.5865867244628
 20
84.21216402342188
 30
0.0
 10
134.9821426766972
 20
84.2587832341633
 30
0.0
 10
135.5091826770673
 20
84.30896403358847
 30
0.0
 10
136.1527131189035
 20
84.35334270703152
 30
0.0
 10
136.8913869531732
 20
84.38028590354232
 30
0.0
 10
137.6889016232921
 20
84.38375765184445
 30
0.0
 10
138.5154806730567
 20
84.35613220555102
 30
0.0
 10
139.3410034944753
 20
84.29765106257238
 30
0.0
 10
140.133129965391
 20
84.2122079991738
 30
0.0
 10
140.8657023442283
 20
84.11047283068127
 30
0.0
 10
141.5013425260491
 20
84.00262917963336
 30
0.0
 10
142.0232534565953
 20
83.90099778435852
 30
0.0
 10
142.4048822942342
 20
83.81851582006603
 30
0.0
 10
142.6556969701676
 20
83.76236371255912
 30
0.0
 10
142.6848182858749
 20
83.75551486164625
 30
0.0
 10
142.6991706872185
 20
83.75213941467014
 30
0.0
  0
SPLINE
  5
DB
330
1F
100
AcDbEntity
  8
0
  6
Continuous
 62
     7
370
    15
100
AcDbSpline
210
0.0
220
0.0
230
1.0
 70
     8
 71
     3
 72
    24
 73
    20
 74
     0
 42
0.000000001
 43
0.00000001
 40
0.0
 40
0.0
 40
0.0
 40
0.0
 40
0.061438429114026
 40
0.1250736777967296
 40
0.1884253375120635
 40
0.2508623992448768
 40
0.3129665476325514
 40
0.3753451442328022
 40
0.4377328732174486
 40
0.499092717251918
 40
0.560580729454827
 40
0.622946985474185
 40
0.6854686070210457
 40
0.7475477863222202
 40
0.8098225081553685
 40
0.873068419947611
 40
0.936404185690527
 40
0.9991757203144552
 40
1.0
 40
1.0
 40
1.0
 40
1.0
 10
142.6991162048479
 20
131.9102262510082
 30
0.0
 10
142.6845153963957
 20
131.9068580931352
 30
0.0
 10
142.6547917065447
 20
131.9000013440508
 30
0.0
 10
142.4020537065588
 20
131.8436635241547
 30
0.0
 10
142.0190584075376
 20
131.7608057112695
 30
0.0
 10
141.4967024506547
 20
131.6588989630484
 30
0.0
 10
140.861918105953
 20
131.5510603931594
 30
0.0
 10
140.1316943693389
 20
131.4495941399304
 30
0.0
 10
139.3412262744278
 20
131.3645320613632
 30
0.0
 10
138.5167425469701
 20
131.3063307044066
 30
0.0
 10
137.68970616649
 20
131.278746256722
 30
0.0
 10
136.8913817074995
 20
131.2822401852562
 30
0.0
 10
136.1515579564999
 20
131.3091938439298
 30
0.0
 10
135.5073030850403
 20
131.3535493445432
 30
0.0
 10
134.9798962279427
 20
131.403754528266
 30
0.0
 10
134.5852309876296
 20
131.4503619883112
 30
0.0
 10
134.3527023020415
 20
131.4795651651496
 30
0.0
 10
134.2573230733752
 20
131.4923233038668
 30
0.0
 10
134.284256017702
 20
131.488783473948
 30
0.0
 10
134.2846051016649
 20
131.4887375934144
 30
0.0
  0
SPLINE
  5
DC
330
1F
100
AcDbEntity
  8
0
  6
Continuous
 62
     7
370
    15
100
AcDbSpline
210
0.0
220
0.0
230
1.0
 70
     8
 71
     3
 72
     9
 73
     5
 74
     0
 42
0.000000001
 43
0.00000001
 40
0.0
 40
0.0
 40
0.0
 40
0.0
 40
0.7009339503679092
 40
0.9999999999999999
 40
0.9999999999999999
 40
0.9999999999999999
 40
0.9999999999999999
 10
115.6368877896865
 20
88.12991803419796
 30
0.0
 10
115.6460284606364
 20
88.11208875043705
 30
0.0
 10
115.6590691628952
 20
88.08665228277626
 30
0.0
 10
115.6742326261634
 20
88.1405316422498
 30
0.0
 10
115.6787675032218
 20
88.15664512944427
 30
0.0
  0
LINE
  5
DD
330
1F
100
AcDbEntity
  8
0
  6
Continuous
 62
     7
370
    15
100
AcDbLine
 10
115.6161043951
 20
88.1405202104
 30
0.0
 11
115.6161043951
 21
127.5218752576
 31
0.0
  0
SPLINE
  5
DE
330
1F
100
AcDbEntity
  8
0
  6
Continuous
 62
     7
370
    15
100
AcDbSpline
210
0.0
220
0.0
230
1.0
 70
     8
 71
     3
 72
     9
 73
     5
 74
     0
 42
0.000000001
 43
0.00000001
 40
0.0
 40
0.0
 40
0.0
 40
0.0
 40
0.8063525072285384
 40
1.0
 40
1.0
 40
1.0
 40
1.0
 10
115.6787675032218
 20
127.5057503385564
 30
0.0
 10
115.6625848476137
 20
127.542079904611
 30
0.0
 10
115.6425158883645
 20
127.5871341032758
 30
0.0
 10
115.6332754973131
 20
127.560728575999
 30
0.0
 10
115.6314861187538
 20
127.5556152118465
 30
0.0
  0
SPLINE
  5
DF
330
1F
100
AcDbEntity
  8
0
  6
Continuous
 62
     7
370
    15
100
AcDbSpline
210
0.0
220
0.0
230
1.0
 70
     8
 71
     3
 72
    26
 73
    22
 74
     0
 42
0.000000001
 43
0.00000001
 40
0.0
 40
0.0
 40
0.0
 40
0.0
 40
0.250000000000008
 40
0.250000000000008
 40
0.3750000000000121
 40
0.3750000000000121
 40
0.4375000000000128
 40
0.4375000000000128
 40
0.4687500000000128
 40
0.4687500000000128
 40
0.5000000000000127
 40
0.5000000000000127
 40
0.5312500000000125
 40
0.5312500000000125
 40
0.5625000000000124
 40
0.5625000000000124
 40
0.62500000000001
 40
0.62500000000001
 40
0.7500000000000072
 40
0.7500000000000072
 40
1.0
 40
1.0
 40
1.0
 40
1.0
 10
116.4402578683625
 20
128.2213170675982
 30
0.0
 10
116.401657345494
 20
128.1035423712428
 30
0.0
 10
116.3553603429397
 20
127.9791526850808
 30
0.0
 10
116.2614209945058
 20
127.7739333527273
 30
0.0
 10
116.2261095275923
 20
127.7023604862809
 30
0.0
 10
116.1599295518467
 20
127.5864072536804
 30
0.0
 10
116.1353911851785
 20
127.5458227188702
 30
0.0
 10
116.0920184396246
 20
127.4816810369985
 30
0.0
 10
116.0765100381994
 20
127.4598146117134
 30
0.0
 10
116.0414673936124
 20
127.4142203433702
 30
0.0
 10
116.0219171028926
 20
127.3905500524028
 30
0.0
 10
115.9799898225221
 20
127.3459334930629
 30
0.0
 10
115.9573377122904
 20
127.325053480545
 30
0.0
 10
115.9163639982038
 20
127.2941800667941
 30
0.0
 10
115.8987646983084
 20
127.2843411969617
 30
0.0
 10
115.8541377124522
 20
127.2653515812656
 30
0.0
 10
115.8335784897989
 20
127.2650272566121
 30
0.0
 10
115.7824530503022
 20
127.2742506974883
 30
0.0
 10
115.7615416373137
 20
127.2954975937053
 30
0.0
 10
115.7100917297527
 20
127.369466472536
 30
0.0
 10
115.6924264304482
 20
127.4355845658508
 30
0.0
 10
115.6787675969813
 20
127.5057502787811
 30
0.0
  0
SPLINE
  5
E0
330
1F
100
AcDbEntity
  8
0
  6
Continuous
 62
     7
370
    15
100
AcDbSpline
210
0.0
220
0.0
230
1.0
 70
     8
 71
     3
 72
    10
 73
     6
 74
     0
 42
0.000000001
 43
0.00000001
 40
0.0
 40
0.0
 40
0.0
 40
0.0
 40
0.5
 40
0.5
 40
1.0
 40
1.0
 40
1.0
 40
1.0
 10
116.7560592918397
 20
128.691151626288
 30
0.0
 10
116.6885000369215
 20
128.6234602334782
 30
0.0
 10
116.624863381585
 20
128.5487530687246
 30
0.0
 10
116.5146426270131
 20
128.389786936298
 30
0.0
 10
116.4678263337905
 20
128.3054316702899
 30
0.0
 10
116.4402578683625
 20
128.2213170675982
 30
0.0
  0
SPLINE
  5
E1
330
1F
100
AcDbEntity
  8
0
  6
Continuous
 62
     7
370
    15
100
AcDbSpline
210
0.0
220
0.0
230
1.0
 70
     8
 71
     3
 72
    10
 73
     6
 74
     0
 42
0.000000001
 43
0.00000001
 40
0.0
 40
0.0
 40
0.0
 40
0.0
 40
0.5
 40
0.5
 40
1.0
 40
1.0
 40
1.0
 40
1.0
 10
116.4402578683625
 20
87.44107840040239
 30
0.0
 10
116.4677352831165
 20
87.35724160393448
 30
0.0
 10
116.5144439134059
 20
87.27293111634536
 30
0.0
 10
116.6247223761519
 20
87.11380988585866
 30
0.0
 10
116.6886099147657
 20
87.038825141769
 30
0.0
 10
116.7560592918503
 20
86.97124384170208
 30
0.0
  0
SPLINE
  5
E2
330
1F
100
AcDbEntity
  8
0
  6
Continuous
 62
     7
370
    15
100
AcDbSpline
210
0.0
220
0.0
230
1.0
 70
     8
 71
     3
 72
    24
 73
    20
 74
     0
 42
0.000000001
 43
0.00000001
 40
0.0
 40
0.0
 40
0.0
 40
0.0
 40
0.2500000000000034
 40
0.2500000000000034
 40
0.3750000000000043
 40
0.3750000000000043
 40
0.4375000000000036
 40
0.4375000000000036
 40
0.4687500000000054
 40
0.4687500000000054
 40
0.5000000000000073
 40
0.5000000000000073
 40
0.5625000000000063
 40
0.5625000000000063
 40
0.6250000000000052
 40
0.6250000000000052
 40
0.7500000000000029
 40
0.7500000000000029
 40
1.0
 40
1.0
 40
1.0
 40
1.0
 10
115.6787675969813
 20
88.15664518921962
 30
0.0
 10
115.6925207156516
 20
88.2272952472099
 30
0.0
 10
115.7102932830574
 20
88.29389335997482
 30
0.0
 10
115.7625443746128
 20
88.36799138020803
 30
0.0
 10
115.7835794501944
 20
88.38924918736959
 30
0.0
 10
115.8364798578228
 20
88.39739511351583
 30
0.0
 10
115.8575855307007
 20
88.39645531012005
 30
0.0
 10
115.9036376993787
 20
88.37543931854269
 30
0.0
 10
115.9220081713621
 20
88.36453051243507
 30
0.0
 10
115.9635598064278
 20
88.33189560148769
 30
0.0
 10
115.9861264791847
 20
88.31040362111634
 30
0.0
 10
116.0489074956447
 20
88.24193767753002
 30
0.0
 10
116.0820372566126
 20
88.19586321932493
 30
0.0
 10
116.1389549430976
 20
88.11085533099026
 30
0.0
 10
116.1631409686014
 20
88.0705750298089
 30
0.0
 10
116.2283489189812
 20
87.95563880334295
 30
0.0
 10
116.2630649791724
 20
87.88505581819594
 30
0.0
 10
116.3562802495033
 20
87.68085005911733
 30
0.0
 10
116.4019527848639
 20
87.55795167678997
 30
0.0
 10
116.4402578683625
 20
87.44107840040242
 30
0.0
  0
LINE
  5
E3
330
1F
100
AcDbEntity
  8
0
  6
Continuous
 62
     7
370
    15
100
AcDbLine
 10
167.4261044869
 20
127.9670642121
 30
0.0
 11
167.4261044869
 21
128.8813417209
 31
0.0
  0
SPLINE
  5
E4
330
1F
100
AcDbEntity
  8
0
  6
Continuous
 62
     7
370
    15
100
AcDbSpline
210
0.0
220
0.0
230
1.0
 70
     8
 71
     3
 72
     8
 73
     4
 74
     0
 42
0.000000001
 43
0.00000001
 40
0.0
 40
0.0
 40
0.0
 40
0.0
 40
1.0
 40
1.0
 40
1.0
 40
1.0
 10
167.4261042222579
 20
128.8813414015837
 30
0.0
 10
167.9053823728478
 20
130.0223526314363
 30
0.0
 10
168.4009502119877
 20
131.1587370422041
 30
0.0
 10
168.908037053747
 20
132.2898873963678
 30
0.0
  0
LINE
  5
E5
330
1F
100
AcDbEntity
  8
0
  6
Continuous
 62
     7
370
    15
100
AcDbLine
 10
168.9080361435
 20
132.2898873491
 30
0.0
 11
172.8661049316
 21
132.2898873491
 31
0.0
  0
SPLINE
  5
E6
330
1F
100
AcDbEntity
  8
0
  6
Continuous
 62
     7
370
    15
100
AcDbSpline
210
0.0
220
0.0
230
1.0
 70
     8
 71
     3
 72
    12
 73
     8
 74
     0
 42
0.000000001
 43
0.00000001
 40
0.0
 40
0.0
 40
0.0
 40
0.0
 40
0.249999999999998
 40
0.249999999999998
 40
0.499999999999996
 40
0.499999999999996
 40
1.0
 40
1.0
 40
1.0
 40
1.0
 10
172.8661042222579
 20
132.2898873963678
 30
0.0
 10
172.9573039440836
 20
132.2898873963678
 30
0.0
 10
173.0478989532196
 20
132.2616676977799
 30
0.0
 10
173.2013116796663
 20
132.1672246905318
 30
0.0
 10
173.26652054699
 20
132.1009377138265
 30
0.0
 10
173.4193050763299
 20
131.8753128905382
 30
0.0
 10
173.4661042222579
 20
131.6928866275056
 30
0.0
 10
173.4661042222579
 20
131.5121499952587
 30
0.0
  0
LINE
  5
E7
330
1F
100
AcDbEntity
  8
0
  6
Continuous
 62
     7
370
    15
100
AcDbLine
 10
173.4661039123
 20
131.5121491803
 30
0.0
 11
173.4661039123
 21
127.6811984731
 31
0.0
  0
SPLINE
  5
E8
330
1F
100
AcDbEntity
  8
0
  6
Continuous
 62
     7
370
    15
100
AcDbSpline
210
0.0
220
0.0
230
1.0
 70
     8
 71
     3
 72
     8
 73
     4
 74
     0
 42
0.000000001
 43
0.00000001
 40
0.0
 40
0.0
 40
0.0
 40
0.0
 40
1.0
 40
1.0
 40
1.0
 40
1.0
 10
162.1241713907689
 20
132.2898873963678
 30
0.0
 10
162.6312582325282
 20
131.1587370422041
 30
0.0
 10
163.1268260716681
 20
130.0223526314363
 30
0.0
 10
163.6061042222579
 20
128.8813414015837
 30
0.0
  0
LINE
  5
E9
330
1F
100
AcDbEntity
  8
0
  6
Continuous
 62
     7
370
    15
100
AcDbLine
 10
163.6061042705
 20
128.8813417209
 30
0.0
 11
163.6061042705
 21
127.9670642121
 31
0.0
  0
SPLINE
  5
EA
330
1F
100
AcDbEntity
  8
0
  6
Continuous
 62
     7
370
    15
100
AcDbSpline
210
0.0
220
0.0
230
1.0
 70
     8
 71
     3
 72
     8
 73
     4
 74
     0
 42
0.000000001
 43
0.00000001
 40
0.0
 40
0.0
 40
0.0
 40
0.0
 40
1.0
 40
1.0
 40
1.0
 40
1.0
 10
168.908037053747
 20
138.2983932071646
 30
0.0
 10
168.4128970243827
 20
137.4117135589844
 30
0.0
 10
167.9188143191037
 20
136.5244509232983
 30
0.0
 10
167.4261042222579
 20
135.636431925172
 30
0.0
  0
LINE
  5
EB
330
1F
100
AcDbEntity
  8
0
  6
Continuous
 62
     7
370
    15
100
AcDbLine
 10
168.9080361435
 20
132.2898873491
 30
0.0
 11
168.9080361435
 21
138.2983931704
 31
0.0
  0
LINE
  5
EC
330
1F
100
AcDbEntity
  8
0
  6
Continuous
 62
     7
370
    15
100
AcDbLine
 10
167.4261044869
 20
128.8813417209
 30
0.0
 11
167.4261044869
 21
135.6364311082
 31
0.0
  0
SPLINE
  5
ED
330
1F
100
AcDbEntity
  8
0
  6
Continuous
 62
     7
370
    15
100
AcDbSpline
210
0.0
220
0.0
230
1.0
 70
     8
 71
     3
 72
     8
 73
     4
 74
     0
 42
0.000000001
 43
0.00000001
 40
0.0
 40
0.0
 40
0.0
 40
0.0
 40
1.0
 40
1.0
 40
1.0
 40
1.0
 10
163.6061042222579
 20
135.636431925172
 30
0.0
 10
163.1133941254122
 20
136.5244509232983
 30
0.0
 10
162.6193114201332
 20
137.4117135589844
 30
0.0
 10
162.1241713907689
 20
138.2983932071646
 30
0.0
  0
LINE
  5
EE
330
1F
100
AcDbEntity
  8
0
  6
Continuous
 62
     7
370
    15
100
AcDbLine
 10
163.6061042705
 20
128.8813417209
 30
0.0
 11
163.6061042705
 21
135.6364311082
 31
0.0
  0
LINE
  5
EF
330
1F
100
AcDbEntity
  8
0
  6
Continuous
 62
     7
370
    15
100
AcDbLine
 10
172.8661049316
 20
138.2983931704
 30
0.0
 11
168.9080361435
 21
138.2983931704
 31
0.0
  0
SPLINE
  5
F0
330
1F
100
AcDbEntity
  8
0
  6
Continuous
 62
     7
370
    15
100
AcDbSpline
210
0.0
220
0.0
230
1.0
 70
     8
 71
     3
 72
    10
 73
     6
 74
     0
 42
0.000000001
 43
0.00000001
 40
0.0
 40
0.0
 40
0.0
 40
0.0
 40
0.5
 40
0.5
 40
1.0
 40
1.0
 40
1.0
 40
1.0
 10
173.4661042222579
 20
137.6776380577643
 30
0.0
 10
173.4661042222579
 20
137.8380433241151
 30
0.0
 10
173.4038663911511
 20
137.9971051371037
 30
0.0
 10
173.1847314674085
 20
138.228017602734
 30
0.0
 10
173.0271427724167
 20
138.2983932071646
 30
0.0
 10
172.8661042222579
 20
138.2983932071646
 30
0.0
  0
LINE
  5
F1
330
1F
100
AcDbEntity
  8
0
  6
Continuous
 62
     7
370
    15
100
AcDbLine
 10
173.4661039123
 20
131.5121491803
 30
0.0
 11
173.4661039123
 21
137.6776387347
 31
0.0
  0
LINE
  5
F2
330
1F
100
AcDbEntity
  8
0
  6
Continuous
 62
     7
370
    15
100
AcDbLine
 10
195.5161046395
 20
107.831197734
 30
0.0
 11
195.5161046395
 21
92.1311983271
 31
0.0
  0
LINE
  5
F3
330
1F
100
AcDbEntity
  8
0
  6
Continuous
 62
     7
370
    15
100
AcDbLine
 10
195.5161046395
 20
123.5311971409
 30
0.0
 11
195.5161046395
 21
107.831197734
 31
0.0
  0
LINE
  5
F4
330
1F
100
AcDbEntity
  8
0
  6
Continuous
 62
     7
370
    15
100
AcDbLine
 10
195.2161032865
 20
107.831197734
 30
0.0
 11
195.2161032865
 21
91.831196974
 31
0.0
  0
LINE
  5
F5
330
1F
100
AcDbEntity
  8
0
  6
Continuous
 62
     7
370
    15
100
AcDbLine
 10
195.2161032865
 20
123.831198494
 30
0.0
 11
195.2161032865
 21
107.831197734
 31
0.0
  0
SPLINE
  5
F6
330
1F
100
AcDbEntity
  8
0
  6
Continuous
 62
     7
370
    15
100
AcDbSpline
210
0.0
220
0.0
230
1.0
 70
    11
 71
     3
 72
    82
 73
    78
 74
     0
 42
0.000000001
 43
0.00000001
 40
0.0
 40
0.0
 40
0.0
 40
0.0
 40
0.0312499999999994
 40
0.0312499999999994
 40
0.0624999999999988
 40
0.0624999999999988
 40
0.0937499999999982
 40
0.0937499999999982
 40
0.1249999999999976
 40
0.1249999999999976
 40
0.156249999999997
 40
0.156249999999997
 40
0.1874999999999964
 40
0.1874999999999964
 40
0.2187499999999958
 40
0.2187499999999958
 40
0.2343749999999958
 40
0.2343749999999958
 40
0.2499999999999958
 40
0.2499999999999958
 40
0.2812499999999963
 40
0.2812499999999963
 40
0.2968749999999963
 40
0.2968749999999963
 40
0.3124999999999963
 40
0.3124999999999963
 40
0.3437499999999964
 40
0.3437499999999964
 40
0.3593749999999964
 40
0.3593749999999964
 40
0.3749999999999964
 40
0.3749999999999964
 40
0.3906249999999965
 40
0.3906249999999965
 40
0.4062499999999965
 40
0.4062499999999965
 40
0.4374999999999967
 40
0.4374999999999967
 40
0.468749999999997
 40
0.468749999999997
 40
0.4999999999999972
 40
0.4999999999999972
 40
0.5312499999999976
 40
0.5312499999999976
 40
0.5624999999999978
 40
0.5624999999999978
 40
0.5937499999999981
 40
0.5937499999999981
 40
0.6249999999999983
 40
0.6249999999999983
 40
0.6562499999999987
 40
0.6562499999999987
 40
0.687499999999999
 40
0.687499999999999
 40
0.7187499999999992
 40
0.7187499999999992
 40
0.7499999999999996
 40
0.7499999999999996
 40
0.7812499999999999
 40
0.7812499999999999
 40
0.8125000000000001
 40
0.8125000000000001
 40
0.8281250000000001
 40
0.8281250000000001
 40
0.84375
 40
0.84375
 40
0.8749999999999999
 40
0.8749999999999999
 40
0.8906249999999999
 40
0.8906249999999999
 40
0.9062499999999998
 40
0.9062499999999998
 40
0.9374999999999999
 40
0.9374999999999999
 40
0.9687499999999999
 40
0.9687499999999999
 40
1.0
 40
1.0
 40
1.0
 40
1.0
 10
180.1459211980762
 20
111.1035963007481
 30
0.0
 10
180.3889787229543
 20
111.293636823603
 30
0.0
 10
180.646065819924
 20
111.4580324926338
 30
0.0
 10
181.1859757437474
 20
111.7407028985973
 30
0.0
 10
181.4704319323074
 20
111.8594262033268
 30
0.0
 10
182.0587737185265
 20
112.0478903760395
 30
0.0
 10
182.3576895373031
 20
112.116345667276
 30
0.0
 10
182.9646651487718
 20
112.2041147931827
 30
0.0
 10
183.2753453327798
 20
112.2233005031887
 30
0.0
 10
183.8933565598727
 20
112.2103343668168
 30
0.0
 10
184.1983404452848
 20
112.1787203381484
 30
0.0
 10
184.8004306290312
 20
112.0660152170759
 30
0.0
 10
185.1002229954285
 20
111.983870163225
 30
0.0
 10
185.67744819677
 20
111.7711460932336
 30
0.0
 10
185.9533730220689
 20
111.6417389400394
 30
0.0
 10
186.3481422784787
 20
111.4122898875969
 30
0.0
 10
186.476524970346
 20
111.3298777438652
 30
0.0
 10
186.7265760233455
 20
111.152517181277
 30
0.0
 10
186.8486386909317
 20
111.05713885384
 30
0.0
 10
187.1963620659702
 20
110.7575661323257
 30
0.0
 10
187.4062909521495
 20
110.5385508442699
 30
0.0
 10
187.6866511846226
 20
110.1790177097857
 30
0.0
 10
187.7743063541266
 20
110.0539671131568
 30
0.0
 10
187.9370974313946
 20
109.7925358288921
 30
0.0
 10
188.0119729363086
 20
109.6562724553327
 30
0.0
 10
188.2104787372962
 20
109.2415358694659
 30
0.0
 10
188.310729740658
 20
108.9535085403439
 30
0.0
 10
188.4096627609333
 20
108.502810825792
 30
0.0
 10
188.434076184998
 20
108.3481811906937
 30
0.0
 10
188.4635656760265
 20
108.0393721235891
 30
0.0
 10
188.4688159898973
 20
107.8853791456791
 30
0.0
 10
188.4607980136651
 20
107.5781962788295
 30
0.0
 10
188.4475288828297
 20
107.42500642575
 30
0.0
 10
188.4023341032419
 20
107.1194348767261
 30
0.0
 10
188.3700774945547
 20
106.9661166391636
 30
0.0
 10
188.2476603511529
 20
106.5184515041774
 30
0.0
 10
188.1322739598277
 20
106.2338576836197
 30
0.0
 10
187.8382900968102
 20
105.6903304030258
 30
0.0
 10
187.6618682865994
 20
105.4364418576398
 30
0.0
 10
187.2636502461163
 20
104.9715358124118
 30
0.0
 10
187.0383834361964
 20
104.7570814372215
 30
0.0
 10
186.5569176063882
 20
104.3783399847381
 30
0.0
 10
186.3000494789315
 20
104.212520406273
 30
0.0
 10
185.7551301859735
 20
103.925510275175
 30
0.0
 10
185.4689615023609
 20
103.8058777209491
 30
0.0
 10
184.8855198166458
 20
103.6177891534566
 30
0.0
 10
184.5860720755176
 20
103.5481607190354
 30
0.0
 10
183.9713419114015
 20
103.4584004952188
 30
0.0
 10
183.6628233650324
 20
103.4394120581916
 30
0.0
 10
183.0489111497784
 20
103.4514193004764
 30
0.0
 10
182.7426281226942
 20
103.4822809396583
 30
0.0
 10
182.1314681187716
 20
103.5961959807734
 30
0.0
 10
181.8351224317252
 20
103.6776868076289
 30
0.0
 10
181.2614320837265
 20
103.8884784253333
 30
0.0
 10
180.9836766131784
 20
104.0178964987665
 30
0.0
 10
180.4489708741571
 20
104.3285724499169
 30
0.0
 10
180.2001039769619
 20
104.5050942108029
 30
0.0
 10
179.7394652310759
 20
104.9014788976981
 30
0.0
 10
179.5267880049116
 20
105.1223635944668
 30
0.0
 10
179.1472500952063
 20
105.6098151081171
 30
0.0
 10
178.9860184753862
 20
105.868793196806
 30
0.0
 10
178.7885051330097
 20
106.2812914008682
 30
0.0
 10
178.730112749946
 20
106.4228254765668
 30
0.0
 10
178.6292747613517
 20
106.7145797201764
 30
0.0
 10
178.5867737380559
 20
106.8656332665253
 30
0.0
 10
178.4882359192088
 20
107.3186965159775
 30
0.0
 10
178.4591386111101
 20
107.6244335205306
 30
0.0
 10
178.4716663587615
 20
108.0887246305393
 30
0.0
 10
178.4855165766326
 20
108.2453303475129
 30
0.0
 10
178.5315470606032
 20
108.5518592387768
 30
0.0
 10
178.563644825851
 20
108.702665758572
 30
0.0
 10
178.6861398936167
 20
109.1480140694747
 30
0.0
 10
178.8045697168038
 20
109.4386309928341
 30
0.0
 10
179.0988133745371
 20
109.9795414465182
 30
0.0
 10
179.2741839607541
 20
110.231519425687
 30
0.0
 10
179.6782910024105
 20
110.7011071655624
 30
0.0
 10
179.902863673198
 20
110.9135557778932
 30
0.0
 10
180.1459211980762
 20
111.1035963007481
 30
0.0
  0
SPLINE
  5
F7
330
1F
100
AcDbEntity
  8
0
  6
Continuous
 62
     7
370
    15
100
AcDbSpline
210
0.0
220
0.0
230
1.0
 70
     8
 71
     3
 72
    25
 73
    21
 74
     0
 42
0.000000001
 43
0.00000001
 40
0.0
 40
0.0
 40
0.0
 40
0.0
 40
0.0099033618810759
 40
0.0556567333078846
 40
0.1402083767211763
 40
0.2304201209751712
 40
0.2811181327737148
 40
0.3329853921699326
 40
0.3898905361736341
 40
0.4482642699485432
 40
0.5085111560701957
 40
0.5704686042511269
 40
0.631317723137628
 40
0.6939783166039533
 40
0.7538514990428136
 40
0.8157616389915587
 40
0.8706297026154982
 40
0.9276767101079884
 40
0.9744228217976282
 40
1.0
 40
1.0
 40
1.0
 40
1.0
 10
188.4563256213268
 20
123.8288757754585
 30
0.0
 10
188.4593072085906
 20
123.8295830023289
 30
0.0
 10
188.4760636807024
 20
123.8335576058814
 30
0.0
 10
188.3611539265616
 20
123.8062129986482
 30
0.0
 10
187.9711742152934
 20
123.7156662259293
 30
0.0
 10
187.2588565128869
 20
123.5705999203444
 30
0.0
 10
186.5181978499658
 20
123.4478078022852
 30
0.0
 10
185.837831600101
 20
123.3550490370471
 30
0.0
 10
185.0693041973119
 20
123.2773063299922
 30
0.0
 10
184.2214420794425
 20
123.2260716448896
 30
0.0
 10
183.3288264575609
 20
123.2115683254469
 30
0.0
 10
182.427437574477
 20
123.2385789772903
 30
0.0
 10
181.543811284673
 20
123.3049958779083
 30
0.0
 10
180.7244245282109
 20
123.4014493230928
 30
0.0
 10
179.9811523203493
 20
123.5168991533241
 30
0.0
 10
179.3728715441997
 20
123.630854833399
 30
0.0
 10
178.8990575430683
 20
123.731059150043
 30
0.0
 10
178.6097787807002
 20
123.7971135151076
 30
0.0
 10
178.4718598897358
 20
123.8298220551301
 30
0.0
 10
178.4800241006087
 20
123.8278859590863
 30
0.0
 10
178.4829113790592
 20
123.8272012574693
 30
0.0
  0
LINE
  5
F8
330
1F
100
AcDbEntity
  8
0
  6
HIDDEN
 62
     7
370
     0
100
AcDbLine
 10
187.4661024818
 20
123.1311978204
 30
0.0
 11
179.4661048958
 21
123.1311978204
 31
0.0
  0
LINE
  5
F9
330
1F
100
AcDbEntity
  8
0
  6
HIDDEN
 62
     7
370
     0
100
AcDbLine
 10
187.4661024818
 20
117.9364537252
 30
0.0
 11
179.4661048958
 21
117.9364537252
 31
0.0
  0
LINE
  5
FA
330
1F
100
AcDbEntity
  8
0
  6
HIDDEN
 62
     7
370
     0
100
AcDbLine
 10
186.1359056243
 20
113.8311977862
 30
0.0
 11
180.7963017532
 21
113.8311977862
 31
0.0
  0
SPLINE
  5
FB
330
1F
100
AcDbEntity
  8
0
  6
HIDDEN
 62
     7
370
     0
100
AcDbSpline
210
0.0
220
0.0
230
1.0
 70
     8
 71
     3
 72
    11
 73
     7
 74
     0
 42
0.000000001
 43
0.00000001
 40
0.0
 40
0.0
 40
0.0
 40
0.0
 40
0.2164527208577642
 40
0.4403048997746942
 40
0.7518958602584441
 40
1.0
 40
1.0
 40
1.0
 40
1.0
 10
181.5085251042446
 20
123.740599433901
 30
0.0
 10
181.6482572093267
 20
123.6681615895249
 30
0.0
 10
181.9324981755741
 20
123.5208096057683
 30
0.0
 10
182.4599755764434
 20
123.3979864152905
 30
0.0
 10
183.0257991841345
 20
123.4720326515587
 30
0.0
 10
183.3878937645204
 20
123.6581129357719
 30
0.0
 10
183.5484046647152
 20
123.740599433901
 30
0.0
  0
SPLINE
  5
FC
330
1F
100
AcDbEntity
  8
0
  6
HIDDEN
 62
     7
370
     0
100
AcDbSpline
210
0.0
220
0.0
230
1.0
 70
     8
 71
     3
 72
    11
 73
     7
 74
     0
 42
0.000000001
 43
0.00000001
 40
0.0
 40
0.0
 40
0.0
 40
0.0
 40
0.2164532765120283
 40
0.4403056684133291
 40
0.7518951825543074
 40
1.0
 40
1.0
 40
1.0
 40
1.0
 10
183.5484046647152
 20
123.740599433901
 30
0.0
 10
183.6824998082448
 20
123.6681616210577
 30
0.0
 10
183.9552739272337
 20
123.5208098224786
 30
0.0
 10
184.4614699493138
 20
123.3979863932914
 30
0.0
 10
185.0044628321106
 20
123.4720334752907
 30
0.0
 10
185.3519491812923
 20
123.6581129541703
 30
0.0
 10
185.5059851119121
 20
123.740599433901
 30
0.0
  0
SPLINE
  5
FD
330
1F
100
AcDbEntity
  8
0
  6
HIDDEN
 62
     7
370
     0
100
AcDbSpline
210
0.0
220
0.0
230
1.0
 70
     8
 71
     3
 72
    11
 73
     7
 74
     0
 42
0.000000001
 43
0.00000001
 40
0.0
 40
0.0
 40
0.0
 40
0.0
 40
0.1849308365257007
 40
0.5198463536376045
 40
0.8714436532767867
 40
1.0
 40
1.0
 40
1.0
 40
1.0
 10
185.5059851119121
 20
123.740599433901
 30
0.0
 10
185.5011941267891
 20
123.678195516165
 30
0.0
 10
185.4877265180696
 20
123.5027761556236
 30
0.0
 10
185.4625945015548
 20
123.3731726018025
 30
0.0
 10
185.4393751459857
 20
123.5318781706844
 30
0.0
 10
185.4269965254531
 20
123.6965186016699
 30
0.0
 10
185.4236822733482
 20
123.740599433901
 30
0.0
  0
SPLINE
  5
FE
330
1F
100
AcDbEntity
  8
0
  6
HIDDEN
 62
     7
370
     0
100
AcDbSpline
210
0.0
220
0.0
230
1.0
 70
     8
 71
     3
 72
     9
 73
     5
 74
     0
 42
0.000000001
 43
0.00000001
 40
0.0
 40
0.0
 40
0.0
 40
0.0
 40
0.6099796956136024
 40
1.0
 40
1.0
 40
1.0
 40
1.0
 10
185.4236822733482
 20
123.740599433901
 30
0.0
 10
185.2846177383874
 20
123.664326277538
 30
0.0
 10
185.0566355023214
 20
123.5392841541502
 30
0.0
 10
184.8072627648241
 20
123.4941569653812
 30
0.0
 10
184.7100023338398
 20
123.4765564454814
 30
0.0
  0
SPLINE
  5
FF
330
1F
100
AcDbEntity
  8
0
  6
HIDDEN
 62
     7
370
     0
100
AcDbSpline
210
0.0
220
0.0
230
1.0
 70
     8
 71
     3
 72
     9
 73
     5
 74
     0
 42
0.000000001
 43
0.00000001
 40
0.0
 40
0.0
 40
0.0
 40
0.0
 40
0.42214365376947
 40
1.0
 40
1.0
 40
1.0
 40
1.0
 10
184.2565003940662
 20
123.4711119337102
 30
0.0
 10
184.1271036519864
 20
123.4791958522092
 30
0.0
 10
183.8205806451277
 20
123.4983455384044
 30
0.0
 10
183.5437633459524
 20
123.6518790942793
 30
0.0
 10
183.3838027128776
 20
123.740599433901
 30
0.0
  0
SPLINE
  5
100
330
1F
100
AcDbEntity
  8
0
  6
HIDDEN
 62
     7
370
     0
100
AcDbSpline
210
0.0
220
0.0
230
1.0
 70
     8
 71
     3
 72
     9
 73
     5
 74
     0
 42
0.000000001
 43
0.00000001
 40
0.0
 40
0.0
 40
0.0
 40
0.0
 40
0.590667930546321
 40
1.0
 40
1.0
 40
1.0
 40
1.0
 10
183.3838027128776
 20
123.740599433901
 30
0.0
 10
183.2502691341084
 20
123.6646399565756
 30
0.0
 10
183.0241969675601
 20
123.5360406651682
 30
0.0
 10
182.776923814847
 20
123.4899700953818
 30
0.0
 10
182.6757069835266
 20
123.4711119337102
 30
0.0
  0
SPLINE
  5
101
330
1F
100
AcDbEntity
  8
0
  6
HIDDEN
 62
     7
370
     0
100
AcDbSpline
210
0.0
220
0.0
230
1.0
 70
     8
 71
     3
 72
     9
 73
     5
 74
     0
 42
0.000000001
 43
0.00000001
 40
0.0
 40
0.0
 40
0.0
 40
0.0
 40
0.3932112068407516
 40
1.0
 40
1.0
 40
1.0
 40
1.0
 10
182.2222087690433
 20
123.4765564454814
 30
0.0
 10
182.1121615025493
 20
123.4842124553762
 30
0.0
 10
181.8322934200035
 20
123.5036829327217
 30
0.0
 10
181.5795735661177
 20
123.651130128139
 30
0.0
 10
181.4262259909709
 20
123.740599433901
 30
0.0
  0
SPLINE
  5
102
330
1F
100
AcDbEntity
  8
0
  6
HIDDEN
 62
     7
370
     0
100
AcDbSpline
210
0.0
220
0.0
230
1.0
 70
     8
 71
     3
 72
    11
 73
     7
 74
     0
 42
0.000000001
 43
0.00000001
 40
0.0
 40
0.0
 40
0.0
 40
0.0
 40
0.1285563536561193
 40
0.4801536168361495
 40
0.8150691535011776
 40
1.0
 40
1.0
 40
1.0
 40
1.0
 10
181.4262259909709
 20
123.740599433901
 30
0.0
 10
181.4295403294357
 20
123.6965186020612
 30
0.0
 10
181.4419192710907
 20
123.5318781915403
 30
0.0
 10
181.4651330373182
 20
123.3731725939032
 30
0.0
 10
181.4902666883759
 20
123.5027761570601
 30
0.0
 10
181.5037341658314
 20
123.678195516674
 30
0.0
 10
181.5085251042446
 20
123.740599433901
 30
0.0
  0
LINE
  5
103
330
1F
100
AcDbEntity
  8
0
  6
HIDDEN
 62
     7
370
     0
100
AcDbLine
 10
183.5484046647
 20
118.8311976744
 30
0.0
 11
183.5484046647
 21
123.7405994339
 31
0.0
  0
LINE
  5
104
330
1F
100
AcDbEntity
  8
0
  6
HIDDEN
 62
     7
370
     0
100
AcDbLine
 10
183.6620595464
 20
118.8311976744
 30
0.0
 11
183.5484046647
 21
118.8311976744
 31
0.0
  0
LINE
  5
105
330
1F
100
AcDbEntity
  8
0
  6
HIDDEN
 62
     7
370
     0
100
AcDbLine
 10
183.5484046647
 20
118.8311976744
 30
0.0
 11
182.6199468383
 21
118.8311976744
 31
0.0
  0
LINE
  5
106
330
1F
100
AcDbEntity
  8
0
  6
HIDDEN
 62
     7
370
     0
100
AcDbLine
 10
185.4661058793
 20
117.8311975105
 30
0.0
 11
181.4661052236
 21
117.8311975105
 31
0.0
  0
LINE
  5
107
330
1F
100
AcDbEntity
  8
0
  6
HIDDEN
 62
     7
370
     0
100
AcDbLine
 10
181.6269595334
 20
118.8311976744
 30
0.0
 11
181.5085251042
 21
118.8311976744
 31
0.0
  0
LINE
  5
108
330
1F
100
AcDbEntity
  8
0
  6
HIDDEN
 62
     7
370
     0
100
AcDbLine
 10
185.5059851119
 20
118.8311976744
 30
0.0
 11
184.6149850795
 21
118.8311976744
 31
0.0
  0
LINE
  5
109
330
1F
100
AcDbEntity
  8
0
  6
HIDDEN
 62
     7
370
     0
100
AcDbLine
 10
181.5085251042
 20
118.8311976744
 30
0.0
 11
181.4710673103
 21
118.8311976744
 31
0.0
  0
LINE
  5
10A
330
1F
100
AcDbEntity
  8
0
  6
HIDDEN
 62
     7
370
     0
100
AcDbLine
 10
181.5085251042
 20
118.8311976744
 30
0.0
 11
181.5085251042
 21
123.7405994339
 31
0.0
  0
LINE
  5
10B
330
1F
100
AcDbEntity
  8
0
  6
HIDDEN
 62
     7
370
     0
100
AcDbLine
 10
185.4236822733
 20
118.8311976744
 30
0.0
 11
185.4236822733
 21
123.7405994339
 31
0.0
  0
LINE
  5
10C
330
1F
100
AcDbEntity
  8
0
  6
HIDDEN
 62
     7
370
     0
100
AcDbLine
 10
185.5059851119
 20
118.8311976744
 30
0.0
 11
185.5059851119
 21
123.7405994339
 31
0.0
  0
LINE
  5
10D
330
1F
100
AcDbEntity
  8
0
  6
HIDDEN
 62
     7
370
     0
100
AcDbLine
 10
183.3838027129
 20
118.8311976744
 30
0.0
 11
183.3838027129
 21
123.7405994339
 31
0.0
  0
LINE
  5
10E
330
1F
100
AcDbEntity
  8
0
  6
HIDDEN
 62
     7
370
     0
100
AcDbLine
 10
181.426225991
 20
118.8311976744
 30
0.0
 11
181.426225991
 21
123.7405994339
 31
0.0
  0
SPLINE
  5
10F
330
1F
100
AcDbEntity
  8
0
  6
HIDDEN
 62
     7
370
     0
100
AcDbSpline
210
0.0
220
0.0
230
1.0
 70
     8
 71
     3
 72
    11
 73
     7
 74
     0
 42
0.000000001
 43
0.00000001
 40
0.0
 40
0.0
 40
0.0
 40
0.0
 40
0.2164535556237042
 40
0.4403060990470251
 40
0.7518963091705249
 40
1.0
 40
1.0
 40
1.0
 40
1.0
 10
183.145857245644
 20
123.740599433901
 30
0.0
 10
183.0211480032244
 20
123.6681616149237
 30
0.0
 10
182.7674666077553
 20
123.5208098497588
 30
0.0
 10
182.2967034578763
 20
123.397986463523
 30
0.0
 10
181.7917178861639
 20
123.4720326910738
 30
0.0
 10
181.4685565827999
 20
123.6581129288565
 30
0.0
 10
181.3253041514953
 20
123.740599433901
 30
0.0
  0
SPLINE
  5
110
330
1F
100
AcDbEntity
  8
0
  6
HIDDEN
 62
     7
370
     0
100
AcDbSpline
210
0.0
220
0.0
230
1.0
 70
     8
 71
     3
 72
    11
 73
     7
 74
     0
 42
0.000000001
 43
0.00000001
 40
0.0
 40
0.0
 40
0.0
 40
0.0
 40
0.2164526338347925
 40
0.4403055077162513
 40
0.7518958329937316
 40
1.0
 40
1.0
 40
1.0
 40
1.0
 10
181.3253041514953
 20
123.740599433901
 30
0.0
 10
181.3472410711917
 20
123.668161570844
 30
0.0
 10
181.3918649059473
 20
123.520809286392
 30
0.0
 10
181.4746764084482
 20
123.397986611736
 30
0.0
 10
181.5635039688108
 20
123.4720328312544
 30
0.0
 10
181.6203524007505
 20
123.6581129226038
 30
0.0
 10
181.6455524572929
 20
123.740599433901
 30
0.0
  0
SPLINE
  5
111
330
1F
100
AcDbEntity
  8
0
  6
HIDDEN
 62
     7
370
     0
100
AcDbSpline
210
0.0
220
0.0
230
1.0
 70
     8
 71
     3
 72
    11
 73
     7
 74
     0
 42
0.000000001
 43
0.00000001
 40
0.0
 40
0.0
 40
0.0
 40
0.0
 40
0.1849303432669625
 40
0.5198463999303563
 40
0.8714426743727288
 40
1.0
 40
1.0
 40
1.0
 40
1.0
 10
181.6455524572929
 20
123.740599433901
 30
0.0
 10
181.7701570735563
 20
123.6781955186757
 30
0.0
 10
182.1204255045501
 20
123.5027756816801
 30
0.0
 10
182.7742694489617
 20
123.3731722931229
 30
0.0
 10
183.3781203912014
 20
123.5318795791401
 30
0.0
 10
183.7001365734516
 20
123.6965186310098
 30
0.0
 10
183.7863538572391
 20
123.740599433901
 30
0.0
  0
SPLINE
  5
112
330
1F
100
AcDbEntity
  8
0
  6
HIDDEN
 62
     7
370
     0
100
AcDbSpline
210
0.0
220
0.0
230
1.0
 70
     8
 71
     3
 72
    11
 73
     7
 74
     0
 42
0.000000001
 43
0.00000001
 40
0.0
 40
0.0
 40
0.0
 40
0.0
 40
0.2164524266606919
 40
0.4403049687996746
 40
0.7518951771354474
 40
1.0
 40
1.0
 40
1.0
 40
1.0
 10
183.7863538572391
 20
123.740599433901
 30
0.0
 10
183.9110617108737
 20
123.6681615775256
 30
0.0
 10
184.1647409532402
 20
123.5208093459828
 30
0.0
 10
184.6355042416205
 20
123.3979865081046
 30
0.0
 10
185.1404895539399
 20
123.4720332047399
 30
0.0
 10
185.4636531426721
 20
123.6581129412653
 30
0.0
 10
185.6069069513877
 20
123.740599433901
 30
0.0
  0
SPLINE
  5
113
330
1F
100
AcDbEntity
  8
0
  6
HIDDEN
 62
     7
370
     0
100
AcDbSpline
210
0.0
220
0.0
230
1.0
 70
     8
 71
     3
 72
    11
 73
     7
 74
     0
 42
0.000000001
 43
0.00000001
 40
0.0
 40
0.0
 40
0.0
 40
0.0
 40
0.2164528324309539
 40
0.4403057065372224
 40
0.7518960321276251
 40
1.0
 40
1.0
 40
1.0
 40
1.0
 10
185.6069069513877
 20
123.740599433901
 30
0.0
 10
185.5849684541079
 20
123.6681615774227
 30
0.0
 10
185.5403414310438
 20
123.5208093750121
 30
0.0
 10
185.457531624499
 20
123.3979866038931
 30
0.0
 10
185.3687020681659
 20
123.4720327408971
 30
0.0
 10
185.3118571383986
 20
123.6581129204211
 30
0.0
 10
185.2866586455902
 20
123.740599433901
 30
0.0
  0
SPLINE
  5
114
330
1F
100
AcDbEntity
  8
0
  6
HIDDEN
 62
     7
370
     0
100
AcDbSpline
210
0.0
220
0.0
230
1.0
 70
     8
 71
     3
 72
    11
 73
     7
 74
     0
 42
0.000000001
 43
0.00000001
 40
0.0
 40
0.0
 40
0.0
 40
0.0
 40
0.1285573090733104
 40
0.4801536012663423
 40
0.8150696400254196
 40
1.0
 40
1.0
 40
1.0
 40
1.0
 10
185.2866586455902
 20
123.740599433901
 30
0.0
 10
185.2004413586526
 20
123.6965186305783
 30
0.0
 10
184.8784251223692
 20
123.5318795554865
 30
0.0
 10
184.2745743110508
 20
123.3731722960566
 30
0.0
 10
183.6207302410357
 20
123.5027756988271
 30
0.0
 10
183.2704618568133
 20
123.6781955189105
 30
0.0
 10
183.145857245644
 20
123.740599433901
 30
0.0
  0
LINE
  5
115
330
1F
100
AcDbEntity
  8
0
  6
HIDDEN
 62
     7
370
     0
100
AcDbLine
 10
184.6149850795
 20
118.8311976744
 30
0.0
 11
183.7863538572
 21
118.8311976744
 31
0.0
  0
LINE
  5
116
330
1F
100
AcDbEntity
  8
0
  6
HIDDEN
 62
     7
370
     0
100
AcDbLine
 10
183.7863538572
 20
118.8311976744
 30
0.0
 11
183.6620595464
 21
118.8311976744
 31
0.0
  0
LINE
  5
117
330
1F
100
AcDbEntity
  8
0
  6
HIDDEN
 62
     7
370
     0
100
AcDbLine
 10
183.7863538572
 20
118.8311976744
 30
0.0
 11
183.7863538572
 21
123.7405994339
 31
0.0
  0
LINE
  5
118
330
1F
100
AcDbEntity
  8
0
  6
HIDDEN
 62
     7
370
     0
100
AcDbLine
 10
182.6199468383
 20
118.8311976744
 30
0.0
 11
181.6455524573
 21
118.8311976744
 31
0.0
  0
LINE
  5
119
330
1F
100
AcDbEntity
  8
0
  6
HIDDEN
 62
     7
370
     0
100
AcDbLine
 10
185.6069069514
 20
118.8311976744
 30
0.0
 11
185.5059851119
 21
118.8311976744
 31
0.0
  0
LINE
  5
11A
330
1F
100
AcDbEntity
  8
0
  6
HIDDEN
 62
     7
370
     0
100
AcDbLine
 10
181.6455524573
 20
118.8311976744
 30
0.0
 11
181.6269595334
 21
118.8311976744
 31
0.0
  0
LINE
  5
11B
330
1F
100
AcDbEntity
  8
0
  6
HIDDEN
 62
     7
370
     0
100
AcDbLine
 10
181.6455524573
 20
118.8311976744
 30
0.0
 11
181.6455524573
 21
123.7405994339
 31
0.0
  0
LINE
  5
11C
330
1F
100
AcDbEntity
  8
0
  6
HIDDEN
 62
     7
370
     0
100
AcDbLine
 10
185.2866586456
 20
118.8311976744
 30
0.0
 11
185.2866586456
 21
123.7405994339
 31
0.0
  0
LINE
  5
11D
330
1F
100
AcDbEntity
  8
0
  6
HIDDEN
 62
     7
370
     0
100
AcDbLine
 10
185.6069069514
 20
118.8311976744
 30
0.0
 11
185.6069069514
 21
123.7405994339
 31
0.0
  0
LINE
  5
11E
330
1F
100
AcDbEntity
  8
0
  6
HIDDEN
 62
     7
370
     0
100
AcDbLine
 10
181.4710673103
 20
118.8311976744
 30
0.0
 11
181.3253041515
 21
118.8311976744
 31
0.0
  0
LINE
  5
11F
330
1F
100
AcDbEntity
  8
0
  6
HIDDEN
 62
     7
370
     0
100
AcDbLine
 10
183.1458572456
 20
118.8311976744
 30
0.0
 11
183.1458572456
 21
123.7405994339
 31
0.0
  0
LINE
  5
120
330
1F
100
AcDbEntity
  8
0
  6
HIDDEN
 62
     7
370
     0
100
AcDbLine
 10
181.3253041515
 20
118.8311976744
 30
0.0
 11
181.3253041515
 21
123.7405994339
 31
0.0
  0
LINE
  5
121
330
1F
100
AcDbEntity
  8
0
  6
HIDDEN
 62
     7
370
     0
100
AcDbLine
 10
162.1241716826
 20
132.2898873491
 30
0.0
 11
162.1241716826
 21
127.6811984731
 31
0.0
  0
LINE
  5
122
330
1F
100
AcDbEntity
  8
0
  6
HIDDEN
 62
     7
370
     0
100
AcDbLine
 10
135.5112547213
 20
84.3065985842
 30
0.0
 11
135.2623894969
 21
84.2833360089
 31
0.0
  0
SPLINE
  5
123
330
1F
100
AcDbEntity
  8
0
  6
HIDDEN
 62
     7
370
     0
100
AcDbSpline
210
0.0
220
0.0
230
1.0
 70
     8
 71
     3
 72
    10
 73
     6
 74
     0
 42
0.000000001
 43
0.00000001
 40
0.0
 40
0.0
 40
0.0
 40
0.0
 40
0.4476876395853773
 40
0.8953586169505946
 40
1.0
 40
1.0
 40
1.0
 40
1.0
 10
141.271106262674
 20
127.6687262011787
 30
0.0
 10
141.5178058236031
 20
127.6982374768733
 30
0.0
 10
142.011195763697
 20
127.7572589298998
 30
0.0
 10
142.300205310253
 20
127.7712031712983
 30
0.0
 10
142.2398903347338
 20
127.7673119154808
 30
0.0
 10
142.2284630285402
 20
127.7665746761581
 30
0.0
  0
SPLINE
  5
124
330
1F
100
AcDbEntity
  8
0
  6
HIDDEN
 62
     7
370
     0
100
AcDbSpline
210
0.0
220
0.0
230
1.0
 70
     8
 71
     3
 72
    10
 73
     6
 74
     0
 42
0.000000001
 43
0.00000001
 40
0.0
 40
0.0
 40
0.0
 40
0.0
 40
0.3457195283335339
 40
0.7967730818184666
 40
1.0
 40
1.0
 40
1.0
 40
1.0
 10
142.2284760670563
 20
87.89581892919746
 30
0.0
 10
142.2189165608249
 20
87.89637395614372
 30
0.0
 10
142.1968849524938
 20
87.89765311596612
 30
0.0
 10
141.7798385590239
 20
87.92761981350948
 30
0.0
 10
141.391674432687
 20
87.97801572610247
 30
0.0
 10
141.271106262674
 20
87.99366926682201
 30
0.0
  0
SPLINE
  5
125
330
1F
100
AcDbEntity
  8
0
  6
HIDDEN
 62
     7
370
     0
100
AcDbSpline
210
0.0
220
0.0
230
1.0
 70
     8
 71
     3
 72
    15
 73
    11
 74
     0
 42
0.000000001
 43
0.00000001
 40
0.0
 40
0.0
 40
0.0
 40
0.0
 40
0.1409172263352446
 40
0.281889861653346
 40
0.4212989542022905
 40
0.5593768841673977
 40
0.6988856533029646
 40
0.840367202775075
 40
0.9813164473602943
 40
1.0
 40
1.0
 40
1.0
 40
1.0
 10
141.271106262674
 20
87.99366926682201
 30
0.0
 10
140.9550645430613
 20
88.03402258859668
 30
0.0
 10
140.3228568354929
 20
88.11474509916651
 30
0.0
 10
139.0886936631787
 20
88.19130304554929
 30
0.0
 10
137.817971539363
 20
88.18662497753435
 30
0.0
 10
136.6294120728266
 20
88.1058285123111
 30
0.0
 10
135.6362893935361
 20
87.98143396545689
 30
0.0
 10
134.9968808622224
 20
87.87502701869566
 30
0.0
 10
134.7158608738689
 20
87.8219499593861
 30
0.0
 10
134.7824214423578
 20
87.83420445134801
 30
0.0
 10
134.7902117455205
 20
87.83563872707096
 30
0.0
  0
SPLINE
  5
126
330
1F
100
AcDbEntity
  8
0
  6
HIDDEN
 62
     7
370
     0
100
AcDbSpline
210
0.0
220
0.0
230
1.0
 70
     8
 71
     3
 72
    15
 73
    11
 74
     0
 42
0.000000001
 43
0.00000001
 40
0.0
 40
0.0
 40
0.0
 40
0.0
 40
0.1201202497733958
 40
0.2584739452442804
 40
0.3987302041697883
 40
0.5404022600041716
 40
0.680739511736143
 40
0.8190355942651634
 40
0.9577823154231621
 40
1.0
 40
1.0
 40
1.0
 40
1.0
 10
134.7902117455205
 20
127.8267567409298
 30
0.0
 10
134.8109209943239
 20
127.8227322368554
 30
0.0
 10
134.8554830165589
 20
127.8140723360669
 30
0.0
 10
135.4179224862874
 20
127.7147794173557
 30
0.0
 10
136.3113847417346
 20
127.5908634056444
 30
0.0
 10
137.4703635655868
 20
127.4911520301107
 30
0.0
 10
138.7434004344065
 20
127.4640149724127
 30
0.0
 10
139.9776857811336
 20
127.5193523345428
 30
0.0
 10
140.8056488588295
 20
127.6058320703342
 30
0.0
 10
141.1830591714758
 20
127.6568289894713
 30
0.0
 10
141.271106262674
 20
127.6687262011787
 30
0.0
  0
LINE
  5
127
330
1F
100
AcDbEntity
  8
0
  6
HIDDEN
 62
     7
370
     0
100
AcDbLine
 10
128.520079718
 20
90.8311968101
 30
0.0
 11
128.520079718
 21
124.8311986579
 31
0.0
  0
SPLINE
  5
128
330
1F
100
AcDbEntity
  8
0
  6
HIDDEN
 62
     7
370
     0
100
AcDbSpline
210
0.0
220
0.0
230
1.0
 70
     8
 71
     3
 72
     8
 73
     4
 74
     0
 42
0.000000001
 43
0.00000001
 40
0.0
 40
0.0
 40
0.0
 40
0.0
 40
0.0011559732291308
 40
0.0011559732291308
 40
0.0011559732291308
 40
0.0011559732291308
 10
115.6161042222579
 20
109.831038352627
 30
0.0
 10
115.9494387973252
 20
109.8270710728278
 30
0.0
 10
116.282769988352
 20
109.8228911902572
 30
0.0
 10
116.6161042222579
 20
109.8183260368494
 30
0.0
  0
SPLINE
  5
129
330
1F
100
AcDbEntity
  8
0
  6
HIDDEN
 62
     7
370
     0
100
AcDbSpline
210
0.0
220
0.0
230
1.0
 70
     8
 71
     3
 72
    11
 73
     7
 74
     0
 42
0.000000001
 43
0.00000001
 40
0.0
 40
0.0
 40
0.0
 40
0.0
 40
0.0005782382535738
 40
0.0005782382535738
 40
0.0005782382535738
 40
0.0011564766069467
 40
0.0011564766069467
 40
0.0011564766069467
 40
0.0011564766069467
 10
116.6161042222579
 20
105.8344974317821
 30
0.0
 10
116.4494502682893
 20
105.8340598540204
 30
0.0
 10
116.2827895960874
 20
105.833579789348
 30
0.0
 10
116.116122707422
 20
105.8330602499787
 30
0.0
 10
115.9494557890259
 20
105.8325407105167
 30
0.0
 10
115.7827826591927
 20
105.8319818814947
 30
0.0
 10
115.6161042222579
 20
105.8313963379116
 30
0.0
  0
LINE
  5
12A
330
1F
100
AcDbEntity
  8
0
  6
HIDDEN
 62
     7
370
     0
100
AcDbLine
 10
155.1759301843
 20
90.8311968101
 30
0.0
 11
155.1759301843
 21
124.8311986579
 31
0.0
  0
LINE
  5
12B
330
1F
100
AcDbEntity
  8
0
  6
HIDDEN
 62
     7
370
     0
100
AcDbLine
 10
157.4661040837
 20
92.1061979039
 30
0.0
 11
157.4661040837
 21
123.5561863883
 31
0.0
  0
SPLINE
  5
12C
330
1F
100
AcDbEntity
  8
0
  6
HIDDEN
 62
     7
370
     0
100
AcDbSpline
210
0.0
220
0.0
230
1.0
 70
     8
 71
     3
 72
    16
 73
    12
 74
     0
 42
0.000000001
 43
0.00000001
 40
0.0
 40
0.0
 40
0.0
 40
0.0
 40
0.124999999999998
 40
0.124999999999998
 40
0.249999999999996
 40
0.249999999999996
 40
0.4999999999999973
 40
0.4999999999999973
 40
0.7499999999999987
 40
0.7499999999999987
 40
1.0
 40
1.0
 40
1.0
 40
1.0
 10
124.3161042222579
 20
92.0297072979687
 30
0.0
 10
124.4112259769238
 20
92.0297072979687
 30
0.0
 10
124.5045560456518
 20
92.02589146457589
 30
0.0
 10
124.6878178063898
 20
92.01112091184608
 30
0.0
 10
124.7786955219469
 20
91.9999628638705
 30
0.0
 10
125.0354972194666
 20
91.95749159372878
 30
0.0
 10
125.1905645843386
 20
91.91644539652597
 30
0.0
 10
125.4443110458932
 20
91.82129927994409
 30
0.0
 10
125.5451814975611
 20
91.76653654586251
 30
0.0
 10
125.6804279122559
 20
91.65527542195865
 30
0.0
 10
125.7161042222579
 20
91.59810568462994
 30
0.0
 10
125.7161042222579
 20
91.54368411159622
 30
0.0
  0
SPLINE
  5
12D
330
1F
100
AcDbEntity
  8
0
  6
HIDDEN
 62
     7
370
     0
100
AcDbSpline
210
0.0
220
0.0
230
1.0
 70
     8
 71
     3
 72
     8
 73
     4
 74
     0
 42
0.000000001
 43
0.00000001
 40
0.0
 40
0.0
 40
0.0
 40
0.0
 40
1.0
 40
1.0
 40
1.0
 40
1.0
 10
116.916104222259
 20
94.17451024405094
 30
0.0
 10
116.9161042222609
 20
93.290613101734
 30
0.0
 10
116.9026235963514
 20
92.57602985667204
 30
0.0
 10
116.9012722281603
 20
92.0297072979687
 30
0.0
  0
SPLINE
  5
12E
330
1F
100
AcDbEntity
  8
0
  6
HIDDEN
 62
     7
370
     0
100
AcDbSpline
210
0.0
220
0.0
230
1.0
 70
     8
 71
     3
 72
    10
 73
     6
 74
     0
 42
0.000000001
 43
0.00000001
 40
0.0
 40
0.0
 40
0.0
 40
0.0
 40
0.5
 40
0.5
 40
1.0
 40
1.0
 40
1.0
 40
1.0
 10
116.6161042222579
 20
95.19942050334623
 30
0.0
 10
116.7074953368971
 20
95.0247817167998
 30
0.0
 10
116.7801471699375
 20
94.85117989065337
 30
0.0
 10
116.8876460617577
 20
94.50756647381215
 30
0.0
 10
116.9161042222534
 20
94.3392406483276
 30
0.0
 10
116.9161042222591
 20
94.17451024411042
 30
0.0
  0
LINE
  5
12F
330
1F
100
AcDbEntity
  8
0
  6
HIDDEN
 62
     7
370
     0
100
AcDbLine
 10
116.616104559
 20
98.2303711949
 30
0.0
 11
116.616104559
 21
95.19942006
 31
0.0
  0
SPLINE
  5
130
330
1F
100
AcDbEntity
  8
0
  6
HIDDEN
 62
     7
370
     0
100
AcDbSpline
210
0.0
220
0.0
230
1.0
 70
     8
 71
     3
 72
    10
 73
     6
 74
     0
 42
0.000000001
 43
0.00000001
 40
0.0
 40
0.0
 40
0.0
 40
0.0
 40
0.5
 40
0.5
 40
1.0
 40
1.0
 40
1.0
 40
1.0
 10
116.9161042222214
 20
99.59821135835752
 30
0.0
 10
116.9161042222214
 20
99.35622739218554
 30
0.0
 10
116.8879541934752
 20
99.1218849645663
 30
0.0
 10
116.7843642805045
 20
98.66650994483149
 30
0.0
 10
116.7077355717428
 20
98.44490538294937
 30
0.0
 10
116.6161042222579
 20
98.23037094924004
 30
0.0
  0
LINE
  5
131
330
1F
100
AcDbEntity
  8
0
  6
HIDDEN
 62
     7
370
     0
100
AcDbLine
 10
116.9161040494
 20
111.4358314676
 30
0.0
 11
116.9161040494
 21
99.5982111795
 31
0.0
  0
SPLINE
  5
132
330
1F
100
AcDbEntity
  8
0
  6
HIDDEN
 62
     7
370
     0
100
AcDbSpline
210
0.0
220
0.0
230
1.0
 70
     8
 71
     3
 72
     8
 73
     4
 74
     0
 42
0.000000001
 43
0.00000001
 40
0.0
 40
0.0
 40
0.0
 40
0.0
 40
1.0
 40
1.0
 40
1.0
 40
1.0
 10
116.6161042222579
 20
117.4381370472795
 30
0.0
 10
116.7971356869249
 20
117.0060295638681
 30
0.0
 10
116.9161042222271
 20
116.5518841602918
 30
0.0
 10
116.9161042222214
 20
116.0641841096123
 30
0.0
  0
LINE
  5
133
330
1F
100
AcDbEntity
  8
0
  6
HIDDEN
 62
     7
370
     0
100
AcDbLine
 10
116.616104559
 20
120.471339616
 30
0.0
 11
116.616104559
 21
117.4381374745
 31
0.0
  0
SPLINE
  5
134
330
1F
100
AcDbEntity
  8
0
  6
HIDDEN
 62
     7
370
     0
100
AcDbSpline
210
0.0
220
0.0
230
1.0
 70
     8
 71
     3
 72
    10
 73
     6
 74
     0
 42
0.000000001
 43
0.00000001
 40
0.0
 40
0.0
 40
0.0
 40
0.0
 40
0.5
 40
0.5
 40
1.0
 40
1.0
 40
1.0
 40
1.0
 10
116.9161042223631
 20
121.4878852239202
 30
0.0
 10
116.9161042223613
 20
121.323248878327
 30
0.0
 10
116.8889455519364
 20
121.1560936555406
 30
0.0
 10
116.7831805578769
 20
120.8174706498784
 30
0.0
 10
116.7067657703561
 20
120.6451988737217
 30
0.0
 10
116.616104222258
 20
120.4713400474713
 30
0.0
  0
SPLINE
  5
135
330
1F
100
AcDbEntity
  8
0
  6
HIDDEN
 62
     7
370
     0
100
AcDbSpline
210
0.0
220
0.0
230
1.0
 70
     8
 71
     3
 72
    18
 73
    14
 74
     0
 42
0.000000001
 43
0.00000001
 40
0.0
 40
0.0
 40
0.0
 40
0.0
 40
0.2500000000000033
 40
0.2500000000000033
 40
0.3750000000000029
 40
0.3750000000000029
 40
0.5000000000000026
 40
0.5000000000000026
 40
0.6250000000000022
 40
0.6250000000000022
 40
0.7500000000000018
 40
0.7500000000000018
 40
1.0
 40
1.0
 40
1.0
 40
1.0
 10
121.716104222258
 20
124.1187113564045
 30
0.0
 10
121.7161042222579
 20
124.0642368358523
 30
0.0
 10
121.6811935308658
 20
124.0078557764998
 30
0.0
 10
121.5791842295327
 20
123.9237789356463
 30
0.0
 10
121.5375478748546
 20
123.8964452316554
 30
0.0
 10
121.4391420793659
 20
123.8434913160564
 30
0.0
 10
121.3815988676616
 20
123.8176039623392
 30
0.0
 10
121.2543006940886
 20
123.769826417506
 30
0.0
 10
121.1847133893312
 20
123.7478784993281
 30
0.0
 10
121.0332791441762
 20
123.7084459344154
 30
0.0
 10
120.9505952410823
 20
123.6908896851895
 30
0.0
 10
120.6944837790442
 20
123.648450919769
 30
0.0
 10
120.5065687751562
 20
123.632688170032
 30
0.0
 10
120.3161042222579
 20
123.632688170032
 30
0.0
  0
LINE
  5
136
330
1F
100
AcDbEntity
  8
0
  6
HIDDEN
 62
     7
370
     0
100
AcDbLine
 10
120.3161038616
 20
123.6326889498
 30
0.0
 11
116.9161040494
 21
123.6326889498
 31
0.0
  0
LINE
  5
137
330
1F
100
AcDbEntity
  8
0
  6
HIDDEN
 62
     7
370
     0
100
AcDbLine
 10
116.8471358875
 20
92.0297065182
 30
0.0
 11
124.3161045173
 21
92.0297065182
 31
0.0
  0
SPLINE
  5
138
330
1F
100
AcDbEntity
  8
0
  6
HIDDEN
 62
     7
370
     0
100
AcDbSpline
210
0.0
220
0.0
230
1.0
 70
     8
 71
     3
 72
    22
 73
    18
 74
     0
 42
0.000000001
 43
0.00000001
 40
0.0
 40
0.0
 40
0.0
 40
0.0
 40
0.1249999999999999
 40
0.1249999999999999
 40
0.2499999999999997
 40
0.2499999999999997
 40
0.4999999999999999
 40
0.4999999999999999
 40
0.5624999999999998
 40
0.5624999999999998
 40
0.6249999999999998
 40
0.6249999999999998
 40
0.7499999999999998
 40
0.7499999999999998
 40
0.8749999999999999
 40
0.8749999999999999
 40
1.0
 40
1.0
 40
1.0
 40
1.0
 10
116.8471352356158
 20
92.0297072979687
 30
0.0
 10
116.8340528428875
 20
92.28481300811636
 30
0.0
 10
116.8208332794476
 20
92.57797126722026
 30
0.0
 10
116.7983861016535
 20
93.24027173284506
 30
0.0
 10
116.7889076346291
 20
93.61054565345646
 30
0.0
 10
116.7697096736925
 20
94.83310245657026
 30
0.0
 10
116.7708234466894
 20
95.77024138270211
 30
0.0
 10
116.7897342396425
 20
97.0901126122171
 30
0.0
 10
116.7943637675015
 20
97.3616145211934
 30
0.0
 10
116.8048449872474
 20
97.91999935599571
 30
0.0
 10
116.8106402485319
 20
98.20712221193533
 30
0.0
 10
116.8289494694368
 20
99.079711466307
 30
0.0
 10
116.8429844037172
 20
99.68016714266287
 30
0.0
 10
116.872441575854
 20
100.9176416351589
 30
0.0
 10
116.8879972668356
 20
101.5546577918024
 30
0.0
 10
116.9117918168324
 20
102.8661463894869
 30
0.0
 10
116.9198108689778
 20
103.5422690011475
 30
0.0
 10
116.9161042222579
 20
104.2265641124323
 30
0.0
  0
LINE
  5
139
330
1F
100
AcDbEntity
  8
0
  6
HIDDEN
 62
     7
370
     0
100
AcDbLine
 10
116.9161040494
 20
111.4358314676
 30
0.0
 11
116.9161040494
 21
123.6326889498
 31
0.0
  0
SPLINE
  5
13A
330
1F
100
AcDbEntity
  8
0
  6
HIDDEN
 62
     7
370
     0
100
AcDbSpline
210
0.0
220
0.0
230
1.0
 70
     8
 71
     3
 72
    10
 73
     6
 74
     0
 42
0.000000001
 43
0.00000001
 40
0.0
 40
0.0
 40
0.0
 40
0.0
 40
0.5
 40
0.5
 40
1.0
 40
1.0
 40
1.0
 40
1.0
 10
116.9161042222579
 20
104.2265641124172
 30
0.0
 10
116.9161042222577
 20
104.5004792604913
 30
0.0
 10
116.8903449923889
 20
104.7714208392209
 30
0.0
 10
116.7871390596555
 20
105.307111920823
 30
0.0
 10
116.7098008957811
 20
105.5728587243448
 30
0.0
 10
116.6161042222579
 20
105.8344974317821
 30
0.0
  0
SPLINE
  5
13B
330
1F
100
AcDbEntity
  8
0
  6
HIDDEN
 62
     7
370
     0
100
AcDbSpline
210
0.0
220
0.0
230
1.0
 70
     8
 71
     3
 72
    10
 73
     6
 74
     0
 42
0.000000001
 43
0.00000001
 40
0.0
 40
0.0
 40
0.0
 40
0.0
 40
0.5
 40
0.5
 40
1.0
 40
1.0
 40
1.0
 40
1.0
 10
116.6161042222579
 20
109.8183260368494
 30
0.0
 10
116.7093348026091
 20
110.0822198434476
 30
0.0
 10
116.7843644141378
 20
110.348400152546
 30
0.0
 10
116.8894315121173
 20
110.8867227243647
 30
0.0
 10
116.9161042223619
 20
111.1594708389803
 30
0.0
 10
116.9161042223631
 20
111.4358313555675
 30
0.0
  0
LINE
  5
13C
330
1F
100
AcDbEntity
  8
0
  6
HIDDEN
 62
     7
370
     0
100
AcDbLine
 10
116.616104559
 20
105.8344975477
 30
0.0
 11
116.616104559
 21
109.8183260197
 31
0.0
  0
CIRCLE
  5
13D
330
1F
100
AcDbEntity
  8
0
  6
HIDDEN
 62
     7
370
     0
100
AcDbCircle
 10
183.4661042223
 20
107.831197734
 30
0.0
 40
3.500000000000014
  0
LINE
  5
13E
330
1F
100
AcDbEntity
  8
0
  6
HIDDEN
 62
     7
370
     0
100
AcDbLine
 10
180.1459219465
 20
123.4929793878
 30
0.0
 11
180.4407153437
 21
123.4497706769
 31
0.0
  0
LINE
  5
13F
330
1F
100
AcDbEntity
  8
0
  6
HIDDEN
 62
     7
370
     0
100
AcDbLine
 10
116.7661033729
 20
89.841197188
 30
0.0
 11
116.7661033729
 21
86.9612590773
 31
0.0
  0
LINE
  5
140
330
1F
100
AcDbEntity
  8
0
  6
HIDDEN
 62
     7
370
     0
100
AcDbLine
 10
125.7161040017
 20
89.841197188
 30
0.0
 11
125.7161040017
 21
85.867459829
 31
0.0
  0
LINE
  5
141
330
1F
100
AcDbEntity
  8
0
  6
HIDDEN
 62
     7
370
     0
100
AcDbLine
 10
116.7661033729
 20
125.82119828
 30
0.0
 11
116.7661033729
 21
128.7011363907
 31
0.0
  0
LINE
  5
142
330
1F
100
AcDbEntity
  8
0
  6
HIDDEN
 62
     7
370
     0
100
AcDbLine
 10
121.7161033461
 20
125.82119828
 30
0.0
 11
121.7161033461
 21
129.6753053917
 31
0.0
  0
LINE
  5
143
330
1F
100
AcDbEntity
  8
0
  6
HIDDEN
 62
     7
370
     0
100
AcDbLine
 10
166.3161039511
 20
98.3311980395
 30
0.0
 11
166.3161039511
 21
117.3311974285
 31
0.0
  0
LINE
  5
144
330
1F
100
AcDbEntity
  8
0
  6
HIDDEN
 62
     7
370
     0
100
AcDbLine
 10
169.3161044428
 20
98.3311980395
 30
0.0
 11
169.3161044428
 21
117.3311974285
 31
0.0
  0
LINE
  5
145
330
1F
100
AcDbEntity
  8
0
  6
HIDDEN
 62
     7
370
     0
100
AcDbLine
 10
173.0161037454
 20
107.831197734
 30
0.0
 11
173.0161037454
 21
99.1311976118
 31
0.0
  0
LINE
  5
146
330
1F
100
AcDbEntity
  8
0
  6
HIDDEN
 62
     7
370
     0
100
AcDbLine
 10
173.0161037454
 20
116.5311978562
 30
0.0
 11
173.0161037454
 21
107.831197734
 31
0.0
  0
LINE
  5
147
330
1F
100
AcDbEntity
  8
0
  6
HIDDEN
 62
     7
370
     0
100
AcDbLine
 10
176.3821289101
 20
107.831197734
 30
0.0
 11
176.3821289101
 21
98.8311981214
 31
0.0
  0
LINE
  5
148
330
1F
100
AcDbEntity
  8
0
  6
HIDDEN
 62
     7
370
     0
100
AcDbLine
 10
176.3821289101
 20
116.8311973466
 30
0.0
 11
176.3821289101
 21
107.831197734
 31
0.0
  0
LINE
  5
149
330
1F
100
AcDbEntity
  8
0
  6
HIDDEN
 62
     7
370
     0
100
AcDbLine
 10
173.4661039123
 20
81.4311978771
 30
0.0
 11
167.3284292379
 21
81.4311978771
 31
0.0
  0
LINE
  5
14A
330
1F
100
AcDbEntity
  8
0
  6
HIDDEN
 62
     7
370
     0
100
AcDbLine
 10
157.9661041656
 20
99.3311972721
 30
0.0
 11
157.9661041656
 21
116.3311981959
 31
0.0
  0
SPLINE
  5
14B
330
1F
100
AcDbEntity
  8
0
  6
HIDDEN
 62
     7
370
     0
100
AcDbSpline
210
0.0
220
0.0
230
1.0
 70
     8
 71
     3
 72
    12
 73
     8
 74
     0
 42
0.000000001
 43
0.00000001
 40
0.0
 40
0.0
 40
0.0
 40
0.0
 40
0.2035643417256059
 40
0.4067377358658503
 40
0.6198469478306106
 40
0.8406845494375096
 40
1.0
 40
1.0
 40
1.0
 40
1.0
 10
183.4661055514415
 20
116.1227598218342
 30
0.0
 10
183.8425629659792
 20
116.1382150862067
 30
0.0
 10
184.5947548043973
 20
116.1690959329442
 30
0.0
 10
185.6095861467684
 20
116.3822917575798
 30
0.0
 10
186.4091936597685
 20
116.6211400668258
 30
0.0
 10
186.9041820596843
 20
116.8068405199949
 30
0.0
 10
186.9226167519933
 20
116.8143083505557
 30
0.0
 10
186.9303424069484
 20
116.8174379868528
 30
0.0
  0
LINE
  5
14C
330
1F
100
AcDbEntity
  8
0
  6
HIDDEN
 62
     7
370
     0
100
AcDbLine
 10
183.787326158
 20
116.1441224991
 30
0.0
 11
183.0313716242
 21
116.1401532022
 31
0.0
  0
SPLINE
  5
14D
330
1F
100
AcDbEntity
  8
0
  6
HIDDEN
 62
     7
370
     0
100
AcDbSpline
210
0.0
220
0.0
230
1.0
 70
     8
 71
     3
 72
    13
 73
     9
 74
     0
 42
0.000000001
 43
0.00000001
 40
0.0
 40
0.0
 40
0.0
 40
0.0
 40
0.1375291249086657
 40
0.3362724136654909
 40
0.5437042752830086
 40
0.7630690855783988
 40
0.8791930819407202
 40
0.9999999999999999
 40
0.9999999999999999
 40
0.9999999999999999
 40
0.9999999999999999
 10
180.006454528292
 20
116.8156256331226
 30
0.0
 10
180.006716613328
 20
116.8154181993732
 30
0.0
 10
180.0073574373546
 20
116.8149110031875
 30
0.0
 10
180.4156300607816
 20
116.6607975127307
 30
0.0
 10
181.1378088432687
 20
116.4293850617531
 30
0.0
 10
181.9987335881976
 20
116.2375477329001
 30
0.0
 10
182.8052814962442
 20
116.1384763711288
 30
0.0
 10
183.2429473885651
 20
116.1280672500971
 30
0.0
 10
183.4661055514415
 20
116.1227598218342
 30
0.0
  0
LINE
  5
14E
330
1F
100
AcDbEntity
  8
0
  6
HIDDEN
 62
     7
370
     0
100
AcDbLine
 10
152.4661041954
 20
76.3470744146
 30
0.0
 11
152.4661041954
 21
81.4311978771
 31
0.0
  0
LINE
  5
14F
330
1F
100
AcDbEntity
  8
0
  6
HIDDEN
 62
     7
370
     0
100
AcDbLine
 10
160.4661045754
 20
81.4311978771
 30
0.0
 11
152.4661041954
 21
81.4311978771
 31
0.0
  0
LINE
  5
150
330
1F
100
AcDbEntity
  8
0
  6
HIDDEN
 62
     7
370
     0
100
AcDbLine
 10
163.7037795195
 20
81.4311978771
 30
0.0
 11
160.4661045754
 21
81.4311978771
 31
0.0
  0
LINE
  5
151
330
1F
100
AcDbEntity
  8
0
  6
HIDDEN
 62
     7
370
     0
100
AcDbLine
 10
173.4661039123
 20
134.2311975909
 30
0.0
 11
167.0318067232
 21
134.2311975909
 31
0.0
  0
LINE
  5
152
330
1F
100
AcDbEntity
  8
0
  6
HIDDEN
 62
     7
370
     0
100
AcDbLine
 10
164.0004020342
 20
134.2311975909
 30
0.0
 11
160.4661045754
 21
134.2311975909
 31
0.0
  0
LINE
  5
153
330
1F
100
AcDbEntity
  8
0
  6
HIDDEN
 62
     7
370
     0
100
AcDbLine
 10
160.4661045754
 20
134.2311975909
 30
0.0
 11
152.4661041954
 21
134.2311975909
 31
0.0
  0
SPLINE
  5
154
330
1F
100
AcDbEntity
  8
0
  6
HIDDEN
 62
     7
370
     0
100
AcDbSpline
210
0.0
220
0.0
230
1.0
 70
     8
 71
     3
 72
    11
 73
     7
 74
     0
 42
0.000000001
 43
0.00000001
 40
0.0
 40
0.0
 40
0.0
 40
0.0
 40
0.0008203708524183
 40
0.0008203708524183
 40
0.0008203708524183
 40
0.0016409967870154
 40
0.0016409967870154
 40
0.0016409967870154
 40
0.0016409967870154
 10
116.7661042222579
 20
91.97916498335763
 30
0.0
 10
116.5749459219593
 20
91.93798595473848
 30
0.0
 10
116.3835188518871
 20
91.8992319825085
 30
0.0
 10
116.1918732283664
 20
91.86286422322995
 30
0.0
 10
116.000167823286
 20
91.82648511946391
 30
0.0
 10
115.808228871227
 20
91.79249086869638
 30
0.0
 10
115.6161042241562
 20
91.76084274330515
 30
0.0
  0
ELLIPSE
  5
155
330
1F
100
AcDbEntity
  8
0
  6
HIDDEN
 62
     7
370
     0
100
AcDbEllipse
 10
111.3736723595
 20
107.831197734
 30
0.0
 11
20.19992452772428
 21
-1.421085471520200E-14
 31
0.0
210
0.0
220
0.0
230
1.0
 40
0.816496581
 41
1.300566354937166
 42
1.359198697442763
  0
LINE
  5
156
330
1F
100
AcDbEntity
  8
0
  6
HIDDEN
 62
     7
370
     0
100
AcDbLine
 10
116.7661033729
 20
89.841197188
 30
0.0
 11
116.7661033729
 21
91.9791655047
 31
0.0
  0
LINE
  5
157
330
1F
100
AcDbEntity
  8
0
  6
HIDDEN
 62
     7
370
     0
100
AcDbLine
 10
116.8471358875
 20
92.0297065182
 30
0.0
 11
116.7661033729
 21
91.9791655047
 31
0.0
  0
LINE
  5
158
330
1F
100
AcDbEntity
  8
0
  6
HIDDEN
 62
     7
370
     0
100
AcDbLine
 10
125.7161040017
 20
89.841197188
 30
0.0
 11
125.7161040017
 21
91.5436846567
 31
0.0
  0
LINE
  5
159
330
1F
100
AcDbEntity
  8
0
  6
HIDDEN
 62
     7
370
     0
100
AcDbLine
 10
121.7161033461
 20
125.82119828
 30
0.0
 11
121.7161033461
 21
124.1187108113
 31
0.0
  0
LINE
  5
15A
330
1F
100
AcDbEntity
  8
0
  6
HIDDEN
 62
     7
370
     0
100
AcDbLine
 10
116.7661033729
 20
125.82119828
 30
0.0
 11
116.7661033729
 21
123.7258230699
 31
0.0
  0
SPLINE
  5
15B
330
1F
100
AcDbEntity
  8
0
  6
HIDDEN
 62
     7
370
     0
100
AcDbSpline
210
0.0
220
0.0
230
1.0
 70
     8
 71
     3
 72
     8
 73
     4
 74
     0
 42
0.000000001
 43
0.00000001
 40
0.0
 40
0.0
 40
0.0
 40
0.0
 40
1.0
 40
1.0
 40
1.0
 40
1.0
 10
116.7661042222579
 20
123.7258221829989
 30
0.0
 10
116.8161097201054
 20
123.6947864094661
 30
0.0
 10
116.8661097896738
 20
123.6637417651252
 30
0.0
 10
116.9161042223631
 20
123.632688170032
 30
0.0
  0
LINE
  5
15C
330
1F
100
AcDbEntity
  8
0
  6
HIDDEN
 62
     7
370
     0
100
AcDbLine
 10
183.4661055514
 20
122.3311973168
 30
0.0
 11
186.9661051938
 21
122.3311973168
 31
0.0
  0
LINE
  5
15D
330
1F
100
AcDbEntity
  8
0
  6
HIDDEN
 62
     7
370
     0
100
AcDbLine
 10
179.9661059091
 20
122.3311973168
 30
0.0
 11
183.4661055514
 21
122.3311973168
 31
0.0
  0
LWPOLYLINE
  5
15E
330
1F
100
AcDbEntity
  8
0
  6
HIDDEN
 62
     7
370
     0
100
AcDbPolyline
 90
       25
 70
   128
 43
0.0
 10
142.2651766958
 20
84.2311670436
 10
142.2149122851
 20
84.2459471328
 10
142.0360778617
 20
84.2923120959
 10
141.6989665637
 20
84.3699974371
 10
141.4633223945
 20
84.4205831541
 10
141.1802753033
 20
84.4789975686
 10
140.4384987587
 20
84.6091033323
 10
139.7082897061
 20
84.7096824451
 10
139.2648665393
 20
84.7603314919
 10
138.8719052234
 20
84.7978563411
 10
138.5368693778
 20
84.8222607179
 10
137.8964370275
 20
84.8467042102
 10
137.2152891168
 20
84.8483433379
 10
136.5267465049
 20
84.8271799637
 10
136.1935388455
 20
84.8080450101
 10
135.8766200179
 20
84.7832103623
 10
135.2959739202
 20
84.7262339098
 10
134.9599965075
 20
84.6854717834
 10
134.8052963773
 20
84.6609202577
 10
134.7661240185
 20
84.652583058
 10
134.8027734244
 20
84.6604769481
 10
134.9551228965
 20
84.6846317304
 10
135.2871105233
 20
84.7250492675
 10
135.859961451
 20
84.7817258341
 10
135.859961451
 20
84.7817258341
  0
SPLINE
  5
15F
330
1F
100
AcDbEntity
  8
0
  6
HIDDEN
 62
     7
370
     0
100
AcDbSpline
210
0.0
220
0.0
230
1.0
 70
     8
 71
     3
 72
    27
 73
    23
 74
     0
 42
0.000000001
 43
0.00000001
 40
0.0
 40
0.0
 40
0.0
 40
0.0
 40
0.0008379672635666
 40
0.0457207793979683
 40
0.1023028233157732
 40
0.1705813694690418
 40
0.2091732850370782
 40
0.2507008022647413
 40
0.3211470324687663
 40
0.3862412199426276
 40
0.4267206627099926
 40
0.4648521798394895
 40
0.5006566833288145
 40
0.545248811749476
 40
0.6017434414366948
 40
0.6701498340755425
 40
0.7088874611783771
 40
0.7506164761124265
 40
0.8222815492782408
 40
0.8878213986751984
 40
0.9472955563309353
 40
1.0
 40
1.0
 40
1.0
 40
1.0
 10
134.7667964333495
 20
131.0096075190326
 30
0.0
 10
134.7665659482661
 20
131.0096568396087
 30
0.0
 10
134.7539903285397
 20
131.0123478459003
 30
0.0
 10
134.8030525013157
 20
131.0005479248081
 30
0.0
 10
134.9481717211169
 20
130.9770893285152
 30
0.0
 10
135.2212191777546
 20
130.9431872510237
 30
0.0
 10
135.5497457985821
 20
130.9096185183245
 30
0.0
 10
135.942473550595
 20
130.8714357877983
 30
0.0
 10
136.4922014584589
 20
130.8324675725243
 30
0.0
 10
137.1182240604701
 20
130.8130059787765
 30
0.0
 10
137.6614159056581
 20
130.8108208171275
 30
0.0
 10
138.1064846539316
 20
130.8193355395274
 30
0.0
 10
138.5729325089134
 20
130.8391190894643
 30
0.0
 10
139.1101734332857
 20
130.8832789710214
 30
0.0
 10
139.75838640889
 20
130.9556988076301
 30
0.0
 10
140.3439255301023
 20
131.0365964612085
 30
0.0
 10
140.8248947308979
 20
131.1147658336453
 30
0.0
 10
141.2703095705436
 20
131.1995363442695
 30
0.0
 10
141.7088106593395
 20
131.2933214125426
 30
0.0
 10
142.0478317902883
 20
131.371222568704
 30
0.0
 10
142.2351466366682
 20
131.421406818673
 30
0.0
 10
142.2556350074711
 20
131.4280724989483
 30
0.0
 10
142.2652609804472
 20
131.431204210045
 30
0.0
  0
SPLINE
  5
160
330
1F
100
AcDbEntity
  8
0
  6
HIDDEN
 62
     7
370
     0
100
AcDbSpline
210
0.0
220
0.0
230
1.0
 70
     8
 71
     3
 72
     8
 73
     4
 74
     0
 42
0.000000001
 43
0.00000001
 40
0.0
 40
0.0
 40
0.0
 40
0.0
 40
0.000159097691435
 40
0.000159097691435
 40
0.000159097691435
 40
0.000159097691435
 10
116.9012722281603
 20
92.0297072979687
 30
0.0
 10
116.856220758761
 20
92.00172841433479
 30
0.0
 10
116.8111647214514
 20
91.97375688464925
 30
0.0
 10
116.7661042222579
 20
91.9457925459859
 30
0.0
  0
SPLINE
  5
161
330
1F
100
AcDbEntity
  8
0
  6
HIDDEN
 62
     7
370
     0
100
AcDbSpline
210
0.0
220
0.0
230
1.0
 70
     8
 71
     3
 72
    11
 73
     7
 74
     0
 42
0.000000001
 43
0.00000001
 40
0.0
 40
0.0
 40
0.0
 40
0.0
 40
0.0008212909311356
 40
0.0008212909311356
 40
0.0008212909311356
 40
0.0016428257242859
 40
0.0016428257242859
 40
0.0016428257242859
 40
0.0016428257242859
 10
116.7661042222579
 20
91.9457925459859
 30
0.0
 10
116.5749592007756
 20
91.9025063571561
 30
0.0
 10
116.383540865099
 20
91.86156984754207
 30
0.0
 10
116.1918947904379
 20
91.82296807617924
 30
0.0
 10
116.0001917088963
 20
91.78435482236588
 30
0.0
 10
115.8082465856109
 20
91.74807461310417
 30
0.0
 10
115.6161042222579
 20
91.71410770677743
 30
0.0
  0
LINE
  5
162
330
1F
100
AcDbEntity
  8
0
  6
HIDDEN
 62
     7
370
     0
100
AcDbLine
 10
163.6061042705
 20
127.9670642121
 30
0.0
 11
163.6061042705
 21
127.6811984731
 31
0.0
  0
LINE
  5
163
330
1F
100
AcDbEntity
  8
0
  6
HIDDEN
 62
     7
370
     0
100
AcDbLine
 10
167.4261044869
 20
127.9670642121
 30
0.0
 11
167.4261044869
 21
127.6811984731
 31
0.0
  0
LINE
  5
164
330
1F
100
AcDbEntity
  8
0
  6
HIDDEN
 62
     7
370
     0
100
AcDbLine
 10
168.9080361435
 20
132.2898873491
 30
0.0
 11
168.9080361435
 21
127.6811984731
 31
0.0
  0
SPLINE
  5
165
330
1F
100
AcDbEntity
  8
0
  6
HIDDEN
 62
     7
370
     0
100
AcDbSpline
210
0.0
220
0.0
230
1.0
 70
     8
 71
     3
 72
     8
 73
     4
 74
     0
 42
0.000000001
 43
0.00000001
 40
0.0000000000000004
 40
0.0000000000000004
 40
0.0000000000000004
 40
0.0000000000000004
 40
0.001156372467817
 40
0.001156372467817
 40
0.001156372467817
 40
0.001156372467817
 10
116.6161042222582
 20
120.4713400474761
 30
0.0
 10
116.282783107061
 20
120.6003990731028
 30
0.0
 10
115.9494504262529
 20
120.7293594092714
 30
0.0
 10
115.6161042222579
 20
120.8582709390443
 30
0.0
  0
SPLINE
  5
166
330
1F
100
AcDbEntity
  8
0
  6
HIDDEN
 62
     7
370
     0
100
AcDbSpline
210
0.0
220
0.0
230
1.0
 70
     8
 71
     3
 72
    11
 73
     7
 74
     0
 42
0.000000001
 43
0.00000001
 40
0.0
 40
0.0
 40
0.0
 40
0.0
 40
0.000577874610501
 40
0.000577874610501
 40
0.000577874610501
 40
0.001155749485703
 40
0.001155749485703
 40
0.001155749485703
 40
0.001155749485703
 10
115.6161042222579
 20
94.80397587154962
 30
0.0
 10
115.782771098671
 20
94.86978799833264
 30
0.0
 10
115.9494378182324
 20
94.9356464785602
 30
0.0
 10
116.116104466281
 20
95.00155405158256
 30
0.0
 10
116.2827711907996
 20
95.06746165484464
 30
0.0
 10
116.4494378852203
 20
95.13341876332662
 30
0.0
 10
116.6161042222579
 20
95.19942050334623
 30
0.0
  0
SPLINE
  5
167
330
1F
100
AcDbEntity
  8
0
  6
HIDDEN
 62
     7
370
     0
100
AcDbSpline
210
0.0
220
0.0
230
1.0
 70
     8
 71
     3
 72
    11
 73
     7
 74
     0
 42
0.000000001
 43
0.00000001
 40
0.0000000000000006
 40
0.0000000000000006
 40
0.0000000000000006
 40
0.0000000000000006
 40
0.000578048606266
 40
0.000578048606266
 40
0.000578048606266
 40
0.001156097351391
 40
0.001156097351391
 40
0.001156097351391
 40
0.001156097351391
 10
115.6161042222579
 20
117.8120122272876
 30
0.0
 10
115.7827740783031
 20
117.7496403658825
 30
0.0
 10
115.9494417823876
 20
117.687286505691
 30
0.0
 10
116.1161080868412
 20
117.6249669456075
 30
0.0
 10
116.282774427535
 20
117.5626473719731
 30
0.0
 10
116.4494393841636
 20
117.5003621677525
 30
0.0
 10
116.616104222258
 20
117.4381370472795
 30
0.0
  0
SPLINE
  5
168
330
1F
100
AcDbEntity
  8
0
  6
HIDDEN
 62
     7
370
     0
100
AcDbSpline
210
0.0
220
0.0
230
1.0
 70
     8
 71
     3
 72
    11
 73
     7
 74
     0
 42
0.000000001
 43
0.00000001
 40
0.0
 40
0.0
 40
0.0
 40
0.0
 40
0.0005782401583357
 40
0.0005782401583357
 40
0.0005782401583357
 40
0.001156480596064
 40
0.001156480596064
 40
0.001156480596064
 40
0.001156480596064
 10
116.6161042222579
 20
98.23037094924005
 30
0.0
 10
116.4494532719092
 20
98.16694549130098
 30
0.0
 10
116.2827936793266
 20
98.10358996777116
 30
0.0
 10
116.1161266268981
 20
98.04029238354981
 30
0.0
 10
115.9494594903343
 20
97.97699476737519
 30
0.0
 10
115.7827848828881
 20
97.9137549725663
 30
0.0
 10
115.6161042222579
 20
97.85055496606203
 30
0.0
  0
CIRCLE
  5
169
330
1F
100
AcDbEntity
  8
0
  6
HIDDEN
 62
     7
370
     0
100
AcDbCircle
 10
154.5161042223
 20
107.831197734
 30
0.0
 40
5.000000000000014
  0
LINE
  5
16A
330
1F
100
AcDbEntity
  8
0
  6
HIDDEN
 62
     7
370
     0
100
AcDbLine
 10
187.4661024818
 20
123.1311978204
 30
0.0
 11
187.0577920386
 21
123.5395082636
 31
0.0
  0
LINE
  5
16B
330
1F
100
AcDbEntity
  8
0
  6
HIDDEN
 62
     7
370
     0
100
AcDbLine
 10
179.875301958
 20
123.5403948827
 30
0.0
 11
179.4661048958
 21
123.1311978204
 31
0.0
  0
LINE
  5
16C
330
1F
100
AcDbEntity
  8
0
  6
HIDDEN
 62
     7
370
     0
100
AcDbLine
 10
179.4661048958
 20
123.1311978204
 30
0.0
 11
179.4661048958
 21
117.9364537252
 31
0.0
  0
LINE
  5
16D
330
1F
100
AcDbEntity
  8
0
  6
HIDDEN
 62
     7
370
     0
100
AcDbLine
 10
187.4661024818
 20
117.9364537252
 30
0.0
 11
187.4661024818
 21
123.1311978204
 31
0.0
  0
LINE
  5
16E
330
1F
100
AcDbEntity
  8
0
  6
HIDDEN
 62
     7
370
     0
100
AcDbLine
 10
179.4661048958
 20
117.9364537252
 30
0.0
 11
180.5065263221
 21
114.0535519822
 31
0.0
  0
LINE
  5
16F
330
1F
100
AcDbEntity
  8
0
  6
HIDDEN
 62
     7
370
     0
100
AcDbLine
 10
186.4256847808
 20
114.0535519822
 30
0.0
 11
187.4661024818
 21
117.9364537252
 31
0.0
  0
ARC
  5
170
330
1F
100
AcDbEntity
  8
0
  6
HIDDEN
 62
     7
370
     0
100
AcDbCircle
 10
180.7963023187
 20
114.131197734
 30
0.0
 40
0.3000000000000114
100
AcDbArc
 50
195.0
 51
270.0
  0
ARC
  5
171
330
1F
100
AcDbEntity
  8
0
  6
HIDDEN
 62
     7
370
     0
100
AcDbCircle
 10
186.1359061259
 20
114.131197734
 30
0.0
 40
0.3000000000000114
100
AcDbArc
 50
270.0
 51
345.0
  0
LINE
  5
172
330
1F
100
AcDbEntity
  8
0
  6
HIDDEN
 62
     7
370
     0
100
AcDbLine
 10
181.0661059031
 20
123.831198494
 30
0.0
 11
181.4661052236
 21
123.4311973108
 31
0.0
  0
LINE
  5
173
330
1F
100
AcDbEntity
  8
0
  6
HIDDEN
 62
     7
370
     0
100
AcDbLine
 10
185.4661058793
 20
123.4311973108
 30
0.0
 11
185.8661051998
 21
123.831198494
 31
0.0
  0
LINE
  5
174
330
1F
100
AcDbEntity
  8
0
  6
HIDDEN
 62
     7
370
     0
100
AcDbLine
 10
181.4661052236
 20
118.8311976744
 30
0.0
 11
181.4661052236
 21
117.8311975105
 31
0.0
  0
LINE
  5
175
330
1F
100
AcDbEntity
  8
0
  6
HIDDEN
 62
     7
370
     0
100
AcDbLine
 10
185.4661058793
 20
117.8311975105
 30
0.0
 11
185.4661058793
 21
118.8311976744
 31
0.0
  0
LINE
  5
176
330
1F
100
AcDbEntity
  8
0
  6
HIDDEN
 62
     7
370
     0
100
AcDbLine
 10
181.4661052236
 20
117.8311975105
 30
0.0
 11
183.4661055514
 21
117.1032571597
 31
0.0
  0
LINE
  5
177
330
1F
100
AcDbEntity
  8
0
  6
HIDDEN
 62
     7
370
     0
100
AcDbLine
 10
183.4661055514
 20
117.1032571597
 30
0.0
 11
185.4661058793
 21
117.8311975105
 31
0.0
  0
LINE
  5
178
330
1F
100
AcDbEntity
  8
0
  6
HIDDEN
 62
     7
370
     0
100
AcDbLine
 10
187.4661024818
 20
123.1311978204
 30
0.0
 11
187.0577920386
 21
123.5395082636
 31
0.0
  0
LINE
  5
179
330
1F
100
AcDbEntity
  8
0
  6
HIDDEN
 62
     7
370
     0
100
AcDbLine
 10
179.875301958
 20
123.5403948827
 30
0.0
 11
179.4661048958
 21
123.1311978204
 31
0.0
  0
LINE
  5
17A
330
1F
100
AcDbEntity
  8
0
  6
HIDDEN
 62
     7
370
     0
100
AcDbLine
 10
179.4661048958
 20
123.1311978204
 30
0.0
 11
179.4661048958
 21
117.9364537252
 31
0.0
  0
LINE
  5
17B
330
1F
100
AcDbEntity
  8
0
  6
HIDDEN
 62
     7
370
     0
100
AcDbLine
 10
187.4661024818
 20
117.9364537252
 30
0.0
 11
187.4661024818
 21
123.1311978204
 31
0.0
  0
LINE
  5
17C
330
1F
100
AcDbEntity
  8
0
  6
HIDDEN
 62
     7
370
     0
100
AcDbLine
 10
179.4661048958
 20
117.9364537252
 30
0.0
 11
180.5065263221
 21
114.0535519822
 31
0.0
  0
LINE
  5
17D
330
1F
100
AcDbEntity
  8
0
  6
HIDDEN
 62
     7
370
     0
100
AcDbLine
 10
186.4256847808
 20
114.0535519822
 30
0.0
 11
187.4661024818
 21
117.9364537252
 31
0.0
  0
LINE
  5
17E
330
1F
100
AcDbEntity
  8
0
  6
HIDDEN
 62
     7
370
     0
100
AcDbLine
 10
181.0661059031
 20
123.831198494
 30
0.0
 11
181.4661052236
 21
123.4311973108
 31
0.0
  0
LINE
  5
17F
330
1F
100
AcDbEntity
  8
0
  6
HIDDEN
 62
     7
370
     0
100
AcDbLine
 10
185.4661058793
 20
123.4311973108
 30
0.0
 11
185.8661051998
 21
123.831198494
 31
0.0
  0
LINE
  5
180
330
1F
100
AcDbEntity
  8
0
  6
HIDDEN
 62
     7
370
     0
100
AcDbLine
 10
181.4661052236
 20
118.8311976744
 30
0.0
 11
181.4661052236
 21
117.8311975105
 31
0.0
  0
LINE
  5
181
330
1F
100
AcDbEntity
  8
0
  6
HIDDEN
 62
     7
370
     0
100
AcDbLine
 10
185.4661058793
 20
117.8311975105
 30
0.0
 11
185.4661058793
 21
118.8311976744
 31
0.0
  0
LINE
  5
182
330
1F
100
AcDbEntity
  8
0
  6
HIDDEN
 62
     7
370
     0
100
AcDbLine
 10
181.4661052236
 20
117.8311975105
 30
0.0
 11
183.4661055514
 21
117.1032571597
 31
0.0
  0
LINE
  5
183
330
1F
100
AcDbEntity
  8
0
  6
HIDDEN
 62
     7
370
     0
100
AcDbLine
 10
183.4661055514
 20
117.1032571597
 30
0.0
 11
185.4661058793
 21
117.8311975105
 31
0.0
  0
LINE
  5
184
330
1F
100
AcDbEntity
  8
0
  6
HIDDEN
 62
     7
370
     0
100
AcDbLine
 10
147.5161042223
 20
82.5072666062
 30
0.0
 11
147.6102649945
 21
83.1772544785
 31
0.0
  0
LINE
  5
185
330
1F
100
AcDbEntity
  8
0
  6
HIDDEN
 62
     7
370
     0
100
AcDbLine
 10
147.6102649945
 20
132.4851409895
 30
0.0
 11
147.5161042223
 21
133.1551288618
 31
0.0
  0
ARC
  5
186
330
1F
100
AcDbEntity
  8
0
  6
HIDDEN
 62
     7
370
     0
100
AcDbCircle
 10
147.0160974696
 20
83.2607601196
 30
0.0
 40
0.6000067526677242
100
AcDbArc
 50
352.0
 51
0.0
  0
ARC
  5
187
330
1F
100
AcDbEntity
  8
0
  6
HIDDEN
 62
     7
370
     0
100
AcDbCircle
 10
147.0160974696
 20
83.2607601196
 30
0.0
 40
0.6000067526677242
100
AcDbArc
 50
0.0
 51
33.5571153394
  0
ARC
  5
188
330
1F
100
AcDbEntity
  8
0
  6
HIDDEN
 62
     7
370
     0
100
AcDbCircle
 10
147.0160974696
 20
132.4016353484
 30
0.0
 40
0.6000067526677121
100
AcDbArc
 50
348.75
 51
8.0
  0
LWPOLYLINE
  5
189
330
1F
100
AcDbEntity
  8
0
  6
HIDDEN
 62
     7
370
     0
100
AcDbPolyline
 90
        3
 70
   128
 43
0.0
 10
147.6045752612
 20
132.2845806731
 10
147.5704314294
 20
132.1720228894
 10
147.5161042223
 20
132.0699704243
  0
LINE
  5
18A
330
1F
100
AcDbEntity
  8
0
  6
HIDDEN
 62
     7
370
     0
100
AcDbLine
 10
147.6161042197
 20
83.2607605858
 30
0.0
 11
147.6161042197
 21
132.4016348822
 31
0.0
  0
ARC
  5
18B
330
1F
100
AcDbEntity
  8
0
  6
HIDDEN
 62
     7
370
     0
100
AcDbCircle
 10
141.2711062239
 20
95.831197734
 30
0.0
 40
7.999999999999996
100
AcDbArc
 50
276.8790924191
 51
321.3178125465
  0
ARC
  5
18C
330
1F
100
AcDbEntity
  8
0
  6
HIDDEN
 62
     7
370
     0
100
AcDbCircle
 10
141.2711062239
 20
119.831197734
 30
0.0
 40
8.000000000000002
100
AcDbArc
 50
38.6821874535
 51
83.1197303242
  0
LINE
  5
18D
330
1F
100
AcDbEntity
  8
0
  6
HIDDEN
 62
     7
370
     0
100
AcDbLine
 10
130.5985402474
 20
87.831198181
 30
0.0
 11
134.7902117455
 21
87.831198181
 31
0.0
  0
LINE
  5
18E
330
1F
100
AcDbEntity
  8
0
  6
HIDDEN
 62
     7
370
     0
100
AcDbLine
 10
134.7902117455
 20
127.831197287
 30
0.0
 11
130.5985402474
 21
127.831197287
 31
0.0
  0
ARC
  5
18F
330
1F
100
AcDbEntity
  8
0
  6
HIDDEN
 62
     7
370
     0
100
AcDbCircle
 10
130.5985397876
 20
88.431197734
 30
0.0
 40
0.6000000000000085
100
AcDbArc
 50
210.0
 51
270.0
  0
ARC
  5
190
330
1F
100
AcDbEntity
  8
0
  6
HIDDEN
 62
     7
370
     0
100
AcDbCircle
 10
130.5985397876
 20
127.231197734
 30
0.0
 40
0.5999999999999943
100
AcDbArc
 50
90.0
 51
150.0
  0
LINE
  5
191
330
1F
100
AcDbEntity
  8
0
  6
HIDDEN
 62
     7
370
     0
100
AcDbLine
 10
130.0789237181
 20
127.5311977966
 30
0.0
 11
128.520079718
 21
124.8311986579
 31
0.0
  0
LINE
  5
192
330
1F
100
AcDbEntity
  8
0
  6
HIDDEN
 62
     7
370
     0
100
AcDbLine
 10
128.520079718
 20
90.8311968101
 30
0.0
 11
130.0789237181
 21
88.1311976714
 31
0.0
  0
ARC
  5
193
330
1F
100
AcDbEntity
  8
0
  6
HIDDEN
 62
     7
370
     0
100
AcDbCircle
 10
155.9661042223
 20
92.106197734
 30
0.0
 40
1.500000000000004
100
AcDbArc
 50
238.2116693829
 51
0.0
  0
ARC
  5
194
330
1F
100
AcDbEntity
  8
0
  6
HIDDEN
 62
     7
370
     0
100
AcDbCircle
 10
155.9661042223
 20
123.556197734
 30
0.0
 40
1.500000000000016
100
AcDbArc
 50
0.0
 51
121.7883306171
  0
LINE
  5
195
330
1F
100
AcDbEntity
  8
0
  6
HIDDEN
 62
     7
370
     0
100
AcDbLine
 10
147.5161042223
 20
90.8311968101
 30
0.0
 11
155.1759301843
 21
90.8311968101
 31
0.0
  0
LINE
  5
196
330
1F
100
AcDbEntity
  8
0
  6
HIDDEN
 62
     7
370
     0
100
AcDbLine
 10
155.1759301843
 20
124.8311986579
 30
0.0
 11
147.5161042223
 21
124.8311986579
 31
0.0
  0
LINE
  5
197
330
1F
100
AcDbEntity
  8
0
  6
HIDDEN
 62
     7
370
     0
100
AcDbLine
 10
125.7161040017
 20
90.8311968101
 30
0.0
 11
128.520079718
 21
90.8311968101
 31
0.0
  0
LINE
  5
198
330
1F
100
AcDbEntity
  8
0
  6
HIDDEN
 62
     7
370
     0
100
AcDbLine
 10
128.520079718
 20
124.8311986579
 30
0.0
 11
121.7161033461
 21
124.8311986579
 31
0.0
  0
ARC
  5
199
330
1F
100
AcDbEntity
  8
0
  6
HIDDEN
 62
     7
370
     0
100
AcDbCircle
 10
194.5161042223
 20
117.831197734
 30
0.0
 40
1.0
100
AcDbArc
 50
270.0
 51
0.0
  0
ARC
  5
19A
330
1F
100
AcDbEntity
  8
0
  6
HIDDEN
 62
     7
370
     0
100
AcDbCircle
 10
194.5161042223
 20
97.831197734
 30
0.0
 40
1.0
100
AcDbArc
 50
0.0
 51
90.0
  0
ARC
  5
19B
330
1F
100
AcDbEntity
  8
0
  6
HIDDEN
 62
     7
370
     0
100
AcDbCircle
 10
174.4107822242
 20
116.531197734
 30
0.0
 40
0.8000000000000119
100
AcDbArc
 50
75.0
 51
90.0
  0
ARC
  5
19C
330
1F
100
AcDbEntity
  8
0
  6
HIDDEN
 62
     7
370
     0
100
AcDbCircle
 10
174.4107822242
 20
99.131197734
 30
0.0
 40
0.8000000000000114
100
AcDbArc
 50
270.0
 51
285.0
  0
LINE
  5
19D
330
1F
100
AcDbEntity
  8
0
  6
HIDDEN
 62
     7
370
     0
100
AcDbLine
 10
174.4107816526
 20
117.3311974285
 30
0.0
 11
173.8161042491
 21
117.3311974285
 31
0.0
  0
LINE
  5
19E
330
1F
100
AcDbEntity
  8
0
  6
HIDDEN
 62
     7
370
     0
100
AcDbLine
 10
173.8161042491
 20
98.3311980395
 30
0.0
 11
174.4107816526
 21
98.3311980395
 31
0.0
  0
LINE
  5
19F
330
1F
100
AcDbEntity
  8
0
  6
HIDDEN
 62
     7
370
     0
100
AcDbLine
 10
166.3161039511
 20
98.3311980395
 30
0.0
 11
169.3161044428
 21
98.3311980395
 31
0.0
  0
LINE
  5
1A0
330
1F
100
AcDbEntity
  8
0
  6
HIDDEN
 62
     7
370
     0
100
AcDbLine
 10
169.3161044428
 20
117.3311974285
 30
0.0
 11
166.3161039511
 21
117.3311974285
 31
0.0
  0
ARC
  5
1A1
330
1F
100
AcDbEntity
  8
0
  6
HIDDEN
 62
     7
370
     0
100
AcDbCircle
 10
173.8161042223
 20
116.531197734
 30
0.0
 40
0.7999999999999972
100
AcDbArc
 50
90.0
 51
180.0
  0
ARC
  5
1A2
330
1F
100
AcDbEntity
  8
0
  6
HIDDEN
 62
     7
370
     0
100
AcDbCircle
 10
173.8161042223
 20
99.131197734
 30
0.0
 40
0.7999999999999972
100
AcDbArc
 50
180.0
 51
270.0
  0
LINE
  5
1A3
330
1F
100
AcDbEntity
  8
0
  6
HIDDEN
 62
     7
370
     0
100
AcDbLine
 10
174.6178370127
 20
98.3584569199
 30
0.0
 11
176.3821289101
 21
98.8311981214
 31
0.0
  0
LINE
  5
1A4
330
1F
100
AcDbEntity
  8
0
  6
HIDDEN
 62
     7
370
     0
100
AcDbLine
 10
176.3821289101
 20
116.8311973466
 30
0.0
 11
174.6178370127
 21
117.3039385481
 31
0.0
  0
LINE
  5
1A5
330
1F
100
AcDbEntity
  8
0
  6
HIDDEN
 62
     7
370
     0
100
AcDbLine
 10
157.4661040837
 20
98.8311981214
 30
0.0
 11
157.9661041656
 21
99.3311972721
 31
0.0
  0
LINE
  5
1A6
330
1F
100
AcDbEntity
  8
0
  6
HIDDEN
 62
     7
370
     0
100
AcDbLine
 10
157.9661041656
 20
116.3311981959
 30
0.0
 11
157.4661040837
 21
116.8311973466
 31
0.0
  0
LINE
  5
1A7
330
1F
100
AcDbEntity
  8
0
  6
HIDDEN
 62
     7
370
     0
100
AcDbLine
 10
180.0064545283
 20
116.8311973466
 30
0.0
 11
176.3821289101
 21
116.8311973466
 31
0.0
  0
LINE
  5
1A8
330
1F
100
AcDbEntity
  8
0
  6
HIDDEN
 62
     7
370
     0
100
AcDbLine
 10
194.5161026129
 20
116.8311973466
 30
0.0
 11
186.9303424069
 21
116.8311973466
 31
0.0
  0
LINE
  5
1A9
330
1F
100
AcDbEntity
  8
0
  6
HIDDEN
 62
     7
370
     0
100
AcDbLine
 10
176.3821289101
 20
98.8311981214
 30
0.0
 11
194.5161026129
 21
98.8311981214
 31
0.0
  0
LINE
  5
1AA
330
1F
100
AcDbEntity
  8
0
  6
HIDDEN
 62
     7
370
     0
100
AcDbLine
 10
157.9661041656
 20
99.3311972721
 30
0.0
 11
166.3161039511
 21
99.3311972721
 31
0.0
  0
LINE
  5
1AB
330
1F
100
AcDbEntity
  8
0
  6
HIDDEN
 62
     7
370
     0
100
AcDbLine
 10
166.3161039511
 20
116.3311981959
 30
0.0
 11
157.9661041656
 21
116.3311981959
 31
0.0
  0
LINE
  5
1AC
330
1F
100
AcDbEntity
  8
0
  6
HIDDEN
 62
     7
370
     0
100
AcDbLine
 10
152.4661041954
 20
139.3311982406
 30
0.0
 11
152.4661041954
 21
134.2311975909
 31
0.0
  0
LINE
  5
1AD
330
1F
100
AcDbEntity
  8
0
  6
HIDDEN
 62
     7
370
     0
100
AcDbLine
 10
178.4661047319
 20
123.831198494
 30
0.0
 11
179.9661059091
 21
122.3311973168
 31
0.0
  0
LINE
  5
1AE
330
1F
100
AcDbEntity
  8
0
  6
HIDDEN
 62
     7
370
     0
100
AcDbLine
 10
186.9661051938
 20
122.3311973168
 30
0.0
 11
188.4661045084
 21
123.831198494
 31
0.0
  0
LINE
  5
1AF
330
1F
100
AcDbEntity
  8
0
  6
HIDDEN
 62
     7
370
     0
100
AcDbLine
 10
142.7005420597
 20
83.7518264903
 30
0.0
 11
142.266109881
 21
84.2308932347
 31
0.0
  0
LINE
  5
1B0
330
1F
100
AcDbEntity
  8
0
  6
HIDDEN
 62
     7
370
     0
100
AcDbLine
 10
134.7661063233
 20
84.6525811954
 30
0.0
 11
134.2836728478
 21
84.1735144509
 31
0.0
  0
LINE
  5
1B1
330
1F
100
AcDbEntity
  8
0
  6
HIDDEN
 62
     7
370
     0
100
AcDbLine
 10
134.2835508445
 20
131.4888754292
 30
0.0
 11
134.7661016667
 21
131.009754668
 31
0.0
  0
LINE
  5
1B2
330
1F
100
AcDbEntity
  8
0
  6
HIDDEN
 62
     7
370
     0
100
AcDbLine
 10
142.266104293
 20
131.4314538045
 30
0.0
 11
142.7006463678
 21
131.910572703
 31
0.0
  0
LINE
  5
1B3
330
1F
100
AcDbEntity
  8
0
  6
HIDDEN
 62
     7
370
     0
100
AcDbLine
 10
169.3161044428
 20
103.6311978838
 30
0.0
 11
173.0161037454
 21
103.6311978838
 31
0.0
  0
LINE
  5
1B4
330
1F
100
AcDbEntity
  8
0
  6
HIDDEN
 62
     7
370
     0
100
AcDbLine
 10
173.0161037454
 20
112.0311975842
 30
0.0
 11
169.3161044428
 21
112.0311975842
 31
0.0
  0
LINE
  5
1B5
330
1F
100
AcDbEntity
  8
0
  6
HIDDEN
 62
     7
370
     0
100
AcDbLine
 10
142.266104293
 20
127.7665988905
 30
0.0
 11
142.266104293
 21
131.4311613692
 31
0.0
  0
LINE
  5
1B6
330
1F
100
AcDbEntity
  8
0
  6
HIDDEN
 62
     7
370
     0
100
AcDbLine
 10
134.7661044607
 20
131.0096112443
 30
0.0
 11
134.7661044607
 21
127.8268200709
 31
0.0
  0
LINE
  5
1B7
330
1F
100
AcDbEntity
  8
0
  6
HIDDEN
 62
     7
370
     0
100
AcDbLine
 10
142.266104293
 20
84.2311465545
 30
0.0
 11
142.266104293
 21
87.8957965775
 31
0.0
  0
LINE
  5
1B8
330
1F
100
AcDbEntity
  8
0
  6
HIDDEN
 62
     7
370
     0
100
AcDbLine
 10
134.7661044607
 20
87.8355753971
 30
0.0
 11
134.7661044607
 21
84.6527618719
 31
0.0
  0
LINE
  5
1B9
330
1F
100
AcDbEntity
  8
0
  6
HIDDEN
 62
     7
370
     0
100
AcDbLine
 10
179.9661059091
 20
122.3311973168
 30
0.0
 11
179.9661059091
 21
116.8156675426
 31
0.0
  0
LINE
  5
1BA
330
1F
100
AcDbEntity
  8
0
  6
HIDDEN
 62
     7
370
     0
100
AcDbLine
 10
186.9661051938
 20
116.8175245999
 30
0.0
 11
186.9661051938
 21
122.3311973168
 31
0.0
  0
DIMENSION
  5
1BB
330
1F
100
AcDbEntity
  8
VERMASSUNG
100
AcDbDimension
  2
_D
 10
105.4708003799
 20
76.331197734
 30
0.0
 11
105.4708003799
 21
107.831197734
 31
0.0
 70
   160
  1
HSK A %%c<>
 71
     2
 42
-1.0
  3
SLDDIMSTYLE0
100
AcDbAlignedDimension
 13
147.8161042223
 23
139.331197734
 33
0.0
 14
147.8161042223
 24
76.331197734
 34
0.0
 50
90.0
100
AcDbRotatedDimension
  0
DIMENSION
  5
1C8
330
1F
100
AcDbEntity
  8
VERMASSUNG
100
AcDbDimension
  2
_D_1
 10
195.5161042223
 20
155.0182188831
 30
0.0
 11
155.5661042223
 21
155.0182188831
 31
0.0
 70
   160
  1
(<>)
 71
     2
 42
-1.0
  3
SLDDIMSTYLE0
100
AcDbAlignedDimension
 13
115.6161042223
 23
127.5218754805
 33
0.0
 14
195.5161042223
 24
123.531197734
 34
0.0
100
AcDbRotatedDimension
  0
DIMENSION
  5
1D4
330
1F
100
AcDbEntity
  8
VERMASSUNG
100
AcDbDimension
  2
_D_2
 10
195.5161042223
 20
149.0182188831
 30
0.0
 11
171.5161042223
 21
149.0182188831
 31
0.0
 70
   160
  1
<>
 71
     2
 42
-1.0
  3
SLDDIMSTYLE0
100
AcDbAlignedDimension
 13
147.5161042223
 23
139.031197734
 33
0.0
 14
195.5161042223
 24
123.531197734
 34
0.0
100
AcDbRotatedDimension
  0
DIMENSION
  5
1DE
330
1F
100
AcDbEntity
  8
VERMASSUNG
100
AcDbDimension
  2
_D_3
 10
195.5161042223
 20
143.0182188831
 30
0.0
 11
184.4911042223
 21
143.0182188831
 31
0.0
 70
   160
  1
(<>)
 71
     2
 42
-1.0
  3
SLDDIMSTYLE0
100
AcDbAlignedDimension
 13
173.4661042223
 23
137.6776380578
 33
0.0
 14
195.5161042223
 24
123.531197734
 34
0.0
100
AcDbRotatedDimension
  0
DIMENSION
  5
1EA
330
1F
100
AcDbEntity
  8
VERMASSUNG
100
AcDbDimension
  2
_D_4
 10
205.5161042223
 20
98.831197734
 30
0.0
 11
205.5161042223
 21
107.831197734
 31
0.0
 70
   160
  1
%%c<>
 71
     2
 42
-1.0
  3
SLDDIMSTYLE0
100
AcDbAlignedDimension
 13
194.5161042223
 23
116.831197734
 33
0.0
 14
194.5161042223
 24
98.831197734
 34
0.0
 50
90.0
100
AcDbRotatedDimension
  0
DIMENSION
  5
1F5
330
1F
100
AcDbEntity
  8
VERMASSUNG
100
AcDbDimension
  2
_D_5
 10
211.7161042223
 20
91.831197734
 30
0.0
 11
211.7161042223
 21
107.831197734
 31
0.0
 70
   160
  1
WH%%c<>
 71
     2
 42
-1.0
  3
SLDDIMSTYLE0
100
AcDbAlignedDimension
 13
195.2161042223
 23
123.831197734
 33
0.0
 14
195.2161042223
 24
91.831197734
 34
0.0
 50
90.0
100
AcDbRotatedDimension
  0
LINE
  5
201
330
1F
100
AcDbEntity
  8
VERMASSUNG
  6
CENTERX2
370
     0
100
AcDbLine
 10
138.5161042223
 20
133.1823471233
 30
0.0
 11
138.5161042223
 21
125.6687262098
 31
0.0
  0
LINE
  5
202
330
1F
100
AcDbEntity
  8
VERMASSUNG
  6
CENTERX2
370
     0
100
AcDbLine
 10
138.5161042223
 20
89.9936692582
 30
0.0
 11
138.5161042223
 21
82.4789977328
 31
0.0
  0
LINE
  5
203
330
1F
100
AcDbEntity
  8
VERMASSUNG
  6
CENTERX2
370
     0
100
AcDbLine
 10
183.4661042223
 20
114.1227597794
 30
0.0
 11
183.4661042223
 21
124.331197734
 31
0.0
  0
LINE
  5
204
330
1F
100
AcDbEntity
  8
VERMASSUNG
  6
CENTERX2
370
     0
100
AcDbLine
 10
113.4844005769
 20
107.831197734
 30
0.0
 11
198.6565988528
 21
107.831197734
 31
0.0
  0
LINE
  5
205
330
1F
100
AcDbEntity
  8
0
  6
Continuous
 62
     7
370
    15
100
AcDbLine
 10
256.0472468637
 20
48.3363254978
 30
0.0
 11
255.7997200687
 21
48.4792665002
 31
0.0
  0
LINE
  5
206
330
1F
100
AcDbEntity
  8
0
  6
Continuous
 62
     7
370
    15
100
AcDbLine
 10
253.4658884476
 20
48.4792665382
 30
0.0
 11
253.2183606189
 21
48.3363253192
 31
0.0
  0
LINE
  5
207
330
1F
100
AcDbEntity
  8
0
  6
Continuous
 62
     7
370
    15
100
AcDbLine
 10
252.6328043899
 20
47.5200496463
 30
0.0
 11
252.6328043899
 21
47.3975683523
 31
0.0
  0
LINE
  5
208
330
1F
100
AcDbEntity
  8
0
  6
Continuous
 62
     7
370
    15
100
AcDbLine
 10
256.6328040606
 20
47.3975685424
 30
0.0
 11
256.6328040606
 21
47.5200498363
 31
0.0
  0
LINE
  5
209
330
1F
100
AcDbEntity
  8
0
  6
Continuous
 62
     7
370
    15
100
AcDbLine
 10
257.4189605002
 20
41.2042133254
 30
0.0
 11
258.3452481317
 21
41.392937338
 31
0.0
  0
LINE
  5
20A
330
1F
100
AcDbEntity
  8
0
  6
Continuous
 62
     7
370
    15
100
AcDbLine
 10
257.4189605002
 20
41.2042133254
 30
0.0
 11
258.3452481317
 21
41.392937338
 31
0.0
  0
LINE
  5
20B
330
1F
100
AcDbEntity
  8
0
  6
Continuous
 62
     7
370
    15
100
AcDbLine
 10
258.7879751619
 20
32.3435188411
 30
0.0
 11
258.8940244187
 21
32.4047589186
 31
0.0
  0
LINE
  5
20C
330
1F
100
AcDbEntity
  8
0
  6
Continuous
 62
     7
370
    15
100
AcDbLine
 10
264.4439102821
 20
42.0184849622
 30
0.0
 11
264.4439102821
 21
42.1409467313
 31
0.0
  0
LINE
  5
20D
330
1F
100
AcDbEntity
  8
0
  6
Continuous
 62
     7
370
    15
100
AcDbLine
 10
262.7867307723
 20
45.8037050136
 30
0.0
 11
256.1576050938
 21
49.6306178097
 31
0.0
  0
LINE
  5
20E
330
1F
100
AcDbEntity
  8
0
  6
Continuous
 62
     7
370
    15
100
AcDbLine
 10
248.1582550771
 20
35.7738360403
 30
0.0
 11
254.7873807556
 21
31.9469232442
 31
0.0
  0
LINE
  5
20F
330
1F
100
AcDbEntity
  8
0
  6
Continuous
 62
     7
370
    15
100
AcDbLine
 10
234.1542651411
 20
34.9094804999
 30
0.0
 11
239.2129308995
 21
31.989174918
 31
0.0
  0
LINE
  5
210
330
1F
100
AcDbEntity
  8
0
  6
Continuous
 62
     7
370
    15
100
AcDbLine
 10
252.0962862036
 20
60.9238541505
 30
0.0
 11
249.9029856304
 21
62.1900196203
 31
0.0
  0
SPLINE
  5
211
330
1F
100
AcDbEntity
  8
0
  6
Continuous
 62
     7
370
    15
100
AcDbSpline
210
0.0
220
0.0
230
1.0
 70
     8
 71
     3
 72
    26
 73
    22
 74
     0
 42
0.000000001
 43
0.00000001
 40
0.0
 40
0.0
 40
0.0
 40
0.0
 40
0.0232108959677443
 40
0.0881465070761745
 40
0.1436929230000357
 40
0.2027714662806241
 40
0.2599496749170654
 40
0.3163633883360821
 40
0.3726279047638483
 40
0.4289433412428788
 40
0.4854315324601193
 40
0.5421069615386026
 40
0.5989366223057292
 40
0.6558681366741619
 40
0.7128420478831091
 40
0.7697888909966074
 40
0.8266324310194365
 40
0.8833102876876834
 40
0.939764775944614
 40
0.9929843268816523
 40
1.0
 40
1.0
 40
1.0
 40
1.0
 10
256.2885336201173
 20
35.13217216264717
 30
0.0
 10
256.2548650378092
 20
35.14914948474524
 30
0.0
 10
256.1270040567942
 20
35.21362315454811
 30
0.0
 10
255.9569126861961
 20
35.38977576362625
 30
0.0
 10
255.7685188296938
 20
35.6682670478385
 30
0.0
 10
255.6284540391209
 20
36.00863927155377
 30
0.0
 10
255.5350745707889
 20
36.41622069908279
 30
0.0
 10
255.4959407702429
 20
36.87249209071458
 30
0.0
 10
255.51241439343
 20
37.37015870947538
 30
0.0
 10
255.585590272813
 20
37.90067133829389
 30
0.0
 10
255.7153239444245
 20
38.45388985412089
 30
0.0
 10
255.9001469144492
 20
39.01903086900683
 30
0.0
 10
256.1371826887731
 20
39.58474565159452
 30
0.0
 10
256.4221836538819
 20
40.13959389915445
 30
0.0
 10
256.7496546441972
 20
40.67233804174346
 30
0.0
 10
257.112961986606
 20
41.17222536833505
 30
0.0
 10
257.5044502188833
 20
41.6292556273765
 30
0.0
 10
257.9156663513943
 20
42.03463861037319
 30
0.0
 10
258.3299506345014
 20
42.37430078463834
 30
0.0
 10
258.6226218076095
 20
42.57047984700096
 30
0.0
 10
258.7721350195862
 20
42.65770522472106
 30
0.0
 10
258.7895490134503
 20
42.66786447534733
 30
0.0
  0
SPLINE
  5
212
330
1F
100
AcDbEntity
  8
0
  6
Continuous
 62
     7
370
    15
100
AcDbSpline
210
0.0
220
0.0
230
1.0
 70
     8
 71
     3
 72
    14
 73
    10
 74
     0
 42
0.000000001
 43
0.00000001
 40
0.0
 40
0.0
 40
0.0
 40
0.0
 40
0.0897928536620778
 40
0.2611959031827911
 40
0.4324195451262095
 40
0.6044344861136712
 40
0.7796074508233334
 40
0.9619670052240759
 40
0.9999999999999999
 40
0.9999999999999999
 40
0.9999999999999999
 40
0.9999999999999999
 10
258.7895490134503
 20
42.66786447534733
 30
0.0
 10
258.8618446414135
 20
42.70785928564634
 30
0.0
 10
259.0721433575349
 20
42.82419906295185
 30
0.0
 10
259.4111527715223
 20
42.96435906273717
 30
0.0
 10
259.7906432561023
 20
43.0632875747896
 30
0.0
 10
260.1394049355873
 20
43.09419554646637
 30
0.0
 10
260.4503156079909
 20
43.05496311887887
 30
0.0
 10
260.6588708652728
 20
42.99666522988696
 30
0.0
 10
260.7548630338351
 20
42.92979287107859
 30
0.0
 10
260.7714283381483
 20
42.91825275285448
 30
0.0
  0
SPLINE
  5
213
330
1F
100
AcDbEntity
  8
0
  6
Continuous
 62
     7
370
    15
100
AcDbSpline
210
0.0
220
0.0
230
1.0
 70
     8
 71
     3
 72
    12
 73
     8
 74
     0
 42
0.000000001
 43
0.00000001
 40
0.0
 40
0.0
 40
0.0
 40
0.0
 40
0.1979097983392476
 40
0.4395597241395265
 40
0.6812607711458211
 40
0.9230138032193976
 40
1.0
 40
1.0
 40
1.0
 40
1.0
 10
231.3728935032375
 20
46.36871252523526
 30
0.0
 10
231.3067820549847
 20
46.0818142921182
 30
0.0
 10
231.159947839598
 20
45.444610327164
 30
0.0
 10
231.003187281157
 20
44.47543940921902
 30
0.0
 10
230.8909799100146
 20
43.46514107762659
 30
0.0
 10
230.8510968769214
 20
42.70489911118434
 30
0.0
 10
230.8484088293564
 20
42.28353928760382
 30
0.0
 10
230.84775957586
 20
42.18176678093677
 30
0.0
  0
SPLINE
  5
214
330
1F
100
AcDbEntity
  8
0
  6
Continuous
 62
     7
370
    15
100
AcDbSpline
210
0.0
220
0.0
230
1.0
 70
     8
 71
     3
 72
    13
 73
     9
 74
     0
 42
0.000000001
 43
0.00000001
 40
0.0
 40
0.0
 40
0.0
 40
0.0
 40
0.0261402463457134
 40
0.2536923808311592
 40
0.4813202318510582
 40
0.7089737744368896
 40
0.9366145510060981
 40
1.0
 40
1.0
 40
1.0
 40
1.0
 10
243.8340102341982
 20
62.31520312417572
 30
0.0
 10
243.8028905075373
 20
62.30457256539788
 30
0.0
 10
243.5008720245053
 20
62.20140246783067
 30
0.0
 10
242.9187324709432
 20
61.93365273207855
 30
0.0
 10
242.0921300739892
 20
61.5105640464028
 30
0.0
 10
241.265166881639
 20
61.0038191146475
 30
0.0
 10
240.6383445551439
 20
60.58259341127928
 30
0.0
 10
240.2920928398092
 20
60.30978861080428
 30
0.0
 10
240.2166792910854
 20
60.25037178425424
 30
0.0
  0
SPLINE
  5
215
330
1F
100
AcDbEntity
  8
0
  6
Continuous
 62
     7
370
    15
100
AcDbSpline
210
0.0
220
0.0
230
1.0
 70
     8
 71
     3
 72
    10
 73
     6
 74
     0
 42
0.000000001
 43
0.00000001
 40
0.0
 40
0.0
 40
0.0
 40
0.0
 40
0.2413147656488483
 40
0.6997861657395904
 40
1.0
 40
1.0
 40
1.0
 40
1.0
 10
230.84775957586
 20
42.18176678093678
 30
0.0
 10
230.8496442413458
 20
42.0152203139511
 30
0.0
 10
230.8551095630822
 20
41.53225395573426
 30
0.0
 10
230.8972773320932
 20
40.86165435753258
 30
0.0
 10
230.9713951564775
 20
40.38298778634761
 30
0.0
 10
231.0007237834732
 20
40.1935781073908
 30
0.0
  0
SPLINE
  5
216
330
1F
100
AcDbEntity
  8
0
  6
Continuous
 62
     7
370
    15
100
AcDbSpline
210
0.0
220
0.0
230
1.0
 70
     8
 71
     3
 72
    19
 73
    15
 74
     0
 42
0.000000001
 43
0.00000001
 40
0.0
 40
0.0
 40
0.0
 40
0.0
 40
0.0317682539353032
 40
0.1236467862299398
 40
0.2158657993126921
 40
0.308401614021803
 40
0.4011943653743853
 40
0.494171596930047
 40
0.5872652201112187
 40
0.6804203223357541
 40
0.7735962052155322
 40
0.8667616453236379
 40
0.959904119924088
 40
1.0
 40
1.0
 40
1.0
 40
1.0
 10
245.1347610078747
 20
29.09751218610134
 30
0.0
 10
245.2162303616155
 20
29.08426437615245
 30
0.0
 10
245.5333212469628
 20
29.03270192238647
 30
0.0
 10
246.1165377674229
 20
29.02401515337894
 30
0.0
 10
246.8801273924627
 20
29.07193139826526
 30
0.0
 10
247.6680722996368
 20
29.20438933176774
 30
0.0
 10
248.4733753769973
 20
29.41394939389002
 30
0.0
 10
249.2921107936255
 20
29.7013783306765
 30
0.0
 10
250.1194111610608
 20
30.06443442468876
 30
0.0
 10
250.950532869427
 20
30.50142250744652
 30
0.0
 10
251.7811188143233
 20
31.00852003214373
 30
0.0
 10
252.6053935058766
 20
31.58723331405646
 30
0.0
 10
253.2681532554471
 20
32.09795882450454
 30
0.0
 10
253.6489214666442
 20
32.43620333161498
 30
0.0
 10
253.7635073647511
 20
32.53799242400041
 30
0.0
  0
LINE
  5
217
330
1F
100
AcDbEntity
  8
0
  6
Continuous
 62
     7
370
    15
100
AcDbLine
 10
241.6113891809
 20
30.6045744242
 30
0.0
 11
243.0107778212
 21
29.7967245577
 31
0.0
  0
LINE
  5
218
330
1F
100
AcDbEntity
  8
0
  6
Continuous
 62
     7
370
    15
100
AcDbLine
 10
242.6802401739
 20
61.8024852652
 30
0.0
 11
236.5363093447
 21
64.863561496
 31
0.0
  0
LINE
  5
219
330
1F
100
AcDbEntity
  8
0
  6
Continuous
 62
     7
370
    15
100
AcDbLine
 10
225.1546115148
 20
45.1477461156
 30
0.0
 11
230.8787037565
 21
41.3574901623
 31
0.0
  0
SPLINE
  5
21A
330
1F
100
AcDbEntity
  8
0
  6
Continuous
 62
     7
370
    15
100
AcDbSpline
210
0.0
220
0.0
230
1.0
 70
     8
 71
     3
 72
    10
 73
     6
 74
     0
 42
0.000000001
 43
0.00000001
 40
0.0
 40
0.0
 40
0.0
 40
0.0
 40
0.0451151291709451
 40
0.7968244688248015
 40
1.0
 40
1.0
 40
1.0
 40
1.0
 10
260.2215415337132
 20
55.85233689484947
 30
0.0
 10
260.2127514679336
 20
55.86379852183839
 30
0.0
 10
260.0575011201154
 20
56.06623404635408
 30
0.0
 10
259.8317663353322
 20
56.28240805128446
 30
0.0
 10
259.6058635915952
 20
56.47192612689197
 30
0.0
 10
259.5577971582953
 20
56.5122508161348
 30
0.0
  0
SPLINE
  5
21B
330
1F
100
AcDbEntity
  8
0
  6
Continuous
 62
     7
370
    15
100
AcDbSpline
210
0.0
220
0.0
230
1.0
 70
     8
 71
     3
 72
    12
 73
     8
 74
     0
 42
0.000000001
 43
0.00000001
 40
0.0
 40
0.0
 40
0.0
 40
0.0
 40
0.1186599630614893
 40
0.343033785205239
 40
0.5671204228454995
 40
0.790604704049
 40
1.0
 40
1.0
 40
1.0
 40
1.0
 10
261.7494945255011
 20
52.78792905729404
 30
0.0
 10
261.7106937857038
 20
52.92996450448542
 30
0.0
 10
261.5985248257781
 20
53.34057441726731
 30
0.0
 10
261.3669301044603
 20
53.97999147472801
 30
0.0
 10
261.0351046689908
 20
54.68189782806965
 30
0.0
 10
260.6576761176064
 20
55.31374749985468
 30
0.0
 10
260.3637307023898
 20
55.67674527437131
 30
0.0
 10
260.2215415337132
 20
55.85233689484947
 30
0.0
  0
SPLINE
  5
21C
330
1F
100
AcDbEntity
  8
0
  6
Continuous
 62
     7
370
    15
100
AcDbSpline
210
0.0
220
0.0
230
1.0
 70
     8
 71
     3
 72
    29
 73
    25
 74
     0
 42
0.000000001
 43
0.00000001
 40
0.0
 40
0.0
 40
0.0
 40
0.0
 40
0.0191157300952791
 40
0.0659722191804371
 40
0.1130067135820696
 40
0.1604281368884618
 40
0.2083452160350495
 40
0.2567574797037321
 40
0.3055810475460325
 40
0.3546932892458292
 40
0.4039736884178872
 40
0.4533272022171767
 40
0.5026798844720085
 40
0.5519980218412598
 40
0.6012694092221755
 40
0.6504925891508987
 40
0.6996724442952718
 40
0.7488173007088069
 40
0.7979373919895141
 40
0.8470439282353579
 40
0.8961485219538043
 40
0.9452612176020685
 40
0.9943919899814683
 40
1.0
 40
1.0
 40
1.0
 40
1.0
 10
236.44286418395
 20
64.89722287293407
 30
0.0
 10
236.3699185538766
 20
64.9342866492556
 30
0.0
 10
236.1181685515766
 20
65.06220117634676
 30
0.0
 10
235.6469880876879
 20
65.20045273839783
 30
0.0
 10
235.0367726440226
 20
65.31190284015828
 30
0.0
 10
234.395204608171
 20
65.33975910261339
 30
0.0
 10
233.728949959412
 20
65.28946135158242
 30
0.0
 10
233.0414698541095
 20
65.15904977394194
 30
0.0
 10
232.3381773653078
 20
64.94936704031313
 30
0.0
 10
231.6247996634588
 20
64.66169645841104
 30
0.0
 10
230.9073842152188
 20
64.29847957448132
 30
0.0
 10
230.1918939471055
 20
63.86298699597683
 30
0.0
 10
229.4840283215001
 20
63.35912613729855
 30
0.0
 10
228.7891480644201
 20
62.7912542545912
 30
0.0
 10
228.1122861986834
 20
62.16402689865823
 30
0.0
 10
227.4582622618543
 20
61.48239526945923
 30
0.0
 10
226.8316970338773
 20
60.75161315437695
 30
0.0
 10
226.2370688413856
 20
59.97721617812747
 30
0.0
 10
225.6784924727799
 20
59.16500234755106
 30
0.0
 10
225.1604949961422
 20
58.32096582010467
 30
0.0
 10
224.6849696048948
 20
57.45144324014657
 30
0.0
 10
224.2624665974024
 20
56.56241806464138
 30
0.0
 10
223.985904133971
 20
55.92797697473158
 30
0.0
 10
223.8672469648453
 20
55.59149408117229
 30
0.0
 10
223.8550904906952
 20
55.55702127495552
 30
0.0
  0
LINE
  5
21D
330
1F
100
AcDbEntity
  8
0
  6
Continuous
 62
     7
370
    15
100
AcDbLine
 10
223.9704253416
 20
53.7038865337
 30
0.0
 11
226.523985672
 21
52.2297475329
 31
0.0
  0
LINE
  5
21E
330
1F
100
AcDbEntity
  8
0
  6
Continuous
 62
     7
370
    15
100
AcDbLine
 10
223.6721329969
 20
54.8321962071
 30
0.0
 11
223.6721329969
 21
54.3667902377
 31
0.0
  0
LINE
  5
21F
330
1F
100
AcDbEntity
  8
0
  6
Continuous
 62
     7
370
    15
100
AcDbLine
 10
223.6721329969
 20
47.3608475423
 30
0.0
 11
223.6721329969
 21
46.8954415729
 31
0.0
  0
SPLINE
  5
220
330
1F
100
AcDbEntity
  8
0
  6
Continuous
 62
     7
370
    15
100
AcDbSpline
210
0.0
220
0.0
230
1.0
 70
     8
 71
     3
 72
    11
 73
     7
 74
     0
 42
0.000000001
 43
0.00000001
 40
0.0
 40
0.0
 40
0.0
 40
0.0
 40
0.2094048929615851
 40
0.5371787006058864
 40
0.8611954374651879
 40
1.0
 40
1.0
 40
1.0
 40
1.0
 10
223.7881079531547
 20
46.60797428927083
 30
0.0
 10
223.85980281375
 20
46.48823327967584
 30
0.0
 10
224.0437190131759
 20
46.1810660543366
 30
0.0
 10
224.4082195256427
 20
45.76215717256508
 30
0.0
 10
224.7714264164318
 20
45.41147728115146
 30
0.0
 10
225.0155550307339
 20
45.2528035347862
 30
0.0
 10
225.0887715520021
 20
45.20521575095079
 30
0.0
  0
LWPOLYLINE
  5
221
330
1F
100
AcDbEntity
  8
0
  6
Continuous
 62
     7
370
    15
100
AcDbPolyline
 90
       23
 70
   128
 43
0.0
 10
253.2183606189
 20
48.3363253192
 10
253.1690899042
 20
48.3068448382
 10
252.902511252
 20
48.0990913423
 10
252.7226958799
 20
47.8623027932
 10
252.6386618963
 20
47.608351889
 10
252.6546222164
 20
47.3499732915
 10
252.7697763792
 20
47.1001233724
 10
252.9783510897
 20
46.8713299574
 10
253.2698874263
 20
46.6750658537
 10
253.6297657009
 20
46.5211728933
 10
254.0399406416
 20
46.4173678548
 10
254.4798429399
 20
46.3688565915
 10
254.9274175288
 20
46.3780696704
 10
255.3602175069
 20
46.4445472287
 10
255.7565414456
 20
46.5649553214
 10
256.0965172293
 20
46.7332554047
 10
256.3630971986
 20
46.9410081403
 10
256.5429112536
 20
47.1777974498
 10
256.6269465542
 20
47.4317475936
 10
256.610984917
 20
47.6901269515
 10
256.4958307542
 20
47.9399768706
 10
256.2872560438
 20
48.1687702856
 10
256.0472468637
 20
48.3363254978
  0
LWPOLYLINE
  5
222
330
1F
100
AcDbEntity
  8
0
  6
Continuous
 62
     7
370
    15
100
AcDbPolyline
 90
       27
 70
   128
 43
0.0
 10
253.4252392539
 20
48.4549456367
 10
253.1912416951
 20
48.2692535373
 10
253.0410213954
 20
48.0566301394
 10
252.9833095182
 20
47.8294318212
 10
253.0214608949
 20
47.6008619935
 10
253.1532571359
 20
47.3842050669
 10
253.371039698
 20
47.1920516901
 10
253.6621511911
 20
47.0355696318
 10
254.0096744299
 20
46.923852265
 10
254.3934097141
 20
46.8633939327
 10
254.7910593029
 20
46.8577062145
 10
255.1795112064
 20
46.9071207847
 10
255.536189675
 20
47.008766115
 10
255.8403678796
 20
47.1567337245
 10
256.0743667555
 20
47.3424250636
 10
256.224585738
 20
47.5550492218
 10
256.2822976152
 20
47.78224754
 10
256.2441462386
 20
48.0108173678
 10
256.1123499975
 20
48.2274742944
 10
255.8945674354
 20
48.4196276711
 10
255.6034559423
 20
48.5761097294
 10
255.2559340206
 20
48.6878263359
 10
254.8721974193
 20
48.7482854285
 10
254.4745478305
 20
48.7539731467
 10
254.0860959271
 20
48.7045585765
 10
253.7294174584
 20
48.6029132462
 10
253.4252392539
 20
48.4549456367
  0
LWPOLYLINE
  5
223
330
1F
100
AcDbEntity
  8
0
  6
Continuous
 62
     7
370
    15
100
AcDbPolyline
 90
       23
 70
   128
 43
0.0
 10
253.7545756336
 20
48.2779163592
 10
253.5597629959
 20
48.1159583699
 10
253.451881881
 20
47.9288763137
 10
253.4396720542
 20
47.7318265419
 10
253.5241230611
 20
47.5407726158
 10
253.6983927887
 20
47.3711928576
 10
253.9483629484
 20
47.2368256007
 10
254.2537814032
 20
47.1485570505
 10
254.5899071299
 20
47.1135369626
 10
254.9295082018
 20
47.1346030422
 10
255.2450710203
 20
47.2100493135
 10
255.5110328169
 20
47.3337622417
 10
255.7058441375
 20
47.4957209913
 10
255.8137252524
 20
47.6828030475
 10
255.8259350792
 20
47.8798528193
 10
255.7414840724
 20
48.0709067454
 10
255.5672156618
 20
48.2404857433
 10
255.3172455021
 20
48.3748530002
 10
255.0118257302
 20
48.4631223108
 10
254.6757000035
 20
48.4981423986
 10
254.3361002488
 20
48.4770755587
 10
254.0205361132
 20
48.4016300477
 10
253.7545756336
 20
48.2779163592
  0
SPLINE
  5
224
330
1F
100
AcDbEntity
  8
0
  6
Continuous
 62
     7
370
    15
100
AcDbSpline
210
0.0
220
0.0
230
1.0
 70
     8
 71
     3
 72
    10
 73
     6
 74
     0
 42
0.000000001
 43
0.00000001
 40
0.0
 40
0.0
 40
0.0
 40
0.0
 40
0.4582797396868756
 40
0.7841523954765416
 40
1.0
 40
1.0
 40
1.0
 40
1.0
 10
253.5075066660333
 20
47.91832221035625
 30
0.0
 10
253.5559262462523
 20
47.77139893965385
 30
0.0
 10
253.6387759263246
 20
47.5200017586411
 30
0.0
 10
253.7544947497099
 20
47.34113283850289
 30
0.0
 10
253.8101034464635
 20
47.30566880663103
 30
0.0
 10
253.8322606461554
 20
47.29153821767749
 30
0.0
  0
SPLINE
  5
225
330
1F
100
AcDbEntity
  8
0
  6
Continuous
 62
     7
370
    15
100
AcDbSpline
210
0.0
220
0.0
230
1.0
 70
     8
 71
     3
 72
     9
 73
     5
 74
     0
 42
0.000000001
 43
0.00000001
 40
0.0
 40
0.0
 40
0.0
 40
0.0
 40
0.7022079662504486
 40
1.0
 40
1.0
 40
1.0
 40
1.0
 10
255.4196843383521
 20
47.29370223370245
 30
0.0
 10
255.5023976263454
 20
47.35946182635183
 30
0.0
 10
255.62018792775
 20
47.45310871703084
 30
0.0
 10
255.726454984463
 20
47.58122678176622
 30
0.0
 10
255.7581004674022
 20
47.61937932082382
 30
0.0
  0
SPLINE
  5
226
330
1F
100
AcDbEntity
  8
0
  6
Continuous
 62
     7
370
    15
100
AcDbSpline
210
0.0
220
0.0
230
1.0
 70
     8
 71
     3
 72
    10
 73
     6
 74
     0
 42
0.000000001
 43
0.00000001
 40
0.0
 40
0.0
 40
0.0
 40
0.0
 40
0.4391215986983512
 40
0.7513713212809131
 40
1.0
 40
1.0
 40
1.0
 40
1.0
 10
255.7581004674022
 20
47.61937932082382
 30
0.0
 10
255.7096531307306
 20
47.65469301216345
 30
0.0
 10
255.6267559572019
 20
47.71511749367339
 30
0.0
 10
255.506249772814
 20
47.98459529223748
 30
0.0
 10
255.4462712803002
 20
48.17312869090486
 30
0.0
 10
255.419683746691
 20
48.25670261654776
 30
0.0
  0
SPLINE
  5
227
330
1F
100
AcDbEntity
  8
0
  6
Continuous
 62
     7
370
    15
100
AcDbSpline
210
0.0
220
0.0
230
1.0
 70
     8
 71
     3
 72
    10
 73
     6
 74
     0
 42
0.000000001
 43
0.00000001
 40
0.0
 40
0.0
 40
0.0
 40
0.0
 40
0.4391229150658931
 40
0.7513715641651768
 40
1.0
 40
1.0
 40
1.0
 40
1.0
 10
255.419683746691
 20
48.25670261654776
 30
0.0
 10
255.2585864400703
 20
48.22217574777018
 30
0.0
 10
254.9829371147777
 20
48.16309773906447
 30
0.0
 10
254.5822350207033
 20
48.25885807307488
 30
0.0
 10
254.3827958634548
 20
48.36092771111023
 30
0.0
 10
254.2943874633921
 20
48.40617365738371
 30
0.0
  0
SPLINE
  5
228
330
1F
100
AcDbEntity
  8
0
  6
Continuous
 62
     7
370
    15
100
AcDbSpline
210
0.0
220
0.0
230
1.0
 70
     8
 71
     3
 72
    11
 73
     7
 74
     0
 42
0.000000001
 43
0.00000001
 40
0.0
 40
0.0
 40
0.0
 40
0.0
 40
0.1285563536561193
 40
0.4801536168361495
 40
0.8150691535011776
 40
1.0
 40
1.0
 40
1.0
 40
1.0
 10
254.2943874633921
 20
48.40617365738371
 30
0.0
 10
254.2626974368336
 20
48.36852956894234
 30
0.0
 10
254.1443362634109
 20
48.22793017650795
 30
0.0
 10
253.9223820217555
 20
48.02552796785528
 30
0.0
 10
253.6820520795603
 20
47.92944208641986
 30
0.0
 10
253.5533067142152
 20
47.92124002325777
 30
0.0
 10
253.5075066660333
 20
47.91832221035625
 30
0.0
  0
LINE
  5
229
330
1F
100
AcDbEntity
  8
0
  6
Continuous
 62
     7
370
    15
100
AcDbLine
 10
255.4196837467
 20
47.2828218986
 30
0.0
 11
255.4196837467
 21
48.2567026165
 31
0.0
  0
LINE
  5
22A
330
1F
100
AcDbEntity
  8
0
  6
Continuous
 62
     7
370
    15
100
AcDbLine
 10
254.2943874634
 20
47.1412120795
 30
0.0
 11
254.2943874634
 21
48.4061736574
 31
0.0
  0
LWPOLYLINE
  5
22B
330
1F
100
AcDbEntity
  8
0
  6
Continuous
 62
     7
370
    15
100
AcDbPolyline
 90
        3
 70
   128
 43
0.0
 10
257.6885817927
 20
41.3542566603
 10
257.5457948553
 20
41.2475598243
 10
257.4189605002
 20
41.2042133254
  0
LWPOLYLINE
  5
22C
330
1F
100
AcDbEntity
  8
0
  6
Continuous
 62
     7
370
    15
100
AcDbPolyline
 90
        3
 70
   128
 43
0.0
 10
257.4753977645
 20
41.2189523044
 10
257.4628827847
 20
41.2151032829
 10
257.4189605002
 20
41.2042133254
  0
SPLINE
  5
22D
330
1F
100
AcDbEntity
  8
0
  6
Continuous
 62
     7
370
    15
100
AcDbSpline
210
0.0
220
0.0
230
1.0
 70
     8
 71
     3
 72
    10
 73
     6
 74
     0
 42
0.000000001
 43
0.00000001
 40
0.0
 40
0.0
 40
0.0
 40
0.0
 40
0.5
 40
0.5
 40
1.0
 40
1.0
 40
1.0
 40
1.0
 10
240.6461335475348
 20
40.95565413503204
 30
0.0
 10
240.5896048617523
 20
40.92302081934942
 30
0.0
 10
240.5109615391776
 20
40.90264784389045
 30
0.0
 10
240.3507316248464
 20
40.8995864439291
 30
0.0
 10
240.2695646123057
 20
40.91724564380934
 30
0.0
 10
240.2124507119679
 20
40.95021679666365
 30
0.0
  0
SPLINE
  5
22E
330
1F
100
AcDbEntity
  8
0
  6
Continuous
 62
     7
370
    15
100
AcDbSpline
210
0.0
220
0.0
230
1.0
 70
     8
 71
     3
 72
    12
 73
     8
 74
     0
 42
0.000000001
 43
0.00000001
 40
0.0
 40
0.0
 40
0.0
 40
0.0
 40
0.2500000000000033
 40
0.2500000000000033
 40
0.5000000000000067
 40
0.5000000000000067
 40
1.0
 40
1.0
 40
1.0
 40
1.0
 10
257.9031726183127
 20
57.47417867491876
 30
0.0
 10
257.9350769466574
 20
57.455760698203
 30
0.0
 10
257.9672142830983
 20
57.42584615757094
 30
0.0
 10
258.0218725895245
 20
57.35544873762803
 30
0.0
 10
258.0448459288549
 20
57.3150680409522
 30
0.0
 10
258.0985277177926
 20
57.19254421091682
 30
0.0
 10
258.1153046526687
 20
57.10774288931114
 30
0.0
 10
258.1153046526687
 20
57.03419029367753
 30
0.0
  0
LINE
  5
22F
330
1F
100
AcDbEntity
  8
0
  6
Continuous
 62
     7
370
    15
100
AcDbLine
 10
240.2124509852
 20
40.9502165067
 30
0.0
 11
238.813062345
 21
41.7580663731
 31
0.0
  0
LWPOLYLINE
  5
230
330
1F
100
AcDbEntity
  8
0
  6
Continuous
 62
     7
370
    15
100
AcDbPolyline
 90
       26
 70
   128
 43
0.0
 10
238.813062345
 20
41.7580663731
 10
239.0955068161
 20
42.8764218458
 10
239.4419651061
 20
44.0032078872
 10
239.8503035308
 20
45.1314824318
 10
240.3180057916
 20
46.2542947046
 10
240.8421900978
 20
47.3647274253
 10
241.4196269471
 20
48.4559374915
 10
242.0467595406
 20
49.5212038856
 10
242.7197228806
 20
50.5539615139
 10
243.4343720879
 20
51.5478502537
 10
244.1863038048
 20
52.496744039
 10
244.9708854998
 20
53.3947989571
 10
245.7832827977
 20
54.2364811928
 10
246.6184910896
 20
55.0166042887
 10
247.471364344
 20
55.7303632673
 10
248.3366483635
 20
56.3733606748
 10
249.2090119218
 20
56.9416336808
 10
250.0830804517
 20
57.4316826522
 10
250.9534688086
 20
57.8404870247
 10
251.814814732
 20
58.1655291832
 10
252.6618111352
 20
58.4048062574
 10
253.4892400408
 20
58.5568443896
 10
254.2920031618
 20
58.6207057418
 10
255.0651551584
 20
58.5959978091
 10
255.8039327779
 20
58.4828735111
 10
256.5037844902
 20
58.2820285281
  0
LINE
  5
231
330
1F
100
AcDbEntity
  8
0
  6
Continuous
 62
     7
370
    15
100
AcDbLine
 10
256.5037844902
 20
58.2820285281
 30
0.0
 11
257.9031731304
 21
57.4741786617
 31
0.0
  0
LINE
  5
232
330
1F
100
AcDbEntity
  8
0
  6
Continuous
 62
     7
370
    15
100
AcDbLine
 10
260.4310792009
 20
51.9689900207
 30
0.0
 11
261.6495801527
 21
52.6724156474
 31
0.0
  0
LINE
  5
233
330
1F
100
AcDbEntity
  8
0
  6
Continuous
 62
     7
370
    15
100
AcDbLine
 10
260.4310792009
 20
47.1635936421
 30
0.0
 11
260.4310792009
 21
51.9689900207
 31
0.0
  0
LINE
  5
234
330
1F
100
AcDbEntity
  8
0
  6
Continuous
 62
     7
370
    15
100
AcDbLine
 10
240.6461334953
 20
33.6067870826
 30
0.0
 11
241.7634602787
 21
34.2518061051
 31
0.0
  0
LINE
  5
235
330
1F
100
AcDbEntity
  8
0
  6
Continuous
 62
     7
370
    15
100
AcDbLine
 10
241.7634602787
 20
34.2518061051
 30
0.0
 11
241.7634602787
 21
41.6006730957
 31
0.0
  0
LINE
  5
236
330
1F
100
AcDbEntity
  8
0
  6
Continuous
 62
     7
370
    15
100
AcDbLine
 10
241.7634602787
 20
41.6006730957
 30
0.0
 11
240.6461334953
 21
40.9556540732
 31
0.0
  0
LINE
  5
237
330
1F
100
AcDbEntity
  8
0
  6
Continuous
 62
     7
370
    15
100
AcDbLine
 10
258.1153048044
 20
57.0341901751
 30
0.0
 11
258.1153048044
 21
55.4701263747
 31
0.0
  0
LINE
  5
238
330
1F
100
AcDbEntity
  8
0
  6
Continuous
 62
     7
370
    15
100
AcDbLine
 10
259.4697504161
 20
56.252031183
 30
0.0
 11
258.1153048044
 21
55.4701263747
 31
0.0
  0
LWPOLYLINE
  5
239
330
1F
100
AcDbEntity
  8
0
  6
Continuous
 62
     7
370
    15
100
AcDbPolyline
 90
       57
 70
   128
 43
0.0
 10
258.8931222595
 20
45.2239283755
 10
258.2716311698
 20
44.8248458138
 10
257.6579556864
 20
44.3501740282
 10
257.05981321
 20
43.8058826412
 10
256.4847255536
 20
43.1988165866
 10
255.939924853
 20
42.5366098528
 10
255.4322624407
 20
41.8275902915
 10
254.9681222471
 20
41.0806741114
 10
254.5533412815
 20
40.3052541924
 10
254.1931355456
 20
39.5110820311
 10
253.8920348378
 20
38.7081445518
 10
253.6538257891
 20
37.9065393957
 10
253.4815037892
 20
37.116347168
 10
253.377236108
 20
36.3475049192
 10
253.3423342369
 20
35.6096815265
 10
253.377236108
 20
34.9121549765
 10
253.4815037892
 20
34.2636976299
 10
253.6538257891
 20
33.6724641484
 10
253.8920348378
 20
33.1458893057
 10
254.1931355456
 20
32.6905953038
 10
254.5533412815
 20
32.3123078328
 10
254.9681222471
 20
32.0157838232
 10
255.4322624407
 20
31.8047525039
 10
255.939924853
 20
31.6818674877
 10
256.4847255536
 20
31.6486742538
 10
257.05981321
 20
31.705590274
 10
257.6579556864
 20
31.8518994905
 10
258.2716311698
 20
32.0857623365
 10
258.8931222595
 20
32.4042381132
 10
259.5146133491
 20
32.803320675
 10
260.1282888326
 20
33.2779924605
 10
260.726431309
 20
33.8222838475
 10
261.3015189654
 20
34.4293499021
 10
261.846319666
 20
35.0915566359
 10
262.3539820783
 20
35.8005761972
 10
262.8181222719
 20
36.5474923773
 10
263.2329032375
 20
37.3229122963
 10
263.5931089734
 20
38.1170844576
 10
263.8942096811
 20
38.9200219369
 10
264.1324187298
 20
39.721627093
 10
264.3047407298
 20
40.5118193207
 10
264.409008411
 20
41.2806615696
 10
264.4439102821
 20
42.0184849622
 10
264.409008411
 20
42.7160115122
 10
264.3047407298
 20
43.3644688589
 10
264.1324187298
 20
43.9557023404
 10
263.8942096811
 20
44.482277183
 10
263.5931089734
 20
44.9375711849
 10
263.2329032375
 20
45.3158586559
 10
262.8181222719
 20
45.6123826656
 10
262.3539820783
 20
45.8234139848
 10
261.846319666
 20
45.9462990011
 10
261.3015189654
 20
45.9794922349
 10
260.726431309
 20
45.9225762147
 10
260.1282888326
 20
45.7762669982
 10
259.5146133491
 20
45.5424041522
 10
258.8931222595
 20
45.2239283755
  0
LWPOLYLINE
  5
23A
330
1F
100
AcDbEntity
  8
0
  6
Continuous
 62
     7
370
    15
100
AcDbPolyline
 90
       30
 70
   128
 43
0.0
 10
258.7870557639
 20
45.4076409343
 10
258.1647552819
 20
45.0087477799
 10
257.550008717
 20
44.535402556
 10
256.9502781605
 20
43.9933518319
 10
256.3728436161
 20
43.3891754713
 10
255.824714467
 20
42.7302066255
 10
255.3125439882
 20
42.0244447399
 10
254.842549334
 20
41.280456511
 10
254.4204358045
 20
40.5072732311
 10
254.0513268761
 20
39.7142800523
 10
253.739703615
 20
38.911103064
 10
253.4893480421
 20
38.1074916158
 10
253.3032996697
 20
37.3132004503
 10
253.1838166469
 20
36.5378713597
 10
253.1323494179
 20
35.7909156016
 10
253.1495222831
 20
35.081400069
 10
253.2351278008
 20
34.4179379266
 10
253.3881257999
 20
33.8085819561
 10
253.6066595144
 20
33.2607293068
 10
253.8880763268
 20
32.7810300954
 10
254.2289600375
 20
32.3753075067
 10
254.6251726822
 20
32.0484857362
 10
255.0719052396
 20
31.80453276
 10
255.5637345955
 20
31.6464095692
 10
256.0946907149
 20
31.5760351816
 10
256.6583284226
 20
31.5942642018
 10
257.2478060997
 20
31.700875597
 10
257.8559681662
 20
31.894574685
 10
258.4754323381
 20
32.173010427
 10
258.7879751619
 20
32.3435188411
  0
LWPOLYLINE
  5
23B
330
1F
100
AcDbEntity
  8
0
  6
Continuous
 62
     7
370
    15
100
AcDbPolyline
 90
       16
 70
   128
 43
0.0
 10
264.4439102821
 20
42.1409467313
 10
264.4417621099
 20
42.3197005796
 10
264.390294881
 20
43.00723354
 10
264.2708118582
 20
43.6446104688
 10
264.0847634858
 20
44.2240947558
 10
263.8344079129
 20
44.7386518123
 10
263.5227846517
 20
45.1820362417
 10
263.1536757234
 20
45.5488653229
 10
262.7315621939
 20
45.8346866955
 10
262.2615675397
 20
46.0360306471
 10
261.7493970609
 20
46.150453085
 10
261.2012679118
 20
46.1765654859
 10
260.6238333674
 20
46.1140501125
 10
260.0241028109
 20
45.9636666749
 10
259.409356246
 20
45.7272406229
 10
258.7870557639
 20
45.4076409343
  0
SPLINE
  5
23C
330
1F
100
AcDbEntity
  8
0
  6
Continuous
 62
     7
370
    15
100
AcDbSpline
210
0.0
220
0.0
230
1.0
 70
    11
 71
     3
 72
    82
 73
    78
 74
     0
 42
0.000000001
 43
0.00000001
 40
0.0
 40
0.0
 40
0.0
 40
0.0
 40
0.0312499999999994
 40
0.0312499999999994
 40
0.0624999999999988
 40
0.0624999999999988
 40
0.0937499999999982
 40
0.0937499999999982
 40
0.1249999999999976
 40
0.1249999999999976
 40
0.156249999999997
 40
0.156249999999997
 40
0.1874999999999964
 40
0.1874999999999964
 40
0.2187499999999958
 40
0.2187499999999958
 40
0.2343749999999958
 40
0.2343749999999958
 40
0.2499999999999958
 40
0.2499999999999958
 40
0.2812499999999963
 40
0.2812499999999963
 40
0.2968749999999963
 40
0.2968749999999963
 40
0.3124999999999963
 40
0.3124999999999963
 40
0.3437499999999964
 40
0.3437499999999964
 40
0.3593749999999964
 40
0.3593749999999964
 40
0.3749999999999964
 40
0.3749999999999964
 40
0.3906249999999965
 40
0.3906249999999965
 40
0.4062499999999965
 40
0.4062499999999965
 40
0.4374999999999967
 40
0.4374999999999967
 40
0.468749999999997
 40
0.468749999999997
 40
0.4999999999999972
 40
0.4999999999999972
 40
0.5312499999999976
 40
0.5312499999999976
 40
0.5624999999999978
 40
0.5624999999999978
 40
0.5937499999999981
 40
0.5937499999999981
 40
0.6249999999999983
 40
0.6249999999999983
 40
0.6562499999999987
 40
0.6562499999999987
 40
0.687499999999999
 40
0.687499999999999
 40
0.7187499999999992
 40
0.7187499999999992
 40
0.7499999999999996
 40
0.7499999999999996
 40
0.7812499999999999
 40
0.7812499999999999
 40
0.8125000000000001
 40
0.8125000000000001
 40
0.8281250000000001
 40
0.8281250000000001
 40
0.84375
 40
0.84375
 40
0.8749999999999999
 40
0.8749999999999999
 40
0.8906249999999999
 40
0.8906249999999999
 40
0.9062499999999998
 40
0.9062499999999998
 40
0.9374999999999999
 40
0.9374999999999999
 40
0.9687499999999999
 40
0.9687499999999999
 40
1.0
 40
1.0
 40
1.0
 40
1.0
 10
254.6159093983814
 20
49.01331419157287
 30
0.0
 10
254.7690326816168
 20
48.98628196580235
 30
0.0
 10
254.9180493426129
 20
48.95189937818346
 30
0.0
 10
255.2088754072444
 20
48.87143030820152
 30
0.0
 10
255.3514208841146
 20
48.82503953536946
 30
0.0
 10
255.626063264728
 20
48.72290596792242
 30
0.0
 10
255.7559485662791
 20
48.66806803236728
 30
0.0
 10
256.001577923775
 20
48.55202602527424
 30
0.0
 10
256.1182031290448
 20
48.49027363776632
 30
0.0
 10
256.332118872331
 20
48.36299867064288
 30
0.0
 10
256.4287697120687
 20
48.29800164888265
 30
0.0
 10
256.6017934602828
 20
48.16492070915763
 30
0.0
 10
256.6787434055871
 20
48.09618985605075
 30
0.0
 10
256.8076140164509
 20
47.95766115808394
 30
0.0
 10
256.8594158362054
 20
47.88828644356573
 30
0.0
 10
256.9178653548516
 20
47.78287915788108
 30
0.0
 10
256.9341183980124
 20
47.74751564601185
 30
0.0
 10
256.9598183673612
 20
47.676075579063
 30
0.0
 10
256.9692527062967
 20
47.63986247922806
 30
0.0
 10
256.9862765331094
 20
47.53211392880496
 30
0.0
 10
256.9830640049177
 20
47.46078166761498
 30
0.0
 10
256.9550721569686
 20
47.35309105920712
 30
0.0
 10
256.9418508769159
 20
47.31707933097586
 30
0.0
 10
256.9069762972834
 20
47.24457145154389
 30
0.0
 10
256.8852724081825
 20
47.20813164771162
 30
0.0
 10
256.8088232810378
 20
47.10091903769013
 30
0.0
 10
256.7424343243921
 20
47.0311747752264
 30
0.0
 10
256.6180667240397
 20
46.92845808184558
 30
0.0
 10
256.5720283411185
 20
46.89427709464851
 30
0.0
 10
256.4732739579377
 20
46.82808747435524
 30
0.0
 10
256.4206854847408
 20
46.79609770872029
 30
0.0
 10
256.3092451579514
 20
46.73425832180961
 30
0.0
 10
256.2503930197936
 20
46.70440882288278
 30
0.0
 10
256.126378395007
 20
46.64690425616433
 30
0.0
 10
256.0607677789065
 20
46.6190942480505
 30
0.0
 10
255.8592132564653
 20
46.54110071331267
 30
0.0
 10
255.7177988963839
 20
46.4957696115961
 30
0.0
 10
255.4216939919004
 20
46.41873573767514
 30
0.0
 10
255.2695563066718
 20
46.38783500729843
 30
0.0
 10
254.9643958596659
 20
46.3426285288746
 30
0.0
 10
254.8089309437545
 20
46.32807938123482
 30
0.0
 10
254.5048017424873
 20
46.31682901993968
 30
0.0
 10
254.3553590708965
 20
46.31986881186411
 30
0.0
 10
254.0612276022872
 20
46.34416104452728
 30
0.0
 10
253.9177551987425
 20
46.3654942303972
 30
0.0
 10
253.6449780617757
 20
46.4257262312267
 30
0.0
 10
253.514489928523
 20
46.46470747758897
 30
0.0
 10
253.265414963229
 20
46.56155839474533
 30
0.0
 10
253.1496237588062
 20
46.61841601056884
 30
0.0
 10
252.936818214798
 20
46.74756470865425
 30
0.0
 10
252.8394420492633
 20
46.8199948112164
 30
0.0
 10
252.6636394067072
 20
46.98093441716729
 30
0.0
 10
252.5876767424013
 20
47.06719974660172
 30
0.0
 10
252.4593726658638
 20
47.2498201482906
 30
0.0
 10
252.406927476162
 20
47.34630358665314
 30
0.0
 10
252.3277209850664
 20
47.54863507671744
 30
0.0
 10
252.3021431168313
 20
47.65139969573008
 30
0.0
 10
252.2794258764158
 20
47.85857965870304
 30
0.0
 10
252.2823276554761
 20
47.96347140483898
 30
0.0
 10
252.320480876042
 20
48.17145786542542
 30
0.0
 10
252.3550394715291
 20
48.27136677552382
 30
0.0
 10
252.4310480983043
 20
48.41373205929023
 30
0.0
 10
252.460443125635
 20
48.45993159828365
 30
0.0
 10
252.527942214915
 20
48.54948871774683
 30
0.0
 10
252.5663213274979
 20
48.59303337054384
 30
0.0
 10
252.6916649955399
 20
48.71504524233307
 30
0.0
 10
252.7894718981941
 20
48.78624702615102
 30
0.0
 10
252.9580528220186
 20
48.87723535615694
 30
0.0
 10
253.0183180957297
 20
48.90502425842774
 30
0.0
 10
253.1429666582293
 20
48.95375172749045
 30
0.0
 10
253.2076330883603
 20
48.97489559391407
 30
0.0
 10
253.4083960402144
 20
49.02917672693689
 30
0.0
 10
253.5530159043671
 20
49.05324988272172
 30
0.0
 10
253.8482874721266
 20
49.07749539831773
 30
0.0
 10
253.999378006384
 20
49.0781337154955
 30
0.0
 10
254.3082757587381
 20
49.0594862480752
 30
0.0
 10
254.4627861151461
 20
49.0403464173434
 30
0.0
 10
254.6159093983814
 20
49.01331419157287
 30
0.0
  0
LWPOLYLINE
  5
23D
330
1F
100
AcDbEntity
  8
0
  6
Continuous
 62
     7
370
    15
100
AcDbPolyline
 90
       23
 70
   128
 43
0.0
 10
237.8892798168
 20
43.3890481656
 10
238.1896261618
 20
44.4889303149
 10
238.5560534969
 20
45.594689965
 10
238.9859915229
 20
46.6985717763
 10
239.4764260816
 20
47.7928341391
 10
240.023916278
 20
48.8698005035
 10
240.6246221389
 20
49.9219190727
 10
241.2743309552
 20
50.9418095695
 10
241.9684855989
 20
51.9223179867
 10
242.7022174505
 20
52.8565690557
 10
243.4703799845
 20
53.7380084497
 10
244.2675856485
 20
54.5604552516
 10
245.0882430702
 20
55.3181394034
 10
245.9265960767
 20
56.0057478059
 10
246.7767649358
 20
56.6184580126
 10
247.6327865191
 20
57.1519713016
 10
248.4886568996
 20
57.6025471525
 10
249.3383732562
 20
57.9670236351
 10
250.1759758513
 20
58.2428462054
 10
250.9955898092
 20
58.4280796562
 10
251.7914665304
 20
58.5214236603
 10
252.5580238622
 20
58.5222253135
 10
253.004345817
 20
58.4778796262
  0
SPLINE
  5
23E
330
1F
100
AcDbEntity
  8
0
  6
Continuous
 62
     7
370
    15
100
AcDbSpline
210
0.0
220
0.0
230
1.0
 70
     8
 71
     3
 72
     8
 73
     4
 74
     0
 42
0.000000001
 43
0.00000001
 40
0.0
 40
0.0
 40
0.0
 40
0.0
 40
1.0
 40
1.0
 40
1.0
 40
1.0
 10
237.8892798565769
 20
43.38904836651032
 30
0.0
 10
237.3979788275244
 20
43.30640114630643
 30
0.0
 10
236.9063987366217
 20
43.22431735881599
 30
0.0
 10
236.4146039378697
 20
43.14266707173424
 30
0.0
  0
LWPOLYLINE
  5
23F
330
1F
100
AcDbEntity
  8
0
  6
Continuous
 62
     7
370
    15
100
AcDbPolyline
 90
       26
 70
   128
 43
0.0
 10
236.4146040635
 20
43.1426668669
 10
236.6970485346
 20
44.2610223396
 10
237.0435068246
 20
45.387808381
 10
237.4518452493
 20
46.5160829256
 10
237.9195475102
 20
47.6388951984
 10
238.4437318164
 20
48.7493279192
 10
239.0211686656
 20
49.8405379854
 10
239.6483012591
 20
50.9058043794
 10
240.3212645991
 20
51.9385620077
 10
241.0359138065
 20
52.9324507475
 10
241.7878455233
 20
53.8813445328
 10
242.5724272183
 20
54.7793994509
 10
243.3848245162
 20
55.6210816867
 10
244.2200328081
 20
56.4012047825
 10
245.0729060625
 20
57.1149637611
 10
245.9381900821
 20
57.7579611686
 10
246.8105536403
 20
58.3262341746
 10
247.6846221702
 20
58.816283146
 10
248.5550105271
 20
59.2250875186
 10
249.4163564505
 20
59.5501296771
 10
250.2633528537
 20
59.7894067513
 10
251.0907817593
 20
59.9414448834
 10
251.8935448804
 20
60.0053062357
 10
252.6666968769
 20
59.9805983029
 10
253.4054744965
 20
59.8674740049
 10
254.1053262087
 20
59.666629022
  0
LINE
  5
240
330
1F
100
AcDbEntity
  8
0
  6
Continuous
 62
     7
370
    15
100
AcDbLine
 10
254.1053262087
 20
59.666629022
 30
0.0
 11
254.4366863781
 21
58.5960483268
 31
0.0
  0
LINE
  5
241
330
1F
100
AcDbEntity
  8
0
  6
Continuous
 62
     7
370
    15
100
AcDbLine
 10
250.690683702
 20
61.6378601823
 30
0.0
 11
254.1053262087
 21
59.666629022
 31
0.0
  0
LINE
  5
242
330
1F
100
AcDbEntity
  8
0
  6
Continuous
 62
     7
370
    15
100
AcDbLine
 10
236.4146040635
 20
43.1426668669
 30
0.0
 11
235.8283888159
 21
43.481081726
 31
0.0
  0
SPLINE
  5
243
330
1F
100
AcDbEntity
  8
0
  6
Continuous
 62
     7
370
    15
100
AcDbSpline
210
0.0
220
0.0
230
1.0
 70
     8
 71
     3
 72
    28
 73
    24
 74
     0
 42
0.000000001
 43
0.00000001
 40
0.0
 40
0.0
 40
0.0
 40
0.0
 40
0.1250000000000001
 40
0.1250000000000001
 40
0.1875000000000001
 40
0.1875000000000001
 40
0.2500000000000001
 40
0.2500000000000001
 40
0.3749999999999999
 40
0.3749999999999999
 40
0.4375
 40
0.4375
 40
0.4999999999999999
 40
0.4999999999999999
 40
0.6249999999999999
 40
0.6249999999999999
 40
0.7499999999999997
 40
0.7499999999999997
 40
0.8124999999999998
 40
0.8124999999999998
 40
0.8749999999999998
 40
0.8749999999999998
 40
1.0
 40
1.0
 40
1.0
 40
1.0
 10
235.8283886686113
 20
43.48108194331407
 30
0.0
 10
235.640401588145
 20
43.58960457489813
 30
0.0
 10
235.4501816335442
 20
43.67154829544604
 30
0.0
 10
235.1620830315962
 20
43.75670602548451
 30
0.0
 10
235.0655931609967
 20
43.77875595588831
 30
0.0
 10
234.8718549881618
 20
43.81002977934727
 30
0.0
 10
234.7746039676304
 20
43.8191570306707
 30
0.0
 10
234.4885820927451
 20
43.8269398727791
 30
0.0
 10
234.3032402763885
 20
43.80663332914203
 30
0.0
 10
234.0347276895727
 20
43.7394126760089
 30
0.0
 10
233.9463670299069
 20
43.71062631840331
 30
0.0
 10
233.7760143196172
 20
43.64161442830815
 30
0.0
 10
233.6939872898358
 20
43.60147453839802
 30
0.0
 10
233.4575510360832
 20
43.4648547706348
 30
0.0
 10
233.3126837859608
 20
43.35234028094574
 30
0.0
 10
233.0518269924767
 20
43.08408331594627
 30
0.0
 10
232.9395345849744
 20
42.93192992956899
 30
0.0
 10
232.8003101035206
 20
42.68001354187069
 30
0.0
 10
232.7587143171548
 20
42.59197125619431
 30
0.0
 10
232.6855896020935
 20
42.40763020114249
 30
0.0
 10
232.6539651180406
 20
42.31084143846071
 30
0.0
 10
232.5764718146184
 20
42.0128263595639
 30
0.0
 10
232.5472970992286
 20
41.80335348242736
 30
0.0
 10
232.5413302164868
 20
41.5829726897435
 30
0.0
  0
ARC
  5
244
330
1F
100
AcDbEntity
  8
0
  6
Continuous
 62
     7
370
    15
100
AcDbCircle
 10
247.3858800543
 20
41.1747022206
 30
0.0
 40
14.85016324625926
100
AcDbArc
 50
178.4245883564
 51
181.5754116436
  0
SPLINE
  5
245
330
1F
100
AcDbEntity
  8
0
  6
Continuous
 62
     7
370
    15
100
AcDbSpline
210
0.0
220
0.0
230
1.0
 70
     8
 71
     3
 72
    30
 73
    26
 74
     0
 42
0.000000001
 43
0.00000001
 40
0.0
 40
0.0
 40
0.0
 40
0.0
 40
0.125
 40
0.125
 40
0.1874999999999999
 40
0.1874999999999999
 40
0.2499999999999999
 40
0.2499999999999999
 40
0.3749999999999999
 40
0.3749999999999999
 40
0.4374999999999999
 40
0.4374999999999999
 40
0.4999999999999998
 40
0.4999999999999998
 40
0.6249999999999997
 40
0.6249999999999997
 40
0.6874999999999997
 40
0.6874999999999997
 40
0.7499999999999997
 40
0.7499999999999997
 40
0.8124999999999996
 40
0.8124999999999996
 40
0.8749999999999996
 40
0.8749999999999996
 40
1.0
 40
1.0
 40
1.0
 40
1.0
 10
232.5413302164868
 20
40.76643187785775
 30
0.0
 10
232.5472978151783
 20
40.55291468508303
 30
0.0
 10
232.5764430351777
 20
40.3353647870639
 30
0.0
 10
232.6528776964366
 20
40.00306575752832
 30
0.0
 10
232.683843680014
 20
39.89129145622874
 30
0.0
 10
232.7568136208296
 20
39.66558958269375
 30
0.0
 10
232.7989498193882
 20
39.55150181012124
 30
0.0
 10
232.9388416087526
 20
39.21333908276005
 30
0.0
 10
233.0506855332949
 20
38.99082886348727
 30
0.0
 10
233.2444721304394
 20
38.66021860753771
 30
0.0
 10
233.3138127680427
 20
38.54999196783156
 30
0.0
 10
233.4593051524894
 20
38.33326196737802
 30
0.0
 10
233.5351924432084
 20
38.22706503174729
 30
0.0
 10
233.7715803916799
 20
37.91442685849769
 30
0.0
 10
233.9407258939308
 20
37.71388431066253
 30
0.0
 10
234.2105918912648
 20
37.42377947124019
 30
0.0
 10
234.3027833973157
 20
37.32943605486773
 30
0.0
 10
234.4883819923504
 20
37.14813102680734
 30
0.0
 10
234.5822108726372
 20
37.06071169331319
 30
0.0
 10
234.7716609231026
 20
36.89210414298854
 30
0.0
 10
234.8672823383082
 20
36.8109159572192
 30
0.0
 10
235.0601440277347
 20
36.65475327767105
 30
0.0
 10
235.157878936633
 20
36.57942629797434
 30
0.0
 10
235.4491348917534
 20
36.36613606453052
 30
0.0
 10
235.6403922827265
 20
36.24074263983008
 30
0.0
 10
235.8283886686113
 20
36.13221463634231
 30
0.0
  0
LINE
  5
246
330
1F
100
AcDbEntity
  8
0
  6
Continuous
 62
     7
370
    15
100
AcDbLine
 10
235.8283888159
 20
36.1322147354
 30
0.0
 11
236.4146040635
 21
35.7937998763
 31
0.0
  0
ARC
  5
247
330
1F
100
AcDbEntity
  8
0
  6
Continuous
 62
     7
370
    15
100
AcDbCircle
 10
242.2358323091
 20
37.1850776242
 30
0.0
 40
5.985177696547358
100
AcDbArc
 50
193.4415847958
 51
253.1805932375
  0
LINE
  5
248
330
1F
100
AcDbEntity
  8
0
  6
Continuous
 62
     7
370
    15
100
AcDbLine
 10
255.734743787
 20
58.7256804895
 30
0.0
 11
256.0690558821
 21
58.4183517691
 31
0.0
  0
LINE
  5
249
330
1F
100
AcDbEntity
  8
0
  6
Continuous
 62
     7
370
    15
100
AcDbLine
 10
254.8818150503
 20
59.2180657685
 30
0.0
 11
255.734743787
 21
58.7256804895
 31
0.0
  0
SPLINE
  5
24A
330
1F
100
AcDbEntity
  8
0
  6
Continuous
 62
     7
370
    15
100
AcDbSpline
210
0.0
220
0.0
230
1.0
 70
     8
 71
     3
 72
    20
 73
    16
 74
     0
 42
0.000000001
 43
0.00000001
 40
0.0
 40
0.0
 40
0.0
 40
0.0
 40
0.2499999999999997
 40
0.2499999999999997
 40
0.3749999999999997
 40
0.3749999999999997
 40
0.4999999999999998
 40
0.4999999999999998
 40
0.6249999999999998
 40
0.6249999999999998
 40
0.7499999999999999
 40
0.7499999999999999
 40
0.8749999999999999
 40
0.8749999999999999
 40
1.0
 40
1.0
 40
1.0
 40
1.0
 10
250.6906834502099
 20
61.6378600452145
 30
0.0
 10
251.0096721046079
 20
61.50396965595471
 30
0.0
 10
251.3361277047059
 20
61.34407330889272
 30
0.0
 10
251.848477822089
 20
61.0661543814232
 30
0.0
 10
252.0230811887668
 20
60.9671553686129
 30
0.0
 10
252.3829550511157
 20
60.7562146637142
 30
0.0
 10
252.5658154674692
 20
60.64565884650416
 30
0.0
 10
252.9321105566464
 20
60.42024097749334
 30
0.0
 10
253.116594072905
 20
60.30476037611387
 30
0.0
 10
253.4901788971405
 20
60.0699280318181
 30
0.0
 10
253.6745283683798
 20
59.95359810654283
 30
0.0
 10
254.0352382748563
 20
59.72790341974346
 30
0.0
 10
254.2122922641101
 20
59.61809344564676
 30
0.0
 10
254.5600216154625
 20
59.40669868211086
 30
0.0
 10
254.7252720319208
 20
59.30843584696785
 30
0.0
 10
254.8818149467021
 20
59.21806554585048
 30
0.0
  0
ARC
  5
24B
330
1F
100
AcDbEntity
  8
0
  6
Continuous
 62
     7
370
    15
100
AcDbCircle
 10
246.7788583146
 20
55.9684173718
 30
0.0
 40
6.961932635640818
100
AcDbArc
 50
63.3368544554
 51
114.365581035
  0
ARC
  5
24C
330
1F
100
AcDbEntity
  8
0
  6
Continuous
 62
     7
370
    15
100
AcDbCircle
 10
237.9473800438
 20
40.7147628955
 30
0.0
 40
6.934625033690358
100
AcDbArc
 50
184.8225703065
 51
236.8397907428
  0
LINE
  5
24D
330
1F
100
AcDbEntity
  8
0
  6
Continuous
 62
     7
370
    15
100
AcDbLine
 10
239.0238947106
 20
42.6147894994
 30
0.0
 11
238.5602668647
 21
42.8824361579
 31
0.0
  0
LINE
  5
24E
330
1F
100
AcDbEntity
  8
0
  6
Continuous
 62
     7
370
    15
100
AcDbLine
 10
238.1344486931
 20
43.5305811453
 30
0.0
 11
237.8892798168
 21
43.3890481656
 31
0.0
  0
SPLINE
  5
24F
330
1F
100
AcDbEntity
  8
0
  6
Continuous
 62
     7
370
    15
100
AcDbSpline
210
0.0
220
0.0
230
1.0
 70
     8
 71
     3
 72
    14
 73
    10
 74
     0
 42
0.000000001
 43
0.00000001
 40
0.0
 40
0.0
 40
0.0
 40
0.0
 40
0.1249999999999991
 40
0.1249999999999991
 40
0.2499999999999982
 40
0.2499999999999982
 40
0.4999999999999998
 40
0.4999999999999998
 40
1.0
 40
1.0
 40
1.0
 40
1.0
 10
238.5602666189547
 20
42.88243622568834
 30
0.0
 10
238.5360701857895
 20
42.89640452923089
 30
0.0
 10
238.5128947473306
 20
42.92376970522843
 30
0.0
 10
238.4759743548997
 20
42.98157147435396
 30
0.0
 10
238.4609325638671
 20
43.01254195347032
 30
0.0
 10
238.4211191072801
 20
43.10556842639952
 30
0.0
 10
238.4014830888961
 20
43.16817948068429
 30
0.0
 10
238.3510622404266
 20
43.35251023159928
 30
0.0
 10
238.3286450621861
 20
43.47405446649996
 30
0.0
 10
238.3119571640202
 20
43.59318353180233
 30
0.0
  0
SPLINE
  5
250
330
1F
100
AcDbEntity
  8
0
  6
Continuous
 62
     7
370
    15
100
AcDbSpline
210
0.0
220
0.0
230
1.0
 70
     8
 71
     3
 72
    10
 73
     6
 74
     0
 42
0.000000001
 43
0.00000001
 40
0.0
 40
0.0
 40
0.0
 40
0.0
 40
0.5
 40
0.5
 40
1.0
 40
1.0
 40
1.0
 40
1.0
 10
238.3119571640202
 20
43.59318353180233
 30
0.0
 10
238.2785671458324
 20
43.5870337626021
 30
0.0
 10
238.2463277944043
 20
43.57848715475403
 30
0.0
 10
238.186339900142
 20
43.55725118098513
 30
0.0
 10
238.159078026893
 20
43.54479953497695
 30
0.0
 10
238.1344484609431
 20
43.5305811892001
 30
0.0
  0
ARC
  5
251
330
1F
100
AcDbEntity
  8
0
  6
Continuous
 62
     7
370
    15
100
AcDbCircle
 10
255.9761926406
 20
40.4518713625
 30
0.0
 40
25.27653979963433
100
AcDbArc
 50
128.797150793
 51
166.2325933737
  0
LINE
  5
252
330
1F
100
AcDbEntity
  8
0
  6
Continuous
 62
     7
370
    15
100
AcDbLine
 10
239.5934645872
 20
35.504517953
 30
0.0
 11
241.7634602787
 21
34.2518061051
 31
0.0
  0
SPLINE
  5
253
330
1F
100
AcDbEntity
  8
0
  6
Continuous
 62
     7
370
    15
100
AcDbSpline
210
0.0
220
0.0
230
1.0
 70
     8
 71
     3
 72
    14
 73
    10
 74
     0
 42
0.000000001
 43
0.00000001
 40
0.0
 40
0.0
 40
0.0
 40
0.0
 40
0.1249999999999993
 40
0.1249999999999993
 40
0.2499999999999987
 40
0.2499999999999987
 40
0.4999999999999973
 40
0.4999999999999973
 40
1.0
 40
1.0
 40
1.0
 40
1.0
 10
239.3451551460717
 20
36.21526503462642
 30
0.0
 10
239.3693837240244
 20
36.20127817429302
 30
0.0
 10
239.3924695653903
 20
36.17397940447628
 30
0.0
 10
239.4292119394535
 20
36.11654019616886
 30
0.0
 10
239.4443702391372
 20
36.08538972116647
 30
0.0
 10
239.4839331660249
 20
35.99309018096071
 30
0.0
 10
239.5035430392678
 20
35.93085240020518
 30
0.0
 10
239.5543658882227
 20
35.74539663400861
 30
0.0
 10
239.5767975723468
 20
35.62349781371089
 30
0.0
 10
239.5934646010062
 20
35.50451772851231
 30
0.0
  0
LINE
  5
254
330
1F
100
AcDbEntity
  8
0
  6
Continuous
 62
     7
370
    15
100
AcDbLine
 10
238.5602668647
 20
36.6683714376
 30
0.0
 11
239.3451551121
 21
36.215265097
 31
0.0
  0
SPLINE
  5
255
330
1F
100
AcDbEntity
  8
0
  6
Continuous
 62
     7
370
    15
100
AcDbSpline
210
0.0
220
0.0
230
1.0
 70
     8
 71
     3
 72
    14
 73
    10
 74
     0
 42
0.000000001
 43
0.00000001
 40
0.0
 40
0.0
 40
0.0
 40
0.0
 40
0.4999999999999972
 40
0.4999999999999972
 40
0.7499999999999973
 40
0.7499999999999973
 40
0.8749999999999987
 40
0.8749999999999987
 40
1.0
 40
1.0
 40
1.0
 40
1.0
 10
238.3119571640201
 20
36.24431622483034
 30
0.0
 10
238.3285812454739
 20
36.34379596906045
 30
0.0
 10
238.3509986470782
 20
36.43963110245645
 30
0.0
 10
238.4014297049269
 20
36.56584705203009
 30
0.0
 10
238.4209643988581
 20
36.60568060072434
 30
0.0
 10
238.4609075561935
 20
36.65294093219619
 30
0.0
 10
238.4759245233592
 20
36.66654354580145
 30
0.0
 10
238.5129858908809
 20
36.68176394737717
 30
0.0
 10
238.5359695532293
 20
36.68239793417104
 30
0.0
 10
238.5602666189547
 20
36.66837153668801
 30
0.0
  0
LINE
  5
256
330
1F
100
AcDbEntity
  8
0
  6
Continuous
 62
     7
370
    15
100
AcDbLine
 10
237.1672664355
 20
36.9051323331
 30
0.0
 11
238.3119573896
 21
36.2443163112
 31
0.0
  0
ARC
  5
257
330
1F
100
AcDbEntity
  8
0
  6
Continuous
 62
     7
370
    15
100
AcDbCircle
 10
240.4358770855
 20
42.0582520687
 30
0.0
 40
6.102332225469593
100
AcDbArc
 50
182.3868550976
 51
237.6131484179
  0
LINE
  5
258
330
1F
100
AcDbEntity
  8
0
  6
Continuous
 62
     7
370
    15
100
AcDbLine
 10
234.3388391764
 20
42.620652555
 30
0.0
 11
234.3388391764
 21
41.8041117043
 31
0.0
  0
ARC
  5
259
330
1F
100
AcDbEntity
  8
0
  6
Continuous
 62
     7
370
    15
100
AcDbCircle
 10
236.9581216764
 20
42.698007775
 30
0.0
 40
2.620424516223433
100
AcDbArc
 50
154.17494033
 51
181.6916234651
  0
ARC
  5
25A
330
1F
100
AcDbEntity
  8
0
  6
Continuous
 62
     7
370
    15
100
AcDbCircle
 10
245.7301731072
 20
34.5072796347
 30
0.0
 40
5.435611795625192
100
AcDbArc
 50
217.1306997204
 51
262.9236882821
  0
SPLINE
  5
25B
330
1F
100
AcDbEntity
  8
0
  6
Continuous
 62
     7
370
    15
100
AcDbSpline
210
0.0
220
0.0
230
1.0
 70
     8
 71
     3
 72
    12
 73
     8
 74
     0
 42
0.000000001
 43
0.00000001
 40
0.0
 40
0.0
 40
0.0
 40
0.0
 40
0.2500000000000001
 40
0.2500000000000001
 40
0.5000000000000002
 40
0.5000000000000002
 40
1.0
 40
1.0
 40
1.0
 40
1.0
 10
240.2124507119679
 20
33.60134948969191
 30
0.0
 10
240.2406929120403
 20
33.58504561462789
 30
0.0
 10
240.2752390439457
 20
33.57208982121789
 30
0.0
 10
240.3499631036433
 20
33.55537808302535
 30
0.0
 10
240.390253494945
 20
33.55149117423789
 30
0.0
 10
240.5113665123813
 20
33.55375457212719
 30
0.0
 10
240.5894840747993
 20
33.57408378355394
 30
0.0
 10
240.6461335475348
 20
33.60678682806028
 30
0.0
  0
ARC
  5
25C
330
1F
100
AcDbEntity
  8
0
  6
Continuous
 62
     7
370
    15
100
AcDbCircle
 10
245.0123592162
 20
36.0374168256
 30
0.0
 40
6.409553318258278
100
AcDbArc
 50
194.7161028932
 51
237.9533528367
  0
LINE
  5
25D
330
1F
100
AcDbEntity
  8
0
  6
Continuous
 62
     7
370
    15
100
AcDbLine
 10
238.813062345
 20
34.4091993825
 30
0.0
 11
240.2124509852
 21
33.601349516
 31
0.0
  0
SPLINE
  5
25E
330
1F
100
AcDbEntity
  8
0
  6
Continuous
 62
     7
370
    15
100
AcDbSpline
210
0.0
220
0.0
230
1.0
 70
     8
 71
     3
 72
     8
 73
     4
 74
     0
 42
0.000000001
 43
0.00000001
 40
0.0
 40
0.0
 40
0.0
 40
0.0
 40
1.0
 40
1.0
 40
1.0
 40
1.0
 10
239.2398538086432
 20
35.26051131274789
 30
0.0
 10
239.0966891119527
 20
34.97688926574088
 30
0.0
 10
238.9545004151001
 20
34.69310611975686
 30
0.0
 10
238.8130626443449
 20
34.40919902556978
 30
0.0
  0
LINE
  5
25F
330
1F
100
AcDbEntity
  8
0
  6
Continuous
 62
     7
370
    15
100
AcDbLine
 10
239.4850227216
 20
35.4020443638
 30
0.0
 11
239.2398538453
 21
35.2605113841
 31
0.0
  0
SPLINE
  5
260
330
1F
100
AcDbEntity
  8
0
  6
Continuous
 62
     7
370
    15
100
AcDbSpline
210
0.0
220
0.0
230
1.0
 70
     8
 71
     3
 72
    10
 73
     6
 74
     0
 42
0.000000001
 43
0.00000001
 40
0.0
 40
0.0
 40
0.0
 40
0.0
 40
0.5
 40
0.5
 40
1.0
 40
1.0
 40
1.0
 40
1.0
 10
239.5934646010063
 20
35.50451772851241
 30
0.0
 10
239.5828117340364
 20
35.48524208130625
 30
0.0
 10
239.5680069708842
 20
35.46663069988118
 30
0.0
 10
239.5312211995533
 20
35.4320004256496
 30
0.0
 10
239.5096519789592
 20
35.41626248121447
 30
0.0
 10
239.4850224130093
 20
35.40204413543761
 30
0.0
  0
SPLINE
  5
261
330
1F
100
AcDbEntity
  8
0
  6
Continuous
 62
     7
370
    15
100
AcDbSpline
210
0.0
220
0.0
230
1.0
 70
     8
 71
     3
 72
    14
 73
    10
 74
     0
 42
0.000000001
 43
0.00000001
 40
0.0
 40
0.0
 40
0.0
 40
0.0
 40
0.4999999999999999
 40
0.4999999999999999
 40
0.7499999999999998
 40
0.7499999999999998
 40
0.8749999999999999
 40
0.8749999999999999
 40
1.0
 40
1.0
 40
1.0
 40
1.0
 10
223.6721553443275
 20
46.89957707564908
 30
0.0
 10
223.9873212881674
 20
46.67248908475322
 30
0.0
 10
224.3035969434333
 20
46.44264270970508
 30
0.0
 10
224.7824214320044
 20
46.08733410771597
 30
0.0
 10
224.9427414424284
 20
45.96719579352042
 30
0.0
 10
225.1857939783822
 20
45.78092695927661
 30
0.0
 10
225.2672374163988
 20
45.7178337180496
 30
0.0
 10
225.4318988654321
 20
45.58748847563746
 30
0.0
 10
225.5148048834984
 20
45.52096403366021
 30
0.0
 10
225.600823711583
 20
45.44717056233665
 30
0.0
  0
SPLINE
  5
262
330
1F
100
AcDbEntity
  8
0
  6
Continuous
 62
     7
370
    15
100
AcDbSpline
210
0.0
220
0.0
230
1.0
 70
     8
 71
     3
 72
     8
 73
     4
 74
     0
 42
0.000000001
 43
0.00000001
 40
0.0
 40
0.0
 40
0.0
 40
0.0
 40
1.0
 40
1.0
 40
1.0
 40
1.0
 10
225.600823711583
 20
45.44717056233665
 30
0.0
 10
225.9024761848206
 20
45.18839020425482
 30
0.0
 10
226.207755728344
 20
44.94081518885017
 30
0.0
 10
226.5124153014706
 20
44.69984233228364
 30
0.0
  0
SPLINE
  5
263
330
1F
100
AcDbEntity
  8
0
  6
Continuous
 62
     7
370
    15
100
AcDbSpline
210
0.0
220
0.0
230
1.0
 70
     8
 71
     3
 72
    14
 73
    10
 74
     0
 42
0.000000001
 43
0.00000001
 40
0.0
 40
0.0
 40
0.0
 40
0.0
 40
0.1250000000000012
 40
0.1250000000000012
 40
0.2500000000000024
 40
0.2500000000000024
 40
0.5000000000000016
 40
0.5000000000000016
 40
1.0
 40
1.0
 40
1.0
 40
1.0
 10
226.5124153014707
 20
44.69984233228359
 30
0.0
 10
226.5316106773962
 20
44.68465960054739
 30
0.0
 10
226.5492227507966
 20
44.67329178205061
 30
0.0
 10
226.5750676807159
 20
44.66202331283816
 30
0.0
 10
226.5832060449635
 20
44.66163984260111
 30
0.0
 10
226.6001561359316
 20
44.6674156352955
 30
0.0
 10
226.6023254084413
 20
44.68008106091354
 30
0.0
 10
226.6011498606267
 20
44.7245178879573
 30
0.0
 10
226.5890763400226
 20
44.76500115873075
 30
0.0
 10
226.5742981119825
 20
44.80900482861324
 30
0.0
  0
SPLINE
  5
264
330
1F
100
AcDbEntity
  8
0
  6
Continuous
 62
     7
370
    15
100
AcDbSpline
210
0.0
220
0.0
230
1.0
 70
     8
 71
     3
 72
    14
 73
    10
 74
     0
 42
0.000000001
 43
0.00000001
 40
0.0
 40
0.0
 40
0.0
 40
0.0
 40
0.25
 40
0.25
 40
0.5
 40
0.5
 40
0.75
 40
0.75
 40
1.0
 40
1.0
 40
1.0
 40
1.0
 10
226.5742981119818
 20
44.80900482861394
 30
0.0
 10
226.5562418650352
 20
44.86276913160071
 30
0.0
 10
226.5533190669341
 20
44.90731974069775
 30
0.0
 10
226.5479053383908
 20
44.99958109054247
 30
0.0
 10
226.5463380603496
 20
45.04687549346273
 30
0.0
 10
226.5361996605425
 20
45.15163654829051
 30
0.0
 10
226.5278846627983
 20
45.20889775532552
 30
0.0
 10
226.4990844881394
 20
45.33851911269994
 30
0.0
 10
226.4784310914689
 20
45.41131331231299
 30
0.0
 10
226.4497415743078
 20
45.49100001127275
 30
0.0
  0
ARC
  5
265
330
1F
100
AcDbEntity
  8
0
  6
Continuous
 62
     7
370
    15
100
AcDbCircle
 10
236.8047119026
 20
48.5775614779
 30
0.0
 40
10.80519673566391
100
AcDbArc
 50
163.4019784234
 51
196.5980215766
  0
SPLINE
  5
266
330
1F
100
AcDbEntity
  8
0
  6
Continuous
 62
     7
370
    15
100
AcDbSpline
210
0.0
220
0.0
230
1.0
 70
     8
 71
     3
 72
    14
 73
    10
 74
     0
 42
0.000000001
 43
0.00000001
 40
0.0
 40
0.0
 40
0.0
 40
0.0
 40
0.25
 40
0.25
 40
0.5
 40
0.5
 40
0.75
 40
0.75
 40
1.0
 40
1.0
 40
1.0
 40
1.0
 10
226.5742981119818
 20
53.12532802353693
 30
0.0
 10
226.5562418650352
 20
53.00448594459237
 30
0.0
 10
226.5533190669341
 20
52.87939167802626
 30
0.0
 10
226.5479053383908
 20
52.6314403673749
 30
0.0
 10
226.5463380603496
 20
52.50753174306114
 30
0.0
 10
226.5361996605425
 20
52.26137600382094
 30
0.0
 10
226.5278846627983
 20
52.13908806195953
 30
0.0
 10
226.4990844881394
 20
51.89709088475075
 30
0.0
 10
226.4784310914689
 20
51.77693391757115
 30
0.0
 10
226.4497415743078
 20
51.66412300716588
 30
0.0
  0
SPLINE
  5
267
330
1F
100
AcDbEntity
  8
0
  6
Continuous
 62
     7
370
    15
100
AcDbSpline
210
0.0
220
0.0
230
1.0
 70
     8
 71
     3
 72
    14
 73
    10
 74
     0
 42
0.000000001
 43
0.00000001
 40
0.0
 40
0.0
 40
0.0
 40
0.0
 40
0.1250000000000025
 40
0.1250000000000025
 40
0.250000000000005
 40
0.250000000000005
 40
0.5000000000000009
 40
0.5000000000000009
 40
1.0
 40
1.0
 40
1.0
 40
1.0
 10
226.5124153014708
 20
53.67061358783094
 30
0.0
 10
226.5316106773963
 20
53.66832677985712
 30
0.0
 10
226.5492227507967
 20
53.65682854058429
 30
0.0
 10
226.5750676807159
 20
53.62013703805778
 30
0.0
 10
226.5832060449636
 20
53.59705562295571
 30
0.0
 10
226.6001561359316
 20
53.52572310387861
 30
0.0
 10
226.6023254084413
 20
53.47447899827054
 30
0.0
 10
226.6011498606267
 20
53.32444351850895
 30
0.0
 10
226.5890763400226
 20
53.22423184362587
 30
0.0
 10
226.5742981119825
 20
53.12532802353726
 30
0.0
  0
SPLINE
  5
268
330
1F
100
AcDbEntity
  8
0
  6
Continuous
 62
     7
370
    15
100
AcDbSpline
210
0.0
220
0.0
230
1.0
 70
     8
 71
     3
 72
     8
 73
     4
 74
     0
 42
0.000000001
 43
0.00000001
 40
0.0
 40
0.0
 40
0.0
 40
0.0
 40
1.0
 40
1.0
 40
1.0
 40
1.0
 10
225.600823711583
 20
53.72282639896703
 30
0.0
 10
225.9024761848206
 20
53.73017264611013
 30
0.0
 10
226.2077557283441
 20
53.7069086801402
 30
0.0
 10
226.5124153014708
 20
53.67061358783094
 30
0.0
  0
SPLINE
  5
269
330
1F
100
AcDbEntity
  8
0
  6
Continuous
 62
     7
370
    15
100
AcDbSpline
210
0.0
220
0.0
230
1.0
 70
     8
 71
     3
 72
    14
 73
    10
 74
     0
 42
0.000000001
 43
0.00000001
 40
0.0
 40
0.0
 40
0.0
 40
0.0
 40
0.4999999999999999
 40
0.4999999999999999
 40
0.7499999999999998
 40
0.7499999999999998
 40
0.8749999999999999
 40
0.8749999999999999
 40
1.0
 40
1.0
 40
1.0
 40
1.0
 10
223.6721553443275
 20
54.35546574395202
 30
0.0
 10
223.9873212881674
 20
54.2180812502259
 30
0.0
 10
224.3035969434333
 20
54.08650774259473
 30
0.0
 10
224.7824214320044
 20
53.91161227607397
 30
0.0
 10
224.9427414424284
 20
53.85694112580945
 30
0.0
 10
225.1857939783822
 20
53.7879093100894
 30
0.0
 10
225.2672374163988
 20
53.7670470255806
 30
0.0
 10
225.4318988654321
 20
53.73423931215098
 30
0.0
 10
225.5148048834984
 20
53.72073155265833
 30
0.0
 10
225.600823711583
 20
53.72282639896702
 30
0.0
  0
SPLINE
  5
26A
330
1F
100
AcDbEntity
  8
0
  6
Continuous
 62
     7
370
    15
100
AcDbSpline
210
0.0
220
0.0
230
1.0
 70
     8
 71
     3
 72
     8
 73
     4
 74
     0
 42
0.000000001
 43
0.00000001
 40
0.0000005163856998
 40
0.0000005163856998
 40
0.0000005163856998
 40
0.0000005163856998
 40
0.000026289209185
 40
0.000026289209185
 40
0.000026289209185
 40
0.000026289209185
 10
223.6721337573083
 20
54.36834485514321
 30
0.0
 10
223.672131456149
 20
54.36405202011667
 30
0.0
 10
223.6721387024733
 20
54.35975895244115
 30
0.0
 10
223.6721553443275
 20
54.35546574395202
 30
0.0
  0
LINE
  5
26B
330
1F
100
AcDbEntity
  8
0
  6
Continuous
 62
     7
370
    15
100
AcDbLine
 10
236.4559952322
 20
64.902410815
 30
0.0
 11
236.5363093447
 21
64.863561496
 31
0.0
  0
LINE
  5
26C
330
1F
100
AcDbEntity
  8
0
  6
Continuous
 62
     7
370
    15
100
AcDbLine
 10
225.1546115148
 20
45.1477461156
 30
0.0
 11
225.0899319074
 21
45.191533174
 31
0.0
  0
SPLINE
  5
26D
330
1F
100
AcDbEntity
  8
0
  6
Continuous
 62
     7
370
    15
100
AcDbSpline
210
0.0
220
0.0
230
1.0
 70
     8
 71
     3
 72
     8
 73
     4
 74
     0
 42
0.000000001
 43
0.00000001
 40
0.0000005163857002
 40
0.0000005163857002
 40
0.0000005163857002
 40
0.0000005163857002
 40
0.0000262892091854
 40
0.0000262892091854
 40
0.0000262892091854
 40
0.0000262892091854
 10
223.6721337573083
 20
46.89487380328344
 30
0.0
 10
223.672131456149
 20
46.89644718898114
 30
0.0
 10
223.6721387024733
 20
46.89801491891332
 30
0.0
 10
223.6721553443275
 20
46.89957707564909
 30
0.0
  0
SPLINE
  5
26E
330
1F
100
AcDbEntity
  8
0
  6
Continuous
 62
     7
370
    15
100
AcDbSpline
210
0.0
220
0.0
230
1.0
 70
     8
 71
     3
 72
    17
 73
    13
 74
     0
 42
0.000000001
 43
0.00000001
 40
0.0
 40
0.0
 40
0.0
 40
0.0
 40
0.1260572221353398
 40
0.2528028491416475
 40
0.379525330258937
 40
0.5055267685108303
 40
0.6304532818042331
 40
0.6932925873464447
 40
0.7553188805733093
 40
0.8172562396727894
 40
0.8804936425689373
 40
1.0
 40
1.0
 40
1.0
 40
1.0
 10
229.3610023271048
 20
45.02190270695619
 30
0.0
 10
229.227955588023
 20
45.26683751573227
 30
0.0
 10
228.9611355348828
 20
45.75804473467349
 30
0.0
 10
228.8364380846056
 20
46.51006495611551
 30
0.0
 10
228.9722724261555
 20
47.13475515491341
 30
0.0
 10
229.33931943111
 20
47.55160863611957
 30
0.0
 10
229.782048480338
 20
47.64562822996251
 30
0.0
 10
230.1580919954155
 20
47.5636105965601
 30
0.0
 10
230.4408644545954
 20
47.42155905409138
 30
0.0
 10
230.7111774499518
 20
47.20402913216667
 30
0.0
 10
231.0400222325887
 20
46.83924113085245
 30
0.0
 10
231.2249137750274
 20
46.48046038019779
 30
0.0
 10
231.3458246872089
 20
46.24583359704334
 30
0.0
  0
SPLINE
  5
26F
330
1F
100
AcDbEntity
  8
0
  6
Continuous
 62
     7
370
    15
100
AcDbSpline
210
0.0
220
0.0
230
1.0
 70
     8
 71
     3
 72
    12
 73
     8
 74
     0
 42
0.000000001
 43
0.00000001
 40
0.0
 40
0.0
 40
0.0
 40
0.0
 40
0.1548678191308183
 40
0.3227702343956322
 40
0.490797999008639
 40
0.6612512897826806
 40
1.0
 40
1.0
 40
1.0
 40
1.0
 10
230.9256933767235
 20
43.69298178339123
 30
0.0
 10
230.8513102651213
 20
43.71230556837203
 30
0.0
 10
230.6962835171392
 20
43.75257954293091
 30
0.0
 10
230.4314211376757
 20
43.89851022148493
 30
0.0
 10
230.1499960150532
 20
44.10583737744874
 30
0.0
 10
229.7698123705304
 20
44.45505148985119
 30
0.0
 10
229.524318275902
 20
44.79545072556009
 30
0.0
 10
229.3610023271048
 20
45.02190270695619
 30
0.0
  0
ARC
  5
270
330
1F
100
AcDbEntity
  8
0
  6
Continuous
 62
     7
370
    15
100
AcDbCircle
 10
244.1846323884
 20
38.0992120907
 30
0.0
 40
6.623524161157617
100
AcDbArc
 50
198.1114497461
 51
217.3575790174
  0
SPLINE
  5
271
330
1F
100
AcDbEntity
  8
0
  6
Continuous
 62
     7
370
    15
100
AcDbSpline
210
0.0
220
0.0
230
1.0
 70
     8
 71
     3
 72
     8
 73
     4
 74
     0
 42
0.000000001
 43
0.00000001
 40
0.0
 40
0.0
 40
0.0
 40
0.0
 40
1.0
 40
1.0
 40
1.0
 40
1.0
 10
236.4146039378697
 20
35.7937997647625
 30
0.0
 10
236.9063987366217
 20
35.87545005184424
 30
0.0
 10
237.3979788275244
 20
35.95753383933469
 30
0.0
 10
237.8892798565769
 20
36.04018105953858
 30
0.0
  0
LINE
  5
272
330
1F
100
AcDbEntity
  8
0
  6
Continuous
 62
     7
370
    15
100
AcDbLine
 10
237.8892798168
 20
36.040181175
 30
0.0
 11
238.1344486931
 21
36.1817141547
 31
0.0
  0
SPLINE
  5
273
330
1F
100
AcDbEntity
  8
0
  6
Continuous
 62
     7
370
    15
100
AcDbSpline
210
0.0
220
0.0
230
1.0
 70
     8
 71
     3
 72
    10
 73
     6
 74
     0
 42
0.000000001
 43
0.00000001
 40
0.0
 40
0.0
 40
0.0
 40
0.0
 40
0.5
 40
0.5
 40
1.0
 40
1.0
 40
1.0
 40
1.0
 10
238.1344484609431
 20
36.18171388222834
 30
0.0
 10
238.159280764295
 20
36.19604926581619
 30
0.0
 10
238.1869557617885
 20
36.20864470595228
 30
0.0
 10
238.247080771243
 20
36.22984260409255
 30
0.0
 10
238.2787751714377
 20
36.23820476975921
 30
0.0
 10
238.3119571640194
 20
36.24431622483045
 30
0.0
  0
SPLINE
  5
274
330
1F
100
AcDbEntity
  8
0
  6
Continuous
 62
     7
370
    15
100
AcDbSpline
210
0.0
220
0.0
230
1.0
 70
     8
 71
     3
 72
    12
 73
     8
 74
     0
 42
0.000000001
 43
0.00000001
 40
0.0
 40
0.0
 40
0.0
 40
0.0
 40
0.0861041245093394
 40
0.3523874703095556
 40
0.6177998720281539
 40
0.8868620782148945
 40
1.0
 40
1.0
 40
1.0
 40
1.0
 10
230.3807957054807
 20
47.34467318196636
 30
0.0
 10
230.3669280030166
 20
47.29701013836087
 30
0.0
 10
230.3101734094569
 20
47.10194562247266
 30
0.0
 10
230.3880925629032
 20
46.66714022944831
 30
0.0
 10
230.6121897143134
 20
46.1199230378129
 30
0.0
 10
230.8990783837661
 20
45.68155676701348
 30
0.0
 10
231.1076363222426
 20
45.48247603058052
 30
0.0
 10
231.1693731192872
 20
45.42354465107786
 30
0.0
  0
LINE
  5
275
330
1F
100
AcDbEntity
  8
0
  6
Continuous
 62
     7
370
    15
100
AcDbLine
 10
258.0381938523
 20
57.3200315227
 30
0.0
 11
258.1332020685
 21
57.3410799957
 31
0.0
  0
LINE
  5
276
330
1F
100
AcDbEntity
  8
0
  6
Continuous
 62
     7
370
    15
100
AcDbLine
 10
258.1332020685
 20
57.3410799957
 30
0.0
 11
259.5325907087
 21
56.5332301292
 31
0.0
  0
SPLINE
  5
277
330
1F
100
AcDbEntity
  8
0
  6
Continuous
 62
     7
370
    15
100
AcDbSpline
210
0.0
220
0.0
230
1.0
 70
     8
 71
     3
 72
    12
 73
     8
 74
     0
 42
0.000000001
 43
0.00000001
 40
0.0
 40
0.0
 40
0.0
 40
0.0
 40
0.249999999999998
 40
0.249999999999998
 40
0.499999999999996
 40
0.499999999999996
 40
1.0
 40
1.0
 40
1.0
 40
1.0
 10
259.5325904746349
 20
56.53322998190676
 30
0.0
 10
259.5648344455075
 20
56.51461593373315
 30
0.0
 10
259.5868874480411
 20
56.49036561093573
 30
0.0
 10
259.6077363922061
 20
56.43977775304819
 30
0.0
 10
259.6073552229788
 20
56.41293918461413
 30
0.0
 10
259.5816022900815
 20
56.33570506834531
 30
0.0
 10
259.5336508629729
 20
56.28891969751748
 30
0.0
 10
259.4697508138375
 20
56.25203098435001
 30
0.0
  0
SPLINE
  5
278
330
1F
100
AcDbEntity
  8
0
  6
Continuous
 62
     7
370
    15
100
AcDbSpline
210
0.0
220
0.0
230
1.0
 70
     8
 71
     3
 72
    11
 73
     7
 74
     0
 42
0.000000001
 43
0.00000001
 40
0.0
 40
0.0
 40
0.0
 40
0.0
 40
0.2040717562705566
 40
0.39230201386098
 40
0.7204099034569105
 40
1.0
 40
1.0
 40
1.0
 40
1.0
 10
229.6522716239017
 20
45.20482586521749
 30
0.0
 10
229.7318908277362
 20
45.09024123842246
 30
0.0
 10
229.8849486274882
 20
44.86996685714257
 30
0.0
 10
230.2087037225157
 20
44.51913000635771
 30
0.0
 10
230.5934570372491
 20
44.20153226572094
 30
0.0
 10
230.8475129506989
 20
44.09382959052931
 30
0.0
 10
230.964399165544
 20
44.04427767158007
 30
0.0
  0
SPLINE
  5
279
330
1F
100
AcDbEntity
  8
0
  6
Continuous
 62
     7
370
    15
100
AcDbSpline
210
0.0
220
0.0
230
1.0
 70
     8
 71
     3
 72
    16
 73
    12
 74
     0
 42
0.000000001
 43
0.00000001
 40
0.0
 40
0.0
 40
0.0
 40
0.0
 40
0.1460145305939677
 40
0.2335492376916815
 40
0.3282846220575775
 40
0.4359414424092971
 40
0.5278790444189856
 40
0.6640995040190557
 40
0.8013222617507234
 40
0.8930413283347902
 40
1.0
 40
1.0
 40
1.0
 40
1.0
 10
230.5918789766244
 20
47.28679487260172
 30
0.0
 10
230.4450180900953
 20
47.36026566595427
 30
0.0
 10
230.2101151119049
 20
47.47778169473776
 30
0.0
 10
229.8932651525321
 20
47.46781211599056
 30
0.0
 10
229.640135358741
 20
47.38007663997723
 30
0.0
 10
229.4314117011311
 20
47.19828412521106
 30
0.0
 10
229.2683813727458
 20
46.90641922222748
 30
0.0
 10
229.1913537408735
 20
46.49653560843679
 30
0.0
 10
229.2667520708573
 20
46.03196612389236
 30
0.0
 10
229.4254957694664
 20
45.5900221107662
 30
0.0
 10
229.5729105158357
 20
45.33962681634056
 30
0.0
 10
229.6522716239017
 20
45.20482586521749
 30
0.0
  0
SPLINE
  5
27A
330
1F
100
AcDbEntity
  8
0
  6
Continuous
 62
     7
370
    15
100
AcDbSpline
210
0.0
220
0.0
230
1.0
 70
     8
 71
     3
 72
    10
 73
     6
 74
     0
 42
0.000000001
 43
0.00000001
 40
0.0
 40
0.0
 40
0.0
 40
0.0
 40
0.3337877425849088
 40
0.7036653169774089
 40
1.0
 40
1.0
 40
1.0
 40
1.0
 10
261.64958015275
 20
52.67241564737952
 30
0.0
 10
261.6703428234002
 20
52.68684429405813
 30
0.0
 10
261.7141130682608
 20
52.71726164299982
 30
0.0
 10
261.7460981415766
 20
52.77258870602981
 30
0.0
 10
261.7395507385805
 20
52.80994832465645
 30
0.0
 10
261.7366384196163
 20
52.82656607766287
 30
0.0
  0
LINE
  5
27B
330
1F
100
AcDbEntity
  8
0
  6
Continuous
 62
     7
370
    15
100
AcDbLine
 10
255.734743787
 20
58.7256804895
 30
0.0
 11
255.5957352488
 21
58.5165744451
 31
0.0
  0
LINE
  5
27C
330
1F
100
AcDbEntity
  8
0
  6
Continuous
 62
     7
370
    15
100
AcDbLine
 10
225.5119107645
 20
49.0745582958
 30
0.0
 11
226.0122939551
 21
48.7856932286
 31
0.0
  0
SPLINE
  5
27D
330
1F
100
AcDbEntity
  8
0
  6
Continuous
 62
     7
370
    15
100
AcDbSpline
210
0.0
220
0.0
230
1.0
 70
     8
 71
     3
 72
     9
 73
     5
 74
     0
 42
0.000000001
 43
0.00000001
 40
0.0
 40
0.0
 40
0.0
 40
0.0
 40
0.7009339503679092
 40
0.9999999999999999
 40
0.9999999999999999
 40
0.9999999999999999
 40
0.9999999999999999
 10
223.6861000674128
 20
54.83193688918728
 30
0.0
 10
223.6830281788938
 20
54.88594087354127
 30
0.0
 10
223.678645614007
 20
54.96298662703298
 30
0.0
 10
223.7030559380835
 20
55.05261936744724
 30
0.0
 10
223.7103562372752
 20
55.07942547704064
 30
0.0
  0
SPLINE
  5
27E
330
1F
100
AcDbEntity
  8
0
  6
Continuous
 62
     7
370
    15
100
AcDbSpline
210
0.0
220
0.0
230
1.0
 70
     8
 71
     3
 72
    10
 73
     6
 74
     0
 42
0.000000001
 43
0.00000001
 40
0.0
 40
0.0
 40
0.0
 40
0.0
 40
0.5
 40
0.5
 40
1.0
 40
1.0
 40
1.0
 40
1.0
 10
223.7265926945263
 20
54.88428703426487
 30
0.0
 10
223.7066666440297
 20
54.80032656024684
 30
0.0
 10
223.6933723798887
 20
54.71488069773309
 30
0.0
 10
223.676103853748
 20
54.5424672267958
 30
0.0
 10
223.672180399126
 20
54.4553556205295
 30
0.0
 10
223.6721337573083
 20
54.36834485514321
 30
0.0
  0
SPLINE
  5
27F
330
1F
100
AcDbEntity
  8
0
  6
Continuous
 62
     7
370
    15
100
AcDbSpline
210
0.0
220
0.0
230
1.0
 70
     8
 71
     3
 72
    24
 73
    20
 74
     0
 42
0.000000001
 43
0.00000001
 40
0.0
 40
0.0
 40
0.0
 40
0.0
 40
0.2500000000000034
 40
0.2500000000000034
 40
0.3750000000000043
 40
0.3750000000000043
 40
0.4375000000000036
 40
0.4375000000000036
 40
0.4687500000000054
 40
0.4687500000000054
 40
0.5000000000000073
 40
0.5000000000000073
 40
0.5625000000000063
 40
0.5625000000000063
 40
0.6250000000000052
 40
0.6250000000000052
 40
0.7500000000000029
 40
0.7500000000000029
 40
1.0
 40
1.0
 40
1.0
 40
1.0
 10
223.710356291558
 20
55.07942538498111
 30
0.0
 10
223.7401973208432
 20
55.18670444153737
 30
0.0
 10
223.7700268608842
 20
55.29258901490804
 30
0.0
 10
223.8146980177555
 20
55.44253705815833
 30
0.0
 10
223.8296508098474
 20
55.49153732092126
 30
0.0
 10
223.8512339481367
 20
55.55468760282401
 30
0.0
 10
223.8583636596663
 20
55.57432778705252
 30
0.0
 10
223.8672152849678
 20
55.59203771654051
 30
0.0
 10
223.8698533822376
 20
55.59575408302619
 30
0.0
 10
223.8730059202826
 20
55.59360573464397
 30
0.0
 10
223.8733858814194
 20
55.58744332557741
 30
0.0
 10
223.8713759561586
 20
55.55879824222465
 30
0.0
 10
223.8667993145602
 20
55.53049723723647
 30
0.0
 10
223.8568679284538
 20
55.47411822708718
 30
0.0
 10
223.8511777427188
 20
55.44464847913113
 30
0.0
 10
223.8335961421002
 20
55.3567940585648
 30
0.0
 10
223.8209152691719
 20
55.29756906551548
 30
0.0
 10
223.7816742055516
 20
55.11907575838569
 30
0.0
 10
223.754370745515
 20
55.00133272421198
 30
0.0
 10
223.7265926945263
 20
54.88428703426489
 30
0.0
  0
ARC
  5
280
330
1F
100
AcDbEntity
  8
0
  6
Continuous
 62
     7
370
    15
100
AcDbCircle
 10
224.3892707219
 20
54.2896782033
 30
0.0
 40
0.7201273031244637
100
AcDbArc
 50
174.7584203609
 51
234.4349513408
  0
ARC
  5
281
330
1F
100
AcDbEntity
  8
0
  6
Continuous
 62
     7
370
    15
100
AcDbCircle
 10
225.8846054894
 20
46.789780467
 30
0.0
 40
2.215173511102325
100
AcDbArc
 50
122.6235856257
 51
177.1589283586
  0
LINE
  5
282
330
1F
100
AcDbEntity
  8
0
  6
Continuous
 62
     7
370
    15
100
AcDbLine
 10
224.6903666127
 20
48.6554672547
 30
0.0
 11
225.434453418
 21
49.0850194242
 31
0.0
  0
SPLINE
  5
283
330
1F
100
AcDbEntity
  8
0
  6
Continuous
 62
     7
370
    15
100
AcDbSpline
210
0.0
220
0.0
230
1.0
 70
     8
 71
     3
 72
     8
 73
     4
 74
     0
 42
0.000000001
 43
0.00000001
 40
0.0
 40
0.0
 40
0.0
 40
0.0
 40
0.000159097691435
 40
0.000159097691435
 40
0.000159097691435
 40
0.000159097691435
 10
225.5119111894539
 20
49.07455827892893
 30
0.0
 10
225.4860910605228
 20
49.07804282830611
 30
0.0
 10
225.4602719166049
 20
49.0815298109588
 30
0.0
 10
225.4344537375831
 20
49.08501917199325
 30
0.0
  0
SPLINE
  5
284
330
1F
100
AcDbEntity
  8
0
  6
Continuous
 62
     7
370
    15
100
AcDbSpline
210
0.0
220
0.0
230
1.0
 70
     8
 71
     3
 72
    10
 73
     6
 74
     0
 42
0.000000001
 43
0.00000001
 40
0.0
 40
0.0
 40
0.0
 40
0.0
 40
0.5
 40
0.5
 40
1.0
 40
1.0
 40
1.0
 40
1.0
 10
223.7265926945263
 20
46.69963141856089
 30
0.0
 10
223.7066666440297
 20
46.73815298007757
 30
0.0
 10
223.6933723798887
 20
46.77011630727137
 30
0.0
 10
223.676103853748
 20
46.83255973076981
 30
0.0
 10
223.672180399126
 20
46.86298310798286
 30
0.0
 10
223.6721337573083
 20
46.89487380328343
 30
0.0
  0
LINE
  5
285
330
1F
100
AcDbEntity
  8
0
  6
Continuous
 62
     7
370
    15
100
AcDbLine
 10
223.6825004631
 20
47.4967438813
 30
0.0
 11
223.6861000674
 21
47.3611076205
 31
0.0
  0
ARC
  5
286
330
1F
100
AcDbEntity
  8
0
  6
Continuous
 62
     7
370
    15
100
AcDbCircle
 10
225.0192254393
 20
47.284439224
 30
0.0
 40
1.353479563765622
100
AcDbArc
 50
122.9135810547
 51
170.975405912
  0
LINE
  5
287
330
1F
100
AcDbEntity
  8
0
  6
Continuous
 62
     7
370
    15
100
AcDbLine
 10
224.6903666127
 20
48.6554672547
 30
0.0
 11
224.2837805749
 21
48.4206732584
 31
0.0
  0
LINE
  5
288
330
1F
100
AcDbEntity
  8
0
  6
Continuous
 62
     7
370
    15
100
AcDbLine
 10
223.781905781
 20
46.6036414316
 30
0.0
 11
223.7265926521
 21
46.6996315963
 31
0.0
  0
ARC
  5
289
330
1F
100
AcDbEntity
  8
0
  6
Continuous
 62
     7
370
     0
100
AcDbCircle
 10
257.019342323
 20
41.8974709014
 30
0.0
 40
0.8619531190851248
100
AcDbArc
 50
320.9341455466
 51
4.236130565
  0
ARC
  5
28A
330
1F
100
AcDbEntity
  8
0
  6
Continuous
 62
     7
370
     0
100
AcDbCircle
 10
257.1636396697
 20
41.7982993282
 30
0.0
 40
0.5209479047152196
100
AcDbArc
 50
278.9476646396
 51
357.3463653291
  0
ARC
  5
28B
330
1F
100
AcDbEntity
  8
0
  6
Continuous
 62
     7
370
     0
100
AcDbCircle
 10
257.1711839618
 20
41.8649880725
 30
0.0
 40
0.714078603059146
100
AcDbArc
 50
295.2154237724
 51
7.6161881748
  0
ARC
  5
28C
330
1F
100
AcDbEntity
  8
0
  6
Continuous
 62
     7
370
     0
100
AcDbCircle
 10
257.1565739388
 20
41.8057558836
 30
0.0
 40
0.528899672695289
100
AcDbArc
 50
278.20074761
 51
357.0842526419
  0
LWPOLYLINE
  5
28D
330
1F
100
AcDbEntity
  8
0
  6
Continuous
 62
     7
370
     0
100
AcDbPolyline
 90
       26
 70
   128
 43
0.0
 10
240.6461334953
 20
40.9556540732
 10
240.92950388
 20
42.0592066686
 10
241.276161709
 20
43.1705727852
 10
241.6839489319
 20
44.2828346947
 10
242.1503275183
 20
45.3890697611
 10
242.6723946039
 20
46.4823918853
 10
243.2469009301
 20
47.55599675
 10
243.8702706003
 20
48.6032017431
 10
244.5386228116
 20
49.6174873999
 10
245.2477988556
 20
50.5925426491
 10
245.9933831912
 20
51.5222959889
 10
246.7707357139
 20
52.4009622531
 10
247.5750180971
 20
53.2230722663
 10
248.4012242502
 20
53.9835079176
 10
249.2442112698
 20
54.6775367587
 10
250.0987322848
 20
55.3008385694
 10
250.9594685298
 20
55.8495337591
 10
251.8210625084
 20
56.3202078353
 10
252.6781512708
 20
56.7099298534
 10
253.5254002258
 20
57.016274978
 10
254.3575359136
 20
57.2373365581
 10
255.1693783878
 20
57.3717379765
 10
255.955874801
 20
57.4186429129
 10
256.7121301918
 20
57.3777594286
 10
257.4334366256
 20
57.2493423403
 10
258.1153048044
 20
57.0341901751
  0
LWPOLYLINE
  5
28E
330
1F
100
AcDbEntity
  8
0
  6
Continuous
 62
     7
370
     0
100
AcDbPolyline
 90
       26
 70
   128
 43
0.0
 10
240.2124509852
 20
40.9502165067
 10
240.4948954563
 20
42.0685719794
 10
240.8413537463
 20
43.1953580208
 10
241.249692171
 20
44.3236325653
 10
241.7173944318
 20
45.4464448382
 10
242.241578738
 20
46.5568775589
 10
242.8190155873
 20
47.6480876251
 10
243.4461481808
 20
48.7133540192
 10
244.1191115208
 20
49.7461116475
 10
244.8337607282
 20
50.7400003872
 10
245.585692445
 20
51.6888941726
 10
246.37027414
 20
52.5869490906
 10
247.1826714379
 20
53.4286313264
 10
248.0178797298
 20
54.2087544222
 10
248.8707529842
 20
54.9225134009
 10
249.7360370037
 20
55.5655108084
 10
250.608400562
 20
56.1337838143
 10
251.4824690919
 20
56.6238327857
 10
252.3528574488
 20
57.0326371583
 10
253.2142033722
 20
57.3576793168
 10
254.0611997754
 20
57.596956391
 10
254.888628681
 20
57.7489945231
 10
255.6913918021
 20
57.8128558754
 10
256.4645437986
 20
57.7881479427
 10
257.2033214182
 20
57.6750236447
 10
257.9031731304
 20
57.4741786617
  0
LWPOLYLINE
  5
28F
330
1F
100
AcDbEntity
  8
0
  6
Continuous
 62
     7
370
     0
100
AcDbPolyline
 90
       20
 70
   128
 43
0.0
 10
253.7068855433
 20
32.5706800176
 10
253.0353061346
 20
32.0178745348
 10
252.1616930088
 20
31.3734779918
 10
251.2811420754
 20
30.8069120308
 10
250.3993927556
 20
30.3218678992
 10
249.5221921262
 20
29.9215081794
 10
248.6552574649
 20
29.6084421249
 10
247.8042396596
 20
29.3847106203
 10
246.9746849723
 20
29.2517717131
 10
246.1720012059
 20
29.2104909682
 10
245.40141885
 20
29.2611388095
 10
244.6679616116
 20
29.4033841544
 10
243.9764101943
 20
29.636300881
 10
243.3312703598
 20
29.9583691615
 10
242.7367488903
 20
30.367492005
 10
242.1967193447
 20
30.8610005838
 10
241.7147029604
 20
31.4356797107
 10
241.2938403363
 20
32.087783811
 10
240.9368749686
 20
32.8130620202
 10
240.6461334953
 20
33.6067870826
  0
ARC
  5
290
330
1F
100
AcDbEntity
  8
0
  6
Continuous
 62
     7
370
     0
100
AcDbCircle
 10
255.1231236567
 20
51.1516066781
 30
0.0
 40
6.701305418784827
100
AcDbArc
 50
13.117112618
 51
49.5620710787
  0
LWPOLYLINE
  5
291
330
1F
100
AcDbEntity
  8
0
  6
Continuous
 62
     7
370
     0
100
AcDbPolyline
 90
       30
 70
   128
 43
0.0
 10
244.3797555345
 20
39.4365947027
 10
244.4142204614
 20
40.2412674824
 10
244.5172629205
 20
41.077476402
 10
244.6878252896
 20
41.9366405927
 10
244.9241571571
 20
42.8099436971
 10
245.2238337624
 20
43.6884247431
 10
245.5837793732
 20
44.5630691119
 10
246.0003012012
 20
45.4249019769
 10
246.4691246341
 20
46.2650791756
 10
246.9854390042
 20
47.0749801717
 10
247.5439463208
 20
47.846293603
 10
248.1389156006
 20
48.5711052996
 10
248.7642416418
 20
49.2419770814
 10
249.4135077516
 20
49.8520251751
 10
250.0800514351
 20
50.3949904554
 10
250.7570332137
 20
50.8653002268
 10
251.437506266
 20
51.2581289583
 10
252.1144880445
 20
51.5694457111
 10
252.781031728
 20
51.7960553868
 10
253.4302978378
 20
51.9356339873
 10
254.0556238791
 20
51.9867482848
 10
254.6505931588
 20
51.9488734967
 10
255.2091004755
 20
51.8223988874
 10
255.7254148455
 20
51.6086217741
 10
256.1942382784
 20
51.3097365894
 10
256.6107601064
 20
50.9288095906
 10
256.9707057172
 20
50.4697495781
 10
257.2703823225
 20
49.9372677757
 10
257.5067141901
 20
49.3368276376
 10
257.658890655
 20
48.7639443049
  0
LWPOLYLINE
  5
292
330
1F
100
AcDbEntity
  8
0
  6
Continuous
 62
     7
370
     0
100
AcDbPolyline
 90
       15
 70
   128
 43
0.0
 10
249.6595406383
 20
34.9071621553
 10
249.4135077516
 20
34.8330108316
 10
248.7642416418
 20
34.6934322311
 10
248.1389156006
 20
34.6423179336
 10
247.5439463208
 20
34.6801927217
 10
246.9854390042
 20
34.8066673309
 10
246.4691246341
 20
35.0204444443
 10
246.0003012012
 20
35.319329629
 10
245.5837793732
 20
35.7002566278
 10
245.2238337624
 20
36.1593166403
 10
244.9241571571
 20
36.6917984427
 10
244.6878252896
 20
37.2922385808
 10
244.5172629205
 20
37.954475652
 10
244.4142204614
 20
38.6717142806
 10
244.3797555345
 20
39.4365947027
  0
LWPOLYLINE
  5
293
330
1F
100
AcDbEntity
  8
0
  6
Continuous
 62
     7
370
     0
100
AcDbPolyline
 90
        9
 70
   128
 43
0.0
 10
246.5010755673
 20
39.4365943226
 10
246.5354087852
 20
38.7378048396
 10
246.6379922388
 20
38.0871383638
 10
246.807579962
 20
37.4924925616
 10
247.0421133445
 20
36.9610857024
 10
247.3387461571
 20
36.4993688699
 10
247.693877149
 20
36.1129460629
 10
248.1031958172
 20
35.8065082209
 10
248.1582550771
 20
35.7738360403
  0
LWPOLYLINE
  5
294
330
1F
100
AcDbEntity
  8
0
  6
Continuous
 62
     7
370
     0
100
AcDbPolyline
 90
       23
 70
   128
 43
0.0
 10
256.1576050938
 20
49.6306178097
 10
255.9892132874
 20
49.7199686083
 10
255.5081185362
 20
49.8997702581
 10
254.9863573445
 20
49.9922038608
 10
254.4302626057
 20
49.9961469493
 10
253.8465848947
 20
49.9115516464
 10
253.2424091628
 20
49.7394448627
 10
252.6250694142
 20
49.4819163039
 10
252.0020591859
 20
49.1420907454
 10
251.380940997
 20
48.7240943909
 10
250.7692544826
 20
48.2330006978
 10
250.1744244851
 20
47.674770856
 10
249.6036716979
 20
47.0561809102
 10
249.0639240094
 20
46.3847401619
 10
248.5617334434
 20
45.6685983522
 10
248.1031958172
 20
44.9164490913
 10
247.693877149
 20
44.1374219744
 10
247.3387461571
 20
43.3409736517
 10
247.0421133445
 20
42.5367718639
 10
246.807579962
 20
41.7345785251
 10
246.6379922388
 20
40.9441309055
 10
246.5354087852
 20
40.1750240952
 10
246.5010755673
 20
39.4365943226
  0
LWPOLYLINE
  5
295
330
1F
100
AcDbEntity
  8
0
  6
Continuous
 62
     7
370
     0
100
AcDbPolyline
 90
       46
 70
   128
 43
0.0
 10
258.8931222595
 20
42.8967872125
 10
258.4010710563
 20
42.5729994341
 10
257.918597066
 20
42.1760489036
 10
257.4550910507
 20
41.7136613756
 10
257.0195746588
 20
41.1948366047
 10
256.6205248397
 20
40.6296734081
 10
256.2657084675
 20
40.029171723
 10
255.9620318629
 20
39.4050198814
 10
255.7154052983
 20
38.7693660087
 10
255.5306295631
 20
38.1345824806
 10
255.411300969
 20
37.5130247232
 10
255.3597422024
 20
36.916790675
 10
255.3769562266
 20
36.3574850008
 10
255.4626088302
 20
35.8459945186
 10
255.6150322493
 20
35.3922742719
 10
255.8312600701
 20
35.0051558422
 10
256.1070835347
 20
34.6921736254
 10
256.4371340237
 20
34.4594198131
 10
256.8149876
 20
34.3114246103
 10
257.2332896384
 20
34.25106839
 10
257.6838984711
 20
34.2795262134
 10
258.1580434375
 20
34.3962440508
 10
258.6464958801
 20
34.5989502316
 10
259.1397486389
 20
34.8836989882
 10
259.6282010815
 20
35.2449479935
 10
260.1023460479
 20
35.6756662818
 10
260.5529548805
 20
36.1674703425
 10
260.971256919
 20
36.7107878164
 10
261.3491104953
 20
37.2950434722
 10
261.6791609842
 20
37.9088654678
 10
261.9549844489
 20
38.5403066783
 10
262.1712122697
 20
39.1770764359
 10
262.3236356888
 20
39.8067810163
 10
262.4092882924
 20
40.4171638897
 10
262.4265023166
 20
40.9963444532
 10
262.37494355
 20
41.5330500165
 10
262.2556149558
 20
42.0168339118
 10
262.0708392207
 20
42.4382799171
 10
261.8242126561
 20
42.7891848194
 10
261.5205360515
 20
43.0627191164
 10
261.1657196792
 20
43.2535585379
 10
260.7666698602
 20
43.3579886205
 10
260.3311534683
 20
43.3739768685
 10
259.867647453
 20
43.3012117423
 10
259.3851734626
 20
43.1411096607
 10
258.8931222595
 20
42.8967872125
  0
LWPOLYLINE
  5
296
330
1F
100
AcDbEntity
  8
0
  6
Continuous
 62
     7
370
     0
100
AcDbPolyline
 90
       24
 70
   128
 43
0.0
 10
230.8916934029
 20
42.1205360761
 10
230.9260246452
 20
43.1493796403
 10
231.0288076378
 20
44.2115185921
 10
231.1994082024
 20
45.3004042649
 10
231.4367739849
 20
46.4093230108
 10
231.7394423578
 20
47.5314382155
 10
232.1055463476
 20
48.6598311727
 10
232.5328297807
 20
49.7875461401
 10
233.0186584791
 20
50.9076293119
 10
233.5600360654
 20
52.0131759662
 10
234.1536256943
 20
53.0973684861
 10
234.7957665172
 20
54.1535238869
 10
235.4825013399
 20
55.1751303161
 10
236.2095944043
 20
56.1558892569
 10
236.9725643149
 20
57.0897535487
 10
237.7667061005
 20
57.9709652178
 10
238.5871241413
 20
58.7940927372
 10
239.4287603215
 20
59.5540602066
 10
240.286425475
 20
60.246182996
 10
241.1548318187
 20
60.8661933135
 10
242.0286253857
 20
61.4102680541
 10
242.9024189528
 20
61.8750538919
 10
243.7708252965
 20
62.257684197
 10
243.9066622843
 20
62.3102622128
  0
ARC
  5
297
330
1F
100
AcDbEntity
  8
0
  6
Continuous
 62
     7
370
     0
100
AcDbCircle
 10
243.7186900799
 20
42.0599727456
 30
0.0
 40
12.82713965266622
100
AcDbArc
 50
179.7294770139
 51
188.6456105848
  0
LWPOLYLINE
  5
298
330
1F
100
AcDbEntity
  8
0
  6
Continuous
 62
     7
370
     0
100
AcDbPolyline
 90
       19
 70
   128
 43
0.0
 10
238.5602668647
 20
42.8824361579
 10
238.8259026458
 20
43.9501935279
 10
239.1585795749
 20
45.026922252
 10
239.5558386468
 20
46.1046624154
 10
240.014742753
 20
47.1754457835
 10
240.5318984136
 20
48.2313566361
 10
241.1034834364
 20
49.2645880396
 10
241.7252712827
 20
50.2675007804
 10
242.3926653118
 20
51.2326815372
 10
243.1007317082
 20
52.152994589
 10
243.8442350432
 20
53.0216342843
 10
244.6176791042
 20
53.832181311
 10
245.4153459139
 20
54.5786411917
 10
246.2313378771
 20
55.2554959904
 10
247.0596224789
 20
55.857742285
 10
247.8940763258
 20
56.3809264762
 10
248.7285301726
 20
56.8211821892
 10
249.5568147744
 20
57.1752529401
 10
249.7063298964
 20
57.230176556
  0
LWPOLYLINE
  5
299
330
1F
100
AcDbEntity
  8
0
  6
Continuous
 62
     7
370
     0
100
AcDbPolyline
 90
       22
 70
   128
 43
0.0
 10
238.1344486931
 20
43.5305811453
 10
238.4363406421
 20
44.6140930452
 10
238.8035180594
 20
45.7026775705
 10
239.2333691575
 20
46.7885892716
 10
239.7228336802
 20
47.8641006117
 10
240.268429244
 20
48.9215578586
 10
240.8662743876
 20
49.9534377369
 10
241.5121142549
 20
50.9523972359
 10
242.2013531931
 20
51.9113277896
 10
242.9290870213
 20
52.8234066049
 10
243.6901376039
 20
53.6821432368
 10
244.4790897296
 20
54.4814274936
 10
245.2903288124
 20
55.215571735
 10
246.1180827097
 20
55.8793517422
 10
246.9564615229
 20
56.4680441437
 10
247.7994994151
 20
56.9774612025
 10
248.6411976219
 20
57.403976406
 10
249.4755670104
 20
57.7445566397
 10
250.2966704314
 20
57.9967767504
 10
251.0986651956
 20
58.158843307
 10
251.8758441918
 20
58.2296016066
 10
252.0257259584
 20
58.2327227411
  0
LWPOLYLINE
  5
29A
330
1F
100
AcDbEntity
  8
0
  6
Continuous
 62
     7
370
     0
100
AcDbPolyline
 90
       23
 70
   128
 43
0.0
 10
256.2825446517
 20
35.1251526595
 10
256.594825305
 20
34.9872081837
 10
256.9822501671
 20
34.9148775701
 10
257.4028664133
 20
34.9300016849
 10
257.8477096064
 20
35.0322583626
 10
258.3072984755
 20
35.2194681269
 10
258.7718378293
 20
35.4876409877
 10
259.2314266984
 20
35.8310612368
 10
259.6762698915
 20
36.2424095775
 10
260.0968861377
 20
36.7129186436
 10
260.4843109998
 20
37.2325604817
 10
260.830286906
 20
37.7902598672
 10
261.127440298
 20
38.3741304114
 10
261.369437624
 20
38.9717279234
 10
261.5511211634
 20
39.5703156092
 10
261.6686186745
 20
40.1571355461
 10
261.7194257125
 20
40.7196806359
 10
261.7024599597
 20
41.2459615223
 10
261.6180822982
 20
41.7247609635
 10
261.4680918718
 20
42.1458748045
 10
261.2556847616
 20
42.5003271922
 10
260.9853882963
 20
42.7805636435
 10
260.7702055856
 20
42.926290616
  0
LINE
  5
29B
330
1F
100
AcDbEntity
  8
0
  6
Continuous
 62
     7
370
     0
100
AcDbLine
 10
232.541330088
 20
41.5829726459
 30
0.0
 11
234.3388391764
 21
42.620652555
 31
0.0
  0
ARC
  5
29C
330
1F
100
AcDbEntity
  8
0
  6
Continuous
 62
     7
370
     0
100
AcDbCircle
 10
247.2367332603
 20
35.620449736
 30
0.0
 40
7.3087144682709
100
AcDbArc
 50
196.0370732775
 51
216.9588120695
  0
LWPOLYLINE
  5
29D
330
1F
100
AcDbEntity
  8
0
  6
Continuous
 62
     7
370
     0
100
AcDbPolyline
 90
       22
 70
   128
 43
0.0
 10
223.672134314
 20
54.3683449239
 10
224.0028961957
 20
55.3306682693
 10
224.3940005106
 20
56.289209494
 10
224.8420965844
 20
57.2357581943
 10
225.3433464195
 20
58.1622055345
 10
225.8934563059
 20
59.0606164871
 10
226.4877133698
 20
59.9232942791
 10
227.1210280498
 20
60.7428490196
 10
227.7879745979
 20
61.512261765
 10
228.4828401404
 20
62.2249402183
 10
229.1996725874
 20
62.8747798468
 10
229.932331423
 20
63.4562144958
 10
230.6745405534
 20
63.9642636272
 10
231.4199423075
 20
64.3945749004
 10
232.1621514379
 20
64.7434621905
 10
232.8948102735
 20
65.0079374274
 10
233.6116427205
 20
65.1857349255
 10
234.306508263
 20
65.2753311507
 10
234.9734548111
 20
65.275958499
 10
235.6067694912
 20
65.1876133238
 10
236.201026555
 20
65.0110501334
 10
236.4559952322
 20
64.902410815
  0
ARC
  5
29E
330
1F
100
AcDbEntity
  8
0
  6
Continuous
 62
     7
370
     0
100
AcDbCircle
 10
227.5870837593
 20
48.7118011894
 30
0.0
 40
4.31602296927727
100
AcDbArc
 50
204.896006608
 51
234.6494777324
  0
LINE
  5
29F
330
1F
100
AcDbEntity
  8
0
  6
Continuous
 62
     7
370
     0
100
AcDbLine
 10
232.541330088
 20
40.7664317953
 30
0.0
 11
234.3388391764
 21
41.8041117043
 31
0.0
  0
LINE
  5
2A0
330
1F
100
AcDbEntity
  8
0
  6
Continuous
 62
     7
370
     0
100
AcDbLine
 10
235.8283888159
 20
36.1322147354
 30
0.0
 11
237.1672664355
 21
36.9051323331
 31
0.0
  0
LINE
  5
2A1
330
1F
100
AcDbEntity
  8
0
  6
Continuous
 62
     7
370
     0
100
AcDbLine
 10
239.591419148
 20
35.5017627768
 30
0.0
 11
239.3451551121
 21
36.215265097
 31
0.0
  0
ARC
  5
2A2
330
1F
100
AcDbEntity
  8
0
  6
Continuous
 62
     7
370
     0
100
AcDbCircle
 10
245.1545896558
 20
38.5331486256
 30
0.0
 40
6.852918140114429
100
AcDbArc
 50
195.7901202734
 51
209.3734710618
  0
ARC
  5
2A3
330
1F
100
AcDbEntity
  8
0
  6
Continuous
 62
     7
370
     0
100
AcDbCircle
 10
244.3289671409
 20
38.2856414522
 30
0.0
 40
6.542061515532161
100
AcDbArc
 50
198.7597166368
 51
214.0755143459
  0
LINE
  5
2A4
330
1F
100
AcDbEntity
  8
0
  6
Continuous
 62
     7
370
     0
100
AcDbLine
 10
254.8818150503
 20
59.2180657685
 30
0.0
 11
254.3408260053
 21
58.9057594405
 31
0.0
  0
ARC
  5
2A5
330
1F
100
AcDbEntity
  8
0
  6
Continuous
 62
     7
370
     0
100
AcDbCircle
 10
227.434573387
 20
52.8722539553
 30
0.0
 40
1.102097410650094
100
AcDbArc
 50
159.4112025223
 51
213.191486534
  0
ARC
  5
2A6
330
1F
100
AcDbEntity
  8
0
  6
Continuous
 62
     7
370
     0
100
AcDbCircle
 10
226.1027487298
 20
52.7007561702
 30
0.0
 40
0.6345234148785004
100
AcDbArc
 50
41.9991509505
 51
61.7717641965
  0
LINE
  5
2A7
330
1F
100
AcDbEntity
  8
0
  6
Continuous
 62
     7
370
     0
100
AcDbLine
 10
226.4028688003
 20
53.2598160126
 30
0.0
 11
226.5124157035
 21
53.670613871
 31
0.0
  0
LINE
  5
2A8
330
1F
100
AcDbEntity
  8
0
  6
Continuous
 62
     7
370
     0
100
AcDbLine
 10
226.4028688003
 20
53.2598160126
 30
0.0
 11
225.6008241513
 21
53.722826533
 31
0.0
  0
LINE
  5
2A9
330
1F
100
AcDbEntity
  8
0
  6
Continuous
 62
     7
370
     0
100
AcDbLine
 10
223.7265926521
 20
54.8842868484
 30
0.0
 11
223.7103562373
 21
55.079425477
 31
0.0
  0
ARC
  5
2AA
330
1F
100
AcDbEntity
  8
0
  6
Continuous
 62
     7
370
     0
100
AcDbCircle
 10
226.1929051491
 20
44.607194204
 30
0.0
 40
0.431494985478334
100
AcDbArc
 50
27.885175929
 51
60.8829215863
  0
ARC
  5
2AB
330
1F
100
AcDbEntity
  8
0
  6
Continuous
 62
     7
370
     0
100
AcDbCircle
 10
227.6426038394
 20
45.3792549366
 30
0.0
 40
1.30116985863113
100
AcDbArc
 50
165.9701496118
 51
197.6767200265
  0
LINE
  5
2AC
330
1F
100
AcDbEntity
  8
0
  6
Continuous
 62
     7
370
     0
100
AcDbLine
 10
226.0110973797
 20
47.8930256119
 30
0.0
 11
224.6903666127
 21
48.6554672547
 31
0.0
  0
LINE
  5
2AD
330
1F
100
AcDbEntity
  8
0
  6
Continuous
 62
     7
370
     0
100
AcDbLine
 10
226.4028688003
 20
44.9841599686
 30
0.0
 11
225.6008241513
 21
45.447170489
 31
0.0
  0
LINE
  5
2AE
330
1F
100
AcDbEntity
  8
0
  6
Continuous
 62
     7
370
     0
100
AcDbLine
 10
226.4028688003
 20
44.9841599686
 30
0.0
 11
226.5124157035
 21
44.6998422725
 31
0.0
  0
OLE2FRAME
  5
2AF
330
1F
100
AcDbEntity
  8
0
100
AcDbOle2Frame
 70
     2
  3
Paintbrush-Bild
 10
13.8511154363
 20
38.264191557
 30
0.0
 11
51.6290888628
 21
31.9806341108
 31
0.0
 71
     2
 72
     0
 73
     1
 90
    12928
310
80552BED0767C5B32B40DDAF6807D121434000000000000000006FFBDDFB85D0
310
4940DDAF6807D121434000000000000000006FFBDDFB85D04940416F4BD60AFB
310
3F4000000000000000002BED0767C5B32B40416F4BD60AFB3F40000000000000
310
0000000000000100000000010000010000000100000000000100000000320000
310
D0CF11E0A1B11AE1000000000000000000000000000000003E000300FEFF0900
310
0600000000000000000000000100000001000000000000000010000002000000
310
01000000FEFFFFFF0000000000000000FFFFFFFFFFFFFFFFFFFFFFFFFFFFFFFF
310
FFFFFFFFFFFFFFFFFFFFFFFFFFFFFFFFFFFFFFFFFFFFFFFFFFFFFFFFFFFFFFFF
310
FFFFFFFFFFFFFFFFFFFFFFFFFFFFFFFFFFFFFFFFFFFFFFFFFFFFFFFFFFFFFFFF
310
FFFFFFFFFFFFFFFFFFFFFFFFFFFFFFFFFFFFFFFFFFFFFFFFFFFFFFFFFFFFFFFF
310
FFFFFFFFFFFFFFFFFFFFFFFFFFFFFFFFFFFFFFFFFFFFFFFFFFFFFFFFFFFFFFFF
310
FFFFFFFFFFFFFFFFFFFFFFFFFFFFFFFFFFFFFFFFFFFFFFFFFFFFFFFFFFFFFFFF
310
FFFFFFFFFFFFFFFFFFFFFFFFFFFFFFFFFFFFFFFFFFFFFFFFFFFFFFFFFFFFFFFF
310
FFFFFFFFFFFFFFFFFFFFFFFFFFFFFFFFFFFFFFFFFFFFFFFFFFFFFFFFFFFFFFFF
310
FFFFFFFFFFFFFFFFFFFFFFFFFFFFFFFFFFFFFFFFFFFFFFFFFFFFFFFFFFFFFFFF
310
FFFFFFFFFFFFFFFFFFFFFFFFFFFFFFFFFFFFFFFFFFFFFFFFFFFFFFFFFFFFFFFF
310
FFFFFFFFFFFFFFFFFFFFFFFFFFFFFFFFFFFFFFFFFFFFFFFFFFFFFFFFFFFFFFFF
310
FFFFFFFFFFFFFFFFFFFFFFFFFFFFFFFFFFFFFFFFFFFFFFFFFFFFFFFFFFFFFFFF
310
FFFFFFFFFFFFFFFFFFFFFFFFFFFFFFFFFFFFFFFFFFFFFFFFFFFFFFFFFFFFFFFF
310
FFFFFFFFFFFFFFFFFFFFFFFFFFFFFFFFFFFFFFFFFFFFFFFFFFFFFFFFFFFFFFFF
310
FDFFFFFFFEFFFFFFFEFFFFFFFEFFFFFF05000000060000000700000008000000
310
090000000A0000000B0000000C0000000D0000000E0000000F00000010000000
310
11000000120000001300000014000000150000001600000017000000FEFFFFFF
310
FFFFFFFFFFFFFFFFFFFFFFFFFFFFFFFFFFFFFFFFFFFFFFFFFFFFFFFFFFFFFFFF
310
FFFFFFFFFFFFFFFFFFFFFFFFFFFFFFFFFFFFFFFFFFFFFFFFFFFFFFFFFFFFFFFF
310
FFFFFFFFFFFFFFFFFFFFFFFFFFFFFFFFFFFFFFFFFFFFFFFFFFFFFFFFFFFFFFFF
310
FFFFFFFFFFFFFFFFFFFFFFFFFFFFFFFFFFFFFFFFFFFFFFFFFFFFFFFFFFFFFFFF
310
FFFFFFFFFFFFFFFFFFFFFFFFFFFFFFFFFFFFFFFFFFFFFFFFFFFFFFFFFFFFFFFF
310
FFFFFFFFFFFFFFFFFFFFFFFFFFFFFFFFFFFFFFFFFFFFFFFFFFFFFFFFFFFFFFFF
310
FFFFFFFFFFFFFFFFFFFFFFFFFFFFFFFFFFFFFFFFFFFFFFFFFFFFFFFFFFFFFFFF
310
FFFFFFFFFFFFFFFFFFFFFFFFFFFFFFFFFFFFFFFFFFFFFFFFFFFFFFFFFFFFFFFF
310
FFFFFFFFFFFFFFFFFFFFFFFFFFFFFFFFFFFFFFFFFFFFFFFFFFFFFFFFFFFFFFFF
310
FFFFFFFFFFFFFFFFFFFFFFFFFFFFFFFFFFFFFFFFFFFFFFFFFFFFFFFFFFFFFFFF
310
FFFFFFFFFFFFFFFFFFFFFFFFFFFFFFFFFFFFFFFFFFFFFFFFFFFFFFFFFFFFFFFF
310
FFFFFFFFFFFFFFFFFFFFFFFFFFFFFFFFFFFFFFFFFFFFFFFFFFFFFFFFFFFFFFFF
310
FFFFFFFFFFFFFFFFFFFFFFFFFFFFFFFFFFFFFFFFFFFFFFFFFFFFFFFFFFFFFFFF
310
52006F006F007400200045006E00740072007900000000000000000000000000
310
0000000000000000000000000000000000000000000000000000000000000000
310
16000500FFFFFFFFFFFFFFFF020000000A00030000000000C000000000000046
310
00000000000000000000000020EA8E952325D20103000000C000000000000000
310
01004F006C006500000000000000000000000000000000000000000000000000
310
0000000000000000000000000000000000000000000000000000000000000000
310
0A000200FFFFFFFFFFFFFFFFFFFFFFFF00000000000000000000000000000000
310
0000000000000000000000000000000000000000000000001400000000000000
310
010043006F006D0070004F0062006A0000000000000000000000000000000000
310
0000000000000000000000000000000000000000000000000000000000000000
310
120002010100000003000000FFFFFFFF00000000000000000000000000000000
310
0000000000000000000000000000000000000000010000004D00000000000000
310
01004F006C006500310030004E00610074006900760065000000000000000000
310
0000000000000000000000000000000000000000000000000000000000000000
310
1A000200FFFFFFFFFFFFFFFFFFFFFFFF00000000000000000000000000000000
310
0000000000000000000000000000000000000000040000002426000000000000
310
FEFFFFFF02000000FEFFFFFFFFFFFFFFFFFFFFFFFFFFFFFFFFFFFFFFFFFFFFFF
310
FFFFFFFFFFFFFFFFFFFFFFFFFFFFFFFFFFFFFFFFFFFFFFFFFFFFFFFFFFFFFFFF
310
FFFFFFFFFFFFFFFFFFFFFFFFFFFFFFFFFFFFFFFFFFFFFFFFFFFFFFFFFFFFFFFF
310
FFFFFFFFFFFFFFFFFFFFFFFFFFFFFFFFFFFFFFFFFFFFFFFFFFFFFFFFFFFFFFFF
310
FFFFFFFFFFFFFFFFFFFFFFFFFFFFFFFFFFFFFFFFFFFFFFFFFFFFFFFFFFFFFFFF
310
FFFFFFFFFFFFFFFFFFFFFFFFFFFFFFFFFFFFFFFFFFFFFFFFFFFFFFFFFFFFFFFF
310
FFFFFFFFFFFFFFFFFFFFFFFFFFFFFFFFFFFFFFFFFFFFFFFFFFFFFFFFFFFFFFFF
310
FFFFFFFFFFFFFFFFFFFFFFFFFFFFFFFFFFFFFFFFFFFFFFFFFFFFFFFFFFFFFFFF
310
FFFFFFFFFFFFFFFFFFFFFFFFFFFFFFFFFFFFFFFFFFFFFFFFFFFFFFFFFFFFFFFF
310
FFFFFFFFFFFFFFFFFFFFFFFFFFFFFFFFFFFFFFFFFFFFFFFFFFFFFFFFFFFFFFFF
310
FFFFFFFFFFFFFFFFFFFFFFFFFFFFFFFFFFFFFFFFFFFFFFFFFFFFFFFFFFFFFFFF
310
FFFFFFFFFFFFFFFFFFFFFFFFFFFFFFFFFFFFFFFFFFFFFFFFFFFFFFFFFFFFFFFF
310
FFFFFFFFFFFFFFFFFFFFFFFFFFFFFFFFFFFFFFFFFFFFFFFFFFFFFFFFFFFFFFFF
310
FFFFFFFFFFFFFFFFFFFFFFFFFFFFFFFFFFFFFFFFFFFFFFFFFFFFFFFFFFFFFFFF
310
FFFFFFFFFFFFFFFFFFFFFFFFFFFFFFFFFFFFFFFFFFFFFFFFFFFFFFFFFFFFFFFF
310
FFFFFFFFFFFFFFFFFFFFFFFFFFFFFFFFFFFFFFFFFFFFFFFFFFFFFFFFFFFFFFFF
310
0100000200000000000000000000000000000000000000000000000000000000
310
0000000000000000000000000000000000000000000000000000000000000000
310
0100FEFF030A0000FFFFFFFF0A00030000000000C00000000000004607000000
310
5042727573680007000000504272757368000700000050427275736800F439B2
310
7100000000000000000000000000000000000000000000000000000000000000
310
0000000000000000000000000000000000000000000000000000000000000000
310
0000000000000000000000000000000000000000000000000000000000000000
310
0000000000000000000000000000000000000000000000000000000000000000
310
0000000000000000000000000000000000000000000000000000000000000000
310
0000000000000000000000000000000000000000000000000000000000000000
310
0000000000000000000000000000000000000000000000000000000000000000
310
0000000000000000000000000000000000000000000000000000000000000000
310
0000000000000000000000000000000000000000000000000000000000000000
310
0000000000000000000000000000000000000000000000000000000000000000
310
0000000000000000000000000000000000000000000000000000000000000000
310
0000000000000000000000000000000000000000000000000000000000000000
310
20260000424D0E260000000000003E00000028000000B40200006E0000000100
310
01000000000000000000130B0000130B00000200000002000000000000FFFFFF
310
FFFFFFFFFFFFFFFFFFFFFFFFFFFFFFFFFFFFFFFFFFFFFFFFFFFFFFFFFFFFFFFF
310
FFFFFFFFFFFFFFFFFFFFFFFFFFFFFFFFFFFFFFFFFFFFFFFFFFFFFFFFFFFFFFFF
310
FFFFFFFFFFFFFFFFFFFFFFFFFFFFFFFFFFFFFFFFFFFFFFFFF000FFFFFFFFFFFF
310
FFFFFFFFFFFFFFFFFFFFFFFFFFFFFFFFFFFFFFFFFFFFFFFFFFFFFFFFFFFFFFFF
310
FFFFFFFFFFFFFFFFFFFFFFFFFFFFFFFFFFFFFFFFFFFFFFFFFFFFFFFFFFFFFFFF
310
FFFFFFFFFFFFFFFFFFFFFFFFFFFFFFFFF000FFFFFFFFFFFFFFFFFFFFFFFFFFFF
310
FFFFFFFFFFFFFFFFFFFFFFFFFFFFFFFFFFFFFFFFFFFFFFFFFFFFFFFFFFFFFFFF
310
FFFFFFFFFFFFFFFFFFFFFFFFFFFFFFFFFFFFFFFFFFFFFFFFFFFFFFFFFFFFFFFF
310
FFFFFFFFFFFFFFFFF000FFFFFFFFFFFFFFFFFFFFFFFFFFFFFFFFFFFFFFFFFFFF
310
FFFFFFFFFFFFFFFFFFFFFFFFFFFFFFFFFFFFFFFFFFFFFFFFFFFFFFFFFFFFFFFF
310
FFFFFFFFFFFFFFFFFFFFFFFFFFFFFFFFFFFFFFFFFFFFFFFFFFFFFFFFFFFFFFFF
310
F000FFFFFFFFFFFFFFFFFFFFFFFFFFFFFFFFFFFFFFFFFFFFFFFFFFFFFFFFFFFF
310
FFFFFFFFFFFFFFFFFFFFFFFFFFFFFFFFFFFFFFFFFFFFFFFFFFFFFFFFFFFFFFFF
310
FFFFFFFFFFFFFFFFFFFFFFFFFFFFFFFFFFFFFFFFFFFFFFFFF000FFFFFFFFFFFF
310
FFFFFFFFFFFFFFFFFFFFFFFFFFFFFFFFFFFFFFFFFFFFFFFFFFFFFFFFFFFFFFFF
310
FFFFFFFFFFFFFFFFFFFFFFFFFFFFFFFFFFFFFFFFFFFFFFFFFFFFFFFFFFFFFFFF
310
FFFFFFFFFFFFFFFFFFFFFFFFFFFFFFFFF000FFFFFFFFFFFFFFFFFFFFFFFFFFFF
310
FFFFFFFFFFFFFFFFFFFFFFFFFFFFFFFFFFFFFFFFFFFFFFFFFFFFFFFFFFFFFFFF
310
FFFFFFFFFFFFFFFFFFFFFFFFFFFFFFFFFFFFFFFFFFFFFFFFFFFFFFFFFFFFFFFF
310
FFFFFFFFFFFFFFFFF000FFFFFFFFFFFFFFFFFFFFFFFFFFFFFFFFFFFFFFFFFFFF
310
FFFFFFFFFFFFFFFFFFFFFFFFFFFFFFFFFFFFFFFFFFFFFFFFFFFFFFFFFFFFFFFF
310
FFFFFFFFFFFFFFFFFFFFFFFFFFFFFFFFFFFFFFFFFFFFFFFFFFFFFFFFFFFFFFFF
310
F000FFFFFFFFFFFFFFFFFFFFFFFFFFFFFFFFFFFFFFFFFFFFFFFFFFFFFFFFFFFF
310
FFFFFFFFFFFFFFFFFFFFFFFFFFFFFFFFFFFFFFFFFFFFFFFFFFFFFFFFFFFFFFFF
310
FFFFFFFFFFFFFFFFFFFFFFFFFFFFFFFFFFFFFFFFFFFFFFFFF000FFFFFFFFFFFF
310
FFFFFFFFFFFFFFFFFFFFFFFFFFFFFFFFFFFFFFFFFFFFFFFFFFFFFFFFFFFFFFFF
310
FFFFFFFFFFFFFFFFFFFFFFFFFFFFFFFFFFFFFFFFFFFFFFFFFFFFFFFFFFFFFFFF
310
FFFFFFFFFFFFFFFFFFFFFFFFFFFFFFFFF000FFFFFFFFFFFFFFFFFFFFFFFFFFFF
310
FFFFFFFFFFFFFFFFFFFFFFFFFFFFFFFFFFFFFFFFFFFFFFFFFFFFFFFFFFFFFFFF
310
FFFFFFFFFFFFFFFFFFFFFFFFFFFFFFFFFFFFFFFFFFFFFFFFFFFFFFFFFFFFFFFF
310
FFFFFFFFFFFFFFFFF000FFFFFFFFFFFFFFFFFFFFFFFFFFFFFFFFFFFFFFFFFFFF
310
FFFFFFFFFFFFFFFFFFFFFFFFFFFFFFFFFFFFFFFFFFFFFFFFFFFFFFFFFFFFFFFF
310
FFFFFFFFFFFFFFFFFFFFFFFFFFFFFFFFFFFFFFFFFFFFFFFFFFFFFFFFFFFFFFFF
310
F000FFFFFFFFFFFFFFFFFFFFFFFFFFFFFFFFFFFFFFFFFFFFFFFFFFFFFFFFFFFF
310
FFFFFFFFFFFFFFFFFFFFFFFFFFFFFFFFFFFFFFFFFFFFFFFFFFFFFFFFFFFFFFFF
310
FFFFFFFFFFFFFFFFFFFFFFFFFFFFFFFFFFFFFFFFFFFFFFFFF000FFFFFFFFFFFF
310
FFFFFFFFFFFFFFFFFFFFFFFFFFFFFFFFFFFFFFFFFFFFFFFFFFFFFFFFFFFFFFFF
310
FFFFFFFFFFFFFFFFFFFFFFFFFFFFFFFFFFFFFFFFFFFFFFFFFFFFFFFFFFFFFFFF
310
FFFFFFFFFFFFFFFFFFFFFFFFFFFFFFFFF000FFFFFFFFFFFFFFFFFFFFFFFFFFFF
310
FFFFFFFFFFFFFFFFFFFFFFFFFFFFFFFFFFFFFFFFFFFFFFFFFFFFFFFFFFFFFFFF
310
FFFFFFFFFFFFFFFFFFFFFFFFFFFFFFFFFFFFFFFFFFFFFFFFFFFFFFFFFFFFFFFF
310
FFFFFFFFFFFFFFFFF000FFFFFFFFFFFFFFFFFFFFFFFFFFFFFFFFFFFFFFFFFFFF
310
FFFFFFFFFFFFFFFFFFFFFFFFFFFFFFFFFFFFFFFFFFFFFFFFFFFFFFFFFFFFFFFF
310
FFFFFFFFFFFFFFFFFFFFFFFFFFFFFFFFFFFFFFFFFFFFFFFFFFFFFFFFFFFFFFFF
310
F000FFFFFFFFFFFFFFFFFFFFFFFFFFFFFFFFFFFFFFFFFFFFFFFFFFFFFFFFFFFF
310
FFFFFFFFFFFFFFFFFFFFFFFFFFFFFFFFFFFFFFFFFFFFFFFFFFFFFFFFFFFFFFFF
310
FFFFFFFFFFFFFFFFFFFFFFFFFFFFFFFFFFFFFFFFFFFFFFFFF000FFFFFFFFFFFF
310
FFFFFFFFFFFFFFFFFFFFFFFFFFFFFFFFFFFFFFFFFFFFFFFFFFFFFFFFFFFFFFFF
310
FFFFFFFFFFFFFFFFFFFFFFFFFFFFFFFFFFFFFFFFFFFFFFFFFFFFFFFFFFFFFFFF
310
FFFFFFFFFFFFFFFFFFFFFFFFFFFFFFFFF000FFFFFFFFFFFFFFFFFFFFFFFFFFFF
310
FFFFFFFFFFFFFFFFFFFFFFFFFFFFFFFFFFFFFFFFFFFFFFFFFFFFFFFFFFFFFFFF
310
FFFFFFFFFFFFFFFFFFFFFFFFFFFFFFFFFFFFFFFFFFFFFFFFFFFFFFFFFFFFFFFF
310
FFFFFFFFFFFFFFFFF000FFFFF80003FFFFFFFFFFFFFFFFFFFFFFFFFFFFFFFFFF
310
FFFFF00007FFFFFFFFFF00007FFFFFF800000000000000007FFFFFFFFFFFFFFF
310
FFFFFFFC001FFFFFFFFFFFFFFC001FFFFFFFFFFFFFFFFFFFFFFFFFFE0007FFFF
310
F000FFFF8000007FFFFFFFF8000FFFFFC0007FFFFF80007FFFFF0000007FFFFF
310
FFF8000007FFFFF800000000000000007FFFFFF0001FFFFFFFFFFFC00001FFFF
310
FFFFFFFFC00001FFFFFFFF000000000003FFFFE000007FFFF000FFFE0000000F
310
FFFFFFF0000FFFFF80007FFFFF80007FFFFC0000001FFFFFFFC0000001FFFFF8
310
00000000000000007FFFFFF0001FFFFFFFFFFE0000003FFFFFFFFFFE0000003F
310
FFFFFF000000000003FFFF0000000FFFF000FFF800000003FFFFFFF00007FFFF
310
80007FFFFF80007FFFF000000007FFFFFF000000003FFFF80000000000000000
310
7FFFFFF0001FFFFFFFFFF80000000FFFFFFFFFF80000000FFFFFFF0000000000
310
03FFFC00000003FFF000FFE000000000FFFFFFF00007FFFF80003FFFFF80007F
310
FFC000000001FFFFFC000000001FFFF800000000000000007FFFFFF0001FFFFF
310
FFFFE000000003FFFFFFFFE000000003FFFFFF000000000003FFF000000000FF
310
F000FF80000000007FFFFFF00007FFFF80003FFFFF80007FFF8000000000FFFF
310
F80000000007FFF800000000000000007FFFFFF0001FFFFFFFFFC000000001FF
310
FFFFFFC000000001FFFFFF000000000003FFC0000000007FF000FF0000000000
310
3FFFFFE00007FFFF00003FFFFF80007FFE00000000003FFFF00000000003FFF8
310
00000000000000007FFFFFF0001FFFFFFFFF8000000000FFFFFFFF8000000000
310
FFFFFF000000000003FF80000000003FF000FE00000000001FFFFFE00003FFFF
310
00003FFFFF80007FFC00000000001FFFE00000000001FFF8000001FFFE000000
310
7FFFFFF0001FFFFFFFFE00000000003FFFFFFE00000000003FFFFF0000000000
310
03FF00000000001FF000FC00000000000FFFFFE00003FFFF00001FFFFF80007F
310
F800000000001FFFC00000000000FFF8000001FFFE0000007FFFFFF0001FFFFF
310
FFFC00000000001FFFFFFC00000000001FFFFF000000000003FE00000000000F
310
F000F8000000000007FFFFE00003FFFF00001FFFFF80007FF800000000000FFF
310
800000000000FFF8000001FFFE0000007FFFFFF0001FFFFFFFF800000000000F
310
FFFFF800000000000FFFFF000000000003FC000000000007F000F80000000000
310
03FFFFC00003FFFE00001FFFFF80007FF0000000000007FF0000000000007FF8
310
000001FFFE0000007FFFFFF0001FFFFFFFF0000000000007FFFFF00000000000
310
07FFFF000000000003F8000000000003F000F0000000000003FFFFC00001FFFE
310
00001FFFFF80007FE0000000000007FE0000000000003FF8000001FFFE000000
310
7FFFFFF0001FFFFFFFF0000000000007FFFFF0000000000007FFFF0000000000
310
03F800001F800003F000E00001FFF00001FFFFC00001FFFE00000FFFFF80007F
310
E00001FFE00003FE00001FFF00003FF8000001FFFE0000007FFFFFF0001FFFFF
310
FFE000003E000003FFFFE000003E000003FFFF000000000003F00001FFF80001
310
F000E00007FFFC0001FFFFC00001FFFE00000FFFFF80007FC0000FFFFC0003FC
310
0000FFFFC0001FF8000001FFFE0000007FFFFFF0001FFFFFFFC00003FFE00001
310
FFFFC00003FFE00001FFFF0001FFFFFFFFF00007FFFE0001F000E0000FFFFF00
310
00FFFF800001FFFC00000FFFFF80007FC0001FFFFE0001FC0001FFFFE0001FF8
310
000001FFFE0000007FFFFFF0001FFFFFFF80000FFFF80000FFFF80000FFFF800
310
00FFFF0003FFFFFFFFE0000FFFFF8000F000C0003FFFFF8000FFFF800000FFFC
310
000007FFFF80007F80003FFFFF0001FC0003FFFFF0001FF8000001FFFE000000
310
7FFFFFF0001FFFFFFF80003FFFFE0000FFFF80003FFFFE0000FFFF0003FFFFFF
310
FFE0003FFFFF8000F000C0003FFFFF8000FFFF800000FFFC000007FFFF80007F
310
80007FFFFF8001F80007FFFFF8000FF8000001FFFE0000007FFFFFF0001FFFFF
310
FF00007FFFFF00007FFF00007FFFFF00007FFF0003FFFFFFFFE0003FFFFFC000
310
F000C0007FFFFFC000FFFF000000FFFC000007FFFF80007F8000FFFFFF8000F8
310
000FFFFFF8000FF8000001FFFE0000007FFFFFF0001FFFFFFF0000FFFFFF8000
310
7FFF0000FFFFFF80007FFF0003FFFFFFFFC0007FFFFFC00070008000FFFFFFC0
310
00FFFF000000FFF8000007FFFF80007F8000FFFFFF8000F8000FFFFFF8000FF8
310
000001FFFE0000007FFFFFF0001FFFFFFE0001FFFFFFC0003FFE0001FFFFFFC0
310
003FFF0003FFFFFFFFC0007FFFFFE00070008000FFFFFFC0007FFF0000007FF8
310
000003FFFF80007F0001FFFFFF8000F8000FFFFFF8000FF8000001FFFE000000
310
7FFFFFF0001FFFFFFE0001FFFFFFC0003FFE0001FFFFFFC0003FFF0003FFFFFF
310
FFC000FFFFFFE00070008000FFFFFFC0007FFF0000007FF8000003FFFF80007F
310
0001FFFFFF8000F8001FFFFFF8000FF8000001FFFE0000007FFFFFF0001FFFFF
310
FE0003FFFFFFE0003FFE0003FFFFFFE0003FFF0003FFFFFFFFC000FFFFFFE000
310
70008000FFFFFFC0007FFE0000007FF8000003FFFF80007F0001FFFFFF8000F0
310
001FFFFFF8000FF8000001FFFE0000007FFFFFF0001FFFFFFC0003FFFFFFE000
310
1FFC0003FFFFFFE0001FFF0003FFFFFFFFC000FFFFFFC00070008000FFFFFF80
310
007FFE0000007FF0000003FFFF80007F0001FFFFFF0000F0001FFFFFF8000FF8
310
000001FFFE0000007FFFFFF0001FFFFFFC0007FFFFFFF0001FFC0007FFFFFFF0
310
001FFF0003FFFFFFFFC000FFFFFFC00070008001FFFFFF0000FFFE0000003FF0
310
000001FFFF80007F0001FFFFFF0000F8001FFFFFF0000FF8000001FFFE000000
310
7FFFFFF0001FFFFFFC0007FFFFFFF0001FFC0007FFFFFFF0001FFF0003FFFFFF
310
FFC001FFFFFF80007000FFFFFFFFFE0000FFFE0008003FF0008001FFFF80007F
310
FFFFFFFFFC0000FFFFFFFFFFE0000FF8000001FFFE0000007FFFFFF0001FFFFF
310
F8000FFFFFFFF8000FF8000FFFFFFFF8000FFF0003FFFFFFFFFFFFFFFFFF0000
310
7000FFFFFFFFFC0000FFFC0008003FF0008001FFFF80007FFFFFFFFFF80001FF
310
FFFFFFFF80000FF8000001FFFE0000007FFFFFF0001FFFFFF8000FFFFFFFF800
310
0FF8000FFFFFFFF8000FFF0003FFFFFFFFFFFFFFFFFE0000F000FFFFFFFFE000
310
00FFFC000C003FE000C001FFFF80007FFFFFFFFFC00001FFFFFFFFFE00001FF8
310
000001FFFE0000007FFFFFF0001FFFFFF8000FFFFFFFF8000FF8000FFFFFFFF8
310
000FFF0003FFFFFFFFFFFFFFFFF00000F000FFFFFFFE000001FFFC000C001FE0
310
00C000FFFF80007FFFFFFFFE000001FFFFFFFFE000001FF80FFFFFFFFFFFFFC0
310
7FFFFFF0001FFFFFF8000FFFFFFFF8000FF8000FFFFFFFF8000FFF0003FFFFFF
310
FFFFFFFFFF800000F000FFFFFFC0000001FFFC001C001FE001C000FFFF80007F
310
FFFFFF80000003FFFFFFF80000001FF80FFFFFFFFFFFFFC07FFFFFF0001FFFFF
310
F8001FFFFFFFFC000FF8001FFFFFFFFC000FFF0003FFFFFFFFFFFFFFF0000001
310
F000FFFFF800000001FFF8001C001FE001C000FFFF80007FFFFFF800000003FF
310
FFFF800000003FF80FFFFFFFFFFFFFC07FFFFFF0001FFFFFF8001FFFFFFFFC00
310
0FF8001FFFFFFFFC000FFF0003FFFFFFFFFFFFFE00000001F000FFFFC0000000
310
03FFF8001E001FC001E000FFFF80007FFFFF8000000007FFFFFC000000003FF8
310
0FFFFFFFFFFFFFC07FFFFFF0001FFFFFF8001FFFFFFFFC000FF8001FFFFFFFFC
310
000FFF0003FFFFFFFFFFFFE000000003F000FFFE0000000007FFF8001E000FC0
310
01E0007FFF80007FFFFE0000000007FFFFE0000000007FF80FFFFFFFFFFFFFC0
310
7FFFFFF0001FFFFFF0001FFFFFFFFC0007F0001FFFFFFFFC0007FF0003FFFFFF
310
FFFFFF0000000003F000FFF80000000007FFF8001E000FC003E0007FFF80007F
310
FFF0000000000FFFFF8000000000FFF80FFFFFFFFFFFFFC07FFFFFF0001FFFFF
310
F0001FFFFFFFFC0007F0001FFFFFFFFC0007FF0003FFFFFFFFFFFC0000000007
310
F000FFE0000000000FFFF0003E000FC003E0007FFF80007FFFC0000000001FFF
310
FE0000000001FFF80FFFFFFFFFFFFFC07FFFFFF0001FFFFFF0001FFFFFFFFC00
310
07F0001FFFFFFFFC0007FF0003FFFFFFFFFFF0000000000FF000FFC000000000
310
1FFFF0003F000F8003F0003FFF80007FFF80000000003FFFF80000000003FFF8
310
0FFFFFFFFFFFFFC07FFFFFF0001FFFFFF0001FFFFFFFFC0007F0001FFFFFFFFC
310
0007FF0003FFFFFFFFFFE0000000001FF000FF00000000007FFFF0003F000780
310
03F0003FFF80007FFF00000000007FFFF00000000007FFF80FFFFFFFFFFFFFC0
310
7FFFFFF0001FFFFFF0001FFFFFFFFC0007F0001FFFFFFFFC0007FF0003FFFFFF
310
FFFF80000000007FF000FE0000000000FFFFE0003F00078007F0003FFF80007F
310
FE0000000001FFFFE0000000001FFFF80FFFFFFFFFFFFFC07FFFFFF0001FFFFF
310
F0001FFFFFFFFC0007F0001FFFFFFFFC0007FF0003FFFFFFFFFF0000000000FF
310
F000FC0000000003FFFFE0007F00078007F0003FFF80007FFC0000000007FFFF
310
C0000000007FFFF80FFFFFFFFFFFFFC07FFFFFF0001FFFFFF8001FFFFFFFFC00
310
0FF8001FFFFFFFFC000FFF0003FFFFFFFFFE0000000003FFF000FC000000000F
310
FFFFE0007F80070007F8001FFF80007FF8000000001FFFFF8000000001FFFFF8
310
0FFFFFFFFFFFFFC07FFFFFF0001FFFFFF8001FFFFFFFFC000FF8001FFFFFFFFC
310
000FFF0003FFFFFFFFFC000000000FFFF000F8000000007FFFFFE0007F800700
310
07F8001FFF80007FF000000000FFFFFF800000000FFFFFF80FFFFFFFFFFFFFC0
310
7FFFFFF0001FFFFFF8000FFFFFFFF8000FF8000FFFFFFFF8000FFF0003FFFFFF
310
FFFC000000007FFFF000F800000007FFFFFFC0007F8003000FF8001FFF80007F
310
F000000007FFFFFF000000007FFFFFF80FFFFFFFFFFFFFC07FFFFFF0001FFFFF
310
F8000FFFFFFFF8000FF8000FFFFFFFF8000FFF0003FFFFFFFFF80000000FFFFF
310
F000F0000000FFFFFFFFC000FF8003000FF8001FFF80007FE0000000FFFFFFFF
310
0000000FFFFFFFF8000001FFFE0000007FFFFFF0001FFFFFF8000FFFFFFFF800
310
0FF8000FFFFFFFF8000FFF0003FFFFFFFFF8000000FFFFFFF000F000000FFFFF
310
FFFFC000FFC002000FF8000FFF80007FE000001FFFFFFFFE000001FFFFFFFFF8
310
000001FFFE0000007FFFFFF0001FFFFFF8000FFFFFFFF8000FF8000FFFFFFFF8
310
000FFF0003FFFFFFFFF000001FFFFFFFF000E00000FFFFFFFFFFC000FFC00200
310
0FFC000FFF80007FE00001FFFFFFFFFE00001FFFFFFFFFF8000001FFFE000000
310
7FFFFFF0001FFFFFFC000FFFFFFFF8001FFC000FFFFFFFF8001FFF0003FFFFFF
310
FFF00001FFFFFFFFF000E00007FFFFFFFFFF8000FFC000001FFC000FFF80007F
310
C0000FFFFFFFFFFE0000FFFFFFFFFFF8000001FFFE0000007FFFFFF0001FFFFF
310
FC0007FFFFFFF0001FFC0007FFFFFFF0001FFF0003FFFFFFFFF00007FFFFFFFF
310
F000E0001FFFFFFFFFFF8000FFC000001FFC000FFF80007FC0003FFFFFFFFFFE
310
0001FFFFFFFFFFF8000001FFFE0000007FFFFFF0001FFFFFFC0007FFFFFFF000
310
1FFC0007FFFFFFF0001FFF0003FFFFFFFFF0001FFFFFFFFFF000E0003FFFFF00
310
03FF8001FFE000001FFC0007FF80007FC0007FFFFF0007FC0003FFFFF0003FF8
310
000001FFFE0000007FFFFFF0001FFFFFFC0003FFFFFFE0001FFC0003FFFFFFE0
310
001FFF0003FFFFFFFFF0003FFFFFFFFFF000E0003FFFFF0001FF8001FFE00000
310
1FFE0007FF80007FC0007FFFFE0003FC0007FFFFE0003FF8000001FFFE000000
310
7FFFFFF0001FFFFFFE0003FFFFFFE0003FFE0003FFFFFFE0003FFF0003FFFFFF
310
FFF0003FFFFF8001F000E0003FFFFF0001FF0001FFE000001FFE0007FF80007F
310
C0007FFFFE0003FC0007FFFFE0003FF8000001FFFE0000007FFFFFF0001FFFFF
310
FE0001FFFFFFC0003FFE0001FFFFFFC0003FFF0003FFFFFFFFF0003FFFFF0001
310
F000E0003FFFFF0003FF0001FFE000003FFE0007FF80007FC0007FFFFE0003FC
310
0007FFFFE0003FF8000001FFFE0000007FFFFFF0001FFFFFFF0001FFFFFFC000
310
7FFF0001FFFFFFC0007FFF0003FFFFFFFFF0003FFFFF0001F000E0003FFFFE00
310
03FF0003FFF000003FFE0003FF80007FC0007FFFFC0003FE0007FFFFE0003FF8
310
000001FFFE0000007FFFFFF0001FFFFFFF0000FFFFFF80007FFF0000FFFFFF80
310
007FFF0003FFFFFFFFF0003FFFFF0001F000E0003FFFFE0003FF0003FFF00000
310
3FFF0003FF80007FC0007FFFFC0007FE0007FFFFC0003FF8000001FFFE000000
310
7FFFFFF0001FFFFFFF80007FFFFF0000FFFF80007FFFFF0000FFFF0003FFFFFF
310
FFF0003FFFFF0003F000E0003FFFFC0003FE0003FFF000003FFF0003FF80007F
310
E0003FFFF80007FE0003FFFFC0007FF8000001FFFE0000007FFFFFF0001FFFFF
310
FF80003FFFFE0000FFFF80003FFFFE0000FFFF0003FFFFFFFFF0001FFFFE0003
310
F000F0001FFFF80003FE0003FFF000007FFF0001FF80007FE0003FFFF00007FE
310
0001FFFF80007FF8000001FFFE0000007FFFFFF0001FFFFFFFC0000FFFF80001
310
FFFFC0000FFFF80001FFFF0003FFFFFFFFF0001FFFFC0003F000F0000FFFF000
310
07FE0007FFF800007FFF0001FF80007FE0001FFFE00007FF0000FFFE00007FF8
310
000001FFFE0000007FFFFFF0001FFFFFFFC00003FFE00001FFFFC00003FFE000
310
01FFFF0003FFFFFFFFF8000FFFF80003F000F00003FFC00007FC0007FFF80000
310
7FFF8001FF80007FF00007FF80000FFF00007FF80000FFF8000001FFFE000000
310
7F80000000000001FFE000003E000003FFFFE000003E000003FFFF0003FFFFFF
310
FFF80003FFE00007F000F800000000000FFC0007FFF800007FFF8001FF80007F
310
F000000000000FFF000000000000FFF8000001FFFE0000007F80000000000001
310
FFF0000000000007FFFFF0000000000007FFFF0003FFFFFFFFFC00007E000007
310
F000F800000000000FFC0007FFF80000FFFF8000FF80007FF800000000001FFF
310
800000000001FFF8000001FFFE0000007F80000000000001FFF800000000000F
310
FFFFF800000000000FFFFF0003FFFFFFFFFC00000000000FF000FC0000000000
310
1FFC0007FFFC0000FFFF8000FF80007FF800000000003FFFC00000000001FFF8
310
000001FFFE0000007F80000000000001FFF800000000000FFFFFF80000000000
310
0FFFFF0003FFFFFFFFFE00000000001FF000FE00000000003FF8000FFFFC0000
310
FFFF8000FF80007FFC00000000003FFFC00000000003FFF8000001FFFE000000
310
7F80000000000001FFFC00000000001FFFFFFC00000000001FFFFF0003FFFFFF
310
FFFF00000000001FF000FF00000000003FF8000FFFFC0000FFFFC000FF80007F
310
FE00000000007FFFE00000000007FFF8000001FFFE0000007F80000000000001
310
FFFE00000000003FFFFFFE00000000003FFFFF0003FFFFFFFFFF80000000003F
310
F000FF80000000007FF8000FFFFC0001FFFFC0007F80007FFF0000000000FFFF
310
F0000000000FFFF800000000000000007F80000000000001FFFF8000000000FF
310
FFFFFF8000000000FFFFFF0003FFFFFFFFFFC0000000007FF000FFC000000000
310
FFF8000FFFFE0001FFFFC0007F80007FFF8000000001FFFFF8000000001FFFF8
310
00000000000000007F80000000000001FFFFC000000001FFFFFFFFC000000001
310
FFFFFF0003FFFFFFFFFFE000000000FFF000FFE000000003FFF0001FFFFE0001
310
FFFFC0007F80007FFFC000000007FFFFFE000000003FFFF80000000000000000
310
7F80000000000001FFFFE000000003FFFFFFFFE000000003FFFFFF0003FFFFFF
310
FFFFF000000003FFF000FFF80000000FFFF0001FFFFE0001FFFFE0007F80007F
310
FFF00000000FFFFFFF00000000FFFFF800000000000000007F80000000000001
310
FFFFF80000000FFFFFFFFFF80000000FFFFFFF0003FFFFFFFFFFFC0000000FFF
310
F000FFFE0000003FFFF0001FFFFE0003FFFFE0003F80007FFFFC0000003FFFFF
310
FFC0000003FFFFF800000000000000007F80000000000001FFFFFE0000003FFF
310
FFFFFFFE0000003FFFFFFF0003FFFFFFFFFFFF0000003FFFF000FFFF800000FF
310
FFF0001FFFFF0003FFFFE0003F80007FFFFF000001FFFFFFFFF800001FFFFFF8
310
00000000000000007F80000000000001FFFFFFC00001FFFFFFFFFFFFC00001FF
310
FFFFFF0003FFFFFFFFFFFFC00000FFFFF000FFFFF8000FFFFFFFFFFFFFFFFFFF
310
FFFFFFFFFFFFFFFFFFFFF0001FFFFFFFFFFF0000FFFFFFF80000000000000000
310
7FFFFFFFFFFFFFFFFFFFFFFC001FFFFFFFFFFFFFFC001FFFFFFFFFFFFFFFFFFF
310
FFFFFFFC001FFFFFF000FFFFFFFFFFFFFFFFFFFFFFFFFFFFFFFFFFFFFFFFFFFF
310
FFFFFFFFFFFFFFFFFFFFFFFFFFFFFFFFFFFFFFFFFFFFFFFFFFFFFFFFFFFFFFFF
310
FFFFFFFFFFFFFFFFFFFFFFFFFFFFFFFFFFFFFFFFFFFFFFFFFFFFFFFFFFFFFFFF
310
F000FFFFFFFFFFFFFFFFFFFFFFFFFFFFFFFFFFFFFFFFFFFFFFFFFFFFFFFFFFFF
310
FFFFFFFFFFFFFFFFFFFFFFFFFFFFFFFFFFFFFFFFFFFFFFFFFFFFFFFFFFFFFFFF
310
FFFFFFFFFFFFFFFFFFFFFFFFFFFFFFFFFFFFFFFFFFFFFFFFF000FFFFFFFFFFFF
310
FFFFFFFFFFFFFFFFFFFFFFFFFFFFFFFFFFFFFFFFFFFFFFFFFFFFFFFFFFFFFFFF
310
FFFFFFFFFFFFFFFFFFFFFFFFFFFFFFFFFFFFFFFFFFFFFFFFFFFFFFFFFFFFFFFF
310
FFFFFFFFFFFFFFFFFFFFFFFFFFFFFFFFF000FFFFFFFFFFFFFFFFFFFFFFFFFFFF
310
FFFFFFFFFFFFFFFFFFFFFFFFFFFFFFFFFFFFFFFFFFFFFFFFFFFFFFFFFFFFFFFF
310
FFFFFFFFFFFFFFFFFFFFFFFFFFFFFFFFFFFFFFFFFFFFFFFFFFFFFFFFFFFFFFFF
310
FFFFFFFFFFFFFFFFF000FFFFFFFFFFFFFFFFFFFFFFFFFFFFFFFFFFFFFFFFFFFF
310
FFFFFFFFFFFFFFFFFFFFFFFFFFFFFFFFFFFFFFFFFFFFFFFFFFFFFFFFFFFFFFFF
310
FFFFFFFFFFFFFFFFFFFFFFFFFFFFFFFFFFFFFFFFFFFFFFFFFFFFFFFFFFFFFFFF
310
F000FFFFFFFFFFFFFFFFFFFFFFFFFFFFFFFFFFFFFFFFFFFFFFFFFFFFFFFFFFFF
310
FFFFFFFFFFFFFFFFFFFFFFFFFFFFFFFFFFFFFFFFFFFFFFFFFFFFFFFFFFFFFFFF
310
FFFFFFFFFFFFFFFFFFFFFFFFFFFFFFFFFFFFFFFFFFFFFFFFF000FFFFFFFFFFFF
310
FFFFFFFFFFFFFFFFFFFFFFFFFFFFFFFFFFFFFFFFFFFFFFFFFFFFFFFFFFFFFFFF
310
FFFFFFFFFFFFFFFFFFFFFFFFFFFFFFFFFFFFFFFFFFFFFFFFFFFFFFFFFFFFFFFF
310
FFFFFFFFFFFFFFFFFFFFFFFFFFFFFFFFF000FFFFFFFFFFFFFFFFFFFFFFFFFFFF
310
FFFFFFFFFFFFFFFFFFFFFFFFFFFFFFFFFFFFFFFFFFFFFFFFFFFFFFFFFFFFFFFF
310
FFFFFFFFFFFFFFFFFFFFFFFFFFFFFFFFFFFFFFFFFFFFFFFFFFFFFFFFFFFFFFFF
310
FFFFFFFFFFFFFFFFF000FFFFFFFFFFFFFFFFFFFFFFFFFFFFFFFFFFFFFFFFFFFF
310
FFFFFFFFFFFFFFFFFFFFFFFFFFFFFFFFFFFFFFFFFFFFFFFFFFFFFFFFFFFFFFFF
310
FFFFFFFFFFFFFFFFFFFFFFFFFFFFFFFFFFFFFFFFFFFFFFFFFFFFFFFFFFFFFFFF
310
F000FFFFFFFFFFFFFFFFFFFFFFFFFFFFFFFFFFFFFFFFFFFFFFFFFFFFFFFFFFFF
310
FFFFFFFFFFFFFFFFFFFFFFFFFFFFFFFFFFFFFFFFFFFFFFFFFFFFFFFFFFFFFFFF
310
FFFFFFFFFFFFFFFFFFFFFFFFFFFFFFFFFFFFFFFFFFFFFFFFF000FFFFFFFFFFFF
310
FFFFFFFFFFFFFFFFFFFFFFFFFFFFFFFFFFFFFFFFFFFFFFFFFFFFFFFFFFFFFFFF
310
FFFFFFFFFFFFFFFFFFFFFFFFFFFFFFFFFFFFFFFFFFFFFFFFFFFFFFFFFFFFFFFF
310
FFFFFFFFFFFFFFFFFFFFFFFFFFFFFFFFF000FFFFFFFFFFFFFFFFFFFFFFFFFFFF
310
FFFFFFFFFFFFFFFFFFFFFFFFFFFFFFFFFFFFFFFFFFFFFFFFFFFFFFFFFFFFFFFF
310
FFFFFFFFFFFFFFFFFFFFFFFFFFFFFFFFFFFFFFFFFFFFFFFFFFFFFFFFFFFFFFFF
310
FFFFFFFFFFFFFFFFF000FFFFFFFFFFFFFFFFFFFFFFFFFFFFFFFFFFFFFFFFFFFF
310
FFFFFFFFFFFFFFFFFFFFFFFFFFFFFFFFFFFFFFFFFFFFFFFFFFFFFFFFFFFFFFFF
310
FFFFFFFFFFFFFFFFFFFFFFFFFFFFFFFFFFFFFFFFFFFFFFFFFFFFFFFFFFFFFFFF
310
F000FFFFFFFFFFFFFFFFFFFFFFFFFFFFFFFFFFFFFFFFFFFFFFFFFFFFFFFFFFFF
310
FFFFFFFFFFFFFFFFFFFFFFFFFFFFFFFFFFFFFFFFFFFFFFFFFFFFFFFFFFFFFFFF
310
FFFFFFFFFFFFFFFFFFFFFFFFFFFFFFFFFFFFFFFFFFFFFFFFF000FFFFFFFFFFFF
310
FFFFFFFFFFFFFFFFFFFFFFFFFFFFFFFFFFFFFFFFFFFFFFFFFFFFFFFFFFFFFFFF
310
FFFFFFFFFFFFFFFFFFFFFFFFFFFFFFFFFFFFFFFFFFFFFFFFFFFFFFFFFFFFFFFF
310
FFFFFFFFFFFFFFFFFFFFFFFFFFFFFFFFF000FFFFFFFFFFFFFFFFFFFFFFFFFFFF
310
FFFFFFFFFFFFFFFFFFFFFFFFFFFFFFFFFFFFFFFFFFFFFFFFFFFFFFFFFFFFFFFF
310
FFFFFFFFFFFFFFFFFFFFFFFFFFFFFFFFFFFFFFFFFFFFFFFFFFFFFFFFFFFFFFFF
310
FFFFFFFFFFFFFFFFF000FFFFFFFFFFFFFFFFFFFFFFFFFFFFFFFFFFFFFFFFFFFF
310
FFFFFFFFFFFFFFFFFFFFFFFFFFFFFFFFFFFFFFFFFFFFFFFFFFFFFFFFFFFFFFFF
310
FFFFFFFFFFFFFFFFFFFFFFFFFFFFFFFFFFFFFFFFFFFFFFFFFFFFFFFFFFFFFFFF
310
F000FFFFFFFFFFFFFFFFFFFFFFFFFFFFFFFFFFFFFFFFFFFFFFFFFFFFFFFFFFFF
310
FFFFFFFFFFFFFFFFFFFFFFFFFFFFFFFFFFFFFFFFFFFFFFFFFFFFFFFFFFFFFFFF
310
FFFFFFFFFFFFFFFFFFFFFFFFFFFFFFFFFFFFFFFFFFFFFFFFF000FFFFFFFFFFFF
310
FFFFFFFFFFFFFFFFFFFFFFFFFFFFFFFFFFFFFFFFFFFFFFFFFFFFFFFFFFFFFFFF
310
FFFFFFFFFFFFFFFFFFFFFFFFFFFFFFFFFFFFFFFFFFFFFFFFFFFFFFFFFFFFFFFF
310
FFFFFFFFFFFFFFFFFFFFFFFFFFFFFFFFF000FFFFFFFFFFFFFFFFFFFFFFFFFFFF
310
FFFFFFFFFFFFFFFFFFFFFFFFFFFFFFFFFFFFFFFFFFFFFFFFFFFFFFFFFFFFFFFF
310
FFFFFFFFFFFFFFFFFFFFFFFFFFFFFFFFFFFFFFFFFFFFFFFFFFFFFFFFFFFFFFFF
310
FFFFFFFFFFFFFFFFF000FFFFFFFFFFFFFFFFFFFFFFFFFFFFFFFFFFFFFFFFFFFF
310
FFFFFFFFFFFFFFFFFFFFFFFFFFFFFFFFFFFFFFFFFFFFFFFFFFFFFFFFFFFFFFFF
310
FFFFFFFFFFFFFFFFFFFFFFFFFFFFFFFFFFFFFFFFFFFFFFFFFFFFFFFFFFFFFFFF
310
F000FFFFFFFFFFFFFFFFFFFFFFFFFFFFFFFFFFFFFFFFFFFFFFFFFFFFFFFFFFFF
310
FFFFFFFFFFFFFFFFFFFFFFFFFFFFFFFFFFFFFFFFFFFFFFFFFFFFFFFFFFFFFFFF
310
FFFFFFFFFFFFFFFFFFFFFFFFFFFFFFFFFFFFFFFFFFFFFFFFF000FFFFFFFFFFFF
310
FFFFFFFFFFFFFFFFFFFFFFFFFFFFFFFFFFFFFFFFFFFFFFFFFFFFFFFFFFFFFFFF
310
FFFFFFFFFFFFFFFFFFFFFFFFFFFFFFFFFFFFFFFFFFFFFFFFFFFFFFFFFFFFFFFF
310
FFFFFFFFFFFFFFFFFFFFFFFFFFFFFFFFF0000000000000000000000000000000
310
0000000000000000000000000000000000000000000000000000000000000000
310
0000000000000000000000000000000000000000000000000000000000000000
310
0000000000000000000000000000000000000000000000000000000000000000
310
0000000000000000000000000000000000000000000000000000000000000000
310
0000000000000000000000000000000000000000000000000000000000000000
310
0000000000000000000000000000000000000000000000000000000000000000
310
0000000000000000000000000000000000000000000000000000000000000000
310
0000000000000000000000000000000000000000000000000000000000000000
310
0000000000000000000000000000000000000000000000000000000000000000
310
0000000000000000000000000000000000000000000000000000000000000000
310
0000000000000000000000000000000000000000000000000000000000000000
310
0000000000000000000000000000000000000000000000000000000000000000
310
0000000000000000000000000000000000000000000000000000000000000000
310
0000000000000000000000000000000000000000000000000000000000000000
310
0000000000000000000000000000000000000000000000000000000000000000
  1
OLE
  0
ENDSEC
  0
SECTION
  2
OBJECTS
  0
DICTIONARY
  5
C
330
0
100
AcDbDictionary
281
     1
  3
ACAD_GROUP
350
D
  3
ACAD_LAYOUT
350
1A
  3
ACAD_MLINESTYLE
350
17
  3
ACAD_PLOTSETTINGS
350
19
  3
ACAD_PLOTSTYLENAME
350
E
  3
ACAD_SCALELIST
350
47
  0
DICTIONARY
  5
D
102
{ACAD_REACTORS
330
C
102
}
330
C
100
AcDbDictionary
281
     1
  0
DICTIONARY
  5
1A
102
{ACAD_REACTORS
330
C
102
}
330
C
100
AcDbDictionary
281
     1
  3
Layout1
350
1E
  3
Layout2
350
26
  3
Model
350
22
  0
DICTIONARY
  5
17
102
{ACAD_REACTORS
330
C
102
}
330
C
100
AcDbDictionary
281
     1
  3
Standard
350
18
  0
DICTIONARY
  5
19
102
{ACAD_REACTORS
330
C
102
}
330
C
100
AcDbDictionary
281
     1
  0
ACDBDICTIONARYWDFLT
  5
E
102
{ACAD_REACTORS
330
C
102
}
330
C
100
AcDbDictionary
281
     1
  3
Normal
350
F
100
AcDbDictionaryWithDefault
340
F
  0
DICTIONARY
  5
47
102
{ACAD_REACTORS
330
C
102
}
330
C
100
AcDbDictionary
281
     1
  3
A0
350
48
  3
A1
350
49
  3
A2
350
4A
  3
A3
350
4B
  3
A4
350
4C
  3
A5
350
4D
  3
A6
350
4E
  3
A7
350
4F
  3
A8
350
50
  3
A9
350
51
  3
B0
350
52
  3
B1
350
53
  3
B2
350
54
  3
B3
350
55
  3
B4
350
56
  3
B5
350
57
  3
B6
350
58
  3
B7
350
59
  3
B8
350
5A
  3
B9
350
5B
  3
C0
350
5C
  3
C1
350
5D
  3
C2
350
5E
  3
C3
350
5F
  3
C4
350
60
  3
C5
350
61
  3
C6
350
62
  3
C7
350
63
  3
C8
350
64
  3
C9
350
65
  3
D0
350
66
  3
D1
350
67
  3
D2
350
68
  0
LAYOUT
  5
1E
102
{ACAD_REACTORS
330
1A
102
}
330
1A
100
AcDbPlotSettings
  1

  2
none_device
  4

  6

 40
0.0
 41
0.0
 42
0.0
 43
0.0
 44
0.0
 45
0.0
 46
0.0
 47
0.0
 48
0.0
 49
0.0
140
0.0
141
0.0
142
1.0
143
1.0
 70
   688
 72
     1
 73
     0
 74
     5
  7

 75
    16
147
1.0
148
0.0
149
0.0
100
AcDbLayout
  1
Layout1
 70
     1
 71
     1
 10
0.0
 20
0.0
 11
420.0
 21
297.0
 12
0.0
 22
0.0
 32
0.0
 14
1.0000000000E+20
 24
1.0000000000E+20
 34
1.0000000000E+20
 15
-1.0000000000E+20
 25
-1.0000000000E+20
 35
-1.0000000000E+20
146
0.0
 13
0.0
 23
0.0
 33
0.0
 16
1.0
 26
0.0
 36
0.0
 17
0.0
 27
1.0
 37
0.0
 76
     0
330
1B
  0
LAYOUT
  5
26
102
{ACAD_REACTORS
330
1A
102
}
330
1A
100
AcDbPlotSettings
  1

  2
none_device
  4

  6

 40
0.0
 41
0.0
 42
0.0
 43
0.0
 44
0.0
 45
0.0
 46
0.0
 47
0.0
 48
0.0
 49
0.0
140
0.0
141
0.0
142
1.0
143
1.0
 70
   688
 72
     1
 73
     0
 74
     5
  7

 75
    16
147
1.0
148
0.0
149
0.0
100
AcDbLayout
  1
Layout2
 70
     1
 71
     2
 10
0.0
 20
0.0
 11
0.0
 21
0.0
 12
0.0
 22
0.0
 32
0.0
 14
0.0
 24
0.0
 34
0.0
 15
0.0
 25
0.0
 35
0.0
146
0.0
 13
0.0
 23
0.0
 33
0.0
 16
1.0
 26
0.0
 36
0.0
 17
0.0
 27
1.0
 37
0.0
 76
     0
330
23
  0
LAYOUT
  5
22
102
{ACAD_REACTORS
330
1A
102
}
330
1A
100
AcDbPlotSettings
  1

  2
none_device
  4
Letter_(8.50_x_11.00_Inches)
  6

 40
6.35
 41
6.35
 42
6.35000508
 43
6.35000508
 44
215.9
 45
279.4
 46
0.0
 47
0.0
 48
0.0
 49
0.0
140
0.0
141
0.0
142
1.0
143
1.0
 70
  1712
 72
     1
 73
     0
 74
     0
  7

 75
     0
147
1.0
148
0.0
149
0.0
100
AcDbLayout
  1
Model
 70
     1
 71
     0
 10
0.0
 20
0.0
 11
297.0
 21
210.0
 12
0.0
 22
0.0
 32
0.0
 14
0.0
 24
0.0
 34
0.0
 15
297.0
 25
210.0
 35
0.0
146
0.0
 13
0.0
 23
0.0
 33
0.0
 16
1.0
 26
0.0
 36
0.0
 17
0.0
 27
1.0
 37
0.0
 76
     0
330
1F
331
29
  0
MLINESTYLE
  5
18
102
{ACAD_REACTORS
330
17
102
}
330
17
100
AcDbMlineStyle
  2
Standard
 70
     0
  3

 62
   256
 51
90.0
 52
90.0
 71
     2
 49
0.5
 62
   256
  6
BYLAYER
 49
-0.5
 62
   256
  6
BYLAYER
  0
ACDBPLACEHOLDER
  5
F
102
{ACAD_REACTORS
330
E
102
}
330
E
  0
SCALE
  5
48
102
{ACAD_REACTORS
330
47
102
}
330
47
100
AcDbScale
 70
     0
300
1:1
140
1.0
141
1.0
290
     1
  0
SCALE
  5
49
102
{ACAD_REACTORS
330
47
102
}
330
47
100
AcDbScale
 70
     0
300
1:2
140
1.0
141
2.0
290
     0
  0
SCALE
  5
4A
102
{ACAD_REACTORS
330
47
102
}
330
47
100
AcDbScale
 70
     0
300
1:4
140
1.0
141
4.0
290
     0
  0
SCALE
  5
4B
102
{ACAD_REACTORS
330
47
102
}
330
47
100
AcDbScale
 70
     0
300
1:5
140
1.0
141
5.0
290
     0
  0
SCALE
  5
4C
102
{ACAD_REACTORS
330
47
102
}
330
47
100
AcDbScale
 70
     0
300
1:8
140
1.0
141
8.0
290
     0
  0
SCALE
  5
4D
102
{ACAD_REACTORS
330
47
102
}
330
47
100
AcDbScale
 70
     0
300
1:10
140
1.0
141
10.0
290
     0
  0
SCALE
  5
4E
102
{ACAD_REACTORS
330
47
102
}
330
47
100
AcDbScale
 70
     0
300
1:16
140
1.0
141
16.0
290
     0
  0
SCALE
  5
4F
102
{ACAD_REACTORS
330
47
102
}
330
47
100
AcDbScale
 70
     0
300
1:20
140
1.0
141
20.0
290
     0
  0
SCALE
  5
50
102
{ACAD_REACTORS
330
47
102
}
330
47
100
AcDbScale
 70
     0
300
1:30
140
1.0
141
30.0
290
     0
  0
SCALE
  5
51
102
{ACAD_REACTORS
330
47
102
}
330
47
100
AcDbScale
 70
     0
300
1:40
140
1.0
141
40.0
290
     0
  0
SCALE
  5
52
102
{ACAD_REACTORS
330
47
102
}
330
47
100
AcDbScale
 70
     0
300
1:50
140
1.0
141
50.0
290
     0
  0
SCALE
  5
53
102
{ACAD_REACTORS
330
47
102
}
330
47
100
AcDbScale
 70
     0
300
1:100
140
1.0
141
100.0
290
     0
  0
SCALE
  5
54
102
{ACAD_REACTORS
330
47
102
}
330
47
100
AcDbScale
 70
     0
300
2:1
140
2.0
141
1.0
290
     0
  0
SCALE
  5
55
102
{ACAD_REACTORS
330
47
102
}
330
47
100
AcDbScale
 70
     0
300
4:1
140
4.0
141
1.0
290
     0
  0
SCALE
  5
56
102
{ACAD_REACTORS
330
47
102
}
330
47
100
AcDbScale
 70
     0
300
8:1
140
8.0
141
1.0
290
     0
  0
SCALE
  5
57
102
{ACAD_REACTORS
330
47
102
}
330
47
100
AcDbScale
 70
     0
300
10:1
140
10.0
141
1.0
290
     0
  0
SCALE
  5
58
102
{ACAD_REACTORS
330
47
102
}
330
47
100
AcDbScale
 70
     0
300
100:1
140
100.0
141
1.0
290
     0
  0
SCALE
  5
59
102
{ACAD_REACTORS
330
47
102
}
330
47
100
AcDbScale
 70
     0
300
1/128" = 1'-0"
140
0.0078125
141
12.0
290
     0
  0
SCALE
  5
5A
102
{ACAD_REACTORS
330
47
102
}
330
47
100
AcDbScale
 70
     0
300
1/64" = 1'-0"
140
0.015625
141
12.0
290
     0
  0
SCALE
  5
5B
102
{ACAD_REACTORS
330
47
102
}
330
47
100
AcDbScale
 70
     0
300
1/32" = 1'-0"
140
0.03125
141
12.0
290
     0
  0
SCALE
  5
5C
102
{ACAD_REACTORS
330
47
102
}
330
47
100
AcDbScale
 70
     0
300
1/16" = 1'-0"
140
0.0625
141
12.0
290
     0
  0
SCALE
  5
5D
102
{ACAD_REACTORS
330
47
102
}
330
47
100
AcDbScale
 70
     0
300
3/32" = 1'-0"
140
0.09375
141
12.0
290
     0
  0
SCALE
  5
5E
102
{ACAD_REACTORS
330
47
102
}
330
47
100
AcDbScale
 70
     0
300
1/8" = 1'-0"
140
0.125
141
12.0
290
     0
  0
SCALE
  5
5F
102
{ACAD_REACTORS
330
47
102
}
330
47
100
AcDbScale
 70
     0
300
3/16" = 1'-0"
140
0.1875
141
12.0
290
     0
  0
SCALE
  5
60
102
{ACAD_REACTORS
330
47
102
}
330
47
100
AcDbScale
 70
     0
300
1/4" = 1'-0"
140
0.25
141
12.0
290
     0
  0
SCALE
  5
61
102
{ACAD_REACTORS
330
47
102
}
330
47
100
AcDbScale
 70
     0
300
3/8" = 1'-0"
140
0.375
141
12.0
290
     0
  0
SCALE
  5
62
102
{ACAD_REACTORS
330
47
102
}
330
47
100
AcDbScale
 70
     0
300
1/2" = 1'-0"
140
0.5
141
12.0
290
     0
  0
SCALE
  5
63
102
{ACAD_REACTORS
330
47
102
}
330
47
100
AcDbScale
 70
     0
300
3/4" = 1'-0"
140
0.75
141
12.0
290
     0
  0
SCALE
  5
64
102
{ACAD_REACTORS
330
47
102
}
330
47
100
AcDbScale
 70
     0
300
1" = 1'-0"
140
1.0
141
12.0
290
     0
  0
SCALE
  5
65
102
{ACAD_REACTORS
330
47
102
}
330
47
100
AcDbScale
 70
     0
300
1-1/2" = 1'-0"
140
1.5
141
12.0
290
     0
  0
SCALE
  5
66
102
{ACAD_REACTORS
330
47
102
}
330
47
100
AcDbScale
 70
     0
300
3" = 1'-0"
140
3.0
141
12.0
290
     0
  0
SCALE
  5
67
102
{ACAD_REACTORS
330
47
102
}
330
47
100
AcDbScale
 70
     0
300
6" = 1'-0"
140
6.0
141
12.0
290
     0
  0
SCALE
  5
68
102
{ACAD_REACTORS
330
47
102
}
330
47
100
AcDbScale
 70
     0
300
1'-0" = 1'-0"
140
12.0
141
12.0
290
     0
  0
ENDSEC
  0
EOF
