  0
SECTION
  2
HEADER
  9
$ACADVER
  1
AC1015
  9
$ACADMAINTVER
 70
     6
  9
$DWGCODEPAGE
  3
ANSI_1252
  9
$INSBASE
 10
0.0
 20
0.0
 30
0.0
  9
$EXTMIN
 10
0.0
 20
0.0
 30
0.0
  9
$EXTMAX
 10
297.0
 20
210.0
 30
0.0
  9
$LIMMIN
 10
0.0
 20
0.0
  9
$LIMMAX
 10
297.0
 20
210.0
  9
$ORTHOMODE
 70
     0
  9
$REGENMODE
 70
     1
  9
$FILLMODE
 70
     1
  9
$QTEXTMODE
 70
     0
  9
$MIRRTEXT
 70
     1
  9
$LTSCALE
 40
1.0
  9
$ATTMODE
 70
     1
  9
$TEXTSIZE
 40
2.0
  9
$TRACEWID
 40
1.0
  9
$TEXTSTYLE
  7
Standard
  9
$CLAYER
  8
0
  9
$CELTYPE
  6
ByLayer
  9
$CECOLOR
 62
   256
  9
$CELTSCALE
 40
1.0
  9
$DISPSILH
 70
     0
  9
$DIMSCALE
 40
1.0
  9
$DIMASZ
 40
3.0
  9
$DIMEXO
 40
0.0
  9
$DIMDLI
 40
3.75
  9
$DIMRND
 40
0.0
  9
$DIMDLE
 40
0.0
  9
$DIMEXE
 40
1.0
  9
$DIMTP
 40
0.0
  9
$DIMTM
 40
0.0
  9
$DIMTXT
 40
2.0
  9
$DIMCEN
 40
2.5
  9
$DIMTSZ
 40
0.0
  9
$DIMTOL
 70
     0
  9
$DIMLIM
 70
     0
  9
$DIMTIH
 70
     1
  9
$DIMTOH
 70
     1
  9
$DIMSE1
 70
     0
  9
$DIMSE2
 70
     0
  9
$DIMTAD
 70
     1
  9
$DIMZIN
 70
     0
  9
$DIMBLK
  1

  9
$DIMASO
 70
     1
  9
$DIMSHO
 70
     1
  9
$DIMPOST
  1

  9
$DIMAPOST
  1

  9
$DIMALT
 70
     0
  9
$DIMALTD
 70
     3
  9
$DIMALTF
 40
0.0393700787
  9
$DIMLFAC
 40
2.0
  9
$DIMTOFL
 70
     1
  9
$DIMTVP
 40
0.0
  9
$DIMTIX
 70
     0
  9
$DIMSOXD
 70
     0
  9
$DIMSAH
 70
     0
  9
$DIMBLK1
  1

  9
$DIMBLK2
  1

  9
$DIMSTYLE
  2
ISO-25
  9
$DIMCLRD
 70
     0
  9
$DIMCLRE
 70
     0
  9
$DIMCLRT
 70
     0
  9
$DIMTFAC
 40
1.0
  9
$DIMGAP
 40
1.524
  9
$DIMJUST
 70
     0
  9
$DIMSD1
 70
     0
  9
$DIMSD2
 70
     0
  9
$DIMTOLJ
 70
     0
  9
$DIMTZIN
 70
     0
  9
$DIMALTZ
 70
     0
  9
$DIMALTTZ
 70
     0
  9
$DIMUPT
 70
     0
  9
$DIMDEC
 70
     2
  9
$DIMTDEC
 70
     3
  9
$DIMALTU
 70
     2
  9
$DIMALTTD
 70
     3
  9
$DIMTXSTY
  7
Standard
  9
$DIMAUNIT
 70
     0
  9
$DIMADEC
 70
     2
  9
$DIMALTRND
 40
0.0
  9
$DIMAZIN
 70
     0
  9
$DIMDSEP
 70
    44
  9
$DIMATFIT
 70
     3
  9
$DIMFRAC
 70
     0
  9
$DIMLDRBLK
  1

  9
$DIMLUNIT
 70
     2
  9
$DIMLWD
 70
    -2
  9
$DIMLWE
 70
    -2
  9
$DIMTMOVE
 70
     0
  9
$LUNITS
 70
     2
  9
$LUPREC
 70
     2
  9
$SKETCHINC
 40
1.0
  9
$FILLETRAD
 40
10.0
  9
$AUNITS
 70
     0
  9
$AUPREC
 70
     2
  9
$MENU
  1
.
  9
$ELEVATION
 40
0.0
  9
$PELEVATION
 40
0.0
  9
$THICKNESS
 40
0.0
  9
$LIMCHECK
 70
     0
  9
$CHAMFERA
 40
0.0
  9
$CHAMFERB
 40
0.0
  9
$CHAMFERC
 40
0.0
  9
$CHAMFERD
 40
0.0
  9
$SKPOLY
 70
     0
  9
$TDCREATE
 40
2457675.398023195
  9
$TDUCREATE
 40
2457675.314689861
  9
$TDUPDATE
 40
2457675.398024745
  9
$TDUUPDATE
 40
2457675.314691412
  9
$TDINDWG
 40
0.0000000116
  9
$TDUSRTIMER
 40
0.0000000116
  9
$USRTIMER
 70
     1
  9
$ANGBASE
 50
0.0
  9
$ANGDIR
 70
     0
  9
$PDMODE
 70
     0
  9
$PDSIZE
 40
-1.0
  9
$PLINEWID
 40
0.0
  9
$SPLFRAME
 70
     0
  9
$SPLINETYPE
 70
     6
  9
$SPLINESEGS
 70
     8
  9
$HANDSEED
  5
251
  9
$SURFTAB1
 70
     6
  9
$SURFTAB2
 70
     6
  9
$SURFTYPE
 70
     6
  9
$SURFU
 70
     6
  9
$SURFV
 70
     6
  9
$UCSBASE
  2

  9
$UCSNAME
  2

  9
$UCSORG
 10
0.0
 20
0.0
 30
0.0
  9
$UCSXDIR
 10
1.0
 20
0.0
 30
0.0
  9
$UCSYDIR
 10
0.0
 20
1.0
 30
0.0
  9
$UCSORTHOREF
  2

  9
$UCSORTHOVIEW
 70
     0
  9
$UCSORGTOP
 10
0.0
 20
0.0
 30
0.0
  9
$UCSORGBOTTOM
 10
0.0
 20
0.0
 30
0.0
  9
$UCSORGLEFT
 10
0.0
 20
0.0
 30
0.0
  9
$UCSORGRIGHT
 10
0.0
 20
0.0
 30
0.0
  9
$UCSORGFRONT
 10
0.0
 20
0.0
 30
0.0
  9
$UCSORGBACK
 10
0.0
 20
0.0
 30
0.0
  9
$PUCSBASE
  2

  9
$PUCSNAME
  2

  9
$PUCSORG
 10
0.0
 20
0.0
 30
0.0
  9
$PUCSXDIR
 10
1.0
 20
0.0
 30
0.0
  9
$PUCSYDIR
 10
0.0
 20
1.0
 30
0.0
  9
$PUCSORTHOREF
  2

  9
$PUCSORTHOVIEW
 70
     0
  9
$PUCSORGTOP
 10
0.0
 20
0.0
 30
0.0
  9
$PUCSORGBOTTOM
 10
0.0
 20
0.0
 30
0.0
  9
$PUCSORGLEFT
 10
0.0
 20
0.0
 30
0.0
  9
$PUCSORGRIGHT
 10
0.0
 20
0.0
 30
0.0
  9
$PUCSORGFRONT
 10
0.0
 20
0.0
 30
0.0
  9
$PUCSORGBACK
 10
0.0
 20
0.0
 30
0.0
  9
$USERI1
 70
     0
  9
$USERI2
 70
     0
  9
$USERI3
 70
     0
  9
$USERI4
 70
     0
  9
$USERI5
 70
     0
  9
$USERR1
 40
0.0
  9
$USERR2
 40
0.0
  9
$USERR3
 40
0.0
  9
$USERR4
 40
0.0
  9
$USERR5
 40
0.0
  9
$WORLDVIEW
 70
     1
  9
$SHADEDGE
 70
     3
  9
$SHADEDIF
 70
    70
  9
$TILEMODE
 70
     1
  9
$MAXACTVP
 70
    64
  9
$PINSBASE
 10
0.0
 20
0.0
 30
0.0
  9
$PLIMCHECK
 70
     0
  9
$PEXTMIN
 10
1.0000000000E+20
 20
1.0000000000E+20
 30
1.0000000000E+20
  9
$PEXTMAX
 10
-1.0000000000E+20
 20
-1.0000000000E+20
 30
-1.0000000000E+20
  9
$PLIMMIN
 10
0.0
 20
0.0
  9
$PLIMMAX
 10
420.0
 20
297.0
  9
$UNITMODE
 70
     0
  9
$VISRETAIN
 70
     1
  9
$PLINEGEN
 70
     0
  9
$PSLTSCALE
 70
     1
  9
$TREEDEPTH
 70
  3020
  9
$CMLSTYLE
  2
Standard
  9
$CMLJUST
 70
     0
  9
$CMLSCALE
 40
20.0
  9
$PROXYGRAPHICS
 70
     1
  9
$MEASUREMENT
 70
     1
  9
$CELWEIGHT
370
    -1
  9
$ENDCAPS
280
     0
  9
$JOINSTYLE
280
     0
  9
$LWDISPLAY
290
     1
  9
$INSUNITS
 70
     4
  9
$HYPERLINKBASE
  1

  9
$STYLESHEET
  1

  9
$XEDIT
290
     1
  9
$CEPSNTYPE
380
     0
  9
$PSTYLEMODE
290
     1
  9
$FINGERPRINTGUID
  2
{DA1179EC-7FE4-4ED8-B300-39E723139189}
  9
$VERSIONGUID
  2
{FAEB1C32-E019-11D5-929B-00C0DF256EC4}
  9
$EXTNAMES
290
     1
  9
$PSVPSCALE
 40
0.0
  9
$OLESTARTUP
290
     0
  0
ENDSEC
  0
SECTION
  2
CLASSES
  0
CLASS
  1
ACDBDICTIONARYWDFLT
  2
AcDbDictionaryWithDefault
  3
ObjectDBX Classes
 90
        0
280
     0
281
     0
  0
CLASS
  1
VISUALSTYLE
  2
AcDbVisualStyle
  3
ObjectDBX Classes
 90
     4095
280
     0
281
     0
  0
CLASS
  1
MATERIAL
  2
AcDbMaterial
  3
ObjectDBX Classes
 90
     1153
280
     0
281
     0
  0
CLASS
  1
SCALE
  2
AcDbScale
  3
ObjectDBX Classes
 90
     1153
280
     0
281
     0
  0
CLASS
  1
TABLESTYLE
  2
AcDbTableStyle
  3
ObjectDBX Classes
 90
     4095
280
     0
281
     0
  0
CLASS
  1
MLEADERSTYLE
  2
AcDbMLeaderStyle
  3
ACDB_MLEADERSTYLE_CLASS
 90
     4095
280
     0
281
     0
  0
CLASS
  1
SUN
  2
AcDbSun
  3
SCENEOE
 90
     1153
280
     0
281
     0
  0
CLASS
  1
ACDBPLACEHOLDER
  2
AcDbPlaceHolder
  3
ObjectDBX Classes
 90
        0
280
     0
281
     0
  0
CLASS
  1
LAYOUT
  2
AcDbLayout
  3
ObjectDBX Classes
 90
        0
280
     0
281
     0
  0
ENDSEC
  0
SECTION
  2
TABLES
  0
TABLE
  2
VPORT
  5
8
330
0
100
AcDbSymbolTable
 70
     1
  0
VPORT
  5
29
330
8
100
AcDbSymbolTableRecord
100
AcDbViewportTableRecord
  2
*Active
 70
     0
 10
0.0
 20
0.0
 11
1.0
 21
1.0
 12
148.5
 22
105.0
 13
0.0
 23
0.0
 14
10.0
 24
10.0
 15
10.0
 25
10.0
 16
0.0
 26
0.0
 36
1.0
 17
0.0
 27
0.0
 37
0.0
 40
210.0
 41
1.4142857143
 42
50.0
 43
0.0
 44
0.0
 50
0.0
 51
0.0
 71
     0
 72
  2000
 73
     1
 74
     3
 75
     0
 76
     0
 77
     0
 78
     0
281
     0
 65
     1
110
0.0
120
0.0
130
0.0
111
1.0
121
0.0
131
0.0
112
0.0
122
1.0
132
0.0
 79
     0
146
0.0
  0
ENDTAB
  0
TABLE
  2
LTYPE
  5
5
330
0
100
AcDbSymbolTable
 70
     6
  0
LTYPE
  5
14
330
5
100
AcDbSymbolTableRecord
100
AcDbLinetypeTableRecord
  2
ByBlock
 70
     0
  3

 72
    65
 73
     0
 40
0.0
  0
LTYPE
  5
15
330
5
100
AcDbSymbolTableRecord
100
AcDbLinetypeTableRecord
  2
ByLayer
 70
     0
  3

 72
    65
 73
     0
 40
0.0
  0
LTYPE
  5
16
330
5
100
AcDbSymbolTableRecord
100
AcDbLinetypeTableRecord
  2
Continuous
 70
     0
  3
Solid line
 72
    65
 73
     0
 40
0.0
  0
LTYPE
  5
6E
330
5
100
AcDbSymbolTableRecord
100
AcDbLinetypeTableRecord
  2
HIDDEN
 70
     0
  3
Hidden __ __ __ __ __ __ __ __ __ __ __ __ __ __
 72
    65
 73
     2
 40
1.905
 49
1.27
 74
     0
 49
-0.635
 74
     0
  0
LTYPE
  5
6F
330
5
100
AcDbSymbolTableRecord
100
AcDbLinetypeTableRecord
  2
PHANTOM
 70
     0
  3
Phantom ______  __  __  ______  __  __  ______
 72
    65
 73
     6
 40
12.7
 49
6.35
 74
     0
 49
-1.27
 74
     0
 49
1.27
 74
     0
 49
-1.27
 74
     0
 49
1.27
 74
     0
 49
-1.27
 74
     0
  0
LTYPE
  5
70
330
5
100
AcDbSymbolTableRecord
100
AcDbLinetypeTableRecord
  2
CENTER
 70
     0
  3
Center ____ _ ____ _ ____ _ ____ _ ____ _ ____
 72
    65
 73
     4
 40
10.16
 49
6.35
 74
     0
 49
-1.27
 74
     0
 49
1.27
 74
     0
 49
-1.27
 74
     0
  0
LTYPE
  5
71
330
5
100
AcDbSymbolTableRecord
100
AcDbLinetypeTableRecord
  2
CENTERX2
 70
     0
  3
Center (2x) ________  __  ________  __  _____
 72
    65
 73
     4
 40
20.32
 49
12.7
 74
     0
 49
-2.54
 74
     0
 49
2.54
 74
     0
 49
-2.54
 74
     0
  0
LTYPE
  5
72
330
5
100
AcDbSymbolTableRecord
100
AcDbLinetypeTableRecord
  2
DOT2
 70
     0
  3
Dot (.5x) ........................................
 72
    65
 73
     2
 40
0.635
 49
0.0
 74
     0
 49
-0.635
 74
     0
  0
ENDTAB
  0
TABLE
  2
LAYER
  5
2
330
0
100
AcDbSymbolTable
 70
     5
  0
LAYER
  5
10
330
2
100
AcDbSymbolTableRecord
100
AcDbLayerTableRecord
  2
0
 70
     0
 62
     7
  6
Continuous
370
    -3
390
F
  0
LAYER
  5
73
330
2
100
AcDbSymbolTableRecord
100
AcDbLayerTableRecord
  2
FORMAT
 70
     0
 62
     7
  6
Continuous
370
    -3
390
F
  0
LAYER
  5
74
330
2
100
AcDbSymbolTableRecord
100
AcDbLayerTableRecord
  2
VERMASSUNG
 70
     0
 62
     7
  6
Continuous
370
    -3
390
F
  0
LAYER
  5
75
330
2
100
AcDbSymbolTableRecord
100
AcDbLayerTableRecord
  2
KOPF_DÜNN
 70
     0
 62
     7
  6
Continuous
370
    -3
390
F
  0
LAYER
  5
76
330
2
100
AcDbSymbolTableRecord
100
AcDbLayerTableRecord
  2
KOPF_DICK
 70
     0
 62
     7
  6
Continuous
370
    15
390
F
  0
ENDTAB
  0
TABLE
  2
STYLE
  5
3
330
0
100
AcDbSymbolTable
 70
     2
  0
STYLE
  5
11
330
3
100
AcDbSymbolTableRecord
100
AcDbTextStyleTableRecord
  2
Standard
 70
     0
 40
0.0
 41
1.0
 50
0.0
 71
     0
 42
2.0
  3
txt
  4

  0
STYLE
  5
77
330
3
100
AcDbSymbolTableRecord
100
AcDbTextStyleTableRecord
  2
SLDTEXTSTYLE0
 70
     0
 40
0.0
 41
0.7
 50
0.0
 71
     0
 42
2.0
  3
TXT
  4

  0
ENDTAB
  0
TABLE
  2
VIEW
  5
6
330
0
100
AcDbSymbolTable
 70
     0
  0
ENDTAB
  0
TABLE
  2
UCS
  5
7
330
0
100
AcDbSymbolTable
 70
     0
  0
ENDTAB
  0
TABLE
  2
APPID
  5
9
330
0
100
AcDbSymbolTable
 70
     1
  0
APPID
  5
12
330
9
100
AcDbSymbolTableRecord
100
AcDbRegAppTableRecord
  2
ACAD
 70
     0
  0
ENDTAB
  0
TABLE
  2
DIMSTYLE
  5
A
330
0
100
AcDbSymbolTable
 70
     2
100
AcDbDimStyleTable
  0
DIMSTYLE
105
27
330
A
100
AcDbSymbolTableRecord
100
AcDbDimStyleTableRecord
  2
ISO-25
 70
     0
 41
2.5
 42
0.625
 43
3.75
 44
1.25
 73
     0
 74
     0
 77
     1
 78
     8
140
2.5
141
2.5
143
0.0393700787
147
0.625
171
     3
172
     1
178
     0
271
     2
272
     2
274
     3
278
    44
283
     0
284
     8
340
11
  0
DIMSTYLE
105
168
102
{ACAD_REACTORS
330
167
330
174
330
17F
330
18B
330
197
330
1A1
102
}
330
A
100
AcDbSymbolTableRecord
100
AcDbDimStyleTableRecord
  2
SLDDIMSTYLE0
 70
     0
 41
3.0
 44
0.0
 45
0.000000001
 73
     0
 74
     0
 77
     1
 78
    12
 79
     3
140
2.0
147
0.5
173
     1
178
     0
271
     2
272
     3
276
     2
284
    12
340
77
  0
ENDTAB
  0
TABLE
  2
BLOCK_RECORD
  5
1
330
0
100
AcDbSymbolTable
 70
     7
  0
BLOCK_RECORD
  5
1F
330
1
100
AcDbSymbolTableRecord
100
AcDbBlockTableRecord
  2
*Model_Space
340
22
  0
BLOCK_RECORD
  5
1B
330
1
100
AcDbSymbolTableRecord
100
AcDbBlockTableRecord
  2
*Paper_Space
340
1E
  0
BLOCK_RECORD
  5
23
330
1
100
AcDbSymbolTableRecord
100
AcDbBlockTableRecord
  2
*Paper_Space0
340
26
  0
BLOCK_RECORD
  5
169
330
1
100
AcDbSymbolTableRecord
100
AcDbBlockTableRecord
  2
_D
340
0
  0
BLOCK_RECORD
  5
175
330
1
100
AcDbSymbolTableRecord
100
AcDbBlockTableRecord
  2
_D_1
340
0
  0
BLOCK_RECORD
  5
180
330
1
100
AcDbSymbolTableRecord
100
AcDbBlockTableRecord
  2
_D_2
340
0
  0
BLOCK_RECORD
  5
18C
330
1
100
AcDbSymbolTableRecord
100
AcDbBlockTableRecord
  2
_D_3
340
0
  0
BLOCK_RECORD
  5
198
330
1
100
AcDbSymbolTableRecord
100
AcDbBlockTableRecord
  2
_D_4
340
0
  0
BLOCK_RECORD
  5
1A2
330
1
100
AcDbSymbolTableRecord
100
AcDbBlockTableRecord
  2
_D_5
340
0
  0
ENDTAB
  0
ENDSEC
  0
SECTION
  2
BLOCKS
  0
BLOCK
  5
20
330
1F
100
AcDbEntity
  8
0
100
AcDbBlockBegin
  2
*Model_Space
 70
     0
 10
0.0
 20
0.0
 30
0.0
  3
*Model_Space
  1

  0
ENDBLK
  5
21
330
1F
100
AcDbEntity
  8
0
100
AcDbBlockEnd
  0
BLOCK
  5
1C
330
1B
100
AcDbEntity
 67
     1
  8
0
100
AcDbBlockBegin
  2
*Paper_Space
 70
     0
 10
0.0
 20
0.0
 30
0.0
  3
*Paper_Space
  1

  0
ENDBLK
  5
1D
330
1B
100
AcDbEntity
 67
     1
  8
0
100
AcDbBlockEnd
  0
BLOCK
  5
24
330
23
100
AcDbEntity
  8
0
100
AcDbBlockBegin
  2
*Paper_Space0
 70
     0
 10
0.0
 20
0.0
 30
0.0
  3
*Paper_Space0
  1

  0
ENDBLK
  5
25
330
23
100
AcDbEntity
  8
0
100
AcDbBlockEnd
  0
BLOCK
  5
16A
330
169
100
AcDbEntity
  8
0
100
AcDbBlockBegin
  2
_D
 70
     0
 10
0.0
 20
0.0
 30
0.0
  3
_D
  1

  0
SOLID
  5
16C
330
169
100
AcDbEntity
  8
VERMASSUNG
100
AcDbTrace
 10
90.9277289852
 20
142.1278660367
 30
0.0
 11
90.4777289852
 21
139.1278660367
 31
0.0
 12
91.3777289852
 22
139.1278660367
 32
0.0
 13
91.3777289852
 23
139.1278660367
 33
0.0
  0
SOLID
  5
16D
330
169
100
AcDbEntity
  8
VERMASSUNG
100
AcDbTrace
 10
90.9277289852
 20
79.1278660367
 30
0.0
 11
91.3777289852
 21
82.1278660367
 31
0.0
 12
90.4777289852
 22
82.1278660367
 32
0.0
 13
90.4777289852
 23
82.1278660367
 33
0.0
  0
LINE
  5
16E
330
169
100
AcDbEntity
  8
VERMASSUNG
100
AcDbLine
 10
128.1199373854
 20
142.1278660367
 30
0.0
 11
89.9277289852
 21
142.1278660367
 31
0.0
  0
LINE
  5
16F
330
169
100
AcDbEntity
  8
VERMASSUNG
100
AcDbLine
 10
128.1199373854
 20
79.1278660367
 30
0.0
 11
89.9277289852
 21
79.1278660367
 31
0.0
  0
LINE
  5
170
330
169
100
AcDbEntity
  8
VERMASSUNG
100
AcDbLine
 10
90.9277289852
 20
142.1278660367
 30
0.0
 11
90.9277289852
 21
79.1278660367
 31
0.0
  0
MTEXT
  5
171
330
169
100
AcDbEntity
  8
VERMASSUNG
100
AcDbMText
 10
88.149593729
 20
102.9228667388
 30
0.0
 40
2.0
 41
0.0
 71
     1
 72
     1
  1
HSK A
  7
SLDTEXTSTYLE0
 11
-7.044195017643634E-15
 21
1.0
 31
0.0
 73
     1
 44
1.0
  0
MTEXT
  5
172
330
169
100
AcDbEntity
  8
VERMASSUNG
100
AcDbMText
 10
88.3495936803
 20
111.9228663514
 30
0.0
 40
2.0
 41
0.0
 71
     1
 72
     1
  1
%%c
  7
SLDTEXTSTYLE0
 11
-7.044195017643634E-15
 21
1.0
 31
0.0
 73
     1
 44
1.0
  0
MTEXT
  5
173
330
169
100
AcDbEntity
  8
VERMASSUNG
100
AcDbMText
 10
88.149593729
 20
115.5328663657
 30
0.0
 40
2.0
 41
0.0
 71
     1
 72
     1
  1
63
  7
SLDTEXTSTYLE0
 11
-7.044195017643634E-15
 21
1.0
 31
0.0
 73
     1
 44
1.0
  0
ENDBLK
  5
16B
330
169
100
AcDbEntity
  8
0
100
AcDbBlockEnd
  0
BLOCK
  5
176
330
175
100
AcDbEntity
  8
0
100
AcDbBlockBegin
  2
_D_1
 70
     0
 10
0.0
 20
0.0
 30
0.0
  3
_D_1
  1

  0
SOLID
  5
178
330
175
100
AcDbEntity
  8
VERMASSUNG
100
AcDbTrace
 10
221.4814980861
 20
117.6278660367
 30
0.0
 11
221.0314980861
 21
114.6278660367
 31
0.0
 12
221.9314980861
 22
114.6278660367
 32
0.0
 13
221.9314980861
 23
114.6278660367
 33
0.0
  0
SOLID
  5
179
330
175
100
AcDbEntity
  8
VERMASSUNG
100
AcDbTrace
 10
221.4814980861
 20
103.6278660367
 30
0.0
 11
221.9314980861
 21
106.6278660367
 31
0.0
 12
221.0314980861
 22
106.6278660367
 32
0.0
 13
221.0314980861
 23
106.6278660367
 33
0.0
  0
LINE
  5
17A
330
175
100
AcDbEntity
  8
VERMASSUNG
100
AcDbLine
 10
212.8199373854
 20
117.6278660367
 30
0.0
 11
222.4814980861
 21
117.6278660367
 31
0.0
  0
LINE
  5
17B
330
175
100
AcDbEntity
  8
VERMASSUNG
100
AcDbLine
 10
212.8199373854
 20
103.6278660367
 30
0.0
 11
222.4814980861
 21
103.6278660367
 31
0.0
  0
LINE
  5
17C
330
175
100
AcDbEntity
  8
VERMASSUNG
100
AcDbLine
 10
221.4814980861
 20
117.6278660367
 30
0.0
 11
221.4814980861
 21
103.6278660367
 31
0.0
  0
MTEXT
  5
17D
330
175
100
AcDbEntity
  8
VERMASSUNG
100
AcDbMText
 10
218.9033627812
 20
107.5228659096
 30
0.0
 40
2.0
 41
0.0
 71
     1
 72
     1
  1
%%c
  7
SLDTEXTSTYLE0
 11
-7.044195017643634E-15
 21
1.0
 31
0.0
 73
     1
 44
1.0
  0
MTEXT
  5
17E
330
175
100
AcDbEntity
  8
VERMASSUNG
100
AcDbMText
 10
218.7033628299
 20
111.1328659239
 30
0.0
 40
2.0
 41
0.0
 71
     1
 72
     1
  1
14
  7
SLDTEXTSTYLE0
 11
-7.044195017643634E-15
 21
1.0
 31
0.0
 73
     1
 44
1.0
  0
ENDBLK
  5
177
330
175
100
AcDbEntity
  8
0
100
AcDbBlockEnd
  0
BLOCK
  5
181
330
180
100
AcDbEntity
  8
0
100
AcDbBlockBegin
  2
_D_2
 70
     0
 10
0.0
 20
0.0
 30
0.0
  3
_D_2
  1

  0
SOLID
  5
183
330
180
100
AcDbEntity
  8
VERMASSUNG
100
AcDbTrace
 10
227.4814980861
 20
123.1278660367
 30
0.0
 11
227.0314980861
 21
120.1278660367
 31
0.0
 12
227.9314980861
 22
120.1278660367
 32
0.0
 13
227.9314980861
 23
120.1278660367
 33
0.0
  0
SOLID
  5
184
330
180
100
AcDbEntity
  8
VERMASSUNG
100
AcDbTrace
 10
227.4814980861
 20
98.1278660367
 30
0.0
 11
227.9314980861
 21
101.1278660367
 31
0.0
 12
227.0314980861
 22
101.1278660367
 32
0.0
 13
227.0314980861
 23
101.1278660367
 33
0.0
  0
LINE
  5
185
330
180
100
AcDbEntity
  8
VERMASSUNG
100
AcDbLine
 10
213.6199373854
 20
123.1278660367
 30
0.0
 11
228.4814980861
 21
123.1278660367
 31
0.0
  0
LINE
  5
186
330
180
100
AcDbEntity
  8
VERMASSUNG
100
AcDbLine
 10
213.6199373854
 20
98.1278660367
 30
0.0
 11
228.4814980861
 21
98.1278660367
 31
0.0
  0
LINE
  5
187
330
180
100
AcDbEntity
  8
VERMASSUNG
100
AcDbLine
 10
227.4814980861
 20
123.1278660367
 30
0.0
 11
227.4814980861
 21
98.1278660367
 31
0.0
  0
MTEXT
  5
188
330
180
100
AcDbEntity
  8
VERMASSUNG
100
AcDbMText
 10
224.7033628299
 20
105.5228660474
 30
0.0
 40
2.0
 41
0.0
 71
     1
 72
     1
  1
WH
  7
SLDTEXTSTYLE0
 11
-7.044195017643634E-15
 21
1.0
 31
0.0
 73
     1
 44
1.0
  0
MTEXT
  5
189
330
180
100
AcDbEntity
  8
VERMASSUNG
100
AcDbMText
 10
224.9033627812
 20
109.3228661115
 30
0.0
 40
2.0
 41
0.0
 71
     1
 72
     1
  1
%%c
  7
SLDTEXTSTYLE0
 11
-7.044195017643634E-15
 21
1.0
 31
0.0
 73
     1
 44
1.0
  0
MTEXT
  5
18A
330
180
100
AcDbEntity
  8
VERMASSUNG
100
AcDbMText
 10
224.7033628299
 20
112.9328661258
 30
0.0
 40
2.0
 41
0.0
 71
     1
 72
     1
  1
25
  7
SLDTEXTSTYLE0
 11
-7.044195017643634E-15
 21
1.0
 31
0.0
 73
     1
 44
1.0
  0
ENDBLK
  5
182
330
180
100
AcDbEntity
  8
0
100
AcDbBlockEnd
  0
BLOCK
  5
18D
330
18C
100
AcDbEntity
  8
0
100
AcDbBlockBegin
  2
_D_3
 70
     0
 10
0.0
 20
0.0
 30
0.0
  3
_D_3
  1

  0
ARC
  5
18F
330
18C
100
AcDbEntity
  8
VERMASSUNG
100
AcDbCircle
 10
184.4949376224
 20
147.8218710673
 30
0.0
 40
4.248529228887633
100
AcDbArc
 50
153.4349488229
 51
206.5650511771
  0
ARC
  5
190
330
18C
100
AcDbEntity
  8
VERMASSUNG
100
AcDbCircle
 10
183.0949372067
 20
147.8218710673
 30
0.0
 40
4.248529228887608
100
AcDbArc
 50
333.4349488229
 51
26.5650511771
  0
SOLID
  5
191
330
18C
100
AcDbEntity
  8
VERMASSUNG
100
AcDbTrace
 10
213.8199373854
 20
145.9218708024
 30
0.0
 11
210.8199373854
 21
146.3718708024
 31
0.0
 12
210.8199373854
 22
145.4718708024
 32
0.0
 13
210.8199373854
 23
145.4718708024
 33
0.0
  0
SOLID
  5
192
330
18C
100
AcDbEntity
  8
VERMASSUNG
100
AcDbTrace
 10
153.7699373854
 20
145.9218708024
 30
0.0
 11
156.7699373854
 21
145.4718708024
 31
0.0
 12
156.7699373854
 22
146.3718708024
 32
0.0
 13
156.7699373854
 23
146.3718708024
 33
0.0
  0
LINE
  5
193
330
18C
100
AcDbEntity
  8
VERMASSUNG
100
AcDbLine
 10
213.8199373854
 20
122.9278660367
 30
0.0
 11
213.8199373854
 21
146.9218708024
 31
0.0
  0
LINE
  5
194
330
18C
100
AcDbEntity
  8
VERMASSUNG
100
AcDbLine
 10
153.7699373854
 20
140.4743063605
 30
0.0
 11
153.7699373854
 21
146.9218708024
 31
0.0
  0
LINE
  5
195
330
18C
100
AcDbEntity
  8
VERMASSUNG
100
AcDbLine
 10
213.8199373854
 20
145.9218708024
 30
0.0
 11
153.7699373854
 21
145.9218708024
 31
0.0
  0
MTEXT
  5
196
330
18C
100
AcDbEntity
  8
VERMASSUNG
100
AcDbMText
 10
180.6949375583
 20
148.5000066312
 30
0.0
 40
2.0
 41
0.0
 71
     1
 72
     1
  1
60.05
  7
SLDTEXTSTYLE0
 73
     1
 44
1.0
  0
ENDBLK
  5
18E
330
18C
100
AcDbEntity
  8
0
100
AcDbBlockEnd
  0
BLOCK
  5
199
330
198
100
AcDbEntity
  8
0
100
AcDbBlockBegin
  2
_D_4
 70
     0
 10
0.0
 20
0.0
 30
0.0
  3
_D_4
  1

  0
SOLID
  5
19B
330
198
100
AcDbEntity
  8
VERMASSUNG
100
AcDbTrace
 10
213.8199373854
 20
151.9218708024
 30
0.0
 11
210.8199373854
 21
152.3718708024
 31
0.0
 12
210.8199373854
 22
151.4718708024
 32
0.0
 13
210.8199373854
 23
151.4718708024
 33
0.0
  0
SOLID
  5
19C
330
198
100
AcDbEntity
  8
VERMASSUNG
100
AcDbTrace
 10
127.8199373854
 20
151.9218708024
 30
0.0
 11
130.8199373854
 21
151.4718708024
 31
0.0
 12
130.8199373854
 22
152.3718708024
 32
0.0
 13
130.8199373854
 23
152.3718708024
 33
0.0
  0
LINE
  5
19D
330
198
100
AcDbEntity
  8
VERMASSUNG
100
AcDbLine
 10
213.8199373854
 20
122.9278660367
 30
0.0
 11
213.8199373854
 21
152.9218708024
 31
0.0
  0
LINE
  5
19E
330
198
100
AcDbEntity
  8
VERMASSUNG
100
AcDbLine
 10
127.8199373854
 20
141.8278660367
 30
0.0
 11
127.8199373854
 21
152.9218708024
 31
0.0
  0
LINE
  5
19F
330
198
100
AcDbEntity
  8
VERMASSUNG
100
AcDbLine
 10
213.8199373854
 20
151.9218708024
 30
0.0
 11
127.8199373854
 21
151.9218708024
 31
0.0
  0
MTEXT
  5
1A0
330
198
100
AcDbEntity
  8
VERMASSUNG
100
AcDbMText
 10
169.4199374353
 20
154.5000063984
 30
0.0
 40
2.0
 41
0.0
 71
     1
 72
     1
  1
86
  7
SLDTEXTSTYLE0
 73
     1
 44
1.0
  0
ENDBLK
  5
19A
330
198
100
AcDbEntity
  8
0
100
AcDbBlockEnd
  0
BLOCK
  5
1A3
330
1A2
100
AcDbEntity
  8
0
100
AcDbBlockBegin
  2
_D_5
 70
     0
 10
0.0
 20
0.0
 30
0.0
  3
_D_5
  1

  0
ARC
  5
1A5
330
1A2
100
AcDbEntity
  8
VERMASSUNG
100
AcDbCircle
 10
155.9699374086
 20
159.8218710673
 30
0.0
 40
4.248529228887608
100
AcDbArc
 50
153.4349488229
 51
206.5650511771
  0
ARC
  5
1A6
330
1A2
100
AcDbEntity
  8
VERMASSUNG
100
AcDbCircle
 10
153.7699374205
 20
159.8218710673
 30
0.0
 40
4.248529228887633
100
AcDbArc
 50
333.4349488229
 51
26.5650511771
  0
SOLID
  5
1A7
330
1A2
100
AcDbEntity
  8
VERMASSUNG
100
AcDbTrace
 10
213.8199373854
 20
157.9218708024
 30
0.0
 11
210.8199373854
 21
158.3718708024
 31
0.0
 12
210.8199373854
 22
157.4718708024
 32
0.0
 13
210.8199373854
 23
157.4718708024
 33
0.0
  0
SOLID
  5
1A8
330
1A2
100
AcDbEntity
  8
VERMASSUNG
100
AcDbTrace
 10
95.9199373854
 20
157.9218708024
 30
0.0
 11
98.9199373854
 21
157.4718708024
 31
0.0
 12
98.9199373854
 22
158.3718708024
 32
0.0
 13
98.9199373854
 23
158.3718708024
 33
0.0
  0
LINE
  5
1A9
330
1A2
100
AcDbEntity
  8
VERMASSUNG
100
AcDbLine
 10
213.8199373854
 20
122.9278660367
 30
0.0
 11
213.8199373854
 21
158.9218708024
 31
0.0
  0
LINE
  5
1AA
330
1A2
100
AcDbEntity
  8
VERMASSUNG
100
AcDbLine
 10
95.9199373854
 20
130.3185437832
 30
0.0
 11
95.9199373854
 21
158.9218708024
 31
0.0
  0
LINE
  5
1AB
330
1A2
100
AcDbEntity
  8
VERMASSUNG
100
AcDbLine
 10
213.8199373854
 20
157.9218708024
 30
0.0
 11
95.9199373854
 21
157.9218708024
 31
0.0
  0
MTEXT
  5
1AC
330
1A2
100
AcDbEntity
  8
VERMASSUNG
100
AcDbMText
 10
152.1699373445
 20
160.5000066312
 30
0.0
 40
2.0
 41
0.0
 71
     1
 72
     1
  1
117.9
  7
SLDTEXTSTYLE0
 73
     1
 44
1.0
  0
ENDBLK
  5
1A4
330
1A2
100
AcDbEntity
  8
0
100
AcDbBlockEnd
  0
ENDSEC
  0
SECTION
  2
ENTITIES
  0
MTEXT
  5
78
330
1F
100
AcDbEntity
  8
KOPF_DÜNN
100
AcDbMText
 10
13.8892156294
 20
23.8442973028
 30
0.0
 40
3.0
 41
0.0
 71
     1
 72
     1
  1
A44.806.025.086
  7
SLDTEXTSTYLE0
 73
     1
 44
1.0
  0
MTEXT
  5
79
330
1F
100
AcDbEntity
  8
VERMASSUNG
100
AcDbMText
 10
13.9329988022
 20
28.8834360957
 30
0.0
 40
3.0
 41
0.0
 71
     1
 72
     1
  1
Aufnahme Master shank WH25
  7
SLDTEXTSTYLE0
 73
     1
 44
1.0
  0
MTEXT
  5
7A
330
1F
100
AcDbEntity
  8
VERMASSUNG
100
AcDbMText
 10
98.8601118557
 20
13.8365368761
 30
0.0
 40
2.0
 41
0.0
 71
     1
 72
     1
  1
Datum: 25.11.2011
  7
SLDTEXTSTYLE0
 73
     1
 44
1.0
  0
MTEXT
  5
7B
330
1F
100
AcDbEntity
  8
VERMASSUNG
100
AcDbMText
 10
13.933048693
 20
18.0482802738
 30
0.0
 40
2.0
 41
0.0
 71
     1
 72
     1
  1
DIN 69893
  7
SLDTEXTSTYLE0
 73
     1
 44
1.0
  0
MTEXT
  5
7C
330
1F
100
AcDbEntity
  8
VERMASSUNG
100
AcDbMText
 10
13.9808475933
 20
13.9090974274
 30
0.0
 40
2.0
 41
0.0
 71
     1
 72
     1
  1
Gewicht: 830g
  7
SLDTEXTSTYLE0
 73
     1
 44
1.0
  0
LINE
  5
7D
330
1F
100
AcDbEntity
  8
0
  6
Continuous
 62
     7
370
    15
100
AcDbLine
 10
128.1199373854
 20
79.1278660367
 30
0.0
 11
132.7699373854
 21
79.1278660367
 31
0.0
  0
LINE
  5
7E
330
1F
100
AcDbEntity
  8
0
  6
Continuous
 62
     7
370
    15
100
AcDbLine
 10
132.7792454722
 20
142.1278660367
 30
0.0
 11
128.1199373854
 21
142.1278660367
 31
0.0
  0
ARC
  5
7F
330
1F
100
AcDbEntity
  8
0
  6
Continuous
 62
     7
370
    15
100
AcDbCircle
 10
128.1199373854
 20
79.4278660367
 30
0.0
 40
0.3000000000000114
100
AcDbArc
 50
180.0
 51
270.0
  0
ARC
  5
80
330
1F
100
AcDbEntity
  8
0
  6
Continuous
 62
     7
370
    15
100
AcDbCircle
 10
128.1199373854
 20
141.8278660367
 30
0.0
 40
0.3000000000000114
100
AcDbArc
 50
90.0
 51
180.0
  0
ARC
  5
81
330
1F
100
AcDbEntity
  8
0
  6
Continuous
 62
     7
370
    15
100
AcDbCircle
 10
127.3199306328
 20
86.0574284223
 30
0.0
 40
0.6000067526677242
100
AcDbArc
 50
33.5571153394
 51
90.0
  0
ARC
  5
82
330
1F
100
AcDbEntity
  8
0
  6
Continuous
 62
     7
370
    15
100
AcDbCircle
 10
127.3199306328
 20
135.1983036511
 30
0.0
 40
0.6000067526677203
100
AcDbArc
 50
270.0
 51
326.4428846606
  0
LINE
  5
83
330
1F
100
AcDbEntity
  8
0
  6
Continuous
 62
     7
370
    15
100
AcDbLine
 10
125.8199373854
 20
86.407435175
 30
0.0
 11
126.6766501588
 21
86.6369906707
 31
0.0
  0
LINE
  5
84
330
1F
100
AcDbEntity
  8
0
  6
Continuous
 62
     7
370
    15
100
AcDbLine
 10
126.6766501588
 20
134.6187414026
 30
0.0
 11
125.8199373854
 21
134.8482968984
 31
0.0
  0
LINE
  5
85
330
1F
100
AcDbEntity
  8
0
  6
Continuous
 62
     7
370
    15
100
AcDbLine
 10
114.5884285866
 20
134.2855960568
 30
0.0
 11
102.0199373854
 21
133.6559121289
 31
0.0
  0
LINE
  5
86
330
1F
100
AcDbEntity
  8
0
  6
Continuous
 62
     7
370
    15
100
AcDbLine
 10
125.8199373854
 20
134.8482968984
 30
0.0
 11
123.0029357281
 21
134.7071645509
 31
0.0
  0
LINE
  5
87
330
1F
100
AcDbEntity
  8
0
  6
Continuous
 62
     7
370
    15
100
AcDbLine
 10
123.0029918181
 20
86.5485647124
 30
0.0
 11
125.8199373854
 21
86.407435175
 31
0.0
  0
LINE
  5
88
330
1F
100
AcDbEntity
  8
0
  6
Continuous
 62
     7
370
    15
100
AcDbLine
 10
106.0199373854
 20
87.3994191429
 30
0.0
 11
114.5888311053
 21
86.9701158503
 31
0.0
  0
ARC
  5
89
330
1F
100
AcDbEntity
  8
0
  6
Continuous
 62
     7
370
    15
100
AcDbCircle
 10
126.8319415859
 20
86.057435175
 30
0.0
 40
0.5999999999999943
100
AcDbArc
 50
90.0
 51
105.0
  0
ARC
  5
8A
330
1F
100
AcDbEntity
  8
0
  6
Continuous
 62
     7
370
    15
100
AcDbCircle
 10
126.8319415859
 20
135.1982968984
 30
0.0
 40
0.5999999999999898
100
AcDbArc
 50
255.0
 51
270.0
  0
LINE
  5
8B
330
1F
100
AcDbEntity
  8
0
  6
Continuous
 62
     7
370
    15
100
AcDbLine
 10
126.8319415859
 20
86.657435175
 30
0.0
 11
127.3199306328
 21
86.657435175
 31
0.0
  0
LINE
  5
8C
330
1F
100
AcDbEntity
  8
0
  6
Continuous
 62
     7
370
    15
100
AcDbLine
 10
127.3199306328
 20
134.5982968984
 30
0.0
 11
126.8319415859
 21
134.5982968984
 31
0.0
  0
ARC
  5
8D
330
1F
100
AcDbEntity
  8
0
  6
Continuous
 62
     7
370
    15
100
AcDbCircle
 10
156.7699373854
 20
95.1278660367
 30
0.0
 40
3.0
100
AcDbArc
 50
90.0
 51
180.0
  0
ARC
  5
8E
330
1F
100
AcDbEntity
  8
0
  6
Continuous
 62
     7
370
    15
100
AcDbCircle
 10
156.7699373854
 20
126.1278660367
 30
0.0
 40
3.0
100
AcDbArc
 50
180.0
 51
270.0
  0
LINE
  5
8F
330
1F
100
AcDbEntity
  8
0
  6
Continuous
 62
     7
370
    15
100
AcDbLine
 10
213.6199373854
 20
123.1278660367
 30
0.0
 11
156.7699373854
 21
123.1278660367
 31
0.0
  0
LINE
  5
90
330
1F
100
AcDbEntity
  8
0
  6
Continuous
 62
     7
370
    15
100
AcDbLine
 10
156.7699373854
 20
98.1278660367
 30
0.0
 11
213.6199373854
 21
98.1278660367
 31
0.0
  0
LINE
  5
91
330
1F
100
AcDbEntity
  8
0
  6
Continuous
 62
     7
370
    15
100
AcDbLine
 10
213.6199373854
 20
98.1278660367
 30
0.0
 11
213.8199373854
 21
98.3278660367
 31
0.0
  0
LINE
  5
92
330
1F
100
AcDbEntity
  8
0
  6
Continuous
 62
     7
370
    15
100
AcDbLine
 10
213.8199373854
 20
122.9278660367
 30
0.0
 11
213.6199373854
 21
123.1278660367
 31
0.0
  0
LINE
  5
93
330
1F
100
AcDbEntity
  8
0
  6
Continuous
 62
     7
370
    15
100
AcDbLine
 10
97.2032740254
 20
89.7578660367
 30
0.0
 11
104.6199373854
 21
89.7578660367
 31
0.0
  0
ARC
  5
94
330
1F
100
AcDbEntity
  8
0
  6
Continuous
 62
     7
370
    15
100
AcDbCircle
 10
104.6199373854
 20
88.3578660367
 30
0.0
 40
1.399999999999997
100
AcDbArc
 50
42.2465410162
 51
90.0
  0
LINE
  5
95
330
1F
100
AcDbEntity
  8
0
  6
Continuous
 62
     7
370
    15
100
AcDbLine
 10
95.9310978205
 20
90.8967056016
 30
0.0
 11
97.0611008436
 21
89.7667025785
 31
0.0
  0
LINE
  5
96
330
1F
100
AcDbEntity
  8
0
  6
Continuous
 62
     7
370
    15
100
AcDbLine
 10
97.0611008436
 20
131.4890294949
 30
0.0
 11
95.9298381588
 21
130.3577668101
 31
0.0
  0
ARC
  5
97
330
1F
100
AcDbEntity
  8
0
  6
Continuous
 62
     7
370
    15
100
AcDbCircle
 10
100.6199373854
 20
132.8978660367
 30
0.0
 40
1.40000000000004
100
AcDbArc
 50
270.0
 51
301.7485287426
  0
LINE
  5
98
330
1F
100
AcDbEntity
  8
0
  6
Continuous
 62
     7
370
    15
100
AcDbLine
 10
100.6199373854
 20
131.4978660367
 30
0.0
 11
97.2108257868
 21
131.4978660367
 31
0.0
  0
LINE
  5
99
330
1F
100
AcDbEntity
  8
0
  6
Continuous
 62
     7
370
    15
100
AcDbLine
 10
132.7699373854
 20
130.4778660367
 30
0.0
 11
142.4280045539
 21
130.4778660367
 31
0.0
  0
LINE
  5
9A
330
1F
100
AcDbEntity
  8
0
  6
Continuous
 62
     7
370
    15
100
AcDbLine
 10
142.4280045539
 20
80.4409483404
 30
0.0
 11
142.4280045539
 21
130.4778660367
 31
0.0
  0
LINE
  5
9B
330
1F
100
AcDbEntity
  8
0
  6
Continuous
 62
     7
370
    15
100
AcDbLine
 10
142.4280045539
 20
80.4409483404
 30
0.0
 11
140.7699373854
 21
80.4409483404
 31
0.0
  0
SPLINE
  5
9C
330
1F
100
AcDbEntity
  8
0
  6
Continuous
 62
     7
370
    15
100
AcDbSpline
210
0.0
220
0.0
230
1.0
 70
     8
 71
     3
 72
    28
 73
    24
 74
     0
 42
0.000000001
 43
0.00000001
 40
0.0
 40
0.0
 40
0.0
 40
0.0
 40
0.1249999999999999
 40
0.1249999999999999
 40
0.1874999999999998
 40
0.1874999999999998
 40
0.2499999999999997
 40
0.2499999999999997
 40
0.3749999999999994
 40
0.3749999999999994
 40
0.4374999999999994
 40
0.4374999999999994
 40
0.4999999999999993
 40
0.4999999999999993
 40
0.6249999999999993
 40
0.6249999999999993
 40
0.7499999999999994
 40
0.7499999999999994
 40
0.8124999999999996
 40
0.8124999999999996
 40
0.8749999999999998
 40
0.8749999999999998
 40
1.0
 40
1.0
 40
1.0
 40
1.0
 10
140.7699373854263
 20
80.4409483404497
 30
0.0
 10
140.2382296279334
 20
80.44094834044968
 30
0.0
 10
139.7159910626231
 20
80.42516362649947
 30
0.0
 10
138.9461205763481
 20
80.38016821242324
 30
0.0
 10
138.6917610041567
 20
80.36161321734754
 30
0.0
 10
138.1876394234583
 20
80.31776049490105
 30
0.0
 10
137.9379166060303
 20
80.29241588794883
 30
0.0
 10
137.2123266545839
 20
80.20901381019873
 30
0.0
 10
136.7539663930023
 20
80.14314825104763
 30
0.0
 10
136.1034684496085
 20
80.03417791055587
 30
0.0
 10
135.891786398816
 20
79.99593827478921
 30
0.0
 10
135.487714909678
 20
79.91817953736987
 30
0.0
 10
135.2952083958571
 20
79.87867857519451
 30
0.0
 10
134.7453734248359
 20
79.75977083282851
 30
0.0
 10
134.4154446465271
 20
79.6799531514039
 30
0.0
 10
133.8309733779584
 20
79.52660998960783
 30
0.0
 10
133.5846962399449
 20
79.45527623633858
 30
0.0
 10
133.2848534472469
 20
79.36133272926396
 30
0.0
 10
133.1963965901747
 20
79.33213893590403
 30
0.0
 10
133.0430352368695
 20
79.27867236164063
 30
0.0
 10
132.9779470226433
 20
79.25431302736544
 30
0.0
 10
132.8223530067025
 20
79.19072288192069
 30
0.0
 10
132.7699373854263
 20
79.16061994683145
 30
0.0
 10
132.7699373854263
 20
79.14374305383453
 30
0.0
  0
LINE
  5
9D
330
1F
100
AcDbEntity
  8
0
  6
Continuous
 62
     7
370
    15
100
AcDbLine
 10
132.7699373854
 20
79.1437430538
 30
0.0
 11
132.7699373854
 21
79.1278660367
 31
0.0
  0
SPLINE
  5
9E
330
1F
100
AcDbEntity
  8
0
  6
Continuous
 62
     7
370
    15
100
AcDbSpline
210
0.0
220
0.0
230
1.0
 70
     8
 71
     3
 72
    23
 73
    19
 74
     0
 42
0.000000001
 43
0.00000001
 40
0.0
 40
0.0
 40
0.0
 40
0.0
 40
0.0515724296480753
 40
0.1035128650983393
 40
0.1566067500335009
 40
0.2100949286519371
 40
0.2616654036237062
 40
0.3665027014082689
 40
0.4198778699160445
 40
0.4725030803469231
 40
0.579488918922069
 40
0.6339745679861352
 40
0.6872968049651403
 40
0.7409987804351849
 40
0.7959163038130198
 40
0.8512622960700938
 40
0.9034562616144441
 40
1.0
 40
1.0
 40
1.0
 40
1.0
 10
140.7699373854263
 20
141.0950615098611
 30
0.0
 10
140.5530811449232
 20
141.0964023485514
 30
0.0
 10
140.1178212410925
 20
141.0990935937654
 30
0.0
 10
139.463968375615
 20
141.1208783725102
 30
0.0
 10
138.8116535279259
 20
141.1555757398052
 30
0.0
 10
138.1751900527918
 20
141.2032527192221
 30
0.0
 10
137.3555327408109
 20
141.2811865378467
 30
0.0
 10
136.5797135224333
 20
141.3781041728249
 30
0.0
 10
135.8622299304388
 20
141.4863578383715
 30
0.0
 10
135.1829639813787
 20
141.6000776290473
 30
0.0
 10
134.5746495236935
 20
141.716577200062
 30
0.0
 10
134.0545574959476
 20
141.8256775541762
 30
0.0
 10
133.7106673355068
 20
141.9016814315193
 30
0.0
 10
133.4157136031304
 20
141.9697148929272
 30
0.0
 10
133.1699393170672
 20
142.0284279421775
 30
0.0
 10
132.9840370077526
 20
142.0740433225139
 30
0.0
 10
132.8124404021295
 20
142.1170027739557
 30
0.0
 10
132.792311126933
 20
142.1221637957816
 30
0.0
 10
132.7792454722461
 20
142.1255137489395
 30
0.0
  0
LINE
  5
9F
330
1F
100
AcDbEntity
  8
0
  6
Continuous
 62
     7
370
    15
100
AcDbLine
 10
142.4280045539
 20
141.0950615099
 30
0.0
 11
140.7699373854
 21
141.0950615099
 31
0.0
  0
LINE
  5
A0
330
1F
100
AcDbEntity
  8
0
  6
Continuous
 62
     7
370
    15
100
AcDbLine
 10
142.4280045539
 20
135.0865556991
 30
0.0
 11
142.4280045539
 21
141.0950615099
 31
0.0
  0
LINE
  5
A1
330
1F
100
AcDbEntity
  8
0
  6
Continuous
 62
     7
370
    15
100
AcDbLine
 10
140.0155577311
 20
135.0865556991
 30
0.0
 11
142.4280045539
 21
135.0865556991
 31
0.0
  0
SPLINE
  5
A2
330
1F
100
AcDbEntity
  8
0
  6
Continuous
 62
     7
370
    15
100
AcDbSpline
210
0.0
220
0.0
230
1.0
 70
     8
 71
     3
 72
    20
 73
    16
 74
     0
 42
0.000000001
 43
0.00000001
 40
0.0
 40
0.0
 40
0.0
 40
0.0
 40
0.2500000000000005
 40
0.2500000000000005
 40
0.3750000000000004
 40
0.3750000000000004
 40
0.5000000000000003
 40
0.5000000000000003
 40
0.6250000000000002
 40
0.6250000000000002
 40
0.7500000000000001
 40
0.7500000000000001
 40
0.8750000000000001
 40
0.8750000000000001
 40
1.0
 40
1.0
 40
1.0
 40
1.0
 10
132.7699373854263
 20
130.4778660366969
 30
0.0
 10
133.0183111197144
 20
131.1317284649943
 30
0.0
 10
133.3378812120597
 20
131.7355142469914
 30
0.0
 10
133.9601874452644
 20
132.56235298316
 30
0.0
 10
134.1916117056951
 20
132.8247816211129
 30
0.0
 10
134.7128260453448
 20
133.3214442752179
 30
0.0
 10
134.9994465279799
 20
133.5520311542394
 30
0.0
 10
135.6189312692875
 20
133.9685853788221
 30
0.0
 10
135.9532316487744
 20
134.1560831807896
 30
0.0
 10
136.6784921213993
 20
134.487480158426
 30
0.0
 10
137.0604071787897
 20
134.6269841459213
 30
0.0
 10
137.8551953549614
 20
134.8524376533922
 30
0.0
 10
138.2693535491678
 20
134.9390637649359
 30
0.0
 10
139.1348998897492
 20
135.05704455379
 30
0.0
 10
139.572787504761
 20
135.0865556990643
 30
0.0
 10
140.0155577311156
 20
135.0865556990643
 30
0.0
  0
LINE
  5
A3
330
1F
100
AcDbEntity
  8
0
  6
Continuous
 62
     7
370
    15
100
AcDbLine
 10
143.9099373854
 20
83.1300288776
 30
0.0
 11
143.9099373854
 21
130.4778660367
 31
0.0
  0
SPLINE
  5
A4
330
1F
100
AcDbEntity
  8
0
  6
Continuous
 62
     7
370
    15
100
AcDbSpline
210
0.0
220
0.0
230
1.0
 70
     8
 71
     3
 72
     8
 73
     4
 74
     0
 42
0.000000001
 43
0.00000001
 40
0.0
 40
0.0
 40
0.0
 40
0.0
 40
1.0
 40
1.0
 40
1.0
 40
1.0
 10
143.9099373854263
 20
83.13002887764198
 30
0.0
 10
143.4175982626452
 20
82.23275884343528
 30
0.0
 10
142.923484214603
 20
81.33647442838304
 30
0.0
 10
142.4280045539373
 20
80.44094834044968
 30
0.0
  0
SPLINE
  5
A5
330
1F
100
AcDbEntity
  8
0
  6
Continuous
 62
     7
370
    15
100
AcDbSpline
210
0.0
220
0.0
230
1.0
 70
    24
 71
     3
 72
     8
 73
     4
 74
     0
 42
0.000000001
 43
0.00000001
 40
0.0
 40
0.0
 40
0.0
 40
0.0
 40
1.0
 40
1.0
 40
1.0
 40
1.0
 10
142.4280045539373
 20
130.4778660366969
 30
0.0
 10
142.9346846620878
 20
130.4778660366969
 30
0.0
 10
143.4299853910615
 20
130.4778660366969
 30
0.0
 10
143.9099373854263
 20
130.4778660366969
 30
0.0
  0
LINE
  5
A6
330
1F
100
AcDbEntity
  8
0
  6
Continuous
 62
     7
370
    15
100
AcDbLine
 10
127.8199373854
 20
79.4278660367
 30
0.0
 11
127.8199373854
 21
141.82786603
 31
0.0
  0
LINE
  5
A7
330
1F
100
AcDbEntity
  8
0
  6
Continuous
 62
     7
370
    15
100
AcDbLine
 10
149.2118702169
 20
80.4409483404
 30
0.0
 11
149.2118702169
 21
130.4778660367
 31
0.0
  0
SPLINE
  5
A8
330
1F
100
AcDbEntity
  8
0
  6
Continuous
 62
     7
370
    15
100
AcDbSpline
210
0.0
220
0.0
230
1.0
 70
     8
 71
     3
 72
     8
 73
     4
 74
     0
 42
0.000000001
 43
0.00000001
 40
0.0
 40
0.0
 40
0.0
 40
0.0
 40
1.0
 40
1.0
 40
1.0
 40
1.0
 10
149.2118702169154
 20
80.4409483404497
 30
0.0
 10
148.7163905562496
 20
81.33647442838304
 30
0.0
 10
148.2222765082075
 20
82.23275884343529
 30
0.0
 10
147.7299373854263
 20
83.13002887764198
 30
0.0
  0
LINE
  5
A9
330
1F
100
AcDbEntity
  8
0
  6
Continuous
 62
     7
370
    15
100
AcDbLine
 10
147.7299373854
 20
83.1300288776
 30
0.0
 11
147.7299373854
 21
130.4778660367
 31
0.0
  0
SPLINE
  5
AA
330
1F
100
AcDbEntity
  8
0
  6
Continuous
 62
     7
370
    15
100
AcDbSpline
210
0.0
220
0.0
230
1.0
 70
    24
 71
     3
 72
     8
 73
     4
 74
     0
 42
0.000000001
 43
0.00000001
 40
0.0
 40
0.0
 40
0.0
 40
0.0
 40
1.0
 40
1.0
 40
1.0
 40
1.0
 10
147.7299373854263
 20
130.4778660366969
 30
0.0
 10
148.2098893797912
 20
130.4778660366969
 30
0.0
 10
148.7051901087649
 20
130.4778660366969
 30
0.0
 10
149.2118702169154
 20
130.4778660366969
 30
0.0
  0
LINE
  5
AB
330
1F
100
AcDbEntity
  8
0
  6
Continuous
 62
     7
370
    15
100
AcDbLine
 10
153.1699373854
 20
80.4409483404
 30
0.0
 11
149.2118702169
 21
80.4409483404
 31
0.0
  0
LINE
  5
AC
330
1F
100
AcDbEntity
  8
0
  6
Continuous
 62
     7
370
    15
100
AcDbLine
 10
149.2118702169
 20
130.4778660367
 30
0.0
 11
153.1699373854
 21
130.4778660367
 31
0.0
  0
LINE
  5
AD
330
1F
100
AcDbEntity
  8
0
  6
Continuous
 62
     7
370
    15
100
AcDbLine
 10
153.7699373854
 20
81.0675886361
 30
0.0
 11
153.7699373854
 21
130.4778660367
 31
0.0
  0
SPLINE
  5
AE
330
1F
100
AcDbEntity
  8
0
  6
Continuous
 62
     7
370
    15
100
AcDbSpline
210
0.0
220
0.0
230
1.0
 70
     8
 71
     3
 72
    10
 73
     6
 74
     0
 42
0.000000001
 43
0.00000001
 40
0.0
 40
0.0
 40
0.0
 40
0.0
 40
0.5
 40
0.5
 40
1.0
 40
1.0
 40
1.0
 40
1.0
 10
153.7699373854263
 20
81.06758863610402
 30
0.0
 10
153.7699373854263
 20
80.90770136791035
 30
0.0
 10
153.7086277341905
 20
80.74657411239576
 30
0.0
 10
153.4895280966554
 20
80.51247511404092
 30
0.0
 10
153.331479890342
 20
80.4409483404497
 30
0.0
 10
153.1699373854263
 20
80.4409483404497
 30
0.0
  0
SPLINE
  5
AF
330
1F
100
AcDbEntity
  8
0
  6
Continuous
 62
     7
370
    15
100
AcDbSpline
210
0.0
220
0.0
230
1.0
 70
    24
 71
     3
 72
    12
 73
     8
 74
     0
 42
0.000000001
 43
0.00000001
 40
0.0
 40
0.0
 40
0.0
 40
0.0
 40
0.2500000000000033
 40
0.2500000000000033
 40
0.5000000000000067
 40
0.5000000000000067
 40
1.0
 40
1.0
 40
1.0
 40
1.0
 10
153.1699373854263
 20
130.4778660366969
 30
0.0
 10
153.2601764531134
 20
130.4778660366969
 30
0.0
 10
153.3510745672199
 20
130.4778660366969
 30
0.0
 10
153.5056716037084
 20
130.4778660366969
 30
0.0
 10
153.5706500198165
 20
130.4778660366969
 30
0.0
 10
153.7224850477528
 20
130.4778660366969
 30
0.0
 10
153.7699373854263
 20
130.4778660366969
 30
0.0
 10
153.7699373854263
 20
130.4778660366969
 30
0.0
  0
SPLINE
  5
B0
330
1F
100
AcDbEntity
  8
0
  6
Continuous
 62
     7
370
    15
100
AcDbSpline
210
0.0
220
0.0
230
1.0
 70
    24
 71
     3
 72
    14
 73
    10
 74
     0
 42
0.000000001
 43
0.00000001
 40
0.0
 40
0.0
 40
0.0
 40
0.0
 40
0.4999999999999982
 40
0.4999999999999982
 40
0.7499999999999973
 40
0.7499999999999973
 40
0.8749999999999987
 40
0.8749999999999987
 40
1.0
 40
1.0
 40
1.0
 40
1.0
 10
147.6322625830941
 20
84.22786603669685
 30
0.0
 10
147.5850524238643
 20
84.22786603669685
 30
0.0
 10
147.5218179503206
 20
84.22786603669687
 30
0.0
 10
147.3780060195927
 20
84.22786603669685
 30
0.0
 10
147.3226809451163
 20
84.22786603669685
 30
0.0
 10
147.2107697718812
 20
84.22786603669685
 30
0.0
 10
147.1679826854402
 20
84.22786603669685
 30
0.0
 10
147.0636173524066
 20
84.22786603669685
 30
0.0
 10
146.9993935581049
 20
84.22786603669685
 30
0.0
 10
146.9299373854818
 20
84.22786603669685
 30
0.0
  0
SPLINE
  5
B1
330
1F
100
AcDbEntity
  8
0
  6
Continuous
 62
     7
370
    15
100
AcDbSpline
210
0.0
220
0.0
230
1.0
 70
    24
 71
     3
 72
    12
 73
     8
 74
     0
 42
0.000000001
 43
0.00000001
 40
0.0
 40
0.0
 40
0.0
 40
0.0
 40
0.4999999999999983
 40
0.4999999999999983
 40
0.7499999999999991
 40
0.7499999999999991
 40
1.0
 40
1.0
 40
1.0
 40
1.0
 10
147.3356398537356
 20
137.0278660366969
 30
0.0
 10
147.2922016659327
 20
137.0278660366969
 30
0.0
 10
147.2430074176346
 20
137.0278660366969
 30
0.0
 10
147.1462886602536
 20
137.0278660366969
 30
0.0
 10
147.1101011787519
 20
137.0278660366969
 30
0.0
 10
147.0272233202272
 20
137.0278660366969
 30
0.0
 10
146.9792698729204
 20
137.0278660366969
 30
0.0
 10
146.9299373854264
 20
137.0278660366969
 30
0.0
  0
SPLINE
  5
B2
330
1F
100
AcDbEntity
  8
0
  6
Continuous
 62
     7
370
    15
100
AcDbSpline
210
0.0
220
0.0
230
1.0
 70
     8
 71
     3
 72
    10
 73
     6
 74
     0
 42
0.000000001
 43
0.00000001
 40
0.0
 40
0.0
 40
0.0
 40
0.0
 40
0.5
 40
0.5
 40
1.0
 40
1.0
 40
1.0
 40
1.0
 10
147.7299373854263
 20
137.7475198877326
 30
0.0
 10
147.7299373854263
 20
137.6037498299148
 30
0.0
 10
147.6938883267076
 20
137.4613304674199
 30
0.0
 10
147.5583794659339
 20
137.2114361740629
 30
0.0
 10
147.4585034728381
 20
137.1034058378148
 30
0.0
 10
147.3356398537365
 20
137.0278660366975
 30
0.0
  0
SPLINE
  5
B3
330
1F
100
AcDbEntity
  8
0
  6
Continuous
 62
     7
370
    15
100
AcDbSpline
210
0.0
220
0.0
230
1.0
 70
     8
 71
     3
 72
     9
 73
     5
 74
     0
 42
0.000000001
 43
0.00000001
 40
0.0
 40
0.0
 40
0.0
 40
0.0
 40
0.5
 40
1.0
 40
1.0
 40
1.0
 40
1.0
 10
147.7037897622662
 20
130.4778660366969
 30
0.0
 10
147.7125283321486
 20
130.5250088370322
 30
0.0
 10
147.725547618485
 20
130.6198049187028
 30
0.0
 10
147.7299373854263
 20
130.7155891902632
 30
0.0
 10
147.7299373854263
 20
130.7637326681582
 30
0.0
  0
SPLINE
  5
B4
330
1F
100
AcDbEntity
  8
0
  6
Continuous
 62
     7
370
    15
100
AcDbSpline
210
0.0
220
0.0
230
1.0
 70
     8
 71
     3
 72
    10
 73
     6
 74
     0
 42
0.000000001
 43
0.00000001
 40
0.0
 40
0.0
 40
0.0
 40
0.0
 40
0.5
 40
0.5
 40
1.0
 40
1.0
 40
1.0
 40
1.0
 10
144.3042349171173
 20
137.0278660366969
 30
0.0
 10
144.1826946534488
 20
137.1025922039086
 30
0.0
 10
144.0813602930999
 20
137.2115372198254
 30
0.0
 10
143.9457213502114
 20
137.461967700587
 30
0.0
 10
143.9099373854263
 20
137.6043870626859
 30
0.0
 10
143.9099373854263
 20
137.7475198877326
 30
0.0
  0
SPLINE
  5
B5
330
1F
100
AcDbEntity
  8
0
  6
Continuous
 62
     7
370
    15
100
AcDbSpline
210
0.0
220
0.0
230
1.0
 70
    24
 71
     3
 72
    12
 73
     8
 74
     0
 42
0.000000001
 43
0.00000001
 40
0.0
 40
0.0
 40
0.0
 40
0.0
 40
0.2500000000000021
 40
0.2500000000000021
 40
0.5000000000000041
 40
0.5000000000000041
 40
1.0
 40
1.0
 40
1.0
 40
1.0
 10
144.7099373854263
 20
137.0278660366969
 30
0.0
 10
144.6600607031089
 20
137.0278660366969
 30
0.0
 10
144.6120575097053
 20
137.0278660366969
 30
0.0
 10
144.5290094069933
 20
137.0278660366969
 30
0.0
 10
144.4928798275255
 20
137.0278660366969
 30
0.0
 10
144.3969677965813
 20
137.0278660366969
 30
0.0
 10
144.3472091286125
 20
137.0278660366969
 30
0.0
 10
144.3042349171173
 20
137.0278660366969
 30
0.0
  0
SPLINE
  5
B6
330
1F
100
AcDbEntity
  8
0
  6
Continuous
 62
     7
370
    15
100
AcDbSpline
210
0.0
220
0.0
230
1.0
 70
    24
 71
     3
 72
    14
 73
    10
 74
     0
 42
0.000000001
 43
0.00000001
 40
0.0
 40
0.0
 40
0.0
 40
0.0
 40
0.1249999999999983
 40
0.1249999999999983
 40
0.2499999999999967
 40
0.2499999999999967
 40
0.4999999999999968
 40
0.4999999999999968
 40
1.0
 40
1.0
 40
1.0
 40
1.0
 10
144.7099373854263
 20
84.22786603669685
 30
0.0
 10
144.6414995375399
 20
84.22786603669687
 30
0.0
 10
144.5759494987748
 20
84.22786603669687
 30
0.0
 10
144.4715228593669
 20
84.22786603669685
 30
0.0
 10
144.4289782496055
 20
84.22786603669687
 30
0.0
 10
144.3163687890652
 20
84.22786603669687
 30
0.0
 10
144.2608297420457
 20
84.22786603669685
 30
0.0
 10
144.1182180465819
 20
84.22786603669685
 30
0.0
 10
144.0548126915862
 20
84.22786603669685
 30
0.0
 10
144.0076121877586
 20
84.22786603669685
 30
0.0
  0
SPLINE
  5
B7
330
1F
100
AcDbEntity
  8
0
  6
Continuous
 62
     7
370
    15
100
AcDbSpline
210
0.0
220
0.0
230
1.0
 70
     8
 71
     3
 72
    10
 73
     6
 74
     0
 42
0.000000001
 43
0.00000001
 40
0.0
 40
0.0
 40
0.0
 40
0.0
 40
0.5
 40
0.5
 40
1.0
 40
1.0
 40
1.0
 40
1.0
 10
143.9099373854263
 20
130.7637326681582
 30
0.0
 10
143.9099373854263
 20
130.7159611601649
 30
0.0
 10
143.9120986290235
 20
130.6682514381033
 30
0.0
 10
143.9207700028837
 20
130.572956320555
 30
0.0
 10
143.9272991858396
 20
130.5252637565883
 30
0.0
 10
143.9360850085865
 20
130.4778660366969
 30
0.0
  0
LINE
  5
B8
330
1F
100
AcDbEntity
  8
0
  6
Continuous
 62
     7
370
    15
100
AcDbLine
 10
146.9299373854
 20
137.0278660367
 30
0.0
 11
144.7099373854
 21
137.0278660367
 31
0.0
  0
LINE
  5
B9
330
1F
100
AcDbEntity
  8
0
  6
Continuous
 62
     7
370
    15
100
AcDbLine
 10
146.9299373854
 20
84.2278660367
 30
0.0
 11
144.7099373854
 21
84.2278660367
 31
0.0
  0
LINE
  5
BA
330
1F
100
AcDbEntity
  8
0
  6
Continuous
 62
     7
370
    15
100
AcDbLine
 10
125.8199373854
 20
86.407435175
 30
0.0
 11
125.8199373854
 21
134.8482968984
 31
0.0
  0
LINE
  5
BB
330
1F
100
AcDbEntity
  8
0
  6
Continuous
 62
     7
370
    15
100
AcDbLine
 10
106.0199373854
 20
87.3994191429
 30
0.0
 11
106.0199373854
 21
88.6641285055
 31
0.0
  0
SPLINE
  5
BC
330
1F
100
AcDbEntity
  8
0
  6
Continuous
 62
     7
370
    15
100
AcDbSpline
210
0.0
220
0.0
230
1.0
 70
     8
 71
     3
 72
    14
 73
    10
 74
     0
 42
0.000000001
 43
0.00000001
 40
0.0
 40
0.0
 40
0.0
 40
0.0
 40
0.25
 40
0.25
 40
0.5
 40
0.5
 40
0.75
 40
0.75
 40
1.0
 40
1.0
 40
1.0
 40
1.0
 10
105.2416502675106
 20
89.79471471313691
 30
0.0
 10
105.2982769427127
 20
89.68701725930005
 30
0.0
 10
105.3927996030024
 20
89.58422767758073
 30
0.0
 10
105.5758445785647
 20
89.38587036536057
 30
0.0
 10
105.6674711555194
 20
89.28981085668234
 30
0.0
 10
105.8263244732126
 20
89.1022818139731
 30
0.0
 10
105.8942150808343
 20
89.01087284118952
 30
0.0
 10
105.9911321065419
 20
88.83249662027939
 30
0.0
 10
106.0199373854269
 20
88.7452747140332
 30
0.0
 10
106.0199373854269
 20
88.66412850549895
 30
0.0
  0
SPLINE
  5
BD
330
1F
100
AcDbEntity
  8
0
  6
Continuous
 62
     7
370
    15
100
AcDbSpline
210
0.0
220
0.0
230
1.0
 70
     8
 71
     3
 72
    14
 73
    10
 74
     0
 42
0.000000001
 43
0.00000001
 40
0.0
 40
0.0
 40
0.0
 40
0.0
 40
0.1249999999999979
 40
0.1249999999999979
 40
0.2499999999999958
 40
0.2499999999999958
 40
0.4999999999999948
 40
0.4999999999999948
 40
1.0
 40
1.0
 40
1.0
 40
1.0
 10
104.6199373854264
 20
90.24139657541622
 30
0.0
 10
104.6684817940835
 20
90.24714488869651
 30
0.0
 10
104.7213971488684
 20
90.24404400004028
 30
0.0
 10
104.8166924938514
 20
90.22184915587795
 30
0.0
 10
104.8569434911364
 20
90.20461692878209
 30
0.0
 10
104.9612135046494
 20
90.14828901233004
 30
0.0
 10
105.0115354798027
 20
90.10410266638424
 30
0.0
 10
105.1392184273281
 20
89.97309476753361
 30
0.0
 10
105.1953038743904
 20
89.88286024730333
 30
0.0
 10
105.2416502675121
 20
89.79471471313744
 30
0.0
  0
SPLINE
  5
BE
330
1F
100
AcDbEntity
  8
0
  6
Continuous
 62
     7
370
    15
100
AcDbSpline
210
0.0
220
0.0
230
1.0
 70
     8
 71
     3
 72
     8
 73
     4
 74
     0
 42
0.000000001
 43
0.00000001
 40
0.0
 40
0.0
 40
0.0
 40
0.0
 40
1.0
 40
1.0
 40
1.0
 40
1.0
 10
102.3514122924802
 20
89.93155128883343
 30
0.0
 10
103.0859893189631
 20
90.05017629990239
 30
0.0
 10
103.8494643883588
 20
90.15016217203868
 30
0.0
 10
104.6199373854264
 20
90.24139657541622
 30
0.0
  0
SPLINE
  5
BF
330
1F
100
AcDbEntity
  8
0
  6
Continuous
 62
     7
370
    15
100
AcDbSpline
210
0.0
220
0.0
230
1.0
 70
     8
 71
     3
 72
    14
 73
    10
 74
     0
 42
0.000000001
 43
0.00000001
 40
0.0
 40
0.0
 40
0.0
 40
0.0
 40
0.5000000000000019
 40
0.5000000000000019
 40
0.7500000000000018
 40
0.7500000000000018
 40
0.875000000000001
 40
0.875000000000001
 40
1.0
 40
1.0
 40
1.0
 40
1.0
 10
97.06993738542636
 20
89.7579282713018
 30
0.0
 10
97.96208351597993
 20
89.75720604510114
 30
0.0
 10
98.85205995177353
 20
89.7617922515586
 30
0.0
 10
100.1786551188492
 20
89.78951725595013
 30
0.0
 10
100.6195020473479
 20
89.80212379357431
 30
0.0
 10
101.2759422847703
 20
89.83313994158175
 30
0.0
 10
101.4939559413622
 20
89.84548311420853
 30
0.0
 10
101.926664795045
 20
89.87850716937182
 30
0.0
 10
102.1419412602098
 20
89.89772433451026
 30
0.0
 10
102.3514122924802
 20
89.93155128883343
 30
0.0
  0
SPLINE
  5
C0
330
1F
100
AcDbEntity
  8
0
  6
Continuous
 62
     7
370
    15
100
AcDbSpline
210
0.0
220
0.0
230
1.0
 70
     8
 71
     3
 72
     8
 73
     4
 74
     0
 42
0.000000001
 43
0.00000001
 40
0.0000005163856998
 40
0.0000005163856998
 40
0.0000005163856998
 40
0.0000005163856998
 40
0.000026289209185
 40
0.000026289209185
 40
0.000026289209185
 40
0.000026289209185
 10
97.05989245501874
 20
89.76791214439857
 30
0.0
 10
97.06322019322657
 20
89.76457789752945
 30
0.0
 10
97.06656864620217
 20
89.76124994025415
 30
0.0
 10
97.06993738542633
 20
89.75792827130178
 30
0.0
  0
SPLINE
  5
C1
330
1F
100
AcDbEntity
  8
0
  6
Continuous
 62
     7
370
    15
100
AcDbSpline
210
0.0
220
0.0
230
1.0
 70
     8
 71
     3
 72
     8
 73
     4
 74
     0
 42
0.000000001
 43
0.00000001
 40
0.0000005099763573
 40
0.0000005099763573
 40
0.0000005099763573
 40
0.0000005099763573
 40
0.0000262827998699
 40
0.0000262827998699
 40
0.0000262827998699
 40
0.0000262827998699
 10
97.06993738542633
 20
131.4978038020919
 30
0.0
 10
97.06656864619859
 20
131.494482133136
 30
0.0
 10
97.06322019321945
 20
131.4911541758572
 30
0.0
 10
97.05989245500811
 20
131.4878199289845
 30
0.0
  0
SPLINE
  5
C2
330
1F
100
AcDbEntity
  8
0
  6
Continuous
 62
     7
370
    15
100
AcDbSpline
210
0.0
220
0.0
230
1.0
 70
     8
 71
     3
 72
    10
 73
     6
 74
     0
 42
0.000000001
 43
0.00000001
 40
0.0
 40
0.0
 40
0.0
 40
0.0
 40
0.5
 40
0.5
 40
1.0
 40
1.0
 40
1.0
 40
1.0
 10
100.6199373854264
 20
131.4509534285246
 30
0.0
 10
100.0323518383358
 20
131.472018948761
 30
0.0
 10
99.44160544487538
 20
131.4827774346332
 30
0.0
 10
98.25758627957653
 20
131.4961422151689
 30
0.0
 10
97.66417229137106
 20
131.4982848578335
 30
0.0
 10
97.06993738542636
 20
131.4978038020919
 30
0.0
  0
SPLINE
  5
C3
330
1F
100
AcDbEntity
  8
0
  6
Continuous
 62
     7
370
    15
100
AcDbSpline
210
0.0
220
0.0
230
1.0
 70
     8
 71
     3
 72
    18
 73
    14
 74
     0
 42
0.000000001
 43
0.00000001
 40
0.0
 40
0.0
 40
0.0
 40
0.0
 40
0.2499999999999996
 40
0.2499999999999996
 40
0.5
 40
0.5
 40
0.7500000000000003
 40
0.7500000000000003
 40
0.8750000000000002
 40
0.8750000000000002
 40
0.9375000000000001
 40
0.9375000000000001
 40
1.0
 40
1.0
 40
1.0
 40
1.0
 10
102.0199373854264
 20
132.4719737090599
 30
0.0
 10
102.0199373854264
 20
132.3887668002026
 30
0.0
 10
101.9840882854881
 20
132.3000301448891
 30
0.0
 10
101.8592165494542
 20
132.1179049543288
 30
0.0
 10
101.7688161318063
 20
132.0227749057022
 30
0.0
 10
101.5465734770641
 20
131.8335933965779
 30
0.0
 10
101.4168086906184
 20
131.7386482284832
 30
0.0
 10
101.1761712333069
 20
131.6003695209033
 30
0.0
 10
101.0884039351694
 20
131.5546590876009
 30
0.0
 10
100.9338798479626
 20
131.4968357823794
 30
0.0
 10
100.8772689619078
 20
131.4791210183415
 30
0.0
 10
100.7532249310012
 20
131.4545817151086
 30
0.0
 10
100.685510255983
 20
131.4486025765704
 30
0.0
 10
100.6199373854264
 20
131.4509534285246
 30
0.0
  0
LINE
  5
C4
330
1F
100
AcDbEntity
  8
0
  6
Continuous
 62
     7
370
    15
100
AcDbLine
 10
102.0199373854
 20
132.4719737091
 30
0.0
 11
102.0199373854
 21
133.6559121289
 31
0.0
  0
SPLINE
  5
C5
330
1F
100
AcDbEntity
  8
0
  6
Continuous
 62
     7
370
    15
100
AcDbSpline
210
0.0
220
0.0
230
1.0
 70
     8
 71
     3
 72
    24
 73
    20
 74
     0
 42
0.000000001
 43
0.00000001
 40
0.0
 40
0.0
 40
0.0
 40
0.0
 40
0.0010489762969683
 40
0.0637843125635315
 40
0.1272220590447826
 40
0.1903788924482514
 40
0.2526748653693586
 40
0.3146354154423437
 40
0.3770891997149696
 40
0.4393540298504715
 40
0.5008133242537849
 40
0.5621845104596535
 40
0.6248438451115941
 40
0.6874304766625864
 40
0.7496743174679406
 40
0.8119848426972686
 40
0.8750960525413011
 40
0.9384412526960678
 40
0.9999999999999999
 40
0.9999999999999999
 40
0.9999999999999999
 40
0.9999999999999999
 10
114.588843217402
 20
86.97035760811673
 30
0.0
 10
114.5883967572978
 20
86.97029932229782
 30
0.0
 10
114.5612491936042
 20
86.96675518035548
 30
0.0
 10
114.6568609712181
 20
86.9795889250379
 30
0.0
 10
114.8904212291105
 20
87.00883561023807
 30
0.0
 10
115.2859755364279
 20
87.05544993330098
 30
0.0
 10
115.8130158402651
 20
87.10563307496022
 30
0.0
 10
116.4565462522555
 20
87.1500095374102
 30
0.0
 10
117.1952201074955
 20
87.17695431834818
 30
0.0
 10
117.9927346129294
 20
87.18042616905505
 30
0.0
 10
118.8193134953762
 20
87.15279892502444
 30
0.0
 10
119.6448365129877
 20
87.09432003605176
 30
0.0
 10
120.4369630609915
 20
87.00887500669042
 30
0.0
 10
121.1695353349905
 20
86.90714076685411
 30
0.0
 10
121.8051755717197
 20
86.79929764488196
 30
0.0
 10
122.3270866787245
 20
86.6976674881432
 30
0.0
 10
122.7087154558413
 20
86.61518233146512
 30
0.0
 10
122.9595299260778
 20
86.55903312511518
 30
0.0
 10
122.9886514820612
 20
86.55218366650143
 30
0.0
 10
123.003004002877
 20
86.54880791977324
 30
0.0
  0
SPLINE
  5
C6
330
1F
100
AcDbEntity
  8
0
  6
Continuous
 62
     7
370
    15
100
AcDbSpline
210
0.0
220
0.0
230
1.0
 70
     8
 71
     3
 72
    24
 73
    20
 74
     0
 42
0.000000001
 43
0.00000001
 40
0.0
 40
0.0
 40
0.0
 40
0.0
 40
0.0614384276249444
 40
0.1250736755369608
 40
0.1884253490728071
 40
0.2508623904037412
 40
0.3129665632509547
 40
0.3753451453465095
 40
0.4377328972323699
 40
0.4990927322917189
 40
0.5605807588447941
 40
0.6229469893028794
 40
0.6854686282026514
 40
0.7475477813740068
 40
0.809822506080335
 40
0.8730684085990212
 40
0.9364041844534696
 40
0.9991757196257863
 40
0.9999999999999999
 40
0.9999999999999999
 40
0.9999999999999999
 40
0.9999999999999999
 10
123.0029492320741
 20
134.7068950111542
 30
0.0
 10
122.9883485077706
 20
134.7035269543017
 30
0.0
 10
122.9586249890425
 20
134.6966704108279
 30
0.0
 10
122.7058871733944
 20
134.640331790302
 30
0.0
 10
122.3228912569448
 20
134.557474708172
 30
0.0
 10
121.8005356725082
 20
134.4555676782208
 30
0.0
 10
121.1657511945078
 20
134.3477285391769
 30
0.0
 10
120.4355275903359
 20
134.2462615872018
 30
0.0
 10
119.6450590051013
 20
134.161201873511
 30
0.0
 10
118.8205754902729
 20
134.1029975796247
 30
0.0
 10
117.9935390313888
 20
134.0754141407979
 30
0.0
 10
117.195214763737
 20
134.0789071182908
 30
0.0
 10
116.4553907994481
 20
134.105863038144
 30
0.0
 10
115.8111365664733
 20
134.1502169801431
 30
0.0
 10
115.283729311258
 20
134.2004224299011
 30
0.0
 10
114.8890647091074
 20
134.2470322850994
 30
0.0
 10
114.656535429918
 20
134.2762278776467
 30
0.0
 10
114.5611553973699
 20
134.2890059465882
 30
0.0
 10
114.5880890342709
 20
134.2854516880803
 30
0.0
 10
114.5884381274953
 20
134.2854056204969
 30
0.0
  0
SPLINE
  5
C7
330
1F
100
AcDbEntity
  8
0
  6
Continuous
 62
     7
370
    15
100
AcDbSpline
210
0.0
220
0.0
230
1.0
 70
     8
 71
     3
 72
    10
 73
     6
 74
     0
 42
0.000000001
 43
0.00000001
 40
0.0
 40
0.0
 40
0.0
 40
0.0
 40
0.0840381716606343
 40
0.7011125076932975
 40
1.0
 40
1.0
 40
1.0
 40
1.0
 10
95.93348434796202
 20
90.89909212901352
 30
0.0
 10
95.93415890529694
 20
90.89688650217762
 30
0.0
 10
95.93978659299316
 20
90.87848542881542
 30
0.0
 10
95.96610807311998
 20
90.89271999153857
 30
0.0
 10
95.97854308996469
 20
90.93840576708956
 30
0.0
 10
95.98260076014975
 20
90.95331349191612
 30
0.0
  0
LINE
  5
C8
330
1F
100
AcDbEntity
  8
0
  6
Continuous
 62
     7
370
    15
100
AcDbLine
 10
95.9199373854
 20
90.9371882902
 30
0.0
 11
95.9199373854
 21
130.3185437832
 31
0.0
  0
SPLINE
  5
C9
330
1F
100
AcDbEntity
  8
0
  6
Continuous
 62
     7
370
    15
100
AcDbSpline
210
0.0
220
0.0
230
1.0
 70
     8
 71
     3
 72
    10
 73
     6
 74
     0
 42
0.000000001
 43
0.00000001
 40
0.0
 40
0.0
 40
0.0
 40
0.0
 40
0.398155263880937
 40
0.8068145697130235
 40
0.9999999999999999
 40
0.9999999999999999
 40
0.9999999999999999
 40
0.9999999999999999
 10
95.98260076014975
 20
130.3024185814776
 30
0.0
 10
95.97693725542527
 20
130.3212603660285
 30
0.0
 10
95.96546083267799
 20
130.3594410148208
 30
0.0
 10
95.94194660470379
 20
130.3730242986884
 30
0.0
 10
95.936930648886
 20
130.3573240045683
 30
0.0
 10
95.9353205831584
 20
130.352284385721
 30
0.0
  0
SPLINE
  5
CA
330
1F
100
AcDbEntity
  8
0
  6
Continuous
 62
     7
370
    15
100
AcDbSpline
210
0.0
220
0.0
230
1.0
 70
     8
 71
     3
 72
    26
 73
    22
 74
     0
 42
0.000000001
 43
0.00000001
 40
0.0
 40
0.0
 40
0.0
 40
0.0
 40
0.249999999999996
 40
0.249999999999996
 40
0.3749999999999944
 40
0.3749999999999944
 40
0.4374999999999944
 40
0.4374999999999944
 40
0.4687499999999969
 40
0.4687499999999969
 40
0.4999999999999993
 40
0.4999999999999993
 40
0.5312500000000017
 40
0.5312500000000017
 40
0.5625000000000041
 40
0.5625000000000041
 40
0.625000000000004
 40
0.625000000000004
 40
0.7500000000000023
 40
0.7500000000000023
 40
1.0
 40
1.0
 40
1.0
 40
1.0
 10
96.74409103153087
 20
131.0179853702947
 30
0.0
 10
96.7054905086624
 20
130.9002106739393
 30
0.0
 10
96.65919350610812
 20
130.7758209877773
 30
0.0
 10
96.56525415767422
 20
130.5706016554238
 30
0.0
 10
96.52994269076076
 20
130.4990287889774
 30
0.0
 10
96.4637627150151
 20
130.383075556377
 30
0.0
 10
96.43922434834688
 20
130.3424910215668
 30
0.0
 10
96.39585160279307
 20
130.278349339695
 30
0.0
 10
96.38034320136788
 20
130.2564829144099
 30
0.0
 10
96.34530055678083
 20
130.2108886460667
 30
0.0
 10
96.32575026606108
 20
130.1872183550993
 30
0.0
 10
96.28382298569049
 20
130.1426017957594
 30
0.0
 10
96.26117087545884
 20
130.1217217832415
 30
0.0
 10
96.22019716137223
 20
130.0908483694907
 30
0.0
 10
96.2025978614768
 20
130.0810094996582
 30
0.0
 10
96.15797087562063
 20
130.0620198839621
 30
0.0
 10
96.1374116529673
 20
130.0616955593086
 30
0.0
 10
96.08628621347063
 20
130.0709190001848
 30
0.0
 10
96.06537480048208
 20
130.0921658964018
 30
0.0
 10
96.01392489292112
 20
130.1661347752325
 30
0.0
 10
95.99625959361659
 20
130.2322528685473
 30
0.0
 10
95.98260076014975
 20
130.3024185814776
 30
0.0
  0
SPLINE
  5
CB
330
1F
100
AcDbEntity
  8
0
  6
Continuous
 62
     7
370
    15
100
AcDbSpline
210
0.0
220
0.0
230
1.0
 70
     8
 71
     3
 72
    10
 73
     6
 74
     0
 42
0.000000001
 43
0.00000001
 40
0.0
 40
0.0
 40
0.0
 40
0.0
 40
0.5
 40
0.5
 40
1.0
 40
1.0
 40
1.0
 40
1.0
 10
97.05989245500813
 20
131.4878199289845
 30
0.0
 10
96.99233320008989
 20
131.4201285361747
 30
0.0
 10
96.92869654475341
 20
131.3454213714211
 30
0.0
 10
96.81847579018155
 20
131.1864552389945
 30
0.0
 10
96.77165949695893
 20
131.1020999729865
 30
0.0
 10
96.74409103153087
 20
131.0179853702947
 30
0.0
  0
SPLINE
  5
CC
330
1F
100
AcDbEntity
  8
0
  6
Continuous
 62
     7
370
    15
100
AcDbSpline
210
0.0
220
0.0
230
1.0
 70
     8
 71
     3
 72
    10
 73
     6
 74
     0
 42
0.000000001
 43
0.00000001
 40
0.0
 40
0.0
 40
0.0
 40
0.0
 40
0.5
 40
0.5
 40
1.0
 40
1.0
 40
1.0
 40
1.0
 10
96.7440910315309
 20
90.23774670309889
 30
0.0
 10
96.77156844628487
 20
90.153909906631
 30
0.0
 10
96.81827707657428
 20
90.06959941904186
 30
0.0
 10
96.92855553932026
 20
89.91047818855516
 30
0.0
 10
96.99244307793414
 20
89.83549344446551
 30
0.0
 10
97.05989245501875
 20
89.76791214439858
 30
0.0
  0
SPLINE
  5
CD
330
1F
100
AcDbEntity
  8
0
  6
Continuous
 62
     7
370
    15
100
AcDbSpline
210
0.0
220
0.0
230
1.0
 70
     8
 71
     3
 72
    24
 73
    20
 74
     0
 42
0.000000001
 43
0.00000001
 40
0.0
 40
0.0
 40
0.0
 40
0.0
 40
0.2500000000000114
 40
0.2500000000000114
 40
0.3750000000000163
 40
0.3750000000000163
 40
0.4375000000000177
 40
0.4375000000000177
 40
0.4687500000000166
 40
0.4687500000000166
 40
0.5000000000000155
 40
0.5000000000000155
 40
0.5625000000000157
 40
0.5625000000000157
 40
0.6250000000000157
 40
0.6250000000000157
 40
0.7500000000000099
 40
0.7500000000000099
 40
1.0
 40
1.0
 40
1.0
 40
1.0
 10
95.98260076014975
 20
90.95331349191612
 30
0.0
 10
95.99635387881997
 20
91.0239635499064
 30
0.0
 10
96.01412644622586
 20
91.09056166267132
 30
0.0
 10
96.06637753778122
 20
91.16465968290453
 30
0.0
 10
96.08741261336277
 20
91.18591749006609
 30
0.0
 10
96.14031302099121
 20
91.19406341621232
 30
0.0
 10
96.16141869386914
 20
91.19312361281656
 30
0.0
 10
96.2074708625471
 20
91.1721076212392
 30
0.0
 10
96.22584133453049
 20
91.1611988151316
 30
0.0
 10
96.26739296959619
 20
91.1285639041842
 30
0.0
 10
96.28995964235312
 20
91.10707192381284
 30
0.0
 10
96.35274065881313
 20
91.03860598022652
 30
0.0
 10
96.38587041978101
 20
90.99253152202144
 30
0.0
 10
96.44278810626602
 20
90.90752363368678
 30
0.0
 10
96.46697413176979
 20
90.86724333250538
 30
0.0
 10
96.53218208214956
 20
90.75230710603945
 30
0.0
 10
96.5668981423408
 20
90.68172412089244
 30
0.0
 10
96.66011341267166
 20
90.47751836181384
 30
0.0
 10
96.70578594803234
 20
90.35461997948647
 30
0.0
 10
96.7440910315309
 20
90.23774670309892
 30
0.0
  0
LINE
  5
CE
330
1F
100
AcDbEntity
  8
0
  6
Continuous
 62
     7
370
    15
100
AcDbLine
 10
153.1699373854
 20
141.0950615099
 30
0.0
 11
149.2118702169
 21
141.0950615099
 31
0.0
  0
LINE
  5
CF
330
1F
100
AcDbEntity
  8
0
  6
Continuous
 62
     7
370
    15
100
AcDbLine
 10
149.2118702169
 20
135.0865556991
 30
0.0
 11
153.1699373854
 21
135.0865556991
 31
0.0
  0
LINE
  5
D0
330
1F
100
AcDbEntity
  8
0
  6
Continuous
 62
     7
370
    15
100
AcDbLine
 10
149.2118702169
 20
135.0865556991
 30
0.0
 11
149.2118702169
 21
141.0950615099
 31
0.0
  0
SPLINE
  5
D1
330
1F
100
AcDbEntity
  8
0
  6
Continuous
 62
     7
370
    15
100
AcDbSpline
210
0.0
220
0.0
230
1.0
 70
     8
 71
     3
 72
     8
 73
     4
 74
     0
 42
0.000000001
 43
0.00000001
 40
0.0
 40
0.0
 40
0.0
 40
0.0
 40
1.0
 40
1.0
 40
1.0
 40
1.0
 10
143.9099373854263
 20
138.4331002278685
 30
0.0
 10
143.4172272885806
 20
139.3211192259949
 30
0.0
 10
142.9231445833016
 20
140.2083818616809
 30
0.0
 10
142.4280045539373
 20
141.0950615098611
 30
0.0
  0
LINE
  5
D2
330
1F
100
AcDbEntity
  8
0
  6
Continuous
 62
     7
370
    15
100
AcDbLine
 10
143.9099373854
 20
131.6780097043
 30
0.0
 11
143.9099373854
 21
138.4331002279
 31
0.0
  0
SPLINE
  5
D3
330
1F
100
AcDbEntity
  8
0
  6
Continuous
 62
     7
370
    15
100
AcDbSpline
210
0.0
220
0.0
230
1.0
 70
     8
 71
     3
 72
     8
 73
     4
 74
     0
 42
0.000000001
 43
0.00000001
 40
0.0
 40
0.0
 40
0.0
 40
0.0
 40
1.0
 40
1.0
 40
1.0
 40
1.0
 10
142.4280045539373
 20
135.0865556990643
 30
0.0
 10
142.9350913956966
 20
133.9554053449006
 30
0.0
 10
143.4306592348365
 20
132.8190209341328
 30
0.0
 10
143.9099373854263
 20
131.6780097042802
 30
0.0
  0
SPLINE
  5
D4
330
1F
100
AcDbEntity
  8
0
  6
Continuous
 62
     7
370
    15
100
AcDbSpline
210
0.0
220
0.0
230
1.0
 70
     8
 71
     3
 72
     8
 73
     4
 74
     0
 42
0.000000001
 43
0.00000001
 40
0.0
 40
0.0
 40
0.0
 40
0.0
 40
1.0
 40
1.0
 40
1.0
 40
1.0
 10
147.7299373854263
 20
131.6780097042802
 30
0.0
 10
148.2092155360162
 20
132.8190209341328
 30
0.0
 10
148.7047833751561
 20
133.9554053449006
 30
0.0
 10
149.2118702169154
 20
135.0865556990643
 30
0.0
  0
SPLINE
  5
D5
330
1F
100
AcDbEntity
  8
0
  6
Continuous
 62
     7
370
    15
100
AcDbSpline
210
0.0
220
0.0
230
1.0
 70
     8
 71
     3
 72
    12
 73
     8
 74
     0
 42
0.000000001
 43
0.00000001
 40
0.0
 40
0.0
 40
0.0
 40
0.0
 40
0.249999999999998
 40
0.249999999999998
 40
0.499999999999996
 40
0.499999999999996
 40
1.0
 40
1.0
 40
1.0
 40
1.0
 10
153.1699373854263
 20
135.0865556990643
 30
0.0
 10
153.261137107252
 20
135.0865556990643
 30
0.0
 10
153.351732116388
 20
135.0583360004764
 30
0.0
 10
153.5051448428347
 20
134.9638929932283
 30
0.0
 10
153.5703537101584
 20
134.897606016523
 30
0.0
 10
153.7231382394983
 20
134.6719811932347
 30
0.0
 10
153.7699373854263
 20
134.4895549302022
 30
0.0
 10
153.7699373854263
 20
134.3088182979552
 30
0.0
  0
LINE
  5
D6
330
1F
100
AcDbEntity
  8
0
  6
Continuous
 62
     7
370
    15
100
AcDbLine
 10
147.7299373854
 20
130.7637326682
 30
0.0
 11
147.7299373854
 21
131.6780097043
 31
0.0
  0
LINE
  5
D7
330
1F
100
AcDbEntity
  8
0
  6
Continuous
 62
     7
370
    15
100
AcDbLine
 10
153.7699373854
 20
134.308818298
 30
0.0
 11
153.7699373854
 21
130.4778660367
 31
0.0
  0
LINE
  5
D8
330
1F
100
AcDbEntity
  8
0
  6
Continuous
 62
     7
370
    15
100
AcDbLine
 10
143.9099373854
 20
131.6780097043
 30
0.0
 11
143.9099373854
 21
130.7637326682
 31
0.0
  0
SPLINE
  5
D9
330
1F
100
AcDbEntity
  8
0
  6
Continuous
 62
     7
370
    15
100
AcDbSpline
210
0.0
220
0.0
230
1.0
 70
     8
 71
     3
 72
    10
 73
     6
 74
     0
 42
0.000000001
 43
0.00000001
 40
0.0
 40
0.0
 40
0.0
 40
0.0
 40
0.5
 40
0.5
 40
1.0
 40
1.0
 40
1.0
 40
1.0
 10
153.7699373854263
 20
140.4743063604608
 30
0.0
 10
153.7699373854263
 20
140.6347116268116
 30
0.0
 10
153.7076995543195
 20
140.7937734398002
 30
0.0
 10
153.4885646305769
 20
141.0246859054305
 30
0.0
 10
153.3309759355851
 20
141.0950615098611
 30
0.0
 10
153.1699373854263
 20
141.0950615098611
 30
0.0
  0
LINE
  5
DA
330
1F
100
AcDbEntity
  8
0
  6
Continuous
 62
     7
370
    15
100
AcDbLine
 10
153.7699373854
 20
134.308818298
 30
0.0
 11
153.7699373854
 21
140.4743063605
 31
0.0
  0
SPLINE
  5
DB
330
1F
100
AcDbEntity
  8
0
  6
Continuous
 62
     7
370
    15
100
AcDbSpline
210
0.0
220
0.0
230
1.0
 70
     8
 71
     3
 72
     8
 73
     4
 74
     0
 42
0.000000001
 43
0.00000001
 40
0.0
 40
0.0
 40
0.0
 40
0.0
 40
1.0
 40
1.0
 40
1.0
 40
1.0
 10
149.2118702169154
 20
141.0950615098611
 30
0.0
 10
148.7167301875511
 20
140.2083818616809
 30
0.0
 10
148.2226474822721
 20
139.3211192259949
 30
0.0
 10
147.7299373854263
 20
138.4331002278685
 30
0.0
  0
LINE
  5
DC
330
1F
100
AcDbEntity
  8
0
  6
Continuous
 62
     7
370
    15
100
AcDbLine
 10
147.7299373854
 20
131.6780097043
 30
0.0
 11
147.7299373854
 21
138.4331002279
 31
0.0
  0
SPLINE
  5
DD
330
1F
100
AcDbEntity
  8
0
  6
Continuous
 62
     7
370
    15
100
AcDbSpline
210
0.0
220
0.0
230
1.0
 70
    11
 71
     3
 72
    78
 73
    74
 74
     0
 42
0.000000001
 43
0.00000001
 40
0.0
 40
0.0
 40
0.0
 40
0.0
 40
0.0312500000000009
 40
0.0312500000000009
 40
0.0625000000000018
 40
0.0625000000000018
 40
0.0937500000000027
 40
0.0937500000000027
 40
0.1250000000000036
 40
0.1250000000000036
 40
0.1562500000000045
 40
0.1562500000000045
 40
0.1875000000000054
 40
0.1875000000000054
 40
0.2187500000000064
 40
0.2187500000000064
 40
0.2500000000000073
 40
0.2500000000000073
 40
0.2812500000000082
 40
0.2812500000000082
 40
0.2968750000000082
 40
0.2968750000000082
 40
0.3125000000000082
 40
0.3125000000000082
 40
0.3437500000000077
 40
0.3437500000000077
 40
0.3593750000000073
 40
0.3593750000000073
 40
0.375000000000007
 40
0.375000000000007
 40
0.4062500000000064
 40
0.4062500000000064
 40
0.4375000000000059
 40
0.4375000000000059
 40
0.4687500000000053
 40
0.4687500000000053
 40
0.5000000000000047
 40
0.5000000000000047
 40
0.5312500000000041
 40
0.5312500000000041
 40
0.5625000000000037
 40
0.5625000000000037
 40
0.5937500000000031
 40
0.5937500000000031
 40
0.6250000000000026
 40
0.6250000000000026
 40
0.6562500000000021
 40
0.6562500000000021
 40
0.6875000000000016
 40
0.6875000000000016
 40
0.718750000000001
 40
0.718750000000001
 40
0.7500000000000004
 40
0.7500000000000004
 40
0.78125
 40
0.78125
 40
0.8124999999999994
 40
0.8124999999999994
 40
0.8281249999999994
 40
0.8281249999999994
 40
0.8437499999999994
 40
0.8437499999999994
 40
0.8593749999999996
 40
0.8593749999999996
 40
0.8749999999999996
 40
0.8749999999999996
 40
0.9062499999999997
 40
0.9062499999999997
 40
0.9374999999999998
 40
0.9374999999999998
 40
0.96875
 40
0.96875
 40
1.0
 40
1.0
 40
1.0
 40
1.0
 10
201.4782571433848
 20
113.8202610537297
 30
0.0
 10
201.7213440641938
 20
114.0019657087347
 30
0.0
 10
201.9775223380777
 20
114.1587131855521
 30
0.0
 10
202.5138708983459
 20
114.427848277707
 30
0.0
 10
202.7950105194011
 20
114.5404647718075
 30
0.0
 10
203.3780501448448
 20
114.7199033797233
 30
0.0
 10
203.6737532206865
 20
114.7849773950503
 30
0.0
 10
204.2732256897125
 20
114.8684045160248
 30
0.0
 10
204.5786492392651
 20
114.88669685472
 30
0.0
 10
205.1906843971452
 20
114.8745735075496
 30
0.0
 10
205.4923122968982
 20
114.8445309034957
 30
0.0
 10
206.0870793347796
 20
114.7376985396861
 30
0.0
 10
206.3816550494589
 20
114.6604143897343
 30
0.0
 10
206.9556016849565
 20
114.4577699393221
 30
0.0
 10
207.2298415739159
 20
114.3345073057685
 30
0.0
 10
207.7531626176197
 20
114.0434384879143
 30
0.0
 10
208.0034669779783
 20
113.8747121465399
 30
0.0
 10
208.4710234999176
 20
113.4904883723037
 30
0.0
 10
208.6829077052435
 20
113.2797486462946
 30
0.0
 10
208.9664878825219
 20
112.9337096555741
 30
0.0
 10
209.0552629390297
 20
112.8133376356597
 30
0.0
 10
209.2204293494731
 20
112.5616478108354
 30
0.0
 10
209.2972826195445
 20
112.4293837487778
 30
0.0
 10
209.503444765468
 20
112.0214497163121
 30
0.0
 10
209.6079881923148
 20
111.7372580913627
 30
0.0
 10
209.7112921379426
 20
111.2908211128908
 30
0.0
 10
209.7366600144333
 20
111.1379278980698
 30
0.0
 10
209.7672266497874
 20
110.8342090057339
 30
0.0
 10
209.7727501100763
 20
110.6823610689919
 30
0.0
 10
209.7603317793473
 20
110.2268514654668
 30
0.0
 10
209.711944697986
 20
109.9192147298293
 30
0.0
 10
209.5435751233703
 20
109.3347132409614
 30
0.0
 10
209.423224175183
 20
109.0530215349862
 30
0.0
 10
209.1221584439502
 20
108.5240791480673
 30
0.0
 10
208.9443170600155
 20
108.2804798237303
 30
0.0
 10
208.539589314586
 20
107.8299189244765
 30
0.0
 10
208.3143125525768
 20
107.6255621648709
 30
0.0
 10
207.8334594407877
 20
107.2637803614188
 30
0.0
 10
207.5740312957632
 20
107.1035513072442
 30
0.0
 10
207.0327519904103
 20
106.8306203596544
 30
0.0
 10
206.7526244960567
 20
106.7182583036393
 30
0.0
 10
206.1739988005213
 20
106.5389931922984
 30
0.0
 10
205.8727796583906
 20
106.4719475793113
 30
0.0
 10
205.2697742254557
 20
106.3875004533223
 30
0.0
 10
204.9670222176258
 20
106.3693363820883
 30
0.0
 10
204.3590369140208
 20
106.3805581048229
 30
0.0
 10
204.0511041136567
 20
106.4106515942666
 30
0.0
 10
203.452399035846
 20
106.5180186134324
 30
0.0
 10
203.1602524592248
 20
106.5948505544673
 30
0.0
 10
202.5903269043664
 20
106.7955776580645
 30
0.0
 10
202.3100401676721
 20
106.9210907622404
 30
0.0
 10
201.7832612598813
 20
107.2143439385981
 30
0.0
 10
201.5353900348848
 20
107.3819724861495
 30
0.0
 10
201.072085235053
 20
107.7624704853682
 30
0.0
 10
200.8545456681262
 20
107.9782141505322
 30
0.0
 10
200.472803119835
 20
108.4455000923865
 30
0.0
 10
200.3071745334028
 20
108.6971635627363
 30
0.0
 10
200.1016523658551
 20
109.1059528765444
 30
0.0
 10
200.0407489488807
 20
109.2470755308958
 30
0.0
 10
199.9375673657001
 20
109.5322434370647
 30
0.0
 10
199.894791296002
 20
109.6772202873567
 30
0.0
 10
199.8273022754103
 20
109.9721018916087
 30
0.0
 10
199.8025853592809
 20
110.1220055548985
 30
0.0
 10
199.7723048530901
 20
110.4270529091192
 30
0.0
 10
199.7669637309843
 20
110.5822474172612
 30
0.0
 10
199.780700125655
 20
111.040307357794
 30
0.0
 10
199.8285252523725
 20
111.3410636829835
 30
0.0
 10
200.0003607782517
 20
111.9325686487472
 30
0.0
 10
200.1207403582931
 20
112.211253951905
 30
0.0
 10
200.4225857982135
 20
112.7388089837169
 30
0.0
 10
200.6040037425587
 20
112.9858822221202
 30
0.0
 10
201.0083981587522
 20
113.4335656899771
 30
0.0
 10
201.2351702225758
 20
113.6385563987247
 30
0.0
 10
201.4782571433848
 20
113.8202610537297
 30
0.0
  0
LINE
  5
DE
330
1F
100
AcDbEntity
  8
0
  6
Continuous
 62
     7
370
    15
100
AcDbLine
 10
213.6199373854
 20
110.6278660367
 30
0.0
 11
213.6199373854
 21
98.1278660367
 31
0.0
  0
LINE
  5
DF
330
1F
100
AcDbEntity
  8
0
  6
Continuous
 62
     7
370
    15
100
AcDbLine
 10
213.6199373854
 20
123.1278660367
 30
0.0
 11
213.6199373854
 21
110.6278660367
 31
0.0
  0
LINE
  5
E0
330
1F
100
AcDbEntity
  8
0
  6
Continuous
 62
     7
370
    15
100
AcDbLine
 10
213.8199373854
 20
110.6278660367
 30
0.0
 11
213.8199373854
 21
98.3278660367
 31
0.0
  0
LINE
  5
E1
330
1F
100
AcDbEntity
  8
0
  6
Continuous
 62
     7
370
    15
100
AcDbLine
 10
213.8199373854
 20
122.9278660367
 30
0.0
 11
213.8199373854
 21
110.6278660367
 31
0.0
  0
CIRCLE
  5
E2
330
1F
100
AcDbEntity
  8
0
  6
Continuous
 62
     7
370
    15
100
AcDbCircle
 10
204.7699373854
 20
110.6278660367
 30
0.0
 40
3.5
  0
SPLINE
  5
E3
330
1F
100
AcDbEntity
  8
0
  6
Continuous
 62
     7
370
    15
100
AcDbSpline
210
0.0
220
0.0
230
1.0
 70
    24
 71
     3
 72
    15
 73
    11
 74
     0
 42
0.000000001
 43
0.00000001
 40
0.0
 40
0.0
 40
0.0
 40
0.0
 40
0.1077856237351272
 40
0.2161674856104931
 40
0.3273108670875733
 40
0.4399541010494316
 40
0.5934850694036244
 40
0.7521472285997103
 40
0.8755058975744
 40
0.9999999999999999
 40
0.9999999999999999
 40
0.9999999999999999
 40
0.9999999999999999
 10
203.3739349639139
 20
108.7881621006069
 30
0.0
 10
203.4515029503571
 20
108.7783740982822
 30
0.0
 10
203.6070680063656
 20
108.7587439493036
 30
0.0
 10
203.8523297695568
 20
108.7277953219336
 30
0.0
 10
204.1087648491547
 20
108.6954367772514
 30
0.0
 10
204.4075308004842
 20
108.6577366646117
 30
0.0
 10
204.7483673177868
 20
108.614727830985
 30
0.0
 10
205.0899487040062
 20
108.5716250052486
 30
0.0
 10
205.3968129858981
 20
108.5329029957929
 30
0.0
 10
205.5754425689883
 20
108.510362423906
 30
0.0
 10
205.6651665187663
 20
108.4990405078775
 30
0.0
  0
SPLINE
  5
E4
330
1F
100
AcDbEntity
  8
0
  6
Continuous
 62
     7
370
    15
100
AcDbSpline
210
0.0
220
0.0
230
1.0
 70
    24
 71
     3
 72
    15
 73
    11
 74
     0
 42
0.000000001
 43
0.00000001
 40
0.0
 40
0.0
 40
0.0
 40
0.0
 40
0.1077856237351252
 40
0.2161674856104964
 40
0.3273108670875701
 40
0.4399541010494347
 40
0.5934850694036241
 40
0.752147228599725
 40
0.8755058975744007
 40
1.0
 40
1.0
 40
1.0
 40
1.0
 10
205.6651665187663
 20
108.4990405078775
 30
0.0
 10
205.7124271706533
 20
108.5613223534953
 30
0.0
 10
205.8072099063531
 20
108.6862305694506
 30
0.0
 10
205.9566430854634
 20
108.8831591732662
 30
0.0
 10
206.1128839469866
 20
109.0890591942783
 30
0.0
 10
206.2949161779229
 20
109.3289480415956
 30
0.0
 10
206.5025811790821
 20
109.6026167073038
 30
0.0
 10
206.7107000142543
 20
109.8768834523614
 30
0.0
 10
206.8976663990746
 20
110.123274711266
 30
0.0
 10
207.0065018984895
 20
110.2667021821461
 30
0.0
 10
207.0611689402787
 20
110.3387444439675
 30
0.0
  0
SPLINE
  5
E5
330
1F
100
AcDbEntity
  8
0
  6
Continuous
 62
     7
370
    15
100
AcDbSpline
210
0.0
220
0.0
230
1.0
 70
    24
 71
     3
 72
    11
 73
     7
 74
     0
 42
0.000000001
 43
0.00000001
 40
0.0
 40
0.0
 40
0.0
 40
0.0
 40
0.184513355851929
 40
0.518056503916393
 40
0.8676122830485046
 40
1.0
 40
1.0
 40
1.0
 40
1.0
 10
207.0611689402787
 20
110.3387444439675
 30
0.0
 10
207.0091784488239
 20
110.4623761281284
 30
0.0
 10
206.8632052095667
 20
110.8094957053209
 30
0.0
 10
206.5911150046354
 20
111.4565172921165
 30
0.0
 10
206.3382894105519
 20
112.0577282659102
 30
0.0
 10
206.2030809615076
 20
112.379249524902
 30
0.0
 10
206.1659398069388
 20
112.4675699727868
 30
0.0
  0
SPLINE
  5
E6
330
1F
100
AcDbEntity
  8
0
  6
Continuous
 62
     7
370
    15
100
AcDbSpline
210
0.0
220
0.0
230
1.0
 70
    24
 71
     3
 72
    11
 73
     7
 74
     0
 42
0.000000001
 43
0.00000001
 40
0.0
 40
0.0
 40
0.0
 40
0.0
 40
0.2164526859271224
 40
0.4403055508633956
 40
0.7518960204221744
 40
1.0
 40
1.0
 40
1.0
 40
1.0
 10
203.8747082520865
 20
112.7566915655162
 30
0.0
 10
203.7790819459602
 20
112.6306716610638
 30
0.0
 10
203.5845600197682
 20
112.3743234285992
 30
0.0
 10
203.2235771989289
 20
111.8986068351856
 30
0.0
 10
202.8363536740547
 20
111.3883092655824
 30
0.0
 10
202.5885523592386
 20
111.0617474722716
 30
0.0
 10
202.478705830574
 20
110.9169876294262
 30
0.0
  0
SPLINE
  5
E7
330
1F
100
AcDbEntity
  8
0
  6
Continuous
 62
     7
370
    15
100
AcDbSpline
210
0.0
220
0.0
230
1.0
 70
    24
 71
     3
 72
    11
 73
     7
 74
     0
 42
0.000000001
 43
0.00000001
 40
0.0
 40
0.0
 40
0.0
 40
0.0
 40
0.1323877169515034
 40
0.4819434960836074
 40
0.8154866441480803
 40
1.0
 40
1.0
 40
1.0
 40
1.0
 10
202.478705830574
 20
110.9169876294262
 30
0.0
 10
202.5158469851429
 20
110.8286671815414
 30
0.0
 10
202.6510554341872
 20
110.5071459225497
 30
0.0
 10
202.9038810282707
 20
109.9059349487559
 30
0.0
 10
203.1759712332019
 20
109.2589133619603
 30
0.0
 10
203.3219444724592
 20
108.9117937847678
 30
0.0
 10
203.3739349639139
 20
108.7881621006069
 30
0.0
  0
CIRCLE
  5
E8
330
1F
100
AcDbEntity
  8
0
  6
Continuous
 62
     7
370
    15
100
AcDbCircle
 10
204.7699373854
 20
110.6278660367
 30
0.0
 40
2.350000000000009
  0
SPLINE
  5
E9
330
1F
100
AcDbEntity
  8
0
  6
Continuous
 62
     7
370
    15
100
AcDbSpline
210
0.0
220
0.0
230
1.0
 70
    24
 71
     3
 72
    11
 73
     7
 74
     0
 42
0.000000001
 43
0.00000001
 40
0.0
 40
0.0
 40
0.0
 40
0.0
 40
0.2164526859271206
 40
0.440305550863392
 40
0.7518960204221994
 40
1.0
 40
1.0
 40
1.0
 40
1.0
 10
206.1659398069388
 20
112.4675699727868
 30
0.0
 10
206.0089902152374
 20
112.487374830936
 30
0.0
 10
205.6897251706118
 20
112.527661644379
 30
0.0
 10
205.0972511052942
 20
112.6024236408489
 30
0.0
 10
204.4617086840913
 20
112.6826202655314
 30
0.0
 10
204.0549972177707
 20
112.7339416025978
 30
0.0
 10
203.8747082520865
 20
112.7566915655162
 30
0.0
  0
CIRCLE
  5
EA
330
1F
100
AcDbEntity
  8
0
  6
Continuous
 62
     7
370
    15
100
AcDbCircle
 10
204.7699373854
 20
110.6278660367
 30
0.0
 40
3.300000000000024
  0
ARC
  5
EB
330
1F
100
AcDbEntity
  8
0
  6
Continuous
 62
     7
370
    15
100
AcDbCircle
 10
204.7699373854
 20
110.6278660367
 30
0.0
 40
2.000000000000024
100
AcDbArc
 50
202.8080799814
 51
262.8080799814
  0
ARC
  5
EC
330
1F
100
AcDbEntity
  8
0
  6
Continuous
 62
     7
370
    15
100
AcDbCircle
 10
204.7699373854
 20
110.6278660367
 30
0.0
 40
2.000000000000022
100
AcDbArc
 50
322.8080799814
 51
22.8080799814
  0
ARC
  5
ED
330
1F
100
AcDbEntity
  8
0
  6
Continuous
 62
     7
370
    15
100
AcDbCircle
 10
204.7699373854
 20
110.6278660367
 30
0.0
 40
2.000000000000024
100
AcDbArc
 50
262.8080799814
 51
322.8080799814
  0
ARC
  5
EE
330
1F
100
AcDbEntity
  8
0
  6
Continuous
 62
     7
370
    15
100
AcDbCircle
 10
204.7699373854
 20
110.6278660367
 30
0.0
 40
2.000000000000004
100
AcDbArc
 50
142.8080799814
 51
202.8080799814
  0
ARC
  5
EF
330
1F
100
AcDbEntity
  8
0
  6
Continuous
 62
     7
370
    15
100
AcDbCircle
 10
204.7699373854
 20
110.6278660367
 30
0.0
 40
2.000000000000022
100
AcDbArc
 50
22.8080799814
 51
82.8080799814
  0
ARC
  5
F0
330
1F
100
AcDbEntity
  8
0
  6
Continuous
 62
     7
370
    15
100
AcDbCircle
 10
204.7699373854
 20
110.6278660367
 30
0.0
 40
2.000000000000004
100
AcDbArc
 50
82.8080799814
 51
142.8080799814
  0
LINE
  5
F1
330
1F
100
AcDbEntity
  8
0
  6
HIDDEN
 62
     7
370
     0
100
AcDbLine
 10
142.4280045539
 20
135.0865556991
 30
0.0
 11
142.4280045539
 21
130.4778660367
 31
0.0
  0
LINE
  5
F2
330
1F
100
AcDbEntity
  8
0
  6
HIDDEN
 62
     7
370
     0
100
AcDbLine
 10
115.81508759
 20
87.1032664139
 30
0.0
 11
115.5634299959
 21
87.0797447924
 31
0.0
  0
LINE
  5
F3
330
1F
100
AcDbEntity
  8
0
  6
HIDDEN
 62
     7
370
     0
100
AcDbLine
 10
115.4407383771
 20
134.1872970693
 30
0.0
 11
115.8149948697
 21
134.1524490667
 31
0.0
  0
SPLINE
  5
F4
330
1F
100
AcDbEntity
  8
0
  6
HIDDEN
 62
     7
370
     0
100
AcDbSpline
210
0.0
220
0.0
230
1.0
 70
     8
 71
     3
 72
    32
 73
    28
 74
     0
 42
0.000000001
 43
0.00000001
 40
0.0
 40
0.0
 40
0.0
 40
0.0
 40
0.0230713011010976
 40
0.0931525291562018
 40
0.1409010759003916
 40
0.1639725360424453
 40
0.1870440477795062
 40
0.2341332026273163
 40
0.2819305551444518
 40
0.3275430728651698
 40
0.3741115601142014
 40
0.4213760688340628
 40
0.4665760601428501
 40
0.512691515219185
 40
0.5594659886447481
 40
0.6051408243160977
 40
0.6517309455009026
 40
0.698982639009868
 40
0.7221419253196755
 40
0.7453012344026969
 40
0.7925569186516253
 40
0.8405117625990652
 40
0.8635761435934274
 40
0.8866405744711222
 40
0.9337249114594881
 40
0.9815234121241471
 40
1.0
 40
1.0
 40
1.0
 40
1.0
 10
121.574939387028
 20
90.7903375608804
 30
0.0
 10
121.527325699423
 20
90.79684994832446
 30
0.0
 10
121.335080996646
 20
90.82314431978631
 30
0.0
 10
121.0060923328166
 20
90.86290830089024
 30
0.0
 10
120.6455435542315
 20
90.89862744704206
 30
0.0
 10
120.3937479655479
 20
90.91993149059692
 30
0.0
 10
120.1371951648475
 20
90.93920876710843
 30
0.0
 10
119.8011538290891
 20
90.95952575915715
 30
0.0
 10
119.388041175532
 20
90.97583265206154
 30
0.0
 10
118.9691821709045
 20
90.98347229765184
 30
0.0
 10
118.5499570445137
 20
90.98223211288287
 30
0.0
 10
118.1354353628053
 20
90.97207492511835
 30
0.0
 10
117.7310747971948
 20
90.95373140217632
 30
0.0
 10
117.3416107083726
 20
90.92827339426978
 30
0.0
 10
116.9693528400771
 20
90.89669762663127
 30
0.0
 10
116.6188772724901
 20
90.86059543274528
 30
0.0
 10
116.2943551389329
 20
90.82170223886419
 30
0.0
 10
116.0485687445257
 20
90.78842264346527
 30
0.0
 10
115.8697754711454
 20
90.7624289083652
 30
0.0
 10
115.703096825139
 20
90.73714305793749
 30
0.0
 10
115.5164700943365
 20
90.70709965141052
 30
0.0
 10
115.3652924170162
 20
90.68124882805073
 30
0.0
 10
115.2673732687206
 20
90.66397966492748
 30
0.0
 10
115.1845999988982
 20
90.64910956418723
 30
0.0
 10
115.1108103113834
 20
90.63552628063013
 30
0.0
 10
115.0692866619371
 20
90.62774430433487
 30
0.0
 10
115.074002579155
 20
90.62862769658241
 30
0.0
 10
115.0753173123498
 20
90.62887397425402
 30
0.0
  0
SPLINE
  5
F5
330
1F
100
AcDbEntity
  8
0
  6
HIDDEN
 62
     7
370
     0
100
AcDbSpline
210
0.0
220
0.0
230
1.0
 70
     8
 71
     3
 72
    30
 73
    26
 74
     0
 42
0.000000001
 43
0.00000001
 40
0.0
 40
0.0
 40
0.0
 40
0.0
 40
0.0269368367705154
 40
0.0732921827360962
 40
0.120330411856217
 40
0.1656155297733662
 40
0.211811565054967
 40
0.2586631635301896
 40
0.3045690280051692
 40
0.3514001970801033
 40
0.3989027096498828
 40
0.4220848657279635
 40
0.4452670615054554
 40
0.4925790579131939
 40
0.5405999434492706
 40
0.5865012168399689
 40
0.6333714866024234
 40
0.6809508074414689
 40
0.7262042453770956
 40
0.7723860901163139
 40
0.8192382444319377
 40
0.8646551626046913
 40
0.9109809819579493
 40
0.9579614761514695
 40
1.0
 40
1.0
 40
1.0
 40
1.0
 10
115.0753173123498
 20
130.6268580991397
 30
0.0
 10
115.0747337036065
 20
130.6269670959032
 30
0.0
 10
115.0731457681326
 20
130.6272636641594
 30
0.0
 10
115.1217811896382
 20
130.6181666137444
 30
0.0
 10
115.2161309850079
 20
130.6008619453947
 30
0.0
 10
115.3564236629304
 20
130.5759303933368
 30
0.0
 10
115.5377435485998
 20
130.5451194476007
 30
0.0
 10
115.7603402438317
 20
130.5095054104339
 30
0.0
 10
116.021468044
 20
130.4708452595382
 30
0.0
 10
116.3184011967475
 20
130.4309584445704
 30
0.0
 10
116.5937555270452
 20
130.3983022406156
 30
0.0
 10
116.8273533123938
 20
130.3736923008671
 30
0.0
 10
117.0688110135025
 20
130.3503863533666
 30
0.0
 10
117.3891789423197
 20
130.3238647498915
 30
0.0
 10
117.789748136071
 20
130.298748817032
 30
0.0
 10
118.2023988437188
 20
130.2814192837004
 30
0.0
 10
118.6217838275619
 20
130.2726204550536
 30
0.0
 10
119.0418839837489
 20
130.2729288072756
 30
0.0
 10
119.4569261959915
 20
130.2820831377162
 30
0.0
 10
119.8618741312588
 20
130.2993978343324
 30
0.0
 10
120.2540628413544
 20
130.32419783312
 30
0.0
 10
120.6288306579564
 20
130.3551586558954
 30
0.0
 10
120.981078593334
 20
130.3907254374105
 30
0.0
 10
121.3008443802061
 20
130.4283058611241
 30
0.0
 10
121.487019612898
 20
130.4534978132968
 30
0.0
 10
121.574939387028
 20
130.4653945125133
 30
0.0
  0
SPLINE
  5
F6
330
1F
100
AcDbEntity
  8
0
  6
HIDDEN
 62
     7
370
     0
100
AcDbSpline
210
0.0
220
0.0
230
1.0
 70
     8
 71
     3
 72
    16
 73
    12
 74
     0
 42
0.000000001
 43
0.00000001
 40
0.0
 40
0.0
 40
0.0
 40
0.0
 40
0.0733319434608427
 40
0.2961412646349917
 40
0.4479943114114193
 40
0.5213422945243561
 40
0.5946902104125312
 40
0.7443192665923847
 40
0.8961144370974137
 40
0.9698301565239285
 40
1.0
 40
1.0
 40
1.0
 40
1.0
 10
121.574939387028
 20
130.4653945125133
 30
0.0
 10
121.620298296946
 20
130.4715419849112
 30
0.0
 10
121.80347419972
 20
130.4963677315683
 30
0.0
 10
122.0415154223326
 20
130.522666604729
 30
0.0
 10
122.2306615152185
 20
130.5402454850522
 30
0.0
 10
122.3350566683686
 20
130.548953303064
 30
0.0
 10
122.4245172208829
 20
130.5559312422113
 30
0.0
 10
122.510377325907
 20
130.561950790632
 30
0.0
 10
122.5560001552341
 20
130.564872328926
 30
0.0
 10
122.5700481353286
 20
130.5657556164649
 30
0.0
 10
122.5688998448254
 20
130.5656834306316
 30
0.0
 10
122.5685663649483
 20
130.56566246684
 30
0.0
  0
SPLINE
  5
F7
330
1F
100
AcDbEntity
  8
0
  6
HIDDEN
 62
     7
370
     0
100
AcDbSpline
210
0.0
220
0.0
230
1.0
 70
     8
 71
     3
 72
    16
 73
    12
 74
     0
 42
0.000000001
 43
0.00000001
 40
0.0
 40
0.0
 40
0.0
 40
0.0
 40
0.0435335278563936
 40
0.1939158940396145
 40
0.3464947729963841
 40
0.4202979446404609
 40
0.4941011699648732
 40
0.6447033649717597
 40
0.7975352996323367
 40
0.9320274232602502
 40
1.0
 40
1.0
 40
1.0
 40
1.0
 10
122.5685662454603
 20
90.6900696140634
 30
0.0
 10
122.568668103484
 20
90.69006329500014
 30
0.0
 10
122.5691218202099
 20
90.6900351473433
 30
0.0
 10
122.5374984393095
 20
90.6920145205682
 30
0.0
 10
122.4678909251994
 20
90.69669647772135
 30
0.0
 10
122.3887334180994
 20
90.70256379511387
 30
0.0
 10
122.2956917342681
 20
90.70992384754011
 30
0.0
 10
122.1504954715274
 20
90.72255487663013
 30
0.0
 10
121.9407061540666
 20
90.74405903482626
 30
0.0
 10
121.7425278965599
 20
90.76757056391835
 30
0.0
 10
121.6170616230847
 20
90.78461523049499
 30
0.0
 10
121.574939387028
 20
90.7903375608804
 30
0.0
  0
LINE
  5
F8
330
1F
100
AcDbEntity
  8
0
  6
HIDDEN
 62
     7
370
     0
100
AcDbLine
 10
108.8239119816
 20
93.6278660367
 30
0.0
 11
108.8239119816
 21
127.6278660367
 31
0.0
  0
SPLINE
  5
F9
330
1F
100
AcDbEntity
  8
0
  6
HIDDEN
 62
     7
370
     0
100
AcDbSpline
210
0.0
220
0.0
230
1.0
 70
     8
 71
     3
 72
     8
 73
     4
 74
     0
 42
0.000000001
 43
0.00000001
 40
0.0
 40
0.0
 40
0.0
 40
0.0
 40
0.0011559732291307
 40
0.0011559732291307
 40
0.0011559732291307
 40
0.0011559732291307
 10
95.91993738542634
 20
112.6277066553235
 30
0.0
 10
96.25327196049366
 20
112.623739375524
 30
0.0
 10
96.58660315152042
 20
112.6195594929531
 30
0.0
 10
96.91993738542635
 20
112.614994339545
 30
0.0
  0
SPLINE
  5
FA
330
1F
100
AcDbEntity
  8
0
  6
HIDDEN
 62
     7
370
     0
100
AcDbSpline
210
0.0
220
0.0
230
1.0
 70
     8
 71
     3
 72
     8
 73
     4
 74
     0
 42
0.000000001
 43
0.00000001
 40
0.0
 40
0.0
 40
0.0
 40
0.0
 40
0.0011564765856722
 40
0.0011564765856722
 40
0.0011564765856722
 40
0.0011564765856722
 10
96.91993738542634
 20
108.6311657344797
 30
0.0
 10
96.58662945485749
 20
108.6302905788967
 30
0.0
 10
96.25329422246531
 20
108.6292357276455
 30
0.0
 10
95.91993738542635
 20
108.6280646406082
 30
0.0
  0
LINE
  5
FB
330
1F
100
AcDbEntity
  8
0
  6
HIDDEN
 62
     7
370
     0
100
AcDbLine
 10
135.479763354
 20
93.6278660367
 30
0.0
 11
135.479763354
 21
127.6278660367
 31
0.0
  0
LINE
  5
FC
330
1F
100
AcDbEntity
  8
0
  6
HIDDEN
 62
     7
370
     0
100
AcDbLine
 10
137.7699373854
 20
94.9028660367
 30
0.0
 11
137.7699373854
 21
126.3528660101
 31
0.0
  0
SPLINE
  5
FD
330
1F
100
AcDbEntity
  8
0
  6
HIDDEN
 62
     7
370
     0
100
AcDbSpline
210
0.0
220
0.0
230
1.0
 70
     8
 71
     3
 72
    16
 73
    12
 74
     0
 42
0.000000001
 43
0.00000001
 40
0.0
 40
0.0
 40
0.0
 40
0.0
 40
0.124999999999998
 40
0.124999999999998
 40
0.249999999999996
 40
0.249999999999996
 40
0.4999999999999973
 40
0.4999999999999973
 40
0.7499999999999987
 40
0.7499999999999987
 40
1.0
 40
1.0
 40
1.0
 40
1.0
 10
104.6199373854264
 20
94.8263756006652
 30
0.0
 10
104.7150591400922
 20
94.8263756006652
 30
0.0
 10
104.8083892088203
 20
94.8225597672724
 30
0.0
 10
104.9916509695583
 20
94.80778921454258
 30
0.0
 10
105.0825286851153
 20
94.796631166567
 30
0.0
 10
105.339330382635
 20
94.75415989642529
 30
0.0
 10
105.494397747507
 20
94.71311369922249
 30
0.0
 10
105.7481442090616
 20
94.6179675826406
 30
0.0
 10
105.8490146607295
 20
94.56320484855901
 30
0.0
 10
105.9842610754243
 20
94.45194372465515
 30
0.0
 10
106.0199373854263
 20
94.39477398732646
 30
0.0
 10
106.0199373854263
 20
94.34035241429272
 30
0.0
  0
SPLINE
  5
FE
330
1F
100
AcDbEntity
  8
0
  6
HIDDEN
 62
     7
370
     0
100
AcDbSpline
210
0.0
220
0.0
230
1.0
 70
     8
 71
     3
 72
     8
 73
     4
 74
     0
 42
0.000000001
 43
0.00000001
 40
0.0
 40
0.0
 40
0.0
 40
0.0
 40
1.0
 40
1.0
 40
1.0
 40
1.0
 10
97.21993738551899
 20
96.97117854674744
 30
0.0
 10
97.2199373855209
 20
96.08728140443051
 30
0.0
 10
97.20645675961035
 20
95.37269815936855
 30
0.0
 10
97.20510539141924
 20
94.8263756006652
 30
0.0
  0
SPLINE
  5
FF
330
1F
100
AcDbEntity
  8
0
  6
HIDDEN
 62
     7
370
     0
100
AcDbSpline
210
0.0
220
0.0
230
1.0
 70
     8
 71
     3
 72
    10
 73
     6
 74
     0
 42
0.000000001
 43
0.00000001
 40
0.0
 40
0.0
 40
0.0
 40
0.0
 40
0.5
 40
0.5
 40
1.0
 40
1.0
 40
1.0
 40
1.0
 10
96.91993738542634
 20
97.99608880617723
 30
0.0
 10
97.01132850009381
 20
97.82145001960912
 30
0.0
 10
97.08398033315392
 20
97.6478481934397
 30
0.0
 10
97.19147922500731
 20
97.30423477655285
 30
0.0
 10
97.21993738551332
 20
97.13590895104599
 30
0.0
 10
97.21993738551895
 20
96.97117854680693
 30
0.0
  0
LINE
  5
100
330
1F
100
AcDbEntity
  8
0
  6
HIDDEN
 62
     7
370
     0
100
AcDbLine
 10
96.9199373854
 20
101.0270392517
 30
0.0
 11
96.9199373854
 21
97.9960888062
 31
0.0
  0
SPLINE
  5
101
330
1F
100
AcDbEntity
  8
0
  6
HIDDEN
 62
     7
370
     0
100
AcDbSpline
210
0.0
220
0.0
230
1.0
 70
     8
 71
     3
 72
    10
 73
     6
 74
     0
 42
0.000000001
 43
0.00000001
 40
0.0
 40
0.0
 40
0.0
 40
0.0
 40
0.5
 40
0.5
 40
1.0
 40
1.0
 40
1.0
 40
1.0
 10
97.2199373855129
 20
102.394879661054
 30
0.0
 10
97.2199373855129
 20
102.1528956948396
 30
0.0
 10
97.19178735675446
 20
101.9185532671811
 30
0.0
 10
97.08819744373923
 20
101.4631782473726
 30
0.0
 10
97.01156873494563
 20
101.2415736854551
 30
0.0
 10
96.91993738542635
 20
101.0270392517157
 30
0.0
  0
LINE
  5
102
330
1F
100
AcDbEntity
  8
0
  6
HIDDEN
 62
     7
370
     0
100
AcDbLine
 10
97.2199373855
 20
114.2324996583
 30
0.0
 11
97.2199373855
 21
102.394879661
 31
0.0
  0
SPLINE
  5
103
330
1F
100
AcDbEntity
  8
0
  6
HIDDEN
 62
     7
370
     0
100
AcDbSpline
210
0.0
220
0.0
230
1.0
 70
     8
 71
     3
 72
     8
 73
     4
 74
     0
 42
0.000000001
 43
0.00000001
 40
0.0
 40
0.0
 40
0.0
 40
0.0
 40
1.0
 40
1.0
 40
1.0
 40
1.0
 10
96.91993738542635
 20
120.2348053502024
 30
0.0
 10
97.10096885016517
 20
119.8026978667279
 30
0.0
 10
97.21993738551853
 20
119.3485524630791
 30
0.0
 10
97.21993738551285
 20
118.8608524123088
 30
0.0
  0
LINE
  5
104
330
1F
100
AcDbEntity
  8
0
  6
HIDDEN
 62
     7
370
     0
100
AcDbLine
 10
96.9199373854
 20
123.2680083502
 30
0.0
 11
96.9199373854
 21
120.2348053502
 31
0.0
  0
SPLINE
  5
105
330
1F
100
AcDbEntity
  8
0
  6
HIDDEN
 62
     7
370
     0
100
AcDbSpline
210
0.0
220
0.0
230
1.0
 70
     8
 71
     3
 72
    10
 73
     6
 74
     0
 42
0.000000001
 43
0.00000001
 40
0.0
 40
0.0
 40
0.0
 40
0.0
 40
0.5
 40
0.5
 40
1.0
 40
1.0
 40
1.0
 40
1.0
 10
97.21993738553192
 20
124.2845535266167
 30
0.0
 10
97.21993738553012
 20
124.1199171810234
 30
0.0
 10
97.19277871510509
 20
123.9527619582369
 30
0.0
 10
97.08701372104545
 20
123.6141389525745
 30
0.0
 10
97.01059893352463
 20
123.4418671764177
 30
0.0
 10
96.91993738542638
 20
123.2680083501672
 30
0.0
  0
SPLINE
  5
106
330
1F
100
AcDbEntity
  8
0
  6
HIDDEN
 62
     7
370
     0
100
AcDbSpline
210
0.0
220
0.0
230
1.0
 70
     8
 71
     3
 72
    18
 73
    14
 74
     0
 42
0.000000001
 43
0.00000001
 40
0.0
 40
0.0
 40
0.0
 40
0.0
 40
0.2500000000000033
 40
0.2500000000000033
 40
0.3750000000000029
 40
0.3750000000000029
 40
0.5000000000000026
 40
0.5000000000000026
 40
0.6250000000000022
 40
0.6250000000000022
 40
0.7500000000000018
 40
0.7500000000000018
 40
1.0
 40
1.0
 40
1.0
 40
1.0
 10
102.0199373854264
 20
126.915379659101
 30
0.0
 10
102.0199373854263
 20
126.8609051385488
 30
0.0
 10
101.9850266940342
 20
126.8045240791963
 30
0.0
 10
101.8830173927011
 20
126.7204472383428
 30
0.0
 10
101.841381038023
 20
126.6931135343519
 30
0.0
 10
101.7429752425343
 20
126.6401596187529
 30
0.0
 10
101.68543203083
 20
126.6142722650357
 30
0.0
 10
101.558133857257
 20
126.5664947202025
 30
0.0
 10
101.4885465524996
 20
126.5445468020246
 30
0.0
 10
101.3371123073446
 20
126.5051142371119
 30
0.0
 10
101.2544284042507
 20
126.487557987886
 30
0.0
 10
100.9983169422126
 20
126.4451192224655
 30
0.0
 10
100.8104019383246
 20
126.4293564727285
 30
0.0
 10
100.6199373854264
 20
126.4293564727285
 30
0.0
  0
LINE
  5
107
330
1F
100
AcDbEntity
  8
0
  6
HIDDEN
 62
     7
370
     0
100
AcDbLine
 10
100.6199373854
 20
126.4293564727
 30
0.0
 11
97.2199373855
 21
126.4293564727
 31
0.0
  0
LINE
  5
108
330
1F
100
AcDbEntity
  8
0
  6
HIDDEN
 62
     7
370
     0
100
AcDbLine
 10
97.1509683988
 20
94.8263756007
 30
0.0
 11
104.6199373854
 21
94.8263756007
 31
0.0
  0
SPLINE
  5
109
330
1F
100
AcDbEntity
  8
0
  6
HIDDEN
 62
     7
370
     0
100
AcDbSpline
210
0.0
220
0.0
230
1.0
 70
     8
 71
     3
 72
    22
 73
    18
 74
     0
 42
0.000000001
 43
0.00000001
 40
0.0
 40
0.0
 40
0.0
 40
0.0
 40
0.1249999999999998
 40
0.1249999999999998
 40
0.2499999999999997
 40
0.2499999999999997
 40
0.4999999999999991
 40
0.4999999999999991
 40
0.562499999999999
 40
0.562499999999999
 40
0.624999999999999
 40
0.624999999999999
 40
0.7499999999999993
 40
0.7499999999999993
 40
0.8749999999999997
 40
0.8749999999999997
 40
1.0
 40
1.0
 40
1.0
 40
1.0
 10
97.15096839878426
 20
94.8263756006652
 30
0.0
 10
97.13788600605591
 20
95.08148131081288
 30
0.0
 10
97.12466644261607
 20
95.3746395699168
 30
0.0
 10
97.10221926482195
 20
96.03694003554159
 30
0.0
 10
97.09274079779748
 20
96.40721395615297
 30
0.0
 10
97.07354283686094
 20
97.62977075926675
 30
0.0
 10
97.0746566098578
 20
98.56690968539863
 30
0.0
 10
97.09356740281092
 20
99.88678091491361
 30
0.0
 10
97.0981969306699
 20
100.1582828238899
 30
0.0
 10
97.10867815041587
 20
100.7166676586922
 30
0.0
 10
97.11447341170029
 20
101.0037905146318
 30
0.0
 10
97.13278263260521
 20
101.8763797690035
 30
0.0
 10
97.14681756688557
 20
102.4768354453594
 30
0.0
 10
97.17627473902239
 20
103.7143099378554
 30
0.0
 10
97.19183043000398
 20
104.3513260944989
 30
0.0
 10
97.21562498000085
 20
105.6628146921835
 30
0.0
 10
97.22364403214623
 20
106.338937303844
 30
0.0
 10
97.21993738542635
 20
107.0232324151288
 30
0.0
  0
LINE
  5
10A
330
1F
100
AcDbEntity
  8
0
  6
HIDDEN
 62
     7
370
     0
100
AcDbLine
 10
97.2199373855
 20
114.2324996583
 30
0.0
 11
97.2199373855
 21
126.4293564727
 31
0.0
  0
SPLINE
  5
10B
330
1F
100
AcDbEntity
  8
0
  6
HIDDEN
 62
     7
370
     0
100
AcDbSpline
210
0.0
220
0.0
230
1.0
 70
     8
 71
     3
 72
    10
 73
     6
 74
     0
 42
0.000000001
 43
0.00000001
 40
0.0
 40
0.0
 40
0.0
 40
0.0
 40
0.5
 40
0.5
 40
1.0
 40
1.0
 40
1.0
 40
1.0
 10
97.21993738542633
 20
107.0232324151137
 30
0.0
 10
97.21993738542615
 20
107.2971475631879
 30
0.0
 10
97.19417815555832
 20
107.5680891419178
 30
0.0
 10
97.09097222282519
 20
108.1037802235204
 30
0.0
 10
97.01363405895003
 20
108.3695270270423
 30
0.0
 10
96.91993738542634
 20
108.6311657344797
 30
0.0
  0
SPLINE
  5
10C
330
1F
100
AcDbEntity
  8
0
  6
HIDDEN
 62
     7
370
     0
100
AcDbSpline
210
0.0
220
0.0
230
1.0
 70
     8
 71
     3
 72
    10
 73
     6
 74
     0
 42
0.000000001
 43
0.00000001
 40
0.0
 40
0.0
 40
0.0
 40
0.0
 40
0.5
 40
0.5
 40
1.0
 40
1.0
 40
1.0
 40
1.0
 10
96.91993738542635
 20
112.614994339545
 30
0.0
 10
97.0131679657776
 20
112.8788881461434
 30
0.0
 10
97.08819757730642
 20
113.145068455242
 30
0.0
 10
97.19326467528609
 20
113.6833910270609
 30
0.0
 10
97.2199373855307
 20
113.9561391416767
 30
0.0
 10
97.21993738553188
 20
114.232499658264
 30
0.0
  0
LINE
  5
10D
330
1F
100
AcDbEntity
  8
0
  6
HIDDEN
 62
     7
370
     0
100
AcDbLine
 10
96.9199373854
 20
108.6311657345
 30
0.0
 11
96.9199373854
 21
112.6149943395
 31
0.0
  0
LINE
  5
10E
330
1F
100
AcDbEntity
  8
0
  6
HIDDEN
 62
     7
370
     0
100
AcDbLine
 10
97.0699373854
 20
92.6378660367
 30
0.0
 11
97.0699373854
 21
89.7579282713
 31
0.0
  0
LINE
  5
10F
330
1F
100
AcDbEntity
  8
0
  6
HIDDEN
 62
     7
370
     0
100
AcDbLine
 10
106.0199373854
 20
92.6378660367
 30
0.0
 11
106.0199373854
 21
88.6641285055
 31
0.0
  0
LINE
  5
110
330
1F
100
AcDbEntity
  8
0
  6
HIDDEN
 62
     7
370
     0
100
AcDbLine
 10
97.0699373854
 20
128.6178660367
 30
0.0
 11
97.0699373854
 21
131.4978038021
 31
0.0
  0
LINE
  5
111
330
1F
100
AcDbEntity
  8
0
  6
HIDDEN
 62
     7
370
     0
100
AcDbLine
 10
102.0199373854
 20
128.6178660367
 30
0.0
 11
102.0199373854
 21
132.4719737091
 31
0.0
  0
LINE
  5
112
330
1F
100
AcDbEntity
  8
0
  6
HIDDEN
 62
     7
370
     0
100
AcDbLine
 10
146.6199373854
 20
101.1278660367
 30
0.0
 11
146.6199373854
 21
120.1278660367
 31
0.0
  0
LINE
  5
113
330
1F
100
AcDbEntity
  8
0
  6
HIDDEN
 62
     7
370
     0
100
AcDbLine
 10
149.6199373854
 20
101.1278660367
 30
0.0
 11
149.6199373854
 21
120.1278660367
 31
0.0
  0
LINE
  5
114
330
1F
100
AcDbEntity
  8
0
  6
HIDDEN
 62
     7
370
     0
100
AcDbLine
 10
138.2699373854
 20
102.1278660367
 30
0.0
 11
138.2699373854
 21
119.1278660367
 31
0.0
  0
LINE
  5
115
330
1F
100
AcDbEntity
  8
0
  6
HIDDEN
 62
     7
370
     0
100
AcDbLine
 10
153.7699373854
 20
84.2278660367
 30
0.0
 11
147.6322625831
 21
84.2278660367
 31
0.0
  0
LINE
  5
116
330
1F
100
AcDbEntity
  8
0
  6
HIDDEN
 62
     7
370
     0
100
AcDbLine
 10
144.0076121878
 20
84.2278660367
 30
0.0
 11
140.7699373854
 21
84.2278660367
 31
0.0
  0
LINE
  5
117
330
1F
100
AcDbEntity
  8
0
  6
HIDDEN
 62
     7
370
     0
100
AcDbLine
 10
132.7699373854
 20
79.1437430538
 30
0.0
 11
132.7699373854
 21
84.2278660367
 31
0.0
  0
LINE
  5
118
330
1F
100
AcDbEntity
  8
0
  6
HIDDEN
 62
     7
370
     0
100
AcDbLine
 10
140.7699373854
 20
84.2278660367
 30
0.0
 11
132.7699373854
 21
84.2278660367
 31
0.0
  0
LINE
  5
119
330
1F
100
AcDbEntity
  8
0
  6
HIDDEN
 62
     7
370
     0
100
AcDbLine
 10
144.3042349171
 20
137.0278660367
 30
0.0
 11
140.7699373854
 21
137.0278660367
 31
0.0
  0
LINE
  5
11A
330
1F
100
AcDbEntity
  8
0
  6
HIDDEN
 62
     7
370
     0
100
AcDbLine
 10
140.7699373854
 20
137.0278660367
 30
0.0
 11
132.7699373854
 21
137.0278660367
 31
0.0
  0
LINE
  5
11B
330
1F
100
AcDbEntity
  8
0
  6
HIDDEN
 62
     7
370
     0
100
AcDbLine
 10
153.7699373854
 20
137.0278660367
 30
0.0
 11
147.3356398537
 21
137.0278660367
 31
0.0
  0
LINE
  5
11C
330
1F
100
AcDbEntity
  8
0
  6
HIDDEN
 62
     7
370
     0
100
AcDbLine
 10
195.3199373854
 20
110.6278660367
 30
0.0
 11
195.3199373854
 21
103.9278660367
 31
0.0
  0
LINE
  5
11D
330
1F
100
AcDbEntity
  8
0
  6
HIDDEN
 62
     7
370
     0
100
AcDbLine
 10
195.3199373854
 20
117.3278660367
 30
0.0
 11
195.3199373854
 21
110.6278660367
 31
0.0
  0
LINE
  5
11E
330
1F
100
AcDbEntity
  8
0
  6
HIDDEN
 62
     7
370
     0
100
AcDbLine
 10
198.6859627892
 20
110.6278660367
 30
0.0
 11
198.6859627892
 21
103.6278660367
 31
0.0
  0
LINE
  5
11F
330
1F
100
AcDbEntity
  8
0
  6
HIDDEN
 62
     7
370
     0
100
AcDbLine
 10
198.6859627892
 20
117.6278660367
 30
0.0
 11
198.6859627892
 21
110.6278660367
 31
0.0
  0
SPLINE
  5
120
330
1F
100
AcDbEntity
  8
0
  6
HIDDEN
 62
     7
370
     0
100
AcDbSpline
210
0.0
220
0.0
230
1.0
 70
     8
 71
     3
 72
    11
 73
     7
 74
     0
 42
0.000000001
 43
0.00000001
 40
0.0
 40
0.0
 40
0.0
 40
0.0
 40
0.0008203708524183
 40
0.0008203708524183
 40
0.0008203708524183
 40
0.0016409967870154
 40
0.0016409967870154
 40
0.0016409967870154
 40
0.0016409967870154
 10
97.06993738542636
 20
94.77583328605412
 30
0.0
 10
96.87877908512769
 20
94.734654257435
 30
0.0
 10
96.68735201505552
 20
94.695900285205
 30
0.0
 10
96.4957063915349
 20
94.65953252592647
 30
0.0
 10
96.30400098645441
 20
94.62315342216043
 30
0.0
 10
96.11206203439545
 20
94.58915917139286
 30
0.0
 10
95.91993738732465
 20
94.55751104600166
 30
0.0
  0
ELLIPSE
  5
121
330
1F
100
AcDbEntity
  8
0
  6
HIDDEN
 62
     7
370
     0
100
AcDbEllipse
 10
91.6775055227
 20
110.6278660367
 30
0.0
 11
20.19992452771987
 21
-1.421085471520200E-14
 31
0.0
210
0.0
220
0.0
230
1.0
 40
0.816496581
 41
1.300566354937426
 42
1.359198697443033
  0
LINE
  5
122
330
1F
100
AcDbEntity
  8
0
  6
HIDDEN
 62
     7
370
     0
100
AcDbLine
 10
106.0199373854
 20
92.6378660367
 30
0.0
 11
106.0199373854
 21
94.3403524143
 31
0.0
  0
LINE
  5
123
330
1F
100
AcDbEntity
  8
0
  6
HIDDEN
 62
     7
370
     0
100
AcDbLine
 10
97.0699373854
 20
92.6378660367
 30
0.0
 11
97.0699373854
 21
94.7758332861
 31
0.0
  0
LINE
  5
124
330
1F
100
AcDbEntity
  8
0
  6
HIDDEN
 62
     7
370
     0
100
AcDbLine
 10
97.1509683988
 20
94.8263756007
 30
0.0
 11
97.0699373854
 21
94.7758332861
 31
0.0
  0
LINE
  5
125
330
1F
100
AcDbEntity
  8
0
  6
HIDDEN
 62
     7
370
     0
100
AcDbLine
 10
97.0699373854
 20
128.6178660367
 30
0.0
 11
97.0699373854
 21
126.5224904857
 31
0.0
  0
SPLINE
  5
126
330
1F
100
AcDbEntity
  8
0
  6
HIDDEN
 62
     7
370
     0
100
AcDbSpline
210
0.0
220
0.0
230
1.0
 70
     8
 71
     3
 72
     8
 73
     4
 74
     0
 42
0.000000001
 43
0.00000001
 40
0.0
 40
0.0
 40
0.0
 40
0.0
 40
1.0
 40
1.0
 40
1.0
 40
1.0
 10
97.06993738542636
 20
126.5224904856956
 30
0.0
 10
97.11994288327394
 20
126.4914547121627
 30
0.0
 10
97.16994295284242
 20
126.4604100678218
 30
0.0
 10
97.21993738553189
 20
126.4293564727285
 30
0.0
  0
LINE
  5
127
330
1F
100
AcDbEntity
  8
0
  6
HIDDEN
 62
     7
370
     0
100
AcDbLine
 10
102.0199373854
 20
128.6178660367
 30
0.0
 11
102.0199373854
 21
126.9153796591
 31
0.0
  0
LWPOLYLINE
  5
128
330
1F
100
AcDbEntity
  8
0
  6
HIDDEN
 62
     7
370
     0
100
AcDbPolyline
 90
       17
 70
   128
 43
0.0
 10
122.5685840733
 20
87.0279240106
 10
122.3399111484
 20
87.0889811614
 10
122.0027996134
 20
87.166664811
 10
121.4841084913
 20
87.2756660355
 10
120.7423320826
 20
87.4057710696
 10
120.0121227678
 20
87.5063498806
 10
118.8407026167
 20
87.6189288328
 10
117.5191226329
 20
87.6450120093
 10
116.8305797251
 20
87.6238473629
 10
116.1804533715
 20
87.5798785602
 10
115.5998073606
 20
87.5229029084
 10
115.2638300654
 20
87.4821397997
 10
115.0699571962
 20
87.449251212
 10
115.2589564671
 20
87.4813006618
 10
115.590944082
 20
87.5217166659
 10
116.1637946109
 20
87.5783935227
 10
116.1637946109
 20
87.5783935227
  0
SPLINE
  5
129
330
1F
100
AcDbEntity
  8
0
  6
HIDDEN
 62
     7
370
     0
100
AcDbSpline
210
0.0
220
0.0
230
1.0
 70
     8
 71
     3
 72
    27
 73
    23
 74
     0
 42
0.000000001
 43
0.00000001
 40
0.0
 40
0.0
 40
0.0
 40
0.0
 40
0.0008027251992218
 40
0.0456851763128261
 40
0.1022667659059879
 40
0.1705447643709827
 40
0.2091363846690449
 40
0.2506635679240528
 40
0.3211092506234204
 40
0.3862028975822335
 40
0.4266819930090446
 40
0.4648131946764381
 40
0.5006174633387732
 40
0.5452091677585201
 40
0.6017033480355196
 40
0.6701092309501752
 40
0.7088465090312787
 40
0.7505751985258
 40
0.8222396876991499
 40
0.887779024415909
 40
0.9472526996322452
 40
0.9999999999999999
 40
0.9999999999999999
 40
0.9999999999999999
 40
0.9999999999999999
 10
115.0706010988544
 20
133.8062812054438
 30
0.0
 10
115.0703803895093
 20
133.8063287825126
 30
0.0
 10
115.0578192473442
 20
133.8090365170894
 30
0.0
 10
115.1068976424889
 20
133.7972041061645
 30
0.0
 10
115.251999846548
 20
133.7737604341989
 30
0.0
 10
115.5250527200727
 20
133.7398561227973
 30
0.0
 10
115.8535790868011
 20
133.7062873518276
 30
0.0
 10
116.2463068818529
 20
133.6681040064506
 30
0.0
 10
116.7960348441847
 20
133.6291353368534
 30
0.0
 10
117.422057492851
 20
133.6096742316661
 30
0.0
 10
117.9652490027237
 20
133.607488553955
 30
0.0
 10
118.4103178996847
 20
133.6160034351103
 30
0.0
 10
118.8767656960823
 20
133.6357868320353
 30
0.0
 10
119.4140063453795
 20
133.6799492175864
 30
0.0
 10
120.0622197753678
 20
133.7523648374002
 30
0.0
 10
120.6477584085166
 20
133.8332669313754
 30
0.0
 10
121.1287280154272
 20
133.9114329179335
 30
0.0
 10
121.5741429448667
 20
133.9962050651725
 30
0.0
 10
122.0126424581379
 20
134.0899880553567
 30
0.0
 10
122.3516684649765
 20
134.1678920111737
 30
0.0
 10
122.5390146972181
 20
134.2180850964893
 30
0.0
 10
122.5595047609187
 20
134.2247517005538
 30
0.0
 10
122.569135719293
 20
134.2278852089304
 30
0.0
  0
SPLINE
  5
12A
330
1F
100
AcDbEntity
  8
0
  6
HIDDEN
 62
     7
370
     0
100
AcDbSpline
210
0.0
220
0.0
230
1.0
 70
     8
 71
     3
 72
     8
 73
     4
 74
     0
 42
0.000000001
 43
0.00000001
 40
0.0
 40
0.0
 40
0.0
 40
0.0
 40
0.0001590976915385
 40
0.0001590976915385
 40
0.0001590976915385
 40
0.0001590976915385
 10
97.20510539141924
 20
94.8263756006652
 30
0.0
 10
97.16005392198973
 20
94.79839671701454
 30
0.0
 10
97.11499788464997
 20
94.77042518731223
 30
0.0
 10
97.06993738542637
 20
94.74246084863213
 30
0.0
  0
SPLINE
  5
12B
330
1F
100
AcDbEntity
  8
0
  6
HIDDEN
 62
     7
370
     0
100
AcDbSpline
210
0.0
220
0.0
230
1.0
 70
     8
 71
     3
 72
    11
 73
     7
 74
     0
 42
0.000000001
 43
0.00000001
 40
0.0
 40
0.0
 40
0.0
 40
0.0
 40
0.000821290931132
 40
0.000821290931132
 40
0.000821290931132
 40
0.0016428257242788
 40
0.0016428257242788
 40
0.0016428257242788
 40
0.0016428257242788
 10
97.06993738542636
 20
94.74246084863213
 30
0.0
 10
96.87879236394392
 20
94.69917465981051
 30
0.0
 10
96.68737402826733
 20
94.65823815020472
 30
0.0
 10
96.49572795360619
 20
94.61963637885026
 30
0.0
 10
96.3040248720646
 20
94.5810231250453
 30
0.0
 10
96.11207974877925
 20
94.54474291579206
 30
0.0
 10
95.91993738542634
 20
94.51077600947394
 30
0.0
  0
LINE
  5
12C
330
1F
100
AcDbEntity
  8
0
  6
HIDDEN
 62
     7
370
     0
100
AcDbLine
 10
143.9099373854
 20
130.7637326682
 30
0.0
 11
143.9099373854
 21
130.4778660367
 31
0.0
  0
LINE
  5
12D
330
1F
100
AcDbEntity
  8
0
  6
HIDDEN
 62
     7
370
     0
100
AcDbLine
 10
147.7299373854
 20
130.7637326682
 30
0.0
 11
147.7299373854
 21
130.4778660367
 31
0.0
  0
LINE
  5
12E
330
1F
100
AcDbEntity
  8
0
  6
HIDDEN
 62
     7
370
     0
100
AcDbLine
 10
149.2118702169
 20
135.0865556991
 30
0.0
 11
149.2118702169
 21
130.4778660367
 31
0.0
  0
SPLINE
  5
12F
330
1F
100
AcDbEntity
  8
0
  6
HIDDEN
 62
     7
370
     0
100
AcDbSpline
210
0.0
220
0.0
230
1.0
 70
     8
 71
     3
 72
     8
 73
     4
 74
     0
 42
0.000000001
 43
0.00000001
 40
0.0
 40
0.0
 40
0.0
 40
0.0
 40
0.0011563724678166
 40
0.0011563724678166
 40
0.0011563724678166
 40
0.0011563724678166
 10
96.91993738542634
 20
123.2680083501672
 30
0.0
 10
96.58661627022921
 20
123.3970673757941
 30
0.0
 10
96.25328358942123
 20
123.5260277119678
 30
0.0
 10
95.91993738542634
 20
123.6549392417408
 30
0.0
  0
SPLINE
  5
130
330
1F
100
AcDbEntity
  8
0
  6
HIDDEN
 62
     7
370
     0
100
AcDbSpline
210
0.0
220
0.0
230
1.0
 70
     8
 71
     3
 72
     8
 73
     4
 74
     0
 42
0.000000001
 43
0.00000001
 40
0.0
 40
0.0
 40
0.0
 40
0.0
 40
0.0011557494192775
 40
0.0011557494192775
 40
0.0011557494192775
 40
0.0011557494192775
 10
95.91993738542631
 20
97.60064417424601
 30
0.0
 10
96.25327119544048
 20
97.7322684504409
 30
0.0
 10
96.58660480710314
 20
97.86408536401436
 30
0.0
 10
96.91993738542635
 20
97.99608880617724
 30
0.0
  0
SPLINE
  5
131
330
1F
100
AcDbEntity
  8
0
  6
HIDDEN
 62
     7
370
     0
100
AcDbSpline
210
0.0
220
0.0
230
1.0
 70
     8
 71
     3
 72
     8
 73
     4
 74
     0
 42
0.000000001
 43
0.00000001
 40
0.0000000000000006
 40
0.0000000000000006
 40
0.0000000000000006
 40
0.0000000000000006
 40
0.0011560973009451
 40
0.0011560973009451
 40
0.0011560973009451
 40
0.0011560973009451
 10
95.91993738542632
 20
120.608680529984
 30
0.0
 10
96.25327712301306
 20
120.4839367977107
 30
0.0
 10
96.58660775622168
 20
120.3592555735336
 30
0.0
 10
96.91993738542634
 20
120.2348053502024
 30
0.0
  0
SPLINE
  5
132
330
1F
100
AcDbEntity
  8
0
  6
HIDDEN
 62
     7
370
     0
100
AcDbSpline
210
0.0
220
0.0
230
1.0
 70
     8
 71
     3
 72
     8
 73
     4
 74
     0
 42
0.000000001
 43
0.00000001
 40
0.0
 40
0.0
 40
0.0
 40
0.0
 40
0.0011564805411644
 40
0.0011564805411644
 40
0.0011564805411644
 40
0.0011564805411644
 10
96.91993738542635
 20
101.0270392517157
 30
0.0
 10
96.58663542002489
 20
100.9001883112815
 30
0.0
 10
96.25329860311824
 20
100.7736232424192
 30
0.0
 10
95.91993738542637
 20
100.6472232687585
 30
0.0
  0
CIRCLE
  5
133
330
1F
100
AcDbEntity
  8
0
  6
HIDDEN
 62
     7
370
     0
100
AcDbCircle
 10
134.8199373854
 20
110.6278660367
 30
0.0
 40
5.0
  0
CIRCLE
  5
134
330
1F
100
AcDbEntity
  8
0
  6
HIDDEN
 62
     7
370
     0
100
AcDbCircle
 10
204.7699373854
 20
110.6278660367
 30
0.0
 40
4.000000000000028
  0
LINE
  5
135
330
1F
100
AcDbEntity
  8
0
  6
HIDDEN
 62
     7
370
     0
100
AcDbLine
 10
127.8199373854
 20
85.3039348907
 30
0.0
 11
127.914098161
 21
85.9739236219
 31
0.0
  0
LINE
  5
136
330
1F
100
AcDbEntity
  8
0
  6
HIDDEN
 62
     7
370
     0
100
AcDbLine
 10
127.914098161
 20
135.2818084515
 30
0.0
 11
127.8199373854
 21
135.9517971827
 31
0.0
  0
ARC
  5
137
330
1F
100
AcDbEntity
  8
0
  6
HIDDEN
 62
     7
370
     0
100
AcDbCircle
 10
127.3199306328
 20
86.0574284223
 30
0.0
 40
0.600006752667682
100
AcDbArc
 50
352.0
 51
0.0
  0
ARC
  5
138
330
1F
100
AcDbEntity
  8
0
  6
HIDDEN
 62
     7
370
     0
100
AcDbCircle
 10
127.3199306328
 20
86.0574284223
 30
0.0
 40
0.6000067526677203
100
AcDbArc
 50
0.0
 51
33.5571153394
  0
ARC
  5
139
330
1F
100
AcDbEntity
  8
0
  6
HIDDEN
 62
     7
370
     0
100
AcDbCircle
 10
127.3199306328
 20
135.1983036511
 30
0.0
 40
0.6000067526676974
100
AcDbArc
 50
348.75
 51
8.0
  0
LWPOLYLINE
  5
13A
330
1F
100
AcDbEntity
  8
0
  6
HIDDEN
 62
     7
370
     0
100
AcDbPolyline
 90
        3
 70
   128
 43
0.0
 10
127.9084084239
 20
135.0812481405
 10
127.8742645909
 20
134.9686910075
 10
127.8199373854
 20
134.8666391361
  0
LINE
  5
13B
330
1F
100
AcDbEntity
  8
0
  6
HIDDEN
 62
     7
370
     0
100
AcDbLine
 10
127.9199373854
 20
86.0574284223
 30
0.0
 11
127.9199373854
 21
135.1983036511
 31
0.0
  0
LINE
  5
13C
330
1F
100
AcDbEntity
  8
0
  6
HIDDEN
 62
     7
370
     0
100
AcDbLine
 10
110.9023729507
 20
90.6278660367
 30
0.0
 11
115.0753173123
 21
90.6278660367
 31
0.0
  0
LINE
  5
13D
330
1F
100
AcDbEntity
  8
0
  6
HIDDEN
 62
     7
370
     0
100
AcDbLine
 10
115.0753173123
 20
130.6278660367
 30
0.0
 11
110.9023729507
 21
130.6278660367
 31
0.0
  0
ARC
  5
13E
330
1F
100
AcDbEntity
  8
0
  6
HIDDEN
 62
     7
370
     0
100
AcDbCircle
 10
121.574939387
 20
98.6278660367
 30
0.0
 40
8.000000000000004
100
AcDbArc
 50
277.1258942592
 51
321.3178125465
  0
ARC
  5
13F
330
1F
100
AcDbEntity
  8
0
  6
HIDDEN
 62
     7
370
     0
100
AcDbCircle
 10
121.574939387
 20
122.6278660367
 30
0.0
 40
7.999999999999996
100
AcDbArc
 50
38.6821874535
 51
82.8573934548
  0
ARC
  5
140
330
1F
100
AcDbEntity
  8
0
  6
HIDDEN
 62
     7
370
     0
100
AcDbCircle
 10
110.9023729507
 20
91.2278660367
 30
0.0
 40
0.5999999999999943
100
AcDbArc
 50
210.0
 51
270.0
  0
ARC
  5
141
330
1F
100
AcDbEntity
  8
0
  6
HIDDEN
 62
     7
370
     0
100
AcDbCircle
 10
110.9023729507
 20
130.0278660367
 30
0.0
 40
0.6000000000000052
100
AcDbArc
 50
90.0
 51
150.0
  0
LINE
  5
142
330
1F
100
AcDbEntity
  8
0
  6
HIDDEN
 62
     7
370
     0
100
AcDbLine
 10
110.3827577085
 20
130.3278660367
 30
0.0
 11
108.8239119816
 21
127.6278660367
 31
0.0
  0
LINE
  5
143
330
1F
100
AcDbEntity
  8
0
  6
HIDDEN
 62
     7
370
     0
100
AcDbLine
 10
108.8239119816
 20
93.6278660367
 30
0.0
 11
110.3827577085
 21
90.9278660367
 31
0.0
  0
ARC
  5
144
330
1F
100
AcDbEntity
  8
0
  6
HIDDEN
 62
     7
370
     0
100
AcDbCircle
 10
136.2699373854
 20
94.9028660367
 30
0.0
 40
1.500000000000004
100
AcDbArc
 50
238.2116693829
 51
0.0
  0
ARC
  5
145
330
1F
100
AcDbEntity
  8
0
  6
HIDDEN
 62
     7
370
     0
100
AcDbCircle
 10
136.2699373854
 20
126.3528660367
 30
0.0
 40
1.500000000000004
100
AcDbArc
 50
0.0
 51
121.7883306171
  0
LINE
  5
146
330
1F
100
AcDbEntity
  8
0
  6
HIDDEN
 62
     7
370
     0
100
AcDbLine
 10
106.0199373854
 20
93.6278660367
 30
0.0
 11
108.8239119816
 21
93.6278660367
 31
0.0
  0
LINE
  5
147
330
1F
100
AcDbEntity
  8
0
  6
HIDDEN
 62
     7
370
     0
100
AcDbLine
 10
108.8239119816
 20
127.6278660367
 30
0.0
 11
102.0199373854
 21
127.6278660367
 31
0.0
  0
LINE
  5
148
330
1F
100
AcDbEntity
  8
0
  6
HIDDEN
 62
     7
370
     0
100
AcDbLine
 10
127.8199373854
 20
93.6278660367
 30
0.0
 11
135.479763354
 21
93.6278660367
 31
0.0
  0
LINE
  5
149
330
1F
100
AcDbEntity
  8
0
  6
HIDDEN
 62
     7
370
     0
100
AcDbLine
 10
135.479763354
 20
127.6278660367
 30
0.0
 11
127.8199373854
 21
127.6278660367
 31
0.0
  0
LINE
  5
14A
330
1F
100
AcDbEntity
  8
0
  6
HIDDEN
 62
     7
370
     0
100
AcDbLine
 10
146.6199373854
 20
101.1278660367
 30
0.0
 11
149.6199373854
 21
101.1278660367
 31
0.0
  0
LINE
  5
14B
330
1F
100
AcDbEntity
  8
0
  6
HIDDEN
 62
     7
370
     0
100
AcDbLine
 10
149.6199373854
 20
120.1278660367
 30
0.0
 11
146.6199373854
 21
120.1278660367
 31
0.0
  0
LINE
  5
14C
330
1F
100
AcDbEntity
  8
0
  6
HIDDEN
 62
     7
370
     0
100
AcDbLine
 10
137.7699373854
 20
101.6278660367
 30
0.0
 11
138.2699373854
 21
102.1278660367
 31
0.0
  0
LINE
  5
14D
330
1F
100
AcDbEntity
  8
0
  6
HIDDEN
 62
     7
370
     0
100
AcDbLine
 10
138.2699373854
 20
119.1278660367
 30
0.0
 11
137.7699373854
 21
119.6278660367
 31
0.0
  0
LINE
  5
14E
330
1F
100
AcDbEntity
  8
0
  6
HIDDEN
 62
     7
370
     0
100
AcDbLine
 10
138.2699373854
 20
102.1278660367
 30
0.0
 11
146.6199373854
 21
102.1278660367
 31
0.0
  0
LINE
  5
14F
330
1F
100
AcDbEntity
  8
0
  6
HIDDEN
 62
     7
370
     0
100
AcDbLine
 10
146.6199373854
 20
119.1278660367
 30
0.0
 11
138.2699373854
 21
119.1278660367
 31
0.0
  0
ARC
  5
150
330
1F
100
AcDbEntity
  8
0
  6
HIDDEN
 62
     7
370
     0
100
AcDbCircle
 10
212.8199373854
 20
118.6278660367
 30
0.0
 40
1.0
100
AcDbArc
 50
270.0
 51
0.0
  0
ARC
  5
151
330
1F
100
AcDbEntity
  8
0
  6
HIDDEN
 62
     7
370
     0
100
AcDbCircle
 10
212.8199373854
 20
102.6278660367
 30
0.0
 40
1.0
100
AcDbArc
 50
0.0
 51
90.0
  0
LINE
  5
152
330
1F
100
AcDbEntity
  8
0
  6
HIDDEN
 62
     7
370
     0
100
AcDbLine
 10
132.7699373854
 20
142.1278660367
 30
0.0
 11
132.7699373854
 21
137.0278660367
 31
0.0
  0
LINE
  5
153
330
1F
100
AcDbEntity
  8
0
  6
HIDDEN
 62
     7
370
     0
100
AcDbLine
 10
196.7146153874
 20
118.1278660367
 30
0.0
 11
196.1199373854
 21
118.1278660367
 31
0.0
  0
LINE
  5
154
330
1F
100
AcDbEntity
  8
0
  6
HIDDEN
 62
     7
370
     0
100
AcDbLine
 10
196.1199373854
 20
103.1278660367
 30
0.0
 11
196.7146153874
 21
103.1278660367
 31
0.0
  0
ARC
  5
155
330
1F
100
AcDbEntity
  8
0
  6
HIDDEN
 62
     7
370
     0
100
AcDbCircle
 10
196.7146153874
 20
117.3278660367
 30
0.0
 40
0.7999999999999982
100
AcDbArc
 50
75.0
 51
90.0
  0
ARC
  5
156
330
1F
100
AcDbEntity
  8
0
  6
HIDDEN
 62
     7
370
     0
100
AcDbCircle
 10
196.7146153874
 20
103.9278660367
 30
0.0
 40
0.7999999999999982
100
AcDbArc
 50
270.0
 51
285.0
  0
ARC
  5
157
330
1F
100
AcDbEntity
  8
0
  6
HIDDEN
 62
     7
370
     0
100
AcDbCircle
 10
196.1199373854
 20
117.3278660367
 30
0.0
 40
0.7999999999999972
100
AcDbArc
 50
90.0
 51
180.0
  0
ARC
  5
158
330
1F
100
AcDbEntity
  8
0
  6
HIDDEN
 62
     7
370
     0
100
AcDbCircle
 10
196.1199373854
 20
103.9278660367
 30
0.0
 40
0.799999999999983
100
AcDbArc
 50
180.0
 51
270.0
  0
LINE
  5
159
330
1F
100
AcDbEntity
  8
0
  6
HIDDEN
 62
     7
370
     0
100
AcDbLine
 10
196.9216706234
 20
103.1551253757
 30
0.0
 11
198.6859627892
 21
103.6278660367
 31
0.0
  0
LINE
  5
15A
330
1F
100
AcDbEntity
  8
0
  6
HIDDEN
 62
     7
370
     0
100
AcDbLine
 10
198.6859627892
 20
117.6278660367
 30
0.0
 11
196.9216706234
 21
118.1006066977
 31
0.0
  0
LINE
  5
15B
330
1F
100
AcDbEntity
  8
0
  6
HIDDEN
 62
     7
370
     0
100
AcDbLine
 10
212.8199373854
 20
117.6278660367
 30
0.0
 11
198.6859627892
 21
117.6278660367
 31
0.0
  0
LINE
  5
15C
330
1F
100
AcDbEntity
  8
0
  6
HIDDEN
 62
     7
370
     0
100
AcDbLine
 10
198.6859627892
 20
103.6278660367
 30
0.0
 11
212.8199373854
 21
103.6278660367
 31
0.0
  0
LINE
  5
15D
330
1F
100
AcDbEntity
  8
0
  6
HIDDEN
 62
     7
370
     0
100
AcDbLine
 10
123.0043752159
 20
86.5484947031
 30
0.0
 11
122.5699430664
 21
87.0275607223
 31
0.0
  0
LINE
  5
15E
330
1F
100
AcDbEntity
  8
0
  6
HIDDEN
 62
     7
370
     0
100
AcDbLine
 10
115.0699397413
 20
87.4492486814
 30
0.0
 11
114.587505998
 21
86.9701827059
 31
0.0
  0
LINE
  5
15F
330
1F
100
AcDbEntity
  8
0
  6
HIDDEN
 62
     7
370
     0
100
AcDbLine
 10
114.5873840697
 20
134.285544077
 30
0.0
 11
115.0699348207
 21
133.8064238191
 31
0.0
  0
LINE
  5
160
330
1F
100
AcDbEntity
  8
0
  6
HIDDEN
 62
     7
370
     0
100
AcDbLine
 10
122.5699372674
 20
134.2281215968
 30
0.0
 11
123.0044796578
 21
134.7072418474
 31
0.0
  0
LINE
  5
161
330
1F
100
AcDbEntity
  8
0
  6
HIDDEN
 62
     7
370
     0
100
AcDbLine
 10
149.6199373854
 20
106.4278660367
 30
0.0
 11
195.3199373854
 21
106.4278660367
 31
0.0
  0
LINE
  5
162
330
1F
100
AcDbEntity
  8
0
  6
HIDDEN
 62
     7
370
     0
100
AcDbLine
 10
195.3199373854
 20
114.8278660367
 30
0.0
 11
149.6199373854
 21
114.8278660367
 31
0.0
  0
LINE
  5
163
330
1F
100
AcDbEntity
  8
0
  6
HIDDEN
 62
     7
370
     0
100
AcDbLine
 10
122.5699373854
 20
130.5656624826
 30
0.0
 11
122.5699373854
 21
134.2278302907
 31
0.0
  0
LINE
  5
164
330
1F
100
AcDbEntity
  8
0
  6
HIDDEN
 62
     7
370
     0
100
AcDbLine
 10
115.0699373854
 20
133.8062800399
 30
0.0
 11
115.0699373854
 21
130.6268581996
 31
0.0
  0
LINE
  5
165
330
1F
100
AcDbEntity
  8
0
  6
HIDDEN
 62
     7
370
     0
100
AcDbLine
 10
122.5699373854
 20
87.028044624
 30
0.0
 11
122.5699373854
 21
90.6900695908
 31
0.0
  0
LINE
  5
166
330
1F
100
AcDbEntity
  8
0
  6
HIDDEN
 62
     7
370
     0
100
AcDbLine
 10
115.0699373854
 20
90.6288738738
 30
0.0
 11
115.0699373854
 21
87.4495719192
 31
0.0
  0
DIMENSION
  5
167
330
1F
100
AcDbEntity
  8
VERMASSUNG
100
AcDbDimension
  2
_D
 10
90.9277289852
 20
79.1278660367
 30
0.0
 11
90.9277289852
 21
110.6278660367
 31
0.0
 70
   160
  1
HSK A %%c<>
 71
     2
 42
-1.0
  3
SLDDIMSTYLE0
100
AcDbAlignedDimension
 13
128.1199373854
 23
142.1278660367
 33
0.0
 14
128.1199373854
 24
79.1278660367
 34
0.0
 50
90.0
100
AcDbRotatedDimension
  0
DIMENSION
  5
174
330
1F
100
AcDbEntity
  8
VERMASSUNG
100
AcDbDimension
  2
_D_1
 10
221.4814980861
 20
103.6278660367
 30
0.0
 11
221.4814980861
 21
110.6278660367
 31
0.0
 70
   160
  1
%%c<>
 71
     2
 42
-1.0
  3
SLDDIMSTYLE0
100
AcDbAlignedDimension
 13
212.8199373854
 23
117.6278660367
 33
0.0
 14
212.8199373854
 24
103.6278660367
 34
0.0
 50
90.0
100
AcDbRotatedDimension
  0
DIMENSION
  5
17F
330
1F
100
AcDbEntity
  8
VERMASSUNG
100
AcDbDimension
  2
_D_2
 10
227.4814980861
 20
98.1278660367
 30
0.0
 11
227.4814980861
 21
110.6278660367
 31
0.0
 70
   160
  1
WH%%c<>
 71
     2
 42
-1.0
  3
SLDDIMSTYLE0
100
AcDbAlignedDimension
 13
213.6199373854
 23
123.1278660367
 33
0.0
 14
213.6199373854
 24
98.1278660367
 34
0.0
 50
90.0
100
AcDbRotatedDimension
  0
DIMENSION
  5
18B
330
1F
100
AcDbEntity
  8
VERMASSUNG
100
AcDbDimension
  2
_D_3
 10
153.7699373854
 20
145.9218708024
 30
0.0
 11
183.7949373854
 21
145.9218708024
 31
0.0
 70
   160
  1
(<>)
 71
     2
 42
-1.0
  3
SLDDIMSTYLE0
100
AcDbAlignedDimension
 13
213.8199373854
 23
122.9278660367
 33
0.0
 14
153.7699373854
 24
140.4743063605
 34
0.0
100
AcDbRotatedDimension
  0
DIMENSION
  5
197
330
1F
100
AcDbEntity
  8
VERMASSUNG
100
AcDbDimension
  2
_D_4
 10
127.8199373854
 20
151.9218708024
 30
0.0
 11
170.8199373854
 21
151.9218708024
 31
0.0
 70
   160
  1
<>
 71
     2
 42
-1.0
  3
SLDDIMSTYLE0
100
AcDbAlignedDimension
 13
213.8199373854
 23
122.9278660367
 33
0.0
 14
127.8199373854
 24
141.8278660367
 34
0.0
100
AcDbRotatedDimension
  0
DIMENSION
  5
1A1
330
1F
100
AcDbEntity
  8
VERMASSUNG
100
AcDbDimension
  2
_D_5
 10
95.9199373854
 20
157.9218708024
 30
0.0
 11
154.8699373854
 21
157.9218708024
 31
0.0
 70
   160
  1
(<>)
 71
     2
 42
-1.0
  3
SLDDIMSTYLE0
100
AcDbAlignedDimension
 13
213.8199373854
 23
122.9278660367
 33
0.0
 14
95.9199373854
 24
130.3185437832
 34
0.0
100
AcDbRotatedDimension
  0
LINE
  5
1AD
330
1F
100
AcDbEntity
  8
VERMASSUNG
  6
CENTERX2
370
     0
100
AcDbLine
 10
94.7977520865
 20
110.6278660367
 30
0.0
 11
214.7705300185
 21
110.6278660367
 31
0.0
  0
LINE
  5
1AE
330
1F
100
AcDbEntity
  8
0
  6
Continuous
 62
     7
370
    15
100
AcDbLine
 10
261.921636743
 20
31.9096915089
 30
0.0
 11
261.9923359286
 21
31.950518549
 31
0.0
  0
LINE
  5
1AF
330
1F
100
AcDbEntity
  8
0
  6
Continuous
 62
     7
370
    15
100
AcDbLine
 10
266.3403358458
 20
39.4822914001
 30
0.0
 11
266.3403358458
 21
39.5639322113
 31
0.0
  0
LINE
  5
1B0
330
1F
100
AcDbEntity
  8
0
  6
Continuous
 62
     7
370
    15
100
AcDbLine
 10
265.0456645029
 20
42.4254622517
 30
0.0
 11
244.9461542476
 21
54.028662541
 31
0.0
  0
LINE
  5
1B1
330
1F
100
AcDbEntity
  8
0
  6
Continuous
 62
     7
370
    15
100
AcDbLine
 10
238.6966621686
 20
43.2030517612
 30
0.0
 11
258.7961724239
 21
31.5998514719
 31
0.0
  0
SPLINE
  5
1B2
330
1F
100
AcDbEntity
  8
0
  6
Continuous
 62
     7
370
    15
100
AcDbSpline
210
0.0
220
0.0
230
1.0
 70
     8
 71
     3
 72
    22
 73
    18
 74
     0
 42
0.000000001
 43
0.00000001
 40
0.0
 40
0.0
 40
0.0
 40
0.0
 40
0.0530084575729381
 40
0.1232306201898808
 40
0.189636837114854
 40
0.2603863656061925
 40
0.3296055810849008
 40
0.3985889057994308
 40
0.4677613144586791
 40
0.5372873469921182
 40
0.6071222088728306
 40
0.6771482339169484
 40
0.7472252697218602
 40
0.81717240735183
 40
0.8868277426998604
 40
0.956053246776835
 40
1.0
 40
1.0
 40
1.0
 40
1.0
 10
259.8821354030036
 20
34.15978130079681
 30
0.0
 10
259.8294508090454
 20
34.19111523177401
 30
0.0
 10
259.7069730859577
 20
34.26395831991693
 30
0.0
 10
259.5550220894484
 20
34.46207763659242
 30
0.0
 10
259.4168134336853
 20
34.7508728564455
 30
0.0
 10
259.3280574534301
 20
35.1199932321159
 30
0.0
 10
259.2988373178373
 20
35.56162608274914
 30
0.0
 10
259.3353925569504
 20
36.05085541382083
 30
0.0
 10
259.4387419518883
 20
36.57443287767176
 30
0.0
 10
259.607851473303
 20
37.11707734007638
 30
0.0
 10
259.8391106781011
 20
37.66226396876126
 30
0.0
 10
260.1263185150517
 20
38.19302323344283
 30
0.0
 10
260.4608237946999
 20
38.692560210816
 30
0.0
 10
260.8319479257771
 20
39.14574211162041
 30
0.0
 10
261.2268285971609
 20
39.5371689806723
 30
0.0
 10
261.5842260931595
 20
39.82293031300144
 30
0.0
 10
261.8030732729367
 20
39.95701131757588
 30
0.0
 10
261.8880554340483
 20
40.00907730053424
 30
0.0
  0
SPLINE
  5
1B3
330
1F
100
AcDbEntity
  8
0
  6
Continuous
 62
     7
370
    15
100
AcDbSpline
210
0.0
220
0.0
230
1.0
 70
     8
 71
     3
 72
    13
 73
     9
 74
     0
 42
0.000000001
 43
0.00000001
 40
0.0
 40
0.0
 40
0.0
 40
0.0
 40
0.1056466922290025
 40
0.3072730629540923
 40
0.5087350241358036
 40
0.7126795009002042
 40
0.926009529318683
 40
1.0
 40
1.0
 40
1.0
 40
1.0
 10
261.8880554340483
 20
40.00907730053424
 30
0.0
 10
261.9563745305913
 20
40.04651488852941
 30
0.0
 10
262.1550804021156
 20
40.15540199223499
 30
0.0
 10
262.4699036178375
 20
40.2733549644386
 30
0.0
 10
262.8095205472891
 20
40.33698294171936
 30
0.0
 10
263.1010984375016
 20
40.319397913509
 30
0.0
 10
263.2965524071869
 20
40.26993211544409
 30
0.0
 10
263.3870378529181
 20
40.20000466409503
 30
0.0
 10
263.4103395690868
 20
40.18199702087057
 30
0.0
  0
LINE
  5
1B4
330
1F
100
AcDbEntity
  8
0
  6
Continuous
 62
     7
370
    15
100
AcDbLine
 10
223.8177435481
 20
40.8231106695
 30
0.0
 11
228.8764092084
 21
37.9028051443
 31
0.0
  0
LINE
  5
1B5
330
1F
100
AcDbEntity
  8
0
  6
Continuous
 62
     7
370
    15
100
AcDbLine
 10
241.7496401545
 20
66.8433288289
 30
0.0
 11
239.5664635871
 21
68.1036498345
 31
0.0
  0
SPLINE
  5
1B6
330
1F
100
AcDbEntity
  8
0
  6
Continuous
 62
     7
370
    15
100
AcDbSpline
210
0.0
220
0.0
230
1.0
 70
     8
 71
     3
 72
    19
 73
    15
 74
     0
 42
0.000000001
 43
0.00000001
 40
0.0
 40
0.0
 40
0.0
 40
0.0
 40
0.046638005762375
 40
0.1393759383478232
 40
0.2324632735365481
 40
0.3258288957980449
 40
0.4193861704483541
 40
0.5130562057678313
 40
0.6067783277665605
 40
0.7005065205155142
 40
0.7942152753440165
 40
0.8878946537741906
 40
0.9815416252655049
 40
1.0
 40
1.0
 40
1.0
 40
1.0
 10
235.3584319410487
 20
34.96509933476693
 30
0.0
 10
235.4930115403152
 20
34.95682778302083
 30
0.0
 10
235.895197646338
 20
34.93210855956006
 30
0.0
 10
236.5982022105237
 20
34.99356358599243
 30
0.0
 10
237.4596803922352
 20
35.14303046361901
 30
0.0
 10
238.3433513125693
 20
35.39105885791569
 30
0.0
 10
239.2411090494713
 20
35.72976459794208
 30
0.0
 10
240.1473536928212
 20
36.15854461879831
 30
0.0
 10
241.0558550927694
 20
36.6737852452944
 30
0.0
 10
241.9603749309033
 20
37.27248118567793
 30
0.0
 10
242.855831996564
 20
37.94860384878918
 30
0.0
 10
243.733298024114
 20
38.70447805867553
 30
0.0
 10
244.3673838611888
 20
39.29399633509478
 30
0.0
 10
244.6982255908188
 20
39.64859114593561
 30
0.0
 10
244.7526993588318
 20
39.70697590739224
 30
0.0
  0
SPLINE
  5
1B7
330
1F
100
AcDbEntity
  8
0
  6
Continuous
 62
     7
370
    15
100
AcDbSpline
210
0.0
220
0.0
230
1.0
 70
     8
 71
     3
 72
     9
 73
     5
 74
     0
 42
0.000000001
 43
0.00000001
 40
0.0
 40
0.0
 40
0.0
 40
0.0
 40
0.4956081179505868
 40
0.9999999999999999
 40
0.9999999999999999
 40
0.9999999999999999
 40
0.9999999999999999
 10
251.0007179039407
 20
50.53343734014525
 30
0.0
 10
251.0781671626245
 20
50.80409743752927
 30
0.0
 10
251.2344383290535
 20
51.35021459659285
 30
0.0
 10
251.3433961492647
 20
51.88756607353233
 30
0.0
 10
251.398353589265
 20
52.15860179630788
 30
0.0
  0
LINE
  5
1B8
330
1F
100
AcDbEntity
  8
0
  6
Continuous
 62
     7
370
    15
100
AcDbLine
 10
231.2748679149
 20
36.5182044051
 30
0.0
 11
232.6742559825
 21
35.7103548692
 31
0.0
  0
LINE
  5
1B9
330
1F
100
AcDbEntity
  8
0
  6
Continuous
 62
     7
370
    15
100
AcDbLine
 10
232.3815768129
 20
67.6972536216
 30
0.0
 11
226.1997873404
 21
70.7771916352
 31
0.0
  0
LINE
  5
1BA
330
1F
100
AcDbEntity
  8
0
  6
Continuous
 62
     7
370
    15
100
AcDbLine
 10
214.8180895273
 20
51.0613764968
 30
0.0
 11
220.576646663
 21
47.2482991354
 31
0.0
  0
LINE
  5
1BB
330
1F
100
AcDbEntity
  8
0
  6
Continuous
 62
     7
370
    15
100
AcDbLine
 10
249.3996698993
 20
62.2551184483
 30
0.0
 11
249.2176251574
 21
62.4208276028
 31
0.0
  0
SPLINE
  5
1BC
330
1F
100
AcDbEntity
  8
0
  6
Continuous
 62
     7
370
    15
100
AcDbSpline
210
0.0
220
0.0
230
1.0
 70
     8
 71
     3
 72
    13
 73
     9
 74
     0
 42
0.000000001
 43
0.00000001
 40
0.0
 40
0.0
 40
0.0
 40
0.0
 40
0.1065205311166517
 40
0.307962495796608
 40
0.5091141308319063
 40
0.7096449665845409
 40
0.9093818501443262
 40
1.0
 40
1.0
 40
1.0
 40
1.0
 10
251.4129732847247
 20
58.70155928505199
 30
0.0
 10
251.3704211417204
 20
58.85660897318759
 30
0.0
 10
251.2473982462867
 20
59.30487456508962
 30
0.0
 10
250.988443362614
 20
59.99805590557352
 30
0.0
 10
250.6157292257066
 20
60.7552131773004
 30
0.0
 10
250.1712028738459
 20
61.43127300056295
 30
0.0
 10
249.7654372494551
 20
61.93421031724664
 30
0.0
 10
249.4866711949687
 20
62.17878735105708
 30
0.0
 10
249.3996698993377
 20
62.25511844833611
 30
0.0
  0
SPLINE
  5
1BD
330
1F
100
AcDbEntity
  8
0
  6
Continuous
 62
     7
370
    15
100
AcDbSpline
210
0.0
220
0.0
230
1.0
 70
     8
 71
     3
 72
    26
 73
    22
 74
     0
 42
0.000000001
 43
0.00000001
 40
0.0
 40
0.0
 40
0.0
 40
0.0
 40
0.0336729170779935
 40
0.0854455899316276
 40
0.1375679887808285
 40
0.1902477264408299
 40
0.2435353960191258
 40
0.2973468459431684
 40
0.3515272619024118
 40
0.4059173408725861
 40
0.4603925123307115
 40
0.5148578617547779
 40
0.5692774818590131
 40
0.6236402680738861
 40
0.6779480562733946
 40
0.73220977590425
 40
0.7864380084878514
 40
0.840647121938067
 40
0.8948523427293466
 40
0.9490673318339438
 40
1.0
 40
1.0
 40
1.0
 40
1.0
 10
225.9886929657056
 20
70.86255078751545
 30
0.0
 10
225.8576042283883
 20
70.91971707915783
 30
0.0
 10
225.5249643662843
 20
71.06477749974074
 30
0.0
 10
224.942138811075
 20
71.19226381345864
 30
0.0
 10
224.2539639522487
 20
71.2564405405017
 30
0.0
 10
223.5327352691544
 20
71.22240010363176
 30
0.0
 10
222.7858816832478
 20
71.09441432742953
 30
0.0
 10
222.019126849052
 20
70.87147760627604
 30
0.0
 10
221.2400109148825
 20
70.55557053886939
 30
0.0
 10
220.4562970862141
 20
70.14966765858786
 30
0.0
 10
219.6757944149151
 20
69.65811804052134
 30
0.0
 10
218.9058973130763
 20
69.08612785534027
 30
0.0
 10
218.1535477699407
 20
68.43953187700426
 30
0.0
 10
217.4252209385919
 20
67.72456655700442
 30
0.0
 10
216.7271100911735
 20
66.9478963180466
 30
0.0
 10
216.065097076667
 20
66.11660099563392
 30
0.0
 10
215.4449488259679
 20
65.23812496199116
 30
0.0
 10
214.8715025845889
 20
64.32031031515268
 30
0.0
 10
214.3515591550561
 20
63.37107411278252
 30
0.0
 10
213.8924501930015
 20
62.41914278400455
 30
0.0
 10
213.6402788668636
 20
61.7810188756662
 30
0.0
 10
213.5181291318284
 20
61.4719168555559
 30
0.0
  0
LINE
  5
1BE
330
1F
100
AcDbEntity
  8
0
  6
Continuous
 62
     7
370
    15
100
AcDbLine
 10
213.6339038054
 20
59.6175165897
 30
0.0
 11
216.1874637041
 21
58.1433778381
 31
0.0
  0
LINE
  5
1BF
330
1F
100
AcDbEntity
  8
0
  6
Continuous
 62
     7
370
    15
100
AcDbLine
 10
213.335611528
 20
60.7416920404
 30
0.0
 11
213.335611528
 21
60.2804202232
 31
0.0
  0
LINE
  5
1C0
330
1F
100
AcDbEntity
  8
0
  6
Continuous
 62
     7
370
    15
100
AcDbLine
 10
213.335611528
 20
53.2701820482
 30
0.0
 11
213.335611528
 21
52.8090717945
 31
0.0
  0
SPLINE
  5
1C1
330
1F
100
AcDbEntity
  8
0
  6
Continuous
 62
     7
370
    15
100
AcDbSpline
210
0.0
220
0.0
230
1.0
 70
     8
 71
     3
 72
    11
 73
     7
 74
     0
 42
0.000000001
 43
0.00000001
 40
0.0
 40
0.0
 40
0.0
 40
0.0
 40
0.2530910525887924
 40
0.6057538379215466
 40
0.9540310138124423
 40
0.9999999999999999
 40
0.9999999999999999
 40
0.9999999999999999
 40
0.9999999999999999
 10
213.4518327079285
 20
52.52227730172912
 30
0.0
 10
213.5407515167673
 20
52.3763758248882
 30
0.0
 10
213.7535718008767
 20
52.02717193699569
 30
0.0
 10
214.17535189984
 20
51.57123056686363
 30
0.0
 10
214.5302202520714
 20
51.24220122979482
 30
0.0
 10
214.7467078331828
 20
51.1144927933723
 30
0.0
 10
214.771950221272
 20
51.09960202736208
 30
0.0
  0
LINE
  5
1C2
330
1F
100
AcDbEntity
  8
0
  6
Continuous
 62
     7
370
    15
100
AcDbLine
 10
260.029608893
 20
43.9425211976
 30
0.0
 11
259.9588867252
 21
43.9833615071
 31
0.0
  0
LINE
  5
1C3
330
1F
100
AcDbEntity
  8
0
  6
Continuous
 62
     7
370
    15
100
AcDbLine
 10
257.6250551881
 20
43.9833615071
 30
0.0
 11
257.5543330203
 21
43.9425211976
 31
0.0
  0
LWPOLYLINE
  5
1C4
330
1F
100
AcDbEntity
  8
0
  6
Continuous
 62
     7
370
    15
100
AcDbPolyline
 90
       47
 70
   128
 43
0.0
 10
261.9916291415
 20
41.9935624493
 10
261.3994803217
 20
41.604949585
 10
260.818362114
 20
41.1300305893
 10
260.2590996511
 20
40.5776523045
 10
259.7321109345
 20
39.9581044929
 10
259.247212767
 20
39.2829281581
 10
258.8134378839
 20
38.5647005575
 10
258.4388666905
 20
37.8168009126
 10
258.1304767396
 20
37.0531611786
 10
257.8940127523
 20
36.2880065189
 10
257.7338796053
 20
35.5355903171
 10
257.6530602762
 20
34.8099286633
 10
257.6530602762
 20
34.1245392613
 10
257.7338796053
 20
33.4921896187
 10
257.8940127523
 20
32.9246592129
 10
258.1304767396
 20
32.4325200616
 10
258.4388666905
 20
32.0249397861
 10
258.8134378839
 20
31.7095108356
 10
259.247212767
 20
31.4921090547
 10
259.7321109345
 20
31.3767842273
 10
260.2590996511
 20
31.3656846367
 10
260.818362114
 20
31.4590170472
 10
261.3994803217
 20
31.6550428526
 10
261.9916291415
 20
31.9501104631
 10
262.5837779613
 20
32.3387233274
 10
263.164896169
 20
32.8136423231
 10
263.7241586319
 20
33.3660206079
 10
264.2511473484
 20
33.9855684195
 10
264.736045516
 20
34.6607447544
 10
265.1698203991
 20
35.3789723549
 10
265.5443915924
 20
36.1268719998
 10
265.8527815434
 20
36.8905117338
 10
266.0892455307
 20
37.6556663936
 10
266.2493786777
 20
38.4080825954
 10
266.3301980067
 20
39.1337442491
 10
266.3301980067
 20
39.8191336512
 10
266.2493786777
 20
40.4514832938
 10
266.0892455307
 20
41.0190136996
 10
265.8527815434
 20
41.5111528508
 10
265.5443915924
 20
41.9187331264
 10
265.1698203991
 20
42.2341620769
 10
264.736045516
 20
42.4515638577
 10
264.2511473484
 20
42.5668886852
 10
263.7241586319
 20
42.5779882758
 10
263.164896169
 20
42.4846558653
 10
262.5837779613
 20
42.2886300598
 10
261.9916291415
 20
41.9935624493
  0
LWPOLYLINE
  5
1C5
330
1F
100
AcDbEntity
  8
0
  6
Continuous
 62
     7
370
    15
100
AcDbPolyline
 90
       25
 70
   128
 43
0.0
 10
261.9209184634
 20
42.1160369361
 10
261.3191412074
 20
41.7211051634
 10
260.7285739232
 20
41.2384639076
 10
260.1602177617
 20
40.6771038621
 10
259.624660123
 20
40.0474821024
 10
259.1318774324
 20
39.3613272905
 10
258.6910492991
 20
38.6314211924
 10
258.3103875173
 20
37.8713605777
 10
257.9969830956
 20
37.0953039374
 10
257.7566741654
 20
36.3177077385
 10
257.5939372274
 20
35.5530571269
 10
257.5118037629
 20
34.8155960967
 10
257.5118037629
 20
34.1190621515
 10
257.5939372274
 20
33.4764304009
 10
257.7566741654
 20
32.8996718584
 10
257.9969830956
 20
32.3995304445
 10
258.3103875173
 20
31.9853228474
 10
258.6910492991
 20
31.6647649709
 10
259.1318774324
 20
31.4438282017
 10
259.624660123
 20
31.3266281739
 10
260.1602177617
 20
31.3153481021
 10
260.7285739232
 20
31.4101981128
 10
261.3191412074
 20
31.6094113297
 10
261.9209184634
 20
31.9092767875
 10
261.921636743
 20
31.9096915089
  0
LWPOLYLINE
  5
1C6
330
1F
100
AcDbEntity
  8
0
  6
Continuous
 62
     7
370
    15
100
AcDbPolyline
 90
       13
 70
   128
 43
0.0
 10
266.3403358458
 20
39.5639322113
 10
266.3300331638
 20
39.9062515722
 10
266.2478996993
 20
40.5488833228
 10
266.0851627613
 20
41.1256418652
 10
265.8448538312
 20
41.6257832791
 10
265.5314494094
 20
42.0399908762
 10
265.1507876276
 20
42.3605487527
 10
264.7099594944
 20
42.5814855219
 10
264.2171768038
 20
42.6986855498
 10
263.681619165
 20
42.7099656215
 10
263.1132630035
 20
42.6151156109
 10
262.5226957193
 20
42.4159023939
 10
261.9209184634
 20
42.1160369361
  0
SPLINE
  5
1C7
330
1F
100
AcDbEntity
  8
0
  6
Continuous
 62
     7
370
    15
100
AcDbSpline
210
0.0
220
0.0
230
1.0
 70
    11
 71
     3
 72
    78
 73
    74
 74
     0
 42
0.000000001
 43
0.00000001
 40
0.0
 40
0.0
 40
0.0
 40
0.0
 40
0.0312500000000009
 40
0.0312500000000009
 40
0.0625000000000018
 40
0.0625000000000018
 40
0.0937500000000027
 40
0.0937500000000027
 40
0.1250000000000036
 40
0.1250000000000036
 40
0.1562500000000045
 40
0.1562500000000045
 40
0.1875000000000054
 40
0.1875000000000054
 40
0.2187500000000064
 40
0.2187500000000064
 40
0.2500000000000073
 40
0.2500000000000073
 40
0.2812500000000082
 40
0.2812500000000082
 40
0.2968750000000082
 40
0.2968750000000082
 40
0.3125000000000082
 40
0.3125000000000082
 40
0.3437500000000077
 40
0.3437500000000077
 40
0.3593750000000073
 40
0.3593750000000073
 40
0.375000000000007
 40
0.375000000000007
 40
0.4062500000000064
 40
0.4062500000000064
 40
0.4375000000000059
 40
0.4375000000000059
 40
0.4687500000000053
 40
0.4687500000000053
 40
0.5000000000000047
 40
0.5000000000000047
 40
0.5312500000000041
 40
0.5312500000000041
 40
0.5625000000000037
 40
0.5625000000000037
 40
0.5937500000000031
 40
0.5937500000000031
 40
0.6250000000000026
 40
0.6250000000000026
 40
0.6562500000000021
 40
0.6562500000000021
 40
0.6875000000000016
 40
0.6875000000000016
 40
0.718750000000001
 40
0.718750000000001
 40
0.7500000000000004
 40
0.7500000000000004
 40
0.78125
 40
0.78125
 40
0.8124999999999994
 40
0.8124999999999994
 40
0.8281249999999994
 40
0.8281249999999994
 40
0.8437499999999994
 40
0.8437499999999994
 40
0.8593749999999996
 40
0.8593749999999996
 40
0.8749999999999996
 40
0.8749999999999996
 40
0.9062499999999997
 40
0.9062499999999997
 40
0.9374999999999998
 40
0.9374999999999998
 40
0.96875
 40
0.96875
 40
1.0
 40
1.0
 40
1.0
 40
1.0
 10
258.7568683286758
 20
45.07651311288658
 30
0.0
 10
258.9070548306003
 20
45.04438888845966
 30
0.0
 10
259.053046129824
 20
45.00544176644703
 30
0.0
 10
259.3378276062057
 20
44.91720102072588
 30
0.0
 10
259.4770414157858
 20
44.86770783589981
 30
0.0
 10
259.7466181804436
 20
44.76057193371222
 30
0.0
 10
259.8741721442747
 20
44.70409240468238
 30
0.0
 10
260.1156136097541
 20
44.58661947048721
 30
0.0
 10
260.230064459633
 20
44.52528225717717
 30
0.0
 10
260.4421653143664
 20
44.3996810314076
 30
0.0
 10
260.5381852164961
 20
44.33645422936403
 30
0.0
 10
260.7106961749022
 20
44.20866289855215
 30
0.0
 10
260.7875203443589
 20
44.14377593451369
 30
0.0
 10
260.9187954908306
 20
44.01268257833961
 30
0.0
 10
260.9721740113818
 20
43.94766156664937
 30
0.0
 10
261.0542875733037
 20
43.81676117839455
 30
0.0
 10
261.0831297585135
 20
43.75055578065015
 30
0.0
 10
261.1125923340114
 20
43.61623936875537
 30
0.0
 10
261.1129969685543
 20
43.54970493006591
 30
0.0
 10
261.0909144432894
 20
43.4490913947251
 30
0.0
 10
261.0797432297445
 20
43.4154194075363
 30
0.0
 10
261.0491525832244
 20
43.34750419773288
 30
0.0
 10
261.0295619098423
 20
43.31302437979914
 30
0.0
 10
260.9582247752289
 20
43.21007705980352
 30
0.0
 10
260.8947095456757
 20
43.1426324343479
 30
0.0
 10
260.7733936984891
 20
43.04229090916441
 30
0.0
 10
260.7283066827359
 20
43.00885315653931
 30
0.0
 10
260.6317327761319
 20
42.94417961406828
 30
0.0
 10
260.579999261355
 20
42.91270621813862
 30
0.0
 10
260.4145617536462
 20
42.82082213045054
 30
0.0
 10
260.2886883260143
 20
42.76222717276277
 30
0.0
 10
260.0225082088401
 20
42.65812425941529
 30
0.0
 10
259.8803646652978
 20
42.61167779218005
 30
0.0
 10
259.5869124809053
 20
42.53304176835655
 30
0.0
 10
259.4379106895618
 20
42.50132122862575
 30
0.0
 10
259.1355204892981
 20
42.45327883035389
 30
0.0
 10
258.9836221010187
 20
42.43734834054424
 30
0.0
 10
258.6857056697029
 20
42.42275484659771
 30
0.0
 10
258.5373344440392
 20
42.42400406533831
 30
0.0
 10
258.2494676484555
 20
42.44464451555334
 30
0.0
 10
258.1107016371502
 20
42.46382453431551
 30
0.0
 10
257.8427467726796
 20
42.52061985559563
 30
0.0
 10
257.7125455198717
 20
42.55873295624844
 30
0.0
 10
257.4694943367921
 20
42.65227846692598
 30
0.0
 10
257.3560333689432
 20
42.70764845209624
 30
0.0
 10
257.1450455815439
 20
42.83568753598014
 30
0.0
 10
257.0468145511279
 20
42.90915602431073
 30
0.0
 10
256.8731003145664
 20
43.06875158559794
 30
0.0
 10
256.7969750951106
 20
43.15500411172404
 30
0.0
 10
256.6664437308654
 20
43.33945792278791
 30
0.0
 10
256.6117229883141
 20
43.43869859277397
 30
0.0
 10
256.5291591741751
 20
43.64164166822037
 30
0.0
 10
256.5007891034942
 20
43.74561386202812
 30
0.0
 10
256.4715124783732
 20
43.95699845320761
 30
0.0
 10
256.4708775312158
 20
44.0656567685039
 30
0.0
 10
256.5011216880528
 20
44.27652778639004
 30
0.0
 10
256.5315396129712
 20
44.37914559406894
 30
0.0
 10
256.6034054017278
 20
44.52686473382425
 30
0.0
 10
256.6317671850933
 20
44.5748604308509
 30
0.0
 10
256.6961090666274
 20
44.6657130665671
 30
0.0
 10
256.7322424991276
 20
44.70891586108679
 30
0.0
 10
256.8126379180765
 20
44.79062837999355
 30
0.0
 10
256.8568981169924
 20
44.82913918443371
 30
0.0
 10
256.954042867736
 20
44.90110210439371
 30
0.0
 10
257.007024040461
 20
44.93449285400621
 30
0.0
 10
257.1738292344417
 20
45.02357828882284
 30
0.0
 10
257.2970713886613
 20
45.06958371020704
 30
0.0
 10
257.5669530076588
 20
45.13568285470302
 30
0.0
 10
257.7080437501805
 20
45.15448520704102
 30
0.0
 10
258.0012810991212
 20
45.16837152691039
 30
0.0
 10
258.1527756096212
 20
45.16313576129036
 30
0.0
 10
258.4540306345768
 20
45.13338701458257
 30
0.0
 10
258.6066818267513
 20
45.1086373373135
 30
0.0
 10
258.7568683286758
 20
45.07651311288657
 30
0.0
  0
LINE
  5
1C8
330
1F
100
AcDbEntity
  8
0
  6
Continuous
 62
     7
370
    15
100
AcDbLine
 10
263.4255678301
 20
40.1844285592
 30
0.0
 11
263.387933533
 21
40.2071095025
 31
0.0
  0
LWPOLYLINE
  5
1C9
330
1F
100
AcDbEntity
  8
0
  6
Continuous
 62
     7
370
    15
100
AcDbPolyline
 90
       19
 70
   128
 43
0.0
 10
260.029608893
 20
42.5956932704
 10
260.3075154132
 20
42.8048075265
 10
260.4823411526
 20
43.0484614294
 10
260.5419709566
 20
43.3099342746
 10
260.4823411526
 20
43.5714071198
 10
260.3075154132
 20
43.8150610227
 10
260.0294078237
 20
44.0242913724
 10
259.6669709566
 20
44.1848394665
 10
259.2449042855
 20
44.2857642176
 10
258.7919709566
 20
44.3201877707
 10
258.3390376277
 20
44.2857642176
 10
257.9169709566
 20
44.1848394665
 10
257.5545340895
 20
44.0242913724
 10
257.2764265
 20
43.8150610227
 10
257.1016007606
 20
43.5714071198
 10
257.0419709566
 20
43.3099342746
 10
257.1016007606
 20
43.0484614294
 10
257.2764265
 20
42.8048075265
 10
257.4666721813
 20
42.6501868133
  0
SPLINE
  5
1CA
330
1F
100
AcDbEntity
  8
0
  6
Continuous
 62
     7
370
    15
100
AcDbSpline
210
0.0
220
0.0
230
1.0
 70
     8
 71
     3
 72
    10
 73
     6
 74
     0
 42
0.000000001
 43
0.00000001
 40
0.0
 40
0.0
 40
0.0
 40
0.0
 40
0.5
 40
0.5
 40
1.0
 40
1.0
 40
1.0
 40
1.0
 10
230.3096117344992
 20
46.86928432405685
 30
0.0
 10
230.2530830487166
 20
46.83665100837423
 30
0.0
 10
230.1744397261419
 20
46.81627803291526
 30
0.0
 10
230.0142098118108
 20
46.81321663295391
 30
0.0
 10
229.9330427992701
 20
46.83087583283415
 30
0.0
 10
229.8759288989322
 20
46.86384698568847
 30
0.0
  0
SPLINE
  5
1CB
330
1F
100
AcDbEntity
  8
0
  6
Continuous
 62
     7
370
    15
100
AcDbSpline
210
0.0
220
0.0
230
1.0
 70
     8
 71
     3
 72
    12
 73
     8
 74
     0
 42
0.000000001
 43
0.00000001
 40
0.0
 40
0.0
 40
0.0
 40
0.0
 40
0.2500000000000033
 40
0.2500000000000033
 40
0.5000000000000067
 40
0.5000000000000067
 40
1.0
 40
1.0
 40
1.0
 40
1.0
 10
247.566650805277
 20
63.38780886394358
 30
0.0
 10
247.5985551336218
 20
63.3693908872278
 30
0.0
 10
247.6306924700627
 20
63.33947634659575
 30
0.0
 10
247.6853507764889
 20
63.26907892665285
 30
0.0
 10
247.7083241158192
 20
63.22869822997701
 30
0.0
 10
247.7620059047569
 20
63.10617439994164
 30
0.0
 10
247.778782839633
 20
63.02137307833596
 30
0.0
 10
247.778782839633
 20
62.94782048270234
 30
0.0
  0
LINE
  5
1CC
330
1F
100
AcDbEntity
  8
0
  6
Continuous
 62
     7
370
    15
100
AcDbLine
 10
229.8759288989
 20
46.8638469857
 30
0.0
 11
228.4765408313
 21
47.6716965216
 31
0.0
  0
LWPOLYLINE
  5
1CD
330
1F
100
AcDbEntity
  8
0
  6
Continuous
 62
     7
370
    15
100
AcDbPolyline
 90
       24
 70
   128
 43
0.0
 10
228.4765408313
 20
47.6716965216
 10
228.7865989646
 20
48.8877981107
 10
229.172080094
 20
50.1131481427
 10
229.6301785472
 20
51.3388280727
 10
230.1575601164
 20
52.5559169549
 10
230.7503863261
 20
53.755556372
 10
231.4043423707
 20
54.9290149106
 10
232.1146685194
 20
56.067751711
 10
232.8761947593
 20
57.1634786312
 10
233.6833784243
 20
58.2082205706
 10
234.5303445372
 20
59.1943735162
 10
235.4109285694
 20
60.1147598868
 10
236.3187213089
 20
60.9626807744
 10
237.2471155089
 20
61.7319647013
 10
238.1893539773
 20
62.4170125383
 10
239.1385787588
 20
63.0128382572
 10
240.0878810488
 20
63.515105221
 10
241.0303514789
 20
63.9201577473
 10
241.9591304052
 20
64.2250477159
 10
242.8674578356
 20
64.4275560265
 10
243.7487226316
 20
64.5262087496
 10
244.5965106264
 20
64.5202878547
 10
245.4046513093
 20
64.4098364362
 10
246.1672627377
 20
64.1956583998
  0
LINE
  5
1CE
330
1F
100
AcDbEntity
  8
0
  6
Continuous
 62
     7
370
    15
100
AcDbLine
 10
246.1672627377
 20
64.1956583998
 30
0.0
 11
247.5666508053
 21
63.3878088639
 31
0.0
  0
LINE
  5
1CF
330
1F
100
AcDbEntity
  8
0
  6
Continuous
 62
     7
370
    15
100
AcDbLine
 10
250.094557548
 20
57.8826200205
 30
0.0
 11
251.31305821
 21
58.5860454798
 31
0.0
  0
LINE
  5
1D0
330
1F
100
AcDbEntity
  8
0
  6
Continuous
 62
     7
370
    15
100
AcDbLine
 10
250.094557548
 20
51.3502935255
 30
0.0
 11
250.094557548
 21
57.8826200205
 31
0.0
  0
LINE
  5
1D1
330
1F
100
AcDbEntity
  8
0
  6
Continuous
 62
     7
370
    15
100
AcDbLine
 10
251.31305821
 20
52.0537189848
 30
0.0
 11
250.094557548
 21
51.3502935255
 31
0.0
  0
LINE
  5
1D2
330
1F
100
AcDbEntity
  8
0
  6
Continuous
 62
     7
370
    15
100
AcDbLine
 10
230.3096117345
 20
39.5204170171
 30
0.0
 11
231.4269385247
 21
40.1654360434
 31
0.0
  0
LINE
  5
1D3
330
1F
100
AcDbEntity
  8
0
  6
Continuous
 62
     7
370
    15
100
AcDbLine
 10
231.4269385247
 20
40.1654360434
 30
0.0
 11
231.4269385247
 21
47.5143033504
 31
0.0
  0
LINE
  5
1D4
330
1F
100
AcDbEntity
  8
0
  6
Continuous
 62
     7
370
    15
100
AcDbLine
 10
231.4269385247
 20
47.5143033504
 30
0.0
 11
230.3096117345
 21
46.8692843241
 31
0.0
  0
LINE
  5
1D5
330
1F
100
AcDbEntity
  8
0
  6
Continuous
 62
     7
370
    15
100
AcDbLine
 10
247.7787828396
 20
62.9478204827
 30
0.0
 11
247.7787828396
 21
61.3837560479
 31
0.0
  0
LINE
  5
1D6
330
1F
100
AcDbEntity
  8
0
  6
Continuous
 62
     7
370
    15
100
AcDbLine
 10
249.1332290008
 20
62.1656611734
 30
0.0
 11
247.7787828396
 21
61.3837560479
 31
0.0
  0
LWPOLYLINE
  5
1D7
330
1F
100
AcDbEntity
  8
0
  6
Continuous
 62
     7
370
    15
100
AcDbPolyline
 90
       21
 70
   128
 43
0.0
 10
227.5527580435
 20
49.3026785555
 10
227.8837203987
 20
50.5029574795
 10
228.29306066
 20
51.7093928996
 10
228.7773624434
 20
52.9119158164
 10
229.3325837304
 20
54.1004898851
 10
229.9540906032
 20
55.2651951787
 10
230.6366959195
 20
56.3963109807
 10
231.3747026049
 20
57.4843969151
 10
232.1619512012
 20
58.5203717364
 10
232.9918712734
 20
59.4955891223
 10
233.8575362473
 20
60.4019098363
 10
234.751721219
 20
61.2317696589
 10
235.6669632549
 20
61.9782425187
 10
236.5956236772
 20
62.6350982982
 10
237.5299518176
 20
63.1968548303
 10
238.4621497042
 20
63.6588236538
 10
239.3844371448
 20
64.0171491425
 10
240.2891166602
 20
64.2688406856
 10
241.1686377285
 20
64.4117976469
 10
242.0156598017
 20
64.4448268969
 10
242.6678240913
 20
64.3915100617
  0
SPLINE
  5
1D8
330
1F
100
AcDbEntity
  8
0
  6
Continuous
 62
     7
370
    15
100
AcDbSpline
210
0.0
220
0.0
230
1.0
 70
     8
 71
     3
 72
     8
 73
     4
 74
     0
 42
0.000000001
 43
0.00000001
 40
0.0
 40
0.0
 40
0.0
 40
0.0
 40
1.0
 40
1.0
 40
1.0
 40
1.0
 10
227.5527580435412
 20
49.30267855553512
 30
0.0
 10
227.0614570144887
 20
49.22003133533124
 30
0.0
 10
226.569876923586
 20
49.1379475478408
 30
0.0
 10
226.0780821248341
 20
49.05629726075905
 30
0.0
  0
LWPOLYLINE
  5
1D9
330
1F
100
AcDbEntity
  8
0
  6
Continuous
 62
     7
370
    15
100
AcDbPolyline
 90
       24
 70
   128
 43
0.0
 10
226.0780821248
 20
49.0562972608
 10
226.3881402581
 20
50.2723988499
 10
226.7736213875
 20
51.4977488819
 10
227.2317198407
 20
52.7234288119
 10
227.7591014099
 20
53.9405176941
 10
228.3519276196
 20
55.1401571112
 10
229.0058836642
 20
56.3136156498
 10
229.7162098129
 20
57.4523524502
 10
230.4777360528
 20
58.5480793704
 10
231.2849197178
 20
59.5928213098
 10
232.1318858307
 20
60.5789742554
 10
233.0124698629
 20
61.499360626
 10
233.9202626025
 20
62.3472815136
 10
234.8486568024
 20
63.1165654405
 10
235.7908952708
 20
63.8016132775
 10
236.7401200523
 20
64.3974389964
 10
237.6894223424
 20
64.8997059602
 10
238.6318927724
 20
65.3047584865
 10
239.5606716987
 20
65.6096484551
 10
240.4689991291
 20
65.8121567657
 10
241.3502639252
 20
65.9108094888
 10
242.1980519199
 20
65.9048885939
 10
243.0061926029
 20
65.7944371754
 10
243.7688040312
 20
65.580259139
  0
LINE
  5
1DA
330
1F
100
AcDbEntity
  8
0
  6
Continuous
 62
     7
370
    15
100
AcDbLine
 10
243.7688040312
 20
65.580259139
 30
0.0
 11
244.1037709673
 21
64.4980253592
 31
0.0
  0
LINE
  5
1DB
330
1F
100
AcDbEntity
  8
0
  6
Continuous
 62
     7
370
    15
100
AcDbLine
 10
240.3541616372
 20
67.5514902342
 30
0.0
 11
243.7688040312
 21
65.580259139
 31
0.0
  0
LINE
  5
1DC
330
1F
100
AcDbEntity
  8
0
  6
Continuous
 62
     7
370
    15
100
AcDbLine
 10
226.0780821248
 20
49.0562972608
 30
0.0
 11
225.4918668556
 21
49.3947121323
 31
0.0
  0
SPLINE
  5
1DD
330
1F
100
AcDbEntity
  8
0
  6
Continuous
 62
     7
370
    15
100
AcDbSpline
210
0.0
220
0.0
230
1.0
 70
     8
 71
     3
 72
    28
 73
    24
 74
     0
 42
0.000000001
 43
0.00000001
 40
0.0
 40
0.0
 40
0.0
 40
0.0
 40
0.1249999999999999
 40
0.1249999999999999
 40
0.1874999999999998
 40
0.1874999999999998
 40
0.2499999999999997
 40
0.2499999999999997
 40
0.3749999999999994
 40
0.3749999999999994
 40
0.4374999999999994
 40
0.4374999999999994
 40
0.4999999999999993
 40
0.4999999999999993
 40
0.6249999999999993
 40
0.6249999999999993
 40
0.7499999999999994
 40
0.7499999999999994
 40
0.8124999999999996
 40
0.8124999999999996
 40
0.8749999999999998
 40
0.8749999999999998
 40
1.0
 40
1.0
 40
1.0
 40
1.0
 10
225.4918668555757
 20
49.39471213233887
 30
0.0
 10
225.3038797751093
 20
49.50323476392294
 30
0.0
 10
225.1136598205086
 20
49.58517848447085
 30
0.0
 10
224.8255612185606
 20
49.67033621450931
 30
0.0
 10
224.729071347961
 20
49.69238614491312
 30
0.0
 10
224.5353331751261
 20
49.72365996837208
 30
0.0
 10
224.4380821545948
 20
49.7327872196955
 30
0.0
 10
224.1520602797094
 20
49.74057006180391
 30
0.0
 10
223.9667184633529
 20
49.72026351816684
 30
0.0
 10
223.698205876537
 20
49.6530428650337
 30
0.0
 10
223.6098452168713
 20
49.62425650742811
 30
0.0
 10
223.4394925065816
 20
49.55524461733296
 30
0.0
 10
223.3574654768001
 20
49.51510472742284
 30
0.0
 10
223.1210292230475
 20
49.37848495965962
 30
0.0
 10
222.9761619729252
 20
49.26597046997055
 30
0.0
 10
222.7153051794411
 20
48.99771350497108
 30
0.0
 10
222.6030127719387
 20
48.8455601185938
 30
0.0
 10
222.4637882904849
 20
48.59364373089549
 30
0.0
 10
222.4221925041191
 20
48.50560144521912
 30
0.0
 10
222.3490677890579
 20
48.32126039016729
 30
0.0
 10
222.317443305005
 20
48.22447162748551
 30
0.0
 10
222.2399500015827
 20
47.9264565485887
 30
0.0
 10
222.2107752861929
 20
47.71698367145218
 30
0.0
 10
222.2048084034512
 20
47.49660287876831
 30
0.0
  0
ARC
  5
1DE
330
1F
100
AcDbEntity
  8
0
  6
Continuous
 62
     7
370
    15
100
AcDbCircle
 10
237.0481748659
 20
47.0883324728
 30
0.0
 40
14.84898018927826
100
AcDbArc
 50
178.4244628824
 51
181.5755371176
  0
SPLINE
  5
1DF
330
1F
100
AcDbEntity
  8
0
  6
Continuous
 62
     7
370
    15
100
AcDbSpline
210
0.0
220
0.0
230
1.0
 70
     8
 71
     3
 72
    30
 73
    26
 74
     0
 42
0.000000001
 43
0.00000001
 40
0.0
 40
0.0
 40
0.0
 40
0.0
 40
0.125
 40
0.125
 40
0.1875000000000001
 40
0.1875000000000001
 40
0.2500000000000001
 40
0.2500000000000001
 40
0.3750000000000001
 40
0.3750000000000001
 40
0.4375000000000001
 40
0.4375000000000001
 40
0.5000000000000001
 40
0.5000000000000001
 40
0.6250000000000006
 40
0.6250000000000006
 40
0.6875000000000006
 40
0.6875000000000006
 40
0.7500000000000006
 40
0.7500000000000006
 40
0.8125000000000006
 40
0.8125000000000006
 40
0.8750000000000006
 40
0.8750000000000006
 40
1.0
 40
1.0
 40
1.0
 40
1.0
 10
222.2048084034512
 20
46.68006206688256
 30
0.0
 10
222.2107760021426
 20
46.46654487410785
 30
0.0
 10
222.2399212221421
 20
46.24899497608871
 30
0.0
 10
222.316355883401
 20
45.91669594655313
 30
0.0
 10
222.3473218669783
 20
45.80492164525356
 30
0.0
 10
222.420291807794
 20
45.57921977171856
 30
0.0
 10
222.4624280063526
 20
45.46513199914605
 30
0.0
 10
222.602319795717
 20
45.12696927178485
 30
0.0
 10
222.7141637202592
 20
44.90445905251209
 30
0.0
 10
222.9079503174038
 20
44.57384879656252
 30
0.0
 10
222.977290955007
 20
44.46362215685637
 30
0.0
 10
223.1227833394537
 20
44.24689215640283
 30
0.0
 10
223.1986706301728
 20
44.1406952207721
 30
0.0
 10
223.4350585786442
 20
43.8280570475225
 30
0.0
 10
223.6042040808951
 20
43.62751449968734
 30
0.0
 10
223.8740700782292
 20
43.337409660265
 30
0.0
 10
223.96626158428
 20
43.24306624389254
 30
0.0
 10
224.1518601793147
 20
43.06176121583215
 30
0.0
 10
224.2456890596016
 20
42.974341882338
 30
0.0
 10
224.435139110067
 20
42.80573433201334
 30
0.0
 10
224.5307605252726
 20
42.724546146244
 30
0.0
 10
224.723622214699
 20
42.56838346669586
 30
0.0
 10
224.8213571235974
 20
42.49305648699916
 30
0.0
 10
225.1126130787178
 20
42.27976625355532
 30
0.0
 10
225.3038704696909
 20
42.15437282885489
 30
0.0
 10
225.4918668555757
 20
42.04584482536712
 30
0.0
  0
LINE
  5
1E0
330
1F
100
AcDbEntity
  8
0
  6
Continuous
 62
     7
370
    15
100
AcDbLine
 10
225.4918668556
 20
42.0458448254
 30
0.0
 11
226.0780821248
 21
41.7074299538
 31
0.0
  0
ARC
  5
1E1
330
1F
100
AcDbEntity
  8
0
  6
Continuous
 62
     7
370
    15
100
AcDbCircle
 10
231.8812204137
 20
43.0816535182
 30
0.0
 40
5.963631813322156
100
AcDbArc
 50
193.3226247866
 51
253.29954657
  0
LINE
  5
1E2
330
1F
100
AcDbEntity
  8
0
  6
Continuous
 62
     7
370
    15
100
AcDbLine
 10
245.3982218875
 20
64.639310446
 30
0.0
 11
245.7325342913
 21
64.3319823358
 31
0.0
  0
LINE
  5
1E3
330
1F
100
AcDbEntity
  8
0
  6
Continuous
 62
     7
370
    15
100
AcDbLine
 10
244.5452931337
 20
65.1316957349
 30
0.0
 11
245.3982218875
 21
64.639310446
 31
0.0
  0
SPLINE
  5
1E4
330
1F
100
AcDbEntity
  8
0
  6
Continuous
 62
     7
370
    15
100
AcDbSpline
210
0.0
220
0.0
230
1.0
 70
     8
 71
     3
 72
    20
 73
    16
 74
     0
 42
0.000000001
 43
0.00000001
 40
0.0
 40
0.0
 40
0.0
 40
0.0
 40
0.2500000000000005
 40
0.2500000000000005
 40
0.3750000000000004
 40
0.3750000000000004
 40
0.5000000000000003
 40
0.5000000000000003
 40
0.6250000000000002
 40
0.6250000000000002
 40
0.7500000000000001
 40
0.7500000000000001
 40
0.8750000000000001
 40
0.8750000000000001
 40
1.0
 40
1.0
 40
1.0
 40
1.0
 10
240.3541616371743
 20
67.55149023423931
 30
0.0
 10
240.6731502915722
 20
67.41759984497952
 30
0.0
 10
240.9996058916702
 20
67.25770349791753
 30
0.0
 10
241.5119560090533
 20
66.979784570448
 30
0.0
 10
241.6865593757312
 20
66.88078555763771
 30
0.0
 10
242.04643323808
 20
66.669844852739
 30
0.0
 10
242.2292936544335
 20
66.55928903552898
 30
0.0
 10
242.5955887436108
 20
66.33387116651815
 30
0.0
 10
242.7800722598694
 20
66.21839056513868
 30
0.0
 10
243.1536570841049
 20
65.98355822084291
 30
0.0
 10
243.3380065553442
 20
65.86722829556766
 30
0.0
 10
243.6987164618206
 20
65.64153360876826
 30
0.0
 10
243.8757704510744
 20
65.53172363467158
 30
0.0
 10
244.2234998024268
 20
65.32032887113567
 30
0.0
 10
244.3887502188851
 20
65.22206603599265
 30
0.0
 10
244.5452931336665
 20
65.1316957348753
 30
0.0
  0
LWPOLYLINE
  5
1E5
330
1F
100
AcDbEntity
  8
0
  6
Continuous
 62
     7
370
    15
100
AcDbPolyline
 90
       29
 70
   128
 43
0.0
 10
220.555171764
 20
48.0341663714
 10
220.5963987373
 20
49.1635180198
 10
220.7197744271
 20
50.3321079938
 10
220.924385403
 20
51.5312844622
 10
221.2087167969
 20
52.752169142
 10
221.5706635186
 20
53.9857230302
 10
222.0075458413
 20
55.2228133253
 10
222.516129241
 20
56.4542810437
 10
223.0926483443
 20
57.6710088291
 10
223.7328348054
 20
58.8639884548
 10
224.4319489076
 20
60.024387517
 10
225.1848146549
 20
61.1436148271
 10
225.9858580926
 20
62.2133840176
 10
226.8291485753
 20
63.2257748916
 10
227.7084426755
 20
64.1732920615
 10
228.617230407
 20
65.0489204415
 10
229.5487834237
 20
65.8461771855
 10
230.4962048329
 20
66.5591596835
 10
231.4524802578
 20
67.1825892625
 10
232.4105297699
 20
67.7118502681
 10
233.3632603058
 20
68.1430242369
 10
234.3036181818
 20
68.4729189077
 10
235.2246413174
 20
68.6990918559
 10
236.1195107794
 20
68.8198685759
 10
236.9816012673
 20
68.8343548793
 10
237.804530165
 20
68.7424435145
 10
238.5822047947
 20
68.5448149612
 10
239.3088675255
 20
68.2429323919
 10
239.5664635871
 20
68.1036498345
  0
LWPOLYLINE
  5
1E6
330
1F
100
AcDbEntity
  8
0
  6
Continuous
 62
     7
370
    15
100
AcDbPolyline
 90
       11
 70
   128
 43
0.0
 10
223.8177435481
 20
40.8231106695
 10
223.7328348054
 20
40.8731959419
 10
223.0926483443
 20
41.3270320128
 10
222.516129241
 20
41.87812501
 10
222.0075458413
 20
42.5223948339
 10
221.5706635186
 20
43.255071536
 10
221.2087167969
 20
44.0707306344
 10
220.924385403
 20
44.9633332745
 10
220.7197744271
 20
45.9262709387
 10
220.5963987373
 20
46.9524143733
 10
220.555171764
 20
48.0341663714
  0
LINE
  5
1E7
330
1F
100
AcDbEntity
  8
0
  6
Continuous
 62
     7
370
    15
100
AcDbLine
 10
228.6873725984
 20
48.5284197871
 30
0.0
 11
228.2237448059
 21
48.7960664147
 31
0.0
  0
LINE
  5
1E8
330
1F
100
AcDbEntity
  8
0
  6
Continuous
 62
     7
370
    15
100
AcDbLine
 10
227.7979266479
 20
49.4442113782
 30
0.0
 11
227.5527580435
 21
49.3026785555
 31
0.0
  0
SPLINE
  5
1E9
330
1F
100
AcDbEntity
  8
0
  6
Continuous
 62
     7
370
    15
100
AcDbSpline
210
0.0
220
0.0
230
1.0
 70
     8
 71
     3
 72
    14
 73
    10
 74
     0
 42
0.000000001
 43
0.00000001
 40
0.0
 40
0.0
 40
0.0
 40
0.0
 40
0.1249999999999983
 40
0.1249999999999983
 40
0.2499999999999967
 40
0.2499999999999967
 40
0.4999999999999968
 40
0.4999999999999968
 40
1.0
 40
1.0
 40
1.0
 40
1.0
 10
228.223744805919
 20
48.79606641471315
 30
0.0
 10
228.1995483727539
 20
48.81003471825569
 30
0.0
 10
228.1763729342949
 20
48.83739989425324
 30
0.0
 10
228.139452541864
 20
48.89520166337876
 30
0.0
 10
228.1244107508314
 20
48.92617214249513
 30
0.0
 10
228.0845972942445
 20
49.01919861542434
 30
0.0
 10
228.0649612758604
 20
49.0818096697091
 30
0.0
 10
228.014540427391
 20
49.26614042062409
 30
0.0
 10
227.9921232491504
 20
49.38768465552477
 30
0.0
 10
227.9754353509845
 20
49.50681372082714
 30
0.0
  0
SPLINE
  5
1EA
330
1F
100
AcDbEntity
  8
0
  6
Continuous
 62
     7
370
    15
100
AcDbSpline
210
0.0
220
0.0
230
1.0
 70
     8
 71
     3
 72
    10
 73
     6
 74
     0
 42
0.000000001
 43
0.00000001
 40
0.0
 40
0.0
 40
0.0
 40
0.0
 40
0.5
 40
0.5
 40
1.0
 40
1.0
 40
1.0
 40
1.0
 10
227.9754353509845
 20
49.50681372082714
 30
0.0
 10
227.9420453327967
 20
49.50066395162691
 30
0.0
 10
227.9098059813686
 20
49.49211734377884
 30
0.0
 10
227.8498180871063
 20
49.47088137000994
 30
0.0
 10
227.8225562138573
 20
49.45842972400175
 30
0.0
 10
227.7979266479075
 20
49.44421137822491
 30
0.0
  0
ARC
  5
1EB
330
1F
100
AcDbEntity
  8
0
  6
Continuous
 62
     7
370
    15
100
AcDbCircle
 10
244.8956907545
 20
46.7729126011
 30
0.0
 40
24.4501199969754
100
AcDbArc
 50
123.840012323
 51
171.8618550273
  0
LINE
  5
1EC
330
1F
100
AcDbEntity
  8
0
  6
Continuous
 62
     7
370
    15
100
AcDbLine
 10
229.256942788
 20
41.4181479175
 30
0.0
 11
231.4269385247
 21
40.1654360434
 31
0.0
  0
SPLINE
  5
1ED
330
1F
100
AcDbEntity
  8
0
  6
Continuous
 62
     7
370
    15
100
AcDbSpline
210
0.0
220
0.0
230
1.0
 70
     8
 71
     3
 72
    14
 73
    10
 74
     0
 42
0.000000001
 43
0.00000001
 40
0.0
 40
0.0
 40
0.0
 40
0.0
 40
0.1249999999999993
 40
0.1249999999999993
 40
0.2499999999999987
 40
0.2499999999999987
 40
0.4999999999999973
 40
0.4999999999999973
 40
1.0
 40
1.0
 40
1.0
 40
1.0
 10
229.0086333330361
 20
42.12889522365122
 30
0.0
 10
229.0328619109888
 20
42.11490836331782
 30
0.0
 10
229.0559477523547
 20
42.08760959350109
 30
0.0
 10
229.0926901264179
 20
42.03017038519367
 30
0.0
 10
229.1078484261016
 20
41.99901991019127
 30
0.0
 10
229.1474113529893
 20
41.90672036998552
 30
0.0
 10
229.1670212262321
 20
41.84448258922998
 30
0.0
 10
229.217844075187
 20
41.65902682303341
 30
0.0
 10
229.2402757593111
 20
41.53712800273571
 30
0.0
 10
229.2569427879706
 20
41.41814791753712
 30
0.0
  0
LINE
  5
1EE
330
1F
100
AcDbEntity
  8
0
  6
Continuous
 62
     7
370
    15
100
AcDbLine
 10
228.2237448059
 20
42.5820017257
 30
0.0
 11
229.008633333
 21
42.1288952237
 31
0.0
  0
SPLINE
  5
1EF
330
1F
100
AcDbEntity
  8
0
  6
Continuous
 62
     7
370
    15
100
AcDbSpline
210
0.0
220
0.0
230
1.0
 70
     8
 71
     3
 72
    14
 73
    10
 74
     0
 42
0.000000001
 43
0.00000001
 40
0.0
 40
0.0
 40
0.0
 40
0.0
 40
0.5
 40
0.5
 40
0.75
 40
0.75
 40
0.875
 40
0.875
 40
1.0
 40
1.0
 40
1.0
 40
1.0
 10
227.9754353509845
 20
42.15794641385514
 30
0.0
 10
227.9920594324382
 20
42.25742615808526
 30
0.0
 10
228.0144768340425
 20
42.35326129148126
 30
0.0
 10
228.0649078918912
 20
42.4794772410549
 30
0.0
 10
228.0844425858224
 20
42.51931078974916
 30
0.0
 10
228.1243857431579
 20
42.566571121221
 30
0.0
 10
228.1394027103235
 20
42.58017373482626
 30
0.0
 10
228.1764640778452
 20
42.59539413640197
 30
0.0
 10
228.1994477401936
 20
42.59602812319584
 30
0.0
 10
228.223744805919
 20
42.58200172571281
 30
0.0
  0
LINE
  5
1F0
330
1F
100
AcDbEntity
  8
0
  6
Continuous
 62
     7
370
    15
100
AcDbLine
 10
226.830744447
 20
42.8187624069
 30
0.0
 11
227.975435351
 21
42.1579464139
 31
0.0
  0
ARC
  5
1F1
330
1F
100
AcDbEntity
  8
0
  6
Continuous
 62
     7
370
    15
100
AcDbCircle
 10
230.1172092368
 20
47.9821900625
 30
0.0
 40
6.120607483709694
100
AcDbArc
 50
182.476303705
 51
237.5236964406
  0
LINE
  5
1F2
330
1F
100
AcDbEntity
  8
0
  6
Continuous
 62
     7
370
    15
100
AcDbLine
 10
224.0023173222
 20
48.5342826899
 30
0.0
 11
224.0023173222
 21
47.7177418781
 31
0.0
  0
ARC
  5
1F3
330
1F
100
AcDbEntity
  8
0
  6
Continuous
 62
     7
370
    15
100
AcDbCircle
 10
226.5969793925
 20
48.6181167576
 30
0.0
 40
2.596016065007498
100
AcDbArc
 50
154.5697459878
 51
181.8505946794
  0
SPLINE
  5
1F4
330
1F
100
AcDbEntity
  8
0
  6
Continuous
 62
     7
370
    15
100
AcDbSpline
210
0.0
220
0.0
230
1.0
 70
     8
 71
     3
 72
    12
 73
     8
 74
     0
 42
0.000000001
 43
0.00000001
 40
0.0
 40
0.0
 40
0.0
 40
0.0
 40
0.2499999999999999
 40
0.2499999999999999
 40
0.4999999999999998
 40
0.4999999999999998
 40
1.0
 40
1.0
 40
1.0
 40
1.0
 10
251.3203962634059
 20
52.30287758638958
 30
0.0
 10
251.3485012650701
 20
52.28665291428066
 30
0.0
 10
251.3711572319975
 20
52.26663331147243
 30
0.0
 10
251.4002793738782
 20
52.22367168410942
 30
0.0
 10
251.4071347720836
 20
52.20046380878915
 30
0.0
 10
251.4039767770833
 20
52.13157694417944
 30
0.0
 10
251.3693446591949
 20
52.08621246025803
 30
0.0
 10
251.3130582099629
 20
52.05371898475951
 30
0.0
  0
ARC
  5
1F5
330
1F
100
AcDbEntity
  8
0
  6
Continuous
 62
     7
370
    15
100
AcDbCircle
 10
235.4348099311
 20
40.4898569983
 30
0.0
 40
5.513126321255668
100
AcDbArc
 50
212.6148435193
 51
268.2609816983
  0
SPLINE
  5
1F6
330
1F
100
AcDbEntity
  8
0
  6
Continuous
 62
     7
370
    15
100
AcDbSpline
210
0.0
220
0.0
230
1.0
 70
     8
 71
     3
 72
    12
 73
     8
 74
     0
 42
0.000000001
 43
0.00000001
 40
0.0
 40
0.0
 40
0.0
 40
0.0
 40
0.2500000000000001
 40
0.2500000000000001
 40
0.5000000000000002
 40
0.5000000000000002
 40
1.0
 40
1.0
 40
1.0
 40
1.0
 10
229.8759288989322
 20
39.51497967871672
 30
0.0
 10
229.9041710990046
 20
39.49867580365269
 30
0.0
 10
229.93871723091
 20
39.48572001024269
 30
0.0
 10
230.0134412906077
 20
39.46900827205015
 30
0.0
 10
230.0537316819094
 20
39.4651213632627
 30
0.0
 10
230.1748446993457
 20
39.467384761152
 30
0.0
 10
230.2529622617636
 20
39.48771397257874
 30
0.0
 10
230.3096117344992
 20
39.52041701708509
 30
0.0
  0
LINE
  5
1F7
330
1F
100
AcDbEntity
  8
0
  6
Continuous
 62
     7
370
    15
100
AcDbLine
 10
250.094557548
 20
53.0105392138
 30
0.0
 11
251.3203962634
 21
52.3028775864
 31
0.0
  0
ARC
  5
1F8
330
1F
100
AcDbEntity
  8
0
  6
Continuous
 62
     7
370
    15
100
AcDbCircle
 10
234.6328349571
 20
41.9194182837
 30
0.0
 40
6.359957076860578
100
AcDbArc
 50
194.5389270881
 51
238.1305356203
  0
LINE
  5
1F9
330
1F
100
AcDbEntity
  8
0
  6
Continuous
 62
     7
370
    15
100
AcDbLine
 10
228.4765408313
 20
40.3228292146
 30
0.0
 11
229.8759288989
 21
39.5149796787
 31
0.0
  0
SPLINE
  5
1FA
330
1F
100
AcDbEntity
  8
0
  6
Continuous
 62
     7
370
    15
100
AcDbSpline
210
0.0
220
0.0
230
1.0
 70
     8
 71
     3
 72
     8
 73
     4
 74
     0
 42
0.000000001
 43
0.00000001
 40
0.0
 40
0.0
 40
0.0
 40
0.0
 40
1.0
 40
1.0
 40
1.0
 40
1.0
 10
228.9033319956075
 20
41.17414150177269
 30
0.0
 10
228.7601672989171
 20
40.89051945476568
 30
0.0
 10
228.6179786020645
 20
40.60673630878167
 30
0.0
 10
228.4765408313093
 20
40.32282921459459
 30
0.0
  0
LINE
  5
1FB
330
1F
100
AcDbEntity
  8
0
  6
Continuous
 62
     7
370
    15
100
AcDbLine
 10
229.1485006
 20
41.3156743245
 30
0.0
 11
228.9033319956
 21
41.1741415018
 31
0.0
  0
SPLINE
  5
1FC
330
1F
100
AcDbEntity
  8
0
  6
Continuous
 62
     7
370
    15
100
AcDbSpline
210
0.0
220
0.0
230
1.0
 70
     8
 71
     3
 72
    10
 73
     6
 74
     0
 42
0.000000001
 43
0.00000001
 40
0.0
 40
0.0
 40
0.0
 40
0.0
 40
0.5
 40
0.5
 40
1.0
 40
1.0
 40
1.0
 40
1.0
 10
229.2569427879707
 20
41.41814791753721
 30
0.0
 10
229.2462899210007
 20
41.39887227033106
 30
0.0
 10
229.2314851578485
 20
41.38026088890599
 30
0.0
 10
229.1946993865176
 20
41.34563061467441
 30
0.0
 10
229.1731301659236
 20
41.32989267023929
 30
0.0
 10
229.1485005999737
 20
41.31567432446241
 30
0.0
  0
SPLINE
  5
1FD
330
1F
100
AcDbEntity
  8
0
  6
Continuous
 62
     7
370
    15
100
AcDbSpline
210
0.0
220
0.0
230
1.0
 70
     8
 71
     3
 72
    14
 73
    10
 74
     0
 42
0.000000001
 43
0.00000001
 40
0.0
 40
0.0
 40
0.0
 40
0.0
 40
0.5000000000000019
 40
0.5000000000000019
 40
0.7500000000000018
 40
0.7500000000000018
 40
0.875000000000001
 40
0.875000000000001
 40
1.0
 40
1.0
 40
1.0
 40
1.0
 10
213.3356335312919
 20
52.81320726467388
 30
0.0
 10
213.6507994751317
 20
52.58611927377803
 30
0.0
 10
213.9670751303977
 20
52.35627289872989
 30
0.0
 10
214.4458996189688
 20
52.00096429674077
 30
0.0
 10
214.6062196293928
 20
51.88082598254522
 30
0.0
 10
214.8492721653465
 20
51.69455714830141
 30
0.0
 10
214.9307156033631
 20
51.6314639070744
 30
0.0
 10
215.0953770523965
 20
51.50111866466226
 30
0.0
 10
215.1782830704627
 20
51.43459422268501
 30
0.0
 10
215.2643018985474
 20
51.36080075136145
 30
0.0
  0
SPLINE
  5
1FE
330
1F
100
AcDbEntity
  8
0
  6
Continuous
 62
     7
370
    15
100
AcDbSpline
210
0.0
220
0.0
230
1.0
 70
     8
 71
     3
 72
     8
 73
     4
 74
     0
 42
0.000000001
 43
0.00000001
 40
0.0
 40
0.0
 40
0.0
 40
0.0
 40
1.0
 40
1.0
 40
1.0
 40
1.0
 10
215.2643018985474
 20
51.36080075136145
 30
0.0
 10
215.5659543717849
 20
51.10202039327963
 30
0.0
 10
215.8712339153083
 20
50.85444537787497
 30
0.0
 10
216.175893488435
 20
50.61347252130845
 30
0.0
  0
SPLINE
  5
1FF
330
1F
100
AcDbEntity
  8
0
  6
Continuous
 62
     7
370
    15
100
AcDbSpline
210
0.0
220
0.0
230
1.0
 70
     8
 71
     3
 72
    14
 73
    10
 74
     0
 42
0.000000001
 43
0.00000001
 40
0.0
 40
0.0
 40
0.0
 40
0.0
 40
0.1250000000000027
 40
0.1250000000000027
 40
0.2500000000000053
 40
0.2500000000000053
 40
0.5000000000000048
 40
0.5000000000000048
 40
1.0
 40
1.0
 40
1.0
 40
1.0
 10
216.175893488435
 20
50.6134725213084
 30
0.0
 10
216.1950888643606
 20
50.5982897895722
 30
0.0
 10
216.212700937761
 20
50.58692197107542
 30
0.0
 10
216.2385458676802
 20
50.57565350186297
 30
0.0
 10
216.2466842319279
 20
50.57527003162591
 30
0.0
 10
216.2636343228959
 20
50.58104582432031
 30
0.0
 10
216.2658035954057
 20
50.59371124993834
 30
0.0
 10
216.2646280475911
 20
50.63814807698211
 30
0.0
 10
216.2525545269869
 20
50.67863134775555
 30
0.0
 10
216.2377762989469
 20
50.72263501763805
 30
0.0
  0
SPLINE
  5
200
330
1F
100
AcDbEntity
  8
0
  6
Continuous
 62
     7
370
    15
100
AcDbSpline
210
0.0
220
0.0
230
1.0
 70
     8
 71
     3
 72
    14
 73
    10
 74
     0
 42
0.000000001
 43
0.00000001
 40
0.0
 40
0.0
 40
0.0
 40
0.0
 40
0.25
 40
0.25
 40
0.5
 40
0.5
 40
0.75
 40
0.75
 40
1.0
 40
1.0
 40
1.0
 40
1.0
 10
216.2377762989462
 20
50.72263501763875
 30
0.0
 10
216.2197200519996
 20
50.77639932062552
 30
0.0
 10
216.2167972538984
 20
50.82094992972257
 30
0.0
 10
216.2113835253551
 20
50.91321127956729
 30
0.0
 10
216.209816247314
 20
50.96050568248754
 30
0.0
 10
216.1996778475068
 20
51.06526673731532
 30
0.0
 10
216.1913628497626
 20
51.12252794435033
 30
0.0
 10
216.1625626751038
 20
51.25214930172475
 30
0.0
 10
216.1419092784332
 20
51.3249435013378
 30
0.0
 10
216.1132197612721
 20
51.40463020029756
 30
0.0
  0
ARC
  5
201
330
1F
100
AcDbEntity
  8
0
  6
Continuous
 62
     7
370
    15
100
AcDbCircle
 10
226.4681870386
 20
54.4911916982
 30
0.0
 40
10.80519362138096
100
AcDbArc
 50
163.4019732888
 51
196.5980267112
  0
SPLINE
  5
202
330
1F
100
AcDbEntity
  8
0
  6
Continuous
 62
     7
370
    15
100
AcDbSpline
210
0.0
220
0.0
230
1.0
 70
     8
 71
     3
 72
    14
 73
    10
 74
     0
 42
0.000000001
 43
0.00000001
 40
0.0
 40
0.0
 40
0.0
 40
0.0
 40
0.25
 40
0.25
 40
0.5
 40
0.5
 40
0.75
 40
0.75
 40
1.0
 40
1.0
 40
1.0
 40
1.0
 10
216.2377762989462
 20
59.03895821256174
 30
0.0
 10
216.2197200519996
 20
58.91811613361718
 30
0.0
 10
216.2167972538984
 20
58.79302186705107
 30
0.0
 10
216.2113835253551
 20
58.54507055639971
 30
0.0
 10
216.209816247314
 20
58.42116193208595
 30
0.0
 10
216.1996778475068
 20
58.17500619284575
 30
0.0
 10
216.1913628497626
 20
58.05271825098433
 30
0.0
 10
216.1625626751038
 20
57.81072107377556
 30
0.0
 10
216.1419092784332
 20
57.69056410659596
 30
0.0
 10
216.1132197612721
 20
57.57775319619068
 30
0.0
  0
SPLINE
  5
203
330
1F
100
AcDbEntity
  8
0
  6
Continuous
 62
     7
370
    15
100
AcDbSpline
210
0.0
220
0.0
230
1.0
 70
     8
 71
     3
 72
    14
 73
    10
 74
     0
 42
0.000000001
 43
0.00000001
 40
0.0
 40
0.0
 40
0.0
 40
0.0
 40
0.1249999999999979
 40
0.1249999999999979
 40
0.2499999999999958
 40
0.2499999999999958
 40
0.4999999999999948
 40
0.4999999999999948
 40
1.0
 40
1.0
 40
1.0
 40
1.0
 10
216.1758934884351
 20
59.58424377685576
 30
0.0
 10
216.1950888643607
 20
59.58195696888193
 30
0.0
 10
216.212700937761
 20
59.5704587296091
 30
0.0
 10
216.2385458676803
 20
59.53376722708258
 30
0.0
 10
216.2466842319279
 20
59.51068581198051
 30
0.0
 10
216.2636343228959
 20
59.43935329290343
 30
0.0
 10
216.2658035954057
 20
59.38810918729535
 30
0.0
 10
216.2646280475911
 20
59.23807370753376
 30
0.0
 10
216.2525545269869
 20
59.13786203265069
 30
0.0
 10
216.2377762989469
 20
59.03895821256206
 30
0.0
  0
SPLINE
  5
204
330
1F
100
AcDbEntity
  8
0
  6
Continuous
 62
     7
370
    15
100
AcDbSpline
210
0.0
220
0.0
230
1.0
 70
     8
 71
     3
 72
     8
 73
     4
 74
     0
 42
0.000000001
 43
0.00000001
 40
0.0
 40
0.0
 40
0.0
 40
0.0
 40
1.0
 40
1.0
 40
1.0
 40
1.0
 10
215.2643018985474
 20
59.63645658799182
 30
0.0
 10
215.565954371785
 20
59.64380283513493
 30
0.0
 10
215.8712339153084
 20
59.620538869165
 30
0.0
 10
216.1758934884351
 20
59.58424377685576
 30
0.0
  0
SPLINE
  5
205
330
1F
100
AcDbEntity
  8
0
  6
Continuous
 62
     7
370
    15
100
AcDbSpline
210
0.0
220
0.0
230
1.0
 70
     8
 71
     3
 72
    14
 73
    10
 74
     0
 42
0.000000001
 43
0.00000001
 40
0.0
 40
0.0
 40
0.0
 40
0.0
 40
0.5000000000000019
 40
0.5000000000000019
 40
0.7500000000000018
 40
0.7500000000000018
 40
0.875000000000001
 40
0.875000000000001
 40
1.0
 40
1.0
 40
1.0
 40
1.0
 10
213.3356335312919
 20
60.26909593297682
 30
0.0
 10
213.6507994751317
 20
60.1317114392507
 30
0.0
 10
213.9670751303977
 20
60.00013793161956
 30
0.0
 10
214.4458996189688
 20
59.82524246509878
 30
0.0
 10
214.6062196293928
 20
59.77057131483426
 30
0.0
 10
214.8492721653465
 20
59.70153949911421
 30
0.0
 10
214.9307156033631
 20
59.68067721460542
 30
0.0
 10
215.0953770523965
 20
59.64786950117579
 30
0.0
 10
215.1782830704627
 20
59.63436174168313
 30
0.0
 10
215.2643018985474
 20
59.63645658799182
 30
0.0
  0
SPLINE
  5
206
330
1F
100
AcDbEntity
  8
0
  6
Continuous
 62
     7
370
    15
100
AcDbSpline
210
0.0
220
0.0
230
1.0
 70
     8
 71
     3
 72
     8
 73
     4
 74
     0
 42
0.000000001
 43
0.00000001
 40
0.0000005163856998
 40
0.0000005163856998
 40
0.0000005163856998
 40
0.0000005163856998
 40
0.000026289209185
 40
0.000026289209185
 40
0.000026289209185
 40
0.000026289209185
 10
213.3356119442726
 20
60.28197504416802
 30
0.0
 10
213.3356096431133
 20
60.27768220914148
 30
0.0
 10
213.3356168894377
 20
60.27338914146596
 30
0.0
 10
213.3356335312919
 20
60.26909593297682
 30
0.0
  0
LINE
  5
207
330
1F
100
AcDbEntity
  8
0
  6
Continuous
 62
     7
370
    15
100
AcDbLine
 10
226.0132014394
 20
70.8639642132
 30
0.0
 11
226.1997873404
 21
70.7771916352
 31
0.0
  0
LINE
  5
208
330
1F
100
AcDbEntity
  8
0
  6
Continuous
 62
     7
370
    15
100
AcDbLine
 10
214.8180895273
 20
51.0613764968
 30
0.0
 11
214.7734966063
 21
51.091358113
 31
0.0
  0
SPLINE
  5
209
330
1F
100
AcDbEntity
  8
0
  6
Continuous
 62
     7
370
    15
100
AcDbSpline
210
0.0
220
0.0
230
1.0
 70
     8
 71
     3
 72
     8
 73
     4
 74
     0
 42
0.000000001
 43
0.00000001
 40
0.0000005163857002
 40
0.0000005163857002
 40
0.0000005163857002
 40
0.0000005163857002
 40
0.0000262892091854
 40
0.0000262892091854
 40
0.0000262892091854
 40
0.0000262892091854
 10
213.3356119442726
 20
52.80850399230825
 30
0.0
 10
213.3356096431133
 20
52.81007737800595
 30
0.0
 10
213.3356168894377
 20
52.81164510793812
 30
0.0
 10
213.3356335312919
 20
52.81320726467389
 30
0.0
  0
SPLINE
  5
20A
330
1F
100
AcDbEntity
  8
0
  6
Continuous
 62
     7
370
    15
100
AcDbSpline
210
0.0
220
0.0
230
1.0
 70
     8
 71
     3
 72
    18
 73
    14
 74
     0
 42
0.000000001
 43
0.00000001
 40
0.0
 40
0.0
 40
0.0
 40
0.0
 40
0.1233798288410782
 40
0.2474334478769294
 40
0.3714644171819293
 40
0.4947896636346845
 40
0.6170628228128502
 40
0.6785674189156149
 40
0.7392763146246458
 40
0.7998981779096679
 40
0.8617924617525499
 40
0.984499366791779
 40
1.0
 40
1.0
 40
1.0
 40
1.0
 10
219.0244802427265
 20
50.93553287705198
 30
0.0
 10
218.8914334417252
 20
51.18046764741236
 30
0.0
 10
218.6246132571782
 20
51.67167480262145
 30
0.0
 10
218.499918577409
 20
52.42369589132496
 30
0.0
 10
218.6357445737511
 20
53.04838305359935
 30
0.0
 10
219.0028200090578
 20
53.46524799692161
 30
0.0
 10
219.4454611527651
 20
53.55923160642673
 30
0.0
 10
219.8216836318254
 20
53.47728709317435
 30
0.0
 10
220.1039157467356
 20
53.33501502579804
 30
0.0
 10
220.3762612236636
 20
53.11831454722525
 30
0.0
 10
220.7026952524838
 20
52.74058524037027
 30
0.0
 10
220.9581019514987
 20
52.3568089427561
 30
0.0
 10
221.0500632264012
 20
52.06071416844792
 30
0.0
 10
221.0603771210679
 20
52.02750573025691
 30
0.0
  0
SPLINE
  5
20B
330
1F
100
AcDbEntity
  8
0
  6
Continuous
 62
     7
370
    15
100
AcDbSpline
210
0.0
220
0.0
230
1.0
 70
     8
 71
     3
 72
    13
 73
     9
 74
     0
 42
0.000000001
 43
0.00000001
 40
0.0
 40
0.0
 40
0.0
 40
0.0
 40
0.0422744062032369
 40
0.2032231365396913
 40
0.361518867067933
 40
0.51993262845947
 40
0.6806331836061204
 40
1.0
 40
1.0
 40
1.0
 40
1.0
 10
220.6665787305504
 20
49.60673990429716
 30
0.0
 10
220.6489438747773
 20
49.60335135316637
 30
0.0
 10
220.5641689240565
 20
49.58706178103578
 30
0.0
 10
220.3634218062513
 20
49.67290481091253
 30
0.0
 10
220.0961992338258
 20
49.80910999947523
 30
0.0
 10
219.8131297184713
 20
50.02027175287168
 30
0.0
 10
219.433481737433
 20
50.36823575427112
 30
0.0
 10
219.1878726860773
 20
50.70890274440772
 30
0.0
 10
219.0244802427265
 20
50.93553287705198
 30
0.0
  0
ARC
  5
20C
330
1F
100
AcDbEntity
  8
0
  6
Continuous
 62
     7
370
    15
100
AcDbCircle
 10
233.809061723
 20
43.9923113334
 30
0.0
 40
6.580031787580872
100
AcDbArc
 50
198.0472350988
 51
217.4217961249
  0
SPLINE
  5
20D
330
1F
100
AcDbEntity
  8
0
  6
Continuous
 62
     7
370
    15
100
AcDbSpline
210
0.0
220
0.0
230
1.0
 70
     8
 71
     3
 72
     8
 73
     4
 74
     0
 42
0.000000001
 43
0.00000001
 40
0.0
 40
0.0
 40
0.0
 40
0.0
 40
1.0
 40
1.0
 40
1.0
 40
1.0
 10
226.0780821248341
 20
41.7074299537873
 30
0.0
 10
226.569876923586
 20
41.78908024086905
 30
0.0
 10
227.0614570144887
 20
41.87116402835949
 30
0.0
 10
227.5527580435412
 20
41.95381124856338
 30
0.0
  0
LINE
  5
20E
330
1F
100
AcDbEntity
  8
0
  6
Continuous
 62
     7
370
    15
100
AcDbLine
 10
227.5527580435
 20
41.9538112486
 30
0.0
 11
227.7979266479
 21
42.0953440713
 31
0.0
  0
SPLINE
  5
20F
330
1F
100
AcDbEntity
  8
0
  6
Continuous
 62
     7
370
    15
100
AcDbSpline
210
0.0
220
0.0
230
1.0
 70
     8
 71
     3
 72
    10
 73
     6
 74
     0
 42
0.000000001
 43
0.00000001
 40
0.0
 40
0.0
 40
0.0
 40
0.0
 40
0.5
 40
0.5
 40
1.0
 40
1.0
 40
1.0
 40
1.0
 10
227.7979266479075
 20
42.09534407125315
 30
0.0
 10
227.8227589512594
 20
42.10967945484099
 30
0.0
 10
227.8504339487528
 20
42.12227489497709
 30
0.0
 10
227.9105589582073
 20
42.14347279311736
 30
0.0
 10
227.942253358402
 20
42.15183495878401
 30
0.0
 10
227.9754353509837
 20
42.15794641385526
 30
0.0
  0
SPLINE
  5
210
330
1F
100
AcDbEntity
  8
0
  6
Continuous
 62
     7
370
    15
100
AcDbSpline
210
0.0
220
0.0
230
1.0
 70
     8
 71
     3
 72
    21
 73
    17
 74
     0
 42
0.000000001
 43
0.00000001
 40
0.0
 40
0.0
 40
0.0
 40
0.0
 40
0.005338410149158
 40
0.0919173643806839
 40
0.1741762291903263
 40
0.2581412803840897
 40
0.3433432615982415
 40
0.4253697714867089
 40
0.5090462576949792
 40
0.5939101883277625
 40
0.6770610780568049
 40
0.7618880042059553
 40
0.8479309581883387
 40
0.8899216041717198
 40
0.931912322064026
 40
1.0
 40
1.0
 40
1.0
 40
1.0
 10
220.0294085967552
 20
53.28923047478445
 30
0.0
 10
220.0286071021217
 20
53.28602826391308
 30
0.0
 10
220.0148068746732
 20
53.23089222616724
 30
0.0
 10
220.0068575008209
 20
53.11567345150679
 30
0.0
 10
220.0070062452886
 20
52.9446704314987
 30
0.0
 10
220.0284747724284
 20
52.76697266669957
 30
0.0
 10
220.0685143466565
 20
52.58553391731721
 30
0.0
 10
220.1267830774263
 20
52.40222799321144
 30
0.0
 10
220.2018222486971
 20
52.21922801995356
 30
0.0
 10
220.2931032581209
 20
52.03745870142323
 30
0.0
 10
220.3990951503914
 20
51.85886730352878
 30
0.0
 10
220.5181859050816
 20
51.68531464131953
 30
0.0
 10
220.6270600284749
 20
51.54626733895806
 30
0.0
 10
220.7183989187487
 20
51.44020988311822
 30
0.0
 10
220.8021140286284
 20
51.34784198803436
 30
0.0
 10
220.8653787740769
 20
51.28604184363886
 30
0.0
 10
220.9045104272989
 20
51.24781610191782
 30
0.0
  0
LINE
  5
211
330
1F
100
AcDbEntity
  8
0
  6
Continuous
 62
     7
370
    15
100
AcDbLine
 10
247.7016722786
 20
63.2336611855
 30
0.0
 11
247.796680594
 21
63.2547097068
 31
0.0
  0
LINE
  5
212
330
1F
100
AcDbEntity
  8
0
  6
Continuous
 62
     7
370
    15
100
AcDbLine
 10
247.796680594
 20
63.2547097068
 30
0.0
 11
249.1960686616
 21
62.4468601709
 31
0.0
  0
SPLINE
  5
213
330
1F
100
AcDbEntity
  8
0
  6
Continuous
 62
     7
370
    15
100
AcDbSpline
210
0.0
220
0.0
230
1.0
 70
     8
 71
     3
 72
    12
 73
     8
 74
     0
 42
0.000000001
 43
0.00000001
 40
0.0
 40
0.0
 40
0.0
 40
0.0
 40
0.249999999999998
 40
0.249999999999998
 40
0.499999999999996
 40
0.499999999999996
 40
1.0
 40
1.0
 40
1.0
 40
1.0
 10
249.1960686615992
 20
62.44686017093156
 30
0.0
 10
249.2283126324719
 20
62.42824612275795
 30
0.0
 10
249.2503656350055
 20
62.40399579996054
 30
0.0
 10
249.2712145791704
 20
62.353407942073
 30
0.0
 10
249.2708334099431
 20
62.32656937363894
 30
0.0
 10
249.2450804770459
 20
62.24933525737012
 30
0.0
 10
249.1971290499372
 20
62.20254988654229
 30
0.0
 10
249.1332290008019
 20
62.16566117337482
 30
0.0
  0
SPLINE
  5
214
330
1F
100
AcDbEntity
  8
0
  6
Continuous
 62
     7
370
    15
100
AcDbSpline
210
0.0
220
0.0
230
1.0
 70
     8
 71
     3
 72
    12
 73
     8
 74
     0
 42
0.000000001
 43
0.00000001
 40
0.0
 40
0.0
 40
0.0
 40
0.0
 40
0.1937040132028754
 40
0.3723713779956975
 40
0.6838098188696988
 40
0.9624655050189518
 40
1.0
 40
1.0
 40
1.0
 40
1.0
 10
219.3157495925756
 20
51.11845596224037
 30
0.0
 10
219.3953040598689
 20
51.00405423272408
 30
0.0
 10
219.5482374251714
 20
50.78413142905735
 30
0.0
 10
219.8730846668175
 20
50.43021808139426
 30
0.0
 10
220.2576718414945
 20
50.12653761376508
 30
0.0
 10
220.5515778735405
 20
49.96072977138854
 30
0.0
 10
220.6756197159017
 20
49.94417350955478
 30
0.0
 10
220.6903445498384
 20
49.94220813882605
 30
0.0
  0
SPLINE
  5
215
330
1F
100
AcDbEntity
  8
0
  6
Continuous
 62
     7
370
    15
100
AcDbSpline
210
0.0
220
0.0
230
1.0
 70
     8
 71
     3
 72
    16
 73
    12
 74
     0
 42
0.000000001
 43
0.00000001
 40
0.0
 40
0.0
 40
0.0
 40
0.0
 40
0.1460145430723003
 40
0.2335492809498303
 40
0.3282846594091155
 40
0.4359414638220761
 40
0.527879060812337
 40
0.6640995322707106
 40
0.8013223014623457
 40
0.8930413578035041
 40
1.0
 40
1.0
 40
1.0
 40
1.0
 10
220.2553570645227
 20
53.20042487969756
 30
0.0
 10
220.1084964585895
 20
53.27389577963653
 30
0.0
 10
219.8735939057764
 20
53.39141199062782
 30
0.0
 10
219.5567428161382
 20
53.38144205708292
 30
0.0
 10
219.3036136570597
 20
53.2937067147999
 30
0.0
 10
219.0948903815153
 20
53.11191449989067
 30
0.0
 10
218.9318594651027
 20
52.82004912525513
 30
0.0
 10
218.8548316586222
 20
52.41016575148221
 30
0.0
 10
218.9302309986554
 20
51.9455965892903
 30
0.0
 10
219.0889735357372
 20
51.5036519227882
 30
0.0
 10
219.2363884175797
 20
51.25325680699859
 30
0.0
 10
219.3157495925756
 20
51.11845596224037
 30
0.0
  0
SPLINE
  5
216
330
1F
100
AcDbEntity
  8
0
  6
Continuous
 62
     7
370
    15
100
AcDbSpline
210
0.0
220
0.0
230
1.0
 70
     8
 71
     3
 72
    10
 73
     6
 74
     0
 42
0.000000001
 43
0.00000001
 40
0.0
 40
0.0
 40
0.0
 40
0.0
 40
0.3338655256335232
 40
0.7038288454747873
 40
1.0
 40
1.0
 40
1.0
 40
1.0
 10
251.3130582099631
 20
58.58604547984564
 30
0.0
 10
251.3338208786584
 20
58.60047412666515
 30
0.0
 10
251.3775910915579
 20
58.6308914565571
 30
0.0
 10
251.4095711991795
 20
58.68620598399075
 30
0.0
 10
251.4030280003605
 20
58.72355260021634
 30
0.0
 10
251.400118817871
 20
58.74015734125704
 30
0.0
  0
LINE
  5
217
330
1F
100
AcDbEntity
  8
0
  6
Continuous
 62
     7
370
    15
100
AcDbLine
 10
245.3982218875
 20
64.639310446
 30
0.0
 11
245.2565121676
 21
64.4261413265
 31
0.0
  0
LINE
  5
218
330
1F
100
AcDbEntity
  8
0
  6
Continuous
 62
     7
370
    15
100
AcDbLine
 10
215.1753893765
 20
54.9881884679
 30
0.0
 11
215.6757722119
 21
54.6993236057
 31
0.0
  0
SPLINE
  5
219
330
1F
100
AcDbEntity
  8
0
  6
Continuous
 62
     7
370
    15
100
AcDbSpline
210
0.0
220
0.0
230
1.0
 70
     8
 71
     3
 72
    10
 73
     6
 74
     0
 42
0.000000001
 43
0.00000001
 40
0.0
 40
0.0
 40
0.0
 40
0.0
 40
0.0840381716605753
 40
0.7011125076932783
 40
1.0
 40
1.0
 40
1.0
 40
1.0
 10
213.3372990577628
 20
60.74176741245954
 30
0.0
 10
213.3367577429495
 20
60.74821338592337
 30
0.0
 10
213.332241669138
 20
60.80199076506496
 30
0.0
 10
213.3465803955966
 20
60.88479076730601
 30
0.0
 10
213.3671291988121
 20
60.9664193516945
 30
0.0
 10
213.3738344785224
 20
60.99305557400592
 30
0.0
  0
SPLINE
  5
21A
330
1F
100
AcDbEntity
  8
0
  6
Continuous
 62
     7
370
    15
100
AcDbSpline
210
0.0
220
0.0
230
1.0
 70
     8
 71
     3
 72
    10
 73
     6
 74
     0
 42
0.000000001
 43
0.00000001
 40
0.0
 40
0.0
 40
0.0
 40
0.0
 40
0.5
 40
0.5
 40
1.0
 40
1.0
 40
1.0
 40
1.0
 10
213.3900708814907
 20
60.79791722328967
 30
0.0
 10
213.370144830994
 20
60.71395674927166
 30
0.0
 10
213.3568505668531
 20
60.6285108867579
 30
0.0
 10
213.3395820407124
 20
60.45609741582061
 30
0.0
 10
213.3356585860903
 20
60.3689858095543
 30
0.0
 10
213.3356119442726
 20
60.28197504416802
 30
0.0
  0
SPLINE
  5
21B
330
1F
100
AcDbEntity
  8
0
  6
Continuous
 62
     7
370
    15
100
AcDbSpline
210
0.0
220
0.0
230
1.0
 70
     8
 71
     3
 72
    24
 73
    20
 74
     0
 42
0.000000001
 43
0.00000001
 40
0.0
 40
0.0
 40
0.0
 40
0.0
 40
0.2500000000000114
 40
0.2500000000000114
 40
0.3750000000000163
 40
0.3750000000000163
 40
0.4375000000000177
 40
0.4375000000000177
 40
0.4687500000000166
 40
0.4687500000000166
 40
0.5000000000000155
 40
0.5000000000000155
 40
0.5625000000000157
 40
0.5625000000000157
 40
0.6250000000000157
 40
0.6250000000000157
 40
0.7500000000000099
 40
0.7500000000000099
 40
1.0
 40
1.0
 40
1.0
 40
1.0
 10
213.3738344785224
 20
60.99305557400591
 30
0.0
 10
213.4036755078075
 20
61.10033463056217
 30
0.0
 10
213.4335050478486
 20
61.20621920393285
 30
0.0
 10
213.4781762047199
 20
61.35616724718314
 30
0.0
 10
213.4931289968117
 20
61.40516750994607
 30
0.0
 10
213.514712135101
 20
61.46831779184882
 30
0.0
 10
213.5218418466307
 20
61.48795797607733
 30
0.0
 10
213.5306934719321
 20
61.50566790556532
 30
0.0
 10
213.5333315692019
 20
61.509384272051
 30
0.0
 10
213.536484107247
 20
61.50723592366879
 30
0.0
 10
213.5368640683837
 20
61.50107351460221
 30
0.0
 10
213.5348541431229
 20
61.47242843124945
 30
0.0
 10
213.5302775015245
 20
61.44412742626128
 30
0.0
 10
213.5203461154181
 20
61.38774841611198
 30
0.0
 10
213.5146559296832
 20
61.35827866815594
 30
0.0
 10
213.4970743290645
 20
61.2704242475896
 30
0.0
 10
213.4843934561363
 20
61.21119925454028
 30
0.0
 10
213.4451523925159
 20
61.03270594741051
 30
0.0
 10
213.4178489324794
 20
60.91496291323679
 30
0.0
 10
213.3900708814907
 20
60.79791722328969
 30
0.0
  0
ARC
  5
21C
330
1F
100
AcDbEntity
  8
0
  6
Continuous
 62
     7
370
    15
100
AcDbCircle
 10
214.0527489185
 20
60.2033077894
 30
0.0
 40
0.7201267655271302
100
AcDbArc
 50
174.7583590299
 51
234.4349468916
  0
ARC
  5
21D
330
1F
100
AcDbEntity
  8
0
  6
Continuous
 62
     7
370
    15
100
AcDbCircle
 10
215.5480828636
 20
52.7034114121
 30
0.0
 40
2.215172042338765
100
AcDbArc
 50
122.6235698331
 51
177.1589486026
  0
LINE
  5
21E
330
1F
100
AcDbEntity
  8
0
  6
Continuous
 62
     7
370
    15
100
AcDbLine
 10
214.3538452929
 20
54.5690972919
 30
0.0
 11
215.0979319245
 21
54.998649361
 31
0.0
  0
SPLINE
  5
21F
330
1F
100
AcDbEntity
  8
0
  6
Continuous
 62
     7
370
    15
100
AcDbSpline
210
0.0
220
0.0
230
1.0
 70
     8
 71
     3
 72
     8
 73
     4
 74
     0
 42
0.000000001
 43
0.00000001
 40
0.0
 40
0.0
 40
0.0
 40
0.0
 40
0.0001590976915385
 40
0.0001590976915385
 40
0.0001590976915385
 40
0.0001590976915385
 10
215.1753893764503
 20
54.98818846793527
 30
0.0
 10
215.1495692475025
 20
54.99167301731517
 30
0.0
 10
215.1237501035681
 20
54.99515999997061
 30
0.0
 10
215.0979319245296
 20
54.99864936100779
 30
0.0
  0
SPLINE
  5
220
330
1F
100
AcDbEntity
  8
0
  6
Continuous
 62
     7
370
    15
100
AcDbSpline
210
0.0
220
0.0
230
1.0
 70
     8
 71
     3
 72
    10
 73
     6
 74
     0
 42
0.000000001
 43
0.00000001
 40
0.0
 40
0.0
 40
0.0
 40
0.0
 40
0.5
 40
0.5
 40
1.0
 40
1.0
 40
1.0
 40
1.0
 10
213.3900708814907
 20
52.6132616075857
 30
0.0
 10
213.370144830994
 20
52.65178316910237
 30
0.0
 10
213.3568505668531
 20
52.68374649629619
 30
0.0
 10
213.3395820407124
 20
52.74618991979462
 30
0.0
 10
213.3356585860903
 20
52.77661329700768
 30
0.0
 10
213.3356119442726
 20
52.80850399230824
 30
0.0
  0
SPLINE
  5
221
330
1F
100
AcDbEntity
  8
0
  6
Continuous
 62
     7
370
    15
100
AcDbSpline
210
0.0
220
0.0
230
1.0
 70
     8
 71
     3
 72
     9
 73
     5
 74
     0
 42
0.000000001
 43
0.00000001
 40
0.0
 40
0.0
 40
0.0
 40
0.0
 40
0.5797035953942314
 40
1.0
 40
1.0
 40
1.0
 40
1.0
 10
213.3459785101888
 20
53.41037416877775
 30
0.0
 10
213.342456329973
 20
53.38312843676414
 30
0.0
 10
213.3363805004564
 20
53.3361290180438
 30
0.0
 10
213.3363370591576
 20
53.28969037371482
 30
0.0
 10
213.3363188009359
 20
53.27017237846858
 30
0.0
  0
ARC
  5
222
330
1F
100
AcDbEntity
  8
0
  6
Continuous
 62
     7
370
    15
100
AcDbCircle
 10
214.6827041089
 20
53.1980690269
 30
0.0
 40
1.353480254557455
100
AcDbArc
 50
122.9135798094
 51
170.9753897871
  0
LINE
  5
223
330
1F
100
AcDbEntity
  8
0
  6
Continuous
 62
     7
370
    15
100
AcDbLine
 10
214.3538452929
 20
54.5690972919
 30
0.0
 11
213.9472588938
 21
54.3343036572
 31
0.0
  0
LINE
  5
224
330
1F
100
AcDbEntity
  8
0
  6
Continuous
 62
     7
370
    15
100
AcDbLine
 10
213.4452936765
 20
52.5174277893
 30
0.0
 11
213.3900708815
 21
52.6132616076
 31
0.0
  0
LWPOLYLINE
  5
225
330
1F
100
AcDbEntity
  8
0
  6
Continuous
 62
     7
370
    15
100
AcDbPolyline
 90
        7
 70
   128
 43
0.0
 10
257.2641965883
 20
43.6697125929
 10
257.1527073622
 20
43.4184196279
 10
257.1627948178
 20
43.1590808006
 10
257.2937108146
 20
42.9109300853
 10
257.5357459121
 20
42.6923716853
 10
257.8709494742
 20
42.5196150775
 10
258.0212499988
 20
42.4677094476
  0
LWPOLYLINE
  5
226
330
1F
100
AcDbEntity
  8
0
  6
Continuous
 62
     7
370
    15
100
AcDbPolyline
 90
       15
 70
   128
 43
0.0
 10
260.0278405034
 20
42.6788327275
 10
260.2206535205
 20
42.8334126819
 10
260.3903775835
 20
43.0736012199
 10
260.4415551393
 20
43.3313174994
 10
260.3703905826
 20
43.587447883
 10
260.182161863
 20
43.8229963518
 10
259.8908290436
 20
44.0204933534
 10
259.5179989468
 20
44.1652914387
 10
259.0913226754
 20
44.2466515961
 10
258.6424448564
 20
44.2585397151
 10
258.2046567042
 20
44.200074108
 10
257.8104269633
 20
44.0755909017
 10
257.4889938502
 20
43.894322446
 10
257.2641965883
 20
43.6697125929
 10
257.2641965883
 20
43.6697125929
  0
LWPOLYLINE
  5
227
330
1F
100
AcDbEntity
  8
0
  6
Continuous
 62
     7
370
    15
100
AcDbPolyline
 90
       21
 70
   128
 43
0.0
 10
257.7040104216
 20
43.5661400468
 10
257.6201143219
 20
43.3595172995
 10
257.6509277143
 20
43.1480410202
 10
257.7934343695
 20
42.9524119807
 10
258.033684743
 20
42.7917797143
 10
258.3481614544
 20
42.6818680265
 10
258.706081332
 20
42.633435839
 10
259.0724086846
 20
42.6512240319
 10
259.4112848384
 20
42.7334913728
 10
259.6895382344
 20
42.8721849612
 10
259.8799314916
 20
43.0537285024
 10
259.9638275914
 20
43.2603512497
 10
259.9330141989
 20
43.471827529
 10
259.7905075437
 20
43.6674565685
 10
259.5502571702
 20
43.8280888349
 10
259.2357804589
 20
43.9380005227
 10
258.8778605812
 20
43.9864327102
 10
258.5115332287
 20
43.9686445173
 10
258.1726570748
 20
43.8863771764
 10
257.8944036788
 20
43.747683588
 10
257.7040104216
 20
43.5661400468
  0
SPLINE
  5
228
330
1F
100
AcDbEntity
  8
0
  6
Continuous
 62
     7
370
    15
100
AcDbSpline
210
0.0
220
0.0
230
1.0
 70
     8
 71
     3
 72
    12
 73
     8
 74
     0
 42
0.000000001
 43
0.00000001
 40
0.0
 40
0.0
 40
0.0
 40
0.0
 40
0.2065050196548067
 40
0.4141523639035827
 40
0.6270904662318459
 40
0.8429021156632878
 40
1.0
 40
1.0
 40
1.0
 40
1.0
 10
257.6479760029189
 20
43.20279855679148
 30
0.0
 10
257.6719396488745
 20
43.16970785995193
 30
0.0
 10
257.7199995005763
 20
43.10334341834064
 30
0.0
 10
257.7957736411697
 20
43.00953874039941
 30
0.0
 10
257.8749848939406
 20
42.9231702853024
 30
0.0
 10
257.9498275353722
 20
42.85112682118376
 30
0.0
 10
257.9978213848316
 20
42.81860028069934
 30
0.0
 10
258.0180400478813
 20
42.80489762567933
 30
0.0
  0
SPLINE
  5
229
330
1F
100
AcDbEntity
  8
0
  6
Continuous
 62
     7
370
    15
100
AcDbSpline
210
0.0
220
0.0
230
1.0
 70
     8
 71
     3
 72
    11
 73
     7
 74
     0
 42
0.000000001
 43
0.00000001
 40
0.0
 40
0.0
 40
0.0
 40
0.0
 40
0.049370734179106
 40
0.4381887243196524
 40
0.8456729621847089
 40
1.0
 40
1.0
 40
1.0
 40
1.0
 10
259.5591544185241
 20
42.79578566905282
 30
0.0
 10
259.5650206876425
 20
42.79851095807643
 30
0.0
 10
259.6170866134237
 20
42.82269919308074
 30
0.0
 10
259.7292409540117
 20
42.94359253220811
 30
0.0
 10
259.8519657520276
 20
43.17897053390602
 30
0.0
 10
259.917863966369
 20
43.33975307240792
 30
0.0
 10
259.9359659103079
 20
43.38391931465604
 30
0.0
  0
SPLINE
  5
22A
330
1F
100
AcDbEntity
  8
0
  6
Continuous
 62
     7
370
    15
100
AcDbSpline
210
0.0
220
0.0
230
1.0
 70
     8
 71
     3
 72
    11
 73
     7
 74
     0
 42
0.000000001
 43
0.00000001
 40
0.0
 40
0.0
 40
0.0
 40
0.0
 40
0.2164526859271192
 40
0.4403055508633951
 40
0.7518960204221954
 40
1.0
 40
1.0
 40
1.0
 40
1.0
 10
259.9359659103079
 20
43.38391931465604
 30
0.0
 10
259.8874779247586
 20
43.39042099296339
 30
0.0
 10
259.7888442252222
 20
43.40364663179707
 30
0.0
 10
259.6058053679301
 20
43.48968632406899
 30
0.0
 10
259.4094609786186
 20
43.66600121138989
 30
0.0
 10
259.2838115934374
 20
43.83545732456486
 30
0.0
 10
259.2281131448588
 20
43.91057462491928
 30
0.0
  0
SPLINE
  5
22B
330
1F
100
AcDbEntity
  8
0
  6
Continuous
 62
     7
370
    15
100
AcDbSpline
210
0.0
220
0.0
230
1.0
 70
     8
 71
     3
 72
    11
 73
     7
 74
     0
 42
0.000000001
 43
0.00000001
 40
0.0
 40
0.0
 40
0.0
 40
0.0
 40
0.2164526859271194
 40
0.4403055508633974
 40
0.7518960204221773
 40
1.0
 40
1.0
 40
1.0
 40
1.0
 10
259.2281131448588
 20
43.91057462491928
 30
0.0
 10
259.1497493755966
 20
43.8747969665067
 30
0.0
 10
258.9903427022862
 20
43.80201846746208
 30
0.0
 10
258.6945247874697
 20
43.72845653074062
 30
0.0
 10
258.3772031613883
 20
43.73356796519138
 30
0.0
 10
258.1741351370783
 20
43.79346348094128
 30
0.0
 10
258.0841181911643
 20
43.820014245987
 30
0.0
  0
SPLINE
  5
22C
330
1F
100
AcDbEntity
  8
0
  6
Continuous
 62
     7
370
    15
100
AcDbSpline
210
0.0
220
0.0
230
1.0
 70
     8
 71
     3
 72
    11
 73
     7
 74
     0
 42
0.000000001
 43
0.00000001
 40
0.0
 40
0.0
 40
0.0
 40
0.0
 40
0.1323877169515023
 40
0.4819434960836074
 40
0.8154866441480803
 40
1.0
 40
1.0
 40
1.0
 40
1.0
 10
258.0841181911643
 20
43.820014245987
 30
0.0
 10
258.0660235784843
 20
43.77589462134705
 30
0.0
 10
258.0001520528164
 20
43.6152817893223
 30
0.0
 10
257.8769792205867
 20
43.37705485217599
 30
0.0
 10
257.7444209592887
 20
43.24248042602841
 30
0.0
 10
257.6733049895063
 20
43.21322006115519
 30
0.0
 10
257.6479760029189
 20
43.20279855679148
 30
0.0
  0
LINE
  5
22D
330
1F
100
AcDbEntity
  8
0
  6
Continuous
 62
     7
370
    15
100
AcDbLine
 10
258.0841181912
 20
42.7685228887
 30
0.0
 11
258.0841181912
 21
43.820014246
 31
0.0
  0
LINE
  5
22E
330
1F
100
AcDbEntity
  8
0
  6
Continuous
 62
     7
370
    15
100
AcDbLine
 10
259.2281131449
 20
42.6800805773
 30
0.0
 11
259.2281131449
 21
43.9105746249
 31
0.0
  0
ARC
  5
22F
330
1F
100
AcDbEntity
  8
0
  6
Continuous
 62
     7
370
     0
100
AcDbCircle
 10
240.5239753041
 20
45.7534474856
 30
0.0
 40
3.137449863488269
100
AcDbArc
 50
174.3087434829
 51
234.3790761237
  0
LWPOLYLINE
  5
230
330
1F
100
AcDbEntity
  8
0
  6
Continuous
 62
     7
370
     0
100
AcDbPolyline
 90
       19
 70
   128
 43
0.0
 10
244.9461542476
 20
54.028662541
 10
244.8378954337
 20
54.0869718577
 10
244.3699992478
 20
54.2564353147
 10
243.8546276329
 20
54.3208254729
 10
243.3013809872
 20
54.2789428654
 10
242.7205652488
 20
54.131567686
 10
242.122999916
 20
53.8814452555
 10
241.5198165003
 20
53.5332348815
 10
240.9222511675
 20
53.0934230644
 10
240.3414354291
 20
52.5702026663
 10
239.7881887833
 20
51.973320293
 10
239.2728171685
 20
51.3138947341
 10
238.8049209826
 20
50.6042098398
 10
238.3932162463
 20
49.857485697
 10
238.0453722398
 20
49.0876323637
 10
237.7678686389
 20
48.3089907508
 10
237.5658748106
 20
47.5360654784
 10
237.4431535177
 20
46.7832546817
 10
237.4019908257
 20
46.0645818017
  0
LWPOLYLINE
  5
231
330
1F
100
AcDbEntity
  8
0
  6
Continuous
 62
     7
370
     0
100
AcDbPolyline
 90
       38
 70
   128
 43
0.0
 10
261.9916291415
 20
40.2379997038
 10
261.5136226372
 20
39.9150716376
 10
261.0493675097
 20
39.5074720539
 10
260.6122195338
 20
39.0269268508
 10
260.2147546608
 20
38.4872604387
 10
259.8684072315
 20
37.9039980377
 10
259.5831410308
 20
37.2939190452
 10
259.3671626479
 20
36.674574323
 10
259.2266853877
 20
36.0637812912
 10
259.1657505252
 20
35.4791113532
 10
259.1861110453
 20
34.9373843987
 10
259.2871812132
 20
34.4541849256
 10
259.4660534239
 20
34.0434137033
 10
259.7175818497
 20
33.7168878718
 10
260.0345304758
 20
33.4840009848
 10
260.4077812672
 20
33.351452774
 10
260.8265964782
 20
33.3230564101
 10
261.2789275578
 20
33.3996288049
 10
261.7517617644
 20
33.5789671099
 10
262.2314965186
 20
33.8559120885
 10
262.7043307251
 20
34.2224965381
 10
263.1566618047
 20
34.6681744915
 10
263.5754770158
 20
35.1801246053
 10
263.9487278072
 20
35.7436190068
 10
264.2656764332
 20
36.3424469882
 10
264.5172048591
 20
36.9593813587
 10
264.6960770698
 20
37.5766740396
 10
264.7971472376
 20
38.1765666445
 10
264.8175077578
 20
38.7418013553
 10
264.7565728953
 20
39.2561173986
 10
264.616095635
 20
39.7047188381
 10
264.4001172522
 20
40.0747002272
 10
264.1148510515
 20
40.355417875
 10
263.7685036221
 20
40.5387960459
 10
263.3710387492
 20
40.6195592837
 10
262.9338907733
 20
40.5953841771
 10
262.4696356458
 20
40.4669662
 10
261.9916291415
 20
40.2379997038
  0
LWPOLYLINE
  5
232
330
1F
100
AcDbEntity
  8
0
  6
Continuous
 62
     7
370
     0
100
AcDbPolyline
 90
       19
 70
   128
 43
0.0
 10
259.8732989861
 20
34.1535281132
 10
259.9707640976
 20
34.1014116601
 10
260.3352226182
 20
33.993987914
 10
260.7440482396
 20
33.9949216782
 10
261.1833188956
 20
34.1041811546
 10
261.6380757509
 20
34.3180456426
 10
262.0928326062
 20
34.6292322437
 10
262.5321032622
 20
35.0271438713
 10
262.9409288836
 20
35.4982301223
 10
263.3053874042
 20
36.0264487194
 10
263.6130676261
 20
36.5938118118
 10
263.8534918684
 20
37.1809985298
 10
264.018472772
 20
37.768012934
 10
264.10239211
 20
38.334864953
 10
264.10239211
 20
38.862251121
 10
264.018472772
 20
39.3322119347
 10
263.8534918684
 20
39.7287434422
 10
263.6130676261
 20
40.0383422386
 10
263.4255678301
 20
40.1844285592
  0
LWPOLYLINE
  5
233
330
1F
100
AcDbEntity
  8
0
  6
Continuous
 62
     7
370
     0
100
AcDbPolyline
 90
       23
 70
   128
 43
0.0
 10
230.3096117345
 20
46.8692843241
 10
230.6365709936
 20
48.1240805308
 10
231.0448919532
 20
49.387749562
 10
231.5312931923
 20
50.6501360974
 10
232.0918658072
 20
51.9010951232
 10
232.7221048252
 20
53.1305734615
 10
233.4169454083
 20
54.3286905611
 10
234.1708035557
 20
55.4858179018
 10
234.9776209794
 20
56.5926563723
 10
235.8309137907
 20
57.6403110018
 10
236.723824607
 20
58.6203624429
 10
237.6491776607
 20
59.5249346332
 10
238.599536466
 20
60.3467580897
 10
239.5672635817
 20
61.0792283296
 10
240.544581988
 20
61.7164589461
 10
241.5236375861
 20
62.2533289139
 10
242.4965623164
 20
62.6855237437
 10
243.4555373893
 20
63.0095701551
 10
244.3928561198
 20
63.222863989
 10
245.3009858616
 20
63.3236911359
 10
246.1726285418
 20
63.3112413107
 10
247.0007793117
 20
63.185614565
 10
247.7787828396
 20
62.9478204827
  0
LWPOLYLINE
  5
234
330
1F
100
AcDbEntity
  8
0
  6
Continuous
 62
     7
370
     0
100
AcDbPolyline
 90
       24
 70
   128
 43
0.0
 10
229.8759288989
 20
46.8638469857
 10
230.1859870322
 20
48.0799485748
 10
230.5714681616
 20
49.3052986068
 10
231.0295666148
 20
50.5309785369
 10
231.556948184
 20
51.748067419
 10
232.1497743937
 20
52.9477068362
 10
232.8037304383
 20
54.1211653747
 10
233.514056587
 20
55.2599021751
 10
234.2755828269
 20
56.3556290953
 10
235.0827664919
 20
57.4003710348
 10
235.9297326048
 20
58.3865239803
 10
236.810316637
 20
59.3069103509
 10
237.7181093766
 20
60.1548312385
 10
238.6465035765
 20
60.9241151654
 10
239.5887420449
 20
61.6091630024
 10
240.5379668264
 20
62.2049887214
 10
241.4872691165
 20
62.7072556851
 10
242.4297395465
 20
63.1123082114
 10
243.3585184728
 20
63.4171981801
 10
244.2668459032
 20
63.6197064906
 10
245.1481106993
 20
63.7183592137
 10
245.995898694
 20
63.7124383188
 10
246.804039377
 20
63.6019869003
 10
247.5666508053
 20
63.3878088639
  0
LWPOLYLINE
  5
235
330
1F
100
AcDbEntity
  8
0
  6
Continuous
 62
     7
370
     0
100
AcDbPolyline
 90
        3
 70
   128
 43
0.0
 10
251.31305821
 20
52.0537189848
 10
251.0305977838
 20
50.8544281408
 10
250.9507691433
 20
50.5622721459
  0
LWPOLYLINE
  5
236
330
1F
100
AcDbEntity
  8
0
  6
Continuous
 62
     7
370
     0
100
AcDbPolyline
 90
       21
 70
   128
 43
0.0
 10
244.7012770643
 20
39.7366613661
 10
244.6234481616
 20
39.6573682548
 10
243.7299504736
 20
38.801568426
 10
242.8144352427
 20
38.0230849819
 10
241.883691294
 20
37.3276906152
 10
240.9446203782
 20
36.7205418873
 10
240.0041859927
 20
36.2061409914
 10
239.0693617459
 20
35.7883023675
 10
238.1470796449
 20
35.4701244164
 10
237.2441786933
 20
35.2539665248
 10
236.3673541773
 20
35.1414315695
 10
235.5231080186
 20
35.1333540316
 10
234.7177005601
 20
35.2297938085
 10
233.9571041442
 20
35.4300357697
 10
233.2469588255
 20
35.7325950601
 10
232.5925305486
 20
36.1352281099
 10
231.9986720989
 20
36.6349492723
 10
231.4697871183
 20
37.2280529622
 10
231.0097974502
 20
37.9101411346
 10
230.6221140587
 20
38.6761558974
 10
230.3096117345
 20
39.5204170171
  0
ARC
  5
237
330
1F
100
AcDbEntity
  8
0
  6
Continuous
 62
     7
370
     0
100
AcDbCircle
 10
244.7866063518
 20
57.0652402003
 30
0.0
 40
6.701300064527733
100
AcDbArc
 50
13.1170908933
 51
49.5620782406
  0
LWPOLYLINE
  5
238
330
1F
100
AcDbEntity
  8
0
  6
Continuous
 62
     7
370
     0
100
AcDbPolyline
 90
       26
 70
   128
 43
0.0
 10
235.2806704822
 20
46.0645818017
 10
235.322206677
 20
46.8662207474
 10
235.4461856151
 20
47.7036643337
 10
235.6507279021
 20
48.5642177693
 10
235.9327328855
 20
49.4348359413
 10
236.2879256571
 20
50.3023211658
 10
236.7109218567
 20
51.1535232511
 10
237.1953092931
 20
51.975538841
 10
237.7337451463
 20
52.7559070173
 10
238.3180672778
 20
53.4827981939
 10
238.9394179597
 20
54.1451934414
 10
239.588378149
 20
54.7330515231
 10
240.2551102707
 20
55.2374611098
 10
240.9295073455
 20
55.6507758662
 10
241.6013462013
 20
55.966730362
 10
242.2604424457
 20
56.180535049
 10
242.8968048515
 20
56.2889488662
 10
243.5007868135
 20
56.2903283706
 10
244.0632325806
 20
56.1846526503
 10
244.5756160483
 20
55.9735236416
 10
245.0301700057
 20
55.6601418449
 10
245.4200038781
 20
55.2492578089
 10
245.7392081812
 20
54.7471001167
 10
245.9829441033
 20
54.161280967
 10
246.1475168563
 20
53.5006807811
 10
246.1769681151
 20
53.3181288194
  0
LWPOLYLINE
  5
239
330
1F
100
AcDbEntity
  8
0
  6
Continuous
 62
     7
370
     0
100
AcDbPolyline
 90
       13
 70
   128
 43
0.0
 10
239.9274760361
 20
42.4925180397
 10
239.588378149
 20
42.3696854868
 10
238.9394179597
 20
42.2082700827
 10
238.3180672778
 20
42.1532691031
 10
237.7337451463
 20
42.2055163069
 10
237.1953092931
 20
42.3642196795
 10
236.7109218567
 20
42.6269734397
 10
236.2879256571
 20
42.9897945084
 10
235.9327328855
 20
43.4471828879
 10
235.6507279021
 20
43.9922050366
 10
235.4461856151
 20
44.6165989744
 10
235.322206677
 20
45.3108995256
 10
235.2806704822
 20
46.0645818017
  0
LWPOLYLINE
  5
23A
330
1F
100
AcDbEntity
  8
0
  6
Continuous
 62
     7
370
     0
100
AcDbPolyline
 90
       18
 70
   128
 43
0.0
 10
228.2237448059
 20
48.7960664147
 10
228.5109463435
 20
49.9405295796
 10
228.8749185307
 20
51.0946397551
 10
229.3125726539
 20
52.2486030176
 10
229.8201947252
 20
53.3926266901
 10
230.3934770002
 20
54.5170024442
 10
231.0275545337
 20
55.6121886865
 10
231.717046464
 20
56.668891529
 10
232.4561016763
 20
57.6781436589
 10
233.2384484554
 20
58.6313804362
 10
234.0574477084
 20
59.520512574
 10
234.906149305
 20
60.3379947856
 10
235.7773510569
 20
61.0768898143
 10
236.6636598369
 20
61.7309273043
 10
237.5575543176
 20
62.2945570115
 10
238.4514487982
 20
62.7629959035
 10
239.3377575783
 20
63.1322687491
 10
239.3698079599
 20
63.1438071742
  0
LWPOLYLINE
  5
23B
330
1F
100
AcDbEntity
  8
0
  6
Continuous
 62
     7
370
     0
100
AcDbPolyline
 90
       20
 70
   128
 43
0.0
 10
227.7979266479
 20
49.4442113782
 10
228.1305368381
 20
50.6265923195
 10
228.5405733313
 20
51.814172315
 10
229.0245642329
 20
52.9968957902
 10
229.5784114558
 20
54.1647482926
 10
230.1974254195
 20
55.307841286
 10
230.8763647585
 20
56.4164958802
 10
231.6094807021
 20
57.4813247844
 10
232.3905657512
 20
58.4933117926
 10
233.2130062388
 20
59.4438881256
 10
234.0698383296
 20
60.325004986
 10
234.9538069849
 20
61.1292017092
 10
235.8574273933
 20
61.849668935
 10
236.7730483463
 20
62.4803062645
 10
237.6929170233
 20
63.0157739139
 10
238.6092446373
 20
63.4515379278
 10
239.5142723843
 20
63.7839085696
 10
240.4003371395
 20
64.0100715633
 10
241.259936343
 20
64.1281119233
 10
241.6892041157
 20
64.1463529454
  0
LINE
  5
23C
330
1F
100
AcDbEntity
  8
0
  6
Continuous
 62
     7
370
     0
100
AcDbLine
 10
222.2048084035
 20
47.4966028788
 30
0.0
 11
224.0023173222
 21
48.5342826899
 31
0.0
  0
ARC
  5
23D
330
1F
100
AcDbEntity
  8
0
  6
Continuous
 62
     7
370
     0
100
AcDbCircle
 10
237.1641557561
 20
41.6473145287
 30
0.0
 40
7.593754185799554
100
AcDbArc
 50
196.3080251958
 51
212.9380997996
  0
LWPOLYLINE
  5
23E
330
1F
100
AcDbEntity
  8
0
  6
Continuous
 62
     7
370
     0
100
AcDbPolyline
 90
       20
 70
   128
 43
0.0
 10
213.3356119443
 20
60.2819750442
 10
213.6980323392
 20
61.3279184825
 10
214.1314159243
 20
62.3685480953
 10
214.6313771791
 20
63.3933334829
 10
215.1928568666
 20
64.3919045775
 10
215.810173229
 20
65.3541565804
 10
216.4770794827
 20
66.2703522153
 10
217.1868270311
 20
67.131220262
 10
217.9322337556
 20
67.9280493746
 10
218.7057566933
 20
68.6527762336
 10
219.4995683657
 20
69.2980671408
 10
220.3056359878
 20
69.8573922312
 10
221.1158027532
 20
70.3250915496
 10
221.9218703753
 20
70.6964323259
 10
222.7156820477
 20
70.9676568671
 10
223.4892049854
 20
71.1360205819
 10
224.2346117099
 20
71.1998197545
 10
224.9443592584
 20
71.1584087846
 10
225.611265512
 20
71.0122067205
 10
226.0132014394
 20
70.8639642132
  0
ARC
  5
23F
330
1F
100
AcDbEntity
  8
0
  6
Continuous
 62
     7
370
     0
100
AcDbCircle
 10
217.2296374636
 20
54.6086471653
 30
0.0
 40
4.289982539387965
100
AcDbArc
 50
204.81031485
 51
235.0732069068
  0
LINE
  5
240
330
1F
100
AcDbEntity
  8
0
  6
Continuous
 62
     7
370
     0
100
AcDbLine
 10
222.2048084035
 20
46.6800620669
 30
0.0
 11
224.0023173222
 21
47.7177418781
 31
0.0
  0
LINE
  5
241
330
1F
100
AcDbEntity
  8
0
  6
Continuous
 62
     7
370
     0
100
AcDbLine
 10
225.4918668556
 20
42.0458448254
 30
0.0
 11
226.830744447
 21
42.8187624069
 31
0.0
  0
LINE
  5
242
330
1F
100
AcDbEntity
  8
0
  6
Continuous
 62
     7
370
     0
100
AcDbLine
 10
229.2095339011
 20
41.5308032921
 30
0.0
 11
229.008633333
 21
42.1288952237
 31
0.0
  0
LWPOLYLINE
  5
243
330
1F
100
AcDbEntity
  8
0
  6
Continuous
 62
     7
370
     0
100
AcDbPolyline
 90
        3
 70
   128
 43
0.0
 10
228.8476208864
 20
41.0828343557
 10
228.5109463435
 20
41.7691343979
 10
228.2237448059
 20
42.5820017257
  0
ARC
  5
244
330
1F
100
AcDbEntity
  8
0
  6
Continuous
 62
     7
370
     0
100
AcDbCircle
 10
233.9630080878
 20
44.1847698943
 30
0.0
 40
6.50952605264797
100
AcDbArc
 50
198.7221842928
 51
214.1813238847
  0
LINE
  5
245
330
1F
100
AcDbEntity
  8
0
  6
Continuous
 62
     7
370
     0
100
AcDbLine
 10
244.5452931337
 20
65.1316957349
 30
0.0
 11
244.0043041558
 21
64.8193894456
 31
0.0
  0
ARC
  5
246
330
1F
100
AcDbEntity
  8
0
  6
Continuous
 62
     7
370
     0
100
AcDbCircle
 10
217.0980496733
 20
58.7858844328
 30
0.0
 40
1.102095792745819
100
AcDbArc
 50
159.4111972489
 51
213.1915491986
  0
ARC
  5
247
330
1F
100
AcDbEntity
  8
0
  6
Continuous
 62
     7
370
     0
100
AcDbCircle
 10
215.7662388644
 20
58.61439961
 30
0.0
 40
0.6345057597342161
100
AcDbArc
 50
41.9989524423
 51
61.7721687694
  0
LINE
  5
248
330
1F
100
AcDbEntity
  8
0
  6
Continuous
 62
     7
370
     0
100
AcDbLine
 10
216.0663466368
 20
59.1734460161
 30
0.0
 11
216.1758934884
 21
59.5842437769
 31
0.0
  0
LINE
  5
249
330
1F
100
AcDbEntity
  8
0
  6
Continuous
 62
     7
370
     0
100
AcDbLine
 10
216.0663466368
 20
59.1734460161
 30
0.0
 11
215.2643018985
 21
59.636456588
 31
0.0
  0
LINE
  5
24A
330
1F
100
AcDbEntity
  8
0
  6
Continuous
 62
     7
370
     0
100
AcDbLine
 10
213.3900708815
 20
60.7979172233
 30
0.0
 11
213.3738344785
 21
60.993055574
 31
0.0
  0
ARC
  5
24B
330
1F
100
AcDbEntity
  8
0
  6
Continuous
 62
     7
370
     0
100
AcDbCircle
 10
215.8563866553
 20
50.5208267038
 30
0.0
 40
0.4314912001449573
100
AcDbArc
 50
27.8850837496
 51
60.8831993912
  0
ARC
  5
24C
330
1F
100
AcDbEntity
  8
0
  6
Continuous
 62
     7
370
     0
100
AcDbCircle
 10
217.3060853321
 20
51.2928848994
 30
0.0
 40
1.301173266867384
100
AcDbArc
 50
165.9701785416
 51
197.6766607319
  0
LINE
  5
24D
330
1F
100
AcDbEntity
  8
0
  6
Continuous
 62
     7
370
     0
100
AcDbLine
 10
215.6745754711
 20
53.8066559891
 30
0.0
 11
214.3538452929
 21
54.5690972919
 31
0.0
  0
LINE
  5
24E
330
1F
100
AcDbEntity
  8
0
  6
Continuous
 62
     7
370
     0
100
AcDbLine
 10
216.0663466368
 20
50.8977901794
 30
0.0
 11
215.2643018985
 21
51.3608007514
 31
0.0
  0
LINE
  5
24F
330
1F
100
AcDbEntity
  8
0
  6
Continuous
 62
     7
370
     0
100
AcDbLine
 10
216.0663466368
 20
50.8977901794
 30
0.0
 11
216.1758934884
 21
50.6134725213
 31
0.0
  0
OLE2FRAME
  5
250
330
1F
100
AcDbEntity
  8
0
100
AcDbOle2Frame
 70
     2
  3
Paintbrush-Bild
 10
13.8511154363
 20
38.264191557
 30
0.0
 11
51.6290888628
 21
31.9806341108
 31
0.0
 71
     2
 72
     0
 73
     1
 90
    12928
310
80552BED0767C5B32B40DDAF6807D121434000000000000000006FFBDDFB85D0
310
4940DDAF6807D121434000000000000000006FFBDDFB85D04940416F4BD60AFB
310
3F4000000000000000002BED0767C5B32B40416F4BD60AFB3F40000000000000
310
0000000000000100000000010000010000000100000000000100000000320000
310
D0CF11E0A1B11AE1000000000000000000000000000000003E000300FEFF0900
310
0600000000000000000000000100000001000000000000000010000002000000
310
01000000FEFFFFFF0000000000000000FFFFFFFFFFFFFFFFFFFFFFFFFFFFFFFF
310
FFFFFFFFFFFFFFFFFFFFFFFFFFFFFFFFFFFFFFFFFFFFFFFFFFFFFFFFFFFFFFFF
310
FFFFFFFFFFFFFFFFFFFFFFFFFFFFFFFFFFFFFFFFFFFFFFFFFFFFFFFFFFFFFFFF
310
FFFFFFFFFFFFFFFFFFFFFFFFFFFFFFFFFFFFFFFFFFFFFFFFFFFFFFFFFFFFFFFF
310
FFFFFFFFFFFFFFFFFFFFFFFFFFFFFFFFFFFFFFFFFFFFFFFFFFFFFFFFFFFFFFFF
310
FFFFFFFFFFFFFFFFFFFFFFFFFFFFFFFFFFFFFFFFFFFFFFFFFFFFFFFFFFFFFFFF
310
FFFFFFFFFFFFFFFFFFFFFFFFFFFFFFFFFFFFFFFFFFFFFFFFFFFFFFFFFFFFFFFF
310
FFFFFFFFFFFFFFFFFFFFFFFFFFFFFFFFFFFFFFFFFFFFFFFFFFFFFFFFFFFFFFFF
310
FFFFFFFFFFFFFFFFFFFFFFFFFFFFFFFFFFFFFFFFFFFFFFFFFFFFFFFFFFFFFFFF
310
FFFFFFFFFFFFFFFFFFFFFFFFFFFFFFFFFFFFFFFFFFFFFFFFFFFFFFFFFFFFFFFF
310
FFFFFFFFFFFFFFFFFFFFFFFFFFFFFFFFFFFFFFFFFFFFFFFFFFFFFFFFFFFFFFFF
310
FFFFFFFFFFFFFFFFFFFFFFFFFFFFFFFFFFFFFFFFFFFFFFFFFFFFFFFFFFFFFFFF
310
FFFFFFFFFFFFFFFFFFFFFFFFFFFFFFFFFFFFFFFFFFFFFFFFFFFFFFFFFFFFFFFF
310
FFFFFFFFFFFFFFFFFFFFFFFFFFFFFFFFFFFFFFFFFFFFFFFFFFFFFFFFFFFFFFFF
310
FDFFFFFFFEFFFFFFFEFFFFFFFEFFFFFF05000000060000000700000008000000
310
090000000A0000000B0000000C0000000D0000000E0000000F00000010000000
310
11000000120000001300000014000000150000001600000017000000FEFFFFFF
310
FFFFFFFFFFFFFFFFFFFFFFFFFFFFFFFFFFFFFFFFFFFFFFFFFFFFFFFFFFFFFFFF
310
FFFFFFFFFFFFFFFFFFFFFFFFFFFFFFFFFFFFFFFFFFFFFFFFFFFFFFFFFFFFFFFF
310
FFFFFFFFFFFFFFFFFFFFFFFFFFFFFFFFFFFFFFFFFFFFFFFFFFFFFFFFFFFFFFFF
310
FFFFFFFFFFFFFFFFFFFFFFFFFFFFFFFFFFFFFFFFFFFFFFFFFFFFFFFFFFFFFFFF
310
FFFFFFFFFFFFFFFFFFFFFFFFFFFFFFFFFFFFFFFFFFFFFFFFFFFFFFFFFFFFFFFF
310
FFFFFFFFFFFFFFFFFFFFFFFFFFFFFFFFFFFFFFFFFFFFFFFFFFFFFFFFFFFFFFFF
310
FFFFFFFFFFFFFFFFFFFFFFFFFFFFFFFFFFFFFFFFFFFFFFFFFFFFFFFFFFFFFFFF
310
FFFFFFFFFFFFFFFFFFFFFFFFFFFFFFFFFFFFFFFFFFFFFFFFFFFFFFFFFFFFFFFF
310
FFFFFFFFFFFFFFFFFFFFFFFFFFFFFFFFFFFFFFFFFFFFFFFFFFFFFFFFFFFFFFFF
310
FFFFFFFFFFFFFFFFFFFFFFFFFFFFFFFFFFFFFFFFFFFFFFFFFFFFFFFFFFFFFFFF
310
FFFFFFFFFFFFFFFFFFFFFFFFFFFFFFFFFFFFFFFFFFFFFFFFFFFFFFFFFFFFFFFF
310
FFFFFFFFFFFFFFFFFFFFFFFFFFFFFFFFFFFFFFFFFFFFFFFFFFFFFFFFFFFFFFFF
310
FFFFFFFFFFFFFFFFFFFFFFFFFFFFFFFFFFFFFFFFFFFFFFFFFFFFFFFFFFFFFFFF
310
52006F006F007400200045006E00740072007900000000000000000000000000
310
0000000000000000000000000000000000000000000000000000000000000000
310
16000500FFFFFFFFFFFFFFFF020000000A00030000000000C000000000000046
310
000000000000000000000000802DC00B2425D20103000000C000000000000000
310
01004F006C006500000000000000000000000000000000000000000000000000
310
0000000000000000000000000000000000000000000000000000000000000000
310
0A000200FFFFFFFFFFFFFFFFFFFFFFFF00000000000000000000000000000000
310
0000000000000000000000000000000000000000000000001400000000000000
310
010043006F006D0070004F0062006A0000000000000000000000000000000000
310
0000000000000000000000000000000000000000000000000000000000000000
310
120002010100000003000000FFFFFFFF00000000000000000000000000000000
310
0000000000000000000000000000000000000000010000004D00000000000000
310
01004F006C006500310030004E00610074006900760065000000000000000000
310
0000000000000000000000000000000000000000000000000000000000000000
310
1A000200FFFFFFFFFFFFFFFFFFFFFFFF00000000000000000000000000000000
310
0000000000000000000000000000000000000000040000002426000000000000
310
FEFFFFFF02000000FEFFFFFFFFFFFFFFFFFFFFFFFFFFFFFFFFFFFFFFFFFFFFFF
310
FFFFFFFFFFFFFFFFFFFFFFFFFFFFFFFFFFFFFFFFFFFFFFFFFFFFFFFFFFFFFFFF
310
FFFFFFFFFFFFFFFFFFFFFFFFFFFFFFFFFFFFFFFFFFFFFFFFFFFFFFFFFFFFFFFF
310
FFFFFFFFFFFFFFFFFFFFFFFFFFFFFFFFFFFFFFFFFFFFFFFFFFFFFFFFFFFFFFFF
310
FFFFFFFFFFFFFFFFFFFFFFFFFFFFFFFFFFFFFFFFFFFFFFFFFFFFFFFFFFFFFFFF
310
FFFFFFFFFFFFFFFFFFFFFFFFFFFFFFFFFFFFFFFFFFFFFFFFFFFFFFFFFFFFFFFF
310
FFFFFFFFFFFFFFFFFFFFFFFFFFFFFFFFFFFFFFFFFFFFFFFFFFFFFFFFFFFFFFFF
310
FFFFFFFFFFFFFFFFFFFFFFFFFFFFFFFFFFFFFFFFFFFFFFFFFFFFFFFFFFFFFFFF
310
FFFFFFFFFFFFFFFFFFFFFFFFFFFFFFFFFFFFFFFFFFFFFFFFFFFFFFFFFFFFFFFF
310
FFFFFFFFFFFFFFFFFFFFFFFFFFFFFFFFFFFFFFFFFFFFFFFFFFFFFFFFFFFFFFFF
310
FFFFFFFFFFFFFFFFFFFFFFFFFFFFFFFFFFFFFFFFFFFFFFFFFFFFFFFFFFFFFFFF
310
FFFFFFFFFFFFFFFFFFFFFFFFFFFFFFFFFFFFFFFFFFFFFFFFFFFFFFFFFFFFFFFF
310
FFFFFFFFFFFFFFFFFFFFFFFFFFFFFFFFFFFFFFFFFFFFFFFFFFFFFFFFFFFFFFFF
310
FFFFFFFFFFFFFFFFFFFFFFFFFFFFFFFFFFFFFFFFFFFFFFFFFFFFFFFFFFFFFFFF
310
FFFFFFFFFFFFFFFFFFFFFFFFFFFFFFFFFFFFFFFFFFFFFFFFFFFFFFFFFFFFFFFF
310
FFFFFFFFFFFFFFFFFFFFFFFFFFFFFFFFFFFFFFFFFFFFFFFFFFFFFFFFFFFFFFFF
310
0100000200000000000000000000000000000000000000000000000000000000
310
0000000000000000000000000000000000000000000000000000000000000000
310
0100FEFF030A0000FFFFFFFF0A00030000000000C00000000000004607000000
310
5042727573680007000000504272757368000700000050427275736800F439B2
310
7100000000000000000000000000000000000000000000000000000000000000
310
0000000000000000000000000000000000000000000000000000000000000000
310
0000000000000000000000000000000000000000000000000000000000000000
310
0000000000000000000000000000000000000000000000000000000000000000
310
0000000000000000000000000000000000000000000000000000000000000000
310
0000000000000000000000000000000000000000000000000000000000000000
310
0000000000000000000000000000000000000000000000000000000000000000
310
0000000000000000000000000000000000000000000000000000000000000000
310
0000000000000000000000000000000000000000000000000000000000000000
310
0000000000000000000000000000000000000000000000000000000000000000
310
0000000000000000000000000000000000000000000000000000000000000000
310
0000000000000000000000000000000000000000000000000000000000000000
310
20260000424D0E260000000000003E00000028000000B40200006E0000000100
310
01000000000000000000130B0000130B00000200000002000000000000FFFFFF
310
FFFFFFFFFFFFFFFFFFFFFFFFFFFFFFFFFFFFFFFFFFFFFFFFFFFFFFFFFFFFFFFF
310
FFFFFFFFFFFFFFFFFFFFFFFFFFFFFFFFFFFFFFFFFFFFFFFFFFFFFFFFFFFFFFFF
310
FFFFFFFFFFFFFFFFFFFFFFFFFFFFFFFFFFFFFFFFFFFFFFFFF000FFFFFFFFFFFF
310
FFFFFFFFFFFFFFFFFFFFFFFFFFFFFFFFFFFFFFFFFFFFFFFFFFFFFFFFFFFFFFFF
310
FFFFFFFFFFFFFFFFFFFFFFFFFFFFFFFFFFFFFFFFFFFFFFFFFFFFFFFFFFFFFFFF
310
FFFFFFFFFFFFFFFFFFFFFFFFFFFFFFFFF000FFFFFFFFFFFFFFFFFFFFFFFFFFFF
310
FFFFFFFFFFFFFFFFFFFFFFFFFFFFFFFFFFFFFFFFFFFFFFFFFFFFFFFFFFFFFFFF
310
FFFFFFFFFFFFFFFFFFFFFFFFFFFFFFFFFFFFFFFFFFFFFFFFFFFFFFFFFFFFFFFF
310
FFFFFFFFFFFFFFFFF000FFFFFFFFFFFFFFFFFFFFFFFFFFFFFFFFFFFFFFFFFFFF
310
FFFFFFFFFFFFFFFFFFFFFFFFFFFFFFFFFFFFFFFFFFFFFFFFFFFFFFFFFFFFFFFF
310
FFFFFFFFFFFFFFFFFFFFFFFFFFFFFFFFFFFFFFFFFFFFFFFFFFFFFFFFFFFFFFFF
310
F000FFFFFFFFFFFFFFFFFFFFFFFFFFFFFFFFFFFFFFFFFFFFFFFFFFFFFFFFFFFF
310
FFFFFFFFFFFFFFFFFFFFFFFFFFFFFFFFFFFFFFFFFFFFFFFFFFFFFFFFFFFFFFFF
310
FFFFFFFFFFFFFFFFFFFFFFFFFFFFFFFFFFFFFFFFFFFFFFFFF000FFFFFFFFFFFF
310
FFFFFFFFFFFFFFFFFFFFFFFFFFFFFFFFFFFFFFFFFFFFFFFFFFFFFFFFFFFFFFFF
310
FFFFFFFFFFFFFFFFFFFFFFFFFFFFFFFFFFFFFFFFFFFFFFFFFFFFFFFFFFFFFFFF
310
FFFFFFFFFFFFFFFFFFFFFFFFFFFFFFFFF000FFFFFFFFFFFFFFFFFFFFFFFFFFFF
310
FFFFFFFFFFFFFFFFFFFFFFFFFFFFFFFFFFFFFFFFFFFFFFFFFFFFFFFFFFFFFFFF
310
FFFFFFFFFFFFFFFFFFFFFFFFFFFFFFFFFFFFFFFFFFFFFFFFFFFFFFFFFFFFFFFF
310
FFFFFFFFFFFFFFFFF000FFFFFFFFFFFFFFFFFFFFFFFFFFFFFFFFFFFFFFFFFFFF
310
FFFFFFFFFFFFFFFFFFFFFFFFFFFFFFFFFFFFFFFFFFFFFFFFFFFFFFFFFFFFFFFF
310
FFFFFFFFFFFFFFFFFFFFFFFFFFFFFFFFFFFFFFFFFFFFFFFFFFFFFFFFFFFFFFFF
310
F000FFFFFFFFFFFFFFFFFFFFFFFFFFFFFFFFFFFFFFFFFFFFFFFFFFFFFFFFFFFF
310
FFFFFFFFFFFFFFFFFFFFFFFFFFFFFFFFFFFFFFFFFFFFFFFFFFFFFFFFFFFFFFFF
310
FFFFFFFFFFFFFFFFFFFFFFFFFFFFFFFFFFFFFFFFFFFFFFFFF000FFFFFFFFFFFF
310
FFFFFFFFFFFFFFFFFFFFFFFFFFFFFFFFFFFFFFFFFFFFFFFFFFFFFFFFFFFFFFFF
310
FFFFFFFFFFFFFFFFFFFFFFFFFFFFFFFFFFFFFFFFFFFFFFFFFFFFFFFFFFFFFFFF
310
FFFFFFFFFFFFFFFFFFFFFFFFFFFFFFFFF000FFFFFFFFFFFFFFFFFFFFFFFFFFFF
310
FFFFFFFFFFFFFFFFFFFFFFFFFFFFFFFFFFFFFFFFFFFFFFFFFFFFFFFFFFFFFFFF
310
FFFFFFFFFFFFFFFFFFFFFFFFFFFFFFFFFFFFFFFFFFFFFFFFFFFFFFFFFFFFFFFF
310
FFFFFFFFFFFFFFFFF000FFFFFFFFFFFFFFFFFFFFFFFFFFFFFFFFFFFFFFFFFFFF
310
FFFFFFFFFFFFFFFFFFFFFFFFFFFFFFFFFFFFFFFFFFFFFFFFFFFFFFFFFFFFFFFF
310
FFFFFFFFFFFFFFFFFFFFFFFFFFFFFFFFFFFFFFFFFFFFFFFFFFFFFFFFFFFFFFFF
310
F000FFFFFFFFFFFFFFFFFFFFFFFFFFFFFFFFFFFFFFFFFFFFFFFFFFFFFFFFFFFF
310
FFFFFFFFFFFFFFFFFFFFFFFFFFFFFFFFFFFFFFFFFFFFFFFFFFFFFFFFFFFFFFFF
310
FFFFFFFFFFFFFFFFFFFFFFFFFFFFFFFFFFFFFFFFFFFFFFFFF000FFFFFFFFFFFF
310
FFFFFFFFFFFFFFFFFFFFFFFFFFFFFFFFFFFFFFFFFFFFFFFFFFFFFFFFFFFFFFFF
310
FFFFFFFFFFFFFFFFFFFFFFFFFFFFFFFFFFFFFFFFFFFFFFFFFFFFFFFFFFFFFFFF
310
FFFFFFFFFFFFFFFFFFFFFFFFFFFFFFFFF000FFFFFFFFFFFFFFFFFFFFFFFFFFFF
310
FFFFFFFFFFFFFFFFFFFFFFFFFFFFFFFFFFFFFFFFFFFFFFFFFFFFFFFFFFFFFFFF
310
FFFFFFFFFFFFFFFFFFFFFFFFFFFFFFFFFFFFFFFFFFFFFFFFFFFFFFFFFFFFFFFF
310
FFFFFFFFFFFFFFFFF000FFFFFFFFFFFFFFFFFFFFFFFFFFFFFFFFFFFFFFFFFFFF
310
FFFFFFFFFFFFFFFFFFFFFFFFFFFFFFFFFFFFFFFFFFFFFFFFFFFFFFFFFFFFFFFF
310
FFFFFFFFFFFFFFFFFFFFFFFFFFFFFFFFFFFFFFFFFFFFFFFFFFFFFFFFFFFFFFFF
310
F000FFFFFFFFFFFFFFFFFFFFFFFFFFFFFFFFFFFFFFFFFFFFFFFFFFFFFFFFFFFF
310
FFFFFFFFFFFFFFFFFFFFFFFFFFFFFFFFFFFFFFFFFFFFFFFFFFFFFFFFFFFFFFFF
310
FFFFFFFFFFFFFFFFFFFFFFFFFFFFFFFFFFFFFFFFFFFFFFFFF000FFFFFFFFFFFF
310
FFFFFFFFFFFFFFFFFFFFFFFFFFFFFFFFFFFFFFFFFFFFFFFFFFFFFFFFFFFFFFFF
310
FFFFFFFFFFFFFFFFFFFFFFFFFFFFFFFFFFFFFFFFFFFFFFFFFFFFFFFFFFFFFFFF
310
FFFFFFFFFFFFFFFFFFFFFFFFFFFFFFFFF000FFFFFFFFFFFFFFFFFFFFFFFFFFFF
310
FFFFFFFFFFFFFFFFFFFFFFFFFFFFFFFFFFFFFFFFFFFFFFFFFFFFFFFFFFFFFFFF
310
FFFFFFFFFFFFFFFFFFFFFFFFFFFFFFFFFFFFFFFFFFFFFFFFFFFFFFFFFFFFFFFF
310
FFFFFFFFFFFFFFFFF000FFFFF80003FFFFFFFFFFFFFFFFFFFFFFFFFFFFFFFFFF
310
FFFFF00007FFFFFFFFFF00007FFFFFF800000000000000007FFFFFFFFFFFFFFF
310
FFFFFFFC001FFFFFFFFFFFFFFC001FFFFFFFFFFFFFFFFFFFFFFFFFFE0007FFFF
310
F000FFFF8000007FFFFFFFF8000FFFFFC0007FFFFF80007FFFFF0000007FFFFF
310
FFF8000007FFFFF800000000000000007FFFFFF0001FFFFFFFFFFFC00001FFFF
310
FFFFFFFFC00001FFFFFFFF000000000003FFFFE000007FFFF000FFFE0000000F
310
FFFFFFF0000FFFFF80007FFFFF80007FFFFC0000001FFFFFFFC0000001FFFFF8
310
00000000000000007FFFFFF0001FFFFFFFFFFE0000003FFFFFFFFFFE0000003F
310
FFFFFF000000000003FFFF0000000FFFF000FFF800000003FFFFFFF00007FFFF
310
80007FFFFF80007FFFF000000007FFFFFF000000003FFFF80000000000000000
310
7FFFFFF0001FFFFFFFFFF80000000FFFFFFFFFF80000000FFFFFFF0000000000
310
03FFFC00000003FFF000FFE000000000FFFFFFF00007FFFF80003FFFFF80007F
310
FFC000000001FFFFFC000000001FFFF800000000000000007FFFFFF0001FFFFF
310
FFFFE000000003FFFFFFFFE000000003FFFFFF000000000003FFF000000000FF
310
F000FF80000000007FFFFFF00007FFFF80003FFFFF80007FFF8000000000FFFF
310
F80000000007FFF800000000000000007FFFFFF0001FFFFFFFFFC000000001FF
310
FFFFFFC000000001FFFFFF000000000003FFC0000000007FF000FF0000000000
310
3FFFFFE00007FFFF00003FFFFF80007FFE00000000003FFFF00000000003FFF8
310
00000000000000007FFFFFF0001FFFFFFFFF8000000000FFFFFFFF8000000000
310
FFFFFF000000000003FF80000000003FF000FE00000000001FFFFFE00003FFFF
310
00003FFFFF80007FFC00000000001FFFE00000000001FFF8000001FFFE000000
310
7FFFFFF0001FFFFFFFFE00000000003FFFFFFE00000000003FFFFF0000000000
310
03FF00000000001FF000FC00000000000FFFFFE00003FFFF00001FFFFF80007F
310
F800000000001FFFC00000000000FFF8000001FFFE0000007FFFFFF0001FFFFF
310
FFFC00000000001FFFFFFC00000000001FFFFF000000000003FE00000000000F
310
F000F8000000000007FFFFE00003FFFF00001FFFFF80007FF800000000000FFF
310
800000000000FFF8000001FFFE0000007FFFFFF0001FFFFFFFF800000000000F
310
FFFFF800000000000FFFFF000000000003FC000000000007F000F80000000000
310
03FFFFC00003FFFE00001FFFFF80007FF0000000000007FF0000000000007FF8
310
000001FFFE0000007FFFFFF0001FFFFFFFF0000000000007FFFFF00000000000
310
07FFFF000000000003F8000000000003F000F0000000000003FFFFC00001FFFE
310
00001FFFFF80007FE0000000000007FE0000000000003FF8000001FFFE000000
310
7FFFFFF0001FFFFFFFF0000000000007FFFFF0000000000007FFFF0000000000
310
03F800001F800003F000E00001FFF00001FFFFC00001FFFE00000FFFFF80007F
310
E00001FFE00003FE00001FFF00003FF8000001FFFE0000007FFFFFF0001FFFFF
310
FFE000003E000003FFFFE000003E000003FFFF000000000003F00001FFF80001
310
F000E00007FFFC0001FFFFC00001FFFE00000FFFFF80007FC0000FFFFC0003FC
310
0000FFFFC0001FF8000001FFFE0000007FFFFFF0001FFFFFFFC00003FFE00001
310
FFFFC00003FFE00001FFFF0001FFFFFFFFF00007FFFE0001F000E0000FFFFF00
310
00FFFF800001FFFC00000FFFFF80007FC0001FFFFE0001FC0001FFFFE0001FF8
310
000001FFFE0000007FFFFFF0001FFFFFFF80000FFFF80000FFFF80000FFFF800
310
00FFFF0003FFFFFFFFE0000FFFFF8000F000C0003FFFFF8000FFFF800000FFFC
310
000007FFFF80007F80003FFFFF0001FC0003FFFFF0001FF8000001FFFE000000
310
7FFFFFF0001FFFFFFF80003FFFFE0000FFFF80003FFFFE0000FFFF0003FFFFFF
310
FFE0003FFFFF8000F000C0003FFFFF8000FFFF800000FFFC000007FFFF80007F
310
80007FFFFF8001F80007FFFFF8000FF8000001FFFE0000007FFFFFF0001FFFFF
310
FF00007FFFFF00007FFF00007FFFFF00007FFF0003FFFFFFFFE0003FFFFFC000
310
F000C0007FFFFFC000FFFF000000FFFC000007FFFF80007F8000FFFFFF8000F8
310
000FFFFFF8000FF8000001FFFE0000007FFFFFF0001FFFFFFF0000FFFFFF8000
310
7FFF0000FFFFFF80007FFF0003FFFFFFFFC0007FFFFFC00070008000FFFFFFC0
310
00FFFF000000FFF8000007FFFF80007F8000FFFFFF8000F8000FFFFFF8000FF8
310
000001FFFE0000007FFFFFF0001FFFFFFE0001FFFFFFC0003FFE0001FFFFFFC0
310
003FFF0003FFFFFFFFC0007FFFFFE00070008000FFFFFFC0007FFF0000007FF8
310
000003FFFF80007F0001FFFFFF8000F8000FFFFFF8000FF8000001FFFE000000
310
7FFFFFF0001FFFFFFE0001FFFFFFC0003FFE0001FFFFFFC0003FFF0003FFFFFF
310
FFC000FFFFFFE00070008000FFFFFFC0007FFF0000007FF8000003FFFF80007F
310
0001FFFFFF8000F8001FFFFFF8000FF8000001FFFE0000007FFFFFF0001FFFFF
310
FE0003FFFFFFE0003FFE0003FFFFFFE0003FFF0003FFFFFFFFC000FFFFFFE000
310
70008000FFFFFFC0007FFE0000007FF8000003FFFF80007F0001FFFFFF8000F0
310
001FFFFFF8000FF8000001FFFE0000007FFFFFF0001FFFFFFC0003FFFFFFE000
310
1FFC0003FFFFFFE0001FFF0003FFFFFFFFC000FFFFFFC00070008000FFFFFF80
310
007FFE0000007FF0000003FFFF80007F0001FFFFFF0000F0001FFFFFF8000FF8
310
000001FFFE0000007FFFFFF0001FFFFFFC0007FFFFFFF0001FFC0007FFFFFFF0
310
001FFF0003FFFFFFFFC000FFFFFFC00070008001FFFFFF0000FFFE0000003FF0
310
000001FFFF80007F0001FFFFFF0000F8001FFFFFF0000FF8000001FFFE000000
310
7FFFFFF0001FFFFFFC0007FFFFFFF0001FFC0007FFFFFFF0001FFF0003FFFFFF
310
FFC001FFFFFF80007000FFFFFFFFFE0000FFFE0008003FF0008001FFFF80007F
310
FFFFFFFFFC0000FFFFFFFFFFE0000FF8000001FFFE0000007FFFFFF0001FFFFF
310
F8000FFFFFFFF8000FF8000FFFFFFFF8000FFF0003FFFFFFFFFFFFFFFFFF0000
310
7000FFFFFFFFFC0000FFFC0008003FF0008001FFFF80007FFFFFFFFFF80001FF
310
FFFFFFFF80000FF8000001FFFE0000007FFFFFF0001FFFFFF8000FFFFFFFF800
310
0FF8000FFFFFFFF8000FFF0003FFFFFFFFFFFFFFFFFE0000F000FFFFFFFFE000
310
00FFFC000C003FE000C001FFFF80007FFFFFFFFFC00001FFFFFFFFFE00001FF8
310
000001FFFE0000007FFFFFF0001FFFFFF8000FFFFFFFF8000FF8000FFFFFFFF8
310
000FFF0003FFFFFFFFFFFFFFFFF00000F000FFFFFFFE000001FFFC000C001FE0
310
00C000FFFF80007FFFFFFFFE000001FFFFFFFFE000001FF80FFFFFFFFFFFFFC0
310
7FFFFFF0001FFFFFF8000FFFFFFFF8000FF8000FFFFFFFF8000FFF0003FFFFFF
310
FFFFFFFFFF800000F000FFFFFFC0000001FFFC001C001FE001C000FFFF80007F
310
FFFFFF80000003FFFFFFF80000001FF80FFFFFFFFFFFFFC07FFFFFF0001FFFFF
310
F8001FFFFFFFFC000FF8001FFFFFFFFC000FFF0003FFFFFFFFFFFFFFF0000001
310
F000FFFFF800000001FFF8001C001FE001C000FFFF80007FFFFFF800000003FF
310
FFFF800000003FF80FFFFFFFFFFFFFC07FFFFFF0001FFFFFF8001FFFFFFFFC00
310
0FF8001FFFFFFFFC000FFF0003FFFFFFFFFFFFFE00000001F000FFFFC0000000
310
03FFF8001E001FC001E000FFFF80007FFFFF8000000007FFFFFC000000003FF8
310
0FFFFFFFFFFFFFC07FFFFFF0001FFFFFF8001FFFFFFFFC000FF8001FFFFFFFFC
310
000FFF0003FFFFFFFFFFFFE000000003F000FFFE0000000007FFF8001E000FC0
310
01E0007FFF80007FFFFE0000000007FFFFE0000000007FF80FFFFFFFFFFFFFC0
310
7FFFFFF0001FFFFFF0001FFFFFFFFC0007F0001FFFFFFFFC0007FF0003FFFFFF
310
FFFFFF0000000003F000FFF80000000007FFF8001E000FC003E0007FFF80007F
310
FFF0000000000FFFFF8000000000FFF80FFFFFFFFFFFFFC07FFFFFF0001FFFFF
310
F0001FFFFFFFFC0007F0001FFFFFFFFC0007FF0003FFFFFFFFFFFC0000000007
310
F000FFE0000000000FFFF0003E000FC003E0007FFF80007FFFC0000000001FFF
310
FE0000000001FFF80FFFFFFFFFFFFFC07FFFFFF0001FFFFFF0001FFFFFFFFC00
310
07F0001FFFFFFFFC0007FF0003FFFFFFFFFFF0000000000FF000FFC000000000
310
1FFFF0003F000F8003F0003FFF80007FFF80000000003FFFF80000000003FFF8
310
0FFFFFFFFFFFFFC07FFFFFF0001FFFFFF0001FFFFFFFFC0007F0001FFFFFFFFC
310
0007FF0003FFFFFFFFFFE0000000001FF000FF00000000007FFFF0003F000780
310
03F0003FFF80007FFF00000000007FFFF00000000007FFF80FFFFFFFFFFFFFC0
310
7FFFFFF0001FFFFFF0001FFFFFFFFC0007F0001FFFFFFFFC0007FF0003FFFFFF
310
FFFF80000000007FF000FE0000000000FFFFE0003F00078007F0003FFF80007F
310
FE0000000001FFFFE0000000001FFFF80FFFFFFFFFFFFFC07FFFFFF0001FFFFF
310
F0001FFFFFFFFC0007F0001FFFFFFFFC0007FF0003FFFFFFFFFF0000000000FF
310
F000FC0000000003FFFFE0007F00078007F0003FFF80007FFC0000000007FFFF
310
C0000000007FFFF80FFFFFFFFFFFFFC07FFFFFF0001FFFFFF8001FFFFFFFFC00
310
0FF8001FFFFFFFFC000FFF0003FFFFFFFFFE0000000003FFF000FC000000000F
310
FFFFE0007F80070007F8001FFF80007FF8000000001FFFFF8000000001FFFFF8
310
0FFFFFFFFFFFFFC07FFFFFF0001FFFFFF8001FFFFFFFFC000FF8001FFFFFFFFC
310
000FFF0003FFFFFFFFFC000000000FFFF000F8000000007FFFFFE0007F800700
310
07F8001FFF80007FF000000000FFFFFF800000000FFFFFF80FFFFFFFFFFFFFC0
310
7FFFFFF0001FFFFFF8000FFFFFFFF8000FF8000FFFFFFFF8000FFF0003FFFFFF
310
FFFC000000007FFFF000F800000007FFFFFFC0007F8003000FF8001FFF80007F
310
F000000007FFFFFF000000007FFFFFF80FFFFFFFFFFFFFC07FFFFFF0001FFFFF
310
F8000FFFFFFFF8000FF8000FFFFFFFF8000FFF0003FFFFFFFFF80000000FFFFF
310
F000F0000000FFFFFFFFC000FF8003000FF8001FFF80007FE0000000FFFFFFFF
310
0000000FFFFFFFF8000001FFFE0000007FFFFFF0001FFFFFF8000FFFFFFFF800
310
0FF8000FFFFFFFF8000FFF0003FFFFFFFFF8000000FFFFFFF000F000000FFFFF
310
FFFFC000FFC002000FF8000FFF80007FE000001FFFFFFFFE000001FFFFFFFFF8
310
000001FFFE0000007FFFFFF0001FFFFFF8000FFFFFFFF8000FF8000FFFFFFFF8
310
000FFF0003FFFFFFFFF000001FFFFFFFF000E00000FFFFFFFFFFC000FFC00200
310
0FFC000FFF80007FE00001FFFFFFFFFE00001FFFFFFFFFF8000001FFFE000000
310
7FFFFFF0001FFFFFFC000FFFFFFFF8001FFC000FFFFFFFF8001FFF0003FFFFFF
310
FFF00001FFFFFFFFF000E00007FFFFFFFFFF8000FFC000001FFC000FFF80007F
310
C0000FFFFFFFFFFE0000FFFFFFFFFFF8000001FFFE0000007FFFFFF0001FFFFF
310
FC0007FFFFFFF0001FFC0007FFFFFFF0001FFF0003FFFFFFFFF00007FFFFFFFF
310
F000E0001FFFFFFFFFFF8000FFC000001FFC000FFF80007FC0003FFFFFFFFFFE
310
0001FFFFFFFFFFF8000001FFFE0000007FFFFFF0001FFFFFFC0007FFFFFFF000
310
1FFC0007FFFFFFF0001FFF0003FFFFFFFFF0001FFFFFFFFFF000E0003FFFFF00
310
03FF8001FFE000001FFC0007FF80007FC0007FFFFF0007FC0003FFFFF0003FF8
310
000001FFFE0000007FFFFFF0001FFFFFFC0003FFFFFFE0001FFC0003FFFFFFE0
310
001FFF0003FFFFFFFFF0003FFFFFFFFFF000E0003FFFFF0001FF8001FFE00000
310
1FFE0007FF80007FC0007FFFFE0003FC0007FFFFE0003FF8000001FFFE000000
310
7FFFFFF0001FFFFFFE0003FFFFFFE0003FFE0003FFFFFFE0003FFF0003FFFFFF
310
FFF0003FFFFF8001F000E0003FFFFF0001FF0001FFE000001FFE0007FF80007F
310
C0007FFFFE0003FC0007FFFFE0003FF8000001FFFE0000007FFFFFF0001FFFFF
310
FE0001FFFFFFC0003FFE0001FFFFFFC0003FFF0003FFFFFFFFF0003FFFFF0001
310
F000E0003FFFFF0003FF0001FFE000003FFE0007FF80007FC0007FFFFE0003FC
310
0007FFFFE0003FF8000001FFFE0000007FFFFFF0001FFFFFFF0001FFFFFFC000
310
7FFF0001FFFFFFC0007FFF0003FFFFFFFFF0003FFFFF0001F000E0003FFFFE00
310
03FF0003FFF000003FFE0003FF80007FC0007FFFFC0003FE0007FFFFE0003FF8
310
000001FFFE0000007FFFFFF0001FFFFFFF0000FFFFFF80007FFF0000FFFFFF80
310
007FFF0003FFFFFFFFF0003FFFFF0001F000E0003FFFFE0003FF0003FFF00000
310
3FFF0003FF80007FC0007FFFFC0007FE0007FFFFC0003FF8000001FFFE000000
310
7FFFFFF0001FFFFFFF80007FFFFF0000FFFF80007FFFFF0000FFFF0003FFFFFF
310
FFF0003FFFFF0003F000E0003FFFFC0003FE0003FFF000003FFF0003FF80007F
310
E0003FFFF80007FE0003FFFFC0007FF8000001FFFE0000007FFFFFF0001FFFFF
310
FF80003FFFFE0000FFFF80003FFFFE0000FFFF0003FFFFFFFFF0001FFFFE0003
310
F000F0001FFFF80003FE0003FFF000007FFF0001FF80007FE0003FFFF00007FE
310
0001FFFF80007FF8000001FFFE0000007FFFFFF0001FFFFFFFC0000FFFF80001
310
FFFFC0000FFFF80001FFFF0003FFFFFFFFF0001FFFFC0003F000F0000FFFF000
310
07FE0007FFF800007FFF0001FF80007FE0001FFFE00007FF0000FFFE00007FF8
310
000001FFFE0000007FFFFFF0001FFFFFFFC00003FFE00001FFFFC00003FFE000
310
01FFFF0003FFFFFFFFF8000FFFF80003F000F00003FFC00007FC0007FFF80000
310
7FFF8001FF80007FF00007FF80000FFF00007FF80000FFF8000001FFFE000000
310
7F80000000000001FFE000003E000003FFFFE000003E000003FFFF0003FFFFFF
310
FFF80003FFE00007F000F800000000000FFC0007FFF800007FFF8001FF80007F
310
F000000000000FFF000000000000FFF8000001FFFE0000007F80000000000001
310
FFF0000000000007FFFFF0000000000007FFFF0003FFFFFFFFFC00007E000007
310
F000F800000000000FFC0007FFF80000FFFF8000FF80007FF800000000001FFF
310
800000000001FFF8000001FFFE0000007F80000000000001FFF800000000000F
310
FFFFF800000000000FFFFF0003FFFFFFFFFC00000000000FF000FC0000000000
310
1FFC0007FFFC0000FFFF8000FF80007FF800000000003FFFC00000000001FFF8
310
000001FFFE0000007F80000000000001FFF800000000000FFFFFF80000000000
310
0FFFFF0003FFFFFFFFFE00000000001FF000FE00000000003FF8000FFFFC0000
310
FFFF8000FF80007FFC00000000003FFFC00000000003FFF8000001FFFE000000
310
7F80000000000001FFFC00000000001FFFFFFC00000000001FFFFF0003FFFFFF
310
FFFF00000000001FF000FF00000000003FF8000FFFFC0000FFFFC000FF80007F
310
FE00000000007FFFE00000000007FFF8000001FFFE0000007F80000000000001
310
FFFE00000000003FFFFFFE00000000003FFFFF0003FFFFFFFFFF80000000003F
310
F000FF80000000007FF8000FFFFC0001FFFFC0007F80007FFF0000000000FFFF
310
F0000000000FFFF800000000000000007F80000000000001FFFF8000000000FF
310
FFFFFF8000000000FFFFFF0003FFFFFFFFFFC0000000007FF000FFC000000000
310
FFF8000FFFFE0001FFFFC0007F80007FFF8000000001FFFFF8000000001FFFF8
310
00000000000000007F80000000000001FFFFC000000001FFFFFFFFC000000001
310
FFFFFF0003FFFFFFFFFFE000000000FFF000FFE000000003FFF0001FFFFE0001
310
FFFFC0007F80007FFFC000000007FFFFFE000000003FFFF80000000000000000
310
7F80000000000001FFFFE000000003FFFFFFFFE000000003FFFFFF0003FFFFFF
310
FFFFF000000003FFF000FFF80000000FFFF0001FFFFE0001FFFFE0007F80007F
310
FFF00000000FFFFFFF00000000FFFFF800000000000000007F80000000000001
310
FFFFF80000000FFFFFFFFFF80000000FFFFFFF0003FFFFFFFFFFFC0000000FFF
310
F000FFFE0000003FFFF0001FFFFE0003FFFFE0003F80007FFFFC0000003FFFFF
310
FFC0000003FFFFF800000000000000007F80000000000001FFFFFE0000003FFF
310
FFFFFFFE0000003FFFFFFF0003FFFFFFFFFFFF0000003FFFF000FFFF800000FF
310
FFF0001FFFFF0003FFFFE0003F80007FFFFF000001FFFFFFFFF800001FFFFFF8
310
00000000000000007F80000000000001FFFFFFC00001FFFFFFFFFFFFC00001FF
310
FFFFFF0003FFFFFFFFFFFFC00000FFFFF000FFFFF8000FFFFFFFFFFFFFFFFFFF
310
FFFFFFFFFFFFFFFFFFFFF0001FFFFFFFFFFF0000FFFFFFF80000000000000000
310
7FFFFFFFFFFFFFFFFFFFFFFC001FFFFFFFFFFFFFFC001FFFFFFFFFFFFFFFFFFF
310
FFFFFFFC001FFFFFF000FFFFFFFFFFFFFFFFFFFFFFFFFFFFFFFFFFFFFFFFFFFF
310
FFFFFFFFFFFFFFFFFFFFFFFFFFFFFFFFFFFFFFFFFFFFFFFFFFFFFFFFFFFFFFFF
310
FFFFFFFFFFFFFFFFFFFFFFFFFFFFFFFFFFFFFFFFFFFFFFFFFFFFFFFFFFFFFFFF
310
F000FFFFFFFFFFFFFFFFFFFFFFFFFFFFFFFFFFFFFFFFFFFFFFFFFFFFFFFFFFFF
310
FFFFFFFFFFFFFFFFFFFFFFFFFFFFFFFFFFFFFFFFFFFFFFFFFFFFFFFFFFFFFFFF
310
FFFFFFFFFFFFFFFFFFFFFFFFFFFFFFFFFFFFFFFFFFFFFFFFF000FFFFFFFFFFFF
310
FFFFFFFFFFFFFFFFFFFFFFFFFFFFFFFFFFFFFFFFFFFFFFFFFFFFFFFFFFFFFFFF
310
FFFFFFFFFFFFFFFFFFFFFFFFFFFFFFFFFFFFFFFFFFFFFFFFFFFFFFFFFFFFFFFF
310
FFFFFFFFFFFFFFFFFFFFFFFFFFFFFFFFF000FFFFFFFFFFFFFFFFFFFFFFFFFFFF
310
FFFFFFFFFFFFFFFFFFFFFFFFFFFFFFFFFFFFFFFFFFFFFFFFFFFFFFFFFFFFFFFF
310
FFFFFFFFFFFFFFFFFFFFFFFFFFFFFFFFFFFFFFFFFFFFFFFFFFFFFFFFFFFFFFFF
310
FFFFFFFFFFFFFFFFF000FFFFFFFFFFFFFFFFFFFFFFFFFFFFFFFFFFFFFFFFFFFF
310
FFFFFFFFFFFFFFFFFFFFFFFFFFFFFFFFFFFFFFFFFFFFFFFFFFFFFFFFFFFFFFFF
310
FFFFFFFFFFFFFFFFFFFFFFFFFFFFFFFFFFFFFFFFFFFFFFFFFFFFFFFFFFFFFFFF
310
F000FFFFFFFFFFFFFFFFFFFFFFFFFFFFFFFFFFFFFFFFFFFFFFFFFFFFFFFFFFFF
310
FFFFFFFFFFFFFFFFFFFFFFFFFFFFFFFFFFFFFFFFFFFFFFFFFFFFFFFFFFFFFFFF
310
FFFFFFFFFFFFFFFFFFFFFFFFFFFFFFFFFFFFFFFFFFFFFFFFF000FFFFFFFFFFFF
310
FFFFFFFFFFFFFFFFFFFFFFFFFFFFFFFFFFFFFFFFFFFFFFFFFFFFFFFFFFFFFFFF
310
FFFFFFFFFFFFFFFFFFFFFFFFFFFFFFFFFFFFFFFFFFFFFFFFFFFFFFFFFFFFFFFF
310
FFFFFFFFFFFFFFFFFFFFFFFFFFFFFFFFF000FFFFFFFFFFFFFFFFFFFFFFFFFFFF
310
FFFFFFFFFFFFFFFFFFFFFFFFFFFFFFFFFFFFFFFFFFFFFFFFFFFFFFFFFFFFFFFF
310
FFFFFFFFFFFFFFFFFFFFFFFFFFFFFFFFFFFFFFFFFFFFFFFFFFFFFFFFFFFFFFFF
310
FFFFFFFFFFFFFFFFF000FFFFFFFFFFFFFFFFFFFFFFFFFFFFFFFFFFFFFFFFFFFF
310
FFFFFFFFFFFFFFFFFFFFFFFFFFFFFFFFFFFFFFFFFFFFFFFFFFFFFFFFFFFFFFFF
310
FFFFFFFFFFFFFFFFFFFFFFFFFFFFFFFFFFFFFFFFFFFFFFFFFFFFFFFFFFFFFFFF
310
F000FFFFFFFFFFFFFFFFFFFFFFFFFFFFFFFFFFFFFFFFFFFFFFFFFFFFFFFFFFFF
310
FFFFFFFFFFFFFFFFFFFFFFFFFFFFFFFFFFFFFFFFFFFFFFFFFFFFFFFFFFFFFFFF
310
FFFFFFFFFFFFFFFFFFFFFFFFFFFFFFFFFFFFFFFFFFFFFFFFF000FFFFFFFFFFFF
310
FFFFFFFFFFFFFFFFFFFFFFFFFFFFFFFFFFFFFFFFFFFFFFFFFFFFFFFFFFFFFFFF
310
FFFFFFFFFFFFFFFFFFFFFFFFFFFFFFFFFFFFFFFFFFFFFFFFFFFFFFFFFFFFFFFF
310
FFFFFFFFFFFFFFFFFFFFFFFFFFFFFFFFF000FFFFFFFFFFFFFFFFFFFFFFFFFFFF
310
FFFFFFFFFFFFFFFFFFFFFFFFFFFFFFFFFFFFFFFFFFFFFFFFFFFFFFFFFFFFFFFF
310
FFFFFFFFFFFFFFFFFFFFFFFFFFFFFFFFFFFFFFFFFFFFFFFFFFFFFFFFFFFFFFFF
310
FFFFFFFFFFFFFFFFF000FFFFFFFFFFFFFFFFFFFFFFFFFFFFFFFFFFFFFFFFFFFF
310
FFFFFFFFFFFFFFFFFFFFFFFFFFFFFFFFFFFFFFFFFFFFFFFFFFFFFFFFFFFFFFFF
310
FFFFFFFFFFFFFFFFFFFFFFFFFFFFFFFFFFFFFFFFFFFFFFFFFFFFFFFFFFFFFFFF
310
F000FFFFFFFFFFFFFFFFFFFFFFFFFFFFFFFFFFFFFFFFFFFFFFFFFFFFFFFFFFFF
310
FFFFFFFFFFFFFFFFFFFFFFFFFFFFFFFFFFFFFFFFFFFFFFFFFFFFFFFFFFFFFFFF
310
FFFFFFFFFFFFFFFFFFFFFFFFFFFFFFFFFFFFFFFFFFFFFFFFF000FFFFFFFFFFFF
310
FFFFFFFFFFFFFFFFFFFFFFFFFFFFFFFFFFFFFFFFFFFFFFFFFFFFFFFFFFFFFFFF
310
FFFFFFFFFFFFFFFFFFFFFFFFFFFFFFFFFFFFFFFFFFFFFFFFFFFFFFFFFFFFFFFF
310
FFFFFFFFFFFFFFFFFFFFFFFFFFFFFFFFF000FFFFFFFFFFFFFFFFFFFFFFFFFFFF
310
FFFFFFFFFFFFFFFFFFFFFFFFFFFFFFFFFFFFFFFFFFFFFFFFFFFFFFFFFFFFFFFF
310
FFFFFFFFFFFFFFFFFFFFFFFFFFFFFFFFFFFFFFFFFFFFFFFFFFFFFFFFFFFFFFFF
310
FFFFFFFFFFFFFFFFF000FFFFFFFFFFFFFFFFFFFFFFFFFFFFFFFFFFFFFFFFFFFF
310
FFFFFFFFFFFFFFFFFFFFFFFFFFFFFFFFFFFFFFFFFFFFFFFFFFFFFFFFFFFFFFFF
310
FFFFFFFFFFFFFFFFFFFFFFFFFFFFFFFFFFFFFFFFFFFFFFFFFFFFFFFFFFFFFFFF
310
F000FFFFFFFFFFFFFFFFFFFFFFFFFFFFFFFFFFFFFFFFFFFFFFFFFFFFFFFFFFFF
310
FFFFFFFFFFFFFFFFFFFFFFFFFFFFFFFFFFFFFFFFFFFFFFFFFFFFFFFFFFFFFFFF
310
FFFFFFFFFFFFFFFFFFFFFFFFFFFFFFFFFFFFFFFFFFFFFFFFF000FFFFFFFFFFFF
310
FFFFFFFFFFFFFFFFFFFFFFFFFFFFFFFFFFFFFFFFFFFFFFFFFFFFFFFFFFFFFFFF
310
FFFFFFFFFFFFFFFFFFFFFFFFFFFFFFFFFFFFFFFFFFFFFFFFFFFFFFFFFFFFFFFF
310
FFFFFFFFFFFFFFFFFFFFFFFFFFFFFFFFF000FFFFFFFFFFFFFFFFFFFFFFFFFFFF
310
FFFFFFFFFFFFFFFFFFFFFFFFFFFFFFFFFFFFFFFFFFFFFFFFFFFFFFFFFFFFFFFF
310
FFFFFFFFFFFFFFFFFFFFFFFFFFFFFFFFFFFFFFFFFFFFFFFFFFFFFFFFFFFFFFFF
310
FFFFFFFFFFFFFFFFF000FFFFFFFFFFFFFFFFFFFFFFFFFFFFFFFFFFFFFFFFFFFF
310
FFFFFFFFFFFFFFFFFFFFFFFFFFFFFFFFFFFFFFFFFFFFFFFFFFFFFFFFFFFFFFFF
310
FFFFFFFFFFFFFFFFFFFFFFFFFFFFFFFFFFFFFFFFFFFFFFFFFFFFFFFFFFFFFFFF
310
F000FFFFFFFFFFFFFFFFFFFFFFFFFFFFFFFFFFFFFFFFFFFFFFFFFFFFFFFFFFFF
310
FFFFFFFFFFFFFFFFFFFFFFFFFFFFFFFFFFFFFFFFFFFFFFFFFFFFFFFFFFFFFFFF
310
FFFFFFFFFFFFFFFFFFFFFFFFFFFFFFFFFFFFFFFFFFFFFFFFF000FFFFFFFFFFFF
310
FFFFFFFFFFFFFFFFFFFFFFFFFFFFFFFFFFFFFFFFFFFFFFFFFFFFFFFFFFFFFFFF
310
FFFFFFFFFFFFFFFFFFFFFFFFFFFFFFFFFFFFFFFFFFFFFFFFFFFFFFFFFFFFFFFF
310
FFFFFFFFFFFFFFFFFFFFFFFFFFFFFFFFF0000000000000000000000000000000
310
0000000000000000000000000000000000000000000000000000000000000000
310
0000000000000000000000000000000000000000000000000000000000000000
310
0000000000000000000000000000000000000000000000000000000000000000
310
0000000000000000000000000000000000000000000000000000000000000000
310
0000000000000000000000000000000000000000000000000000000000000000
310
0000000000000000000000000000000000000000000000000000000000000000
310
0000000000000000000000000000000000000000000000000000000000000000
310
0000000000000000000000000000000000000000000000000000000000000000
310
0000000000000000000000000000000000000000000000000000000000000000
310
0000000000000000000000000000000000000000000000000000000000000000
310
0000000000000000000000000000000000000000000000000000000000000000
310
0000000000000000000000000000000000000000000000000000000000000000
310
0000000000000000000000000000000000000000000000000000000000000000
310
0000000000000000000000000000000000000000000000000000000000000000
310
0000000000000000000000000000000000000000000000000000000000000000
  1
OLE
  0
ENDSEC
  0
SECTION
  2
OBJECTS
  0
DICTIONARY
  5
C
330
0
100
AcDbDictionary
281
     1
  3
ACAD_GROUP
350
D
  3
ACAD_LAYOUT
350
1A
  3
ACAD_MLINESTYLE
350
17
  3
ACAD_PLOTSETTINGS
350
19
  3
ACAD_PLOTSTYLENAME
350
E
  3
ACAD_SCALELIST
350
47
  0
DICTIONARY
  5
D
102
{ACAD_REACTORS
330
C
102
}
330
C
100
AcDbDictionary
281
     1
  0
DICTIONARY
  5
1A
102
{ACAD_REACTORS
330
C
102
}
330
C
100
AcDbDictionary
281
     1
  3
Layout1
350
1E
  3
Layout2
350
26
  3
Model
350
22
  0
DICTIONARY
  5
17
102
{ACAD_REACTORS
330
C
102
}
330
C
100
AcDbDictionary
281
     1
  3
Standard
350
18
  0
DICTIONARY
  5
19
102
{ACAD_REACTORS
330
C
102
}
330
C
100
AcDbDictionary
281
     1
  0
ACDBDICTIONARYWDFLT
  5
E
102
{ACAD_REACTORS
330
C
102
}
330
C
100
AcDbDictionary
281
     1
  3
Normal
350
F
100
AcDbDictionaryWithDefault
340
F
  0
DICTIONARY
  5
47
102
{ACAD_REACTORS
330
C
102
}
330
C
100
AcDbDictionary
281
     1
  3
A0
350
48
  3
A1
350
49
  3
A2
350
4A
  3
A3
350
4B
  3
A4
350
4C
  3
A5
350
4D
  3
A6
350
4E
  3
A7
350
4F
  3
A8
350
50
  3
A9
350
51
  3
B0
350
52
  3
B1
350
53
  3
B2
350
54
  3
B3
350
55
  3
B4
350
56
  3
B5
350
57
  3
B6
350
58
  3
B7
350
59
  3
B8
350
5A
  3
B9
350
5B
  3
C0
350
5C
  3
C1
350
5D
  3
C2
350
5E
  3
C3
350
5F
  3
C4
350
60
  3
C5
350
61
  3
C6
350
62
  3
C7
350
63
  3
C8
350
64
  3
C9
350
65
  3
D0
350
66
  3
D1
350
67
  3
D2
350
68
  0
LAYOUT
  5
1E
102
{ACAD_REACTORS
330
1A
102
}
330
1A
100
AcDbPlotSettings
  1

  2
none_device
  4

  6

 40
0.0
 41
0.0
 42
0.0
 43
0.0
 44
0.0
 45
0.0
 46
0.0
 47
0.0
 48
0.0
 49
0.0
140
0.0
141
0.0
142
1.0
143
1.0
 70
   688
 72
     1
 73
     0
 74
     5
  7

 75
    16
147
1.0
148
0.0
149
0.0
100
AcDbLayout
  1
Layout1
 70
     1
 71
     1
 10
0.0
 20
0.0
 11
420.0
 21
297.0
 12
0.0
 22
0.0
 32
0.0
 14
1.0000000000E+20
 24
1.0000000000E+20
 34
1.0000000000E+20
 15
-1.0000000000E+20
 25
-1.0000000000E+20
 35
-1.0000000000E+20
146
0.0
 13
0.0
 23
0.0
 33
0.0
 16
1.0
 26
0.0
 36
0.0
 17
0.0
 27
1.0
 37
0.0
 76
     0
330
1B
  0
LAYOUT
  5
26
102
{ACAD_REACTORS
330
1A
102
}
330
1A
100
AcDbPlotSettings
  1

  2
none_device
  4

  6

 40
0.0
 41
0.0
 42
0.0
 43
0.0
 44
0.0
 45
0.0
 46
0.0
 47
0.0
 48
0.0
 49
0.0
140
0.0
141
0.0
142
1.0
143
1.0
 70
   688
 72
     1
 73
     0
 74
     5
  7

 75
    16
147
1.0
148
0.0
149
0.0
100
AcDbLayout
  1
Layout2
 70
     1
 71
     2
 10
0.0
 20
0.0
 11
0.0
 21
0.0
 12
0.0
 22
0.0
 32
0.0
 14
0.0
 24
0.0
 34
0.0
 15
0.0
 25
0.0
 35
0.0
146
0.0
 13
0.0
 23
0.0
 33
0.0
 16
1.0
 26
0.0
 36
0.0
 17
0.0
 27
1.0
 37
0.0
 76
     0
330
23
  0
LAYOUT
  5
22
102
{ACAD_REACTORS
330
1A
102
}
330
1A
100
AcDbPlotSettings
  1

  2
none_device
  4
Letter_(8.50_x_11.00_Inches)
  6

 40
6.35
 41
6.35
 42
6.35000508
 43
6.35000508
 44
215.9
 45
279.4
 46
0.0
 47
0.0
 48
0.0
 49
0.0
140
0.0
141
0.0
142
1.0
143
1.0
 70
  1712
 72
     1
 73
     0
 74
     0
  7

 75
     0
147
1.0
148
0.0
149
0.0
100
AcDbLayout
  1
Model
 70
     1
 71
     0
 10
0.0
 20
0.0
 11
297.0
 21
210.0
 12
0.0
 22
0.0
 32
0.0
 14
0.0
 24
0.0
 34
0.0
 15
297.0
 25
210.0
 35
0.0
146
0.0
 13
0.0
 23
0.0
 33
0.0
 16
1.0
 26
0.0
 36
0.0
 17
0.0
 27
1.0
 37
0.0
 76
     0
330
1F
331
29
  0
MLINESTYLE
  5
18
102
{ACAD_REACTORS
330
17
102
}
330
17
100
AcDbMlineStyle
  2
Standard
 70
     0
  3

 62
   256
 51
90.0
 52
90.0
 71
     2
 49
0.5
 62
   256
  6
BYLAYER
 49
-0.5
 62
   256
  6
BYLAYER
  0
ACDBPLACEHOLDER
  5
F
102
{ACAD_REACTORS
330
E
102
}
330
E
  0
SCALE
  5
48
102
{ACAD_REACTORS
330
47
102
}
330
47
100
AcDbScale
 70
     0
300
1:1
140
1.0
141
1.0
290
     1
  0
SCALE
  5
49
102
{ACAD_REACTORS
330
47
102
}
330
47
100
AcDbScale
 70
     0
300
1:2
140
1.0
141
2.0
290
     0
  0
SCALE
  5
4A
102
{ACAD_REACTORS
330
47
102
}
330
47
100
AcDbScale
 70
     0
300
1:4
140
1.0
141
4.0
290
     0
  0
SCALE
  5
4B
102
{ACAD_REACTORS
330
47
102
}
330
47
100
AcDbScale
 70
     0
300
1:5
140
1.0
141
5.0
290
     0
  0
SCALE
  5
4C
102
{ACAD_REACTORS
330
47
102
}
330
47
100
AcDbScale
 70
     0
300
1:8
140
1.0
141
8.0
290
     0
  0
SCALE
  5
4D
102
{ACAD_REACTORS
330
47
102
}
330
47
100
AcDbScale
 70
     0
300
1:10
140
1.0
141
10.0
290
     0
  0
SCALE
  5
4E
102
{ACAD_REACTORS
330
47
102
}
330
47
100
AcDbScale
 70
     0
300
1:16
140
1.0
141
16.0
290
     0
  0
SCALE
  5
4F
102
{ACAD_REACTORS
330
47
102
}
330
47
100
AcDbScale
 70
     0
300
1:20
140
1.0
141
20.0
290
     0
  0
SCALE
  5
50
102
{ACAD_REACTORS
330
47
102
}
330
47
100
AcDbScale
 70
     0
300
1:30
140
1.0
141
30.0
290
     0
  0
SCALE
  5
51
102
{ACAD_REACTORS
330
47
102
}
330
47
100
AcDbScale
 70
     0
300
1:40
140
1.0
141
40.0
290
     0
  0
SCALE
  5
52
102
{ACAD_REACTORS
330
47
102
}
330
47
100
AcDbScale
 70
     0
300
1:50
140
1.0
141
50.0
290
     0
  0
SCALE
  5
53
102
{ACAD_REACTORS
330
47
102
}
330
47
100
AcDbScale
 70
     0
300
1:100
140
1.0
141
100.0
290
     0
  0
SCALE
  5
54
102
{ACAD_REACTORS
330
47
102
}
330
47
100
AcDbScale
 70
     0
300
2:1
140
2.0
141
1.0
290
     0
  0
SCALE
  5
55
102
{ACAD_REACTORS
330
47
102
}
330
47
100
AcDbScale
 70
     0
300
4:1
140
4.0
141
1.0
290
     0
  0
SCALE
  5
56
102
{ACAD_REACTORS
330
47
102
}
330
47
100
AcDbScale
 70
     0
300
8:1
140
8.0
141
1.0
290
     0
  0
SCALE
  5
57
102
{ACAD_REACTORS
330
47
102
}
330
47
100
AcDbScale
 70
     0
300
10:1
140
10.0
141
1.0
290
     0
  0
SCALE
  5
58
102
{ACAD_REACTORS
330
47
102
}
330
47
100
AcDbScale
 70
     0
300
100:1
140
100.0
141
1.0
290
     0
  0
SCALE
  5
59
102
{ACAD_REACTORS
330
47
102
}
330
47
100
AcDbScale
 70
     0
300
1/128" = 1'-0"
140
0.0078125
141
12.0
290
     0
  0
SCALE
  5
5A
102
{ACAD_REACTORS
330
47
102
}
330
47
100
AcDbScale
 70
     0
300
1/64" = 1'-0"
140
0.015625
141
12.0
290
     0
  0
SCALE
  5
5B
102
{ACAD_REACTORS
330
47
102
}
330
47
100
AcDbScale
 70
     0
300
1/32" = 1'-0"
140
0.03125
141
12.0
290
     0
  0
SCALE
  5
5C
102
{ACAD_REACTORS
330
47
102
}
330
47
100
AcDbScale
 70
     0
300
1/16" = 1'-0"
140
0.0625
141
12.0
290
     0
  0
SCALE
  5
5D
102
{ACAD_REACTORS
330
47
102
}
330
47
100
AcDbScale
 70
     0
300
3/32" = 1'-0"
140
0.09375
141
12.0
290
     0
  0
SCALE
  5
5E
102
{ACAD_REACTORS
330
47
102
}
330
47
100
AcDbScale
 70
     0
300
1/8" = 1'-0"
140
0.125
141
12.0
290
     0
  0
SCALE
  5
5F
102
{ACAD_REACTORS
330
47
102
}
330
47
100
AcDbScale
 70
     0
300
3/16" = 1'-0"
140
0.1875
141
12.0
290
     0
  0
SCALE
  5
60
102
{ACAD_REACTORS
330
47
102
}
330
47
100
AcDbScale
 70
     0
300
1/4" = 1'-0"
140
0.25
141
12.0
290
     0
  0
SCALE
  5
61
102
{ACAD_REACTORS
330
47
102
}
330
47
100
AcDbScale
 70
     0
300
3/8" = 1'-0"
140
0.375
141
12.0
290
     0
  0
SCALE
  5
62
102
{ACAD_REACTORS
330
47
102
}
330
47
100
AcDbScale
 70
     0
300
1/2" = 1'-0"
140
0.5
141
12.0
290
     0
  0
SCALE
  5
63
102
{ACAD_REACTORS
330
47
102
}
330
47
100
AcDbScale
 70
     0
300
3/4" = 1'-0"
140
0.75
141
12.0
290
     0
  0
SCALE
  5
64
102
{ACAD_REACTORS
330
47
102
}
330
47
100
AcDbScale
 70
     0
300
1" = 1'-0"
140
1.0
141
12.0
290
     0
  0
SCALE
  5
65
102
{ACAD_REACTORS
330
47
102
}
330
47
100
AcDbScale
 70
     0
300
1-1/2" = 1'-0"
140
1.5
141
12.0
290
     0
  0
SCALE
  5
66
102
{ACAD_REACTORS
330
47
102
}
330
47
100
AcDbScale
 70
     0
300
3" = 1'-0"
140
3.0
141
12.0
290
     0
  0
SCALE
  5
67
102
{ACAD_REACTORS
330
47
102
}
330
47
100
AcDbScale
 70
     0
300
6" = 1'-0"
140
6.0
141
12.0
290
     0
  0
SCALE
  5
68
102
{ACAD_REACTORS
330
47
102
}
330
47
100
AcDbScale
 70
     0
300
1'-0" = 1'-0"
140
12.0
141
12.0
290
     0
  0
ENDSEC
  0
EOF
