  0
SECTION
  2
HEADER
  9
$ACADVER
  1
AC1015
  9
$ACADMAINTVER
 70
     6
  9
$DWGCODEPAGE
  3
ANSI_1252
  9
$INSBASE
 10
0.0
 20
0.0
 30
0.0
  9
$EXTMIN
 10
0.0
 20
0.0
 30
0.0
  9
$EXTMAX
 10
297.0
 20
210.0
 30
0.0
  9
$LIMMIN
 10
0.0
 20
0.0
  9
$LIMMAX
 10
297.0
 20
210.0
  9
$ORTHOMODE
 70
     0
  9
$REGENMODE
 70
     1
  9
$FILLMODE
 70
     1
  9
$QTEXTMODE
 70
     0
  9
$MIRRTEXT
 70
     1
  9
$LTSCALE
 40
1.0
  9
$ATTMODE
 70
     1
  9
$TEXTSIZE
 40
2.0
  9
$TRACEWID
 40
1.0
  9
$TEXTSTYLE
  7
Standard
  9
$CLAYER
  8
0
  9
$CELTYPE
  6
ByLayer
  9
$CECOLOR
 62
   256
  9
$CELTSCALE
 40
1.0
  9
$DISPSILH
 70
     0
  9
$DIMSCALE
 40
1.0
  9
$DIMASZ
 40
3.0
  9
$DIMEXO
 40
0.0
  9
$DIMDLI
 40
3.75
  9
$DIMRND
 40
0.0
  9
$DIMDLE
 40
0.0
  9
$DIMEXE
 40
1.0
  9
$DIMTP
 40
0.0
  9
$DIMTM
 40
0.0
  9
$DIMTXT
 40
2.0
  9
$DIMCEN
 40
2.5
  9
$DIMTSZ
 40
0.0
  9
$DIMTOL
 70
     0
  9
$DIMLIM
 70
     0
  9
$DIMTIH
 70
     1
  9
$DIMTOH
 70
     1
  9
$DIMSE1
 70
     0
  9
$DIMSE2
 70
     0
  9
$DIMTAD
 70
     1
  9
$DIMZIN
 70
     0
  9
$DIMBLK
  1

  9
$DIMASO
 70
     1
  9
$DIMSHO
 70
     1
  9
$DIMPOST
  1

  9
$DIMAPOST
  1

  9
$DIMALT
 70
     0
  9
$DIMALTD
 70
     3
  9
$DIMALTF
 40
0.0393700787
  9
$DIMLFAC
 40
2.0
  9
$DIMTOFL
 70
     1
  9
$DIMTVP
 40
0.0
  9
$DIMTIX
 70
     0
  9
$DIMSOXD
 70
     0
  9
$DIMSAH
 70
     0
  9
$DIMBLK1
  1

  9
$DIMBLK2
  1

  9
$DIMSTYLE
  2
ISO-25
  9
$DIMCLRD
 70
     0
  9
$DIMCLRE
 70
     0
  9
$DIMCLRT
 70
     0
  9
$DIMTFAC
 40
1.0
  9
$DIMGAP
 40
1.524
  9
$DIMJUST
 70
     0
  9
$DIMSD1
 70
     0
  9
$DIMSD2
 70
     0
  9
$DIMTOLJ
 70
     0
  9
$DIMTZIN
 70
     0
  9
$DIMALTZ
 70
     0
  9
$DIMALTTZ
 70
     0
  9
$DIMUPT
 70
     0
  9
$DIMDEC
 70
     2
  9
$DIMTDEC
 70
     3
  9
$DIMALTU
 70
     2
  9
$DIMALTTD
 70
     3
  9
$DIMTXSTY
  7
Standard
  9
$DIMAUNIT
 70
     0
  9
$DIMADEC
 70
     2
  9
$DIMALTRND
 40
0.0
  9
$DIMAZIN
 70
     0
  9
$DIMDSEP
 70
    44
  9
$DIMATFIT
 70
     3
  9
$DIMFRAC
 70
     0
  9
$DIMLDRBLK
  1

  9
$DIMLUNIT
 70
     2
  9
$DIMLWD
 70
    -2
  9
$DIMLWE
 70
    -2
  9
$DIMTMOVE
 70
     0
  9
$LUNITS
 70
     2
  9
$LUPREC
 70
     2
  9
$SKETCHINC
 40
1.0
  9
$FILLETRAD
 40
10.0
  9
$AUNITS
 70
     0
  9
$AUPREC
 70
     2
  9
$MENU
  1
.
  9
$ELEVATION
 40
0.0
  9
$PELEVATION
 40
0.0
  9
$THICKNESS
 40
0.0
  9
$LIMCHECK
 70
     0
  9
$CHAMFERA
 40
0.0
  9
$CHAMFERB
 40
0.0
  9
$CHAMFERC
 40
0.0
  9
$CHAMFERD
 40
0.0
  9
$SKPOLY
 70
     0
  9
$TDCREATE
 40
2457676.379681979
  9
$TDUCREATE
 40
2457676.296348646
  9
$TDUPDATE
 40
2457676.379683518
  9
$TDUUPDATE
 40
2457676.296350185
  9
$TDINDWG
 40
0.0000000116
  9
$TDUSRTIMER
 40
0.0000000116
  9
$USRTIMER
 70
     1
  9
$ANGBASE
 50
0.0
  9
$ANGDIR
 70
     0
  9
$PDMODE
 70
     0
  9
$PDSIZE
 40
-1.0
  9
$PLINEWID
 40
0.0
  9
$SPLFRAME
 70
     0
  9
$SPLINETYPE
 70
     6
  9
$SPLINESEGS
 70
     8
  9
$HANDSEED
  5
27C
  9
$SURFTAB1
 70
     6
  9
$SURFTAB2
 70
     6
  9
$SURFTYPE
 70
     6
  9
$SURFU
 70
     6
  9
$SURFV
 70
     6
  9
$UCSBASE
  2

  9
$UCSNAME
  2

  9
$UCSORG
 10
0.0
 20
0.0
 30
0.0
  9
$UCSXDIR
 10
1.0
 20
0.0
 30
0.0
  9
$UCSYDIR
 10
0.0
 20
1.0
 30
0.0
  9
$UCSORTHOREF
  2

  9
$UCSORTHOVIEW
 70
     0
  9
$UCSORGTOP
 10
0.0
 20
0.0
 30
0.0
  9
$UCSORGBOTTOM
 10
0.0
 20
0.0
 30
0.0
  9
$UCSORGLEFT
 10
0.0
 20
0.0
 30
0.0
  9
$UCSORGRIGHT
 10
0.0
 20
0.0
 30
0.0
  9
$UCSORGFRONT
 10
0.0
 20
0.0
 30
0.0
  9
$UCSORGBACK
 10
0.0
 20
0.0
 30
0.0
  9
$PUCSBASE
  2

  9
$PUCSNAME
  2

  9
$PUCSORG
 10
0.0
 20
0.0
 30
0.0
  9
$PUCSXDIR
 10
1.0
 20
0.0
 30
0.0
  9
$PUCSYDIR
 10
0.0
 20
1.0
 30
0.0
  9
$PUCSORTHOREF
  2

  9
$PUCSORTHOVIEW
 70
     0
  9
$PUCSORGTOP
 10
0.0
 20
0.0
 30
0.0
  9
$PUCSORGBOTTOM
 10
0.0
 20
0.0
 30
0.0
  9
$PUCSORGLEFT
 10
0.0
 20
0.0
 30
0.0
  9
$PUCSORGRIGHT
 10
0.0
 20
0.0
 30
0.0
  9
$PUCSORGFRONT
 10
0.0
 20
0.0
 30
0.0
  9
$PUCSORGBACK
 10
0.0
 20
0.0
 30
0.0
  9
$USERI1
 70
     0
  9
$USERI2
 70
     0
  9
$USERI3
 70
     0
  9
$USERI4
 70
     0
  9
$USERI5
 70
     0
  9
$USERR1
 40
0.0
  9
$USERR2
 40
0.0
  9
$USERR3
 40
0.0
  9
$USERR4
 40
0.0
  9
$USERR5
 40
0.0
  9
$WORLDVIEW
 70
     1
  9
$SHADEDGE
 70
     3
  9
$SHADEDIF
 70
    70
  9
$TILEMODE
 70
     1
  9
$MAXACTVP
 70
    64
  9
$PINSBASE
 10
0.0
 20
0.0
 30
0.0
  9
$PLIMCHECK
 70
     0
  9
$PEXTMIN
 10
1.0000000000E+20
 20
1.0000000000E+20
 30
1.0000000000E+20
  9
$PEXTMAX
 10
-1.0000000000E+20
 20
-1.0000000000E+20
 30
-1.0000000000E+20
  9
$PLIMMIN
 10
0.0
 20
0.0
  9
$PLIMMAX
 10
420.0
 20
297.0
  9
$UNITMODE
 70
     0
  9
$VISRETAIN
 70
     1
  9
$PLINEGEN
 70
     0
  9
$PSLTSCALE
 70
     1
  9
$TREEDEPTH
 70
  3020
  9
$CMLSTYLE
  2
Standard
  9
$CMLJUST
 70
     0
  9
$CMLSCALE
 40
20.0
  9
$PROXYGRAPHICS
 70
     1
  9
$MEASUREMENT
 70
     1
  9
$CELWEIGHT
370
    -1
  9
$ENDCAPS
280
     0
  9
$JOINSTYLE
280
     0
  9
$LWDISPLAY
290
     1
  9
$INSUNITS
 70
     4
  9
$HYPERLINKBASE
  1

  9
$STYLESHEET
  1

  9
$XEDIT
290
     1
  9
$CEPSNTYPE
380
     0
  9
$PSTYLEMODE
290
     1
  9
$FINGERPRINTGUID
  2
{44AE6A5B-EAED-4141-8182-79EC4E0CCAD8}
  9
$VERSIONGUID
  2
{FAEB1C32-E019-11D5-929B-00C0DF256EC4}
  9
$EXTNAMES
290
     1
  9
$PSVPSCALE
 40
0.0
  9
$OLESTARTUP
290
     0
  0
ENDSEC
  0
SECTION
  2
CLASSES
  0
CLASS
  1
ACDBDICTIONARYWDFLT
  2
AcDbDictionaryWithDefault
  3
ObjectDBX Classes
 90
        0
280
     0
281
     0
  0
CLASS
  1
VISUALSTYLE
  2
AcDbVisualStyle
  3
ObjectDBX Classes
 90
     4095
280
     0
281
     0
  0
CLASS
  1
MATERIAL
  2
AcDbMaterial
  3
ObjectDBX Classes
 90
     1153
280
     0
281
     0
  0
CLASS
  1
SCALE
  2
AcDbScale
  3
ObjectDBX Classes
 90
     1153
280
     0
281
     0
  0
CLASS
  1
TABLESTYLE
  2
AcDbTableStyle
  3
ObjectDBX Classes
 90
     4095
280
     0
281
     0
  0
CLASS
  1
MLEADERSTYLE
  2
AcDbMLeaderStyle
  3
ACDB_MLEADERSTYLE_CLASS
 90
     4095
280
     0
281
     0
  0
CLASS
  1
SUN
  2
AcDbSun
  3
SCENEOE
 90
     1153
280
     0
281
     0
  0
CLASS
  1
ACDBPLACEHOLDER
  2
AcDbPlaceHolder
  3
ObjectDBX Classes
 90
        0
280
     0
281
     0
  0
CLASS
  1
LAYOUT
  2
AcDbLayout
  3
ObjectDBX Classes
 90
        0
280
     0
281
     0
  0
ENDSEC
  0
SECTION
  2
TABLES
  0
TABLE
  2
VPORT
  5
8
330
0
100
AcDbSymbolTable
 70
     1
  0
VPORT
  5
29
330
8
100
AcDbSymbolTableRecord
100
AcDbViewportTableRecord
  2
*Active
 70
     0
 10
0.0
 20
0.0
 11
1.0
 21
1.0
 12
148.5
 22
105.0
 13
0.0
 23
0.0
 14
10.0
 24
10.0
 15
10.0
 25
10.0
 16
0.0
 26
0.0
 36
1.0
 17
0.0
 27
0.0
 37
0.0
 40
210.0
 41
1.4142857143
 42
50.0
 43
0.0
 44
0.0
 50
0.0
 51
0.0
 71
     0
 72
  2000
 73
     1
 74
     3
 75
     0
 76
     0
 77
     0
 78
     0
281
     0
 65
     1
110
0.0
120
0.0
130
0.0
111
1.0
121
0.0
131
0.0
112
0.0
122
1.0
132
0.0
 79
     0
146
0.0
  0
ENDTAB
  0
TABLE
  2
LTYPE
  5
5
330
0
100
AcDbSymbolTable
 70
     6
  0
LTYPE
  5
14
330
5
100
AcDbSymbolTableRecord
100
AcDbLinetypeTableRecord
  2
ByBlock
 70
     0
  3

 72
    65
 73
     0
 40
0.0
  0
LTYPE
  5
15
330
5
100
AcDbSymbolTableRecord
100
AcDbLinetypeTableRecord
  2
ByLayer
 70
     0
  3

 72
    65
 73
     0
 40
0.0
  0
LTYPE
  5
16
330
5
100
AcDbSymbolTableRecord
100
AcDbLinetypeTableRecord
  2
Continuous
 70
     0
  3
Solid line
 72
    65
 73
     0
 40
0.0
  0
LTYPE
  5
6E
330
5
100
AcDbSymbolTableRecord
100
AcDbLinetypeTableRecord
  2
HIDDEN
 70
     0
  3
Hidden __ __ __ __ __ __ __ __ __ __ __ __ __ __
 72
    65
 73
     2
 40
1.905
 49
1.27
 74
     0
 49
-0.635
 74
     0
  0
LTYPE
  5
6F
330
5
100
AcDbSymbolTableRecord
100
AcDbLinetypeTableRecord
  2
PHANTOM
 70
     0
  3
Phantom ______  __  __  ______  __  __  ______
 72
    65
 73
     6
 40
12.7
 49
6.35
 74
     0
 49
-1.27
 74
     0
 49
1.27
 74
     0
 49
-1.27
 74
     0
 49
1.27
 74
     0
 49
-1.27
 74
     0
  0
LTYPE
  5
70
330
5
100
AcDbSymbolTableRecord
100
AcDbLinetypeTableRecord
  2
CENTER
 70
     0
  3
Center ____ _ ____ _ ____ _ ____ _ ____ _ ____
 72
    65
 73
     4
 40
10.16
 49
6.35
 74
     0
 49
-1.27
 74
     0
 49
1.27
 74
     0
 49
-1.27
 74
     0
  0
LTYPE
  5
71
330
5
100
AcDbSymbolTableRecord
100
AcDbLinetypeTableRecord
  2
CENTERX2
 70
     0
  3
Center (2x) ________  __  ________  __  _____
 72
    65
 73
     4
 40
20.32
 49
12.7
 74
     0
 49
-2.54
 74
     0
 49
2.54
 74
     0
 49
-2.54
 74
     0
  0
LTYPE
  5
72
330
5
100
AcDbSymbolTableRecord
100
AcDbLinetypeTableRecord
  2
DOT2
 70
     0
  3
Dot (.5x) ........................................
 72
    65
 73
     2
 40
0.635
 49
0.0
 74
     0
 49
-0.635
 74
     0
  0
ENDTAB
  0
TABLE
  2
LAYER
  5
2
330
0
100
AcDbSymbolTable
 70
     5
  0
LAYER
  5
10
330
2
100
AcDbSymbolTableRecord
100
AcDbLayerTableRecord
  2
0
 70
     0
 62
     7
  6
Continuous
370
    -3
390
F
  0
LAYER
  5
73
330
2
100
AcDbSymbolTableRecord
100
AcDbLayerTableRecord
  2
FORMAT
 70
     0
 62
     7
  6
Continuous
370
    -3
390
F
  0
LAYER
  5
74
330
2
100
AcDbSymbolTableRecord
100
AcDbLayerTableRecord
  2
VERMASSUNG
 70
     0
 62
     7
  6
Continuous
370
    -3
390
F
  0
LAYER
  5
75
330
2
100
AcDbSymbolTableRecord
100
AcDbLayerTableRecord
  2
KOPF_DÜNN
 70
     0
 62
     7
  6
Continuous
370
    -3
390
F
  0
LAYER
  5
76
330
2
100
AcDbSymbolTableRecord
100
AcDbLayerTableRecord
  2
KOPF_DICK
 70
     0
 62
     7
  6
Continuous
370
    15
390
F
  0
ENDTAB
  0
TABLE
  2
STYLE
  5
3
330
0
100
AcDbSymbolTable
 70
     2
  0
STYLE
  5
11
330
3
100
AcDbSymbolTableRecord
100
AcDbTextStyleTableRecord
  2
Standard
 70
     0
 40
0.0
 41
1.0
 50
0.0
 71
     0
 42
2.0
  3
txt
  4

  0
STYLE
  5
77
330
3
100
AcDbSymbolTableRecord
100
AcDbTextStyleTableRecord
  2
SLDTEXTSTYLE0
 70
     0
 40
0.0
 41
0.7
 50
0.0
 71
     0
 42
2.0
  3
TXT
  4

  0
ENDTAB
  0
TABLE
  2
VIEW
  5
6
330
0
100
AcDbSymbolTable
 70
     0
  0
ENDTAB
  0
TABLE
  2
UCS
  5
7
330
0
100
AcDbSymbolTable
 70
     0
  0
ENDTAB
  0
TABLE
  2
APPID
  5
9
330
0
100
AcDbSymbolTable
 70
     1
  0
APPID
  5
12
330
9
100
AcDbSymbolTableRecord
100
AcDbRegAppTableRecord
  2
ACAD
 70
     0
  0
ENDTAB
  0
TABLE
  2
DIMSTYLE
  5
A
330
0
100
AcDbSymbolTable
 70
     2
100
AcDbDimStyleTable
  0
DIMSTYLE
105
27
330
A
100
AcDbSymbolTableRecord
100
AcDbDimStyleTableRecord
  2
ISO-25
 70
     0
 41
2.5
 42
0.625
 43
3.75
 44
1.25
 73
     0
 74
     0
 77
     1
 78
     8
140
2.5
141
2.5
143
0.0393700787
147
0.625
171
     3
172
     1
178
     0
271
     2
272
     2
274
     3
278
    44
283
     0
284
     8
340
11
  0
DIMSTYLE
105
1BD
102
{ACAD_REACTORS
330
1BC
330
1C9
330
1D3
330
1DD
330
1E7
330
1F3
102
}
330
A
100
AcDbSymbolTableRecord
100
AcDbDimStyleTableRecord
  2
SLDDIMSTYLE0
 70
     0
 41
3.0
 44
0.0
 45
0.000000001
 73
     0
 74
     0
 77
     1
 78
    12
 79
     3
140
2.0
147
0.5
173
     1
178
     0
271
     2
272
     3
276
     2
284
    12
340
77
  0
ENDTAB
  0
TABLE
  2
BLOCK_RECORD
  5
1
330
0
100
AcDbSymbolTable
 70
     7
  0
BLOCK_RECORD
  5
1F
330
1
100
AcDbSymbolTableRecord
100
AcDbBlockTableRecord
  2
*Model_Space
340
22
  0
BLOCK_RECORD
  5
1B
330
1
100
AcDbSymbolTableRecord
100
AcDbBlockTableRecord
  2
*Paper_Space
340
1E
  0
BLOCK_RECORD
  5
23
330
1
100
AcDbSymbolTableRecord
100
AcDbBlockTableRecord
  2
*Paper_Space0
340
26
  0
BLOCK_RECORD
  5
1BE
330
1
100
AcDbSymbolTableRecord
100
AcDbBlockTableRecord
  2
_D
340
0
  0
BLOCK_RECORD
  5
1CA
330
1
100
AcDbSymbolTableRecord
100
AcDbBlockTableRecord
  2
_D_1
340
0
  0
BLOCK_RECORD
  5
1D4
330
1
100
AcDbSymbolTableRecord
100
AcDbBlockTableRecord
  2
_D_2
340
0
  0
BLOCK_RECORD
  5
1DE
330
1
100
AcDbSymbolTableRecord
100
AcDbBlockTableRecord
  2
_D_3
340
0
  0
BLOCK_RECORD
  5
1E8
330
1
100
AcDbSymbolTableRecord
100
AcDbBlockTableRecord
  2
_D_4
340
0
  0
BLOCK_RECORD
  5
1F4
330
1
100
AcDbSymbolTableRecord
100
AcDbBlockTableRecord
  2
_D_5
340
0
  0
ENDTAB
  0
ENDSEC
  0
SECTION
  2
BLOCKS
  0
BLOCK
  5
20
330
1F
100
AcDbEntity
  8
0
100
AcDbBlockBegin
  2
*Model_Space
 70
     0
 10
0.0
 20
0.0
 30
0.0
  3
*Model_Space
  1

  0
ENDBLK
  5
21
330
1F
100
AcDbEntity
  8
0
100
AcDbBlockEnd
  0
BLOCK
  5
1C
330
1B
100
AcDbEntity
 67
     1
  8
0
100
AcDbBlockBegin
  2
*Paper_Space
 70
     0
 10
0.0
 20
0.0
 30
0.0
  3
*Paper_Space
  1

  0
ENDBLK
  5
1D
330
1B
100
AcDbEntity
 67
     1
  8
0
100
AcDbBlockEnd
  0
BLOCK
  5
24
330
23
100
AcDbEntity
  8
0
100
AcDbBlockBegin
  2
*Paper_Space0
 70
     0
 10
0.0
 20
0.0
 30
0.0
  3
*Paper_Space0
  1

  0
ENDBLK
  5
25
330
23
100
AcDbEntity
  8
0
100
AcDbBlockEnd
  0
BLOCK
  5
1BF
330
1BE
100
AcDbEntity
  8
0
100
AcDbBlockBegin
  2
_D
 70
     0
 10
0.0
 20
0.0
 30
0.0
  3
_D
  1

  0
SOLID
  5
1C1
330
1BE
100
AcDbEntity
  8
VERMASSUNG
100
AcDbTrace
 10
43.5165266677
 20
74.2158981743
 30
0.0
 11
43.9665266677
 21
77.2158981743
 31
0.0
 12
43.0665266677
 22
77.2158981743
 32
0.0
 13
43.0665266677
 23
77.2158981743
 33
0.0
  0
SOLID
  5
1C2
330
1BE
100
AcDbEntity
  8
VERMASSUNG
100
AcDbTrace
 10
43.5165266677
 20
174.2158981743
 30
0.0
 11
43.0665266677
 21
171.2158981743
 31
0.0
 12
43.9665266677
 22
171.2158981743
 32
0.0
 13
43.9665266677
 23
171.2158981743
 33
0.0
  0
LINE
  5
1C3
330
1BE
100
AcDbEntity
  8
VERMASSUNG
100
AcDbLine
 10
190.4171837223
 20
74.2158981743
 30
0.0
 11
42.5165266677
 21
74.2158981743
 31
0.0
  0
LINE
  5
1C4
330
1BE
100
AcDbEntity
  8
VERMASSUNG
100
AcDbLine
 10
190.4171837223
 20
174.2158981743
 30
0.0
 11
42.5165266677
 21
174.2158981743
 31
0.0
  0
LINE
  5
1C5
330
1BE
100
AcDbEntity
  8
VERMASSUNG
100
AcDbLine
 10
43.5165266677
 20
74.2158981743
 30
0.0
 11
43.5165266677
 21
174.2158981743
 31
0.0
  0
MTEXT
  5
1C6
330
1BE
100
AcDbEntity
  8
VERMASSUNG
100
AcDbMText
 10
40.7383914115
 20
113.0117601722
 30
0.0
 40
2.0
 41
0.0
 71
     1
 72
     1
  1
MAS-BT 50
  7
SLDTEXTSTYLE0
 11
3.391901413832837E-15
 21
1.0
 31
0.0
 73
     1
 44
1.0
  0
MTEXT
  5
1C7
330
1BE
100
AcDbEntity
  8
VERMASSUNG
100
AcDbMText
 10
40.9383913628
 20
128.011759837
 30
0.0
 40
2.0
 41
0.0
 71
     1
 72
     1
  1
%%c
  7
SLDTEXTSTYLE0
 11
3.391901413832837E-15
 21
1.0
 31
0.0
 73
     1
 44
1.0
  0
MTEXT
  5
1C8
330
1BE
100
AcDbEntity
  8
VERMASSUNG
100
AcDbMText
 10
40.9383910717
 20
131.6213502855
 30
0.0
 40
2.0
 41
0.0
 71
     1
 72
     1
  1
100
  7
SLDTEXTSTYLE0
 11
3.391901413832837E-15
 21
1.0
 31
0.0
 73
     1
 44
1.0
  0
ENDBLK
  5
1C0
330
1BE
100
AcDbEntity
  8
0
100
AcDbBlockEnd
  0
BLOCK
  5
1CB
330
1CA
100
AcDbEntity
  8
0
100
AcDbBlockBegin
  2
_D_1
 70
     0
 10
0.0
 20
0.0
 30
0.0
  3
_D_1
  1

  0
SOLID
  5
1CD
330
1CA
100
AcDbEntity
  8
VERMASSUNG
100
AcDbTrace
 10
51.6171837223
 20
191.207913815
 30
0.0
 11
54.6171837223
 21
190.757913815
 31
0.0
 12
54.6171837223
 22
191.657913815
 32
0.0
 13
54.6171837223
 23
191.657913815
 33
0.0
  0
SOLID
  5
1CE
330
1CA
100
AcDbEntity
  8
VERMASSUNG
100
AcDbTrace
 10
228.4171837223
 20
191.207913815
 30
0.0
 11
225.4171837223
 21
191.657913815
 31
0.0
 12
225.4171837223
 22
190.757913815
 32
0.0
 13
225.4171837223
 23
190.757913815
 33
0.0
  0
LINE
  5
1CF
330
1CA
100
AcDbEntity
  8
VERMASSUNG
100
AcDbLine
 10
51.6171837223
 20
142.565576035
 30
0.0
 11
51.6171837223
 21
192.207913815
 31
0.0
  0
LINE
  5
1D0
330
1CA
100
AcDbEntity
  8
VERMASSUNG
100
AcDbLine
 10
228.4171837223
 20
155.1158981743
 30
0.0
 11
228.4171837223
 21
192.207913815
 31
0.0
  0
LINE
  5
1D1
330
1CA
100
AcDbEntity
  8
VERMASSUNG
100
AcDbLine
 10
51.6171837223
 20
191.207913815
 30
0.0
 11
228.4171837223
 21
191.207913815
 31
0.0
  0
MTEXT
  5
1D2
330
1CA
100
AcDbEntity
  8
VERMASSUNG
100
AcDbMText
 10
137.1171837591
 20
193.7860494109
 30
0.0
 40
2.0
 41
0.0
 71
     1
 72
     1
  1
176.8
  7
SLDTEXTSTYLE0
 73
     1
 44
1.0
  0
ENDBLK
  5
1CC
330
1CA
100
AcDbEntity
  8
0
100
AcDbBlockEnd
  0
BLOCK
  5
1D5
330
1D4
100
AcDbEntity
  8
0
100
AcDbBlockBegin
  2
_D_2
 70
     0
 10
0.0
 20
0.0
 30
0.0
  3
_D_2
  1

  0
SOLID
  5
1D7
330
1D4
100
AcDbEntity
  8
VERMASSUNG
100
AcDbTrace
 10
228.4171837223
 20
179.207913815
 30
0.0
 11
225.4171837223
 21
179.657913815
 31
0.0
 12
225.4171837223
 22
178.757913815
 32
0.0
 13
225.4171837223
 23
178.757913815
 33
0.0
  0
SOLID
  5
1D8
330
1D4
100
AcDbEntity
  8
VERMASSUNG
100
AcDbTrace
 10
191.4171837223
 20
179.207913815
 30
0.0
 11
194.4171837223
 21
178.757913815
 31
0.0
 12
194.4171837223
 22
179.657913815
 32
0.0
 13
194.4171837223
 23
179.657913815
 33
0.0
  0
LINE
  5
1D9
330
1D4
100
AcDbEntity
  8
VERMASSUNG
100
AcDbLine
 10
228.4171837223
 20
155.1158981743
 30
0.0
 11
228.4171837223
 21
180.207913815
 31
0.0
  0
LINE
  5
1DA
330
1D4
100
AcDbEntity
  8
VERMASSUNG
100
AcDbLine
 10
191.4171837223
 20
173.2158981743
 30
0.0
 11
191.4171837223
 21
180.207913815
 31
0.0
  0
LINE
  5
1DB
330
1D4
100
AcDbEntity
  8
VERMASSUNG
100
AcDbLine
 10
228.4171837223
 20
179.207913815
 30
0.0
 11
191.4171837223
 21
179.207913815
 31
0.0
  0
MTEXT
  5
1DC
330
1D4
100
AcDbEntity
  8
VERMASSUNG
100
AcDbMText
 10
208.5171837722
 20
181.7860494109
 30
0.0
 40
2.0
 41
0.0
 71
     1
 72
     1
  1
37
  7
SLDTEXTSTYLE0
 73
     1
 44
1.0
  0
ENDBLK
  5
1D6
330
1D4
100
AcDbEntity
  8
0
100
AcDbBlockEnd
  0
BLOCK
  5
1DF
330
1DE
100
AcDbEntity
  8
0
100
AcDbBlockBegin
  2
_D_3
 70
     0
 10
0.0
 20
0.0
 30
0.0
  3
_D_3
  1

  0
SOLID
  5
1E1
330
1DE
100
AcDbEntity
  8
VERMASSUNG
100
AcDbTrace
 10
228.4171837223
 20
185.207913815
 30
0.0
 11
225.4171837223
 21
185.657913815
 31
0.0
 12
225.4171837223
 22
184.757913815
 32
0.0
 13
225.4171837223
 23
184.757913815
 33
0.0
  0
SOLID
  5
1E2
330
1DE
100
AcDbEntity
  8
VERMASSUNG
100
AcDbTrace
 10
153.4171837223
 20
185.207913815
 30
0.0
 11
156.4171837223
 21
184.757913815
 31
0.0
 12
156.4171837223
 22
185.657913815
 32
0.0
 13
156.4171837223
 23
185.657913815
 33
0.0
  0
LINE
  5
1E3
330
1DE
100
AcDbEntity
  8
VERMASSUNG
100
AcDbLine
 10
228.4171837223
 20
155.1158981743
 30
0.0
 11
228.4171837223
 21
186.207913815
 31
0.0
  0
LINE
  5
1E4
330
1DE
100
AcDbEntity
  8
VERMASSUNG
100
AcDbLine
 10
153.4171837223
 20
159.1408981743
 30
0.0
 11
153.4171837223
 21
186.207913815
 31
0.0
  0
LINE
  5
1E5
330
1DE
100
AcDbEntity
  8
VERMASSUNG
100
AcDbLine
 10
228.4171837223
 20
185.207913815
 30
0.0
 11
153.4171837223
 21
185.207913815
 31
0.0
  0
MTEXT
  5
1E6
330
1DE
100
AcDbEntity
  8
VERMASSUNG
100
AcDbMText
 10
189.5171837722
 20
187.7860494109
 30
0.0
 40
2.0
 41
0.0
 71
     1
 72
     1
  1
75
  7
SLDTEXTSTYLE0
 73
     1
 44
1.0
  0
ENDBLK
  5
1E0
330
1DE
100
AcDbEntity
  8
0
100
AcDbBlockEnd
  0
BLOCK
  5
1E9
330
1E8
100
AcDbEntity
  8
0
100
AcDbBlockBegin
  2
_D_4
 70
     0
 10
0.0
 20
0.0
 30
0.0
  3
_D_4
  1

  0
SOLID
  5
1EB
330
1E8
100
AcDbEntity
  8
VERMASSUNG
100
AcDbTrace
 10
243.7726438386
 20
155.7158981743
 30
0.0
 11
243.3226438386
 21
152.7158981743
 31
0.0
 12
244.2226438386
 22
152.7158981743
 32
0.0
 13
244.2226438386
 23
152.7158981743
 33
0.0
  0
SOLID
  5
1EC
330
1E8
100
AcDbEntity
  8
VERMASSUNG
100
AcDbTrace
 10
243.7726438386
 20
92.7158981743
 30
0.0
 11
244.2226438386
 21
95.7158981743
 31
0.0
 12
243.3226438386
 22
95.7158981743
 32
0.0
 13
243.3226438386
 23
95.7158981743
 33
0.0
  0
LINE
  5
1ED
330
1E8
100
AcDbEntity
  8
VERMASSUNG
100
AcDbLine
 10
227.8171837223
 20
155.7158981743
 30
0.0
 11
244.7726438386
 21
155.7158981743
 31
0.0
  0
LINE
  5
1EE
330
1E8
100
AcDbEntity
  8
VERMASSUNG
100
AcDbLine
 10
227.8171837223
 20
92.7158981743
 30
0.0
 11
244.7726438386
 21
92.7158981743
 31
0.0
  0
LINE
  5
1EF
330
1E8
100
AcDbEntity
  8
VERMASSUNG
100
AcDbLine
 10
243.7726438386
 20
155.7158981743
 30
0.0
 11
243.7726438386
 21
92.7158981743
 31
0.0
  0
MTEXT
  5
1F0
330
1E8
100
AcDbEntity
  8
VERMASSUNG
100
AcDbMText
 10
240.9945085824
 20
119.110898185
 30
0.0
 40
2.0
 41
0.0
 71
     1
 72
     1
  1
WH
  7
SLDTEXTSTYLE0
 11
-7.044195017643634E-15
 21
1.0
 31
0.0
 73
     1
 44
1.0
  0
MTEXT
  5
1F1
330
1E8
100
AcDbEntity
  8
VERMASSUNG
100
AcDbMText
 10
241.1945085337
 20
122.9108982491
 30
0.0
 40
2.0
 41
0.0
 71
     1
 72
     1
  1
%%c
  7
SLDTEXTSTYLE0
 11
-7.044195017643634E-15
 21
1.0
 31
0.0
 73
     1
 44
1.0
  0
MTEXT
  5
1F2
330
1E8
100
AcDbEntity
  8
VERMASSUNG
100
AcDbMText
 10
240.9945085824
 20
126.5208982634
 30
0.0
 40
2.0
 41
0.0
 71
     1
 72
     1
  1
63
  7
SLDTEXTSTYLE0
 11
-7.044195017643634E-15
 21
1.0
 31
0.0
 73
     1
 44
1.0
  0
ENDBLK
  5
1EA
330
1E8
100
AcDbEntity
  8
0
100
AcDbBlockEnd
  0
BLOCK
  5
1F5
330
1F4
100
AcDbEntity
  8
0
100
AcDbBlockBegin
  2
_D_5
 70
     0
 10
0.0
 20
0.0
 30
0.0
  3
_D_5
  1

  0
SOLID
  5
1F7
330
1F4
100
AcDbEntity
  8
VERMASSUNG
100
AcDbTrace
 10
237.8726438386
 20
142.2158981743
 30
0.0
 11
237.4226438386
 21
139.2158981743
 31
0.0
 12
238.3226438386
 22
139.2158981743
 32
0.0
 13
238.3226438386
 23
139.2158981743
 33
0.0
  0
SOLID
  5
1F8
330
1F4
100
AcDbEntity
  8
VERMASSUNG
100
AcDbTrace
 10
237.8726438386
 20
106.2158981743
 30
0.0
 11
238.3226438386
 21
109.2158981743
 31
0.0
 12
237.4226438386
 22
109.2158981743
 32
0.0
 13
237.4226438386
 23
109.2158981743
 33
0.0
  0
LINE
  5
1F9
330
1F4
100
AcDbEntity
  8
VERMASSUNG
100
AcDbLine
 10
227.4171837223
 20
142.2158981743
 30
0.0
 11
238.8726438386
 21
142.2158981743
 31
0.0
  0
LINE
  5
1FA
330
1F4
100
AcDbEntity
  8
VERMASSUNG
100
AcDbLine
 10
227.4171837223
 20
106.2158981743
 30
0.0
 11
238.8726438386
 21
106.2158981743
 31
0.0
  0
LINE
  5
1FB
330
1F4
100
AcDbEntity
  8
VERMASSUNG
100
AcDbLine
 10
237.8726438386
 20
142.2158981743
 30
0.0
 11
237.8726438386
 21
106.2158981743
 31
0.0
  0
MTEXT
  5
1FC
330
1F4
100
AcDbEntity
  8
VERMASSUNG
100
AcDbMText
 10
235.2945085337
 20
121.0108982171
 30
0.0
 40
2.0
 41
0.0
 71
     1
 72
     1
  1
%%c
  7
SLDTEXTSTYLE0
 11
-7.044195017643634E-15
 21
1.0
 31
0.0
 73
     1
 44
1.0
  0
MTEXT
  5
1FD
330
1F4
100
AcDbEntity
  8
VERMASSUNG
100
AcDbMText
 10
235.0945085824
 20
124.6208982314
 30
0.0
 40
2.0
 41
0.0
 71
     1
 72
     1
  1
36
  7
SLDTEXTSTYLE0
 11
-7.044195017643634E-15
 21
1.0
 31
0.0
 73
     1
 44
1.0
  0
ENDBLK
  5
1F6
330
1F4
100
AcDbEntity
  8
0
100
AcDbBlockEnd
  0
ENDSEC
  0
SECTION
  2
ENTITIES
  0
MTEXT
  5
78
330
1F
100
AcDbEntity
  8
KOPF_DÜNN
100
AcDbMText
 10
13.8892156294
 20
23.8442973028
 30
0.0
 40
3.0
 41
0.0
 71
     1
 72
     1
  1
A34.550.063.075
  7
SLDTEXTSTYLE0
 73
     1
 44
1.0
  0
MTEXT
  5
79
330
1F
100
AcDbEntity
  8
VERMASSUNG
100
AcDbMText
 10
13.9329988022
 20
28.8834360957
 30
0.0
 40
3.0
 41
0.0
 71
     1
 72
     1
  1
Aufnahme_Master shank
  7
SLDTEXTSTYLE0
 73
     1
 44
1.0
  0
MTEXT
  5
7A
330
1F
100
AcDbEntity
  8
VERMASSUNG
100
AcDbMText
 10
98.8601118557
 20
13.8365368761
 30
0.0
 40
2.0
 41
0.0
 71
     1
 72
     1
  1
Datum: 17.11.2011
  7
SLDTEXTSTYLE0
 73
     1
 44
1.0
  0
MTEXT
  5
7B
330
1F
100
AcDbEntity
  8
VERMASSUNG
100
AcDbMText
 10
13.933048693
 20
18.0482802738
 30
0.0
 40
2.0
 41
0.0
 71
     1
 72
     1
  1
MAS-BT A/D
  7
SLDTEXTSTYLE0
 73
     1
 44
1.0
  0
MTEXT
  5
7C
330
1F
100
AcDbEntity
  8
VERMASSUNG
100
AcDbMText
 10
13.9808475933
 20
13.9090974274
 30
0.0
 40
2.0
 41
0.0
 71
     1
 72
     1
  1
Gewicht: 4204g
  7
SLDTEXTSTYLE0
 73
     1
 44
1.0
  0
LINE
  5
7D
330
1F
100
AcDbEntity
  8
0
  6
Continuous
 62
     7
370
    15
100
AcDbLine
 10
217.8941985203
 20
155.1888833762
 30
0.0
 11
217.3671837223
 21
155.7158981743
 31
0.0
  0
LINE
  5
7E
330
1F
100
AcDbEntity
  8
0
  6
Continuous
 62
     7
370
    15
100
AcDbLine
 10
203.3671837223
 20
155.7158981743
 30
0.0
 11
202.8424476605
 21
155.1911621125
 31
0.0
  0
LINE
  5
7F
330
1F
100
AcDbEntity
  8
0
  6
Continuous
 62
     7
370
    15
100
AcDbLine
 10
187.4168964955
 20
74.2158981743
 30
0.0
 11
190.4171837223
 21
74.2158981743
 31
0.0
  0
LINE
  5
80
330
1F
100
AcDbEntity
  8
0
  6
Continuous
 62
     7
370
    15
100
AcDbLine
 10
190.4171837223
 20
174.2158981743
 30
0.0
 11
187.4167495413
 21
174.2158981743
 31
0.0
  0
ARC
  5
81
330
1F
100
AcDbEntity
  8
0
  6
Continuous
 62
     7
370
    15
100
AcDbCircle
 10
190.4171837223
 20
75.2158981743
 30
0.0
 40
1.0
100
AcDbArc
 50
270.0
 51
0.0
  0
ARC
  5
82
330
1F
100
AcDbEntity
  8
0
  6
Continuous
 62
     7
370
    15
100
AcDbCircle
 10
190.4171837223
 20
173.2158981743
 30
0.0
 40
1.0
100
AcDbArc
 50
0.0
 51
90.0
  0
ARC
  5
83
330
1F
100
AcDbEntity
  8
0
  6
Continuous
 62
     7
370
    15
100
AcDbCircle
 10
155.4171837223
 20
88.2908981743
 30
0.0
 40
1.0
100
AcDbArc
 50
38.7227365094
 51
90.0
  0
ARC
  5
84
330
1F
100
AcDbEntity
  8
0
  6
Continuous
 62
     7
370
    15
100
AcDbCircle
 10
155.4171837223
 20
160.1408981743
 30
0.0
 40
1.0
100
AcDbArc
 50
270.0
 51
321.2876440868
  0
LINE
  5
85
330
1F
100
AcDbEntity
  8
0
  6
Continuous
 62
     7
370
    15
100
AcDbLine
 10
153.4171837223
 20
89.2908981743
 30
0.0
 11
155.4171837223
 21
89.2908981743
 31
0.0
  0
LINE
  5
86
330
1F
100
AcDbEntity
  8
0
  6
Continuous
 62
     7
370
    15
100
AcDbLine
 10
155.4171837223
 20
159.1408981743
 30
0.0
 11
153.4171837223
 21
159.1408981743
 31
0.0
  0
LINE
  5
87
330
1F
100
AcDbEntity
  8
0
  6
Continuous
 62
     7
370
    15
100
AcDbLine
 10
153.4171837223
 20
159.1408981743
 30
0.0
 11
53.3285699361
 21
144.5446419971
 31
0.0
  0
LINE
  5
88
330
1F
100
AcDbEntity
  8
0
  6
Continuous
 62
     7
370
    15
100
AcDbLine
 10
53.3285699361
 20
103.8871543514
 30
0.0
 11
153.4171837223
 21
89.2908981743
 31
0.0
  0
ARC
  5
89
330
1F
100
AcDbEntity
  8
0
  6
Continuous
 62
     7
370
    15
100
AcDbCircle
 10
194.4171837223
 20
89.7158981743
 30
0.0
 40
3.0
100
AcDbArc
 50
90.0
 51
180.0
  0
ARC
  5
8A
330
1F
100
AcDbEntity
  8
0
  6
Continuous
 62
     7
370
    15
100
AcDbCircle
 10
194.4171837223
 20
158.7158981743
 30
0.0
 40
3.0
100
AcDbArc
 50
180.0
 51
270.0
  0
LINE
  5
8B
330
1F
100
AcDbEntity
  8
0
  6
Continuous
 62
     7
370
    15
100
AcDbLine
 10
200.3799862634
 20
155.7158981743
 30
0.0
 11
194.4171837223
 21
155.7158981743
 31
0.0
  0
LINE
  5
8C
330
1F
100
AcDbEntity
  8
0
  6
Continuous
 62
     7
370
    15
100
AcDbLine
 10
227.8171837223
 20
155.7158981743
 30
0.0
 11
220.3475486694
 21
155.7158981743
 31
0.0
  0
LINE
  5
8D
330
1F
100
AcDbEntity
  8
0
  6
Continuous
 62
     7
370
    15
100
AcDbLine
 10
194.4171837223
 20
92.7158981743
 30
0.0
 11
227.8171837223
 21
92.7158981743
 31
0.0
  0
LINE
  5
8E
330
1F
100
AcDbEntity
  8
0
  6
Continuous
 62
     7
370
    15
100
AcDbLine
 10
227.8171837223
 20
92.7158981743
 30
0.0
 11
228.4171837223
 21
93.3158981743
 31
0.0
  0
LINE
  5
8F
330
1F
100
AcDbEntity
  8
0
  6
Continuous
 62
     7
370
    15
100
AcDbLine
 10
228.4171837223
 20
155.1158981743
 30
0.0
 11
227.8171837223
 21
155.7158981743
 31
0.0
  0
ARC
  5
90
330
1F
100
AcDbEntity
  8
0
  6
Continuous
 62
     7
370
    15
100
AcDbCircle
 10
53.6171837223
 20
105.8662203136
 30
0.0
 40
2.000000000000007
100
AcDbArc
 50
180.0
 51
261.7028550302
  0
ARC
  5
91
330
1F
100
AcDbEntity
  8
0
  6
Continuous
 62
     7
370
    15
100
AcDbCircle
 10
53.6171837223
 20
142.565576035
 30
0.0
 40
2.000000000000021
100
AcDbArc
 50
98.2971449698
 51
180.0
  0
SPLINE
  5
92
330
1F
100
AcDbEntity
  8
0
  6
Continuous
 62
     7
370
    15
100
AcDbSpline
210
0.0
220
0.0
230
1.0
 70
    24
 71
     3
 72
    11
 73
     7
 74
     0
 42
0.000000001
 43
0.00000001
 40
0.0
 40
0.0
 40
0.0
 40
0.0
 40
0.2164567244934129
 40
0.4403141600939166
 40
0.7519028444798617
 40
0.9999999999999999
 40
0.9999999999999999
 40
0.9999999999999999
 40
0.9999999999999999
 10
209.9313878739417
 20
128.8140951374405
 30
0.0
 10
209.6735309556969
 20
128.6307505316204
 30
0.0
 10
209.149000924823
 20
128.2577927207306
 30
0.0
 10
208.1756160847121
 20
127.5656846282419
 30
0.0
 10
207.1314925745614
 20
126.8232790542547
 30
0.0
 10
206.4633182659721
 20
126.3481855176479
 30
0.0
 10
206.1671304164091
 20
126.1375863803571
 30
0.0
  0
SPLINE
  5
93
330
1F
100
AcDbEntity
  8
0
  6
Continuous
 62
     7
370
    15
100
AcDbSpline
210
0.0
220
0.0
230
1.0
 70
    24
 71
     3
 72
    11
 73
     7
 74
     0
 42
0.000000001
 43
0.00000001
 40
0.0
 40
0.0
 40
0.0
 40
0.0
 40
0.2164567244934154
 40
0.4403141600939106
 40
0.7519028444798554
 40
1.0
 40
1.0
 40
1.0
 40
1.0
 10
206.1671304164091
 20
126.1375863803571
 30
0.0
 10
206.1969830435738
 20
125.8226034357054
 30
0.0
 10
206.2577089669073
 20
125.181868198476
 30
0.0
 10
206.3703997371118
 20
123.9928381530369
 30
0.0
 10
206.4912800690205
 20
122.7173978815642
 30
0.0
 10
206.5686359866012
 20
121.9011951878664
 30
0.0
 10
206.6029262647287
 20
121.5393894172072
 30
0.0
  0
SPLINE
  5
94
330
1F
100
AcDbEntity
  8
0
  6
Continuous
 62
     7
370
    15
100
AcDbSpline
210
0.0
220
0.0
230
1.0
 70
    24
 71
     3
 72
    11
 73
     7
 74
     0
 42
0.000000001
 43
0.00000001
 40
0.0
 40
0.0
 40
0.0
 40
0.0
 40
0.1845133558519179
 40
0.5180565039163897
 40
0.8676122830485038
 40
1.0
 40
1.0
 40
1.0
 40
1.0
 10
206.6029262647287
 20
121.5393894172072
 30
0.0
 10
206.846844639785
 20
121.4277872468406
 30
0.0
 10
207.5316920864059
 20
121.1144428282608
 30
0.0
 10
208.8082293684845
 20
120.5303772317226
 30
0.0
 10
209.9943848818475
 20
119.9876648196172
 30
0.0
 10
210.6287282831496
 20
119.6974279716277
 30
0.0
 10
210.8029795705807
 20
119.6177012111407
 30
0.0
  0
SPLINE
  5
95
330
1F
100
AcDbEntity
  8
0
  6
Continuous
 62
     7
370
    15
100
AcDbSpline
210
0.0
220
0.0
230
1.0
 70
    24
 71
     3
 72
    11
 73
     7
 74
     0
 42
0.000000001
 43
0.00000001
 40
0.0
 40
0.0
 40
0.0
 40
0.0
 40
0.2164567244934085
 40
0.4403141600939147
 40
0.7519028444798587
 40
1.0
 40
1.0
 40
1.0
 40
1.0
 10
210.8029795705807
 20
119.6177012111407
 30
0.0
 10
211.0608364888255
 20
119.8010458169609
 30
0.0
 10
211.5853665196992
 20
120.1740036278507
 30
0.0
 10
212.5587513598102
 20
120.8661117203393
 30
0.0
 10
213.6028748699609
 20
121.6085172943266
 30
0.0
 10
214.2710491785502
 20
122.0836108309333
 30
0.0
 10
214.5672370281132
 20
122.2942099682242
 30
0.0
  0
SPLINE
  5
96
330
1F
100
AcDbEntity
  8
0
  6
Continuous
 62
     7
370
    15
100
AcDbSpline
210
0.0
220
0.0
230
1.0
 70
    24
 71
     3
 72
    11
 73
     7
 74
     0
 42
0.000000001
 43
0.00000001
 40
0.0
 40
0.0
 40
0.0
 40
0.0
 40
0.2164567244934129
 40
0.4403141600939098
 40
0.7519028444798648
 40
1.0
 40
1.0
 40
1.0
 40
1.0
 10
214.5672370281132
 20
122.2942099682242
 30
0.0
 10
214.5373844009485
 20
122.6091929128758
 30
0.0
 10
214.476658477615
 20
123.2499281501052
 30
0.0
 10
214.3639677074105
 20
124.4389581955444
 30
0.0
 10
214.2430873755017
 20
125.714398467017
 30
0.0
 10
214.1657314579211
 20
126.5306011607148
 30
0.0
 10
214.1314411797936
 20
126.8924069313741
 30
0.0
  0
SPLINE
  5
97
330
1F
100
AcDbEntity
  8
0
  6
Continuous
 62
     7
370
    15
100
AcDbSpline
210
0.0
220
0.0
230
1.0
 70
    24
 71
     3
 72
    11
 73
     7
 74
     0
 42
0.000000001
 43
0.00000001
 40
0.0
 40
0.0
 40
0.0
 40
0.0
 40
0.1323877169514896
 40
0.4819434960836033
 40
0.8154866441480888
 40
1.0
 40
1.0
 40
1.0
 40
1.0
 10
214.1314411797936
 20
126.8924069313741
 30
0.0
 10
213.9571898923625
 20
126.9721336918611
 30
0.0
 10
213.3228464910605
 20
127.2623705398505
 30
0.0
 10
212.1366909776975
 20
127.8050829519559
 30
0.0
 10
210.8601536956188
 20
128.3891485484941
 30
0.0
 10
210.1753062489979
 20
128.7024929670739
 30
0.0
 10
209.9313878739417
 20
128.8140951374405
 30
0.0
  0
CIRCLE
  5
98
330
1F
100
AcDbEntity
  8
0
  6
Continuous
 62
     7
370
    15
100
AcDbCircle
 10
210.3671837223
 20
124.2158981743
 30
0.0
 40
4.700000000000011
  0
CIRCLE
  5
99
330
1F
100
AcDbEntity
  8
0
  6
Continuous
 62
     7
370
    15
100
AcDbCircle
 10
210.3671837223
 20
124.2158981743
 30
0.0
 40
8.000000000000023
  0
CIRCLE
  5
9A
330
1F
100
AcDbEntity
  8
0
  6
Continuous
 62
     7
370
    15
100
AcDbCircle
 10
210.3671837223
 20
124.2158981743
 30
0.0
 40
7.000000000000032
  0
ARC
  5
9B
330
1F
100
AcDbEntity
  8
0
  6
Continuous
 62
     7
370
    15
100
AcDbCircle
 10
210.3671837223
 20
124.2158981743
 30
0.0
 40
4.000000000000022
100
AcDbArc
 50
305.4140573621
 51
5.4140573621
  0
ARC
  5
9C
330
1F
100
AcDbEntity
  8
0
  6
Continuous
 62
     7
370
    15
100
AcDbCircle
 10
210.3671837223
 20
124.2158981743
 30
0.0
 40
4.000000000000022
100
AcDbArc
 50
5.4140573621
 51
65.4140573621
  0
ARC
  5
9D
330
1F
100
AcDbEntity
  8
0
  6
Continuous
 62
     7
370
    15
100
AcDbCircle
 10
210.3671837223
 20
124.2158981743
 30
0.0
 40
4.000000000000029
100
AcDbArc
 50
245.4140573621
 51
305.4140573621
  0
ARC
  5
9E
330
1F
100
AcDbEntity
  8
0
  6
Continuous
 62
     7
370
    15
100
AcDbCircle
 10
210.3671837223
 20
124.2158981743
 30
0.0
 40
4.000000000000044
100
AcDbArc
 50
65.4140573621
 51
125.4140573621
  0
ARC
  5
9F
330
1F
100
AcDbEntity
  8
0
  6
Continuous
 62
     7
370
    15
100
AcDbCircle
 10
210.3671837223
 20
124.2158981743
 30
0.0
 40
4.000000000000029
100
AcDbArc
 50
185.4140573621
 51
245.4140573621
  0
ARC
  5
A0
330
1F
100
AcDbEntity
  8
0
  6
Continuous
 62
     7
370
    15
100
AcDbCircle
 10
210.3671837223
 20
124.2158981743
 30
0.0
 40
4.000000000000044
100
AcDbArc
 50
125.4140573621
 51
185.4140573621
  0
LINE
  5
A1
330
1F
100
AcDbEntity
  8
0
  6
Continuous
 62
     7
370
    15
100
AcDbLine
 10
206.0503256843
 20
154.7158981743
 30
0.0
 11
214.7228549676
 21
154.7158981743
 31
0.0
  0
LINE
  5
A2
330
1F
100
AcDbEntity
  8
0
  6
Continuous
 62
     7
370
    15
100
AcDbLine
 10
203.3671837223
 20
155.7158981743
 30
0.0
 11
217.3671837223
 21
155.7158981743
 31
0.0
  0
SPLINE
  5
A3
330
1F
100
AcDbEntity
  8
0
  6
Continuous
 62
     7
370
    15
100
AcDbSpline
210
0.0
220
0.0
230
1.0
 70
     8
 71
     3
 72
    12
 73
     8
 74
     0
 42
0.000000001
 43
0.00000001
 40
0.0
 40
0.0
 40
0.0
 40
0.0
 40
0.4999999999999992
 40
0.4999999999999992
 40
0.7499999999999996
 40
0.7499999999999996
 40
1.0
 40
1.0
 40
1.0
 40
1.0
 10
183.5014633871046
 20
172.4219451259916
 30
0.0
 10
182.962566692007
 20
171.3642453084905
 30
0.0
 10
182.4002358812874
 20
170.2618768735319
 30
0.0
 10
181.5315696386969
 20
168.5619122671691
 30
0.0
 10
181.2372409163544
 20
167.9863938517305
 30
0.0
 10
180.6437099173866
 20
166.8269651832719
 30
0.0
 10
180.3444836592682
 20
166.2430055141907
 30
0.0
 10
180.0429968110148
 20
165.6552955536019
 30
0.0
  0
SPLINE
  5
A4
330
1F
100
AcDbEntity
  8
0
  6
Continuous
 62
     7
370
    15
100
AcDbSpline
210
0.0
220
0.0
230
1.0
 70
     8
 71
     3
 72
     9
 73
     5
 74
     0
 42
0.000000001
 43
0.00000001
 40
0.0
 40
0.0
 40
0.0
 40
0.0
 40
0.5047943291262357
 40
1.0
 40
1.0
 40
1.0
 40
1.0
 10
184.1421601276733
 20
173.376003424378
 30
0.0
 10
184.0337776934468
 20
173.2151618634988
 30
0.0
 10
183.8190715686493
 20
172.8965339558564
 30
0.0
 10
183.6066441398302
 20
172.5791597292531
 30
0.0
 10
183.5014488724298
 20
172.4219942124499
 30
0.0
  0
LINE
  5
A5
330
1F
100
AcDbEntity
  8
0
  6
Continuous
 62
     7
370
    15
100
AcDbLine
 10
184.1421837223
 20
75.055736889
 30
0.0
 11
184.1421837223
 21
173.3760594596
 31
0.0
  0
SPLINE
  5
A6
330
1F
100
AcDbEntity
  8
0
  6
Continuous
 62
     7
370
    15
100
AcDbSpline
210
0.0
220
0.0
230
1.0
 70
     8
 71
     3
 72
     9
 73
     5
 74
     0
 42
0.000000001
 43
0.00000001
 40
0.0
 40
0.0
 40
0.0
 40
0.0
 40
0.4952056703152484
 40
1.0
 40
1.0
 40
1.0
 40
1.0
 10
183.5014488724298
 20
76.00980213613119
 30
0.0
 10
183.6066441397103
 20
75.85263661950775
 30
0.0
 10
183.8190715685269
 20
75.5352623929093
 30
0.0
 10
184.0337776933261
 20
75.21663448526255
 30
0.0
 10
184.1421601276733
 20
75.05579292420315
 30
0.0
  0
SPLINE
  5
A7
330
1F
100
AcDbEntity
  8
0
  6
Continuous
 62
     7
370
    15
100
AcDbSpline
210
0.0
220
0.0
230
1.0
 70
     8
 71
     3
 72
    12
 73
     8
 74
     0
 42
0.000000001
 43
0.00000001
 40
0.0
 40
0.0
 40
0.0
 40
0.0
 40
0.2499999999999993
 40
0.2499999999999993
 40
0.4999999999999986
 40
0.4999999999999986
 40
1.0
 40
1.0
 40
1.0
 40
1.0
 10
183.5014633548657
 20
76.00985128586537
 30
0.0
 10
183.2321258334968
 20
76.53848367455001
 30
0.0
 10
182.9563557161027
 20
77.0794083284967
 30
0.0
 10
182.394095429497
 20
78.18146508285976
 30
0.0
 10
182.1070100560923
 20
78.74376192209657
 30
0.0
 10
181.236583615373
 20
80.44715715741657
 30
0.0
 10
180.6445736192037
 20
81.60380392849865
 30
0.0
 10
180.0429968110148
 20
82.77650079497928
 30
0.0
  0
SPLINE
  5
A8
330
1F
100
AcDbEntity
  8
0
  6
Continuous
 62
     7
370
    15
100
AcDbSpline
210
0.0
220
0.0
230
1.0
 70
     8
 71
     3
 72
    12
 73
     8
 74
     0
 42
0.000000001
 43
0.00000001
 40
0.0
 40
0.0
 40
0.0
 40
0.0
 40
0.0005125153354919
 40
0.2509311781591491
 40
0.5009716914396624
 40
0.7506335204375856
 40
1.0
 40
1.0
 40
1.0
 40
1.0
 10
187.416749541331
 20
174.2157731321069
 30
0.0
 10
187.4168939980179
 20
174.2158148054243
 30
0.0
 10
187.487621026308
 20
174.2362183600118
 30
0.0
 10
187.2443574660317
 20
174.1646067286251
 30
0.0
 10
186.6388328518265
 20
173.9962535201532
 30
0.0
 10
185.6136691674104
 20
173.7189199296976
 30
0.0
 10
184.6324853001856
 20
173.4903011803741
 30
0.0
 10
184.1421837229481
 20
173.3760594596084
 30
0.0
  0
SPLINE
  5
A9
330
1F
100
AcDbEntity
  8
0
  6
Continuous
 62
     7
370
    15
100
AcDbSpline
210
0.0
220
0.0
230
1.0
 70
     8
 71
     3
 72
    13
 73
     9
 74
     0
 42
0.000000001
 43
0.00000001
 40
0.0
 40
0.0
 40
0.0
 40
0.0
 40
0.2492492380460214
 40
0.4988437701385547
 40
0.6658825660855477
 40
0.832025671123022
 40
0.9994886337290263
 40
1.0
 40
1.0
 40
1.0
 40
1.0
 10
184.1421837229481
 20
75.05573688897277
 30
0.0
 10
184.6333684463718
 20
74.94124936528073
 30
0.0
 10
185.6164183493041
 20
74.71211571416073
 30
0.0
 10
186.515461774123
 20
74.46890596301233
 30
0.0
 10
187.0737866748036
 20
74.31496875562743
 30
0.0
 10
187.3394578995118
 20
74.2387151967788
 30
0.0
 10
187.4483521455309
 20
74.20680101245205
 30
0.0
 10
187.4169919657102
 20
74.21595392639784
 30
0.0
 10
187.4168964955373
 20
74.21598179072392
 30
0.0
  0
LINE
  5
AA
330
1F
100
AcDbEntity
  8
0
  6
Continuous
 62
     7
370
    15
100
AcDbLine
 10
191.4171837223
 20
75.2158981743
 30
0.0
 11
191.4171837223
 21
173.2158981687
 31
0.0
  0
LINE
  5
AB
330
1F
100
AcDbEntity
  8
0
  6
Continuous
 62
     7
370
    15
100
AcDbLine
 10
169.0921837223
 20
172.3209896698
 30
0.0
 11
157.4171837223
 21
172.3209896698
 31
0.0
  0
LINE
  5
AC
330
1F
100
AcDbEntity
  8
0
  6
Continuous
 62
     7
370
    15
100
AcDbLine
 10
169.0921837223
 20
76.1108066788
 30
0.0
 11
169.0921837223
 21
172.3209896698
 31
0.0
  0
LINE
  5
AD
330
1F
100
AcDbEntity
  8
0
  6
Continuous
 62
     7
370
    15
100
AcDbLine
 10
157.4171837223
 20
76.1108066788
 30
0.0
 11
169.0921837223
 21
76.1108066788
 31
0.0
  0
LINE
  5
AE
330
1F
100
AcDbEntity
  8
0
  6
Continuous
 62
     7
370
    15
100
AcDbLine
 10
156.4171837223
 20
77.2140099143
 30
0.0
 11
156.4171837223
 21
171.2177864342
 31
0.0
  0
SPLINE
  5
AF
330
1F
100
AcDbEntity
  8
0
  6
Continuous
 62
     7
370
    15
100
AcDbSpline
210
0.0
220
0.0
230
1.0
 70
     8
 71
     3
 72
    12
 73
     8
 74
     0
 42
0.000000001
 43
0.00000001
 40
0.0
 40
0.0
 40
0.0
 40
0.0
 40
0.2500000000000001
 40
0.2500000000000001
 40
0.5000000000000002
 40
0.5000000000000002
 40
1.0
 40
1.0
 40
1.0
 40
1.0
 10
156.8033201423109
 20
172.1503319081618
 30
0.0
 10
156.7516900202011
 20
172.0941276374472
 30
0.0
 10
156.7031577872106
 20
172.0328382269268
 30
0.0
 10
156.6133326502528
 20
171.8983761528821
 30
0.0
 10
156.5716223770404
 20
171.8242570826392
 30
0.0
 10
156.4654909968782
 20
171.5879494374708
 30
0.0
 10
156.4171837222611
 20
171.4061258948209
 30
0.0
 10
156.4171837222611
 20
171.2177864342318
 30
0.0
  0
SPLINE
  5
B0
330
1F
100
AcDbEntity
  8
0
  6
Continuous
 62
     7
370
    15
100
AcDbSpline
210
0.0
220
0.0
230
1.0
 70
     8
 71
     3
 72
     8
 73
     4
 74
     0
 42
0.000000001
 43
0.00000001
 40
0.0
 40
0.0
 40
0.0
 40
0.0
 40
1.0
 40
1.0
 40
1.0
 40
1.0
 10
157.4171837222611
 20
172.320989669755
 30
0.0
 10
157.1902894785613
 20
172.320989669755
 30
0.0
 10
156.972439832635
 20
172.2569775027861
 30
0.0
 10
156.8033201423109
 20
172.1503319081618
 30
0.0
  0
SPLINE
  5
B1
330
1F
100
AcDbEntity
  8
0
  6
Continuous
 62
     7
370
    15
100
AcDbSpline
210
0.0
220
0.0
230
1.0
 70
     8
 71
     3
 72
    10
 73
     6
 74
     0
 42
0.000000001
 43
0.00000001
 40
0.0
 40
0.0
 40
0.0
 40
0.0
 40
0.5
 40
0.5
 40
1.0
 40
1.0
 40
1.0
 40
1.0
 10
156.8033201423109
 20
76.28146444041931
 30
0.0
 10
156.8879307830416
 20
76.22810961180662
 30
0.0
 10
156.9831654051482
 20
76.18554014985642
 30
0.0
 10
157.1932027643281
 20
76.12625781517549
 30
0.0
 10
157.3036346691122
 20
76.1108066788262
 30
0.0
 10
157.4171837222611
 20
76.1108066788262
 30
0.0
  0
SPLINE
  5
B2
330
1F
100
AcDbEntity
  8
0
  6
Continuous
 62
     7
370
    15
100
AcDbSpline
210
0.0
220
0.0
230
1.0
 70
     8
 71
     3
 72
    12
 73
     8
 74
     0
 42
0.000000001
 43
0.00000001
 40
0.0
 40
0.0
 40
0.0
 40
0.0
 40
0.2500000000000039
 40
0.2500000000000039
 40
0.5000000000000079
 40
0.5000000000000079
 40
1.0
 40
1.0
 40
1.0
 40
1.0
 10
156.8033201423109
 20
76.28146444041931
 30
0.0
 10
156.7516900202011
 20
76.33766871113396
 30
0.0
 10
156.7031577872106
 20
76.39895812165437
 30
0.0
 10
156.6133326502528
 20
76.53342019569907
 30
0.0
 10
156.5716223770404
 20
76.60753926594188
 30
0.0
 10
156.4654909968782
 20
76.84384691111035
 30
0.0
 10
156.4171837222611
 20
77.02567045376024
 30
0.0
 10
156.4171837222611
 20
77.21400991434935
 30
0.0
  0
SPLINE
  5
B3
330
1F
100
AcDbEntity
  8
0
  6
Continuous
 62
     7
370
    15
100
AcDbSpline
210
0.0
220
0.0
230
1.0
 70
     8
 71
     3
 72
     8
 73
     4
 74
     0
 42
0.000000001
 43
0.00000001
 40
0.0
 40
0.0
 40
0.0
 40
0.0
 40
0.0012417047560385
 40
0.0012417047560385
 40
0.0012417047560385
 40
0.0012417047560385
 10
169.6497527587889
 20
171.5364683282116
 30
0.0
 10
169.4643642074944
 20
171.7981414137601
 30
0.0
 10
169.2784979618865
 20
172.0596455226377
 30
0.0
 10
169.0921837222612
 20
172.320989669755
 30
0.0
  0
SPLINE
  5
B4
330
1F
100
AcDbEntity
  8
0
  6
Continuous
 62
     7
370
    15
100
AcDbSpline
210
0.0
220
0.0
230
1.0
 70
     8
 71
     3
 72
     8
 73
     4
 74
     0
 42
0.000000001
 43
0.00000001
 40
0.0
 40
0.0
 40
0.0
 40
0.0
 40
1.0
 40
1.0
 40
1.0
 40
1.0
 10
173.1913706335075
 20
165.1461742544736
 30
0.0
 10
172.0163831576046
 20
167.2792510094094
 30
0.0
 10
170.8351366235082
 20
169.4089695752856
 30
0.0
 10
169.6497527587889
 20
171.5364683282116
 30
0.0
  0
SPLINE
  5
B5
330
1F
100
AcDbEntity
  8
0
  6
Continuous
 62
     7
370
    15
100
AcDbSpline
210
0.0
220
0.0
230
1.0
 70
     8
 71
     3
 72
     8
 73
     4
 74
     0
 42
0.000000001
 43
0.00000001
 40
0.0
 40
0.0
 40
0.0
 40
0.0
 40
1.0
 40
1.0
 40
1.0
 40
1.0
 10
173.1913706335075
 20
83.28562209410758
 30
0.0
 10
172.0163338356805
 20
81.15245579996225
 30
0.0
 10
170.8350866282415
 20
79.02273704298057
 30
0.0
 10
169.6497527587889
 20
76.8953280203696
 30
0.0
  0
SPLINE
  5
B6
330
1F
100
AcDbEntity
  8
0
  6
Continuous
 62
     7
370
    15
100
AcDbSpline
210
0.0
220
0.0
230
1.0
 70
     8
 71
     3
 72
     8
 73
     4
 74
     0
 42
0.000000001
 43
0.00000001
 40
0.0
 40
0.0
 40
0.0
 40
0.0
 40
0.0012417047560385
 40
0.0012417047560385
 40
0.0012417047560385
 40
0.0012417047560385
 10
169.0921837222612
 20
76.11080667882621
 30
0.0
 10
169.2784979618865
 20
76.37215082594345
 30
0.0
 10
169.4643642074944
 20
76.63365493482105
 30
0.0
 10
169.6497527587889
 20
76.8953280203696
 30
0.0
  0
SPLINE
  5
B7
330
1F
100
AcDbEntity
  8
0
  6
Continuous
 62
     7
370
    15
100
AcDbSpline
210
0.0
220
0.0
230
1.0
 70
     8
 71
     3
 72
    10
 73
     6
 74
     0
 42
0.000000001
 43
0.00000001
 40
0.0
 40
0.0
 40
0.0
 40
0.0
 40
0.5
 40
0.5
 40
1.0
 40
1.0
 40
1.0
 40
1.0
 10
173.5671837222611
 20
83.6363669601414
 30
0.0
 10
173.4881836540099
 20
83.60060272553352
 30
0.0
 10
173.4144264037333
 20
83.55111312197407
 30
0.0
 10
173.2863712806
 20
83.43082463047114
 30
0.0
 10
173.2335212461884
 20
83.36214247748178
 30
0.0
 10
173.1913706335075
 20
83.28562209410758
 30
0.0
  0
SPLINE
  5
B8
330
1F
100
AcDbEntity
  8
0
  6
Continuous
 62
     7
370
    15
100
AcDbSpline
210
0.0
220
0.0
230
1.0
 70
     8
 71
     3
 72
    10
 73
     6
 74
     0
 42
0.000000001
 43
0.00000001
 40
0.0
 40
0.0
 40
0.0
 40
0.0
 40
0.5
 40
0.5
 40
1.0
 40
1.0
 40
1.0
 40
1.0
 10
173.5671837222611
 20
164.7954293884397
 30
0.0
 10
173.4878972745784
 20
164.8313232702922
 30
0.0
 10
173.4143850554578
 20
164.8808249801432
 30
0.0
 10
173.2874326025872
 20
164.9998726768118
 30
0.0
 10
173.2333667538505
 20
165.0699343370801
 30
0.0
 10
173.1913706335075
 20
165.1461742544736
 30
0.0
  0
SPLINE
  5
B9
330
1F
100
AcDbEntity
  8
0
  6
Continuous
 62
     7
370
    15
100
AcDbSpline
210
0.0
220
0.0
230
1.0
 70
     8
 71
     3
 72
     8
 73
     4
 74
     0
 42
0.000000001
 43
0.00000001
 40
0.0
 40
0.0
 40
0.0
 40
0.0
 40
1.0
 40
1.0
 40
1.0
 40
1.0
 10
173.884190956535
 20
164.7279703699532
 30
0.0
 10
173.7744891712333
 20
164.7271119527539
 30
0.0
 10
173.6671421502488
 20
164.7501770646287
 30
0.0
 10
173.5671837222611
 20
164.7954293884395
 30
0.0
  0
SPLINE
  5
BA
330
1F
100
AcDbEntity
  8
0
  6
Continuous
 62
     7
370
    15
100
AcDbSpline
210
0.0
220
0.0
230
1.0
 70
     8
 71
     3
 72
     8
 73
     4
 74
     0
 42
0.000000001
 43
0.00000001
 40
0.0
 40
0.0
 40
0.0
 40
0.0
 40
1.0
 40
1.0
 40
1.0
 40
1.0
 10
173.884190956535
 20
83.70382597862793
 30
0.0
 10
173.7744891712333
 20
83.70468439582726
 30
0.0
 10
173.6671421502488
 20
83.68161928395247
 30
0.0
 10
173.567183722261
 20
83.63636696014156
 30
0.0
  0
SPLINE
  5
BB
330
1F
100
AcDbEntity
  8
0
  6
Continuous
 62
     7
370
    15
100
AcDbSpline
210
0.0
220
0.0
230
1.0
 70
     8
 71
     3
 72
    12
 73
     8
 74
     0
 42
0.000000001
 43
0.00000001
 40
0.0
 40
0.0
 40
0.0
 40
0.0
 40
0.2500000000000049
 40
0.2500000000000049
 40
0.5000000000000098
 40
0.5000000000000098
 40
1.0
 40
1.0
 40
1.0
 40
1.0
 10
180.0429968110148
 20
165.6552955536019
 30
0.0
 10
180.0067763896279
 20
165.5846884855021
 30
0.0
 10
179.9638507149801
 20
165.5209538941764
 30
0.0
 10
179.8663241317211
 20
165.4051797179279
 30
0.0
 10
179.8108926121043
 20
165.3526318739164
 30
0.0
 10
179.6324047092002
 20
165.2184832707021
 30
0.0
 10
179.4955678805524
 20
165.1579611686382
 30
0.0
 10
179.350176487988
 20
165.1374145847098
 30
0.0
  0
SPLINE
  5
BC
330
1F
100
AcDbEntity
  8
0
  6
Continuous
 62
     7
370
    15
100
AcDbSpline
210
0.0
220
0.0
230
1.0
 70
     8
 71
     3
 72
    12
 73
     8
 74
     0
 42
0.000000001
 43
0.00000001
 40
0.0
 40
0.0
 40
0.0
 40
0.0
 40
0.249999999999999
 40
0.249999999999999
 40
0.499999999999998
 40
0.499999999999998
 40
1.0
 40
1.0
 40
1.0
 40
1.0
 10
180.0429968110148
 20
82.77650079497928
 30
0.0
 10
180.0067763896278
 20
82.84710786307919
 30
0.0
 10
179.9638507149799
 20
82.91084245440491
 30
0.0
 10
179.866324131721
 20
83.02661663065334
 30
0.0
 10
179.8108926121043
 20
83.07916447466476
 30
0.0
 10
179.6324047092
 20
83.21331307787916
 30
0.0
 10
179.4955678805524
 20
83.27383517994294
 30
0.0
 10
179.350176487988
 20
83.29438176387136
 30
0.0
  0
SPLINE
  5
BD
330
1F
100
AcDbEntity
  8
0
  6
Continuous
 62
     7
370
    15
100
AcDbSpline
210
0.0
220
0.0
230
1.0
 70
    11
 71
     3
 72
    66
 73
    62
 74
     0
 42
0.000000001
 43
0.00000001
 40
0.0
 40
0.0
 40
0.0
 40
0.0
 40
0.0312499999999999
 40
0.0312499999999999
 40
0.0624999999999999
 40
0.0624999999999999
 40
0.0937499999999998
 40
0.0937499999999998
 40
0.1249999999999997
 40
0.1249999999999997
 40
0.1562499999999997
 40
0.1562499999999997
 40
0.1874999999999996
 40
0.1874999999999996
 40
0.2187499999999995
 40
0.2187499999999995
 40
0.2499999999999994
 40
0.2499999999999994
 40
0.2812499999999994
 40
0.2812499999999994
 40
0.3124999999999993
 40
0.3124999999999993
 40
0.3437499999999992
 40
0.3437499999999992
 40
0.3749999999999992
 40
0.3749999999999992
 40
0.4062499999999991
 40
0.4062499999999991
 40
0.437499999999999
 40
0.437499999999999
 40
0.4687499999999989
 40
0.4687499999999989
 40
0.4999999999999989
 40
0.4999999999999989
 40
0.5312499999999988
 40
0.5312499999999988
 40
0.5624999999999988
 40
0.5624999999999988
 40
0.6249999999999987
 40
0.6249999999999987
 40
0.6562499999999988
 40
0.6562499999999988
 40
0.6874999999999989
 40
0.6874999999999989
 40
0.7187499999999991
 40
0.7187499999999991
 40
0.7499999999999992
 40
0.7499999999999992
 40
0.7812499999999993
 40
0.7812499999999993
 40
0.8124999999999996
 40
0.8124999999999996
 40
0.8437499999999997
 40
0.8437499999999997
 40
0.8749999999999998
 40
0.8749999999999998
 40
0.90625
 40
0.90625
 40
0.9375000000000001
 40
0.9375000000000001
 40
1.0
 40
1.0
 40
1.0
 40
1.0
 10
176.6171837222611
 20
107.3559808634473
 30
0.0
 10
176.782384012925
 20
107.3559808634472
 30
0.0
 10
176.9448165542216
 20
107.3708868928051
 30
0.0
 10
177.2643747098116
 20
107.4293220715475
 30
0.0
 10
177.4231580477886
 20
107.4735631239232
 30
0.0
 10
177.725896064268
 20
107.5891546693457
 30
0.0
 10
177.8694752294023
 20
107.6599306395644
 30
0.0
 10
178.1412049592704
 20
107.827369171477
 30
0.0
 10
178.2698335228081
 20
107.9249084437977
 30
0.0
 10
178.5003992844753
 20
108.1383268039991
 30
0.0
 10
178.6038732857246
 20
108.2549414560253
 30
0.0
 10
178.7866338236504
 20
108.508666820045
 30
0.0
 10
178.864278079879
 20
108.6439596791137
 30
0.0
 10
178.9889707305691
 20
108.9243060345053
 30
0.0
 10
179.0369747111475
 20
109.0714269103414
 30
0.0
 10
179.1012064534658
 20
109.3734170147187
 30
0.0
 10
179.117095897508
 20
109.5255407822879
 30
0.0
 10
179.1172708278632
 20
109.8320234251141
 30
0.0
 10
179.1010401765283
 20
109.9880093461798
 30
0.0
 10
179.0372589538187
 20
110.2905888151491
 30
0.0
 10
178.9900668424224
 20
110.4379673265413
 30
0.0
 10
178.8649002247645
 20
110.724756031919
 30
0.0
 10
178.7866407373895
 20
110.8637131334569
 30
0.0
 10
178.6057205540341
 20
111.1213067937249
 30
0.0
 10
178.5024353251102
 20
111.2415993374259
 30
0.0
 10
178.2691835830615
 20
111.4643201550726
 30
0.0
 10
178.1427697147959
 20
111.5632980590645
 30
0.0
 10
177.8720974441013
 20
111.7365149136736
 30
0.0
 10
177.726015671937
 20
111.8114959511503
 30
0.0
 10
177.4231312264642
 20
111.9318241212461
 30
0.0
 10
177.2673008668245
 20
111.9772078087353
 30
0.0
 10
176.946955377559
 20
112.0386340691563
 30
0.0
 10
176.7812452915874
 20
112.0543876906761
 30
0.0
 10
176.4549139028909
 20
112.0544999359315
 30
0.0
 10
176.2927268170639
 20
112.0393677060255
 30
0.0
 10
175.9703512358554
 20
111.9781155928451
 30
0.0
 10
175.8123357618178
 20
111.9321088494698
 30
0.0
 10
175.3609248867423
 20
111.7532281202279
 30
0.0
 10
175.0818454296901
 20
111.575076012929
 30
0.0
 10
174.7357717251917
 20
111.2455795966419
 30
0.0
 10
174.630129709277
 20
111.1232067568019
 30
0.0
 10
174.4483462333063
 20
110.8648040526873
 30
0.0
 10
174.3714584099223
 20
110.728572487139
 30
0.0
 10
174.2458038525519
 20
110.4421370252529
 30
0.0
 10
174.1974957766373
 20
110.2918299406774
 30
0.0
 10
174.133677891197
 20
109.9902620105929
 30
0.0
 10
174.1173497141541
 20
109.8373959481284
 30
0.0
 10
174.1170202240945
 20
109.5273808313849
 30
0.0
 10
174.1331167359291
 20
109.3745118310323
 30
0.0
 10
174.1963454731903
 20
109.0754790652574
 30
0.0
 10
174.2441820666009
 20
108.9274134688345
 30
0.0
 10
174.3695253845143
 20
108.644856430689
 30
0.0
 10
174.4462220590395
 20
108.5112400985653
 30
0.0
 10
174.6272734256912
 20
108.2589502286332
 30
0.0
 10
174.7327490360521
 20
108.1396069195653
 30
0.0
 10
174.9632756047284
 20
107.9259231400805
 30
0.0
 10
175.0889950423587
 20
107.8302631654207
 30
0.0
 10
175.3617618915555
 20
107.6615420964169
 30
0.0
 10
175.5074812679615
 20
107.5896748877636
 30
0.0
 10
175.9585503730696
 20
107.4170238104952
 30
0.0
 10
176.2867831409334
 20
107.3559808634473
 30
0.0
 10
176.6171837222611
 20
107.3559808634472
 30
0.0
  0
SPLINE
  5
BE
330
1F
100
AcDbEntity
  8
0
  6
Continuous
 62
     7
370
    15
100
AcDbSpline
210
0.0
220
0.0
230
1.0
 70
     8
 71
     3
 72
    10
 73
     6
 74
     0
 42
0.000000001
 43
0.00000001
 40
0.0
 40
0.0
 40
0.0
 40
0.0
 40
0.5
 40
0.5
 40
1.0
 40
1.0
 40
1.0
 40
1.0
 10
179.3501764879873
 20
165.1374145847126
 30
0.0
 10
178.502612121219
 20
165.0176375326516
 30
0.0
 10
177.6218986854971
 20
164.9189473529878
 30
0.0
 10
175.7943424342816
 20
164.7776749467506
 30
0.0
 10
174.8409100311802
 20
164.735456703073
 30
0.0
 10
173.884190956535
 20
164.7279703699532
 30
0.0
  0
SPLINE
  5
BF
330
1F
100
AcDbEntity
  8
0
  6
Continuous
 62
     7
370
    15
100
AcDbSpline
210
0.0
220
0.0
230
1.0
 70
     8
 71
     3
 72
    10
 73
     6
 74
     0
 42
0.000000001
 43
0.00000001
 40
0.0
 40
0.0
 40
0.0
 40
0.0
 40
0.5
 40
0.5
 40
1.0
 40
1.0
 40
1.0
 40
1.0
 10
179.3501764879873
 20
83.29438176386854
 30
0.0
 10
178.502612121219
 20
83.41415881592958
 30
0.0
 10
177.6218986854971
 20
83.51284899559339
 30
0.0
 10
175.7943424342816
 20
83.65412140183054
 30
0.0
 10
174.8409100311802
 20
83.69633964550813
 30
0.0
 10
173.884190956535
 20
83.70382597862793
 30
0.0
  0
LINE
  5
C0
330
1F
100
AcDbEntity
  8
0
  6
Continuous
 62
     7
370
    15
100
AcDbLine
 10
153.4171837223
 20
89.2908981743
 30
0.0
 11
153.4171837223
 21
159.1408981743
 31
0.0
  0
SPLINE
  5
C1
330
1F
100
AcDbEntity
  8
0
  6
Continuous
 62
     7
370
    15
100
AcDbSpline
210
0.0
220
0.0
230
1.0
 70
     8
 71
     3
 72
    27
 73
    23
 74
     0
 42
0.000000001
 43
0.00000001
 40
0.0
 40
0.0
 40
0.0
 40
0.0
 40
0.009968322328433
 40
0.0555760795843823
 40
0.0972714875197651
 40
0.1400371298094265
 40
0.1846183858461807
 40
0.2302108292614475
 40
0.2808391528294976
 40
0.3326313497139967
 40
0.3895494262430023
 40
0.4479347004918449
 40
0.508226213931845
 40
0.5702296627289962
 40
0.6311172552052745
 40
0.6938157366582567
 40
0.7537527515675929
 40
0.8157299878483416
 40
0.8623309744719805
 40
0.9102165346242564
 40
0.9568618840698461
 40
1.0
 40
1.0
 40
1.0
 40
1.0
 10
220.3475486693654
 20
155.7111780279592
 30
0.0
 10
220.3535561512599
 20
155.7126220602811
 30
0.0
 10
220.3870494795122
 20
155.7206729290833
 30
0.0
 10
220.2225301560161
 20
155.6809850883478
 30
0.0
 10
219.8627583835224
 20
155.5963758018605
 30
0.0
 10
219.3051819293684
 20
155.4706095303832
 30
0.0
 10
218.5648925353394
 20
155.3143262754255
 30
0.0
 10
217.6214012132622
 20
155.1328802706319
 30
0.0
 10
216.4831729265273
 20
154.9413301629444
 30
0.0
 10
215.1252391727107
 20
154.7533717510316
 30
0.0
 10
213.5895598679311
 20
154.595326074997
 30
0.0
 10
211.8940353446839
 20
154.4907867749632
 30
0.0
 10
210.1082149675933
 20
154.4606272922626
 30
0.0
 10
208.3041706247166
 20
154.5147308572759
 30
0.0
 10
206.5353283448796
 20
154.6488682568668
 30
0.0
 10
204.8943256193058
 20
154.8441319970729
 30
0.0
 10
203.405135207122
 20
155.0780930985918
 30
0.0
 10
202.2421848359743
 20
155.2985924392751
 30
0.0
 10
201.3734926144045
 20
155.482607115868
 30
0.0
 10
200.7936679249749
 20
155.6142599659297
 30
0.0
 10
200.4280054193818
 20
155.7011673545227
 30
0.0
 10
200.3955703084914
 20
155.7090425370489
 30
0.0
 10
200.3799862633898
 20
155.7128263132193
 30
0.0
  0
SPLINE
  5
C2
330
1F
100
AcDbEntity
  8
0
  6
Continuous
 62
     7
370
    15
100
AcDbSpline
210
0.0
220
0.0
230
1.0
 70
    11
 71
     3
 72
    94
 73
    90
 74
     0
 42
0.000000001
 43
0.00000001
 40
0.0
 40
0.0
 40
0.0
 40
0.0
 40
0.0312500000000007
 40
0.0312500000000007
 40
0.046875000000001
 40
0.046875000000001
 40
0.0625000000000013
 40
0.0625000000000013
 40
0.0937500000000023
 40
0.0937500000000023
 40
0.1093750000000027
 40
0.1093750000000027
 40
0.1250000000000032
 40
0.1250000000000032
 40
0.1562500000000039
 40
0.1562500000000039
 40
0.1718750000000044
 40
0.1718750000000044
 40
0.1875000000000049
 40
0.1875000000000049
 40
0.2187500000000058
 40
0.2187500000000058
 40
0.2343750000000059
 40
0.2343750000000059
 40
0.2500000000000061
 40
0.2500000000000061
 40
0.2812500000000059
 40
0.2812500000000059
 40
0.2968750000000058
 40
0.2968750000000058
 40
0.3125000000000057
 40
0.3125000000000057
 40
0.3437500000000056
 40
0.3437500000000056
 40
0.3593750000000056
 40
0.3593750000000056
 40
0.3750000000000056
 40
0.3750000000000056
 40
0.3906250000000056
 40
0.3906250000000056
 40
0.4062500000000056
 40
0.4062500000000056
 40
0.4375000000000056
 40
0.4375000000000056
 40
0.4531250000000054
 40
0.4531250000000054
 40
0.4687500000000052
 40
0.4687500000000052
 40
0.5000000000000049
 40
0.5000000000000049
 40
0.5312500000000047
 40
0.5312500000000047
 40
0.5468750000000046
 40
0.5468750000000046
 40
0.5625000000000044
 40
0.5625000000000044
 40
0.5937500000000041
 40
0.5937500000000041
 40
0.6250000000000038
 40
0.6250000000000038
 40
0.6562500000000034
 40
0.6562500000000034
 40
0.6875000000000031
 40
0.6875000000000031
 40
0.7187500000000028
 40
0.7187500000000028
 40
0.7500000000000023
 40
0.7500000000000023
 40
0.781250000000002
 40
0.781250000000002
 40
0.8125000000000017
 40
0.8125000000000017
 40
0.8281250000000016
 40
0.8281250000000016
 40
0.8437500000000014
 40
0.8437500000000014
 40
0.8750000000000012
 40
0.8750000000000012
 40
0.906250000000001
 40
0.906250000000001
 40
0.9218750000000009
 40
0.9218750000000009
 40
0.9375000000000008
 40
0.9375000000000008
 40
0.9531250000000007
 40
0.9531250000000007
 40
0.9687500000000006
 40
0.9687500000000006
 40
1.0
 40
1.0
 40
1.0
 40
1.0
 10
203.7164234794823
 20
130.7405618473858
 30
0.0
 10
204.2018487214304
 20
131.1205013955391
 30
0.0
 10
204.71532222984
 20
131.4492444365998
 30
0.0
 10
205.5241057808824
 20
131.8733700074129
 30
0.0
 10
205.800185321703
 20
132.0031409873937
 30
0.0
 10
206.3653224620136
 20
132.2396692733814
 30
0.0
 10
206.6556439710113
 20
132.3468132290561
 30
0.0
 10
207.5371336885052
 20
132.6300983107558
 30
0.0
 10
208.1343100614122
 20
132.767548273332
 30
0.0
 10
209.0438286789395
 20
132.9002520314592
 30
0.0
 10
209.3493082360453
 20
132.9321579084071
 30
0.0
 10
209.9649587773025
 20
132.9709616705282
 30
0.0
 10
210.2764938460806
 20
132.9777684041005
 30
0.0
 10
211.2029041802244
 20
132.9598715120337
 30
0.0
 10
211.8125269664912
 20
132.8978145344607
 30
0.0
 10
212.7152395307249
 20
132.7307573306879
 30
0.0
 10
213.0141790864537
 20
132.662667559155
 30
0.0
 10
213.6080319838075
 20
132.5009273463531
 30
0.0
 10
213.9041069906378
 20
132.4067617027644
 30
0.0
 10
214.7701275458443
 20
132.0900499440376
 30
0.0
 10
215.3221970903609
 20
131.8329276089318
 30
0.0
 10
216.1122518231003
 20
131.3767737893221
 30
0.0
 10
216.3692205710372
 20
131.2128988673199
 30
0.0
 10
216.8698024655276
 20
130.8601570249071
 30
0.0
 10
217.1143023467722
 20
130.6703658998876
 30
0.0
 10
217.8111639380432
 20
130.0739476351465
 30
0.0
 10
218.2320827451535
 20
129.6377647136596
 30
0.0
 10
218.7946209210656
 20
128.9215227368294
 30
0.0
 10
218.9705750073792
 20
128.6723717539009
 30
0.0
 10
219.2975321855978
 20
128.1514289564201
 30
0.0
 10
219.448204315653
 20
127.8795380001448
 30
0.0
 10
219.8478538151408
 20
127.0519775626739
 30
0.0
 10
220.0500783663426
 20
126.477148426033
 30
0.0
 10
220.2505379370934
 20
125.5775257887928
 30
0.0
 10
220.3002496169414
 20
125.2688799878041
 30
0.0
 10
220.3609955327856
 20
124.6516072090453
 30
0.0
 10
220.3723152388598
 20
124.3438057137331
 30
0.0
 10
220.3578267236643
 20
123.7298304371405
 30
0.0
 10
220.3320166278449
 20
123.4236567364045
 30
0.0
 10
220.2430242408358
 20
122.8129459237328
 30
0.0
 10
220.1791751981443
 20
122.5064575044097
 30
0.0
 10
219.9360453825386
 20
121.6111404105399
 30
0.0
 10
219.70622227351
 20
121.0420927545005
 30
0.0
 10
219.2666220988526
 20
120.2271007130465
 30
0.0
 10
219.1042534567393
 20
119.9626094144459
 30
0.0
 10
218.7559358084734
 20
119.4574538320419
 30
0.0
 10
218.569193878542
 20
119.2152489397647
 30
0.0
 10
217.9729811547804
 20
118.5180469177432
 30
0.0
 10
217.5232052020188
 20
118.0892416834704
 30
0.0
 10
216.5617417098917
 20
117.3317514292041
 30
0.0
 10
216.0487420865193
 20
117.0000278225396
 30
0.0
 10
215.2324964255052
 20
116.5691981365008
 30
0.0
 10
214.9518906947371
 20
116.4366516012768
 30
0.0
 10
214.384947611213
 20
116.1982318640498
 30
0.0
 10
214.0974784007953
 20
116.0916909840821
 30
0.0
 10
213.2233826922314
 20
115.8088120949969
 30
0.0
 10
212.6251614948635
 20
115.6689063447201
 30
0.0
 10
211.3969735070705
 20
115.4877438307508
 30
0.0
 10
210.7804190765227
 20
115.4487826461826
 30
0.0
 10
209.5534713784695
 20
115.4705421756174
 30
0.0
 10
208.941266639333
 20
115.5309876245582
 30
0.0
 10
207.7195068792931
 20
115.7558965483156
 30
0.0
 10
207.1267127354917
 20
115.917351900569
 30
0.0
 10
205.9791561386522
 20
116.3355731404239
 30
0.0
 10
205.4236489499326
 20
116.5924744243619
 30
0.0
 10
204.353096624638
 20
117.2101142112587
 30
0.0
 10
203.854643231942
 20
117.5612504059714
 30
0.0
 10
202.9315844128161
 20
118.3500957760704
 30
0.0
 10
202.5055238990737
 20
118.7893689921345
 30
0.0
 10
201.7430695623527
 20
119.7612317281348
 30
0.0
 10
201.4175764250767
 20
120.2793794889083
 30
0.0
 10
201.0177445229291
 20
121.1084607083458
 30
0.0
 10
200.8989919538543
 20
121.3944776529263
 30
0.0
 10
200.6950749915385
 20
121.9814191138538
 30
0.0
 10
200.6112922711783
 20
122.2780427732001
 30
0.0
 10
200.4138367711999
 20
123.1772964907928
 30
0.0
 10
200.3534562477885
 20
123.7905751134027
 30
0.0
 10
200.3861063130272
 20
125.0383503924473
 30
0.0
 10
200.4781395749556
 20
125.6471984843168
 30
0.0
 10
200.7227380855622
 20
126.5393882010719
 30
0.0
 10
200.8229928052209
 20
126.835055981533
 30
0.0
 10
201.0554312596367
 20
127.4087220121634
 30
0.0
 10
201.1872432140572
 20
127.6866132507151
 30
0.0
 10
201.4802064075847
 20
128.2256714393346
 30
0.0
 10
201.6413644985527
 20
128.4868342993937
 30
0.0
 10
201.9922696160037
 20
128.9929814057743
 30
0.0
 10
202.182581715829
 20
129.2383816874015
 30
0.0
 10
202.7844642800232
 20
129.9375571251231
 30
0.0
 10
203.2309982375342
 20
130.3606222992325
 30
0.0
 10
203.7164234794823
 20
130.7405618473858
 30
0.0
  0
LINE
  5
C3
330
1F
100
AcDbEntity
  8
0
  6
Continuous
 62
     7
370
    15
100
AcDbLine
 10
227.8171837223
 20
124.2158981743
 30
0.0
 11
227.8171837223
 21
92.7158981743
 31
0.0
  0
LINE
  5
C4
330
1F
100
AcDbEntity
  8
0
  6
Continuous
 62
     7
370
    15
100
AcDbLine
 10
227.8171837223
 20
155.7158981743
 30
0.0
 11
227.8171837223
 21
124.2158981743
 31
0.0
  0
LINE
  5
C5
330
1F
100
AcDbEntity
  8
0
  6
Continuous
 62
     7
370
    15
100
AcDbLine
 10
228.4171837223
 20
124.2158981743
 30
0.0
 11
228.4171837223
 21
93.3158981743
 31
0.0
  0
LINE
  5
C6
330
1F
100
AcDbEntity
  8
0
  6
Continuous
 62
     7
370
    15
100
AcDbLine
 10
228.4171837223
 20
155.1158981743
 30
0.0
 11
228.4171837223
 21
124.2158981743
 31
0.0
  0
LINE
  5
C7
330
1F
100
AcDbEntity
  8
0
  6
Continuous
 62
     7
370
    15
100
AcDbLine
 10
51.6171837223
 20
105.8662203136
 30
0.0
 11
51.6171837223
 21
142.5655759804
 31
0.0
  0
LWPOLYLINE
  5
C8
330
1F
100
AcDbEntity
  8
0
  6
Continuous
 62
     7
370
    15
100
AcDbPolyline
 90
       21
 70
   128
 43
0.0
 10
174.981979046
 20
111.3887784616
 10
174.5000953814
 20
110.8303145988
 10
174.2254470743
 20
110.1592540478
 10
174.1849186145
 20
109.4412848908
 10
174.38247721
 20
108.7466869513
 10
174.7987844491
 20
108.1434523152
 10
175.3930892786
 20
107.6906297915
 10
176.1072170009
 20
107.432544804
 10
176.8712638191
 20
107.3944605094
 10
177.6104395072
 20
107.5801048638
 10
178.2523883986
 20
107.9713057043
 10
178.7342720631
 20
108.529769567
 10
179.0089203702
 20
109.2008301181
 10
179.04944883
 20
109.9187992751
 10
178.8518902345
 20
110.6133972146
 10
178.4355829954
 20
111.2166318507
 10
177.841278166
 20
111.6694543744
 10
177.1271504436
 20
111.9275393619
 10
176.3631036254
 20
111.9656236565
 10
175.6239279374
 20
111.7799793021
 10
174.981979046
 20
111.3887784616
  0
LINE
  5
C9
330
1F
100
AcDbEntity
  8
0
  6
Continuous
 62
     7
370
    15
100
AcDbLine
 10
176.0809047937
 20
108.1324265589
 30
0.0
 11
177.77533444
 21
108.4698117724
 31
0.0
  0
LINE
  5
CA
330
1F
100
AcDbEntity
  8
0
  6
Continuous
 62
     7
370
    15
100
AcDbLine
 10
178.3116133685
 20
110.0174272964
 30
0.0
 11
177.77533444
 21
108.4698117724
 31
0.0
  0
LINE
  5
CB
330
1F
100
AcDbEntity
  8
0
  6
Continuous
 62
     7
370
    15
100
AcDbLine
 10
177.1534626508
 20
111.227657607
 30
0.0
 11
178.3116133685
 21
110.0174272964
 31
0.0
  0
LINE
  5
CC
330
1F
100
AcDbEntity
  8
0
  6
Continuous
 62
     7
370
    15
100
AcDbLine
 10
177.1534626508
 20
111.227657607
 30
0.0
 11
175.4590330046
 21
110.8902723935
 31
0.0
  0
LINE
  5
CD
330
1F
100
AcDbEntity
  8
0
  6
Continuous
 62
     7
370
    15
100
AcDbLine
 10
174.9227540761
 20
109.3426568695
 30
0.0
 11
175.4590330046
 21
110.8902723935
 31
0.0
  0
LINE
  5
CE
330
1F
100
AcDbEntity
  8
0
  6
Continuous
 62
     7
370
    15
100
AcDbLine
 10
174.9227540761
 20
109.3426568695
 30
0.0
 11
176.0809047937
 21
108.1324265589
 31
0.0
  0
LINE
  5
CF
330
1F
100
AcDbEntity
  8
0
  6
Continuous
 62
     7
370
    15
100
AcDbLine
 10
177.77533444
 20
109.153852059
 30
0.0
 11
177.77533444
 21
108.4698117724
 31
0.0
  0
LINE
  5
D0
330
1F
100
AcDbEntity
  8
0
  6
Continuous
 62
     7
370
    15
100
AcDbLine
 10
178.1375931173
 20
110.1992728708
 30
0.0
 11
177.77533444
 21
109.153852059
 31
0.0
  0
LINE
  5
D1
330
1F
100
AcDbEntity
  8
0
  6
Continuous
 62
     7
370
    15
100
AcDbLine
 10
175.0967743272
 20
109.8448515817
 30
0.0
 11
176.0809047937
 21
108.8164668456
 31
0.0
  0
LINE
  5
D2
330
1F
100
AcDbEntity
  8
0
  6
Continuous
 62
     7
370
    15
100
AcDbLine
 10
176.0809047937
 20
108.8164668456
 30
0.0
 11
176.0809047937
 21
108.1324265589
 31
0.0
  0
LINE
  5
D3
330
1F
100
AcDbEntity
  8
0
  6
Continuous
 62
     7
370
    15
100
AcDbLine
 10
176.0809047937
 20
108.8164668456
 30
0.0
 11
177.77533444
 21
109.153852059
 31
0.0
  0
LINE
  5
D4
330
1F
100
AcDbEntity
  8
0
  6
HIDDEN
 62
     7
370
     0
100
AcDbLine
 10
202.3671837223
 20
154.7158981743
 30
0.0
 11
206.0503256843
 21
154.7158981743
 31
0.0
  0
LINE
  5
D5
330
1F
100
AcDbEntity
  8
0
  6
HIDDEN
 62
     7
370
     0
100
AcDbLine
 10
214.7228549676
 20
154.7158981743
 30
0.0
 11
218.3671837223
 21
154.7158981743
 31
0.0
  0
LINE
  5
D6
330
1F
100
AcDbEntity
  8
0
  6
HIDDEN
 62
     7
370
     0
100
AcDbLine
 10
202.3671837223
 20
144.5460251932
 30
0.0
 11
218.3671837223
 21
144.5460251932
 31
0.0
  0
LINE
  5
D7
330
1F
100
AcDbEntity
  8
0
  6
HIDDEN
 62
     7
370
     0
100
AcDbLine
 10
205.2508472163
 20
135.2158981743
 30
0.0
 11
215.4835202283
 21
135.2158981743
 31
0.0
  0
SPLINE
  5
D8
330
1F
100
AcDbEntity
  8
0
  6
HIDDEN
 62
     7
370
     0
100
AcDbSpline
210
0.0
220
0.0
230
1.0
 70
     8
 71
     3
 72
    11
 73
     7
 74
     0
 42
0.000000001
 43
0.00000001
 40
0.0
 40
0.0
 40
0.0
 40
0.0
 40
0.2164567244934131
 40
0.4403141600939166
 40
0.7519028444798618
 40
1.0
 40
1.0
 40
1.0
 40
1.0
 10
209.9313878739417
 20
155.6347003278076
 30
0.0
 10
209.6735309556969
 20
155.4898219176015
 30
0.0
 10
209.149000924823
 20
155.1951116670655
 30
0.0
 10
208.1756160847121
 20
154.9494737043835
 30
0.0
 10
207.1314925745613
 20
155.0975787648636
 30
0.0
 10
206.4633182659721
 20
155.4697323442162
 30
0.0
 10
206.1671304164091
 20
155.6347003278076
 30
0.0
  0
SPLINE
  5
D9
330
1F
100
AcDbEntity
  8
0
  6
HIDDEN
 62
     7
370
     0
100
AcDbSpline
210
0.0
220
0.0
230
1.0
 70
     8
 71
     3
 72
    11
 73
     7
 74
     0
 42
0.000000001
 43
0.00000001
 40
0.0
 40
0.0
 40
0.0
 40
0.0
 40
0.2164567244934154
 40
0.4403141600939107
 40
0.7519028444798556
 40
1.0
 40
1.0
 40
1.0
 40
1.0
 10
206.1671304164091
 20
155.6347003278076
 30
0.0
 10
206.1969830435738
 20
155.4898219176015
 30
0.0
 10
206.2577089669073
 20
155.1951116670655
 30
0.0
 10
206.3703997371118
 20
154.9494737043835
 30
0.0
 10
206.4912800690206
 20
155.0975787648636
 30
0.0
 10
206.5686359866012
 20
155.4697323442161
 30
0.0
 10
206.6029262647287
 20
155.6347003278075
 30
0.0
  0
SPLINE
  5
DA
330
1F
100
AcDbEntity
  8
0
  6
HIDDEN
 62
     7
370
     0
100
AcDbSpline
210
0.0
220
0.0
230
1.0
 70
     8
 71
     3
 72
    11
 73
     7
 74
     0
 42
0.000000001
 43
0.00000001
 40
0.0
 40
0.0
 40
0.0
 40
0.0
 40
0.1845133558519181
 40
0.5180565039163904
 40
0.867612283048505
 40
1.0
 40
1.0
 40
1.0
 40
1.0
 10
206.6029262647287
 20
155.6347003278075
 30
0.0
 10
206.846844639785
 20
155.510158663933
 30
0.0
 10
207.5316920864059
 20
155.1604841448127
 30
0.0
 10
208.8082293684845
 20
154.900763363242
 30
0.0
 10
209.9943848818475
 20
155.2138712484272
 30
0.0
 10
210.6287282831496
 20
155.5440121129426
 30
0.0
 10
210.8029795705807
 20
155.6347003278075
 30
0.0
  0
SPLINE
  5
DB
330
1F
100
AcDbEntity
  8
0
  6
HIDDEN
 62
     7
370
     0
100
AcDbSpline
210
0.0
220
0.0
230
1.0
 70
     8
 71
     3
 72
    11
 73
     7
 74
     0
 42
0.000000001
 43
0.00000001
 40
0.0
 40
0.0
 40
0.0
 40
0.0
 40
0.2164567244934094
 40
0.4403141600939152
 40
0.7519028444798589
 40
1.0
 40
1.0
 40
1.0
 40
1.0
 10
210.8029795705807
 20
155.6347003278075
 30
0.0
 10
211.0608364888255
 20
155.4898219176014
 30
0.0
 10
211.5853665196992
 20
155.1951116670654
 30
0.0
 10
212.5587513598103
 20
154.9494737043835
 30
0.0
 10
213.6028748699609
 20
155.0975787648636
 30
0.0
 10
214.2710491785502
 20
155.4697323442161
 30
0.0
 10
214.5672370281132
 20
155.6347003278075
 30
0.0
  0
SPLINE
  5
DC
330
1F
100
AcDbEntity
  8
0
  6
HIDDEN
 62
     7
370
     0
100
AcDbSpline
210
0.0
220
0.0
230
1.0
 70
     8
 71
     3
 72
    11
 73
     7
 74
     0
 42
0.000000001
 43
0.00000001
 40
0.0
 40
0.0
 40
0.0
 40
0.0
 40
0.2164567244934128
 40
0.4403141600939097
 40
0.7519028444798648
 40
1.0
 40
1.0
 40
1.0
 40
1.0
 10
214.5672370281132
 20
155.6347003278075
 30
0.0
 10
214.5373844009485
 20
155.4898219176014
 30
0.0
 10
214.476658477615
 20
155.1951116670655
 30
0.0
 10
214.3639677074105
 20
154.9494737043835
 30
0.0
 10
214.2430873755017
 20
155.0975787648636
 30
0.0
 10
214.1657314579211
 20
155.4697323442162
 30
0.0
 10
214.1314411797936
 20
155.6347003278076
 30
0.0
  0
SPLINE
  5
DD
330
1F
100
AcDbEntity
  8
0
  6
HIDDEN
 62
     7
370
     0
100
AcDbSpline
210
0.0
220
0.0
230
1.0
 70
     8
 71
     3
 72
    11
 73
     7
 74
     0
 42
0.000000001
 43
0.00000001
 40
0.0
 40
0.0
 40
0.0
 40
0.0
 40
0.1323877169514895
 40
0.4819434960836033
 40
0.8154866441480875
 40
0.9999999999999999
 40
0.9999999999999999
 40
0.9999999999999999
 40
0.9999999999999999
 10
214.1314411797936
 20
155.6347003278076
 30
0.0
 10
213.9571898923625
 20
155.5440121129427
 30
0.0
 10
213.3228464910605
 20
155.2138712484273
 30
0.0
 10
212.1366909776975
 20
154.9007633632421
 30
0.0
 10
210.8601536956188
 20
155.1604841448128
 30
0.0
 10
210.175306248998
 20
155.5101586639331
 30
0.0
 10
209.9313878739417
 20
155.6347003278076
 30
0.0
  0
LINE
  5
DE
330
1F
100
AcDbEntity
  8
0
  6
HIDDEN
 62
     7
370
     0
100
AcDbLine
 10
206.3671837223
 20
144.7158981743
 30
0.0
 11
214.3671837223
 21
144.7158981743
 31
0.0
  0
LINE
  5
DF
330
1F
100
AcDbEntity
  8
0
  6
HIDDEN
 62
     7
370
     0
100
AcDbLine
 10
212.6851082993
 20
145.7158981743
 30
0.0
 11
210.8029795706
 21
145.7158981743
 31
0.0
  0
LINE
  5
E0
330
1F
100
AcDbEntity
  8
0
  6
HIDDEN
 62
     7
370
     0
100
AcDbLine
 10
210.8029795706
 20
145.7158981743
 30
0.0
 11
208.7029529177
 21
145.7158981743
 31
0.0
  0
LINE
  5
E1
330
1F
100
AcDbEntity
  8
0
  6
HIDDEN
 62
     7
370
     0
100
AcDbLine
 10
210.8029795706
 20
145.7158981743
 30
0.0
 11
210.8029795706
 21
155.6347003278
 31
0.0
  0
LINE
  5
E2
330
1F
100
AcDbEntity
  8
0
  6
HIDDEN
 62
     7
370
     0
100
AcDbLine
 10
214.5672370281
 20
145.7158981743
 30
0.0
 11
212.6851082993
 21
145.7158981743
 31
0.0
  0
LINE
  5
E3
330
1F
100
AcDbEntity
  8
0
  6
HIDDEN
 62
     7
370
     0
100
AcDbLine
 10
208.7029529177
 20
145.7158981743
 30
0.0
 11
206.6029262647
 21
145.7158981743
 31
0.0
  0
LINE
  5
E4
330
1F
100
AcDbEntity
  8
0
  6
HIDDEN
 62
     7
370
     0
100
AcDbLine
 10
206.6029262647
 20
145.7158981743
 30
0.0
 11
206.3850283406
 21
145.7158981743
 31
0.0
  0
LINE
  5
E5
330
1F
100
AcDbEntity
  8
0
  6
HIDDEN
 62
     7
370
     0
100
AcDbLine
 10
206.6029262647
 20
145.7158981743
 30
0.0
 11
206.6029262647
 21
155.6347003278
 31
0.0
  0
LINE
  5
E6
330
1F
100
AcDbEntity
  8
0
  6
HIDDEN
 62
     7
370
     0
100
AcDbLine
 10
214.1314411798
 20
145.7158981743
 30
0.0
 11
214.1314411798
 21
155.6347003278
 31
0.0
  0
LINE
  5
E7
330
1F
100
AcDbEntity
  8
0
  6
HIDDEN
 62
     7
370
     0
100
AcDbLine
 10
214.5672370281
 20
145.7158981743
 30
0.0
 11
214.5672370281
 21
155.6347003278
 31
0.0
  0
LINE
  5
E8
330
1F
100
AcDbEntity
  8
0
  6
HIDDEN
 62
     7
370
     0
100
AcDbLine
 10
206.3850283406
 20
145.7158981743
 30
0.0
 11
206.1671304164
 21
145.7158981743
 31
0.0
  0
LINE
  5
E9
330
1F
100
AcDbEntity
  8
0
  6
HIDDEN
 62
     7
370
     0
100
AcDbLine
 10
209.9313878739
 20
145.7158981743
 30
0.0
 11
209.9313878739
 21
155.6347003278
 31
0.0
  0
LINE
  5
EA
330
1F
100
AcDbEntity
  8
0
  6
HIDDEN
 62
     7
370
     0
100
AcDbLine
 10
206.1671304164
 20
145.7158981743
 30
0.0
 11
206.1671304164
 21
155.6347003278
 31
0.0
  0
SPLINE
  5
EB
330
1F
100
AcDbEntity
  8
0
  6
HIDDEN
 62
     7
370
     0
100
AcDbSpline
210
0.0
220
0.0
230
1.0
 70
     8
 71
     3
 72
     9
 73
     5
 74
     0
 42
0.000000001
 43
0.00000001
 40
0.0
 40
0.0
 40
0.0
 40
0.0
 40
0.3267154957258129
 40
1.0
 40
1.0
 40
1.0
 40
1.0
 10
186.041151179872
 20
74.59213773811513
 30
0.0
 10
185.8843583066049
 20
74.63421996580983
 30
0.0
 10
185.4044518579719
 20
74.76302385863168
 30
0.0
 10
184.6502403243679
 20
74.93805050501881
 30
0.0
 10
184.1424413858475
 20
75.05589323386633
 30
0.0
  0
LWPOLYLINE
  5
EC
330
1F
100
AcDbEntity
  8
0
  6
HIDDEN
 62
     7
370
     0
100
AcDbPolyline
 90
       23
 70
   128
 43
0.0
 10
156.6865708341
 20
110.1867433717
 10
156.87156515
 20
109.3539960709
 10
157.1574720747
 20
108.5887130038
 10
157.5211291294
 20
107.9528928533
 10
157.9330749824
 20
107.4980459865
 10
158.3599362305
 20
107.2610213917
 10
158.7671311141
 20
107.2610213917
 10
159.1216711254
 20
107.4980459865
 10
159.3948335413
 20
107.9528928533
 10
159.5644883672
 20
108.5887130038
 10
159.6168911783
 20
109.3539960709
 10
159.5477966104
 20
110.1867433717
 10
159.3628022945
 20
111.0194906725
 10
159.0768953698
 20
111.7847737396
 10
158.7132383151
 20
112.4205938901
 10
158.3012924621
 20
112.8754407569
 10
157.874431214
 20
113.1124653517
 10
157.4672363304
 20
113.1124653517
 10
157.1126963191
 20
112.8754407569
 10
156.8395339033
 20
112.4205938901
 10
156.6698790773
 20
111.7847737396
 10
156.6174762662
 20
111.0194906725
 10
156.6865708341
 20
110.1867433717
  0
LWPOLYLINE
  5
ED
330
1F
100
AcDbEntity
  8
0
  6
HIDDEN
 62
     7
370
     0
100
AcDbPolyline
 90
       20
 70
   128
 43
0.0
 10
157.3994414228
 20
110.24276169
 10
157.5561955644
 20
109.5709372238
 10
157.8044833357
 20
108.971915363
 10
158.1173989042
 20
108.5106094209
 10
158.4610330126
 20
108.2370090543
 10
158.7981475732
 20
108.1807631082
 10
159.0922109925
 20
108.3479667037
 10
159.3113569362
 20
108.7205007367
 10
159.4318375408
 20
109.2579953643
 10
159.4405968635
 20
109.9022047035
 10
159.3366856956
 20
110.5833186764
 10
159.1313644246
 20
111.2275280156
 10
158.8468827961
 20
111.7650226432
 10
158.5140688086
 20
112.1375566762
 10
158.168988022
 20
112.3047602717
 10
157.8490352938
 20
112.2485143256
 10
157.5888824669
 20
111.974913959
 10
157.4167211366
 20
111.5136080169
 10
157.3512076544
 20
110.9145861561
 10
157.3994414228
 20
110.24276169
  0
SPLINE
  5
EE
330
1F
100
AcDbEntity
  8
0
  6
HIDDEN
 62
     7
370
     0
100
AcDbSpline
210
0.0
220
0.0
230
1.0
 70
    11
 71
     3
 72
    66
 73
    62
 74
     0
 42
0.000000001
 43
0.00000001
 40
0.0
 40
0.0
 40
0.0
 40
0.0
 40
0.0312500000000002
 40
0.0312500000000002
 40
0.0625000000000004
 40
0.0625000000000004
 40
0.0937500000000006
 40
0.0937500000000006
 40
0.1250000000000007
 40
0.1250000000000007
 40
0.1875000000000007
 40
0.1875000000000007
 40
0.2187500000000006
 40
0.2187500000000006
 40
0.2500000000000006
 40
0.2500000000000006
 40
0.2812500000000006
 40
0.2812500000000006
 40
0.3125000000000007
 40
0.3125000000000007
 40
0.3437500000000006
 40
0.3437500000000006
 40
0.3750000000000006
 40
0.3750000000000006
 40
0.4062500000000006
 40
0.4062500000000006
 40
0.4375000000000005
 40
0.4375000000000005
 40
0.4687500000000005
 40
0.4687500000000005
 40
0.5000000000000004
 40
0.5000000000000004
 40
0.5312500000000004
 40
0.5312500000000004
 40
0.5625000000000003
 40
0.5625000000000003
 40
0.5937500000000003
 40
0.5937500000000003
 40
0.6250000000000003
 40
0.6250000000000003
 40
0.6562500000000002
 40
0.6562500000000002
 40
0.6875000000000002
 40
0.6875000000000002
 40
0.7187500000000002
 40
0.7187500000000002
 40
0.7500000000000001
 40
0.7500000000000001
 40
0.8125000000000002
 40
0.8125000000000002
 40
0.8437500000000002
 40
0.8437500000000002
 40
0.8750000000000001
 40
0.8750000000000001
 40
0.9062500000000001
 40
0.9062500000000001
 40
0.9375000000000001
 40
0.9375000000000001
 40
0.96875
 40
0.96875
 40
1.0
 40
1.0
 40
1.0
 40
1.0
 10
176.6171837222611
 20
120.0011669818527
 30
0.0
 10
176.4499783358148
 20
120.0011669818527
 30
0.0
 10
176.2860009466962
 20
120.0141356648736
 30
0.0
 10
175.9640848163186
 20
120.0649794654724
 30
0.0
 10
175.8044790313631
 20
120.1035525037417
 30
0.0
 10
175.5029113628346
 20
120.2039672181455
 30
0.0
 10
175.3601859962356
 20
120.2655988671874
 30
0.0
 10
175.0900373953963
 20
120.4129279869548
 30
0.0
 10
174.9638615520687
 20
120.4982953401879
 30
0.0
 10
174.6221161313294
 20
120.7832115913827
 30
0.0
 10
174.4365141632083
 20
121.0183773994645
 30
0.0
 10
174.2481089864998
 20
121.4164278409356
 30
0.0
 10
174.1989707572258
 20
121.559465561997
 30
0.0
 10
174.1337977262048
 20
121.8544454954282
 30
0.0
 10
174.1173783891964
 20
122.0057587639906
 30
0.0
 10
174.1169924633053
 20
122.3163106230023
 30
0.0
 10
174.1336025645383
 20
122.4761879841756
 30
0.0
 10
174.1982229073398
 20
122.7882838495897
 30
0.0
 10
174.2462060717509
 20
122.9427960407569
 30
0.0
 10
174.3732716374408
 20
123.2460870150017
 30
0.0
 10
174.4504657166243
 20
123.390573222628
 30
0.0
 10
174.6309409619161
 20
123.6654813283183
 30
0.0
 10
174.7354362468836
 20
123.7969330301922
 30
0.0
 10
174.9639402388017
 20
124.0356828544531
 30
0.0
 10
175.0882295919345
 20
124.1439285148013
 30
0.0
 10
175.3578440710588
 20
124.3369734337809
 30
0.0
 10
175.5029653505266
 20
124.4210795550613
 30
0.0
 10
175.8027074732877
 20
124.5566914796317
 30
0.0
 10
175.9587767151444
 20
124.6093474397146
 30
0.0
 10
176.2845975037912
 20
124.681340305917
 30
0.0
 10
176.4494359426484
 20
124.699400221751
 30
0.0
 10
176.7786234626516
 20
124.6998555868595
 30
0.0
 10
176.9456666034159
 20
124.6818706056204
 30
0.0
 10
177.2697671111281
 20
124.6109992291416
 30
0.0
 10
177.4262836194736
 20
124.558797191624
 30
0.0
 10
177.7288542462299
 20
124.4225505297464
 30
0.0
 10
177.8740152979614
 20
124.3384834108054
 30
0.0
 10
178.1427465359612
 20
124.1466363144295
 30
0.0
 10
178.2686066858764
 20
124.0374591004669
 30
0.0
 10
178.4987991863459
 20
123.79719580066
 30
0.0
 10
178.6012708654552
 20
123.668336868281
 30
0.0
 10
178.7818365814889
 20
123.3941370421435
 30
0.0
 10
178.8605703162537
 20
123.2469344621244
 30
0.0
 10
178.9867533744908
 20
122.9465574171453
 30
0.0
 10
179.034797826013
 20
122.7932189669426
 30
0.0
 10
179.1001766457281
 20
122.4805520625198
 30
0.0
 10
179.1170550624364
 20
122.3205598297219
 30
0.0
 10
179.1174387852912
 20
121.8556797500536
 30
0.0
 10
179.0504745823571
 20
121.5531848290873
 30
0.0
 10
178.8619237348931
 20
121.153207210857
 30
0.0
 10
178.7834080139726
 20
121.0262550407426
 30
0.0
 10
178.6023830888281
 20
120.7948618878187
 30
0.0
 10
178.499854567952
 20
120.6895839390573
 30
0.0
 10
178.2703402145858
 20
120.4980791427049
 30
0.0
 10
178.143959591402
 20
120.412779471275
 30
0.0
 10
177.8758816220154
 20
120.2664728258859
 30
0.0
 10
177.7329849685128
 20
120.2044791617063
 30
0.0
 10
177.4284493122447
 20
120.1030704575534
 30
0.0
 10
177.2720146644142
 20
120.0653644380838
 30
0.0
 10
176.9507244780596
 20
120.0143980832908
 30
0.0
 10
176.7843891087075
 20
120.0011669818527
 30
0.0
 10
176.6171837222612
 20
120.0011669818527
 30
0.0
  0
SPLINE
  5
EF
330
1F
100
AcDbEntity
  8
0
  6
HIDDEN
 62
     7
370
     0
100
AcDbSpline
210
0.0
220
0.0
230
1.0
 70
    11
 71
     3
 72
    66
 73
    62
 74
     0
 42
0.000000001
 43
0.00000001
 40
0.0
 40
0.0
 40
0.0
 40
0.0
 40
0.0312499999999997
 40
0.0312499999999997
 40
0.0624999999999994
 40
0.0624999999999994
 40
0.0937499999999991
 40
0.0937499999999991
 40
0.1249999999999988
 40
0.1249999999999988
 40
0.1562499999999986
 40
0.1562499999999986
 40
0.1874999999999983
 40
0.1874999999999983
 40
0.2187499999999979
 40
0.2187499999999979
 40
0.2343749999999977
 40
0.2343749999999977
 40
0.2499999999999974
 40
0.2499999999999974
 40
0.2812499999999974
 40
0.2812499999999974
 40
0.3124999999999973
 40
0.3124999999999973
 40
0.3749999999999974
 40
0.3749999999999974
 40
0.4374999999999974
 40
0.4374999999999974
 40
0.4687499999999976
 40
0.4687499999999976
 40
0.4999999999999977
 40
0.4999999999999977
 40
0.5312499999999978
 40
0.5312499999999978
 40
0.562499999999998
 40
0.562499999999998
 40
0.5937499999999981
 40
0.5937499999999981
 40
0.6249999999999982
 40
0.6249999999999982
 40
0.6874999999999986
 40
0.6874999999999986
 40
0.7499999999999989
 40
0.7499999999999989
 40
0.781249999999999
 40
0.781249999999999
 40
0.8124999999999992
 40
0.8124999999999992
 40
0.8437499999999993
 40
0.8437499999999993
 40
0.8593749999999996
 40
0.8593749999999996
 40
0.8749999999999997
 40
0.8749999999999997
 40
0.9062499999999998
 40
0.9062499999999998
 40
0.9374999999999998
 40
0.9374999999999998
 40
0.9687499999999999
 40
0.9687499999999999
 40
1.0
 40
1.0
 40
1.0
 40
1.0
 10
174.1982086620415
 20
113.5599373488799
 30
0.0
 10
174.1586183744015
 20
113.7135508685709
 30
0.0
 10
174.13335738372
 20
113.8657942961709
 30
0.0
 10
174.1122124777052
 20
114.1678992129193
 30
0.0
 10
174.1168601897988
 20
114.3183793567612
 30
0.0
 10
174.1555538575844
 20
114.6008236300598
 30
0.0
 10
174.1898508166791
 20
114.7362703250331
 30
0.0
 10
174.2841616026284
 20
114.98541372361
 30
0.0
 10
174.3433081429217
 20
115.0979051406328
 30
0.0
 10
174.4816443276139
 20
115.299072075868
 30
0.0
 10
174.5602808435647
 20
115.3863262320598
 30
0.0
 10
174.7248343955796
 20
115.5285358510091
 30
0.0
 10
174.8127690918413
 20
115.5849987788862
 30
0.0
 10
174.9803476381922
 20
115.6599076944327
 30
0.0
 10
175.0609445149996
 20
115.6787176135438
 30
0.0
 10
175.1557868804611
 20
115.6741497370705
 30
0.0
 10
175.1827111858831
 20
115.6672754815916
 30
0.0
 10
175.2252398609343
 20
115.6431853137654
 30
0.0
 10
175.2407261500065
 20
115.6257776618157
 30
0.0
 10
175.2681504766946
 20
115.5618852855291
 30
0.0
 10
175.2617878731624
 20
115.5027155147962
 30
0.0
 10
175.2191377376269
 20
115.3692957067409
 30
0.0
 10
175.1836421303301
 20
115.2947402959789
 30
0.0
 10
175.0551047831601
 20
115.0523835647071
 30
0.0
 10
174.9439313637212
 20
114.8711915885479
 30
0.0
 10
174.7152055480989
 20
114.4674931455109
 30
0.0
 10
174.5941403644919
 20
114.2414684801978
 30
0.0
 10
174.4260263899396
 20
113.8629367432666
 30
0.0
 10
174.3716861733139
 20
113.7288582390733
 30
0.0
 10
174.2730610990729
 20
113.4466782927229
 30
0.0
 10
174.2290582575108
 20
113.2999796199526
 30
0.0
 10
174.1582718299589
 20
112.98956283856
 30
0.0
 10
174.1330816835032
 20
112.8310584088224
 30
0.0
 10
174.1121677091383
 20
112.5196948342229
 30
0.0
 10
174.1171295508912
 20
112.3719764555937
 30
0.0
 10
174.1553036692491
 20
112.1084744566217
 30
0.0
 10
174.1881399949484
 20
111.9939355375833
 30
0.0
 10
174.2688724572606
 20
111.8029698411147
 30
0.0
 10
174.3169741642024
 20
111.7247861531483
 30
0.0
 10
174.4734165609198
 20
111.5309909752088
 30
0.0
 10
174.5902060206641
 20
111.457215821181
 30
0.0
 10
174.8252629927474
 20
111.3741668644004
 30
0.0
 10
174.9410605797069
 20
111.3670234714847
 30
0.0
 10
175.0917612834157
 20
111.3987974889145
 30
0.0
 10
175.138081071171
 20
111.4166949409131
 30
0.0
 10
175.2141642820313
 20
111.4702944613046
 30
0.0
 10
175.2435504375337
 20
111.505813631869
 30
0.0
 10
175.2670114707616
 20
111.5999230066719
 30
0.0
 10
175.2599718269555
 20
111.6590434804862
 30
0.0
 10
175.2109741300758
 20
111.7689507099037
 30
0.0
 10
175.188121085498
 20
111.8095939352109
 30
0.0
 10
175.1327785678263
 20
111.8959014190649
 30
0.0
 10
175.1001894323991
 20
111.9419429223216
 30
0.0
 10
174.9913909575388
 20
112.0897217305213
 30
0.0
 10
174.9067702358867
 20
112.1981903328395
 30
0.0
 10
174.7365820070821
 20
112.4322371954848
 30
0.0
 10
174.6499519321362
 20
112.5592481602258
 30
0.0
 10
174.4908359307956
 20
112.8249341216987
 30
0.0
 10
174.4165220365067
 20
112.9665110342737
 30
0.0
 10
174.2901932147614
 20
113.2572418600913
 30
0.0
 10
174.2377989496814
 20
113.4063238291889
 30
0.0
 10
174.1982086620415
 20
113.5599373488799
 30
0.0
  0
SPLINE
  5
F0
330
1F
100
AcDbEntity
  8
0
  6
HIDDEN
 62
     7
370
     0
100
AcDbSpline
210
0.0
220
0.0
230
1.0
 70
     8
 71
     3
 72
     9
 73
     5
 74
     0
 42
0.000000001
 43
0.00000001
 40
0.0
 40
0.0
 40
0.0
 40
0.0
 40
0.2399174740240729
 40
0.9999999999999999
 40
0.9999999999999999
 40
0.9999999999999999
 40
0.9999999999999999
 10
203.546025438757
 20
155.0627773799854
 30
0.0
 10
203.6020016414813
 20
155.0527060529406
 30
0.0
 10
203.8353160465784
 20
155.0107277556708
 30
0.0
 10
204.1115320436566
 20
154.9721141525201
 30
0.0
 10
204.3214789964307
 20
154.9427646275003
 30
0.0
  0
CIRCLE
  5
F1
330
1F
100
AcDbEntity
  8
0
  6
HIDDEN
 62
     7
370
     0
100
AcDbCircle
 10
210.3671837223
 20
124.2158981743
 30
0.0
 40
7.25
  0
LINE
  5
F2
330
1F
100
AcDbEntity
  8
0
  6
HIDDEN
 62
     7
370
     0
100
AcDbLine
 10
187.9171837223
 20
124.2158981743
 30
0.0
 11
187.9171837223
 21
106.7158981743
 31
0.0
  0
LINE
  5
F3
330
1F
100
AcDbEntity
  8
0
  6
HIDDEN
 62
     7
370
     0
100
AcDbLine
 10
187.9171837223
 20
141.7158981743
 30
0.0
 11
187.9171837223
 21
124.2158981743
 31
0.0
  0
LINE
  5
F4
330
1F
100
AcDbEntity
  8
0
  6
HIDDEN
 62
     7
370
     0
100
AcDbLine
 10
192.783209126
 20
124.2158981743
 30
0.0
 11
192.783209126
 21
106.2158981743
 31
0.0
  0
LINE
  5
F5
330
1F
100
AcDbEntity
  8
0
  6
HIDDEN
 62
     7
370
     0
100
AcDbLine
 10
192.783209126
 20
142.2158981743
 30
0.0
 11
192.783209126
 21
124.2158981743
 31
0.0
  0
SPLINE
  5
F6
330
1F
100
AcDbEntity
  8
0
  6
HIDDEN
 62
     7
370
     0
100
AcDbSpline
210
0.0
220
0.0
230
1.0
 70
     8
 71
     3
 72
    23
 73
    19
 74
     0
 42
0.000000001
 43
0.00000001
 40
0.0
 40
0.0
 40
0.0
 40
0.0
 40
0.0497359477789266
 40
0.1510124615330786
 40
0.2026638815750375
 40
0.2523947959594953
 40
0.3534147055595922
 40
0.4047844262555707
 40
0.4571273302682687
 40
0.5634538493094191
 40
0.6175552273955073
 40
0.6718371586724821
 40
0.7265188718079891
 40
0.7825084014217648
 40
0.8389725494345855
 40
0.8905493605185478
 40
0.9956595043271332
 40
1.0
 40
1.0
 40
1.0
 40
1.0
 10
210.3671837222612
 20
140.6912585648859
 30
0.0
 10
210.5579472300495
 20
140.6932582761588
 30
0.0
 10
211.137159412953
 20
140.6993299674636
 30
0.0
 10
211.9072336078339
 20
140.755942003897
 30
0.0
 10
212.6498113535774
 20
140.8456199295153
 30
0.0
 10
213.3695585204448
 20
140.9562556755067
 30
0.0
 10
214.0504001971711
 20
141.0928270842348
 30
0.0
 10
214.6876741701289
 20
141.2463214456068
 30
0.0
 10
215.3025839060083
 20
141.4103033360211
 30
0.0
 10
215.8610548851451
 20
141.5802693797641
 30
0.0
 10
216.3468798083418
 20
141.7418450877542
 30
0.0
 10
216.674143141036
 20
141.856421624584
 30
0.0
 10
216.9601248927966
 20
141.9608827954501
 30
0.0
 10
217.2006132476982
 20
142.0518139186692
 30
0.0
 10
217.3864987501824
 20
142.1240449695762
 30
0.0
 10
217.5561370253614
 20
142.1911815326051
 30
0.0
 10
217.6317393313927
 20
142.2217546981384
 30
0.0
 10
217.6158580836184
 20
142.2153648975147
 30
0.0
 10
217.6152282792831
 20
142.2151114965105
 30
0.0
  0
LINE
  5
F7
330
1F
100
AcDbEntity
  8
0
  6
HIDDEN
 62
     7
370
     0
100
AcDbLine
 10
211.0235575359
 20
140.7070445751
 30
0.0
 11
209.9599772121
 21
140.6979298357
 31
0.0
  0
SPLINE
  5
F8
330
1F
100
AcDbEntity
  8
0
  6
HIDDEN
 62
     7
370
     0
100
AcDbSpline
210
0.0
220
0.0
230
1.0
 70
     8
 71
     3
 72
    23
 73
    19
 74
     0
 42
0.000000001
 43
0.00000001
 40
0.0
 40
0.0
 40
0.0
 40
0.0
 40
0.0802191082626968
 40
0.1322505691329585
 40
0.18087511148034
 40
0.2796658826253344
 40
0.3299163214491381
 40
0.3807452564531505
 40
0.4839481610560548
 40
0.5364147163657232
 40
0.590347769606472
 40
0.6446519936221443
 40
0.7001532766477496
 40
0.7560852910727214
 40
0.809322241132522
 40
0.9178817758516765
 40
0.9733988521214004
 40
1.0
 40
1.0
 40
1.0
 40
1.0
 10
203.1331359316417
 20
142.2094905285066
 30
0.0
 10
203.1371667312081
 20
142.2078428080788
 30
0.0
 10
203.1438119750691
 20
142.2051263485086
 30
0.0
 10
203.2673090773128
 20
142.1558342744352
 30
0.0
 10
203.4527617337465
 20
142.0829644146095
 30
0.0
 10
203.7229943691653
 20
141.9793991855742
 30
0.0
 10
204.0733679812565
 20
141.8518279380193
 30
0.0
 10
204.4832714245437
 20
141.7083733116231
 30
0.0
 10
204.9739581078051
 20
141.548150391061
 30
0.0
 10
205.5395740645477
 20
141.3822014470322
 30
0.0
 10
206.0067877602986
 20
141.2563315259255
 30
0.0
 10
206.5147529590967
 20
141.1330908715012
 30
0.0
 10
207.0587634319436
 20
141.0171333216447
 30
0.0
 10
207.6260811264538
 20
140.9145258739903
 30
0.0
 10
208.4053703226463
 20
140.7996231666878
 30
0.0
 10
209.2212192385734
 20
140.7222617241381
 30
0.0
 10
209.9502027460741
 20
140.6936205687594
 30
0.0
 10
210.2651579985717
 20
140.6918364933007
 30
0.0
 10
210.3671837222612
 20
140.6912585648859
 30
0.0
  0
LINE
  5
F9
330
1F
100
AcDbEntity
  8
0
  6
HIDDEN
 62
     7
370
     0
100
AcDbLine
 10
156.4171837223
 20
159.5158981743
 30
0.0
 11
156.5887565975
 21
159.5158981743
 31
0.0
  0
ELLIPSE
  5
FA
330
1F
100
AcDbEntity
  8
0
  6
HIDDEN
 62
     7
370
     0
100
AcDbEllipse
 10
156.5887565975
 20
161.5158981743
 30
0.0
 11
0.0
 21
2.0
 31
0.0
210
0.0
220
0.0
230
1.0
 40
0.4142135624
 41
3.141592653589793
 42
4.712388980384695
  0
ELLIPSE
  5
FB
330
1F
100
AcDbEntity
  8
0
  6
HIDDEN
 62
     7
370
     0
100
AcDbEllipse
 10
156.5887565975
 20
86.9158981743
 30
0.0
 11
0.0
 21
2.0
 31
0.0
210
0.0
220
0.0
230
1.0
 40
0.4142135624
 41
4.712388980384695
 42
6.283185307179586
  0
LINE
  5
FC
330
1F
100
AcDbEntity
  8
0
  6
HIDDEN
 62
     7
370
     0
100
AcDbLine
 10
156.5887565975
 20
88.9158981743
 30
0.0
 11
156.4171837223
 21
88.9158981743
 31
0.0
  0
LINE
  5
FD
330
1F
100
AcDbEntity
  8
0
  6
HIDDEN
 62
     7
370
     0
100
AcDbLine
 10
157.4171837223
 20
76.8953280204
 30
0.0
 11
156.8033201423
 21
76.2814644404
 31
0.0
  0
LINE
  5
FE
330
1F
100
AcDbEntity
  8
0
  6
HIDDEN
 62
     7
370
     0
100
AcDbLine
 10
156.8033201423
 20
172.1503319082
 30
0.0
 11
157.4171837223
 21
171.5364683282
 31
0.0
  0
LINE
  5
FF
330
1F
100
AcDbEntity
  8
0
  6
HIDDEN
 62
     7
370
     0
100
AcDbLine
 10
169.6497527588
 20
76.8953280204
 30
0.0
 11
157.4171837223
 21
76.8953280204
 31
0.0
  0
LINE
  5
100
330
1F
100
AcDbEntity
  8
0
  6
HIDDEN
 62
     7
370
     0
100
AcDbLine
 10
157.4171837223
 20
76.8953280204
 30
0.0
 11
157.4171837223
 21
86.9158981743
 31
0.0
  0
LINE
  5
101
330
1F
100
AcDbEntity
  8
0
  6
HIDDEN
 62
     7
370
     0
100
AcDbLine
 10
173.5671837223
 20
159.5158981743
 30
0.0
 11
184.4171837223
 21
159.5158981743
 31
0.0
  0
LINE
  5
102
330
1F
100
AcDbEntity
  8
0
  6
HIDDEN
 62
     7
370
     0
100
AcDbLine
 10
156.5887565975
 20
159.5158981743
 30
0.0
 11
173.5671837223
 21
159.5158981743
 31
0.0
  0
SPLINE
  5
103
330
1F
100
AcDbEntity
  8
0
  6
HIDDEN
 62
     7
370
     0
100
AcDbSpline
210
0.0
220
0.0
230
1.0
 70
     8
 71
     3
 72
    14
 73
    10
 74
     0
 42
0.000000001
 43
0.00000001
 40
0.0
 40
0.0
 40
0.0
 40
0.0
 40
0.1878282877378226
 40
0.3545816312771876
 40
0.500302431933891
 40
0.6713282049362227
 40
0.837642206038437
 40
0.9994166164999645
 40
1.0
 40
1.0
 40
1.0
 40
1.0
 10
183.5014834591479
 20
172.4219197762326
 30
0.0
 10
183.8344863814949
 20
172.5034677136842
 30
0.0
 10
184.4631282162685
 20
172.6574136450301
 30
0.0
 10
185.1625647881963
 20
172.8483923631472
 30
0.0
 10
185.7104418876856
 20
173.0057646502167
 30
0.0
 10
186.1165574818303
 20
173.1240900862381
 30
0.0
 10
186.3496853745123
 20
173.194467100857
 30
0.0
 10
186.4436747610952
 20
173.2241014521304
 30
0.0
 10
186.416991867956
 20
173.2158389265296
 30
0.0
 10
186.4168959910707
 20
173.2158092376493
 30
0.0
  0
LINE
  5
104
330
1F
100
AcDbEntity
  8
0
  6
HIDDEN
 62
     7
370
     0
100
AcDbLine
 10
184.0008176679
 20
172.5462337753
 30
0.0
 11
183.5014791708
 21
172.4219644306
 31
0.0
  0
LINE
  5
105
330
1F
100
AcDbEntity
  8
0
  6
HIDDEN
 62
     7
370
     0
100
AcDbLine
 10
157.4171837223
 20
171.5364683282
 30
0.0
 11
169.6497527588
 21
171.5364683282
 31
0.0
  0
LINE
  5
106
330
1F
100
AcDbEntity
  8
0
  6
HIDDEN
 62
     7
370
     0
100
AcDbLine
 10
157.4171837223
 20
171.5364683282
 30
0.0
 11
157.4171837223
 21
161.5158981743
 31
0.0
  0
SPLINE
  5
107
330
1F
100
AcDbEntity
  8
0
  6
HIDDEN
 62
     7
370
     0
100
AcDbSpline
210
0.0
220
0.0
230
1.0
 70
     8
 71
     3
 72
    13
 73
     9
 74
     0
 42
0.000000001
 43
0.00000001
 40
0.0
 40
0.0
 40
0.0
 40
0.0
 40
0.0005825290635634
 40
0.1623661983695077
 40
0.328738549447489
 40
0.499871825213266
 40
0.7262528256364211
 40
1.0
 40
1.0
 40
1.0
 40
1.0
 10
186.4167495648674
 20
75.21603098094978
 30
0.0
 10
186.4168943509023
 20
75.21598663875648
 30
0.0
 10
186.4572500336259
 20
75.20362730116447
 30
0.0
 10
186.3430954267289
 20
75.23925638716403
 30
0.0
 10
186.1189783190414
 20
75.30710435007491
 30
0.0
 10
185.639669428052
 20
75.44619752422818
 30
0.0
 10
184.8461617704019
 20
75.67644410499497
 30
0.0
 10
183.9771438979226
 20
75.89192967575941
 30
0.0
 10
183.5014834591479
 20
76.00987657234857
 30
0.0
  0
LINE
  5
108
330
1F
100
AcDbEntity
  8
0
  6
HIDDEN
 62
     7
370
     0
100
AcDbLine
 10
173.5671837223
 20
88.9158981743
 30
0.0
 11
156.5887565975
 21
88.9158981743
 31
0.0
  0
LINE
  5
109
330
1F
100
AcDbEntity
  8
0
  6
HIDDEN
 62
     7
370
     0
100
AcDbLine
 10
184.4171837223
 20
88.9158981743
 30
0.0
 11
173.5671837223
 21
88.9158981743
 31
0.0
  0
LINE
  5
10A
330
1F
100
AcDbEntity
  8
0
  6
HIDDEN
 62
     7
370
     0
100
AcDbLine
 10
61.6171837223
 20
111.7158981743
 30
0.0
 11
61.6171837223
 21
136.7158981743
 31
0.0
  0
LINE
  5
10B
330
1F
100
AcDbEntity
  8
0
  6
HIDDEN
 62
     7
370
     0
100
AcDbLine
 10
64.9017880712
 20
113.7158981743
 30
0.0
 11
64.9017880712
 21
134.7158981743
 31
0.0
  0
LINE
  5
10C
330
1F
100
AcDbEntity
  8
0
  6
HIDDEN
 62
     7
370
     0
100
AcDbLine
 10
117.3210565079
 20
118.2158981743
 30
0.0
 11
117.3210565079
 21
130.2158981743
 31
0.0
  0
LINE
  5
10D
330
1F
100
AcDbEntity
  8
0
  6
HIDDEN
 62
     7
370
     0
100
AcDbLine
 10
114.6171837223
 20
113.7158981743
 30
0.0
 11
114.6171837223
 21
134.7158981743
 31
0.0
  0
LINE
  5
10E
330
1F
100
AcDbEntity
  8
0
  6
HIDDEN
 62
     7
370
     0
100
AcDbLine
 10
210.3671837223
 20
152.9658981743
 30
0.0
 11
217.6171837223
 21
152.9658981743
 31
0.0
  0
LINE
  5
10F
330
1F
100
AcDbEntity
  8
0
  6
HIDDEN
 62
     7
370
     0
100
AcDbLine
 10
203.1171837223
 20
152.9658981743
 30
0.0
 11
210.3671837223
 21
152.9658981743
 31
0.0
  0
SPLINE
  5
110
330
1F
100
AcDbEntity
  8
0
  6
HIDDEN
 62
     7
370
     0
100
AcDbSpline
210
0.0
220
0.0
230
1.0
 70
     8
 71
     3
 72
     9
 73
     5
 74
     0
 42
0.000000001
 43
0.00000001
 40
0.0
 40
0.0
 40
0.0
 40
0.0
 40
0.4951995007203773
 40
1.0
 40
1.0
 40
1.0
 40
1.0
 10
183.5014679366982
 20
172.4219103387033
 30
0.0
 10
183.6066641584229
 20
172.579066098956
 30
0.0
 10
183.819096161225
 20
172.8964245777593
 30
0.0
 10
184.0338145447392
 20
173.2150511258623
 30
0.0
 10
184.1422044919417
 20
173.3758939664284
 30
0.0
  0
SPLINE
  5
111
330
1F
100
AcDbEntity
  8
0
  6
HIDDEN
 62
     7
370
     0
100
AcDbSpline
210
0.0
220
0.0
230
1.0
 70
     8
 71
     3
 72
     9
 73
     5
 74
     0
 42
0.000000001
 43
0.00000001
 40
0.0
 40
0.0
 40
0.0
 40
0.0
 40
0.5048004990382029
 40
1.0
 40
1.0
 40
1.0
 40
1.0
 10
184.1422044919418
 20
75.05590238215275
 30
0.0
 10
184.033814544794
 20
75.21674522263521
 30
0.0
 10
183.8190961612855
 20
75.53537177072486
 30
0.0
 10
183.6066641584772
 20
75.8527302495417
 30
0.0
 10
183.5014679366982
 20
76.00988600987779
 30
0.0
  0
SPLINE
  5
112
330
1F
100
AcDbEntity
  8
0
  6
HIDDEN
 62
     7
370
     0
100
AcDbSpline
210
0.0
220
0.0
230
1.0
 70
    11
 71
     3
 72
    66
 73
    62
 74
     0
 42
0.000000001
 43
0.00000001
 40
0.0
 40
0.0
 40
0.0
 40
0.0
 40
0.0312500000000002
 40
0.0312500000000002
 40
0.0625000000000004
 40
0.0625000000000004
 40
0.0937500000000007
 40
0.0937500000000007
 40
0.1250000000000009
 40
0.1250000000000009
 40
0.1875000000000009
 40
0.1875000000000009
 40
0.2187500000000008
 40
0.2187500000000008
 40
0.2500000000000008
 40
0.2500000000000008
 40
0.2812500000000008
 40
0.2812500000000008
 40
0.3125000000000008
 40
0.3125000000000008
 40
0.3437500000000008
 40
0.3437500000000008
 40
0.3750000000000008
 40
0.3750000000000008
 40
0.4062500000000008
 40
0.4062500000000008
 40
0.4375000000000008
 40
0.4375000000000008
 40
0.4687500000000008
 40
0.4687500000000008
 40
0.5000000000000008
 40
0.5000000000000008
 40
0.5312500000000008
 40
0.5312500000000008
 40
0.5625000000000008
 40
0.5625000000000008
 40
0.5937500000000008
 40
0.5937500000000008
 40
0.6250000000000008
 40
0.6250000000000008
 40
0.6562500000000008
 40
0.6562500000000008
 40
0.6875000000000008
 40
0.6875000000000008
 40
0.7187500000000008
 40
0.7187500000000008
 40
0.7500000000000008
 40
0.7500000000000008
 40
0.8125000000000008
 40
0.8125000000000008
 40
0.8437500000000007
 40
0.8437500000000007
 40
0.8750000000000006
 40
0.8750000000000006
 40
0.9062500000000004
 40
0.9062500000000004
 40
0.9375000000000003
 40
0.9375000000000003
 40
0.9687500000000002
 40
0.9687500000000002
 40
1.0
 40
1.0
 40
1.0
 40
1.0
 10
176.6171837222612
 20
123.7321662627989
 30
0.0
 10
176.7843891087074
 20
123.7321662627989
 30
0.0
 10
176.9483664978261
 20
123.7503975084492
 30
0.0
 10
177.2702826282037
 20
123.8210296618703
 30
0.0
 10
177.4298884131592
 20
123.8743732806016
 30
0.0
 10
177.7314560816877
 20
124.0106717009109
 30
0.0
 10
177.8741814482867
 20
124.0933476128686
 30
0.0
 10
178.144330049126
 20
124.286374988294
 30
0.0
 10
178.2705058924536
 20
124.3962285789764
 30
0.0
 10
178.612251313193
 20
124.7531989375864
 30
0.0
 10
178.7978532813141
 20
125.0357347795504
 30
0.0
 10
178.9862584580225
 20
125.4839760289101
 30
0.0
 10
179.0353966872966
 20
125.6406628488077
 30
0.0
 10
179.1005697183175
 20
125.9539145419749
 30
0.0
 10
179.1169890553259
 20
126.1099450005855
 30
0.0
 10
179.1173749812171
 20
126.4206068548925
 30
0.0
 10
179.100764879984
 20
126.5757132062898
 30
0.0
 10
179.0361445371825
 20
126.8696893625225
 30
0.0
 10
178.9881613727714
 20
127.0108585238625
 30
0.0
 10
178.8610958070815
 20
127.2802848653502
 30
0.0
 10
178.783901727898
 20
127.4047623874224
 30
0.0
 10
178.6034264826062
 20
127.6357473366263
 30
0.0
 10
178.4989311976387
 20
127.7430309847517
 30
0.0
 10
178.2704272057207
 20
127.9335963217323
 30
0.0
 10
178.1461378525878
 20
128.0177134752023
 30
0.0
 10
177.8765233734636
 20
128.1650866783413
 30
0.0
 10
177.7314020939957
 20
128.2277930716401
 30
0.0
 10
177.4316599712346
 20
128.3277076856649
 30
0.0
 10
177.2755907293779
 20
128.3657923523675
 30
0.0
 10
176.9497699407311
 20
128.4176213904984
 30
0.0
 10
176.7849315018738
 20
128.4304652317152
 30
0.0
 10
176.4557439818707
 20
128.4307903863634
 30
0.0
 10
176.2887008411064
 20
128.4179989251018
 30
0.0
 10
175.9646003333942
 20
128.3669856168524
 30
0.0
 10
175.8080838250487
 20
128.3292458439134
 30
0.0
 10
175.5055131982924
 20
128.2288897602959
 30
0.0
 10
175.3603521465609
 20
128.1662175053835
 30
0.0
 10
175.0916209085612
 20
128.0198020816408
 30
0.0
 10
174.9657607586459
 20
127.9350008599291
 30
0.0
 10
174.7355682581764
 20
127.7432538369807
 30
0.0
 10
174.6330965790671
 20
127.6380979895636
 30
0.0
 10
174.4525308630334
 20
127.4078043217599
 30
0.0
 10
174.3737971282686
 20
127.2809982840699
 30
0.0
 10
174.2476140700315
 20
127.0142387201212
 30
0.0
 10
174.1995696185093
 20
126.8742499132907
 30
0.0
 10
174.1341907987942
 20
126.5799093766633
 30
0.0
 10
174.1173123820859
 20
126.4247648794293
 30
0.0
 10
174.1169286592311
 20
125.9599941671886
 30
0.0
 10
174.1838928621652
 20
125.6378563882695
 30
0.0
 10
174.3724437096292
 20
125.1876248203843
 30
0.0
 10
174.4509594305497
 20
125.040316956506
 30
0.0
 10
174.6319843556942
 20
124.7648811120938
 30
0.0
 10
174.7345128765704
 20
124.6358817947165
 30
0.0
 10
174.9640272299366
 20
124.3959690944956
 30
0.0
 10
175.0904078531203
 20
124.2861739977819
 30
0.0
 10
175.3584858225069
 20
124.0944990311851
 30
0.0
 10
175.5013824760096
 20
124.011366386359
 30
0.0
 10
175.8059181322776
 20
123.8737191764432
 30
0.0
 10
175.9623527801081
 20
123.8215620629324
 30
0.0
 10
176.2836429664627
 20
123.7507644319861
 30
0.0
 10
176.4499783358149
 20
123.7321662627989
 30
0.0
 10
176.6171837222612
 20
123.7321662627989
 30
0.0
  0
SPLINE
  5
113
330
1F
100
AcDbEntity
  8
0
  6
HIDDEN
 62
     7
370
     0
100
AcDbSpline
210
0.0
220
0.0
230
1.0
 70
    11
 71
     3
 72
    66
 73
    62
 74
     0
 42
0.000000001
 43
0.00000001
 40
0.0
 40
0.0
 40
0.0
 40
0.0
 40
0.0312499999999998
 40
0.0312499999999998
 40
0.0624999999999996
 40
0.0624999999999996
 40
0.0937499999999994
 40
0.0937499999999994
 40
0.1249999999999991
 40
0.1249999999999991
 40
0.1562499999999989
 40
0.1562499999999989
 40
0.1874999999999987
 40
0.1874999999999987
 40
0.2187499999999985
 40
0.2187499999999985
 40
0.2499999999999983
 40
0.2499999999999983
 40
0.2812499999999981
 40
0.2812499999999981
 40
0.3124999999999978
 40
0.3124999999999978
 40
0.3437499999999976
 40
0.3437499999999976
 40
0.3749999999999974
 40
0.3749999999999974
 40
0.4062499999999972
 40
0.4062499999999972
 40
0.437499999999997
 40
0.437499999999997
 40
0.4687499999999968
 40
0.4687499999999968
 40
0.4999999999999966
 40
0.4999999999999966
 40
0.5312499999999963
 40
0.5312499999999963
 40
0.5624999999999961
 40
0.5624999999999961
 40
0.6249999999999959
 40
0.6249999999999959
 40
0.6562499999999962
 40
0.6562499999999962
 40
0.6874999999999966
 40
0.6874999999999966
 40
0.7187499999999969
 40
0.7187499999999969
 40
0.7499999999999972
 40
0.7499999999999972
 40
0.7812499999999977
 40
0.7812499999999977
 40
0.812499999999998
 40
0.812499999999998
 40
0.8437499999999983
 40
0.8437499999999983
 40
0.8749999999999987
 40
0.8749999999999987
 40
0.906249999999999
 40
0.906249999999999
 40
0.9374999999999993
 40
0.9374999999999993
 40
1.0
 40
1.0
 40
1.0
 40
1.0
 10
176.6171837222612
 20
136.3773523812044
 30
0.0
 10
176.4519834315973
 20
136.3773523812044
 30
0.0
 10
176.2895508903007
 20
136.3929179724863
 30
0.0
 10
175.9699927347107
 20
136.4538642443159
 30
0.0
 10
175.8112093967337
 20
136.4999862883012
 30
0.0
 10
175.5084713802543
 20
136.6202494758892
 30
0.0
 10
175.36489221512
 20
136.6937931253099
 30
0.0
 10
175.093162485252
 20
136.8673100482422
 30
0.0
 10
174.9645339217142
 20
136.9681827050288
 30
0.0
 10
174.7339681600471
 20
137.188167493927
 30
0.0
 10
174.6304941587977
 20
137.3080466575158
 30
0.0
 10
174.4477336208719
 20
137.5678880241133
 30
0.0
 10
174.3700893646433
 20
137.7059774546856
 30
0.0
 10
174.2453967139532
 20
137.9909598869337
 30
0.0
 10
174.1973927333748
 20
138.1399549962762
 30
0.0
 10
174.1331609910565
 20
138.4444800836709
 30
0.0
 10
174.1172715470143
 20
138.5972494311074
 30
0.0
 10
174.1170966166591
 20
138.9037391127214
 30
0.0
 10
174.133327267994
 20
139.0590658830165
 30
0.0
 10
174.1971084907036
 20
139.359128088915
 30
0.0
 10
174.2443006020999
 20
139.5046628014142
 30
0.0
 10
174.3694672197578
 20
139.7867960817361
 30
0.0
 10
174.4477267071329
 20
139.9229359230908
 30
0.0
 10
174.6286468904882
 20
140.1744724728603
 30
0.0
 10
174.7319321194121
 20
140.2914993167036
 30
0.0
 10
174.9651838614608
 20
140.5075746103251
 30
0.0
 10
175.0915977297264
 20
140.6032785342105
 30
0.0
 10
175.362270000421
 20
140.7704315309821
 30
0.0
 10
175.5083517725853
 20
140.8425927166051
 30
0.0
 10
175.8112362180581
 20
140.9582467585616
 30
0.0
 10
175.9670665776979
 20
141.0017795657443
 30
0.0
 10
176.2874120669633
 20
141.0606754686777
 30
0.0
 10
176.453122152935
 20
141.0757615716976
 30
0.0
 10
176.7794535416314
 20
141.0758691033644
 30
0.0
 10
176.9416406274584
 20
141.0613784461747
 30
0.0
 10
177.2640162086669
 20
141.0026503818975
 30
0.0
 10
177.4220316827045
 20
140.9585195747682
 30
0.0
 10
177.87344255778
 20
140.7865899761702
 30
0.0
 10
178.1525220148322
 20
140.6150162834992
 30
0.0
 10
178.4985957193306
 20
140.2953654651329
 30
0.0
 10
178.6042377352452
 20
140.1763243357445
 30
0.0
 10
178.7860212112161
 20
139.9240045748861
 30
0.0
 10
178.8629090346
 20
139.7905402635147
 30
0.0
 10
178.9885635919703
 20
139.5087748509624
 30
0.0
 10
179.036871667885
 20
139.3603541193314
 30
0.0
 10
179.1006895533254
 20
139.0613045215548
 30
0.0
 10
179.1170177303682
 20
138.9091014516875
 30
0.0
 10
179.1173472204279
 20
138.5990995928478
 30
0.0
 10
179.1012507085932
 20
138.4455769257498
 30
0.0
 10
179.038021971332
 20
138.1440482081707
 30
0.0
 10
178.9901853779215
 20
137.9941133828689
 30
0.0
 10
178.864842060008
 20
137.706894286778
 30
0.0
 10
178.7881453854829
 20
137.5705153724618
 30
0.0
 10
178.6070940188311
 20
137.3121598144476
 30
0.0
 10
178.5016184084702
 20
137.1894846380732
 30
0.0
 10
178.2710918397939
 20
136.9692309540212
 30
0.0
 10
178.1453724021637
 20
136.8703053825874
 30
0.0
 10
177.8726055529668
 20
136.6954667016657
 30
0.0
 10
177.7268861765608
 20
136.6207898566853
 30
0.0
 10
177.2758170714527
 20
136.4411636411926
 30
0.0
 10
176.947584303589
 20
136.3773523812044
 30
0.0
 10
176.6171837222612
 20
136.3773523812044
 30
0.0
  0
SPLINE
  5
114
330
1F
100
AcDbEntity
  8
0
  6
HIDDEN
 62
     7
370
     0
100
AcDbSpline
210
0.0
220
0.0
230
1.0
 70
    11
 71
     3
 72
    60
 73
    56
 74
     0
 42
0.000000001
 43
0.00000001
 40
0.0
 40
0.0
 40
0.0
 40
0.0
 40
0.0312500000000003
 40
0.0312500000000003
 40
0.0625000000000005
 40
0.0625000000000005
 40
0.0937500000000008
 40
0.0937500000000008
 40
0.1250000000000011
 40
0.1250000000000011
 40
0.1562500000000013
 40
0.1562500000000013
 40
0.1875000000000016
 40
0.1875000000000016
 40
0.2187500000000018
 40
0.2187500000000018
 40
0.2500000000000021
 40
0.2500000000000021
 40
0.312500000000003
 40
0.312500000000003
 40
0.3750000000000038
 40
0.3750000000000038
 40
0.4062500000000038
 40
0.4062500000000038
 40
0.4375000000000038
 40
0.4375000000000038
 40
0.4531250000000038
 40
0.4531250000000038
 40
0.4687500000000037
 40
0.4687500000000037
 40
0.500000000000003
 40
0.500000000000003
 40
0.5625000000000027
 40
0.5625000000000027
 40
0.6250000000000021
 40
0.6250000000000021
 40
0.6875000000000017
 40
0.6875000000000017
 40
0.7187500000000016
 40
0.7187500000000016
 40
0.7500000000000013
 40
0.7500000000000013
 40
0.7812500000000011
 40
0.7812500000000011
 40
0.812500000000001
 40
0.812500000000001
 40
0.8437500000000008
 40
0.8437500000000008
 40
0.8750000000000006
 40
0.8750000000000006
 40
0.9062500000000004
 40
0.9062500000000004
 40
0.9375000000000002
 40
0.9375000000000002
 40
1.0
 40
1.0
 40
1.0
 40
1.0
 10
174.1982086620415
 20
133.6853733745677
 30
0.0
 10
174.2377987448883
 20
133.5538928432137
 30
0.0
 10
174.2901103658084
 20
133.434708992534
 30
0.0
 10
174.415830471411
 20
133.2195155052061
 30
0.0
 10
174.4902535018552
 20
133.1229275995979
 30
0.0
 10
174.6489638100482
 20
132.9623666878428
 30
0.0
 10
174.7338424098537
 20
132.8970874511408
 30
0.0
 10
174.9056156293956
 20
132.7995852765836
 30
0.0
 10
174.9896258656916
 20
132.7691101797864
 30
0.0
 10
175.1350217889702
 20
132.7493612114289
 30
0.0
 10
175.1932880374795
 20
132.7611377609251
 30
0.0
 10
175.2598927622895
 20
132.8255581037085
 30
0.0
 10
175.2670536466873
 20
132.8762712417883
 30
0.0
 10
175.2439083273051
 20
132.9992947541633
 30
0.0
 10
175.2150002413355
 20
133.0697659804486
 30
0.0
 10
175.1395794834903
 20
133.223387643113
 30
0.0
 10
175.0926340107139
 20
133.307022911297
 30
0.0
 10
174.9409921190925
 20
133.5704031503071
 30
0.0
 10
174.8250649818293
 20
133.7639520757307
 30
0.0
 10
174.5914394108469
 20
134.2008215476266
 30
0.0
 10
174.4727566441451
 20
134.443826681814
 30
0.0
 10
174.3162853351894
 20
134.8549012203437
 30
0.0
 10
174.2682986866373
 20
134.998572785827
 30
0.0
 10
174.1876896768471
 20
135.299035713786
 30
0.0
 10
174.1549901479519
 20
135.4575349680603
 30
0.0
 10
174.126569538608
 20
135.6927454898896
 30
0.0
 10
174.1204234666344
 20
135.7719930976861
 30
0.0
 10
174.1159452648696
 20
135.9236706681455
 30
0.0
 10
174.1174614752817
 20
135.9968787404539
 30
0.0
 10
174.1332244149582
 20
136.2086344716809
 30
0.0
 10
174.1586984696436
 20
136.3345326175424
 30
0.0
 10
174.2650632133924
 20
136.6562629835615
 30
0.0
 10
174.370941242663
 20
136.7942766999216
 30
0.0
 10
174.594111463608
 20
136.9800885510518
 30
0.0
 10
174.7149978957352
 20
137.029012585808
 30
0.0
 10
174.944080369417
 20
137.065063911599
 30
0.0
 10
175.0542431876674
 20
137.0531857283973
 30
0.0
 10
175.1822263550185
 20
136.9885781668478
 30
0.0
 10
175.218567700431
 20
136.9585709530844
 30
0.0
 10
175.2616577035911
 20
136.8780428295345
 30
0.0
 10
175.268142512193
 20
136.8264624122827
 30
0.0
 10
175.2321017594921
 20
136.696915202657
 30
0.0
 10
175.1878825443669
 20
136.6170563781636
 30
0.0
 10
175.0622325695547
 20
136.4349269028586
 30
0.0
 10
174.9811084380733
 20
136.3308744628385
 30
0.0
 10
174.8141630679789
 20
136.1079105671592
 30
0.0
 10
174.726274903249
 20
135.9861071851139
 30
0.0
 10
174.560635406
 20
135.7285459620543
 30
0.0
 10
174.4826893178625
 20
135.5930671017404
 30
0.0
 10
174.343433584191
 20
135.3063127803923
 30
0.0
 10
174.2844078652919
 20
135.1598607425013
 30
0.0
 10
174.1906229115887
 20
134.8596160125993
 30
0.0
 10
174.1558098534792
 20
134.7039141564741
 30
0.0
 10
174.0974922488026
 20
134.2481511692124
 30
0.0
 10
174.1190284963478
 20
133.9483344372756
 30
0.0
 10
174.1982086620414
 20
133.6853733745677
 30
0.0
  0
LWPOLYLINE
  5
115
330
1F
100
AcDbEntity
  8
0
  6
HIDDEN
 62
     7
370
     0
100
AcDbPolyline
 90
       20
 70
   128
 43
0.0
 10
157.3994414228
 20
137.0025490335
 10
157.5561955644
 20
136.5164457035
 10
157.8044833357
 20
136.2115933397
 10
158.1173989042
 20
136.121027426
 10
158.4610330126
 20
136.2545621844
 10
158.7981475732
 20
136.5977270518
 10
159.0922109925
 20
137.11333479
 10
159.3113569362
 20
137.7455113003
 10
159.4318375408
 20
138.4257504484
 10
159.4405968635
 20
139.0803377676
 10
159.3366856956
 20
139.638338565
 10
159.1313644246
 20
140.0392847959
 10
158.8468827961
 20
140.2397277148
 10
158.5140688086
 20
140.2179462213
 10
158.168988022
 20
139.9763006781
 10
157.8490352938
 20
139.5409771295
 10
157.5888824669
 20
138.9591496366
 10
157.4167211366
 20
138.2938682363
 10
157.3512076544
 20
137.6172264912
 10
157.3994414228
 20
137.0025490335
  0
LWPOLYLINE
  5
116
330
1F
100
AcDbEntity
  8
0
  6
HIDDEN
 62
     7
370
     0
100
AcDbPolyline
 90
       23
 70
   128
 43
0.0
 10
156.6865708341
 20
136.5500735124
 10
156.87156515
 20
135.9365060953
 10
157.1574720747
 20
135.5099634171
 10
157.5211291294
 20
135.3050014289
 10
157.9330749824
 20
135.3382249319
 10
158.3599362305
 20
135.6069423555
 10
158.7671311141
 20
136.0893838122
 10
159.1216711254
 20
136.7464647644
 10
159.3948335413
 20
137.5249524211
 10
159.5644883672
 20
138.3617783423
 10
159.6168911783
 20
139.1891478685
 10
159.5477966104
 20
139.9400324414
 10
159.3628022945
 20
140.5535998584
 10
159.0768953698
 20
140.9801425366
 10
158.7132383151
 20
141.1851045249
 10
158.3012924621
 20
141.1518810219
 10
157.874431214
 20
140.8831635983
 10
157.4672363304
 20
140.4007221415
 10
157.1126963191
 20
139.7436411893
 10
156.8395339033
 20
138.9651535326
 10
156.6698790773
 20
138.1283276115
 10
156.6174762662
 20
137.3009580853
 10
156.6865708341
 20
136.5500735124
  0
LWPOLYLINE
  5
117
330
1F
100
AcDbEntity
  8
0
  6
HIDDEN
 62
     7
370
     0
100
AcDbPolyline
 90
       21
 70
   128
 43
0.0
 10
158.207069816
 20
112.4252959139
 10
157.8258422694
 20
112.5911674029
 10
157.4731332541
 20
112.5216771151
 10
157.183468386
 20
112.223627244
 10
156.9852020805
 20
111.7261929878
 10
156.8977420252
 20
111.0780666771
 10
156.9296494194
 20
110.3426914311
 10
157.0778009453
 20
109.5920509024
 10
157.3276944992
 20
108.8996230162
 10
157.654868759
 20
108.3331874382
 10
158.0272976285
 20
107.9481908295
 10
158.4085251751
 20
107.7823193405
 10
158.7612341904
 20
107.8518096283
 10
159.0508990586
 20
108.1498594994
 10
159.249165364
 20
108.6472937556
 10
159.3366254194
 20
109.2954200663
 10
159.3047180251
 20
110.0307953123
 10
159.1565664992
 20
110.781435841
 10
158.9066729453
 20
111.4738637272
 10
158.5794986855
 20
112.0402993052
 10
158.207069816
 20
112.4252959139
  0
LWPOLYLINE
  5
118
330
1F
100
AcDbEntity
  8
0
  6
HIDDEN
 62
     7
370
     0
100
AcDbPolyline
 90
       23
 70
   128
 43
0.0
 10
158.5047008584
 20
112.9876193153
 10
158.0787788233
 20
113.1844351242
 10
157.6784292708
 20
113.142831075
 10
157.3360861408
 20
112.8661776803
 10
157.0794840375
 20
112.3768877528
 10
156.9294113374
 20
111.7146006525
 10
156.8980260382
 20
110.9329709416
 10
156.98787079
 20
110.0953216107
 10
157.1916669054
 20
109.2695140268
 10
157.4929040352
 20
108.5224502091
 10
157.8671777386
 20
107.9146528253
 10
158.2841665861
 20
107.4953620045
 10
158.7100886213
 20
107.2985461956
 10
159.1104381737
 20
107.3401502448
 10
159.4527813038
 20
107.6168036395
 10
159.709383407
 20
108.106093567
 10
159.8594561071
 20
108.7683806673
 10
159.8908414064
 20
109.5500103782
 10
159.8009966546
 20
110.3876597091
 10
159.5972005391
 20
111.213467293
 10
159.2959634093
 20
111.9605311107
 10
158.9216897059
 20
112.5683284945
 10
158.5047008584
 20
112.9876193153
  0
LWPOLYLINE
  5
119
330
1F
100
AcDbEntity
  8
0
  6
HIDDEN
 62
     7
370
     0
100
AcDbPolyline
 90
       23
 70
   128
 43
0.0
 10
161.6915524735
 20
113.6169123137
 10
161.2656304384
 20
113.8137281226
 10
160.8652808859
 20
113.7721240734
 10
160.5229377559
 20
113.4954706787
 10
160.2663356527
 20
113.0061807512
 10
160.1162629526
 20
112.343893651
 10
160.0848776533
 20
111.5622639401
 10
160.1747224051
 20
110.7246146091
 10
160.3785185205
 20
109.8988070252
 10
160.6797556503
 20
109.1517432076
 10
161.0540293538
 20
108.5439458237
 10
161.4710182013
 20
108.124655003
 10
161.8969402364
 20
107.9278391941
 10
162.2972897889
 20
107.9694432433
 10
162.6396329189
 20
108.246096638
 10
162.8962350221
 20
108.7353865655
 10
163.0463077222
 20
109.3976736657
 10
163.0776930215
 20
110.1793033766
 10
162.9878482697
 20
111.0169527076
 10
162.7840521543
 20
111.8427602915
 10
162.4828150245
 20
112.5898241091
 10
162.108541321
 20
113.197621493
 10
161.6915524735
 20
113.6169123137
  0
LINE
  5
11A
330
1F
100
AcDbEntity
  8
0
  6
HIDDEN
 62
     7
370
     0
100
AcDbLine
 10
157.3373815606
 20
109.9407166241
 30
0.0
 11
158.0535209615
 21
108.6012652533
 31
0.0
  0
LINE
  5
11B
330
1F
100
AcDbEntity
  8
0
  6
HIDDEN
 62
     7
370
     0
100
AcDbLine
 10
158.8333231232
 20
108.8472920009
 30
0.0
 11
158.0535209615
 21
108.6012652533
 31
0.0
  0
LINE
  5
11C
330
1F
100
AcDbEntity
  8
0
  6
HIDDEN
 62
     7
370
     0
100
AcDbLine
 10
158.8969858839
 20
110.4327701193
 30
0.0
 11
158.8333231232
 21
108.8472920009
 31
0.0
  0
LINE
  5
11D
330
1F
100
AcDbEntity
  8
0
  6
HIDDEN
 62
     7
370
     0
100
AcDbLine
 10
158.8969858839
 20
110.4327701193
 30
0.0
 11
158.180846483
 21
111.7722214901
 31
0.0
  0
LINE
  5
11E
330
1F
100
AcDbEntity
  8
0
  6
HIDDEN
 62
     7
370
     0
100
AcDbLine
 10
157.4010443213
 20
111.5261947425
 30
0.0
 11
158.180846483
 21
111.7722214901
 31
0.0
  0
LINE
  5
11F
330
1F
100
AcDbEntity
  8
0
  6
HIDDEN
 62
     7
370
     0
100
AcDbLine
 10
157.4010443213
 20
111.5261947425
 30
0.0
 11
157.3373815606
 21
109.9407166241
 31
0.0
  0
LWPOLYLINE
  5
120
330
1F
100
AcDbEntity
  8
0
  6
HIDDEN
 62
     7
370
     0
100
AcDbPolyline
 90
       19
 70
   128
 43
0.0
 10
162.5208221653
 20
112.8725461669
 10
162.1752941188
 20
113.011453783
 10
161.8625752916
 20
112.9127913277
 10
161.6203841894
 20
112.588458949
 10
161.4779326334
 20
112.0775759187
 10
161.4524023838
 20
111.4417622698
 10
161.5468727653
 20
110.7577065121
 10
161.7499492558
 20
110.1079158656
 10
162.0371378333
 20
109.5707646721
 10
162.3737993171
 20
109.2110412931
 10
162.7193273635
 20
109.072133677
 10
163.0320461908
 20
109.1707961324
 10
163.274237293
 20
109.495128511
 10
163.416688849
 20
110.0060115414
 10
163.4422190986
 20
110.6418251902
 10
163.3477487171
 20
111.3258809479
 10
163.1446722266
 20
111.9756715944
 10
162.857483649
 20
112.5128227879
 10
162.5208221653
 20
112.8725461669
  0
LINE
  5
121
330
1F
100
AcDbEntity
  8
0
  6
HIDDEN
 62
     7
370
     0
100
AcDbLine
 10
160.6290366915
 20
110.7747902626
 30
0.0
 11
158.8969858839
 21
110.4327701193
 31
0.0
  0
LINE
  5
122
330
1F
100
AcDbEntity
  8
0
  6
HIDDEN
 62
     7
370
     0
100
AcDbLine
 10
160.5653739308
 20
109.1893121442
 30
0.0
 11
159.7855717691
 21
108.9432853966
 31
0.0
  0
LINE
  5
123
330
1F
100
AcDbEntity
  8
0
  6
HIDDEN
 62
     7
370
     0
100
AcDbLine
 10
159.0694323682
 20
110.2827367675
 30
0.0
 11
159.7855717691
 21
108.9432853966
 31
0.0
  0
LINE
  5
124
330
1F
100
AcDbEntity
  8
0
  6
HIDDEN
 62
     7
370
     0
100
AcDbLine
 10
159.1330951289
 20
111.8682148859
 30
0.0
 11
159.0694323682
 21
110.2827367675
 31
0.0
  0
LINE
  5
125
330
1F
100
AcDbEntity
  8
0
  6
HIDDEN
 62
     7
370
     0
100
AcDbLine
 10
159.1330951289
 20
111.8682148859
 30
0.0
 11
159.9128972905
 21
112.1142416334
 31
0.0
  0
LINE
  5
126
330
1F
100
AcDbEntity
  8
0
  6
HIDDEN
 62
     7
370
     0
100
AcDbLine
 10
160.6290366915
 20
110.7747902626
 30
0.0
 11
160.5653739308
 21
109.1893121442
 31
0.0
  0
LINE
  5
127
330
1F
100
AcDbEntity
  8
0
  6
HIDDEN
 62
     7
370
     0
100
AcDbLine
 10
160.6290366915
 20
110.7747902626
 30
0.0
 11
159.9128972905
 21
112.1142416334
 31
0.0
  0
LINE
  5
128
330
1F
100
AcDbEntity
  8
0
  6
HIDDEN
 62
     7
370
     0
100
AcDbLine
 10
160.5653739308
 20
109.1893121442
 30
0.0
 11
158.8333231232
 21
108.8472920009
 31
0.0
  0
LINE
  5
129
330
1F
100
AcDbEntity
  8
0
  6
HIDDEN
 62
     7
370
     0
100
AcDbLine
 10
159.1330951289
 20
111.8682148859
 30
0.0
 11
157.4010443213
 21
111.5261947425
 31
0.0
  0
LINE
  5
12A
330
1F
100
AcDbEntity
  8
0
  6
HIDDEN
 62
     7
370
     0
100
AcDbLine
 10
159.9128972905
 20
112.1142416334
 30
0.0
 11
158.180846483
 21
111.7722214901
 31
0.0
  0
LINE
  5
12B
330
1F
100
AcDbEntity
  8
0
  6
HIDDEN
 62
     7
370
     0
100
AcDbLine
 10
159.0694323682
 20
110.2827367675
 30
0.0
 11
157.3373815606
 21
109.9407166241
 31
0.0
  0
LINE
  5
12C
330
1F
100
AcDbEntity
  8
0
  6
HIDDEN
 62
     7
370
     0
100
AcDbLine
 10
159.7855717691
 20
108.9432853966
 30
0.0
 11
158.0535209615
 21
108.6012652533
 31
0.0
  0
LWPOLYLINE
  5
12D
330
1F
100
AcDbEntity
  8
0
  6
HIDDEN
 62
     7
370
     0
100
AcDbPolyline
 90
       23
 70
   128
 43
0.0
 10
174.6112078364
 20
111.8857170461
 10
174.0640007242
 20
111.2697409345
 10
173.7236373142
 20
110.5338474756
 10
173.6176918255
 20
109.737654381
 10
173.7547473317
 20
108.94566448
 10
174.1237004106
 20
108.2220400842
 10
174.6946606782
 20
107.6254049388
 10
175.4213723291
 20
107.2040948747
 10
176.2449615073
 20
106.9922419278
 10
177.0987059157
 20
107.0070091639
 10
177.9134402597
 20
107.2472002294
 10
178.6231596081
 20
107.6933562726
 10
179.1703667203
 20
108.3093323842
 10
179.5107301304
 20
109.0452258431
 10
179.616675619
 20
109.8414189377
 10
179.4796201128
 20
110.6334088387
 10
179.1106670339
 20
111.3570332345
 10
178.5397067663
 20
111.9536683799
 10
177.8129951154
 20
112.374978444
 10
176.9894059372
 20
112.5868313909
 10
176.1356615288
 20
112.5720641548
 10
175.3209271849
 20
112.3318730893
 10
174.6112078364
 20
111.8857170461
  0
LWPOLYLINE
  5
12E
330
1F
100
AcDbEntity
  8
0
  6
HIDDEN
 62
     7
370
     0
100
AcDbPolyline
 90
       23
 70
   128
 43
0.0
 10
174.6112078364
 20
113.144303043
 10
174.0640007242
 20
112.5283269314
 10
173.7236373142
 20
111.7924334725
 10
173.6176918255
 20
110.9962403779
 10
173.7547473317
 20
110.2042504769
 10
174.1237004106
 20
109.4806260811
 10
174.6946606782
 20
108.8839909357
 10
175.4213723291
 20
108.4626808716
 10
176.2449615073
 20
108.2508279247
 10
177.0987059157
 20
108.2655951608
 10
177.9134402597
 20
108.5057862263
 10
178.6231596081
 20
108.9519422695
 10
179.1703667203
 20
109.5679183811
 10
179.5107301304
 20
110.30381184
 10
179.616675619
 20
111.1000049346
 10
179.4796201128
 20
111.8919948356
 10
179.1106670339
 20
112.6156192314
 10
178.5397067663
 20
113.2122543768
 10
177.8129951154
 20
113.6335644409
 10
176.9894059372
 20
113.8454173878
 10
176.1356615288
 20
113.8306501517
 10
175.3209271849
 20
113.5904590862
 10
174.6112078364
 20
113.144303043
  0
LINE
  5
12F
330
1F
100
AcDbEntity
  8
0
  6
HIDDEN
 62
     7
370
     0
100
AcDbLine
 10
177.1534626508
 20
111.9116978936
 30
0.0
 11
177.1534626508
 21
111.227657607
 31
0.0
  0
LINE
  5
130
330
1F
100
AcDbEntity
  8
0
  6
HIDDEN
 62
     7
370
     0
100
AcDbLine
 10
175.4590330046
 20
111.5743126802
 30
0.0
 11
175.4590330046
 21
110.8902723935
 31
0.0
  0
LINE
  5
131
330
1F
100
AcDbEntity
  8
0
  6
HIDDEN
 62
     7
370
     0
100
AcDbLine
 10
178.3116133685
 20
110.701467583
 30
0.0
 11
178.1375931173
 21
110.1992728708
 31
0.0
  0
LINE
  5
132
330
1F
100
AcDbEntity
  8
0
  6
HIDDEN
 62
     7
370
     0
100
AcDbLine
 10
178.3116133685
 20
110.701467583
 30
0.0
 11
178.3116133685
 21
110.0174272964
 31
0.0
  0
LINE
  5
133
330
1F
100
AcDbEntity
  8
0
  6
HIDDEN
 62
     7
370
     0
100
AcDbLine
 10
174.9227540761
 20
110.0266971562
 30
0.0
 11
175.0967743272
 21
109.8448515817
 31
0.0
  0
LINE
  5
134
330
1F
100
AcDbEntity
  8
0
  6
HIDDEN
 62
     7
370
     0
100
AcDbLine
 10
174.9227540761
 20
110.0266971562
 30
0.0
 11
174.9227540761
 21
109.3426568695
 31
0.0
  0
LINE
  5
135
330
1F
100
AcDbEntity
  8
0
  6
HIDDEN
 62
     7
370
     0
100
AcDbLine
 10
174.9227540761
 20
110.0266971562
 30
0.0
 11
175.4590330046
 21
111.5743126802
 31
0.0
  0
LINE
  5
136
330
1F
100
AcDbEntity
  8
0
  6
HIDDEN
 62
     7
370
     0
100
AcDbLine
 10
177.1534626508
 20
111.9116978936
 30
0.0
 11
178.3116133685
 21
110.701467583
 31
0.0
  0
LINE
  5
137
330
1F
100
AcDbEntity
  8
0
  6
HIDDEN
 62
     7
370
     0
100
AcDbLine
 10
177.1534626508
 20
111.9116978936
 30
0.0
 11
175.4590330046
 21
111.5743126802
 31
0.0
  0
LWPOLYLINE
  5
138
330
1F
100
AcDbEntity
  8
0
  6
HIDDEN
 62
     7
370
     0
100
AcDbPolyline
 90
       19
 70
   128
 43
0.0
 10
175.279866465
 20
112.7875963908
 10
174.851885053
 20
112.2735141455
 10
174.6368247136
 20
111.6528842788
 10
174.6606248975
 20
111.000563912
 10
174.9204149515
 20
110.3952325086
 10
175.3848603609
 20
109.9099019697
 10
175.9979421548
 20
109.6031103208
 10
176.6857136208
 20
109.5118611627
 10
177.3652193696
 20
109.6471604905
 10
177.9545009795
 20
109.9926892084
 10
178.3824823915
 20
110.5067714536
 10
178.597542731
 20
111.1274013204
 10
178.573742547
 20
111.7797216872
 10
178.313952493
 20
112.3850530905
 10
177.8495070836
 20
112.8703836295
 10
177.2364252897
 20
113.1771752783
 10
176.5486538238
 20
113.2684244365
 10
175.8691480749
 20
113.1331251087
 10
175.279866465
 20
112.7875963908
  0
LWPOLYLINE
  5
139
330
1F
100
AcDbEntity
  8
0
  6
HIDDEN
 62
     7
370
     0
100
AcDbPolyline
 90
       23
 70
   128
 43
0.0
 10
161.6915524735
 20
134.8148840349
 10
161.2656304384
 20
134.6180682259
 10
160.8652808859
 20
134.6596722752
 10
160.5229377559
 20
134.9363256699
 10
160.2663356527
 20
135.4256155973
 10
160.1162629526
 20
136.0879026976
 10
160.0848776533
 20
136.8695324085
 10
160.1747224051
 20
137.7071817395
 10
160.3785185205
 20
138.5329893234
 10
160.6797556503
 20
139.280053141
 10
161.0540293538
 20
139.8878505249
 10
161.4710182013
 20
140.3071413456
 10
161.8969402364
 20
140.5039571545
 10
162.2972897889
 20
140.4623531053
 10
162.6396329189
 20
140.1856997106
 10
162.8962350221
 20
139.6964097831
 10
163.0463077222
 20
139.0341226829
 10
163.0776930215
 20
138.2524929719
 10
162.9878482697
 20
137.414843641
 10
162.7840521543
 20
136.5890360571
 10
162.4828150245
 20
135.8419722394
 10
162.108541321
 20
135.2341748556
 10
161.6915524735
 20
134.8148840349
  0
LWPOLYLINE
  5
13A
330
1F
100
AcDbEntity
  8
0
  6
HIDDEN
 62
     7
370
     0
100
AcDbPolyline
 90
       19
 70
   128
 43
0.0
 10
162.5208221653
 20
135.5592501817
 10
162.1752941188
 20
135.4203425655
 10
161.8625752916
 20
135.5190050209
 10
161.6203841894
 20
135.8433373995
 10
161.4779326334
 20
136.3542204299
 10
161.4524023838
 20
136.9900340788
 10
161.5468727653
 20
137.6740898364
 10
161.7499492558
 20
138.3238804829
 10
162.0371378333
 20
138.8610316764
 10
162.3737993171
 20
139.2207550555
 10
162.7193273635
 20
139.3596626716
 10
163.0320461908
 20
139.2610002162
 10
163.274237293
 20
138.9366678376
 10
163.416688849
 20
138.4257848072
 10
163.4422190986
 20
137.7899711583
 10
163.3477487171
 20
137.1059154007
 10
163.1446722266
 20
136.4561247542
 10
162.857483649
 20
135.9189735607
 10
162.5208221653
 20
135.5592501817
  0
LWPOLYLINE
  5
13B
330
1F
100
AcDbEntity
  8
0
  6
HIDDEN
 62
     7
370
     0
100
AcDbPolyline
 90
       23
 70
   128
 43
0.0
 10
158.5047008584
 20
135.4441770333
 10
158.0787788233
 20
135.2473612244
 10
157.6784292708
 20
135.2889652736
 10
157.3360861408
 20
135.5656186683
 10
157.0794840375
 20
136.0549085958
 10
156.9294113374
 20
136.717195696
 10
156.8980260382
 20
137.498825407
 10
156.98787079
 20
138.3364747379
 10
157.1916669054
 20
139.1622823218
 10
157.4929040352
 20
139.9093461395
 10
157.8671777386
 20
140.5171435233
 10
158.2841665861
 20
140.936434344
 10
158.7100886213
 20
141.133250153
 10
159.1104381737
 20
141.0916461038
 10
159.4527813038
 20
140.814992709
 10
159.709383407
 20
140.3257027816
 10
159.8594561071
 20
139.6634156813
 10
159.8908414064
 20
138.8817859704
 10
159.8009966546
 20
138.0441366394
 10
159.5972005391
 20
137.2183290555
 10
159.2959634093
 20
136.4712652379
 10
158.9216897059
 20
135.863467854
 10
158.5047008584
 20
135.4441770333
  0
LWPOLYLINE
  5
13C
330
1F
100
AcDbEntity
  8
0
  6
HIDDEN
 62
     7
370
     0
100
AcDbPolyline
 90
       21
 70
   128
 43
0.0
 10
158.207069816
 20
136.0065004347
 10
157.8258422694
 20
135.8406289457
 10
157.4731332541
 20
135.9101192335
 10
157.183468386
 20
136.2081691045
 10
156.9852020805
 20
136.7056033608
 10
156.8977420252
 20
137.3537296715
 10
156.9296494194
 20
138.0891049175
 10
157.0778009453
 20
138.8397454461
 10
157.3276944992
 20
139.5321733324
 10
157.654868759
 20
140.0986089104
 10
158.0272976285
 20
140.4836055191
 10
158.4085251751
 20
140.6494770081
 10
158.7612341904
 20
140.5799867203
 10
159.0508990586
 20
140.2819368492
 10
159.249165364
 20
139.7845025929
 10
159.3366254194
 20
139.1363762823
 10
159.3047180251
 20
138.4010010362
 10
159.1565664992
 20
137.6503605076
 10
158.9066729453
 20
136.9579326214
 10
158.5794986855
 20
136.3914970434
 10
158.207069816
 20
136.0065004347
  0
LINE
  5
13D
330
1F
100
AcDbEntity
  8
0
  6
HIDDEN
 62
     7
370
     0
100
AcDbLine
 10
159.0694323682
 20
138.1490595811
 30
0.0
 11
159.7855717691
 21
139.488510952
 31
0.0
  0
LINE
  5
13E
330
1F
100
AcDbEntity
  8
0
  6
HIDDEN
 62
     7
370
     0
100
AcDbLine
 10
157.3373815606
 20
138.4910797245
 30
0.0
 11
158.0535209615
 21
139.8305310953
 31
0.0
  0
LINE
  5
13F
330
1F
100
AcDbEntity
  8
0
  6
HIDDEN
 62
     7
370
     0
100
AcDbLine
 10
159.0694323682
 20
138.1490595811
 30
0.0
 11
157.3373815606
 21
138.4910797245
 31
0.0
  0
LINE
  5
140
330
1F
100
AcDbEntity
  8
0
  6
HIDDEN
 62
     7
370
     0
100
AcDbLine
 10
159.1330951289
 20
136.5635814627
 30
0.0
 11
159.0694323682
 21
138.1490595811
 31
0.0
  0
LINE
  5
141
330
1F
100
AcDbEntity
  8
0
  6
HIDDEN
 62
     7
370
     0
100
AcDbLine
 10
157.4010443213
 20
136.9056016061
 30
0.0
 11
157.3373815606
 21
138.4910797245
 31
0.0
  0
LINE
  5
142
330
1F
100
AcDbEntity
  8
0
  6
HIDDEN
 62
     7
370
     0
100
AcDbLine
 10
159.1330951289
 20
136.5635814627
 30
0.0
 11
157.4010443213
 21
136.9056016061
 31
0.0
  0
LINE
  5
143
330
1F
100
AcDbEntity
  8
0
  6
HIDDEN
 62
     7
370
     0
100
AcDbLine
 10
159.1330951289
 20
136.5635814627
 30
0.0
 11
159.9128972905
 21
136.3175547152
 31
0.0
  0
LINE
  5
144
330
1F
100
AcDbEntity
  8
0
  6
HIDDEN
 62
     7
370
     0
100
AcDbLine
 10
157.4010443213
 20
136.9056016061
 30
0.0
 11
158.180846483
 21
136.6595748585
 31
0.0
  0
LINE
  5
145
330
1F
100
AcDbEntity
  8
0
  6
HIDDEN
 62
     7
370
     0
100
AcDbLine
 10
160.5653739308
 20
139.2424842044
 30
0.0
 11
158.8333231232
 21
139.5845043477
 31
0.0
  0
LINE
  5
146
330
1F
100
AcDbEntity
  8
0
  6
HIDDEN
 62
     7
370
     0
100
AcDbLine
 10
159.7855717691
 20
139.488510952
 30
0.0
 11
158.0535209615
 21
139.8305310953
 31
0.0
  0
LINE
  5
147
330
1F
100
AcDbEntity
  8
0
  6
HIDDEN
 62
     7
370
     0
100
AcDbLine
 10
160.5653739308
 20
139.2424842044
 30
0.0
 11
159.7855717691
 21
139.488510952
 31
0.0
  0
LINE
  5
148
330
1F
100
AcDbEntity
  8
0
  6
HIDDEN
 62
     7
370
     0
100
AcDbLine
 10
158.8333231232
 20
139.5845043477
 30
0.0
 11
158.0535209615
 21
139.8305310953
 31
0.0
  0
LINE
  5
149
330
1F
100
AcDbEntity
  8
0
  6
HIDDEN
 62
     7
370
     0
100
AcDbLine
 10
160.6290366915
 20
137.657006086
 30
0.0
 11
158.8969858839
 21
137.9990262293
 31
0.0
  0
LINE
  5
14A
330
1F
100
AcDbEntity
  8
0
  6
HIDDEN
 62
     7
370
     0
100
AcDbLine
 10
159.9128972905
 20
136.3175547152
 30
0.0
 11
158.180846483
 21
136.6595748585
 31
0.0
  0
LINE
  5
14B
330
1F
100
AcDbEntity
  8
0
  6
HIDDEN
 62
     7
370
     0
100
AcDbLine
 10
160.6290366915
 20
137.657006086
 30
0.0
 11
159.9128972905
 21
136.3175547152
 31
0.0
  0
LINE
  5
14C
330
1F
100
AcDbEntity
  8
0
  6
HIDDEN
 62
     7
370
     0
100
AcDbLine
 10
158.8969858839
 20
137.9990262293
 30
0.0
 11
158.180846483
 21
136.6595748585
 31
0.0
  0
LINE
  5
14D
330
1F
100
AcDbEntity
  8
0
  6
HIDDEN
 62
     7
370
     0
100
AcDbLine
 10
160.6290366915
 20
137.657006086
 30
0.0
 11
160.5653739308
 21
139.2424842044
 31
0.0
  0
LINE
  5
14E
330
1F
100
AcDbEntity
  8
0
  6
HIDDEN
 62
     7
370
     0
100
AcDbLine
 10
158.8969858839
 20
137.9990262293
 30
0.0
 11
158.8333231232
 21
139.5845043477
 31
0.0
  0
LWPOLYLINE
  5
14F
330
1F
100
AcDbEntity
  8
0
  6
HIDDEN
 62
     7
370
     0
100
AcDbPolyline
 90
       23
 70
   128
 43
0.0
 10
178.6231596081
 20
135.2874933055
 10
177.9134402597
 20
134.8413372624
 10
177.0987059157
 20
134.6011461969
 10
176.2449615073
 20
134.5863789608
 10
175.4213723291
 20
134.7982319077
 10
174.6946606782
 20
135.2195419717
 10
174.1237004106
 20
135.8161771172
 10
173.7547473317
 20
136.5398015129
 10
173.6176918255
 20
137.3317914139
 10
173.7236373142
 20
138.1279845086
 10
174.0640007242
 20
138.8638779675
 10
174.6112078364
 20
139.4798540791
 10
175.3209271849
 20
139.9260101223
 10
176.1356615288
 20
140.1662011878
 10
176.9894059372
 20
140.1809684239
 10
177.8129951154
 20
139.969115477
 10
178.5397067663
 20
139.5478054129
 10
179.1106670339
 20
138.9511702675
 10
179.4796201128
 20
138.2275458717
 10
179.616675619
 20
137.4355559707
 10
179.5107301304
 20
136.6393628761
 10
179.1703667203
 20
135.9034694172
 10
178.6231596081
 20
135.2874933055
  0
LWPOLYLINE
  5
150
330
1F
100
AcDbEntity
  8
0
  6
HIDDEN
 62
     7
370
     0
100
AcDbPolyline
 90
       19
 70
   128
 43
0.0
 10
177.9545009795
 20
135.6441999578
 10
177.3652193696
 20
135.2986712399
 10
176.6857136208
 20
135.1633719121
 10
175.9979421548
 20
135.2546210702
 10
175.3848603609
 20
135.5614127191
 10
174.9204149515
 20
136.0467432581
 10
174.6606248975
 20
136.6520746614
 10
174.6368247136
 20
137.3043950282
 10
174.851885053
 20
137.925024895
 10
175.279866465
 20
138.4391071402
 10
175.8691480749
 20
138.7846358581
 10
176.5486538238
 20
138.9199351859
 10
177.2364252897
 20
138.8286860278
 10
177.8495070836
 20
138.5218943789
 10
178.313952493
 20
138.0365638399
 10
178.573742547
 20
137.4312324366
 10
178.597542731
 20
136.7789120698
 10
178.3824823915
 20
136.1582822031
 10
177.9545009795
 20
135.6441999578
  0
LWPOLYLINE
  5
151
330
1F
100
AcDbEntity
  8
0
  6
HIDDEN
 62
     7
370
     0
100
AcDbPolyline
 90
       23
 70
   128
 43
0.0
 10
178.6231596081
 20
136.5460793024
 10
177.9134402597
 20
136.0999232593
 10
177.0987059157
 20
135.8597321938
 10
176.2449615073
 20
135.8449649577
 10
175.4213723291
 20
136.0568179046
 10
174.6946606782
 20
136.4781279686
 10
174.1237004106
 20
137.0747631141
 10
173.7547473317
 20
137.7983875098
 10
173.6176918255
 20
138.5903774108
 10
173.7236373142
 20
139.3865705055
 10
174.0640007242
 20
140.1224639644
 10
174.6112078364
 20
140.738440076
 10
175.3209271849
 20
141.1845961192
 10
176.1356615288
 20
141.4247871847
 10
176.9894059372
 20
141.4395544208
 10
177.8129951154
 20
141.2277014739
 10
178.5397067663
 20
140.8063914098
 10
179.1106670339
 20
140.2097562644
 10
179.4796201128
 20
139.4861318686
 10
179.616675619
 20
138.6941419676
 10
179.5107301304
 20
137.897948873
 10
179.1703667203
 20
137.1620554141
 10
178.6231596081
 20
136.5460793024
  0
LINE
  5
152
330
1F
100
AcDbEntity
  8
0
  6
HIDDEN
 62
     7
370
     0
100
AcDbLine
 10
177.1534626508
 20
139.615329503
 30
0.0
 11
175.4590330046
 21
139.2779442896
 31
0.0
  0
LINE
  5
153
330
1F
100
AcDbEntity
  8
0
  6
HIDDEN
 62
     7
370
     0
100
AcDbLine
 10
177.1534626508
 20
139.615329503
 30
0.0
 11
177.1534626508
 21
140.2993697896
 31
0.0
  0
LINE
  5
154
330
1F
100
AcDbEntity
  8
0
  6
HIDDEN
 62
     7
370
     0
100
AcDbLine
 10
178.3116133685
 20
138.4050991924
 30
0.0
 11
177.1534626508
 21
139.615329503
 31
0.0
  0
LINE
  5
155
330
1F
100
AcDbEntity
  8
0
  6
HIDDEN
 62
     7
370
     0
100
AcDbLine
 10
175.4590330046
 20
139.2779442896
 30
0.0
 11
175.4590330046
 21
139.9619845762
 31
0.0
  0
LINE
  5
156
330
1F
100
AcDbEntity
  8
0
  6
HIDDEN
 62
     7
370
     0
100
AcDbLine
 10
174.9227540761
 20
137.7303287656
 30
0.0
 11
175.4590330046
 21
139.2779442896
 31
0.0
  0
LINE
  5
157
330
1F
100
AcDbEntity
  8
0
  6
HIDDEN
 62
     7
370
     0
100
AcDbLine
 10
177.77533444
 20
136.8574836684
 30
0.0
 11
177.77533444
 21
137.541523955
 31
0.0
  0
LINE
  5
158
330
1F
100
AcDbEntity
  8
0
  6
HIDDEN
 62
     7
370
     0
100
AcDbLine
 10
178.3116133685
 20
139.089139479
 30
0.0
 11
177.77533444
 21
137.541523955
 31
0.0
  0
LINE
  5
159
330
1F
100
AcDbEntity
  8
0
  6
HIDDEN
 62
     7
370
     0
100
AcDbLine
 10
178.3116133685
 20
138.4050991924
 30
0.0
 11
178.3116133685
 21
139.089139479
 31
0.0
  0
LINE
  5
15A
330
1F
100
AcDbEntity
  8
0
  6
HIDDEN
 62
     7
370
     0
100
AcDbLine
 10
178.3116133685
 20
138.4050991924
 30
0.0
 11
177.77533444
 21
136.8574836684
 31
0.0
  0
LINE
  5
15B
330
1F
100
AcDbEntity
  8
0
  6
HIDDEN
 62
     7
370
     0
100
AcDbLine
 10
176.0809047937
 20
136.520098455
 30
0.0
 11
176.0809047937
 21
137.2041387416
 31
0.0
  0
LINE
  5
15C
330
1F
100
AcDbEntity
  8
0
  6
HIDDEN
 62
     7
370
     0
100
AcDbLine
 10
176.0809047937
 20
137.2041387416
 30
0.0
 11
174.9227540761
 21
138.4143690522
 31
0.0
  0
LINE
  5
15D
330
1F
100
AcDbEntity
  8
0
  6
HIDDEN
 62
     7
370
     0
100
AcDbLine
 10
174.9227540761
 20
137.7303287656
 30
0.0
 11
174.9227540761
 21
138.4143690522
 31
0.0
  0
LINE
  5
15E
330
1F
100
AcDbEntity
  8
0
  6
HIDDEN
 62
     7
370
     0
100
AcDbLine
 10
176.0809047937
 20
136.520098455
 30
0.0
 11
174.9227540761
 21
137.7303287656
 31
0.0
  0
LINE
  5
15F
330
1F
100
AcDbEntity
  8
0
  6
HIDDEN
 62
     7
370
     0
100
AcDbLine
 10
176.0809047937
 20
137.2041387416
 30
0.0
 11
177.77533444
 21
137.541523955
 31
0.0
  0
LINE
  5
160
330
1F
100
AcDbEntity
  8
0
  6
HIDDEN
 62
     7
370
     0
100
AcDbLine
 10
176.0809047937
 20
136.520098455
 30
0.0
 11
177.77533444
 21
136.8574836684
 31
0.0
  0
LWPOLYLINE
  5
161
330
1F
100
AcDbEntity
  8
0
  6
HIDDEN
 62
     7
370
     0
100
AcDbPolyline
 90
       21
 70
   128
 43
0.0
 10
178.2523883986
 20
137.043017887
 10
177.6104395072
 20
136.6518170465
 10
176.8712638191
 20
136.4661726921
 10
176.1072170009
 20
136.5042569867
 10
175.3930892786
 20
136.7623419742
 10
174.7987844491
 20
137.2151644978
 10
174.38247721
 20
137.818399134
 10
174.1849186145
 20
138.5129970735
 10
174.2254470743
 20
139.2309662305
 10
174.5000953814
 20
139.9020267815
 10
174.981979046
 20
140.4604906443
 10
175.6239279374
 20
140.8516914848
 10
176.3631036254
 20
141.0373358392
 10
177.1271504436
 20
140.9992515446
 10
177.841278166
 20
140.7411665571
 10
178.4355829954
 20
140.2883440334
 10
178.8518902345
 20
139.6851093973
 10
179.04944883
 20
138.9905114577
 10
179.0089203702
 20
138.2725423007
 10
178.7342720631
 20
137.6014817497
 10
178.2523883986
 20
137.043017887
  0
LINE
  5
162
330
1F
100
AcDbEntity
  8
0
  6
HIDDEN
 62
     7
370
     0
100
AcDbLine
 10
174.9227540761
 20
138.4143690522
 30
0.0
 11
175.4590330046
 21
139.9619845762
 31
0.0
  0
LINE
  5
163
330
1F
100
AcDbEntity
  8
0
  6
HIDDEN
 62
     7
370
     0
100
AcDbLine
 10
178.3116133685
 20
139.089139479
 30
0.0
 11
177.1534626508
 21
140.2993697896
 31
0.0
  0
LINE
  5
164
330
1F
100
AcDbEntity
  8
0
  6
HIDDEN
 62
     7
370
     0
100
AcDbLine
 10
177.1534626508
 20
140.2993697896
 30
0.0
 11
175.4590330046
 21
139.9619845762
 31
0.0
  0
LINE
  5
165
330
1F
100
AcDbEntity
  8
0
  6
HIDDEN
 62
     7
370
     0
100
AcDbLine
 10
218.3671837223
 20
154.7158981743
 30
0.0
 11
217.8941985203
 21
155.1888833762
 31
0.0
  0
LINE
  5
166
330
1F
100
AcDbEntity
  8
0
  6
HIDDEN
 62
     7
370
     0
100
AcDbLine
 10
202.8424476605
 20
155.1911621125
 30
0.0
 11
202.3671837223
 21
154.7158981743
 31
0.0
  0
LINE
  5
167
330
1F
100
AcDbEntity
  8
0
  6
HIDDEN
 62
     7
370
     0
100
AcDbLine
 10
202.3671837223
 20
154.7158981743
 30
0.0
 11
202.3671837223
 21
144.5460251932
 31
0.0
  0
LINE
  5
168
330
1F
100
AcDbEntity
  8
0
  6
HIDDEN
 62
     7
370
     0
100
AcDbLine
 10
218.3671837223
 20
144.5460251932
 30
0.0
 11
218.3671837223
 21
154.7158981743
 31
0.0
  0
LINE
  5
169
330
1F
100
AcDbEntity
  8
0
  6
HIDDEN
 62
     7
370
     0
100
AcDbLine
 10
202.3671837223
 20
144.5460251932
 30
0.0
 11
204.7678843031
 21
135.5864886517
 31
0.0
  0
LINE
  5
16A
330
1F
100
AcDbEntity
  8
0
  6
HIDDEN
 62
     7
370
     0
100
AcDbLine
 10
215.9664831414
 20
135.5864886517
 30
0.0
 11
218.3671837223
 21
144.5460251932
 31
0.0
  0
ARC
  5
16B
330
1F
100
AcDbEntity
  8
0
  6
HIDDEN
 62
     7
370
     0
100
AcDbCircle
 10
205.2508472163
 20
135.7158981743
 30
0.0
 40
0.5000000000000079
100
AcDbArc
 50
195.0
 51
270.0
  0
ARC
  5
16C
330
1F
100
AcDbEntity
  8
0
  6
HIDDEN
 62
     7
370
     0
100
AcDbCircle
 10
215.4835202283
 20
135.7158981743
 30
0.0
 40
0.5000000000000079
100
AcDbArc
 50
270.0
 51
345.0
  0
LINE
  5
16D
330
1F
100
AcDbEntity
  8
0
  6
HIDDEN
 62
     7
370
     0
100
AcDbLine
 10
205.6671837223
 20
155.7158981743
 30
0.0
 11
206.3671837223
 21
155.0158981743
 31
0.0
  0
LINE
  5
16E
330
1F
100
AcDbEntity
  8
0
  6
HIDDEN
 62
     7
370
     0
100
AcDbLine
 10
214.3671837223
 20
155.0158981743
 30
0.0
 11
215.0671837223
 21
155.7158981743
 31
0.0
  0
LINE
  5
16F
330
1F
100
AcDbEntity
  8
0
  6
HIDDEN
 62
     7
370
     0
100
AcDbLine
 10
206.3671837223
 20
145.7158981743
 30
0.0
 11
206.3671837223
 21
144.7158981743
 31
0.0
  0
LINE
  5
170
330
1F
100
AcDbEntity
  8
0
  6
HIDDEN
 62
     7
370
     0
100
AcDbLine
 10
214.3671837223
 20
144.7158981743
 30
0.0
 11
214.3671837223
 21
145.7158981743
 31
0.0
  0
LINE
  5
171
330
1F
100
AcDbEntity
  8
0
  6
HIDDEN
 62
     7
370
     0
100
AcDbLine
 10
206.3671837223
 20
144.7158981743
 30
0.0
 11
210.3671837223
 21
143.2600172372
 31
0.0
  0
LINE
  5
172
330
1F
100
AcDbEntity
  8
0
  6
HIDDEN
 62
     7
370
     0
100
AcDbLine
 10
210.3671837223
 20
143.2600172372
 30
0.0
 11
214.3671837223
 21
144.7158981743
 31
0.0
  0
LINE
  5
173
330
1F
100
AcDbEntity
  8
0
  6
HIDDEN
 62
     7
370
     0
100
AcDbLine
 10
156.4171837223
 20
106.7931225715
 30
0.0
 11
158.6983576009
 21
107.2435755337
 31
0.0
  0
LINE
  5
174
330
1F
100
AcDbEntity
  8
0
  6
HIDDEN
 62
     7
370
     0
100
AcDbLine
 10
157.5360098436
 20
113.1299112097
 30
0.0
 11
156.4171837223
 21
112.9089817377
 31
0.0
  0
LINE
  5
175
330
1F
100
AcDbEntity
  8
0
  6
HIDDEN
 62
     7
370
     0
100
AcDbLine
 10
179.1171837223
 20
109.6802032651
 30
0.0
 11
179.1171837223
 21
122.1645771124
 31
0.0
  0
LINE
  5
176
330
1F
100
AcDbEntity
  8
0
  6
HIDDEN
 62
     7
370
     0
100
AcDbLine
 10
174.1171837223
 20
112.5170242245
 30
0.0
 11
174.1171837223
 21
109.6800747368
 31
0.0
  0
LINE
  5
177
330
1F
100
AcDbEntity
  8
0
  6
HIDDEN
 62
     7
370
     0
100
AcDbLine
 10
174.1171837223
 20
122.1650429206
 30
0.0
 11
174.1171837223
 21
114.175155332
 31
0.0
  0
LINE
  5
178
330
1F
100
AcDbEntity
  8
0
  6
HIDDEN
 62
     7
370
     0
100
AcDbLine
 10
158.8076921595
 20
108.1825442033
 30
0.0
 11
175.0336134734
 21
111.3866026
 31
0.0
  0
LINE
  5
179
330
1F
100
AcDbEntity
  8
0
  6
HIDDEN
 62
     7
370
     0
100
AcDbLine
 10
175.0320530628
 20
115.6673958892
 30
0.0
 11
157.9940487294
 21
112.3029791766
 31
0.0
  0
ARC
  5
17A
330
1F
100
AcDbEntity
  8
0
  6
HIDDEN
 62
     7
370
     0
100
AcDbCircle
 10
227.4171837223
 20
143.2158981743
 30
0.0
 40
1.0
100
AcDbArc
 50
270.0
 51
0.0
  0
ARC
  5
17B
330
1F
100
AcDbEntity
  8
0
  6
HIDDEN
 62
     7
370
     0
100
AcDbCircle
 10
227.4171837223
 20
105.2158981743
 30
0.0
 40
1.0
100
AcDbArc
 50
0.0
 51
90.0
  0
LINE
  5
17C
330
1F
100
AcDbEntity
  8
0
  6
HIDDEN
 62
     7
370
     0
100
AcDbLine
 10
190.7855312247
 20
142.7158981743
 30
0.0
 11
188.9171837223
 21
142.7158981743
 31
0.0
  0
LINE
  5
17D
330
1F
100
AcDbEntity
  8
0
  6
HIDDEN
 62
     7
370
     0
100
AcDbLine
 10
188.9171837223
 20
105.7158981743
 30
0.0
 11
190.7855312247
 21
105.7158981743
 31
0.0
  0
ARC
  5
17E
330
1F
100
AcDbEntity
  8
0
  6
HIDDEN
 62
     7
370
     0
100
AcDbCircle
 10
190.7855312247
 20
141.7158981743
 30
0.0
 40
1.0
100
AcDbArc
 50
75.0
 51
90.0
  0
ARC
  5
17F
330
1F
100
AcDbEntity
  8
0
  6
HIDDEN
 62
     7
370
     0
100
AcDbCircle
 10
190.7855312247
 20
106.7158981743
 30
0.0
 40
1.000000000000003
100
AcDbArc
 50
270.0
 51
285.0
  0
ARC
  5
180
330
1F
100
AcDbEntity
  8
0
  6
HIDDEN
 62
     7
370
     0
100
AcDbCircle
 10
188.9171837223
 20
141.7158981743
 30
0.0
 40
1.0
100
AcDbArc
 50
90.0
 51
180.0
  0
ARC
  5
181
330
1F
100
AcDbEntity
  8
0
  6
HIDDEN
 62
     7
370
     0
100
AcDbCircle
 10
188.9171837223
 20
106.7158981743
 30
0.0
 40
1.0
100
AcDbArc
 50
180.0
 51
270.0
  0
LINE
  5
182
330
1F
100
AcDbEntity
  8
0
  6
HIDDEN
 62
     7
370
     0
100
AcDbLine
 10
191.0443502698
 20
105.749972348
 30
0.0
 11
192.783209126
 21
106.2158981743
 31
0.0
  0
LINE
  5
183
330
1F
100
AcDbEntity
  8
0
  6
HIDDEN
 62
     7
370
     0
100
AcDbLine
 10
192.783209126
 20
142.2158981743
 30
0.0
 11
191.0443502698
 21
142.6818240006
 31
0.0
  0
LINE
  5
184
330
1F
100
AcDbEntity
  8
0
  6
HIDDEN
 62
     7
370
     0
100
AcDbLine
 10
203.1331359316
 20
142.2158981743
 30
0.0
 11
192.783209126
 21
142.2158981743
 31
0.0
  0
LINE
  5
185
330
1F
100
AcDbEntity
  8
0
  6
HIDDEN
 62
     7
370
     0
100
AcDbLine
 10
227.4171837223
 20
142.2158981743
 30
0.0
 11
217.6152282793
 21
142.2158981743
 31
0.0
  0
LINE
  5
186
330
1F
100
AcDbEntity
  8
0
  6
HIDDEN
 62
     7
370
     0
100
AcDbLine
 10
192.783209126
 20
106.2158981743
 30
0.0
 11
227.4171837223
 21
106.2158981743
 31
0.0
  0
ARC
  5
187
330
1F
100
AcDbEntity
  8
0
  6
HIDDEN
 62
     7
370
     0
100
AcDbCircle
 10
52.8171837223
 20
110.5158981743
 30
0.0
 40
1.200000000000003
100
AcDbArc
 50
90.0
 51
180.0
  0
ARC
  5
188
330
1F
100
AcDbEntity
  8
0
  6
HIDDEN
 62
     7
370
     0
100
AcDbCircle
 10
52.8171837223
 20
137.9158981743
 30
0.0
 40
1.200000000000017
100
AcDbArc
 50
180.0
 51
270.0
  0
ARC
  5
189
330
1F
100
AcDbEntity
  8
0
  6
HIDDEN
 62
     7
370
     0
100
AcDbCircle
 10
184.4171837223
 20
161.5158981743
 30
0.0
 40
2.0
100
AcDbArc
 50
270.0
 51
0.0
  0
LINE
  5
18A
330
1F
100
AcDbEntity
  8
0
  6
HIDDEN
 62
     7
370
     0
100
AcDbLine
 10
186.4171837223
 20
161.5158981743
 30
0.0
 11
186.4171837223
 21
173.3160015248
 31
0.0
  0
LINE
  5
18B
330
1F
100
AcDbEntity
  8
0
  6
HIDDEN
 62
     7
370
     0
100
AcDbLine
 10
186.4171837223
 20
75.1156827872
 30
0.0
 11
186.4171837223
 21
86.9158981743
 31
0.0
  0
ARC
  5
18C
330
1F
100
AcDbEntity
  8
0
  6
HIDDEN
 62
     7
370
     0
100
AcDbCircle
 10
184.4171837223
 20
86.9158981743
 30
0.0
 40
2.0
100
AcDbArc
 50
0.0
 51
90.0
  0
LINE
  5
18D
330
1F
100
AcDbEntity
  8
0
  6
HIDDEN
 62
     7
370
     0
100
AcDbLine
 10
62.509556153
 20
111.4908981743
 30
0.0
 11
63.3862436146
 21
111.4908981743
 31
0.0
  0
LINE
  5
18E
330
1F
100
AcDbEntity
  8
0
  6
HIDDEN
 62
     7
370
     0
100
AcDbLine
 10
63.3862436146
 20
136.9408981743
 30
0.0
 11
62.509556153
 21
136.9408981743
 31
0.0
  0
ARC
  5
18F
330
1F
100
AcDbEntity
  8
0
  6
HIDDEN
 62
     7
370
     0
100
AcDbCircle
 10
63.3862436146
 20
111.8908981743
 30
0.0
 40
0.3999999999999936
100
AcDbArc
 50
270.0
 51
330.0
  0
ARC
  5
190
330
1F
100
AcDbEntity
  8
0
  6
HIDDEN
 62
     7
370
     0
100
AcDbCircle
 10
63.3862436146
 20
136.5408981743
 30
0.0
 40
0.3999999999999865
100
AcDbArc
 50
30.0
 51
90.0
  0
ARC
  5
191
330
1F
100
AcDbEntity
  8
0
  6
HIDDEN
 62
     7
370
     0
100
AcDbCircle
 10
62.509556153
 20
111.8908981743
 30
0.0
 40
0.3999999999999915
100
AcDbArc
 50
255.0
 51
270.0
  0
ARC
  5
192
330
1F
100
AcDbEntity
  8
0
  6
HIDDEN
 62
     7
370
     0
100
AcDbCircle
 10
62.509556153
 20
136.5408981743
 30
0.0
 40
0.3999999999999986
100
AcDbArc
 50
90.0
 51
105.0
  0
LINE
  5
193
330
1F
100
AcDbEntity
  8
0
  6
HIDDEN
 62
     7
370
     0
100
AcDbLine
 10
62.406028535
 20
136.9272685048
 30
0.0
 11
61.6171837223
 21
136.7158981743
 31
0.0
  0
LINE
  5
194
330
1F
100
AcDbEntity
  8
0
  6
HIDDEN
 62
     7
370
     0
100
AcDbLine
 10
61.6171837223
 20
111.7158981743
 30
0.0
 11
62.406028535
 21
111.5045278438
 31
0.0
  0
LINE
  5
195
330
1F
100
AcDbEntity
  8
0
  6
HIDDEN
 62
     7
370
     0
100
AcDbLine
 10
63.7326537761
 20
111.6908981743
 30
0.0
 11
64.9017880712
 21
113.7158981743
 31
0.0
  0
LINE
  5
196
330
1F
100
AcDbEntity
  8
0
  6
HIDDEN
 62
     7
370
     0
100
AcDbLine
 10
64.9017880712
 20
134.7158981743
 30
0.0
 11
63.7326537761
 21
136.7408981743
 31
0.0
  0
LINE
  5
197
330
1F
100
AcDbEntity
  8
0
  6
HIDDEN
 62
     7
370
     0
100
AcDbLine
 10
52.8171837223
 20
111.7158981743
 30
0.0
 11
61.6171837223
 21
111.7158981743
 31
0.0
  0
LINE
  5
198
330
1F
100
AcDbEntity
  8
0
  6
HIDDEN
 62
     7
370
     0
100
AcDbLine
 10
61.6171837223
 20
136.7158981743
 30
0.0
 11
52.8171837223
 21
136.7158981743
 31
0.0
  0
LINE
  5
199
330
1F
100
AcDbEntity
  8
0
  6
HIDDEN
 62
     7
370
     0
100
AcDbLine
 10
114.6171837223
 20
113.7158981743
 30
0.0
 11
117.3210565079
 21
118.2158981743
 31
0.0
  0
LINE
  5
19A
330
1F
100
AcDbEntity
  8
0
  6
HIDDEN
 62
     7
370
     0
100
AcDbLine
 10
117.3210565079
 20
130.2158981743
 30
0.0
 11
114.6171837223
 21
134.7158981743
 31
0.0
  0
LINE
  5
19B
330
1F
100
AcDbEntity
  8
0
  6
HIDDEN
 62
     7
370
     0
100
AcDbLine
 10
64.9017880712
 20
113.7158981743
 30
0.0
 11
114.6171837223
 21
113.7158981743
 31
0.0
  0
LINE
  5
19C
330
1F
100
AcDbEntity
  8
0
  6
HIDDEN
 62
     7
370
     0
100
AcDbLine
 10
114.6171837223
 20
134.7158981743
 30
0.0
 11
64.9017880712
 21
134.7158981743
 31
0.0
  0
LINE
  5
19D
330
1F
100
AcDbEntity
  8
0
  6
HIDDEN
 62
     7
370
     0
100
AcDbLine
 10
200.3671837223
 20
155.7158981743
 30
0.0
 11
203.1171837223
 21
152.9658981743
 31
0.0
  0
LINE
  5
19E
330
1F
100
AcDbEntity
  8
0
  6
HIDDEN
 62
     7
370
     0
100
AcDbLine
 10
217.6171837223
 20
152.9658981743
 30
0.0
 11
220.3671837223
 21
155.7158981743
 31
0.0
  0
LINE
  5
19F
330
1F
100
AcDbEntity
  8
0
  6
HIDDEN
 62
     7
370
     0
100
AcDbLine
 10
186.4171880427
 20
173.215898698
 30
0.0
 11
187.417187892
 21
174.2158984769
 31
0.0
  0
LINE
  5
1A0
330
1F
100
AcDbEntity
  8
0
  6
HIDDEN
 62
     7
370
     0
100
AcDbLine
 10
187.4171878927
 20
74.215897871
 30
0.0
 11
186.4171880434
 21
75.2158976499
 31
0.0
  0
LINE
  5
1A1
330
1F
100
AcDbEntity
  8
0
  6
HIDDEN
 62
     7
370
     0
100
AcDbLine
 10
203.1171837223
 20
152.9658981743
 30
0.0
 11
203.1171837223
 21
142.2095021182
 31
0.0
  0
LINE
  5
1A2
330
1F
100
AcDbEntity
  8
0
  6
HIDDEN
 62
     7
370
     0
100
AcDbLine
 10
217.6171837223
 20
142.2151123377
 30
0.0
 11
217.6171837223
 21
152.9658981743
 31
0.0
  0
LINE
  5
1A3
330
1F
100
AcDbEntity
  8
0
  6
HIDDEN
 62
     7
370
     0
100
AcDbLine
 10
187.9171837223
 20
130.2158981743
 30
0.0
 11
117.3210565079
 21
130.2158981743
 31
0.0
  0
LINE
  5
1A4
330
1F
100
AcDbEntity
  8
0
  6
HIDDEN
 62
     7
370
     0
100
AcDbLine
 10
117.3210565079
 20
118.2158981743
 30
0.0
 11
187.9171837223
 21
118.2158981743
 31
0.0
  0
LINE
  5
1A5
330
1F
100
AcDbEntity
  8
0
  6
HIDDEN
 62
     7
370
     0
100
AcDbLine
 10
179.1171837223
 20
126.266753428
 30
0.0
 11
179.1171837223
 21
138.7517216118
 31
0.0
  0
LINE
  5
1A6
330
1F
100
AcDbEntity
  8
0
  6
HIDDEN
 62
     7
370
     0
100
AcDbLine
 10
174.1171837223
 20
134.2579786523
 30
0.0
 11
174.1171837223
 21
126.2672192362
 31
0.0
  0
LINE
  5
1A7
330
1F
100
AcDbEntity
  8
0
  6
HIDDEN
 62
     7
370
     0
100
AcDbLine
 10
174.1171837223
 20
138.7515930835
 30
0.0
 11
174.1171837223
 21
135.9145764335
 31
0.0
  0
LINE
  5
1A8
330
1F
100
AcDbEntity
  8
0
  6
HIDDEN
 62
     7
370
     0
100
AcDbLine
 10
157.9940487294
 20
136.128817172
 30
0.0
 11
175.0319874468
 21
132.7644134163
 31
0.0
  0
LINE
  5
1A9
330
1F
100
AcDbEntity
  8
0
  6
HIDDEN
 62
     7
370
     0
100
AcDbLine
 10
175.033566813
 20
137.0452029624
 30
0.0
 11
158.8076921595
 21
140.2492521452
 31
0.0
  0
LINE
  5
1AA
330
1F
100
AcDbEntity
  8
0
  6
HIDDEN
 62
     7
370
     0
100
AcDbLine
 10
156.4171837223
 20
135.5228146108
 30
0.0
 11
157.5360098436
 21
135.3018851388
 31
0.0
  0
LINE
  5
1AB
330
1F
100
AcDbEntity
  8
0
  6
HIDDEN
 62
     7
370
     0
100
AcDbLine
 10
158.6983576009
 20
141.1882208149
 30
0.0
 11
156.4171837223
 21
141.6386737771
 31
0.0
  0
LINE
  5
1AC
330
1F
100
AcDbEntity
  8
0
  6
HIDDEN
 62
     7
370
     0
100
AcDbLine
 10
156.8944337223
 20
111.1300850581
 30
0.0
 11
156.8944337223
 21
110.9110959053
 31
0.0
  0
LINE
  5
1AD
330
1F
100
AcDbEntity
  8
0
  6
HIDDEN
 62
     7
370
     0
100
AcDbLine
 10
157.2615446579
 20
109.0519808648
 30
0.0
 11
157.3447844918
 21
108.849428701
 31
0.0
  0
LINE
  5
1AE
330
1F
100
AcDbEntity
  8
0
  6
HIDDEN
 62
     7
370
     0
100
AcDbLine
 10
158.9756076009
 20
107.2983228219
 30
0.0
 11
162.162459216
 21
107.9276158203
 31
0.0
  0
LINE
  5
1AF
330
1F
100
AcDbEntity
  8
0
  6
HIDDEN
 62
     7
370
     0
100
AcDbLine
 10
161.0001114588
 20
113.8139514964
 30
0.0
 11
157.8132598436
 21
113.1846584979
 31
0.0
  0
LINE
  5
1B0
330
1F
100
AcDbEntity
  8
0
  6
HIDDEN
 62
     7
370
     0
100
AcDbLine
 10
162.8093185813
 20
108.524481386
 30
0.0
 11
163.2659995705
 21
109.4775922151
 31
0.0
  0
LINE
  5
1B1
330
1F
100
AcDbEntity
  8
0
  6
HIDDEN
 62
     7
370
     0
100
AcDbLine
 10
162.6099823583
 20
112.7997799994
 30
0.0
 11
161.825292763
 21
113.5077630625
 31
0.0
  0
LINE
  5
1B2
330
1F
100
AcDbEntity
  8
0
  6
HIDDEN
 62
     7
370
     0
100
AcDbLine
 10
179.6171837223
 20
109.7895366593
 30
0.0
 11
179.6171837223
 21
111.0481226563
 31
0.0
  0
LINE
  5
1B3
330
1F
100
AcDbEntity
  8
0
  6
HIDDEN
 62
     7
370
     0
100
AcDbLine
 10
173.6171837223
 20
111.0481226563
 30
0.0
 11
173.6171837223
 21
109.7895366593
 31
0.0
  0
LINE
  5
1B4
330
1F
100
AcDbEntity
  8
0
  6
HIDDEN
 62
     7
370
     0
100
AcDbLine
 10
161.825292763
 20
134.9240332861
 30
0.0
 11
162.6099823583
 21
135.6320163492
 31
0.0
  0
LINE
  5
1B5
330
1F
100
AcDbEntity
  8
0
  6
HIDDEN
 62
     7
370
     0
100
AcDbLine
 10
163.2659995705
 20
138.9542041335
 30
0.0
 11
162.8093185813
 21
139.9073149626
 31
0.0
  0
LINE
  5
1B6
330
1F
100
AcDbEntity
  8
0
  6
HIDDEN
 62
     7
370
     0
100
AcDbLine
 10
157.8132598436
 20
135.2471378507
 30
0.0
 11
161.0001114588
 21
134.6178448522
 31
0.0
  0
LINE
  5
1B7
330
1F
100
AcDbEntity
  8
0
  6
HIDDEN
 62
     7
370
     0
100
AcDbLine
 10
162.162459216
 20
140.5041805283
 30
0.0
 11
158.9756076009
 21
141.1334735267
 31
0.0
  0
LINE
  5
1B8
330
1F
100
AcDbEntity
  8
0
  6
HIDDEN
 62
     7
370
     0
100
AcDbLine
 10
157.3447844918
 20
139.5823676476
 30
0.0
 11
157.2615446579
 21
139.3798154837
 31
0.0
  0
LINE
  5
1B9
330
1F
100
AcDbEntity
  8
0
  6
HIDDEN
 62
     7
370
     0
100
AcDbLine
 10
156.8944337223
 20
137.5207004433
 30
0.0
 11
156.8944337223
 21
137.3017112905
 31
0.0
  0
LINE
  5
1BA
330
1F
100
AcDbEntity
  8
0
  6
HIDDEN
 62
     7
370
     0
100
AcDbLine
 10
173.6171837223
 20
138.6422596892
 30
0.0
 11
173.6171837223
 21
137.3836736923
 31
0.0
  0
LINE
  5
1BB
330
1F
100
AcDbEntity
  8
0
  6
HIDDEN
 62
     7
370
     0
100
AcDbLine
 10
179.6171837223
 20
137.3836736923
 30
0.0
 11
179.6171837223
 21
138.6422596892
 31
0.0
  0
DIMENSION
  5
1BC
330
1F
100
AcDbEntity
  8
VERMASSUNG
100
AcDbDimension
  2
_D
 10
41.6171837223
 20
174.2158981743
 30
0.0
 11
41.6171837223
 21
124.2158981743
 31
0.0
 70
   160
  1
MAS-BT 50 %%c<>
 71
     2
 42
-1.0
  3
SLDDIMSTYLE0
100
AcDbAlignedDimension
 13
190.4171837223
 23
74.2158981743
 33
0.0
 14
190.4171837223
 24
174.2158981743
 34
0.0
 50
90.0
100
AcDbRotatedDimension
  0
DIMENSION
  5
1C9
330
1F
100
AcDbEntity
  8
VERMASSUNG
100
AcDbDimension
  2
_D_1
 10
228.4171837223
 20
191.207913815
 30
0.0
 11
140.0171837223
 21
191.207913815
 31
0.0
 70
   160
  1
<>
 71
     2
 42
-1.0
  3
SLDDIMSTYLE0
100
AcDbAlignedDimension
 13
51.6171837223
 23
142.565576035
 33
0.0
 14
228.4171837223
 24
155.1158981743
 34
0.0
100
AcDbRotatedDimension
  0
DIMENSION
  5
1D3
330
1F
100
AcDbEntity
  8
VERMASSUNG
100
AcDbDimension
  2
_D_2
 10
191.4171837223
 20
179.207913815
 30
0.0
 11
209.9171837223
 21
179.207913815
 31
0.0
 70
   160
  1
<>
 71
     2
 42
-1.0
  3
SLDDIMSTYLE0
100
AcDbAlignedDimension
 13
228.4171837223
 23
155.1158981743
 33
0.0
 14
191.4171837223
 24
173.2158981743
 34
0.0
100
AcDbRotatedDimension
  0
DIMENSION
  5
1DD
330
1F
100
AcDbEntity
  8
VERMASSUNG
100
AcDbDimension
  2
_D_3
 10
153.4171837223
 20
185.207913815
 30
0.0
 11
190.9171837223
 21
185.207913815
 31
0.0
 70
   160
  1
<>
 71
     2
 42
-1.0
  3
SLDDIMSTYLE0
100
AcDbAlignedDimension
 13
228.4171837223
 23
155.1158981743
 33
0.0
 14
153.4171837223
 24
159.1408981743
 34
0.0
100
AcDbRotatedDimension
  0
DIMENSION
  5
1E7
330
1F
100
AcDbEntity
  8
VERMASSUNG
100
AcDbDimension
  2
_D_4
 10
243.7726438386
 20
92.7158981743
 30
0.0
 11
243.7726438386
 21
124.2158981743
 31
0.0
 70
   160
  1
WH%%c<>
 71
     2
 42
-1.0
  3
SLDDIMSTYLE0
100
AcDbAlignedDimension
 13
227.8171837223
 23
155.7158981743
 33
0.0
 14
227.8171837223
 24
92.7158981743
 34
0.0
 50
90.0
100
AcDbRotatedDimension
  0
DIMENSION
  5
1F3
330
1F
100
AcDbEntity
  8
VERMASSUNG
100
AcDbDimension
  2
_D_5
 10
237.8726438386
 20
106.2158981743
 30
0.0
 11
237.8726438386
 21
124.2158981743
 31
0.0
 70
   160
  1
%%c<>
 71
     2
 42
-1.0
  3
SLDDIMSTYLE0
100
AcDbAlignedDimension
 13
227.4171837223
 23
142.2158981743
 33
0.0
 14
227.4171837223
 24
106.2158981743
 34
0.0
 50
90.0
100
AcDbRotatedDimension
  0
LINE
  5
1FE
330
1F
100
AcDbEntity
  8
VERMASSUNG
  6
CENTERX2
370
     0
100
AcDbLine
 10
50.1114223011
 20
124.2158981743
 30
0.0
 11
230.4121709709
 21
124.2158981743
 31
0.0
  0
LINE
  5
1FF
330
1F
100
AcDbEntity
  8
0
  6
Continuous
 62
     7
370
    15
100
AcDbLine
 10
272.136272565
 20
46.8367213146
 30
0.0
 11
271.782661726
 21
47.0409228622
 31
0.0
  0
LINE
  5
200
330
1F
100
AcDbEntity
  8
0
  6
Continuous
 62
     7
370
    15
100
AcDbLine
 10
266.8321099806
 20
47.0409228622
 30
0.0
 11
266.4784991417
 21
46.8367213146
 31
0.0
  0
LINE
  5
201
330
1F
100
AcDbEntity
  8
0
  6
Continuous
 62
     7
370
    15
100
AcDbLine
 10
265.3073858533
 20
45.204170448
 30
0.0
 11
265.3073858533
 21
44.795900042
 31
0.0
  0
LINE
  5
202
330
1F
100
AcDbEntity
  8
0
  6
Continuous
 62
     7
370
    15
100
AcDbLine
 10
273.3073858533
 20
44.795900042
 30
0.0
 11
273.3073858533
 21
45.204170448
 31
0.0
  0
LINE
  5
203
330
1F
100
AcDbEntity
  8
0
  6
Continuous
 62
     7
370
    15
100
AcDbLine
 10
274.4365842178
 20
32.5388405068
 30
0.0
 11
276.7294036639
 21
33.0059852984
 31
0.0
  0
LINE
  5
204
330
1F
100
AcDbEntity
  8
0
  6
Continuous
 62
     7
370
    15
100
AcDbLine
 10
275.4787025838
 20
16.3308699896
 30
0.0
 11
275.6908001407
 21
16.4533511098
 31
0.0
  0
LINE
  5
205
330
1F
100
AcDbEntity
  8
0
  6
Continuous
 62
     7
370
    15
100
AcDbLine
 10
286.6138243229
 20
35.3746341259
 30
0.0
 11
286.6138243229
 21
35.6195565595
 31
0.0
  0
SPLINE
  5
206
330
1F
100
AcDbEntity
  8
0
  6
Continuous
 62
     7
370
    15
100
AcDbSpline
210
0.0
220
0.0
230
1.0
 70
     8
 71
     3
 72
    16
 73
    12
 74
     0
 42
0.000000001
 43
0.00000001
 40
0.0
 40
0.0
 40
0.0
 40
0.0
 40
0.0295079071865374
 40
0.1572593348170301
 40
0.2855382576495415
 40
0.4142807832474462
 40
0.5433743366761503
 40
0.672698762821727
 40
0.8021514492175575
 40
0.9316565249336869
 40
1.0
 40
1.0
 40
1.0
 40
1.0
 10
253.6173561604249
 20
14.00741852596485
 30
0.0
 10
253.7115983839301
 20
13.99555251804862
 30
0.0
 10
254.2138525521576
 20
13.93231385798225
 30
0.0
 10
255.1754259421496
 20
13.96102300601573
 30
0.0
 10
256.4955081632915
 20
14.09979397304704
 30
0.0
 10
257.8570467186624
 20
14.39523910749098
 30
0.0
 10
259.245624384621
 20
14.83094155362934
 30
0.0
 10
260.6537135753084
 20
15.40616913130496
 30
0.0
 10
262.0707767813802
 20
16.12367805867042
 30
0.0
 10
263.2672080040398
 20
16.8197795246725
 30
0.0
 10
263.9835032292164
 20
17.32272168443512
 30
0.0
 10
264.2309354427372
 20
17.4964546474495
 30
0.0
  0
SPLINE
  5
207
330
1F
100
AcDbEntity
  8
0
  6
Continuous
 62
     7
370
    15
100
AcDbSpline
210
0.0
220
0.0
230
1.0
 70
     8
 71
     3
 72
    16
 73
    12
 74
     0
 42
0.000000001
 43
0.00000001
 40
0.0
 40
0.0
 40
0.0
 40
0.0
 40
0.0414632521151876
 40
0.1707310124227532
 40
0.300053415414945
 40
0.4294099561238179
 40
0.5587449144905318
 40
0.6879841971630174
 40
0.8170244757781522
 40
0.9457379499996796
 40
1.0
 40
1.0
 40
1.0
 40
1.0
 10
279.9812802373846
 20
44.77605586098094
 30
0.0
 10
279.9995119435682
 20
44.96002866314585
 30
0.0
 10
280.0745836636124
 20
45.71756361685876
 30
0.0
 10
280.0915243831252
 20
46.99693714191265
 30
0.0
 10
280.0295096529875
 20
48.60050579144256
 30
0.0
 10
279.8456018237951
 20
50.12767076956883
 30
0.0
 10
279.550029963809
 20
51.5722388842189
 30
0.0
 10
279.1435733703354
 20
52.92578350058891
 30
0.0
 10
278.6214896326046
 20
54.17022548605606
 30
0.0
 10
278.1320937954014
 20
55.10805439802552
 30
0.0
 10
277.7811651560076
 20
55.58560265322182
 30
0.0
 10
277.6770960054569
 20
55.72722130637901
 30
0.0
  0
LINE
  5
208
330
1F
100
AcDbEntity
  8
0
  6
Continuous
 62
     7
370
    15
100
AcDbLine
 10
283.3512525387
 20
42.8306122614
 30
0.0
 11
271.5425692929
 21
49.6476199951
 31
0.0
  0
LINE
  5
209
330
1F
100
AcDbEntity
  8
0
  6
Continuous
 62
     7
370
    15
100
AcDbLine
 10
255.7938492538
 20
22.3670808301
 30
0.0
 11
267.6025324997
 21
15.5500730964
 31
0.0
  0
LINE
  5
20A
330
1F
100
AcDbEntity
  8
0
  6
Continuous
 62
     7
370
    15
100
AcDbLine
 10
247.536464027
 20
16.4532771903
 30
0.0
 11
249.755011553
 21
15.1725369649
 31
0.0
  0
LINE
  5
20B
330
1F
100
AcDbEntity
  8
0
  6
Continuous
 62
     7
370
    15
100
AcDbLine
 10
274.7529798689
 20
58.4749800839
 30
0.0
 11
272.534432343
 21
59.7557203094
 31
0.0
  0
LINE
  5
20C
330
1F
100
AcDbEntity
  8
0
  6
Continuous
 62
     7
370
    15
100
AcDbLine
 10
267.2134538145
 20
62.8274558301
 30
0.0
 11
263.0857179793
 21
65.2103470065
 31
0.0
  0
SPLINE
  5
20D
330
1F
100
AcDbEntity
  8
0
  6
Continuous
 62
     7
370
    15
100
AcDbSpline
210
0.0
220
0.0
230
1.0
 70
     8
 71
     3
 72
    26
 73
    22
 74
     0
 42
0.000000001
 43
0.00000001
 40
0.0
 40
0.0
 40
0.0
 40
0.0
 40
0.0227906035274553
 40
0.0824836551276144
 40
0.1410993715619884
 40
0.1983504107529479
 40
0.2547370649611123
 40
0.3107486137343247
 40
0.3666695712537404
 40
0.4226008798460968
 40
0.4786074026460475
 40
0.5347012845151439
 40
0.5908693217836731
 40
0.6470875952401502
 40
0.7033280496098401
 40
0.759558407158584
 40
0.815741167628411
 40
0.8718461319285776
 40
0.9278449886392733
 40
0.983716238811019
 40
1.0
 40
1.0
 40
1.0
 40
1.0
 10
270.7005171878206
 20
21.58299333259653
 30
0.0
 10
270.6293370699262
 20
21.62478331352005
 30
0.0
 10
270.3717222906922
 20
21.77602943432299
 30
0.0
 10
270.011905407603
 20
22.1754403981449
 30
0.0
 10
269.6294220261466
 20
22.77604055766459
 30
0.0
 10
269.3504951525568
 20
23.49868130896843
 30
0.0
 10
269.1732638136681
 20
24.31752437394463
 30
0.0
 10
269.1016691356272
 20
25.22231946143793
 30
0.0
 10
269.1370984973137
 20
26.19819071467436
 30
0.0
 10
269.2801639655106
 20
27.22910629661417
 30
0.0
 10
269.5294295986902
 20
28.29705638951917
 30
0.0
 10
269.8814506595626
 20
29.38319159550958
 30
0.0
 10
270.3306507099994
 20
30.46800012072374
 30
0.0
 10
270.8694293872276
 20
31.53188610038791
 30
0.0
 10
271.4883103112141
 20
32.55560119424616
 30
0.0
 10
272.1761109241154
 20
33.5206740768601
 30
0.0
 10
272.9201340178567
 20
34.40965788827747
 30
0.0
 10
273.7064935633162
 20
35.20717391358172
 30
0.0
 10
274.5200238930847
 20
35.89781110966543
 30
0.0
 10
275.1514437753665
 20
36.33964978602078
 30
0.0
 10
275.5055394306474
 20
36.54887855116721
 30
0.0
 10
275.5854508460835
 20
36.59609677179056
 30
0.0
  0
SPLINE
  5
20E
330
1F
100
AcDbEntity
  8
0
  6
Continuous
 62
     7
370
    15
100
AcDbSpline
210
0.0
220
0.0
230
1.0
 70
     8
 71
     3
 72
    14
 73
    10
 74
     0
 42
0.000000001
 43
0.00000001
 40
0.0
 40
0.0
 40
0.0
 40
0.0
 40
0.0908697656867939
 40
0.2642443959586152
 40
0.4375710129415984
 40
0.6113413302539479
 40
0.7866955851258669
 40
0.9653234914264192
 40
1.0
 40
1.0
 40
1.0
 40
1.0
 10
275.5854508460836
 20
36.59609677179056
 30
0.0
 10
275.7282787286206
 20
36.67517462924763
 30
0.0
 10
276.1436145365407
 20
36.90512878968278
 30
0.0
 10
276.8208250590426
 20
37.18762614202488
 30
0.0
 10
277.5931034971349
 20
37.39449286228714
 30
0.0
 10
278.3209527012046
 20
37.46811089906811
 30
0.0
 10
278.9867294025632
 20
37.39859042553537
 30
0.0
 10
279.4427090982713
 20
37.28427228361024
 30
0.0
 10
279.6535615343112
 20
37.15354323428592
 30
0.0
 10
279.6878394291705
 20
37.13229085185218
 30
0.0
  0
SPLINE
  5
20F
330
1F
100
AcDbEntity
  8
0
  6
Continuous
 62
     7
370
    15
100
AcDbSpline
210
0.0
220
0.0
230
1.0
 70
     8
 71
     3
 72
    31
 73
    27
 74
     0
 42
0.000000001
 43
0.00000001
 40
0.0
 40
0.0
 40
0.0
 40
0.0
 40
0.018342481450696
 40
0.0620149509310538
 40
0.105864957153825
 40
0.1498655462930296
 40
0.1939766288579195
 40
0.2381579821269867
 40
0.2823764970167145
 40
0.3266079441111511
 40
0.370833879296485
 40
0.415047333874742
 40
0.4592453778710863
 40
0.503427682981613
 40
0.5475955173449968
 40
0.5917510864138393
 40
0.6358971226055855
 40
0.6800366424902103
 40
0.724172811530625
 40
0.768308874283194
 40
0.8124474407720712
 40
0.856591413997809
 40
0.9007441210778869
 40
0.9449088566948951
 40
0.9890887974791109
 40
1.0
 40
1.0
 40
1.0
 40
1.0
 10
259.1785024345954
 20
66.37420295233898
 30
0.0
 10
259.0056383309357
 20
66.39216468449828
 30
0.0
 10
258.4211940214233
 20
66.45289234239398
 30
0.0
 10
257.372459495735
 20
66.40324246469524
 30
0.0
 10
256.0422971397252
 20
66.22930680665019
 30
0.0
 10
254.6739004667539
 20
65.90215071831204
 30
0.0
 10
253.2801304468579
 20
65.43480679068757
 30
0.0
 10
251.8692071441811
 20
64.82732278949088
 30
0.0
 10
250.4507196230987
 20
64.08464159725051
 30
0.0
 10
249.0338272492598
 20
63.21164274477776
 30
0.0
 10
247.6275922905277
 20
62.2142992244323
 30
0.0
 10
246.2408358437671
 20
61.09922972645308
 30
0.0
 10
244.8821386400005
 20
59.87369843870942
 30
0.0
 10
243.5598744724132
 20
58.54558579784953
 30
0.0
 10
242.2821852990729
 20
57.12335664939917
 30
0.0
 10
241.0569454931693
 20
55.6160171960123
 30
0.0
 10
239.891720913203
 20
54.03306904134423
 30
0.0
 10
238.7937282309338
 20
52.38445781613908
 30
0.0
 10
237.7697832188266
 20
50.68051389048132
 30
0.0
 10
236.8262959742747
 20
48.93190801960494
 30
0.0
 10
235.9691083047348
 20
47.1495524691734
 30
0.0
 10
235.2039004653713
 20
45.3446427769326
 30
0.0
 10
234.5344913654847
 20
43.52814547550125
 30
0.0
 10
233.9690360931486
 20
41.71234484310808
 30
0.0
 10
233.6153876564231
 20
40.35871383342162
 30
0.0
 10
233.458061993062
 20
39.61622884904043
 30
0.0
 10
233.426902498601
 20
39.46917428550676
 30
0.0
  0
LINE
  5
210
330
1F
100
AcDbEntity
  8
0
  6
Continuous
 62
     7
370
    15
100
AcDbLine
 10
248.6629306247
 20
62.9266222007
 30
0.0
 11
218.3163699672
 21
73.8623197656
 31
0.0
  0
LINE
  5
211
330
1F
100
AcDbEntity
  8
0
  6
Continuous
 62
     7
370
    15
100
AcDbLine
 10
208.2070152918
 20
56.3505063947
 30
0.0
 11
237.6707526184
 21
31.4715701693
 31
0.0
  0
LINE
  5
212
330
1F
100
AcDbEntity
  8
0
  6
Continuous
 62
     7
370
    15
100
AcDbLine
 10
238.0877496634
 20
21.9079038874
 30
0.0
 11
242.2154854986
 21
19.5250127111
 31
0.0
  0
SPLINE
  5
213
330
1F
100
AcDbEntity
  8
0
  6
Continuous
 62
     7
370
    15
100
AcDbSpline
210
0.0
220
0.0
230
1.0
 70
     8
 71
     3
 72
    11
 73
     7
 74
     0
 42
0.000000001
 43
0.00000001
 40
0.0
 40
0.0
 40
0.0
 40
0.0
 40
0.1050885860694574
 40
0.4236183153902486
 40
0.7416590627631888
 40
1.0
 40
1.0
 40
1.0
 40
1.0
 10
233.4321909336548
 20
28.38231624689893
 30
0.0
 10
233.4745976890418
 20
28.23196263342651
 30
0.0
 10
233.6455418319796
 20
27.62587831129163
 30
0.0
 10
234.0266546060476
 20
26.63586161836416
 30
0.0
 10
234.5666016448225
 20
25.51817191166453
 30
0.0
 10
234.9970351952354
 20
24.88818625886946
 30
0.0
 10
235.1899604907488
 20
24.60581940313042
 30
0.0
  0
SPLINE
  5
214
330
1F
100
AcDbEntity
  8
0
  6
Continuous
 62
     7
370
    15
100
AcDbSpline
210
0.0
220
0.0
230
1.0
 70
     8
 71
     3
 72
    26
 73
    22
 74
     0
 42
0.000000001
 43
0.00000001
 40
0.0
 40
0.0
 40
0.0
 40
0.0
 40
0.0211003487122628
 40
0.0734660947596716
 40
0.1265293848983989
 40
0.1807963946600735
 40
0.2363312363639711
 40
0.2928241536681345
 40
0.3498299648572936
 40
0.4069680242110202
 40
0.464024702657787
 40
0.5209555255077407
 40
0.5777730718169946
 40
0.6345160112361959
 40
0.6912339037794962
 40
0.7479784728614466
 40
0.8047900183011125
 40
0.8617257557541511
 40
0.9188408427311997
 40
0.9761800833651304
 40
0.9999999999999999
 40
0.9999999999999999
 40
0.9999999999999999
 40
0.9999999999999999
 10
218.3568004808645
 20
73.82748128404147
 30
0.0
 10
218.2576314595186
 20
73.86958150237693
 30
0.0
 10
217.9123499279778
 20
74.01616384903922
 30
0.0
 10
217.2574812430233
 20
74.1168582634805
 30
0.0
 10
216.4114396932603
 20
74.13166160574409
 30
0.0
 10
215.5243031422447
 20
73.99318696267981
 30
0.0
 10
214.6100793416473
 20
73.71232197796668
 30
0.0
 10
213.6806243160342
 20
73.2876719117068
 30
0.0
 10
212.7526624796583
 20
72.7265601089166
 30
0.0
 10
211.8428255903854
 20
72.0394278464973
 30
0.0
 10
210.9662666137167
 20
71.23945188180858
 30
0.0
 10
210.1361408030684
 20
70.34067533750385
 30
0.0
 10
209.3641524976182
 20
69.35760134921784
 30
0.0
 10
208.6611266267315
 20
68.30536082676541
 30
0.0
 10
208.0371001716603
 20
67.19969011801224
 30
0.0
 10
207.5012599925445
 20
66.05686518835078
 30
0.0
 10
207.061989359806
 20
64.89350723083108
 30
0.0
 10
206.726065269614
 20
63.72592441660933
 30
0.0
 10
206.5015510779469
 20
62.5712695222701
 30
0.0
 10
206.4097004813897
 20
61.66368046216383
 30
0.0
 10
206.4024337987184
 20
61.15036554187287
 30
0.0
 10
206.4003010538592
 20
60.99970948505517
 30
0.0
  0
SPLINE
  5
215
330
1F
100
AcDbEntity
  8
0
  6
Continuous
 62
     7
370
    15
100
AcDbSpline
210
0.0
220
0.0
230
1.0
 70
     8
 71
     3
 72
    13
 73
     9
 74
     0
 42
0.000000001
 43
0.00000001
 40
0.0
 40
0.0
 40
0.0
 40
0.0
 40
0.1011487783717619
 40
0.2919018006118885
 40
0.4826418266735833
 40
0.6715266520409041
 40
0.8566629140943125
 40
0.9999999999999999
 40
0.9999999999999999
 40
0.9999999999999999
 40
0.9999999999999999
 10
206.4003010538592
 20
60.99970948505517
 30
0.0
 10
206.4037584872251
 20
60.80906385336856
 30
0.0
 10
206.4137361759453
 20
60.25888614421645
 30
0.0
 10
206.5255959830115
 20
59.39557021717038
 30
0.0
 10
206.7772873742747
 20
58.44746000230771
 30
0.0
 10
207.1591542562136
 20
57.60275821940575
 30
0.0
 10
207.6132945483982
 20
56.91067215517472
 30
0.0
 10
207.9886693294355
 20
56.56584849996739
 30
0.0
 10
208.1524729609043
 20
56.41537657219649
 30
0.0
  0
LWPOLYLINE
  5
216
330
1F
100
AcDbEntity
  8
0
  6
Continuous
 62
     7
370
    15
100
AcDbPolyline
 90
        3
 70
   128
 43
0.0
 10
273.0561716137
 20
46.0096068738
 10
272.668598611
 20
46.4559997569
 10
272.136272565
 20
46.8367213146
  0
LWPOLYLINE
  5
217
330
1F
100
AcDbEntity
  8
0
  6
Continuous
 62
     7
370
    15
100
AcDbPolyline
 90
       22
 70
   128
 43
0.0
 10
266.4784991417
 20
46.8367213146
 10
266.048817474
 20
46.5433948425
 10
265.6263005144
 20
46.1076968571
 10
265.3759070141
 20
45.629750981
 10
265.3093450948
 20
45.1319054322
 10
265.4297271178
 20
44.6374389151
 10
265.7314241536
 20
44.1694721347
 10
266.2003291841
 20
43.7498866975
 10
266.8145167312
 20
43.3983019521
 10
267.5452680678
 20
43.1311576104
 10
268.3584140736
 20
42.9609450451
 10
269.2159329451
 20
42.8956232064
 10
270.077728053
 20
42.938246471
 10
270.9035028157
 20
43.0868218224
 10
271.6546449233
 20
43.3344020422
 10
272.2960318056
 20
43.6694105546
 10
272.7976729248
 20
44.0761827338
 10
273.1361120996
 20
44.5356983649
 10
273.2955242906
 20
45.0264710076
 10
273.2684555607
 20
45.5255526787
 10
273.0561716137
 20
46.0096068738
 10
273.0561716137
 20
46.0096068738
  0
LWPOLYLINE
  5
218
330
1F
100
AcDbEntity
  8
0
  6
Continuous
 62
     7
370
    15
100
AcDbPolyline
 90
       29
 70
   128
 43
0.0
 10
272.5875733936
 20
46.3171977265
 10
272.2336771325
 20
46.7208963023
 10
271.7330444076
 20
47.0690122934
 10
271.1107790341
 20
47.3440897104
 10
270.3980839961
 20
47.532335023
 10
269.630696799
 20
47.6243088251
 10
268.847097441
 20
47.6153991664
 10
268.0865788659
 20
47.5060528143
 10
267.3872766509
 20
47.3017528514
 10
266.784256729
 20
47.012743731
 10
266.307757037
 20
46.6535175772
 10
265.9816712592
 20
46.2420874894
 10
265.8223506982
 20
45.79908429
 10
265.8377843521
 20
45.3467220094
 10
266.027198313
 20
44.9076839813
 10
266.3810945741
 20
44.5039854055
 10
266.881727299
 20
44.1558694144
 10
267.5039926726
 20
43.8807919974
 10
268.2166877105
 20
43.6925466848
 10
268.9840749076
 20
43.6005728827
 10
269.7676742657
 20
43.6094825414
 10
270.5281928407
 20
43.7188288936
 10
271.2274950557
 20
43.9231288564
 10
271.8305149776
 20
44.2121379768
 10
272.3070146696
 20
44.5713641306
 10
272.6331004474
 20
44.9827942185
 10
272.7924210084
 20
45.4257974178
 10
272.7769873546
 20
45.8781596984
 10
272.5875733936
 20
46.3171977265
  0
LWPOLYLINE
  5
219
330
1F
100
AcDbEntity
  8
0
  6
Continuous
 62
     7
370
    15
100
AcDbPolyline
 90
       23
 70
   128
 43
0.0
 10
271.5097974875
 20
46.0856347541
 10
271.1896524774
 20
46.4246689412
 10
270.7170174197
 20
46.6979012392
 10
270.1301823958
 20
46.8831959923
 10
269.4766892895
 20
46.9655417215
 10
268.8094802256
 20
46.9382672657
 10
268.1826085145
 20
46.8035822389
 10
267.6468595741
 20
46.5723980211
 10
267.2456365974
 20
46.2634437827
 10
267.0114442836
 20
45.9017491587
 10
266.9632555013
 20
45.5166164964
 10
267.1049742191
 20
45.1392469537
 10
267.4251192292
 20
44.8002127666
 10
267.897754287
 20
44.5269804686
 10
268.4845893108
 20
44.3416857155
 10
269.1380824172
 20
44.2593399863
 10
269.805291481
 20
44.2866144422
 10
270.4321631921
 20
44.4212994689
 10
270.9679121325
 20
44.6524836867
 10
271.3691351093
 20
44.9614379251
 10
271.603327423
 20
45.3231325491
 10
271.6515162053
 20
45.7082652114
 10
271.5097974875
 20
46.0856347541
  0
SPLINE
  5
21A
330
1F
100
AcDbEntity
  8
0
  6
Continuous
 62
     7
370
    15
100
AcDbSpline
210
0.0
220
0.0
230
1.0
 70
     8
 71
     3
 72
    11
 73
     7
 74
     0
 42
0.000000001
 43
0.00000001
 40
0.0
 40
0.0
 40
0.0
 40
0.0
 40
0.2164567244934121
 40
0.4403141600939158
 40
0.751902844479862
 40
1.0
 40
1.0
 40
1.0
 40
1.0
 10
270.7790168804668
 20
46.60673831770105
 30
0.0
 10
270.6230285856987
 20
46.56279686442738
 30
0.0
 10
270.3057187162269
 20
46.47341158828601
 30
0.0
 10
269.7168780428972
 20
46.43053403215335
 30
0.0
 10
269.0852446278067
 20
46.55258218795932
 30
0.0
 10
268.6810384047814
 20
46.74392965799555
 30
0.0
 10
268.5018621472707
 20
46.82875003336886
 30
0.0
  0
SPLINE
  5
21B
330
1F
100
AcDbEntity
  8
0
  6
Continuous
 62
     7
370
    15
100
AcDbSpline
210
0.0
220
0.0
230
1.0
 70
     8
 71
     3
 72
    11
 73
     7
 74
     0
 42
0.000000001
 43
0.00000001
 40
0.0
 40
0.0
 40
0.0
 40
0.0
 40
0.2164567244934159
 40
0.4403141600939118
 40
0.7519028444798567
 40
0.9999999999999999
 40
0.9999999999999999
 40
0.9999999999999999
 40
0.9999999999999999
 10
268.5018621472707
 20
46.82875003336886
 30
0.0
 10
268.4010533567622
 20
46.69921882650269
 30
0.0
 10
268.1959890972587
 20
46.4357277074778
 30
0.0
 10
267.8154456970708
 20
46.06975713843367
 30
0.0
 10
267.4072471157948
 20
45.84523218477162
 30
0.0
 10
267.1460253329696
 20
45.81479435302779
 30
0.0
 10
267.0302311201132
 20
45.80130189183365
 30
0.0
  0
SPLINE
  5
21C
330
1F
100
AcDbEntity
  8
0
  6
Continuous
 62
     7
370
    15
100
AcDbSpline
210
0.0
220
0.0
230
1.0
 70
     8
 71
     3
 72
    11
 73
     7
 74
     0
 42
0.000000001
 43
0.00000001
 40
0.0
 40
0.0
 40
0.0
 40
0.0
 40
0.2072050971270784
 40
0.5817679035519726
 40
0.9743125994737609
 40
1.0
 40
1.0
 40
1.0
 40
1.0
 10
267.0302311201132
 20
45.80130189183365
 30
0.0
 10
267.0770308426441
 20
45.67777598759613
 30
0.0
 10
267.2084300062803
 20
45.33095340775124
 30
0.0
 10
267.4525967306537
 20
44.84923987850268
 30
0.0
 10
267.6514939211895
 20
44.64232999729886
 30
0.0
 10
267.7462042783455
 20
44.59635955937606
 30
0.0
 10
267.7520212945404
 20
44.59353610067618
 30
0.0
  0
SPLINE
  5
21D
330
1F
100
AcDbEntity
  8
0
  6
Continuous
 62
     7
370
    15
100
AcDbSpline
210
0.0
220
0.0
230
1.0
 70
     8
 71
     3
 72
     9
 73
     5
 74
     0
 42
0.000000001
 43
0.00000001
 40
0.0
 40
0.0
 40
0.0
 40
0.0
 40
0.4846278149627217
 40
1.0
 40
1.0
 40
1.0
 40
1.0
 10
270.8756359438427
 20
44.63099343505843
 30
0.0
 10
270.9960361420561
 20
44.72230944088051
 30
0.0
 10
271.2444746230843
 20
44.91073446107689
 30
0.0
 10
271.4688854752688
 20
45.20541058343833
 30
0.0
 10
271.5845405865053
 20
45.35727846049805
 30
0.0
  0
SPLINE
  5
21E
330
1F
100
AcDbEntity
  8
0
  6
Continuous
 62
     7
370
    15
100
AcDbSpline
210
0.0
220
0.0
230
1.0
 70
     8
 71
     3
 72
    11
 73
     7
 74
     0
 42
0.000000001
 43
0.00000001
 40
0.0
 40
0.0
 40
0.0
 40
0.0
 40
0.1323877169514888
 40
0.4819434960836018
 40
0.8154866441480862
 40
1.0
 40
1.0
 40
1.0
 40
1.0
 10
271.5845405865053
 20
45.35727846049805
 30
0.0
 10
271.55112111951
 20
45.37209058083722
 30
0.0
 10
271.429461080861
 20
45.42601253995135
 30
0.0
 10
271.2019695907575
 20
45.65104530621851
 30
0.0
 10
270.9571438784449
 20
46.13683443588805
 30
0.0
 10
270.8257977232653
 20
46.48332917773346
 30
0.0
 10
270.7790168804668
 20
46.60673831770105
 30
0.0
  0
LINE
  5
21F
330
1F
100
AcDbEntity
  8
0
  6
Continuous
 62
     7
370
    15
100
AcDbLine
 10
270.7790168805
 20
44.5547586826
 30
0.0
 11
270.7790168805
 21
46.6067383177
 31
0.0
  0
LINE
  5
220
330
1F
100
AcDbEntity
  8
0
  6
Continuous
 62
     7
370
    15
100
AcDbLine
 10
268.5018621473
 20
44.3380030066
 30
0.0
 11
268.5018621473
 21
46.8287500334
 31
0.0
  0
ARC
  5
221
330
1F
100
AcDbEntity
  8
0
  6
Continuous
 62
     7
370
    15
100
AcDbCircle
 10
274.4029580319
 20
35.0045740679
 30
0.0
 40
2.465962837263905
100
AcDbArc
 50
212.1144897832
 51
270.7813168206
  0
LWPOLYLINE
  5
222
330
1F
100
AcDbEntity
  8
0
  6
Continuous
 62
     7
370
    15
100
AcDbPolyline
 90
       60
 70
   128
 43
0.0
 10
275.6890245535
 20
41.6834370057
 10
274.527789506
 20
40.9416006394
 10
273.3797117156
 20
40.0652302902
 10
272.2577993625
 20
39.0642555845
 10
271.1747641618
 20
37.9500179657
 10
270.1428773351
 20
36.7351421912
 10
269.1738305725
 20
35.4333932889
 10
268.2786035611
 20
34.059520594
 10
267.4673395806
 20
32.6290906333
 10
266.749230576
 20
31.1583107497
 10
266.1324130094
 20
29.6638454669
 10
265.6238756702
 20
28.1626276738
 10
265.2293804897
 20
26.6716667679
 10
264.9533972558
 20
25.207855932
 10
264.799052969
 20
23.7877807276
 10
264.7680964117
 20
22.4275311745
 10
264.860878334
 20
21.1425194434
 10
265.0763474797
 20
19.9473052308
 10
265.4120624972
 20
18.8554307913
 10
265.8642196013
 20
17.8792674987
 10
266.4276956713
 20
17.0298756729
 10
267.0961062981
 20
16.3168792629
 10
267.8618781224
 20
15.7483568028
 10
268.7163346433
 20
15.3307498794
 10
269.649794527
 20
15.0687901459
 10
270.6516813
 20
14.9654457107
 10
271.710643185
 20
15.0218875076
 10
272.8146817205
 20
15.2374760286
 10
273.9512877089
 20
15.6097685694
 10
275.1075829501
 20
16.1345469069
 10
276.270466157
 20
16.8058650928
 10
277.4267613981
 20
17.6161168239
 10
278.5633673865
 20
18.5561216242
 10
279.667405922
 20
19.6152288637
 10
280.726367807
 20
20.7814384343
 10
281.7282545801
 20
22.0415367154
 10
282.6617144638
 20
23.3812462901
 10
283.5161709847
 20
24.7853877136
 10
284.2819428089
 20
26.2380515025
 10
284.9503534358
 20
27.7227783955
 10
285.5138295058
 20
29.2227458438
 10
285.9659866099
 20
30.7209586167
 10
286.3017016274
 20
32.200441365
 10
286.517170773
 20
33.6444309578
 10
286.6099526953
 20
35.0365664162
 10
286.578996138
 20
36.361074289
 10
286.4246518512
 20
37.6029473729
 10
286.1486686174
 20
38.7481147496
 10
285.7541734368
 20
39.7836012152
 10
285.2456360976
 20
40.6976742941
 10
284.628818531
 20
41.4799771732
 10
283.9107095264
 20
42.1216460483
 10
283.0994455459
 20
42.6154105547
 10
282.2042185345
 20
42.955676143
 10
281.235171772
 20
43.1385874684
 10
280.2032849453
 20
43.1620720723
 10
279.1202497446
 20
43.0258638649
 10
277.9983373914
 20
42.7315061396
 10
276.850259601
 20
42.2823340869
 10
275.6890245535
 20
41.6834370057
  0
LWPOLYLINE
  5
223
330
1F
100
AcDbEntity
  8
0
  6
Continuous
 62
     7
370
    15
100
AcDbPolyline
 90
       31
 70
   128
 43
0.0
 10
275.4768925192
 20
42.0508604661
 10
274.2931092183
 20
41.2946195101
 10
273.1227386553
 20
40.4012322609
 10
271.9790415962
 20
39.3808211532
 10
270.8749765858
 20
38.2449478525
 10
269.8230531217
 20
37.006482257
 10
268.8351899172
 20
35.679456677
 10
267.922579857
 20
34.2789068425
 10
267.0955631778
 20
32.8207015427
 10
266.3635103091
 20
31.3213628264
 10
265.7347157023
 20
29.7978788003
 10
265.2163038517
 20
28.2675111472
 10
264.8141485706
 20
26.747599544
 10
264.532806439
 20
25.2553651967
 10
264.3754651758
 20
23.8077157166
 10
264.3439075202
 20
22.4210535507
 10
264.4384910332
 20
21.1110901355
 10
264.6581440458
 20
19.89266788
 10
265.0003778015
 20
18.7795919951
 10
265.4613146552
 20
17.7844740754
 10
266.0357320081
 20
16.9185892045
 10
266.7171214821
 20
16.191748204
 10
267.4977626622
 20
15.6121864728
 10
268.3688105718
 20
15.1864706771
 10
269.3203958902
 20
14.9194243468
 10
270.3417367753
 20
14.8140732235
 10
271.421261027
 20
14.8716109777
 10
272.546737204
 20
15.0913856835
 10
273.7054132115
 20
15.4709072057
 10
274.8841607875
 20
16.0058754139
 10
275.4787025838
 20
16.3308699896
  0
LWPOLYLINE
  5
224
330
1F
100
AcDbEntity
  8
0
  6
Continuous
 62
     7
370
    15
100
AcDbPolyline
 90
       16
 70
   128
 43
0.0
 10
286.6138243229
 20
35.6195565595
 10
286.5783198626
 20
36.6251509005
 10
286.4209785993
 20
37.8911380249
 10
286.1396364677
 20
39.0585416613
 10
285.7374811866
 20
40.1141346601
 10
285.219069336
 20
41.0459567309
 10
284.5902747292
 20
41.8434499572
 10
283.8582218605
 20
42.4975784221
 10
283.0312051813
 20
43.0009305888
 10
282.1185951212
 20
43.3478032759
 10
281.1307319166
 20
43.5342662775
 10
280.0788084525
 20
43.5582068932
 10
278.9747434421
 20
43.4193538662
 10
277.831046383
 20
43.1192804569
 10
276.66067582
 20
42.6613866168
 10
275.4768925192
 20
42.0508604661
  0
ARC
  5
225
330
1F
100
AcDbEntity
  8
0
  6
Continuous
 62
     7
370
    15
100
AcDbCircle
 10
270.3982323186
 20
50.9274273782
 30
0.0
 40
8.703891722761872
100
AcDbArc
 50
34.3325496066
 51
84.2964748064
  0
ARC
  5
226
330
1F
100
AcDbEntity
  8
0
  6
Continuous
 62
     7
370
    15
100
AcDbCircle
 10
254.1050683315
 20
22.7047109478
 30
0.0
 40
8.690205791198062
100
AcDbArc
 50
215.038918254
 51
265.86285515
  0
SPLINE
  5
227
330
1F
100
AcDbEntity
  8
0
  6
Continuous
 62
     7
370
    15
100
AcDbSpline
210
0.0
220
0.0
230
1.0
 70
    11
 71
     3
 72
    94
 73
    90
 74
     0
 42
0.000000001
 43
0.00000001
 40
0.0
 40
0.0
 40
0.0
 40
0.0
 40
0.0312500000000007
 40
0.0312500000000007
 40
0.046875000000001
 40
0.046875000000001
 40
0.0625000000000013
 40
0.0625000000000013
 40
0.0937500000000023
 40
0.0937500000000023
 40
0.1093750000000027
 40
0.1093750000000027
 40
0.1250000000000032
 40
0.1250000000000032
 40
0.1562500000000039
 40
0.1562500000000039
 40
0.1718750000000044
 40
0.1718750000000044
 40
0.1875000000000049
 40
0.1875000000000049
 40
0.2187500000000058
 40
0.2187500000000058
 40
0.2343750000000059
 40
0.2343750000000059
 40
0.2500000000000061
 40
0.2500000000000061
 40
0.2812500000000059
 40
0.2812500000000059
 40
0.2968750000000058
 40
0.2968750000000058
 40
0.3125000000000057
 40
0.3125000000000057
 40
0.3437500000000056
 40
0.3437500000000056
 40
0.3593750000000056
 40
0.3593750000000056
 40
0.3750000000000056
 40
0.3750000000000056
 40
0.3906250000000056
 40
0.3906250000000056
 40
0.4062500000000056
 40
0.4062500000000056
 40
0.4375000000000056
 40
0.4375000000000056
 40
0.4531250000000054
 40
0.4531250000000054
 40
0.4687500000000052
 40
0.4687500000000052
 40
0.5000000000000049
 40
0.5000000000000049
 40
0.5312500000000047
 40
0.5312500000000047
 40
0.5468750000000046
 40
0.5468750000000046
 40
0.5625000000000044
 40
0.5625000000000044
 40
0.5937500000000041
 40
0.5937500000000041
 40
0.6250000000000038
 40
0.6250000000000038
 40
0.6562500000000034
 40
0.6562500000000034
 40
0.6875000000000031
 40
0.6875000000000031
 40
0.7187500000000028
 40
0.7187500000000028
 40
0.7500000000000023
 40
0.7500000000000023
 40
0.781250000000002
 40
0.781250000000002
 40
0.8125000000000017
 40
0.8125000000000017
 40
0.8281250000000016
 40
0.8281250000000016
 40
0.8437500000000014
 40
0.8437500000000014
 40
0.8750000000000012
 40
0.8750000000000012
 40
0.906250000000001
 40
0.906250000000001
 40
0.9218750000000009
 40
0.9218750000000009
 40
0.9375000000000008
 40
0.9375000000000008
 40
0.9531250000000007
 40
0.9531250000000007
 40
0.9687500000000006
 40
0.9687500000000006
 40
1.0
 40
1.0
 40
1.0
 40
1.0
 10
269.2628039835554
 20
48.0226652991566
 30
0.0
 10
269.5687566391958
 20
47.96829326109388
 30
0.0
 10
269.8665251558749
 20
47.89924344365063
 30
0.0
 10
270.3024243562002
 20
47.77818854430795
 30
0.0
 10
270.4459141839036
 20
47.73488736529591
 30
0.0
 10
270.7293457134927
 20
47.64278094093826
 30
0.0
 10
270.8698709761715
 20
47.59375323416257
 30
0.0
 10
271.2816810557039
 20
47.44037244533892
 30
0.0
 10
271.5414106874331
 20
47.33064898490341
 30
0.0
 10
271.9098919420979
 20
47.15664607878847
 30
0.0
 10
272.0291757062444
 20
47.0970541539672
 30
0.0
 10
272.2605602441922
 20
46.97474573293947
 30
0.0
 10
272.3731110677807
 20
46.91174316307488
 30
0.0
 10
272.6943190756267
 20
46.72112249577833
 30
0.0
 10
272.8879128238632
 20
46.59141306235628
 30
0.0
 10
273.1480062708623
 20
46.3923555461391
 30
0.0
 10
273.2296239947825
 20
46.32524026338924
 30
0.0
 10
273.3823988995242
 20
46.18921296262566
 30
0.0
 10
273.4537846394908
 20
46.12001363830979
 30
0.0
 10
273.6479946269689
 20
45.91295527890059
 30
0.0
 10
273.7522742129021
 20
45.77476142721821
 30
0.0
 10
273.8703260128613
 20
45.56485761435689
 30
0.0
 10
273.9032396506638
 20
45.49444711199859
 30
0.0
 10
273.9555090023413
 20
45.35222282231825
 30
0.0
 10
273.9748514685999
 20
45.28010984774918
 30
0.0
 10
274.010363547257
 20
45.06548879522686
 30
0.0
 10
274.0049668678648
 20
44.92341403580458
 30
0.0
 10
273.9506243679031
 20
44.70888804223365
 30
0.0
 10
273.9247453569239
 20
44.63714475709065
 30
0.0
 10
273.8561610835074
 20
44.49267247774738
 30
0.0
 10
273.8133037564936
 20
44.41996589189899
 30
0.0
 10
273.6620143934978
 20
44.20603918377346
 30
0.0
 10
273.5302787789651
 20
44.0668323907921
 30
0.0
 10
273.2830873062302
 20
43.86170346132878
 30
0.0
 10
273.1915402697606
 20
43.79342828984337
 30
0.0
 10
272.9947783104209
 20
43.66100006170382
 30
0.0
 10
272.8899561685867
 20
43.5969841263676
 30
0.0
 10
272.6677606641349
 20
43.47320257171034
 30
0.0
 10
272.5503866672407
 20
43.41343723429544
 30
0.0
 10
272.3030042285845
 20
43.29826024681174
 30
0.0
 10
272.1720701632257
 20
43.24252242677438
 30
0.0
 10
271.7695683983702
 20
43.08606241668017
 30
0.0
 10
271.4871249307345
 20
42.99504920353141
 30
0.0
 10
271.0435595989164
 20
42.87889030414021
 30
0.0
 10
270.8926418195685
 20
42.84373407375224
 30
0.0
 10
270.5908934650846
 20
42.78191532442079
 30
0.0
 10
270.4392378617085
 20
42.7550276327777
 30
0.0
 10
269.9819466928935
 20
42.68646115251664
 30
0.0
 10
269.6713213353061
 20
42.65681329987073
 30
0.0
 10
269.0635794099957
 20
42.63316868362986
 30
0.0
 10
268.7649246479032
 20
42.63865406245827
 30
0.0
 10
268.3240169306275
 20
42.67417959785887
 30
0.0
 10
268.1779455461546
 20
42.69068773109298
 30
0.0
 10
267.8932067902203
 20
42.73252712829476
 30
0.0
 10
267.7539031868366
 20
42.75788750271932
 30
0.0
 10
267.3448508950074
 20
42.84734279609589
 30
0.0
 10
267.0838836099794
 20
42.9247286564373
 30
0.0
 10
266.585602961547
 20
43.11733893755515
 30
0.0
 10
266.3538431932359
 20
43.23056972334657
 30
0.0
 10
265.9277448299179
 20
43.48800419370384
 30
0.0
 10
265.7326684620779
 20
43.63248973185708
 30
0.0
 10
265.3802284689946
 20
43.95372691638921
 30
0.0
 10
265.2277271767483
 20
44.12608342879827
 30
0.0
 10
264.9698681884069
 20
44.49103267904245
 30
0.0
 10
264.8642950583202
 20
44.68383736707318
 30
0.0
 10
264.7041662947274
 20
45.08860125856402
 30
0.0
 10
264.6520817998877
 20
45.29425085512453
 30
0.0
 10
264.604630179921
 20
45.70896247102938
 30
0.0
 10
264.6093015756258
 20
45.91877905128923
 30
0.0
 10
264.6833386252097
 20
46.33576972387828
 30
0.0
 10
264.7514523205608
 20
46.5368230797995
 30
0.0
 10
264.9032148720984
 20
46.82421962186724
 30
0.0
 10
264.9623517591839
 20
46.91793314308717
 30
0.0
 10
265.0977713693484
 20
47.09864212269289
 30
0.0
 10
265.1730220049839
 20
47.18434369734404
 30
0.0
 10
265.4211451443338
 20
47.42730256685476
 30
0.0
 10
265.616624141958
 20
47.57080378729869
 30
0.0
 10
266.0693228638309
 20
47.81560198361115
 30
0.0
 10
266.3171218428698
 20
47.91196756105568
 30
0.0
 10
266.7190371750401
 20
48.02066460915167
 30
0.0
 10
266.8590169173696
 20
48.05101146415971
 30
0.0
 10
267.1440178912301
 20
48.09895735507921
 30
0.0
 10
267.2888698442423
 20
48.11664436662755
 30
0.0
 10
267.5830338249465
 20
48.1405546514859
 30
0.0
 10
267.7323468291007
 20
48.14677458092282
 30
0.0
 10
268.0353605487519
 20
48.14847068375057
 30
0.0
 10
268.1894081385379
 20
48.14387578734954
 30
0.0
 10
268.6494016064737
 20
48.11543076604208
 30
0.0
 10
268.9568513279151
 20
48.07703733721932
 30
0.0
 10
269.2628039835554
 20
48.0226652991566
 30
0.0
  0
LINE
  5
228
330
1F
100
AcDbEntity
  8
0
  6
Continuous
 62
     7
370
    15
100
AcDbLine
 10
271.5425692929
 20
49.6476199951
 30
0.0
 11
271.4709041269
 21
49.6882452462
 31
0.0
  0
LWPOLYLINE
  5
229
330
1F
100
AcDbEntity
  8
0
  6
Continuous
 62
     7
370
    15
100
AcDbPolyline
 90
        9
 70
   128
 43
0.0
 10
247.536464027
 20
16.4532771903
 10
247.3701407639
 20
16.5518832011
 10
246.379246376
 20
17.2583383928
 10
245.4848252703
 20
18.1120598257
 10
244.693196022
 20
19.1070164445
 10
244.0099510405
 20
20.2361794476
 10
243.4399170623
 20
21.4915719422
 10
242.9871210525
 20
22.8643252958
 10
242.6547617567
 20
24.3447417883
  0
SPLINE
  5
22A
330
1F
100
AcDbEntity
  8
0
  6
Continuous
 62
     7
370
    15
100
AcDbSpline
210
0.0
220
0.0
230
1.0
 70
     8
 71
     3
 72
    32
 73
    28
 74
     0
 42
0.000000001
 43
0.00000001
 40
0.0
 40
0.0
 40
0.0
 40
0.0
 40
0.0193254758652704
 40
0.0385826927409049
 40
0.0577846348017481
 40
0.0769443985967347
 40
0.0960751672961712
 40
0.1151901840600305
 40
0.1343027247899319
 40
0.1534260705421022
 40
0.1725734798867981
 40
0.1917581615009326
 40
0.2109932472750491
 40
0.230291766203487
 40
0.2496666193081581
 40
0.3745846283004807
 40
0.4997410234225904
 40
0.4999962720874485
 40
0.624862702147581
 40
0.7503411293900218
 40
0.78614513231055
 40
0.8217618639989446
 40
0.8572756267685467
 40
0.8927714566740896
 40
0.9283345184906214
 40
0.9640494961172915
 40
1.0
 40
1.0
 40
1.0
 40
1.0
 10
242.6547064807072
 20
31.79656655471488
 30
0.0
 10
242.6766496979951
 20
31.73647551099909
 30
0.0
 10
242.7204586275277
 20
31.61650566951471
 30
0.0
 10
242.7828978787502
 20
31.43575811540308
 30
0.0
 10
242.8428065062774
 20
31.25491471898408
 30
0.0
 10
242.8999930919113
 20
31.07390760344137
 30
0.0
 10
242.9545511631196
 20
30.89277820111855
 30
0.0
 10
243.0064989097106
 20
30.71153968378682
 30
0.0
 10
243.0558753891736
 20
30.53021372957695
 30
0.0
 10
243.1027147706211
 20
30.34882065284208
 30
0.0
 10
243.1470533769666
 20
30.16738229744072
 30
0.0
 10
243.1889272201896
 20
29.98592040846954
 30
0.0
 10
243.2283748113776
 20
29.80446035601972
 30
0.0
 10
243.2654283307372
 20
29.62301791033088
 30
0.0
 10
243.3631204303709
 20
29.11266695859232
 30
0.0
 10
243.4806166292038
 20
28.28606542990554
 30
0.0
 10
243.5154680653247
 20
27.5707459346129
 30
0.0
 10
243.5158638894982
 20
26.89403396970396
 30
0.0
 10
243.4808125384558
 20
26.25234284560486
 30
0.0
 10
243.3558784582843
 20
25.63104190683073
 30
0.0
 10
243.2351522774088
 20
25.25841780485886
 30
0.0
 10
243.1608448648865
 20
25.06962110372786
 30
0.0
 10
243.0779313936543
 20
24.89542982076637
 30
0.0
 10
242.9862325926444
 20
24.7356136507009
 30
0.0
 10
242.8853305250218
 20
24.59040977808528
 30
0.0
 10
242.775777628222
 20
24.45836281795712
 30
0.0
 10
242.695249330322
 20
24.38266333301488
 30
0.0
 10
242.6548528545661
 20
24.3446891986057
 30
0.0
  0
LWPOLYLINE
  5
22B
330
1F
100
AcDbEntity
  8
0
  6
Continuous
 62
     7
370
    15
100
AcDbPolyline
 90
       27
 70
   128
 43
0.0
 10
242.6547064805
 20
31.7965665549
 10
242.9870458204
 20
33.6607324172
 10
243.4398253789
 20
35.5562917308
 10
244.0098464474
 20
37.4698531189
 10
244.6930820525
 20
39.3878980273
 10
245.4847054051
 20
41.2968762276
 10
246.3791239993
 20
43.1833015438
 10
247.3700191215
 20
45.0338471274
 10
248.4503904897
 20
46.8354396059
 10
249.6126057076
 20
48.5753514412
 10
250.8484541844
 20
50.2412908444
 10
252.1492051395
 20
51.8214886127
 10
253.505669282
 20
53.3047812739
 10
254.9082637294
 20
54.6806899521
 10
256.3470797066
 20
55.9394943969
 10
257.8119525481
 20
57.0723016529
 10
259.2925335066
 20
58.0711088848
 10
260.7783628634
 20
58.9288599148
 10
262.2589438219
 20
59.6394950711
 10
263.7238166634
 20
60.1979939974
 10
265.1626326406
 20
60.6004111198
 10
266.565227088
 20
60.8439035205
 10
267.9216912305
 20
60.926751022
 10
269.2224421856
 20
60.8483683395
 10
270.4582906624
 20
60.6093092156
 10
271.6205058803
 20
60.2112625085
 10
272.534432343
 20
59.7557203094
  0
SPLINE
  5
22C
330
1F
100
AcDbEntity
  8
0
  6
Continuous
 62
     7
370
    15
100
AcDbSpline
210
0.0
220
0.0
230
1.0
 70
     8
 71
     3
 72
     8
 73
     4
 74
     0
 42
0.000000001
 43
0.00000001
 40
0.0
 40
0.0
 40
0.0
 40
0.0
 40
1.0
 40
1.0
 40
1.0
 40
1.0
 10
241.6927132016511
 20
37.23190427264128
 30
0.0
 10
240.5230867817132
 20
37.03634809939855
 30
0.0
 10
239.3524835388533
 20
36.84276313267863
 30
0.0
 10
238.1812520572005
 20
36.65048368343236
 30
0.0
  0
SPLINE
  5
22D
330
1F
100
AcDbEntity
  8
0
  6
Continuous
 62
     7
370
    15
100
AcDbSpline
210
0.0
220
0.0
230
1.0
 70
     8
 71
     3
 72
     8
 73
     4
 74
     0
 42
0.000000001
 43
0.00000001
 40
0.0
 40
0.0
 40
0.0
 40
0.0
 40
0.0012417047560385
 40
0.0012417047560385
 40
0.0012417047560385
 40
0.0012417047560385
 10
237.7067514535508
 20
36.92445910431222
 30
0.0
 10
237.8650225940112
 20
36.83307377955428
 30
0.0
 10
238.0231918996904
 20
36.74174723215068
 30
0.0
 10
238.1812520572005
 20
36.65048368343236
 30
0.0
  0
LWPOLYLINE
  5
22E
330
1F
100
AcDbEntity
  8
0
  6
Continuous
 62
     7
370
    15
100
AcDbPolyline
 90
       28
 70
   128
 43
0.0
 10
237.7067514536
 20
36.9244591043
 10
238.1855870444
 20
38.8731252405
 10
238.7874687607
 20
40.8389364343
 10
239.5079160084
 20
42.8072585776
 10
240.341565555
 20
44.7634388705
 10
241.2822114547
 20
46.6929149005
 10
242.322851248
 20
48.5813230498
 10
243.4557380897
 20
50.414605423
 10
244.6724384189
 20
52.1791144978
 10
245.9638947413
 20
53.8617147217
 10
247.3204930557
 20
55.4498802971
 10
248.7321344238
 20
56.9317884272
 10
250.1883101497
 20
58.2964073285
 10
251.6781800098
 20
59.533578355
 10
253.1906529513
 20
60.634091622
 10
254.7144696566
 20
61.5897545677
 10
256.2382863619
 20
62.3934529409
 10
257.7507593033
 20
63.0392037618
 10
259.2406291635
 20
63.5221998611
 10
260.6968048894
 20
63.8388456661
 10
262.1084462574
 20
63.9867839674
 10
263.4650445719
 20
63.9649134663
 10
264.7565008943
 20
63.7733969736
 10
265.9732012235
 20
63.4136601975
 10
267.1060880651
 20
62.8883811301
 10
268.1467278584
 20
62.2014701114
 10
269.0873737582
 20
61.3580407202
 10
269.5876041009
 20
60.7955806685
  0
LINE
  5
22F
330
1F
100
AcDbEntity
  8
0
  6
Continuous
 62
     7
370
    15
100
AcDbLine
 10
233.5790156184
 20
39.3073502807
 30
0.0
 11
237.7067514536
 21
36.9244591043
 31
0.0
  0
ARC
  5
230
330
1F
100
AcDbEntity
  8
0
  6
Continuous
 62
     7
370
    15
100
AcDbCircle
 10
258.696693729
 20
57.4928678927
 30
0.0
 40
8.878232805076912
100
AcDbArc
 50
60.3725835944
 51
85.9811821539
  0
LINE
  5
231
330
1F
100
AcDbEntity
  8
0
  6
Continuous
 62
     7
370
    15
100
AcDbLine
 10
270.6730665334
 20
21.5785661564
 30
0.0
 11
270.8358368661
 21
21.4775437286
 31
0.0
  0
LINE
  5
232
330
1F
100
AcDbEntity
  8
0
  6
Continuous
 62
     7
370
    15
100
AcDbLine
 10
279.8351054598
 20
37.0664232515
 30
0.0
 11
279.6756266237
 21
37.152183005
 31
0.0
  0
SPLINE
  5
233
330
1F
100
AcDbEntity
  8
0
  6
Continuous
 62
     7
370
    15
100
AcDbSpline
210
0.0
220
0.0
230
1.0
 70
     8
 71
     3
 72
    13
 73
     9
 74
     0
 42
0.000000001
 43
0.00000001
 40
0.0
 40
0.0
 40
0.0
 40
0.0
 40
0.1935905955788375
 40
0.3928012754929684
 40
0.586390171785786
 40
0.7855816257768433
 40
0.9793802664201687
 40
1.0
 40
1.0
 40
1.0
 40
1.0
 10
251.4140779904154
 20
52.12696676108769
 30
0.0
 10
251.4651842158038
 20
52.10103843080936
 30
0.0
 10
251.5688803197297
 20
52.04842905082229
 30
0.0
 10
251.7483352564838
 20
52.00341871911561
 30
0.0
 10
251.9415642017636
 20
51.98369534480261
 30
0.0
 10
252.1412272605629
 20
51.99555716851828
 30
0.0
 10
252.2850988498687
 20
52.01629072369734
 30
0.0
 10
252.3576918239857
 20
52.03980552267405
 30
0.0
 10
252.3646727918784
 20
52.04206684422282
 30
0.0
  0
LWPOLYLINE
  5
234
330
1F
100
AcDbEntity
  8
0
  6
Continuous
 62
     7
370
    15
100
AcDbPolyline
 90
       25
 70
   128
 43
0.0
 10
253.4456775675
 20
53.2407398843
 10
253.430194897
 20
53.3450610484
 10
253.3729439804
 20
53.4884786556
 10
253.2853368088
 20
53.6139062414
 10
253.1647450688
 20
53.7251734035
 10
253.0214992634
 20
53.8129125277
 10
252.8513001728
 20
53.8798534657
 10
252.6686168785
 20
53.9202650333
 10
252.4681600219
 20
53.9351834558
 10
252.2665673913
 20
53.9230770629
 10
252.0583952969
 20
53.883248133
 10
251.8609598677
 20
53.8186182259
 10
251.6689443241
 20
53.7270390804
 10
251.498691254
 20
53.6160434869
 10
251.3452212116
 20
53.4822090119
 10
251.2216414181
 20
53.3369776624
 10
251.1241094729
 20
53.1760360266
 10
251.0607380672
 20
53.0130471121
 10
251.029590407
 20
52.8435703581
 10
251.0331783432
 20
52.6818401921
 10
251.0715503924
 20
52.5237873497
 10
251.1414344988
 20
52.38287964
 10
251.2447448073
 20
52.2554381298
 10
251.4140779904
 20
52.1269667611
 10
251.4140779904
 20
52.1269667611
  0
SPLINE
  5
235
330
1F
100
AcDbEntity
  8
0
  6
Continuous
 62
     7
370
    15
100
AcDbSpline
210
0.0
220
0.0
230
1.0
 70
     8
 71
     3
 72
    10
 73
     6
 74
     0
 42
0.000000001
 43
0.00000001
 40
0.0
 40
0.0
 40
0.0
 40
0.0
 40
0.1982376724753472
 40
0.6709252460000957
 40
1.0
 40
1.0
 40
1.0
 40
1.0
 10
243.5346470106121
 20
35.84379377113014
 30
0.0
 10
243.4503240282757
 20
35.95420707144721
 30
0.0
 10
243.1649372147551
 20
36.3278952294643
 30
0.0
 10
242.6736752279352
 20
36.77724402928278
 30
0.0
 10
242.2566734766346
 20
37.05872639547673
 30
0.0
 10
242.0855195772609
 20
37.17425781573761
 30
0.0
  0
SPLINE
  5
236
330
1F
100
AcDbEntity
  8
0
  6
Continuous
 62
     7
370
    15
100
AcDbSpline
210
0.0
220
0.0
230
1.0
 70
     8
 71
     3
 72
    28
 73
    24
 74
     0
 42
0.000000001
 43
0.00000001
 40
0.0
 40
0.0
 40
0.0
 40
0.0
 40
0.0432156408237649
 40
0.0856267017947688
 40
0.1281793017183483
 40
0.171045297961525
 40
0.2149365154903862
 40
0.2591997950733386
 40
0.2996318017422104
 40
0.3820295682213458
 40
0.424119236262046
 40
0.462335292707256
 40
0.5400446515827506
 40
0.579613805449801
 40
0.618475268019134
 40
0.6973787973847311
 40
0.7374852838070254
 40
0.7789053526621618
 40
0.863069229855344
 40
0.90591160099429
 40
0.9483966824339751
 40
0.9912004532318434
 40
0.9999999999999999
 40
0.9999999999999999
 40
0.9999999999999999
 40
0.9999999999999999
 10
277.243408632871
 20
37.28075545436639
 30
0.0
 10
277.3113219589208
 20
37.20032014562608
 30
0.0
 10
277.4458842147779
 20
37.04094705606892
 30
0.0
 10
277.6172681422667
 20
36.78810288130228
 30
0.0
 10
277.7742726569808
 20
36.53225909623127
 30
0.0
 10
277.9120710397947
 20
36.26831515445242
 30
0.0
 10
278.0294254838996
 20
35.99772972411903
 30
0.0
 10
278.1202219164225
 20
35.73048812306653
 30
0.0
 10
278.2059808160092
 20
35.38384603049179
 30
0.0
 10
278.2424241018797
 20
35.04499558235135
 30
0.0
 10
278.228236567926
 20
34.72335394514465
 30
0.0
 10
278.1835613499228
 20
34.42096751045166
 30
0.0
 10
278.0961949211293
 20
34.14030442491072
 30
0.0
 10
277.9683072865899
 20
33.88282534455785
 30
0.0
 10
277.8140875001663
 20
33.64117708526804
 30
0.0
 10
277.623440750355
 20
33.42777631096136
 30
0.0
 10
277.3999268426166
 20
33.24617539726553
 30
0.0
 10
277.1502858151811
 20
33.08464601231898
 30
0.0
 10
276.8704602948599
 20
32.96383740975681
 30
0.0
 10
276.5721194376899
 20
32.89024672026637
 30
0.0
 10
276.3400228021678
 20
32.86280338683344
 30
0.0
 10
276.1667733244685
 20
32.85551277268721
 30
0.0
 10
276.0712088007202
 20
32.86666170119113
 30
0.0
 10
276.0549128620913
 20
32.86856284868343
 30
0.0
  0
SPLINE
  5
237
330
1F
100
AcDbEntity
  8
0
  6
Continuous
 62
     7
370
    15
100
AcDbSpline
210
0.0
220
0.0
230
1.0
 70
     8
 71
     3
 72
    10
 73
     6
 74
     0
 42
0.000000001
 43
0.00000001
 40
0.0
 40
0.0
 40
0.0
 40
0.0
 40
0.5
 40
0.5
 40
1.0
 40
1.0
 40
1.0
 40
1.0
 10
241.9495902300287
 20
37.22678779754693
 30
0.0
 10
241.9090149216338
 20
37.23561231887388
 30
0.0
 10
241.8654405785801
 20
37.24056539478257
 30
0.0
 10
241.7776378515933
 20
37.2421505800487
 30
0.0
 10
241.7346697346715
 20
37.23891921254015
 30
0.0
 10
241.6927132016511
 20
37.23190427264128
 30
0.0
  0
SPLINE
  5
238
330
1F
100
AcDbEntity
  8
0
  6
Continuous
 62
     7
370
    15
100
AcDbSpline
210
0.0
220
0.0
230
1.0
 70
     8
 71
     3
 72
     8
 73
     4
 74
     0
 42
0.000000001
 43
0.00000001
 40
0.0
 40
0.0
 40
0.0
 40
0.0
 40
1.0
 40
1.0
 40
1.0
 40
1.0
 10
242.0855195772609
 20
37.17425781573761
 30
0.0
 10
242.0470376354247
 20
37.19792862553348
 30
0.0
 10
242.0009299836778
 20
37.21562217074293
 30
0.0
 10
241.9495902300288
 20
37.22678779754697
 30
0.0
  0
SPLINE
  5
239
330
1F
100
AcDbEntity
  8
0
  6
Continuous
 62
     7
370
    15
100
AcDbSpline
210
0.0
220
0.0
230
1.0
 70
     8
 71
     3
 72
    10
 73
     6
 74
     0
 42
0.000000001
 43
0.00000001
 40
0.0
 40
0.0
 40
0.0
 40
0.0
 40
0.5
 40
0.5
 40
1.0
 40
1.0
 40
1.0
 40
1.0
 10
233.4223186985635
 20
39.39779816387535
 30
0.0
 10
233.4333692969136
 20
39.39142232933121
 30
0.0
 10
233.451989242853
 20
39.38067608782582
 30
0.0
 10
233.5052891929136
 20
39.34991061498587
 30
0.0
 10
233.5388699656348
 20
39.33052587271492
 30
0.0
 10
233.5790156183743
 20
39.30735028069476
 30
0.0
  0
SPLINE
  5
23A
330
1F
100
AcDbEntity
  8
0
  6
Continuous
 62
     7
370
    15
100
AcDbSpline
210
0.0
220
0.0
230
1.0
 70
     8
 71
     3
 72
     9
 73
     5
 74
     0
 42
0.000000001
 43
0.00000001
 40
0.0
 40
0.0
 40
0.0
 40
0.0
 40
0.5377956222890862
 40
0.9999999999999999
 40
0.9999999999999999
 40
0.9999999999999999
 40
0.9999999999999999
 10
242.0855195772609
 20
26.68490175279451
 30
0.0
 10
242.3255857507083
 20
26.55813570525303
 30
0.0
 10
242.771974980181
 20
26.32242153747697
 30
0.0
 10
243.1635811376242
 20
26.20677689846265
 30
0.0
 10
243.3445832179331
 20
26.15332544005144
 30
0.0
  0
SPLINE
  5
23B
330
1F
100
AcDbEntity
  8
0
  6
Continuous
 62
     7
370
    15
100
AcDbSpline
210
0.0
220
0.0
230
1.0
 70
     8
 71
     3
 72
     8
 73
     4
 74
     0
 42
0.000000001
 43
0.00000001
 40
0.0
 40
0.0
 40
0.0
 40
0.0
 40
1.0
 40
1.0
 40
1.0
 40
1.0
 10
241.9495902300293
 20
26.73423836481492
 30
0.0
 10
242.0009186120265
 20
26.72307521117463
 30
0.0
 10
242.0470391761307
 20
26.70636120687293
 30
0.0
 10
242.0855195772609
 20
26.68490175279453
 30
0.0
  0
SPLINE
  5
23C
330
1F
100
AcDbEntity
  8
0
  6
Continuous
 62
     7
370
    15
100
AcDbSpline
210
0.0
220
0.0
230
1.0
 70
     8
 71
     3
 72
    12
 73
     8
 74
     0
 42
0.000000001
 43
0.00000001
 40
0.0
 40
0.0
 40
0.0
 40
0.0
 40
0.1882348860552934
 40
0.3552030333413834
 40
0.5009466077120189
 40
0.7563025321915505
 40
1.0
 40
1.0
 40
1.0
 40
1.0
 10
242.7655067463611
 20
25.06866335551319
 30
0.0
 10
242.8545502796881
 20
25.16294500353078
 30
0.0
 10
243.0225772262336
 20
25.34085637833532
 30
0.0
 10
243.2024865782529
 20
25.68817347952422
 30
0.0
 10
243.3640105727129
 20
26.14882708831306
 30
0.0
 10
243.4897676363296
 20
26.77037799985623
 30
0.0
 10
243.5070704325194
 20
27.35370530551355
 30
0.0
 10
243.5155197240834
 20
27.63855536261962
 30
0.0
  0
SPLINE
  5
23D
330
1F
100
AcDbEntity
  8
0
  6
Continuous
 62
     7
370
    15
100
AcDbSpline
210
0.0
220
0.0
230
1.0
 70
     8
 71
     3
 72
     9
 73
     5
 74
     0
 42
0.000000001
 43
0.00000001
 40
0.0
 40
0.0
 40
0.0
 40
0.0
 40
0.5048004990382029
 40
1.0
 40
1.0
 40
1.0
 40
1.0
 10
242.6547723343302
 20
24.34463883525207
 30
0.0
 10
242.6733172326151
 20
24.46635271097727
 30
0.0
 10
242.7100543165131
 20
24.70746553863316
 30
0.0
 10
242.747151427869
 20
24.94897177188
 30
0.0
 10
242.7655218988995
 20
25.06856553806301
 30
0.0
  0
LINE
  5
23E
330
1F
100
AcDbEntity
  8
0
  6
Continuous
 62
     7
370
    15
100
AcDbLine
 10
233.8563857987
 20
39.1471758309
 30
0.0
 11
233.4223186986
 21
39.3977981639
 31
0.0
  0
LINE
  5
23F
330
1F
100
AcDbEntity
  8
0
  6
Continuous
 62
     7
370
    15
100
AcDbLine
 10
238.1812520572
 20
36.6504836834
 30
0.0
 11
233.8563857987
 21
39.1471758309
 31
0.0
  0
SPLINE
  5
240
330
1F
100
AcDbEntity
  8
0
  6
Continuous
 62
     7
370
    15
100
AcDbSpline
210
0.0
220
0.0
230
1.0
 70
     8
 71
     3
 72
    11
 73
     7
 74
     0
 42
0.000000001
 43
0.00000001
 40
0.0
 40
0.0
 40
0.0
 40
0.0
 40
0.0763291486410529
 40
0.4828240100964536
 40
0.8892344489868813
 40
1.0
 40
1.0
 40
1.0
 40
1.0
 10
237.7527457428596
 20
33.83444448520546
 30
0.0
 10
237.7523103635296
 20
33.91268362422503
 30
0.0
 10
237.7495563488737
 20
34.40758937806189
 30
0.0
 10
237.7048606916597
 20
35.34057542055923
 30
0.0
 10
237.6667855770981
 20
36.30605922883889
 30
0.0
 10
237.6788035962341
 20
36.82739799127406
 30
0.0
 10
237.6813775411536
 20
36.93905509913091
 30
0.0
  0
LINE
  5
241
330
1F
100
AcDbEntity
  8
0
  6
Continuous
 62
     7
370
    15
100
AcDbLine
 10
237.7527457429
 20
32.0586438562
 30
0.0
 11
237.7527457429
 21
33.8344444852
 31
0.0
  0
LINE
  5
242
330
1F
100
AcDbEntity
  8
0
  6
Continuous
 62
     7
370
    15
100
AcDbLine
 10
236.8246680926
 20
37.2472702324
 30
0.0
 11
236.8257091198
 21
37.4330219644
 31
0.0
  0
ARC
  5
243
330
1F
100
AcDbEntity
  8
0
  6
Continuous
 62
     7
370
    15
100
AcDbCircle
 10
248.7605212938
 20
36.9816805679
 30
0.0
 40
11.93880770898514
100
AcDbArc
 50
178.7252979842
 51
202.7773427363
  0
LINE
  5
244
330
1F
100
AcDbEntity
  8
0
  6
Continuous
 62
     7
370
    15
100
AcDbLine
 10
208.2070152918
 20
56.3505063947
 30
0.0
 11
208.1541902431
 21
56.3960190108
 31
0.0
  0
LWPOLYLINE
  5
245
330
1F
100
AcDbEntity
  8
0
  6
Continuous
 62
     7
370
    15
100
AcDbPolyline
 90
       10
 70
   128
 43
0.0
 10
245.1623137406
 20
18.4851523519
 10
244.6724384189
 20
18.5790715676
 10
243.4557380897
 20
18.9388083436
 10
242.322851248
 20
19.4640874111
 10
241.2822114547
 20
20.1509984297
 10
240.341565555
 20
20.994427821
 10
239.5079160084
 20
21.988096835
 10
238.7874687607
 20
23.1246082917
 10
238.1855870444
 20
24.3955016476
 10
237.7067514536
 20
25.7913159784
  0
SPLINE
  5
246
330
1F
100
AcDbEntity
  8
0
  6
Continuous
 62
     7
370
    15
100
AcDbSpline
210
0.0
220
0.0
230
1.0
 70
     8
 71
     3
 72
     8
 73
     4
 74
     0
 42
0.000000001
 43
0.00000001
 40
0.0
 40
0.0
 40
0.0
 40
0.0
 40
0.0012417047560385
 40
0.0012417047560385
 40
0.0012417047560385
 40
0.0012417047560385
 10
238.1812520572005
 20
26.15793425070047
 30
0.0
 10
238.0231918996904
 20
26.03553104569632
 30
0.0
 10
237.8650225940112
 20
25.91332881572556
 30
0.0
 10
237.7067514535508
 20
25.7913159784148
 30
0.0
  0
SPLINE
  5
247
330
1F
100
AcDbEntity
  8
0
  6
Continuous
 62
     7
370
    15
100
AcDbSpline
210
0.0
220
0.0
230
1.0
 70
     8
 71
     3
 72
     8
 73
     4
 74
     0
 42
0.000000001
 43
0.00000001
 40
0.0
 40
0.0
 40
0.0
 40
0.0
 40
1.0
 40
1.0
 40
1.0
 40
1.0
 10
238.1812520572005
 20
26.15793425070047
 30
0.0
 10
239.3524846418762
 20
26.35021388102848
 30
0.0
 10
240.5231040164686
 20
26.54380154823873
 30
0.0
 10
241.6927132016511
 20
26.7393548399094
 30
0.0
  0
SPLINE
  5
248
330
1F
100
AcDbEntity
  8
0
  6
Continuous
 62
     7
370
    15
100
AcDbSpline
210
0.0
220
0.0
230
1.0
 70
     8
 71
     3
 72
    10
 73
     6
 74
     0
 42
0.000000001
 43
0.00000001
 40
0.0
 40
0.0
 40
0.0
 40
0.0
 40
0.5
 40
0.5
 40
1.0
 40
1.0
 40
1.0
 40
1.0
 10
241.6927132016511
 20
26.73935483990941
 30
0.0
 10
241.7344790626655
 20
26.74633790032335
 30
0.0
 10
241.7783763484796
 20
26.74962799133172
 30
0.0
 10
241.8660037312695
 20
26.74796501690268
 30
0.0
 10
241.9085090283302
 20
26.74317291035193
 30
0.0
 10
241.9495902300293
 20
26.73423836481492
 30
0.0
  0
LINE
  5
249
330
1F
100
AcDbEntity
  8
0
  6
Continuous
 62
     7
370
    15
100
AcDbLine
 10
233.8563857987
 20
28.6546263982
 30
0.0
 11
238.1812520572
 21
26.1579342507
 31
0.0
  0
LINE
  5
24A
330
1F
100
AcDbEntity
  8
0
  6
Continuous
 62
     7
370
    15
100
AcDbLine
 10
233.8563857987
 20
28.6546263982
 30
0.0
 11
237.3991923523
 21
30.6998450879
 31
0.0
  0
LINE
  5
24B
330
1F
100
AcDbEntity
  8
0
  6
Continuous
 62
     7
370
    15
100
AcDbLine
 10
233.4223186986
 20
28.4040040652
 30
0.0
 11
233.8563857987
 21
28.6546263982
 31
0.0
  0
LINE
  5
24C
330
1F
100
AcDbEntity
  8
0
  6
Continuous
 62
     7
370
    15
100
AcDbLine
 10
237.7067514536
 20
25.7913159784
 30
0.0
 11
233.5790156184
 21
28.1742071548
 31
0.0
  0
SPLINE
  5
24D
330
1F
100
AcDbEntity
  8
0
  6
Continuous
 62
     7
370
    15
100
AcDbSpline
210
0.0
220
0.0
230
1.0
 70
     8
 71
     3
 72
     8
 73
     4
 74
     0
 42
0.000000001
 43
0.00000001
 40
0.0
 40
0.0
 40
0.0
 40
0.0
 40
1.0
 40
1.0
 40
1.0
 40
1.0
 10
233.5790156183743
 20
28.17420715479733
 30
0.0
 10
233.4987963892082
 20
28.22051673006793
 30
0.0
 10
233.4444066269209
 20
28.30417957108001
 30
0.0
 10
233.4223186985627
 20
28.40400406518738
 30
0.0
  0
ARC
  5
24E
330
1F
100
AcDbEntity
  8
0
  6
Continuous
 62
     7
370
    15
100
AcDbCircle
 10
242.6081239702
 20
29.5995863662
 30
0.0
 40
8.92164576897035
100
AcDbArc
 50
214.8451889641
 51
239.5573983443
  0
ELLIPSE
  5
24F
330
1F
100
AcDbEntity
  8
0
  6
Continuous
 62
     7
370
    15
100
AcDbEllipse
 10
237.1062991335
 20
31.6854695559
 30
0.0
 11
-7.507462981948265E-5
 21
1.066811201853405
 31
0.0
210
0.0
220
0.0
230
1.0
 40
0.7174342186
 41
3.534193645557446
 42
5.104989972352368
  0
ELLIPSE
  5
250
330
1F
100
AcDbEntity
  8
0
  6
Continuous
 62
     7
370
    15
100
AcDbEllipse
 10
237.0456389617
 20
31.6504398003
 30
0.0
 11
0.3250094736511642
 21
1.213179526238662
 31
0.0
210
0.0
220
0.0
230
1.0
 40
0.5176380889
 41
3.619174351347722
 42
5.189970678142624
  0
LWPOLYLINE
  5
251
330
1F
100
AcDbEntity
  8
0
  6
Continuous
 62
     7
370
    15
100
AcDbPolyline
 90
       10
 70
   128
 43
0.0
 10
252.2617550972
 20
53.9150584627
 10
251.805849418
 20
53.7784089817
 10
251.4153933799
 20
53.5200016236
 10
251.149830375
 20
53.1791765665
 10
251.0495899637
 20
52.8078213355
 10
251.1299328398
 20
52.4624713983
 10
251.3786275287
 20
52.1957031522
 10
251.7578125185
 20
52.0481296444
 10
252.2097603318
 20
52.0422176038
 10
252.3699789144
 20
52.0738120964
  0
ARC
  5
252
330
1F
100
AcDbEntity
  8
0
  6
Continuous
 62
     7
370
    15
100
AcDbCircle
 10
252.5281116523
 20
53.0462929341
 30
0.0
 40
0.9086800087330942
100
AcDbArc
 50
10.7928894103
 51
107.0451201999
  0
LINE
  5
253
330
1F
100
AcDbEntity
  8
0
  6
Continuous
 62
     7
370
    15
100
AcDbLine
 10
251.4989897652
 20
52.5422491855
 30
0.0
 11
252.2173447979
 21
52.3154085256
 31
0.0
  0
LINE
  5
254
330
1F
100
AcDbEntity
  8
0
  6
Continuous
 62
     7
370
    15
100
AcDbLine
 10
252.9541127472
 20
52.7517973733
 30
0.0
 11
252.2173447979
 21
52.3154085256
 31
0.0
  0
LINE
  5
255
330
1F
100
AcDbEntity
  8
0
  6
Continuous
 62
     7
370
    15
100
AcDbLine
 10
252.9725256638
 20
53.415026881
 30
0.0
 11
252.9541127472
 21
52.7517973733
 31
0.0
  0
LINE
  5
256
330
1F
100
AcDbEntity
  8
0
  6
Continuous
 62
     7
370
    15
100
AcDbLine
 10
252.9725256638
 20
53.415026881
 30
0.0
 11
252.2541706312
 21
53.641867541
 31
0.0
  0
LINE
  5
257
330
1F
100
AcDbEntity
  8
0
  6
Continuous
 62
     7
370
    15
100
AcDbLine
 10
251.5174026818
 20
53.2054786932
 30
0.0
 11
252.2541706312
 21
53.641867541
 31
0.0
  0
LINE
  5
258
330
1F
100
AcDbEntity
  8
0
  6
Continuous
 62
     7
370
    15
100
AcDbLine
 10
251.5174026818
 20
53.2054786932
 30
0.0
 11
251.4989897652
 21
52.5422491855
 31
0.0
  0
LINE
  5
259
330
1F
100
AcDbEntity
  8
0
  6
Continuous
 62
     7
370
    15
100
AcDbLine
 10
251.7592474445
 20
52.5777953274
 30
0.0
 11
251.5174026818
 21
53.2054786932
 31
0.0
  0
LINE
  5
25A
330
1F
100
AcDbEntity
  8
0
  6
Continuous
 62
     7
370
    15
100
AcDbLine
 10
251.7592474445
 20
52.5777953274
 30
0.0
 11
251.7560073754
 21
52.4610886985
 31
0.0
  0
LINE
  5
25B
330
1F
100
AcDbEntity
  8
0
  6
Continuous
 62
     7
370
    15
100
AcDbLine
 10
252.9573528163
 20
52.8685040023
 30
0.0
 11
252.4960153938
 21
53.0141841752
 31
0.0
  0
LINE
  5
25C
330
1F
100
AcDbEntity
  8
0
  6
Continuous
 62
     7
370
    15
100
AcDbLine
 10
251.7592474445
 20
52.5777953274
 30
0.0
 11
252.4960153938
 21
53.0141841752
 31
0.0
  0
LINE
  5
25D
330
1F
100
AcDbEntity
  8
0
  6
Continuous
 62
     7
370
    15
100
AcDbLine
 10
252.4960153938
 20
53.0141841752
 30
0.0
 11
252.2541706312
 21
53.641867541
 31
0.0
  0
LWPOLYLINE
  5
25E
330
1F
100
AcDbEntity
  8
0
  6
Continuous
 62
     7
370
     0
100
AcDbPolyline
 90
        9
 70
   128
 43
0.0
 10
274.6667948635
 20
35.9829839196
 10
274.9414467752
 20
35.46476598
 10
275.175834374
 20
34.8243766105
 10
275.2940841171
 20
34.1995892851
 10
275.2887659383
 20
33.6296616891
 10
275.1602139983
 20
33.1504044694
 10
274.9165056883
 20
32.7919311199
 10
274.5729540977
 20
32.5767658394
 10
274.4365842178
 20
32.5388405068
  0
ARC
  5
25F
330
1F
100
AcDbEntity
  8
0
  6
Continuous
 62
     7
370
     0
100
AcDbCircle
 10
274.3898118128
 20
35.1879944655
 30
0.0
 40
2.563066775399289
100
AcDbArc
 50
216.2817834421
 51
260.0984817623
  0
LWPOLYLINE
  5
260
330
1F
100
AcDbEntity
  8
0
  6
Continuous
 62
     7
370
     0
100
AcDbPolyline
 90
        9
 70
   128
 43
0.0
 10
274.4347507281
 20
35.8049064323
 10
274.4943659136
 20
35.7027832657
 10
274.7861790454
 20
35.0760077059
 10
274.9600909633
 20
34.4433758713
 10
275.003203416
 20
33.8518071707
 10
274.9123189502
 20
33.3451755487
 10
274.6941780508
 20
32.9610555548
 10
274.3649592304
 20
32.7279356117
 10
273.9490791429
 20
32.6631051593
  0
LWPOLYLINE
  5
261
330
1F
100
AcDbEntity
  8
0
  6
Continuous
 62
     7
370
     0
100
AcDbPolyline
 90
       40
 70
   128
 43
0.0
 10
245.2834329625
 20
26.6186571266
 10
245.3458432894
 20
28.3512495528
 10
245.5326246022
 20
30.1434160405
 10
245.8424311373
 20
31.9822439891
 10
246.2730307315
 20
33.8544846011
 10
246.8213209049
 20
35.7466483399
 10
247.4833512141
 20
37.6451021226
 10
248.2543517157
 20
39.5361675459
 10
249.1287673334
 20
41.4062194404
 10
250.1002978826
 20
43.2417840391
 10
251.1619434634
 20
45.0296360572
 10
252.3060548951
 20
46.7568939798
 10
253.5243888287
 20
48.411112874
 10
254.8081671401
 20
49.9803740549
 10
256.1481401773
 20
51.4533709595
 10
257.5346534038
 20
52.8194906116
 10
258.9577169601
 20
54.0688900876
 10
260.4070776405
 20
55.1925674358
 10
261.8722927683
 20
56.182426535
 10
263.3428054348
 20
57.0313354279
 10
264.8080205626
 20
57.7331777063
 10
266.2573812431
 20
58.2828965805
 10
267.6804447993
 20
58.6765313136
 10
269.0669580258
 20
58.9112457582
 10
270.406931063
 20
58.9853487913
 10
271.6907093745
 20
58.8983064989
 10
272.909043308
 20
58.6507460228
 10
274.0531547397
 20
58.2444510417
 10
275.1148003205
 20
57.6823489205
 10
276.0863308697
 20
56.9684896177
 10
276.9607464874
 20
56.1080165059
 10
277.731746989
 20
55.1071293137
 10
278.3937772983
 20
53.9730394562
 10
278.9420674716
 20
52.7139180769
 10
279.3726670658
 20
51.338837174
 10
279.6824736009
 20
49.8577042371
 10
279.8692549138
 20
48.2811908629
 10
279.9316652406
 20
46.6206558663
 10
279.8692549138
 20
44.8880634401
 10
279.8660012505
 20
44.8426050036
  0
LWPOLYLINE
  5
262
330
1F
100
AcDbEntity
  8
0
  6
Continuous
 62
     7
370
     0
100
AcDbPolyline
 90
       21
 70
   128
 43
0.0
 10
264.1172812115
 20
17.5620658386
 10
263.3428054348
 20
17.0568864579
 10
261.8722927683
 20
16.2079775651
 10
260.4070776405
 20
15.5061352867
 10
258.9577169601
 20
14.9564164124
 10
257.5346534038
 20
14.5627816794
 10
256.1481401773
 20
14.3280672348
 10
254.8081671401
 20
14.2539642017
 10
253.5243888287
 20
14.341006494
 10
252.3060548951
 20
14.5885669702
 10
251.1619434634
 20
14.9948619512
 10
250.1002978826
 20
15.5569640725
 10
249.1287673334
 20
16.2708233753
 10
248.2543517157
 20
17.131296487
 10
247.4833512141
 20
18.1321836792
 10
246.8213209049
 20
19.2662735367
 10
246.2730307315
 20
20.5253949161
 10
245.8424311373
 20
21.9004758189
 10
245.5326246022
 20
23.3816087558
 10
245.3458432894
 20
24.9581221301
 10
245.2834329625
 20
26.6186571266
  0
LWPOLYLINE
  5
263
330
1F
100
AcDbEntity
  8
0
  6
Continuous
 62
     7
370
     0
100
AcDbPolyline
 90
       27
 70
   128
 43
0.0
 10
244.5763261813
 20
26.6186571266
 10
244.6383242565
 20
28.3626072069
 10
244.8238836101
 20
30.1659061843
 10
245.1317026765
 20
32.0159052123
 10
245.5596223263
 20
33.8996278767
 10
246.1046410104
 20
35.8038612167
 10
246.7629358145
 20
37.7152484035
 10
247.5298892735
 20
39.6203824294
 10
248.4001217598
 20
41.5059001479
 10
249.3675292179
 20
43.358576007
 10
250.4253259796
 20
45.1654148168
 10
251.5660923605
 20
46.9137429011
 10
252.7818267042
 20
48.5912969947
 10
254.0640015077
 20
50.1863102609
 10
255.4036232361
 20
51.6875948276
 10
256.7912954054
 20
53.0846202623
 10
258.2172844923
 20
54.3675874353
 10
259.6715882082
 20
55.5274972538
 10
261.1440056571
 20
56.5562137837
 10
262.6242088888
 20
57.4465213177
 10
264.1018153411
 20
58.1921749881
 10
265.5664606663
 20
58.7879445702
 10
267.0078714298
 20
59.2296511685
 10
268.4159371708
 20
59.5141965284
 10
269.7807813198
 20
59.6395847688
 10
271.0928304758
 20
59.6049363813
 10
271.2632335345
 20
59.5882301134
  0
ARC
  5
264
330
1F
100
AcDbEntity
  8
0
  6
Continuous
 62
     7
370
     0
100
AcDbCircle
 10
259.9694917034
 20
26.0127143161
 30
0.0
 40
15.40508719478007
100
AcDbArc
 50
177.7457495802
 51
212.5890690703
  0
LWPOLYLINE
  5
265
330
1F
100
AcDbEntity
  8
0
  6
Continuous
 62
     7
370
     0
100
AcDbPolyline
 90
        9
 70
   128
 43
0.0
 10
252.5312774697
 20
29.578136532
 10
252.5943704134
 20
28.2475700503
 10
252.7829343763
 20
27.0049249807
 10
253.0948328532
 20
25.8642809885
 10
253.52653191
 20
24.8385620258
 10
254.0731402237
 20
23.9393898984
 10
254.7284645037
 20
23.1769525857
 10
255.4850796641
 20
22.5598888072
 10
255.7938492538
 20
22.3670808301
  0
LWPOLYLINE
  5
266
330
1F
100
AcDbEntity
  8
0
  6
Continuous
 62
     7
370
     0
100
AcDbPolyline
 90
       24
 70
   128
 43
0.0
 10
271.4709041269
 20
49.6882452462
 10
271.4376839483
 20
49.7065773242
 10
270.5455387971
 20
50.0930085126
 10
269.5754707543
 20
50.3198435663
 10
268.5384710786
 20
50.3845123537
 10
267.4462893905
 20
50.2862821514
 10
266.311300545
 20
50.026265947
 10
265.1463644193
 20
49.6074098279
 10
263.9646802052
 20
49.0344596013
 10
262.7796368569
 20
48.3139070222
 10
261.6046613892
 20
47.4539162393
 10
260.4530667436
 20
46.4642312918
 10
259.3379009475
 20
45.3560657055
 10
258.271799275
 20
44.1419754394
 10
257.2668410842
 20
42.8357166213
 10
256.3344129527
 20
41.4520896856
 10
255.4850796641
 20
40.0067716784
 10
254.7284645037
 20
38.5161386301
 10
254.0731402237
 20
36.9970800088
 10
253.52653191
 20
35.4668073558
 10
253.0948328532
 20
33.9426592715
 10
252.7829343763
 20
32.4419049629
 10
252.5943704134
 20
30.981548576
 10
252.5312774697
 20
29.578136532
  0
LWPOLYLINE
  5
267
330
1F
100
AcDbEntity
  8
0
  6
Continuous
 62
     7
370
     0
100
AcDbPolyline
 90
       47
 70
   128
 43
0.0
 10
275.6890245535
 20
36.825019175
 10
274.7743231245
 20
36.2247228806
 10
273.8766608525
 20
35.4911081718
 10
273.012759487
 20
34.6378409026
 10
272.1987118761
 20
33.6808158278
 10
271.4496821864
 20
32.6378605137
 10
270.7796234239
 20
31.5284032446
 10
270.2010175155
 20
30.3731111102
 10
269.7246427945
 20
29.193505017
 10
269.3593732206
 20
28.0115587947
 10
269.1120130749
 20
26.849289865
 10
268.9871702088
 20
25.7283490991
 10
268.9871702088
 20
24.6696175024
 10
269.1120130749
 20
23.6928172415
 10
269.3593732206
 20
22.816144257
 10
269.7246427945
 20
22.0559293078
 10
270.2010175155
 20
21.4263337602
 10
270.7796234239
 20
20.939085788
 10
271.4496821864
 20
20.6032618988
 10
272.1987118761
 20
20.4251178564
 10
273.012759487
 20
20.4079721473
 10
273.8766608525
 20
20.5521441636
 10
274.7743231245
 20
20.8549482533
 10
275.6890245535
 20
21.3107437492
 10
276.6037259825
 20
21.9110400436
 10
277.5013882546
 20
22.6446547525
 10
278.36528962
 20
23.4979220217
 10
279.1793372309
 20
24.4549470965
 10
279.9283669206
 20
25.4979024105
 10
280.5984256831
 20
26.6073596796
 10
281.1770315916
 20
27.762651814
 10
281.6534063126
 20
28.9422579072
 10
282.0186758865
 20
30.1242041295
 10
282.2660360322
 20
31.2864730592
 10
282.3908788982
 20
32.4074138252
 10
282.3908788982
 20
33.4661454218
 10
282.2660360322
 20
34.4429456827
 10
282.0186758865
 20
35.3196186673
 10
281.6534063126
 20
36.0798336164
 10
281.1770315916
 20
36.709429164
 10
280.5984256831
 20
37.1966771363
 10
279.9283669206
 20
37.5325010254
 10
279.1793372309
 20
37.7106450678
 10
278.36528962
 20
37.7277907769
 10
277.5013882546
 20
37.5836187607
 10
276.6037259825
 20
37.280814671
 10
275.6890245535
 20
36.825019175
  0
LWPOLYLINE
  5
268
330
1F
100
AcDbEntity
  8
0
  6
Continuous
 62
     7
370
     0
100
AcDbPolyline
 90
       29
 70
   128
 43
0.0
 10
250.4099571261
 20
29.578136532
 10
250.4725390259
 20
31.0392533938
 10
250.6596425504
 20
32.557632743
 10
250.9693477642
 20
34.1176939527
 10
251.3984766728
 20
35.7034286838
 10
251.9426258327
 20
37.2985651521
 10
252.5962115373
 20
38.8867350988
 10
253.3525271129
 20
40.4516417513
 10
254.2038117381
 20
41.9772270495
 10
255.1413300807
 20
43.447836424
 10
256.1554619339
 20
44.8483794323
 10
257.2358009325
 20
46.1644846081
 10
258.3712613364
 20
47.3826469313
 10
259.5501917855
 20
48.4903664079
 10
260.7604948578
 20
49.4762763372
 10
261.9897512062
 20
50.3302599492
 10
263.225346997
 20
51.0435542163
 10
264.4546033453
 20
51.6088397742
 10
265.6649064177
 20
52.020316028
 10
266.8438368667
 20
52.2737606746
 10
267.9792972706
 20
52.366573029
 10
269.0596362692
 20
52.2978007107
 10
270.0737681224
 20
52.0681494169
 10
271.011286465
 20
51.6799756806
 10
271.8625710902
 20
51.1372626896
 10
272.6188866658
 20
50.4455794136
 10
273.2724723704
 20
49.612023459
 10
273.8166215304
 20
48.6451482378
 10
274.000006801
 20
48.2289715184
  0
LWPOLYLINE
  5
269
330
1F
100
AcDbEntity
  8
0
  6
Continuous
 62
     7
370
     0
100
AcDbPolyline
 90
       13
 70
   128
 43
0.0
 10
258.251286762
 20
20.9484323534
 10
257.2358009325
 20
20.872739964
 10
256.1554619339
 20
20.9415122822
 10
255.1413300807
 20
21.171163576
 10
254.2038117381
 20
21.5593373123
 10
253.3525271129
 20
22.1020503034
 10
252.5962115373
 20
22.7937335794
 10
251.9426258327
 20
23.627289534
 10
251.3984766728
 20
24.5941647551
 10
250.9693477642
 20
25.6844377946
 10
250.6596425504
 20
26.8869209757
 10
250.4725390259
 20
28.1892751937
 10
250.4099571261
 20
29.578136532
  0
LWPOLYLINE
  5
26A
330
1F
100
AcDbEntity
  8
0
  6
Continuous
 62
     7
370
     0
100
AcDbPolyline
 90
       21
 70
   128
 43
0.0
 10
241.6927132017
 20
37.2319042726
 10
242.1623587134
 20
38.9913322031
 10
242.7465272023
 20
40.7617880061
 10
243.440440521
 20
42.5287904169
 10
244.2384228754
 20
44.2778864174
 10
245.1339472495
 20
45.9947694534
 10
246.1196887919
 20
47.6653964531
 10
247.187584729
 20
49.2761026914
 10
248.3289003137
 20
50.8137135591
 10
249.5343002702
 20
52.2656523232
 10
250.7939251513
 20
53.6200429969
 10
252.0974719821
 20
54.8658074783
 10
253.4342785328
 20
55.9927561624
 10
254.793410529
 20
56.9916712862
 10
256.1637510877
 20
57.854382324
 10
257.5340916464
 20
58.5738328179
 10
258.8932236426
 20
59.1441380953
 10
260.2300301934
 20
59.5606334015
 10
261.5335770242
 20
59.8199120552
 10
262.7932019052
 20
59.9198533128
 10
262.9497197688
 20
59.9210868883
  0
LWPOLYLINE
  5
26B
330
1F
100
AcDbEntity
  8
0
  6
Continuous
 62
     7
370
     0
100
AcDbPolyline
 90
       22
 70
   128
 43
0.0
 10
233.5790156184
 20
39.3073502807
 10
234.0578512092
 20
41.2560164169
 10
234.6597329255
 20
43.2218276107
 10
235.3801801732
 20
45.190149754
 10
236.2138297198
 20
47.1463300469
 10
237.1544756195
 20
49.0758060768
 10
238.1951154128
 20
50.9642142262
 10
239.3280022545
 20
52.7974965994
 10
240.5447025837
 20
54.5620056742
 10
241.8361589061
 20
56.2446058981
 10
243.1927572205
 20
57.8327714735
 10
244.6043985886
 20
59.3146796036
 10
246.0605743145
 20
60.6792985049
 10
247.5504441746
 20
61.9164695314
 10
249.0629171161
 20
63.0169827984
 10
250.5867338214
 20
63.9726457441
 10
252.1105505267
 20
64.7763441173
 10
253.6230234681
 20
65.4220949382
 10
255.1128933283
 20
65.9050910375
 10
256.5690690542
 20
66.2217368425
 10
257.9807104223
 20
66.3696751437
 10
259.3189167141
 20
66.3492698878
  0
LWPOLYLINE
  5
26C
330
1F
100
AcDbEntity
  8
0
  6
Continuous
 62
     7
370
     0
100
AcDbPolyline
 90
       25
 70
   128
 43
0.0
 10
270.8358368661
 20
21.4775437286
 10
270.9146923637
 20
21.4335894701
 10
271.5948287229
 20
21.1671980334
 10
272.3477724323
 20
21.0585570266
 10
273.1588682991
 20
21.1097810232
 10
274.0123292647
 20
21.3198730065
 10
274.8915436824
 20
21.6847437749
 10
275.7793986435
 20
22.1972915341
 10
276.6586130611
 20
22.8475401248
 10
277.5120740268
 20
23.622833198
 10
278.3231698935
 20
24.5080805557
 10
279.0761136029
 20
25.4860518652
 10
279.7562499622
 20
26.5377120274
 10
280.3503408906
 20
27.6425916734
 10
280.8468230842
 20
28.7791855777
 10
281.2360330817
 20
29.9253712328
 10
281.5103953532
 20
31.0588394387
 10
281.6645697492
 20
32.1575285261
 10
281.6955554405
 20
33.2000537617
 10
281.6027493258
 20
34.1661235775
 10
281.3879577706
 20
35.0369345235
 10
281.0553614482
 20
35.7955372552
 10
280.6114339676
 20
36.4271664333
 10
280.0648158724
 20
36.9195281142
 10
279.8351054598
 20
37.0664232515
  0
LWPOLYLINE
  5
26D
330
1F
100
AcDbEntity
  8
0
  6
Continuous
 62
     7
370
     0
100
AcDbPolyline
 90
       19
 70
   128
 43
0.0
 10
242.0855195773
 20
37.1742578157
 10
242.5727637946
 20
38.9786107749
 10
243.1811610479
 20
40.7936427378
 10
243.9053839653
 20
42.6034605528
 10
244.7390909592
 20
44.3922167255
 10
245.6749817548
 20
46.1442481857
 10
246.7048613153
 20
47.8442134396
 10
247.8197115998
 20
49.4772269061
 10
249.00977053
 20
51.0289892611
 10
250.26461747
 20
52.4859126476
 10
251.5732644741
 20
53.8352396572
 10
252.9242525016
 20
55.0651550386
 10
254.3057517566
 20
56.164889157
 10
255.7056652749
 20
57.1248122969
 10
257.1117348491
 20
57.9365189845
 10
258.5116483674
 20
58.5929015886
 10
259.8931476224
 20
59.0882125587
 10
261.2441356499
 20
59.4181147522
 10
262.0172265112
 20
59.5333929539
  0
LINE
  5
26E
330
1F
100
AcDbEntity
  8
0
  6
Continuous
 62
     7
370
     0
100
AcDbLine
 10
241.94959023
 20
26.7342383648
 30
0.0
 11
243.1090796103
 21
27.4035973364
 31
0.0
  0
LINE
  5
26F
330
1F
100
AcDbEntity
  8
0
  6
Continuous
 62
     7
370
     0
100
AcDbLine
 10
243.4944116805
 20
27.2000540644
 30
0.0
 11
243.1090796103
 21
27.4035973364
 31
0.0
  0
ARC
  5
270
330
1F
100
AcDbEntity
  8
0
  6
Continuous
 62
     7
370
     0
100
AcDbCircle
 10
242.3839331494
 20
28.5795178896
 30
0.0
 40
1.381530505408467
100
AcDbArc
 50
301.6605905892
 51
324.2377952694
  0
LINE
  5
271
330
1F
100
AcDbEntity
  8
0
  6
Continuous
 62
     7
370
     0
100
AcDbLine
 10
237.8134059146
 20
32.0936736118
 30
0.0
 11
243.3884089818
 21
28.8752928463
 31
0.0
  0
LINE
  5
272
330
1F
100
AcDbEntity
  8
0
  6
Continuous
 62
     7
370
     0
100
AcDbLine
 10
237.7527457429
 20
32.0586438562
 30
0.0
 11
237.8134059146
 21
32.0936736118
 31
0.0
  0
LINE
  5
273
330
1F
100
AcDbEntity
  8
0
  6
Continuous
 62
     7
370
     0
100
AcDbLine
 10
237.5317748737
 20
36.8390661765
 30
0.0
 11
237.532815901
 21
37.0248179085
 31
0.0
  0
LWPOLYLINE
  5
274
330
1F
100
AcDbEntity
  8
0
  6
Continuous
 62
     7
370
     0
100
AcDbPolyline
 90
        3
 70
   128
 43
0.0
 10
237.6665550859
 20
34.8158621977
 10
237.59512771
 20
35.4330956768
 10
237.5317748737
 20
36.8390661765
  0
LWPOLYLINE
  5
275
330
1F
100
AcDbEntity
  8
0
  6
Continuous
 62
     7
370
     0
100
AcDbPolyline
 90
       18
 70
   128
 43
0.0
 10
206.5985551901
 20
60.6546847678
 10
206.6626839265
 20
61.7979371787
 10
206.8539257569
 20
62.9948296863
 10
207.1688679664
 20
64.2240037155
 10
207.6018904037
 20
65.4635246265
 10
208.1452657731
 20
66.6912731394
 10
208.7892975284
 20
67.8853400528
 10
209.5224929076
 20
69.0244172144
 10
210.3317680218
 20
70.0881777653
 10
211.2026813374
 20
71.0576388732
 10
212.1196913857
 20
71.9155004817
 10
213.0664341006
 20
72.64645403
 10
214.0260148359
 20
73.2374556349
 10
214.9813098508
 20
73.6779588585
 10
215.9152718829
 20
73.9601029106
 10
216.8112343578
 20
74.0788529237
 10
217.6532088039
 20
74.0320898011
 10
218.3163699672
 20
73.8623197656
  0
ARC
  5
276
330
1F
100
AcDbEntity
  8
0
  6
Continuous
 62
     7
370
     0
100
AcDbCircle
 10
211.9848751717
 20
60.2087777251
 30
0.0
 40
5.404745695701155
100
AcDbArc
 50
175.2675545006
 51
224.8656241104
  0
LWPOLYLINE
  5
277
330
1F
100
AcDbEntity
  8
0
  6
Continuous
 62
     7
370
     0
100
AcDbPolyline
 90
        3
 70
   128
 43
0.0
 10
242.7584451965
 20
25.0649081053
 10
242.5727637946
 20
25.4431089925
 10
242.0855195773
 20
26.6849017528
  0
LWPOLYLINE
  5
278
330
1F
100
AcDbEntity
  8
0
  6
Continuous
 62
     7
370
     0
100
AcDbPolyline
 90
        3
 70
   128
 43
0.0
 10
242.6727582429
 20
24.5472679579
 10
242.1623587134
 20
25.5221680754
 10
241.6927132017
 20
26.7393548399
  0
LINE
  5
279
330
1F
100
AcDbEntity
  8
0
  6
Continuous
 62
     7
370
     0
100
AcDbLine
 10
243.1090796103
 20
27.4035973364
 30
0.0
 11
237.3991923523
 21
30.6998450879
 31
0.0
  0
ARC
  5
27A
330
1F
100
AcDbEntity
  8
0
  6
Continuous
 62
     7
370
     0
100
AcDbCircle
 10
245.2475213678
 20
31.3659179917
 30
0.0
 40
12.09715026325628
100
AcDbArc
 50
195.2980304775
 51
214.568481162
  0
OLE2FRAME
  5
27B
330
1F
100
AcDbEntity
  8
0
100
AcDbOle2Frame
 70
     2
  3
Paintbrush-Bild
 10
13.8511154363
 20
38.264191557
 30
0.0
 11
51.6290888628
 21
31.9806341108
 31
0.0
 71
     2
 72
     0
 73
     1
 90
    12928
310
80552BED0767C5B32B40DDAF6807D121434000000000000000006FFBDDFB85D0
310
4940DDAF6807D121434000000000000000006FFBDDFB85D04940416F4BD60AFB
310
3F4000000000000000002BED0767C5B32B40416F4BD60AFB3F40000000000000
310
0000000000000100000000010000010000000100000000000100000000320000
310
D0CF11E0A1B11AE1000000000000000000000000000000003E000300FEFF0900
310
0600000000000000000000000100000001000000000000000010000002000000
310
01000000FEFFFFFF0000000000000000FFFFFFFFFFFFFFFFFFFFFFFFFFFFFFFF
310
FFFFFFFFFFFFFFFFFFFFFFFFFFFFFFFFFFFFFFFFFFFFFFFFFFFFFFFFFFFFFFFF
310
FFFFFFFFFFFFFFFFFFFFFFFFFFFFFFFFFFFFFFFFFFFFFFFFFFFFFFFFFFFFFFFF
310
FFFFFFFFFFFFFFFFFFFFFFFFFFFFFFFFFFFFFFFFFFFFFFFFFFFFFFFFFFFFFFFF
310
FFFFFFFFFFFFFFFFFFFFFFFFFFFFFFFFFFFFFFFFFFFFFFFFFFFFFFFFFFFFFFFF
310
FFFFFFFFFFFFFFFFFFFFFFFFFFFFFFFFFFFFFFFFFFFFFFFFFFFFFFFFFFFFFFFF
310
FFFFFFFFFFFFFFFFFFFFFFFFFFFFFFFFFFFFFFFFFFFFFFFFFFFFFFFFFFFFFFFF
310
FFFFFFFFFFFFFFFFFFFFFFFFFFFFFFFFFFFFFFFFFFFFFFFFFFFFFFFFFFFFFFFF
310
FFFFFFFFFFFFFFFFFFFFFFFFFFFFFFFFFFFFFFFFFFFFFFFFFFFFFFFFFFFFFFFF
310
FFFFFFFFFFFFFFFFFFFFFFFFFFFFFFFFFFFFFFFFFFFFFFFFFFFFFFFFFFFFFFFF
310
FFFFFFFFFFFFFFFFFFFFFFFFFFFFFFFFFFFFFFFFFFFFFFFFFFFFFFFFFFFFFFFF
310
FFFFFFFFFFFFFFFFFFFFFFFFFFFFFFFFFFFFFFFFFFFFFFFFFFFFFFFFFFFFFFFF
310
FFFFFFFFFFFFFFFFFFFFFFFFFFFFFFFFFFFFFFFFFFFFFFFFFFFFFFFFFFFFFFFF
310
FFFFFFFFFFFFFFFFFFFFFFFFFFFFFFFFFFFFFFFFFFFFFFFFFFFFFFFFFFFFFFFF
310
FDFFFFFFFEFFFFFFFEFFFFFFFEFFFFFF05000000060000000700000008000000
310
090000000A0000000B0000000C0000000D0000000E0000000F00000010000000
310
11000000120000001300000014000000150000001600000017000000FEFFFFFF
310
FFFFFFFFFFFFFFFFFFFFFFFFFFFFFFFFFFFFFFFFFFFFFFFFFFFFFFFFFFFFFFFF
310
FFFFFFFFFFFFFFFFFFFFFFFFFFFFFFFFFFFFFFFFFFFFFFFFFFFFFFFFFFFFFFFF
310
FFFFFFFFFFFFFFFFFFFFFFFFFFFFFFFFFFFFFFFFFFFFFFFFFFFFFFFFFFFFFFFF
310
FFFFFFFFFFFFFFFFFFFFFFFFFFFFFFFFFFFFFFFFFFFFFFFFFFFFFFFFFFFFFFFF
310
FFFFFFFFFFFFFFFFFFFFFFFFFFFFFFFFFFFFFFFFFFFFFFFFFFFFFFFFFFFFFFFF
310
FFFFFFFFFFFFFFFFFFFFFFFFFFFFFFFFFFFFFFFFFFFFFFFFFFFFFFFFFFFFFFFF
310
FFFFFFFFFFFFFFFFFFFFFFFFFFFFFFFFFFFFFFFFFFFFFFFFFFFFFFFFFFFFFFFF
310
FFFFFFFFFFFFFFFFFFFFFFFFFFFFFFFFFFFFFFFFFFFFFFFFFFFFFFFFFFFFFFFF
310
FFFFFFFFFFFFFFFFFFFFFFFFFFFFFFFFFFFFFFFFFFFFFFFFFFFFFFFFFFFFFFFF
310
FFFFFFFFFFFFFFFFFFFFFFFFFFFFFFFFFFFFFFFFFFFFFFFFFFFFFFFFFFFFFFFF
310
FFFFFFFFFFFFFFFFFFFFFFFFFFFFFFFFFFFFFFFFFFFFFFFFFFFFFFFFFFFFFFFF
310
FFFFFFFFFFFFFFFFFFFFFFFFFFFFFFFFFFFFFFFFFFFFFFFFFFFFFFFFFFFFFFFF
310
FFFFFFFFFFFFFFFFFFFFFFFFFFFFFFFFFFFFFFFFFFFFFFFFFFFFFFFFFFFFFFFF
310
52006F006F007400200045006E00740072007900000000000000000000000000
310
0000000000000000000000000000000000000000000000000000000000000000
310
16000500FFFFFFFFFFFFFFFF020000000A00030000000000C000000000000046
310
000000000000000000000000F0CB9E85E925D20103000000C000000000000000
310
01004F006C006500000000000000000000000000000000000000000000000000
310
0000000000000000000000000000000000000000000000000000000000000000
310
0A000200FFFFFFFFFFFFFFFFFFFFFFFF00000000000000000000000000000000
310
0000000000000000000000000000000000000000000000001400000000000000
310
010043006F006D0070004F0062006A0000000000000000000000000000000000
310
0000000000000000000000000000000000000000000000000000000000000000
310
120002010100000003000000FFFFFFFF00000000000000000000000000000000
310
0000000000000000000000000000000000000000010000004D00000000000000
310
01004F006C006500310030004E00610074006900760065000000000000000000
310
0000000000000000000000000000000000000000000000000000000000000000
310
1A000200FFFFFFFFFFFFFFFFFFFFFFFF00000000000000000000000000000000
310
0000000000000000000000000000000000000000040000002426000000000000
310
FEFFFFFF02000000FEFFFFFFFFFFFFFFFFFFFFFFFFFFFFFFFFFFFFFFFFFFFFFF
310
FFFFFFFFFFFFFFFFFFFFFFFFFFFFFFFFFFFFFFFFFFFFFFFFFFFFFFFFFFFFFFFF
310
FFFFFFFFFFFFFFFFFFFFFFFFFFFFFFFFFFFFFFFFFFFFFFFFFFFFFFFFFFFFFFFF
310
FFFFFFFFFFFFFFFFFFFFFFFFFFFFFFFFFFFFFFFFFFFFFFFFFFFFFFFFFFFFFFFF
310
FFFFFFFFFFFFFFFFFFFFFFFFFFFFFFFFFFFFFFFFFFFFFFFFFFFFFFFFFFFFFFFF
310
FFFFFFFFFFFFFFFFFFFFFFFFFFFFFFFFFFFFFFFFFFFFFFFFFFFFFFFFFFFFFFFF
310
FFFFFFFFFFFFFFFFFFFFFFFFFFFFFFFFFFFFFFFFFFFFFFFFFFFFFFFFFFFFFFFF
310
FFFFFFFFFFFFFFFFFFFFFFFFFFFFFFFFFFFFFFFFFFFFFFFFFFFFFFFFFFFFFFFF
310
FFFFFFFFFFFFFFFFFFFFFFFFFFFFFFFFFFFFFFFFFFFFFFFFFFFFFFFFFFFFFFFF
310
FFFFFFFFFFFFFFFFFFFFFFFFFFFFFFFFFFFFFFFFFFFFFFFFFFFFFFFFFFFFFFFF
310
FFFFFFFFFFFFFFFFFFFFFFFFFFFFFFFFFFFFFFFFFFFFFFFFFFFFFFFFFFFFFFFF
310
FFFFFFFFFFFFFFFFFFFFFFFFFFFFFFFFFFFFFFFFFFFFFFFFFFFFFFFFFFFFFFFF
310
FFFFFFFFFFFFFFFFFFFFFFFFFFFFFFFFFFFFFFFFFFFFFFFFFFFFFFFFFFFFFFFF
310
FFFFFFFFFFFFFFFFFFFFFFFFFFFFFFFFFFFFFFFFFFFFFFFFFFFFFFFFFFFFFFFF
310
FFFFFFFFFFFFFFFFFFFFFFFFFFFFFFFFFFFFFFFFFFFFFFFFFFFFFFFFFFFFFFFF
310
FFFFFFFFFFFFFFFFFFFFFFFFFFFFFFFFFFFFFFFFFFFFFFFFFFFFFFFFFFFFFFFF
310
0100000200000000000000000000000000000000000000000000000000000000
310
0000000000000000000000000000000000000000000000000000000000000000
310
0100FEFF030A0000FFFFFFFF0A00030000000000C00000000000004607000000
310
5042727573680007000000504272757368000700000050427275736800F439B2
310
7100000000000000000000000000000000000000000000000000000000000000
310
0000000000000000000000000000000000000000000000000000000000000000
310
0000000000000000000000000000000000000000000000000000000000000000
310
0000000000000000000000000000000000000000000000000000000000000000
310
0000000000000000000000000000000000000000000000000000000000000000
310
0000000000000000000000000000000000000000000000000000000000000000
310
0000000000000000000000000000000000000000000000000000000000000000
310
0000000000000000000000000000000000000000000000000000000000000000
310
0000000000000000000000000000000000000000000000000000000000000000
310
0000000000000000000000000000000000000000000000000000000000000000
310
0000000000000000000000000000000000000000000000000000000000000000
310
0000000000000000000000000000000000000000000000000000000000000000
310
20260000424D0E260000000000003E00000028000000B40200006E0000000100
310
01000000000000000000130B0000130B00000200000002000000000000FFFFFF
310
FFFFFFFFFFFFFFFFFFFFFFFFFFFFFFFFFFFFFFFFFFFFFFFFFFFFFFFFFFFFFFFF
310
FFFFFFFFFFFFFFFFFFFFFFFFFFFFFFFFFFFFFFFFFFFFFFFFFFFFFFFFFFFFFFFF
310
FFFFFFFFFFFFFFFFFFFFFFFFFFFFFFFFFFFFFFFFFFFFFFFFF000FFFFFFFFFFFF
310
FFFFFFFFFFFFFFFFFFFFFFFFFFFFFFFFFFFFFFFFFFFFFFFFFFFFFFFFFFFFFFFF
310
FFFFFFFFFFFFFFFFFFFFFFFFFFFFFFFFFFFFFFFFFFFFFFFFFFFFFFFFFFFFFFFF
310
FFFFFFFFFFFFFFFFFFFFFFFFFFFFFFFFF000FFFFFFFFFFFFFFFFFFFFFFFFFFFF
310
FFFFFFFFFFFFFFFFFFFFFFFFFFFFFFFFFFFFFFFFFFFFFFFFFFFFFFFFFFFFFFFF
310
FFFFFFFFFFFFFFFFFFFFFFFFFFFFFFFFFFFFFFFFFFFFFFFFFFFFFFFFFFFFFFFF
310
FFFFFFFFFFFFFFFFF000FFFFFFFFFFFFFFFFFFFFFFFFFFFFFFFFFFFFFFFFFFFF
310
FFFFFFFFFFFFFFFFFFFFFFFFFFFFFFFFFFFFFFFFFFFFFFFFFFFFFFFFFFFFFFFF
310
FFFFFFFFFFFFFFFFFFFFFFFFFFFFFFFFFFFFFFFFFFFFFFFFFFFFFFFFFFFFFFFF
310
F000FFFFFFFFFFFFFFFFFFFFFFFFFFFFFFFFFFFFFFFFFFFFFFFFFFFFFFFFFFFF
310
FFFFFFFFFFFFFFFFFFFFFFFFFFFFFFFFFFFFFFFFFFFFFFFFFFFFFFFFFFFFFFFF
310
FFFFFFFFFFFFFFFFFFFFFFFFFFFFFFFFFFFFFFFFFFFFFFFFF000FFFFFFFFFFFF
310
FFFFFFFFFFFFFFFFFFFFFFFFFFFFFFFFFFFFFFFFFFFFFFFFFFFFFFFFFFFFFFFF
310
FFFFFFFFFFFFFFFFFFFFFFFFFFFFFFFFFFFFFFFFFFFFFFFFFFFFFFFFFFFFFFFF
310
FFFFFFFFFFFFFFFFFFFFFFFFFFFFFFFFF000FFFFFFFFFFFFFFFFFFFFFFFFFFFF
310
FFFFFFFFFFFFFFFFFFFFFFFFFFFFFFFFFFFFFFFFFFFFFFFFFFFFFFFFFFFFFFFF
310
FFFFFFFFFFFFFFFFFFFFFFFFFFFFFFFFFFFFFFFFFFFFFFFFFFFFFFFFFFFFFFFF
310
FFFFFFFFFFFFFFFFF000FFFFFFFFFFFFFFFFFFFFFFFFFFFFFFFFFFFFFFFFFFFF
310
FFFFFFFFFFFFFFFFFFFFFFFFFFFFFFFFFFFFFFFFFFFFFFFFFFFFFFFFFFFFFFFF
310
FFFFFFFFFFFFFFFFFFFFFFFFFFFFFFFFFFFFFFFFFFFFFFFFFFFFFFFFFFFFFFFF
310
F000FFFFFFFFFFFFFFFFFFFFFFFFFFFFFFFFFFFFFFFFFFFFFFFFFFFFFFFFFFFF
310
FFFFFFFFFFFFFFFFFFFFFFFFFFFFFFFFFFFFFFFFFFFFFFFFFFFFFFFFFFFFFFFF
310
FFFFFFFFFFFFFFFFFFFFFFFFFFFFFFFFFFFFFFFFFFFFFFFFF000FFFFFFFFFFFF
310
FFFFFFFFFFFFFFFFFFFFFFFFFFFFFFFFFFFFFFFFFFFFFFFFFFFFFFFFFFFFFFFF
310
FFFFFFFFFFFFFFFFFFFFFFFFFFFFFFFFFFFFFFFFFFFFFFFFFFFFFFFFFFFFFFFF
310
FFFFFFFFFFFFFFFFFFFFFFFFFFFFFFFFF000FFFFFFFFFFFFFFFFFFFFFFFFFFFF
310
FFFFFFFFFFFFFFFFFFFFFFFFFFFFFFFFFFFFFFFFFFFFFFFFFFFFFFFFFFFFFFFF
310
FFFFFFFFFFFFFFFFFFFFFFFFFFFFFFFFFFFFFFFFFFFFFFFFFFFFFFFFFFFFFFFF
310
FFFFFFFFFFFFFFFFF000FFFFFFFFFFFFFFFFFFFFFFFFFFFFFFFFFFFFFFFFFFFF
310
FFFFFFFFFFFFFFFFFFFFFFFFFFFFFFFFFFFFFFFFFFFFFFFFFFFFFFFFFFFFFFFF
310
FFFFFFFFFFFFFFFFFFFFFFFFFFFFFFFFFFFFFFFFFFFFFFFFFFFFFFFFFFFFFFFF
310
F000FFFFFFFFFFFFFFFFFFFFFFFFFFFFFFFFFFFFFFFFFFFFFFFFFFFFFFFFFFFF
310
FFFFFFFFFFFFFFFFFFFFFFFFFFFFFFFFFFFFFFFFFFFFFFFFFFFFFFFFFFFFFFFF
310
FFFFFFFFFFFFFFFFFFFFFFFFFFFFFFFFFFFFFFFFFFFFFFFFF000FFFFFFFFFFFF
310
FFFFFFFFFFFFFFFFFFFFFFFFFFFFFFFFFFFFFFFFFFFFFFFFFFFFFFFFFFFFFFFF
310
FFFFFFFFFFFFFFFFFFFFFFFFFFFFFFFFFFFFFFFFFFFFFFFFFFFFFFFFFFFFFFFF
310
FFFFFFFFFFFFFFFFFFFFFFFFFFFFFFFFF000FFFFFFFFFFFFFFFFFFFFFFFFFFFF
310
FFFFFFFFFFFFFFFFFFFFFFFFFFFFFFFFFFFFFFFFFFFFFFFFFFFFFFFFFFFFFFFF
310
FFFFFFFFFFFFFFFFFFFFFFFFFFFFFFFFFFFFFFFFFFFFFFFFFFFFFFFFFFFFFFFF
310
FFFFFFFFFFFFFFFFF000FFFFFFFFFFFFFFFFFFFFFFFFFFFFFFFFFFFFFFFFFFFF
310
FFFFFFFFFFFFFFFFFFFFFFFFFFFFFFFFFFFFFFFFFFFFFFFFFFFFFFFFFFFFFFFF
310
FFFFFFFFFFFFFFFFFFFFFFFFFFFFFFFFFFFFFFFFFFFFFFFFFFFFFFFFFFFFFFFF
310
F000FFFFFFFFFFFFFFFFFFFFFFFFFFFFFFFFFFFFFFFFFFFFFFFFFFFFFFFFFFFF
310
FFFFFFFFFFFFFFFFFFFFFFFFFFFFFFFFFFFFFFFFFFFFFFFFFFFFFFFFFFFFFFFF
310
FFFFFFFFFFFFFFFFFFFFFFFFFFFFFFFFFFFFFFFFFFFFFFFFF000FFFFFFFFFFFF
310
FFFFFFFFFFFFFFFFFFFFFFFFFFFFFFFFFFFFFFFFFFFFFFFFFFFFFFFFFFFFFFFF
310
FFFFFFFFFFFFFFFFFFFFFFFFFFFFFFFFFFFFFFFFFFFFFFFFFFFFFFFFFFFFFFFF
310
FFFFFFFFFFFFFFFFFFFFFFFFFFFFFFFFF000FFFFFFFFFFFFFFFFFFFFFFFFFFFF
310
FFFFFFFFFFFFFFFFFFFFFFFFFFFFFFFFFFFFFFFFFFFFFFFFFFFFFFFFFFFFFFFF
310
FFFFFFFFFFFFFFFFFFFFFFFFFFFFFFFFFFFFFFFFFFFFFFFFFFFFFFFFFFFFFFFF
310
FFFFFFFFFFFFFFFFF000FFFFF80003FFFFFFFFFFFFFFFFFFFFFFFFFFFFFFFFFF
310
FFFFF00007FFFFFFFFFF00007FFFFFF800000000000000007FFFFFFFFFFFFFFF
310
FFFFFFFC001FFFFFFFFFFFFFFC001FFFFFFFFFFFFFFFFFFFFFFFFFFE0007FFFF
310
F000FFFF8000007FFFFFFFF8000FFFFFC0007FFFFF80007FFFFF0000007FFFFF
310
FFF8000007FFFFF800000000000000007FFFFFF0001FFFFFFFFFFFC00001FFFF
310
FFFFFFFFC00001FFFFFFFF000000000003FFFFE000007FFFF000FFFE0000000F
310
FFFFFFF0000FFFFF80007FFFFF80007FFFFC0000001FFFFFFFC0000001FFFFF8
310
00000000000000007FFFFFF0001FFFFFFFFFFE0000003FFFFFFFFFFE0000003F
310
FFFFFF000000000003FFFF0000000FFFF000FFF800000003FFFFFFF00007FFFF
310
80007FFFFF80007FFFF000000007FFFFFF000000003FFFF80000000000000000
310
7FFFFFF0001FFFFFFFFFF80000000FFFFFFFFFF80000000FFFFFFF0000000000
310
03FFFC00000003FFF000FFE000000000FFFFFFF00007FFFF80003FFFFF80007F
310
FFC000000001FFFFFC000000001FFFF800000000000000007FFFFFF0001FFFFF
310
FFFFE000000003FFFFFFFFE000000003FFFFFF000000000003FFF000000000FF
310
F000FF80000000007FFFFFF00007FFFF80003FFFFF80007FFF8000000000FFFF
310
F80000000007FFF800000000000000007FFFFFF0001FFFFFFFFFC000000001FF
310
FFFFFFC000000001FFFFFF000000000003FFC0000000007FF000FF0000000000
310
3FFFFFE00007FFFF00003FFFFF80007FFE00000000003FFFF00000000003FFF8
310
00000000000000007FFFFFF0001FFFFFFFFF8000000000FFFFFFFF8000000000
310
FFFFFF000000000003FF80000000003FF000FE00000000001FFFFFE00003FFFF
310
00003FFFFF80007FFC00000000001FFFE00000000001FFF8000001FFFE000000
310
7FFFFFF0001FFFFFFFFE00000000003FFFFFFE00000000003FFFFF0000000000
310
03FF00000000001FF000FC00000000000FFFFFE00003FFFF00001FFFFF80007F
310
F800000000001FFFC00000000000FFF8000001FFFE0000007FFFFFF0001FFFFF
310
FFFC00000000001FFFFFFC00000000001FFFFF000000000003FE00000000000F
310
F000F8000000000007FFFFE00003FFFF00001FFFFF80007FF800000000000FFF
310
800000000000FFF8000001FFFE0000007FFFFFF0001FFFFFFFF800000000000F
310
FFFFF800000000000FFFFF000000000003FC000000000007F000F80000000000
310
03FFFFC00003FFFE00001FFFFF80007FF0000000000007FF0000000000007FF8
310
000001FFFE0000007FFFFFF0001FFFFFFFF0000000000007FFFFF00000000000
310
07FFFF000000000003F8000000000003F000F0000000000003FFFFC00001FFFE
310
00001FFFFF80007FE0000000000007FE0000000000003FF8000001FFFE000000
310
7FFFFFF0001FFFFFFFF0000000000007FFFFF0000000000007FFFF0000000000
310
03F800001F800003F000E00001FFF00001FFFFC00001FFFE00000FFFFF80007F
310
E00001FFE00003FE00001FFF00003FF8000001FFFE0000007FFFFFF0001FFFFF
310
FFE000003E000003FFFFE000003E000003FFFF000000000003F00001FFF80001
310
F000E00007FFFC0001FFFFC00001FFFE00000FFFFF80007FC0000FFFFC0003FC
310
0000FFFFC0001FF8000001FFFE0000007FFFFFF0001FFFFFFFC00003FFE00001
310
FFFFC00003FFE00001FFFF0001FFFFFFFFF00007FFFE0001F000E0000FFFFF00
310
00FFFF800001FFFC00000FFFFF80007FC0001FFFFE0001FC0001FFFFE0001FF8
310
000001FFFE0000007FFFFFF0001FFFFFFF80000FFFF80000FFFF80000FFFF800
310
00FFFF0003FFFFFFFFE0000FFFFF8000F000C0003FFFFF8000FFFF800000FFFC
310
000007FFFF80007F80003FFFFF0001FC0003FFFFF0001FF8000001FFFE000000
310
7FFFFFF0001FFFFFFF80003FFFFE0000FFFF80003FFFFE0000FFFF0003FFFFFF
310
FFE0003FFFFF8000F000C0003FFFFF8000FFFF800000FFFC000007FFFF80007F
310
80007FFFFF8001F80007FFFFF8000FF8000001FFFE0000007FFFFFF0001FFFFF
310
FF00007FFFFF00007FFF00007FFFFF00007FFF0003FFFFFFFFE0003FFFFFC000
310
F000C0007FFFFFC000FFFF000000FFFC000007FFFF80007F8000FFFFFF8000F8
310
000FFFFFF8000FF8000001FFFE0000007FFFFFF0001FFFFFFF0000FFFFFF8000
310
7FFF0000FFFFFF80007FFF0003FFFFFFFFC0007FFFFFC00070008000FFFFFFC0
310
00FFFF000000FFF8000007FFFF80007F8000FFFFFF8000F8000FFFFFF8000FF8
310
000001FFFE0000007FFFFFF0001FFFFFFE0001FFFFFFC0003FFE0001FFFFFFC0
310
003FFF0003FFFFFFFFC0007FFFFFE00070008000FFFFFFC0007FFF0000007FF8
310
000003FFFF80007F0001FFFFFF8000F8000FFFFFF8000FF8000001FFFE000000
310
7FFFFFF0001FFFFFFE0001FFFFFFC0003FFE0001FFFFFFC0003FFF0003FFFFFF
310
FFC000FFFFFFE00070008000FFFFFFC0007FFF0000007FF8000003FFFF80007F
310
0001FFFFFF8000F8001FFFFFF8000FF8000001FFFE0000007FFFFFF0001FFFFF
310
FE0003FFFFFFE0003FFE0003FFFFFFE0003FFF0003FFFFFFFFC000FFFFFFE000
310
70008000FFFFFFC0007FFE0000007FF8000003FFFF80007F0001FFFFFF8000F0
310
001FFFFFF8000FF8000001FFFE0000007FFFFFF0001FFFFFFC0003FFFFFFE000
310
1FFC0003FFFFFFE0001FFF0003FFFFFFFFC000FFFFFFC00070008000FFFFFF80
310
007FFE0000007FF0000003FFFF80007F0001FFFFFF0000F0001FFFFFF8000FF8
310
000001FFFE0000007FFFFFF0001FFFFFFC0007FFFFFFF0001FFC0007FFFFFFF0
310
001FFF0003FFFFFFFFC000FFFFFFC00070008001FFFFFF0000FFFE0000003FF0
310
000001FFFF80007F0001FFFFFF0000F8001FFFFFF0000FF8000001FFFE000000
310
7FFFFFF0001FFFFFFC0007FFFFFFF0001FFC0007FFFFFFF0001FFF0003FFFFFF
310
FFC001FFFFFF80007000FFFFFFFFFE0000FFFE0008003FF0008001FFFF80007F
310
FFFFFFFFFC0000FFFFFFFFFFE0000FF8000001FFFE0000007FFFFFF0001FFFFF
310
F8000FFFFFFFF8000FF8000FFFFFFFF8000FFF0003FFFFFFFFFFFFFFFFFF0000
310
7000FFFFFFFFFC0000FFFC0008003FF0008001FFFF80007FFFFFFFFFF80001FF
310
FFFFFFFF80000FF8000001FFFE0000007FFFFFF0001FFFFFF8000FFFFFFFF800
310
0FF8000FFFFFFFF8000FFF0003FFFFFFFFFFFFFFFFFE0000F000FFFFFFFFE000
310
00FFFC000C003FE000C001FFFF80007FFFFFFFFFC00001FFFFFFFFFE00001FF8
310
000001FFFE0000007FFFFFF0001FFFFFF8000FFFFFFFF8000FF8000FFFFFFFF8
310
000FFF0003FFFFFFFFFFFFFFFFF00000F000FFFFFFFE000001FFFC000C001FE0
310
00C000FFFF80007FFFFFFFFE000001FFFFFFFFE000001FF80FFFFFFFFFFFFFC0
310
7FFFFFF0001FFFFFF8000FFFFFFFF8000FF8000FFFFFFFF8000FFF0003FFFFFF
310
FFFFFFFFFF800000F000FFFFFFC0000001FFFC001C001FE001C000FFFF80007F
310
FFFFFF80000003FFFFFFF80000001FF80FFFFFFFFFFFFFC07FFFFFF0001FFFFF
310
F8001FFFFFFFFC000FF8001FFFFFFFFC000FFF0003FFFFFFFFFFFFFFF0000001
310
F000FFFFF800000001FFF8001C001FE001C000FFFF80007FFFFFF800000003FF
310
FFFF800000003FF80FFFFFFFFFFFFFC07FFFFFF0001FFFFFF8001FFFFFFFFC00
310
0FF8001FFFFFFFFC000FFF0003FFFFFFFFFFFFFE00000001F000FFFFC0000000
310
03FFF8001E001FC001E000FFFF80007FFFFF8000000007FFFFFC000000003FF8
310
0FFFFFFFFFFFFFC07FFFFFF0001FFFFFF8001FFFFFFFFC000FF8001FFFFFFFFC
310
000FFF0003FFFFFFFFFFFFE000000003F000FFFE0000000007FFF8001E000FC0
310
01E0007FFF80007FFFFE0000000007FFFFE0000000007FF80FFFFFFFFFFFFFC0
310
7FFFFFF0001FFFFFF0001FFFFFFFFC0007F0001FFFFFFFFC0007FF0003FFFFFF
310
FFFFFF0000000003F000FFF80000000007FFF8001E000FC003E0007FFF80007F
310
FFF0000000000FFFFF8000000000FFF80FFFFFFFFFFFFFC07FFFFFF0001FFFFF
310
F0001FFFFFFFFC0007F0001FFFFFFFFC0007FF0003FFFFFFFFFFFC0000000007
310
F000FFE0000000000FFFF0003E000FC003E0007FFF80007FFFC0000000001FFF
310
FE0000000001FFF80FFFFFFFFFFFFFC07FFFFFF0001FFFFFF0001FFFFFFFFC00
310
07F0001FFFFFFFFC0007FF0003FFFFFFFFFFF0000000000FF000FFC000000000
310
1FFFF0003F000F8003F0003FFF80007FFF80000000003FFFF80000000003FFF8
310
0FFFFFFFFFFFFFC07FFFFFF0001FFFFFF0001FFFFFFFFC0007F0001FFFFFFFFC
310
0007FF0003FFFFFFFFFFE0000000001FF000FF00000000007FFFF0003F000780
310
03F0003FFF80007FFF00000000007FFFF00000000007FFF80FFFFFFFFFFFFFC0
310
7FFFFFF0001FFFFFF0001FFFFFFFFC0007F0001FFFFFFFFC0007FF0003FFFFFF
310
FFFF80000000007FF000FE0000000000FFFFE0003F00078007F0003FFF80007F
310
FE0000000001FFFFE0000000001FFFF80FFFFFFFFFFFFFC07FFFFFF0001FFFFF
310
F0001FFFFFFFFC0007F0001FFFFFFFFC0007FF0003FFFFFFFFFF0000000000FF
310
F000FC0000000003FFFFE0007F00078007F0003FFF80007FFC0000000007FFFF
310
C0000000007FFFF80FFFFFFFFFFFFFC07FFFFFF0001FFFFFF8001FFFFFFFFC00
310
0FF8001FFFFFFFFC000FFF0003FFFFFFFFFE0000000003FFF000FC000000000F
310
FFFFE0007F80070007F8001FFF80007FF8000000001FFFFF8000000001FFFFF8
310
0FFFFFFFFFFFFFC07FFFFFF0001FFFFFF8001FFFFFFFFC000FF8001FFFFFFFFC
310
000FFF0003FFFFFFFFFC000000000FFFF000F8000000007FFFFFE0007F800700
310
07F8001FFF80007FF000000000FFFFFF800000000FFFFFF80FFFFFFFFFFFFFC0
310
7FFFFFF0001FFFFFF8000FFFFFFFF8000FF8000FFFFFFFF8000FFF0003FFFFFF
310
FFFC000000007FFFF000F800000007FFFFFFC0007F8003000FF8001FFF80007F
310
F000000007FFFFFF000000007FFFFFF80FFFFFFFFFFFFFC07FFFFFF0001FFFFF
310
F8000FFFFFFFF8000FF8000FFFFFFFF8000FFF0003FFFFFFFFF80000000FFFFF
310
F000F0000000FFFFFFFFC000FF8003000FF8001FFF80007FE0000000FFFFFFFF
310
0000000FFFFFFFF8000001FFFE0000007FFFFFF0001FFFFFF8000FFFFFFFF800
310
0FF8000FFFFFFFF8000FFF0003FFFFFFFFF8000000FFFFFFF000F000000FFFFF
310
FFFFC000FFC002000FF8000FFF80007FE000001FFFFFFFFE000001FFFFFFFFF8
310
000001FFFE0000007FFFFFF0001FFFFFF8000FFFFFFFF8000FF8000FFFFFFFF8
310
000FFF0003FFFFFFFFF000001FFFFFFFF000E00000FFFFFFFFFFC000FFC00200
310
0FFC000FFF80007FE00001FFFFFFFFFE00001FFFFFFFFFF8000001FFFE000000
310
7FFFFFF0001FFFFFFC000FFFFFFFF8001FFC000FFFFFFFF8001FFF0003FFFFFF
310
FFF00001FFFFFFFFF000E00007FFFFFFFFFF8000FFC000001FFC000FFF80007F
310
C0000FFFFFFFFFFE0000FFFFFFFFFFF8000001FFFE0000007FFFFFF0001FFFFF
310
FC0007FFFFFFF0001FFC0007FFFFFFF0001FFF0003FFFFFFFFF00007FFFFFFFF
310
F000E0001FFFFFFFFFFF8000FFC000001FFC000FFF80007FC0003FFFFFFFFFFE
310
0001FFFFFFFFFFF8000001FFFE0000007FFFFFF0001FFFFFFC0007FFFFFFF000
310
1FFC0007FFFFFFF0001FFF0003FFFFFFFFF0001FFFFFFFFFF000E0003FFFFF00
310
03FF8001FFE000001FFC0007FF80007FC0007FFFFF0007FC0003FFFFF0003FF8
310
000001FFFE0000007FFFFFF0001FFFFFFC0003FFFFFFE0001FFC0003FFFFFFE0
310
001FFF0003FFFFFFFFF0003FFFFFFFFFF000E0003FFFFF0001FF8001FFE00000
310
1FFE0007FF80007FC0007FFFFE0003FC0007FFFFE0003FF8000001FFFE000000
310
7FFFFFF0001FFFFFFE0003FFFFFFE0003FFE0003FFFFFFE0003FFF0003FFFFFF
310
FFF0003FFFFF8001F000E0003FFFFF0001FF0001FFE000001FFE0007FF80007F
310
C0007FFFFE0003FC0007FFFFE0003FF8000001FFFE0000007FFFFFF0001FFFFF
310
FE0001FFFFFFC0003FFE0001FFFFFFC0003FFF0003FFFFFFFFF0003FFFFF0001
310
F000E0003FFFFF0003FF0001FFE000003FFE0007FF80007FC0007FFFFE0003FC
310
0007FFFFE0003FF8000001FFFE0000007FFFFFF0001FFFFFFF0001FFFFFFC000
310
7FFF0001FFFFFFC0007FFF0003FFFFFFFFF0003FFFFF0001F000E0003FFFFE00
310
03FF0003FFF000003FFE0003FF80007FC0007FFFFC0003FE0007FFFFE0003FF8
310
000001FFFE0000007FFFFFF0001FFFFFFF0000FFFFFF80007FFF0000FFFFFF80
310
007FFF0003FFFFFFFFF0003FFFFF0001F000E0003FFFFE0003FF0003FFF00000
310
3FFF0003FF80007FC0007FFFFC0007FE0007FFFFC0003FF8000001FFFE000000
310
7FFFFFF0001FFFFFFF80007FFFFF0000FFFF80007FFFFF0000FFFF0003FFFFFF
310
FFF0003FFFFF0003F000E0003FFFFC0003FE0003FFF000003FFF0003FF80007F
310
E0003FFFF80007FE0003FFFFC0007FF8000001FFFE0000007FFFFFF0001FFFFF
310
FF80003FFFFE0000FFFF80003FFFFE0000FFFF0003FFFFFFFFF0001FFFFE0003
310
F000F0001FFFF80003FE0003FFF000007FFF0001FF80007FE0003FFFF00007FE
310
0001FFFF80007FF8000001FFFE0000007FFFFFF0001FFFFFFFC0000FFFF80001
310
FFFFC0000FFFF80001FFFF0003FFFFFFFFF0001FFFFC0003F000F0000FFFF000
310
07FE0007FFF800007FFF0001FF80007FE0001FFFE00007FF0000FFFE00007FF8
310
000001FFFE0000007FFFFFF0001FFFFFFFC00003FFE00001FFFFC00003FFE000
310
01FFFF0003FFFFFFFFF8000FFFF80003F000F00003FFC00007FC0007FFF80000
310
7FFF8001FF80007FF00007FF80000FFF00007FF80000FFF8000001FFFE000000
310
7F80000000000001FFE000003E000003FFFFE000003E000003FFFF0003FFFFFF
310
FFF80003FFE00007F000F800000000000FFC0007FFF800007FFF8001FF80007F
310
F000000000000FFF000000000000FFF8000001FFFE0000007F80000000000001
310
FFF0000000000007FFFFF0000000000007FFFF0003FFFFFFFFFC00007E000007
310
F000F800000000000FFC0007FFF80000FFFF8000FF80007FF800000000001FFF
310
800000000001FFF8000001FFFE0000007F80000000000001FFF800000000000F
310
FFFFF800000000000FFFFF0003FFFFFFFFFC00000000000FF000FC0000000000
310
1FFC0007FFFC0000FFFF8000FF80007FF800000000003FFFC00000000001FFF8
310
000001FFFE0000007F80000000000001FFF800000000000FFFFFF80000000000
310
0FFFFF0003FFFFFFFFFE00000000001FF000FE00000000003FF8000FFFFC0000
310
FFFF8000FF80007FFC00000000003FFFC00000000003FFF8000001FFFE000000
310
7F80000000000001FFFC00000000001FFFFFFC00000000001FFFFF0003FFFFFF
310
FFFF00000000001FF000FF00000000003FF8000FFFFC0000FFFFC000FF80007F
310
FE00000000007FFFE00000000007FFF8000001FFFE0000007F80000000000001
310
FFFE00000000003FFFFFFE00000000003FFFFF0003FFFFFFFFFF80000000003F
310
F000FF80000000007FF8000FFFFC0001FFFFC0007F80007FFF0000000000FFFF
310
F0000000000FFFF800000000000000007F80000000000001FFFF8000000000FF
310
FFFFFF8000000000FFFFFF0003FFFFFFFFFFC0000000007FF000FFC000000000
310
FFF8000FFFFE0001FFFFC0007F80007FFF8000000001FFFFF8000000001FFFF8
310
00000000000000007F80000000000001FFFFC000000001FFFFFFFFC000000001
310
FFFFFF0003FFFFFFFFFFE000000000FFF000FFE000000003FFF0001FFFFE0001
310
FFFFC0007F80007FFFC000000007FFFFFE000000003FFFF80000000000000000
310
7F80000000000001FFFFE000000003FFFFFFFFE000000003FFFFFF0003FFFFFF
310
FFFFF000000003FFF000FFF80000000FFFF0001FFFFE0001FFFFE0007F80007F
310
FFF00000000FFFFFFF00000000FFFFF800000000000000007F80000000000001
310
FFFFF80000000FFFFFFFFFF80000000FFFFFFF0003FFFFFFFFFFFC0000000FFF
310
F000FFFE0000003FFFF0001FFFFE0003FFFFE0003F80007FFFFC0000003FFFFF
310
FFC0000003FFFFF800000000000000007F80000000000001FFFFFE0000003FFF
310
FFFFFFFE0000003FFFFFFF0003FFFFFFFFFFFF0000003FFFF000FFFF800000FF
310
FFF0001FFFFF0003FFFFE0003F80007FFFFF000001FFFFFFFFF800001FFFFFF8
310
00000000000000007F80000000000001FFFFFFC00001FFFFFFFFFFFFC00001FF
310
FFFFFF0003FFFFFFFFFFFFC00000FFFFF000FFFFF8000FFFFFFFFFFFFFFFFFFF
310
FFFFFFFFFFFFFFFFFFFFF0001FFFFFFFFFFF0000FFFFFFF80000000000000000
310
7FFFFFFFFFFFFFFFFFFFFFFC001FFFFFFFFFFFFFFC001FFFFFFFFFFFFFFFFFFF
310
FFFFFFFC001FFFFFF000FFFFFFFFFFFFFFFFFFFFFFFFFFFFFFFFFFFFFFFFFFFF
310
FFFFFFFFFFFFFFFFFFFFFFFFFFFFFFFFFFFFFFFFFFFFFFFFFFFFFFFFFFFFFFFF
310
FFFFFFFFFFFFFFFFFFFFFFFFFFFFFFFFFFFFFFFFFFFFFFFFFFFFFFFFFFFFFFFF
310
F000FFFFFFFFFFFFFFFFFFFFFFFFFFFFFFFFFFFFFFFFFFFFFFFFFFFFFFFFFFFF
310
FFFFFFFFFFFFFFFFFFFFFFFFFFFFFFFFFFFFFFFFFFFFFFFFFFFFFFFFFFFFFFFF
310
FFFFFFFFFFFFFFFFFFFFFFFFFFFFFFFFFFFFFFFFFFFFFFFFF000FFFFFFFFFFFF
310
FFFFFFFFFFFFFFFFFFFFFFFFFFFFFFFFFFFFFFFFFFFFFFFFFFFFFFFFFFFFFFFF
310
FFFFFFFFFFFFFFFFFFFFFFFFFFFFFFFFFFFFFFFFFFFFFFFFFFFFFFFFFFFFFFFF
310
FFFFFFFFFFFFFFFFFFFFFFFFFFFFFFFFF000FFFFFFFFFFFFFFFFFFFFFFFFFFFF
310
FFFFFFFFFFFFFFFFFFFFFFFFFFFFFFFFFFFFFFFFFFFFFFFFFFFFFFFFFFFFFFFF
310
FFFFFFFFFFFFFFFFFFFFFFFFFFFFFFFFFFFFFFFFFFFFFFFFFFFFFFFFFFFFFFFF
310
FFFFFFFFFFFFFFFFF000FFFFFFFFFFFFFFFFFFFFFFFFFFFFFFFFFFFFFFFFFFFF
310
FFFFFFFFFFFFFFFFFFFFFFFFFFFFFFFFFFFFFFFFFFFFFFFFFFFFFFFFFFFFFFFF
310
FFFFFFFFFFFFFFFFFFFFFFFFFFFFFFFFFFFFFFFFFFFFFFFFFFFFFFFFFFFFFFFF
310
F000FFFFFFFFFFFFFFFFFFFFFFFFFFFFFFFFFFFFFFFFFFFFFFFFFFFFFFFFFFFF
310
FFFFFFFFFFFFFFFFFFFFFFFFFFFFFFFFFFFFFFFFFFFFFFFFFFFFFFFFFFFFFFFF
310
FFFFFFFFFFFFFFFFFFFFFFFFFFFFFFFFFFFFFFFFFFFFFFFFF000FFFFFFFFFFFF
310
FFFFFFFFFFFFFFFFFFFFFFFFFFFFFFFFFFFFFFFFFFFFFFFFFFFFFFFFFFFFFFFF
310
FFFFFFFFFFFFFFFFFFFFFFFFFFFFFFFFFFFFFFFFFFFFFFFFFFFFFFFFFFFFFFFF
310
FFFFFFFFFFFFFFFFFFFFFFFFFFFFFFFFF000FFFFFFFFFFFFFFFFFFFFFFFFFFFF
310
FFFFFFFFFFFFFFFFFFFFFFFFFFFFFFFFFFFFFFFFFFFFFFFFFFFFFFFFFFFFFFFF
310
FFFFFFFFFFFFFFFFFFFFFFFFFFFFFFFFFFFFFFFFFFFFFFFFFFFFFFFFFFFFFFFF
310
FFFFFFFFFFFFFFFFF000FFFFFFFFFFFFFFFFFFFFFFFFFFFFFFFFFFFFFFFFFFFF
310
FFFFFFFFFFFFFFFFFFFFFFFFFFFFFFFFFFFFFFFFFFFFFFFFFFFFFFFFFFFFFFFF
310
FFFFFFFFFFFFFFFFFFFFFFFFFFFFFFFFFFFFFFFFFFFFFFFFFFFFFFFFFFFFFFFF
310
F000FFFFFFFFFFFFFFFFFFFFFFFFFFFFFFFFFFFFFFFFFFFFFFFFFFFFFFFFFFFF
310
FFFFFFFFFFFFFFFFFFFFFFFFFFFFFFFFFFFFFFFFFFFFFFFFFFFFFFFFFFFFFFFF
310
FFFFFFFFFFFFFFFFFFFFFFFFFFFFFFFFFFFFFFFFFFFFFFFFF000FFFFFFFFFFFF
310
FFFFFFFFFFFFFFFFFFFFFFFFFFFFFFFFFFFFFFFFFFFFFFFFFFFFFFFFFFFFFFFF
310
FFFFFFFFFFFFFFFFFFFFFFFFFFFFFFFFFFFFFFFFFFFFFFFFFFFFFFFFFFFFFFFF
310
FFFFFFFFFFFFFFFFFFFFFFFFFFFFFFFFF000FFFFFFFFFFFFFFFFFFFFFFFFFFFF
310
FFFFFFFFFFFFFFFFFFFFFFFFFFFFFFFFFFFFFFFFFFFFFFFFFFFFFFFFFFFFFFFF
310
FFFFFFFFFFFFFFFFFFFFFFFFFFFFFFFFFFFFFFFFFFFFFFFFFFFFFFFFFFFFFFFF
310
FFFFFFFFFFFFFFFFF000FFFFFFFFFFFFFFFFFFFFFFFFFFFFFFFFFFFFFFFFFFFF
310
FFFFFFFFFFFFFFFFFFFFFFFFFFFFFFFFFFFFFFFFFFFFFFFFFFFFFFFFFFFFFFFF
310
FFFFFFFFFFFFFFFFFFFFFFFFFFFFFFFFFFFFFFFFFFFFFFFFFFFFFFFFFFFFFFFF
310
F000FFFFFFFFFFFFFFFFFFFFFFFFFFFFFFFFFFFFFFFFFFFFFFFFFFFFFFFFFFFF
310
FFFFFFFFFFFFFFFFFFFFFFFFFFFFFFFFFFFFFFFFFFFFFFFFFFFFFFFFFFFFFFFF
310
FFFFFFFFFFFFFFFFFFFFFFFFFFFFFFFFFFFFFFFFFFFFFFFFF000FFFFFFFFFFFF
310
FFFFFFFFFFFFFFFFFFFFFFFFFFFFFFFFFFFFFFFFFFFFFFFFFFFFFFFFFFFFFFFF
310
FFFFFFFFFFFFFFFFFFFFFFFFFFFFFFFFFFFFFFFFFFFFFFFFFFFFFFFFFFFFFFFF
310
FFFFFFFFFFFFFFFFFFFFFFFFFFFFFFFFF000FFFFFFFFFFFFFFFFFFFFFFFFFFFF
310
FFFFFFFFFFFFFFFFFFFFFFFFFFFFFFFFFFFFFFFFFFFFFFFFFFFFFFFFFFFFFFFF
310
FFFFFFFFFFFFFFFFFFFFFFFFFFFFFFFFFFFFFFFFFFFFFFFFFFFFFFFFFFFFFFFF
310
FFFFFFFFFFFFFFFFF000FFFFFFFFFFFFFFFFFFFFFFFFFFFFFFFFFFFFFFFFFFFF
310
FFFFFFFFFFFFFFFFFFFFFFFFFFFFFFFFFFFFFFFFFFFFFFFFFFFFFFFFFFFFFFFF
310
FFFFFFFFFFFFFFFFFFFFFFFFFFFFFFFFFFFFFFFFFFFFFFFFFFFFFFFFFFFFFFFF
310
F000FFFFFFFFFFFFFFFFFFFFFFFFFFFFFFFFFFFFFFFFFFFFFFFFFFFFFFFFFFFF
310
FFFFFFFFFFFFFFFFFFFFFFFFFFFFFFFFFFFFFFFFFFFFFFFFFFFFFFFFFFFFFFFF
310
FFFFFFFFFFFFFFFFFFFFFFFFFFFFFFFFFFFFFFFFFFFFFFFFF000FFFFFFFFFFFF
310
FFFFFFFFFFFFFFFFFFFFFFFFFFFFFFFFFFFFFFFFFFFFFFFFFFFFFFFFFFFFFFFF
310
FFFFFFFFFFFFFFFFFFFFFFFFFFFFFFFFFFFFFFFFFFFFFFFFFFFFFFFFFFFFFFFF
310
FFFFFFFFFFFFFFFFFFFFFFFFFFFFFFFFF000FFFFFFFFFFFFFFFFFFFFFFFFFFFF
310
FFFFFFFFFFFFFFFFFFFFFFFFFFFFFFFFFFFFFFFFFFFFFFFFFFFFFFFFFFFFFFFF
310
FFFFFFFFFFFFFFFFFFFFFFFFFFFFFFFFFFFFFFFFFFFFFFFFFFFFFFFFFFFFFFFF
310
FFFFFFFFFFFFFFFFF000FFFFFFFFFFFFFFFFFFFFFFFFFFFFFFFFFFFFFFFFFFFF
310
FFFFFFFFFFFFFFFFFFFFFFFFFFFFFFFFFFFFFFFFFFFFFFFFFFFFFFFFFFFFFFFF
310
FFFFFFFFFFFFFFFFFFFFFFFFFFFFFFFFFFFFFFFFFFFFFFFFFFFFFFFFFFFFFFFF
310
F000FFFFFFFFFFFFFFFFFFFFFFFFFFFFFFFFFFFFFFFFFFFFFFFFFFFFFFFFFFFF
310
FFFFFFFFFFFFFFFFFFFFFFFFFFFFFFFFFFFFFFFFFFFFFFFFFFFFFFFFFFFFFFFF
310
FFFFFFFFFFFFFFFFFFFFFFFFFFFFFFFFFFFFFFFFFFFFFFFFF000FFFFFFFFFFFF
310
FFFFFFFFFFFFFFFFFFFFFFFFFFFFFFFFFFFFFFFFFFFFFFFFFFFFFFFFFFFFFFFF
310
FFFFFFFFFFFFFFFFFFFFFFFFFFFFFFFFFFFFFFFFFFFFFFFFFFFFFFFFFFFFFFFF
310
FFFFFFFFFFFFFFFFFFFFFFFFFFFFFFFFF0000000000000000000000000000000
310
0000000000000000000000000000000000000000000000000000000000000000
310
0000000000000000000000000000000000000000000000000000000000000000
310
0000000000000000000000000000000000000000000000000000000000000000
310
0000000000000000000000000000000000000000000000000000000000000000
310
0000000000000000000000000000000000000000000000000000000000000000
310
0000000000000000000000000000000000000000000000000000000000000000
310
0000000000000000000000000000000000000000000000000000000000000000
310
0000000000000000000000000000000000000000000000000000000000000000
310
0000000000000000000000000000000000000000000000000000000000000000
310
0000000000000000000000000000000000000000000000000000000000000000
310
0000000000000000000000000000000000000000000000000000000000000000
310
0000000000000000000000000000000000000000000000000000000000000000
310
0000000000000000000000000000000000000000000000000000000000000000
310
0000000000000000000000000000000000000000000000000000000000000000
310
0000000000000000000000000000000000000000000000000000000000000000
  1
OLE
  0
ENDSEC
  0
SECTION
  2
OBJECTS
  0
DICTIONARY
  5
C
330
0
100
AcDbDictionary
281
     1
  3
ACAD_GROUP
350
D
  3
ACAD_LAYOUT
350
1A
  3
ACAD_MLINESTYLE
350
17
  3
ACAD_PLOTSETTINGS
350
19
  3
ACAD_PLOTSTYLENAME
350
E
  3
ACAD_SCALELIST
350
47
  0
DICTIONARY
  5
D
102
{ACAD_REACTORS
330
C
102
}
330
C
100
AcDbDictionary
281
     1
  0
DICTIONARY
  5
1A
102
{ACAD_REACTORS
330
C
102
}
330
C
100
AcDbDictionary
281
     1
  3
Layout1
350
1E
  3
Layout2
350
26
  3
Model
350
22
  0
DICTIONARY
  5
17
102
{ACAD_REACTORS
330
C
102
}
330
C
100
AcDbDictionary
281
     1
  3
Standard
350
18
  0
DICTIONARY
  5
19
102
{ACAD_REACTORS
330
C
102
}
330
C
100
AcDbDictionary
281
     1
  0
ACDBDICTIONARYWDFLT
  5
E
102
{ACAD_REACTORS
330
C
102
}
330
C
100
AcDbDictionary
281
     1
  3
Normal
350
F
100
AcDbDictionaryWithDefault
340
F
  0
DICTIONARY
  5
47
102
{ACAD_REACTORS
330
C
102
}
330
C
100
AcDbDictionary
281
     1
  3
A0
350
48
  3
A1
350
49
  3
A2
350
4A
  3
A3
350
4B
  3
A4
350
4C
  3
A5
350
4D
  3
A6
350
4E
  3
A7
350
4F
  3
A8
350
50
  3
A9
350
51
  3
B0
350
52
  3
B1
350
53
  3
B2
350
54
  3
B3
350
55
  3
B4
350
56
  3
B5
350
57
  3
B6
350
58
  3
B7
350
59
  3
B8
350
5A
  3
B9
350
5B
  3
C0
350
5C
  3
C1
350
5D
  3
C2
350
5E
  3
C3
350
5F
  3
C4
350
60
  3
C5
350
61
  3
C6
350
62
  3
C7
350
63
  3
C8
350
64
  3
C9
350
65
  3
D0
350
66
  3
D1
350
67
  3
D2
350
68
  0
LAYOUT
  5
1E
102
{ACAD_REACTORS
330
1A
102
}
330
1A
100
AcDbPlotSettings
  1

  2
none_device
  4

  6

 40
0.0
 41
0.0
 42
0.0
 43
0.0
 44
0.0
 45
0.0
 46
0.0
 47
0.0
 48
0.0
 49
0.0
140
0.0
141
0.0
142
1.0
143
1.0
 70
   688
 72
     1
 73
     0
 74
     5
  7

 75
    16
147
1.0
148
0.0
149
0.0
100
AcDbLayout
  1
Layout1
 70
     1
 71
     1
 10
0.0
 20
0.0
 11
420.0
 21
297.0
 12
0.0
 22
0.0
 32
0.0
 14
1.0000000000E+20
 24
1.0000000000E+20
 34
1.0000000000E+20
 15
-1.0000000000E+20
 25
-1.0000000000E+20
 35
-1.0000000000E+20
146
0.0
 13
0.0
 23
0.0
 33
0.0
 16
1.0
 26
0.0
 36
0.0
 17
0.0
 27
1.0
 37
0.0
 76
     0
330
1B
  0
LAYOUT
  5
26
102
{ACAD_REACTORS
330
1A
102
}
330
1A
100
AcDbPlotSettings
  1

  2
none_device
  4

  6

 40
0.0
 41
0.0
 42
0.0
 43
0.0
 44
0.0
 45
0.0
 46
0.0
 47
0.0
 48
0.0
 49
0.0
140
0.0
141
0.0
142
1.0
143
1.0
 70
   688
 72
     1
 73
     0
 74
     5
  7

 75
    16
147
1.0
148
0.0
149
0.0
100
AcDbLayout
  1
Layout2
 70
     1
 71
     2
 10
0.0
 20
0.0
 11
0.0
 21
0.0
 12
0.0
 22
0.0
 32
0.0
 14
0.0
 24
0.0
 34
0.0
 15
0.0
 25
0.0
 35
0.0
146
0.0
 13
0.0
 23
0.0
 33
0.0
 16
1.0
 26
0.0
 36
0.0
 17
0.0
 27
1.0
 37
0.0
 76
     0
330
23
  0
LAYOUT
  5
22
102
{ACAD_REACTORS
330
1A
102
}
330
1A
100
AcDbPlotSettings
  1

  2
none_device
  4
Letter_(8.50_x_11.00_Inches)
  6

 40
6.35
 41
6.35
 42
6.35000508
 43
6.35000508
 44
215.9
 45
279.4
 46
0.0
 47
0.0
 48
0.0
 49
0.0
140
0.0
141
0.0
142
1.0
143
1.0
 70
  1712
 72
     1
 73
     0
 74
     0
  7

 75
     0
147
1.0
148
0.0
149
0.0
100
AcDbLayout
  1
Model
 70
     1
 71
     0
 10
0.0
 20
0.0
 11
297.0
 21
210.0
 12
0.0
 22
0.0
 32
0.0
 14
0.0
 24
0.0
 34
0.0
 15
297.0
 25
210.0
 35
0.0
146
0.0
 13
0.0
 23
0.0
 33
0.0
 16
1.0
 26
0.0
 36
0.0
 17
0.0
 27
1.0
 37
0.0
 76
     0
330
1F
331
29
  0
MLINESTYLE
  5
18
102
{ACAD_REACTORS
330
17
102
}
330
17
100
AcDbMlineStyle
  2
Standard
 70
     0
  3

 62
   256
 51
90.0
 52
90.0
 71
     2
 49
0.5
 62
   256
  6
BYLAYER
 49
-0.5
 62
   256
  6
BYLAYER
  0
ACDBPLACEHOLDER
  5
F
102
{ACAD_REACTORS
330
E
102
}
330
E
  0
SCALE
  5
48
102
{ACAD_REACTORS
330
47
102
}
330
47
100
AcDbScale
 70
     0
300
1:1
140
1.0
141
1.0
290
     1
  0
SCALE
  5
49
102
{ACAD_REACTORS
330
47
102
}
330
47
100
AcDbScale
 70
     0
300
1:2
140
1.0
141
2.0
290
     0
  0
SCALE
  5
4A
102
{ACAD_REACTORS
330
47
102
}
330
47
100
AcDbScale
 70
     0
300
1:4
140
1.0
141
4.0
290
     0
  0
SCALE
  5
4B
102
{ACAD_REACTORS
330
47
102
}
330
47
100
AcDbScale
 70
     0
300
1:5
140
1.0
141
5.0
290
     0
  0
SCALE
  5
4C
102
{ACAD_REACTORS
330
47
102
}
330
47
100
AcDbScale
 70
     0
300
1:8
140
1.0
141
8.0
290
     0
  0
SCALE
  5
4D
102
{ACAD_REACTORS
330
47
102
}
330
47
100
AcDbScale
 70
     0
300
1:10
140
1.0
141
10.0
290
     0
  0
SCALE
  5
4E
102
{ACAD_REACTORS
330
47
102
}
330
47
100
AcDbScale
 70
     0
300
1:16
140
1.0
141
16.0
290
     0
  0
SCALE
  5
4F
102
{ACAD_REACTORS
330
47
102
}
330
47
100
AcDbScale
 70
     0
300
1:20
140
1.0
141
20.0
290
     0
  0
SCALE
  5
50
102
{ACAD_REACTORS
330
47
102
}
330
47
100
AcDbScale
 70
     0
300
1:30
140
1.0
141
30.0
290
     0
  0
SCALE
  5
51
102
{ACAD_REACTORS
330
47
102
}
330
47
100
AcDbScale
 70
     0
300
1:40
140
1.0
141
40.0
290
     0
  0
SCALE
  5
52
102
{ACAD_REACTORS
330
47
102
}
330
47
100
AcDbScale
 70
     0
300
1:50
140
1.0
141
50.0
290
     0
  0
SCALE
  5
53
102
{ACAD_REACTORS
330
47
102
}
330
47
100
AcDbScale
 70
     0
300
1:100
140
1.0
141
100.0
290
     0
  0
SCALE
  5
54
102
{ACAD_REACTORS
330
47
102
}
330
47
100
AcDbScale
 70
     0
300
2:1
140
2.0
141
1.0
290
     0
  0
SCALE
  5
55
102
{ACAD_REACTORS
330
47
102
}
330
47
100
AcDbScale
 70
     0
300
4:1
140
4.0
141
1.0
290
     0
  0
SCALE
  5
56
102
{ACAD_REACTORS
330
47
102
}
330
47
100
AcDbScale
 70
     0
300
8:1
140
8.0
141
1.0
290
     0
  0
SCALE
  5
57
102
{ACAD_REACTORS
330
47
102
}
330
47
100
AcDbScale
 70
     0
300
10:1
140
10.0
141
1.0
290
     0
  0
SCALE
  5
58
102
{ACAD_REACTORS
330
47
102
}
330
47
100
AcDbScale
 70
     0
300
100:1
140
100.0
141
1.0
290
     0
  0
SCALE
  5
59
102
{ACAD_REACTORS
330
47
102
}
330
47
100
AcDbScale
 70
     0
300
1/128" = 1'-0"
140
0.0078125
141
12.0
290
     0
  0
SCALE
  5
5A
102
{ACAD_REACTORS
330
47
102
}
330
47
100
AcDbScale
 70
     0
300
1/64" = 1'-0"
140
0.015625
141
12.0
290
     0
  0
SCALE
  5
5B
102
{ACAD_REACTORS
330
47
102
}
330
47
100
AcDbScale
 70
     0
300
1/32" = 1'-0"
140
0.03125
141
12.0
290
     0
  0
SCALE
  5
5C
102
{ACAD_REACTORS
330
47
102
}
330
47
100
AcDbScale
 70
     0
300
1/16" = 1'-0"
140
0.0625
141
12.0
290
     0
  0
SCALE
  5
5D
102
{ACAD_REACTORS
330
47
102
}
330
47
100
AcDbScale
 70
     0
300
3/32" = 1'-0"
140
0.09375
141
12.0
290
     0
  0
SCALE
  5
5E
102
{ACAD_REACTORS
330
47
102
}
330
47
100
AcDbScale
 70
     0
300
1/8" = 1'-0"
140
0.125
141
12.0
290
     0
  0
SCALE
  5
5F
102
{ACAD_REACTORS
330
47
102
}
330
47
100
AcDbScale
 70
     0
300
3/16" = 1'-0"
140
0.1875
141
12.0
290
     0
  0
SCALE
  5
60
102
{ACAD_REACTORS
330
47
102
}
330
47
100
AcDbScale
 70
     0
300
1/4" = 1'-0"
140
0.25
141
12.0
290
     0
  0
SCALE
  5
61
102
{ACAD_REACTORS
330
47
102
}
330
47
100
AcDbScale
 70
     0
300
3/8" = 1'-0"
140
0.375
141
12.0
290
     0
  0
SCALE
  5
62
102
{ACAD_REACTORS
330
47
102
}
330
47
100
AcDbScale
 70
     0
300
1/2" = 1'-0"
140
0.5
141
12.0
290
     0
  0
SCALE
  5
63
102
{ACAD_REACTORS
330
47
102
}
330
47
100
AcDbScale
 70
     0
300
3/4" = 1'-0"
140
0.75
141
12.0
290
     0
  0
SCALE
  5
64
102
{ACAD_REACTORS
330
47
102
}
330
47
100
AcDbScale
 70
     0
300
1" = 1'-0"
140
1.0
141
12.0
290
     0
  0
SCALE
  5
65
102
{ACAD_REACTORS
330
47
102
}
330
47
100
AcDbScale
 70
     0
300
1-1/2" = 1'-0"
140
1.5
141
12.0
290
     0
  0
SCALE
  5
66
102
{ACAD_REACTORS
330
47
102
}
330
47
100
AcDbScale
 70
     0
300
3" = 1'-0"
140
3.0
141
12.0
290
     0
  0
SCALE
  5
67
102
{ACAD_REACTORS
330
47
102
}
330
47
100
AcDbScale
 70
     0
300
6" = 1'-0"
140
6.0
141
12.0
290
     0
  0
SCALE
  5
68
102
{ACAD_REACTORS
330
47
102
}
330
47
100
AcDbScale
 70
     0
300
1'-0" = 1'-0"
140
12.0
141
12.0
290
     0
  0
ENDSEC
  0
EOF
