  0
SECTION
  2
HEADER
  9
$ACADVER
  1
AC1015
  9
$ACADMAINTVER
 70
     6
  9
$DWGCODEPAGE
  3
ANSI_1252
  9
$INSBASE
 10
0.0
 20
0.0
 30
0.0
  9
$EXTMIN
 10
0.0
 20
0.0
 30
0.0
  9
$EXTMAX
 10
297.0
 20
210.0
 30
0.0
  9
$LIMMIN
 10
0.0
 20
0.0
  9
$LIMMAX
 10
297.0
 20
210.0
  9
$ORTHOMODE
 70
     0
  9
$REGENMODE
 70
     1
  9
$FILLMODE
 70
     1
  9
$QTEXTMODE
 70
     0
  9
$MIRRTEXT
 70
     1
  9
$LTSCALE
 40
1.0
  9
$ATTMODE
 70
     1
  9
$TEXTSIZE
 40
2.0
  9
$TRACEWID
 40
1.0
  9
$TEXTSTYLE
  7
Standard
  9
$CLAYER
  8
0
  9
$CELTYPE
  6
ByLayer
  9
$CECOLOR
 62
   256
  9
$CELTSCALE
 40
1.0
  9
$DISPSILH
 70
     0
  9
$DIMSCALE
 40
1.0
  9
$DIMASZ
 40
3.0
  9
$DIMEXO
 40
0.0
  9
$DIMDLI
 40
3.75
  9
$DIMRND
 40
0.0
  9
$DIMDLE
 40
0.0
  9
$DIMEXE
 40
1.0
  9
$DIMTP
 40
0.0
  9
$DIMTM
 40
0.0
  9
$DIMTXT
 40
2.0
  9
$DIMCEN
 40
2.5
  9
$DIMTSZ
 40
0.0
  9
$DIMTOL
 70
     0
  9
$DIMLIM
 70
     0
  9
$DIMTIH
 70
     1
  9
$DIMTOH
 70
     1
  9
$DIMSE1
 70
     0
  9
$DIMSE2
 70
     0
  9
$DIMTAD
 70
     1
  9
$DIMZIN
 70
     0
  9
$DIMBLK
  1

  9
$DIMASO
 70
     1
  9
$DIMSHO
 70
     1
  9
$DIMPOST
  1

  9
$DIMAPOST
  1

  9
$DIMALT
 70
     0
  9
$DIMALTD
 70
     3
  9
$DIMALTF
 40
0.0393700787
  9
$DIMLFAC
 40
5.0
  9
$DIMTOFL
 70
     1
  9
$DIMTVP
 40
0.0
  9
$DIMTIX
 70
     0
  9
$DIMSOXD
 70
     0
  9
$DIMSAH
 70
     0
  9
$DIMBLK1
  1

  9
$DIMBLK2
  1

  9
$DIMSTYLE
  2
ISO-25
  9
$DIMCLRD
 70
     0
  9
$DIMCLRE
 70
     0
  9
$DIMCLRT
 70
     0
  9
$DIMTFAC
 40
1.0
  9
$DIMGAP
 40
1.524
  9
$DIMJUST
 70
     0
  9
$DIMSD1
 70
     0
  9
$DIMSD2
 70
     0
  9
$DIMTOLJ
 70
     0
  9
$DIMTZIN
 70
     0
  9
$DIMALTZ
 70
     0
  9
$DIMALTTZ
 70
     0
  9
$DIMUPT
 70
     0
  9
$DIMDEC
 70
     2
  9
$DIMTDEC
 70
     3
  9
$DIMALTU
 70
     2
  9
$DIMALTTD
 70
     3
  9
$DIMTXSTY
  7
Standard
  9
$DIMAUNIT
 70
     0
  9
$DIMADEC
 70
     2
  9
$DIMALTRND
 40
0.0
  9
$DIMAZIN
 70
     0
  9
$DIMDSEP
 70
    44
  9
$DIMATFIT
 70
     3
  9
$DIMFRAC
 70
     0
  9
$DIMLDRBLK
  1

  9
$DIMLUNIT
 70
     2
  9
$DIMLWD
 70
    -2
  9
$DIMLWE
 70
    -2
  9
$DIMTMOVE
 70
     0
  9
$LUNITS
 70
     2
  9
$LUPREC
 70
     2
  9
$SKETCHINC
 40
1.0
  9
$FILLETRAD
 40
10.0
  9
$AUNITS
 70
     0
  9
$AUPREC
 70
     2
  9
$MENU
  1
.
  9
$ELEVATION
 40
0.0
  9
$PELEVATION
 40
0.0
  9
$THICKNESS
 40
0.0
  9
$LIMCHECK
 70
     0
  9
$CHAMFERA
 40
0.0
  9
$CHAMFERB
 40
0.0
  9
$CHAMFERC
 40
0.0
  9
$CHAMFERD
 40
0.0
  9
$SKPOLY
 70
     0
  9
$TDCREATE
 40
2457676.38096279
  9
$TDUCREATE
 40
2457676.297629456
  9
$TDUPDATE
 40
2457676.380964271
  9
$TDUUPDATE
 40
2457676.297630937
  9
$TDINDWG
 40
0.0000000116
  9
$TDUSRTIMER
 40
0.0000000116
  9
$USRTIMER
 70
     1
  9
$ANGBASE
 50
0.0
  9
$ANGDIR
 70
     0
  9
$PDMODE
 70
     0
  9
$PDSIZE
 40
-1.0
  9
$PLINEWID
 40
0.0
  9
$SPLFRAME
 70
     0
  9
$SPLINETYPE
 70
     6
  9
$SPLINESEGS
 70
     8
  9
$HANDSEED
  5
27B
  9
$SURFTAB1
 70
     6
  9
$SURFTAB2
 70
     6
  9
$SURFTYPE
 70
     6
  9
$SURFU
 70
     6
  9
$SURFV
 70
     6
  9
$UCSBASE
  2

  9
$UCSNAME
  2

  9
$UCSORG
 10
0.0
 20
0.0
 30
0.0
  9
$UCSXDIR
 10
1.0
 20
0.0
 30
0.0
  9
$UCSYDIR
 10
0.0
 20
1.0
 30
0.0
  9
$UCSORTHOREF
  2

  9
$UCSORTHOVIEW
 70
     0
  9
$UCSORGTOP
 10
0.0
 20
0.0
 30
0.0
  9
$UCSORGBOTTOM
 10
0.0
 20
0.0
 30
0.0
  9
$UCSORGLEFT
 10
0.0
 20
0.0
 30
0.0
  9
$UCSORGRIGHT
 10
0.0
 20
0.0
 30
0.0
  9
$UCSORGFRONT
 10
0.0
 20
0.0
 30
0.0
  9
$UCSORGBACK
 10
0.0
 20
0.0
 30
0.0
  9
$PUCSBASE
  2

  9
$PUCSNAME
  2

  9
$PUCSORG
 10
0.0
 20
0.0
 30
0.0
  9
$PUCSXDIR
 10
1.0
 20
0.0
 30
0.0
  9
$PUCSYDIR
 10
0.0
 20
1.0
 30
0.0
  9
$PUCSORTHOREF
  2

  9
$PUCSORTHOVIEW
 70
     0
  9
$PUCSORGTOP
 10
0.0
 20
0.0
 30
0.0
  9
$PUCSORGBOTTOM
 10
0.0
 20
0.0
 30
0.0
  9
$PUCSORGLEFT
 10
0.0
 20
0.0
 30
0.0
  9
$PUCSORGRIGHT
 10
0.0
 20
0.0
 30
0.0
  9
$PUCSORGFRONT
 10
0.0
 20
0.0
 30
0.0
  9
$PUCSORGBACK
 10
0.0
 20
0.0
 30
0.0
  9
$USERI1
 70
     0
  9
$USERI2
 70
     0
  9
$USERI3
 70
     0
  9
$USERI4
 70
     0
  9
$USERI5
 70
     0
  9
$USERR1
 40
0.0
  9
$USERR2
 40
0.0
  9
$USERR3
 40
0.0
  9
$USERR4
 40
0.0
  9
$USERR5
 40
0.0
  9
$WORLDVIEW
 70
     1
  9
$SHADEDGE
 70
     3
  9
$SHADEDIF
 70
    70
  9
$TILEMODE
 70
     1
  9
$MAXACTVP
 70
    64
  9
$PINSBASE
 10
0.0
 20
0.0
 30
0.0
  9
$PLIMCHECK
 70
     0
  9
$PEXTMIN
 10
1.0000000000E+20
 20
1.0000000000E+20
 30
1.0000000000E+20
  9
$PEXTMAX
 10
-1.0000000000E+20
 20
-1.0000000000E+20
 30
-1.0000000000E+20
  9
$PLIMMIN
 10
0.0
 20
0.0
  9
$PLIMMAX
 10
420.0
 20
297.0
  9
$UNITMODE
 70
     0
  9
$VISRETAIN
 70
     1
  9
$PLINEGEN
 70
     0
  9
$PSLTSCALE
 70
     1
  9
$TREEDEPTH
 70
  3020
  9
$CMLSTYLE
  2
Standard
  9
$CMLJUST
 70
     0
  9
$CMLSCALE
 40
20.0
  9
$PROXYGRAPHICS
 70
     1
  9
$MEASUREMENT
 70
     1
  9
$CELWEIGHT
370
    -1
  9
$ENDCAPS
280
     0
  9
$JOINSTYLE
280
     0
  9
$LWDISPLAY
290
     1
  9
$INSUNITS
 70
     4
  9
$HYPERLINKBASE
  1

  9
$STYLESHEET
  1

  9
$XEDIT
290
     1
  9
$CEPSNTYPE
380
     0
  9
$PSTYLEMODE
290
     1
  9
$FINGERPRINTGUID
  2
{BEBE7C3C-936D-493C-9861-3F85CE110671}
  9
$VERSIONGUID
  2
{FAEB1C32-E019-11D5-929B-00C0DF256EC4}
  9
$EXTNAMES
290
     1
  9
$PSVPSCALE
 40
0.0
  9
$OLESTARTUP
290
     0
  0
ENDSEC
  0
SECTION
  2
CLASSES
  0
CLASS
  1
ACDBDICTIONARYWDFLT
  2
AcDbDictionaryWithDefault
  3
ObjectDBX Classes
 90
        0
280
     0
281
     0
  0
CLASS
  1
VISUALSTYLE
  2
AcDbVisualStyle
  3
ObjectDBX Classes
 90
     4095
280
     0
281
     0
  0
CLASS
  1
MATERIAL
  2
AcDbMaterial
  3
ObjectDBX Classes
 90
     1153
280
     0
281
     0
  0
CLASS
  1
SCALE
  2
AcDbScale
  3
ObjectDBX Classes
 90
     1153
280
     0
281
     0
  0
CLASS
  1
TABLESTYLE
  2
AcDbTableStyle
  3
ObjectDBX Classes
 90
     4095
280
     0
281
     0
  0
CLASS
  1
MLEADERSTYLE
  2
AcDbMLeaderStyle
  3
ACDB_MLEADERSTYLE_CLASS
 90
     4095
280
     0
281
     0
  0
CLASS
  1
SUN
  2
AcDbSun
  3
SCENEOE
 90
     1153
280
     0
281
     0
  0
CLASS
  1
ACDBPLACEHOLDER
  2
AcDbPlaceHolder
  3
ObjectDBX Classes
 90
        0
280
     0
281
     0
  0
CLASS
  1
LAYOUT
  2
AcDbLayout
  3
ObjectDBX Classes
 90
        0
280
     0
281
     0
  0
ENDSEC
  0
SECTION
  2
TABLES
  0
TABLE
  2
VPORT
  5
8
330
0
100
AcDbSymbolTable
 70
     1
  0
VPORT
  5
29
330
8
100
AcDbSymbolTableRecord
100
AcDbViewportTableRecord
  2
*Active
 70
     0
 10
0.0
 20
0.0
 11
1.0
 21
1.0
 12
148.5
 22
105.0
 13
0.0
 23
0.0
 14
10.0
 24
10.0
 15
10.0
 25
10.0
 16
0.0
 26
0.0
 36
1.0
 17
0.0
 27
0.0
 37
0.0
 40
210.0
 41
1.4142857143
 42
50.0
 43
0.0
 44
0.0
 50
0.0
 51
0.0
 71
     0
 72
  2000
 73
     1
 74
     3
 75
     0
 76
     0
 77
     0
 78
     0
281
     0
 65
     1
110
0.0
120
0.0
130
0.0
111
1.0
121
0.0
131
0.0
112
0.0
122
1.0
132
0.0
 79
     0
146
0.0
  0
ENDTAB
  0
TABLE
  2
LTYPE
  5
5
330
0
100
AcDbSymbolTable
 70
     6
  0
LTYPE
  5
14
330
5
100
AcDbSymbolTableRecord
100
AcDbLinetypeTableRecord
  2
ByBlock
 70
     0
  3

 72
    65
 73
     0
 40
0.0
  0
LTYPE
  5
15
330
5
100
AcDbSymbolTableRecord
100
AcDbLinetypeTableRecord
  2
ByLayer
 70
     0
  3

 72
    65
 73
     0
 40
0.0
  0
LTYPE
  5
16
330
5
100
AcDbSymbolTableRecord
100
AcDbLinetypeTableRecord
  2
Continuous
 70
     0
  3
Solid line
 72
    65
 73
     0
 40
0.0
  0
LTYPE
  5
6E
330
5
100
AcDbSymbolTableRecord
100
AcDbLinetypeTableRecord
  2
HIDDEN
 70
     0
  3
Hidden __ __ __ __ __ __ __ __ __ __ __ __ __ __
 72
    65
 73
     2
 40
1.905
 49
1.27
 74
     0
 49
-0.635
 74
     0
  0
LTYPE
  5
6F
330
5
100
AcDbSymbolTableRecord
100
AcDbLinetypeTableRecord
  2
PHANTOM
 70
     0
  3
Phantom ______  __  __  ______  __  __  ______
 72
    65
 73
     6
 40
12.7
 49
6.35
 74
     0
 49
-1.27
 74
     0
 49
1.27
 74
     0
 49
-1.27
 74
     0
 49
1.27
 74
     0
 49
-1.27
 74
     0
  0
LTYPE
  5
70
330
5
100
AcDbSymbolTableRecord
100
AcDbLinetypeTableRecord
  2
CENTER
 70
     0
  3
Center ____ _ ____ _ ____ _ ____ _ ____ _ ____
 72
    65
 73
     4
 40
10.16
 49
6.35
 74
     0
 49
-1.27
 74
     0
 49
1.27
 74
     0
 49
-1.27
 74
     0
  0
LTYPE
  5
71
330
5
100
AcDbSymbolTableRecord
100
AcDbLinetypeTableRecord
  2
CENTERX2
 70
     0
  3
Center (2x) ________  __  ________  __  _____
 72
    65
 73
     4
 40
20.32
 49
12.7
 74
     0
 49
-2.54
 74
     0
 49
2.54
 74
     0
 49
-2.54
 74
     0
  0
LTYPE
  5
72
330
5
100
AcDbSymbolTableRecord
100
AcDbLinetypeTableRecord
  2
DOT2
 70
     0
  3
Dot (.5x) ........................................
 72
    65
 73
     2
 40
0.635
 49
0.0
 74
     0
 49
-0.635
 74
     0
  0
ENDTAB
  0
TABLE
  2
LAYER
  5
2
330
0
100
AcDbSymbolTable
 70
     5
  0
LAYER
  5
10
330
2
100
AcDbSymbolTableRecord
100
AcDbLayerTableRecord
  2
0
 70
     0
 62
     7
  6
Continuous
370
    -3
390
F
  0
LAYER
  5
73
330
2
100
AcDbSymbolTableRecord
100
AcDbLayerTableRecord
  2
FORMAT
 70
     0
 62
     7
  6
Continuous
370
    -3
390
F
  0
LAYER
  5
74
330
2
100
AcDbSymbolTableRecord
100
AcDbLayerTableRecord
  2
VERMASSUNG
 70
     0
 62
     7
  6
Continuous
370
    -3
390
F
  0
LAYER
  5
75
330
2
100
AcDbSymbolTableRecord
100
AcDbLayerTableRecord
  2
KOPF_DÜNN
 70
     0
 62
     7
  6
Continuous
370
    -3
390
F
  0
LAYER
  5
76
330
2
100
AcDbSymbolTableRecord
100
AcDbLayerTableRecord
  2
KOPF_DICK
 70
     0
 62
     7
  6
Continuous
370
    15
390
F
  0
ENDTAB
  0
TABLE
  2
STYLE
  5
3
330
0
100
AcDbSymbolTable
 70
     2
  0
STYLE
  5
11
330
3
100
AcDbSymbolTableRecord
100
AcDbTextStyleTableRecord
  2
Standard
 70
     0
 40
0.0
 41
1.0
 50
0.0
 71
     0
 42
2.0
  3
txt
  4

  0
STYLE
  5
77
330
3
100
AcDbSymbolTableRecord
100
AcDbTextStyleTableRecord
  2
SLDTEXTSTYLE0
 70
     0
 40
0.0
 41
0.7
 50
0.0
 71
     0
 42
2.0
  3
TXT
  4

  0
ENDTAB
  0
TABLE
  2
VIEW
  5
6
330
0
100
AcDbSymbolTable
 70
     0
  0
ENDTAB
  0
TABLE
  2
UCS
  5
7
330
0
100
AcDbSymbolTable
 70
     0
  0
ENDTAB
  0
TABLE
  2
APPID
  5
9
330
0
100
AcDbSymbolTable
 70
     1
  0
APPID
  5
12
330
9
100
AcDbSymbolTableRecord
100
AcDbRegAppTableRecord
  2
ACAD
 70
     0
  0
ENDTAB
  0
TABLE
  2
DIMSTYLE
  5
A
330
0
100
AcDbSymbolTable
 70
     2
100
AcDbDimStyleTable
  0
DIMSTYLE
105
27
330
A
100
AcDbSymbolTableRecord
100
AcDbDimStyleTableRecord
  2
ISO-25
 70
     0
 41
2.5
 42
0.625
 43
3.75
 44
1.25
 73
     0
 74
     0
 77
     1
 78
     8
140
2.5
141
2.5
143
0.0393700787
147
0.625
171
     3
172
     1
178
     0
271
     2
272
     2
274
     3
278
    44
283
     0
284
     8
340
11
  0
DIMSTYLE
105
1C1
102
{ACAD_REACTORS
330
1C0
330
1CD
330
1D8
330
1E4
330
1EE
330
1F8
102
}
330
A
100
AcDbSymbolTableRecord
100
AcDbDimStyleTableRecord
  2
SLDDIMSTYLE0
 70
     0
 41
3.0
 44
0.0
 45
0.000000001
 73
     0
 74
     0
 77
     1
 78
    12
 79
     3
140
2.0
147
0.5
173
     1
178
     0
271
     2
272
     3
276
     2
284
    12
340
77
  0
ENDTAB
  0
TABLE
  2
BLOCK_RECORD
  5
1
330
0
100
AcDbSymbolTable
 70
     7
  0
BLOCK_RECORD
  5
1F
330
1
100
AcDbSymbolTableRecord
100
AcDbBlockTableRecord
  2
*Model_Space
340
22
  0
BLOCK_RECORD
  5
1B
330
1
100
AcDbSymbolTableRecord
100
AcDbBlockTableRecord
  2
*Paper_Space
340
1E
  0
BLOCK_RECORD
  5
23
330
1
100
AcDbSymbolTableRecord
100
AcDbBlockTableRecord
  2
*Paper_Space0
340
26
  0
BLOCK_RECORD
  5
1C2
330
1
100
AcDbSymbolTableRecord
100
AcDbBlockTableRecord
  2
_D
340
0
  0
BLOCK_RECORD
  5
1CE
330
1
100
AcDbSymbolTableRecord
100
AcDbBlockTableRecord
  2
_D_1
340
0
  0
BLOCK_RECORD
  5
1D9
330
1
100
AcDbSymbolTableRecord
100
AcDbBlockTableRecord
  2
_D_2
340
0
  0
BLOCK_RECORD
  5
1E5
330
1
100
AcDbSymbolTableRecord
100
AcDbBlockTableRecord
  2
_D_3
340
0
  0
BLOCK_RECORD
  5
1EF
330
1
100
AcDbSymbolTableRecord
100
AcDbBlockTableRecord
  2
_D_4
340
0
  0
BLOCK_RECORD
  5
1F9
330
1
100
AcDbSymbolTableRecord
100
AcDbBlockTableRecord
  2
_D_5
340
0
  0
ENDTAB
  0
ENDSEC
  0
SECTION
  2
BLOCKS
  0
BLOCK
  5
20
330
1F
100
AcDbEntity
  8
0
100
AcDbBlockBegin
  2
*Model_Space
 70
     0
 10
0.0
 20
0.0
 30
0.0
  3
*Model_Space
  1

  0
ENDBLK
  5
21
330
1F
100
AcDbEntity
  8
0
100
AcDbBlockEnd
  0
BLOCK
  5
1C
330
1B
100
AcDbEntity
 67
     1
  8
0
100
AcDbBlockBegin
  2
*Paper_Space
 70
     0
 10
0.0
 20
0.0
 30
0.0
  3
*Paper_Space
  1

  0
ENDBLK
  5
1D
330
1B
100
AcDbEntity
 67
     1
  8
0
100
AcDbBlockEnd
  0
BLOCK
  5
24
330
23
100
AcDbEntity
  8
0
100
AcDbBlockBegin
  2
*Paper_Space0
 70
     0
 10
0.0
 20
0.0
 30
0.0
  3
*Paper_Space0
  1

  0
ENDBLK
  5
25
330
23
100
AcDbEntity
  8
0
100
AcDbBlockEnd
  0
BLOCK
  5
1C3
330
1C2
100
AcDbEntity
  8
0
100
AcDbBlockBegin
  2
_D
 70
     0
 10
0.0
 20
0.0
 30
0.0
  3
_D
  1

  0
SOLID
  5
1C5
330
1C2
100
AcDbEntity
  8
VERMASSUNG
100
AcDbTrace
 10
18.306562773
 20
74.1579741379
 30
0.0
 11
18.756562773
 21
77.1579741379
 31
0.0
 12
17.856562773
 22
77.1579741379
 32
0.0
 13
17.856562773
 23
77.1579741379
 33
0.0
  0
SOLID
  5
1C6
330
1C2
100
AcDbEntity
  8
VERMASSUNG
100
AcDbTrace
 10
18.306562773
 20
174.1579741379
 30
0.0
 11
17.856562773
 21
171.1579741379
 31
0.0
 12
18.756562773
 22
171.1579741379
 32
0.0
 13
18.756562773
 23
171.1579741379
 33
0.0
  0
LINE
  5
1C7
330
1C2
100
AcDbEntity
  8
VERMASSUNG
100
AcDbLine
 10
165.2072198276
 20
74.1579741379
 30
0.0
 11
17.306562773
 21
74.1579741379
 31
0.0
  0
LINE
  5
1C8
330
1C2
100
AcDbEntity
  8
VERMASSUNG
100
AcDbLine
 10
165.2072198276
 20
174.1579741379
 30
0.0
 11
17.306562773
 21
174.1579741379
 31
0.0
  0
LINE
  5
1C9
330
1C2
100
AcDbEntity
  8
VERMASSUNG
100
AcDbLine
 10
18.306562773
 20
74.1579741379
 30
0.0
 11
18.306562773
 21
174.1579741379
 31
0.0
  0
MTEXT
  5
1CA
330
1C2
100
AcDbEntity
  8
VERMASSUNG
100
AcDbMText
 10
15.5284275168
 20
112.9538361359
 30
0.0
 40
2.0
 41
0.0
 71
     1
 72
     1
  1
MAS-BT 50
  7
SLDTEXTSTYLE0
 11
3.391901413832837E-15
 21
1.0
 31
0.0
 73
     1
 44
1.0
  0
MTEXT
  5
1CB
330
1C2
100
AcDbEntity
  8
VERMASSUNG
100
AcDbMText
 10
15.7284274681
 20
127.9538358006
 30
0.0
 40
2.0
 41
0.0
 71
     1
 72
     1
  1
%%c
  7
SLDTEXTSTYLE0
 11
3.391901413832837E-15
 21
1.0
 31
0.0
 73
     1
 44
1.0
  0
MTEXT
  5
1CC
330
1C2
100
AcDbEntity
  8
VERMASSUNG
100
AcDbMText
 10
15.728427177
 20
131.5634262492
 30
0.0
 40
2.0
 41
0.0
 71
     1
 72
     1
  1
100
  7
SLDTEXTSTYLE0
 11
3.391901413832837E-15
 21
1.0
 31
0.0
 73
     1
 44
1.0
  0
ENDBLK
  5
1C4
330
1C2
100
AcDbEntity
  8
0
100
AcDbBlockEnd
  0
BLOCK
  5
1CF
330
1CE
100
AcDbEntity
  8
0
100
AcDbBlockBegin
  2
_D_1
 70
     0
 10
0.0
 20
0.0
 30
0.0
  3
_D_1
  1

  0
SOLID
  5
1D1
330
1CE
100
AcDbEntity
  8
VERMASSUNG
100
AcDbTrace
 10
275.3350215517
 20
138.1579741379
 30
0.0
 11
274.8850215517
 21
135.1579741379
 31
0.0
 12
275.7850215517
 22
135.1579741379
 32
0.0
 13
275.7850215517
 23
135.1579741379
 33
0.0
  0
SOLID
  5
1D2
330
1CE
100
AcDbEntity
  8
VERMASSUNG
100
AcDbTrace
 10
275.3350215517
 20
110.1579741379
 30
0.0
 11
275.7850215517
 21
113.1579741379
 31
0.0
 12
274.8850215517
 22
113.1579741379
 32
0.0
 13
274.8850215517
 23
113.1579741379
 33
0.0
  0
LINE
  5
1D3
330
1CE
100
AcDbEntity
  8
VERMASSUNG
100
AcDbLine
 10
265.2072198276
 20
138.1579741379
 30
0.0
 11
276.3350215517
 21
138.1579741379
 31
0.0
  0
LINE
  5
1D4
330
1CE
100
AcDbEntity
  8
VERMASSUNG
100
AcDbLine
 10
265.2072198276
 20
110.1579741379
 30
0.0
 11
276.3350215517
 21
110.1579741379
 31
0.0
  0
LINE
  5
1D5
330
1CE
100
AcDbEntity
  8
VERMASSUNG
100
AcDbLine
 10
275.3350215517
 20
138.1579741379
 30
0.0
 11
275.3350215517
 21
110.1579741379
 31
0.0
  0
MTEXT
  5
1D6
330
1CE
100
AcDbEntity
  8
VERMASSUNG
100
AcDbMText
 10
272.7568862468
 20
120.9529741807
 30
0.0
 40
2.0
 41
0.0
 71
     1
 72
     1
  1
%%c
  7
SLDTEXTSTYLE0
 11
-7.044195017643634E-15
 21
1.0
 31
0.0
 73
     1
 44
1.0
  0
MTEXT
  5
1D7
330
1CE
100
AcDbEntity
  8
VERMASSUNG
100
AcDbMText
 10
272.5568862955
 20
124.562974195
 30
0.0
 40
2.0
 41
0.0
 71
     1
 72
     1
  1
28
  7
SLDTEXTSTYLE0
 11
-7.044195017643634E-15
 21
1.0
 31
0.0
 73
     1
 44
1.0
  0
ENDBLK
  5
1D0
330
1CE
100
AcDbEntity
  8
0
100
AcDbBlockEnd
  0
BLOCK
  5
1DA
330
1D9
100
AcDbEntity
  8
0
100
AcDbBlockBegin
  2
_D_2
 70
     0
 10
0.0
 20
0.0
 30
0.0
  3
_D_2
  1

  0
SOLID
  5
1DC
330
1D9
100
AcDbEntity
  8
VERMASSUNG
100
AcDbTrace
 10
282.2072198276
 20
99.1579741379
 30
0.0
 11
282.6572198276
 21
102.1579741379
 31
0.0
 12
281.7572198276
 22
102.1579741379
 32
0.0
 13
281.7572198276
 23
102.1579741379
 33
0.0
  0
SOLID
  5
1DD
330
1D9
100
AcDbEntity
  8
VERMASSUNG
100
AcDbTrace
 10
282.2072198276
 20
149.1579741379
 30
0.0
 11
281.7572198276
 21
146.1579741379
 31
0.0
 12
282.6572198276
 22
146.1579741379
 32
0.0
 13
282.6572198276
 23
146.1579741379
 33
0.0
  0
LINE
  5
1DE
330
1D9
100
AcDbEntity
  8
VERMASSUNG
100
AcDbLine
 10
265.7072198276
 20
99.1579741379
 30
0.0
 11
283.2072198276
 21
99.1579741379
 31
0.0
  0
LINE
  5
1DF
330
1D9
100
AcDbEntity
  8
VERMASSUNG
100
AcDbLine
 10
265.7072198276
 20
149.1579741379
 30
0.0
 11
283.2072198276
 21
149.1579741379
 31
0.0
  0
LINE
  5
1E0
330
1D9
100
AcDbEntity
  8
VERMASSUNG
100
AcDbLine
 10
282.2072198276
 20
99.1579741379
 30
0.0
 11
282.2072198276
 21
149.1579741379
 31
0.0
  0
MTEXT
  5
1E1
330
1D9
100
AcDbEntity
  8
VERMASSUNG
100
AcDbMText
 10
279.4290845714
 20
119.0529741487
 30
0.0
 40
2.0
 41
0.0
 71
     1
 72
     1
  1
WH
  7
SLDTEXTSTYLE0
 11
6.123233995736766E-17
 21
1.0
 31
0.0
 73
     1
 44
1.0
  0
MTEXT
  5
1E2
330
1D9
100
AcDbEntity
  8
VERMASSUNG
100
AcDbMText
 10
279.6290845227
 20
122.8529742127
 30
0.0
 40
2.0
 41
0.0
 71
     1
 72
     1
  1
%%c
  7
SLDTEXTSTYLE0
 11
6.123233995736766E-17
 21
1.0
 31
0.0
 73
     1
 44
1.0
  0
MTEXT
  5
1E3
330
1D9
100
AcDbEntity
  8
VERMASSUNG
100
AcDbMText
 10
279.4290845714
 20
126.462974227
 30
0.0
 40
2.0
 41
0.0
 71
     1
 72
     1
  1
50
  7
SLDTEXTSTYLE0
 11
6.123233995736766E-17
 21
1.0
 31
0.0
 73
     1
 44
1.0
  0
ENDBLK
  5
1DB
330
1D9
100
AcDbEntity
  8
0
100
AcDbBlockEnd
  0
BLOCK
  5
1E6
330
1E5
100
AcDbEntity
  8
0
100
AcDbBlockBegin
  2
_D_3
 70
     0
 10
0.0
 20
0.0
 30
0.0
  3
_D_3
  1

  0
SOLID
  5
1E8
330
1E5
100
AcDbEntity
  8
VERMASSUNG
100
AcDbTrace
 10
26.4072198276
 20
193.5352828626
 30
0.0
 11
29.4072198276
 21
193.0852828626
 31
0.0
 12
29.4072198276
 22
193.9852828626
 32
0.0
 13
29.4072198276
 23
193.9852828626
 33
0.0
  0
SOLID
  5
1E9
330
1E5
100
AcDbEntity
  8
VERMASSUNG
100
AcDbTrace
 10
266.2072198276
 20
193.5352828626
 30
0.0
 11
263.2072198276
 21
193.9852828626
 31
0.0
 12
263.2072198276
 22
193.0852828626
 32
0.0
 13
263.2072198276
 23
193.0852828626
 33
0.0
  0
LINE
  5
1EA
330
1E5
100
AcDbEntity
  8
VERMASSUNG
100
AcDbLine
 10
26.4072198276
 20
142.5076519987
 30
0.0
 11
26.4072198276
 21
194.5352828626
 31
0.0
  0
LINE
  5
1EB
330
1E5
100
AcDbEntity
  8
VERMASSUNG
100
AcDbLine
 10
266.2072198276
 20
148.6579741379
 30
0.0
 11
266.2072198276
 21
194.5352828626
 31
0.0
  0
LINE
  5
1EC
330
1E5
100
AcDbEntity
  8
VERMASSUNG
100
AcDbLine
 10
26.4072198276
 20
193.5352828626
 30
0.0
 11
266.2072198276
 21
193.5352828626
 31
0.0
  0
MTEXT
  5
1ED
330
1E5
100
AcDbEntity
  8
VERMASSUNG
100
AcDbMText
 10
143.2072199714
 20
196.1134184586
 30
0.0
 40
2.0
 41
0.0
 71
     1
 72
     1
  1
239.8
  7
SLDTEXTSTYLE0
 73
     1
 44
1.0
  0
ENDBLK
  5
1E7
330
1E5
100
AcDbEntity
  8
0
100
AcDbBlockEnd
  0
BLOCK
  5
1F0
330
1EF
100
AcDbEntity
  8
0
100
AcDbBlockBegin
  2
_D_4
 70
     0
 10
0.0
 20
0.0
 30
0.0
  3
_D_4
  1

  0
SOLID
  5
1F2
330
1EF
100
AcDbEntity
  8
VERMASSUNG
100
AcDbTrace
 10
128.2072198276
 20
187.5352828626
 30
0.0
 11
131.2072198276
 21
187.0852828626
 31
0.0
 12
131.2072198276
 22
187.9852828626
 32
0.0
 13
131.2072198276
 23
187.9852828626
 33
0.0
  0
SOLID
  5
1F3
330
1EF
100
AcDbEntity
  8
VERMASSUNG
100
AcDbTrace
 10
266.2072198276
 20
187.5352828626
 30
0.0
 11
263.2072198276
 21
187.9852828626
 31
0.0
 12
263.2072198276
 22
187.0852828626
 32
0.0
 13
263.2072198276
 23
187.0852828626
 33
0.0
  0
LINE
  5
1F4
330
1EF
100
AcDbEntity
  8
VERMASSUNG
100
AcDbLine
 10
128.2072198276
 20
159.0829741379
 30
0.0
 11
128.2072198276
 21
188.5352828626
 31
0.0
  0
LINE
  5
1F5
330
1EF
100
AcDbEntity
  8
VERMASSUNG
100
AcDbLine
 10
266.2072198276
 20
148.6579741379
 30
0.0
 11
266.2072198276
 21
188.5352828626
 31
0.0
  0
LINE
  5
1F6
330
1EF
100
AcDbEntity
  8
VERMASSUNG
100
AcDbLine
 10
128.2072198276
 20
187.5352828626
 30
0.0
 11
266.2072198276
 21
187.5352828626
 31
0.0
  0
MTEXT
  5
1F7
330
1EF
100
AcDbEntity
  8
VERMASSUNG
100
AcDbMText
 10
195.3072197955
 20
190.1134184586
 30
0.0
 40
2.0
 41
0.0
 71
     1
 72
     1
  1
138
  7
SLDTEXTSTYLE0
 73
     1
 44
1.0
  0
ENDBLK
  5
1F1
330
1EF
100
AcDbEntity
  8
0
100
AcDbBlockEnd
  0
BLOCK
  5
1FA
330
1F9
100
AcDbEntity
  8
0
100
AcDbBlockBegin
  2
_D_5
 70
     0
 10
0.0
 20
0.0
 30
0.0
  3
_D_5
  1

  0
SOLID
  5
1FC
330
1F9
100
AcDbEntity
  8
VERMASSUNG
100
AcDbTrace
 10
166.2072198276
 20
181.5352828626
 30
0.0
 11
169.2072198276
 21
181.0852828626
 31
0.0
 12
169.2072198276
 22
181.9852828626
 32
0.0
 13
169.2072198276
 23
181.9852828626
 33
0.0
  0
SOLID
  5
1FD
330
1F9
100
AcDbEntity
  8
VERMASSUNG
100
AcDbTrace
 10
266.2072198276
 20
181.5352828626
 30
0.0
 11
263.2072198276
 21
181.9852828626
 31
0.0
 12
263.2072198276
 22
181.0852828626
 32
0.0
 13
263.2072198276
 23
181.0852828626
 33
0.0
  0
LINE
  5
1FE
330
1F9
100
AcDbEntity
  8
VERMASSUNG
100
AcDbLine
 10
166.2072198276
 20
173.1579741379
 30
0.0
 11
166.2072198276
 21
182.5352828626
 31
0.0
  0
LINE
  5
1FF
330
1F9
100
AcDbEntity
  8
VERMASSUNG
100
AcDbLine
 10
266.2072198276
 20
148.6579741379
 30
0.0
 11
266.2072198276
 21
182.5352828626
 31
0.0
  0
LINE
  5
200
330
1F9
100
AcDbEntity
  8
VERMASSUNG
100
AcDbLine
 10
166.2072198276
 20
181.5352828626
 30
0.0
 11
266.2072198276
 21
181.5352828626
 31
0.0
  0
MTEXT
  5
201
330
1F9
100
AcDbEntity
  8
VERMASSUNG
100
AcDbMText
 10
214.3072197955
 20
184.1134184586
 30
0.0
 40
2.0
 41
0.0
 71
     1
 72
     1
  1
100
  7
SLDTEXTSTYLE0
 73
     1
 44
1.0
  0
ENDBLK
  5
1FB
330
1F9
100
AcDbEntity
  8
0
100
AcDbBlockEnd
  0
ENDSEC
  0
SECTION
  2
ENTITIES
  0
MTEXT
  5
78
330
1F
100
AcDbEntity
  8
KOPF_DÜNN
100
AcDbMText
 10
13.8892156294
 20
23.8442973028
 30
0.0
 40
3.0
 41
0.0
 71
     1
 72
     1
  1
A34.550.050.138
  7
SLDTEXTSTYLE0
 73
     1
 44
1.0
  0
MTEXT
  5
79
330
1F
100
AcDbEntity
  8
VERMASSUNG
100
AcDbMText
 10
13.9329988022
 20
28.8834360957
 30
0.0
 40
3.0
 41
0.0
 71
     1
 72
     1
  1
Aufnahme_Master shank
  7
SLDTEXTSTYLE0
 73
     1
 44
1.0
  0
MTEXT
  5
7A
330
1F
100
AcDbEntity
  8
VERMASSUNG
100
AcDbMText
 10
98.8601118557
 20
13.8365368761
 30
0.0
 40
2.0
 41
0.0
 71
     1
 72
     1
  1
Datum: 18.11.2011
  7
SLDTEXTSTYLE0
 73
     1
 44
1.0
  0
MTEXT
  5
7B
330
1F
100
AcDbEntity
  8
VERMASSUNG
100
AcDbMText
 10
13.933048693
 20
18.0482802738
 30
0.0
 40
2.0
 41
0.0
 71
     1
 72
     1
  1
MAS-BT A/D
  7
SLDTEXTSTYLE0
 73
     1
 44
1.0
  0
MTEXT
  5
7C
330
1F
100
AcDbEntity
  8
VERMASSUNG
100
AcDbMText
 10
13.9808475933
 20
13.9090974274
 30
0.0
 40
2.0
 41
0.0
 71
     1
 72
     1
  1
Gewicht: 5017g
  7
SLDTEXTSTYLE0
 73
     1
 44
1.0
  0
LINE
  5
7D
330
1F
100
AcDbEntity
  8
0
  6
Continuous
 62
     7
370
    15
100
AcDbLine
 10
162.2069326009
 20
74.1579741379
 30
0.0
 11
165.2072198276
 21
74.1579741379
 31
0.0
  0
LINE
  5
7E
330
1F
100
AcDbEntity
  8
0
  6
Continuous
 62
     7
370
    15
100
AcDbLine
 10
165.2072198276
 20
174.1579741379
 30
0.0
 11
162.2067856467
 21
174.1579741379
 31
0.0
  0
ARC
  5
7F
330
1F
100
AcDbEntity
  8
0
  6
Continuous
 62
     7
370
    15
100
AcDbCircle
 10
165.2072198276
 20
75.1579741379
 30
0.0
 40
1.0
100
AcDbArc
 50
270.0
 51
0.0
  0
ARC
  5
80
330
1F
100
AcDbEntity
  8
0
  6
Continuous
 62
     7
370
    15
100
AcDbCircle
 10
165.2072198276
 20
173.1579741379
 30
0.0
 40
1.000000000000028
100
AcDbArc
 50
0.0
 51
90.0
  0
ARC
  5
81
330
1F
100
AcDbEntity
  8
0
  6
Continuous
 62
     7
370
    15
100
AcDbCircle
 10
130.2072198276
 20
88.2329741379
 30
0.0
 40
1.0
100
AcDbArc
 50
38.7248675669
 51
90.0
  0
ARC
  5
82
330
1F
100
AcDbEntity
  8
0
  6
Continuous
 62
     7
370
    15
100
AcDbCircle
 10
130.2072198276
 20
160.0829741379
 30
0.0
 40
1.0
100
AcDbArc
 50
270.0
 51
321.2727568333
  0
LINE
  5
83
330
1F
100
AcDbEntity
  8
0
  6
Continuous
 62
     7
370
    15
100
AcDbLine
 10
128.2072198276
 20
89.2329741379
 30
0.0
 11
130.2072198276
 21
89.2329741379
 31
0.0
  0
LINE
  5
84
330
1F
100
AcDbEntity
  8
0
  6
Continuous
 62
     7
370
    15
100
AcDbLine
 10
130.2072198276
 20
159.0829741379
 30
0.0
 11
128.2072198276
 21
159.0829741379
 31
0.0
  0
LINE
  5
85
330
1F
100
AcDbEntity
  8
0
  6
Continuous
 62
     7
370
    15
100
AcDbLine
 10
128.2072198276
 20
159.0829741379
 30
0.0
 11
28.1186060414
 21
144.4867179608
 31
0.0
  0
LINE
  5
86
330
1F
100
AcDbEntity
  8
0
  6
Continuous
 62
     7
370
    15
100
AcDbLine
 10
28.1186060414
 20
103.8292303151
 30
0.0
 11
128.2072198276
 21
89.2329741379
 31
0.0
  0
ARC
  5
87
330
1F
100
AcDbEntity
  8
0
  6
Continuous
 62
     7
370
    15
100
AcDbCircle
 10
169.2072198276
 20
96.1579741379
 30
0.0
 40
3.0
100
AcDbArc
 50
90.0
 51
180.0
  0
ARC
  5
88
330
1F
100
AcDbEntity
  8
0
  6
Continuous
 62
     7
370
    15
100
AcDbCircle
 10
169.2072198276
 20
152.1579741379
 30
0.0
 40
3.0
100
AcDbArc
 50
180.0
 51
270.0
  0
LINE
  5
89
330
1F
100
AcDbEntity
  8
0
  6
Continuous
 62
     7
370
    15
100
AcDbLine
 10
244.6713242262
 20
149.1579741379
 30
0.0
 11
169.2072198276
 21
149.1579741379
 31
0.0
  0
LINE
  5
8A
330
1F
100
AcDbEntity
  8
0
  6
Continuous
 62
     7
370
    15
100
AcDbLine
 10
265.7072198276
 20
149.1579741379
 30
0.0
 11
259.6543431523
 21
149.1579741379
 31
0.0
  0
LINE
  5
8B
330
1F
100
AcDbEntity
  8
0
  6
Continuous
 62
     7
370
    15
100
AcDbLine
 10
169.2072198276
 20
99.1579741379
 30
0.0
 11
265.7072198276
 21
99.1579741379
 31
0.0
  0
LINE
  5
8C
330
1F
100
AcDbEntity
  8
0
  6
Continuous
 62
     7
370
    15
100
AcDbLine
 10
265.7072198276
 20
99.1579741379
 30
0.0
 11
266.2072198276
 21
99.6579741379
 31
0.0
  0
LINE
  5
8D
330
1F
100
AcDbEntity
  8
0
  6
Continuous
 62
     7
370
    15
100
AcDbLine
 10
266.2072198276
 20
148.6579741379
 30
0.0
 11
265.7072198276
 21
149.1579741379
 31
0.0
  0
ARC
  5
8E
330
1F
100
AcDbEntity
  8
0
  6
Continuous
 62
     7
370
    15
100
AcDbCircle
 10
28.4072198276
 20
105.8082962772
 30
0.0
 40
2.000000000000007
100
AcDbArc
 50
180.0
 51
261.7028550302
  0
ARC
  5
8F
330
1F
100
AcDbEntity
  8
0
  6
Continuous
 62
     7
370
    15
100
AcDbCircle
 10
28.4072198276
 20
142.5076519987
 30
0.0
 40
2.000000000000021
100
AcDbArc
 50
98.2971449698
 51
180.0
  0
LINE
  5
90
330
1F
100
AcDbEntity
  8
0
  6
Continuous
 62
     7
370
    15
100
AcDbLine
 10
257.8300341727
 20
148.7851597928
 30
0.0
 11
257.4572198276
 21
149.1579741379
 31
0.0
  0
LINE
  5
91
330
1F
100
AcDbEntity
  8
0
  6
Continuous
 62
     7
370
    15
100
AcDbLine
 10
246.8572198276
 20
149.1579741379
 30
0.0
 11
246.1572198276
 21
148.4579741379
 31
0.0
  0
SPLINE
  5
92
330
1F
100
AcDbEntity
  8
0
  6
Continuous
 62
     7
370
    15
100
AcDbSpline
210
0.0
220
0.0
230
1.0
 70
     8
 71
     3
 72
    12
 73
     8
 74
     0
 42
0.000000001
 43
0.00000001
 40
0.0
 40
0.0
 40
0.0
 40
0.0
 40
0.4999999999999992
 40
0.4999999999999992
 40
0.7499999999999996
 40
0.7499999999999996
 40
1.0
 40
1.0
 40
1.0
 40
1.0
 10
158.2914994924296
 20
172.364021089632
 30
0.0
 10
157.7526027973321
 20
171.3063212721309
 30
0.0
 10
157.1902719866124
 20
170.2039528371723
 30
0.0
 10
156.321605744022
 20
168.5039882308096
 30
0.0
 10
156.0272770216794
 20
167.9284698153709
 30
0.0
 10
155.4337460227117
 20
166.7690411469124
 30
0.0
 10
155.1345197645932
 20
166.1850814778311
 30
0.0
 10
154.8330329163398
 20
165.5973715172423
 30
0.0
  0
SPLINE
  5
93
330
1F
100
AcDbEntity
  8
0
  6
Continuous
 62
     7
370
    15
100
AcDbSpline
210
0.0
220
0.0
230
1.0
 70
     8
 71
     3
 72
     9
 73
     5
 74
     0
 42
0.000000001
 43
0.00000001
 40
0.0
 40
0.0
 40
0.0
 40
0.0
 40
0.5047943291262357
 40
1.0
 40
1.0
 40
1.0
 40
1.0
 10
158.9321962329983
 20
173.3180793880184
 30
0.0
 10
158.8238137987718
 20
173.1572378271392
 30
0.0
 10
158.6091076739744
 20
172.8386099194969
 30
0.0
 10
158.3966802451552
 20
172.5212356928936
 30
0.0
 10
158.2914849777549
 20
172.3640701760904
 30
0.0
  0
LINE
  5
94
330
1F
100
AcDbEntity
  8
0
  6
Continuous
 62
     7
370
    15
100
AcDbLine
 10
158.9322198276
 20
74.9978128526
 30
0.0
 11
158.9322198276
 21
173.3181354232
 31
0.0
  0
SPLINE
  5
95
330
1F
100
AcDbEntity
  8
0
  6
Continuous
 62
     7
370
    15
100
AcDbSpline
210
0.0
220
0.0
230
1.0
 70
     8
 71
     3
 72
     9
 73
     5
 74
     0
 42
0.000000001
 43
0.00000001
 40
0.0
 40
0.0
 40
0.0
 40
0.0
 40
0.4952056703152484
 40
1.0
 40
1.0
 40
1.0
 40
1.0
 10
158.2914849777549
 20
75.95187809977163
 30
0.0
 10
158.3966802450353
 20
75.79471258314818
 30
0.0
 10
158.609107673852
 20
75.47733835654977
 30
0.0
 10
158.8238137986511
 20
75.158710448903
 30
0.0
 10
158.9321962329983
 20
74.99786888784358
 30
0.0
  0
SPLINE
  5
96
330
1F
100
AcDbEntity
  8
0
  6
Continuous
 62
     7
370
    15
100
AcDbSpline
210
0.0
220
0.0
230
1.0
 70
     8
 71
     3
 72
    12
 73
     8
 74
     0
 42
0.000000001
 43
0.00000001
 40
0.0
 40
0.0
 40
0.0
 40
0.0
 40
0.2499999999999993
 40
0.2499999999999993
 40
0.4999999999999986
 40
0.4999999999999986
 40
1.0
 40
1.0
 40
1.0
 40
1.0
 10
158.2914994601907
 20
75.9519272495058
 30
0.0
 10
158.0221619388219
 20
76.48055963819044
 30
0.0
 10
157.7463918214278
 20
77.02148429213715
 30
0.0
 10
157.1841315348221
 20
78.1235410465002
 30
0.0
 10
156.8970461614173
 20
78.68583788573702
 30
0.0
 10
156.026619720698
 20
80.389233121057
 30
0.0
 10
155.4346097245287
 20
81.5458798921391
 30
0.0
 10
154.8330329163398
 20
82.71857675861973
 30
0.0
  0
SPLINE
  5
97
330
1F
100
AcDbEntity
  8
0
  6
Continuous
 62
     7
370
    15
100
AcDbSpline
210
0.0
220
0.0
230
1.0
 70
     8
 71
     3
 72
    12
 73
     8
 74
     0
 42
0.000000001
 43
0.00000001
 40
0.0
 40
0.0
 40
0.0
 40
0.0
 40
0.0005125153354919
 40
0.2509311781591491
 40
0.5009716914396624
 40
0.7506335204375856
 40
1.0
 40
1.0
 40
1.0
 40
1.0
 10
162.206785646656
 20
174.1578490957474
 30
0.0
 10
162.2069301033429
 20
174.1578907690647
 30
0.0
 10
162.277657131633
 20
174.1782943236522
 30
0.0
 10
162.0343935713567
 20
174.1066826922656
 30
0.0
 10
161.4288689571515
 20
173.9383294837937
 30
0.0
 10
160.4037052727354
 20
173.6609958933381
 30
0.0
 10
159.4225214055107
 20
173.4323771440146
 30
0.0
 10
158.9322198282732
 20
173.3181354232488
 30
0.0
  0
SPLINE
  5
98
330
1F
100
AcDbEntity
  8
0
  6
Continuous
 62
     7
370
    15
100
AcDbSpline
210
0.0
220
0.0
230
1.0
 70
     8
 71
     3
 72
    13
 73
     9
 74
     0
 42
0.000000001
 43
0.00000001
 40
0.0
 40
0.0
 40
0.0
 40
0.0
 40
0.2492492380460214
 40
0.4988437701385547
 40
0.6658825660855477
 40
0.832025671123022
 40
0.9994886337290263
 40
1.0
 40
1.0
 40
1.0
 40
1.0
 10
158.9322198282732
 20
74.9978128526132
 30
0.0
 10
159.4234045516968
 20
74.88332532892117
 30
0.0
 10
160.4064544546291
 20
74.65419167780117
 30
0.0
 10
161.305497879448
 20
74.4109819266528
 30
0.0
 10
161.8638227801287
 20
74.25704471926788
 30
0.0
 10
162.1294940048368
 20
74.18079116041923
 30
0.0
 10
162.238388250856
 20
74.14887697609248
 30
0.0
 10
162.2070280710352
 20
74.15802989003828
 30
0.0
 10
162.2069326008623
 20
74.15805775436435
 30
0.0
  0
LINE
  5
99
330
1F
100
AcDbEntity
  8
0
  6
Continuous
 62
     7
370
    15
100
AcDbLine
 10
131.2072198276
 20
77.156085878
 30
0.0
 11
131.2072198276
 21
171.1598623979
 31
0.0
  0
SPLINE
  5
9A
330
1F
100
AcDbEntity
  8
0
  6
Continuous
 62
     7
370
    15
100
AcDbSpline
210
0.0
220
0.0
230
1.0
 70
     8
 71
     3
 72
    12
 73
     8
 74
     0
 42
0.000000001
 43
0.00000001
 40
0.0
 40
0.0
 40
0.0
 40
0.0
 40
0.2500000000000001
 40
0.2500000000000001
 40
0.5000000000000002
 40
0.5000000000000002
 40
1.0
 40
1.0
 40
1.0
 40
1.0
 10
131.5933562476359
 20
172.0924078718023
 30
0.0
 10
131.5417261255261
 20
172.0362036010876
 30
0.0
 10
131.4931938925357
 20
171.9749141905672
 30
0.0
 10
131.4033687555778
 20
171.8404521165225
 30
0.0
 10
131.3616584823654
 20
171.7663330462797
 30
0.0
 10
131.2555271022032
 20
171.5300254011112
 30
0.0
 10
131.2072198275862
 20
171.3482018584613
 30
0.0
 10
131.2072198275862
 20
171.1598623978722
 30
0.0
  0
SPLINE
  5
9B
330
1F
100
AcDbEntity
  8
0
  6
Continuous
 62
     7
370
    15
100
AcDbSpline
210
0.0
220
0.0
230
1.0
 70
     8
 71
     3
 72
     8
 73
     4
 74
     0
 42
0.000000001
 43
0.00000001
 40
0.0
 40
0.0
 40
0.0
 40
0.0
 40
1.0
 40
1.0
 40
1.0
 40
1.0
 10
132.2072198275862
 20
172.2630656333954
 30
0.0
 10
131.9803255838864
 20
172.2630656333954
 30
0.0
 10
131.76247593796
 20
172.1990534664266
 30
0.0
 10
131.5933562476359
 20
172.0924078718023
 30
0.0
  0
SPLINE
  5
9C
330
1F
100
AcDbEntity
  8
0
  6
Continuous
 62
     7
370
    15
100
AcDbSpline
210
0.0
220
0.0
230
1.0
 70
     8
 71
     3
 72
    10
 73
     6
 74
     0
 42
0.000000001
 43
0.00000001
 40
0.0
 40
0.0
 40
0.0
 40
0.0
 40
0.5
 40
0.5
 40
1.0
 40
1.0
 40
1.0
 40
1.0
 10
131.5933562476359
 20
76.22354040405976
 30
0.0
 10
131.6779668883666
 20
76.17018557544708
 30
0.0
 10
131.7732015104732
 20
76.12761611349687
 30
0.0
 10
131.9832388696531
 20
76.06833377881591
 30
0.0
 10
132.0936707744372
 20
76.05288264246666
 30
0.0
 10
132.2072198275862
 20
76.05288264246666
 30
0.0
  0
SPLINE
  5
9D
330
1F
100
AcDbEntity
  8
0
  6
Continuous
 62
     7
370
    15
100
AcDbSpline
210
0.0
220
0.0
230
1.0
 70
     8
 71
     3
 72
    12
 73
     8
 74
     0
 42
0.000000001
 43
0.00000001
 40
0.0
 40
0.0
 40
0.0
 40
0.0
 40
0.2500000000000039
 40
0.2500000000000039
 40
0.5000000000000079
 40
0.5000000000000079
 40
1.0
 40
1.0
 40
1.0
 40
1.0
 10
131.5933562476359
 20
76.22354040405976
 30
0.0
 10
131.5417261255261
 20
76.2797446747744
 30
0.0
 10
131.4931938925357
 20
76.34103408529481
 30
0.0
 10
131.4033687555778
 20
76.47549615933951
 30
0.0
 10
131.3616584823654
 20
76.54961522958234
 30
0.0
 10
131.2555271022032
 20
76.7859228747508
 30
0.0
 10
131.2072198275862
 20
76.96774641740069
 30
0.0
 10
131.2072198275862
 20
77.15608587798981
 30
0.0
  0
LINE
  5
9E
330
1F
100
AcDbEntity
  8
0
  6
Continuous
 62
     7
370
    15
100
AcDbLine
 10
166.2072198276
 20
75.1579741379
 30
0.0
 11
166.2072198276
 21
173.1579741207
 31
0.0
  0
LINE
  5
9F
330
1F
100
AcDbEntity
  8
0
  6
Continuous
 62
     7
370
    15
100
AcDbLine
 10
143.8822198276
 20
172.2630656334
 30
0.0
 11
132.2072198276
 21
172.2630656334
 31
0.0
  0
LINE
  5
A0
330
1F
100
AcDbEntity
  8
0
  6
Continuous
 62
     7
370
    15
100
AcDbLine
 10
143.8822198276
 20
76.0528826425
 30
0.0
 11
143.8822198276
 21
172.2630656334
 31
0.0
  0
LINE
  5
A1
330
1F
100
AcDbEntity
  8
0
  6
Continuous
 62
     7
370
    15
100
AcDbLine
 10
132.2072198276
 20
76.0528826425
 30
0.0
 11
143.8822198276
 21
76.0528826425
 31
0.0
  0
SPLINE
  5
A2
330
1F
100
AcDbEntity
  8
0
  6
Continuous
 62
     7
370
    15
100
AcDbSpline
210
0.0
220
0.0
230
1.0
 70
     8
 71
     3
 72
     8
 73
     4
 74
     0
 42
0.000000001
 43
0.00000001
 40
0.0
 40
0.0
 40
0.0
 40
0.0
 40
0.0012417047560385
 40
0.0012417047560385
 40
0.0012417047560385
 40
0.0012417047560385
 10
144.4397888641139
 20
171.478544291852
 30
0.0
 10
144.2544003128195
 20
171.7402173774006
 30
0.0
 10
144.0685340672115
 20
172.0017214862781
 30
0.0
 10
143.8822198275862
 20
172.2630656333954
 30
0.0
  0
SPLINE
  5
A3
330
1F
100
AcDbEntity
  8
0
  6
Continuous
 62
     7
370
    15
100
AcDbSpline
210
0.0
220
0.0
230
1.0
 70
     8
 71
     3
 72
     8
 73
     4
 74
     0
 42
0.000000001
 43
0.00000001
 40
0.0
 40
0.0
 40
0.0
 40
0.0
 40
1.0
 40
1.0
 40
1.0
 40
1.0
 10
147.9814067388325
 20
165.088250218114
 30
0.0
 10
146.8064192629296
 20
167.2213269730499
 30
0.0
 10
145.6251727288332
 20
169.3510455389261
 30
0.0
 10
144.4397888641139
 20
171.478544291852
 30
0.0
  0
SPLINE
  5
A4
330
1F
100
AcDbEntity
  8
0
  6
Continuous
 62
     7
370
    15
100
AcDbSpline
210
0.0
220
0.0
230
1.0
 70
     8
 71
     3
 72
     8
 73
     4
 74
     0
 42
0.000000001
 43
0.00000001
 40
0.0
 40
0.0
 40
0.0
 40
0.0
 40
1.0
 40
1.0
 40
1.0
 40
1.0
 10
147.9814067388325
 20
83.22769805774801
 30
0.0
 10
146.8063699410056
 20
81.09453176360269
 30
0.0
 10
145.6251227335666
 20
78.96481300662101
 30
0.0
 10
144.4397888641139
 20
76.83740398401007
 30
0.0
  0
SPLINE
  5
A5
330
1F
100
AcDbEntity
  8
0
  6
Continuous
 62
     7
370
    15
100
AcDbSpline
210
0.0
220
0.0
230
1.0
 70
     8
 71
     3
 72
     8
 73
     4
 74
     0
 42
0.000000001
 43
0.00000001
 40
0.0
 40
0.0
 40
0.0
 40
0.0
 40
0.0012417047560385
 40
0.0012417047560385
 40
0.0012417047560385
 40
0.0012417047560385
 10
143.8822198275862
 20
76.05288264246666
 30
0.0
 10
144.0685340672116
 20
76.3142267895839
 30
0.0
 10
144.2544003128195
 20
76.5757308984615
 30
0.0
 10
144.4397888641139
 20
76.83740398401007
 30
0.0
  0
SPLINE
  5
A6
330
1F
100
AcDbEntity
  8
0
  6
Continuous
 62
     7
370
    15
100
AcDbSpline
210
0.0
220
0.0
230
1.0
 70
     8
 71
     3
 72
    12
 73
     8
 74
     0
 42
0.000000001
 43
0.00000001
 40
0.0
 40
0.0
 40
0.0
 40
0.0
 40
0.2500000000000049
 40
0.2500000000000049
 40
0.5000000000000098
 40
0.5000000000000098
 40
1.0
 40
1.0
 40
1.0
 40
1.0
 10
154.8330329163398
 20
165.5973715172423
 30
0.0
 10
154.7968124949529
 20
165.5267644491425
 30
0.0
 10
154.753886820305
 20
165.4630298578168
 30
0.0
 10
154.6563602370461
 20
165.3472556815683
 30
0.0
 10
154.6009287174293
 20
165.2947078375568
 30
0.0
 10
154.4224408145252
 20
165.1605592343425
 30
0.0
 10
154.2856039858774
 20
165.1000371322786
 30
0.0
 10
154.140212593313
 20
165.0794905483502
 30
0.0
  0
SPLINE
  5
A7
330
1F
100
AcDbEntity
  8
0
  6
Continuous
 62
     7
370
    15
100
AcDbSpline
210
0.0
220
0.0
230
1.0
 70
     8
 71
     3
 72
    12
 73
     8
 74
     0
 42
0.000000001
 43
0.00000001
 40
0.0
 40
0.0
 40
0.0
 40
0.0
 40
0.249999999999999
 40
0.249999999999999
 40
0.499999999999998
 40
0.499999999999998
 40
1.0
 40
1.0
 40
1.0
 40
1.0
 10
154.8330329163398
 20
82.7185767586197
 30
0.0
 10
154.7968124949529
 20
82.78918382671965
 30
0.0
 10
154.753886820305
 20
82.85291841804536
 30
0.0
 10
154.656360237046
 20
82.96869259429378
 30
0.0
 10
154.6009287174293
 20
83.02124043830521
 30
0.0
 10
154.4224408145251
 20
83.15538904151958
 30
0.0
 10
154.2856039858774
 20
83.2159111435834
 30
0.0
 10
154.140212593313
 20
83.2364577275118
 30
0.0
  0
SPLINE
  5
A8
330
1F
100
AcDbEntity
  8
0
  6
Continuous
 62
     7
370
    15
100
AcDbSpline
210
0.0
220
0.0
230
1.0
 70
     8
 71
     3
 72
    10
 73
     6
 74
     0
 42
0.000000001
 43
0.00000001
 40
0.0
 40
0.0
 40
0.0
 40
0.0
 40
0.5
 40
0.5
 40
1.0
 40
1.0
 40
1.0
 40
1.0
 10
148.3572198275861
 20
83.57844292378185
 30
0.0
 10
148.2782197593349
 20
83.54267868917397
 30
0.0
 10
148.2044625090583
 20
83.49318908561452
 30
0.0
 10
148.0764073859251
 20
83.37290059411157
 30
0.0
 10
148.0235573515134
 20
83.30421844112223
 30
0.0
 10
147.9814067388325
 20
83.22769805774801
 30
0.0
  0
SPLINE
  5
A9
330
1F
100
AcDbEntity
  8
0
  6
Continuous
 62
     7
370
    15
100
AcDbSpline
210
0.0
220
0.0
230
1.0
 70
     8
 71
     3
 72
    10
 73
     6
 74
     0
 42
0.000000001
 43
0.00000001
 40
0.0
 40
0.0
 40
0.0
 40
0.0
 40
0.5
 40
0.5
 40
1.0
 40
1.0
 40
1.0
 40
1.0
 10
148.3572198275862
 20
164.7375053520801
 30
0.0
 10
148.2779333799034
 20
164.7733992339327
 30
0.0
 10
148.2044211607828
 20
164.8229009437836
 30
0.0
 10
148.0774687079122
 20
164.9419486404522
 30
0.0
 10
148.0234028591755
 20
165.0120103007205
 30
0.0
 10
147.9814067388325
 20
165.088250218114
 30
0.0
  0
SPLINE
  5
AA
330
1F
100
AcDbEntity
  8
0
  6
Continuous
 62
     7
370
    15
100
AcDbSpline
210
0.0
220
0.0
230
1.0
 70
     8
 71
     3
 72
     8
 73
     4
 74
     0
 42
0.000000001
 43
0.00000001
 40
0.0
 40
0.0
 40
0.0
 40
0.0
 40
1.0
 40
1.0
 40
1.0
 40
1.0
 10
148.67422706186
 20
164.6700463335937
 30
0.0
 10
148.5645252765584
 20
164.6691879163943
 30
0.0
 10
148.4571782555739
 20
164.6922530282691
 30
0.0
 10
148.3572198275861
 20
164.73750535208
 30
0.0
  0
SPLINE
  5
AB
330
1F
100
AcDbEntity
  8
0
  6
Continuous
 62
     7
370
    15
100
AcDbSpline
210
0.0
220
0.0
230
1.0
 70
     8
 71
     3
 72
     8
 73
     4
 74
     0
 42
0.000000001
 43
0.00000001
 40
0.0
 40
0.0
 40
0.0
 40
0.0
 40
1.0
 40
1.0
 40
1.0
 40
1.0
 10
148.67422706186
 20
83.64590194226837
 30
0.0
 10
148.5645252765584
 20
83.6467603594677
 30
0.0
 10
148.4571782555738
 20
83.62369524759292
 30
0.0
 10
148.3572198275861
 20
83.57844292378199
 30
0.0
  0
SPLINE
  5
AC
330
1F
100
AcDbEntity
  8
0
  6
Continuous
 62
     7
370
    15
100
AcDbSpline
210
0.0
220
0.0
230
1.0
 70
    11
 71
     3
 72
    66
 73
    62
 74
     0
 42
0.000000001
 43
0.00000001
 40
0.0
 40
0.0
 40
0.0
 40
0.0
 40
0.0312499999999999
 40
0.0312499999999999
 40
0.0624999999999999
 40
0.0624999999999999
 40
0.0937499999999998
 40
0.0937499999999998
 40
0.1249999999999997
 40
0.1249999999999997
 40
0.1562499999999997
 40
0.1562499999999997
 40
0.1874999999999996
 40
0.1874999999999996
 40
0.2187499999999995
 40
0.2187499999999995
 40
0.2499999999999994
 40
0.2499999999999994
 40
0.2812499999999994
 40
0.2812499999999994
 40
0.3124999999999993
 40
0.3124999999999993
 40
0.3437499999999992
 40
0.3437499999999992
 40
0.3749999999999992
 40
0.3749999999999992
 40
0.4062499999999991
 40
0.4062499999999991
 40
0.437499999999999
 40
0.437499999999999
 40
0.4687499999999989
 40
0.4687499999999989
 40
0.4999999999999989
 40
0.4999999999999989
 40
0.5312499999999988
 40
0.5312499999999988
 40
0.5624999999999988
 40
0.5624999999999988
 40
0.6249999999999987
 40
0.6249999999999987
 40
0.6562499999999988
 40
0.6562499999999988
 40
0.6874999999999989
 40
0.6874999999999989
 40
0.7187499999999991
 40
0.7187499999999991
 40
0.7499999999999992
 40
0.7499999999999992
 40
0.7812499999999993
 40
0.7812499999999993
 40
0.8124999999999996
 40
0.8124999999999996
 40
0.8437499999999997
 40
0.8437499999999997
 40
0.8749999999999998
 40
0.8749999999999998
 40
0.90625
 40
0.90625
 40
0.9375000000000001
 40
0.9375000000000001
 40
1.0
 40
1.0
 40
1.0
 40
1.0
 10
151.4072198275861
 20
107.2980568270877
 30
0.0
 10
151.5724201182501
 20
107.2980568270877
 30
0.0
 10
151.7348526595466
 20
107.3129628564455
 30
0.0
 10
152.0544108151366
 20
107.371398035188
 30
0.0
 10
152.2131941531136
 20
107.4156390875637
 30
0.0
 10
152.515932169593
 20
107.5312306329862
 30
0.0
 10
152.6595113347273
 20
107.6020066032049
 30
0.0
 10
152.9312410645954
 20
107.7694451351175
 30
0.0
 10
153.0598696281331
 20
107.8669844074381
 30
0.0
 10
153.2904353898003
 20
108.0804027676396
 30
0.0
 10
153.3939093910496
 20
108.1970174196657
 30
0.0
 10
153.5766699289755
 20
108.4507427836854
 30
0.0
 10
153.654314185204
 20
108.5860356427542
 30
0.0
 10
153.7790068358941
 20
108.8663819981458
 30
0.0
 10
153.8270108164726
 20
109.0135028739818
 30
0.0
 10
153.8912425587909
 20
109.3154929783591
 30
0.0
 10
153.907132002833
 20
109.4676167459283
 30
0.0
 10
153.9073069331882
 20
109.7740993887545
 30
0.0
 10
153.8910762818533
 20
109.9300853098202
 30
0.0
 10
153.8272950591437
 20
110.2326647787896
 30
0.0
 10
153.7801029477475
 20
110.3800432901817
 30
0.0
 10
153.6549363300895
 20
110.6668319955595
 30
0.0
 10
153.5766768427145
 20
110.8057890970974
 30
0.0
 10
153.3957566593591
 20
111.0633827573654
 30
0.0
 10
153.2924714304353
 20
111.1836753010664
 30
0.0
 10
153.0592196883865
 20
111.406396118713
 30
0.0
 10
152.932805820121
 20
111.5053740227049
 30
0.0
 10
152.6621335494263
 20
111.6785908773141
 30
0.0
 10
152.516051777262
 20
111.7535719147908
 30
0.0
 10
152.2131673317892
 20
111.8739000848866
 30
0.0
 10
152.0573369721495
 20
111.9192837723758
 30
0.0
 10
151.736991482884
 20
111.9807100327968
 30
0.0
 10
151.5712813969124
 20
111.9964636543165
 30
0.0
 10
151.2449500082159
 20
111.996575899572
 30
0.0
 10
151.0827629223889
 20
111.981443669666
 30
0.0
 10
150.7603873411803
 20
111.9201915564855
 30
0.0
 10
150.6023718671428
 20
111.8741848131103
 30
0.0
 10
150.1509609920673
 20
111.6953040838683
 30
0.0
 10
149.8718815350151
 20
111.5171519765694
 30
0.0
 10
149.5258078305167
 20
111.1876555602824
 30
0.0
 10
149.4201658146021
 20
111.0652827204423
 30
0.0
 10
149.2383823386313
 20
110.8068800163278
 30
0.0
 10
149.1614945152473
 20
110.6706484507795
 30
0.0
 10
149.035839957877
 20
110.3842129888934
 30
0.0
 10
148.9875318819624
 20
110.2339059043179
 30
0.0
 10
148.923713996522
 20
109.9323379742333
 30
0.0
 10
148.9073858194791
 20
109.7794719117688
 30
0.0
 10
148.9070563294195
 20
109.4694567950253
 30
0.0
 10
148.9231528412541
 20
109.3165877946727
 30
0.0
 10
148.9863815785153
 20
109.0175550288978
 30
0.0
 10
149.0342181719259
 20
108.869489432475
 30
0.0
 10
149.1595614898393
 20
108.5869323943295
 30
0.0
 10
149.2362581643645
 20
108.4533160622058
 30
0.0
 10
149.4173095310163
 20
108.2010261922736
 30
0.0
 10
149.5227851413772
 20
108.0816828832057
 30
0.0
 10
149.7533117100534
 20
107.8679991037209
 30
0.0
 10
149.8790311476837
 20
107.7723391290611
 30
0.0
 10
150.1517979968805
 20
107.6036180600573
 30
0.0
 10
150.2975173732866
 20
107.5317508514041
 30
0.0
 10
150.7485864783946
 20
107.3590997741356
 30
0.0
 10
151.0768192462584
 20
107.2980568270877
 30
0.0
 10
151.4072198275861
 20
107.2980568270877
 30
0.0
  0
SPLINE
  5
AD
330
1F
100
AcDbEntity
  8
0
  6
Continuous
 62
     7
370
    15
100
AcDbSpline
210
0.0
220
0.0
230
1.0
 70
     8
 71
     3
 72
    10
 73
     6
 74
     0
 42
0.000000001
 43
0.00000001
 40
0.0
 40
0.0
 40
0.0
 40
0.0
 40
0.5
 40
0.5
 40
1.0
 40
1.0
 40
1.0
 40
1.0
 10
154.1402125933123
 20
165.079490548353
 30
0.0
 10
153.292648226544
 20
164.959713496292
 30
0.0
 10
152.4119347908221
 20
164.8610233166282
 30
0.0
 10
150.5843785396065
 20
164.7197509103911
 30
0.0
 10
149.6309461365053
 20
164.6775326667135
 30
0.0
 10
148.67422706186
 20
164.6700463335937
 30
0.0
  0
SPLINE
  5
AE
330
1F
100
AcDbEntity
  8
0
  6
Continuous
 62
     7
370
    15
100
AcDbSpline
210
0.0
220
0.0
230
1.0
 70
     8
 71
     3
 72
    10
 73
     6
 74
     0
 42
0.000000001
 43
0.00000001
 40
0.0
 40
0.0
 40
0.0
 40
0.0
 40
0.5
 40
0.5
 40
1.0
 40
1.0
 40
1.0
 40
1.0
 10
154.1402125933123
 20
83.23645772750898
 30
0.0
 10
153.292648226544
 20
83.35623477957002
 30
0.0
 10
152.4119347908221
 20
83.45492495923385
 30
0.0
 10
150.5843785396065
 20
83.59619736547097
 30
0.0
 10
149.6309461365053
 20
83.63841560914857
 30
0.0
 10
148.67422706186
 20
83.64590194226838
 30
0.0
  0
LINE
  5
AF
330
1F
100
AcDbEntity
  8
0
  6
Continuous
 62
     7
370
    15
100
AcDbLine
 10
128.2072198276
 20
89.2329741379
 30
0.0
 11
128.2072198276
 21
159.0829741379
 31
0.0
  0
SPLINE
  5
B0
330
1F
100
AcDbEntity
  8
0
  6
Continuous
 62
     7
370
    15
100
AcDbSpline
210
0.0
220
0.0
230
1.0
 70
     8
 71
     3
 72
    44
 73
    40
 74
     0
 42
0.000000001
 43
0.00000001
 40
0.0
 40
0.0
 40
0.0
 40
0.0
 40
0.0157006727697502
 40
0.0442386172252813
 40
0.0732111122508576
 40
0.1145252764896998
 40
0.1453185873047752
 40
0.1891387354424364
 40
0.2238745290148449
 40
0.2378692659173626
 40
0.2733496696996718
 40
0.3083101151067445
 40
0.3318106828642894
 40
0.3677082700165732
 40
0.4047292429216327
 40
0.4171837382003625
 40
0.4296382338898121
 40
0.4550238331413947
 40
0.4677665282011725
 40
0.5051000768817077
 40
0.5304002877442918
 40
0.5560790810531072
 40
0.5689841382701237
 40
0.605814484469335
 40
0.6306245428956804
 40
0.656014131752358
 40
0.6687763448873236
 40
0.7026494603754738
 40
0.7255010646968926
 40
0.7607577948850007
 40
0.789814914886208
 40
0.8094040247520362
 40
0.8395469266587423
 40
0.8686926879363993
 40
0.9103149974874781
 40
0.9400939634354643
 40
0.9824912558070072
 40
0.9952651457022192
 40
1.0
 40
1.0
 40
1.0
 40
1.0
 10
259.6543431523006
 20
149.1573108155775
 30
0.0
 10
259.6523478800302
 20
149.1568499996564
 30
0.0
 10
259.6467259498413
 20
149.1555515929292
 30
0.0
 10
259.548376724549
 20
149.132905701513
 30
0.0
 10
259.3095966309547
 20
149.0789934489786
 30
0.0
 10
258.9271258667017
 20
148.9957629281659
 30
0.0
 10
258.3529937899155
 20
148.8790621524443
 30
0.0
 10
257.6933560367357
 20
148.756221413564
 30
0.0
 10
257.0515423300378
 20
148.6517484001748
 30
0.0
 10
256.428963481081
 20
148.5607417336264
 30
0.0
 10
255.7675072310005
 20
148.4751104599472
 30
0.0
 10
254.9861290455521
 20
148.3949365996453
 30
0.0
 10
254.1734441179049
 20
148.3309898452495
 30
0.0
 10
253.3198744340339
 20
148.2850285285765
 30
0.0
 10
252.5504006098393
 20
148.2681109468182
 30
0.0
 10
251.9917546817111
 20
148.2680619299777
 30
0.0
 10
251.5384401845739
 20
148.27298694297
 30
0.0
 10
251.0840513994965
 20
148.2855087003472
 30
0.0
 10
250.4129590662629
 20
148.3150797745366
 30
0.0
 10
249.7524476746137
 20
148.3585661529009
 30
0.0
 10
249.0054021698849
 20
148.4269441603528
 30
0.0
 10
248.4841473487503
 20
148.485130577546
 30
0.0
 10
247.8903553089752
 20
148.5598566447593
 30
0.0
 10
247.332034270665
 20
148.6404146216766
 30
0.0
 10
246.734384937608
 20
148.738400766565
 30
0.0
 10
246.3378409636094
 20
148.8092828776738
 30
0.0
 10
245.9202327862283
 20
148.8880019130342
 30
0.0
 10
245.5615213523409
 20
148.9599481158589
 30
0.0
 10
245.1711250552121
 20
149.0424866653876
 30
0.0
 10
244.8896436734898
 20
149.1048231596662
 30
0.0
 10
244.7248028388852
 20
149.1424017732916
 30
0.0
 10
244.6494573442867
 20
149.1597606136318
 30
0.0
 10
244.6570177722862
 20
149.1580132407275
 30
0.0
 10
244.79275414649
 20
149.126768651097
 30
0.0
 10
245.0735333944149
 20
149.0636718035878
 30
0.0
 10
245.5360087361724
 20
148.9645983413167
 30
0.0
 10
245.9873942881693
 20
148.8751840568593
 30
0.0
 10
246.3385401599936
 20
148.8091213586044
 30
0.0
 10
246.4525221278355
 20
148.7894264150881
 30
0.0
 10
246.4833460409818
 20
148.7841003513268
 30
0.0
  0
SPLINE
  5
B1
330
1F
100
AcDbEntity
  8
0
  6
Continuous
 62
     7
370
    15
100
AcDbSpline
210
0.0
220
0.0
230
1.0
 70
    11
 71
     3
 72
    96
 73
    92
 74
     0
 42
0.000000001
 43
0.00000001
 40
0.0
 40
0.0
 40
0.0
 40
0.0
 40
0.0312499999999988
 40
0.0312499999999988
 40
0.0468749999999978
 40
0.0468749999999978
 40
0.0624999999999968
 40
0.0624999999999968
 40
0.0937499999999948
 40
0.0937499999999948
 40
0.1093749999999938
 40
0.1093749999999938
 40
0.1249999999999928
 40
0.1249999999999928
 40
0.1562499999999926
 40
0.1562499999999926
 40
0.1718749999999935
 40
0.1718749999999935
 40
0.1874999999999943
 40
0.1874999999999943
 40
0.218749999999996
 40
0.218749999999996
 40
0.2343749999999968
 40
0.2343749999999968
 40
0.2499999999999977
 40
0.2499999999999977
 40
0.2812499999999979
 40
0.2812499999999979
 40
0.296874999999998
 40
0.296874999999998
 40
0.3124999999999981
 40
0.3124999999999981
 40
0.3437499999999983
 40
0.3437499999999983
 40
0.3593749999999984
 40
0.3593749999999984
 40
0.3749999999999986
 40
0.3749999999999986
 40
0.3906249999999987
 40
0.3906249999999987
 40
0.4062499999999989
 40
0.4062499999999989
 40
0.4374999999999996
 40
0.4374999999999996
 40
0.4531249999999995
 40
0.4531249999999995
 40
0.4687499999999994
 40
0.4687499999999994
 40
0.4999999999999981
 40
0.4999999999999981
 40
0.5312499999999969
 40
0.5312499999999969
 40
0.5468749999999962
 40
0.5468749999999962
 40
0.5624999999999957
 40
0.5624999999999957
 40
0.5937499999999962
 40
0.5937499999999962
 40
0.6249999999999967
 40
0.6249999999999967
 40
0.6562499999999972
 40
0.6562499999999972
 40
0.6874999999999977
 40
0.6874999999999977
 40
0.7187499999999982
 40
0.7187499999999982
 40
0.7499999999999987
 40
0.7499999999999987
 40
0.7656249999999989
 40
0.7656249999999989
 40
0.7812499999999991
 40
0.7812499999999991
 40
0.8124999999999991
 40
0.8124999999999991
 40
0.828124999999999
 40
0.828124999999999
 40
0.843749999999999
 40
0.843749999999999
 40
0.8749999999999992
 40
0.8749999999999992
 40
0.8906249999999993
 40
0.8906249999999993
 40
0.9062499999999993
 40
0.9062499999999993
 40
0.9218749999999994
 40
0.9218749999999994
 40
0.9374999999999996
 40
0.9374999999999996
 40
0.9687499999999998
 40
0.9687499999999998
 40
1.0
 40
1.0
 40
1.0
 40
1.0
 10
247.1559585256666
 20
129.0729446836134
 30
0.0
 10
247.5197815159695
 20
129.3608072611989
 30
0.0
 10
247.9049759724204
 20
129.6100726441741
 30
0.0
 10
248.5121739043211
 20
129.9318318268882
 30
0.0
 10
248.7195168223834
 20
130.0303157749874
 30
0.0
 10
249.1440978539734
 20
130.2098742287023
 30
0.0
 10
249.3623322262103
 20
130.2912545061536
 30
0.0
 10
250.0245984218198
 20
130.5063346764036
 30
0.0
 10
250.4734645688972
 20
130.6108060876135
 30
0.0
 10
251.1573961810439
 20
130.7118251386342
 30
0.0
 10
251.387156653813
 20
130.7361534223647
 30
0.0
 10
251.8503066936948
 20
130.7658385075159
 30
0.0
 10
252.084625393885
 20
130.7711176227243
 30
0.0
 10
252.780968817086
 20
130.757926287545
 30
0.0
 10
253.239351520459
 20
130.7111569559545
 30
0.0
 10
253.9183202231483
 20
130.5848460271708
 30
0.0
 10
254.1432007064307
 20
130.5333254564265
 30
0.0
 10
254.5900002243827
 20
130.4108541463514
 30
0.0
 10
254.812576362993
 20
130.3395720113684
 30
0.0
 10
255.4630775753947
 20
130.1000096042819
 30
0.0
 10
255.8778287790696
 20
129.905446996163
 30
0.0
 10
256.4713854412024
 20
129.5600985490919
 30
0.0
 10
256.664445066997
 20
129.4360055130226
 30
0.0
 10
257.0405190121232
 20
129.1688305174149
 30
0.0
 10
257.2238525728496
 20
129.0253020985802
 30
0.0
 10
257.7459232364803
 20
128.5747006862941
 30
0.0
 10
258.0612644097665
 20
128.2451278279321
 30
0.0
 10
258.4826020232114
 20
127.7038862551133
 30
0.0
 10
258.6143719557478
 20
127.5156016765354
 30
0.0
 10
258.859170317328
 20
127.1219036459164
 30
0.0
 10
258.9713807312199
 20
126.9174288868611
 30
0.0
 10
259.2694507046203
 20
126.2944744051256
 30
0.0
 10
259.4204183784186
 20
125.8615968145233
 30
0.0
 10
259.5701166769612
 20
125.1837951124562
 30
0.0
 10
259.6072119230201
 20
124.9512186903861
 30
0.0
 10
259.6524783870097
 20
124.4877729232293
 30
0.0
 10
259.6609946940886
 20
124.2565273686323
 30
0.0
 10
259.6504141889984
 20
123.794970360246
 30
0.0
 10
259.6313165252997
 20
123.5646589349382
 30
0.0
 10
259.5652289610377
 20
123.1049786579106
 30
0.0
 10
259.5177641770164
 20
122.874321251778
 30
0.0
 10
259.3371055037518
 20
122.200954138445
 30
0.0
 10
259.1660804161039
 20
121.7722594944154
 30
0.0
 10
258.8381592846184
 20
121.1574791888996
 30
0.0
 10
258.7170247219973
 20
120.9579694986074
 30
0.0
 10
258.4569318892075
 20
120.576656407788
 30
0.0
 10
258.3173912654912
 20
120.3937160817643
 30
0.0
 10
257.8715534304807
 20
119.866842120539
 30
0.0
 10
257.5347603889037
 20
119.5423887558182
 30
0.0
 10
256.8141002336835
 20
118.968928786982
 30
0.0
 10
256.4292721005377
 20
118.7176211612123
 30
0.0
 10
255.816515568924
 20
118.3910792840864
 30
0.0
 10
255.6057782838454
 20
118.2905803389571
 30
0.0
 10
255.1799185362247
 20
118.109783852225
 30
0.0
 10
254.9639434852357
 20
118.0289773882508
 30
0.0
 10
254.3071193495502
 20
117.814385382636
 30
0.0
 10
253.8574432084476
 20
117.7081900882496
 30
0.0
 10
252.933929533913
 20
117.5705669922557
 30
0.0
 10
252.4705788463569
 20
117.5409131726619
 30
0.0
 10
251.5480141235576
 20
117.5571189648514
 30
0.0
 10
251.0875193128302
 20
117.6028082536415
 30
0.0
 10
250.1686533336396
 20
117.7730930392712
 30
0.0
 10
249.723564578321
 20
117.8952067125691
 30
0.0
 10
248.8611683897002
 20
118.2118581458701
 30
0.0
 10
248.4430563026415
 20
118.406798820826
 30
0.0
 10
247.6399375066725
 20
118.873981299676
 30
0.0
 10
247.2660628866359
 20
119.1395727987526
 30
0.0
 10
246.7469573405247
 20
119.5870470174899
 30
0.0
 10
246.5809230548028
 20
119.7444447902083
 30
0.0
 10
246.2635630185261
 20
120.0767072136697
 30
0.0
 10
246.1115059866537
 20
120.2525217297654
 30
0.0
 10
245.6844675143407
 20
120.8019483008882
 30
0.0
 10
245.4423529353651
 20
121.1912645260698
 30
0.0
 10
245.1453804814754
 20
121.8115273540424
 30
0.0
 10
245.05750657869
 20
122.024374096266
 30
0.0
 10
244.9055734084004
 20
122.4631825715122
 30
0.0
 10
244.841554923676
 20
122.6899914774494
 30
0.0
 10
244.6926579363829
 20
123.3700498270856
 30
0.0
 10
244.6478106776125
 20
123.8293255645706
 30
0.0
 10
244.6643540726326
 20
124.5273535636658
 30
0.0
 10
244.6842906718486
 20
124.7627088109793
 30
0.0
 10
244.7514941244687
 20
125.2233786884961
 30
0.0
 10
244.798658257921
 20
125.4501593209253
 30
0.0
 10
244.9191342116993
 20
125.8968855569339
 30
0.0
 10
244.992448480234
 20
126.1168304883232
 30
0.0
 10
245.1651318127502
 20
126.549936592988
 30
0.0
 10
245.2642133182812
 20
126.7619470364573
 30
0.0
 10
245.5922391482459
 20
127.3736532955006
 30
0.0
 10
245.8534482229865
 20
127.7540287117334
 30
0.0
 10
246.4564281095142
 20
128.4635649052084
 30
0.0
 10
246.7921355353637
 20
128.7850821060279
 30
0.0
 10
247.1559585256666
 20
129.0729446836134
 30
0.0
  0
LINE
  5
B2
330
1F
100
AcDbEntity
  8
0
  6
Continuous
 62
     7
370
    15
100
AcDbLine
 10
265.7072198276
 20
124.1579741379
 30
0.0
 11
265.7072198276
 21
99.1579741379
 31
0.0
  0
LINE
  5
B3
330
1F
100
AcDbEntity
  8
0
  6
Continuous
 62
     7
370
    15
100
AcDbLine
 10
265.7072198276
 20
149.1579741379
 30
0.0
 11
265.7072198276
 21
124.1579741379
 31
0.0
  0
LINE
  5
B4
330
1F
100
AcDbEntity
  8
0
  6
Continuous
 62
     7
370
    15
100
AcDbLine
 10
266.2072198276
 20
124.1579741379
 30
0.0
 11
266.2072198276
 21
99.6579741379
 31
0.0
  0
LINE
  5
B5
330
1F
100
AcDbEntity
  8
0
  6
Continuous
 62
     7
370
    15
100
AcDbLine
 10
266.2072198276
 20
148.6579741379
 30
0.0
 11
266.2072198276
 21
124.1579741379
 31
0.0
  0
CIRCLE
  5
B6
330
1F
100
AcDbEntity
  8
0
  6
Continuous
 62
     7
370
    15
100
AcDbCircle
 10
252.1572198276
 20
124.1579741379
 30
0.0
 40
5.500000000000014
  0
LINE
  5
B7
330
1F
100
AcDbEntity
  8
0
  6
Continuous
 62
     7
370
    15
100
AcDbLine
 10
26.4072198276
 20
105.8082962772
 30
0.0
 11
26.4072198276
 21
142.5076519987
 31
0.0
  0
SPLINE
  5
B8
330
1F
100
AcDbEntity
  8
0
  6
Continuous
 62
     7
370
    15
100
AcDbSpline
210
0.0
220
0.0
230
1.0
 70
    24
 71
     3
 72
    12
 73
     8
 74
     0
 42
0.000000001
 43
0.00000001
 40
0.0
 40
0.0
 40
0.0
 40
0.0
 40
0.2161857461389904
 40
0.4397628073511796
 40
0.5934185666353988
 40
0.7522096186329008
 40
1.0
 40
1.0
 40
1.0
 40
1.0
 10
251.6578540128115
 20
120.7300543922202
 30
0.0
 10
251.8782148692467
 20
120.8177986633217
 30
0.0
 10
252.3264706427515
 20
120.9962871514747
 30
0.0
 10
252.9854847707282
 20
121.2586963435625
 30
0.0
 10
253.5879999540599
 20
121.498608533251
 30
0.0
 10
254.2068181503618
 20
121.7450123295389
 30
0.0
 10
254.6227273369773
 20
121.910620909095
 30
0.0
 10
254.8762025021187
 20
122.0115507836992
 30
0.0
  0
SPLINE
  5
B9
330
1F
100
AcDbEntity
  8
0
  6
Continuous
 62
     7
370
    15
100
AcDbSpline
210
0.0
220
0.0
230
1.0
 70
    24
 71
     3
 72
    12
 73
     8
 74
     0
 42
0.000000001
 43
0.00000001
 40
0.0
 40
0.0
 40
0.0
 40
0.0
 40
0.2161857461389931
 40
0.4397628073511897
 40
0.5934185666353867
 40
0.7522096186328712
 40
1.0
 40
1.0
 40
1.0
 40
1.0
 10
254.8762025021187
 20
122.0115507836992
 30
0.0
 10
254.9103941625259
 20
122.2462610189225
 30
0.0
 10
254.9799464842547
 20
122.7237061502473
 30
0.0
 10
255.0822005217085
 20
123.4256337225719
 30
0.0
 10
255.1756880624265
 20
124.0673832723472
 30
0.0
 10
255.2717052134033
 20
124.7264974488125
 30
0.0
 10
255.3362385697308
 20
125.1694896598669
 30
0.0
 10
255.3755683168935
 20
125.43947052941
 30
0.0
  0
SPLINE
  5
BA
330
1F
100
AcDbEntity
  8
0
  6
Continuous
 62
     7
370
    15
100
AcDbSpline
210
0.0
220
0.0
230
1.0
 70
    24
 71
     3
 72
    11
 73
     7
 74
     0
 42
0.000000001
 43
0.00000001
 40
0.0
 40
0.0
 40
0.0
 40
0.0
 40
0.1849308168246166
 40
0.5198464202157784
 40
0.8714438233692754
 40
1.0
 40
1.0
 40
1.0
 40
1.0
 10
255.3755683168935
 20
125.43947052941
 30
0.0
 10
255.2173102399495
 20
125.5644028563166
 30
0.0
 10
254.7724417416531
 20
125.9155916090989
 30
0.0
 10
253.9420097349289
 20
126.5711524811962
 30
0.0
 10
253.1750717996445
 20
127.1765897688112
 30
0.0
 10
252.7660870875307
 20
127.4994510896381
 30
0.0
 10
252.6565856423609
 20
127.5858938836419
 30
0.0
  0
SPLINE
  5
BB
330
1F
100
AcDbEntity
  8
0
  6
Continuous
 62
     7
370
    15
100
AcDbSpline
210
0.0
220
0.0
230
1.0
 70
    24
 71
     3
 72
    12
 73
     8
 74
     0
 42
0.000000001
 43
0.00000001
 40
0.0
 40
0.0
 40
0.0
 40
0.0
 40
0.2161857461389814
 40
0.4397628073511961
 40
0.593418566635388
 40
0.7522096186328803
 40
1.0
 40
1.0
 40
1.0
 40
1.0
 10
252.6565856423609
 20
127.5858938836419
 30
0.0
 10
252.4362247859258
 20
127.4981496125404
 30
0.0
 10
251.9879690124208
 20
127.3196611243874
 30
0.0
 10
251.3289548844441
 20
127.0572519322996
 30
0.0
 10
250.7264397011125
 20
126.817339742611
 30
0.0
 10
250.1076215048106
 20
126.5709359463232
 30
0.0
 10
249.6917123181951
 20
126.4053273667671
 30
0.0
 10
249.4382371530536
 20
126.3043974921629
 30
0.0
  0
SPLINE
  5
BC
330
1F
100
AcDbEntity
  8
0
  6
Continuous
 62
     7
370
    15
100
AcDbSpline
210
0.0
220
0.0
230
1.0
 70
    24
 71
     3
 72
    12
 73
     8
 74
     0
 42
0.000000001
 43
0.00000001
 40
0.0
 40
0.0
 40
0.0
 40
0.0
 40
0.2161857461389858
 40
0.4397628073511808
 40
0.5934185666353882
 40
0.7522096186328971
 40
1.0
 40
1.0
 40
1.0
 40
1.0
 10
249.4382371530536
 20
126.3043974921629
 30
0.0
 10
249.4040454926465
 20
126.0696872569396
 30
0.0
 10
249.3344931709177
 20
125.5922421256148
 30
0.0
 10
249.2322391334638
 20
124.8903145532902
 30
0.0
 10
249.1387515927459
 20
124.2485650035148
 30
0.0
 10
249.0427344417693
 20
123.5894508270495
 30
0.0
 10
248.9782010854417
 20
123.146458615995
 30
0.0
 10
248.938871338279
 20
122.876477746452
 30
0.0
  0
SPLINE
  5
BD
330
1F
100
AcDbEntity
  8
0
  6
Continuous
 62
     7
370
    15
100
AcDbSpline
210
0.0
220
0.0
230
1.0
 70
    24
 71
     3
 72
    13
 73
     9
 74
     0
 42
0.000000001
 43
0.00000001
 40
0.0
 40
0.0
 40
0.0
 40
0.0
 40
0.1281940639112324
 40
0.3016059688761458
 40
0.480222682437457
 40
0.6449624637538036
 40
0.8155900900874756
 40
1.0
 40
1.0
 40
1.0
 40
1.0
 10
248.938871338279
 20
122.876477746452
 30
0.0
 10
249.0485030699108
 20
122.7899321015151
 30
0.0
 10
249.3064368901639
 20
122.5863136008077
 30
0.0
 10
249.7407291733244
 20
122.243473939537
 30
0.0
 10
250.2286018463657
 20
121.8583367670511
 30
0.0
 10
250.7163258556867
 20
121.4733169529008
 30
0.0
 10
251.1943041228725
 20
121.0959906370282
 30
0.0
 10
251.499389654416
 20
120.8551495621377
 30
0.0
 10
251.6578540128115
 20
120.7300543922202
 30
0.0
  0
CIRCLE
  5
BE
330
1F
100
AcDbEntity
  8
0
  6
Continuous
 62
     7
370
    15
100
AcDbCircle
 10
252.1572198276
 20
124.1579741379
 30
0.0
 40
3.600000000000022
  0
CIRCLE
  5
BF
330
1F
100
AcDbEntity
  8
0
  6
Continuous
 62
     7
370
    15
100
AcDbCircle
 10
252.1572198276
 20
124.1579741379
 30
0.0
 40
5.300000000000009
  0
ARC
  5
C0
330
1F
100
AcDbEntity
  8
0
  6
Continuous
 62
     7
370
    15
100
AcDbCircle
 10
252.1572198276
 20
124.1579741379
 30
0.0
 40
3.000000000000034
100
AcDbArc
 50
171.7116791297
 51
231.7116791297
  0
ARC
  5
C1
330
1F
100
AcDbEntity
  8
0
  6
Continuous
 62
     7
370
    15
100
AcDbCircle
 10
252.1572198276
 20
124.1579741379
 30
0.0
 40
3.000000000000034
100
AcDbArc
 50
111.7116791297
 51
171.7116791297
  0
ARC
  5
C2
330
1F
100
AcDbEntity
  8
0
  6
Continuous
 62
     7
370
    15
100
AcDbCircle
 10
252.1572198276
 20
124.1579741379
 30
0.0
 40
3.000000000000049
100
AcDbArc
 50
231.7116791297
 51
291.7116791297
  0
ARC
  5
C3
330
1F
100
AcDbEntity
  8
0
  6
Continuous
 62
     7
370
    15
100
AcDbCircle
 10
252.1572198276
 20
124.1579741379
 30
0.0
 40
3.000000000000052
100
AcDbArc
 50
291.7116791297
 51
351.7116791297
  0
ARC
  5
C4
330
1F
100
AcDbEntity
  8
0
  6
Continuous
 62
     7
370
    15
100
AcDbCircle
 10
252.1572198276
 20
124.1579741379
 30
0.0
 40
2.999999999999973
100
AcDbArc
 50
51.7116791297
 51
111.7116791297
  0
ARC
  5
C5
330
1F
100
AcDbEntity
  8
0
  6
Continuous
 62
     7
370
    15
100
AcDbCircle
 10
252.1572198276
 20
124.1579741379
 30
0.0
 40
3.000000000000052
100
AcDbArc
 50
351.7116791297
 51
51.7116791297
  0
LINE
  5
C6
330
1F
100
AcDbEntity
  8
0
  6
Continuous
 62
     7
370
    15
100
AcDbLine
 10
248.716912609
 20
148.4579741379
 30
0.0
 11
255.6125188358
 21
148.4579741379
 31
0.0
  0
LINE
  5
C7
330
1F
100
AcDbEntity
  8
0
  6
Continuous
 62
     7
370
    15
100
AcDbLine
 10
248.873238859
 20
149.1579741379
 30
0.0
 11
257.4572198276
 21
149.1579741379
 31
0.0
  0
LINE
  5
C8
330
1F
100
AcDbEntity
  8
0
  6
Continuous
 62
     7
370
    15
100
AcDbLine
 10
246.8572198276
 20
149.1579741379
 30
0.0
 11
248.873238859
 21
149.1579741379
 31
0.0
  0
LWPOLYLINE
  5
C9
330
1F
100
AcDbEntity
  8
0
  6
Continuous
 62
     7
370
    15
100
AcDbPolyline
 90
       19
 70
   128
 43
0.0
 10
150.0698904041
 20
107.698151559
 10
150.8508077699
 20
107.3843715438
 10
151.6988366418
 20
107.3404967825
 10
152.511692222
 20
107.5718192187
 10
153.1913321312
 20
108.0504379528
 10
153.6557817658
 20
108.7186245017
 10
153.8490216455
 20
109.4957857063
 10
153.7477441888
 20
110.2881844556
 10
153.3641649517
 20
111.0002457659
 10
152.7445492511
 20
111.5460845342
 10
151.9636318852
 20
111.8598645494
 10
151.1156030134
 20
111.9037393107
 10
150.3027474332
 20
111.6724168745
 10
149.623107524
 20
111.1937981404
 10
149.1586578893
 20
110.5256115914
 10
148.9654180097
 20
109.7484503869
 10
149.0666954664
 20
108.9560516376
 10
149.4502747035
 20
108.2439903273
 10
150.0698904041
 20
107.698151559
  0
LINE
  5
CA
330
1F
100
AcDbEntity
  8
0
  6
Continuous
 62
     7
370
    15
100
AcDbLine
 10
153.1366513592
 20
109.5326418528
 30
0.0
 11
152.3543972997
 21
110.9847873202
 31
0.0
  0
LINE
  5
CB
330
1F
100
AcDbEntity
  8
0
  6
Continuous
 62
     7
370
    15
100
AcDbLine
 10
150.624965768
 20
111.074263514
 30
0.0
 11
152.3543972997
 21
110.9847873202
 31
0.0
  0
LINE
  5
CC
330
1F
100
AcDbEntity
  8
0
  6
Continuous
 62
     7
370
    15
100
AcDbLine
 10
149.6777882959
 20
109.7115942404
 30
0.0
 11
150.624965768
 21
111.074263514
 31
0.0
  0
LINE
  5
CD
330
1F
100
AcDbEntity
  8
0
  6
Continuous
 62
     7
370
    15
100
AcDbLine
 10
149.6777882959
 20
109.7115942404
 30
0.0
 11
150.4600423555
 21
108.259448773
 31
0.0
  0
LINE
  5
CE
330
1F
100
AcDbEntity
  8
0
  6
Continuous
 62
     7
370
    15
100
AcDbLine
 10
152.1894738871
 20
108.1699725792
 30
0.0
 11
150.4600423555
 21
108.259448773
 31
0.0
  0
LINE
  5
CF
330
1F
100
AcDbEntity
  8
0
  6
Continuous
 62
     7
370
    15
100
AcDbLine
 10
152.1894738871
 20
108.1699725792
 30
0.0
 11
153.1366513592
 21
109.5326418528
 31
0.0
  0
LINE
  5
D0
330
1F
100
AcDbEntity
  8
0
  6
Continuous
 62
     7
370
    15
100
AcDbLine
 10
149.885386295
 20
110.0102578202
 30
0.0
 11
150.4600423555
 21
108.9434890596
 31
0.0
  0
LINE
  5
D1
330
1F
100
AcDbEntity
  8
0
  6
Continuous
 62
     7
370
    15
100
AcDbLine
 10
150.4600423555
 20
108.9434890596
 30
0.0
 11
150.4600423555
 21
108.259448773
 31
0.0
  0
LINE
  5
D2
330
1F
100
AcDbEntity
  8
0
  6
Continuous
 62
     7
370
    15
100
AcDbLine
 10
152.1894738871
 20
108.8540128658
 30
0.0
 11
152.1894738871
 21
108.1699725792
 31
0.0
  0
LINE
  5
D3
330
1F
100
AcDbEntity
  8
0
  6
Continuous
 62
     7
370
    15
100
AcDbLine
 10
152.1894738871
 20
108.8540128658
 30
0.0
 11
152.9290533602
 21
109.9180185596
 31
0.0
  0
LINE
  5
D4
330
1F
100
AcDbEntity
  8
0
  6
Continuous
 62
     7
370
    15
100
AcDbLine
 10
152.1894738871
 20
108.8540128658
 30
0.0
 11
150.4600423555
 21
108.9434890596
 31
0.0
  0
SPLINE
  5
D5
330
1F
100
AcDbEntity
  8
0
  6
HIDDEN
 62
     7
370
     0
100
AcDbSpline
210
0.0
220
0.0
230
1.0
 70
     8
 71
     3
 72
     9
 73
     5
 74
     0
 42
0.000000001
 43
0.00000001
 40
0.0
 40
0.0
 40
0.0
 40
0.0
 40
0.3267154957258129
 40
1.0
 40
1.0
 40
1.0
 40
1.0
 10
160.8311872851971
 20
74.53421370175558
 30
0.0
 10
160.6743944119299
 20
74.57629592945028
 30
0.0
 10
160.194487963297
 20
74.70509982227212
 30
0.0
 10
159.440276429693
 20
74.88012646865924
 30
0.0
 10
158.9324774911725
 20
74.99796919750679
 30
0.0
  0
LWPOLYLINE
  5
D6
330
1F
100
AcDbEntity
  8
0
  6
HIDDEN
 62
     7
370
     0
100
AcDbPolyline
 90
       21
 70
   128
 43
0.0
 10
131.4766069395
 20
110.1288193353
 10
131.6859742006
 20
109.2154244801
 10
132.0148854926
 20
108.3914390772
 10
132.4311446866
 20
107.7375205591
 10
132.8940054324
 20
107.3176790263
 10
133.3581596953
 20
107.1730114934
 10
133.778172822
 20
107.3176790263
 10
134.1129310014
 20
107.7375205591
 10
134.3296657704
 20
108.3914390772
 10
134.4071616197
 20
109.2154244801
 10
134.3378327157
 20
110.1288193353
 10
134.1284654546
 20
111.0422141906
 10
133.7995541625
 20
111.8661995934
 10
133.3832949685
 20
112.5201181116
 10
132.9204342227
 20
112.9399596443
 10
132.4562799599
 20
113.0846271773
 10
132.0362668331
 20
112.9399596443
 10
131.7015086538
 20
112.5201181116
 10
131.4847738848
 20
111.8661995934
 10
131.4072780355
 20
111.0422141906
 10
131.4766069395
 20
110.1288193353
  0
LWPOLYLINE
  5
D7
330
1F
100
AcDbEntity
  8
0
  6
HIDDEN
 62
     7
370
     0
100
AcDbPolyline
 90
       18
 70
   128
 43
0.0
 10
132.1894775281
 20
110.1848376536
 10
132.3711305857
 20
109.4374049888
 10
132.6634989299
 20
108.790917247
 10
133.0270965956
 20
108.3326861801
 10
133.4128177032
 20
108.1245984329
 10
133.76856848
 20
108.1947574085
 10
134.0463028122
 20
108.5336877487
 10
134.2085111392
 20
109.0956150329
 10
134.2332863276
 20
109.8046478676
 10
134.1172823511
 20
110.5650274396
 10
133.8761661893
 20
111.2740602743
 10
133.5425019161
 20
111.8359875585
 10
133.1613527404
 20
112.1749178987
 10
132.7841949704
 20
112.2450768744
 10
132.4619658529
 20
112.0369891271
 10
132.2381842157
 20
111.5787580602
 10
132.1430730089
 20
110.9322703184
 10
132.1894775281
 20
110.1848376536
  0
SPLINE
  5
D8
330
1F
100
AcDbEntity
  8
0
  6
HIDDEN
 62
     7
370
     0
100
AcDbSpline
210
0.0
220
0.0
230
1.0
 70
    11
 71
     3
 72
    60
 73
    56
 74
     0
 42
0.000000001
 43
0.00000001
 40
0.0
 40
0.0
 40
0.0
 40
0.0
 40
0.03125
 40
0.03125
 40
0.0625000000000001
 40
0.0625000000000001
 40
0.1250000000000002
 40
0.1250000000000002
 40
0.1562500000000002
 40
0.1562500000000002
 40
0.1875000000000002
 40
0.1875000000000002
 40
0.2187500000000003
 40
0.2187500000000003
 40
0.2500000000000003
 40
0.2500000000000003
 40
0.3125000000000005
 40
0.3125000000000005
 40
0.3750000000000006
 40
0.3750000000000006
 40
0.4062500000000005
 40
0.4062500000000005
 40
0.4375000000000003
 40
0.4375000000000003
 40
0.4687500000000002
 40
0.4687500000000002
 40
0.5000000000000001
 40
0.5000000000000001
 40
0.5312499999999999
 40
0.5312499999999999
 40
0.5624999999999998
 40
0.5624999999999998
 40
0.625
 40
0.625
 40
0.65625
 40
0.65625
 40
0.6874999999999999
 40
0.6874999999999999
 40
0.7187499999999999
 40
0.7187499999999999
 40
0.7499999999999998
 40
0.7499999999999998
 40
0.7812499999999997
 40
0.7812499999999997
 40
0.8124999999999997
 40
0.8124999999999997
 40
0.8749999999999993
 40
0.8749999999999993
 40
0.9062499999999996
 40
0.9062499999999996
 40
0.9374999999999997
 40
0.9374999999999997
 40
0.9687499999999999
 40
0.9687499999999999
 40
1.0
 40
1.0
 40
1.0
 40
1.0
 10
151.4072198275862
 20
120.6332426889741
 30
0.0
 10
151.2376922310156
 20
120.6332426889741
 30
0.0
 10
151.0720943833081
 20
120.6449650969039
 30
0.0
 10
150.7479743066354
 20
120.6909003022455
 30
0.0
 10
150.5881642423098
 20
120.7257425329269
 30
0.0
 10
150.1388226397684
 20
120.8615503781533
 30
0.0
 10
149.869139899993
 20
120.9959894655136
 30
0.0
 10
149.5309551112355
 20
121.259459418405
 30
0.0
 10
149.4273886776116
 20
121.359237982166
 30
0.0
 10
149.2469372153117
 20
121.5778111010075
 30
0.0
 10
149.1698152490493
 20
121.6962302043117
 30
0.0
 10
149.0423973642422
 20
121.953940573505
 30
0.0
 10
148.9919331714411
 20
122.0951984060689
 30
0.0
 10
148.9250917587586
 20
122.3872106510691
 30
0.0
 10
148.9077735572096
 20
122.5389514748891
 30
0.0
 10
148.9061511652762
 20
123.0126015861095
 30
0.0
 10
148.9746391358199
 20
123.3419422389508
 30
0.0
 10
149.2286894421906
 20
123.959739734039
 30
0.0
 10
149.413272341546
 20
124.2490084399758
 30
0.0
 10
149.7506408119692
 20
124.6192930993894
 30
0.0
 10
149.874629980936
 20
124.7337382966909
 30
0.0
 10
150.1407987261535
 20
124.9370438353803
 30
0.0
 10
150.2813354069775
 20
125.0249860071708
 30
0.0
 10
150.5789937422755
 20
125.1715856161815
 30
0.0
 10
150.738461119818
 20
125.230698419319
 30
0.0
 10
151.0640785039515
 20
125.3101507893271
 30
0.0
 10
151.2300454863386
 20
125.3310666868472
 30
0.0
 10
151.5688787324017
 20
125.3323162888848
 30
0.0
 10
151.7358694112369
 20
125.3124649536606
 30
0.0
 10
152.0614943250277
 20
125.2353503984908
 30
0.0
 10
152.2216254975847
 20
125.1772871413765
 30
0.0
 10
152.672330656943
 20
124.9584943177057
 30
0.0
 10
152.9425891580938
 20
124.7504613962265
 30
0.0
 10
153.2823038869955
 20
124.3803589779172
 30
0.0
 10
153.386262530871
 20
124.2451190502867
 30
0.0
 10
153.5665716234926
 20
123.9634224876115
 30
0.0
 10
153.6440053320852
 20
123.8160841104621
 30
0.0
 10
153.7722541869298
 20
123.5080521874818
 30
0.0
 10
153.8225694778466
 20
123.3470684770009
 30
0.0
 10
153.889317724338
 20
123.0289191671727
 30
0.0
 10
153.9067912335341
 20
122.8696321307879
 30
0.0
 10
153.9076330160645
 20
122.5508114060797
 30
0.0
 10
153.8908729185326
 20
122.397191318156
 30
0.0
 10
153.8251207750287
 20
122.1035018079211
 30
0.0
 10
153.7752659142551
 20
121.9618114099351
 30
0.0
 10
153.5843011286877
 20
121.5716223223969
 30
0.0
 10
153.3990049957178
 20
121.3499789686556
 30
0.0
 10
153.0601160948979
 20
121.0851830768863
 30
0.0
 10
152.9349341724947
 20
121.0066151681681
 30
0.0
 10
152.6689990365214
 20
120.8728257438585
 30
0.0
 10
152.5281434531226
 20
120.8171115366546
 30
0.0
 10
152.2284768566384
 20
120.7262766928618
 30
0.0
 10
152.0680986745038
 20
120.6911972107556
 30
0.0
 10
151.7433615344551
 20
120.6450442271422
 30
0.0
 10
151.5767474241568
 20
120.6332426889741
 30
0.0
 10
151.4072198275862
 20
120.6332426889741
 30
0.0
  0
SPLINE
  5
D9
330
1F
100
AcDbEntity
  8
0
  6
HIDDEN
 62
     7
370
     0
100
AcDbSpline
210
0.0
220
0.0
230
1.0
 70
    11
 71
     3
 72
    66
 73
    62
 74
     0
 42
0.000000001
 43
0.00000001
 40
0.0
 40
0.0
 40
0.0
 40
0.0
 40
0.0312500000000002
 40
0.0312500000000002
 40
0.0625000000000005
 40
0.0625000000000005
 40
0.0937500000000007
 40
0.0937500000000007
 40
0.125000000000001
 40
0.125000000000001
 40
0.1562500000000012
 40
0.1562500000000012
 40
0.1875000000000015
 40
0.1875000000000015
 40
0.2187500000000017
 40
0.2187500000000017
 40
0.2343750000000017
 40
0.2343750000000017
 40
0.2500000000000017
 40
0.2500000000000017
 40
0.2812500000000015
 40
0.2812500000000015
 40
0.3125000000000013
 40
0.3125000000000013
 40
0.3750000000000015
 40
0.3750000000000015
 40
0.4375000000000017
 40
0.4375000000000017
 40
0.4687500000000017
 40
0.4687500000000017
 40
0.5000000000000018
 40
0.5000000000000018
 40
0.5312500000000019
 40
0.5312500000000019
 40
0.562500000000002
 40
0.562500000000002
 40
0.5937500000000022
 40
0.5937500000000022
 40
0.6250000000000023
 40
0.6250000000000023
 40
0.6875000000000022
 40
0.6875000000000022
 40
0.7500000000000022
 40
0.7500000000000022
 40
0.781250000000002
 40
0.781250000000002
 40
0.8125000000000018
 40
0.8125000000000018
 40
0.8437500000000017
 40
0.8437500000000017
 40
0.8593750000000017
 40
0.8593750000000017
 40
0.8750000000000017
 40
0.8750000000000017
 40
0.9062500000000012
 40
0.9062500000000012
 40
0.9375000000000008
 40
0.9375000000000008
 40
0.9687500000000004
 40
0.9687500000000004
 40
1.0
 40
1.0
 40
1.0
 40
1.0
 10
148.9882447673665
 20
113.5020133125203
 30
0.0
 10
148.9486544797265
 20
113.6556268322113
 30
0.0
 10
148.9233934890451
 20
113.8078702598113
 30
0.0
 10
148.9022485830302
 20
114.1099751765597
 30
0.0
 10
148.9068962951238
 20
114.2604553204016
 30
0.0
 10
148.9455899629094
 20
114.5428995937003
 30
0.0
 10
148.9798869220041
 20
114.6783462886735
 30
0.0
 10
149.0741977079535
 20
114.9274896872505
 30
0.0
 10
149.1333442482467
 20
115.0399811042733
 30
0.0
 10
149.271680432939
 20
115.2411480395084
 30
0.0
 10
149.3503169488897
 20
115.3284021957002
 30
0.0
 10
149.5148705009046
 20
115.4706118146495
 30
0.0
 10
149.6028051971664
 20
115.5270747425266
 30
0.0
 10
149.7703837435172
 20
115.6019836580732
 30
0.0
 10
149.8509806203246
 20
115.6207935771842
 30
0.0
 10
149.9458229857861
 20
115.6162257007109
 30
0.0
 10
149.9727472912081
 20
115.609351445232
 30
0.0
 10
150.0152759662594
 20
115.5852612774058
 30
0.0
 10
150.0307622553315
 20
115.5678536254561
 30
0.0
 10
150.0581865820196
 20
115.5039612491696
 30
0.0
 10
150.0518239784874
 20
115.4447914784366
 30
0.0
 10
150.009173842952
 20
115.3113716703813
 30
0.0
 10
149.9736782356551
 20
115.2368162596194
 30
0.0
 10
149.8451408884851
 20
114.9944595283476
 30
0.0
 10
149.7339674690462
 20
114.8132675521883
 30
0.0
 10
149.5052416534239
 20
114.4095691091513
 30
0.0
 10
149.384176469817
 20
114.1835444438382
 30
0.0
 10
149.2160624952647
 20
113.8050127069071
 30
0.0
 10
149.161722278639
 20
113.6709342027138
 30
0.0
 10
149.063097204398
 20
113.3887542563634
 30
0.0
 10
149.0190943628359
 20
113.2420555835931
 30
0.0
 10
148.9483079352839
 20
112.9316388022004
 30
0.0
 10
148.9231177888282
 20
112.7731343724629
 30
0.0
 10
148.9022038144633
 20
112.4617707978634
 30
0.0
 10
148.9071656562163
 20
112.3140524192342
 30
0.0
 10
148.9453397745741
 20
112.0505504202622
 30
0.0
 10
148.9781761002735
 20
111.9360115012237
 30
0.0
 10
149.0589085625856
 20
111.7450458047552
 30
0.0
 10
149.1070102695275
 20
111.6668621167887
 30
0.0
 10
149.2634526662448
 20
111.4730669388493
 30
0.0
 10
149.3802421259892
 20
111.3992917848214
 30
0.0
 10
149.6152990980724
 20
111.3162428280408
 30
0.0
 10
149.7310966850319
 20
111.3090994351251
 30
0.0
 10
149.8817973887408
 20
111.340873452555
 30
0.0
 10
149.9281171764961
 20
111.3587709045536
 30
0.0
 10
150.0042003873563
 20
111.412370424945
 30
0.0
 10
150.0335865428587
 20
111.4478895955095
 30
0.0
 10
150.0570475760866
 20
111.5419989703124
 30
0.0
 10
150.0500079322806
 20
111.6011194441267
 30
0.0
 10
150.0010102354008
 20
111.7110266735442
 30
0.0
 10
149.9781571908231
 20
111.7516698988513
 30
0.0
 10
149.9228146731512
 20
111.8379773827054
 30
0.0
 10
149.8902255377241
 20
111.884018885962
 30
0.0
 10
149.7814270628639
 20
112.0317976941617
 30
0.0
 10
149.6968063412117
 20
112.14026629648
 30
0.0
 10
149.5266181124071
 20
112.3743131591253
 30
0.0
 10
149.4399880374613
 20
112.5013241238662
 30
0.0
 10
149.2808720361206
 20
112.7670100853392
 30
0.0
 10
149.2065581418317
 20
112.9085869979142
 30
0.0
 10
149.0802293200864
 20
113.1993178237318
 30
0.0
 10
149.0278350550065
 20
113.3483997928294
 30
0.0
 10
148.9882447673665
 20
113.5020133125203
 30
0.0
  0
SPLINE
  5
DA
330
1F
100
AcDbEntity
  8
0
  6
HIDDEN
 62
     7
370
     0
100
AcDbSpline
210
0.0
220
0.0
230
1.0
 70
     8
 71
     3
 72
     9
 73
     5
 74
     0
 42
0.000000001
 43
0.00000001
 40
0.0
 40
0.0
 40
0.0
 40
0.0
 40
0.6185300358770649
 40
1.0
 40
1.0
 40
1.0
 40
1.0
 10
246.4833460409818
 20
148.7841003513268
 30
0.0
 10
246.6157654398534
 20
148.7605450285769
 30
0.0
 10
246.8298526970451
 20
148.7224622817681
 30
0.0
 10
247.065909749185
 20
148.6845405147211
 30
0.0
 10
247.1559584243958
 20
148.6700744996063
 30
0.0
  0
LINE
  5
DB
330
1F
100
AcDbEntity
  8
0
  6
HIDDEN
 62
     7
370
     0
100
AcDbLine
 10
237.7072198276
 20
124.1579741379
 30
0.0
 11
237.7072198276
 21
110.6579741379
 31
0.0
  0
LINE
  5
DC
330
1F
100
AcDbEntity
  8
0
  6
HIDDEN
 62
     7
370
     0
100
AcDbLine
 10
237.7072198276
 20
137.6579741379
 30
0.0
 11
237.7072198276
 21
124.1579741379
 31
0.0
  0
LINE
  5
DD
330
1F
100
AcDbEntity
  8
0
  6
HIDDEN
 62
     7
370
     0
100
AcDbLine
 10
242.5732452314
 20
124.1579741379
 30
0.0
 11
242.5732452314
 21
110.1579741379
 31
0.0
  0
LINE
  5
DE
330
1F
100
AcDbEntity
  8
0
  6
HIDDEN
 62
     7
370
     0
100
AcDbLine
 10
242.5732452314
 20
138.1579741379
 30
0.0
 11
242.5732452314
 21
124.1579741379
 31
0.0
  0
SPLINE
  5
DF
330
1F
100
AcDbEntity
  8
0
  6
HIDDEN
 62
     7
370
     0
100
AcDbSpline
210
0.0
220
0.0
230
1.0
 70
     8
 71
     3
 72
    17
 73
    13
 74
     0
 42
0.000000001
 43
0.00000001
 40
0.0
 40
0.0
 40
0.0
 40
0.0
 40
0.1001069547488445
 40
0.2032817459497623
 40
0.3033464486052525
 40
0.4060586263960475
 40
0.5111093322403283
 40
0.6189810572800724
 40
0.7277386229881463
 40
0.8399494328345616
 40
0.9435349391608523
 40
1.0
 40
1.0
 40
1.0
 40
1.0
 10
252.1572198275862
 20
137.0323673275148
 30
0.0
 10
252.4484983310662
 20
137.0381491146553
 30
0.0
 10
253.0399817389233
 20
137.0498898752004
 30
0.0
 10
253.8962449386954
 20
137.1411655363681
 30
0.0
 10
254.7090077910765
 20
137.2752558146781
 30
0.0
 10
255.4572342903928
 20
137.4426016502348
 30
0.0
 10
256.135233822051
 20
137.6283960794491
 30
0.0
 10
256.7171620994349
 20
137.8130512006422
 30
0.0
 10
257.1857603604821
 20
137.9779579880028
 30
0.0
 10
257.495435120858
 20
138.0946457176952
 30
0.0
 10
257.6505322047636
 20
138.1553374914251
 30
0.0
 10
257.6408898083792
 20
138.1515651376294
 30
0.0
 10
257.6374880178819
 20
138.1502342695772
 30
0.0
  0
LINE
  5
E0
330
1F
100
AcDbEntity
  8
0
  6
HIDDEN
 62
     7
370
     0
100
AcDbLine
 10
252.2047431284
 20
137.0339703864
 30
0.0
 11
251.5640040971
 21
137.0521611617
 31
0.0
  0
SPLINE
  5
E1
330
1F
100
AcDbEntity
  8
0
  6
HIDDEN
 62
     7
370
     0
100
AcDbSpline
210
0.0
220
0.0
230
1.0
 70
     8
 71
     3
 72
    21
 73
    17
 74
     0
 42
0.000000001
 43
0.00000001
 40
0.0
 40
0.0
 40
0.0
 40
0.0
 40
0.0128960448387208
 40
0.0952734923803522
 40
0.1803636710498213
 40
0.2575854420073297
 40
0.3371875801730612
 40
0.4123367409848741
 40
0.4894962598866371
 40
0.567982965591469
 40
0.6485005078045067
 40
0.7315081079665038
 40
0.816967984692226
 40
0.8926291466439052
 40
0.9704440229726348
 40
1.0
 40
1.0
 40
1.0
 40
1.0
 10
247.2845993533581
 20
137.9245830145271
 30
0.0
 10
247.259476305191
 20
137.9331667271052
 30
0.0
 10
247.0738720700902
 20
137.9965815403388
 30
0.0
 10
246.8563576539102
 20
138.0813782923514
 30
0.0
 10
246.6648079416011
 20
138.1546425836343
 30
0.0
 10
246.6414352263557
 20
138.1642756144686
 30
0.0
 10
246.7587423737215
 20
138.1180476498529
 30
0.0
 10
247.0128356617391
 20
138.0211489529907
 30
0.0
 10
247.3899304689149
 20
137.8846197100719
 30
0.0
 10
247.8941852466707
 20
137.7163124693732
 30
0.0
 10
248.5214070989548
 20
137.5304843375539
 30
0.0
 10
249.2686750994283
 20
137.3446823916654
 30
0.0
 10
250.0878464334321
 20
137.1885286596223
 30
0.0
 10
250.9497346963595
 20
137.0799824167702
 30
0.0
 10
251.6386164134919
 20
137.0365198219493
 30
0.0
 10
252.0452780660603
 20
137.0332636531639
 30
0.0
 10
252.1572198275862
 20
137.0323673275148
 30
0.0
  0
LINE
  5
E2
330
1F
100
AcDbEntity
  8
0
  6
HIDDEN
 62
     7
370
     0
100
AcDbLine
 10
131.2072198276
 20
159.4579741379
 30
0.0
 11
131.3787927028
 21
159.4579741379
 31
0.0
  0
ELLIPSE
  5
E3
330
1F
100
AcDbEntity
  8
0
  6
HIDDEN
 62
     7
370
     0
100
AcDbEllipse
 10
131.3787927028
 20
161.4579741379
 30
0.0
 11
0.0
 21
2.0
 31
0.0
210
0.0
220
0.0
230
1.0
 40
0.4142135624
 41
3.141592653589793
 42
4.712388980384695
  0
ELLIPSE
  5
E4
330
1F
100
AcDbEntity
  8
0
  6
HIDDEN
 62
     7
370
     0
100
AcDbEllipse
 10
131.3787927028
 20
86.8579741379
 30
0.0
 11
0.0
 21
2.0
 31
0.0
210
0.0
220
0.0
230
1.0
 40
0.4142135624
 41
4.712388980384702
 42
6.283185307179586
  0
LINE
  5
E5
330
1F
100
AcDbEntity
  8
0
  6
HIDDEN
 62
     7
370
     0
100
AcDbLine
 10
131.3787927028
 20
88.8579741379
 30
0.0
 11
131.2072198276
 21
88.8579741379
 31
0.0
  0
LINE
  5
E6
330
1F
100
AcDbEntity
  8
0
  6
HIDDEN
 62
     7
370
     0
100
AcDbLine
 10
132.2072198276
 20
76.837403984
 30
0.0
 11
131.5933562476
 21
76.2235404041
 31
0.0
  0
LINE
  5
E7
330
1F
100
AcDbEntity
  8
0
  6
HIDDEN
 62
     7
370
     0
100
AcDbLine
 10
131.5933562476
 20
172.0924078718
 30
0.0
 11
132.2072198276
 21
171.4785442919
 31
0.0
  0
LINE
  5
E8
330
1F
100
AcDbEntity
  8
0
  6
HIDDEN
 62
     7
370
     0
100
AcDbLine
 10
148.3572198276
 20
159.4579741379
 30
0.0
 11
159.2072198276
 21
159.4579741379
 31
0.0
  0
LINE
  5
E9
330
1F
100
AcDbEntity
  8
0
  6
HIDDEN
 62
     7
370
     0
100
AcDbLine
 10
131.3787927028
 20
159.4579741379
 30
0.0
 11
148.3572198276
 21
159.4579741379
 31
0.0
  0
LINE
  5
EA
330
1F
100
AcDbEntity
  8
0
  6
HIDDEN
 62
     7
370
     0
100
AcDbLine
 10
159.2072198276
 20
88.8579741379
 30
0.0
 11
148.3572198276
 21
88.8579741379
 31
0.0
  0
LINE
  5
EB
330
1F
100
AcDbEntity
  8
0
  6
HIDDEN
 62
     7
370
     0
100
AcDbLine
 10
148.3572198276
 20
88.8579741379
 30
0.0
 11
131.3787927028
 21
88.8579741379
 31
0.0
  0
SPLINE
  5
EC
330
1F
100
AcDbEntity
  8
0
  6
HIDDEN
 62
     7
370
     0
100
AcDbSpline
210
0.0
220
0.0
230
1.0
 70
     8
 71
     3
 72
    14
 73
    10
 74
     0
 42
0.000000001
 43
0.00000001
 40
0.0
 40
0.0
 40
0.0
 40
0.0
 40
0.1574629576045205
 40
0.2972580597182246
 40
0.4194208528323885
 40
0.5627976805077634
 40
0.7022244666431441
 40
0.8378455567504904
 40
1.0
 40
1.0
 40
1.0
 40
1.0
 10
158.2915195644729
 20
172.363995739873
 30
0.0
 10
158.6245394373709
 20
172.4455490578887
 30
0.0
 10
159.2532132713395
 20
172.599505146646
 30
0.0
 10
159.9524392923227
 20
172.7904170301894
 30
0.0
 10
160.5010390278573
 20
172.948018701516
 30
0.0
 10
160.9041065268906
 20
173.0653765895756
 30
0.0
 10
161.1485724635971
 20
173.1393526065173
 30
0.0
 10
161.2541663356875
 20
173.1725529400908
 30
0.0
 10
161.1306523713424
 20
173.134595953026
 30
0.0
 10
161.0633925199498
 20
173.113926376733
 30
0.0
  0
LINE
  5
ED
330
1F
100
AcDbEntity
  8
0
  6
HIDDEN
 62
     7
370
     0
100
AcDbLine
 10
158.7908537732
 20
172.4883097389
 30
0.0
 11
158.2915152761
 21
172.3640403943
 31
0.0
  0
SPLINE
  5
EE
330
1F
100
AcDbEntity
  8
0
  6
HIDDEN
 62
     7
370
     0
100
AcDbSpline
210
0.0
220
0.0
230
1.0
 70
     8
 71
     3
 72
    13
 73
     9
 74
     0
 42
0.000000001
 43
0.00000001
 40
0.0
 40
0.0
 40
0.0
 40
0.0
 40
0.0005825290635634
 40
0.1623661983695077
 40
0.328738549447489
 40
0.499871825213266
 40
0.7262528256364211
 40
1.0
 40
1.0
 40
1.0
 40
1.0
 10
161.2067856701924
 20
75.15810694459022
 30
0.0
 10
161.2069304562274
 20
75.15806260239691
 30
0.0
 10
161.247286138951
 20
75.14570326480491
 30
0.0
 10
161.1331315320539
 20
75.18133235080447
 30
0.0
 10
160.9090144243664
 20
75.24918031371536
 30
0.0
 10
160.429705533377
 20
75.38827348786862
 30
0.0
 10
159.6361978757269
 20
75.61852006863539
 30
0.0
 10
158.7671800032476
 20
75.83400563939986
 30
0.0
 10
158.2915195644729
 20
75.95195253598902
 30
0.0
  0
LINE
  5
EF
330
1F
100
AcDbEntity
  8
0
  6
HIDDEN
 62
     7
370
     0
100
AcDbLine
 10
144.4397888641
 20
76.837403984
 30
0.0
 11
132.2072198276
 21
76.837403984
 31
0.0
  0
LINE
  5
F0
330
1F
100
AcDbEntity
  8
0
  6
HIDDEN
 62
     7
370
     0
100
AcDbLine
 10
132.2072198276
 20
76.837403984
 30
0.0
 11
132.2072198276
 21
86.8579741379
 31
0.0
  0
LINE
  5
F1
330
1F
100
AcDbEntity
  8
0
  6
HIDDEN
 62
     7
370
     0
100
AcDbLine
 10
132.2072198276
 20
171.4785442919
 30
0.0
 11
144.4397888641
 21
171.4785442919
 31
0.0
  0
LINE
  5
F2
330
1F
100
AcDbEntity
  8
0
  6
HIDDEN
 62
     7
370
     0
100
AcDbLine
 10
132.2072198276
 20
171.4785442919
 30
0.0
 11
132.2072198276
 21
161.4579741379
 31
0.0
  0
LINE
  5
F3
330
1F
100
AcDbEntity
  8
0
  6
HIDDEN
 62
     7
370
     0
100
AcDbLine
 10
36.4072198276
 20
111.6579741379
 30
0.0
 11
36.4072198276
 21
136.6579741379
 31
0.0
  0
LINE
  5
F4
330
1F
100
AcDbEntity
  8
0
  6
HIDDEN
 62
     7
370
     0
100
AcDbLine
 10
39.6918241765
 20
113.6579741379
 30
0.0
 11
39.6918241765
 21
134.6579741379
 31
0.0
  0
LINE
  5
F5
330
1F
100
AcDbEntity
  8
0
  6
HIDDEN
 62
     7
370
     0
100
AcDbLine
 10
89.4072198276
 20
113.6579741379
 30
0.0
 11
89.4072198276
 21
134.6579741379
 31
0.0
  0
LINE
  5
F6
330
1F
100
AcDbEntity
  8
0
  6
HIDDEN
 62
     7
370
     0
100
AcDbLine
 10
93.1625986965
 20
119.9079741379
 30
0.0
 11
93.1625986965
 21
128.4079741379
 31
0.0
  0
SPLINE
  5
F7
330
1F
100
AcDbEntity
  8
0
  6
HIDDEN
 62
     7
370
     0
100
AcDbSpline
210
0.0
220
0.0
230
1.0
 70
     8
 71
     3
 72
     9
 73
     5
 74
     0
 42
0.000000001
 43
0.00000001
 40
0.0
 40
0.0
 40
0.0
 40
0.0
 40
0.4951995007203773
 40
1.0
 40
1.0
 40
1.0
 40
1.0
 10
158.2915040420232
 20
172.3639863023438
 30
0.0
 10
158.3967002637479
 20
172.5211420625965
 30
0.0
 10
158.60913226655
 20
172.8385005413997
 30
0.0
 10
158.8238506500642
 20
173.1571270895027
 30
0.0
 10
158.9322405972667
 20
173.3179699300688
 30
0.0
  0
SPLINE
  5
F8
330
1F
100
AcDbEntity
  8
0
  6
HIDDEN
 62
     7
370
     0
100
AcDbSpline
210
0.0
220
0.0
230
1.0
 70
     8
 71
     3
 72
     9
 73
     5
 74
     0
 42
0.000000001
 43
0.00000001
 40
0.0
 40
0.0
 40
0.0
 40
0.0
 40
0.5048004990382029
 40
1.0
 40
1.0
 40
1.0
 40
1.0
 10
158.9322405972667
 20
74.99797834579319
 30
0.0
 10
158.823850650119
 20
75.15882118627566
 30
0.0
 10
158.6091322666105
 20
75.4774477343653
 30
0.0
 10
158.3967002638022
 20
75.79480621318216
 30
0.0
 10
158.2915040420233
 20
75.95196197351825
 30
0.0
  0
LINE
  5
F9
330
1F
100
AcDbEntity
  8
0
  6
HIDDEN
 62
     7
370
     0
100
AcDbLine
 10
252.1572198276
 20
147.1579741379
 30
0.0
 11
257.6572198276
 21
147.1579741379
 31
0.0
  0
LINE
  5
FA
330
1F
100
AcDbEntity
  8
0
  6
HIDDEN
 62
     7
370
     0
100
AcDbLine
 10
246.6572198276
 20
147.1579741379
 30
0.0
 11
252.1572198276
 21
147.1579741379
 31
0.0
  0
SPLINE
  5
FB
330
1F
100
AcDbEntity
  8
0
  6
HIDDEN
 62
     7
370
     0
100
AcDbSpline
210
0.0
220
0.0
230
1.0
 70
    11
 71
     3
 72
    60
 73
    56
 74
     0
 42
0.000000001
 43
0.00000001
 40
0.0
 40
0.0
 40
0.0
 40
0.0
 40
0.03125
 40
0.03125
 40
0.0625
 40
0.0625
 40
0.125
 40
0.125
 40
0.15625
 40
0.15625
 40
0.1875
 40
0.1875
 40
0.21875
 40
0.21875
 40
0.2500000000000001
 40
0.2500000000000001
 40
0.3125000000000001
 40
0.3125000000000001
 40
0.3750000000000002
 40
0.3750000000000002
 40
0.4062500000000001
 40
0.4062500000000001
 40
0.4374999999999999
 40
0.4374999999999999
 40
0.4687499999999998
 40
0.4687499999999998
 40
0.4999999999999996
 40
0.4999999999999996
 40
0.5312499999999994
 40
0.5312499999999994
 40
0.5624999999999993
 40
0.5624999999999993
 40
0.6249999999999996
 40
0.6249999999999996
 40
0.6562499999999996
 40
0.6562499999999996
 40
0.6874999999999994
 40
0.6874999999999994
 40
0.7187499999999993
 40
0.7187499999999993
 40
0.7499999999999992
 40
0.7499999999999992
 40
0.7812499999999992
 40
0.7812499999999992
 40
0.8124999999999992
 40
0.8124999999999992
 40
0.8749999999999991
 40
0.8749999999999991
 40
0.9062499999999994
 40
0.9062499999999994
 40
0.9374999999999997
 40
0.9374999999999997
 40
0.9687499999999998
 40
0.9687499999999998
 40
1.0
 40
1.0
 40
1.0
 40
1.0
 10
151.4072198275862
 20
122.9842424829584
 30
0.0
 10
151.5767474241567
 20
122.9842424829584
 30
0.0
 10
151.7423452718643
 20
123.0045654063101
 30
0.0
 10
152.0664653485369
 20
123.0822428770894
 30
0.0
 10
152.2262754128625
 20
123.1405664753199
 30
0.0
 10
152.675617015404
 20
123.3597681786351
 30
0.0
 10
152.9452997551794
 20
123.5680130533016
 30
0.0
 10
153.2834845439369
 20
123.9370914181712
 30
0.0
 10
153.3870509775608
 20
124.0718918056139
 30
0.0
 10
153.5675024398607
 20
124.3541508288663
 30
0.0
 10
153.644624406123
 20
124.5012688874275
 30
0.0
 10
153.7720422909302
 20
124.8074696017026
 30
0.0
 10
153.8225064837313
 20
124.9686047731117
 30
0.0
 10
153.8893478964138
 20
125.2871477036268
 30
0.0
 10
153.9066660979628
 20
125.4458998860374
 30
0.0
 10
153.9082884898962
 20
125.9202028076629
 30
0.0
 10
153.8398005193525
 20
126.2213229434623
 30
0.0
 10
153.5857502129817
 20
126.7423099147454
 30
0.0
 10
153.4011673136263
 20
126.9635657405756
 30
0.0
 10
153.0637988432032
 20
127.2282371308987
 30
0.0
 10
152.9398096742364
 20
127.3065064088976
 30
0.0
 10
152.6736409290189
 20
127.4411479984945
 30
0.0
 10
152.5331042481949
 20
127.4969775523826
 30
0.0
 10
152.2354459128969
 20
127.5879006398906
 30
0.0
 10
152.0759785353544
 20
127.6232552253699
 30
0.0
 10
151.7503611512208
 20
127.6702683687308
 30
0.0
 10
151.5843941688337
 20
127.682334046826
 30
0.0
 10
151.2455609227707
 20
127.683060494707
 30
0.0
 10
151.0785702439355
 20
127.6716140719881
 30
0.0
 10
150.7529453301447
 20
127.6260294508817
 30
0.0
 10
150.5928141575877
 20
127.5913615680799
 30
0.0
 10
150.1421089982294
 20
127.4558799501282
 30
0.0
 10
149.8718504970786
 20
127.3216924047174
 30
0.0
 10
149.5321357681768
 20
127.0575956392008
 30
0.0
 10
149.4281771243014
 20
126.9575043544354
 30
0.0
 10
149.2478680316798
 20
126.7394240556279
 30
0.0
 10
149.1704343230872
 20
126.6208886910345
 30
0.0
 10
149.0421854682426
 20
126.3616603666592
 30
0.0
 10
148.9918701773258
 20
126.2204997887877
 30
0.0
 10
148.9251219308344
 20
125.9288443027353
 30
0.0
 10
148.9076484216382
 20
125.7766308931662
 30
0.0
 10
148.9068066391078
 20
125.458148881401
 30
0.0
 10
148.9235667366398
 20
125.2977412250738
 30
0.0
 10
148.9893188801437
 20
124.9779387568041
 30
0.0
 10
149.0391737409172
 20
124.8165916474587
 30
0.0
 10
149.2301385264847
 20
124.3536572815347
 30
0.0
 10
149.4154346594546
 20
124.0637596239264
 30
0.0
 10
149.7543235602745
 20
123.6930251476286
 30
0.0
 10
149.8795054826777
 20
123.5780272115827
 30
0.0
 10
150.145440618651
 20
123.3758343415954
 30
0.0
 10
150.2862962020498
 20
123.2880199115517
 30
0.0
 10
150.585962798534
 20
123.1414497321262
 30
0.0
 10
150.7463409806686
 20
123.0827414111353
 30
0.0
 10
151.0710781207173
 20
123.0047027335221
 30
0.0
 10
151.2376922310156
 20
122.9842424829584
 30
0.0
 10
151.4072198275862
 20
122.9842424829584
 30
0.0
  0
SPLINE
  5
FC
330
1F
100
AcDbEntity
  8
0
  6
HIDDEN
 62
     7
370
     0
100
AcDbSpline
210
0.0
220
0.0
230
1.0
 70
    11
 71
     3
 72
    66
 73
    62
 74
     0
 42
0.000000001
 43
0.00000001
 40
0.0
 40
0.0
 40
0.0
 40
0.0
 40
0.0312499999999998
 40
0.0312499999999998
 40
0.0624999999999996
 40
0.0624999999999996
 40
0.0937499999999994
 40
0.0937499999999994
 40
0.1249999999999991
 40
0.1249999999999991
 40
0.1562499999999989
 40
0.1562499999999989
 40
0.1874999999999987
 40
0.1874999999999987
 40
0.2187499999999985
 40
0.2187499999999985
 40
0.2499999999999983
 40
0.2499999999999983
 40
0.2812499999999981
 40
0.2812499999999981
 40
0.3124999999999978
 40
0.3124999999999978
 40
0.3437499999999976
 40
0.3437499999999976
 40
0.3749999999999974
 40
0.3749999999999974
 40
0.4062499999999972
 40
0.4062499999999972
 40
0.437499999999997
 40
0.437499999999997
 40
0.4687499999999968
 40
0.4687499999999968
 40
0.4999999999999966
 40
0.4999999999999966
 40
0.5312499999999963
 40
0.5312499999999963
 40
0.5624999999999961
 40
0.5624999999999961
 40
0.6249999999999959
 40
0.6249999999999959
 40
0.6562499999999962
 40
0.6562499999999962
 40
0.6874999999999966
 40
0.6874999999999966
 40
0.7187499999999969
 40
0.7187499999999969
 40
0.7499999999999972
 40
0.7499999999999972
 40
0.7812499999999977
 40
0.7812499999999977
 40
0.812499999999998
 40
0.812499999999998
 40
0.8437499999999983
 40
0.8437499999999983
 40
0.8749999999999987
 40
0.8749999999999987
 40
0.906249999999999
 40
0.906249999999999
 40
0.9374999999999993
 40
0.9374999999999993
 40
1.0
 40
1.0
 40
1.0
 40
1.0
 10
151.4072198275862
 20
136.3194283448448
 30
0.0
 10
151.2420195369223
 20
136.3194283448448
 30
0.0
 10
151.0795869956258
 20
136.3349939361268
 30
0.0
 10
150.7600288400357
 20
136.3959402079563
 30
0.0
 10
150.6012455020587
 20
136.4420622519416
 30
0.0
 10
150.2985074855794
 20
136.5623254395296
 30
0.0
 10
150.154928320445
 20
136.6358690889503
 30
0.0
 10
149.883198590577
 20
136.8093860118827
 30
0.0
 10
149.7545700270393
 20
136.9102586686692
 30
0.0
 10
149.5240042653721
 20
137.1302434575675
 30
0.0
 10
149.4205302641227
 20
137.2501226211563
 30
0.0
 10
149.2377697261969
 20
137.5099639877537
 30
0.0
 10
149.1601254699683
 20
137.648053418326
 30
0.0
 10
149.0354328192782
 20
137.9330358505741
 30
0.0
 10
148.9874288386998
 20
138.0820309599166
 30
0.0
 10
148.9231970963815
 20
138.3865560473113
 30
0.0
 10
148.9073076523393
 20
138.5393253947478
 30
0.0
 10
148.9071327219841
 20
138.8458150763619
 30
0.0
 10
148.9233633733191
 20
139.0011418466569
 30
0.0
 10
148.9871445960286
 20
139.3012040525554
 30
0.0
 10
149.0343367074249
 20
139.4467387650546
 30
0.0
 10
149.1595033250829
 20
139.7288720453766
 30
0.0
 10
149.2377628124579
 20
139.8650118867313
 30
0.0
 10
149.4186829958132
 20
140.1165484365008
 30
0.0
 10
149.5219682247371
 20
140.233575280344
 30
0.0
 10
149.7552199667858
 20
140.4496505739655
 30
0.0
 10
149.8816338350514
 20
140.5453544978509
 30
0.0
 10
150.152306105746
 20
140.7125074946225
 30
0.0
 10
150.2983878779103
 20
140.7846686802456
 30
0.0
 10
150.6012723233832
 20
140.9003227222021
 30
0.0
 10
150.7571026830229
 20
140.9438555293848
 30
0.0
 10
151.0774481722883
 20
141.0027514323181
 30
0.0
 10
151.24315825826
 20
141.017837535338
 30
0.0
 10
151.5694896469565
 20
141.0179450670048
 30
0.0
 10
151.7316767327834
 20
141.0034544098151
 30
0.0
 10
152.054052313992
 20
140.944726345538
 30
0.0
 10
152.2120677880295
 20
140.9005955384087
 30
0.0
 10
152.6634786631051
 20
140.7286659398107
 30
0.0
 10
152.9425581201573
 20
140.5570922471396
 30
0.0
 10
153.2886318246556
 20
140.2374414287733
 30
0.0
 10
153.3942738405703
 20
140.1184002993849
 30
0.0
 10
153.5760573165411
 20
139.8660805385265
 30
0.0
 10
153.652945139925
 20
139.7326162271551
 30
0.0
 10
153.7785996972954
 20
139.4508508146029
 30
0.0
 10
153.82690777321
 20
139.3024300829719
 30
0.0
 10
153.8907256586504
 20
139.0033804851953
 30
0.0
 10
153.9070538356932
 20
138.851177415328
 30
0.0
 10
153.9073833257529
 20
138.5411755564883
 30
0.0
 10
153.8912868139182
 20
138.3876528893903
 30
0.0
 10
153.828058076657
 20
138.0861241718111
 30
0.0
 10
153.7802214832465
 20
137.9361893465093
 30
0.0
 10
153.6548781653331
 20
137.6489702504184
 30
0.0
 10
153.5781814908079
 20
137.5125913361022
 30
0.0
 10
153.3971301241561
 20
137.254235778088
 30
0.0
 10
153.2916545137952
 20
137.1315606017137
 30
0.0
 10
153.061127945119
 20
136.9113069176616
 30
0.0
 10
152.9354085074887
 20
136.8123813462278
 30
0.0
 10
152.6626416582918
 20
136.6375426653061
 30
0.0
 10
152.5169222818858
 20
136.5628658203257
 30
0.0
 10
152.0658531767778
 20
136.383239604833
 30
0.0
 10
151.737620408914
 20
136.3194283448448
 30
0.0
 10
151.4072198275862
 20
136.3194283448448
 30
0.0
  0
SPLINE
  5
FD
330
1F
100
AcDbEntity
  8
0
  6
HIDDEN
 62
     7
370
     0
100
AcDbSpline
210
0.0
220
0.0
230
1.0
 70
    11
 71
     3
 72
    60
 73
    56
 74
     0
 42
0.000000001
 43
0.00000001
 40
0.0
 40
0.0
 40
0.0
 40
0.0
 40
0.0312500000000003
 40
0.0312500000000003
 40
0.0625000000000006
 40
0.0625000000000006
 40
0.0937500000000008
 40
0.0937500000000008
 40
0.1250000000000011
 40
0.1250000000000011
 40
0.1562500000000014
 40
0.1562500000000014
 40
0.1875000000000017
 40
0.1875000000000017
 40
0.2187500000000019
 40
0.2187500000000019
 40
0.2500000000000022
 40
0.2500000000000022
 40
0.3125000000000026
 40
0.3125000000000026
 40
0.3750000000000029
 40
0.3750000000000029
 40
0.4062500000000028
 40
0.4062500000000028
 40
0.4375000000000027
 40
0.4375000000000027
 40
0.4531250000000024
 40
0.4531250000000024
 40
0.4687500000000023
 40
0.4687500000000023
 40
0.5000000000000026
 40
0.5000000000000026
 40
0.5625000000000031
 40
0.5625000000000031
 40
0.6250000000000031
 40
0.6250000000000031
 40
0.6875000000000031
 40
0.6875000000000031
 40
0.7187500000000028
 40
0.7187500000000028
 40
0.7500000000000026
 40
0.7500000000000026
 40
0.7812500000000022
 40
0.7812500000000022
 40
0.812500000000002
 40
0.812500000000002
 40
0.8437500000000017
 40
0.8437500000000017
 40
0.8750000000000014
 40
0.8750000000000014
 40
0.9062500000000011
 40
0.9062500000000011
 40
0.9375000000000009
 40
0.9375000000000009
 40
1.0
 40
1.0
 40
1.0
 40
1.0
 10
148.9882447673664
 20
133.6274493382081
 30
0.0
 10
149.0278348502133
 20
133.4959688068542
 30
0.0
 10
149.0801464711334
 20
133.3767849561745
 30
0.0
 10
149.205866576736
 20
133.1615914688466
 30
0.0
 10
149.2802896071802
 20
133.0650035632383
 30
0.0
 10
149.4389999153732
 20
132.9044426514833
 30
0.0
 10
149.5238785151787
 20
132.8391634147813
 30
0.0
 10
149.6956517347205
 20
132.741661240224
 30
0.0
 10
149.7796619710166
 20
132.7111861434268
 30
0.0
 10
149.9250578942952
 20
132.6914371750694
 30
0.0
 10
149.9833241428045
 20
132.7032137245656
 30
0.0
 10
150.0499288676145
 20
132.7676340673489
 30
0.0
 10
150.0570897520124
 20
132.8183472054287
 30
0.0
 10
150.0339444326301
 20
132.9413707178037
 30
0.0
 10
150.0050363466605
 20
133.0118419440891
 30
0.0
 10
149.9296155888153
 20
133.1654636067535
 30
0.0
 10
149.882670116039
 20
133.2490988749375
 30
0.0
 10
149.7310282244175
 20
133.5124791139476
 30
0.0
 10
149.6151010871543
 20
133.7060280393711
 30
0.0
 10
149.3814755161719
 20
134.1428975112671
 30
0.0
 10
149.2627927494701
 20
134.3859026454544
 30
0.0
 10
149.1063214405144
 20
134.7969771839842
 30
0.0
 10
149.0583347919623
 20
134.9406487494675
 30
0.0
 10
148.9777257821721
 20
135.2411116774264
 30
0.0
 10
148.9450262532769
 20
135.3996109317007
 30
0.0
 10
148.9166056439331
 20
135.63482145353
 30
0.0
 10
148.9104595719595
 20
135.7140690613265
 30
0.0
 10
148.9059813701946
 20
135.865746631786
 30
0.0
 10
148.9074975806067
 20
135.9389547040944
 30
0.0
 10
148.9232605202832
 20
136.1507104353214
 30
0.0
 10
148.9487345749686
 20
136.2766085811828
 30
0.0
 10
149.0550993187174
 20
136.598338947202
 30
0.0
 10
149.160977347988
 20
136.736352663562
 30
0.0
 10
149.3841475689331
 20
136.9221645146922
 30
0.0
 10
149.5050340010602
 20
136.9710885494484
 30
0.0
 10
149.734116474742
 20
137.0071398752394
 30
0.0
 10
149.8442792929924
 20
136.9952616920377
 30
0.0
 10
149.9722624603435
 20
136.9306541304883
 30
0.0
 10
150.008603805756
 20
136.9006469167248
 30
0.0
 10
150.0516938089161
 20
136.8201187931749
 30
0.0
 10
150.058178617518
 20
136.7685383759231
 30
0.0
 10
150.0221378648171
 20
136.6389911662975
 30
0.0
 10
149.9779186496919
 20
136.559132341804
 30
0.0
 10
149.8522686748797
 20
136.3770028664991
 30
0.0
 10
149.7711445433983
 20
136.2729504264789
 30
0.0
 10
149.6041991733039
 20
136.0499865307997
 30
0.0
 10
149.516311008574
 20
135.9281831487544
 30
0.0
 10
149.3506715113249
 20
135.6706219256947
 30
0.0
 10
149.2727254231875
 20
135.5351430653809
 30
0.0
 10
149.133469689516
 20
135.2483887440328
 30
0.0
 10
149.074443970617
 20
135.1019367061417
 30
0.0
 10
148.9806590169137
 20
134.8016919762397
 30
0.0
 10
148.9458459588043
 20
134.6459901201146
 30
0.0
 10
148.8875283541276
 20
134.1902271328529
 30
0.0
 10
148.9090646016728
 20
133.8904104009161
 30
0.0
 10
148.9882447673665
 20
133.6274493382081
 30
0.0
  0
LWPOLYLINE
  5
FE
330
1F
100
AcDbEntity
  8
0
  6
HIDDEN
 62
     7
370
     0
100
AcDbPolyline
 90
       18
 70
   128
 43
0.0
 10
132.1894775281
 20
136.9446249971
 10
132.3711305857
 20
136.4124135182
 10
132.6634989299
 20
136.1123216069
 10
133.0270965956
 20
136.0848783385
 10
133.4128177032
 20
136.3337900787
 10
133.76856848
 20
136.8254399175
 10
134.0463028122
 20
137.49342782
 10
134.2085111392
 20
138.2475383185
 10
134.2332863276
 20
138.9859246114
 10
134.1172823511
 20
139.6088635384
 10
133.8761661893
 20
140.0322237456
 10
133.5425019161
 20
140.198828091
 10
133.1613527404
 20
140.0861757347
 10
132.7841949704
 20
139.7094810015
 10
132.4619658529
 20
139.1196186026
 10
132.2381842157
 20
138.3962527234
 10
132.1430730089
 20
137.6370779342
 10
132.1894775281
 20
136.9446249971
  0
LWPOLYLINE
  5
FF
330
1F
100
AcDbEntity
  8
0
  6
HIDDEN
 62
     7
370
     0
100
AcDbPolyline
 90
       21
 70
   128
 43
0.0
 10
131.4766069395
 20
136.492149476
 10
131.6859742006
 20
135.826811388
 10
132.0148854926
 20
135.3925176273
 10
132.4311446866
 20
135.2317798931
 10
132.8940054324
 20
135.3603323148
 10
133.3581596953
 20
135.7655912857
 10
133.778172822
 20
136.4078872341
 10
134.1129310014
 20
137.2243477574
 10
134.3296657704
 20
138.135052011
 10
134.4071616197
 20
139.0508539174
 10
134.3378327157
 20
139.882108405
 10
134.1284654546
 20
140.547446493
 10
133.7995541625
 20
140.9817402537
 10
133.3832949685
 20
141.1424779879
 10
132.9204342227
 20
141.0139255662
 10
132.4562799599
 20
140.6086665953
 10
132.0362668331
 20
139.9663706469
 10
131.7015086538
 20
139.1499101236
 10
131.4847738848
 20
138.23920587
 10
131.4072780355
 20
137.3234039637
 10
131.4766069395
 20
136.492149476
  0
CIRCLE
  5
100
330
1F
100
AcDbEntity
  8
0
  6
HIDDEN
 62
     7
370
     0
100
AcDbCircle
 10
252.1572198276
 20
124.1579741379
 30
0.0
 40
6.000000000000019
  0
LINE
  5
101
330
1F
100
AcDbEntity
  8
0
  6
HIDDEN
 62
     7
370
     0
100
AcDbLine
 10
248.4395055235
 20
141.055088455
 30
0.0
 11
258.1572198276
 21
141.055088455
 31
0.0
  0
LINE
  5
102
330
1F
100
AcDbEntity
  8
0
  6
HIDDEN
 62
     7
370
     0
100
AcDbLine
 10
246.1572198276
 20
141.055088455
 30
0.0
 11
248.4395055235
 21
141.055088455
 31
0.0
  0
LINE
  5
103
330
1F
100
AcDbEntity
  8
0
  6
HIDDEN
 62
     7
370
     0
100
AcDbLine
 10
248.4395055235
 20
148.4579741379
 30
0.0
 11
248.716912609
 21
148.4579741379
 31
0.0
  0
LINE
  5
104
330
1F
100
AcDbEntity
  8
0
  6
HIDDEN
 62
     7
370
     0
100
AcDbLine
 10
255.6125188358
 20
148.4579741379
 30
0.0
 11
258.1572198276
 21
148.4579741379
 31
0.0
  0
LINE
  5
105
330
1F
100
AcDbEntity
  8
0
  6
HIDDEN
 62
     7
370
     0
100
AcDbLine
 10
246.1572198276
 20
148.4579741379
 30
0.0
 11
248.4395055235
 21
148.4579741379
 31
0.0
  0
LINE
  5
106
330
1F
100
AcDbEntity
  8
0
  6
HIDDEN
 62
     7
370
     0
100
AcDbLine
 10
249.9762835135
 20
132.6579741379
 30
0.0
 11
255.6770217312
 21
132.6579741379
 31
0.0
  0
LINE
  5
107
330
1F
100
AcDbEntity
  8
0
  6
HIDDEN
 62
     7
370
     0
100
AcDbLine
 10
248.637417924
 20
132.6579741379
 30
0.0
 11
249.9762835135
 21
132.6579741379
 31
0.0
  0
SPLINE
  5
108
330
1F
100
AcDbEntity
  8
0
  6
HIDDEN
 62
     7
370
     0
100
AcDbSpline
210
0.0
220
0.0
230
1.0
 70
     8
 71
     3
 72
    12
 73
     8
 74
     0
 42
0.000000001
 43
0.00000001
 40
0.0
 40
0.0
 40
0.0
 40
0.0
 40
0.2161857461389906
 40
0.4397628073511796
 40
0.5934185666353988
 40
0.7522096186329009
 40
1.0
 40
1.0
 40
1.0
 40
1.0
 10
251.6578540128115
 20
149.0220757530688
 30
0.0
 10
251.8782148692467
 20
148.9133834962969
 30
0.0
 10
252.3264706427515
 20
148.6922828324973
 30
0.0
 10
252.9854847707282
 20
148.5471800901389
 30
0.0
 10
253.5879999540599
 20
148.5607993332152
 30
0.0
 10
254.2068181503617
 20
148.695514309081
 30
0.0
 10
254.6227273369772
 20
148.8984170273661
 30
0.0
 10
254.8762025021187
 20
149.0220757530688
 30
0.0
  0
SPLINE
  5
109
330
1F
100
AcDbEntity
  8
0
  6
HIDDEN
 62
     7
370
     0
100
AcDbSpline
210
0.0
220
0.0
230
1.0
 70
     8
 71
     3
 72
    12
 73
     8
 74
     0
 42
0.000000001
 43
0.00000001
 40
0.0
 40
0.0
 40
0.0
 40
0.0
 40
0.2161857461389922
 40
0.4397628073511898
 40
0.5934185666353868
 40
0.7522096186328713
 40
1.0
 40
1.0
 40
1.0
 40
1.0
 10
254.8762025021187
 20
149.0220757530688
 30
0.0
 10
254.9103941625258
 20
148.9133834962969
 30
0.0
 10
254.9799464842546
 20
148.6922828324974
 30
0.0
 10
255.0822005217085
 20
148.5471800901389
 30
0.0
 10
255.1756880624265
 20
148.5607993332153
 30
0.0
 10
255.2717052134033
 20
148.6955143090811
 30
0.0
 10
255.3362385697308
 20
148.8984170273661
 30
0.0
 10
255.3755683168935
 20
149.0220757530688
 30
0.0
  0
SPLINE
  5
10A
330
1F
100
AcDbEntity
  8
0
  6
HIDDEN
 62
     7
370
     0
100
AcDbSpline
210
0.0
220
0.0
230
1.0
 70
     8
 71
     3
 72
    11
 73
     7
 74
     0
 42
0.000000001
 43
0.00000001
 40
0.0
 40
0.0
 40
0.0
 40
0.0
 40
0.1849308168246167
 40
0.5198464202157788
 40
0.8714438233692757
 40
1.0
 40
1.0
 40
1.0
 40
1.0
 10
255.3755683168935
 20
149.0220757530688
 30
0.0
 10
255.2173102399495
 20
148.9284700704522
 30
0.0
 10
254.7724417416532
 20
148.6653415132134
 30
0.0
 10
253.9420097349289
 20
148.4709363159892
 30
0.0
 10
253.1750717996445
 20
148.7089971719555
 30
0.0
 10
252.7660870875307
 20
148.9559552663364
 30
0.0
 10
252.6565856423609
 20
149.0220757530688
 30
0.0
  0
SPLINE
  5
10B
330
1F
100
AcDbEntity
  8
0
  6
HIDDEN
 62
     7
370
     0
100
AcDbSpline
210
0.0
220
0.0
230
1.0
 70
     8
 71
     3
 72
    12
 73
     8
 74
     0
 42
0.000000001
 43
0.00000001
 40
0.0
 40
0.0
 40
0.0
 40
0.0
 40
0.2161857461389813
 40
0.4397628073511961
 40
0.593418566635388
 40
0.7522096186328804
 40
1.0
 40
1.0
 40
1.0
 40
1.0
 10
252.6565856423609
 20
149.0220757530688
 30
0.0
 10
252.4362247859258
 20
148.9133834962969
 30
0.0
 10
251.9879690124209
 20
148.6922828324973
 30
0.0
 10
251.3289548844441
 20
148.547180090139
 30
0.0
 10
250.7264397011125
 20
148.5607993332152
 30
0.0
 10
250.1076215048107
 20
148.6955143090812
 30
0.0
 10
249.6917123181951
 20
148.8984170273661
 30
0.0
 10
249.4382371530536
 20
149.0220757530688
 30
0.0
  0
SPLINE
  5
10C
330
1F
100
AcDbEntity
  8
0
  6
HIDDEN
 62
     7
370
     0
100
AcDbSpline
210
0.0
220
0.0
230
1.0
 70
     8
 71
     3
 72
     9
 73
     5
 74
     0
 42
0.000000001
 43
0.00000001
 40
0.0
 40
0.0
 40
0.0
 40
0.0
 40
0.3455123658407755
 40
1.0
 40
1.0
 40
1.0
 40
1.0
 10
249.1255851982204
 20
148.5968708359327
 30
0.0
 10
249.1031121416574
 20
148.6232448093114
 30
0.0
 10
249.0380694433785
 20
148.6995777455133
 30
0.0
 10
248.9781124494116
 20
148.8945009355675
 30
0.0
 10
248.938871338279
 20
149.0220757530688
 30
0.0
  0
SPLINE
  5
10D
330
1F
100
AcDbEntity
  8
0
  6
HIDDEN
 62
     7
370
     0
100
AcDbSpline
210
0.0
220
0.0
230
1.0
 70
     8
 71
     3
 72
    13
 73
     9
 74
     0
 42
0.000000001
 43
0.00000001
 40
0.0
 40
0.0
 40
0.0
 40
0.0
 40
0.1281940639112326
 40
0.3016059688761459
 40
0.4802226824374571
 40
0.6449624637538007
 40
0.8155900900874757
 40
1.0
 40
1.0
 40
1.0
 40
1.0
 10
248.938871338279
 20
149.0220757530688
 30
0.0
 10
249.0485030699108
 20
148.955876222283
 30
0.0
 10
249.3064368901639
 20
148.8001266266104
 30
0.0
 10
249.7407291733244
 20
148.6216521493496
 30
0.0
 10
250.2286018463656
 20
148.5369681617215
 30
0.0
 10
250.7163258556867
 20
148.5862439764242
 30
0.0
 10
251.1943041228725
 20
148.7480417646115
 30
0.0
 10
251.499389654416
 20
148.9283973354875
 30
0.0
 10
251.6578540128115
 20
149.0220757530688
 30
0.0
  0
LINE
  5
10E
330
1F
100
AcDbEntity
  8
0
  6
HIDDEN
 62
     7
370
     0
100
AcDbLine
 10
250.2983626755
 20
141.1579741379
 30
0.0
 11
255.1572198276
 21
141.1579741379
 31
0.0
  0
LINE
  5
10F
330
1F
100
AcDbEntity
  8
0
  6
HIDDEN
 62
     7
370
     0
100
AcDbLine
 10
249.1572198276
 20
141.1579741379
 30
0.0
 11
250.2983626755
 21
141.1579741379
 31
0.0
  0
LINE
  5
110
330
1F
100
AcDbEntity
  8
0
  6
HIDDEN
 62
     7
370
     0
100
AcDbLine
 10
253.2670282575
 20
142.1579741379
 30
0.0
 11
251.6578540128
 21
142.1579741379
 31
0.0
  0
LINE
  5
111
330
1F
100
AcDbEntity
  8
0
  6
HIDDEN
 62
     7
370
     0
100
AcDbLine
 10
251.6578540128
 20
142.1579741379
 30
0.0
 11
250.2983626755
 21
142.1579741379
 31
0.0
  0
LINE
  5
112
330
1F
100
AcDbEntity
  8
0
  6
HIDDEN
 62
     7
370
     0
100
AcDbLine
 10
251.6578540128
 20
142.1579741379
 30
0.0
 11
251.6578540128
 21
149.0220757531
 31
0.0
  0
LINE
  5
113
330
1F
100
AcDbEntity
  8
0
  6
HIDDEN
 62
     7
370
     0
100
AcDbLine
 10
254.8762025021
 20
142.1579741379
 30
0.0
 11
253.2670282575
 21
142.1579741379
 31
0.0
  0
LINE
  5
114
330
1F
100
AcDbEntity
  8
0
  6
HIDDEN
 62
     7
370
     0
100
AcDbLine
 10
255.1258854095
 20
142.1579741379
 30
0.0
 11
254.8762025021
 21
142.1579741379
 31
0.0
  0
LINE
  5
115
330
1F
100
AcDbEntity
  8
0
  6
HIDDEN
 62
     7
370
     0
100
AcDbLine
 10
254.8762025021
 20
142.1579741379
 30
0.0
 11
254.8762025021
 21
149.0220757531
 31
0.0
  0
LINE
  5
116
330
1F
100
AcDbEntity
  8
0
  6
HIDDEN
 62
     7
370
     0
100
AcDbLine
 10
250.2983626755
 20
142.1579741379
 30
0.0
 11
248.9388713383
 21
142.1579741379
 31
0.0
  0
LINE
  5
117
330
1F
100
AcDbEntity
  8
0
  6
HIDDEN
 62
     7
370
     0
100
AcDbLine
 10
249.4382371531
 20
142.1579741379
 30
0.0
 11
249.4382371531
 21
149.0220757531
 31
0.0
  0
LINE
  5
118
330
1F
100
AcDbEntity
  8
0
  6
HIDDEN
 62
     7
370
     0
100
AcDbLine
 10
248.9388713383
 20
142.1579741379
 30
0.0
 11
248.9388713383
 21
149.0220757531
 31
0.0
  0
LINE
  5
119
330
1F
100
AcDbEntity
  8
0
  6
HIDDEN
 62
     7
370
     0
100
AcDbLine
 10
255.3755683169
 20
142.1579741379
 30
0.0
 11
255.1258854095
 21
142.1579741379
 31
0.0
  0
LINE
  5
11A
330
1F
100
AcDbEntity
  8
0
  6
HIDDEN
 62
     7
370
     0
100
AcDbLine
 10
252.6565856424
 20
142.1579741379
 30
0.0
 11
252.6565856424
 21
149.0220757531
 31
0.0
  0
LINE
  5
11B
330
1F
100
AcDbEntity
  8
0
  6
HIDDEN
 62
     7
370
     0
100
AcDbLine
 10
255.3755683169
 20
142.1579741379
 30
0.0
 11
255.3755683169
 21
149.0220757531
 31
0.0
  0
LWPOLYLINE
  5
11C
330
1F
100
AcDbEntity
  8
0
  6
HIDDEN
 62
     7
370
     0
100
AcDbPolyline
 90
       21
 70
   128
 43
0.0
 10
137.8524065844
 20
137.9342009156
 10
137.7065382341
 20
137.0094734656
 10
137.4299695614
 20
136.1330645094
 10
137.0497730347
 20
135.390763062
 10
136.6031649392
 20
134.855230761
 10
136.1338623869
 20
134.5788892393
 10
135.6878039814
 20
134.5887887303
 10
135.3086530274
 20
134.883960203
 10
135.033523462
 20
135.435510217
 10
134.8893468839
 20
136.1894492141
 10
134.8902363011
 20
137.0719763922
 10
135.0361046513
 20
137.9967038422
 10
135.3126733241
 20
138.8731127983
 10
135.6928698507
 20
139.6154142457
 10
136.1394779463
 20
140.1509465467
 10
136.6087804986
 20
140.4272880685
 10
137.054838904
 20
140.4173885774
 10
137.433989858
 20
140.1222171047
 10
137.7091194235
 20
139.5706670907
 10
137.8532960016
 20
138.8167280937
 10
137.8524065844
 20
137.9342009156
  0
LWPOLYLINE
  5
11D
330
1F
100
AcDbEntity
  8
0
  6
HIDDEN
 62
     7
370
     0
100
AcDbPolyline
 90
       17
 70
   128
 43
0.0
 10
138.2247369409
 20
137.6194867567
 10
138.0889952477
 20
136.8515806661
 10
137.8235978055
 20
136.1568260276
 10
137.4689489693
 20
135.6409929368
 10
137.0790408093
 20
135.3826123058
 10
136.7132333084
 20
135.4210202434
 10
136.4272173426
 20
135.7503694893
 10
136.26453625
 20
136.3205196064
 10
136.2499567521
 20
137.0446704077
 10
136.3856984454
 20
137.8125764983
 10
136.6510958875
 20
138.5073311368
 10
137.0057447238
 20
139.0231642276
 10
137.3956528837
 20
139.2815448586
 10
137.7614603846
 20
139.243136921
 10
138.0474763504
 20
138.9137876751
 10
138.210157443
 20
138.343637558
 10
138.2247369409
 20
137.6194867567
  0
LWPOLYLINE
  5
11E
330
1F
100
AcDbEntity
  8
0
  6
HIDDEN
 62
     7
370
     0
100
AcDbPolyline
 90
       21
 70
   128
 43
0.0
 10
134.6655549692
 20
138.563493914
 10
134.519686619
 20
137.638766464
 10
134.2431179462
 20
136.7623575078
 10
133.8629214196
 20
136.0200560605
 10
133.4163133241
 20
135.4845237595
 10
132.9470107717
 20
135.2081822377
 10
132.5009523663
 20
135.2180817288
 10
132.1218014123
 20
135.5132532015
 10
131.8466718468
 20
136.0648032155
 10
131.7024952687
 20
136.8187422125
 10
131.7033846859
 20
137.7012693906
 10
131.8492530362
 20
138.6259968406
 10
132.1258217089
 20
139.5024057968
 10
132.5060182356
 20
140.2447072442
 10
132.9526263311
 20
140.7802395452
 10
133.4219288834
 20
141.0565810669
 10
133.8679872889
 20
141.0466815759
 10
134.2471382429
 20
140.7515101032
 10
134.5222678083
 20
140.1999600892
 10
134.6664443865
 20
139.4460210921
 10
134.6655549692
 20
138.563493914
  0
LWPOLYLINE
  5
11F
330
1F
100
AcDbEntity
  8
0
  6
HIDDEN
 62
     7
370
     0
100
AcDbPolyline
 90
       19
 70
   128
 43
0.0
 10
134.1145510655
 20
138.5385572858
 10
133.9755356858
 20
137.7020867653
 10
133.7076656469
 20
136.9241194896
 10
133.3432500289
 20
136.2984897937
 10
132.9262427335
 20
135.9006578522
 10
132.5069409949
 20
135.7786080687
 10
132.1359187909
 20
135.9470614483
 10
131.8579268752
 20
136.3857000274
 10
131.7064951755
 20
137.0416175196
 10
131.6998885896
 20
137.8357005952
 10
131.8389039693
 20
138.6721711157
 10
132.1067740082
 20
139.4501383915
 10
132.4711896263
 20
140.0757680874
 10
132.8881969217
 20
140.4736000289
 10
133.3074986603
 20
140.5956498123
 10
133.6785208642
 20
140.4271964327
 10
133.9565127799
 20
139.9885578536
 10
134.1079444797
 20
139.3326403614
 10
134.1145510655
 20
138.5385572858
  0
LINE
  5
120
330
1F
100
AcDbEntity
  8
0
  6
HIDDEN
 62
     7
370
     0
100
AcDbLine
 10
134.3304477105
 20
139.1827571143
 30
0.0
 11
133.7841657299
 21
137.5962060169
 31
0.0
  0
LINE
  5
121
330
1F
100
AcDbEntity
  8
0
  6
HIDDEN
 62
     7
370
     0
100
AcDbLine
 10
132.5983969029
 20
139.5247772576
 30
0.0
 11
132.0521149224
 21
137.9382261602
 31
0.0
  0
LINE
  5
122
330
1F
100
AcDbEntity
  8
0
  6
HIDDEN
 62
     7
370
     0
100
AcDbLine
 10
132.3609378471
 20
136.6005778431
 30
0.0
 11
132.0521149224
 21
137.9382261602
 31
0.0
  0
LINE
  5
123
330
1F
100
AcDbEntity
  8
0
  6
HIDDEN
 62
     7
370
     0
100
AcDbLine
 10
133.7841657299
 20
137.5962060169
 30
0.0
 11
132.0521149224
 21
137.9382261602
 31
0.0
  0
LINE
  5
124
330
1F
100
AcDbEntity
  8
0
  6
HIDDEN
 62
     7
370
     0
100
AcDbLine
 10
134.0929886546
 20
136.2585576997
 30
0.0
 11
133.7841657299
 21
137.5962060169
 31
0.0
  0
LINE
  5
125
330
1F
100
AcDbEntity
  8
0
  6
HIDDEN
 62
     7
370
     0
100
AcDbLine
 10
133.4535018081
 20
139.773680038
 30
0.0
 11
132.5983969029
 21
139.5247772576
 31
0.0
  0
LINE
  5
126
330
1F
100
AcDbEntity
  8
0
  6
HIDDEN
 62
     7
370
     0
100
AcDbLine
 10
134.3304477105
 20
139.1827571143
 30
0.0
 11
132.5983969029
 21
139.5247772576
 31
0.0
  0
LINE
  5
127
330
1F
100
AcDbEntity
  8
0
  6
HIDDEN
 62
     7
370
     0
100
AcDbLine
 10
135.1855526157
 20
139.4316598947
 30
0.0
 11
134.3304477105
 21
139.1827571143
 31
0.0
  0
LINE
  5
128
330
1F
100
AcDbEntity
  8
0
  6
HIDDEN
 62
     7
370
     0
100
AcDbLine
 10
134.9480935598
 20
136.5074604801
 30
0.0
 11
133.2160427523
 21
136.8494806234
 31
0.0
  0
LINE
  5
129
330
1F
100
AcDbEntity
  8
0
  6
HIDDEN
 62
     7
370
     0
100
AcDbLine
 10
134.0929886546
 20
136.2585576997
 30
0.0
 11
132.3609378471
 21
136.6005778431
 31
0.0
  0
LINE
  5
12A
330
1F
100
AcDbEntity
  8
0
  6
HIDDEN
 62
     7
370
     0
100
AcDbLine
 10
133.2160427523
 20
136.8494806234
 30
0.0
 11
132.3609378471
 21
136.6005778431
 31
0.0
  0
LINE
  5
12B
330
1F
100
AcDbEntity
  8
0
  6
HIDDEN
 62
     7
370
     0
100
AcDbLine
 10
134.9480935598
 20
136.5074604801
 30
0.0
 11
134.0929886546
 21
136.2585576997
 31
0.0
  0
LINE
  5
12C
330
1F
100
AcDbEntity
  8
0
  6
HIDDEN
 62
     7
370
     0
100
AcDbLine
 10
135.4943755404
 20
138.0940115775
 30
0.0
 11
133.7623247328
 21
138.4360317209
 31
0.0
  0
LINE
  5
12D
330
1F
100
AcDbEntity
  8
0
  6
HIDDEN
 62
     7
370
     0
100
AcDbLine
 10
135.1855526157
 20
139.4316598947
 30
0.0
 11
133.4535018081
 21
139.773680038
 31
0.0
  0
LINE
  5
12E
330
1F
100
AcDbEntity
  8
0
  6
HIDDEN
 62
     7
370
     0
100
AcDbLine
 10
133.4535018081
 20
139.773680038
 30
0.0
 11
133.7623247328
 21
138.4360317209
 31
0.0
  0
LINE
  5
12F
330
1F
100
AcDbEntity
  8
0
  6
HIDDEN
 62
     7
370
     0
100
AcDbLine
 10
135.1855526157
 20
139.4316598947
 30
0.0
 11
135.4943755404
 21
138.0940115775
 31
0.0
  0
LINE
  5
130
330
1F
100
AcDbEntity
  8
0
  6
HIDDEN
 62
     7
370
     0
100
AcDbLine
 10
133.2160427523
 20
136.8494806234
 30
0.0
 11
133.7623247328
 21
138.4360317209
 31
0.0
  0
LINE
  5
131
330
1F
100
AcDbEntity
  8
0
  6
HIDDEN
 62
     7
370
     0
100
AcDbLine
 10
134.9480935598
 20
136.5074604801
 30
0.0
 11
135.4943755404
 21
138.0940115775
 31
0.0
  0
LWPOLYLINE
  5
132
330
1F
100
AcDbEntity
  8
0
  6
HIDDEN
 62
     7
370
     0
100
AcDbPolyline
 90
       19
 70
   128
 43
0.0
 10
134.1145510655
 20
109.77739099
 10
133.9755356858
 20
110.6138615106
 10
133.7076656469
 20
111.3918287863
 10
133.3432500289
 20
112.0174584822
 10
132.9262427335
 20
112.4152904237
 10
132.5069409949
 20
112.5373402072
 10
132.1359187909
 20
112.3688868275
 10
131.8579268752
 20
111.9302482485
 10
131.7064951755
 20
111.2743307562
 10
131.6998885896
 20
110.4802476807
 10
131.8389039693
 20
109.6437771601
 10
132.1067740082
 20
108.8658098844
 10
132.4711896263
 20
108.2401801885
 10
132.8881969217
 20
107.842348247
 10
133.3074986603
 20
107.7202984635
 10
133.6785208642
 20
107.8887518432
 10
133.9565127799
 20
108.3273904222
 10
134.1079444797
 20
108.9833079145
 10
134.1145510655
 20
109.77739099
  0
LWPOLYLINE
  5
133
330
1F
100
AcDbEntity
  8
0
  6
HIDDEN
 62
     7
370
     0
100
AcDbPolyline
 90
       21
 70
   128
 43
0.0
 10
134.6655549692
 20
109.7524543619
 10
134.519686619
 20
110.6771818119
 10
134.2431179462
 20
111.553590768
 10
133.8629214196
 20
112.2958922154
 10
133.4163133241
 20
112.8314245164
 10
132.9470107717
 20
113.1077660381
 10
132.5009523663
 20
113.0978665471
 10
132.1218014123
 20
112.8026950744
 10
131.8466718468
 20
112.2511450604
 10
131.7024952687
 20
111.4972060633
 10
131.7033846859
 20
110.6146788852
 10
131.8492530362
 20
109.6899514352
 10
132.1258217089
 20
108.8135424791
 10
132.5060182356
 20
108.0712410317
 10
132.9526263311
 20
107.5357087307
 10
133.4219288834
 20
107.2593672089
 10
133.8679872889
 20
107.2692667
 10
134.2471382429
 20
107.5644381727
 10
134.5222678083
 20
108.1159881867
 10
134.6664443865
 20
108.8699271838
 10
134.6655549692
 20
109.7524543619
  0
LWPOLYLINE
  5
134
330
1F
100
AcDbEntity
  8
0
  6
HIDDEN
 62
     7
370
     0
100
AcDbPolyline
 90
       21
 70
   128
 43
0.0
 10
137.8524065844
 20
110.3817473603
 10
137.7065382341
 20
111.3064748103
 10
137.4299695614
 20
112.1828837665
 10
137.0497730347
 20
112.9251852138
 10
136.6031649392
 20
113.4607175148
 10
136.1338623869
 20
113.7370590366
 10
135.6878039814
 20
113.7271595455
 10
135.3086530274
 20
113.4319880728
 10
135.033523462
 20
112.8804380588
 10
134.8893468839
 20
112.1264990618
 10
134.8902363011
 20
111.2439718837
 10
135.0361046513
 20
110.3192444337
 10
135.3126733241
 20
109.4428354775
 10
135.6928698507
 20
108.7005340301
 10
136.1394779463
 20
108.1650017291
 10
136.6087804986
 20
107.8886602074
 10
137.054838904
 20
107.8985596984
 10
137.433989858
 20
108.1937311711
 10
137.7091194235
 20
108.7452811851
 10
137.8532960016
 20
109.4992201822
 10
137.8524065844
 20
110.3817473603
  0
LINE
  5
135
330
1F
100
AcDbEntity
  8
0
  6
HIDDEN
 62
     7
370
     0
100
AcDbLine
 10
132.3609378471
 20
111.7153704328
 30
0.0
 11
132.0521149224
 21
110.3777221157
 31
0.0
  0
LINE
  5
136
330
1F
100
AcDbEntity
  8
0
  6
HIDDEN
 62
     7
370
     0
100
AcDbLine
 10
132.5983969029
 20
108.7911710182
 30
0.0
 11
132.0521149224
 21
110.3777221157
 31
0.0
  0
LINE
  5
137
330
1F
100
AcDbEntity
  8
0
  6
HIDDEN
 62
     7
370
     0
100
AcDbLine
 10
133.4535018081
 20
108.5422682379
 30
0.0
 11
132.5983969029
 21
108.7911710182
 31
0.0
  0
LINE
  5
138
330
1F
100
AcDbEntity
  8
0
  6
HIDDEN
 62
     7
370
     0
100
AcDbLine
 10
133.4535018081
 20
108.5422682379
 30
0.0
 11
133.7623247328
 21
109.879916555
 31
0.0
  0
LINE
  5
139
330
1F
100
AcDbEntity
  8
0
  6
HIDDEN
 62
     7
370
     0
100
AcDbLine
 10
133.2160427523
 20
111.4664676525
 30
0.0
 11
133.7623247328
 21
109.879916555
 31
0.0
  0
LINE
  5
13A
330
1F
100
AcDbEntity
  8
0
  6
HIDDEN
 62
     7
370
     0
100
AcDbLine
 10
133.2160427523
 20
111.4664676525
 30
0.0
 11
132.3609378471
 21
111.7153704328
 31
0.0
  0
LINE
  5
13B
330
1F
100
AcDbEntity
  8
0
  6
HIDDEN
 62
     7
370
     0
100
AcDbLine
 10
135.4943755404
 20
110.2219366983
 30
0.0
 11
133.7623247328
 21
109.879916555
 31
0.0
  0
LWPOLYLINE
  5
13C
330
1F
100
AcDbEntity
  8
0
  6
HIDDEN
 62
     7
370
     0
100
AcDbPolyline
 90
       17
 70
   128
 43
0.0
 10
138.2247369409
 20
110.6964615192
 10
138.0889952477
 20
111.4643676097
 10
137.8235978055
 20
112.1591222483
 10
137.4689489693
 20
112.674955339
 10
137.0790408093
 20
112.9333359701
 10
136.7132333084
 20
112.8949280324
 10
136.4272173426
 20
112.5655787865
 10
136.26453625
 20
111.9954286694
 10
136.2499567521
 20
111.2712778681
 10
136.3856984454
 20
110.5033717776
 10
136.6510958875
 20
109.808617139
 10
137.0057447238
 20
109.2927840483
 10
137.3956528837
 20
109.0344034173
 10
137.7614603846
 20
109.0728113549
 10
138.0474763504
 20
109.4021606008
 10
138.210157443
 20
109.9723107179
 10
138.2247369409
 20
110.6964615192
  0
LINE
  5
13D
330
1F
100
AcDbEntity
  8
0
  6
HIDDEN
 62
     7
370
     0
100
AcDbLine
 10
134.9480935598
 20
111.8084877958
 30
0.0
 11
133.2160427523
 21
111.4664676525
 31
0.0
  0
LINE
  5
13E
330
1F
100
AcDbEntity
  8
0
  6
HIDDEN
 62
     7
370
     0
100
AcDbLine
 10
135.1855526157
 20
108.8842883812
 30
0.0
 11
134.3304477105
 21
109.1331911615
 31
0.0
  0
LINE
  5
13F
330
1F
100
AcDbEntity
  8
0
  6
HIDDEN
 62
     7
370
     0
100
AcDbLine
 10
134.3304477105
 20
109.1331911615
 30
0.0
 11
133.7841657299
 21
110.719742259
 31
0.0
  0
LINE
  5
140
330
1F
100
AcDbEntity
  8
0
  6
HIDDEN
 62
     7
370
     0
100
AcDbLine
 10
134.0929886546
 20
112.0573905761
 30
0.0
 11
133.7841657299
 21
110.719742259
 31
0.0
  0
LINE
  5
141
330
1F
100
AcDbEntity
  8
0
  6
HIDDEN
 62
     7
370
     0
100
AcDbLine
 10
134.9480935598
 20
111.8084877958
 30
0.0
 11
134.0929886546
 21
112.0573905761
 31
0.0
  0
LINE
  5
142
330
1F
100
AcDbEntity
  8
0
  6
HIDDEN
 62
     7
370
     0
100
AcDbLine
 10
135.1855526157
 20
108.8842883812
 30
0.0
 11
135.4943755404
 21
110.2219366983
 31
0.0
  0
LINE
  5
143
330
1F
100
AcDbEntity
  8
0
  6
HIDDEN
 62
     7
370
     0
100
AcDbLine
 10
134.9480935598
 20
111.8084877958
 30
0.0
 11
135.4943755404
 21
110.2219366983
 31
0.0
  0
LINE
  5
144
330
1F
100
AcDbEntity
  8
0
  6
HIDDEN
 62
     7
370
     0
100
AcDbLine
 10
134.3304477105
 20
109.1331911615
 30
0.0
 11
132.5983969029
 21
108.7911710182
 31
0.0
  0
LINE
  5
145
330
1F
100
AcDbEntity
  8
0
  6
HIDDEN
 62
     7
370
     0
100
AcDbLine
 10
135.1855526157
 20
108.8842883812
 30
0.0
 11
133.4535018081
 21
108.5422682379
 31
0.0
  0
LINE
  5
146
330
1F
100
AcDbEntity
  8
0
  6
HIDDEN
 62
     7
370
     0
100
AcDbLine
 10
133.7841657299
 20
110.719742259
 30
0.0
 11
132.0521149224
 21
110.3777221157
 31
0.0
  0
LINE
  5
147
330
1F
100
AcDbEntity
  8
0
  6
HIDDEN
 62
     7
370
     0
100
AcDbLine
 10
134.0929886546
 20
112.0573905761
 30
0.0
 11
132.3609378471
 21
111.7153704328
 31
0.0
  0
LWPOLYLINE
  5
148
330
1F
100
AcDbEntity
  8
0
  6
HIDDEN
 62
     7
370
     0
100
AcDbPolyline
 90
       21
 70
   128
 43
0.0
 10
153.047779333
 20
139.6859620718
 10
153.7436381678
 20
139.0940577616
 10
154.2107920967
 20
138.3290591336
 10
154.4035128382
 20
137.4658495834
 10
154.3029355435
 20
136.5889260762
 10
153.9189054188
 20
135.7841279947
 10
153.2890140085
 20
135.1302345826
 10
152.4749194726
 20
134.6912534829
 10
151.5563110563
 20
134.5101552242
 10
150.6231085518
 20
134.6046669659
 10
149.7666603221
 20
134.9655372402
 10
149.0708014873
 20
135.5574415503
 10
148.6036475585
 20
136.3224401783
 10
148.410926817
 20
137.1856497285
 10
148.5115041117
 20
138.0625732357
 10
148.8955342364
 20
138.8673713172
 10
149.5254256467
 20
139.5212647294
 10
150.3395201826
 20
139.9602458291
 10
151.2581285989
 20
140.1413440878
 10
152.1913311034
 20
140.0468323461
 10
153.047779333
 20
139.6859620718
  0
LWPOLYLINE
  5
149
330
1F
100
AcDbEntity
  8
0
  6
HIDDEN
 62
     7
370
     0
100
AcDbPolyline
 90
       17
 70
   128
 43
0.0
 10
152.5009261646
 20
138.5572044565
 10
153.0584597023
 20
138.0441287624
 10
153.3646069376
 20
137.369616895
 10
153.3727597292
 20
136.6363571718
 10
153.0816768884
 20
135.9559817385
 10
152.5356731391
 20
135.4320715873
 10
151.8178726026
 20
135.1443872894
 10
151.0375539037
 20
135.1367261713
 10
150.3135134906
 20
135.4102545688
 10
149.7559799529
 20
135.9233302629
 10
149.4498327176
 20
136.5978421303
 10
149.441679926
 20
137.3311018535
 10
149.7327627668
 20
138.0114772868
 10
150.2787665161
 20
138.535387438
 10
150.9965670526
 20
138.8230717359
 10
151.7768857515
 20
138.830732854
 10
152.5009261646
 20
138.5572044565
  0
LWPOLYLINE
  5
14A
330
1F
100
AcDbEntity
  8
0
  6
HIDDEN
 62
     7
370
     0
100
AcDbPolyline
 90
       21
 70
   128
 43
0.0
 10
153.047779333
 20
140.9445480687
 10
153.7436381678
 20
140.3526437585
 10
154.2107920967
 20
139.5876451305
 10
154.4035128382
 20
138.7244355803
 10
154.3029355435
 20
137.8475120731
 10
153.9189054188
 20
137.0427139916
 10
153.2890140085
 20
136.3888205795
 10
152.4749194726
 20
135.9498394798
 10
151.5563110563
 20
135.7687412211
 10
150.6231085518
 20
135.8632529628
 10
149.7666603221
 20
136.2241232371
 10
149.0708014873
 20
136.8160275472
 10
148.6036475585
 20
137.5810261753
 10
148.410926817
 20
138.4442357254
 10
148.5115041117
 20
139.3211592326
 10
148.8955342364
 20
140.1259573141
 10
149.5254256467
 20
140.7798507263
 10
150.3395201826
 20
141.218831826
 10
151.2581285989
 20
141.3999300847
 10
152.1913311034
 20
141.305418343
 10
153.047779333
 20
140.9445480687
  0
LINE
  5
14B
330
1F
100
AcDbEntity
  8
0
  6
HIDDEN
 62
     7
370
     0
100
AcDbLine
 10
150.624965768
 20
139.46193541
 30
0.0
 11
152.3543972997
 21
139.3724592162
 31
0.0
  0
LINE
  5
14C
330
1F
100
AcDbEntity
  8
0
  6
HIDDEN
 62
     7
370
     0
100
AcDbLine
 10
150.624965768
 20
139.46193541
 30
0.0
 11
150.624965768
 21
140.1459756967
 31
0.0
  0
LINE
  5
14D
330
1F
100
AcDbEntity
  8
0
  6
HIDDEN
 62
     7
370
     0
100
AcDbLine
 10
150.624965768
 20
139.46193541
 30
0.0
 11
149.6777882959
 21
138.0992661364
 31
0.0
  0
LINE
  5
14E
330
1F
100
AcDbEntity
  8
0
  6
HIDDEN
 62
     7
370
     0
100
AcDbLine
 10
152.3543972997
 20
139.3724592162
 30
0.0
 11
152.3543972997
 21
140.0564995029
 31
0.0
  0
LINE
  5
14F
330
1F
100
AcDbEntity
  8
0
  6
HIDDEN
 62
     7
370
     0
100
AcDbLine
 10
153.1366513592
 20
137.9203137488
 30
0.0
 11
152.3543972997
 21
139.3724592162
 31
0.0
  0
LINE
  5
150
330
1F
100
AcDbEntity
  8
0
  6
HIDDEN
 62
     7
370
     0
100
AcDbLine
 10
150.4600423555
 20
136.647120669
 30
0.0
 11
150.4600423555
 21
137.3311609557
 31
0.0
  0
LINE
  5
151
330
1F
100
AcDbEntity
  8
0
  6
HIDDEN
 62
     7
370
     0
100
AcDbLine
 10
149.6777882959
 20
138.7833064231
 30
0.0
 11
150.4600423555
 21
137.3311609557
 31
0.0
  0
LINE
  5
152
330
1F
100
AcDbEntity
  8
0
  6
HIDDEN
 62
     7
370
     0
100
AcDbLine
 10
149.6777882959
 20
138.0992661364
 30
0.0
 11
149.6777882959
 21
138.7833064231
 31
0.0
  0
LINE
  5
153
330
1F
100
AcDbEntity
  8
0
  6
HIDDEN
 62
     7
370
     0
100
AcDbLine
 10
149.6777882959
 20
138.0992661364
 30
0.0
 11
150.4600423555
 21
136.647120669
 31
0.0
  0
LINE
  5
154
330
1F
100
AcDbEntity
  8
0
  6
HIDDEN
 62
     7
370
     0
100
AcDbLine
 10
152.1894738871
 20
136.5576444752
 30
0.0
 11
152.1894738871
 21
137.2416847619
 31
0.0
  0
LINE
  5
155
330
1F
100
AcDbEntity
  8
0
  6
HIDDEN
 62
     7
370
     0
100
AcDbLine
 10
153.1366513592
 20
138.6043540355
 30
0.0
 11
152.1894738871
 21
137.2416847619
 31
0.0
  0
LINE
  5
156
330
1F
100
AcDbEntity
  8
0
  6
HIDDEN
 62
     7
370
     0
100
AcDbLine
 10
153.1366513592
 20
137.9203137488
 30
0.0
 11
153.1366513592
 21
138.6043540355
 31
0.0
  0
LINE
  5
157
330
1F
100
AcDbEntity
  8
0
  6
HIDDEN
 62
     7
370
     0
100
AcDbLine
 10
153.1366513592
 20
137.9203137488
 30
0.0
 11
152.1894738871
 21
136.5576444752
 31
0.0
  0
LINE
  5
158
330
1F
100
AcDbEntity
  8
0
  6
HIDDEN
 62
     7
370
     0
100
AcDbLine
 10
152.1894738871
 20
137.2416847619
 30
0.0
 11
150.4600423555
 21
137.3311609557
 31
0.0
  0
LINE
  5
159
330
1F
100
AcDbEntity
  8
0
  6
HIDDEN
 62
     7
370
     0
100
AcDbLine
 10
152.1894738871
 20
136.5576444752
 30
0.0
 11
150.4600423555
 21
136.647120669
 31
0.0
  0
LWPOLYLINE
  5
15A
330
1F
100
AcDbEntity
  8
0
  6
HIDDEN
 62
     7
370
     0
100
AcDbPolyline
 90
       19
 70
   128
 43
0.0
 10
152.7445492511
 20
140.6177967169
 10
153.3641649517
 20
140.0719579486
 10
153.7477441888
 20
139.3598966383
 10
153.8490216455
 20
138.567497889
 10
153.6557817658
 20
137.7903366844
 10
153.1913321312
 20
137.1221501355
 10
152.511692222
 20
136.6435314014
 10
151.6988366418
 20
136.4122089651
 10
150.8508077699
 20
136.4560837265
 10
150.0698904041
 20
136.7698637417
 10
149.4502747035
 20
137.31570251
 10
149.0666954664
 20
138.0277638203
 10
148.9654180097
 20
138.8201625695
 10
149.1586578893
 20
139.5973237741
 10
149.623107524
 20
140.2655103231
 10
150.3027474332
 20
140.7441290571
 10
151.1156030134
 20
140.9754514934
 10
151.9636318852
 20
140.9315767321
 10
152.7445492511
 20
140.6177967169
  0
LINE
  5
15B
330
1F
100
AcDbEntity
  8
0
  6
HIDDEN
 62
     7
370
     0
100
AcDbLine
 10
153.1366513592
 20
138.6043540355
 30
0.0
 11
152.3543972997
 21
140.0564995029
 31
0.0
  0
LINE
  5
15C
330
1F
100
AcDbEntity
  8
0
  6
HIDDEN
 62
     7
370
     0
100
AcDbLine
 10
150.624965768
 20
140.1459756967
 30
0.0
 11
149.6777882959
 21
138.7833064231
 31
0.0
  0
LINE
  5
15D
330
1F
100
AcDbEntity
  8
0
  6
HIDDEN
 62
     7
370
     0
100
AcDbLine
 10
150.624965768
 20
140.1459756967
 30
0.0
 11
152.3543972997
 21
140.0564995029
 31
0.0
  0
LWPOLYLINE
  5
15E
330
1F
100
AcDbEntity
  8
0
  6
HIDDEN
 62
     7
370
     0
100
AcDbPolyline
 90
       21
 70
   128
 43
0.0
 10
149.7666603221
 20
107.3714002072
 10
150.6231085518
 20
107.0105299329
 10
151.5563110563
 20
106.9160181912
 10
152.4749194726
 20
107.0971164499
 10
153.2890140085
 20
107.5360975496
 10
153.9189054188
 20
108.1899909618
 10
154.3029355435
 20
108.9947890432
 10
154.4035128382
 20
109.8717125504
 10
154.2107920967
 20
110.7349221006
 10
153.7436381678
 20
111.4999207286
 10
153.047779333
 20
112.0918250388
 10
152.1913311034
 20
112.4526953131
 10
151.2581285989
 20
112.5472070548
 10
150.3395201826
 20
112.3661087961
 10
149.5254256467
 20
111.9271276964
 10
148.8955342364
 20
111.2732342842
 10
148.5115041117
 20
110.4684362028
 10
148.410926817
 20
109.5915126955
 10
148.6036475585
 20
108.7283031454
 10
149.0708014873
 20
107.9633045173
 10
149.7666603221
 20
107.3714002072
  0
LWPOLYLINE
  5
15F
330
1F
100
AcDbEntity
  8
0
  6
HIDDEN
 62
     7
370
     0
100
AcDbPolyline
 90
       21
 70
   128
 43
0.0
 10
149.7666603221
 20
108.6299862041
 10
150.6231085518
 20
108.2691159298
 10
151.5563110563
 20
108.1746041881
 10
152.4749194726
 20
108.3557024468
 10
153.2890140085
 20
108.7946835465
 10
153.9189054188
 20
109.4485769587
 10
154.3029355435
 20
110.2533750401
 10
154.4035128382
 20
111.1302985473
 10
154.2107920967
 20
111.9935080975
 10
153.7436381678
 20
112.7585067256
 10
153.047779333
 20
113.3504110357
 10
152.1913311034
 20
113.71128131
 10
151.2581285989
 20
113.8057930517
 10
150.3395201826
 20
113.624694793
 10
149.5254256467
 20
113.1857136933
 10
148.8955342364
 20
112.5318202811
 10
148.5115041117
 20
111.7270221997
 10
148.410926817
 20
110.8500986924
 10
148.6036475585
 20
109.9868891423
 10
149.0708014873
 20
109.2218905142
 10
149.7666603221
 20
108.6299862041
  0
LINE
  5
160
330
1F
100
AcDbEntity
  8
0
  6
HIDDEN
 62
     7
370
     0
100
AcDbLine
 10
150.624965768
 20
111.7583038007
 30
0.0
 11
150.624965768
 21
111.074263514
 31
0.0
  0
LINE
  5
161
330
1F
100
AcDbEntity
  8
0
  6
HIDDEN
 62
     7
370
     0
100
AcDbLine
 10
152.3543972997
 20
111.6688276068
 30
0.0
 11
152.3543972997
 21
110.9847873202
 31
0.0
  0
LINE
  5
162
330
1F
100
AcDbEntity
  8
0
  6
HIDDEN
 62
     7
370
     0
100
AcDbLine
 10
149.6777882959
 20
110.3956345271
 30
0.0
 11
149.885386295
 21
110.0102578202
 31
0.0
  0
LINE
  5
163
330
1F
100
AcDbEntity
  8
0
  6
HIDDEN
 62
     7
370
     0
100
AcDbLine
 10
149.6777882959
 20
110.3956345271
 30
0.0
 11
149.6777882959
 21
109.7115942404
 31
0.0
  0
LINE
  5
164
330
1F
100
AcDbEntity
  8
0
  6
HIDDEN
 62
     7
370
     0
100
AcDbLine
 10
152.9290533602
 20
109.9180185596
 30
0.0
 11
153.1366513592
 21
110.2166821394
 31
0.0
  0
LINE
  5
165
330
1F
100
AcDbEntity
  8
0
  6
HIDDEN
 62
     7
370
     0
100
AcDbLine
 10
153.1366513592
 20
110.2166821394
 30
0.0
 11
153.1366513592
 21
109.5326418528
 31
0.0
  0
LINE
  5
166
330
1F
100
AcDbEntity
  8
0
  6
HIDDEN
 62
     7
370
     0
100
AcDbLine
 10
153.1366513592
 20
110.2166821394
 30
0.0
 11
152.3543972997
 21
111.6688276068
 31
0.0
  0
LINE
  5
167
330
1F
100
AcDbEntity
  8
0
  6
HIDDEN
 62
     7
370
     0
100
AcDbLine
 10
149.6777882959
 20
110.3956345271
 30
0.0
 11
150.624965768
 21
111.7583038007
 31
0.0
  0
LINE
  5
168
330
1F
100
AcDbEntity
  8
0
  6
HIDDEN
 62
     7
370
     0
100
AcDbLine
 10
150.624965768
 20
111.7583038007
 30
0.0
 11
152.3543972997
 21
111.6688276068
 31
0.0
  0
LWPOLYLINE
  5
169
330
1F
100
AcDbEntity
  8
0
  6
HIDDEN
 62
     7
370
     0
100
AcDbPolyline
 90
       17
 70
   128
 43
0.0
 10
150.3135134906
 20
109.7587438194
 10
151.0375539037
 20
109.4852154218
 10
151.8178726026
 20
109.4928765399
 10
152.5356731391
 20
109.7805608378
 10
153.0816768884
 20
110.3044709891
 10
153.3727597292
 20
110.9848464223
 10
153.3646069376
 20
111.7181061456
 10
153.0584597023
 20
112.3926180129
 10
152.5009261646
 20
112.9056937071
 10
151.7768857515
 20
113.1792221046
 10
150.9965670526
 20
113.1715609865
 10
150.2787665161
 20
112.8838766886
 10
149.7327627668
 20
112.3599665374
 10
149.441679926
 20
111.6795911041
 10
149.4498327176
 20
110.9463313808
 10
149.7559799529
 20
110.2718195135
 10
150.3135134906
 20
109.7587438194
  0
LINE
  5
16A
330
1F
100
AcDbEntity
  8
0
  6
HIDDEN
 62
     7
370
     0
100
AcDbLine
 10
131.2072198276
 20
106.7351985351
 30
0.0
 11
133.4883937062
 21
107.1856514973
 31
0.0
  0
LINE
  5
16B
330
1F
100
AcDbEntity
  8
0
  6
HIDDEN
 62
     7
370
     0
100
AcDbLine
 10
132.326045949
 20
113.0719871734
 30
0.0
 11
131.2072198276
 21
112.8510577014
 31
0.0
  0
LINE
  5
16C
330
1F
100
AcDbEntity
  8
0
  6
HIDDEN
 62
     7
370
     0
100
AcDbLine
 10
153.9072198276
 20
109.6222792287
 30
0.0
 11
153.9072198276
 21
122.7046170338
 31
0.0
  0
LINE
  5
16D
330
1F
100
AcDbEntity
  8
0
  6
HIDDEN
 62
     7
370
     0
100
AcDbLine
 10
148.9072198276
 20
112.4649643782
 30
0.0
 11
148.9072198276
 21
109.6221507005
 31
0.0
  0
LINE
  5
16E
330
1F
100
AcDbEntity
  8
0
  6
HIDDEN
 62
     7
370
     0
100
AcDbLine
 10
148.9072198276
 20
122.7056771997
 30
0.0
 11
148.9072198276
 21
114.1172312956
 31
0.0
  0
LINE
  5
16F
330
1F
100
AcDbEntity
  8
0
  6
HIDDEN
 62
     7
370
     0
100
AcDbLine
 10
133.5977282648
 20
108.124620167
 30
0.0
 11
149.8175070188
 21
111.3274656204
 31
0.0
  0
LINE
  5
170
330
1F
100
AcDbEntity
  8
0
  6
HIDDEN
 62
     7
370
     0
100
AcDbLine
 10
149.8220891681
 20
115.6094718528
 30
0.0
 11
132.7840848347
 21
112.2450551402
 31
0.0
  0
ARC
  5
171
330
1F
100
AcDbEntity
  8
0
  6
HIDDEN
 62
     7
370
     0
100
AcDbCircle
 10
265.2072198276
 20
139.1579741379
 30
0.0
 40
1.0
100
AcDbArc
 50
270.0
 51
0.0
  0
ARC
  5
172
330
1F
100
AcDbEntity
  8
0
  6
HIDDEN
 62
     7
370
     0
100
AcDbCircle
 10
265.2072198276
 20
109.1579741379
 30
0.0
 40
1.0
100
AcDbArc
 50
0.0
 51
90.0
  0
ARC
  5
173
330
1F
100
AcDbEntity
  8
0
  6
HIDDEN
 62
     7
370
     0
100
AcDbCircle
 10
240.57556733
 20
137.6579741379
 30
0.0
 40
1.00000000000003
100
AcDbArc
 50
75.0
 51
90.0
  0
ARC
  5
174
330
1F
100
AcDbEntity
  8
0
  6
HIDDEN
 62
     7
370
     0
100
AcDbCircle
 10
240.57556733
 20
110.6579741379
 30
0.0
 40
1.000000000000003
100
AcDbArc
 50
270.0
 51
285.0
  0
LINE
  5
175
330
1F
100
AcDbEntity
  8
0
  6
HIDDEN
 62
     7
370
     0
100
AcDbLine
 10
240.57556733
 20
138.6579741379
 30
0.0
 11
238.7072198276
 21
138.6579741379
 31
0.0
  0
LINE
  5
176
330
1F
100
AcDbEntity
  8
0
  6
HIDDEN
 62
     7
370
     0
100
AcDbLine
 10
238.7072198276
 20
109.6579741379
 30
0.0
 11
240.57556733
 21
109.6579741379
 31
0.0
  0
ARC
  5
177
330
1F
100
AcDbEntity
  8
0
  6
HIDDEN
 62
     7
370
     0
100
AcDbCircle
 10
238.7072198276
 20
137.6579741379
 30
0.0
 40
1.0
100
AcDbArc
 50
90.0
 51
180.0
  0
ARC
  5
178
330
1F
100
AcDbEntity
  8
0
  6
HIDDEN
 62
     7
370
     0
100
AcDbCircle
 10
238.7072198276
 20
110.6579741379
 30
0.0
 40
1.0
100
AcDbArc
 50
180.0
 51
270.0
  0
LINE
  5
179
330
1F
100
AcDbEntity
  8
0
  6
HIDDEN
 62
     7
370
     0
100
AcDbLine
 10
240.8343863751
 20
109.6920483116
 30
0.0
 11
242.5732452314
 21
110.1579741379
 31
0.0
  0
LINE
  5
17A
330
1F
100
AcDbEntity
  8
0
  6
HIDDEN
 62
     7
370
     0
100
AcDbLine
 10
242.5732452314
 20
138.1579741379
 30
0.0
 11
240.8343863751
 21
138.6238999642
 31
0.0
  0
LINE
  5
17B
330
1F
100
AcDbEntity
  8
0
  6
HIDDEN
 62
     7
370
     0
100
AcDbLine
 10
246.6725675328
 20
138.1579741379
 30
0.0
 11
242.5732452314
 21
138.1579741379
 31
0.0
  0
LINE
  5
17C
330
1F
100
AcDbEntity
  8
0
  6
HIDDEN
 62
     7
370
     0
100
AcDbLine
 10
265.2072198276
 20
138.1579741379
 30
0.0
 11
257.6374880179
 21
138.1579741379
 31
0.0
  0
LINE
  5
17D
330
1F
100
AcDbEntity
  8
0
  6
HIDDEN
 62
     7
370
     0
100
AcDbLine
 10
242.5732452314
 20
110.1579741379
 30
0.0
 11
265.2072198276
 21
110.1579741379
 31
0.0
  0
ARC
  5
17E
330
1F
100
AcDbEntity
  8
0
  6
HIDDEN
 62
     7
370
     0
100
AcDbCircle
 10
27.6072198276
 20
110.4579741379
 30
0.0
 40
1.200000000000006
100
AcDbArc
 50
90.0
 51
180.0
  0
ARC
  5
17F
330
1F
100
AcDbEntity
  8
0
  6
HIDDEN
 62
     7
370
     0
100
AcDbCircle
 10
27.6072198276
 20
137.8579741379
 30
0.0
 40
1.200000000000017
100
AcDbArc
 50
180.0
 51
270.0
  0
ARC
  5
180
330
1F
100
AcDbEntity
  8
0
  6
HIDDEN
 62
     7
370
     0
100
AcDbCircle
 10
159.2072198276
 20
161.4579741379
 30
0.0
 40
2.000000000000028
100
AcDbArc
 50
270.0
 51
0.0
  0
ARC
  5
181
330
1F
100
AcDbEntity
  8
0
  6
HIDDEN
 62
     7
370
     0
100
AcDbCircle
 10
159.2072198276
 20
86.8579741379
 30
0.0
 40
2.0
100
AcDbArc
 50
0.0
 51
90.0
  0
LINE
  5
182
330
1F
100
AcDbEntity
  8
0
  6
HIDDEN
 62
     7
370
     0
100
AcDbLine
 10
161.2072198276
 20
161.4579741379
 30
0.0
 11
161.2072198276
 21
173.2580774885
 31
0.0
  0
LINE
  5
183
330
1F
100
AcDbEntity
  8
0
  6
HIDDEN
 62
     7
370
     0
100
AcDbLine
 10
161.2072198276
 20
75.0577587508
 30
0.0
 11
161.2072198276
 21
86.8579741379
 31
0.0
  0
LINE
  5
184
330
1F
100
AcDbEntity
  8
0
  6
HIDDEN
 62
     7
370
     0
100
AcDbLine
 10
37.2995922583
 20
111.4329741379
 30
0.0
 11
38.1762797199
 21
111.4329741379
 31
0.0
  0
LINE
  5
185
330
1F
100
AcDbEntity
  8
0
  6
HIDDEN
 62
     7
370
     0
100
AcDbLine
 10
38.1762797199
 20
136.8829741379
 30
0.0
 11
37.2995922583
 21
136.8829741379
 31
0.0
  0
ARC
  5
186
330
1F
100
AcDbEntity
  8
0
  6
HIDDEN
 62
     7
370
     0
100
AcDbCircle
 10
38.1762797199
 20
111.8329741379
 30
0.0
 40
0.4000000000000199
100
AcDbArc
 50
270.0
 51
330.0
  0
ARC
  5
187
330
1F
100
AcDbEntity
  8
0
  6
HIDDEN
 62
     7
370
     0
100
AcDbCircle
 10
38.1762797199
 20
136.4829741379
 30
0.0
 40
0.4000000000000341
100
AcDbArc
 50
30.0
 51
90.0
  0
ARC
  5
188
330
1F
100
AcDbEntity
  8
0
  6
HIDDEN
 62
     7
370
     0
100
AcDbCircle
 10
37.2995922583
 20
111.8329741379
 30
0.0
 40
0.4000000000000199
100
AcDbArc
 50
255.0
 51
270.0
  0
ARC
  5
189
330
1F
100
AcDbEntity
  8
0
  6
HIDDEN
 62
     7
370
     0
100
AcDbCircle
 10
37.2995922583
 20
136.4829741379
 30
0.0
 40
0.4000000000000341
100
AcDbArc
 50
90.0
 51
105.0
  0
LINE
  5
18A
330
1F
100
AcDbEntity
  8
0
  6
HIDDEN
 62
     7
370
     0
100
AcDbLine
 10
37.1960646403
 20
136.8693444684
 30
0.0
 11
36.4072198276
 21
136.6579741379
 31
0.0
  0
LINE
  5
18B
330
1F
100
AcDbEntity
  8
0
  6
HIDDEN
 62
     7
370
     0
100
AcDbLine
 10
36.4072198276
 20
111.6579741379
 30
0.0
 11
37.1960646403
 21
111.4466038074
 31
0.0
  0
LINE
  5
18C
330
1F
100
AcDbEntity
  8
0
  6
HIDDEN
 62
     7
370
     0
100
AcDbLine
 10
38.5226898814
 20
111.6329741379
 30
0.0
 11
39.6918241765
 21
113.6579741379
 31
0.0
  0
LINE
  5
18D
330
1F
100
AcDbEntity
  8
0
  6
HIDDEN
 62
     7
370
     0
100
AcDbLine
 10
39.6918241765
 20
134.6579741379
 30
0.0
 11
38.5226898814
 21
136.6829741379
 31
0.0
  0
LINE
  5
18E
330
1F
100
AcDbEntity
  8
0
  6
HIDDEN
 62
     7
370
     0
100
AcDbLine
 10
27.6072198276
 20
111.6579741379
 30
0.0
 11
36.4072198276
 21
111.6579741379
 31
0.0
  0
LINE
  5
18F
330
1F
100
AcDbEntity
  8
0
  6
HIDDEN
 62
     7
370
     0
100
AcDbLine
 10
36.4072198276
 20
136.6579741379
 30
0.0
 11
27.6072198276
 21
136.6579741379
 31
0.0
  0
LINE
  5
190
330
1F
100
AcDbEntity
  8
0
  6
HIDDEN
 62
     7
370
     0
100
AcDbLine
 10
39.6918241765
 20
113.6579741379
 30
0.0
 11
89.4072198276
 21
113.6579741379
 31
0.0
  0
LINE
  5
191
330
1F
100
AcDbEntity
  8
0
  6
HIDDEN
 62
     7
370
     0
100
AcDbLine
 10
89.4072198276
 20
134.6579741379
 30
0.0
 11
39.6918241765
 21
134.6579741379
 31
0.0
  0
LINE
  5
192
330
1F
100
AcDbEntity
  8
0
  6
HIDDEN
 62
     7
370
     0
100
AcDbLine
 10
89.4072198276
 20
113.6579741379
 30
0.0
 11
93.1625986965
 21
119.9079741379
 31
0.0
  0
LINE
  5
193
330
1F
100
AcDbEntity
  8
0
  6
HIDDEN
 62
     7
370
     0
100
AcDbLine
 10
93.1625986965
 20
128.4079741379
 30
0.0
 11
89.4072198276
 21
134.6579741379
 31
0.0
  0
LINE
  5
194
330
1F
100
AcDbEntity
  8
0
  6
HIDDEN
 62
     7
370
     0
100
AcDbLine
 10
161.207224148
 20
173.1579746616
 30
0.0
 11
162.2072239973
 21
174.1579744405
 31
0.0
  0
LINE
  5
195
330
1F
100
AcDbEntity
  8
0
  6
HIDDEN
 62
     7
370
     0
100
AcDbLine
 10
162.207223998
 20
74.1579738347
 30
0.0
 11
161.2072241487
 21
75.1579736135
 31
0.0
  0
LINE
  5
196
330
1F
100
AcDbEntity
  8
0
  6
HIDDEN
 62
     7
370
     0
100
AcDbLine
 10
244.6572198276
 20
149.1579741379
 30
0.0
 11
246.6572198276
 21
147.1579741379
 31
0.0
  0
LINE
  5
197
330
1F
100
AcDbEntity
  8
0
  6
HIDDEN
 62
     7
370
     0
100
AcDbLine
 10
257.6572198276
 20
147.1579741379
 30
0.0
 11
259.6572198276
 21
149.1579741379
 31
0.0
  0
LINE
  5
198
330
1F
100
AcDbEntity
  8
0
  6
HIDDEN
 62
     7
370
     0
100
AcDbLine
 10
246.6572198276
 20
147.1579741379
 30
0.0
 11
246.6572198276
 21
138.1519598681
 31
0.0
  0
LINE
  5
199
330
1F
100
AcDbEntity
  8
0
  6
HIDDEN
 62
     7
370
     0
100
AcDbLine
 10
257.6572198276
 20
138.1502344177
 30
0.0
 11
257.6572198276
 21
147.1579741379
 31
0.0
  0
LINE
  5
19A
330
1F
100
AcDbEntity
  8
0
  6
HIDDEN
 62
     7
370
     0
100
AcDbLine
 10
237.7072198276
 20
128.4079741379
 30
0.0
 11
93.1625986965
 21
128.4079741379
 31
0.0
  0
LINE
  5
19B
330
1F
100
AcDbEntity
  8
0
  6
HIDDEN
 62
     7
370
     0
100
AcDbLine
 10
93.1625986965
 20
119.9079741379
 30
0.0
 11
237.7072198276
 21
119.9079741379
 31
0.0
  0
LINE
  5
19C
330
1F
100
AcDbEntity
  8
0
  6
HIDDEN
 62
     7
370
     0
100
AcDbLine
 10
153.9072198276
 20
125.6087364283
 30
0.0
 11
153.9072198276
 21
138.6937664588
 31
0.0
  0
LINE
  5
19D
330
1F
100
AcDbEntity
  8
0
  6
HIDDEN
 62
     7
370
     0
100
AcDbLine
 10
148.9072198276
 20
134.2032050126
 30
0.0
 11
148.9072198276
 21
125.6111184419
 31
0.0
  0
LINE
  5
19E
330
1F
100
AcDbEntity
  8
0
  6
HIDDEN
 62
     7
370
     0
100
AcDbLine
 10
148.9072198276
 20
138.6931954043
 30
0.0
 11
148.9072198276
 21
135.8510706393
 31
0.0
  0
LINE
  5
19F
330
1F
100
AcDbEntity
  8
0
  6
HIDDEN
 62
     7
370
     0
100
AcDbLine
 10
132.7840848347
 20
136.0708931356
 30
0.0
 11
149.8172041842
 21
132.7074410384
 31
0.0
  0
LINE
  5
1A0
330
1F
100
AcDbEntity
  8
0
  6
HIDDEN
 62
     7
370
     0
100
AcDbLine
 10
149.8050842616
 20
136.9909357204
 30
0.0
 11
133.5977282648
 21
140.1913281089
 31
0.0
  0
LINE
  5
1A1
330
1F
100
AcDbEntity
  8
0
  6
HIDDEN
 62
     7
370
     0
100
AcDbLine
 10
131.2072198276
 20
135.4648905745
 30
0.0
 11
132.326045949
 21
135.2439611025
 31
0.0
  0
LINE
  5
1A2
330
1F
100
AcDbEntity
  8
0
  6
HIDDEN
 62
     7
370
     0
100
AcDbLine
 10
133.4883937062
 20
141.1302967785
 30
0.0
 11
131.2072198276
 21
141.5807497407
 31
0.0
  0
LINE
  5
1A3
330
1F
100
AcDbEntity
  8
0
  6
HIDDEN
 62
     7
370
     0
100
AcDbLine
 10
246.1572198276
 20
148.4579741379
 30
0.0
 11
246.1572198276
 21
141.055088455
 31
0.0
  0
LINE
  5
1A4
330
1F
100
AcDbEntity
  8
0
  6
HIDDEN
 62
     7
370
     0
100
AcDbLine
 10
258.1572198276
 20
141.055088455
 30
0.0
 11
258.1572198276
 21
148.4579741379
 31
0.0
  0
LINE
  5
1A5
330
1F
100
AcDbEntity
  8
0
  6
HIDDEN
 62
     7
370
     0
100
AcDbLine
 10
258.1572198276
 20
148.4579741379
 30
0.0
 11
257.8300341727
 21
148.7851597928
 31
0.0
  0
LINE
  5
1A6
330
1F
100
AcDbEntity
  8
0
  6
HIDDEN
 62
     7
370
     0
100
AcDbLine
 10
246.1572198276
 20
141.055088455
 30
0.0
 11
248.3476401761
 21
132.8803284244
 31
0.0
  0
LINE
  5
1A7
330
1F
100
AcDbEntity
  8
0
  6
HIDDEN
 62
     7
370
     0
100
AcDbLine
 10
255.9667994791
 20
132.8803284244
 30
0.0
 11
258.1572198276
 21
141.055088455
 31
0.0
  0
ARC
  5
1A8
330
1F
100
AcDbEntity
  8
0
  6
HIDDEN
 62
     7
370
     0
100
AcDbCircle
 10
248.637417924
 20
132.9579741379
 30
0.0
 40
0.3000000000000241
100
AcDbArc
 50
195.0
 51
270.0
  0
ARC
  5
1A9
330
1F
100
AcDbEntity
  8
0
  6
HIDDEN
 62
     7
370
     0
100
AcDbCircle
 10
255.6770217312
 20
132.9579741379
 30
0.0
 40
0.3000000000000241
100
AcDbArc
 50
270.0
 51
345.0
  0
LINE
  5
1AA
330
1F
100
AcDbEntity
  8
0
  6
HIDDEN
 62
     7
370
     0
100
AcDbLine
 10
248.5572198276
 20
149.1579741379
 30
0.0
 11
249.1572198276
 21
148.5579741379
 31
0.0
  0
LINE
  5
1AB
330
1F
100
AcDbEntity
  8
0
  6
HIDDEN
 62
     7
370
     0
100
AcDbLine
 10
255.1572198276
 20
148.5579741379
 30
0.0
 11
255.7572198276
 21
149.1579741379
 31
0.0
  0
LINE
  5
1AC
330
1F
100
AcDbEntity
  8
0
  6
HIDDEN
 62
     7
370
     0
100
AcDbLine
 10
249.1572198276
 20
142.1579741379
 30
0.0
 11
249.1572198276
 21
141.1579741379
 31
0.0
  0
LINE
  5
1AD
330
1F
100
AcDbEntity
  8
0
  6
HIDDEN
 62
     7
370
     0
100
AcDbLine
 10
255.1572198276
 20
141.1579741379
 30
0.0
 11
255.1572198276
 21
142.1579741379
 31
0.0
  0
LINE
  5
1AE
330
1F
100
AcDbEntity
  8
0
  6
HIDDEN
 62
     7
370
     0
100
AcDbLine
 10
249.1572198276
 20
141.1579741379
 30
0.0
 11
252.1572198276
 21
140.0660634351
 31
0.0
  0
LINE
  5
1AF
330
1F
100
AcDbEntity
  8
0
  6
HIDDEN
 62
     7
370
     0
100
AcDbLine
 10
252.1572198276
 20
140.0660634351
 30
0.0
 11
255.1572198276
 21
141.1579741379
 31
0.0
  0
LINE
  5
1B0
330
1F
100
AcDbEntity
  8
0
  6
HIDDEN
 62
     7
370
     0
100
AcDbLine
 10
136.6153288683
 20
134.8661092498
 30
0.0
 11
137.4000184636
 21
135.5740923128
 31
0.0
  0
LINE
  5
1B1
330
1F
100
AcDbEntity
  8
0
  6
HIDDEN
 62
     7
370
     0
100
AcDbLine
 10
138.0560356758
 20
138.8962800971
 30
0.0
 11
137.5993546866
 21
139.8493909262
 31
0.0
  0
LINE
  5
1B2
330
1F
100
AcDbEntity
  8
0
  6
HIDDEN
 62
     7
370
     0
100
AcDbLine
 10
132.603295949
 20
135.1892138143
 30
0.0
 11
135.7901475641
 21
134.5599208158
 31
0.0
  0
LINE
  5
1B3
330
1F
100
AcDbEntity
  8
0
  6
HIDDEN
 62
     7
370
     0
100
AcDbLine
 10
136.9524953213
 20
140.4462564919
 30
0.0
 11
133.7656437062
 21
141.0755494904
 31
0.0
  0
LINE
  5
1B4
330
1F
100
AcDbEntity
  8
0
  6
HIDDEN
 62
     7
370
     0
100
AcDbLine
 10
132.1348205972
 20
139.5244436113
 30
0.0
 11
132.0515807633
 21
139.3218914474
 31
0.0
  0
LINE
  5
1B5
330
1F
100
AcDbEntity
  8
0
  6
HIDDEN
 62
     7
370
     0
100
AcDbLine
 10
131.6844698276
 20
137.4627764069
 30
0.0
 11
131.6844698276
 21
137.2437872541
 31
0.0
  0
LINE
  5
1B6
330
1F
100
AcDbEntity
  8
0
  6
HIDDEN
 62
     7
370
     0
100
AcDbLine
 10
131.6844698276
 20
111.0721610217
 30
0.0
 11
131.6844698276
 21
110.8531718689
 31
0.0
  0
LINE
  5
1B7
330
1F
100
AcDbEntity
  8
0
  6
HIDDEN
 62
     7
370
     0
100
AcDbLine
 10
132.0515807633
 20
108.9940568285
 30
0.0
 11
132.1348205972
 21
108.7915046646
 31
0.0
  0
LINE
  5
1B8
330
1F
100
AcDbEntity
  8
0
  6
HIDDEN
 62
     7
370
     0
100
AcDbLine
 10
133.7656437062
 20
107.2403987855
 30
0.0
 11
136.9524953213
 21
107.869691784
 31
0.0
  0
LINE
  5
1B9
330
1F
100
AcDbEntity
  8
0
  6
HIDDEN
 62
     7
370
     0
100
AcDbLine
 10
135.7901475641
 20
113.75602746
 30
0.0
 11
132.603295949
 21
113.1267344616
 31
0.0
  0
LINE
  5
1BA
330
1F
100
AcDbEntity
  8
0
  6
HIDDEN
 62
     7
370
     0
100
AcDbLine
 10
137.5993546866
 20
108.4665573496
 30
0.0
 11
138.0560356758
 21
109.4196681787
 31
0.0
  0
LINE
  5
1BB
330
1F
100
AcDbEntity
  8
0
  6
HIDDEN
 62
     7
370
     0
100
AcDbLine
 10
137.4000184636
 20
112.7418559631
 30
0.0
 11
136.6153288683
 21
113.4498390261
 31
0.0
  0
LINE
  5
1BC
330
1F
100
AcDbEntity
  8
0
  6
HIDDEN
 62
     7
370
     0
100
AcDbLine
 10
148.4072198276
 20
138.5843356529
 30
0.0
 11
148.4072198276
 21
137.325749656
 31
0.0
  0
LINE
  5
1BD
330
1F
100
AcDbEntity
  8
0
  6
HIDDEN
 62
     7
370
     0
100
AcDbLine
 10
154.4072198276
 20
137.325749656
 30
0.0
 11
154.4072198276
 21
138.5843356529
 31
0.0
  0
LINE
  5
1BE
330
1F
100
AcDbEntity
  8
0
  6
HIDDEN
 62
     7
370
     0
100
AcDbLine
 10
154.4072198276
 20
109.731612623
 30
0.0
 11
154.4072198276
 21
110.9901986199
 31
0.0
  0
LINE
  5
1BF
330
1F
100
AcDbEntity
  8
0
  6
HIDDEN
 62
     7
370
     0
100
AcDbLine
 10
148.4072198276
 20
110.9901986199
 30
0.0
 11
148.4072198276
 21
109.731612623
 31
0.0
  0
DIMENSION
  5
1C0
330
1F
100
AcDbEntity
  8
VERMASSUNG
100
AcDbDimension
  2
_D
 10
16.4072198276
 20
174.1579741379
 30
0.0
 11
16.4072198276
 21
124.1579741379
 31
0.0
 70
   160
  1
MAS-BT 50 %%c<>
 71
     2
 42
-1.0
  3
SLDDIMSTYLE0
100
AcDbAlignedDimension
 13
165.2072198276
 23
74.1579741379
 33
0.0
 14
165.2072198276
 24
174.1579741379
 34
0.0
 50
90.0
100
AcDbRotatedDimension
  0
DIMENSION
  5
1CD
330
1F
100
AcDbEntity
  8
VERMASSUNG
100
AcDbDimension
  2
_D_1
 10
275.3350215517
 20
110.1579741379
 30
0.0
 11
275.3350215517
 21
124.1579741379
 31
0.0
 70
   160
  1
%%c<>
 71
     2
 42
-1.0
  3
SLDDIMSTYLE0
100
AcDbAlignedDimension
 13
265.2072198276
 23
138.1579741379
 33
0.0
 14
265.2072198276
 24
110.1579741379
 34
0.0
 50
90.0
100
AcDbRotatedDimension
  0
DIMENSION
  5
1D8
330
1F
100
AcDbEntity
  8
VERMASSUNG
100
AcDbDimension
  2
_D_2
 10
282.2072198276
 20
149.1579741379
 30
0.0
 11
282.2072198276
 21
124.1579741379
 31
0.0
 70
   160
  1
WH%%c<>
 71
     2
 42
-1.0
  3
SLDDIMSTYLE0
100
AcDbAlignedDimension
 13
265.7072198276
 23
99.1579741379
 33
0.0
 14
265.7072198276
 24
149.1579741379
 34
0.0
 50
90.0
100
AcDbRotatedDimension
  0
DIMENSION
  5
1E4
330
1F
100
AcDbEntity
  8
VERMASSUNG
100
AcDbDimension
  2
_D_3
 10
266.2072198276
 20
193.5352828626
 30
0.0
 11
146.3072198276
 21
193.5352828626
 31
0.0
 70
   160
  1
<>
 71
     2
 42
-1.0
  3
SLDDIMSTYLE0
100
AcDbAlignedDimension
 13
26.4072198276
 23
142.5076519987
 33
0.0
 14
266.2072198276
 24
148.6579741379
 34
0.0
100
AcDbRotatedDimension
  0
DIMENSION
  5
1EE
330
1F
100
AcDbEntity
  8
VERMASSUNG
100
AcDbDimension
  2
_D_4
 10
266.2072198276
 20
187.5352828626
 30
0.0
 11
197.2072198276
 21
187.5352828626
 31
0.0
 70
   160
  1
<>
 71
     2
 42
-1.0
  3
SLDDIMSTYLE0
100
AcDbAlignedDimension
 13
128.2072198276
 23
159.0829741379
 33
0.0
 14
266.2072198276
 24
148.6579741379
 34
0.0
100
AcDbRotatedDimension
  0
DIMENSION
  5
1F8
330
1F
100
AcDbEntity
  8
VERMASSUNG
100
AcDbDimension
  2
_D_5
 10
266.2072198276
 20
181.5352828626
 30
0.0
 11
216.2072198276
 21
181.5352828626
 31
0.0
 70
   160
  1
<>
 71
     2
 42
-1.0
  3
SLDDIMSTYLE0
100
AcDbAlignedDimension
 13
166.2072198276
 23
173.1579741379
 33
0.0
 14
266.2072198276
 24
148.6579741379
 34
0.0
100
AcDbRotatedDimension
  0
LINE
  5
202
330
1F
100
AcDbEntity
  8
VERMASSUNG
  6
CENTERX2
370
     0
100
AcDbLine
 10
24.4072198276
 20
124.1579741379
 30
0.0
 11
271.1802801724
 21
124.1579741379
 31
0.0
  0
LINE
  5
203
330
1F
100
AcDbEntity
  8
0
  6
Continuous
 62
     7
370
    15
100
AcDbLine
 10
274.1014992436
 20
15.8264498752
 30
0.0
 11
274.2782472078
 21
15.9285174753
 31
0.0
  0
LINE
  5
204
330
1F
100
AcDbEntity
  8
0
  6
Continuous
 62
     7
370
    15
100
AcDbLine
 10
282.9388974492
 20
30.9308292519
 30
0.0
 11
282.9388974492
 21
31.1349312798
 31
0.0
  0
LINE
  5
205
330
1F
100
AcDbEntity
  8
0
  6
Continuous
 62
     7
370
    15
100
AcDbLine
 10
280.3495547634
 20
36.8579913607
 30
0.0
 11
246.2316525711
 21
56.5538370584
 31
0.0
  0
LINE
  5
206
330
1F
100
AcDbEntity
  8
0
  6
Continuous
 62
     7
370
    15
100
AcDbLine
 10
233.7326684132
 20
34.9026154989
 30
0.0
 11
267.8505706054
 21
15.2067698012
 31
0.0
  0
SPLINE
  5
207
330
1F
100
AcDbEntity
  8
0
  6
Continuous
 62
     7
370
    15
100
AcDbSpline
210
0.0
220
0.0
230
1.0
 70
     8
 71
     3
 72
    24
 73
    20
 74
     0
 42
0.000000001
 43
0.00000001
 40
0.0
 40
0.0
 40
0.0
 40
0.0
 40
0.0215162879919806
 40
0.0876343381060066
 40
0.1534672171073282
 40
0.2169378934240496
 40
0.2788029547379597
 40
0.3400298380008962
 40
0.4011283298776206
 40
0.4622645965797987
 40
0.5235293147667311
 40
0.5849239914600438
 40
0.6464139995360814
 40
0.7079515706035335
 40
0.7694825086832972
 40
0.830937395329721
 40
0.8922624589848026
 40
0.9534083525181868
 40
1.0
 40
1.0
 40
1.0
 40
1.0
 10
270.5468852797239
 20
20.02455748303379
 30
0.0
 10
270.4902673902967
 20
20.04755880235026
 30
0.0
 10
270.2596666813467
 20
20.14124156931341
 30
0.0
 10
269.9333434169321
 20
20.43910299123083
 30
0.0
 10
269.5742926650428
 20
20.92410099304661
 30
0.0
 10
269.3147344315478
 20
21.54098771495862
 30
0.0
 10
269.1560992514121
 20
22.25579134575081
 30
0.0
 10
269.1023247153669
 20
23.05594094952015
 30
0.0
 10
269.1547210590856
 20
23.9252190510223
 30
0.0
 10
269.3137247729186
 20
24.84550750866486
 30
0.0
 10
269.5771625908268
 20
25.79612654907917
 30
0.0
 10
269.9402208689761
 20
26.75537938890227
 30
0.0
 10
270.3953144436443
 20
27.70092230952886
 30
0.0
 10
270.9322957256025
 20
28.61069314698098
 30
0.0
 10
271.5386415541141
 20
29.46318807806514
 30
0.0
 10
272.1998842392887
 20
30.23933236800479
 30
0.0
 10
272.8995261867428
 20
30.91861407493038
 30
0.0
 10
273.5645724085596
 20
31.45104280453299
 30
0.0
 10
273.9895024953714
 20
31.71242653111393
 30
0.0
 10
274.1732656722788
 20
31.82546325286929
 30
0.0
  0
SPLINE
  5
208
330
1F
100
AcDbEntity
  8
0
  6
Continuous
 62
     7
370
    15
100
AcDbSpline
210
0.0
220
0.0
230
1.0
 70
     8
 71
     3
 72
    13
 73
     9
 74
     0
 42
0.000000001
 43
0.00000001
 40
0.0
 40
0.0
 40
0.0
 40
0.0
 40
0.0970872213167744
 40
0.2824263917880354
 40
0.4677051665835782
 40
0.6538945039964803
 40
0.8432647442896415
 40
0.9999999999999999
 40
0.9999999999999999
 40
0.9999999999999999
 40
0.9999999999999999
 10
274.1732656722788
 20
31.82546325286929
 30
0.0
 10
274.2979803348699
 20
31.89415005543371
 30
0.0
 10
274.6607748579901
 20
32.09395972707355
 30
0.0
 10
275.2483888779946
 20
32.32667065191606
 30
0.0
 10
275.9094058615898
 20
32.47730410059756
 30
0.0
 10
276.5153593407592
 20
32.49156874578499
 30
0.0
 10
277.0311090862925
 20
32.39952999087477
 30
0.0
 10
277.3098300551455
 20
32.24541539494815
 30
0.0
 10
277.4360499586993
 20
32.17562398487181
 30
0.0
  0
SPLINE
  5
209
330
1F
100
AcDbEntity
  8
0
  6
Continuous
 62
     7
370
    15
100
AcDbSpline
210
0.0
220
0.0
230
1.0
 70
     8
 71
     3
 72
    18
 73
    14
 74
     0
 42
0.000000001
 43
0.00000001
 40
0.0
 40
0.0
 40
0.0
 40
0.0
 40
0.0234738469723925
 40
0.12510143593509
 40
0.2271486528155718
 40
0.3295646705161873
 40
0.4322599345059802
 40
0.5351388601425212
 40
0.6381198181417121
 40
0.7411424523899135
 40
0.8441592446247201
 40
0.9471496538201996
 40
1.0
 40
1.0
 40
1.0
 40
1.0
 10
229.9313073792438
 20
23.72829439202277
 30
0.0
 10
230.0255496061958
 20
23.71642834778141
 30
0.0
 10
230.5278037927923
 20
23.65318949412397
 30
0.0
 10
231.4893766828858
 20
23.68190391060115
 30
0.0
 10
232.809461110631
 20
23.82065162218273
 30
0.0
 10
234.1709914719628
 20
24.11618311382009
 30
0.0
 10
235.5595998166595
 20
24.55156223592838
 30
0.0
 10
236.9675742216387
 20
25.12799954320692
 30
0.0
 10
238.385066429499
 20
25.84098720942256
 30
0.0
 10
239.8034416355778
 20
26.68403407622369
 30
0.0
 10
241.2116304165528
 20
27.65839821298679
 30
0.0
 10
242.381588654828
 20
28.55722709407528
 30
0.0
 10
243.0679432790786
 20
29.17096661229124
 30
0.0
 10
243.3007070346598
 20
29.37910437396873
 30
0.0
  0
SPLINE
  5
20A
330
1F
100
AcDbEntity
  8
0
  6
Continuous
 62
     7
370
    15
100
AcDbSpline
210
0.0
220
0.0
230
1.0
 70
     8
 71
     3
 72
    18
 73
    14
 74
     0
 42
0.000000001
 43
0.00000001
 40
0.0
 40
0.0
 40
0.0
 40
0.0
 40
0.031461081114746
 40
0.1342475347914918
 40
0.2370840564080306
 40
0.3399704982149734
 40
0.4429004310778344
 40
0.5458575347386763
 40
0.6487974606408462
 40
0.7516612366064571
 40
0.8543666218076791
 40
0.9568118977508375
 40
1.0
 40
1.0
 40
1.0
 40
1.0
 10
255.8014276710374
 20
51.02932348582764
 30
0.0
 10
255.8413199334595
 20
51.21203815278311
 30
0.0
 10
256.0115441501
 20
51.99169965009651
 30
0.0
 10
256.2013736379125
 20
53.33884555196104
 30
0.0
 10
256.3662659030035
 20
55.05658255940657
 30
0.0
 10
256.4101182836601
 20
56.71988880198597
 30
0.0
 10
256.3422162709046
 20
58.32082518275985
 30
0.0
 10
256.1598865201121
 20
59.84869573708082
 30
0.0
 10
255.8638918917629
 20
61.29307482734973
 30
0.0
 10
255.457548507576
 20
62.64667006083598
 30
0.0
 10
254.935434317839
 20
63.89109843087655
 30
0.0
 10
254.4460456087403
 20
64.8289305298998
 30
0.0
 10
254.0951165108079
 20
65.30647858007846
 30
0.0
 10
253.9910472242759
 20
65.44809717243692
 30
0.0
  0
LINE
  5
20B
330
1F
100
AcDbEntity
  8
0
  6
Continuous
 62
     7
370
    15
100
AcDbLine
 10
223.8504152459
 20
26.1741530564
 30
0.0
 11
226.0689627718
 21
24.893412831
 31
0.0
  0
LINE
  5
20C
330
1F
100
AcDbEntity
  8
0
  6
Continuous
 62
     7
370
    15
100
AcDbLine
 10
251.0669310877
 20
68.19585595
 30
0.0
 11
248.8483835618
 21
69.4765961754
 31
0.0
  0
LINE
  5
20D
330
1F
100
AcDbEntity
  8
0
  6
Continuous
 62
     7
370
    15
100
AcDbLine
 10
243.5274050333
 20
72.5483316962
 30
0.0
 11
239.3996691982
 21
74.9312228725
 31
0.0
  0
SPLINE
  5
20E
330
1F
100
AcDbEntity
  8
0
  6
Continuous
 62
     7
370
    15
100
AcDbSpline
210
0.0
220
0.0
230
1.0
 70
     8
 71
     3
 72
    31
 73
    27
 74
     0
 42
0.000000001
 43
0.00000001
 40
0.0
 40
0.0
 40
0.0
 40
0.0
 40
0.018342481450696
 40
0.0620149509310538
 40
0.105864957153825
 40
0.1498655462930296
 40
0.1939766288579195
 40
0.2381579821269867
 40
0.2823764970167145
 40
0.3266079441111511
 40
0.370833879296485
 40
0.415047333874742
 40
0.4592453778710863
 40
0.503427682981613
 40
0.5475955173449968
 40
0.5917510864138393
 40
0.6358971226055855
 40
0.6800366424902103
 40
0.724172811530625
 40
0.768308874283194
 40
0.8124474407720712
 40
0.856591413997809
 40
0.9007441210778869
 40
0.9449088566948951
 40
0.9890887974791109
 40
1.0
 40
1.0
 40
1.0
 40
1.0
 10
235.4924536534144
 20
76.09507881839689
 30
0.0
 10
235.3195895497547
 20
76.1130405505562
 30
0.0
 10
234.7351452402423
 20
76.1737682084519
 30
0.0
 10
233.6864107145539
 20
76.12411833075316
 30
0.0
 10
232.3562483585443
 20
75.95018267270811
 30
0.0
 10
230.9878516855729
 20
75.62302658436995
 30
0.0
 10
229.5940816656769
 20
75.1556826567455
 30
0.0
 10
228.1831583630001
 20
74.54819865554879
 30
0.0
 10
226.7646708419177
 20
73.80551746330842
 30
0.0
 10
225.3477784680788
 20
72.93251861083569
 30
0.0
 10
223.9415435093467
 20
71.93517509049022
 30
0.0
 10
222.5547870625861
 20
70.82010559251101
 30
0.0
 10
221.1960898588195
 20
69.59457430476735
 30
0.0
 10
219.8738256912322
 20
68.26646166390745
 30
0.0
 10
218.5961365178919
 20
66.8442325154571
 30
0.0
 10
217.3708967119883
 20
65.33689306207022
 30
0.0
 10
216.205672132022
 20
63.75394490740216
 30
0.0
 10
215.1076794497528
 20
62.10533368219701
 30
0.0
 10
214.0837344376456
 20
60.40138975653925
 30
0.0
 10
213.1402471930937
 20
58.65278388566286
 30
0.0
 10
212.2830595235539
 20
56.87042833523132
 30
0.0
 10
211.5178516841903
 20
55.06551864299052
 30
0.0
 10
210.8484425843037
 20
53.24902134155916
 30
0.0
 10
210.2829873119676
 20
51.433220709166
 30
0.0
 10
209.9293388752421
 20
50.07958969947953
 30
0.0
 10
209.772013211881
 20
49.33710471509834
 30
0.0
 10
209.74085371742
 20
49.19005015156468
 30
0.0
  0
LINE
  5
20F
330
1F
100
AcDbEntity
  8
0
  6
Continuous
 62
     7
370
    15
100
AcDbLine
 10
224.9768818436
 20
72.6474980668
 30
0.0
 11
194.630321186
 21
83.5831956316
 31
0.0
  0
LINE
  5
210
330
1F
100
AcDbEntity
  8
0
  6
Continuous
 62
     7
370
    15
100
AcDbLine
 10
184.5209665107
 20
66.0713822607
 30
0.0
 11
213.9847038372
 21
41.1924460353
 31
0.0
  0
LINE
  5
211
330
1F
100
AcDbEntity
  8
0
  6
Continuous
 62
     7
370
    15
100
AcDbLine
 10
214.4017008823
 20
31.6287797535
 30
0.0
 11
218.5294367174
 21
29.2458885771
 31
0.0
  0
SPLINE
  5
212
330
1F
100
AcDbEntity
  8
0
  6
Continuous
 62
     7
370
    15
100
AcDbSpline
210
0.0
220
0.0
230
1.0
 70
     8
 71
     3
 72
    11
 73
     7
 74
     0
 42
0.000000001
 43
0.00000001
 40
0.0
 40
0.0
 40
0.0
 40
0.0
 40
0.1050885860694574
 40
0.4236183153902486
 40
0.7416590627631888
 40
1.0
 40
1.0
 40
1.0
 40
1.0
 10
209.7461421524738
 20
38.10319211295685
 30
0.0
 10
209.7885489078608
 20
37.95283849948443
 30
0.0
 10
209.9594930507986
 20
37.34675417734954
 30
0.0
 10
210.3406058248666
 20
36.35673748442208
 30
0.0
 10
210.8805528636415
 20
35.23904777772245
 30
0.0
 10
211.3109864140544
 20
34.60906212492737
 30
0.0
 10
211.5039117095678
 20
34.32669526918833
 30
0.0
  0
SPLINE
  5
213
330
1F
100
AcDbEntity
  8
0
  6
Continuous
 62
     7
370
    15
100
AcDbSpline
210
0.0
220
0.0
230
1.0
 70
     8
 71
     3
 72
    26
 73
    22
 74
     0
 42
0.000000001
 43
0.00000001
 40
0.0
 40
0.0
 40
0.0
 40
0.0
 40
0.0211003487122628
 40
0.0734660947596716
 40
0.1265293848983989
 40
0.1807963946600735
 40
0.2363312363639711
 40
0.2928241536681345
 40
0.3498299648572936
 40
0.4069680242110202
 40
0.464024702657787
 40
0.5209555255077407
 40
0.5777730718169946
 40
0.6345160112361959
 40
0.6912339037794962
 40
0.7479784728614466
 40
0.8047900183011125
 40
0.8617257557541511
 40
0.9188408427311997
 40
0.9761800833651304
 40
0.9999999999999999
 40
0.9999999999999999
 40
0.9999999999999999
 40
0.9999999999999999
 10
194.6707516996835
 20
83.54835715009939
 30
0.0
 10
194.5715826783377
 20
83.59045736843484
 30
0.0
 10
194.2263011467968
 20
83.73703971509714
 30
0.0
 10
193.5714324618423
 20
83.8377341295384
 30
0.0
 10
192.7253909120793
 20
83.85253747180201
 30
0.0
 10
191.8382543610637
 20
83.71406282873774
 30
0.0
 10
190.9240305604663
 20
83.4331978440246
 30
0.0
 10
189.9945755348532
 20
83.0085477777647
 30
0.0
 10
189.0666136984773
 20
82.44743597497452
 30
0.0
 10
188.1567768092044
 20
81.76030371255521
 30
0.0
 10
187.2802178325357
 20
80.96032774786649
 30
0.0
 10
186.4500920218875
 20
80.06155120356178
 30
0.0
 10
185.6781037164372
 20
79.07847721527575
 30
0.0
 10
184.9750778455505
 20
78.02623669282333
 30
0.0
 10
184.3510513904793
 20
76.92056598407015
 30
0.0
 10
183.8152112113635
 20
75.77774105440871
 30
0.0
 10
183.3759405786251
 20
74.614383096889
 30
0.0
 10
183.040016488433
 20
73.44680028266724
 30
0.0
 10
182.8155022967659
 20
72.29214538832801
 30
0.0
 10
182.7236517002087
 20
71.38455632822176
 30
0.0
 10
182.7163850175374
 20
70.87124140793078
 30
0.0
 10
182.7142522726781
 20
70.72058535111309
 30
0.0
  0
SPLINE
  5
214
330
1F
100
AcDbEntity
  8
0
  6
Continuous
 62
     7
370
    15
100
AcDbSpline
210
0.0
220
0.0
230
1.0
 70
     8
 71
     3
 72
    13
 73
     9
 74
     0
 42
0.000000001
 43
0.00000001
 40
0.0
 40
0.0
 40
0.0
 40
0.0
 40
0.1011487783717619
 40
0.2919018006118885
 40
0.4826418266735833
 40
0.6715266520409041
 40
0.8566629140943125
 40
0.9999999999999999
 40
0.9999999999999999
 40
0.9999999999999999
 40
0.9999999999999999
 10
182.7142522726781
 20
70.72058535111309
 30
0.0
 10
182.7177097060441
 20
70.52993971942648
 30
0.0
 10
182.7276873947642
 20
69.97976201027438
 30
0.0
 10
182.8395472018306
 20
69.1164460832283
 30
0.0
 10
183.0912385930937
 20
68.16833586836563
 30
0.0
 10
183.4731054750326
 20
67.32363408546365
 30
0.0
 10
183.9272457672172
 20
66.63154802123265
 30
0.0
 10
184.3026205482546
 20
66.28672436602531
 30
0.0
 10
184.4664241797233
 20
66.13625243825442
 30
0.0
  0
LINE
  5
215
330
1F
100
AcDbEntity
  8
0
  6
Continuous
 62
     7
370
    15
100
AcDbLine
 10
271.2542738561
 20
39.2289070361
 30
0.0
 11
271.1835516884
 21
39.2697473456
 31
0.0
  0
LINE
  5
216
330
1F
100
AcDbEntity
  8
0
  6
Continuous
 62
     7
370
    15
100
AcDbLine
 10
267.4352767954
 20
39.2697473456
 30
0.0
 11
267.3645546276
 21
39.2289070361
 31
0.0
  0
LINE
  5
217
330
1F
100
AcDbEntity
  8
0
  6
Continuous
 62
     7
370
    15
100
AcDbLine
 10
273.1478189602
 20
28.8542695062
 30
0.0
 11
275.7131253951
 21
29.3769314812
 31
0.0
  0
LWPOLYLINE
  5
218
330
1F
100
AcDbEntity
  8
0
  6
Continuous
 62
     7
370
    15
100
AcDbPolyline
 90
       53
 70
   128
 43
0.0
 10
274.2768393797
 20
35.9329545126
 10
273.2327436558
 20
35.2572804831
 10
272.2038731987
 20
34.4455985068
 10
271.2052312564
 20
33.5097447347
 10
270.2513802772
 20
32.463366022
 10
269.3562295563
 20
31.3217209267
 10
268.5328324068
 20
30.1014572051
 10
267.7931958134
 20
28.8203690499
 10
267.1481053431
 20
27.4971376112
 10
266.6069678675
 20
26.1510585832
 10
266.1776743896
 20
24.801760829
 10
265.866484975
 20
23.4689201483
 10
265.6779374661
 20
22.1719723596
 10
265.6147813102
 20
20.929829882
 10
265.6779374661
 20
19.76060595
 10
265.866484975
 20
18.6813504814
 10
266.1776743896
 20
17.7078014511
 10
266.6069678675
 20
16.8541553962
 10
267.1481053431
 20
16.1328603985
 10
267.7931958134
 20
15.5544345633
 10
268.5328324068
 20
15.1273126417
 10
269.3562295563
 20
14.8577230331
 10
270.2513802772
 20
14.7495969612
 10
271.2052312564
 20
14.8045111474
 10
272.2038731987
 20
15.0216648194
 10
273.2327436558
 20
15.3978913876
 10
274.2768393797
 20
15.9277046214
 10
275.3209351036
 20
16.6033786508
 10
276.3498055607
 20
17.4150606271
 10
277.348447503
 20
18.3509143993
 10
278.3022984822
 20
19.3972931119
 10
279.1974492032
 20
20.5389382072
 10
280.0208463526
 20
21.7592019288
 10
280.760482946
 20
23.040290084
 10
281.4055734164
 20
24.3635215227
 10
281.9467108919
 20
25.7096005508
 10
282.3760043698
 20
27.0588983049
 10
282.6871937844
 20
28.3917389856
 10
282.8757412933
 20
29.6886867743
 10
282.9388974492
 20
30.9308292519
 10
282.8757412933
 20
32.1000531839
 10
282.6871937844
 20
33.1793086525
 10
282.3760043698
 20
34.1528576829
 10
281.9467108919
 20
35.0065037377
 10
281.4055734164
 20
35.7277987354
 10
280.760482946
 20
36.3062245707
 10
280.0208463526
 20
36.7333464923
 10
279.1974492032
 20
37.0029361008
 10
278.3022984822
 20
37.1110621728
 10
277.348447503
 20
37.0561479865
 10
276.3498055607
 20
36.8389943145
 10
275.3209351036
 20
36.4627677464
 10
274.2768393797
 20
35.9329545126
  0
LWPOLYLINE
  5
219
330
1F
100
AcDbEntity
  8
0
  6
Continuous
 62
     7
370
    15
100
AcDbPolyline
 90
       28
 70
   128
 43
0.0
 10
274.1000626844
 20
36.2391407295
 10
273.0546656695
 20
35.5640056091
 10
272.0239437372
 20
34.7550673668
 10
271.022365964
 20
33.8236817224
 10
270.0639923063
 20
32.7829232888
 10
269.1622762296
 20
31.6474020329
 10
268.3298758509
 20
30.4330581841
 10
267.578476247
 20
29.1569384682
 10
266.9186254211
 20
27.8369568086
 10
266.3595862326
 20
26.4916428545
 10
265.909206366
 20
25.1398818647
 10
265.5738081677
 20
23.8006496006
 10
265.3580998929
 20
22.4927459474
 10
265.2651096131
 20
21.2345310055
 10
265.296142708
 20
20.0436673546
 10
265.4507635409
 20
18.93687211
 10
265.7268015743
 20
17.9296822508
 10
266.1203818393
 20
17.0362365148
 10
266.6259793317
 20
16.2690769217
 10
267.2364965709
 20
15.6389727106
 10
267.9433632333
 20
15.1547691633
 10
268.7366564603
 20
14.8232634363
 10
269.6052401539
 20
14.6491091433
 10
270.5369213031
 20
14.6347510289
 10
271.5186211468
 20
14.7803906494
 10
272.5365587711
 20
15.083983544
 10
273.5764445631
 20
15.5412679337
 10
274.1014992436
 20
15.8264498752
  0
LWPOLYLINE
  5
21A
330
1F
100
AcDbEntity
  8
0
  6
Continuous
 62
     7
370
    15
100
AcDbPolyline
 90
       15
 70
   128
 43
0.0
 10
282.9388974492
 20
31.1349312798
 10
282.9350157557
 20
31.4351506953
 10
282.8420254759
 20
32.5860013455
 10
282.6263172012
 20
33.6448535259
 10
282.2909190028
 20
34.5968432729
 10
281.8405391363
 20
35.4286067372
 10
281.2814999477
 20
36.128467783
 10
280.6216491219
 20
36.6866018954
 10
279.8702495179
 20
37.095174095
 10
279.0378491393
 20
37.3484489235
 10
278.1361330625
 20
37.4428709576
 10
277.1777594049
 20
37.3771147189
 10
276.1761816316
 20
37.1521032809
 10
275.1454596993
 20
36.770995311
 10
274.1000626844
 20
36.2391407295
  0
SPLINE
  5
21B
330
1F
100
AcDbEntity
  8
0
  6
Continuous
 62
     7
370
    15
100
AcDbSpline
210
0.0
220
0.0
230
1.0
 70
    11
 71
     3
 72
    96
 73
    92
 74
     0
 42
0.000000001
 43
0.00000001
 40
0.0
 40
0.0
 40
0.0
 40
0.0
 40
0.0312499999999988
 40
0.0312499999999988
 40
0.0468749999999978
 40
0.0468749999999978
 40
0.0624999999999968
 40
0.0624999999999968
 40
0.0937499999999948
 40
0.0937499999999948
 40
0.1093749999999938
 40
0.1093749999999938
 40
0.1249999999999928
 40
0.1249999999999928
 40
0.1562499999999926
 40
0.1562499999999926
 40
0.1718749999999935
 40
0.1718749999999935
 40
0.1874999999999943
 40
0.1874999999999943
 40
0.218749999999996
 40
0.218749999999996
 40
0.2343749999999968
 40
0.2343749999999968
 40
0.2499999999999977
 40
0.2499999999999977
 40
0.2812499999999979
 40
0.2812499999999979
 40
0.296874999999998
 40
0.296874999999998
 40
0.3124999999999981
 40
0.3124999999999981
 40
0.3437499999999983
 40
0.3437499999999983
 40
0.3593749999999984
 40
0.3593749999999984
 40
0.3749999999999986
 40
0.3749999999999986
 40
0.3906249999999987
 40
0.3906249999999987
 40
0.4062499999999989
 40
0.4062499999999989
 40
0.4374999999999996
 40
0.4374999999999996
 40
0.4531249999999995
 40
0.4531249999999995
 40
0.4687499999999994
 40
0.4687499999999994
 40
0.4999999999999981
 40
0.4999999999999981
 40
0.5312499999999969
 40
0.5312499999999969
 40
0.5468749999999962
 40
0.5468749999999962
 40
0.5624999999999957
 40
0.5624999999999957
 40
0.5937499999999962
 40
0.5937499999999962
 40
0.6249999999999967
 40
0.6249999999999967
 40
0.6562499999999972
 40
0.6562499999999972
 40
0.6874999999999977
 40
0.6874999999999977
 40
0.7187499999999982
 40
0.7187499999999982
 40
0.7499999999999987
 40
0.7499999999999987
 40
0.7656249999999989
 40
0.7656249999999989
 40
0.7812499999999991
 40
0.7812499999999991
 40
0.8124999999999991
 40
0.8124999999999991
 40
0.828124999999999
 40
0.828124999999999
 40
0.843749999999999
 40
0.843749999999999
 40
0.8749999999999992
 40
0.8749999999999992
 40
0.8906249999999993
 40
0.8906249999999993
 40
0.9062499999999993
 40
0.9062499999999993
 40
0.9218749999999994
 40
0.9218749999999994
 40
0.9374999999999996
 40
0.9374999999999996
 40
0.9687499999999998
 40
0.9687499999999998
 40
1.0
 40
1.0
 40
1.0
 40
1.0
 10
269.2789058524331
 20
40.82945137242297
 30
0.0
 10
269.5093114945607
 20
40.79038236961123
 30
0.0
 10
269.733626921985
 20
40.74012842723777
 30
0.0
 10
270.0620628595728
 20
40.65129843331829
 30
0.0
 10
270.1701889850388
 20
40.61941979390861
 30
0.0
 10
270.3837845484596
 20
40.55140780990501
 30
0.0
 10
270.4897143237283
 20
40.51510100036761
 30
0.0
 10
270.7999031061026
 20
40.40133085950647
 30
0.0
 10
270.9955374759777
 20
40.319598748075
 30
0.0
 10
271.2730594443889
 20
40.18948300295466
 30
0.0
 10
271.362893385761
 20
40.14484199005507
 30
0.0
 10
271.5371369152198
 20
40.05305743735416
 30
0.0
 10
271.6218475352328
 20
40.00571722553094
 30
0.0
 10
271.8633782722437
 20
39.86237594664684
 30
0.0
 10
272.008905575451
 20
39.76454343056252
 30
0.0
 10
272.204299605253
 20
39.61399866585545
 30
0.0
 10
272.2655915901238
 20
39.56317386994872
 30
0.0
 10
272.3802589276838
 20
39.46003626385563
 30
0.0
 10
272.4337494356426
 20
39.40755477721233
 30
0.0
 10
272.5790382435882
 20
39.25050697688909
 30
0.0
 10
272.656886668117
 20
39.14548469922288
 30
0.0
 10
272.7446415241251
 20
38.98575511103644
 30
0.0
 10
272.7690248957601
 20
38.93214036576675
 30
0.0
 10
272.8075264885945
 20
38.82378899815877
 30
0.0
 10
272.8215997314733
 20
38.76892497108677
 30
0.0
 10
272.8468679276094
 20
38.60574741292532
 30
0.0
 10
272.8418362670969
 20
38.4976685942591
 30
0.0
 10
272.7994438157148
 20
38.33451300056635
 30
0.0
 10
272.7794628709886
 20
38.27995547609345
 30
0.0
 10
272.7268188881417
 20
38.17012340419462
 30
0.0
 10
272.6941985160784
 20
38.11514065241571
 30
0.0
 10
272.5793344966052
 20
37.95325439722978
 30
0.0
 10
272.4796642896773
 20
37.84795140719768
 30
0.0
 10
272.2929515407774
 20
37.69293012362221
 30
0.0
 10
272.2238385082015
 20
37.64136714356976
 30
0.0
 10
272.0759897976907
 20
37.54178886531722
 30
0.0
 10
271.9972431170464
 20
37.49365803164167
 30
0.0
 10
271.8303172983305
 20
37.40061613724137
 30
0.0
 10
271.7421378692675
 20
37.3557051937842
 30
0.0
 10
271.5562508663147
 20
37.26918938115385
 30
0.0
 10
271.4579198229866
 20
37.22737488685456
 30
0.0
 10
271.1559761104809
 20
37.11019771832517
 30
0.0
 10
270.9439431659406
 20
37.0420858086112
 30
0.0
 10
270.6106478765716
 20
36.95529300134883
 30
0.0
 10
270.4972830137798
 20
36.92907182697437
 30
0.0
 10
270.2705117747412
 20
36.88301944362392
 30
0.0
 10
270.1564975415589
 20
36.86302406611672
 30
0.0
 10
269.8125919879297
 20
36.81215558645634
 30
0.0
 10
269.5788060789655
 20
36.79035531596554
 30
0.0
 10
269.1212655212703
 20
36.77357966608742
 30
0.0
 10
268.8963575668282
 20
36.77821327465116
 30
0.0
 10
268.5642654296394
 20
36.80565386368591
 30
0.0
 10
268.4542268051739
 20
36.81830497667126
 30
0.0
 10
268.2397414365939
 20
36.85021033565151
 30
0.0
 10
268.1348133257133
 20
36.86948735452948
 30
0.0
 10
267.8267211943389
 20
36.93731746769262
 30
0.0
 10
267.6301909635878
 20
36.9958059292803
 30
0.0
 10
267.2550224604843
 20
37.14103231317186
 30
0.0
 10
267.0807190454036
 20
37.22619335910093
 30
0.0
 10
266.760272772392
 20
37.41961193083343
 30
0.0
 10
266.6136168736743
 20
37.52807768288016
 30
0.0
 10
266.3489534545565
 20
37.76900259372179
 30
0.0
 10
266.2347645192309
 20
37.89796400005896
 30
0.0
 10
266.0418146105891
 20
38.17116250271604
 30
0.0
 10
265.9629116011566
 20
38.31569598590498
 30
0.0
 10
265.8441401772158
 20
38.61812759788616
 30
0.0
 10
265.8058563126564
 20
38.77176661603454
 30
0.0
 10
265.7805308139907
 20
39.00417180544756
 30
0.0
 10
265.7774773455354
 20
39.08196719010813
 30
0.0
 10
265.7827461350525
 20
39.23794332714218
 30
0.0
 10
265.7911456741516
 20
39.31652584763957
 30
0.0
 10
265.8344164014541
 20
39.54959956452424
 30
0.0
 10
265.8864600425711
 20
39.69902901263624
 30
0.0
 10
266.0007604504743
 20
39.91223692261677
 30
0.0
 10
266.0449450215897
 20
39.98147490696398
 30
0.0
 10
266.1463707583346
 20
40.11580418193807
 30
0.0
 10
266.2039258637105
 20
40.18105693211623
 30
0.0
 10
266.3917197643191
 20
40.36405114711933
 30
0.0
 10
266.538242358127
 20
40.47121731326786
 30
0.0
 10
266.7908814973374
 20
40.60875134716105
 30
0.0
 10
266.8811407952688
 20
40.65083802802635
 30
0.0
 10
267.0677722009423
 20
40.72485949078579
 30
0.0
 10
267.1646263017551
 20
40.75712433889306
 30
0.0
 10
267.3651625591061
 20
40.81263577321587
 30
0.0
 10
267.468845343562
 20
40.83588127285552
 30
0.0
 10
267.6830242530629
 20
40.87358888433728
 30
0.0
 10
267.7930118664182
 20
40.88790369423888
 30
0.0
 10
268.1252573327363
 20
40.9175751111721
 30
0.0
 10
268.352091704872
 20
40.92021907846539
 30
0.0
 10
268.8161362151652
 20
40.89560545699622
 30
0.0
 10
269.0485002103054
 20
40.86852037523471
 30
0.0
 10
269.278905852433
 20
40.82945137242297
 30
0.0
  0
LINE
  5
21C
330
1F
100
AcDbEntity
  8
0
  6
Continuous
 62
     7
370
    15
100
AcDbLine
 10
270.4235704249
 20
20.0720895583
 30
0.0
 11
270.557828477
 21
20.0003140055
 31
0.0
  0
SPLINE
  5
21D
330
1F
100
AcDbEntity
  8
0
  6
Continuous
 62
     7
370
    15
100
AcDbSpline
210
0.0
220
0.0
230
1.0
 70
     8
 71
     3
 72
    22
 73
    18
 74
     0
 42
0.000000001
 43
0.00000001
 40
0.0
 40
0.0
 40
0.0
 40
0.0
 40
0.0102488644541338
 40
0.0864771141251151
 40
0.1633313488131088
 40
0.2426258407256472
 40
0.3158252063205356
 40
0.3913979740058371
 40
0.4607605071861149
 40
0.532084496609379
 40
0.6025873520574898
 40
0.6749037904809956
 40
0.7498506568480375
 40
0.8268546153175689
 40
0.903574622968559
 40
0.9827935922789165
 40
1.0
 40
1.0
 40
1.0
 40
1.0
 10
275.4273381881569
 20
32.34764680120061
 30
0.0
 10
275.4413672361192
 20
32.33195252664225
 30
0.0
 10
275.5597405044101
 20
32.19952853194822
 30
0.0
 10
275.7474164816667
 20
31.92712604818614
 30
0.0
 10
275.9732996584851
 20
31.53123588535376
 30
0.0
 10
276.1264937709729
 20
31.12862686760097
 30
0.0
 10
276.2058568738653
 20
30.73043464243039
 30
0.0
 10
276.2079271998206
 20
30.36152069116153
 30
0.0
 10
276.1388381936457
 20
30.01945682710751
 30
0.0
 10
276.0076581294588
 20
29.71718454646976
 30
0.0
 10
275.816598332735
 20
29.45215010417429
 30
0.0
 10
275.571845688405
 20
29.2323665588598
 30
0.0
 10
275.2771454235629
 20
29.06645578707715
 30
0.0
 10
274.9437859731406
 20
28.96566898710078
 30
0.0
 10
274.5859022881586
 20
28.94869253791182
 30
0.0
 10
274.3126746019076
 20
28.98130982002446
 30
0.0
 10
274.1679149570315
 20
29.04540599450464
 30
0.0
 10
274.1420836505023
 20
29.05684349099593
 30
0.0
  0
LWPOLYLINE
  5
21E
330
1F
100
AcDbEntity
  8
0
  6
Continuous
 62
     7
370
    15
100
AcDbPolyline
 90
       19
 70
   128
 43
0.0
 10
271.2542738561
 20
37.0658036756
 10
271.6909841023
 20
37.3944117923
 10
271.9657102642
 20
37.7772964968
 10
272.0594142419
 20
38.1881823964
 10
271.9657102642
 20
38.599068296
 10
271.6909841023
 20
38.9819530005
 10
271.2539578901
 20
39.3107435502
 10
270.6844142419
 20
39.5630334123
 10
270.0211666159
 20
39.7216294498
 10
269.3094142419
 20
39.7757236047
 10
268.5976618678
 20
39.7216294498
 10
267.9344142419
 20
39.5630334123
 10
267.3648705936
 20
39.3107435502
 10
266.9278443815
 20
38.9819530005
 10
266.6531182196
 20
38.599068296
 10
266.5594142419
 20
38.1881823964
 10
266.6531182196
 20
37.7772964968
 10
266.9278443815
 20
37.3944117923
 10
267.0553669534
 20
37.2787442841
  0
ARC
  5
21F
330
1F
100
AcDbEntity
  8
0
  6
Continuous
 62
     7
370
    15
100
AcDbCircle
 10
246.7121835374
 20
60.6483032442
 30
0.0
 40
8.703891722762062
100
AcDbArc
 50
34.3325496066
 51
84.2964748064
  0
ARC
  5
220
330
1F
100
AcDbEntity
  8
0
  6
Continuous
 62
     7
370
    15
100
AcDbCircle
 10
230.4190195503
 20
32.4255868138
 30
0.0
 40
8.690205791198126
100
AcDbArc
 50
215.038918254
 51
265.86285515
  0
LWPOLYLINE
  5
221
330
1F
100
AcDbEntity
  8
0
  6
Continuous
 62
     7
370
    15
100
AcDbPolyline
 90
        9
 70
   128
 43
0.0
 10
223.8504152459
 20
26.1741530564
 10
223.6840919827
 20
26.2727590672
 10
222.6931975949
 20
26.9792142589
 10
221.7987764891
 20
27.8329356918
 10
221.0071472408
 20
28.8278923105
 10
220.3239022594
 20
29.9570553137
 10
219.7538682811
 20
31.2124478083
 10
219.3010722713
 20
32.5852011618
 10
218.9687129756
 20
34.0656176543
  0
SPLINE
  5
222
330
1F
100
AcDbEntity
  8
0
  6
Continuous
 62
     7
370
    15
100
AcDbSpline
210
0.0
220
0.0
230
1.0
 70
     8
 71
     3
 72
    32
 73
    28
 74
     0
 42
0.000000001
 43
0.00000001
 40
0.0
 40
0.0
 40
0.0
 40
0.0
 40
0.0193254758652704
 40
0.0385826927409049
 40
0.0577846348017481
 40
0.0769443985967347
 40
0.0960751672961712
 40
0.1151901840600305
 40
0.1343027247899319
 40
0.1534260705421022
 40
0.1725734798867981
 40
0.1917581615009326
 40
0.2109932472750491
 40
0.230291766203487
 40
0.2496666193081581
 40
0.3745846283004807
 40
0.4997410234225904
 40
0.4999962720874485
 40
0.624862702147581
 40
0.7503411293900218
 40
0.78614513231055
 40
0.8217618639989446
 40
0.8572756267685467
 40
0.8927714566740896
 40
0.9283345184906214
 40
0.9640494961172915
 40
1.0
 40
1.0
 40
1.0
 40
1.0
 10
218.9686576995262
 20
41.51744242077281
 30
0.0
 10
218.9906009168141
 20
41.45735137705701
 30
0.0
 10
219.0344098463467
 20
41.33738153557263
 30
0.0
 10
219.0968490975692
 20
41.156633981461
 30
0.0
 10
219.1567577250964
 20
40.97579058504199
 30
0.0
 10
219.2139443107303
 20
40.79478346949929
 30
0.0
 10
219.2685023819386
 20
40.61365406717647
 30
0.0
 10
219.3204501285296
 20
40.43241554984474
 30
0.0
 10
219.3698266079926
 20
40.25108959563487
 30
0.0
 10
219.4166659894402
 20
40.0696965189
 30
0.0
 10
219.4610045957856
 20
39.88825816349863
 30
0.0
 10
219.5028784390086
 20
39.70679627452746
 30
0.0
 10
219.5423260301966
 20
39.52533622207764
 30
0.0
 10
219.5793795495562
 20
39.34389377638879
 30
0.0
 10
219.6770716491899
 20
38.83354282465024
 30
0.0
 10
219.7945678480228
 20
38.00694129596345
 30
0.0
 10
219.8294192841437
 20
37.29162180067082
 30
0.0
 10
219.8298151083172
 20
36.61490983576188
 30
0.0
 10
219.7947637572748
 20
35.97321871166278
 30
0.0
 10
219.6698296771033
 20
35.35191777288865
 30
0.0
 10
219.5491034962278
 20
34.97929367091677
 30
0.0
 10
219.4747960837055
 20
34.79049696978578
 30
0.0
 10
219.3918826124733
 20
34.61630568682428
 30
0.0
 10
219.3001838114634
 20
34.45648951675881
 30
0.0
 10
219.1992817438408
 20
34.3112856441432
 30
0.0
 10
219.089728847041
 20
34.17923868401504
 30
0.0
 10
219.009200549141
 20
34.10353919907279
 30
0.0
 10
218.9688040733851
 20
34.06556506466362
 30
0.0
  0
LWPOLYLINE
  5
223
330
1F
100
AcDbEntity
  8
0
  6
Continuous
 62
     7
370
    15
100
AcDbPolyline
 90
       27
 70
   128
 43
0.0
 10
218.9686576993
 20
41.5174424209
 10
219.3009970392
 20
43.3816082833
 10
219.7537765977
 20
45.2771675968
 10
220.3237976662
 20
47.1907289849
 10
221.0070332713
 20
49.1087738934
 10
221.7986566239
 20
51.0177520936
 10
222.6930752181
 20
52.9041774098
 10
223.6839703403
 20
54.7547229935
 10
224.7643417086
 20
56.556315472
 10
225.9265569264
 20
58.2962273073
 10
227.1624054032
 20
59.9621667105
 10
228.4631563584
 20
61.5423644787
 10
229.8196205009
 20
63.0256571399
 10
231.2222149482
 20
64.4015658182
 10
232.6610309254
 20
65.660370263
 10
234.1259037669
 20
66.7931775189
 10
235.6064847254
 20
67.7919847509
 10
237.0923140822
 20
68.6497357808
 10
238.5728950408
 20
69.3603709371
 10
240.0377678822
 20
69.9188698634
 10
241.4765838595
 20
70.3212869858
 10
242.8791783068
 20
70.5647793865
 10
244.2356424493
 20
70.647626888
 10
245.5363934044
 20
70.5692442055
 10
246.7722418812
 20
70.3301850817
 10
247.9344570991
 20
69.9321383746
 10
248.8483835618
 20
69.4765961754
  0
SPLINE
  5
224
330
1F
100
AcDbEntity
  8
0
  6
Continuous
 62
     7
370
    15
100
AcDbSpline
210
0.0
220
0.0
230
1.0
 70
     8
 71
     3
 72
     8
 73
     4
 74
     0
 42
0.000000001
 43
0.00000001
 40
0.0
 40
0.0
 40
0.0
 40
0.0
 40
1.0
 40
1.0
 40
1.0
 40
1.0
 10
218.0066644204701
 20
46.9527801386992
 30
0.0
 10
216.8370380005322
 20
46.75722396545647
 30
0.0
 10
215.6664347576723
 20
46.56363899873654
 30
0.0
 10
214.4952032760195
 20
46.37135954949028
 30
0.0
  0
SPLINE
  5
225
330
1F
100
AcDbEntity
  8
0
  6
Continuous
 62
     7
370
    15
100
AcDbSpline
210
0.0
220
0.0
230
1.0
 70
     8
 71
     3
 72
     8
 73
     4
 74
     0
 42
0.000000001
 43
0.00000001
 40
0.0
 40
0.0
 40
0.0
 40
0.0
 40
0.0012417047560385
 40
0.0012417047560385
 40
0.0012417047560385
 40
0.0012417047560385
 10
214.0207026723698
 20
46.64533497037014
 30
0.0
 10
214.1789738128302
 20
46.5539496456122
 30
0.0
 10
214.3371431185094
 20
46.4626230982086
 30
0.0
 10
214.4952032760195
 20
46.37135954949028
 30
0.0
  0
LWPOLYLINE
  5
226
330
1F
100
AcDbEntity
  8
0
  6
Continuous
 62
     7
370
    15
100
AcDbPolyline
 90
       28
 70
   128
 43
0.0
 10
214.0207026724
 20
46.6453349704
 10
214.4995382632
 20
48.5940011066
 10
215.1014199795
 20
50.5598123003
 10
215.8218672272
 20
52.5281344437
 10
216.6555167738
 20
54.4843147366
 10
217.5961626735
 20
56.4137907665
 10
218.6368024668
 20
58.3021989159
 10
219.7696893085
 20
60.1354812891
 10
220.9863896377
 20
61.8999903639
 10
222.2778459601
 20
63.5825905878
 10
223.6344442745
 20
65.1707561632
 10
225.0460856426
 20
66.6526642933
 10
226.5022613685
 20
68.0172831946
 10
227.9921312286
 20
69.2544542211
 10
229.5046041701
 20
70.3549674881
 10
231.0284208754
 20
71.3106304338
 10
232.5522375807
 20
72.114328807
 10
234.0647105221
 20
72.7600796279
 10
235.5545803823
 20
73.2430757271
 10
237.0107561082
 20
73.5597215322
 10
238.4223974763
 20
73.7076598334
 10
239.7789957907
 20
73.6857893323
 10
241.0704521131
 20
73.4942728397
 10
242.2871524423
 20
73.1345360636
 10
243.420039284
 20
72.6092569961
 10
244.4606790773
 20
71.9223459775
 10
245.401324977
 20
71.0789165863
 10
245.9015553197
 20
70.5164565346
  0
LINE
  5
227
330
1F
100
AcDbEntity
  8
0
  6
Continuous
 62
     7
370
    15
100
AcDbLine
 10
209.8929668372
 20
49.0282261468
 30
0.0
 11
214.0207026724
 21
46.6453349704
 31
0.0
  0
ARC
  5
228
330
1F
100
AcDbEntity
  8
0
  6
Continuous
 62
     7
370
    15
100
AcDbCircle
 10
235.0106449478
 20
67.2137437588
 30
0.0
 40
8.87823280508937
100
AcDbArc
 50
60.3725835944
 51
85.9811821539
  0
SPLINE
  5
229
330
1F
100
AcDbEntity
  8
0
  6
Continuous
 62
     7
370
    15
100
AcDbSpline
210
0.0
220
0.0
230
1.0
 70
     8
 71
     3
 72
    10
 73
     6
 74
     0
 42
0.000000001
 43
0.00000001
 40
0.0
 40
0.0
 40
0.0
 40
0.0
 40
0.3927540837754647
 40
0.7854916950146648
 40
1.0
 40
1.0
 40
1.0
 40
1.0
 10
227.7280292092344
 20
61.84784262714561
 30
0.0
 10
227.8361477103472
 20
61.80114257562161
 30
0.0
 10
228.0523801779646
 20
61.7077444312249
 30
0.0
 10
228.3973256278492
 20
61.69327763515437
 30
0.0
 10
228.604311013347
 20
61.75349361977263
 30
0.0
 10
228.6774281525711
 20
61.77476478594826
 30
0.0
  0
LWPOLYLINE
  5
22A
330
1F
100
AcDbEntity
  8
0
  6
Continuous
 62
     7
370
    15
100
AcDbPolyline
 90
       14
 70
   128
 43
0.0
 10
229.7551895824
 20
62.9574713793
 10
229.6868951992
 20
63.2093545216
 10
229.4786962876
 20
63.4460492695
 10
229.1652513916
 20
63.6007293318
 10
228.7821112407
 20
63.6560593219
 10
228.3723465157
 20
63.6041239991
 10
227.9828955429
 20
63.4479149465
 10
227.6591724304
 20
63.2030848779
 10
227.4380606917
 20
62.8969118926
 10
227.3435416258
 20
62.5644462242
 10
227.3855016112
 20
62.2446632158
 10
227.5586960262
 20
61.9763139959
 10
227.7280292092
 20
61.8478426271
 10
227.7280292092
 20
61.8478426271
  0
SPLINE
  5
22B
330
1F
100
AcDbEntity
  8
0
  6
Continuous
 62
     7
370
    15
100
AcDbSpline
210
0.0
220
0.0
230
1.0
 70
     8
 71
     3
 72
    10
 73
     6
 74
     0
 42
0.000000001
 43
0.00000001
 40
0.0
 40
0.0
 40
0.0
 40
0.0
 40
0.1982376724753472
 40
0.6709252460000957
 40
1.0
 40
1.0
 40
1.0
 40
1.0
 10
219.8485982294311
 20
45.56466963718806
 30
0.0
 10
219.7642752470947
 20
45.67508293750513
 30
0.0
 10
219.4788884335741
 20
46.04877109552222
 30
0.0
 10
218.9876264467542
 20
46.49811989534069
 30
0.0
 10
218.5706246954536
 20
46.77960226153466
 30
0.0
 10
218.3994707960799
 20
46.89513368179553
 30
0.0
  0
SPLINE
  5
22C
330
1F
100
AcDbEntity
  8
0
  6
Continuous
 62
     7
370
    15
100
AcDbSpline
210
0.0
220
0.0
230
1.0
 70
     8
 71
     3
 72
    10
 73
     6
 74
     0
 42
0.000000001
 43
0.00000001
 40
0.0
 40
0.0
 40
0.0
 40
0.0
 40
0.5
 40
0.5
 40
1.0
 40
1.0
 40
1.0
 40
1.0
 10
218.2635414488477
 20
46.94766366360484
 30
0.0
 10
218.2229661404528
 20
46.95648818493181
 30
0.0
 10
218.1793917973991
 20
46.96144126084049
 30
0.0
 10
218.0915890704123
 20
46.96302644610662
 30
0.0
 10
218.0486209534905
 20
46.95979507859807
 30
0.0
 10
218.0066644204701
 20
46.9527801386992
 30
0.0
  0
SPLINE
  5
22D
330
1F
100
AcDbEntity
  8
0
  6
Continuous
 62
     7
370
    15
100
AcDbSpline
210
0.0
220
0.0
230
1.0
 70
     8
 71
     3
 72
     8
 73
     4
 74
     0
 42
0.000000001
 43
0.00000001
 40
0.0
 40
0.0
 40
0.0
 40
0.0
 40
1.0
 40
1.0
 40
1.0
 40
1.0
 10
218.3994707960799
 20
46.89513368179553
 30
0.0
 10
218.3609888542437
 20
46.91880449159139
 30
0.0
 10
218.3148812024968
 20
46.93649803680084
 30
0.0
 10
218.2635414488478
 20
46.94766366360489
 30
0.0
  0
SPLINE
  5
22E
330
1F
100
AcDbEntity
  8
0
  6
Continuous
 62
     7
370
    15
100
AcDbSpline
210
0.0
220
0.0
230
1.0
 70
     8
 71
     3
 72
    10
 73
     6
 74
     0
 42
0.000000001
 43
0.00000001
 40
0.0
 40
0.0
 40
0.0
 40
0.0
 40
0.5
 40
0.5
 40
1.0
 40
1.0
 40
1.0
 40
1.0
 10
209.7362699173825
 20
49.11867402993327
 30
0.0
 10
209.7473205157326
 20
49.11229819538913
 30
0.0
 10
209.765940461672
 20
49.10155195388374
 30
0.0
 10
209.8192404117326
 20
49.07078648104378
 30
0.0
 10
209.8528211844539
 20
49.05140173877283
 30
0.0
 10
209.8929668371933
 20
49.02822614675267
 30
0.0
  0
SPLINE
  5
22F
330
1F
100
AcDbEntity
  8
0
  6
Continuous
 62
     7
370
    15
100
AcDbSpline
210
0.0
220
0.0
230
1.0
 70
     8
 71
     3
 72
     9
 73
     5
 74
     0
 42
0.000000001
 43
0.00000001
 40
0.0
 40
0.0
 40
0.0
 40
0.0
 40
0.5377956222890862
 40
0.9999999999999999
 40
0.9999999999999999
 40
0.9999999999999999
 40
0.9999999999999999
 10
218.3994707960799
 20
36.40577761885243
 30
0.0
 10
218.6395369695273
 20
36.27901157131095
 30
0.0
 10
219.085926199
 20
36.04329740353489
 30
0.0
 10
219.4775323564433
 20
35.92765276452056
 30
0.0
 10
219.6585344367521
 20
35.87420130610936
 30
0.0
  0
SPLINE
  5
230
330
1F
100
AcDbEntity
  8
0
  6
Continuous
 62
     7
370
    15
100
AcDbSpline
210
0.0
220
0.0
230
1.0
 70
     8
 71
     3
 72
     8
 73
     4
 74
     0
 42
0.000000001
 43
0.00000001
 40
0.0
 40
0.0
 40
0.0
 40
0.0
 40
1.0
 40
1.0
 40
1.0
 40
1.0
 10
218.2635414488483
 20
36.45511423087284
 30
0.0
 10
218.3148698308455
 20
36.44395107723255
 30
0.0
 10
218.3609903949497
 20
36.42723707293084
 30
0.0
 10
218.3994707960799
 20
36.40577761885245
 30
0.0
  0
SPLINE
  5
231
330
1F
100
AcDbEntity
  8
0
  6
Continuous
 62
     7
370
    15
100
AcDbSpline
210
0.0
220
0.0
230
1.0
 70
     8
 71
     3
 72
    12
 73
     8
 74
     0
 42
0.000000001
 43
0.00000001
 40
0.0
 40
0.0
 40
0.0
 40
0.0
 40
0.1882348860552934
 40
0.3552030333413834
 40
0.5009466077120189
 40
0.7563025321915505
 40
1.0
 40
1.0
 40
1.0
 40
1.0
 10
219.0794579651801
 20
34.7895392215711
 30
0.0
 10
219.1685014985071
 20
34.8838208695887
 30
0.0
 10
219.3365284450526
 20
35.06173224439324
 30
0.0
 10
219.5164377970719
 20
35.40904934558215
 30
0.0
 10
219.6779617915319
 20
35.86970295437097
 30
0.0
 10
219.8037188551486
 20
36.49125386591415
 30
0.0
 10
219.8210216513384
 20
37.07458117157147
 30
0.0
 10
219.8294709429024
 20
37.35943122867754
 30
0.0
  0
SPLINE
  5
232
330
1F
100
AcDbEntity
  8
0
  6
Continuous
 62
     7
370
    15
100
AcDbSpline
210
0.0
220
0.0
230
1.0
 70
     8
 71
     3
 72
     9
 73
     5
 74
     0
 42
0.000000001
 43
0.00000001
 40
0.0
 40
0.0
 40
0.0
 40
0.0
 40
0.5048004990382029
 40
1.0
 40
1.0
 40
1.0
 40
1.0
 10
218.9687235531492
 20
34.06551470130999
 30
0.0
 10
218.9872684514341
 20
34.18722857703519
 30
0.0
 10
219.0240055353321
 20
34.42834140469107
 30
0.0
 10
219.061102646688
 20
34.66984763793791
 30
0.0
 10
219.0794731177185
 20
34.78944140412092
 30
0.0
  0
LINE
  5
233
330
1F
100
AcDbEntity
  8
0
  6
Continuous
 62
     7
370
    15
100
AcDbLine
 10
210.1703370175
 20
48.868051697
 30
0.0
 11
209.7362699174
 21
49.1186740299
 31
0.0
  0
LINE
  5
234
330
1F
100
AcDbEntity
  8
0
  6
Continuous
 62
     7
370
    15
100
AcDbLine
 10
214.495203276
 20
46.3713595495
 30
0.0
 11
210.1703370175
 21
48.868051697
 31
0.0
  0
SPLINE
  5
235
330
1F
100
AcDbEntity
  8
0
  6
Continuous
 62
     7
370
    15
100
AcDbSpline
210
0.0
220
0.0
230
1.0
 70
     8
 71
     3
 72
    10
 73
     6
 74
     0
 42
0.000000001
 43
0.00000001
 40
0.0
 40
0.0
 40
0.0
 40
0.0
 40
0.0763302231598347
 40
0.8892328896918142
 40
0.9999999999999999
 40
0.9999999999999999
 40
0.9999999999999999
 40
0.9999999999999999
 10
214.0666969616786
 20
43.55532035126338
 30
0.0
 10
214.0662663130491
 20
43.63355367816221
 30
0.0
 10
214.0612493366876
 20
44.54495737211937
 30
0.0
 10
213.9713777117668
 20
45.61707986672256
 30
0.0
 10
213.992764090797
 20
46.54826286431777
 30
0.0
 10
213.9953287599726
 20
46.65993096518883
 30
0.0
  0
LINE
  5
236
330
1F
100
AcDbEntity
  8
0
  6
Continuous
 62
     7
370
    15
100
AcDbLine
 10
214.0666969617
 20
41.7795197222
 30
0.0
 11
214.0666969617
 21
43.5553203513
 31
0.0
  0
LINE
  5
237
330
1F
100
AcDbEntity
  8
0
  6
Continuous
 62
     7
370
    15
100
AcDbLine
 10
213.1386193114
 20
46.9681460985
 30
0.0
 11
213.1396603386
 21
47.1538978305
 31
0.0
  0
ARC
  5
238
330
1F
100
AcDbEntity
  8
0
  6
Continuous
 62
     7
370
    15
100
AcDbCircle
 10
225.0744725126
 20
46.702556434
 30
0.0
 40
11.93880770898576
100
AcDbArc
 50
178.7252979842
 51
202.7773427363
  0
LINE
  5
239
330
1F
100
AcDbEntity
  8
0
  6
Continuous
 62
     7
370
    15
100
AcDbLine
 10
184.5209665107
 20
66.0713822607
 30
0.0
 11
184.468141462
 21
66.1168948769
 31
0.0
  0
LWPOLYLINE
  5
23A
330
1F
100
AcDbEntity
  8
0
  6
Continuous
 62
     7
370
    15
100
AcDbPolyline
 90
       10
 70
   128
 43
0.0
 10
221.4762649595
 20
28.2060282179
 10
220.9863896377
 20
28.2999474336
 10
219.7696893085
 20
28.6596842097
 10
218.6368024668
 20
29.1849632772
 10
217.5961626735
 20
29.8718742958
 10
216.6555167738
 20
30.715303687
 10
215.8218672272
 20
31.7089727011
 10
215.1014199795
 20
32.8454841578
 10
214.4995382632
 20
34.1163775136
 10
214.0207026724
 20
35.5121918445
  0
SPLINE
  5
23B
330
1F
100
AcDbEntity
  8
0
  6
Continuous
 62
     7
370
    15
100
AcDbSpline
210
0.0
220
0.0
230
1.0
 70
     8
 71
     3
 72
     8
 73
     4
 74
     0
 42
0.000000001
 43
0.00000001
 40
0.0
 40
0.0
 40
0.0
 40
0.0
 40
0.0012417047560385
 40
0.0012417047560385
 40
0.0012417047560385
 40
0.0012417047560385
 10
214.4952032760195
 20
35.87881011675839
 30
0.0
 10
214.3371431185094
 20
35.75640691175424
 30
0.0
 10
214.1789738128302
 20
35.63420468178348
 30
0.0
 10
214.0207026723698
 20
35.51219184447271
 30
0.0
  0
SPLINE
  5
23C
330
1F
100
AcDbEntity
  8
0
  6
Continuous
 62
     7
370
    15
100
AcDbSpline
210
0.0
220
0.0
230
1.0
 70
     8
 71
     3
 72
     8
 73
     4
 74
     0
 42
0.000000001
 43
0.00000001
 40
0.0
 40
0.0
 40
0.0
 40
0.0
 40
1.0
 40
1.0
 40
1.0
 40
1.0
 10
214.4952032760195
 20
35.87881011675839
 30
0.0
 10
215.6664358606952
 20
36.07108974708639
 30
0.0
 10
216.8370552352876
 20
36.26467741429664
 30
0.0
 10
218.0066644204701
 20
36.46023070596731
 30
0.0
  0
SPLINE
  5
23D
330
1F
100
AcDbEntity
  8
0
  6
Continuous
 62
     7
370
    15
100
AcDbSpline
210
0.0
220
0.0
230
1.0
 70
     8
 71
     3
 72
    10
 73
     6
 74
     0
 42
0.000000001
 43
0.00000001
 40
0.0
 40
0.0
 40
0.0
 40
0.0
 40
0.5
 40
0.5
 40
1.0
 40
1.0
 40
1.0
 40
1.0
 10
218.0066644204701
 20
36.46023070596732
 30
0.0
 10
218.0484302814845
 20
36.46721376638126
 30
0.0
 10
218.0923275672986
 20
36.47050385738964
 30
0.0
 10
218.1799549500886
 20
36.4688408829606
 30
0.0
 10
218.2224602471492
 20
36.46404877640985
 30
0.0
 10
218.2635414488483
 20
36.45511423087284
 30
0.0
  0
LINE
  5
23E
330
1F
100
AcDbEntity
  8
0
  6
Continuous
 62
     7
370
    15
100
AcDbLine
 10
210.1703370175
 20
38.3755022642
 30
0.0
 11
214.495203276
 21
35.8788101168
 31
0.0
  0
LINE
  5
23F
330
1F
100
AcDbEntity
  8
0
  6
Continuous
 62
     7
370
    15
100
AcDbLine
 10
210.1703370175
 20
38.3755022642
 30
0.0
 11
213.7131435711
 21
40.4207209539
 31
0.0
  0
LINE
  5
240
330
1F
100
AcDbEntity
  8
0
  6
Continuous
 62
     7
370
    15
100
AcDbLine
 10
209.7362699174
 20
38.1248799312
 30
0.0
 11
210.1703370175
 21
38.3755022642
 31
0.0
  0
LINE
  5
241
330
1F
100
AcDbEntity
  8
0
  6
Continuous
 62
     7
370
    15
100
AcDbLine
 10
214.0207026724
 20
35.5121918445
 30
0.0
 11
209.8929668372
 21
37.8950830209
 31
0.0
  0
SPLINE
  5
242
330
1F
100
AcDbEntity
  8
0
  6
Continuous
 62
     7
370
    15
100
AcDbSpline
210
0.0
220
0.0
230
1.0
 70
     8
 71
     3
 72
     8
 73
     4
 74
     0
 42
0.000000001
 43
0.00000001
 40
0.0
 40
0.0
 40
0.0
 40
0.0
 40
1.0
 40
1.0
 40
1.0
 40
1.0
 10
209.8929668371933
 20
37.89508302085525
 30
0.0
 10
209.8127476080272
 20
37.94139259612584
 30
0.0
 10
209.7583578457399
 20
38.02505543713792
 30
0.0
 10
209.7362699173817
 20
38.1248799312453
 30
0.0
  0
ARC
  5
243
330
1F
100
AcDbEntity
  8
0
  6
Continuous
 62
     7
370
    15
100
AcDbCircle
 10
218.922075189
 20
39.3204622322
 30
0.0
 40
8.92164576897035
100
AcDbArc
 50
214.8451889641
 51
239.5573983443
  0
ELLIPSE
  5
244
330
1F
100
AcDbEntity
  8
0
  6
Continuous
 62
     7
370
    15
100
AcDbEllipse
 10
213.4202503523
 20
41.406345422
 30
0.0
 11
-7.507462981948264E-5
 21
1.066811201853398
 31
0.0
210
0.0
220
0.0
230
1.0
 40
0.7174342186
 41
3.534193645557443
 42
5.104989972352371
  0
ELLIPSE
  5
245
330
1F
100
AcDbEntity
  8
0
  6
Continuous
 62
     7
370
    15
100
AcDbEllipse
 10
213.3595901805
 20
41.3713156663
 30
0.0
 11
0.3250094736511642
 21
1.213179526238669
 31
0.0
210
0.0
220
0.0
230
1.0
 40
0.5176380889
 41
3.619174351347703
 42
5.189970678142653
  0
ARC
  5
246
330
1F
100
AcDbEntity
  8
0
  6
Continuous
 62
     7
370
    15
100
AcDbCircle
 10
268.1684375156
 20
38.4744737919
 30
0.0
 40
1.561721875988466
100
AcDbArc
 50
197.3256932332
 51
248.3785066902
  0
LWPOLYLINE
  5
247
330
1F
100
AcDbEntity
  8
0
  6
Continuous
 62
     7
370
    15
100
AcDbPolyline
 90
       18
 70
   128
 43
0.0
 10
271.2689830048
 20
37.158311754
 10
271.3894063691
 20
37.2402814665
 10
271.7435107653
 20
37.5833583843
 10
271.9317355059
 20
37.967653059
 10
271.941253386
 20
38.3669764436
 10
271.7714157777
 20
38.7541153093
 10
271.4337968334
 20
39.1026867823
 10
270.9514047262
 20
39.3889362927
 10
270.357113681
 20
39.5933564094
 10
269.6914236504
 20
39.7020162393
 10
268.99970031
 20
39.7075107945
 10
268.3290834622
 20
39.6094656302
 10
267.7252745369
 20
39.4145623623
 10
267.2294221146
 20
39.1360833264
 10
266.8753177185
 20
38.7930064086
 10
266.6870929778
 20
38.4087117339
 10
266.6775750978
 20
38.0093883493
 10
266.6775750978
 20
38.0093883493
  0
LWPOLYLINE
  5
248
330
1F
100
AcDbEntity
  8
0
  6
Continuous
 62
     7
370
    15
100
AcDbPolyline
 90
       21
 70
   128
 43
0.0
 10
267.5217499176
 20
38.0667373833
 10
267.6742528762
 20
37.753776823
 10
267.9868168221
 20
37.4833389069
 10
268.4288458186
 20
37.2818959826
 10
268.9570709876
 20
37.1691666868
 10
269.5197859692
 20
37.1561857487
 10
270.0619083004
 20
37.2442238327
 10
270.5303712703
 20
37.424663158
 10
270.8793184593
 20
37.679841066
 10
271.0745924853
 20
37.9847789653
 10
271.0970785662
 20
38.3096274096
 10
270.9445756076
 20
38.6225879699
 10
270.6320116616
 20
38.8930258859
 10
270.1899826652
 20
39.0944688103
 10
269.6617574962
 20
39.207198106
 10
269.0990425145
 20
39.2201790442
 10
268.5569201833
 20
39.1321409601
 10
268.0884572135
 20
38.9517016349
 10
267.7395100245
 20
38.6965237269
 10
267.5442359984
 20
38.3915858276
 10
267.5217499176
 20
38.0667373833
  0
LINE
  5
249
330
1F
100
AcDbEntity
  8
0
  6
Continuous
 62
     7
370
    15
100
AcDbLine
 10
267.9209091161
 20
37.5349753114
 30
0.0
 11
268.1676498977
 21
37.3829405628
 31
0.0
  0
SPLINE
  5
24A
330
1F
100
AcDbEntity
  8
0
  6
Continuous
 62
     7
370
    15
100
AcDbSpline
210
0.0
220
0.0
230
1.0
 70
     8
 71
     3
 72
     9
 73
     5
 74
     0
 42
0.000000001
 43
0.00000001
 40
0.0
 40
0.0
 40
0.0
 40
0.0
 40
0.3452694813669763
 40
1.0
 40
1.0
 40
1.0
 40
1.0
 10
270.381384320737
 20
37.34042173263984
 30
0.0
 10
270.4438039999043
 20
37.3780496657568
 30
0.0
 10
270.6245893937367
 20
37.4870310126398
 30
0.0
 10
270.7912390444088
 20
37.63832613362397
 30
0.0
 10
270.9003496566233
 20
37.73738366665258
 30
0.0
  0
SPLINE
  5
24B
330
1F
100
AcDbEntity
  8
0
  6
Continuous
 62
     7
370
    15
100
AcDbSpline
210
0.0
220
0.0
230
1.0
 70
     8
 71
     3
 72
    11
 73
     7
 74
     0
 42
0.000000001
 43
0.00000001
 40
0.0
 40
0.0
 40
0.0
 40
0.0
 40
0.1849308168246151
 40
0.5198464202157773
 40
0.8714438233692712
 40
1.0
 40
1.0
 40
1.0
 40
1.0
 10
270.9003496566233
 20
37.73738366665258
 30
0.0
 10
270.8885672247036
 20
37.75696697233562
 30
0.0
 10
270.8554464330472
 20
37.81201626877053
 30
0.0
 10
270.7936201504829
 20
38.0359405400776
 30
0.0
 10
270.7365210489164
 20
38.41323830849194
 30
0.0
 10
270.7060718319175
 20
38.66343524941026
 30
0.0
 10
270.6979193676152
 20
38.73042290395117
 30
0.0
  0
SPLINE
  5
24C
330
1F
100
AcDbEntity
  8
0
  6
Continuous
 62
     7
370
    15
100
AcDbSpline
210
0.0
220
0.0
230
1.0
 70
     8
 71
     3
 72
    12
 73
     8
 74
     0
 42
0.000000001
 43
0.00000001
 40
0.0
 40
0.0
 40
0.0
 40
0.0
 40
0.2161857461389851
 40
0.4397628073511904
 40
0.5934185666353868
 40
0.7522096186328786
 40
0.9999999999999999
 40
0.9999999999999999
 40
0.9999999999999999
 40
0.9999999999999999
 10
270.6979193676152
 20
38.73042290395117
 30
0.0
 10
270.5889877551155
 20
38.71311438616322
 30
0.0
 10
270.3674001963715
 20
38.67790557841593
 30
0.0
 10
270.0416278573909
 20
38.69961229460207
 30
0.0
 10
269.743784803331
 20
38.77918063484675
 30
0.0
 10
269.4378826342351
 20
38.91019130701289
 30
0.0
 10
269.2322850563149
 20
39.04411734367336
 30
0.0
 10
269.1069839528695
 20
39.12573834496813
 30
0.0
  0
SPLINE
  5
24D
330
1F
100
AcDbEntity
  8
0
  6
Continuous
 62
     7
370
    15
100
AcDbSpline
210
0.0
220
0.0
230
1.0
 70
     8
 71
     3
 72
    12
 73
     8
 74
     0
 42
0.000000001
 43
0.00000001
 40
0.0
 40
0.0
 40
0.0
 40
0.0
 40
0.2161857461389864
 40
0.4397628073511836
 40
0.593418566635389
 40
0.7522096186328949
 40
1.0
 40
1.0
 40
1.0
 40
1.0
 10
269.1069839528695
 20
39.12573834496813
 30
0.0
 10
269.0119127759324
 20
39.04043626541025
 30
0.0
 10
268.8185199717594
 20
38.86691565801944
 30
0.0
 10
268.5341988369694
 20
38.68527991791499
 30
0.0
 10
268.2742532707356
 20
38.57893886391462
 30
0.0
 10
268.0072740295753
 20
38.51900975695997
 30
0.0
 10
267.8278366444146
 20
38.52460471237354
 30
0.0
 10
267.7184788271318
 20
38.5280145486865
 30
0.0
  0
SPLINE
  5
24E
330
1F
100
AcDbEntity
  8
0
  6
Continuous
 62
     7
370
    15
100
AcDbSpline
210
0.0
220
0.0
230
1.0
 70
     8
 71
     3
 72
    13
 73
     9
 74
     0
 42
0.000000001
 43
0.00000001
 40
0.0
 40
0.0
 40
0.0
 40
0.0
 40
0.1281940639112347
 40
0.3016059688761533
 40
0.4802226824374581
 40
0.6449624637538114
 40
0.815590090087478
 40
0.9999999999999999
 40
0.9999999999999999
 40
0.9999999999999999
 40
0.9999999999999999
 10
267.7184788271318
 20
38.5280145486865
 30
0.0
 10
267.7266409913584
 20
38.46094703898265
 30
0.0
 10
267.7458443567448
 20
38.30315532361627
 30
0.0
 10
267.7781777412926
 20
38.071675270487
 30
0.0
 10
267.8145002258483
 20
37.85891822458385
 30
0.0
 10
267.8508116422791
 20
37.70090729719942
 30
0.0
 10
267.8863974809357
 20
37.59239514594129
 30
0.0
 10
267.9091113264121
 20
37.55460426058877
 30
0.0
 10
267.9209091161399
 20
37.53497531138792
 30
0.0
  0
LINE
  5
24F
330
1F
100
AcDbEntity
  8
0
  6
Continuous
 62
     7
370
    15
100
AcDbLine
 10
270.6979193676
 20
37.5679584793
 30
0.0
 11
270.6979193676
 21
38.730422904
 31
0.0
  0
LINE
  5
250
330
1F
100
AcDbEntity
  8
0
  6
Continuous
 62
     7
370
    15
100
AcDbLine
 10
269.1069839529
 20
37.1556565656
 30
0.0
 11
269.1069839529
 21
39.125738345
 31
0.0
  0
LWPOLYLINE
  5
251
330
1F
100
AcDbEntity
  8
0
  6
Continuous
 62
     7
370
    15
100
AcDbPolyline
 90
       11
 70
   128
 43
0.0
 10
273.2959001092
 20
31.2114745852
 10
273.4504096023
 20
30.9316351651
 10
273.6565604403
 20
30.3882144362
 10
273.7390479055
 20
29.8633921158
 10
273.68979755
 20
29.4085414693
 10
273.5136303418
 20
29.068186447
 10
273.2277907546
 20
28.87564337
 10
272.8602587588
 20
28.8497596962
 10
272.447010947
 20
28.9930690998
 10
272.0284988941
 20
29.291543458
 10
271.7082253836
 20
29.6344935754
  0
ARC
  5
252
330
1F
100
AcDbEntity
  8
0
  6
Continuous
 62
     7
370
    15
100
AcDbCircle
 10
228.3205148832
 20
62.7668745674
 30
0.0
 40
1.037890860762196
100
AcDbArc
 50
207.1115775574
 51
290.4963583483
  0
LWPOLYLINE
  5
253
330
1F
100
AcDbEntity
  8
0
  6
Continuous
 62
     7
370
    15
100
AcDbPolyline
 90
       11
 70
   128
 43
0.0
 10
229.7346687829
 20
62.9373276808
 10
229.7027511604
 20
63.1051458156
 10
229.5079914786
 20
63.4038045394
 10
229.1673419661
 20
63.5952413977
 10
228.7326634232
 20
63.6503118641
 10
228.2701317177
 20
63.5606319595
 10
227.8501631089
 20
63.3398546362
 10
227.5366940105
 20
63.0215912404
 10
227.3774472511
 20
62.6542944891
 10
227.3966667062
 20
62.2938819831
 10
227.3966667062
 20
62.2938819831
  0
LINE
  5
254
330
1F
100
AcDbEntity
  8
0
  6
Continuous
 62
     7
370
    15
100
AcDbLine
 10
229.1295207034
 20
62.3149751358
 30
0.0
 11
229.366363082
 21
62.9868069225
 31
0.0
  0
LINE
  5
255
330
1F
100
AcDbEntity
  8
0
  6
Continuous
 62
     7
370
    15
100
AcDbLine
 10
228.7865513119
 20
63.371345686
 30
0.0
 11
229.366363082
 21
62.9868069225
 31
0.0
  0
LINE
  5
256
330
1F
100
AcDbEntity
  8
0
  6
Continuous
 62
     7
370
    15
100
AcDbLine
 10
227.9698971632
 20
63.0840526628
 30
0.0
 11
228.7865513119
 21
63.371345686
 31
0.0
  0
LINE
  5
257
330
1F
100
AcDbEntity
  8
0
  6
Continuous
 62
     7
370
    15
100
AcDbLine
 10
227.9698971632
 20
63.0840526628
 30
0.0
 11
227.7330547846
 21
62.4122208762
 31
0.0
  0
LINE
  5
258
330
1F
100
AcDbEntity
  8
0
  6
Continuous
 62
     7
370
    15
100
AcDbLine
 10
228.3128665548
 20
62.0276821127
 30
0.0
 11
227.7330547846
 21
62.4122208762
 31
0.0
  0
LINE
  5
259
330
1F
100
AcDbEntity
  8
0
  6
Continuous
 62
     7
370
    15
100
AcDbLine
 10
228.3128665548
 20
62.0276821127
 30
0.0
 11
229.1295207034
 21
62.3149751358
 31
0.0
  0
LINE
  5
25A
330
1F
100
AcDbEntity
  8
0
  6
Continuous
 62
     7
370
    15
100
AcDbLine
 10
229.0283960746
 20
62.7436623202
 30
0.0
 11
229.2328456372
 21
62.6080686913
 31
0.0
  0
LINE
  5
25B
330
1F
100
AcDbEntity
  8
0
  6
Continuous
 62
     7
370
    15
100
AcDbLine
 10
229.0283960746
 20
62.7436623202
 30
0.0
 11
228.7865513119
 21
63.371345686
 31
0.0
  0
LINE
  5
25C
330
1F
100
AcDbEntity
  8
0
  6
Continuous
 62
     7
370
    15
100
AcDbLine
 10
228.2117419259
 20
62.456369297
 30
0.0
 11
227.9698971632
 21
63.0840526628
 31
0.0
  0
LINE
  5
25D
330
1F
100
AcDbEntity
  8
0
  6
Continuous
 62
     7
370
    15
100
AcDbLine
 10
228.2117419259
 20
62.456369297
 30
0.0
 11
228.1084169922
 21
62.1632757416
 31
0.0
  0
LINE
  5
25E
330
1F
100
AcDbEntity
  8
0
  6
Continuous
 62
     7
370
    15
100
AcDbLine
 10
228.2117419259
 20
62.456369297
 30
0.0
 11
229.0283960746
 21
62.7436623202
 31
0.0
  0
LWPOLYLINE
  5
25F
330
1F
100
AcDbEntity
  8
0
  6
Continuous
 62
     7
370
     0
100
AcDbPolyline
 90
        8
 70
   128
 43
0.0
 10
231.1433257273
 20
40.6256755798
 10
231.2053646599
 20
39.4543040056
 10
231.390610567
 20
38.3710045475
 10
231.6964630021
 20
37.3909843554
 10
232.1186284675
 20
36.5280007643
 10
232.6511806855
 20
35.7941681724
 10
233.2866437902
 20
35.1997879805
 10
233.7326684132
 20
34.9026154989
  0
LWPOLYLINE
  5
260
330
1F
100
AcDbEntity
  8
0
  6
Continuous
 62
     7
370
     0
100
AcDbPolyline
 90
       21
 70
   128
 43
0.0
 10
246.2316525711
 20
56.5538370584
 10
245.5514028289
 20
56.8690742617
 10
244.7005371236
 20
57.0828827193
 10
243.7834357532
 20
57.1372966902
 10
242.8129728106
 20
57.0315523215
 10
241.8027714683
 20
56.7671340324
 10
240.7670127387
 20
56.347753676
 10
239.720236404
 20
55.7792984332
 10
238.6771369094
 20
55.0697481696
 10
237.6523570852
 20
54.2290634155
 10
236.6602825938
 20
53.2690455421
 10
235.7148399865
 20
52.2031710959
 10
234.829301205
 20
51.0464026177
 10
234.0160972727
 20
49.8149786013
 10
233.2866437902
 20
48.5261855406
 10
232.6511806855
 20
47.198115265
 10
232.1186284675
 20
45.8494109701
 10
231.6964630021
 20
44.4990055078
 10
231.390610567
 20
43.1658556106
 10
231.2053646599
 20
41.8686757808
 10
231.1433257273
 20
40.6256755798
  0
LWPOLYLINE
  5
261
330
1F
100
AcDbEntity
  8
0
  6
Continuous
 62
     7
370
     0
100
AcDbPolyline
 90
       42
 70
   128
 43
0.0
 10
274.2768393797
 20
32.0543856561
 10
273.4672942996
 20
31.5152738869
 10
272.67672427
 20
30.8452557564
 10
271.9236595824
 20
30.0600359217
 10
271.2257514348
 20
29.1780192702
 10
270.5993582027
 20
28.2198795247
 10
270.0591620124
 20
27.2080746687
 10
269.6178246049
 20
26.1663205505
 10
269.2856905549
 20
25.1190350037
 10
269.0705448031
 20
24.0907655138
 10
268.9774301835
 20
23.1056138461
 10
269.0085292239
 20
22.1866711209
 10
269.1631129891
 20
21.3554765766
 10
269.4375581667
 20
20.631512709
 10
269.8254319944
 20
20.0317486175
 10
270.3176430383
 20
19.570242264
 10
270.9026542889
 20
19.2578109663
 10
271.5667535781
 20
19.1017778493
 10
272.2943749815
 20
19.1058001969
 10
273.0684636702
 20
19.2697837287
 10
273.8708756614
 20
19.5898848098
 10
274.682803098
 20
20.0586005421
 10
275.4852150892
 20
20.6649446261
 10
276.2593037779
 20
21.3947048703
 10
276.9869251813
 20
22.2307763132
 10
277.6510244706
 20
23.1535621488
 10
278.2360357211
 20
24.1414330592
 10
278.728246765
 20
25.1712341876
 10
279.1161205927
 20
26.2188278682
 10
279.3905657703
 20
27.2596593932
 10
279.5451495356
 20
28.2693325538
 10
279.5762485759
 20
29.2241814667
 10
279.4831339563
 20
30.1018252829
 10
279.2679882045
 20
30.8816927752
 10
278.9358541545
 20
31.5455045103
 10
278.494516747
 20
32.0777013041
 10
277.9543205568
 20
32.4658089145
 10
277.3279273246
 20
32.7007304283
 10
276.630019177
 20
32.7769594842
 10
275.8769544894
 20
32.6927093378
 10
275.0863844598
 20
32.4499547411
 10
274.2768393797
 20
32.0543856561
  0
LWPOLYLINE
  5
262
330
1F
100
AcDbEntity
  8
0
  6
Continuous
 62
     7
370
     0
100
AcDbPolyline
 90
       22
 70
   128
 43
0.0
 10
270.557828477
 20
20.0003140055
 10
270.6409962903
 20
19.9612790662
 10
271.2778151193
 20
19.7763083786
 10
271.9831502543
 20
19.7560097425
 10
272.7387338857
 20
19.900908882
 10
273.5249967943
 20
20.2072529854
 10
274.3215751839
 20
20.6671079015
 10
275.1078380926
 20
21.2685636293
 10
275.8634217239
 20
21.9960427815
 10
276.5687568589
 20
22.8307040302
 10
277.2055756879
 20
23.7509300874
 10
277.7573849379
 20
24.7328875817
 10
278.209893039
 20
25.7511443297
 10
278.5513802692
 20
26.7793280166
 10
278.7730022885
 20
27.7908092249
 10
278.8690192032
 20
28.7593911226
 10
278.8369442255
 20
29.6599879474
 10
278.6776080804
 20
30.4692747146
 10
278.3951374906
 20
31.1662913219
 10
277.9968482958
 20
31.7329854055
 10
277.493055977
 20
32.1546798861
 10
277.4456014257
 20
32.1835574315
  0
LWPOLYLINE
  5
263
330
1F
100
AcDbEntity
  8
0
  6
Continuous
 62
     7
370
     0
100
AcDbPolyline
 90
       41
 70
   128
 43
0.0
 10
221.5973841813
 20
36.3395329927
 10
221.6597945082
 20
38.0721254189
 10
221.846575821
 20
39.8642919066
 10
222.1563823561
 20
41.7031198552
 10
222.5869819503
 20
43.5753604672
 10
223.1352721237
 20
45.467524206
 10
223.7973024329
 20
47.3659779886
 10
224.5683029345
 20
49.257043412
 10
225.4427185522
 20
51.1270953064
 10
226.4142491014
 20
52.9626599052
 10
227.4758946822
 20
54.7505119232
 10
228.6200061139
 20
56.4777698458
 10
229.8383400475
 20
58.1319887401
 10
231.1221183589
 20
59.7012499209
 10
232.4620913961
 20
61.1742468256
 10
233.8486046226
 20
62.5403664776
 10
235.2716681789
 20
63.7897659537
 10
236.7210288594
 20
64.9134433018
 10
238.1862439871
 20
65.9033024011
 10
239.6567566536
 20
66.7522112939
 10
241.1219717814
 20
67.4540535723
 10
242.5713324619
 20
68.0037724466
 10
243.9943960181
 20
68.3974071796
 10
245.3809092447
 20
68.6321216242
 10
246.7208822819
 20
68.7062246573
 10
248.0046605933
 20
68.619182365
 10
249.2229945268
 20
68.3716218888
 10
250.3671059585
 20
67.9653269078
 10
251.4287515394
 20
67.4032247865
 10
252.4002820885
 20
66.6893654837
 10
253.2746977062
 20
65.828892372
 10
254.0456982078
 20
64.8280051798
 10
254.7077285171
 20
63.6939153223
 10
255.2560186905
 20
62.4347939429
 10
255.6866182847
 20
61.0597130401
 10
255.9964248198
 20
59.5785801032
 10
256.1832061326
 20
58.0020667289
 10
256.2456164595
 20
56.3415317324
 10
256.1832061326
 20
54.6089393062
 10
255.9964248198
 20
52.8167728185
 10
255.7075022874
 20
51.0835454556
  0
LWPOLYLINE
  5
264
330
1F
100
AcDbEntity
  8
0
  6
Continuous
 62
     7
370
     0
100
AcDbPolyline
 90
       23
 70
   128
 43
0.0
 10
243.2085181295
 20
29.4323238961
 10
242.5713324619
 20
28.8912987714
 10
241.1219717814
 20
27.7676214232
 10
239.6567566536
 20
26.777762324
 10
238.1862439871
 20
25.9288534311
 10
236.7210288594
 20
25.2270111527
 10
235.2716681789
 20
24.6772922785
 10
233.8486046226
 20
24.2836575454
 10
232.4620913961
 20
24.0489431008
 10
231.1221183589
 20
23.9748400677
 10
229.8383400475
 20
24.0618823601
 10
228.6200061139
 20
24.3094428362
 10
227.4758946822
 20
24.7157378173
 10
226.4142491014
 20
25.2778399385
 10
225.4427185522
 20
25.9916992413
 10
224.5683029345
 20
26.8521723531
 10
223.7973024329
 20
27.8530595453
 10
223.1352721237
 20
28.9871494028
 10
222.5869819503
 20
30.2462707821
 10
222.1563823561
 20
31.621351685
 10
221.846575821
 20
33.1024846219
 10
221.6597945082
 20
34.6789979961
 10
221.5973841813
 20
36.3395329927
  0
LWPOLYLINE
  5
265
330
1F
100
AcDbEntity
  8
0
  6
Continuous
 62
     7
370
     0
100
AcDbPolyline
 90
       27
 70
   128
 43
0.0
 10
220.8902774001
 20
36.3395329927
 10
220.9522754753
 20
38.083483073
 10
221.1378348289
 20
39.8867820504
 10
221.4456538954
 20
41.7367810783
 10
221.8735735451
 20
43.6205037428
 10
222.4185922293
 20
45.5247370828
 10
223.0768870333
 20
47.4361242696
 10
223.8438404923
 20
49.3412582954
 10
224.7140729786
 20
51.2267760139
 10
225.6814804367
 20
53.0794518731
 10
226.7392771984
 20
54.8862906828
 10
227.8800435793
 20
56.6346187672
 10
229.095777923
 20
58.3121728608
 10
230.3779527265
 20
59.9071861269
 10
231.7175744549
 20
61.4084706937
 10
233.1052466242
 20
62.8054961284
 10
234.5312357112
 20
64.0884633014
 10
235.985539427
 20
65.2483731199
 10
237.457956876
 20
66.2770896497
 10
238.9381601076
 20
67.1673971837
 10
240.4157665599
 20
67.9130508541
 10
241.8804118851
 20
68.5088204363
 10
243.3218226486
 20
68.9505270345
 10
244.7298883896
 20
69.2350723945
 10
246.0947325387
 20
69.3604606349
 10
247.4067816946
 20
69.3258122474
 10
247.5771847533
 20
69.3091059794
  0
ARC
  5
266
330
1F
100
AcDbEntity
  8
0
  6
Continuous
 62
     7
370
     0
100
AcDbCircle
 10
236.2834429222
 20
35.7335901822
 30
0.0
 40
15.40508719478033
100
AcDbArc
 50
177.7457495802
 51
212.5890690703
  0
LWPOLYLINE
  5
267
330
1F
100
AcDbEntity
  8
0
  6
Continuous
 62
     7
370
     0
100
AcDbPolyline
 90
       27
 70
   128
 43
0.0
 10
229.0220053838
 20
40.6256755798
 10
229.0842513301
 20
41.9415392988
 10
229.2702063902
 20
43.3127229079
 10
229.5775320712
 20
44.7219829778
 10
230.0023635745
 20
46.1515972452
 10
230.5393583974
 20
47.5835874813
 10
231.1817635184
 20
48.9999455781
 10
231.9215003204
 20
50.3828600107
 10
232.7492661839
 20
51.7149398277
 10
233.6546514728
 20
52.9794333525
 10
234.6262704419
 20
54.1604388454
 10
235.6519044189
 20
55.2431044771
 10
236.7186554614
 20
56.213815099
 10
237.8131085561
 20
57.0603634619
 10
238.9215003204
 20
57.7721037289
 10
240.0298920847
 20
58.3400853533
 10
241.1243451794
 20
58.7571656365
 10
242.1910962219
 20
59.0180995519
 10
243.2167301989
 20
59.1196057043
 10
244.188349168
 20
59.0604075948
 10
245.0937344569
 20
58.841249674
 10
245.9215003204
 20
58.4648879799
 10
246.6612371224
 20
57.9360554793
 10
247.3036422434
 20
57.2614025475
 10
247.8406370662
 20
56.4494133368
 10
248.2654685695
 20
55.5102990824
 10
248.3236286174
 20
55.3461649929
  0
LWPOLYLINE
  5
268
330
1F
100
AcDbEntity
  8
0
  6
Continuous
 62
     7
370
     0
100
AcDbPolyline
 90
       13
 70
   128
 43
0.0
 10
235.8246444594
 20
33.6949434334
 10
235.6519044189
 20
33.6629651731
 10
234.6262704419
 20
33.5614590208
 10
233.6546514728
 20
33.6206571303
 10
232.7492661839
 20
33.8398150511
 10
231.9215003204
 20
34.2161767451
 10
231.1817635184
 20
34.7450092458
 10
230.5393583974
 20
35.4196621775
 10
230.0023635745
 20
36.2316513883
 10
229.5775320712
 20
37.1707656426
 10
229.2702063902
 20
38.2251950339
 10
229.0842513301
 20
39.3816795006
 10
229.0220053838
 20
40.6256755798
  0
LWPOLYLINE
  5
269
330
1F
100
AcDbEntity
  8
0
  6
Continuous
 62
     7
370
     0
100
AcDbPolyline
 90
       21
 70
   128
 43
0.0
 10
218.0066644205
 20
46.9527801387
 10
218.4763099323
 20
48.7122080692
 10
219.0604784211
 20
50.4826638722
 10
219.7543917398
 20
52.2496662829
 10
220.5523740943
 20
53.9987622835
 10
221.4478984683
 20
55.7156453194
 10
222.4336400107
 20
57.3862723191
 10
223.5015359478
 20
58.9969785575
 10
224.6428515325
 20
60.5345894252
 10
225.8482514891
 20
61.9865281892
 10
227.1078763701
 20
63.340918863
 10
228.4114232009
 20
64.5866833443
 10
229.7482297516
 20
65.7136320285
 10
231.1073617479
 20
66.7125471522
 10
232.4777023065
 20
67.57525819
 10
233.8480428652
 20
68.294708684
 10
235.2071748615
 20
68.8650139613
 10
236.5439814122
 20
69.2815092675
 10
237.847528243
 20
69.5407879213
 10
239.107153124
 20
69.6407291789
 10
239.2636709876
 20
69.6419627543
  0
LWPOLYLINE
  5
26A
330
1F
100
AcDbEntity
  8
0
  6
Continuous
 62
     7
370
     0
100
AcDbPolyline
 90
       22
 70
   128
 43
0.0
 10
209.8929668372
 20
49.0282261468
 10
210.371802428
 20
50.976892283
 10
210.9736841443
 20
52.9427034767
 10
211.694131392
 20
54.9110256201
 10
212.5277809386
 20
56.867205913
 10
213.4684268383
 20
58.7966819429
 10
214.5090666316
 20
60.6850900923
 10
215.6419534733
 20
62.5183724654
 10
216.8586538025
 20
64.2828815402
 10
218.1501101249
 20
65.9654817641
 10
219.5067084393
 20
67.5536473395
 10
220.9183498074
 20
69.0355554696
 10
222.3745255333
 20
70.400174371
 10
223.8643953935
 20
71.6373453974
 10
225.3768683349
 20
72.7378586645
 10
226.9006850402
 20
73.6935216102
 10
228.4245017455
 20
74.4972199834
 10
229.936974687
 20
75.1429708042
 10
231.4268445471
 20
75.6259669035
 10
232.883020273
 20
75.9426127086
 10
234.2946616411
 20
76.0905510098
 10
235.6328679329
 20
76.0701457538
  0
LWPOLYLINE
  5
26B
330
1F
100
AcDbEntity
  8
0
  6
Continuous
 62
     7
370
     0
100
AcDbPolyline
 90
       19
 70
   128
 43
0.0
 10
218.3994707961
 20
46.8951336818
 10
218.8867150135
 20
48.699486641
 10
219.4951122667
 20
50.5145186039
 10
220.2193351841
 20
52.3243364189
 10
221.053042178
 20
54.1130925915
 10
221.9889329737
 20
55.8651240517
 10
223.0188125341
 20
57.5650893056
 10
224.1336628187
 20
59.1981027722
 10
225.3237217488
 20
60.7498651271
 10
226.5785686888
 20
62.2067885136
 10
227.8872156929
 20
63.5561155233
 10
229.2382037204
 20
64.7860309047
 10
230.6197029755
 20
65.885765023
 10
232.0196164937
 20
66.845688163
 10
233.4256860679
 20
67.6573948505
 10
234.8255995862
 20
68.3137774547
 10
236.2070988412
 20
68.8090884248
 10
237.5580868687
 20
69.1389906182
 10
238.33117773
 20
69.25426882
  0
LINE
  5
26C
330
1F
100
AcDbEntity
  8
0
  6
Continuous
 62
     7
370
     0
100
AcDbLine
 10
218.2635414488
 20
36.4551142309
 30
0.0
 11
219.4230308292
 21
37.1244732024
 31
0.0
  0
LINE
  5
26D
330
1F
100
AcDbEntity
  8
0
  6
Continuous
 62
     7
370
     0
100
AcDbLine
 10
219.8083628993
 20
36.9209299305
 30
0.0
 11
219.4230308292
 21
37.1244732024
 31
0.0
  0
ARC
  5
26E
330
1F
100
AcDbEntity
  8
0
  6
Continuous
 62
     7
370
     0
100
AcDbCircle
 10
218.6978843682
 20
38.3003937557
 30
0.0
 40
1.381530505409614
100
AcDbArc
 50
301.6605905892
 51
324.2377952694
  0
LINE
  5
26F
330
1F
100
AcDbEntity
  8
0
  6
Continuous
 62
     7
370
     0
100
AcDbLine
 10
214.1273571335
 20
41.8145494779
 30
0.0
 11
219.7023602006
 21
38.5961687124
 31
0.0
  0
LINE
  5
270
330
1F
100
AcDbEntity
  8
0
  6
Continuous
 62
     7
370
     0
100
AcDbLine
 10
214.0666969617
 20
41.7795197222
 30
0.0
 11
214.1273571335
 21
41.8145494779
 31
0.0
  0
LINE
  5
271
330
1F
100
AcDbEntity
  8
0
  6
Continuous
 62
     7
370
     0
100
AcDbLine
 10
213.8457260926
 20
46.5599420426
 30
0.0
 11
213.8467671198
 21
46.7456937745
 31
0.0
  0
LWPOLYLINE
  5
272
330
1F
100
AcDbEntity
  8
0
  6
Continuous
 62
     7
370
     0
100
AcDbPolyline
 90
        3
 70
   128
 43
0.0
 10
213.9845666271
 20
44.507846118
 10
213.9090789288
 20
45.1539715429
 10
213.8457260926
 20
46.5599420426
  0
LWPOLYLINE
  5
273
330
1F
100
AcDbEntity
  8
0
  6
Continuous
 62
     7
370
     0
100
AcDbPolyline
 90
       18
 70
   128
 43
0.0
 10
182.9125064089
 20
70.3755606338
 10
182.9766351453
 20
71.5188130448
 10
183.1678769757
 20
72.7157055524
 10
183.4828191852
 20
73.9448795815
 10
183.9158416225
 20
75.1844004926
 10
184.4592169919
 20
76.4121490054
 10
185.1032487472
 20
77.6062159189
 10
185.8364441264
 20
78.7452930805
 10
186.6457192406
 20
79.8090536314
 10
187.5166325562
 20
80.7785147393
 10
188.4336426045
 20
81.6363763477
 10
189.3803853194
 20
82.3673298961
 10
190.3399660548
 20
82.9583315009
 10
191.2952610696
 20
83.3988347246
 10
192.2292231018
 20
83.6809787766
 10
193.1251855766
 20
83.7997287897
 10
193.9671600227
 20
83.7529656671
 10
194.630321186
 20
83.5831956316
  0
ARC
  5
274
330
1F
100
AcDbEntity
  8
0
  6
Continuous
 62
     7
370
     0
100
AcDbCircle
 10
188.2988263905
 20
69.9296535911
 30
0.0
 40
5.404745695701295
100
AcDbArc
 50
175.2675545006
 51
224.8656241104
  0
LWPOLYLINE
  5
275
330
1F
100
AcDbEntity
  8
0
  6
Continuous
 62
     7
370
     0
100
AcDbPolyline
 90
        3
 70
   128
 43
0.0
 10
219.0723964154
 20
34.7857839714
 10
218.8867150135
 20
35.1639848586
 10
218.3994707961
 20
36.4057776189
  0
LWPOLYLINE
  5
276
330
1F
100
AcDbEntity
  8
0
  6
Continuous
 62
     7
370
     0
100
AcDbPolyline
 90
        3
 70
   128
 43
0.0
 10
218.9867094617
 20
34.268143824
 10
218.4763099323
 20
35.2430439415
 10
218.0066644205
 20
36.460230706
  0
LINE
  5
277
330
1F
100
AcDbEntity
  8
0
  6
Continuous
 62
     7
370
     0
100
AcDbLine
 10
219.4230308292
 20
37.1244732024
 30
0.0
 11
213.7131435711
 21
40.4207209539
 31
0.0
  0
ARC
  5
278
330
1F
100
AcDbEntity
  8
0
  6
Continuous
 62
     7
370
     0
100
AcDbCircle
 10
221.5614725867
 20
41.0867938578
 30
0.0
 40
12.09715026325527
100
AcDbArc
 50
195.2980304775
 51
214.568481162
  0
LWPOLYLINE
  5
279
330
1F
100
AcDbEntity
  8
0
  6
Continuous
 62
     7
370
     0
100
AcDbPolyline
 90
       11
 70
   128
 43
0.0
 10
273.1582086341
 20
31.1022898384
 10
273.3517196441
 20
30.728351168
 10
273.5188495206
 20
30.199973505
 10
273.555482233
 20
29.7076660402
 10
273.4576480585
 20
29.3047779264
 10
273.2359488479
 20
29.0349683422
 10
272.9144091507
 20
28.9274753426
 10
272.5278727824
 20
28.9939474619
 10
272.1182269561
 20
29.2271814148
 10
271.7298631534
 20
29.6019026832
 10
271.7059230523
 20
29.630830404
  0
OLE2FRAME
  5
27A
330
1F
100
AcDbEntity
  8
0
100
AcDbOle2Frame
 70
     2
  3
Paintbrush-Bild
 10
13.8511154363
 20
38.264191557
 30
0.0
 11
51.6290888628
 21
31.9806341108
 31
0.0
 71
     2
 72
     0
 73
     1
 90
    12928
310
80552BED0767C5B32B40DDAF6807D121434000000000000000006FFBDDFB85D0
310
4940DDAF6807D121434000000000000000006FFBDDFB85D04940416F4BD60AFB
310
3F4000000000000000002BED0767C5B32B40416F4BD60AFB3F40000000000000
310
0000000000000100000000010000010000000100000000000100000000320000
310
D0CF11E0A1B11AE1000000000000000000000000000000003E000300FEFF0900
310
0600000000000000000000000100000001000000000000000010000002000000
310
01000000FEFFFFFF0000000000000000FFFFFFFFFFFFFFFFFFFFFFFFFFFFFFFF
310
FFFFFFFFFFFFFFFFFFFFFFFFFFFFFFFFFFFFFFFFFFFFFFFFFFFFFFFFFFFFFFFF
310
FFFFFFFFFFFFFFFFFFFFFFFFFFFFFFFFFFFFFFFFFFFFFFFFFFFFFFFFFFFFFFFF
310
FFFFFFFFFFFFFFFFFFFFFFFFFFFFFFFFFFFFFFFFFFFFFFFFFFFFFFFFFFFFFFFF
310
FFFFFFFFFFFFFFFFFFFFFFFFFFFFFFFFFFFFFFFFFFFFFFFFFFFFFFFFFFFFFFFF
310
FFFFFFFFFFFFFFFFFFFFFFFFFFFFFFFFFFFFFFFFFFFFFFFFFFFFFFFFFFFFFFFF
310
FFFFFFFFFFFFFFFFFFFFFFFFFFFFFFFFFFFFFFFFFFFFFFFFFFFFFFFFFFFFFFFF
310
FFFFFFFFFFFFFFFFFFFFFFFFFFFFFFFFFFFFFFFFFFFFFFFFFFFFFFFFFFFFFFFF
310
FFFFFFFFFFFFFFFFFFFFFFFFFFFFFFFFFFFFFFFFFFFFFFFFFFFFFFFFFFFFFFFF
310
FFFFFFFFFFFFFFFFFFFFFFFFFFFFFFFFFFFFFFFFFFFFFFFFFFFFFFFFFFFFFFFF
310
FFFFFFFFFFFFFFFFFFFFFFFFFFFFFFFFFFFFFFFFFFFFFFFFFFFFFFFFFFFFFFFF
310
FFFFFFFFFFFFFFFFFFFFFFFFFFFFFFFFFFFFFFFFFFFFFFFFFFFFFFFFFFFFFFFF
310
FFFFFFFFFFFFFFFFFFFFFFFFFFFFFFFFFFFFFFFFFFFFFFFFFFFFFFFFFFFFFFFF
310
FFFFFFFFFFFFFFFFFFFFFFFFFFFFFFFFFFFFFFFFFFFFFFFFFFFFFFFFFFFFFFFF
310
FDFFFFFFFEFFFFFFFEFFFFFFFEFFFFFF05000000060000000700000008000000
310
090000000A0000000B0000000C0000000D0000000E0000000F00000010000000
310
11000000120000001300000014000000150000001600000017000000FEFFFFFF
310
FFFFFFFFFFFFFFFFFFFFFFFFFFFFFFFFFFFFFFFFFFFFFFFFFFFFFFFFFFFFFFFF
310
FFFFFFFFFFFFFFFFFFFFFFFFFFFFFFFFFFFFFFFFFFFFFFFFFFFFFFFFFFFFFFFF
310
FFFFFFFFFFFFFFFFFFFFFFFFFFFFFFFFFFFFFFFFFFFFFFFFFFFFFFFFFFFFFFFF
310
FFFFFFFFFFFFFFFFFFFFFFFFFFFFFFFFFFFFFFFFFFFFFFFFFFFFFFFFFFFFFFFF
310
FFFFFFFFFFFFFFFFFFFFFFFFFFFFFFFFFFFFFFFFFFFFFFFFFFFFFFFFFFFFFFFF
310
FFFFFFFFFFFFFFFFFFFFFFFFFFFFFFFFFFFFFFFFFFFFFFFFFFFFFFFFFFFFFFFF
310
FFFFFFFFFFFFFFFFFFFFFFFFFFFFFFFFFFFFFFFFFFFFFFFFFFFFFFFFFFFFFFFF
310
FFFFFFFFFFFFFFFFFFFFFFFFFFFFFFFFFFFFFFFFFFFFFFFFFFFFFFFFFFFFFFFF
310
FFFFFFFFFFFFFFFFFFFFFFFFFFFFFFFFFFFFFFFFFFFFFFFFFFFFFFFFFFFFFFFF
310
FFFFFFFFFFFFFFFFFFFFFFFFFFFFFFFFFFFFFFFFFFFFFFFFFFFFFFFFFFFFFFFF
310
FFFFFFFFFFFFFFFFFFFFFFFFFFFFFFFFFFFFFFFFFFFFFFFFFFFFFFFFFFFFFFFF
310
FFFFFFFFFFFFFFFFFFFFFFFFFFFFFFFFFFFFFFFFFFFFFFFFFFFFFFFFFFFFFFFF
310
FFFFFFFFFFFFFFFFFFFFFFFFFFFFFFFFFFFFFFFFFFFFFFFFFFFFFFFFFFFFFFFF
310
52006F006F007400200045006E00740072007900000000000000000000000000
310
0000000000000000000000000000000000000000000000000000000000000000
310
16000500FFFFFFFFFFFFFFFF020000000A00030000000000C000000000000046
310
000000000000000000000000F08F93C7E925D20103000000C000000000000000
310
01004F006C006500000000000000000000000000000000000000000000000000
310
0000000000000000000000000000000000000000000000000000000000000000
310
0A000200FFFFFFFFFFFFFFFFFFFFFFFF00000000000000000000000000000000
310
0000000000000000000000000000000000000000000000001400000000000000
310
010043006F006D0070004F0062006A0000000000000000000000000000000000
310
0000000000000000000000000000000000000000000000000000000000000000
310
120002010100000003000000FFFFFFFF00000000000000000000000000000000
310
0000000000000000000000000000000000000000010000004D00000000000000
310
01004F006C006500310030004E00610074006900760065000000000000000000
310
0000000000000000000000000000000000000000000000000000000000000000
310
1A000200FFFFFFFFFFFFFFFFFFFFFFFF00000000000000000000000000000000
310
0000000000000000000000000000000000000000040000002426000000000000
310
FEFFFFFF02000000FEFFFFFFFFFFFFFFFFFFFFFFFFFFFFFFFFFFFFFFFFFFFFFF
310
FFFFFFFFFFFFFFFFFFFFFFFFFFFFFFFFFFFFFFFFFFFFFFFFFFFFFFFFFFFFFFFF
310
FFFFFFFFFFFFFFFFFFFFFFFFFFFFFFFFFFFFFFFFFFFFFFFFFFFFFFFFFFFFFFFF
310
FFFFFFFFFFFFFFFFFFFFFFFFFFFFFFFFFFFFFFFFFFFFFFFFFFFFFFFFFFFFFFFF
310
FFFFFFFFFFFFFFFFFFFFFFFFFFFFFFFFFFFFFFFFFFFFFFFFFFFFFFFFFFFFFFFF
310
FFFFFFFFFFFFFFFFFFFFFFFFFFFFFFFFFFFFFFFFFFFFFFFFFFFFFFFFFFFFFFFF
310
FFFFFFFFFFFFFFFFFFFFFFFFFFFFFFFFFFFFFFFFFFFFFFFFFFFFFFFFFFFFFFFF
310
FFFFFFFFFFFFFFFFFFFFFFFFFFFFFFFFFFFFFFFFFFFFFFFFFFFFFFFFFFFFFFFF
310
FFFFFFFFFFFFFFFFFFFFFFFFFFFFFFFFFFFFFFFFFFFFFFFFFFFFFFFFFFFFFFFF
310
FFFFFFFFFFFFFFFFFFFFFFFFFFFFFFFFFFFFFFFFFFFFFFFFFFFFFFFFFFFFFFFF
310
FFFFFFFFFFFFFFFFFFFFFFFFFFFFFFFFFFFFFFFFFFFFFFFFFFFFFFFFFFFFFFFF
310
FFFFFFFFFFFFFFFFFFFFFFFFFFFFFFFFFFFFFFFFFFFFFFFFFFFFFFFFFFFFFFFF
310
FFFFFFFFFFFFFFFFFFFFFFFFFFFFFFFFFFFFFFFFFFFFFFFFFFFFFFFFFFFFFFFF
310
FFFFFFFFFFFFFFFFFFFFFFFFFFFFFFFFFFFFFFFFFFFFFFFFFFFFFFFFFFFFFFFF
310
FFFFFFFFFFFFFFFFFFFFFFFFFFFFFFFFFFFFFFFFFFFFFFFFFFFFFFFFFFFFFFFF
310
FFFFFFFFFFFFFFFFFFFFFFFFFFFFFFFFFFFFFFFFFFFFFFFFFFFFFFFFFFFFFFFF
310
0100000200000000000000000000000000000000000000000000000000000000
310
0000000000000000000000000000000000000000000000000000000000000000
310
0100FEFF030A0000FFFFFFFF0A00030000000000C00000000000004607000000
310
5042727573680007000000504272757368000700000050427275736800F439B2
310
7100000000000000000000000000000000000000000000000000000000000000
310
0000000000000000000000000000000000000000000000000000000000000000
310
0000000000000000000000000000000000000000000000000000000000000000
310
0000000000000000000000000000000000000000000000000000000000000000
310
0000000000000000000000000000000000000000000000000000000000000000
310
0000000000000000000000000000000000000000000000000000000000000000
310
0000000000000000000000000000000000000000000000000000000000000000
310
0000000000000000000000000000000000000000000000000000000000000000
310
0000000000000000000000000000000000000000000000000000000000000000
310
0000000000000000000000000000000000000000000000000000000000000000
310
0000000000000000000000000000000000000000000000000000000000000000
310
0000000000000000000000000000000000000000000000000000000000000000
310
20260000424D0E260000000000003E00000028000000B40200006E0000000100
310
01000000000000000000130B0000130B00000200000002000000000000FFFFFF
310
FFFFFFFFFFFFFFFFFFFFFFFFFFFFFFFFFFFFFFFFFFFFFFFFFFFFFFFFFFFFFFFF
310
FFFFFFFFFFFFFFFFFFFFFFFFFFFFFFFFFFFFFFFFFFFFFFFFFFFFFFFFFFFFFFFF
310
FFFFFFFFFFFFFFFFFFFFFFFFFFFFFFFFFFFFFFFFFFFFFFFFF000FFFFFFFFFFFF
310
FFFFFFFFFFFFFFFFFFFFFFFFFFFFFFFFFFFFFFFFFFFFFFFFFFFFFFFFFFFFFFFF
310
FFFFFFFFFFFFFFFFFFFFFFFFFFFFFFFFFFFFFFFFFFFFFFFFFFFFFFFFFFFFFFFF
310
FFFFFFFFFFFFFFFFFFFFFFFFFFFFFFFFF000FFFFFFFFFFFFFFFFFFFFFFFFFFFF
310
FFFFFFFFFFFFFFFFFFFFFFFFFFFFFFFFFFFFFFFFFFFFFFFFFFFFFFFFFFFFFFFF
310
FFFFFFFFFFFFFFFFFFFFFFFFFFFFFFFFFFFFFFFFFFFFFFFFFFFFFFFFFFFFFFFF
310
FFFFFFFFFFFFFFFFF000FFFFFFFFFFFFFFFFFFFFFFFFFFFFFFFFFFFFFFFFFFFF
310
FFFFFFFFFFFFFFFFFFFFFFFFFFFFFFFFFFFFFFFFFFFFFFFFFFFFFFFFFFFFFFFF
310
FFFFFFFFFFFFFFFFFFFFFFFFFFFFFFFFFFFFFFFFFFFFFFFFFFFFFFFFFFFFFFFF
310
F000FFFFFFFFFFFFFFFFFFFFFFFFFFFFFFFFFFFFFFFFFFFFFFFFFFFFFFFFFFFF
310
FFFFFFFFFFFFFFFFFFFFFFFFFFFFFFFFFFFFFFFFFFFFFFFFFFFFFFFFFFFFFFFF
310
FFFFFFFFFFFFFFFFFFFFFFFFFFFFFFFFFFFFFFFFFFFFFFFFF000FFFFFFFFFFFF
310
FFFFFFFFFFFFFFFFFFFFFFFFFFFFFFFFFFFFFFFFFFFFFFFFFFFFFFFFFFFFFFFF
310
FFFFFFFFFFFFFFFFFFFFFFFFFFFFFFFFFFFFFFFFFFFFFFFFFFFFFFFFFFFFFFFF
310
FFFFFFFFFFFFFFFFFFFFFFFFFFFFFFFFF000FFFFFFFFFFFFFFFFFFFFFFFFFFFF
310
FFFFFFFFFFFFFFFFFFFFFFFFFFFFFFFFFFFFFFFFFFFFFFFFFFFFFFFFFFFFFFFF
310
FFFFFFFFFFFFFFFFFFFFFFFFFFFFFFFFFFFFFFFFFFFFFFFFFFFFFFFFFFFFFFFF
310
FFFFFFFFFFFFFFFFF000FFFFFFFFFFFFFFFFFFFFFFFFFFFFFFFFFFFFFFFFFFFF
310
FFFFFFFFFFFFFFFFFFFFFFFFFFFFFFFFFFFFFFFFFFFFFFFFFFFFFFFFFFFFFFFF
310
FFFFFFFFFFFFFFFFFFFFFFFFFFFFFFFFFFFFFFFFFFFFFFFFFFFFFFFFFFFFFFFF
310
F000FFFFFFFFFFFFFFFFFFFFFFFFFFFFFFFFFFFFFFFFFFFFFFFFFFFFFFFFFFFF
310
FFFFFFFFFFFFFFFFFFFFFFFFFFFFFFFFFFFFFFFFFFFFFFFFFFFFFFFFFFFFFFFF
310
FFFFFFFFFFFFFFFFFFFFFFFFFFFFFFFFFFFFFFFFFFFFFFFFF000FFFFFFFFFFFF
310
FFFFFFFFFFFFFFFFFFFFFFFFFFFFFFFFFFFFFFFFFFFFFFFFFFFFFFFFFFFFFFFF
310
FFFFFFFFFFFFFFFFFFFFFFFFFFFFFFFFFFFFFFFFFFFFFFFFFFFFFFFFFFFFFFFF
310
FFFFFFFFFFFFFFFFFFFFFFFFFFFFFFFFF000FFFFFFFFFFFFFFFFFFFFFFFFFFFF
310
FFFFFFFFFFFFFFFFFFFFFFFFFFFFFFFFFFFFFFFFFFFFFFFFFFFFFFFFFFFFFFFF
310
FFFFFFFFFFFFFFFFFFFFFFFFFFFFFFFFFFFFFFFFFFFFFFFFFFFFFFFFFFFFFFFF
310
FFFFFFFFFFFFFFFFF000FFFFFFFFFFFFFFFFFFFFFFFFFFFFFFFFFFFFFFFFFFFF
310
FFFFFFFFFFFFFFFFFFFFFFFFFFFFFFFFFFFFFFFFFFFFFFFFFFFFFFFFFFFFFFFF
310
FFFFFFFFFFFFFFFFFFFFFFFFFFFFFFFFFFFFFFFFFFFFFFFFFFFFFFFFFFFFFFFF
310
F000FFFFFFFFFFFFFFFFFFFFFFFFFFFFFFFFFFFFFFFFFFFFFFFFFFFFFFFFFFFF
310
FFFFFFFFFFFFFFFFFFFFFFFFFFFFFFFFFFFFFFFFFFFFFFFFFFFFFFFFFFFFFFFF
310
FFFFFFFFFFFFFFFFFFFFFFFFFFFFFFFFFFFFFFFFFFFFFFFFF000FFFFFFFFFFFF
310
FFFFFFFFFFFFFFFFFFFFFFFFFFFFFFFFFFFFFFFFFFFFFFFFFFFFFFFFFFFFFFFF
310
FFFFFFFFFFFFFFFFFFFFFFFFFFFFFFFFFFFFFFFFFFFFFFFFFFFFFFFFFFFFFFFF
310
FFFFFFFFFFFFFFFFFFFFFFFFFFFFFFFFF000FFFFFFFFFFFFFFFFFFFFFFFFFFFF
310
FFFFFFFFFFFFFFFFFFFFFFFFFFFFFFFFFFFFFFFFFFFFFFFFFFFFFFFFFFFFFFFF
310
FFFFFFFFFFFFFFFFFFFFFFFFFFFFFFFFFFFFFFFFFFFFFFFFFFFFFFFFFFFFFFFF
310
FFFFFFFFFFFFFFFFF000FFFFFFFFFFFFFFFFFFFFFFFFFFFFFFFFFFFFFFFFFFFF
310
FFFFFFFFFFFFFFFFFFFFFFFFFFFFFFFFFFFFFFFFFFFFFFFFFFFFFFFFFFFFFFFF
310
FFFFFFFFFFFFFFFFFFFFFFFFFFFFFFFFFFFFFFFFFFFFFFFFFFFFFFFFFFFFFFFF
310
F000FFFFFFFFFFFFFFFFFFFFFFFFFFFFFFFFFFFFFFFFFFFFFFFFFFFFFFFFFFFF
310
FFFFFFFFFFFFFFFFFFFFFFFFFFFFFFFFFFFFFFFFFFFFFFFFFFFFFFFFFFFFFFFF
310
FFFFFFFFFFFFFFFFFFFFFFFFFFFFFFFFFFFFFFFFFFFFFFFFF000FFFFFFFFFFFF
310
FFFFFFFFFFFFFFFFFFFFFFFFFFFFFFFFFFFFFFFFFFFFFFFFFFFFFFFFFFFFFFFF
310
FFFFFFFFFFFFFFFFFFFFFFFFFFFFFFFFFFFFFFFFFFFFFFFFFFFFFFFFFFFFFFFF
310
FFFFFFFFFFFFFFFFFFFFFFFFFFFFFFFFF000FFFFFFFFFFFFFFFFFFFFFFFFFFFF
310
FFFFFFFFFFFFFFFFFFFFFFFFFFFFFFFFFFFFFFFFFFFFFFFFFFFFFFFFFFFFFFFF
310
FFFFFFFFFFFFFFFFFFFFFFFFFFFFFFFFFFFFFFFFFFFFFFFFFFFFFFFFFFFFFFFF
310
FFFFFFFFFFFFFFFFF000FFFFF80003FFFFFFFFFFFFFFFFFFFFFFFFFFFFFFFFFF
310
FFFFF00007FFFFFFFFFF00007FFFFFF800000000000000007FFFFFFFFFFFFFFF
310
FFFFFFFC001FFFFFFFFFFFFFFC001FFFFFFFFFFFFFFFFFFFFFFFFFFE0007FFFF
310
F000FFFF8000007FFFFFFFF8000FFFFFC0007FFFFF80007FFFFF0000007FFFFF
310
FFF8000007FFFFF800000000000000007FFFFFF0001FFFFFFFFFFFC00001FFFF
310
FFFFFFFFC00001FFFFFFFF000000000003FFFFE000007FFFF000FFFE0000000F
310
FFFFFFF0000FFFFF80007FFFFF80007FFFFC0000001FFFFFFFC0000001FFFFF8
310
00000000000000007FFFFFF0001FFFFFFFFFFE0000003FFFFFFFFFFE0000003F
310
FFFFFF000000000003FFFF0000000FFFF000FFF800000003FFFFFFF00007FFFF
310
80007FFFFF80007FFFF000000007FFFFFF000000003FFFF80000000000000000
310
7FFFFFF0001FFFFFFFFFF80000000FFFFFFFFFF80000000FFFFFFF0000000000
310
03FFFC00000003FFF000FFE000000000FFFFFFF00007FFFF80003FFFFF80007F
310
FFC000000001FFFFFC000000001FFFF800000000000000007FFFFFF0001FFFFF
310
FFFFE000000003FFFFFFFFE000000003FFFFFF000000000003FFF000000000FF
310
F000FF80000000007FFFFFF00007FFFF80003FFFFF80007FFF8000000000FFFF
310
F80000000007FFF800000000000000007FFFFFF0001FFFFFFFFFC000000001FF
310
FFFFFFC000000001FFFFFF000000000003FFC0000000007FF000FF0000000000
310
3FFFFFE00007FFFF00003FFFFF80007FFE00000000003FFFF00000000003FFF8
310
00000000000000007FFFFFF0001FFFFFFFFF8000000000FFFFFFFF8000000000
310
FFFFFF000000000003FF80000000003FF000FE00000000001FFFFFE00003FFFF
310
00003FFFFF80007FFC00000000001FFFE00000000001FFF8000001FFFE000000
310
7FFFFFF0001FFFFFFFFE00000000003FFFFFFE00000000003FFFFF0000000000
310
03FF00000000001FF000FC00000000000FFFFFE00003FFFF00001FFFFF80007F
310
F800000000001FFFC00000000000FFF8000001FFFE0000007FFFFFF0001FFFFF
310
FFFC00000000001FFFFFFC00000000001FFFFF000000000003FE00000000000F
310
F000F8000000000007FFFFE00003FFFF00001FFFFF80007FF800000000000FFF
310
800000000000FFF8000001FFFE0000007FFFFFF0001FFFFFFFF800000000000F
310
FFFFF800000000000FFFFF000000000003FC000000000007F000F80000000000
310
03FFFFC00003FFFE00001FFFFF80007FF0000000000007FF0000000000007FF8
310
000001FFFE0000007FFFFFF0001FFFFFFFF0000000000007FFFFF00000000000
310
07FFFF000000000003F8000000000003F000F0000000000003FFFFC00001FFFE
310
00001FFFFF80007FE0000000000007FE0000000000003FF8000001FFFE000000
310
7FFFFFF0001FFFFFFFF0000000000007FFFFF0000000000007FFFF0000000000
310
03F800001F800003F000E00001FFF00001FFFFC00001FFFE00000FFFFF80007F
310
E00001FFE00003FE00001FFF00003FF8000001FFFE0000007FFFFFF0001FFFFF
310
FFE000003E000003FFFFE000003E000003FFFF000000000003F00001FFF80001
310
F000E00007FFFC0001FFFFC00001FFFE00000FFFFF80007FC0000FFFFC0003FC
310
0000FFFFC0001FF8000001FFFE0000007FFFFFF0001FFFFFFFC00003FFE00001
310
FFFFC00003FFE00001FFFF0001FFFFFFFFF00007FFFE0001F000E0000FFFFF00
310
00FFFF800001FFFC00000FFFFF80007FC0001FFFFE0001FC0001FFFFE0001FF8
310
000001FFFE0000007FFFFFF0001FFFFFFF80000FFFF80000FFFF80000FFFF800
310
00FFFF0003FFFFFFFFE0000FFFFF8000F000C0003FFFFF8000FFFF800000FFFC
310
000007FFFF80007F80003FFFFF0001FC0003FFFFF0001FF8000001FFFE000000
310
7FFFFFF0001FFFFFFF80003FFFFE0000FFFF80003FFFFE0000FFFF0003FFFFFF
310
FFE0003FFFFF8000F000C0003FFFFF8000FFFF800000FFFC000007FFFF80007F
310
80007FFFFF8001F80007FFFFF8000FF8000001FFFE0000007FFFFFF0001FFFFF
310
FF00007FFFFF00007FFF00007FFFFF00007FFF0003FFFFFFFFE0003FFFFFC000
310
F000C0007FFFFFC000FFFF000000FFFC000007FFFF80007F8000FFFFFF8000F8
310
000FFFFFF8000FF8000001FFFE0000007FFFFFF0001FFFFFFF0000FFFFFF8000
310
7FFF0000FFFFFF80007FFF0003FFFFFFFFC0007FFFFFC00070008000FFFFFFC0
310
00FFFF000000FFF8000007FFFF80007F8000FFFFFF8000F8000FFFFFF8000FF8
310
000001FFFE0000007FFFFFF0001FFFFFFE0001FFFFFFC0003FFE0001FFFFFFC0
310
003FFF0003FFFFFFFFC0007FFFFFE00070008000FFFFFFC0007FFF0000007FF8
310
000003FFFF80007F0001FFFFFF8000F8000FFFFFF8000FF8000001FFFE000000
310
7FFFFFF0001FFFFFFE0001FFFFFFC0003FFE0001FFFFFFC0003FFF0003FFFFFF
310
FFC000FFFFFFE00070008000FFFFFFC0007FFF0000007FF8000003FFFF80007F
310
0001FFFFFF8000F8001FFFFFF8000FF8000001FFFE0000007FFFFFF0001FFFFF
310
FE0003FFFFFFE0003FFE0003FFFFFFE0003FFF0003FFFFFFFFC000FFFFFFE000
310
70008000FFFFFFC0007FFE0000007FF8000003FFFF80007F0001FFFFFF8000F0
310
001FFFFFF8000FF8000001FFFE0000007FFFFFF0001FFFFFFC0003FFFFFFE000
310
1FFC0003FFFFFFE0001FFF0003FFFFFFFFC000FFFFFFC00070008000FFFFFF80
310
007FFE0000007FF0000003FFFF80007F0001FFFFFF0000F0001FFFFFF8000FF8
310
000001FFFE0000007FFFFFF0001FFFFFFC0007FFFFFFF0001FFC0007FFFFFFF0
310
001FFF0003FFFFFFFFC000FFFFFFC00070008001FFFFFF0000FFFE0000003FF0
310
000001FFFF80007F0001FFFFFF0000F8001FFFFFF0000FF8000001FFFE000000
310
7FFFFFF0001FFFFFFC0007FFFFFFF0001FFC0007FFFFFFF0001FFF0003FFFFFF
310
FFC001FFFFFF80007000FFFFFFFFFE0000FFFE0008003FF0008001FFFF80007F
310
FFFFFFFFFC0000FFFFFFFFFFE0000FF8000001FFFE0000007FFFFFF0001FFFFF
310
F8000FFFFFFFF8000FF8000FFFFFFFF8000FFF0003FFFFFFFFFFFFFFFFFF0000
310
7000FFFFFFFFFC0000FFFC0008003FF0008001FFFF80007FFFFFFFFFF80001FF
310
FFFFFFFF80000FF8000001FFFE0000007FFFFFF0001FFFFFF8000FFFFFFFF800
310
0FF8000FFFFFFFF8000FFF0003FFFFFFFFFFFFFFFFFE0000F000FFFFFFFFE000
310
00FFFC000C003FE000C001FFFF80007FFFFFFFFFC00001FFFFFFFFFE00001FF8
310
000001FFFE0000007FFFFFF0001FFFFFF8000FFFFFFFF8000FF8000FFFFFFFF8
310
000FFF0003FFFFFFFFFFFFFFFFF00000F000FFFFFFFE000001FFFC000C001FE0
310
00C000FFFF80007FFFFFFFFE000001FFFFFFFFE000001FF80FFFFFFFFFFFFFC0
310
7FFFFFF0001FFFFFF8000FFFFFFFF8000FF8000FFFFFFFF8000FFF0003FFFFFF
310
FFFFFFFFFF800000F000FFFFFFC0000001FFFC001C001FE001C000FFFF80007F
310
FFFFFF80000003FFFFFFF80000001FF80FFFFFFFFFFFFFC07FFFFFF0001FFFFF
310
F8001FFFFFFFFC000FF8001FFFFFFFFC000FFF0003FFFFFFFFFFFFFFF0000001
310
F000FFFFF800000001FFF8001C001FE001C000FFFF80007FFFFFF800000003FF
310
FFFF800000003FF80FFFFFFFFFFFFFC07FFFFFF0001FFFFFF8001FFFFFFFFC00
310
0FF8001FFFFFFFFC000FFF0003FFFFFFFFFFFFFE00000001F000FFFFC0000000
310
03FFF8001E001FC001E000FFFF80007FFFFF8000000007FFFFFC000000003FF8
310
0FFFFFFFFFFFFFC07FFFFFF0001FFFFFF8001FFFFFFFFC000FF8001FFFFFFFFC
310
000FFF0003FFFFFFFFFFFFE000000003F000FFFE0000000007FFF8001E000FC0
310
01E0007FFF80007FFFFE0000000007FFFFE0000000007FF80FFFFFFFFFFFFFC0
310
7FFFFFF0001FFFFFF0001FFFFFFFFC0007F0001FFFFFFFFC0007FF0003FFFFFF
310
FFFFFF0000000003F000FFF80000000007FFF8001E000FC003E0007FFF80007F
310
FFF0000000000FFFFF8000000000FFF80FFFFFFFFFFFFFC07FFFFFF0001FFFFF
310
F0001FFFFFFFFC0007F0001FFFFFFFFC0007FF0003FFFFFFFFFFFC0000000007
310
F000FFE0000000000FFFF0003E000FC003E0007FFF80007FFFC0000000001FFF
310
FE0000000001FFF80FFFFFFFFFFFFFC07FFFFFF0001FFFFFF0001FFFFFFFFC00
310
07F0001FFFFFFFFC0007FF0003FFFFFFFFFFF0000000000FF000FFC000000000
310
1FFFF0003F000F8003F0003FFF80007FFF80000000003FFFF80000000003FFF8
310
0FFFFFFFFFFFFFC07FFFFFF0001FFFFFF0001FFFFFFFFC0007F0001FFFFFFFFC
310
0007FF0003FFFFFFFFFFE0000000001FF000FF00000000007FFFF0003F000780
310
03F0003FFF80007FFF00000000007FFFF00000000007FFF80FFFFFFFFFFFFFC0
310
7FFFFFF0001FFFFFF0001FFFFFFFFC0007F0001FFFFFFFFC0007FF0003FFFFFF
310
FFFF80000000007FF000FE0000000000FFFFE0003F00078007F0003FFF80007F
310
FE0000000001FFFFE0000000001FFFF80FFFFFFFFFFFFFC07FFFFFF0001FFFFF
310
F0001FFFFFFFFC0007F0001FFFFFFFFC0007FF0003FFFFFFFFFF0000000000FF
310
F000FC0000000003FFFFE0007F00078007F0003FFF80007FFC0000000007FFFF
310
C0000000007FFFF80FFFFFFFFFFFFFC07FFFFFF0001FFFFFF8001FFFFFFFFC00
310
0FF8001FFFFFFFFC000FFF0003FFFFFFFFFE0000000003FFF000FC000000000F
310
FFFFE0007F80070007F8001FFF80007FF8000000001FFFFF8000000001FFFFF8
310
0FFFFFFFFFFFFFC07FFFFFF0001FFFFFF8001FFFFFFFFC000FF8001FFFFFFFFC
310
000FFF0003FFFFFFFFFC000000000FFFF000F8000000007FFFFFE0007F800700
310
07F8001FFF80007FF000000000FFFFFF800000000FFFFFF80FFFFFFFFFFFFFC0
310
7FFFFFF0001FFFFFF8000FFFFFFFF8000FF8000FFFFFFFF8000FFF0003FFFFFF
310
FFFC000000007FFFF000F800000007FFFFFFC0007F8003000FF8001FFF80007F
310
F000000007FFFFFF000000007FFFFFF80FFFFFFFFFFFFFC07FFFFFF0001FFFFF
310
F8000FFFFFFFF8000FF8000FFFFFFFF8000FFF0003FFFFFFFFF80000000FFFFF
310
F000F0000000FFFFFFFFC000FF8003000FF8001FFF80007FE0000000FFFFFFFF
310
0000000FFFFFFFF8000001FFFE0000007FFFFFF0001FFFFFF8000FFFFFFFF800
310
0FF8000FFFFFFFF8000FFF0003FFFFFFFFF8000000FFFFFFF000F000000FFFFF
310
FFFFC000FFC002000FF8000FFF80007FE000001FFFFFFFFE000001FFFFFFFFF8
310
000001FFFE0000007FFFFFF0001FFFFFF8000FFFFFFFF8000FF8000FFFFFFFF8
310
000FFF0003FFFFFFFFF000001FFFFFFFF000E00000FFFFFFFFFFC000FFC00200
310
0FFC000FFF80007FE00001FFFFFFFFFE00001FFFFFFFFFF8000001FFFE000000
310
7FFFFFF0001FFFFFFC000FFFFFFFF8001FFC000FFFFFFFF8001FFF0003FFFFFF
310
FFF00001FFFFFFFFF000E00007FFFFFFFFFF8000FFC000001FFC000FFF80007F
310
C0000FFFFFFFFFFE0000FFFFFFFFFFF8000001FFFE0000007FFFFFF0001FFFFF
310
FC0007FFFFFFF0001FFC0007FFFFFFF0001FFF0003FFFFFFFFF00007FFFFFFFF
310
F000E0001FFFFFFFFFFF8000FFC000001FFC000FFF80007FC0003FFFFFFFFFFE
310
0001FFFFFFFFFFF8000001FFFE0000007FFFFFF0001FFFFFFC0007FFFFFFF000
310
1FFC0007FFFFFFF0001FFF0003FFFFFFFFF0001FFFFFFFFFF000E0003FFFFF00
310
03FF8001FFE000001FFC0007FF80007FC0007FFFFF0007FC0003FFFFF0003FF8
310
000001FFFE0000007FFFFFF0001FFFFFFC0003FFFFFFE0001FFC0003FFFFFFE0
310
001FFF0003FFFFFFFFF0003FFFFFFFFFF000E0003FFFFF0001FF8001FFE00000
310
1FFE0007FF80007FC0007FFFFE0003FC0007FFFFE0003FF8000001FFFE000000
310
7FFFFFF0001FFFFFFE0003FFFFFFE0003FFE0003FFFFFFE0003FFF0003FFFFFF
310
FFF0003FFFFF8001F000E0003FFFFF0001FF0001FFE000001FFE0007FF80007F
310
C0007FFFFE0003FC0007FFFFE0003FF8000001FFFE0000007FFFFFF0001FFFFF
310
FE0001FFFFFFC0003FFE0001FFFFFFC0003FFF0003FFFFFFFFF0003FFFFF0001
310
F000E0003FFFFF0003FF0001FFE000003FFE0007FF80007FC0007FFFFE0003FC
310
0007FFFFE0003FF8000001FFFE0000007FFFFFF0001FFFFFFF0001FFFFFFC000
310
7FFF0001FFFFFFC0007FFF0003FFFFFFFFF0003FFFFF0001F000E0003FFFFE00
310
03FF0003FFF000003FFE0003FF80007FC0007FFFFC0003FE0007FFFFE0003FF8
310
000001FFFE0000007FFFFFF0001FFFFFFF0000FFFFFF80007FFF0000FFFFFF80
310
007FFF0003FFFFFFFFF0003FFFFF0001F000E0003FFFFE0003FF0003FFF00000
310
3FFF0003FF80007FC0007FFFFC0007FE0007FFFFC0003FF8000001FFFE000000
310
7FFFFFF0001FFFFFFF80007FFFFF0000FFFF80007FFFFF0000FFFF0003FFFFFF
310
FFF0003FFFFF0003F000E0003FFFFC0003FE0003FFF000003FFF0003FF80007F
310
E0003FFFF80007FE0003FFFFC0007FF8000001FFFE0000007FFFFFF0001FFFFF
310
FF80003FFFFE0000FFFF80003FFFFE0000FFFF0003FFFFFFFFF0001FFFFE0003
310
F000F0001FFFF80003FE0003FFF000007FFF0001FF80007FE0003FFFF00007FE
310
0001FFFF80007FF8000001FFFE0000007FFFFFF0001FFFFFFFC0000FFFF80001
310
FFFFC0000FFFF80001FFFF0003FFFFFFFFF0001FFFFC0003F000F0000FFFF000
310
07FE0007FFF800007FFF0001FF80007FE0001FFFE00007FF0000FFFE00007FF8
310
000001FFFE0000007FFFFFF0001FFFFFFFC00003FFE00001FFFFC00003FFE000
310
01FFFF0003FFFFFFFFF8000FFFF80003F000F00003FFC00007FC0007FFF80000
310
7FFF8001FF80007FF00007FF80000FFF00007FF80000FFF8000001FFFE000000
310
7F80000000000001FFE000003E000003FFFFE000003E000003FFFF0003FFFFFF
310
FFF80003FFE00007F000F800000000000FFC0007FFF800007FFF8001FF80007F
310
F000000000000FFF000000000000FFF8000001FFFE0000007F80000000000001
310
FFF0000000000007FFFFF0000000000007FFFF0003FFFFFFFFFC00007E000007
310
F000F800000000000FFC0007FFF80000FFFF8000FF80007FF800000000001FFF
310
800000000001FFF8000001FFFE0000007F80000000000001FFF800000000000F
310
FFFFF800000000000FFFFF0003FFFFFFFFFC00000000000FF000FC0000000000
310
1FFC0007FFFC0000FFFF8000FF80007FF800000000003FFFC00000000001FFF8
310
000001FFFE0000007F80000000000001FFF800000000000FFFFFF80000000000
310
0FFFFF0003FFFFFFFFFE00000000001FF000FE00000000003FF8000FFFFC0000
310
FFFF8000FF80007FFC00000000003FFFC00000000003FFF8000001FFFE000000
310
7F80000000000001FFFC00000000001FFFFFFC00000000001FFFFF0003FFFFFF
310
FFFF00000000001FF000FF00000000003FF8000FFFFC0000FFFFC000FF80007F
310
FE00000000007FFFE00000000007FFF8000001FFFE0000007F80000000000001
310
FFFE00000000003FFFFFFE00000000003FFFFF0003FFFFFFFFFF80000000003F
310
F000FF80000000007FF8000FFFFC0001FFFFC0007F80007FFF0000000000FFFF
310
F0000000000FFFF800000000000000007F80000000000001FFFF8000000000FF
310
FFFFFF8000000000FFFFFF0003FFFFFFFFFFC0000000007FF000FFC000000000
310
FFF8000FFFFE0001FFFFC0007F80007FFF8000000001FFFFF8000000001FFFF8
310
00000000000000007F80000000000001FFFFC000000001FFFFFFFFC000000001
310
FFFFFF0003FFFFFFFFFFE000000000FFF000FFE000000003FFF0001FFFFE0001
310
FFFFC0007F80007FFFC000000007FFFFFE000000003FFFF80000000000000000
310
7F80000000000001FFFFE000000003FFFFFFFFE000000003FFFFFF0003FFFFFF
310
FFFFF000000003FFF000FFF80000000FFFF0001FFFFE0001FFFFE0007F80007F
310
FFF00000000FFFFFFF00000000FFFFF800000000000000007F80000000000001
310
FFFFF80000000FFFFFFFFFF80000000FFFFFFF0003FFFFFFFFFFFC0000000FFF
310
F000FFFE0000003FFFF0001FFFFE0003FFFFE0003F80007FFFFC0000003FFFFF
310
FFC0000003FFFFF800000000000000007F80000000000001FFFFFE0000003FFF
310
FFFFFFFE0000003FFFFFFF0003FFFFFFFFFFFF0000003FFFF000FFFF800000FF
310
FFF0001FFFFF0003FFFFE0003F80007FFFFF000001FFFFFFFFF800001FFFFFF8
310
00000000000000007F80000000000001FFFFFFC00001FFFFFFFFFFFFC00001FF
310
FFFFFF0003FFFFFFFFFFFFC00000FFFFF000FFFFF8000FFFFFFFFFFFFFFFFFFF
310
FFFFFFFFFFFFFFFFFFFFF0001FFFFFFFFFFF0000FFFFFFF80000000000000000
310
7FFFFFFFFFFFFFFFFFFFFFFC001FFFFFFFFFFFFFFC001FFFFFFFFFFFFFFFFFFF
310
FFFFFFFC001FFFFFF000FFFFFFFFFFFFFFFFFFFFFFFFFFFFFFFFFFFFFFFFFFFF
310
FFFFFFFFFFFFFFFFFFFFFFFFFFFFFFFFFFFFFFFFFFFFFFFFFFFFFFFFFFFFFFFF
310
FFFFFFFFFFFFFFFFFFFFFFFFFFFFFFFFFFFFFFFFFFFFFFFFFFFFFFFFFFFFFFFF
310
F000FFFFFFFFFFFFFFFFFFFFFFFFFFFFFFFFFFFFFFFFFFFFFFFFFFFFFFFFFFFF
310
FFFFFFFFFFFFFFFFFFFFFFFFFFFFFFFFFFFFFFFFFFFFFFFFFFFFFFFFFFFFFFFF
310
FFFFFFFFFFFFFFFFFFFFFFFFFFFFFFFFFFFFFFFFFFFFFFFFF000FFFFFFFFFFFF
310
FFFFFFFFFFFFFFFFFFFFFFFFFFFFFFFFFFFFFFFFFFFFFFFFFFFFFFFFFFFFFFFF
310
FFFFFFFFFFFFFFFFFFFFFFFFFFFFFFFFFFFFFFFFFFFFFFFFFFFFFFFFFFFFFFFF
310
FFFFFFFFFFFFFFFFFFFFFFFFFFFFFFFFF000FFFFFFFFFFFFFFFFFFFFFFFFFFFF
310
FFFFFFFFFFFFFFFFFFFFFFFFFFFFFFFFFFFFFFFFFFFFFFFFFFFFFFFFFFFFFFFF
310
FFFFFFFFFFFFFFFFFFFFFFFFFFFFFFFFFFFFFFFFFFFFFFFFFFFFFFFFFFFFFFFF
310
FFFFFFFFFFFFFFFFF000FFFFFFFFFFFFFFFFFFFFFFFFFFFFFFFFFFFFFFFFFFFF
310
FFFFFFFFFFFFFFFFFFFFFFFFFFFFFFFFFFFFFFFFFFFFFFFFFFFFFFFFFFFFFFFF
310
FFFFFFFFFFFFFFFFFFFFFFFFFFFFFFFFFFFFFFFFFFFFFFFFFFFFFFFFFFFFFFFF
310
F000FFFFFFFFFFFFFFFFFFFFFFFFFFFFFFFFFFFFFFFFFFFFFFFFFFFFFFFFFFFF
310
FFFFFFFFFFFFFFFFFFFFFFFFFFFFFFFFFFFFFFFFFFFFFFFFFFFFFFFFFFFFFFFF
310
FFFFFFFFFFFFFFFFFFFFFFFFFFFFFFFFFFFFFFFFFFFFFFFFF000FFFFFFFFFFFF
310
FFFFFFFFFFFFFFFFFFFFFFFFFFFFFFFFFFFFFFFFFFFFFFFFFFFFFFFFFFFFFFFF
310
FFFFFFFFFFFFFFFFFFFFFFFFFFFFFFFFFFFFFFFFFFFFFFFFFFFFFFFFFFFFFFFF
310
FFFFFFFFFFFFFFFFFFFFFFFFFFFFFFFFF000FFFFFFFFFFFFFFFFFFFFFFFFFFFF
310
FFFFFFFFFFFFFFFFFFFFFFFFFFFFFFFFFFFFFFFFFFFFFFFFFFFFFFFFFFFFFFFF
310
FFFFFFFFFFFFFFFFFFFFFFFFFFFFFFFFFFFFFFFFFFFFFFFFFFFFFFFFFFFFFFFF
310
FFFFFFFFFFFFFFFFF000FFFFFFFFFFFFFFFFFFFFFFFFFFFFFFFFFFFFFFFFFFFF
310
FFFFFFFFFFFFFFFFFFFFFFFFFFFFFFFFFFFFFFFFFFFFFFFFFFFFFFFFFFFFFFFF
310
FFFFFFFFFFFFFFFFFFFFFFFFFFFFFFFFFFFFFFFFFFFFFFFFFFFFFFFFFFFFFFFF
310
F000FFFFFFFFFFFFFFFFFFFFFFFFFFFFFFFFFFFFFFFFFFFFFFFFFFFFFFFFFFFF
310
FFFFFFFFFFFFFFFFFFFFFFFFFFFFFFFFFFFFFFFFFFFFFFFFFFFFFFFFFFFFFFFF
310
FFFFFFFFFFFFFFFFFFFFFFFFFFFFFFFFFFFFFFFFFFFFFFFFF000FFFFFFFFFFFF
310
FFFFFFFFFFFFFFFFFFFFFFFFFFFFFFFFFFFFFFFFFFFFFFFFFFFFFFFFFFFFFFFF
310
FFFFFFFFFFFFFFFFFFFFFFFFFFFFFFFFFFFFFFFFFFFFFFFFFFFFFFFFFFFFFFFF
310
FFFFFFFFFFFFFFFFFFFFFFFFFFFFFFFFF000FFFFFFFFFFFFFFFFFFFFFFFFFFFF
310
FFFFFFFFFFFFFFFFFFFFFFFFFFFFFFFFFFFFFFFFFFFFFFFFFFFFFFFFFFFFFFFF
310
FFFFFFFFFFFFFFFFFFFFFFFFFFFFFFFFFFFFFFFFFFFFFFFFFFFFFFFFFFFFFFFF
310
FFFFFFFFFFFFFFFFF000FFFFFFFFFFFFFFFFFFFFFFFFFFFFFFFFFFFFFFFFFFFF
310
FFFFFFFFFFFFFFFFFFFFFFFFFFFFFFFFFFFFFFFFFFFFFFFFFFFFFFFFFFFFFFFF
310
FFFFFFFFFFFFFFFFFFFFFFFFFFFFFFFFFFFFFFFFFFFFFFFFFFFFFFFFFFFFFFFF
310
F000FFFFFFFFFFFFFFFFFFFFFFFFFFFFFFFFFFFFFFFFFFFFFFFFFFFFFFFFFFFF
310
FFFFFFFFFFFFFFFFFFFFFFFFFFFFFFFFFFFFFFFFFFFFFFFFFFFFFFFFFFFFFFFF
310
FFFFFFFFFFFFFFFFFFFFFFFFFFFFFFFFFFFFFFFFFFFFFFFFF000FFFFFFFFFFFF
310
FFFFFFFFFFFFFFFFFFFFFFFFFFFFFFFFFFFFFFFFFFFFFFFFFFFFFFFFFFFFFFFF
310
FFFFFFFFFFFFFFFFFFFFFFFFFFFFFFFFFFFFFFFFFFFFFFFFFFFFFFFFFFFFFFFF
310
FFFFFFFFFFFFFFFFFFFFFFFFFFFFFFFFF000FFFFFFFFFFFFFFFFFFFFFFFFFFFF
310
FFFFFFFFFFFFFFFFFFFFFFFFFFFFFFFFFFFFFFFFFFFFFFFFFFFFFFFFFFFFFFFF
310
FFFFFFFFFFFFFFFFFFFFFFFFFFFFFFFFFFFFFFFFFFFFFFFFFFFFFFFFFFFFFFFF
310
FFFFFFFFFFFFFFFFF000FFFFFFFFFFFFFFFFFFFFFFFFFFFFFFFFFFFFFFFFFFFF
310
FFFFFFFFFFFFFFFFFFFFFFFFFFFFFFFFFFFFFFFFFFFFFFFFFFFFFFFFFFFFFFFF
310
FFFFFFFFFFFFFFFFFFFFFFFFFFFFFFFFFFFFFFFFFFFFFFFFFFFFFFFFFFFFFFFF
310
F000FFFFFFFFFFFFFFFFFFFFFFFFFFFFFFFFFFFFFFFFFFFFFFFFFFFFFFFFFFFF
310
FFFFFFFFFFFFFFFFFFFFFFFFFFFFFFFFFFFFFFFFFFFFFFFFFFFFFFFFFFFFFFFF
310
FFFFFFFFFFFFFFFFFFFFFFFFFFFFFFFFFFFFFFFFFFFFFFFFF000FFFFFFFFFFFF
310
FFFFFFFFFFFFFFFFFFFFFFFFFFFFFFFFFFFFFFFFFFFFFFFFFFFFFFFFFFFFFFFF
310
FFFFFFFFFFFFFFFFFFFFFFFFFFFFFFFFFFFFFFFFFFFFFFFFFFFFFFFFFFFFFFFF
310
FFFFFFFFFFFFFFFFFFFFFFFFFFFFFFFFF000FFFFFFFFFFFFFFFFFFFFFFFFFFFF
310
FFFFFFFFFFFFFFFFFFFFFFFFFFFFFFFFFFFFFFFFFFFFFFFFFFFFFFFFFFFFFFFF
310
FFFFFFFFFFFFFFFFFFFFFFFFFFFFFFFFFFFFFFFFFFFFFFFFFFFFFFFFFFFFFFFF
310
FFFFFFFFFFFFFFFFF000FFFFFFFFFFFFFFFFFFFFFFFFFFFFFFFFFFFFFFFFFFFF
310
FFFFFFFFFFFFFFFFFFFFFFFFFFFFFFFFFFFFFFFFFFFFFFFFFFFFFFFFFFFFFFFF
310
FFFFFFFFFFFFFFFFFFFFFFFFFFFFFFFFFFFFFFFFFFFFFFFFFFFFFFFFFFFFFFFF
310
F000FFFFFFFFFFFFFFFFFFFFFFFFFFFFFFFFFFFFFFFFFFFFFFFFFFFFFFFFFFFF
310
FFFFFFFFFFFFFFFFFFFFFFFFFFFFFFFFFFFFFFFFFFFFFFFFFFFFFFFFFFFFFFFF
310
FFFFFFFFFFFFFFFFFFFFFFFFFFFFFFFFFFFFFFFFFFFFFFFFF000FFFFFFFFFFFF
310
FFFFFFFFFFFFFFFFFFFFFFFFFFFFFFFFFFFFFFFFFFFFFFFFFFFFFFFFFFFFFFFF
310
FFFFFFFFFFFFFFFFFFFFFFFFFFFFFFFFFFFFFFFFFFFFFFFFFFFFFFFFFFFFFFFF
310
FFFFFFFFFFFFFFFFFFFFFFFFFFFFFFFFF0000000000000000000000000000000
310
0000000000000000000000000000000000000000000000000000000000000000
310
0000000000000000000000000000000000000000000000000000000000000000
310
0000000000000000000000000000000000000000000000000000000000000000
310
0000000000000000000000000000000000000000000000000000000000000000
310
0000000000000000000000000000000000000000000000000000000000000000
310
0000000000000000000000000000000000000000000000000000000000000000
310
0000000000000000000000000000000000000000000000000000000000000000
310
0000000000000000000000000000000000000000000000000000000000000000
310
0000000000000000000000000000000000000000000000000000000000000000
310
0000000000000000000000000000000000000000000000000000000000000000
310
0000000000000000000000000000000000000000000000000000000000000000
310
0000000000000000000000000000000000000000000000000000000000000000
310
0000000000000000000000000000000000000000000000000000000000000000
310
0000000000000000000000000000000000000000000000000000000000000000
310
0000000000000000000000000000000000000000000000000000000000000000
  1
OLE
  0
ENDSEC
  0
SECTION
  2
OBJECTS
  0
DICTIONARY
  5
C
330
0
100
AcDbDictionary
281
     1
  3
ACAD_GROUP
350
D
  3
ACAD_LAYOUT
350
1A
  3
ACAD_MLINESTYLE
350
17
  3
ACAD_PLOTSETTINGS
350
19
  3
ACAD_PLOTSTYLENAME
350
E
  3
ACAD_SCALELIST
350
47
  0
DICTIONARY
  5
D
102
{ACAD_REACTORS
330
C
102
}
330
C
100
AcDbDictionary
281
     1
  0
DICTIONARY
  5
1A
102
{ACAD_REACTORS
330
C
102
}
330
C
100
AcDbDictionary
281
     1
  3
Layout1
350
1E
  3
Layout2
350
26
  3
Model
350
22
  0
DICTIONARY
  5
17
102
{ACAD_REACTORS
330
C
102
}
330
C
100
AcDbDictionary
281
     1
  3
Standard
350
18
  0
DICTIONARY
  5
19
102
{ACAD_REACTORS
330
C
102
}
330
C
100
AcDbDictionary
281
     1
  0
ACDBDICTIONARYWDFLT
  5
E
102
{ACAD_REACTORS
330
C
102
}
330
C
100
AcDbDictionary
281
     1
  3
Normal
350
F
100
AcDbDictionaryWithDefault
340
F
  0
DICTIONARY
  5
47
102
{ACAD_REACTORS
330
C
102
}
330
C
100
AcDbDictionary
281
     1
  3
A0
350
48
  3
A1
350
49
  3
A2
350
4A
  3
A3
350
4B
  3
A4
350
4C
  3
A5
350
4D
  3
A6
350
4E
  3
A7
350
4F
  3
A8
350
50
  3
A9
350
51
  3
B0
350
52
  3
B1
350
53
  3
B2
350
54
  3
B3
350
55
  3
B4
350
56
  3
B5
350
57
  3
B6
350
58
  3
B7
350
59
  3
B8
350
5A
  3
B9
350
5B
  3
C0
350
5C
  3
C1
350
5D
  3
C2
350
5E
  3
C3
350
5F
  3
C4
350
60
  3
C5
350
61
  3
C6
350
62
  3
C7
350
63
  3
C8
350
64
  3
C9
350
65
  3
D0
350
66
  3
D1
350
67
  3
D2
350
68
  0
LAYOUT
  5
1E
102
{ACAD_REACTORS
330
1A
102
}
330
1A
100
AcDbPlotSettings
  1

  2
none_device
  4

  6

 40
0.0
 41
0.0
 42
0.0
 43
0.0
 44
0.0
 45
0.0
 46
0.0
 47
0.0
 48
0.0
 49
0.0
140
0.0
141
0.0
142
1.0
143
1.0
 70
   688
 72
     1
 73
     0
 74
     5
  7

 75
    16
147
1.0
148
0.0
149
0.0
100
AcDbLayout
  1
Layout1
 70
     1
 71
     1
 10
0.0
 20
0.0
 11
420.0
 21
297.0
 12
0.0
 22
0.0
 32
0.0
 14
1.0000000000E+20
 24
1.0000000000E+20
 34
1.0000000000E+20
 15
-1.0000000000E+20
 25
-1.0000000000E+20
 35
-1.0000000000E+20
146
0.0
 13
0.0
 23
0.0
 33
0.0
 16
1.0
 26
0.0
 36
0.0
 17
0.0
 27
1.0
 37
0.0
 76
     0
330
1B
  0
LAYOUT
  5
26
102
{ACAD_REACTORS
330
1A
102
}
330
1A
100
AcDbPlotSettings
  1

  2
none_device
  4

  6

 40
0.0
 41
0.0
 42
0.0
 43
0.0
 44
0.0
 45
0.0
 46
0.0
 47
0.0
 48
0.0
 49
0.0
140
0.0
141
0.0
142
1.0
143
1.0
 70
   688
 72
     1
 73
     0
 74
     5
  7

 75
    16
147
1.0
148
0.0
149
0.0
100
AcDbLayout
  1
Layout2
 70
     1
 71
     2
 10
0.0
 20
0.0
 11
0.0
 21
0.0
 12
0.0
 22
0.0
 32
0.0
 14
0.0
 24
0.0
 34
0.0
 15
0.0
 25
0.0
 35
0.0
146
0.0
 13
0.0
 23
0.0
 33
0.0
 16
1.0
 26
0.0
 36
0.0
 17
0.0
 27
1.0
 37
0.0
 76
     0
330
23
  0
LAYOUT
  5
22
102
{ACAD_REACTORS
330
1A
102
}
330
1A
100
AcDbPlotSettings
  1

  2
none_device
  4
Letter_(8.50_x_11.00_Inches)
  6

 40
6.35
 41
6.35
 42
6.35000508
 43
6.35000508
 44
215.9
 45
279.4
 46
0.0
 47
0.0
 48
0.0
 49
0.0
140
0.0
141
0.0
142
1.0
143
1.0
 70
  1712
 72
     1
 73
     0
 74
     0
  7

 75
     0
147
1.0
148
0.0
149
0.0
100
AcDbLayout
  1
Model
 70
     1
 71
     0
 10
0.0
 20
0.0
 11
297.0
 21
210.0
 12
0.0
 22
0.0
 32
0.0
 14
0.0
 24
0.0
 34
0.0
 15
297.0
 25
210.0
 35
0.0
146
0.0
 13
0.0
 23
0.0
 33
0.0
 16
1.0
 26
0.0
 36
0.0
 17
0.0
 27
1.0
 37
0.0
 76
     0
330
1F
331
29
  0
MLINESTYLE
  5
18
102
{ACAD_REACTORS
330
17
102
}
330
17
100
AcDbMlineStyle
  2
Standard
 70
     0
  3

 62
   256
 51
90.0
 52
90.0
 71
     2
 49
0.5
 62
   256
  6
BYLAYER
 49
-0.5
 62
   256
  6
BYLAYER
  0
ACDBPLACEHOLDER
  5
F
102
{ACAD_REACTORS
330
E
102
}
330
E
  0
SCALE
  5
48
102
{ACAD_REACTORS
330
47
102
}
330
47
100
AcDbScale
 70
     0
300
1:1
140
1.0
141
1.0
290
     1
  0
SCALE
  5
49
102
{ACAD_REACTORS
330
47
102
}
330
47
100
AcDbScale
 70
     0
300
1:2
140
1.0
141
2.0
290
     0
  0
SCALE
  5
4A
102
{ACAD_REACTORS
330
47
102
}
330
47
100
AcDbScale
 70
     0
300
1:4
140
1.0
141
4.0
290
     0
  0
SCALE
  5
4B
102
{ACAD_REACTORS
330
47
102
}
330
47
100
AcDbScale
 70
     0
300
1:5
140
1.0
141
5.0
290
     0
  0
SCALE
  5
4C
102
{ACAD_REACTORS
330
47
102
}
330
47
100
AcDbScale
 70
     0
300
1:8
140
1.0
141
8.0
290
     0
  0
SCALE
  5
4D
102
{ACAD_REACTORS
330
47
102
}
330
47
100
AcDbScale
 70
     0
300
1:10
140
1.0
141
10.0
290
     0
  0
SCALE
  5
4E
102
{ACAD_REACTORS
330
47
102
}
330
47
100
AcDbScale
 70
     0
300
1:16
140
1.0
141
16.0
290
     0
  0
SCALE
  5
4F
102
{ACAD_REACTORS
330
47
102
}
330
47
100
AcDbScale
 70
     0
300
1:20
140
1.0
141
20.0
290
     0
  0
SCALE
  5
50
102
{ACAD_REACTORS
330
47
102
}
330
47
100
AcDbScale
 70
     0
300
1:30
140
1.0
141
30.0
290
     0
  0
SCALE
  5
51
102
{ACAD_REACTORS
330
47
102
}
330
47
100
AcDbScale
 70
     0
300
1:40
140
1.0
141
40.0
290
     0
  0
SCALE
  5
52
102
{ACAD_REACTORS
330
47
102
}
330
47
100
AcDbScale
 70
     0
300
1:50
140
1.0
141
50.0
290
     0
  0
SCALE
  5
53
102
{ACAD_REACTORS
330
47
102
}
330
47
100
AcDbScale
 70
     0
300
1:100
140
1.0
141
100.0
290
     0
  0
SCALE
  5
54
102
{ACAD_REACTORS
330
47
102
}
330
47
100
AcDbScale
 70
     0
300
2:1
140
2.0
141
1.0
290
     0
  0
SCALE
  5
55
102
{ACAD_REACTORS
330
47
102
}
330
47
100
AcDbScale
 70
     0
300
4:1
140
4.0
141
1.0
290
     0
  0
SCALE
  5
56
102
{ACAD_REACTORS
330
47
102
}
330
47
100
AcDbScale
 70
     0
300
8:1
140
8.0
141
1.0
290
     0
  0
SCALE
  5
57
102
{ACAD_REACTORS
330
47
102
}
330
47
100
AcDbScale
 70
     0
300
10:1
140
10.0
141
1.0
290
     0
  0
SCALE
  5
58
102
{ACAD_REACTORS
330
47
102
}
330
47
100
AcDbScale
 70
     0
300
100:1
140
100.0
141
1.0
290
     0
  0
SCALE
  5
59
102
{ACAD_REACTORS
330
47
102
}
330
47
100
AcDbScale
 70
     0
300
1/128" = 1'-0"
140
0.0078125
141
12.0
290
     0
  0
SCALE
  5
5A
102
{ACAD_REACTORS
330
47
102
}
330
47
100
AcDbScale
 70
     0
300
1/64" = 1'-0"
140
0.015625
141
12.0
290
     0
  0
SCALE
  5
5B
102
{ACAD_REACTORS
330
47
102
}
330
47
100
AcDbScale
 70
     0
300
1/32" = 1'-0"
140
0.03125
141
12.0
290
     0
  0
SCALE
  5
5C
102
{ACAD_REACTORS
330
47
102
}
330
47
100
AcDbScale
 70
     0
300
1/16" = 1'-0"
140
0.0625
141
12.0
290
     0
  0
SCALE
  5
5D
102
{ACAD_REACTORS
330
47
102
}
330
47
100
AcDbScale
 70
     0
300
3/32" = 1'-0"
140
0.09375
141
12.0
290
     0
  0
SCALE
  5
5E
102
{ACAD_REACTORS
330
47
102
}
330
47
100
AcDbScale
 70
     0
300
1/8" = 1'-0"
140
0.125
141
12.0
290
     0
  0
SCALE
  5
5F
102
{ACAD_REACTORS
330
47
102
}
330
47
100
AcDbScale
 70
     0
300
3/16" = 1'-0"
140
0.1875
141
12.0
290
     0
  0
SCALE
  5
60
102
{ACAD_REACTORS
330
47
102
}
330
47
100
AcDbScale
 70
     0
300
1/4" = 1'-0"
140
0.25
141
12.0
290
     0
  0
SCALE
  5
61
102
{ACAD_REACTORS
330
47
102
}
330
47
100
AcDbScale
 70
     0
300
3/8" = 1'-0"
140
0.375
141
12.0
290
     0
  0
SCALE
  5
62
102
{ACAD_REACTORS
330
47
102
}
330
47
100
AcDbScale
 70
     0
300
1/2" = 1'-0"
140
0.5
141
12.0
290
     0
  0
SCALE
  5
63
102
{ACAD_REACTORS
330
47
102
}
330
47
100
AcDbScale
 70
     0
300
3/4" = 1'-0"
140
0.75
141
12.0
290
     0
  0
SCALE
  5
64
102
{ACAD_REACTORS
330
47
102
}
330
47
100
AcDbScale
 70
     0
300
1" = 1'-0"
140
1.0
141
12.0
290
     0
  0
SCALE
  5
65
102
{ACAD_REACTORS
330
47
102
}
330
47
100
AcDbScale
 70
     0
300
1-1/2" = 1'-0"
140
1.5
141
12.0
290
     0
  0
SCALE
  5
66
102
{ACAD_REACTORS
330
47
102
}
330
47
100
AcDbScale
 70
     0
300
3" = 1'-0"
140
3.0
141
12.0
290
     0
  0
SCALE
  5
67
102
{ACAD_REACTORS
330
47
102
}
330
47
100
AcDbScale
 70
     0
300
6" = 1'-0"
140
6.0
141
12.0
290
     0
  0
SCALE
  5
68
102
{ACAD_REACTORS
330
47
102
}
330
47
100
AcDbScale
 70
     0
300
1'-0" = 1'-0"
140
12.0
141
12.0
290
     0
  0
ENDSEC
  0
EOF
