  0
SECTION
  2
HEADER
  9
$ACADVER
  1
AC1015
  9
$ACADMAINTVER
 70
     6
  9
$DWGCODEPAGE
  3
ANSI_1252
  9
$INSBASE
 10
0.0
 20
0.0
 30
0.0
  9
$EXTMIN
 10
0.0
 20
0.0
 30
0.0
  9
$EXTMAX
 10
297.0
 20
210.0
 30
0.0
  9
$LIMMIN
 10
0.0
 20
0.0
  9
$LIMMAX
 10
297.0
 20
210.0
  9
$ORTHOMODE
 70
     0
  9
$REGENMODE
 70
     1
  9
$FILLMODE
 70
     1
  9
$QTEXTMODE
 70
     0
  9
$MIRRTEXT
 70
     1
  9
$LTSCALE
 40
1.0
  9
$ATTMODE
 70
     1
  9
$TEXTSIZE
 40
2.0
  9
$TRACEWID
 40
1.0
  9
$TEXTSTYLE
  7
Standard
  9
$CLAYER
  8
0
  9
$CELTYPE
  6
ByLayer
  9
$CECOLOR
 62
   256
  9
$CELTSCALE
 40
1.0
  9
$DISPSILH
 70
     0
  9
$DIMSCALE
 40
1.0
  9
$DIMASZ
 40
3.0
  9
$DIMEXO
 40
0.0
  9
$DIMDLI
 40
3.75
  9
$DIMRND
 40
0.0
  9
$DIMDLE
 40
0.0
  9
$DIMEXE
 40
1.0
  9
$DIMTP
 40
0.0
  9
$DIMTM
 40
0.0
  9
$DIMTXT
 40
2.0
  9
$DIMCEN
 40
2.5
  9
$DIMTSZ
 40
0.0
  9
$DIMTOL
 70
     0
  9
$DIMLIM
 70
     0
  9
$DIMTIH
 70
     1
  9
$DIMTOH
 70
     1
  9
$DIMSE1
 70
     0
  9
$DIMSE2
 70
     0
  9
$DIMTAD
 70
     1
  9
$DIMZIN
 70
     0
  9
$DIMBLK
  1

  9
$DIMASO
 70
     1
  9
$DIMSHO
 70
     1
  9
$DIMPOST
  1

  9
$DIMAPOST
  1

  9
$DIMALT
 70
     0
  9
$DIMALTD
 70
     3
  9
$DIMALTF
 40
0.0393700787
  9
$DIMLFAC
 40
2.0
  9
$DIMTOFL
 70
     1
  9
$DIMTVP
 40
0.0
  9
$DIMTIX
 70
     0
  9
$DIMSOXD
 70
     0
  9
$DIMSAH
 70
     0
  9
$DIMBLK1
  1

  9
$DIMBLK2
  1

  9
$DIMSTYLE
  2
ISO-25
  9
$DIMCLRD
 70
     0
  9
$DIMCLRE
 70
     0
  9
$DIMCLRT
 70
     0
  9
$DIMTFAC
 40
1.0
  9
$DIMGAP
 40
1.524
  9
$DIMJUST
 70
     0
  9
$DIMSD1
 70
     0
  9
$DIMSD2
 70
     0
  9
$DIMTOLJ
 70
     0
  9
$DIMTZIN
 70
     0
  9
$DIMALTZ
 70
     0
  9
$DIMALTTZ
 70
     0
  9
$DIMUPT
 70
     0
  9
$DIMDEC
 70
     2
  9
$DIMTDEC
 70
     3
  9
$DIMALTU
 70
     2
  9
$DIMALTTD
 70
     3
  9
$DIMTXSTY
  7
Standard
  9
$DIMAUNIT
 70
     0
  9
$DIMADEC
 70
     2
  9
$DIMALTRND
 40
0.0
  9
$DIMAZIN
 70
     0
  9
$DIMDSEP
 70
    44
  9
$DIMATFIT
 70
     3
  9
$DIMFRAC
 70
     0
  9
$DIMLDRBLK
  1

  9
$DIMLUNIT
 70
     2
  9
$DIMLWD
 70
    -2
  9
$DIMLWE
 70
    -2
  9
$DIMTMOVE
 70
     0
  9
$LUNITS
 70
     2
  9
$LUPREC
 70
     2
  9
$SKETCHINC
 40
1.0
  9
$FILLETRAD
 40
10.0
  9
$AUNITS
 70
     0
  9
$AUPREC
 70
     2
  9
$MENU
  1
.
  9
$ELEVATION
 40
0.0
  9
$PELEVATION
 40
0.0
  9
$THICKNESS
 40
0.0
  9
$LIMCHECK
 70
     0
  9
$CHAMFERA
 40
0.0
  9
$CHAMFERB
 40
0.0
  9
$CHAMFERC
 40
0.0
  9
$CHAMFERD
 40
0.0
  9
$SKPOLY
 70
     0
  9
$TDCREATE
 40
2457676.382223634
  9
$TDUCREATE
 40
2457676.298890301
  9
$TDUPDATE
 40
2457676.382225104
  9
$TDUUPDATE
 40
2457676.298891771
  9
$TDINDWG
 40
0.0000000116
  9
$TDUSRTIMER
 40
0.0000000116
  9
$USRTIMER
 70
     1
  9
$ANGBASE
 50
0.0
  9
$ANGDIR
 70
     0
  9
$PDMODE
 70
     0
  9
$PDSIZE
 40
-1.0
  9
$PLINEWID
 40
0.0
  9
$SPLFRAME
 70
     0
  9
$SPLINETYPE
 70
     6
  9
$SPLINESEGS
 70
     8
  9
$HANDSEED
  5
276
  9
$SURFTAB1
 70
     6
  9
$SURFTAB2
 70
     6
  9
$SURFTYPE
 70
     6
  9
$SURFU
 70
     6
  9
$SURFV
 70
     6
  9
$UCSBASE
  2

  9
$UCSNAME
  2

  9
$UCSORG
 10
0.0
 20
0.0
 30
0.0
  9
$UCSXDIR
 10
1.0
 20
0.0
 30
0.0
  9
$UCSYDIR
 10
0.0
 20
1.0
 30
0.0
  9
$UCSORTHOREF
  2

  9
$UCSORTHOVIEW
 70
     0
  9
$UCSORGTOP
 10
0.0
 20
0.0
 30
0.0
  9
$UCSORGBOTTOM
 10
0.0
 20
0.0
 30
0.0
  9
$UCSORGLEFT
 10
0.0
 20
0.0
 30
0.0
  9
$UCSORGRIGHT
 10
0.0
 20
0.0
 30
0.0
  9
$UCSORGFRONT
 10
0.0
 20
0.0
 30
0.0
  9
$UCSORGBACK
 10
0.0
 20
0.0
 30
0.0
  9
$PUCSBASE
  2

  9
$PUCSNAME
  2

  9
$PUCSORG
 10
0.0
 20
0.0
 30
0.0
  9
$PUCSXDIR
 10
1.0
 20
0.0
 30
0.0
  9
$PUCSYDIR
 10
0.0
 20
1.0
 30
0.0
  9
$PUCSORTHOREF
  2

  9
$PUCSORTHOVIEW
 70
     0
  9
$PUCSORGTOP
 10
0.0
 20
0.0
 30
0.0
  9
$PUCSORGBOTTOM
 10
0.0
 20
0.0
 30
0.0
  9
$PUCSORGLEFT
 10
0.0
 20
0.0
 30
0.0
  9
$PUCSORGRIGHT
 10
0.0
 20
0.0
 30
0.0
  9
$PUCSORGFRONT
 10
0.0
 20
0.0
 30
0.0
  9
$PUCSORGBACK
 10
0.0
 20
0.0
 30
0.0
  9
$USERI1
 70
     0
  9
$USERI2
 70
     0
  9
$USERI3
 70
     0
  9
$USERI4
 70
     0
  9
$USERI5
 70
     0
  9
$USERR1
 40
0.0
  9
$USERR2
 40
0.0
  9
$USERR3
 40
0.0
  9
$USERR4
 40
0.0
  9
$USERR5
 40
0.0
  9
$WORLDVIEW
 70
     1
  9
$SHADEDGE
 70
     3
  9
$SHADEDIF
 70
    70
  9
$TILEMODE
 70
     1
  9
$MAXACTVP
 70
    64
  9
$PINSBASE
 10
0.0
 20
0.0
 30
0.0
  9
$PLIMCHECK
 70
     0
  9
$PEXTMIN
 10
1.0000000000E+20
 20
1.0000000000E+20
 30
1.0000000000E+20
  9
$PEXTMAX
 10
-1.0000000000E+20
 20
-1.0000000000E+20
 30
-1.0000000000E+20
  9
$PLIMMIN
 10
0.0
 20
0.0
  9
$PLIMMAX
 10
420.0
 20
297.0
  9
$UNITMODE
 70
     0
  9
$VISRETAIN
 70
     1
  9
$PLINEGEN
 70
     0
  9
$PSLTSCALE
 70
     1
  9
$TREEDEPTH
 70
  3020
  9
$CMLSTYLE
  2
Standard
  9
$CMLJUST
 70
     0
  9
$CMLSCALE
 40
20.0
  9
$PROXYGRAPHICS
 70
     1
  9
$MEASUREMENT
 70
     1
  9
$CELWEIGHT
370
    -1
  9
$ENDCAPS
280
     0
  9
$JOINSTYLE
280
     0
  9
$LWDISPLAY
290
     1
  9
$INSUNITS
 70
     4
  9
$HYPERLINKBASE
  1

  9
$STYLESHEET
  1

  9
$XEDIT
290
     1
  9
$CEPSNTYPE
380
     0
  9
$PSTYLEMODE
290
     1
  9
$FINGERPRINTGUID
  2
{C07AC0A8-4C3B-49B4-95D5-F3EF885C2246}
  9
$VERSIONGUID
  2
{FAEB1C32-E019-11D5-929B-00C0DF256EC4}
  9
$EXTNAMES
290
     1
  9
$PSVPSCALE
 40
0.0
  9
$OLESTARTUP
290
     0
  0
ENDSEC
  0
SECTION
  2
CLASSES
  0
CLASS
  1
ACDBDICTIONARYWDFLT
  2
AcDbDictionaryWithDefault
  3
ObjectDBX Classes
 90
        0
280
     0
281
     0
  0
CLASS
  1
VISUALSTYLE
  2
AcDbVisualStyle
  3
ObjectDBX Classes
 90
     4095
280
     0
281
     0
  0
CLASS
  1
MATERIAL
  2
AcDbMaterial
  3
ObjectDBX Classes
 90
     1153
280
     0
281
     0
  0
CLASS
  1
SCALE
  2
AcDbScale
  3
ObjectDBX Classes
 90
     1153
280
     0
281
     0
  0
CLASS
  1
TABLESTYLE
  2
AcDbTableStyle
  3
ObjectDBX Classes
 90
     4095
280
     0
281
     0
  0
CLASS
  1
MLEADERSTYLE
  2
AcDbMLeaderStyle
  3
ACDB_MLEADERSTYLE_CLASS
 90
     4095
280
     0
281
     0
  0
CLASS
  1
SUN
  2
AcDbSun
  3
SCENEOE
 90
     1153
280
     0
281
     0
  0
CLASS
  1
ACDBPLACEHOLDER
  2
AcDbPlaceHolder
  3
ObjectDBX Classes
 90
        0
280
     0
281
     0
  0
CLASS
  1
LAYOUT
  2
AcDbLayout
  3
ObjectDBX Classes
 90
        0
280
     0
281
     0
  0
ENDSEC
  0
SECTION
  2
TABLES
  0
TABLE
  2
VPORT
  5
8
330
0
100
AcDbSymbolTable
 70
     1
  0
VPORT
  5
29
330
8
100
AcDbSymbolTableRecord
100
AcDbViewportTableRecord
  2
*Active
 70
     0
 10
0.0
 20
0.0
 11
1.0
 21
1.0
 12
148.5
 22
105.0
 13
0.0
 23
0.0
 14
10.0
 24
10.0
 15
10.0
 25
10.0
 16
0.0
 26
0.0
 36
1.0
 17
0.0
 27
0.0
 37
0.0
 40
210.0
 41
1.4142857143
 42
50.0
 43
0.0
 44
0.0
 50
0.0
 51
0.0
 71
     0
 72
  2000
 73
     1
 74
     3
 75
     0
 76
     0
 77
     0
 78
     0
281
     0
 65
     1
110
0.0
120
0.0
130
0.0
111
1.0
121
0.0
131
0.0
112
0.0
122
1.0
132
0.0
 79
     0
146
0.0
  0
ENDTAB
  0
TABLE
  2
LTYPE
  5
5
330
0
100
AcDbSymbolTable
 70
     6
  0
LTYPE
  5
14
330
5
100
AcDbSymbolTableRecord
100
AcDbLinetypeTableRecord
  2
ByBlock
 70
     0
  3

 72
    65
 73
     0
 40
0.0
  0
LTYPE
  5
15
330
5
100
AcDbSymbolTableRecord
100
AcDbLinetypeTableRecord
  2
ByLayer
 70
     0
  3

 72
    65
 73
     0
 40
0.0
  0
LTYPE
  5
16
330
5
100
AcDbSymbolTableRecord
100
AcDbLinetypeTableRecord
  2
Continuous
 70
     0
  3
Solid line
 72
    65
 73
     0
 40
0.0
  0
LTYPE
  5
6E
330
5
100
AcDbSymbolTableRecord
100
AcDbLinetypeTableRecord
  2
HIDDEN
 70
     0
  3
Hidden __ __ __ __ __ __ __ __ __ __ __ __ __ __
 72
    65
 73
     2
 40
1.905
 49
1.27
 74
     0
 49
-0.635
 74
     0
  0
LTYPE
  5
6F
330
5
100
AcDbSymbolTableRecord
100
AcDbLinetypeTableRecord
  2
PHANTOM
 70
     0
  3
Phantom ______  __  __  ______  __  __  ______
 72
    65
 73
     6
 40
12.7
 49
6.35
 74
     0
 49
-1.27
 74
     0
 49
1.27
 74
     0
 49
-1.27
 74
     0
 49
1.27
 74
     0
 49
-1.27
 74
     0
  0
LTYPE
  5
70
330
5
100
AcDbSymbolTableRecord
100
AcDbLinetypeTableRecord
  2
CENTER
 70
     0
  3
Center ____ _ ____ _ ____ _ ____ _ ____ _ ____
 72
    65
 73
     4
 40
10.16
 49
6.35
 74
     0
 49
-1.27
 74
     0
 49
1.27
 74
     0
 49
-1.27
 74
     0
  0
LTYPE
  5
71
330
5
100
AcDbSymbolTableRecord
100
AcDbLinetypeTableRecord
  2
CENTERX2
 70
     0
  3
Center (2x) ________  __  ________  __  _____
 72
    65
 73
     4
 40
20.32
 49
12.7
 74
     0
 49
-2.54
 74
     0
 49
2.54
 74
     0
 49
-2.54
 74
     0
  0
LTYPE
  5
72
330
5
100
AcDbSymbolTableRecord
100
AcDbLinetypeTableRecord
  2
DOT2
 70
     0
  3
Dot (.5x) ........................................
 72
    65
 73
     2
 40
0.635
 49
0.0
 74
     0
 49
-0.635
 74
     0
  0
ENDTAB
  0
TABLE
  2
LAYER
  5
2
330
0
100
AcDbSymbolTable
 70
     5
  0
LAYER
  5
10
330
2
100
AcDbSymbolTableRecord
100
AcDbLayerTableRecord
  2
0
 70
     0
 62
     7
  6
Continuous
370
    -3
390
F
  0
LAYER
  5
73
330
2
100
AcDbSymbolTableRecord
100
AcDbLayerTableRecord
  2
FORMAT
 70
     0
 62
     7
  6
Continuous
370
    -3
390
F
  0
LAYER
  5
74
330
2
100
AcDbSymbolTableRecord
100
AcDbLayerTableRecord
  2
VERMASSUNG
 70
     0
 62
     7
  6
Continuous
370
    -3
390
F
  0
LAYER
  5
75
330
2
100
AcDbSymbolTableRecord
100
AcDbLayerTableRecord
  2
KOPF_DÜNN
 70
     0
 62
     7
  6
Continuous
370
    -3
390
F
  0
LAYER
  5
76
330
2
100
AcDbSymbolTableRecord
100
AcDbLayerTableRecord
  2
KOPF_DICK
 70
     0
 62
     7
  6
Continuous
370
    15
390
F
  0
ENDTAB
  0
TABLE
  2
STYLE
  5
3
330
0
100
AcDbSymbolTable
 70
     2
  0
STYLE
  5
11
330
3
100
AcDbSymbolTableRecord
100
AcDbTextStyleTableRecord
  2
Standard
 70
     0
 40
0.0
 41
1.0
 50
0.0
 71
     0
 42
2.0
  3
txt
  4

  0
STYLE
  5
77
330
3
100
AcDbSymbolTableRecord
100
AcDbTextStyleTableRecord
  2
SLDTEXTSTYLE0
 70
     0
 40
0.0
 41
0.7
 50
0.0
 71
     0
 42
2.0
  3
TXT
  4

  0
ENDTAB
  0
TABLE
  2
VIEW
  5
6
330
0
100
AcDbSymbolTable
 70
     0
  0
ENDTAB
  0
TABLE
  2
UCS
  5
7
330
0
100
AcDbSymbolTable
 70
     0
  0
ENDTAB
  0
TABLE
  2
APPID
  5
9
330
0
100
AcDbSymbolTable
 70
     1
  0
APPID
  5
12
330
9
100
AcDbSymbolTableRecord
100
AcDbRegAppTableRecord
  2
ACAD
 70
     0
  0
ENDTAB
  0
TABLE
  2
DIMSTYLE
  5
A
330
0
100
AcDbSymbolTable
 70
     2
100
AcDbDimStyleTable
  0
DIMSTYLE
105
27
330
A
100
AcDbSymbolTableRecord
100
AcDbDimStyleTableRecord
  2
ISO-25
 70
     0
 41
2.5
 42
0.625
 43
3.75
 44
1.25
 73
     0
 74
     0
 77
     1
 78
     8
140
2.5
141
2.5
143
0.0393700787
147
0.625
171
     3
172
     1
178
     0
271
     2
272
     2
274
     3
278
    44
283
     0
284
     8
340
11
  0
DIMSTYLE
105
1BE
102
{ACAD_REACTORS
330
1BD
330
1CA
330
1D5
330
1E1
330
1EB
330
1F5
102
}
330
A
100
AcDbSymbolTableRecord
100
AcDbDimStyleTableRecord
  2
SLDDIMSTYLE0
 70
     0
 41
3.0
 44
0.0
 45
0.000000001
 73
     0
 74
     0
 77
     1
 78
    12
 79
     3
140
2.0
147
0.5
173
     1
178
     0
271
     2
272
     3
276
     2
284
    12
340
77
  0
ENDTAB
  0
TABLE
  2
BLOCK_RECORD
  5
1
330
0
100
AcDbSymbolTable
 70
     7
  0
BLOCK_RECORD
  5
1F
330
1
100
AcDbSymbolTableRecord
100
AcDbBlockTableRecord
  2
*Model_Space
340
22
  0
BLOCK_RECORD
  5
1B
330
1
100
AcDbSymbolTableRecord
100
AcDbBlockTableRecord
  2
*Paper_Space
340
1E
  0
BLOCK_RECORD
  5
23
330
1
100
AcDbSymbolTableRecord
100
AcDbBlockTableRecord
  2
*Paper_Space0
340
26
  0
BLOCK_RECORD
  5
1BF
330
1
100
AcDbSymbolTableRecord
100
AcDbBlockTableRecord
  2
_D
340
0
  0
BLOCK_RECORD
  5
1CB
330
1
100
AcDbSymbolTableRecord
100
AcDbBlockTableRecord
  2
_D_1
340
0
  0
BLOCK_RECORD
  5
1D6
330
1
100
AcDbSymbolTableRecord
100
AcDbBlockTableRecord
  2
_D_2
340
0
  0
BLOCK_RECORD
  5
1E2
330
1
100
AcDbSymbolTableRecord
100
AcDbBlockTableRecord
  2
_D_3
340
0
  0
BLOCK_RECORD
  5
1EC
330
1
100
AcDbSymbolTableRecord
100
AcDbBlockTableRecord
  2
_D_4
340
0
  0
BLOCK_RECORD
  5
1F6
330
1
100
AcDbSymbolTableRecord
100
AcDbBlockTableRecord
  2
_D_5
340
0
  0
ENDTAB
  0
ENDSEC
  0
SECTION
  2
BLOCKS
  0
BLOCK
  5
20
330
1F
100
AcDbEntity
  8
0
100
AcDbBlockBegin
  2
*Model_Space
 70
     0
 10
0.0
 20
0.0
 30
0.0
  3
*Model_Space
  1

  0
ENDBLK
  5
21
330
1F
100
AcDbEntity
  8
0
100
AcDbBlockEnd
  0
BLOCK
  5
1C
330
1B
100
AcDbEntity
 67
     1
  8
0
100
AcDbBlockBegin
  2
*Paper_Space
 70
     0
 10
0.0
 20
0.0
 30
0.0
  3
*Paper_Space
  1

  0
ENDBLK
  5
1D
330
1B
100
AcDbEntity
 67
     1
  8
0
100
AcDbBlockEnd
  0
BLOCK
  5
24
330
23
100
AcDbEntity
  8
0
100
AcDbBlockBegin
  2
*Paper_Space0
 70
     0
 10
0.0
 20
0.0
 30
0.0
  3
*Paper_Space0
  1

  0
ENDBLK
  5
25
330
23
100
AcDbEntity
  8
0
100
AcDbBlockEnd
  0
BLOCK
  5
1C0
330
1BF
100
AcDbEntity
  8
0
100
AcDbBlockBegin
  2
_D
 70
     0
 10
0.0
 20
0.0
 30
0.0
  3
_D
  1

  0
SOLID
  5
1C2
330
1BF
100
AcDbEntity
  8
VERMASSUNG
100
AcDbTrace
 10
37.5019367953
 20
67.8294183369
 30
0.0
 11
37.9519367953
 21
70.8294183369
 31
0.0
 12
37.0519367953
 22
70.8294183369
 32
0.0
 13
37.0519367953
 23
70.8294183369
 33
0.0
  0
SOLID
  5
1C3
330
1BF
100
AcDbEntity
  8
VERMASSUNG
100
AcDbTrace
 10
37.5019367953
 20
167.8294183369
 30
0.0
 11
37.0519367953
 21
164.8294183369
 31
0.0
 12
37.9519367953
 22
164.8294183369
 32
0.0
 13
37.9519367953
 23
164.8294183369
 33
0.0
  0
LINE
  5
1C4
330
1BF
100
AcDbEntity
  8
VERMASSUNG
100
AcDbLine
 10
182.4751315554
 20
67.8294183369
 30
0.0
 11
36.5019367953
 21
67.8294183369
 31
0.0
  0
LINE
  5
1C5
330
1BF
100
AcDbEntity
  8
VERMASSUNG
100
AcDbLine
 10
182.4751315554
 20
167.8294183369
 30
0.0
 11
36.5019367953
 21
167.8294183369
 31
0.0
  0
LINE
  5
1C6
330
1BF
100
AcDbEntity
  8
VERMASSUNG
100
AcDbLine
 10
37.5019367953
 20
67.8294183369
 30
0.0
 11
37.5019367953
 21
167.8294183369
 31
0.0
  0
MTEXT
  5
1C7
330
1BF
100
AcDbEntity
  8
VERMASSUNG
100
AcDbMText
 10
34.723801539
 20
106.6252803349
 30
0.0
 40
2.0
 41
0.0
 71
     1
 72
     1
  1
MAS-BT 50
  7
SLDTEXTSTYLE0
 11
3.391901413832837E-15
 21
1.0
 31
0.0
 73
     1
 44
1.0
  0
MTEXT
  5
1C8
330
1BF
100
AcDbEntity
  8
VERMASSUNG
100
AcDbMText
 10
34.9238014903
 20
121.6252799996
 30
0.0
 40
2.0
 41
0.0
 71
     1
 72
     1
  1
%%c
  7
SLDTEXTSTYLE0
 11
3.391901413832837E-15
 21
1.0
 31
0.0
 73
     1
 44
1.0
  0
MTEXT
  5
1C9
330
1BF
100
AcDbEntity
  8
VERMASSUNG
100
AcDbMText
 10
34.9238011993
 20
125.2348704481
 30
0.0
 40
2.0
 41
0.0
 71
     1
 72
     1
  1
100
  7
SLDTEXTSTYLE0
 11
3.391901413832837E-15
 21
1.0
 31
0.0
 73
     1
 44
1.0
  0
ENDBLK
  5
1C1
330
1BF
100
AcDbEntity
  8
0
100
AcDbBlockEnd
  0
BLOCK
  5
1CC
330
1CB
100
AcDbEntity
  8
0
100
AcDbBlockBegin
  2
_D_1
 70
     0
 10
0.0
 20
0.0
 30
0.0
  3
_D_1
  1

  0
SOLID
  5
1CE
330
1CB
100
AcDbEntity
  8
VERMASSUNG
100
AcDbTrace
 10
257.7288898483
 20
131.8294183369
 30
0.0
 11
257.2788898483
 21
128.8294183369
 31
0.0
 12
258.1788898483
 22
128.8294183369
 32
0.0
 13
258.1788898483
 23
128.8294183369
 33
0.0
  0
SOLID
  5
1CF
330
1CB
100
AcDbEntity
  8
VERMASSUNG
100
AcDbTrace
 10
257.7288898483
 20
103.8294183369
 30
0.0
 11
258.1788898483
 21
106.8294183369
 31
0.0
 12
257.2788898483
 22
106.8294183369
 32
0.0
 13
257.2788898483
 23
106.8294183369
 33
0.0
  0
LINE
  5
1D0
330
1CB
100
AcDbEntity
  8
VERMASSUNG
100
AcDbLine
 10
248.4751315554
 20
131.8294183369
 30
0.0
 11
258.7288898483
 21
131.8294183369
 31
0.0
  0
LINE
  5
1D1
330
1CB
100
AcDbEntity
  8
VERMASSUNG
100
AcDbLine
 10
248.4751315554
 20
103.8294183369
 30
0.0
 11
258.7288898483
 21
103.8294183369
 31
0.0
  0
LINE
  5
1D2
330
1CB
100
AcDbEntity
  8
VERMASSUNG
100
AcDbLine
 10
257.7288898483
 20
131.8294183369
 30
0.0
 11
257.7288898483
 21
103.8294183369
 31
0.0
  0
MTEXT
  5
1D3
330
1CB
100
AcDbEntity
  8
VERMASSUNG
100
AcDbMText
 10
255.1507545434
 20
114.6244183797
 30
0.0
 40
2.0
 41
0.0
 71
     1
 72
     1
  1
%%c
  7
SLDTEXTSTYLE0
 11
-7.044195017643634E-15
 21
1.0
 31
0.0
 73
     1
 44
1.0
  0
MTEXT
  5
1D4
330
1CB
100
AcDbEntity
  8
VERMASSUNG
100
AcDbMText
 10
254.9507545921
 20
118.234418394
 30
0.0
 40
2.0
 41
0.0
 71
     1
 72
     1
  1
28
  7
SLDTEXTSTYLE0
 11
-7.044195017643634E-15
 21
1.0
 31
0.0
 73
     1
 44
1.0
  0
ENDBLK
  5
1CD
330
1CB
100
AcDbEntity
  8
0
100
AcDbBlockEnd
  0
BLOCK
  5
1D7
330
1D6
100
AcDbEntity
  8
0
100
AcDbBlockBegin
  2
_D_2
 70
     0
 10
0.0
 20
0.0
 30
0.0
  3
_D_2
  1

  0
SOLID
  5
1D9
330
1D6
100
AcDbEntity
  8
VERMASSUNG
100
AcDbTrace
 10
263.7288898483
 20
142.8294183369
 30
0.0
 11
263.2788898483
 21
139.8294183369
 31
0.0
 12
264.1788898483
 22
139.8294183369
 32
0.0
 13
264.1788898483
 23
139.8294183369
 33
0.0
  0
SOLID
  5
1DA
330
1D6
100
AcDbEntity
  8
VERMASSUNG
100
AcDbTrace
 10
263.7288898483
 20
92.8294183369
 30
0.0
 11
264.1788898483
 21
95.8294183369
 31
0.0
 12
263.2788898483
 22
95.8294183369
 32
0.0
 13
263.2788898483
 23
95.8294183369
 33
0.0
  0
LINE
  5
1DB
330
1D6
100
AcDbEntity
  8
VERMASSUNG
100
AcDbLine
 10
248.9751315554
 20
142.8294183369
 30
0.0
 11
264.7288898483
 21
142.8294183369
 31
0.0
  0
LINE
  5
1DC
330
1D6
100
AcDbEntity
  8
VERMASSUNG
100
AcDbLine
 10
248.9751315554
 20
92.8294183369
 30
0.0
 11
264.7288898483
 21
92.8294183369
 31
0.0
  0
LINE
  5
1DD
330
1D6
100
AcDbEntity
  8
VERMASSUNG
100
AcDbLine
 10
263.7288898483
 20
142.8294183369
 30
0.0
 11
263.7288898483
 21
92.8294183369
 31
0.0
  0
MTEXT
  5
1DE
330
1D6
100
AcDbEntity
  8
VERMASSUNG
100
AcDbMText
 10
260.9507545921
 20
112.7244183476
 30
0.0
 40
2.0
 41
0.0
 71
     1
 72
     1
  1
WH
  7
SLDTEXTSTYLE0
 11
-7.044195017643634E-15
 21
1.0
 31
0.0
 73
     1
 44
1.0
  0
MTEXT
  5
1DF
330
1D6
100
AcDbEntity
  8
VERMASSUNG
100
AcDbMText
 10
261.1507545434
 20
116.5244184117
 30
0.0
 40
2.0
 41
0.0
 71
     1
 72
     1
  1
%%c
  7
SLDTEXTSTYLE0
 11
-7.044195017643634E-15
 21
1.0
 31
0.0
 73
     1
 44
1.0
  0
MTEXT
  5
1E0
330
1D6
100
AcDbEntity
  8
VERMASSUNG
100
AcDbMText
 10
260.9507545921
 20
120.134418426
 30
0.0
 40
2.0
 41
0.0
 71
     1
 72
     1
  1
50
  7
SLDTEXTSTYLE0
 11
-7.044195017643634E-15
 21
1.0
 31
0.0
 73
     1
 44
1.0
  0
ENDBLK
  5
1D8
330
1D6
100
AcDbEntity
  8
0
100
AcDbBlockEnd
  0
BLOCK
  5
1E3
330
1E2
100
AcDbEntity
  8
0
100
AcDbBlockBegin
  2
_D_3
 70
     0
 10
0.0
 20
0.0
 30
0.0
  3
_D_3
  1

  0
SOLID
  5
1E5
330
1E2
100
AcDbEntity
  8
VERMASSUNG
100
AcDbTrace
 10
249.4751315554
 20
172.810433068
 30
0.0
 11
246.4751315554
 21
173.260433068
 31
0.0
 12
246.4751315554
 22
172.360433068
 32
0.0
 13
246.4751315554
 23
172.360433068
 33
0.0
  0
SOLID
  5
1E6
330
1E2
100
AcDbEntity
  8
VERMASSUNG
100
AcDbTrace
 10
183.4751315554
 20
172.810433068
 30
0.0
 11
186.4751315554
 21
172.360433068
 31
0.0
 12
186.4751315554
 22
173.260433068
 32
0.0
 13
186.4751315554
 23
173.260433068
 33
0.0
  0
LINE
  5
1E7
330
1E2
100
AcDbEntity
  8
VERMASSUNG
100
AcDbLine
 10
249.4751315554
 20
142.3294183369
 30
0.0
 11
249.4751315554
 21
173.810433068
 31
0.0
  0
LINE
  5
1E8
330
1E2
100
AcDbEntity
  8
VERMASSUNG
100
AcDbLine
 10
183.4751315554
 20
166.8294183369
 30
0.0
 11
183.4751315554
 21
173.810433068
 31
0.0
  0
LINE
  5
1E9
330
1E2
100
AcDbEntity
  8
VERMASSUNG
100
AcDbLine
 10
249.4751315554
 20
172.810433068
 30
0.0
 11
183.4751315554
 21
172.810433068
 31
0.0
  0
MTEXT
  5
1EA
330
1E2
100
AcDbEntity
  8
VERMASSUNG
100
AcDbMText
 10
215.0751316053
 20
175.388568664
 30
0.0
 40
2.0
 41
0.0
 71
     1
 72
     1
  1
66
  7
SLDTEXTSTYLE0
 73
     1
 44
1.0
  0
ENDBLK
  5
1E4
330
1E2
100
AcDbEntity
  8
0
100
AcDbBlockEnd
  0
BLOCK
  5
1ED
330
1EC
100
AcDbEntity
  8
0
100
AcDbBlockBegin
  2
_D_4
 70
     0
 10
0.0
 20
0.0
 30
0.0
  3
_D_4
  1

  0
SOLID
  5
1EF
330
1EC
100
AcDbEntity
  8
VERMASSUNG
100
AcDbTrace
 10
249.4751315554
 20
178.945123407
 30
0.0
 11
246.4751315554
 21
179.395123407
 31
0.0
 12
246.4751315554
 22
178.495123407
 32
0.0
 13
246.4751315554
 23
178.495123407
 33
0.0
  0
SOLID
  5
1F0
330
1EC
100
AcDbEntity
  8
VERMASSUNG
100
AcDbTrace
 10
145.4751315554
 20
178.945123407
 30
0.0
 11
148.4751315554
 21
178.495123407
 31
0.0
 12
148.4751315554
 22
179.395123407
 32
0.0
 13
148.4751315554
 23
179.395123407
 33
0.0
  0
LINE
  5
1F1
330
1EC
100
AcDbEntity
  8
VERMASSUNG
100
AcDbLine
 10
249.4751315554
 20
142.3294183369
 30
0.0
 11
249.4751315554
 21
179.945123407
 31
0.0
  0
LINE
  5
1F2
330
1EC
100
AcDbEntity
  8
VERMASSUNG
100
AcDbLine
 10
145.4751315554
 20
152.7544183369
 30
0.0
 11
145.4751315554
 21
179.945123407
 31
0.0
  0
LINE
  5
1F3
330
1EC
100
AcDbEntity
  8
VERMASSUNG
100
AcDbLine
 10
249.4751315554
 20
178.945123407
 30
0.0
 11
145.4751315554
 21
178.945123407
 31
0.0
  0
MTEXT
  5
1F4
330
1EC
100
AcDbEntity
  8
VERMASSUNG
100
AcDbMText
 10
195.4751314604
 20
181.523259003
 30
0.0
 40
2.0
 41
0.0
 71
     1
 72
     1
  1
104
  7
SLDTEXTSTYLE0
 73
     1
 44
1.0
  0
ENDBLK
  5
1EE
330
1EC
100
AcDbEntity
  8
0
100
AcDbBlockEnd
  0
BLOCK
  5
1F7
330
1F6
100
AcDbEntity
  8
0
100
AcDbBlockBegin
  2
_D_5
 70
     0
 10
0.0
 20
0.0
 30
0.0
  3
_D_5
  1

  0
SOLID
  5
1F9
330
1F6
100
AcDbEntity
  8
VERMASSUNG
100
AcDbTrace
 10
43.6751315554
 20
185.7747479243
 30
0.0
 11
46.6751315554
 21
185.3247479243
 31
0.0
 12
46.6751315554
 22
186.2247479243
 32
0.0
 13
46.6751315554
 23
186.2247479243
 33
0.0
  0
SOLID
  5
1FA
330
1F6
100
AcDbEntity
  8
VERMASSUNG
100
AcDbTrace
 10
249.4751315554
 20
185.7747479243
 30
0.0
 11
246.4751315554
 21
186.2247479243
 31
0.0
 12
246.4751315554
 22
185.3247479243
 32
0.0
 13
246.4751315554
 23
185.3247479243
 33
0.0
  0
LINE
  5
1FB
330
1F6
100
AcDbEntity
  8
VERMASSUNG
100
AcDbLine
 10
43.6751315554
 20
136.1790961976
 30
0.0
 11
43.6751315554
 21
186.7747479243
 31
0.0
  0
LINE
  5
1FC
330
1F6
100
AcDbEntity
  8
VERMASSUNG
100
AcDbLine
 10
249.4751315554
 20
142.3294183369
 30
0.0
 11
249.4751315554
 21
186.7747479243
 31
0.0
  0
LINE
  5
1FD
330
1F6
100
AcDbEntity
  8
VERMASSUNG
100
AcDbLine
 10
43.6751315554
 20
185.7747479243
 30
0.0
 11
249.4751315554
 21
185.7747479243
 31
0.0
  0
MTEXT
  5
1FE
330
1F6
100
AcDbEntity
  8
VERMASSUNG
100
AcDbMText
 10
143.4751316992
 20
188.3528835203
 30
0.0
 40
2.0
 41
0.0
 71
     1
 72
     1
  1
205.8
  7
SLDTEXTSTYLE0
 73
     1
 44
1.0
  0
ENDBLK
  5
1F8
330
1F6
100
AcDbEntity
  8
0
100
AcDbBlockEnd
  0
ENDSEC
  0
SECTION
  2
ENTITIES
  0
MTEXT
  5
78
330
1F
100
AcDbEntity
  8
KOPF_DÜNN
100
AcDbMText
 10
13.8892156294
 20
23.8442973028
 30
0.0
 40
3.0
 41
0.0
 71
     1
 72
     1
  1
A34.550.050.104
  7
SLDTEXTSTYLE0
 73
     1
 44
1.0
  0
MTEXT
  5
79
330
1F
100
AcDbEntity
  8
VERMASSUNG
100
AcDbMText
 10
13.9329988022
 20
28.8834360957
 30
0.0
 40
3.0
 41
0.0
 71
     1
 72
     1
  1
Aufnahme_Master shank
  7
SLDTEXTSTYLE0
 73
     1
 44
1.0
  0
MTEXT
  5
7A
330
1F
100
AcDbEntity
  8
VERMASSUNG
100
AcDbMText
 10
98.8601118557
 20
13.8365368761
 30
0.0
 40
2.0
 41
0.0
 71
     1
 72
     1
  1
Datum: 18.11.2011
  7
SLDTEXTSTYLE0
 73
     1
 44
1.0
  0
MTEXT
  5
7B
330
1F
100
AcDbEntity
  8
VERMASSUNG
100
AcDbMText
 10
13.933048693
 20
18.0482802738
 30
0.0
 40
2.0
 41
0.0
 71
     1
 72
     1
  1
MAS-BT A/D
  7
SLDTEXTSTYLE0
 73
     1
 44
1.0
  0
MTEXT
  5
7C
330
1F
100
AcDbEntity
  8
VERMASSUNG
100
AcDbMText
 10
13.9808475933
 20
13.9090974274
 30
0.0
 40
2.0
 41
0.0
 71
     1
 72
     1
  1
Gewicht: 4508g
  7
SLDTEXTSTYLE0
 73
     1
 44
1.0
  0
LINE
  5
7D
330
1F
100
AcDbEntity
  8
0
  6
Continuous
 62
     7
370
    15
100
AcDbLine
 10
179.4748443286
 20
67.8294183369
 30
0.0
 11
182.4751315554
 21
67.8294183369
 31
0.0
  0
LINE
  5
7E
330
1F
100
AcDbEntity
  8
0
  6
Continuous
 62
     7
370
    15
100
AcDbLine
 10
182.4751315554
 20
167.8294183369
 30
0.0
 11
179.4746973744
 21
167.8294183369
 31
0.0
  0
ARC
  5
7F
330
1F
100
AcDbEntity
  8
0
  6
Continuous
 62
     7
370
    15
100
AcDbCircle
 10
182.4751315554
 20
68.8294183369
 30
0.0
 40
1.0
100
AcDbArc
 50
270.0
 51
0.0
  0
ARC
  5
80
330
1F
100
AcDbEntity
  8
0
  6
Continuous
 62
     7
370
    15
100
AcDbCircle
 10
182.4751315554
 20
166.8294183369
 30
0.0
 40
1.0
100
AcDbArc
 50
0.0
 51
90.0
  0
ARC
  5
81
330
1F
100
AcDbEntity
  8
0
  6
Continuous
 62
     7
370
    15
100
AcDbCircle
 10
147.4751315554
 20
81.9044183369
 30
0.0
 40
1.000000000000001
100
AcDbArc
 50
38.7236281536
 51
90.0
  0
ARC
  5
82
330
1F
100
AcDbEntity
  8
0
  6
Continuous
 62
     7
370
    15
100
AcDbCircle
 10
147.4751315554
 20
153.7544183369
 30
0.0
 40
1.000000000000034
100
AcDbArc
 50
270.0
 51
321.2804100885
  0
LINE
  5
83
330
1F
100
AcDbEntity
  8
0
  6
Continuous
 62
     7
370
    15
100
AcDbLine
 10
145.4751315554
 20
82.9044183369
 30
0.0
 11
147.4751315554
 21
82.9044183369
 31
0.0
  0
LINE
  5
84
330
1F
100
AcDbEntity
  8
0
  6
Continuous
 62
     7
370
    15
100
AcDbLine
 10
147.4751315554
 20
152.7544183369
 30
0.0
 11
145.4751315554
 21
152.7544183369
 31
0.0
  0
LINE
  5
85
330
1F
100
AcDbEntity
  8
0
  6
Continuous
 62
     7
370
    15
100
AcDbLine
 10
145.4751315554
 20
152.7544183369
 30
0.0
 11
45.3865177692
 21
138.1581621598
 31
0.0
  0
LINE
  5
86
330
1F
100
AcDbEntity
  8
0
  6
Continuous
 62
     7
370
    15
100
AcDbLine
 10
45.3865177692
 20
97.5006745141
 30
0.0
 11
145.4751315554
 21
82.9044183369
 31
0.0
  0
ARC
  5
87
330
1F
100
AcDbEntity
  8
0
  6
Continuous
 62
     7
370
    15
100
AcDbCircle
 10
186.4751315554
 20
89.8294183369
 30
0.0
 40
3.0
100
AcDbArc
 50
90.0
 51
180.0
  0
ARC
  5
88
330
1F
100
AcDbEntity
  8
0
  6
Continuous
 62
     7
370
    15
100
AcDbCircle
 10
186.4751315554
 20
145.8294183369
 30
0.0
 40
3.0
100
AcDbArc
 50
180.0
 51
270.0
  0
LINE
  5
89
330
1F
100
AcDbEntity
  8
0
  6
Continuous
 62
     7
370
    15
100
AcDbLine
 10
227.9501546026
 20
142.8294183369
 30
0.0
 11
186.4751315554
 21
142.8294183369
 31
0.0
  0
LINE
  5
8A
330
1F
100
AcDbEntity
  8
0
  6
Continuous
 62
     7
370
    15
100
AcDbLine
 10
248.9751315554
 20
142.8294183369
 30
0.0
 11
242.9129930765
 21
142.8294183369
 31
0.0
  0
LINE
  5
8B
330
1F
100
AcDbEntity
  8
0
  6
Continuous
 62
     7
370
    15
100
AcDbLine
 10
186.4751315554
 20
92.8294183369
 30
0.0
 11
248.9751315554
 21
92.8294183369
 31
0.0
  0
LINE
  5
8C
330
1F
100
AcDbEntity
  8
0
  6
Continuous
 62
     7
370
    15
100
AcDbLine
 10
248.9751315554
 20
92.8294183369
 30
0.0
 11
249.4751315554
 21
93.3294183369
 31
0.0
  0
LINE
  5
8D
330
1F
100
AcDbEntity
  8
0
  6
Continuous
 62
     7
370
    15
100
AcDbLine
 10
249.4751315554
 20
142.3294183369
 30
0.0
 11
248.9751315554
 21
142.8294183369
 31
0.0
  0
ARC
  5
8E
330
1F
100
AcDbEntity
  8
0
  6
Continuous
 62
     7
370
    15
100
AcDbCircle
 10
45.6751315554
 20
99.4797404762
 30
0.0
 40
2.000000000000007
100
AcDbArc
 50
180.0
 51
261.7028550302
  0
ARC
  5
8F
330
1F
100
AcDbEntity
  8
0
  6
Continuous
 62
     7
370
    15
100
AcDbCircle
 10
45.6751315554
 20
136.1790961976
 30
0.0
 40
2.000000000000007
100
AcDbArc
 50
98.2971449698
 51
180.0
  0
SPLINE
  5
90
330
1F
100
AcDbEntity
  8
0
  6
Continuous
 62
     7
370
    15
100
AcDbSpline
210
0.0
220
0.0
230
1.0
 70
     8
 71
     3
 72
    12
 73
     8
 74
     0
 42
0.000000001
 43
0.00000001
 40
0.0
 40
0.0
 40
0.0
 40
0.0
 40
0.4999999999999992
 40
0.4999999999999992
 40
0.7499999999999996
 40
0.7499999999999996
 40
1.0
 40
1.0
 40
1.0
 40
1.0
 10
175.5594112201978
 20
166.035465288619
 30
0.0
 10
175.0205145251003
 20
164.977765471118
 30
0.0
 10
174.4581837143807
 20
163.8753970361594
 30
0.0
 10
173.5895174717902
 20
162.1754324297966
 30
0.0
 10
173.2951887494476
 20
161.599914014358
 30
0.0
 10
172.7016577504799
 20
160.4404853458994
 30
0.0
 10
172.4024314923614
 20
159.8565256768182
 30
0.0
 10
172.1009446441081
 20
159.2688157162294
 30
0.0
  0
SPLINE
  5
91
330
1F
100
AcDbEntity
  8
0
  6
Continuous
 62
     7
370
    15
100
AcDbSpline
210
0.0
220
0.0
230
1.0
 70
     8
 71
     3
 72
     9
 73
     5
 74
     0
 42
0.000000001
 43
0.00000001
 40
0.0
 40
0.0
 40
0.0
 40
0.0
 40
0.5047943291262357
 40
1.0
 40
1.0
 40
1.0
 40
1.0
 10
176.2001079607665
 20
166.9895235870055
 30
0.0
 10
176.0917255265401
 20
166.8286820261263
 30
0.0
 10
175.8770194017426
 20
166.5100541184839
 30
0.0
 10
175.6645919729234
 20
166.1926798918806
 30
0.0
 10
175.5593967055231
 20
166.0355143750774
 30
0.0
  0
LINE
  5
92
330
1F
100
AcDbEntity
  8
0
  6
Continuous
 62
     7
370
    15
100
AcDbLine
 10
176.2001315554
 20
68.6692570516
 30
0.0
 11
176.2001315554
 21
166.9895796222
 31
0.0
  0
SPLINE
  5
93
330
1F
100
AcDbEntity
  8
0
  6
Continuous
 62
     7
370
    15
100
AcDbSpline
210
0.0
220
0.0
230
1.0
 70
     8
 71
     3
 72
     9
 73
     5
 74
     0
 42
0.000000001
 43
0.00000001
 40
0.0
 40
0.0
 40
0.0
 40
0.0
 40
0.4952056703152484
 40
1.0
 40
1.0
 40
1.0
 40
1.0
 10
175.5593967055231
 20
69.62332229875867
 30
0.0
 10
175.6645919728036
 20
69.46615678213522
 30
0.0
 10
175.8770194016202
 20
69.1487825555368
 30
0.0
 10
176.0917255264193
 20
68.83015464789003
 30
0.0
 10
176.2001079607665
 20
68.66931308683063
 30
0.0
  0
SPLINE
  5
94
330
1F
100
AcDbEntity
  8
0
  6
Continuous
 62
     7
370
    15
100
AcDbSpline
210
0.0
220
0.0
230
1.0
 70
     8
 71
     3
 72
    12
 73
     8
 74
     0
 42
0.000000001
 43
0.00000001
 40
0.0
 40
0.0
 40
0.0
 40
0.0
 40
0.2499999999999993
 40
0.2499999999999993
 40
0.4999999999999986
 40
0.4999999999999986
 40
1.0
 40
1.0
 40
1.0
 40
1.0
 10
175.5594111879589
 20
69.62337144849285
 30
0.0
 10
175.29007366659
 20
70.15200383717749
 30
0.0
 10
175.014303549196
 20
70.69292849112418
 30
0.0
 10
174.4520432625903
 20
71.79498524548724
 30
0.0
 10
174.1649578891856
 20
72.35728208472406
 30
0.0
 10
173.2945314484663
 20
74.06067732004404
 30
0.0
 10
172.702521452297
 20
75.21732409112613
 30
0.0
 10
172.100944644108
 20
76.39002095760678
 30
0.0
  0
SPLINE
  5
95
330
1F
100
AcDbEntity
  8
0
  6
Continuous
 62
     7
370
    15
100
AcDbSpline
210
0.0
220
0.0
230
1.0
 70
     8
 71
     3
 72
    12
 73
     8
 74
     0
 42
0.000000001
 43
0.00000001
 40
0.0
 40
0.0
 40
0.0
 40
0.0
 40
0.0005125153354919
 40
0.2509311781591491
 40
0.5009716914396624
 40
0.7506335204375856
 40
1.0
 40
1.0
 40
1.0
 40
1.0
 10
179.4746973744243
 20
167.8292932947344
 30
0.0
 10
179.4748418311112
 20
167.8293349680518
 30
0.0
 10
179.5455688594012
 20
167.8497385226393
 30
0.0
 10
179.302305299125
 20
167.7781268912526
 30
0.0
 10
178.6967806849198
 20
167.6097736827807
 30
0.0
 10
177.6716170005036
 20
167.3324400923251
 30
0.0
 10
176.6904331332789
 20
167.1038213430016
 30
0.0
 10
176.2001315560414
 20
166.9895796222359
 30
0.0
  0
SPLINE
  5
96
330
1F
100
AcDbEntity
  8
0
  6
Continuous
 62
     7
370
    15
100
AcDbSpline
210
0.0
220
0.0
230
1.0
 70
     8
 71
     3
 72
    13
 73
     9
 74
     0
 42
0.000000001
 43
0.00000001
 40
0.0
 40
0.0
 40
0.0
 40
0.0
 40
0.2492492380460214
 40
0.4988437701385547
 40
0.6658825660855477
 40
0.832025671123022
 40
0.9994886337290263
 40
1.0
 40
1.0
 40
1.0
 40
1.0
 10
176.2001315560414
 20
68.66925705160024
 30
0.0
 10
176.691316279465
 20
68.5547695279082
 30
0.0
 10
177.6743661823973
 20
68.32563587678821
 30
0.0
 10
178.5734096072163
 20
68.08242612563983
 30
0.0
 10
179.1317345078969
 20
67.92848891825491
 30
0.0
 10
179.3974057326051
 20
67.85223535940627
 30
0.0
 10
179.5062999786242
 20
67.82032117507953
 30
0.0
 10
179.4749397988034
 20
67.82947408902531
 30
0.0
 10
179.4748443286306
 20
67.82950195335138
 30
0.0
  0
LINE
  5
97
330
1F
100
AcDbEntity
  8
0
  6
Continuous
 62
     7
370
    15
100
AcDbLine
 10
148.4751315554
 20
70.827530077
 30
0.0
 11
148.4751315554
 21
164.8313065969
 31
0.0
  0
SPLINE
  5
98
330
1F
100
AcDbEntity
  8
0
  6
Continuous
 62
     7
370
    15
100
AcDbSpline
210
0.0
220
0.0
230
1.0
 70
     8
 71
     3
 72
    12
 73
     8
 74
     0
 42
0.000000001
 43
0.00000001
 40
0.0
 40
0.0
 40
0.0
 40
0.0
 40
0.2500000000000001
 40
0.2500000000000001
 40
0.5000000000000002
 40
0.5000000000000002
 40
1.0
 40
1.0
 40
1.0
 40
1.0
 10
148.8612679754041
 20
165.7638520707893
 30
0.0
 10
148.8096378532944
 20
165.7076478000747
 30
0.0
 10
148.7611056203039
 20
165.6463583895543
 30
0.0
 10
148.671280483346
 20
165.5118963155095
 30
0.0
 10
148.6295702101336
 20
165.4377772452667
 30
0.0
 10
148.5234388299715
 20
165.2014696000983
 30
0.0
 10
148.4751315553544
 20
165.0196460574484
 30
0.0
 10
148.4751315553544
 20
164.8313065968593
 30
0.0
  0
SPLINE
  5
99
330
1F
100
AcDbEntity
  8
0
  6
Continuous
 62
     7
370
    15
100
AcDbSpline
210
0.0
220
0.0
230
1.0
 70
     8
 71
     3
 72
     8
 73
     4
 74
     0
 42
0.000000001
 43
0.00000001
 40
0.0
 40
0.0
 40
0.0
 40
0.0
 40
1.0
 40
1.0
 40
1.0
 40
1.0
 10
149.4751315553544
 20
165.9345098323824
 30
0.0
 10
149.2482373116546
 20
165.9345098323824
 30
0.0
 10
149.0303876657282
 20
165.8704976654136
 30
0.0
 10
148.8612679754041
 20
165.7638520707893
 30
0.0
  0
SPLINE
  5
9A
330
1F
100
AcDbEntity
  8
0
  6
Continuous
 62
     7
370
    15
100
AcDbSpline
210
0.0
220
0.0
230
1.0
 70
     8
 71
     3
 72
    10
 73
     6
 74
     0
 42
0.000000001
 43
0.00000001
 40
0.0
 40
0.0
 40
0.0
 40
0.0
 40
0.5
 40
0.5
 40
1.0
 40
1.0
 40
1.0
 40
1.0
 10
148.8612679754041
 20
69.8949846030468
 30
0.0
 10
148.9458786161349
 20
69.84162977443411
 30
0.0
 10
149.0411132382414
 20
69.79906031248392
 30
0.0
 10
149.2511505974213
 20
69.73977797780296
 30
0.0
 10
149.3615825022054
 20
69.72432684145369
 30
0.0
 10
149.4751315553544
 20
69.72432684145369
 30
0.0
  0
SPLINE
  5
9B
330
1F
100
AcDbEntity
  8
0
  6
Continuous
 62
     7
370
    15
100
AcDbSpline
210
0.0
220
0.0
230
1.0
 70
     8
 71
     3
 72
    12
 73
     8
 74
     0
 42
0.000000001
 43
0.00000001
 40
0.0
 40
0.0
 40
0.0
 40
0.0
 40
0.2500000000000039
 40
0.2500000000000039
 40
0.5000000000000079
 40
0.5000000000000079
 40
1.0
 40
1.0
 40
1.0
 40
1.0
 10
148.8612679754041
 20
69.8949846030468
 30
0.0
 10
148.8096378532944
 20
69.95118887376144
 30
0.0
 10
148.7611056203039
 20
70.01247828428184
 30
0.0
 10
148.671280483346
 20
70.14694035832656
 30
0.0
 10
148.6295702101336
 20
70.22105942856938
 30
0.0
 10
148.5234388299715
 20
70.45736707373783
 30
0.0
 10
148.4751315553544
 20
70.63919061638772
 30
0.0
 10
148.4751315553544
 20
70.82753007697684
 30
0.0
  0
LINE
  5
9C
330
1F
100
AcDbEntity
  8
0
  6
Continuous
 62
     7
370
    15
100
AcDbLine
 10
183.4751315554
 20
68.8294183369
 30
0.0
 11
183.4751315554
 21
166.8294096685
 31
0.0
  0
LINE
  5
9D
330
1F
100
AcDbEntity
  8
0
  6
Continuous
 62
     7
370
    15
100
AcDbLine
 10
161.1501315554
 20
165.9345098324
 30
0.0
 11
149.4751315554
 21
165.9345098324
 31
0.0
  0
LINE
  5
9E
330
1F
100
AcDbEntity
  8
0
  6
Continuous
 62
     7
370
    15
100
AcDbLine
 10
161.1501315554
 20
69.7243268415
 30
0.0
 11
161.1501315554
 21
165.9345098324
 31
0.0
  0
LINE
  5
9F
330
1F
100
AcDbEntity
  8
0
  6
Continuous
 62
     7
370
    15
100
AcDbLine
 10
149.4751315554
 20
69.7243268415
 30
0.0
 11
161.1501315554
 21
69.7243268415
 31
0.0
  0
SPLINE
  5
A0
330
1F
100
AcDbEntity
  8
0
  6
Continuous
 62
     7
370
    15
100
AcDbSpline
210
0.0
220
0.0
230
1.0
 70
     8
 71
     3
 72
     8
 73
     4
 74
     0
 42
0.000000001
 43
0.00000001
 40
0.0
 40
0.0
 40
0.0
 40
0.0
 40
0.0012417047560385
 40
0.0012417047560385
 40
0.0012417047560385
 40
0.0012417047560385
 10
161.7077005918821
 20
165.149988490839
 30
0.0
 10
161.5223120405877
 20
165.4116615763876
 30
0.0
 10
161.3364457949798
 20
165.6731656852652
 30
0.0
 10
161.1501315553544
 20
165.9345098323824
 30
0.0
  0
SPLINE
  5
A1
330
1F
100
AcDbEntity
  8
0
  6
Continuous
 62
     7
370
    15
100
AcDbSpline
210
0.0
220
0.0
230
1.0
 70
     8
 71
     3
 72
     8
 73
     4
 74
     0
 42
0.000000001
 43
0.00000001
 40
0.0
 40
0.0
 40
0.0
 40
0.0
 40
1.0
 40
1.0
 40
1.0
 40
1.0
 10
165.2493184666007
 20
158.7596944171011
 30
0.0
 10
164.0743309906979
 20
160.8927711720369
 30
0.0
 10
162.8930844566015
 20
163.0224897379131
 30
0.0
 10
161.7077005918821
 20
165.149988490839
 30
0.0
  0
SPLINE
  5
A2
330
1F
100
AcDbEntity
  8
0
  6
Continuous
 62
     7
370
    15
100
AcDbSpline
210
0.0
220
0.0
230
1.0
 70
     8
 71
     3
 72
     8
 73
     4
 74
     0
 42
0.000000001
 43
0.00000001
 40
0.0
 40
0.0
 40
0.0
 40
0.0
 40
1.0
 40
1.0
 40
1.0
 40
1.0
 10
165.2493184666007
 20
76.89914225673505
 30
0.0
 10
164.0742816687738
 20
74.76597596258974
 30
0.0
 10
162.8930344613348
 20
72.63625720560806
 30
0.0
 10
161.7077005918822
 20
70.5088481829971
 30
0.0
  0
SPLINE
  5
A3
330
1F
100
AcDbEntity
  8
0
  6
Continuous
 62
     7
370
    15
100
AcDbSpline
210
0.0
220
0.0
230
1.0
 70
     8
 71
     3
 72
     8
 73
     4
 74
     0
 42
0.000000001
 43
0.00000001
 40
0.0
 40
0.0
 40
0.0
 40
0.0
 40
0.0012417047560385
 40
0.0012417047560385
 40
0.0012417047560385
 40
0.0012417047560385
 10
161.1501315553544
 20
69.72432684145369
 30
0.0
 10
161.3364457949798
 20
69.98567098857093
 30
0.0
 10
161.5223120405877
 20
70.24717509744853
 30
0.0
 10
161.7077005918822
 20
70.5088481829971
 30
0.0
  0
SPLINE
  5
A4
330
1F
100
AcDbEntity
  8
0
  6
Continuous
 62
     7
370
    15
100
AcDbSpline
210
0.0
220
0.0
230
1.0
 70
     8
 71
     3
 72
    12
 73
     8
 74
     0
 42
0.000000001
 43
0.00000001
 40
0.0
 40
0.0
 40
0.0
 40
0.0
 40
0.2500000000000049
 40
0.2500000000000049
 40
0.5000000000000098
 40
0.5000000000000098
 40
1.0
 40
1.0
 40
1.0
 40
1.0
 10
172.1009446441081
 20
159.2688157162294
 30
0.0
 10
172.0647242227211
 20
159.1982086481296
 30
0.0
 10
172.0217985480733
 20
159.1344740568038
 30
0.0
 10
171.9242719648143
 20
159.0186998805554
 30
0.0
 10
171.8688404451976
 20
158.9661520365439
 30
0.0
 10
171.6903525422935
 20
158.8320034333296
 30
0.0
 10
171.5535157136456
 20
158.7714813312657
 30
0.0
 10
171.4081243210812
 20
158.7509347473373
 30
0.0
  0
SPLINE
  5
A5
330
1F
100
AcDbEntity
  8
0
  6
Continuous
 62
     7
370
    15
100
AcDbSpline
210
0.0
220
0.0
230
1.0
 70
     8
 71
     3
 72
    12
 73
     8
 74
     0
 42
0.000000001
 43
0.00000001
 40
0.0
 40
0.0
 40
0.0
 40
0.0
 40
0.249999999999999
 40
0.249999999999999
 40
0.499999999999998
 40
0.499999999999998
 40
1.0
 40
1.0
 40
1.0
 40
1.0
 10
172.1009446441081
 20
76.39002095760675
 30
0.0
 10
172.0647242227211
 20
76.46062802570668
 30
0.0
 10
172.0217985480732
 20
76.5243626170324
 30
0.0
 10
171.9242719648142
 20
76.64013679328083
 30
0.0
 10
171.8688404451975
 20
76.69268463729225
 30
0.0
 10
171.6903525422933
 20
76.82683324050663
 30
0.0
 10
171.5535157136456
 20
76.88735534257043
 30
0.0
 10
171.4081243210812
 20
76.90790192649884
 30
0.0
  0
SPLINE
  5
A6
330
1F
100
AcDbEntity
  8
0
  6
Continuous
 62
     7
370
    15
100
AcDbSpline
210
0.0
220
0.0
230
1.0
 70
     8
 71
     3
 72
    10
 73
     6
 74
     0
 42
0.000000001
 43
0.00000001
 40
0.0
 40
0.0
 40
0.0
 40
0.0
 40
0.5
 40
0.5
 40
1.0
 40
1.0
 40
1.0
 40
1.0
 10
165.6251315553544
 20
77.24988712276888
 30
0.0
 10
165.5461314871031
 20
77.214122888161
 30
0.0
 10
165.4723742368265
 20
77.16463328460155
 30
0.0
 10
165.3443191136933
 20
77.0443447930986
 30
0.0
 10
165.2914690792817
 20
76.97566264010928
 30
0.0
 10
165.2493184666007
 20
76.89914225673505
 30
0.0
  0
SPLINE
  5
A7
330
1F
100
AcDbEntity
  8
0
  6
Continuous
 62
     7
370
    15
100
AcDbSpline
210
0.0
220
0.0
230
1.0
 70
     8
 71
     3
 72
    10
 73
     6
 74
     0
 42
0.000000001
 43
0.00000001
 40
0.0
 40
0.0
 40
0.0
 40
0.0
 40
0.5
 40
0.5
 40
1.0
 40
1.0
 40
1.0
 40
1.0
 10
165.6251315553544
 20
158.4089495510672
 30
0.0
 10
165.5458451076717
 20
158.4448434329197
 30
0.0
 10
165.472332888551
 20
158.4943451427707
 30
0.0
 10
165.3453804356804
 20
158.6133928394393
 30
0.0
 10
165.2913145869438
 20
158.6834544997076
 30
0.0
 10
165.2493184666007
 20
158.7596944171011
 30
0.0
  0
SPLINE
  5
A8
330
1F
100
AcDbEntity
  8
0
  6
Continuous
 62
     7
370
    15
100
AcDbSpline
210
0.0
220
0.0
230
1.0
 70
     8
 71
     3
 72
     8
 73
     4
 74
     0
 42
0.000000001
 43
0.00000001
 40
0.0
 40
0.0
 40
0.0
 40
0.0
 40
1.0
 40
1.0
 40
1.0
 40
1.0
 10
165.9421387896283
 20
158.3414905325807
 30
0.0
 10
165.8324370043266
 20
158.3406321153813
 30
0.0
 10
165.7250899833421
 20
158.3636972272562
 30
0.0
 10
165.6251315553544
 20
158.4089495510671
 30
0.0
  0
SPLINE
  5
A9
330
1F
100
AcDbEntity
  8
0
  6
Continuous
 62
     7
370
    15
100
AcDbSpline
210
0.0
220
0.0
230
1.0
 70
     8
 71
     3
 72
     8
 73
     4
 74
     0
 42
0.000000001
 43
0.00000001
 40
0.0
 40
0.0
 40
0.0
 40
0.0
 40
1.0
 40
1.0
 40
1.0
 40
1.0
 10
165.9421387896283
 20
77.3173461412554
 30
0.0
 10
165.8324370043266
 20
77.31820455845474
 30
0.0
 10
165.7250899833421
 20
77.29513944657995
 30
0.0
 10
165.6251315553543
 20
77.24988712276904
 30
0.0
  0
SPLINE
  5
AA
330
1F
100
AcDbEntity
  8
0
  6
Continuous
 62
     7
370
    15
100
AcDbSpline
210
0.0
220
0.0
230
1.0
 70
    11
 71
     3
 72
    66
 73
    62
 74
     0
 42
0.000000001
 43
0.00000001
 40
0.0
 40
0.0
 40
0.0
 40
0.0
 40
0.0312499999999999
 40
0.0312499999999999
 40
0.0624999999999999
 40
0.0624999999999999
 40
0.0937499999999998
 40
0.0937499999999998
 40
0.1249999999999997
 40
0.1249999999999997
 40
0.1562499999999997
 40
0.1562499999999997
 40
0.1874999999999996
 40
0.1874999999999996
 40
0.2187499999999995
 40
0.2187499999999995
 40
0.2499999999999994
 40
0.2499999999999994
 40
0.2812499999999994
 40
0.2812499999999994
 40
0.3124999999999993
 40
0.3124999999999993
 40
0.3437499999999992
 40
0.3437499999999992
 40
0.3749999999999992
 40
0.3749999999999992
 40
0.4062499999999991
 40
0.4062499999999991
 40
0.437499999999999
 40
0.437499999999999
 40
0.4687499999999989
 40
0.4687499999999989
 40
0.4999999999999989
 40
0.4999999999999989
 40
0.5312499999999988
 40
0.5312499999999988
 40
0.5624999999999988
 40
0.5624999999999988
 40
0.6249999999999987
 40
0.6249999999999987
 40
0.6562499999999988
 40
0.6562499999999988
 40
0.6874999999999989
 40
0.6874999999999989
 40
0.7187499999999991
 40
0.7187499999999991
 40
0.7499999999999992
 40
0.7499999999999992
 40
0.7812499999999993
 40
0.7812499999999993
 40
0.8124999999999996
 40
0.8124999999999996
 40
0.8437499999999997
 40
0.8437499999999997
 40
0.8749999999999998
 40
0.8749999999999998
 40
0.90625
 40
0.90625
 40
0.9375000000000001
 40
0.9375000000000001
 40
1.0
 40
1.0
 40
1.0
 40
1.0
 10
168.6751315553544
 20
100.9695010260747
 30
0.0
 10
168.8403318460183
 20
100.9695010260747
 30
0.0
 10
169.0027643873148
 20
100.9844070554325
 30
0.0
 10
169.3223225429049
 20
101.042842234175
 30
0.0
 10
169.4811058808819
 20
101.0870832865507
 30
0.0
 10
169.7838438973613
 20
101.2026748319732
 30
0.0
 10
169.9274230624956
 20
101.2734508021919
 30
0.0
 10
170.1991527923636
 20
101.4408893341045
 30
0.0
 10
170.3277813559013
 20
101.5384286064252
 30
0.0
 10
170.5583471175685
 20
101.7518469666266
 30
0.0
 10
170.6618211188179
 20
101.8684616186527
 30
0.0
 10
170.8445816567437
 20
102.1221869826724
 30
0.0
 10
170.9222259129723
 20
102.2574798417412
 30
0.0
 10
171.0469185636624
 20
102.5378261971328
 30
0.0
 10
171.0949225442408
 20
102.6849470729688
 30
0.0
 10
171.1591542865591
 20
102.9869371773461
 30
0.0
 10
171.1750437306012
 20
103.1390609449153
 30
0.0
 10
171.1752186609564
 20
103.4455435877416
 30
0.0
 10
171.1589880096215
 20
103.6015295088073
 30
0.0
 10
171.0952067869119
 20
103.9041089777766
 30
0.0
 10
171.0480146755157
 20
104.0514874891688
 30
0.0
 10
170.9228480578577
 20
104.3382761945465
 30
0.0
 10
170.8445885704827
 20
104.4772332960844
 30
0.0
 10
170.6636683871274
 20
104.7348269563524
 30
0.0
 10
170.5603831582035
 20
104.8551195000534
 30
0.0
 10
170.3271314161548
 20
105.0778403177001
 30
0.0
 10
170.2007175478892
 20
105.1768182216919
 30
0.0
 10
169.9300452771946
 20
105.3500350763011
 30
0.0
 10
169.7839635050303
 20
105.4250161137778
 30
0.0
 10
169.4810790595574
 20
105.5453442838736
 30
0.0
 10
169.3252486999177
 20
105.5907279713628
 30
0.0
 10
169.0049032106523
 20
105.6521542317838
 30
0.0
 10
168.8391931246806
 20
105.6679078533035
 30
0.0
 10
168.5128617359841
 20
105.668020098559
 30
0.0
 10
168.3506746501571
 20
105.652887868653
 30
0.0
 10
168.0282990689486
 20
105.5916357554726
 30
0.0
 10
167.8702835949111
 20
105.5456290120973
 30
0.0
 10
167.4188727198355
 20
105.3667482828554
 30
0.0
 10
167.1397932627833
 20
105.1885961755564
 30
0.0
 10
166.7937195582849
 20
104.8590997592694
 30
0.0
 10
166.6880775423703
 20
104.7367269194294
 30
0.0
 10
166.5062940663995
 20
104.4783242153148
 30
0.0
 10
166.4294062430156
 20
104.3420926497665
 30
0.0
 10
166.3037516856452
 20
104.0556571878804
 30
0.0
 10
166.2554436097306
 20
103.9053501033049
 30
0.0
 10
166.1916257242902
 20
103.6037821732204
 30
0.0
 10
166.1752975472474
 20
103.4509161107558
 30
0.0
 10
166.1749680571877
 20
103.1409009940124
 30
0.0
 10
166.1910645690224
 20
102.9880319936597
 30
0.0
 10
166.2542933062836
 20
102.6889992278849
 30
0.0
 10
166.3021298996941
 20
102.540933631462
 30
0.0
 10
166.4274732176075
 20
102.2583765933165
 30
0.0
 10
166.5041698921327
 20
102.1247602611928
 30
0.0
 10
166.6852212587845
 20
101.8724703912606
 30
0.0
 10
166.7906968691454
 20
101.7531270821927
 30
0.0
 10
167.0212234378216
 20
101.5394433027079
 30
0.0
 10
167.1469428754519
 20
101.4437833280482
 30
0.0
 10
167.4197097246488
 20
101.2750622590443
 30
0.0
 10
167.5654291010548
 20
101.2031950503911
 30
0.0
 10
168.0164982061629
 20
101.0305439731226
 30
0.0
 10
168.3447309740266
 20
100.9695010260747
 30
0.0
 10
168.6751315553544
 20
100.9695010260747
 30
0.0
  0
SPLINE
  5
AB
330
1F
100
AcDbEntity
  8
0
  6
Continuous
 62
     7
370
    15
100
AcDbSpline
210
0.0
220
0.0
230
1.0
 70
     8
 71
     3
 72
    10
 73
     6
 74
     0
 42
0.000000001
 43
0.00000001
 40
0.0
 40
0.0
 40
0.0
 40
0.0
 40
0.5
 40
0.5
 40
1.0
 40
1.0
 40
1.0
 40
1.0
 10
171.4081243210805
 20
158.7509347473401
 30
0.0
 10
170.5605599543123
 20
158.6311576952791
 30
0.0
 10
169.6798465185904
 20
158.5324675156152
 30
0.0
 10
167.8522902673748
 20
158.3911951093781
 30
0.0
 10
166.8988578642735
 20
158.3489768657005
 30
0.0
 10
165.9421387896283
 20
158.3414905325807
 30
0.0
  0
SPLINE
  5
AC
330
1F
100
AcDbEntity
  8
0
  6
Continuous
 62
     7
370
    15
100
AcDbSpline
210
0.0
220
0.0
230
1.0
 70
     8
 71
     3
 72
    10
 73
     6
 74
     0
 42
0.000000001
 43
0.00000001
 40
0.0
 40
0.0
 40
0.0
 40
0.0
 40
0.5
 40
0.5
 40
1.0
 40
1.0
 40
1.0
 40
1.0
 10
171.4081243210805
 20
76.90790192649602
 30
0.0
 10
170.5605599543123
 20
77.02767897855706
 30
0.0
 10
169.6798465185904
 20
77.12636915822088
 30
0.0
 10
167.8522902673748
 20
77.267641564458
 30
0.0
 10
166.8988578642735
 20
77.30985980813561
 30
0.0
 10
165.9421387896283
 20
77.31734614125541
 30
0.0
  0
LINE
  5
AD
330
1F
100
AcDbEntity
  8
0
  6
Continuous
 62
     7
370
    15
100
AcDbLine
 10
145.4751315554
 20
82.9044183369
 30
0.0
 11
145.4751315554
 21
152.7544183369
 31
0.0
  0
SPLINE
  5
AE
330
1F
100
AcDbEntity
  8
0
  6
Continuous
 62
     7
370
    15
100
AcDbSpline
210
0.0
220
0.0
230
1.0
 70
     8
 71
     3
 72
    27
 73
    23
 74
     0
 42
0.000000001
 43
0.00000001
 40
0.0
 40
0.0
 40
0.0
 40
0.0
 40
0.0076488152377502
 40
0.0538171996058476
 40
0.0960392788541613
 40
0.1393570464977741
 40
0.1842434188309653
 40
0.2301613845254119
 40
0.2807933172095161
 40
0.332600482601817
 40
0.389251629724794
 40
0.4473648538811134
 40
0.507346365958514
 40
0.5690274121802164
 40
0.6296608243176537
 40
0.692099934158003
 40
0.7517523289162213
 40
0.8134222918514231
 40
0.8682682474729297
 40
0.9252615836570435
 40
0.9723202994648227
 40
1.0
 40
1.0
 40
1.0
 40
1.0
 10
242.9129930765328
 20
142.8266253683261
 30
0.0
 10
242.9168356054042
 20
142.8275094195783
 30
0.0
 10
242.9438717066609
 20
142.8337296198611
 30
0.0
 10
242.8252780137529
 20
142.8063215424876
 30
0.0
 10
242.560366303585
 20
142.746581174089
 30
0.0
 10
242.1426878453051
 20
142.6562435921716
 30
0.0
 10
241.5861595214343
 20
142.5436517218871
 30
0.0
 10
240.8772086781894
 20
142.4130868346729
 30
0.0
 10
240.0219729980947
 20
142.2753790195167
 30
0.0
 10
239.0042414066988
 20
142.140661576887
 30
0.0
 10
237.8543049194642
 20
142.0274490579294
 30
0.0
 10
236.5863125077679
 20
141.9523845920721
 30
0.0
 10
235.2505639972347
 20
141.9301239580461
 30
0.0
 10
233.9004225483984
 20
141.967742959684
 30
0.0
 10
232.5755560660607
 20
142.0624659554388
 30
0.0
 10
231.3457801928069
 20
142.2010539997445
 30
0.0
 10
230.2293580388776
 20
142.3676303960973
 30
0.0
 10
229.3132759003988
 20
142.5328924031171
 30
0.0
 10
228.5969514110261
 20
142.67906534432
 30
0.0
 10
228.1539179408055
 20
142.7768580950824
 30
0.0
 10
227.9375230442162
 20
142.8265489360942
 30
0.0
 10
227.9467407754328
 20
142.8244356937972
 30
0.0
 10
227.9501546026474
 20
142.8236530452371
 30
0.0
  0
SPLINE
  5
AF
330
1F
100
AcDbEntity
  8
0
  6
Continuous
 62
     7
370
    15
100
AcDbSpline
210
0.0
220
0.0
230
1.0
 70
    11
 71
     3
 72
    96
 73
    92
 74
     0
 42
0.000000001
 43
0.00000001
 40
0.0
 40
0.0
 40
0.0
 40
0.0
 40
0.0312499999999997
 40
0.0312499999999997
 40
0.0468749999999999
 40
0.0468749999999999
 40
0.0625000000000002
 40
0.0625000000000002
 40
0.0937500000000007
 40
0.0937500000000007
 40
0.109375000000001
 40
0.109375000000001
 40
0.1250000000000012
 40
0.1250000000000012
 40
0.1562500000000008
 40
0.1562500000000008
 40
0.1718750000000006
 40
0.1718750000000006
 40
0.1875000000000004
 40
0.1875000000000004
 40
0.21875
 40
0.21875
 40
0.2343750000000002
 40
0.2343750000000002
 40
0.2500000000000004
 40
0.2500000000000004
 40
0.2812500000000001
 40
0.2812500000000001
 40
0.2968750000000003
 40
0.2968750000000003
 40
0.3125000000000005
 40
0.3125000000000005
 40
0.3437500000000012
 40
0.3437500000000012
 40
0.3593750000000015
 40
0.3593750000000015
 40
0.3750000000000018
 40
0.3750000000000018
 40
0.3906250000000022
 40
0.3906250000000022
 40
0.4062500000000026
 40
0.4062500000000026
 40
0.4375000000000033
 40
0.4375000000000033
 40
0.4531250000000034
 40
0.4531250000000034
 40
0.4687500000000036
 40
0.4687500000000036
 40
0.5000000000000032
 40
0.5000000000000032
 40
0.5312500000000029
 40
0.5312500000000029
 40
0.5468750000000032
 40
0.5468750000000032
 40
0.5625000000000034
 40
0.5625000000000034
 40
0.5937500000000031
 40
0.5937500000000031
 40
0.6250000000000027
 40
0.6250000000000027
 40
0.6562500000000022
 40
0.6562500000000022
 40
0.6875000000000018
 40
0.6875000000000018
 40
0.7187500000000013
 40
0.7187500000000013
 40
0.7500000000000009
 40
0.7500000000000009
 40
0.7656250000000011
 40
0.7656250000000011
 40
0.7812500000000013
 40
0.7812500000000013
 40
0.812500000000001
 40
0.812500000000001
 40
0.8281250000000008
 40
0.8281250000000008
 40
0.8437500000000007
 40
0.8437500000000007
 40
0.8750000000000006
 40
0.8750000000000006
 40
0.8906250000000006
 40
0.8906250000000006
 40
0.9062500000000004
 40
0.9062500000000004
 40
0.9218750000000004
 40
0.9218750000000004
 40
0.9375000000000004
 40
0.9375000000000004
 40
0.9687500000000002
 40
0.9687500000000002
 40
1.0
 40
1.0
 40
1.0
 40
1.0
 10
230.4238702534349
 20
122.7443888826005
 30
0.0
 10
230.7876932437378
 20
123.0322514601859
 30
0.0
 10
231.1728877001886
 20
123.2815168431611
 30
0.0
 10
231.7800856320893
 20
123.6032760258752
 30
0.0
 10
231.9874285501516
 20
123.7017599739745
 30
0.0
 10
232.4120095817417
 20
123.8813184276894
 30
0.0
 10
232.6302439539785
 20
123.9626987051406
 30
0.0
 10
233.292510149588
 20
124.1777788753906
 30
0.0
 10
233.7413762966655
 20
124.2822502866006
 30
0.0
 10
234.4253079088121
 20
124.3832693376212
 30
0.0
 10
234.6550683815811
 20
124.4075976213518
 30
0.0
 10
235.118218421463
 20
124.437282706503
 30
0.0
 10
235.3525371216532
 20
124.4425618217114
 30
0.0
 10
236.0488805448542
 20
124.429370486532
 30
0.0
 10
236.5072632482272
 20
124.3826011549415
 30
0.0
 10
237.1862319509165
 20
124.2562902261579
 30
0.0
 10
237.4111124341988
 20
124.2047696554135
 30
0.0
 10
237.8579119521508
 20
124.0822983453384
 30
0.0
 10
238.0804880907612
 20
124.0110162103555
 30
0.0
 10
238.7309893031631
 20
123.7714538032689
 30
0.0
 10
239.145740506838
 20
123.5768911951501
 30
0.0
 10
239.7392971689706
 20
123.231542748079
 30
0.0
 10
239.9323567947652
 20
123.1074497120096
 30
0.0
 10
240.3084307398914
 20
122.8402747164019
 30
0.0
 10
240.4917643006179
 20
122.6967462975672
 30
0.0
 10
241.0138349642484
 20
122.2461448852811
 30
0.0
 10
241.3291761375347
 20
121.9165720269192
 30
0.0
 10
241.7505137509796
 20
121.3753304541003
 30
0.0
 10
241.882283683516
 20
121.1870458755224
 30
0.0
 10
242.1270820450962
 20
120.7933478449035
 30
0.0
 10
242.2392924589881
 20
120.5888730858482
 30
0.0
 10
242.5373624323884
 20
119.9659186041126
 30
0.0
 10
242.6883301061869
 20
119.5330410135104
 30
0.0
 10
242.8380284047294
 20
118.8552393114432
 30
0.0
 10
242.8751236507883
 20
118.6226628893732
 30
0.0
 10
242.9203901147778
 20
118.1592171222163
 30
0.0
 10
242.9289064218569
 20
117.9279715676194
 30
0.0
 10
242.9183259167666
 20
117.466414559233
 30
0.0
 10
242.8992282530679
 20
117.2361031339252
 30
0.0
 10
242.8331406888061
 20
116.7764228568977
 30
0.0
 10
242.7856759047847
 20
116.545765450765
 30
0.0
 10
242.60501723152
 20
115.8723983374321
 30
0.0
 10
242.4339921438722
 20
115.4437036934024
 30
0.0
 10
242.1060710123866
 20
114.8289233878866
 30
0.0
 10
241.9849364497655
 20
114.6294136975944
 30
0.0
 10
241.7248436169756
 20
114.2481006067751
 30
0.0
 10
241.5853029932595
 20
114.0651602807514
 30
0.0
 10
241.1394651582489
 20
113.5382863195261
 30
0.0
 10
240.8026721166721
 20
113.2138329548052
 30
0.0
 10
240.0820119614517
 20
112.6403729859691
 30
0.0
 10
239.6971838283059
 20
112.3890653601993
 30
0.0
 10
239.0844272966922
 20
112.0625234830734
 30
0.0
 10
238.8736900116135
 20
111.9620245379441
 30
0.0
 10
238.4478302639929
 20
111.781228051212
 30
0.0
 10
238.2318552130039
 20
111.7004215872378
 30
0.0
 10
237.5750310773184
 20
111.4858295816231
 30
0.0
 10
237.125354936216
 20
111.3796342872366
 30
0.0
 10
236.2018412616814
 20
111.2420111912428
 30
0.0
 10
235.7384905741251
 20
111.2123573716489
 30
0.0
 10
234.8159258513259
 20
111.2285631638384
 30
0.0
 10
234.3554310405984
 20
111.2742524526285
 30
0.0
 10
233.4365650614078
 20
111.4445372382583
 30
0.0
 10
232.9914763060893
 20
111.5666509115561
 30
0.0
 10
232.1290801174685
 20
111.8833023448571
 30
0.0
 10
231.7109680304096
 20
112.078243019813
 30
0.0
 10
230.9078492344408
 20
112.545425498663
 30
0.0
 10
230.5339746144041
 20
112.8110169977396
 30
0.0
 10
230.014869068293
 20
113.2584912164769
 30
0.0
 10
229.8488347825711
 20
113.4158889891954
 30
0.0
 10
229.5314747462943
 20
113.7481514126567
 30
0.0
 10
229.3794177144219
 20
113.9239659287525
 30
0.0
 10
228.952379242109
 20
114.4733924998752
 30
0.0
 10
228.7102646631334
 20
114.8627087250569
 30
0.0
 10
228.4132922092437
 20
115.4829715530294
 30
0.0
 10
228.3254183064582
 20
115.6958182952531
 30
0.0
 10
228.1734851361686
 20
116.1346267704992
 30
0.0
 10
228.1094666514443
 20
116.3614356764364
 30
0.0
 10
227.9605696641512
 20
117.0414940260726
 30
0.0
 10
227.9157224053809
 20
117.5007697635577
 30
0.0
 10
227.9322658004009
 20
118.1987977626528
 30
0.0
 10
227.9522023996168
 20
118.4341530099664
 30
0.0
 10
228.0194058522369
 20
118.8948228874831
 30
0.0
 10
228.0665699856893
 20
119.1216035199123
 30
0.0
 10
228.1870459394675
 20
119.5683297559209
 30
0.0
 10
228.2603602080022
 20
119.7882746873102
 30
0.0
 10
228.4330435405184
 20
120.221380791975
 30
0.0
 10
228.5321250460494
 20
120.4333912354443
 30
0.0
 10
228.860150876014
 20
121.0450974944876
 30
0.0
 10
229.1213599507547
 20
121.4254729107204
 30
0.0
 10
229.7243398372824
 20
122.1350091041954
 30
0.0
 10
230.0600472631319
 20
122.456526305015
 30
0.0
 10
230.4238702534349
 20
122.7443888826004
 30
0.0
  0
LINE
  5
B0
330
1F
100
AcDbEntity
  8
0
  6
Continuous
 62
     7
370
    15
100
AcDbLine
 10
248.9751315554
 20
117.8294183369
 30
0.0
 11
248.9751315554
 21
92.8294183369
 31
0.0
  0
LINE
  5
B1
330
1F
100
AcDbEntity
  8
0
  6
Continuous
 62
     7
370
    15
100
AcDbLine
 10
248.9751315554
 20
142.8294183369
 30
0.0
 11
248.9751315554
 21
117.8294183369
 31
0.0
  0
LINE
  5
B2
330
1F
100
AcDbEntity
  8
0
  6
Continuous
 62
     7
370
    15
100
AcDbLine
 10
249.4751315554
 20
117.8294183369
 30
0.0
 11
249.4751315554
 21
93.3294183369
 31
0.0
  0
LINE
  5
B3
330
1F
100
AcDbEntity
  8
0
  6
Continuous
 62
     7
370
    15
100
AcDbLine
 10
249.4751315554
 20
142.3294183369
 30
0.0
 11
249.4751315554
 21
117.8294183369
 31
0.0
  0
CIRCLE
  5
B4
330
1F
100
AcDbEntity
  8
0
  6
Continuous
 62
     7
370
    15
100
AcDbCircle
 10
235.4251315554
 20
117.8294183369
 30
0.0
 40
5.5
  0
LINE
  5
B5
330
1F
100
AcDbEntity
  8
0
  6
Continuous
 62
     7
370
    15
100
AcDbLine
 10
43.6751315554
 20
99.4797404762
 30
0.0
 11
43.6751315554
 21
136.1790961926
 31
0.0
  0
SPLINE
  5
B6
330
1F
100
AcDbEntity
  8
0
  6
Continuous
 62
     7
370
    15
100
AcDbSpline
210
0.0
220
0.0
230
1.0
 70
    24
 71
     3
 72
    12
 73
     8
 74
     0
 42
0.000000001
 43
0.00000001
 40
0.0
 40
0.0
 40
0.0
 40
0.0
 40
0.2161857461390009
 40
0.4397628073511793
 40
0.5934185666353952
 40
0.7522096186329027
 40
0.9999999999999999
 40
0.9999999999999999
 40
0.9999999999999999
 40
0.9999999999999999
 10
233.6602677260995
 20
114.8486037394988
 30
0.0
 10
233.8974410615034
 20
114.8460012150666
 30
0.0
 10
234.379896605723
 20
114.8407071868016
 30
0.0
 10
235.0891903584293
 20
114.8329240423858
 30
0.0
 10
235.7376745673488
 20
114.8258081665863
 30
0.0
 10
236.4037056311219
 20
114.8184997475638
 30
0.0
 10
236.8513466986438
 20
114.8135877416963
 30
0.0
 10
237.1241608060636
 20
114.8105941278534
 30
0.0
  0
SPLINE
  5
B7
330
1F
100
AcDbEntity
  8
0
  6
Continuous
 62
     7
370
    15
100
AcDbSpline
210
0.0
220
0.0
230
1.0
 70
    24
 71
     3
 72
    12
 73
     8
 74
     0
 42
0.000000001
 43
0.00000001
 40
0.0
 40
0.0
 40
0.0
 40
0.0
 40
0.2161857461389855
 40
0.4397628073511844
 40
0.5934185666353846
 40
0.7522096186328705
 40
0.9999999999999999
 40
0.9999999999999999
 40
0.9999999999999999
 40
0.9999999999999999
 10
237.1241608060636
 20
114.8105941278534
 30
0.0
 10
237.2450013260378
 20
115.0146909991973
 30
0.0
 10
237.4908138611134
 20
115.4298627425557
 30
0.0
 10
237.852201138252
 20
116.0402375789369
 30
0.0
 10
238.1826057719243
 20
116.5982834399146
 30
0.0
 10
238.5219505803459
 20
117.1714290513403
 30
0.0
 10
238.7500250359716
 20
117.5566415846577
 30
0.0
 10
238.8890246353185
 20
117.7914087252726
 30
0.0
  0
SPLINE
  5
B8
330
1F
100
AcDbEntity
  8
0
  6
Continuous
 62
     7
370
    15
100
AcDbSpline
210
0.0
220
0.0
230
1.0
 70
    24
 71
     3
 72
    13
 73
     9
 74
     0
 42
0.000000001
 43
0.00000001
 40
0.0
 40
0.0
 40
0.0
 40
0.0
 40
0.184409569709905
 40
0.3495005370884529
 40
0.5197705331556556
 40
0.6927076360809697
 40
0.8718061725834262
 40
1.0
 40
1.0
 40
1.0
 40
1.0
 10
238.8890246353185
 20
117.7914087252726
 30
0.0
 10
238.7900007178077
 20
117.9673537829185
 30
0.0
 10
238.6023265509569
 20
118.3008120315442
 30
0.0
 10
238.304000082527
 20
118.830876575592
 30
0.0
 10
238.002534921355
 20
119.3665179286501
 30
0.0
 10
237.6944190141402
 20
119.9139762843614
 30
0.0
 10
237.422710852025
 20
120.3967455935132
 30
0.0
 10
237.258499707044
 20
120.6885148962843
 30
0.0
 10
237.1899953846094
 20
120.8102329343373
 30
0.0
  0
SPLINE
  5
B9
330
1F
100
AcDbEntity
  8
0
  6
Continuous
 62
     7
370
    15
100
AcDbSpline
210
0.0
220
0.0
230
1.0
 70
    24
 71
     3
 72
    12
 73
     8
 74
     0
 42
0.000000001
 43
0.00000001
 40
0.0
 40
0.0
 40
0.0
 40
0.0
 40
0.216185746138994
 40
0.4397628073512053
 40
0.5934185666353978
 40
0.7522096186328863
 40
1.0
 40
1.0
 40
1.0
 40
1.0
 10
237.1899953846095
 20
120.8102329343373
 30
0.0
 10
236.9528220492057
 20
120.8128354587696
 30
0.0
 10
236.4703665049859
 20
120.8181294870345
 30
0.0
 10
235.7610727522797
 20
120.8259126314505
 30
0.0
 10
235.1125885433601
 20
120.8330285072499
 30
0.0
 10
234.4465574795871
 20
120.8403369262724
 30
0.0
 10
233.9989164120653
 20
120.8452489321399
 30
0.0
 10
233.7261023046454
 20
120.8482425459827
 30
0.0
  0
SPLINE
  5
BA
330
1F
100
AcDbEntity
  8
0
  6
Continuous
 62
     7
370
    15
100
AcDbSpline
210
0.0
220
0.0
230
1.0
 70
    24
 71
     3
 72
    12
 73
     8
 74
     0
 42
0.000000001
 43
0.00000001
 40
0.0
 40
0.0
 40
0.0
 40
0.0
 40
0.2161857461389813
 40
0.4397628073511864
 40
0.5934185666353954
 40
0.7522096186328938
 40
1.0
 40
1.0
 40
1.0
 40
1.0
 10
233.7261023046454
 20
120.8482425459827
 30
0.0
 10
233.6052617846712
 20
120.6441456746389
 30
0.0
 10
233.3594492495957
 20
120.2289739312805
 30
0.0
 10
232.9980619724568
 20
119.6185990948993
 30
0.0
 10
232.6676573387846
 20
119.0605532339216
 30
0.0
 10
232.3283125303632
 20
118.4874076224958
 30
0.0
 10
232.1002380747375
 20
118.1021950891784
 30
0.0
 10
231.9612384753905
 20
117.8674279485635
 30
0.0
  0
SPLINE
  5
BB
330
1F
100
AcDbEntity
  8
0
  6
Continuous
 62
     7
370
    15
100
AcDbSpline
210
0.0
220
0.0
230
1.0
 70
    24
 71
     3
 72
    13
 73
     9
 74
     0
 42
0.000000001
 43
0.00000001
 40
0.0
 40
0.0
 40
0.0
 40
0.0
 40
0.1281940639112352
 40
0.3016059688761486
 40
0.4802226824374615
 40
0.6449624637537956
 40
0.8155900900874788
 40
1.0
 40
1.0
 40
1.0
 40
1.0
 10
231.9612384753905
 20
117.8674279485635
 30
0.0
 10
232.0297448033612
 20
117.7457063470866
 30
0.0
 10
232.1909216690551
 20
117.4593283321731
 30
0.0
 10
232.462300850452
 20
116.9771435538388
 30
0.0
 10
232.7671611755592
 20
116.4354696954088
 30
0.0
 10
233.0719286041534
 20
115.8939608949036
 30
0.0
 10
233.3706061443814
 20
115.3632725687504
 30
0.0
 10
233.5612470215432
 20
115.024543088388
 30
0.0
 10
233.6602677260995
 20
114.8486037394988
 30
0.0
  0
CIRCLE
  5
BC
330
1F
100
AcDbEntity
  8
0
  6
Continuous
 62
     7
370
    15
100
AcDbCircle
 10
235.4251315554
 20
117.8294183369
 30
0.0
 40
3.599999999999989
  0
CIRCLE
  5
BD
330
1F
100
AcDbEntity
  8
0
  6
Continuous
 62
     7
370
    15
100
AcDbCircle
 10
235.4251315554
 20
117.8294183369
 30
0.0
 40
5.299999999999989
  0
ARC
  5
BE
330
1F
100
AcDbEntity
  8
0
  6
Continuous
 62
     7
370
    15
100
AcDbCircle
 10
235.4251315554
 20
117.8294183369
 30
0.0
 40
3.000000000000011
100
AcDbArc
 50
149.3713134684
 51
209.3713134684
  0
ARC
  5
BF
330
1F
100
AcDbEntity
  8
0
  6
Continuous
 62
     7
370
    15
100
AcDbCircle
 10
235.4251315554
 20
117.8294183369
 30
0.0
 40
3.000000000000011
100
AcDbArc
 50
89.3713134684
 51
149.3713134684
  0
ARC
  5
C0
330
1F
100
AcDbEntity
  8
0
  6
Continuous
 62
     7
370
    15
100
AcDbCircle
 10
235.4251315554
 20
117.8294183369
 30
0.0
 40
3.000000000000037
100
AcDbArc
 50
269.3713134684
 51
329.3713134684
  0
ARC
  5
C1
330
1F
100
AcDbEntity
  8
0
  6
Continuous
 62
     7
370
    15
100
AcDbCircle
 10
235.4251315554
 20
117.8294183369
 30
0.0
 40
3.00000000000003
100
AcDbArc
 50
209.3713134684
 51
269.3713134684
  0
ARC
  5
C2
330
1F
100
AcDbEntity
  8
0
  6
Continuous
 62
     7
370
    15
100
AcDbCircle
 10
235.4251315554
 20
117.8294183369
 30
0.0
 40
2.999999999999984
100
AcDbArc
 50
29.3713134684
 51
89.3713134684
  0
ARC
  5
C3
330
1F
100
AcDbEntity
  8
0
  6
Continuous
 62
     7
370
    15
100
AcDbCircle
 10
235.4251315554
 20
117.8294183369
 30
0.0
 40
3.000000000000037
100
AcDbArc
 50
329.3713134684
 51
29.3713134684
  0
LWPOLYLINE
  5
C4
330
1F
100
AcDbEntity
  8
0
  6
Continuous
 62
     7
370
    15
100
AcDbPolyline
 90
       20
 70
   128
 43
0.0
 10
166.2363242051
 20
103.4634594989
 10
166.3097595643
 20
102.7101307194
 10
166.6395196813
 20
102.0200257986
 10
167.1898699306
 20
101.4679283128
 10
167.9011713232
 20
101.1136665912
 10
168.6963433161
 20
100.9956303884
 10
169.4892166856
 20
101.1266107584
 10
170.1938712995
 20
101.4924139457
 10
170.7339468963
 20
102.053399499
 10
171.0509179052
 20
102.748775929
 10
171.1104355989
 20
103.5031884096
 10
170.9060503119
 20
104.2348846427
 10
170.4599103614
 20
104.8645739879
 10
169.8203619335
 20
105.3240198341
 10
169.056710024
 20
105.5634340948
 10
168.2517081667
 20
105.5568725199
 10
167.4925908036
 20
105.3050461579
 10
166.86162008
 20
104.8352443026
 10
166.4271714643
 20
104.1983772748
 10
166.2363242051
 20
103.4634594989
  0
LINE
  5
C5
330
1F
100
AcDbEntity
  8
0
  6
Continuous
 62
     7
370
    15
100
AcDbLine
 10
169.4278887826
 20
101.8277150801
 30
0.0
 11
170.4024422241
 21
103.173230749
 31
0.0
  0
LINE
  5
C6
330
1F
100
AcDbEntity
  8
0
  6
Continuous
 62
     7
370
    15
100
AcDbLine
 10
169.6496849969
 20
104.6390779145
 30
0.0
 11
170.4024422241
 21
103.173230749
 31
0.0
  0
LINE
  5
C7
330
1F
100
AcDbEntity
  8
0
  6
Continuous
 62
     7
370
    15
100
AcDbLine
 10
167.9223743281
 20
104.7594094111
 30
0.0
 11
169.6496849969
 21
104.6390779145
 31
0.0
  0
LINE
  5
C8
330
1F
100
AcDbEntity
  8
0
  6
Continuous
 62
     7
370
    15
100
AcDbLine
 10
167.9223743281
 20
104.7594094111
 30
0.0
 11
166.9478208866
 21
103.4138937421
 31
0.0
  0
LINE
  5
C9
330
1F
100
AcDbEntity
  8
0
  6
Continuous
 62
     7
370
    15
100
AcDbLine
 10
167.7005781139
 20
101.9480465766
 30
0.0
 11
166.9478208866
 21
103.4138937421
 31
0.0
  0
LINE
  5
CA
330
1F
100
AcDbEntity
  8
0
  6
Continuous
 62
     7
370
    15
100
AcDbLine
 10
167.7005781139
 20
101.9480465766
 30
0.0
 11
169.4278887826
 21
101.8277150801
 31
0.0
  0
LINE
  5
CB
330
1F
100
AcDbEntity
  8
0
  6
Continuous
 62
     7
370
    15
100
AcDbLine
 10
167.7005781139
 20
102.6320868633
 30
0.0
 11
167.1533647763
 21
103.6976775886
 31
0.0
  0
LINE
  5
CC
330
1F
100
AcDbEntity
  8
0
  6
Continuous
 62
     7
370
    15
100
AcDbLine
 10
167.7005781139
 20
102.6320868633
 30
0.0
 11
167.7005781139
 21
101.9480465766
 31
0.0
  0
LINE
  5
CD
330
1F
100
AcDbEntity
  8
0
  6
Continuous
 62
     7
370
    15
100
AcDbLine
 10
169.4278887826
 20
102.5117553667
 30
0.0
 11
169.4278887826
 21
101.8277150801
 31
0.0
  0
LINE
  5
CE
330
1F
100
AcDbEntity
  8
0
  6
Continuous
 62
     7
370
    15
100
AcDbLine
 10
169.4278887826
 20
102.5117553667
 30
0.0
 11
170.1968983344
 21
103.5734871891
 31
0.0
  0
LINE
  5
CF
330
1F
100
AcDbEntity
  8
0
  6
Continuous
 62
     7
370
    15
100
AcDbLine
 10
167.7005781139
 20
102.6320868633
 30
0.0
 11
169.4278887826
 21
102.5117553667
 31
0.0
  0
SPLINE
  5
D0
330
1F
100
AcDbEntity
  8
0
  6
HIDDEN
 62
     7
370
     0
100
AcDbSpline
210
0.0
220
0.0
230
1.0
 70
     8
 71
     3
 72
     9
 73
     5
 74
     0
 42
0.000000001
 43
0.00000001
 40
0.0
 40
0.0
 40
0.0
 40
0.0
 40
0.3267154957258129
 40
1.0
 40
1.0
 40
1.0
 40
1.0
 10
178.0990990129653
 20
68.20565790074261
 30
0.0
 10
177.9423061396982
 20
68.24774012843731
 30
0.0
 10
177.4623996910652
 20
68.37654402125916
 30
0.0
 10
176.7081881574612
 20
68.55157066764627
 30
0.0
 10
176.2003892189408
 20
68.66941339649382
 30
0.0
  0
LWPOLYLINE
  5
D1
330
1F
100
AcDbEntity
  8
0
  6
HIDDEN
 62
     7
370
     0
100
AcDbPolyline
 90
       22
 70
   128
 43
0.0
 10
148.7445186672
 20
103.8002635343
 10
148.9409936432
 20
102.9290238784
 10
149.2471271886
 20
102.1351976892
 10
149.6357179945
 20
101.4893199074
 10
150.0722380624
 20
101.0487796082
 10
150.5179006687
 20
100.8527207306
 10
150.9331067351
 20
100.9185639662
 10
151.2809633805
 20
101.2404588545
 10
151.5305620153
 20
101.7898036221
 10
151.6597247055
 20
102.5177865758
 10
151.6569747793
 20
103.3597232352
 10
151.5225565797
 20
104.2408038335
 10
151.2684137537
 20
105.0827404929
 10
150.9171280065
 20
105.8107234465
 10
150.4999126184
 20
106.3600682142
 10
150.0538390076
 20
106.6819631025
 10
149.6185427719
 20
106.7478063381
 10
149.2327018922
 20
106.5517474604
 10
148.9306000239
 20
106.1112071613
 10
148.7390802437
 20
105.4653293795
 10
148.6751599245
 20
104.6715031903
 10
148.7445186672
 20
103.8002635343
  0
LWPOLYLINE
  5
D2
330
1F
100
AcDbEntity
  8
0
  6
HIDDEN
 62
     7
370
     0
100
AcDbPolyline
 90
       19
 70
   128
 43
0.0
 10
149.4573892558
 20
103.8562818526
 10
149.6257441783
 20
103.1486197774
 10
149.8945801321
 20
102.5263121924
 10
150.2314715334
 20
102.0644185767
 10
150.5957843074
 20
101.8186501172
 10
150.9435769567
 20
101.8186501172
 10
151.2329005551
 20
102.0644185767
 10
151.4288584066
 20
102.5263121924
 10
151.5078151022
 20
103.1486197774
 10
151.4602472992
 20
103.8562818526
 10
151.2918923767
 20
104.5639439278
 10
151.023056423
 20
105.1862515128
 10
150.6861650217
 20
105.6481451285
 10
150.3218522477
 20
105.893913588
 10
149.9740595983
 20
105.893913588
 10
149.684736
 20
105.6481451285
 10
149.4887781485
 20
105.1862515128
 10
149.4098214529
 20
104.5639439278
 10
149.4573892558
 20
103.8562818526
  0
SPLINE
  5
D3
330
1F
100
AcDbEntity
  8
0
  6
HIDDEN
 62
     7
370
     0
100
AcDbSpline
210
0.0
220
0.0
230
1.0
 70
    11
 71
     3
 72
    60
 73
    56
 74
     0
 42
0.000000001
 43
0.00000001
 40
0.0
 40
0.0
 40
0.0
 40
0.0
 40
0.03125
 40
0.03125
 40
0.0625000000000001
 40
0.0625000000000001
 40
0.1250000000000002
 40
0.1250000000000002
 40
0.1562500000000002
 40
0.1562500000000002
 40
0.1875000000000002
 40
0.1875000000000002
 40
0.2187500000000003
 40
0.2187500000000003
 40
0.2500000000000003
 40
0.2500000000000003
 40
0.3125000000000005
 40
0.3125000000000005
 40
0.3750000000000006
 40
0.3750000000000006
 40
0.4062500000000005
 40
0.4062500000000005
 40
0.4375000000000003
 40
0.4375000000000003
 40
0.4687500000000002
 40
0.4687500000000002
 40
0.5000000000000001
 40
0.5000000000000001
 40
0.5312499999999999
 40
0.5312499999999999
 40
0.5624999999999998
 40
0.5624999999999998
 40
0.625
 40
0.625
 40
0.65625
 40
0.65625
 40
0.6874999999999999
 40
0.6874999999999999
 40
0.7187499999999999
 40
0.7187499999999999
 40
0.7499999999999998
 40
0.7499999999999998
 40
0.7812499999999997
 40
0.7812499999999997
 40
0.8124999999999997
 40
0.8124999999999997
 40
0.8749999999999993
 40
0.8749999999999993
 40
0.9062499999999996
 40
0.9062499999999996
 40
0.9374999999999997
 40
0.9374999999999997
 40
0.9687499999999999
 40
0.9687499999999999
 40
1.0
 40
1.0
 40
1.0
 40
1.0
 10
168.6751315553544
 20
114.3046868879611
 30
0.0
 10
168.5056039587838
 20
114.3046868879611
 30
0.0
 10
168.3400061110763
 20
114.3164092958909
 30
0.0
 10
168.0158860344036
 20
114.3623445012326
 30
0.0
 10
167.8560759700781
 20
114.3971867319139
 30
0.0
 10
167.4067343675366
 20
114.5329945771403
 30
0.0
 10
167.1370516277613
 20
114.6674336645007
 30
0.0
 10
166.7988668390037
 20
114.930903617392
 30
0.0
 10
166.6953004053799
 20
115.030682181153
 30
0.0
 10
166.51484894308
 20
115.2492552999945
 30
0.0
 10
166.4377269768176
 20
115.3676744032988
 30
0.0
 10
166.3103090920104
 20
115.6253847724921
 30
0.0
 10
166.2598448992093
 20
115.766642605056
 30
0.0
 10
166.1930034865269
 20
116.0586548500561
 30
0.0
 10
166.1756852849778
 20
116.2103956738762
 30
0.0
 10
166.1740628930444
 20
116.6840457850965
 30
0.0
 10
166.2425508635881
 20
117.0133864379379
 30
0.0
 10
166.4966011699589
 20
117.6311839330261
 30
0.0
 10
166.6811840693143
 20
117.9204526389628
 30
0.0
 10
167.0185525397374
 20
118.2907372983764
 30
0.0
 10
167.1425417087042
 20
118.4051824956779
 30
0.0
 10
167.4087104539217
 20
118.6084880343674
 30
0.0
 10
167.5492471347457
 20
118.6964302061578
 30
0.0
 10
167.8469054700437
 20
118.8430298151686
 30
0.0
 10
168.0063728475862
 20
118.9021426183061
 30
0.0
 10
168.3319902317198
 20
118.9815949883141
 30
0.0
 10
168.4979572141068
 20
119.0025108858343
 30
0.0
 10
168.8367904601699
 20
119.0037604878718
 30
0.0
 10
169.0037811390051
 20
118.9839091526476
 30
0.0
 10
169.3294060527959
 20
118.9067945974778
 30
0.0
 10
169.4895372253529
 20
118.8487313403635
 30
0.0
 10
169.9402423847112
 20
118.6299385166927
 30
0.0
 10
170.210500885862
 20
118.4219055952135
 30
0.0
 10
170.5502156147638
 20
118.0518031769042
 30
0.0
 10
170.6541742586392
 20
117.9165632492737
 30
0.0
 10
170.8344833512608
 20
117.6348666865985
 30
0.0
 10
170.9119170598534
 20
117.4875283094491
 30
0.0
 10
171.040165914698
 20
117.1794963864688
 30
0.0
 10
171.0904812056148
 20
117.0185126759879
 30
0.0
 10
171.1572294521062
 20
116.7003633661597
 30
0.0
 10
171.1747029613024
 20
116.541076329775
 30
0.0
 10
171.1755447438327
 20
116.2222556050667
 30
0.0
 10
171.1587846463009
 20
116.068635517143
 30
0.0
 10
171.0930325027969
 20
115.7749460069081
 30
0.0
 10
171.0431776420234
 20
115.6332556089221
 30
0.0
 10
170.8522128564559
 20
115.243066521384
 30
0.0
 10
170.666916723486
 20
115.0214231676426
 30
0.0
 10
170.3280278226661
 20
114.7566272758733
 30
0.0
 10
170.2028459002629
 20
114.6780593671552
 30
0.0
 10
169.9369107642896
 20
114.5442699428455
 30
0.0
 10
169.7960551808908
 20
114.4885557356416
 30
0.0
 10
169.4963885844067
 20
114.3977208918488
 30
0.0
 10
169.336010402272
 20
114.3626414097427
 30
0.0
 10
169.0112732622233
 20
114.3164884261292
 30
0.0
 10
168.844659151925
 20
114.3046868879611
 30
0.0
 10
168.6751315553544
 20
114.3046868879611
 30
0.0
  0
SPLINE
  5
D4
330
1F
100
AcDbEntity
  8
0
  6
HIDDEN
 62
     7
370
     0
100
AcDbSpline
210
0.0
220
0.0
230
1.0
 70
    11
 71
     3
 72
    66
 73
    62
 74
     0
 42
0.000000001
 43
0.00000001
 40
0.0
 40
0.0
 40
0.0
 40
0.0
 40
0.0312500000000002
 40
0.0312500000000002
 40
0.0625000000000005
 40
0.0625000000000005
 40
0.0937500000000007
 40
0.0937500000000007
 40
0.125000000000001
 40
0.125000000000001
 40
0.1562500000000012
 40
0.1562500000000012
 40
0.1875000000000014
 40
0.1875000000000014
 40
0.2187500000000017
 40
0.2187500000000017
 40
0.2343750000000017
 40
0.2343750000000017
 40
0.2500000000000017
 40
0.2500000000000017
 40
0.2812500000000017
 40
0.2812500000000017
 40
0.3125000000000017
 40
0.3125000000000017
 40
0.3750000000000012
 40
0.3750000000000012
 40
0.4375000000000008
 40
0.4375000000000008
 40
0.4687500000000007
 40
0.4687500000000007
 40
0.5000000000000006
 40
0.5000000000000006
 40
0.5312500000000006
 40
0.5312500000000006
 40
0.5625000000000004
 40
0.5625000000000004
 40
0.5937500000000004
 40
0.5937500000000004
 40
0.6250000000000003
 40
0.6250000000000003
 40
0.6875
 40
0.6875
 40
0.7499999999999997
 40
0.7499999999999997
 40
0.78125
 40
0.78125
 40
0.8125000000000002
 40
0.8125000000000002
 40
0.8437500000000004
 40
0.8437500000000004
 40
0.8593750000000004
 40
0.8593750000000004
 40
0.8750000000000004
 40
0.8750000000000004
 40
0.9062500000000003
 40
0.9062500000000003
 40
0.9375000000000003
 40
0.9375000000000003
 40
0.9687500000000002
 40
0.9687500000000002
 40
1.0
 40
1.0
 40
1.0
 40
1.0
 10
166.2561564951347
 20
107.1734575115074
 30
0.0
 10
166.2165662074948
 20
107.3270710311983
 30
0.0
 10
166.1913052168133
 20
107.4793144587983
 30
0.0
 10
166.1701603107984
 20
107.7814193755468
 30
0.0
 10
166.174808022892
 20
107.9318995193887
 30
0.0
 10
166.2135016906776
 20
108.2143437926873
 30
0.0
 10
166.2477986497723
 20
108.3497904876605
 30
0.0
 10
166.3421094357217
 20
108.5989338862375
 30
0.0
 10
166.401255976015
 20
108.7114253032603
 30
0.0
 10
166.5395921607072
 20
108.9125922384955
 30
0.0
 10
166.6182286766579
 20
108.9998463946872
 30
0.0
 10
166.7827822286729
 20
109.1420560136366
 30
0.0
 10
166.8707169249346
 20
109.1985189415136
 30
0.0
 10
167.0382954712855
 20
109.2734278570602
 30
0.0
 10
167.1188923480928
 20
109.2922377761712
 30
0.0
 10
167.2137347135543
 20
109.287669899698
 30
0.0
 10
167.2406590189763
 20
109.2807956442191
 30
0.0
 10
167.2831876940276
 20
109.2567054763928
 30
0.0
 10
167.2986739830997
 20
109.2392978244432
 30
0.0
 10
167.3260983097879
 20
109.1754054481566
 30
0.0
 10
167.3197357062556
 20
109.1162356774237
 30
0.0
 10
167.2770855707202
 20
108.9828158693684
 30
0.0
 10
167.2415899634233
 20
108.9082604586064
 30
0.0
 10
167.1130526162533
 20
108.6659037273346
 30
0.0
 10
167.0018791968145
 20
108.4847117511754
 30
0.0
 10
166.7731533811922
 20
108.0810133081384
 30
0.0
 10
166.6520881975852
 20
107.8549886428253
 30
0.0
 10
166.4839742230329
 20
107.4764569058941
 30
0.0
 10
166.4296340064072
 20
107.3423784017008
 30
0.0
 10
166.3310089321662
 20
107.0601984553504
 30
0.0
 10
166.2870060906041
 20
106.9134997825801
 30
0.0
 10
166.2162196630521
 20
106.6030830011874
 30
0.0
 10
166.1910295165964
 20
106.4445785714499
 30
0.0
 10
166.1701155422316
 20
106.1332149968504
 30
0.0
 10
166.1750773839845
 20
105.9854966182212
 30
0.0
 10
166.2132515023423
 20
105.7219946192492
 30
0.0
 10
166.2460878280417
 20
105.6074557002108
 30
0.0
 10
166.3268202903538
 20
105.4164900037422
 30
0.0
 10
166.3749219972957
 20
105.3383063157758
 30
0.0
 10
166.5313643940131
 20
105.1445111378363
 30
0.0
 10
166.6481538537574
 20
105.0707359838085
 30
0.0
 10
166.8832108258406
 20
104.9876870270278
 30
0.0
 10
166.9990084128001
 20
104.9805436341122
 30
0.0
 10
167.149709116509
 20
105.012317651542
 30
0.0
 10
167.1960289042643
 20
105.0302151035406
 30
0.0
 10
167.2721121151245
 20
105.0838146239321
 30
0.0
 10
167.301498270627
 20
105.1193337944965
 30
0.0
 10
167.3249593038548
 20
105.2134431692994
 30
0.0
 10
167.3179196600488
 20
105.2725636431137
 30
0.0
 10
167.268921963169
 20
105.3824708725312
 30
0.0
 10
167.2460689185913
 20
105.4231140978383
 30
0.0
 10
167.1907264009195
 20
105.5094215816924
 30
0.0
 10
167.1581372654924
 20
105.5554630849491
 30
0.0
 10
167.0493387906321
 20
105.7032418931488
 30
0.0
 10
166.9647180689799
 20
105.811710495467
 30
0.0
 10
166.7945298401753
 20
106.0457573581123
 30
0.0
 10
166.7078997652295
 20
106.1727683228532
 30
0.0
 10
166.5487837638888
 20
106.4384542843262
 30
0.0
 10
166.4744698696
 20
106.5800311969012
 30
0.0
 10
166.3481410478547
 20
106.8707620227188
 30
0.0
 10
166.2957467827747
 20
107.0198439918164
 30
0.0
 10
166.2561564951347
 20
107.1734575115074
 30
0.0
  0
LINE
  5
D5
330
1F
100
AcDbEntity
  8
0
  6
HIDDEN
 62
     7
370
     0
100
AcDbLine
 10
230.4238702534
 20
142.341518987
 30
0.0
 11
230.9100010256
 21
142.2722623662
 31
0.0
  0
LINE
  5
D6
330
1F
100
AcDbEntity
  8
0
  6
HIDDEN
 62
     7
370
     0
100
AcDbLine
 10
220.9751315554
 20
117.8294183369
 30
0.0
 11
220.9751315554
 21
104.3294183369
 31
0.0
  0
LINE
  5
D7
330
1F
100
AcDbEntity
  8
0
  6
HIDDEN
 62
     7
370
     0
100
AcDbLine
 10
220.9751315554
 20
131.3294183369
 30
0.0
 11
220.9751315554
 21
117.8294183369
 31
0.0
  0
LINE
  5
D8
330
1F
100
AcDbEntity
  8
0
  6
HIDDEN
 62
     7
370
     0
100
AcDbLine
 10
225.8411569591
 20
117.8294183369
 30
0.0
 11
225.8411569591
 21
103.8294183369
 31
0.0
  0
LINE
  5
D9
330
1F
100
AcDbEntity
  8
0
  6
HIDDEN
 62
     7
370
     0
100
AcDbLine
 10
225.8411569591
 20
131.8294183369
 30
0.0
 11
225.8411569591
 21
117.8294183369
 31
0.0
  0
SPLINE
  5
DA
330
1F
100
AcDbEntity
  8
0
  6
HIDDEN
 62
     7
370
     0
100
AcDbSpline
210
0.0
220
0.0
230
1.0
 70
     8
 71
     3
 72
    23
 73
    19
 74
     0
 42
0.000000001
 43
0.00000001
 40
0.0
 40
0.0
 40
0.0
 40
0.0
 40
0.0498866253041119
 40
0.151463279974347
 40
0.2032650306614338
 40
0.2531468784644742
 40
0.3544795286300136
 40
0.4060131752456818
 40
0.4583830516485925
 40
0.5647715212709088
 40
0.6189085536548887
 40
0.673108601536564
 40
0.7277068292508858
 40
0.7836053861930921
 40
0.8399747541766358
 40
0.8915917666744412
 40
0.9967733547052361
 40
1.0
 40
1.0
 40
1.0
 40
1.0
 10
235.4251315553544
 20
130.7038115265017
 30
0.0
 10
235.570204132228
 20
130.705291486571
 30
0.0
 10
236.0106662439396
 20
130.7097848674112
 30
0.0
 10
236.5962874947871
 20
130.7516820377845
 30
0.0
 10
237.1610573899754
 20
130.8180824162274
 30
0.0
 10
237.7085152793964
 20
130.9000298699516
 30
0.0
 10
238.2264058985887
 20
131.0012395977453
 30
0.0
 10
238.7106869604563
 20
131.1149391013903
 30
0.0
 10
239.1772572795298
 20
131.2362432341133
 30
0.0
 10
239.6005296366075
 20
131.3618598550165
 30
0.0
 10
239.9682161142669
 20
131.4811296278181
 30
0.0
 10
240.2155093669517
 20
131.5655796694366
 30
0.0
 10
240.4312896848702
 20
131.6424635148433
 30
0.0
 10
240.6125600634865
 20
131.7093233502589
 30
0.0
 10
240.7526260267005
 20
131.7624168128079
 30
0.0
 10
240.8801508048137
 20
131.8116509007266
 30
0.0
 10
240.9366890469739
 20
131.8339534049926
 30
0.0
 10
240.9243712054932
 20
131.8291200210967
 30
0.0
 10
240.9240045792321
 20
131.8289761610325
 30
0.0
  0
LINE
  5
DB
330
1F
100
AcDbEntity
  8
0
  6
HIDDEN
 62
     7
370
     0
100
AcDbLine
 10
235.9129554789
 20
130.7147303704
 30
0.0
 11
235.0691770013
 21
130.7090629715
 31
0.0
  0
SPLINE
  5
DC
330
1F
100
AcDbEntity
  8
0
  6
HIDDEN
 62
     7
370
     0
100
AcDbSpline
210
0.0
220
0.0
230
1.0
 70
     8
 71
     3
 72
    28
 73
    24
 74
     0
 42
0.000000001
 43
0.00000001
 40
0.0
 40
0.0
 40
0.0
 40
0.0
 40
0.0070718855491439
 40
0.0483645167185158
 40
0.1325214047177483
 40
0.1755271284515657
 40
0.2142387306326588
 40
0.2930604042162671
 40
0.3332692722053169
 40
0.370952632089538
 40
0.4475150588659423
 40
0.4864600974395346
 40
0.5258209881625509
 40
0.6057462957499016
 40
0.6463840798469584
 40
0.6880035046880844
 40
0.7299105983417502
 40
0.7727456659100674
 40
0.8159144147896749
 40
0.8538545339791546
 40
0.9309851920122687
 40
0.9702849087187292
 40
1.0
 40
1.0
 40
1.0
 40
1.0
 10
230.5159482440073
 20
131.6082549830056
 30
0.0
 10
230.5033187111424
 20
131.6126834824981
 30
0.0
 10
230.41694552974
 20
131.6429699225511
 30
0.0
 10
230.2286916591562
 20
131.712713830144
 30
0.0
 10
230.0464427998023
 20
131.7819563587648
 30
0.0
 10
229.9526545693973
 20
131.818617520281
 30
0.0
 10
229.9111360833465
 20
131.8349203212887
 30
0.0
 10
229.9426965134198
 20
131.8224441535638
 30
0.0
 10
230.0453825296678
 20
131.7825228263014
 30
0.0
 10
230.1914238182413
 20
131.7266298636418
 30
0.0
 10
230.4002052809305
 20
131.6488025574166
 30
0.0
 10
230.6707625758604
 20
131.5531152210515
 30
0.0
 10
230.986511194301
 20
131.4459082767434
 30
0.0
 10
231.3637782151714
 20
131.3266351621338
 30
0.0
 10
231.7976302613258
 20
131.2037424195882
 30
0.0
 10
232.1551265324962
 20
131.1109627127902
 30
0.0
 10
232.5429410797973
 20
131.0205500474728
 30
0.0
 10
232.9578653237164
 20
130.9358333665893
 30
0.0
 10
233.37942154167
 20
130.863113400446
 30
0.0
 10
233.9371965945647
 20
130.7844667351829
 30
0.0
 10
234.5053597337783
 20
130.7312628338862
 30
0.0
 10
235.053134271768
 20
130.7066855639449
 30
0.0
 10
235.3131702009927
 20
130.7046765358413
 30
0.0
 10
235.4251315553544
 20
130.7038115265017
 30
0.0
  0
LINE
  5
DD
330
1F
100
AcDbEntity
  8
0
  6
HIDDEN
 62
     7
370
     0
100
AcDbLine
 10
148.4751315554
 20
153.1294183369
 30
0.0
 11
148.6467044306
 21
153.1294183369
 31
0.0
  0
ELLIPSE
  5
DE
330
1F
100
AcDbEntity
  8
0
  6
HIDDEN
 62
     7
370
     0
100
AcDbEllipse
 10
148.6467044306
 20
155.1294183369
 30
0.0
 11
0.0
 21
2.0
 31
0.0
210
0.0
220
0.0
230
1.0
 40
0.4142135624
 41
3.141592653589793
 42
4.712388980384681
  0
ELLIPSE
  5
DF
330
1F
100
AcDbEntity
  8
0
  6
HIDDEN
 62
     7
370
     0
100
AcDbEllipse
 10
148.6467044306
 20
80.5294183369
 30
0.0
 11
0.0
 21
2.0
 31
0.0
210
0.0
220
0.0
230
1.0
 40
0.4142135624
 41
4.712388980384702
 42
6.283185307179586
  0
LINE
  5
E0
330
1F
100
AcDbEntity
  8
0
  6
HIDDEN
 62
     7
370
     0
100
AcDbLine
 10
148.6467044306
 20
82.5294183369
 30
0.0
 11
148.4751315554
 21
82.5294183369
 31
0.0
  0
LINE
  5
E1
330
1F
100
AcDbEntity
  8
0
  6
HIDDEN
 62
     7
370
     0
100
AcDbLine
 10
149.4751315554
 20
70.508848183
 30
0.0
 11
148.8612679754
 21
69.894984603
 31
0.0
  0
LINE
  5
E2
330
1F
100
AcDbEntity
  8
0
  6
HIDDEN
 62
     7
370
     0
100
AcDbLine
 10
148.8612679754
 20
165.7638520708
 30
0.0
 11
149.4751315554
 21
165.1499884908
 31
0.0
  0
LINE
  5
E3
330
1F
100
AcDbEntity
  8
0
  6
HIDDEN
 62
     7
370
     0
100
AcDbLine
 10
165.6251315554
 20
153.1294183369
 30
0.0
 11
176.4751315554
 21
153.1294183369
 31
0.0
  0
LINE
  5
E4
330
1F
100
AcDbEntity
  8
0
  6
HIDDEN
 62
     7
370
     0
100
AcDbLine
 10
176.4751315554
 20
82.5294183369
 30
0.0
 11
165.6251315554
 21
82.5294183369
 31
0.0
  0
SPLINE
  5
E5
330
1F
100
AcDbEntity
  8
0
  6
HIDDEN
 62
     7
370
     0
100
AcDbSpline
210
0.0
220
0.0
230
1.0
 70
     8
 71
     3
 72
    14
 73
    10
 74
     0
 42
0.000000001
 43
0.00000001
 40
0.0
 40
0.0
 40
0.0
 40
0.0
 40
0.1878282877378226
 40
0.3545816312771876
 40
0.500302431933891
 40
0.6713282049362227
 40
0.837642206038437
 40
0.9994166164999645
 40
1.0
 40
1.0
 40
1.0
 40
1.0
 10
175.5594312922411
 20
166.03543993886
 30
0.0
 10
175.8924342145882
 20
166.1169878763117
 30
0.0
 10
176.5210760493617
 20
166.2709338076576
 30
0.0
 10
177.2205126212896
 20
166.4619125257747
 30
0.0
 10
177.7683897207789
 20
166.6192848128442
 30
0.0
 10
178.1745053149236
 20
166.7376102488655
 30
0.0
 10
178.4076332076056
 20
166.8079872634844
 30
0.0
 10
178.5016225941885
 20
166.8376216147579
 30
0.0
 10
178.4749397010492
 20
166.8293590891571
 30
0.0
 10
178.4748438241639
 20
166.8293294002768
 30
0.0
  0
LINE
  5
E6
330
1F
100
AcDbEntity
  8
0
  6
HIDDEN
 62
     7
370
     0
100
AcDbLine
 10
176.058765501
 20
166.1597539379
 30
0.0
 11
175.5594270039
 21
166.0354845932
 31
0.0
  0
LINE
  5
E7
330
1F
100
AcDbEntity
  8
0
  6
HIDDEN
 62
     7
370
     0
100
AcDbLine
 10
148.6467044306
 20
153.1294183369
 30
0.0
 11
165.6251315554
 21
153.1294183369
 31
0.0
  0
LINE
  5
E8
330
1F
100
AcDbEntity
  8
0
  6
HIDDEN
 62
     7
370
     0
100
AcDbLine
 10
165.6251315554
 20
82.5294183369
 30
0.0
 11
148.6467044306
 21
82.5294183369
 31
0.0
  0
LINE
  5
E9
330
1F
100
AcDbEntity
  8
0
  6
HIDDEN
 62
     7
370
     0
100
AcDbLine
 10
161.7077005919
 20
70.508848183
 30
0.0
 11
149.4751315554
 21
70.508848183
 31
0.0
  0
LINE
  5
EA
330
1F
100
AcDbEntity
  8
0
  6
HIDDEN
 62
     7
370
     0
100
AcDbLine
 10
149.4751315554
 20
70.508848183
 30
0.0
 11
149.4751315554
 21
80.5294183369
 31
0.0
  0
LINE
  5
EB
330
1F
100
AcDbEntity
  8
0
  6
HIDDEN
 62
     7
370
     0
100
AcDbLine
 10
149.4751315554
 20
165.1499884908
 30
0.0
 11
161.7077005919
 21
165.1499884908
 31
0.0
  0
LINE
  5
EC
330
1F
100
AcDbEntity
  8
0
  6
HIDDEN
 62
     7
370
     0
100
AcDbLine
 10
149.4751315554
 20
165.1499884908
 30
0.0
 11
149.4751315554
 21
155.1294183369
 31
0.0
  0
SPLINE
  5
ED
330
1F
100
AcDbEntity
  8
0
  6
HIDDEN
 62
     7
370
     0
100
AcDbSpline
210
0.0
220
0.0
230
1.0
 70
     8
 71
     3
 72
    13
 73
     9
 74
     0
 42
0.000000001
 43
0.00000001
 40
0.0
 40
0.0
 40
0.0
 40
0.0
 40
0.0005825290635634
 40
0.1623661983695077
 40
0.328738549447489
 40
0.499871825213266
 40
0.7262528256364211
 40
1.0
 40
1.0
 40
1.0
 40
1.0
 10
178.4746973979607
 20
68.82955114357725
 30
0.0
 10
178.4748421839956
 20
68.82950680138394
 30
0.0
 10
178.5151978667192
 20
68.81714746379194
 30
0.0
 10
178.4010432598221
 20
68.85277654979151
 30
0.0
 10
178.1769261521347
 20
68.92062451270239
 30
0.0
 10
177.6976172611452
 20
69.05971768685565
 30
0.0
 10
176.9041096034951
 20
69.28996426762244
 30
0.0
 10
176.0350917310158
 20
69.5054498383869
 30
0.0
 10
175.5594312922411
 20
69.62339673497605
 30
0.0
  0
LINE
  5
EE
330
1F
100
AcDbEntity
  8
0
  6
HIDDEN
 62
     7
370
     0
100
AcDbLine
 10
53.6751315554
 20
105.3294183369
 30
0.0
 11
53.6751315554
 21
130.3294183369
 31
0.0
  0
LINE
  5
EF
330
1F
100
AcDbEntity
  8
0
  6
HIDDEN
 62
     7
370
     0
100
AcDbLine
 10
56.9597359043
 20
107.3294183369
 30
0.0
 11
56.9597359043
 21
128.3294183369
 31
0.0
  0
LINE
  5
F0
330
1F
100
AcDbEntity
  8
0
  6
HIDDEN
 62
     7
370
     0
100
AcDbLine
 10
106.6751315554
 20
107.3294183369
 30
0.0
 11
106.6751315554
 21
128.3294183369
 31
0.0
  0
LINE
  5
F1
330
1F
100
AcDbEntity
  8
0
  6
HIDDEN
 62
     7
370
     0
100
AcDbLine
 10
110.4305104243
 20
113.5794183369
 30
0.0
 11
110.4305104243
 21
122.0794183369
 31
0.0
  0
SPLINE
  5
F2
330
1F
100
AcDbEntity
  8
0
  6
HIDDEN
 62
     7
370
     0
100
AcDbSpline
210
0.0
220
0.0
230
1.0
 70
     8
 71
     3
 72
     9
 73
     5
 74
     0
 42
0.000000001
 43
0.00000001
 40
0.0
 40
0.0
 40
0.0
 40
0.0
 40
0.4951995007203773
 40
1.0
 40
1.0
 40
1.0
 40
1.0
 10
175.5594157697915
 20
166.0354305013308
 30
0.0
 10
175.6646119915161
 20
166.1925862615835
 30
0.0
 10
175.8770439943183
 20
166.5099447403868
 30
0.0
 10
176.0917623778325
 20
166.8285712884897
 30
0.0
 10
176.200152325035
 20
166.9894141290559
 30
0.0
  0
SPLINE
  5
F3
330
1F
100
AcDbEntity
  8
0
  6
HIDDEN
 62
     7
370
     0
100
AcDbSpline
210
0.0
220
0.0
230
1.0
 70
     8
 71
     3
 72
     9
 73
     5
 74
     0
 42
0.000000001
 43
0.00000001
 40
0.0
 40
0.0
 40
0.0
 40
0.0
 40
0.5048004990382029
 40
1.0
 40
1.0
 40
1.0
 40
1.0
 10
176.200152325035
 20
68.66942254478023
 30
0.0
 10
176.0917623778872
 20
68.83026538526269
 30
0.0
 10
175.8770439943787
 20
69.14889193335233
 30
0.0
 10
175.6646119915705
 20
69.46625041216919
 30
0.0
 10
175.5594157697915
 20
69.62340617250528
 30
0.0
  0
LINE
  5
F4
330
1F
100
AcDbEntity
  8
0
  6
HIDDEN
 62
     7
370
     0
100
AcDbLine
 10
235.4251315554
 20
140.8294183369
 30
0.0
 11
240.9251315554
 21
140.8294183369
 31
0.0
  0
LINE
  5
F5
330
1F
100
AcDbEntity
  8
0
  6
HIDDEN
 62
     7
370
     0
100
AcDbLine
 10
229.9251315554
 20
140.8294183369
 30
0.0
 11
235.4251315554
 21
140.8294183369
 31
0.0
  0
SPLINE
  5
F6
330
1F
100
AcDbEntity
  8
0
  6
HIDDEN
 62
     7
370
     0
100
AcDbSpline
210
0.0
220
0.0
230
1.0
 70
    11
 71
     3
 72
    60
 73
    56
 74
     0
 42
0.000000001
 43
0.00000001
 40
0.0
 40
0.0
 40
0.0
 40
0.0
 40
0.03125
 40
0.03125
 40
0.0625
 40
0.0625
 40
0.125
 40
0.125
 40
0.15625
 40
0.15625
 40
0.1875
 40
0.1875
 40
0.21875
 40
0.21875
 40
0.2500000000000001
 40
0.2500000000000001
 40
0.3125000000000001
 40
0.3125000000000001
 40
0.3750000000000002
 40
0.3750000000000002
 40
0.4062500000000001
 40
0.4062500000000001
 40
0.4374999999999999
 40
0.4374999999999999
 40
0.4687499999999998
 40
0.4687499999999998
 40
0.4999999999999996
 40
0.4999999999999996
 40
0.5312499999999994
 40
0.5312499999999994
 40
0.5624999999999993
 40
0.5624999999999993
 40
0.6249999999999996
 40
0.6249999999999996
 40
0.6562499999999996
 40
0.6562499999999996
 40
0.6874999999999994
 40
0.6874999999999994
 40
0.7187499999999993
 40
0.7187499999999993
 40
0.7499999999999992
 40
0.7499999999999992
 40
0.7812499999999992
 40
0.7812499999999992
 40
0.8124999999999992
 40
0.8124999999999992
 40
0.8749999999999991
 40
0.8749999999999991
 40
0.9062499999999994
 40
0.9062499999999994
 40
0.9374999999999997
 40
0.9374999999999997
 40
0.9687499999999998
 40
0.9687499999999998
 40
1.0
 40
1.0
 40
1.0
 40
1.0
 10
168.6751315553544
 20
116.6556866819454
 30
0.0
 10
168.844659151925
 20
116.6556866819454
 30
0.0
 10
169.0102569996325
 20
116.6760096052971
 30
0.0
 10
169.3343770763052
 20
116.7536870760765
 30
0.0
 10
169.4941871406308
 20
116.812010674307
 30
0.0
 10
169.9435287431722
 20
117.0312123776221
 30
0.0
 10
170.2132114829476
 20
117.2394572522886
 30
0.0
 10
170.5513962717051
 20
117.6085356171583
 30
0.0
 10
170.654962705329
 20
117.7433360046009
 30
0.0
 10
170.8354141676289
 20
118.0255950278534
 30
0.0
 10
170.9125361338912
 20
118.1727130864145
 30
0.0
 10
171.0399540186984
 20
118.4789138006897
 30
0.0
 10
171.0904182114995
 20
118.6400489720988
 30
0.0
 10
171.157259624182
 20
118.9585919026139
 30
0.0
 10
171.174577825731
 20
119.1173440850244
 30
0.0
 10
171.1762002176644
 20
119.59164700665
 30
0.0
 10
171.1077122471207
 20
119.8927671424494
 30
0.0
 10
170.85366194075
 20
120.4137541137325
 30
0.0
 10
170.6690790413946
 20
120.6350099395627
 30
0.0
 10
170.3317105709714
 20
120.8996813298857
 30
0.0
 10
170.2077214020046
 20
120.9779506078847
 30
0.0
 10
169.9415526567871
 20
121.1125921974815
 30
0.0
 10
169.8010159759631
 20
121.1684217513697
 30
0.0
 10
169.5033576406651
 20
121.2593448388776
 30
0.0
 10
169.3438902631226
 20
121.2946994243569
 30
0.0
 10
169.0182728789891
 20
121.3417125677178
 30
0.0
 10
168.852305896602
 20
121.353778245813
 30
0.0
 10
168.5134726505389
 20
121.354504693694
 30
0.0
 10
168.3464819717037
 20
121.3430582709751
 30
0.0
 10
168.0208570579129
 20
121.2974736498687
 30
0.0
 10
167.8607258853559
 20
121.2628057670669
 30
0.0
 10
167.4100207259976
 20
121.1273241491152
 30
0.0
 10
167.1397622248468
 20
120.9931366037045
 30
0.0
 10
166.8000474959451
 20
120.7290398381878
 30
0.0
 10
166.6960888520696
 20
120.6289485534224
 30
0.0
 10
166.515779759448
 20
120.410868254615
 30
0.0
 10
166.4383460508554
 20
120.2923328900215
 30
0.0
 10
166.3100971960108
 20
120.0331045656462
 30
0.0
 10
166.2597819050941
 20
119.8919439877747
 30
0.0
 10
166.1930336586027
 20
119.6002885017224
 30
0.0
 10
166.1755601494065
 20
119.4480750921533
 30
0.0
 10
166.174718366876
 20
119.1295930803881
 30
0.0
 10
166.191478464408
 20
118.9691854240609
 30
0.0
 10
166.2572306079119
 20
118.6493829557911
 30
0.0
 10
166.3070854686855
 20
118.4880358464457
 30
0.0
 10
166.498050254253
 20
118.0251014805217
 30
0.0
 10
166.6833463872229
 20
117.7352038229135
 30
0.0
 10
167.0222352880427
 20
117.3644693466156
 30
0.0
 10
167.1474172104459
 20
117.2494714105697
 30
0.0
 10
167.4133523464192
 20
117.0472785405824
 30
0.0
 10
167.554207929818
 20
116.9594641105388
 30
0.0
 10
167.8538745263022
 20
116.8128939311132
 30
0.0
 10
168.0142527084368
 20
116.7541856101224
 30
0.0
 10
168.3389898484855
 20
116.6761469325091
 30
0.0
 10
168.5056039587839
 20
116.6556866819454
 30
0.0
 10
168.6751315553544
 20
116.6556866819454
 30
0.0
  0
SPLINE
  5
F7
330
1F
100
AcDbEntity
  8
0
  6
HIDDEN
 62
     7
370
     0
100
AcDbSpline
210
0.0
220
0.0
230
1.0
 70
    11
 71
     3
 72
    66
 73
    62
 74
     0
 42
0.000000001
 43
0.00000001
 40
0.0
 40
0.0
 40
0.0
 40
0.0
 40
0.0312499999999998
 40
0.0312499999999998
 40
0.0624999999999996
 40
0.0624999999999996
 40
0.0937499999999994
 40
0.0937499999999994
 40
0.1249999999999991
 40
0.1249999999999991
 40
0.1562499999999989
 40
0.1562499999999989
 40
0.1874999999999987
 40
0.1874999999999987
 40
0.2187499999999985
 40
0.2187499999999985
 40
0.2499999999999983
 40
0.2499999999999983
 40
0.2812499999999981
 40
0.2812499999999981
 40
0.3124999999999978
 40
0.3124999999999978
 40
0.3437499999999976
 40
0.3437499999999976
 40
0.3749999999999974
 40
0.3749999999999974
 40
0.4062499999999972
 40
0.4062499999999972
 40
0.437499999999997
 40
0.437499999999997
 40
0.4687499999999968
 40
0.4687499999999968
 40
0.4999999999999966
 40
0.4999999999999966
 40
0.5312499999999963
 40
0.5312499999999963
 40
0.5624999999999961
 40
0.5624999999999961
 40
0.6249999999999959
 40
0.6249999999999959
 40
0.6562499999999962
 40
0.6562499999999962
 40
0.6874999999999966
 40
0.6874999999999966
 40
0.7187499999999969
 40
0.7187499999999969
 40
0.7499999999999972
 40
0.7499999999999972
 40
0.7812499999999977
 40
0.7812499999999977
 40
0.812499999999998
 40
0.812499999999998
 40
0.8437499999999983
 40
0.8437499999999983
 40
0.8749999999999987
 40
0.8749999999999987
 40
0.906249999999999
 40
0.906249999999999
 40
0.9374999999999993
 40
0.9374999999999993
 40
1.0
 40
1.0
 40
1.0
 40
1.0
 10
168.6751315553545
 20
129.9908725438318
 30
0.0
 10
168.5099312646906
 20
129.9908725438318
 30
0.0
 10
168.347498723394
 20
130.0064381351138
 30
0.0
 10
168.027940567804
 20
130.0673844069434
 30
0.0
 10
167.869157229827
 20
130.1135064509286
 30
0.0
 10
167.5664192133476
 20
130.2337696385167
 30
0.0
 10
167.4228400482132
 20
130.3073132879373
 30
0.0
 10
167.1511103183452
 20
130.4808302108697
 30
0.0
 10
167.0224817548075
 20
130.5817028676563
 30
0.0
 10
166.7919159931403
 20
130.8016876565545
 30
0.0
 10
166.6884419918909
 20
130.9215668201433
 30
0.0
 10
166.5056814539652
 20
131.1814081867408
 30
0.0
 10
166.4280371977366
 20
131.319497617313
 30
0.0
 10
166.3033445470465
 20
131.6044800495611
 30
0.0
 10
166.255340566468
 20
131.7534751589037
 30
0.0
 10
166.1911088241498
 20
132.0580002462984
 30
0.0
 10
166.1752193801076
 20
132.2107695937349
 30
0.0
 10
166.1750444497524
 20
132.5172592753489
 30
0.0
 10
166.1912751010873
 20
132.672586045644
 30
0.0
 10
166.2550563237969
 20
132.9726482515424
 30
0.0
 10
166.3022484351932
 20
133.1181829640417
 30
0.0
 10
166.4274150528511
 20
133.4003162443636
 30
0.0
 10
166.5056745402261
 20
133.5364560857183
 30
0.0
 10
166.6865947235815
 20
133.7879926354879
 30
0.0
 10
166.7898799525053
 20
133.9050194793311
 30
0.0
 10
167.0231316945541
 20
134.1210947729525
 30
0.0
 10
167.1495455628196
 20
134.2167986968379
 30
0.0
 10
167.4202178335143
 20
134.3839516936096
 30
0.0
 10
167.5662996056786
 20
134.4561128792326
 30
0.0
 10
167.8691840511514
 20
134.5717669211891
 30
0.0
 10
168.0250144107911
 20
134.6152997283718
 30
0.0
 10
168.3453599000566
 20
134.6741956313052
 30
0.0
 10
168.5110699860282
 20
134.6892817343251
 30
0.0
 10
168.8374013747247
 20
134.6893892659918
 30
0.0
 10
168.9995884605516
 20
134.6748986088021
 30
0.0
 10
169.3219640417602
 20
134.616170544525
 30
0.0
 10
169.4799795157977
 20
134.5720397373957
 30
0.0
 10
169.9313903908733
 20
134.4001101387977
 30
0.0
 10
170.2104698479255
 20
134.2285364461267
 30
0.0
 10
170.5565435524239
 20
133.9088856277604
 30
0.0
 10
170.6621855683385
 20
133.7898444983719
 30
0.0
 10
170.8439690443093
 20
133.5375247375136
 30
0.0
 10
170.9208568676932
 20
133.4040604261422
 30
0.0
 10
171.0465114250636
 20
133.1222950135899
 30
0.0
 10
171.0948195009783
 20
132.9738742819589
 30
0.0
 10
171.1586373864186
 20
132.6748246841823
 30
0.0
 10
171.1749655634615
 20
132.5226216143151
 30
0.0
 10
171.1752950535211
 20
132.2126197554753
 30
0.0
 10
171.1591985416865
 20
132.0590970883773
 30
0.0
 10
171.0959698044252
 20
131.7575683707982
 30
0.0
 10
171.0481332110147
 20
131.6076335454964
 30
0.0
 10
170.9227898931013
 20
131.3204144494055
 30
0.0
 10
170.8460932185761
 20
131.1840355350893
 30
0.0
 10
170.6650418519243
 20
130.925679977075
 30
0.0
 10
170.5595662415634
 20
130.8030048007007
 30
0.0
 10
170.3290396728872
 20
130.5827511166487
 30
0.0
 10
170.2033202352569
 20
130.4838255452149
 30
0.0
 10
169.9305533860601
 20
130.3089868642932
 30
0.0
 10
169.784834009654
 20
130.2343100193128
 30
0.0
 10
169.333764904546
 20
130.05468380382
 30
0.0
 10
169.0055321366822
 20
129.9908725438318
 30
0.0
 10
168.6751315553544
 20
129.9908725438318
 30
0.0
  0
SPLINE
  5
F8
330
1F
100
AcDbEntity
  8
0
  6
HIDDEN
 62
     7
370
     0
100
AcDbSpline
210
0.0
220
0.0
230
1.0
 70
    11
 71
     3
 72
    60
 73
    56
 74
     0
 42
0.000000001
 43
0.00000001
 40
0.0
 40
0.0
 40
0.0
 40
0.0
 40
0.0312499999999999
 40
0.0312499999999999
 40
0.0624999999999998
 40
0.0624999999999998
 40
0.0937499999999997
 40
0.0937499999999997
 40
0.1249999999999996
 40
0.1249999999999996
 40
0.1562499999999995
 40
0.1562499999999995
 40
0.1874999999999994
 40
0.1874999999999994
 40
0.2187499999999993
 40
0.2187499999999993
 40
0.2499999999999992
 40
0.2499999999999992
 40
0.3124999999999987
 40
0.3124999999999987
 40
0.3749999999999982
 40
0.3749999999999982
 40
0.4062499999999975
 40
0.4062499999999975
 40
0.4374999999999969
 40
0.4374999999999969
 40
0.4531249999999966
 40
0.4531249999999966
 40
0.4687499999999963
 40
0.4687499999999963
 40
0.4999999999999961
 40
0.4999999999999961
 40
0.562499999999996
 40
0.562499999999996
 40
0.6249999999999967
 40
0.6249999999999967
 40
0.6874999999999972
 40
0.6874999999999972
 40
0.7187499999999974
 40
0.7187499999999974
 40
0.7499999999999977
 40
0.7499999999999977
 40
0.7812499999999979
 40
0.7812499999999979
 40
0.8124999999999981
 40
0.8124999999999981
 40
0.8437499999999983
 40
0.8437499999999983
 40
0.8749999999999986
 40
0.8749999999999986
 40
0.9062499999999989
 40
0.9062499999999989
 40
0.9374999999999991
 40
0.9374999999999991
 40
1.0
 40
1.0
 40
1.0
 40
1.0
 10
166.2561564951347
 20
127.2988935371952
 30
0.0
 10
166.2957465779815
 20
127.1674130058412
 30
0.0
 10
166.3480581989017
 20
127.0482291551615
 30
0.0
 10
166.4737783045042
 20
126.8330356678336
 30
0.0
 10
166.5482013349484
 20
126.7364477622253
 30
0.0
 10
166.7069116431415
 20
126.5758868504703
 30
0.0
 10
166.791790242947
 20
126.5106076137683
 30
0.0
 10
166.9635634624888
 20
126.4131054392111
 30
0.0
 10
167.0475736987848
 20
126.3826303424138
 30
0.0
 10
167.1929696220634
 20
126.3628813740564
 30
0.0
 10
167.2512358705727
 20
126.3746579235526
 30
0.0
 10
167.3178405953828
 20
126.439078266336
 30
0.0
 10
167.3250014797806
 20
126.4897914044157
 30
0.0
 10
167.3018561603983
 20
126.6128149167907
 30
0.0
 10
167.2729480744287
 20
126.6832861430761
 30
0.0
 10
167.1975273165835
 20
126.8369078057405
 30
0.0
 10
167.1505818438072
 20
126.9205430739245
 30
0.0
 10
166.9989399521857
 20
127.1839233129346
 30
0.0
 10
166.8830128149226
 20
127.3774722383582
 30
0.0
 10
166.6493872439402
 20
127.8143417102541
 30
0.0
 10
166.5307044772383
 20
128.0573468444414
 30
0.0
 10
166.3742331682827
 20
128.4684213829712
 30
0.0
 10
166.3262465197306
 20
128.6120929484545
 30
0.0
 10
166.2456375099403
 20
128.9125558764134
 30
0.0
 10
166.2129379810452
 20
129.0710551306878
 30
0.0
 10
166.1845173717013
 20
129.3062656525171
 30
0.0
 10
166.1783712997277
 20
129.3855132603136
 30
0.0
 10
166.1738930979628
 20
129.537190830773
 30
0.0
 10
166.175409308375
 20
129.6103989030814
 30
0.0
 10
166.1911722480514
 20
129.8221546343084
 30
0.0
 10
166.2166463027368
 20
129.9480527801698
 30
0.0
 10
166.3230110464857
 20
130.269783146189
 30
0.0
 10
166.4288890757562
 20
130.407796862549
 30
0.0
 10
166.6520592967013
 20
130.5936087136793
 30
0.0
 10
166.7729457288285
 20
130.6425327484355
 30
0.0
 10
167.0020282025102
 20
130.6785840742265
 30
0.0
 10
167.1121910207607
 20
130.6667058910247
 30
0.0
 10
167.2401741881118
 20
130.6020983294753
 30
0.0
 10
167.2765155335242
 20
130.5720911157118
 30
0.0
 10
167.3196055366843
 20
130.4915629921619
 30
0.0
 10
167.3260903452862
 20
130.4399825749101
 30
0.0
 10
167.2900495925853
 20
130.3104353652845
 30
0.0
 10
167.2458303774601
 20
130.230576540791
 30
0.0
 10
167.1201804026479
 20
130.0484470654861
 30
0.0
 10
167.0390562711665
 20
129.944394625466
 30
0.0
 10
166.8721109010721
 20
129.7214307297867
 30
0.0
 10
166.7842227363422
 20
129.5996273477414
 30
0.0
 10
166.6185832390932
 20
129.3420661246818
 30
0.0
 10
166.5406371509557
 20
129.2065872643678
 30
0.0
 10
166.4013814172842
 20
128.9198329430198
 30
0.0
 10
166.3423556983852
 20
128.7733809051287
 30
0.0
 10
166.248570744682
 20
128.4731361752267
 30
0.0
 10
166.2137576865725
 20
128.3174343191016
 30
0.0
 10
166.1554400818958
 20
127.8616713318399
 30
0.0
 10
166.176976329441
 20
127.5618545999031
 30
0.0
 10
166.2561564951347
 20
127.2988935371951
 30
0.0
  0
LWPOLYLINE
  5
F9
330
1F
100
AcDbEntity
  8
0
  6
HIDDEN
 62
     7
370
     0
100
AcDbPolyline
 90
       19
 70
   128
 43
0.0
 10
149.4573892558
 20
130.6160691961
 10
149.6257441783
 20
130.1078727756
 10
149.8945801321
 20
129.8040800207
 10
150.2314715334
 20
129.741332821
 10
150.5957843074
 20
129.927199415
 10
150.9435769567
 20
130.3392615482
 10
151.2329005551
 20
130.9278184461
 10
151.4288584066
 20
131.6218814606
 10
151.5078151022
 20
132.3377363488
 10
151.4602472992
 20
132.9890404464
 10
151.2918923767
 20
133.4972368669
 10
151.023056423
 20
133.8010296218
 10
150.6861650217
 20
133.8637768215
 10
150.3218522477
 20
133.6779102275
 10
149.9740595983
 20
133.2658480943
 10
149.684736
 20
132.6772911964
 10
149.4887781485
 20
131.9832281819
 10
149.4098214529
 20
131.2673732937
 10
149.4573892558
 20
130.6160691961
  0
LWPOLYLINE
  5
FA
330
1F
100
AcDbEntity
  8
0
  6
HIDDEN
 62
     7
370
     0
100
AcDbPolyline
 90
       22
 70
   128
 43
0.0
 10
148.7445186672
 20
130.163593675
 10
148.9409936432
 20
129.5251361031
 10
149.2471271886
 20
129.094014652
 10
149.6357179945
 20
128.9085363546
 10
150.0722380624
 20
128.9851817715
 10
150.5179006687
 20
129.3171406211
 10
150.9331067351
 20
129.8749169029
 10
151.2809633805
 20
130.6089497465
 10
151.5305620153
 20
131.4540171124
 10
151.6597247055
 20
132.3350310567
 10
151.6569747793
 20
133.1737096241
 10
151.5225565797
 20
133.8955325435
 10
151.2684137537
 20
134.4363626808
 10
150.9171280065
 20
134.7481449049
 10
150.4999126184
 20
134.803175997
 10
150.0538390076
 20
134.596566203
 10
149.6185427719
 20
134.1466737099
 10
149.2327018922
 20
133.4934734399
 10
148.9306000239
 20
132.6950051035
 10
148.7390802437
 20
131.8222161166
 10
148.6751599245
 20
130.9526576107
 10
148.7445186672
 20
130.163593675
  0
CIRCLE
  5
FB
330
1F
100
AcDbEntity
  8
0
  6
HIDDEN
 62
     7
370
     0
100
AcDbCircle
 10
235.4251315554
 20
117.8294183369
 30
0.0
 40
5.999999999999988
  0
LINE
  5
FC
330
1F
100
AcDbEntity
  8
0
  6
HIDDEN
 62
     7
370
     0
100
AcDbLine
 10
230.1963746461
 20
132.7265326539
 30
0.0
 11
241.4251315554
 21
132.7265326539
 31
0.0
  0
LINE
  5
FD
330
1F
100
AcDbEntity
  8
0
  6
HIDDEN
 62
     7
370
     0
100
AcDbLine
 10
229.4251315554
 20
132.7265326539
 30
0.0
 11
230.1963746461
 21
132.7265326539
 31
0.0
  0
LINE
  5
FE
330
1F
100
AcDbEntity
  8
0
  6
HIDDEN
 62
     7
370
     0
100
AcDbLine
 10
230.1963746461
 20
140.1294183369
 30
0.0
 11
241.4251315554
 21
140.1294183369
 31
0.0
  0
LINE
  5
FF
330
1F
100
AcDbEntity
  8
0
  6
HIDDEN
 62
     7
370
     0
100
AcDbLine
 10
229.4251315554
 20
140.1294183369
 30
0.0
 11
230.1963746461
 21
140.1294183369
 31
0.0
  0
LINE
  5
100
330
1F
100
AcDbEntity
  8
0
  6
HIDDEN
 62
     7
370
     0
100
AcDbLine
 10
232.3577668016
 20
124.3294183369
 30
0.0
 11
234.0885515276
 21
124.3294183369
 31
0.0
  0
LINE
  5
101
330
1F
100
AcDbEntity
  8
0
  6
HIDDEN
 62
     7
370
     0
100
AcDbLine
 10
236.7390749664
 20
124.3294183369
 30
0.0
 11
238.944933459
 21
124.3294183369
 31
0.0
  0
LINE
  5
102
330
1F
100
AcDbEntity
  8
0
  6
HIDDEN
 62
     7
370
     0
100
AcDbLine
 10
231.9053296517
 20
124.3294183369
 30
0.0
 11
232.3577668016
 21
124.3294183369
 31
0.0
  0
SPLINE
  5
103
330
1F
100
AcDbEntity
  8
0
  6
HIDDEN
 62
     7
370
     0
100
AcDbSpline
210
0.0
220
0.0
230
1.0
 70
     8
 71
     3
 72
    12
 73
     8
 74
     0
 42
0.000000001
 43
0.00000001
 40
0.0
 40
0.0
 40
0.0
 40
0.0
 40
0.2161857461390009
 40
0.4397628073511793
 40
0.5934185666353952
 40
0.7522096186329027
 40
0.9999999999999999
 40
0.9999999999999999
 40
0.9999999999999999
 40
0.9999999999999999
 10
233.6602677260995
 20
140.6935199520558
 30
0.0
 10
233.8974410615034
 20
140.5848276952839
 30
0.0
 10
234.379896605723
 20
140.3637270314843
 30
0.0
 10
235.0891903584293
 20
140.2186242891259
 30
0.0
 10
235.7376745673488
 20
140.2322435322023
 30
0.0
 10
236.4037056311219
 20
140.3669585080681
 30
0.0
 10
236.8513466986438
 20
140.5698612263531
 30
0.0
 10
237.1241608060636
 20
140.6935199520558
 30
0.0
  0
SPLINE
  5
104
330
1F
100
AcDbEntity
  8
0
  6
HIDDEN
 62
     7
370
     0
100
AcDbSpline
210
0.0
220
0.0
230
1.0
 70
     8
 71
     3
 72
    12
 73
     8
 74
     0
 42
0.000000001
 43
0.00000001
 40
0.0
 40
0.0
 40
0.0
 40
0.0
 40
0.2161857461389854
 40
0.4397628073511844
 40
0.5934185666353847
 40
0.7522096186328707
 40
1.0
 40
1.0
 40
1.0
 40
1.0
 10
237.1241608060636
 20
140.6935199520558
 30
0.0
 10
237.2450013260378
 20
140.5848276952839
 30
0.0
 10
237.4908138611134
 20
140.3637270314844
 30
0.0
 10
237.852201138252
 20
140.2186242891258
 30
0.0
 10
238.1826057719243
 20
140.2322435322023
 30
0.0
 10
238.5219505803459
 20
140.3669585080681
 30
0.0
 10
238.7500250359715
 20
140.5698612263531
 30
0.0
 10
238.8890246353185
 20
140.6935199520558
 30
0.0
  0
SPLINE
  5
105
330
1F
100
AcDbEntity
  8
0
  6
HIDDEN
 62
     7
370
     0
100
AcDbSpline
210
0.0
220
0.0
230
1.0
 70
     8
 71
     3
 72
     9
 73
     5
 74
     0
 42
0.000000001
 43
0.00000001
 40
0.0
 40
0.0
 40
0.0
 40
0.0
 40
0.5646656210625088
 40
1.0
 40
1.0
 40
1.0
 40
1.0
 10
237.6784200754488
 20
140.3221269061725
 30
0.0
 10
237.5835010026713
 20
140.3760780901258
 30
0.0
 10
237.415403159918
 20
140.471623457049
 30
0.0
 10
237.2583611642574
 20
140.6262191375141
 30
0.0
 10
237.1899953846094
 20
140.6935199520558
 30
0.0
  0
SPLINE
  5
106
330
1F
100
AcDbEntity
  8
0
  6
HIDDEN
 62
     7
370
     0
100
AcDbSpline
210
0.0
220
0.0
230
1.0
 70
     8
 71
     3
 72
    12
 73
     8
 74
     0
 42
0.000000001
 43
0.00000001
 40
0.0
 40
0.0
 40
0.0
 40
0.0
 40
0.216185746138994
 40
0.4397628073512053
 40
0.5934185666353978
 40
0.7522096186328863
 40
1.0
 40
1.0
 40
1.0
 40
1.0
 10
237.1899953846095
 20
140.6935199520558
 30
0.0
 10
236.9528220492057
 20
140.5848276952839
 30
0.0
 10
236.4703665049859
 20
140.3637270314843
 30
0.0
 10
235.7610727522797
 20
140.2186242891261
 30
0.0
 10
235.1125885433601
 20
140.2322435322022
 30
0.0
 10
234.4465574795871
 20
140.3669585080682
 30
0.0
 10
233.9989164120653
 20
140.5698612263531
 30
0.0
 10
233.7261023046454
 20
140.6935199520559
 30
0.0
  0
SPLINE
  5
107
330
1F
100
AcDbEntity
  8
0
  6
HIDDEN
 62
     7
370
     0
100
AcDbSpline
210
0.0
220
0.0
230
1.0
 70
     8
 71
     3
 72
     9
 73
     5
 74
     0
 42
0.000000001
 43
0.00000001
 40
0.0
 40
0.0
 40
0.0
 40
0.0
 40
0.6137544503511965
 40
1.0
 40
1.0
 40
1.0
 40
1.0
 10
233.7261023046454
 20
140.6935199520559
 30
0.0
 10
233.6057992403611
 20
140.5790164874946
 30
0.0
 10
233.4097875222947
 20
140.3924541505605
 30
0.0
 10
233.195381755163
 20
140.3250326224806
 30
0.0
 10
233.1125684817894
 20
140.2989913573092
 30
0.0
  0
SPLINE
  5
108
330
1F
100
AcDbEntity
  8
0
  6
HIDDEN
 62
     7
370
     0
100
AcDbSpline
210
0.0
220
0.0
230
1.0
 70
     8
 71
     3
 72
    13
 73
     9
 74
     0
 42
0.000000001
 43
0.00000001
 40
0.0
 40
0.0
 40
0.0
 40
0.0
 40
0.1281940639112351
 40
0.3016059688761487
 40
0.4802226824374615
 40
0.6449624637537956
 40
0.815590090087479
 40
1.0
 40
1.0
 40
1.0
 40
1.0
 10
231.9612384753905
 20
140.6935199520559
 30
0.0
 10
232.0297448033612
 20
140.62732042127
 30
0.0
 10
232.1909216690551
 20
140.4715708255974
 30
0.0
 10
232.462300850452
 20
140.2930963483365
 30
0.0
 10
232.7671611755592
 20
140.2084123607085
 30
0.0
 10
233.0719286041534
 20
140.2576881754112
 30
0.0
 10
233.3706061443814
 20
140.4194859635985
 30
0.0
 10
233.5612470215432
 20
140.5998415344746
 30
0.0
 10
233.6602677260995
 20
140.6935199520558
 30
0.0
  0
LINE
  5
109
330
1F
100
AcDbEntity
  8
0
  6
HIDDEN
 62
     7
370
     0
100
AcDbLine
 10
232.8107531007
 20
132.8294183369
 30
0.0
 11
238.4251315554
 21
132.8294183369
 31
0.0
  0
LINE
  5
10A
330
1F
100
AcDbEntity
  8
0
  6
HIDDEN
 62
     7
370
     0
100
AcDbLine
 10
232.4251315554
 20
132.8294183369
 30
0.0
 11
232.8107531007
 21
132.8294183369
 31
0.0
  0
LINE
  5
10B
330
1F
100
AcDbEntity
  8
0
  6
HIDDEN
 62
     7
370
     0
100
AcDbLine
 10
237.1241608061
 20
133.8294183369
 30
0.0
 11
235.3922142661
 21
133.8294183369
 31
0.0
  0
LINE
  5
10C
330
1F
100
AcDbEntity
  8
0
  6
HIDDEN
 62
     7
370
     0
100
AcDbLine
 10
235.3922142661
 20
133.8294183369
 30
0.0
 11
233.6602677261
 21
133.8294183369
 31
0.0
  0
LINE
  5
10D
330
1F
100
AcDbEntity
  8
0
  6
HIDDEN
 62
     7
370
     0
100
AcDbLine
 10
238.0065927207
 20
133.8294183369
 30
0.0
 11
237.1241608061
 21
133.8294183369
 31
0.0
  0
LINE
  5
10E
330
1F
100
AcDbEntity
  8
0
  6
HIDDEN
 62
     7
370
     0
100
AcDbLine
 10
237.1241608061
 20
133.8294183369
 30
0.0
 11
237.1241608061
 21
140.6935199521
 31
0.0
  0
LINE
  5
10F
330
1F
100
AcDbEntity
  8
0
  6
HIDDEN
 62
     7
370
     0
100
AcDbLine
 10
233.6602677261
 20
133.8294183369
 30
0.0
 11
232.8107531007
 21
133.8294183369
 31
0.0
  0
LINE
  5
110
330
1F
100
AcDbEntity
  8
0
  6
HIDDEN
 62
     7
370
     0
100
AcDbLine
 10
233.6602677261
 20
133.8294183369
 30
0.0
 11
233.6602677261
 21
140.6935199521
 31
0.0
  0
LINE
  5
111
330
1F
100
AcDbEntity
  8
0
  6
HIDDEN
 62
     7
370
     0
100
AcDbLine
 10
238.8890246353
 20
133.8294183369
 30
0.0
 11
238.0065927207
 21
133.8294183369
 31
0.0
  0
LINE
  5
112
330
1F
100
AcDbEntity
  8
0
  6
HIDDEN
 62
     7
370
     0
100
AcDbLine
 10
232.8107531007
 20
133.8294183369
 30
0.0
 11
231.9612384754
 21
133.8294183369
 31
0.0
  0
LINE
  5
113
330
1F
100
AcDbEntity
  8
0
  6
HIDDEN
 62
     7
370
     0
100
AcDbLine
 10
233.7261023046
 20
133.8294183369
 30
0.0
 11
233.7261023046
 21
140.6935199521
 31
0.0
  0
LINE
  5
114
330
1F
100
AcDbEntity
  8
0
  6
HIDDEN
 62
     7
370
     0
100
AcDbLine
 10
231.9612384754
 20
133.8294183369
 30
0.0
 11
231.9612384754
 21
140.6935199521
 31
0.0
  0
LINE
  5
115
330
1F
100
AcDbEntity
  8
0
  6
HIDDEN
 62
     7
370
     0
100
AcDbLine
 10
237.1899953846
 20
133.8294183369
 30
0.0
 11
237.1899953846
 21
140.6935199521
 31
0.0
  0
LINE
  5
116
330
1F
100
AcDbEntity
  8
0
  6
HIDDEN
 62
     7
370
     0
100
AcDbLine
 10
238.8890246353
 20
133.8294183369
 30
0.0
 11
238.8890246353
 21
140.6935199521
 31
0.0
  0
LWPOLYLINE
  5
117
330
1F
100
AcDbEntity
  8
0
  6
HIDDEN
 62
     7
370
     0
100
AcDbPolyline
 90
       22
 70
   128
 43
0.0
 10
165.6833417166
 20
103.6114770878
 10
165.750882963
 20
102.7735538176
 10
166.0782565297
 20
101.9915646518
 10
166.6363738386
 20
101.3349927596
 10
167.3756437176
 20
100.8621774349
 10
168.2303787937
 20
100.6151303942
 10
169.1246321044
 20
100.6158028512
 10
169.9789453188
 20
100.8641350552
 10
170.7174089585
 20
101.3380616
 10
171.2744072886
 20
101.9954720324
 10
171.6004485631
 20
102.7779525504
 10
171.6665625839
 20
103.6159763262
 10
171.4668748301
 20
104.4350812696
 10
171.019128435
 20
105.1624863119
 10
170.3631076307
 20
105.7335583229
 10
169.5571027445
 20
106.0975550483
 10
168.6727308477
 20
106.2221337817
 10
167.7885722643
 20
106.0962251559
 10
166.9831883646
 20
105.7310167048
 10
166.3281410422
 20
105.1589588021
 10
165.8816341266
 20
104.4308813028
 10
165.6833417166
 20
103.6114770878
  0
LWPOLYLINE
  5
118
330
1F
100
AcDbEntity
  8
0
  6
HIDDEN
 62
     7
370
     0
100
AcDbPolyline
 90
       22
 70
   128
 43
0.0
 10
165.6833417166
 20
104.8700630847
 10
165.750882963
 20
104.0321398145
 10
166.0782565297
 20
103.2501506487
 10
166.6363738386
 20
102.5935787565
 10
167.3756437176
 20
102.1207634318
 10
168.2303787937
 20
101.8737163911
 10
169.1246321044
 20
101.8743888481
 10
169.9789453188
 20
102.1227210521
 10
170.7174089585
 20
102.5966475969
 10
171.2744072886
 20
103.2540580293
 10
171.6004485631
 20
104.0365385473
 10
171.6665625839
 20
104.8745623231
 10
171.4668748301
 20
105.6936672665
 10
171.019128435
 20
106.4210723088
 10
170.3631076307
 20
106.9921443198
 10
169.5571027445
 20
107.3561410452
 10
168.6727308477
 20
107.4807197786
 10
167.7885722643
 20
107.3548111528
 10
166.9831883646
 20
106.9896027017
 10
166.3281410422
 20
106.417544799
 10
165.8816341266
 20
105.6894672997
 10
165.6833417166
 20
104.8700630847
  0
LINE
  5
119
330
1F
100
AcDbEntity
  8
0
  6
HIDDEN
 62
     7
370
     0
100
AcDbLine
 10
167.9223743281
 20
105.4434496977
 30
0.0
 11
167.9223743281
 21
104.7594094111
 31
0.0
  0
LINE
  5
11A
330
1F
100
AcDbEntity
  8
0
  6
HIDDEN
 62
     7
370
     0
100
AcDbLine
 10
169.6496849969
 20
105.3231182011
 30
0.0
 11
169.6496849969
 21
104.6390779145
 31
0.0
  0
LINE
  5
11B
330
1F
100
AcDbEntity
  8
0
  6
HIDDEN
 62
     7
370
     0
100
AcDbLine
 10
167.1533647763
 20
103.6976775886
 30
0.0
 11
166.9478208866
 21
104.0979340288
 31
0.0
  0
LINE
  5
11C
330
1F
100
AcDbEntity
  8
0
  6
HIDDEN
 62
     7
370
     0
100
AcDbLine
 10
166.9478208866
 20
104.0979340288
 30
0.0
 11
166.9478208866
 21
103.4138937421
 31
0.0
  0
LINE
  5
11D
330
1F
100
AcDbEntity
  8
0
  6
HIDDEN
 62
     7
370
     0
100
AcDbLine
 10
170.1968983344
 20
103.5734871891
 30
0.0
 11
170.4024422241
 21
103.8572710356
 31
0.0
  0
LINE
  5
11E
330
1F
100
AcDbEntity
  8
0
  6
HIDDEN
 62
     7
370
     0
100
AcDbLine
 10
170.4024422241
 20
103.8572710356
 30
0.0
 11
170.4024422241
 21
103.173230749
 31
0.0
  0
LINE
  5
11F
330
1F
100
AcDbEntity
  8
0
  6
HIDDEN
 62
     7
370
     0
100
AcDbLine
 10
169.6496849969
 20
105.3231182011
 30
0.0
 11
170.4024422241
 21
103.8572710356
 31
0.0
  0
LINE
  5
120
330
1F
100
AcDbEntity
  8
0
  6
HIDDEN
 62
     7
370
     0
100
AcDbLine
 10
167.9223743281
 20
105.4434496977
 30
0.0
 11
169.6496849969
 21
105.3231182011
 31
0.0
  0
LINE
  5
121
330
1F
100
AcDbEntity
  8
0
  6
HIDDEN
 62
     7
370
     0
100
AcDbLine
 10
167.9223743281
 20
105.4434496977
 30
0.0
 11
166.9478208866
 21
104.0979340288
 31
0.0
  0
LWPOLYLINE
  5
122
330
1F
100
AcDbEntity
  8
0
  6
HIDDEN
 62
     7
370
     0
100
AcDbPolyline
 90
       18
 70
   128
 43
0.0
 10
166.6806049962
 20
105.1426098061
 10
166.7618762388
 20
104.4561727724
 10
167.1015432136
 20
103.8436773227
 10
167.6537320136
 20
103.3878443612
 10
168.3438664814
 20
103.1502366554
 10
169.078740133
 20
103.1629444425
 10
169.7591042098
 20
103.4242514654
 10
170.2930717731
 20
103.8988667629
 10
170.6085275447
 20
104.5226909089
 10
170.6628674746
 20
105.2114729959
 10
170.4487526541
 20
105.8721891863
 10
169.9951004764
 20
106.4156060975
 10
169.3631791816
 20
106.7683322644
 10
168.6383332423
 20
106.8827300637
 10
167.9184571191
 20
106.7433494386
 10
167.3007740714
 20
106.369014515
 10
166.8687056174
 20
105.8102812985
 10
166.6806049962
 20
105.1426098061
  0
LWPOLYLINE
  5
123
330
1F
100
AcDbEntity
  8
0
  6
HIDDEN
 62
     7
370
     0
100
AcDbPolyline
 90
       22
 70
   128
 43
0.0
 10
152.1522240447
 20
129.9234198266
 10
152.1602247641
 20
130.7683483902
 10
152.2996418709
 20
131.6493682258
 10
152.5580875433
 20
132.4881968547
 10
152.9125977493
 20
133.2103006722
 10
153.3316727012
 20
133.7515175851
 10
153.7780757505
 20
134.0637580956
 10
154.2121420273
 20
134.1192782642
 10
154.595302838
 20
133.9131448801
 10
154.8935126631
 20
133.4636737993
 10
155.0802742509
 20
132.8108024996
 10
155.1389930149
 20
132.0125414611
 10
155.0644515351
 20
131.1398196803
 10
154.8632731491
 20
130.2701823172
 10
154.5533334395
 20
129.4809004678
 10
154.1621719094
 20
128.8421052883
 10
153.7245449775
 20
128.4105565335
 10
153.2793377172
 20
128.2245992043
 10
152.8661087473
 20
128.3007564252
 10
152.5215752752
 20
128.6322612932
 10
152.2763506118
 20
129.1896581458
 10
152.1522240447
 20
129.9234198266
  0
LWPOLYLINE
  5
124
330
1F
100
AcDbEntity
  8
0
  6
HIDDEN
 62
     7
370
     0
100
AcDbPolyline
 90
       18
 70
   128
 43
0.0
 10
153.5139191571
 20
130.1694474303
 10
153.5334221676
 20
130.870699922
 10
153.68417707
 20
131.5898908768
 10
153.9458235793
 20
132.2298895712
 10
154.2830248846
 20
132.704260635
 10
154.6502400811
 20
132.9489376275
 10
154.9978747218
 20
132.9308755651
 10
155.278978822
 20
132.6525138295
 10
155.4555877155
 20
132.1514467153
 10
155.5038493925
 20
131.4953461131
 10
155.4172458461
 20
130.7728220445
 10
155.2074733652
 20
130.0814553888
 10
154.9028628856
 20
129.5146190438
 10
154.5445537406
 20
129.1488673988
 10
154.1809375656
 20
129.0335972402
 10
153.86112274
 20
129.1843764417
 10
153.6283020281
 20
129.5808414365
 10
153.5139191571
 20
130.1694474303
  0
LWPOLYLINE
  5
125
330
1F
100
AcDbEntity
  8
0
  6
HIDDEN
 62
     7
370
     0
100
AcDbPolyline
 90
       22
 70
   128
 43
0.0
 10
148.9653724296
 20
130.552712825
 10
148.9733731489
 20
131.3976413886
 10
149.1127902557
 20
132.2786612242
 10
149.3712359282
 20
133.1174898532
 10
149.7257461341
 20
133.8395936707
 10
150.144821086
 20
134.3808105836
 10
150.5912241354
 20
134.6930510941
 10
151.0252904121
 20
134.7485712626
 10
151.4084512228
 20
134.5424378786
 10
151.7066610479
 20
134.0929667977
 10
151.8934226358
 20
133.440095498
 10
151.9521413998
 20
132.6418344596
 10
151.87759992
 20
131.7691126787
 10
151.676421534
 20
130.8994753156
 10
151.3664818243
 20
130.1101934663
 10
150.9753202943
 20
129.4713982867
 10
150.5376933624
 20
129.039849532
 10
150.0924861021
 20
128.8538922027
 10
149.6792571322
 20
128.9300494237
 10
149.3347236601
 20
129.2615542916
 10
149.0894989967
 20
129.8189511442
 10
148.9653724296
 20
130.552712825
  0
LWPOLYLINE
  5
126
330
1F
100
AcDbEntity
  8
0
  6
HIDDEN
 62
     7
370
     0
100
AcDbPolyline
 90
       20
 70
   128
 43
0.0
 10
148.962971283
 20
130.8387075042
 10
148.976510139
 20
131.6027825894
 10
149.1199382239
 20
132.3945765497
 10
149.3777128794
 20
133.1282862235
 10
149.7219002216
 20
133.7244027831
 10
150.1152022114
 20
134.1183277494
 10
150.5149984755
 20
134.2673732401
 10
150.8779648853
 20
134.1553878635
 10
151.1647683982
 20
133.7945069727
 10
151.3443294033
 20
133.2238376121
 10
151.3971896797
 20
132.5052206615
 10
151.3176209961
 20
131.7165294182
 10
151.114245854
 20
130.9432308162
 10
150.8091031059
 20
130.2691237578
 10
150.4352597031
 20
129.7672582028
 10
150.0332273792
 20
129.4920190713
 10
149.6465725747
 20
129.473232794
 10
149.3171953372
 20
129.7129351555
 10
149.0807888011
 20
130.1851506855
 10
148.962971283
 20
130.8387075042
  0
LINE
  5
127
330
1F
100
AcDbEntity
  8
0
  6
HIDDEN
 62
     7
370
     0
100
AcDbLine
 10
149.647375519
 20
132.8363922529
 30
0.0
 11
149.3166064363
 21
131.136242697
 31
0.0
  0
LINE
  5
128
330
1F
100
AcDbEntity
  8
0
  6
HIDDEN
 62
     7
370
     0
100
AcDbLine
 10
151.3794263266
 20
132.4943721096
 30
0.0
 11
151.0486572439
 21
130.7942225537
 31
0.0
  0
LINE
  5
129
330
1F
100
AcDbEntity
  8
0
  6
HIDDEN
 62
     7
370
     0
100
AcDbLine
 10
151.3794263266
 20
132.4943721096
 30
0.0
 11
152.2379514456
 21
133.2167025521
 31
0.0
  0
LINE
  5
12A
330
1F
100
AcDbEntity
  8
0
  6
HIDDEN
 62
     7
370
     0
100
AcDbLine
 10
151.3794263266
 20
132.4943721096
 30
0.0
 11
149.647375519
 21
132.8363922529
 31
0.0
  0
LINE
  5
12B
330
1F
100
AcDbEntity
  8
0
  6
HIDDEN
 62
     7
370
     0
100
AcDbLine
 10
149.647375519
 20
132.8363922529
 30
0.0
 11
150.505900638
 21
133.5587226954
 31
0.0
  0
LINE
  5
12C
330
1F
100
AcDbEntity
  8
0
  6
HIDDEN
 62
     7
370
     0
100
AcDbLine
 10
151.5764132802
 20
129.8164034403
 30
0.0
 11
151.0486572439
 21
130.7942225537
 31
0.0
  0
LINE
  5
12D
330
1F
100
AcDbEntity
  8
0
  6
HIDDEN
 62
     7
370
     0
100
AcDbLine
 10
151.0486572439
 20
130.7942225537
 30
0.0
 11
149.3166064363
 21
131.136242697
 31
0.0
  0
LINE
  5
12E
330
1F
100
AcDbEntity
  8
0
  6
HIDDEN
 62
     7
370
     0
100
AcDbLine
 10
149.8443624727
 20
130.1584235836
 30
0.0
 11
149.3166064363
 21
131.136242697
 31
0.0
  0
LINE
  5
12F
330
1F
100
AcDbEntity
  8
0
  6
HIDDEN
 62
     7
370
     0
100
AcDbLine
 10
152.765707482
 20
132.2388834387
 30
0.0
 11
151.0336566744
 21
132.580903582
 31
0.0
  0
LINE
  5
130
330
1F
100
AcDbEntity
  8
0
  6
HIDDEN
 62
     7
370
     0
100
AcDbLine
 10
152.2379514456
 20
133.2167025521
 30
0.0
 11
150.505900638
 21
133.5587226954
 31
0.0
  0
LINE
  5
131
330
1F
100
AcDbEntity
  8
0
  6
HIDDEN
 62
     7
370
     0
100
AcDbLine
 10
152.2379514456
 20
133.2167025521
 30
0.0
 11
152.765707482
 21
132.2388834387
 31
0.0
  0
LINE
  5
132
330
1F
100
AcDbEntity
  8
0
  6
HIDDEN
 62
     7
370
     0
100
AcDbLine
 10
150.505900638
 20
133.5587226954
 30
0.0
 11
151.0336566744
 21
132.580903582
 31
0.0
  0
LINE
  5
133
330
1F
100
AcDbEntity
  8
0
  6
HIDDEN
 62
     7
370
     0
100
AcDbLine
 10
152.4349383993
 20
130.5387338828
 30
0.0
 11
150.7028875917
 21
130.8807540261
 31
0.0
  0
LINE
  5
134
330
1F
100
AcDbEntity
  8
0
  6
HIDDEN
 62
     7
370
     0
100
AcDbLine
 10
151.5764132802
 20
129.8164034403
 30
0.0
 11
149.8443624727
 21
130.1584235836
 31
0.0
  0
LINE
  5
135
330
1F
100
AcDbEntity
  8
0
  6
HIDDEN
 62
     7
370
     0
100
AcDbLine
 10
151.5764132802
 20
129.8164034403
 30
0.0
 11
152.4349383993
 21
130.5387338828
 31
0.0
  0
LINE
  5
136
330
1F
100
AcDbEntity
  8
0
  6
HIDDEN
 62
     7
370
     0
100
AcDbLine
 10
149.8443624727
 20
130.1584235836
 30
0.0
 11
150.7028875917
 21
130.8807540261
 31
0.0
  0
LINE
  5
137
330
1F
100
AcDbEntity
  8
0
  6
HIDDEN
 62
     7
370
     0
100
AcDbLine
 10
152.4349383993
 20
130.5387338828
 30
0.0
 11
152.765707482
 21
132.2388834387
 31
0.0
  0
LINE
  5
138
330
1F
100
AcDbEntity
  8
0
  6
HIDDEN
 62
     7
370
     0
100
AcDbLine
 10
150.7028875917
 20
130.8807540261
 30
0.0
 11
151.0336566744
 21
132.580903582
 31
0.0
  0
LWPOLYLINE
  5
139
330
1F
100
AcDbEntity
  8
0
  6
HIDDEN
 62
     7
370
     0
100
AcDbPolyline
 90
       22
 70
   128
 43
0.0
 10
171.6669213941
 20
130.7887735891
 10
171.4686289841
 20
129.9693693742
 10
171.0221220685
 20
129.2412918748
 10
170.3670747462
 20
128.6692339721
 10
169.5616908464
 20
128.3040255211
 10
168.677532263
 20
128.1781168952
 10
167.7931603662
 20
128.3026956286
 10
166.98715548
 20
128.666692354
 10
166.3311346757
 20
129.237764365
 10
165.8833882806
 20
129.9651694073
 10
165.6837005268
 20
130.7842743507
 10
165.7498145476
 20
131.6222981265
 10
166.0758558221
 20
132.4047786445
 10
166.6328541522
 20
133.0621890769
 10
167.371317792
 20
133.5361156217
 10
168.2256310063
 20
133.7844478257
 10
169.119884317
 20
133.7851202827
 10
169.9746193931
 20
133.538073242
 10
170.7138892721
 20
133.0652579173
 10
171.272006581
 20
132.4086860251
 10
171.5993801477
 20
131.6266968594
 10
171.6669213941
 20
130.7887735891
  0
LWPOLYLINE
  5
13A
330
1F
100
AcDbEntity
  8
0
  6
HIDDEN
 62
     7
370
     0
100
AcDbPolyline
 90
       18
 70
   128
 43
0.0
 10
170.6696581145
 20
130.5162268677
 10
170.4815574933
 20
129.8485553753
 10
170.0494890394
 20
129.2898221588
 10
169.4318059916
 20
128.9154872352
 10
168.7119298684
 20
128.7761066102
 10
167.9870839291
 20
128.8905044094
 10
167.3551626344
 20
129.2432305764
 10
166.9015104566
 20
129.7866474875
 10
166.6873956361
 20
130.447363678
 10
166.741735566
 20
131.1361457649
 10
167.0571913376
 20
131.759969911
 10
167.5911589009
 20
132.2345852084
 10
168.2715229777
 20
132.4958922313
 10
169.0063966293
 20
132.5086000184
 10
169.6965310972
 20
132.2709923126
 10
170.2487198971
 20
131.8151593512
 10
170.5883868719
 20
131.2026639014
 10
170.6696581145
 20
130.5162268677
  0
LWPOLYLINE
  5
13B
330
1F
100
AcDbEntity
  8
0
  6
HIDDEN
 62
     7
370
     0
100
AcDbPolyline
 90
       22
 70
   128
 43
0.0
 10
171.6669213941
 20
132.047359586
 10
171.4686289841
 20
131.2279553711
 10
171.0221220685
 20
130.4998778718
 10
170.3670747462
 20
129.927819969
 10
169.5616908464
 20
129.562611518
 10
168.677532263
 20
129.4367028921
 10
167.7931603662
 20
129.5612816255
 10
166.98715548
 20
129.9252783509
 10
166.3311346757
 20
130.4963503619
 10
165.8833882806
 20
131.2237554042
 10
165.6837005268
 20
132.0428603476
 10
165.7498145476
 20
132.8808841234
 10
166.0758558221
 20
133.6633646414
 10
166.6328541522
 20
134.3207750738
 10
167.371317792
 20
134.7947016186
 10
168.2256310063
 20
135.0430338226
 10
169.119884317
 20
135.0437062796
 10
169.9746193931
 20
134.7966592389
 10
170.7138892721
 20
134.3238439142
 10
171.272006581
 20
133.667272022
 10
171.5993801477
 20
132.8852828563
 10
171.6669213941
 20
132.047359586
  0
LINE
  5
13C
330
1F
100
AcDbEntity
  8
0
  6
HIDDEN
 62
     7
370
     0
100
AcDbLine
 10
167.9223743281
 20
133.1470813071
 30
0.0
 11
166.9478208866
 21
131.8015656382
 31
0.0
  0
LINE
  5
13D
330
1F
100
AcDbEntity
  8
0
  6
HIDDEN
 62
     7
370
     0
100
AcDbLine
 10
167.9223743281
 20
133.1470813071
 30
0.0
 11
167.9223743281
 21
133.8311215938
 31
0.0
  0
LINE
  5
13E
330
1F
100
AcDbEntity
  8
0
  6
HIDDEN
 62
     7
370
     0
100
AcDbLine
 10
169.6496849969
 20
133.0267498105
 30
0.0
 11
167.9223743281
 21
133.1470813071
 31
0.0
  0
LINE
  5
13F
330
1F
100
AcDbEntity
  8
0
  6
HIDDEN
 62
     7
370
     0
100
AcDbLine
 10
169.6496849969
 20
133.0267498105
 30
0.0
 11
169.6496849969
 21
133.7107900972
 31
0.0
  0
LINE
  5
140
330
1F
100
AcDbEntity
  8
0
  6
HIDDEN
 62
     7
370
     0
100
AcDbLine
 10
169.6496849969
 20
133.0267498105
 30
0.0
 11
170.4024422241
 21
131.560902645
 31
0.0
  0
LINE
  5
141
330
1F
100
AcDbEntity
  8
0
  6
HIDDEN
 62
     7
370
     0
100
AcDbLine
 10
167.7005781139
 20
130.3357184727
 30
0.0
 11
167.7005781139
 21
131.0197587593
 31
0.0
  0
LINE
  5
142
330
1F
100
AcDbEntity
  8
0
  6
HIDDEN
 62
     7
370
     0
100
AcDbLine
 10
167.7005781139
 20
131.0197587593
 30
0.0
 11
166.9478208866
 21
132.4856059248
 31
0.0
  0
LINE
  5
143
330
1F
100
AcDbEntity
  8
0
  6
HIDDEN
 62
     7
370
     0
100
AcDbLine
 10
166.9478208866
 20
131.8015656382
 30
0.0
 11
166.9478208866
 21
132.4856059248
 31
0.0
  0
LINE
  5
144
330
1F
100
AcDbEntity
  8
0
  6
HIDDEN
 62
     7
370
     0
100
AcDbLine
 10
167.7005781139
 20
130.3357184727
 30
0.0
 11
166.9478208866
 21
131.8015656382
 31
0.0
  0
LINE
  5
145
330
1F
100
AcDbEntity
  8
0
  6
HIDDEN
 62
     7
370
     0
100
AcDbLine
 10
169.4278887826
 20
130.2153869761
 30
0.0
 11
169.4278887826
 21
130.8994272628
 31
0.0
  0
LINE
  5
146
330
1F
100
AcDbEntity
  8
0
  6
HIDDEN
 62
     7
370
     0
100
AcDbLine
 10
169.4278887826
 20
130.8994272628
 30
0.0
 11
170.4024422241
 21
132.2449429317
 31
0.0
  0
LINE
  5
147
330
1F
100
AcDbEntity
  8
0
  6
HIDDEN
 62
     7
370
     0
100
AcDbLine
 10
170.4024422241
 20
131.560902645
 30
0.0
 11
170.4024422241
 21
132.2449429317
 31
0.0
  0
LINE
  5
148
330
1F
100
AcDbEntity
  8
0
  6
HIDDEN
 62
     7
370
     0
100
AcDbLine
 10
169.4278887826
 20
130.2153869761
 30
0.0
 11
170.4024422241
 21
131.560902645
 31
0.0
  0
LINE
  5
149
330
1F
100
AcDbEntity
  8
0
  6
HIDDEN
 62
     7
370
     0
100
AcDbLine
 10
169.4278887826
 20
130.8994272628
 30
0.0
 11
167.7005781139
 21
131.0197587593
 31
0.0
  0
LINE
  5
14A
330
1F
100
AcDbEntity
  8
0
  6
HIDDEN
 62
     7
370
     0
100
AcDbLine
 10
169.4278887826
 20
130.2153869761
 30
0.0
 11
167.7005781139
 21
130.3357184727
 31
0.0
  0
LWPOLYLINE
  5
14B
330
1F
100
AcDbEntity
  8
0
  6
HIDDEN
 62
     7
370
     0
100
AcDbPolyline
 90
       20
 70
   128
 43
0.0
 10
171.1139389056
 20
132.1953771749
 10
170.9230916464
 20
131.460459399
 10
170.4886430307
 20
130.8235923712
 10
169.8576723071
 20
130.3537905159
 10
169.098554944
 20
130.1019641539
 10
168.2935530867
 20
130.0954025791
 10
167.5299011772
 20
130.3348168397
 10
166.8903527493
 20
130.7942626859
 10
166.4442127988
 20
131.4239520311
 10
166.2398275118
 20
132.1556482642
 10
166.2993452055
 20
132.9100607448
 10
166.6163162144
 20
133.6054371748
 10
167.1563918112
 20
134.1664227282
 10
167.8610464251
 20
134.5322259155
 10
168.6539197946
 20
134.6632062854
 10
169.4490917875
 20
134.5451700826
 10
170.1603931801
 20
134.190908361
 10
170.7107434294
 20
133.6388108752
 10
171.0405035464
 20
132.9487059544
 10
171.1139389056
 20
132.1953771749
  0
LINE
  5
14C
330
1F
100
AcDbEntity
  8
0
  6
HIDDEN
 62
     7
370
     0
100
AcDbLine
 10
169.6496849969
 20
133.7107900972
 30
0.0
 11
170.4024422241
 21
132.2449429317
 31
0.0
  0
LINE
  5
14D
330
1F
100
AcDbEntity
  8
0
  6
HIDDEN
 62
     7
370
     0
100
AcDbLine
 10
169.6496849969
 20
133.7107900972
 30
0.0
 11
167.9223743281
 21
133.8311215938
 31
0.0
  0
LINE
  5
14E
330
1F
100
AcDbEntity
  8
0
  6
HIDDEN
 62
     7
370
     0
100
AcDbLine
 10
167.9223743281
 20
133.8311215938
 30
0.0
 11
166.9478208866
 21
132.4856059248
 31
0.0
  0
LWPOLYLINE
  5
14F
330
1F
100
AcDbEntity
  8
0
  6
HIDDEN
 62
     7
370
     0
100
AcDbPolyline
 90
       20
 70
   128
 43
0.0
 10
148.962971283
 20
104.8201291696
 10
148.976510139
 20
104.0560540844
 10
149.1199382239
 20
103.2642601241
 10
149.3777128794
 20
102.5305504503
 10
149.7219002216
 20
101.9344338907
 10
150.1152022114
 20
101.5405089244
 10
150.5149984755
 20
101.3914634338
 10
150.8779648853
 20
101.5034488104
 10
151.1647683982
 20
101.8643297011
 10
151.3443294033
 20
102.4349990618
 10
151.3971896797
 20
103.1536160123
 10
151.3176209961
 20
103.9423072556
 10
151.114245854
 20
104.7156058577
 10
150.8091031059
 20
105.389712916
 10
150.4352597031
 20
105.891578471
 10
150.0332273792
 20
106.1668176025
 10
149.6465725747
 20
106.1856038798
 10
149.3171953372
 20
105.9459015184
 10
149.0807888011
 20
105.4736859883
 10
148.962971283
 20
104.8201291696
  0
LWPOLYLINE
  5
150
330
1F
100
AcDbEntity
  8
0
  6
HIDDEN
 62
     7
370
     0
100
AcDbPolyline
 90
       22
 70
   128
 43
0.0
 10
148.9653724296
 20
105.1061238488
 10
148.9733731489
 20
104.2611952852
 10
149.1127902557
 20
103.3801754496
 10
149.3712359282
 20
102.5413468206
 10
149.7257461341
 20
101.8192430032
 10
150.144821086
 20
101.2780260903
 10
150.5912241354
 20
100.9657855797
 10
151.0252904121
 20
100.9102654112
 10
151.4084512228
 20
101.1163987952
 10
151.7066610479
 20
101.5658698761
 10
151.8934226358
 20
102.2187411758
 10
151.9521413998
 20
103.0170022143
 10
151.87759992
 20
103.8897239951
 10
151.676421534
 20
104.7593613582
 10
151.3664818243
 20
105.5486432076
 10
150.9753202943
 20
106.1874383871
 10
150.5376933624
 20
106.6189871419
 10
150.0924861021
 20
106.8049444711
 10
149.6792571322
 20
106.7287872501
 10
149.3347236601
 20
106.3972823822
 10
149.0894989967
 20
105.8398855296
 10
148.9653724296
 20
105.1061238488
  0
LWPOLYLINE
  5
151
330
1F
100
AcDbEntity
  8
0
  6
HIDDEN
 62
     7
370
     0
100
AcDbPolyline
 90
       22
 70
   128
 43
0.0
 10
152.1522240447
 20
105.7354168473
 10
152.1602247641
 20
104.8904882837
 10
152.2996418709
 20
104.009468448
 10
152.5580875433
 20
103.1706398191
 10
152.9125977493
 20
102.4485360016
 10
153.3316727012
 20
101.9073190887
 10
153.7780757505
 20
101.5950785782
 10
154.2121420273
 20
101.5395584097
 10
154.595302838
 20
101.7456917937
 10
154.8935126631
 20
102.1951628746
 10
155.0802742509
 20
102.8480341743
 10
155.1389930149
 20
103.6462952127
 10
155.0644515351
 20
104.5190169936
 10
154.8632731491
 20
105.3886543567
 10
154.5533334395
 20
106.177936206
 10
154.1621719094
 20
106.8167313856
 10
153.7245449775
 20
107.2482801403
 10
153.2793377172
 20
107.4342374696
 10
152.8661087473
 20
107.3580802486
 10
152.5215752752
 20
107.0265753807
 10
152.2763506118
 20
106.4691785281
 10
152.1522240447
 20
105.7354168473
  0
LINE
  5
152
330
1F
100
AcDbEntity
  8
0
  6
HIDDEN
 62
     7
370
     0
100
AcDbLine
 10
150.505900638
 20
102.1001139784
 30
0.0
 11
151.0336566744
 21
103.0779330918
 31
0.0
  0
LINE
  5
153
330
1F
100
AcDbEntity
  8
0
  6
HIDDEN
 62
     7
370
     0
100
AcDbLine
 10
150.7028875917
 20
104.7780826477
 30
0.0
 11
151.0336566744
 21
103.0779330918
 31
0.0
  0
LINE
  5
154
330
1F
100
AcDbEntity
  8
0
  6
HIDDEN
 62
     7
370
     0
100
AcDbLine
 10
149.8443624727
 20
105.5004130903
 30
0.0
 11
150.7028875917
 21
104.7780826477
 31
0.0
  0
LINE
  5
155
330
1F
100
AcDbEntity
  8
0
  6
HIDDEN
 62
     7
370
     0
100
AcDbLine
 10
149.8443624727
 20
105.5004130903
 30
0.0
 11
149.3166064363
 21
104.5225939768
 31
0.0
  0
LINE
  5
156
330
1F
100
AcDbEntity
  8
0
  6
HIDDEN
 62
     7
370
     0
100
AcDbLine
 10
149.647375519
 20
102.8224444209
 30
0.0
 11
149.3166064363
 21
104.5225939768
 31
0.0
  0
LINE
  5
157
330
1F
100
AcDbEntity
  8
0
  6
HIDDEN
 62
     7
370
     0
100
AcDbLine
 10
149.647375519
 20
102.8224444209
 30
0.0
 11
150.505900638
 21
102.1001139784
 31
0.0
  0
LWPOLYLINE
  5
158
330
1F
100
AcDbEntity
  8
0
  6
HIDDEN
 62
     7
370
     0
100
AcDbPolyline
 90
       18
 70
   128
 43
0.0
 10
153.5139191571
 20
105.4893892435
 10
153.5334221676
 20
104.7881367518
 10
153.68417707
 20
104.068945797
 10
153.9458235793
 20
103.4289471027
 10
154.2830248846
 20
102.9545760389
 10
154.6502400811
 20
102.7098990463
 10
154.9978747218
 20
102.7279611087
 10
155.278978822
 20
103.0063228444
 10
155.4555877155
 20
103.5073899585
 10
155.5038493925
 20
104.1634905608
 10
155.4172458461
 20
104.8860146293
 10
155.2074733652
 20
105.577381285
 10
154.9028628856
 20
106.14421763
 10
154.5445537406
 20
106.509969275
 10
154.1809375656
 20
106.6252394336
 10
153.86112274
 20
106.4744602321
 10
153.6283020281
 20
106.0779952373
 10
153.5139191571
 20
105.4893892435
  0
LINE
  5
159
330
1F
100
AcDbEntity
  8
0
  6
HIDDEN
 62
     7
370
     0
100
AcDbLine
 10
152.4349383993
 20
105.1201027911
 30
0.0
 11
150.7028875917
 21
104.7780826477
 31
0.0
  0
LINE
  5
15A
330
1F
100
AcDbEntity
  8
0
  6
HIDDEN
 62
     7
370
     0
100
AcDbLine
 10
152.765707482
 20
103.4199532351
 30
0.0
 11
151.0336566744
 21
103.0779330918
 31
0.0
  0
LINE
  5
15B
330
1F
100
AcDbEntity
  8
0
  6
HIDDEN
 62
     7
370
     0
100
AcDbLine
 10
151.5764132802
 20
105.8424332336
 30
0.0
 11
151.0486572439
 21
104.8646141202
 31
0.0
  0
LINE
  5
15C
330
1F
100
AcDbEntity
  8
0
  6
HIDDEN
 62
     7
370
     0
100
AcDbLine
 10
151.3794263266
 20
103.1644645642
 30
0.0
 11
152.2379514456
 21
102.4421341217
 31
0.0
  0
LINE
  5
15D
330
1F
100
AcDbEntity
  8
0
  6
HIDDEN
 62
     7
370
     0
100
AcDbLine
 10
151.3794263266
 20
103.1644645642
 30
0.0
 11
151.0486572439
 21
104.8646141202
 31
0.0
  0
LINE
  5
15E
330
1F
100
AcDbEntity
  8
0
  6
HIDDEN
 62
     7
370
     0
100
AcDbLine
 10
152.2379514456
 20
102.4421341217
 30
0.0
 11
152.765707482
 21
103.4199532351
 31
0.0
  0
LINE
  5
15F
330
1F
100
AcDbEntity
  8
0
  6
HIDDEN
 62
     7
370
     0
100
AcDbLine
 10
151.5764132802
 20
105.8424332336
 30
0.0
 11
152.4349383993
 21
105.1201027911
 31
0.0
  0
LINE
  5
160
330
1F
100
AcDbEntity
  8
0
  6
HIDDEN
 62
     7
370
     0
100
AcDbLine
 10
152.4349383993
 20
105.1201027911
 30
0.0
 11
152.765707482
 21
103.4199532351
 31
0.0
  0
LINE
  5
161
330
1F
100
AcDbEntity
  8
0
  6
HIDDEN
 62
     7
370
     0
100
AcDbLine
 10
151.0486572439
 20
104.8646141202
 30
0.0
 11
149.3166064363
 21
104.5225939768
 31
0.0
  0
LINE
  5
162
330
1F
100
AcDbEntity
  8
0
  6
HIDDEN
 62
     7
370
     0
100
AcDbLine
 10
151.5764132802
 20
105.8424332336
 30
0.0
 11
149.8443624727
 21
105.5004130903
 31
0.0
  0
LINE
  5
163
330
1F
100
AcDbEntity
  8
0
  6
HIDDEN
 62
     7
370
     0
100
AcDbLine
 10
151.3794263266
 20
103.1644645642
 30
0.0
 11
149.647375519
 21
102.8224444209
 31
0.0
  0
LINE
  5
164
330
1F
100
AcDbEntity
  8
0
  6
HIDDEN
 62
     7
370
     0
100
AcDbLine
 10
152.2379514456
 20
102.4421341217
 30
0.0
 11
150.505900638
 21
102.1001139784
 31
0.0
  0
LINE
  5
165
330
1F
100
AcDbEntity
  8
0
  6
HIDDEN
 62
     7
370
     0
100
AcDbLine
 10
148.4751315554
 20
100.4066427341
 30
0.0
 11
150.756305434
 21
100.8570956963
 31
0.0
  0
LINE
  5
166
330
1F
100
AcDbEntity
  8
0
  6
HIDDEN
 62
     7
370
     0
100
AcDbLine
 10
149.5939576767
 20
106.7434313724
 30
0.0
 11
148.4751315554
 21
106.5225019004
 31
0.0
  0
LINE
  5
167
330
1F
100
AcDbEntity
  8
0
  6
HIDDEN
 62
     7
370
     0
100
AcDbLine
 10
171.1751315554
 20
103.2937234277
 30
0.0
 11
171.1751315554
 21
116.3760612328
 31
0.0
  0
LINE
  5
168
330
1F
100
AcDbEntity
  8
0
  6
HIDDEN
 62
     7
370
     0
100
AcDbLine
 10
166.1751315554
 20
106.1334742213
 30
0.0
 11
166.1751315554
 21
103.2935948994
 31
0.0
  0
LINE
  5
169
330
1F
100
AcDbEntity
  8
0
  6
HIDDEN
 62
     7
370
     0
100
AcDbLine
 10
166.1751315554
 20
116.3771213987
 30
0.0
 11
166.1751315554
 21
107.7888833699
 31
0.0
  0
LINE
  5
16A
330
1F
100
AcDbEntity
  8
0
  6
HIDDEN
 62
     7
370
     0
100
AcDbLine
 10
150.8656399926
 20
101.796064366
 30
0.0
 11
167.0933242553
 21
105.000470884
 31
0.0
  0
LINE
  5
16B
330
1F
100
AcDbEntity
  8
0
  6
HIDDEN
 62
     7
370
     0
100
AcDbLine
 10
167.0927657961
 20
109.281462024
 30
0.0
 11
150.0519965625
 21
105.9164993392
 31
0.0
  0
ARC
  5
16C
330
1F
100
AcDbEntity
  8
0
  6
HIDDEN
 62
     7
370
     0
100
AcDbCircle
 10
248.4751315554
 20
132.8294183369
 30
0.0
 40
1.0
100
AcDbArc
 50
270.0
 51
0.0
  0
ARC
  5
16D
330
1F
100
AcDbEntity
  8
0
  6
HIDDEN
 62
     7
370
     0
100
AcDbCircle
 10
248.4751315554
 20
102.8294183369
 30
0.0
 40
1.0
100
AcDbArc
 50
0.0
 51
90.0
  0
ARC
  5
16E
330
1F
100
AcDbEntity
  8
0
  6
HIDDEN
 62
     7
370
     0
100
AcDbCircle
 10
223.8434790578
 20
131.3294183369
 30
0.0
 40
1.0
100
AcDbArc
 50
75.0
 51
90.0
  0
ARC
  5
16F
330
1F
100
AcDbEntity
  8
0
  6
HIDDEN
 62
     7
370
     0
100
AcDbCircle
 10
223.8434790578
 20
104.3294183369
 30
0.0
 40
1.0
100
AcDbArc
 50
270.0
 51
285.0
  0
LINE
  5
170
330
1F
100
AcDbEntity
  8
0
  6
HIDDEN
 62
     7
370
     0
100
AcDbLine
 10
223.8434790578
 20
132.3294183369
 30
0.0
 11
221.9751315554
 21
132.3294183369
 31
0.0
  0
LINE
  5
171
330
1F
100
AcDbEntity
  8
0
  6
HIDDEN
 62
     7
370
     0
100
AcDbLine
 10
221.9751315554
 20
103.3294183369
 30
0.0
 11
223.8434790578
 21
103.3294183369
 31
0.0
  0
ARC
  5
172
330
1F
100
AcDbEntity
  8
0
  6
HIDDEN
 62
     7
370
     0
100
AcDbCircle
 10
221.9751315554
 20
131.3294183369
 30
0.0
 40
1.0
100
AcDbArc
 50
90.0
 51
180.0
  0
ARC
  5
173
330
1F
100
AcDbEntity
  8
0
  6
HIDDEN
 62
     7
370
     0
100
AcDbCircle
 10
221.9751315554
 20
104.3294183369
 30
0.0
 40
1.0
100
AcDbArc
 50
180.0
 51
270.0
  0
LINE
  5
174
330
1F
100
AcDbEntity
  8
0
  6
HIDDEN
 62
     7
370
     0
100
AcDbLine
 10
224.1022981029
 20
103.3634925106
 30
0.0
 11
225.8411569591
 21
103.8294183369
 31
0.0
  0
LINE
  5
175
330
1F
100
AcDbEntity
  8
0
  6
HIDDEN
 62
     7
370
     0
100
AcDbLine
 10
225.8411569591
 20
131.8294183369
 30
0.0
 11
224.1022981029
 21
132.2953441632
 31
0.0
  0
LINE
  5
176
330
1F
100
AcDbEntity
  8
0
  6
HIDDEN
 62
     7
370
     0
100
AcDbLine
 10
229.9355912412
 20
131.8294183369
 30
0.0
 11
225.8411569591
 21
131.8294183369
 31
0.0
  0
LINE
  5
177
330
1F
100
AcDbEntity
  8
0
  6
HIDDEN
 62
     7
370
     0
100
AcDbLine
 10
248.4751315554
 20
131.8294183369
 30
0.0
 11
240.9240045792
 21
131.8294183369
 31
0.0
  0
LINE
  5
178
330
1F
100
AcDbEntity
  8
0
  6
HIDDEN
 62
     7
370
     0
100
AcDbLine
 10
225.8411569591
 20
103.8294183369
 30
0.0
 11
248.4751315554
 21
103.8294183369
 31
0.0
  0
ARC
  5
179
330
1F
100
AcDbEntity
  8
0
  6
HIDDEN
 62
     7
370
     0
100
AcDbCircle
 10
44.8751315554
 20
104.1294183369
 30
0.0
 40
1.20000000000001
100
AcDbArc
 50
90.0
 51
180.0
  0
ARC
  5
17A
330
1F
100
AcDbEntity
  8
0
  6
HIDDEN
 62
     7
370
     0
100
AcDbCircle
 10
44.8751315554
 20
131.5294183369
 30
0.0
 40
1.200000000000017
100
AcDbArc
 50
180.0
 51
270.0
  0
ARC
  5
17B
330
1F
100
AcDbEntity
  8
0
  6
HIDDEN
 62
     7
370
     0
100
AcDbCircle
 10
176.4751315554
 20
155.1294183369
 30
0.0
 40
2.0
100
AcDbArc
 50
270.0
 51
0.0
  0
ARC
  5
17C
330
1F
100
AcDbEntity
  8
0
  6
HIDDEN
 62
     7
370
     0
100
AcDbCircle
 10
176.4751315554
 20
80.5294183369
 30
0.0
 40
2.0
100
AcDbArc
 50
0.0
 51
90.0
  0
LINE
  5
17D
330
1F
100
AcDbEntity
  8
0
  6
HIDDEN
 62
     7
370
     0
100
AcDbLine
 10
178.4751315554
 20
155.1294183369
 30
0.0
 11
178.4751315554
 21
166.9295216875
 31
0.0
  0
LINE
  5
17E
330
1F
100
AcDbEntity
  8
0
  6
HIDDEN
 62
     7
370
     0
100
AcDbLine
 10
178.4751315554
 20
68.7292029498
 30
0.0
 11
178.4751315554
 21
80.5294183369
 31
0.0
  0
LINE
  5
17F
330
1F
100
AcDbEntity
  8
0
  6
HIDDEN
 62
     7
370
     0
100
AcDbLine
 10
54.5675039861
 20
105.1044183369
 30
0.0
 11
55.4441914477
 21
105.1044183369
 31
0.0
  0
LINE
  5
180
330
1F
100
AcDbEntity
  8
0
  6
HIDDEN
 62
     7
370
     0
100
AcDbLine
 10
55.4441914477
 20
130.5544183369
 30
0.0
 11
54.5675039861
 21
130.5544183369
 31
0.0
  0
ARC
  5
181
330
1F
100
AcDbEntity
  8
0
  6
HIDDEN
 62
     7
370
     0
100
AcDbCircle
 10
55.4441914477
 20
105.5044183369
 30
0.0
 40
0.4000000000000057
100
AcDbArc
 50
270.0
 51
330.0
  0
ARC
  5
182
330
1F
100
AcDbEntity
  8
0
  6
HIDDEN
 62
     7
370
     0
100
AcDbCircle
 10
55.4441914477
 20
130.1544183369
 30
0.0
 40
0.4000000000000057
100
AcDbArc
 50
30.0
 51
90.0
  0
ARC
  5
183
330
1F
100
AcDbEntity
  8
0
  6
HIDDEN
 62
     7
370
     0
100
AcDbCircle
 10
54.5675039861
 20
105.5044183369
 30
0.0
 40
0.4000000000000057
100
AcDbArc
 50
255.0
 51
270.0
  0
ARC
  5
184
330
1F
100
AcDbEntity
  8
0
  6
HIDDEN
 62
     7
370
     0
100
AcDbCircle
 10
54.5675039861
 20
130.1544183369
 30
0.0
 40
0.4000000000000057
100
AcDbArc
 50
90.0
 51
105.0
  0
LINE
  5
185
330
1F
100
AcDbEntity
  8
0
  6
HIDDEN
 62
     7
370
     0
100
AcDbLine
 10
54.4639763681
 20
130.5407886674
 30
0.0
 11
53.6751315554
 21
130.3294183369
 31
0.0
  0
LINE
  5
186
330
1F
100
AcDbEntity
  8
0
  6
HIDDEN
 62
     7
370
     0
100
AcDbLine
 10
53.6751315554
 20
105.3294183369
 30
0.0
 11
54.4639763681
 21
105.1180480064
 31
0.0
  0
LINE
  5
187
330
1F
100
AcDbEntity
  8
0
  6
HIDDEN
 62
     7
370
     0
100
AcDbLine
 10
55.7906016092
 20
105.3044183369
 30
0.0
 11
56.9597359043
 21
107.3294183369
 31
0.0
  0
LINE
  5
188
330
1F
100
AcDbEntity
  8
0
  6
HIDDEN
 62
     7
370
     0
100
AcDbLine
 10
56.9597359043
 20
128.3294183369
 30
0.0
 11
55.7906016092
 21
130.3544183369
 31
0.0
  0
LINE
  5
189
330
1F
100
AcDbEntity
  8
0
  6
HIDDEN
 62
     7
370
     0
100
AcDbLine
 10
44.8751315554
 20
105.3294183369
 30
0.0
 11
53.6751315554
 21
105.3294183369
 31
0.0
  0
LINE
  5
18A
330
1F
100
AcDbEntity
  8
0
  6
HIDDEN
 62
     7
370
     0
100
AcDbLine
 10
53.6751315554
 20
130.3294183369
 30
0.0
 11
44.8751315554
 21
130.3294183369
 31
0.0
  0
LINE
  5
18B
330
1F
100
AcDbEntity
  8
0
  6
HIDDEN
 62
     7
370
     0
100
AcDbLine
 10
56.9597359043
 20
107.3294183369
 30
0.0
 11
106.6751315554
 21
107.3294183369
 31
0.0
  0
LINE
  5
18C
330
1F
100
AcDbEntity
  8
0
  6
HIDDEN
 62
     7
370
     0
100
AcDbLine
 10
106.6751315554
 20
128.3294183369
 30
0.0
 11
56.9597359043
 21
128.3294183369
 31
0.0
  0
LINE
  5
18D
330
1F
100
AcDbEntity
  8
0
  6
HIDDEN
 62
     7
370
     0
100
AcDbLine
 10
106.6751315554
 20
107.3294183369
 30
0.0
 11
110.4305104243
 21
113.5794183369
 31
0.0
  0
LINE
  5
18E
330
1F
100
AcDbEntity
  8
0
  6
HIDDEN
 62
     7
370
     0
100
AcDbLine
 10
110.4305104243
 20
122.0794183369
 30
0.0
 11
106.6751315554
 21
128.3294183369
 31
0.0
  0
LINE
  5
18F
330
1F
100
AcDbEntity
  8
0
  6
HIDDEN
 62
     7
370
     0
100
AcDbLine
 10
178.4751358757
 20
166.8294188606
 30
0.0
 11
179.4751357251
 21
167.8294186395
 31
0.0
  0
LINE
  5
190
330
1F
100
AcDbEntity
  8
0
  6
HIDDEN
 62
     7
370
     0
100
AcDbLine
 10
179.4751357258
 20
67.8294180337
 30
0.0
 11
178.4751358765
 21
68.8294178125
 31
0.0
  0
LINE
  5
191
330
1F
100
AcDbEntity
  8
0
  6
HIDDEN
 62
     7
370
     0
100
AcDbLine
 10
227.9251315554
 20
142.8294183369
 30
0.0
 11
229.9251315554
 21
140.8294183369
 31
0.0
  0
LINE
  5
192
330
1F
100
AcDbEntity
  8
0
  6
HIDDEN
 62
     7
370
     0
100
AcDbLine
 10
240.9251315554
 20
140.8294183369
 30
0.0
 11
242.9251315554
 21
142.8294183369
 31
0.0
  0
LINE
  5
193
330
1F
100
AcDbEntity
  8
0
  6
HIDDEN
 62
     7
370
     0
100
AcDbLine
 10
229.9251315554
 20
140.8294183369
 30
0.0
 11
229.9251315554
 21
131.8253316715
 31
0.0
  0
LINE
  5
194
330
1F
100
AcDbEntity
  8
0
  6
HIDDEN
 62
     7
370
     0
100
AcDbLine
 10
240.9251315554
 20
131.8289766867
 30
0.0
 11
240.9251315554
 21
140.8294183369
 31
0.0
  0
LINE
  5
195
330
1F
100
AcDbEntity
  8
0
  6
HIDDEN
 62
     7
370
     0
100
AcDbLine
 10
220.9751315554
 20
122.0794183369
 30
0.0
 11
110.4305104243
 21
122.0794183369
 31
0.0
  0
LINE
  5
196
330
1F
100
AcDbEntity
  8
0
  6
HIDDEN
 62
     7
370
     0
100
AcDbLine
 10
110.4305104243
 20
113.5794183369
 30
0.0
 11
220.9751315554
 21
113.5794183369
 31
0.0
  0
LINE
  5
197
330
1F
100
AcDbEntity
  8
0
  6
HIDDEN
 62
     7
370
     0
100
AcDbLine
 10
171.1751315554
 20
119.2817152751
 30
0.0
 11
171.1751315554
 21
132.3652417744
 31
0.0
  0
LINE
  5
198
330
1F
100
AcDbEntity
  8
0
  6
HIDDEN
 62
     7
370
     0
100
AcDbLine
 10
166.1751315554
 20
127.8714988149
 30
0.0
 11
166.1751315554
 21
119.2827754411
 31
0.0
  0
LINE
  5
199
330
1F
100
AcDbEntity
  8
0
  6
HIDDEN
 62
     7
370
     0
100
AcDbLine
 10
166.1751315554
 20
132.3651132461
 30
0.0
 11
166.1751315554
 21
129.5280965961
 31
0.0
  0
LINE
  5
19A
330
1F
100
AcDbEntity
  8
0
  6
HIDDEN
 62
     7
370
     0
100
AcDbLine
 10
150.0519965625
 20
129.7423373346
 30
0.0
 11
167.0899352799
 21
126.3779335789
 31
0.0
  0
LINE
  5
19B
330
1F
100
AcDbEntity
  8
0
  6
HIDDEN
 62
     7
370
     0
100
AcDbLine
 10
167.091514646
 20
130.6587231251
 30
0.0
 11
150.8656399926
 21
133.8627723079
 31
0.0
  0
LINE
  5
19C
330
1F
100
AcDbEntity
  8
0
  6
HIDDEN
 62
     7
370
     0
100
AcDbLine
 10
148.4751315554
 20
129.1363347735
 30
0.0
 11
149.5939576767
 21
128.9154053015
 31
0.0
  0
LINE
  5
19D
330
1F
100
AcDbEntity
  8
0
  6
HIDDEN
 62
     7
370
     0
100
AcDbLine
 10
150.756305434
 20
134.8017409775
 30
0.0
 11
148.4751315554
 21
135.2521939397
 31
0.0
  0
LINE
  5
19E
330
1F
100
AcDbEntity
  8
0
  6
HIDDEN
 62
     7
370
     0
100
AcDbLine
 10
229.4251315554
 20
140.1294183369
 30
0.0
 11
229.4251315554
 21
132.7265326539
 31
0.0
  0
LINE
  5
19F
330
1F
100
AcDbEntity
  8
0
  6
HIDDEN
 62
     7
370
     0
100
AcDbLine
 10
241.4251315554
 20
132.7265326539
 30
0.0
 11
241.4251315554
 21
140.1294183369
 31
0.0
  0
LINE
  5
1A0
330
1F
100
AcDbEntity
  8
0
  6
HIDDEN
 62
     7
370
     0
100
AcDbLine
 10
241.4251315554
 20
140.1294183369
 30
0.0
 11
240.7251315554
 21
140.8294183369
 31
0.0
  0
LINE
  5
1A1
330
1F
100
AcDbEntity
  8
0
  6
HIDDEN
 62
     7
370
     0
100
AcDbLine
 10
230.1251315554
 20
140.8294183369
 30
0.0
 11
229.4251315554
 21
140.1294183369
 31
0.0
  0
LINE
  5
1A2
330
1F
100
AcDbEntity
  8
0
  6
HIDDEN
 62
     7
370
     0
100
AcDbLine
 10
229.4251315554
 20
132.7265326539
 30
0.0
 11
231.6155519039
 21
124.5517726234
 31
0.0
  0
LINE
  5
1A3
330
1F
100
AcDbEntity
  8
0
  6
HIDDEN
 62
     7
370
     0
100
AcDbLine
 10
239.2347112068
 20
124.5517726234
 30
0.0
 11
241.4251315554
 21
132.7265326539
 31
0.0
  0
ARC
  5
1A4
330
1F
100
AcDbEntity
  8
0
  6
HIDDEN
 62
     7
370
     0
100
AcDbCircle
 10
231.9053296517
 20
124.6294183369
 30
0.0
 40
0.3000000000000205
100
AcDbArc
 50
195.0
 51
270.0
  0
ARC
  5
1A5
330
1F
100
AcDbEntity
  8
0
  6
HIDDEN
 62
     7
370
     0
100
AcDbCircle
 10
238.944933459
 20
124.6294183369
 30
0.0
 40
0.299999999999993
100
AcDbArc
 50
270.0
 51
345.0
  0
LINE
  5
1A6
330
1F
100
AcDbEntity
  8
0
  6
HIDDEN
 62
     7
370
     0
100
AcDbLine
 10
231.8251315554
 20
140.8294183369
 30
0.0
 11
231.9816525498
 21
140.6728973425
 31
0.0
  0
LINE
  5
1A7
330
1F
100
AcDbEntity
  8
0
  6
HIDDEN
 62
     7
370
     0
100
AcDbLine
 10
238.9000773454
 20
140.704364127
 30
0.0
 11
239.0251315554
 21
140.8294183369
 31
0.0
  0
LINE
  5
1A8
330
1F
100
AcDbEntity
  8
0
  6
HIDDEN
 62
     7
370
     0
100
AcDbLine
 10
238.8691611594
 20
140.6734479409
 30
0.0
 11
238.9000773454
 21
140.704364127
 31
0.0
  0
LINE
  5
1A9
330
1F
100
AcDbEntity
  8
0
  6
HIDDEN
 62
     7
370
     0
100
AcDbLine
 10
232.4251315554
 20
133.8294183369
 30
0.0
 11
232.4251315554
 21
132.8294183369
 31
0.0
  0
LINE
  5
1AA
330
1F
100
AcDbEntity
  8
0
  6
HIDDEN
 62
     7
370
     0
100
AcDbLine
 10
238.4251315554
 20
132.8294183369
 30
0.0
 11
238.4251315554
 21
133.8294183369
 31
0.0
  0
LINE
  5
1AB
330
1F
100
AcDbEntity
  8
0
  6
HIDDEN
 62
     7
370
     0
100
AcDbLine
 10
232.4251315554
 20
132.8294183369
 30
0.0
 11
235.4251315554
 21
131.7375076341
 31
0.0
  0
LINE
  5
1AC
330
1F
100
AcDbEntity
  8
0
  6
HIDDEN
 62
     7
370
     0
100
AcDbLine
 10
235.4251315554
 20
131.7375076341
 30
0.0
 11
238.4251315554
 21
132.8294183369
 31
0.0
  0
LINE
  5
1AD
330
1F
100
AcDbEntity
  8
0
  6
HIDDEN
 62
     7
370
     0
100
AcDbLine
 10
171.6751315554
 20
103.403056822
 30
0.0
 11
171.6751315554
 21
104.6616428189
 31
0.0
  0
LINE
  5
1AE
330
1F
100
AcDbEntity
  8
0
  6
HIDDEN
 62
     7
370
     0
100
AcDbLine
 10
165.6751315554
 20
104.6616428189
 30
0.0
 11
165.6751315554
 21
103.403056822
 31
0.0
  0
LINE
  5
1AF
330
1F
100
AcDbEntity
  8
0
  6
HIDDEN
 62
     7
370
     0
100
AcDbLine
 10
153.8832405961
 20
128.5375534487
 30
0.0
 11
154.6679301914
 21
129.2455365118
 31
0.0
  0
LINE
  5
1B0
330
1F
100
AcDbEntity
  8
0
  6
HIDDEN
 62
     7
370
     0
100
AcDbLine
 10
155.3239474035
 20
132.5677242961
 30
0.0
 11
154.8672664144
 21
133.5208351252
 31
0.0
  0
LINE
  5
1B1
330
1F
100
AcDbEntity
  8
0
  6
HIDDEN
 62
     7
370
     0
100
AcDbLine
 10
149.8712076767
 20
128.8606580133
 30
0.0
 11
153.0580592919
 21
128.2313650148
 31
0.0
  0
LINE
  5
1B2
330
1F
100
AcDbEntity
  8
0
  6
HIDDEN
 62
     7
370
     0
100
AcDbLine
 10
154.2204070491
 20
134.1177006909
 30
0.0
 11
151.033555434
 21
134.7469936893
 31
0.0
  0
LINE
  5
1B3
330
1F
100
AcDbEntity
  8
0
  6
HIDDEN
 62
     7
370
     0
100
AcDbLine
 10
149.4027323249
 20
133.1958878103
 30
0.0
 11
149.319492491
 21
132.9933356464
 31
0.0
  0
LINE
  5
1B4
330
1F
100
AcDbEntity
  8
0
  6
HIDDEN
 62
     7
370
     0
100
AcDbLine
 10
148.9523815554
 20
131.1342206059
 30
0.0
 11
148.9523815554
 21
130.9152314531
 31
0.0
  0
LINE
  5
1B5
330
1F
100
AcDbEntity
  8
0
  6
HIDDEN
 62
     7
370
     0
100
AcDbLine
 10
165.6751315554
 20
132.2557798519
 30
0.0
 11
165.6751315554
 21
130.997193855
 31
0.0
  0
LINE
  5
1B6
330
1F
100
AcDbEntity
  8
0
  6
HIDDEN
 62
     7
370
     0
100
AcDbLine
 10
171.6751315554
 20
130.997193855
 30
0.0
 11
171.6751315554
 21
132.2557798519
 31
0.0
  0
LINE
  5
1B7
330
1F
100
AcDbEntity
  8
0
  6
HIDDEN
 62
     7
370
     0
100
AcDbLine
 10
148.9523815554
 20
104.7436052207
 30
0.0
 11
148.9523815554
 21
104.5246160679
 31
0.0
  0
LINE
  5
1B8
330
1F
100
AcDbEntity
  8
0
  6
HIDDEN
 62
     7
370
     0
100
AcDbLine
 10
149.319492491
 20
102.6655010275
 30
0.0
 11
149.4027323249
 21
102.4629488636
 31
0.0
  0
LINE
  5
1B9
330
1F
100
AcDbEntity
  8
0
  6
HIDDEN
 62
     7
370
     0
100
AcDbLine
 10
151.033555434
 20
100.9118429845
 30
0.0
 11
154.2204070491
 21
101.541135983
 31
0.0
  0
LINE
  5
1BA
330
1F
100
AcDbEntity
  8
0
  6
HIDDEN
 62
     7
370
     0
100
AcDbLine
 10
153.0580592919
 20
107.427471659
 30
0.0
 11
149.8712076767
 21
106.7981786606
 31
0.0
  0
LINE
  5
1BB
330
1F
100
AcDbEntity
  8
0
  6
HIDDEN
 62
     7
370
     0
100
AcDbLine
 10
154.8672664144
 20
102.1380015486
 30
0.0
 11
155.3239474035
 21
103.0911123777
 31
0.0
  0
LINE
  5
1BC
330
1F
100
AcDbEntity
  8
0
  6
HIDDEN
 62
     7
370
     0
100
AcDbLine
 10
154.6679301914
 20
106.4133001621
 30
0.0
 11
153.8832405961
 21
107.1212832251
 31
0.0
  0
DIMENSION
  5
1BD
330
1F
100
AcDbEntity
  8
VERMASSUNG
100
AcDbDimension
  2
_D
 10
35.6025938498
 20
167.8294183369
 30
0.0
 11
35.6025938498
 21
117.8294183369
 31
0.0
 70
   160
  1
MAS-BT 50 %%c<>
 71
     2
 42
-1.0
  3
SLDDIMSTYLE0
100
AcDbAlignedDimension
 13
182.4751315554
 23
67.8294183369
 33
0.0
 14
182.4751315554
 24
167.8294183369
 34
0.0
 50
90.0
100
AcDbRotatedDimension
  0
DIMENSION
  5
1CA
330
1F
100
AcDbEntity
  8
VERMASSUNG
100
AcDbDimension
  2
_D_1
 10
257.7288898483
 20
103.8294183369
 30
0.0
 11
257.7288898483
 21
117.8294183369
 31
0.0
 70
   160
  1
%%c<>
 71
     2
 42
-1.0
  3
SLDDIMSTYLE0
100
AcDbAlignedDimension
 13
248.4751315554
 23
131.8294183369
 33
0.0
 14
248.4751315554
 24
103.8294183369
 34
0.0
 50
90.0
100
AcDbRotatedDimension
  0
DIMENSION
  5
1D5
330
1F
100
AcDbEntity
  8
VERMASSUNG
100
AcDbDimension
  2
_D_2
 10
263.7288898483
 20
92.8294183369
 30
0.0
 11
263.7288898483
 21
117.8294183369
 31
0.0
 70
   160
  1
WH%%c<>
 71
     2
 42
-1.0
  3
SLDDIMSTYLE0
100
AcDbAlignedDimension
 13
248.9751315554
 23
142.8294183369
 33
0.0
 14
248.9751315554
 24
92.8294183369
 34
0.0
 50
90.0
100
AcDbRotatedDimension
  0
DIMENSION
  5
1E1
330
1F
100
AcDbEntity
  8
VERMASSUNG
100
AcDbDimension
  2
_D_3
 10
183.4751315554
 20
172.810433068
 30
0.0
 11
216.4751315554
 21
172.810433068
 31
0.0
 70
   160
  1
<>
 71
     2
 42
-1.0
  3
SLDDIMSTYLE0
100
AcDbAlignedDimension
 13
249.4751315554
 23
142.3294183369
 33
0.0
 14
183.4751315554
 24
166.8294183369
 34
0.0
100
AcDbRotatedDimension
  0
DIMENSION
  5
1EB
330
1F
100
AcDbEntity
  8
VERMASSUNG
100
AcDbDimension
  2
_D_4
 10
145.4751315554
 20
178.945123407
 30
0.0
 11
197.4751315554
 21
178.945123407
 31
0.0
 70
   160
  1
<>
 71
     2
 42
-1.0
  3
SLDDIMSTYLE0
100
AcDbAlignedDimension
 13
249.4751315554
 23
142.3294183369
 33
0.0
 14
145.4751315554
 24
152.7544183369
 34
0.0
100
AcDbRotatedDimension
  0
DIMENSION
  5
1F5
330
1F
100
AcDbEntity
  8
VERMASSUNG
100
AcDbDimension
  2
_D_5
 10
249.4751315554
 20
185.7747479243
 30
0.0
 11
146.5751315554
 21
185.7747479243
 31
0.0
 70
   160
  1
<>
 71
     2
 42
-1.0
  3
SLDDIMSTYLE0
100
AcDbAlignedDimension
 13
43.6751315554
 23
136.1790961976
 33
0.0
 14
249.4751315554
 24
142.3294183369
 34
0.0
100
AcDbRotatedDimension
  0
LINE
  5
1FF
330
1F
100
AcDbEntity
  8
VERMASSUNG
  6
CENTERX2
370
     0
100
AcDbLine
 10
41.552502245
 20
117.8294183369
 30
0.0
 11
251.0858611161
 21
117.8294183369
 31
0.0
  0
LINE
  5
200
330
1F
100
AcDbEntity
  8
0
  6
Continuous
 62
     7
370
    15
100
AcDbLine
 10
275.0818664573
 20
18.6656577649
 30
0.0
 11
275.2586144214
 21
18.767725365
 31
0.0
  0
LINE
  5
201
330
1F
100
AcDbEntity
  8
0
  6
Continuous
 62
     7
370
    15
100
AcDbLine
 10
283.9192646629
 20
33.7700371416
 30
0.0
 11
283.9192646629
 21
33.9741391695
 31
0.0
  0
LINE
  5
202
330
1F
100
AcDbEntity
  8
0
  6
Continuous
 62
     7
370
    15
100
AcDbLine
 10
281.3299219771
 20
39.6971992504
 30
0.0
 11
259.232835065
 21
52.4535759976
 31
0.0
  0
LINE
  5
203
330
1F
100
AcDbEntity
  8
0
  6
Continuous
 62
     7
370
    15
100
AcDbLine
 10
246.7338509071
 20
30.8023544381
 30
0.0
 11
268.8309378191
 21
18.0459776909
 31
0.0
  0
SPLINE
  5
204
330
1F
100
AcDbEntity
  8
0
  6
Continuous
 62
     7
370
    15
100
AcDbSpline
210
0.0
220
0.0
230
1.0
 70
     8
 71
     3
 72
    18
 73
    14
 74
     0
 42
0.000000001
 43
0.00000001
 40
0.0
 40
0.0
 40
0.0
 40
0.0
 40
0.0234738469723925
 40
0.12510143593509
 40
0.2271486528155718
 40
0.3295646705161873
 40
0.4322599345059802
 40
0.5351388601425212
 40
0.6381198181417121
 40
0.7411424523899135
 40
0.8441592446247201
 40
0.9471496538201996
 40
1.0
 40
1.0
 40
1.0
 40
1.0
 10
242.9324898731046
 20
19.6280333312242
 30
0.0
 10
243.0267321000565
 20
19.61616728698284
 30
0.0
 10
243.528986286653
 20
19.55292843332541
 30
0.0
 10
244.4905591767465
 20
19.58164284980258
 30
0.0
 10
245.8106436044917
 20
19.72039056138416
 30
0.0
 10
247.1721739658236
 20
20.01592205302152
 30
0.0
 10
248.5607823105202
 20
20.45130117512982
 30
0.0
 10
249.9687567154995
 20
21.02773848240835
 30
0.0
 10
251.3862489233597
 20
21.74072614862399
 30
0.0
 10
252.8046241294385
 20
22.58377301542513
 30
0.0
 10
254.2128129104135
 20
23.55813715218823
 30
0.0
 10
255.3827711486887
 20
24.45696603327671
 30
0.0
 10
256.0691257729394
 20
25.07070555149268
 30
0.0
 10
256.3018895285205
 20
25.27884331317016
 30
0.0
  0
SPLINE
  5
205
330
1F
100
AcDbEntity
  8
0
  6
Continuous
 62
     7
370
    15
100
AcDbSpline
210
0.0
220
0.0
230
1.0
 70
     8
 71
     3
 72
    18
 73
    14
 74
     0
 42
0.000000001
 43
0.00000001
 40
0.0
 40
0.0
 40
0.0
 40
0.0
 40
0.031461081114746
 40
0.1342475347914918
 40
0.2370840564080306
 40
0.3399704982149734
 40
0.4429004310778344
 40
0.5458575347386763
 40
0.6487974606408462
 40
0.7516612366064571
 40
0.8543666218076791
 40
0.9568118977508375
 40
1.0
 40
1.0
 40
1.0
 40
1.0
 10
268.8026101648982
 20
46.92906242502907
 30
0.0
 10
268.8425024273202
 20
47.11177709198454
 30
0.0
 10
269.0127266439608
 20
47.89143858929796
 30
0.0
 10
269.2025561317732
 20
49.23858449116247
 30
0.0
 10
269.3674483968642
 20
50.956321498608
 30
0.0
 10
269.4113007775209
 20
52.61962774118741
 30
0.0
 10
269.3433987647653
 20
54.22056412196129
 30
0.0
 10
269.1610690139728
 20
55.74843467628226
 30
0.0
 10
268.8650743856236
 20
57.19281376655117
 30
0.0
 10
268.4587310014367
 20
58.54640900003741
 30
0.0
 10
267.9366168116997
 20
59.79083737007798
 30
0.0
 10
267.447228102601
 20
60.72866946910124
 30
0.0
 10
267.0962990046686
 20
61.2062175192799
 30
0.0
 10
266.9922297181366
 20
61.34783611163836
 30
0.0
  0
LINE
  5
206
330
1F
100
AcDbEntity
  8
0
  6
Continuous
 62
     7
370
    15
100
AcDbLine
 10
236.8515977397
 20
22.0738919956
 30
0.0
 11
239.0701452657
 21
20.7931517702
 31
0.0
  0
LINE
  5
207
330
1F
100
AcDbEntity
  8
0
  6
Continuous
 62
     7
370
    15
100
AcDbLine
 10
264.0681135816
 20
64.0955948892
 30
0.0
 11
261.8495660556
 21
65.3763351146
 31
0.0
  0
SPLINE
  5
208
330
1F
100
AcDbEntity
  8
0
  6
Continuous
 62
     7
370
    15
100
AcDbSpline
210
0.0
220
0.0
230
1.0
 70
     8
 71
     3
 72
    24
 73
    20
 74
     0
 42
0.000000001
 43
0.00000001
 40
0.0
 40
0.0
 40
0.0
 40
0.0
 40
0.0215162879919804
 40
0.0876343381060059
 40
0.1534672171073269
 40
0.2169378934240482
 40
0.2788029547379588
 40
0.340029838000896
 40
0.4011283298776205
 40
0.4622645965797981
 40
0.5235293147667306
 40
0.5849239914600437
 40
0.6464139995360809
 40
0.7079515706035329
 40
0.7694825086832975
 40
0.8309373953297204
 40
0.8922624589848023
 40
0.9534083525181862
 40
1.0
 40
1.0
 40
1.0
 40
1.0
 10
271.5272524934134
 20
22.86376537272826
 30
0.0
 10
271.4706346039861
 20
22.88676669204474
 30
0.0
 10
271.2400338950362
 20
22.98044945900787
 30
0.0
 10
270.9137106306216
 20
23.27831088092529
 30
0.0
 10
270.5546598787323
 20
23.76330888274105
 30
0.0
 10
270.2951016452373
 20
24.38019560465306
 30
0.0
 10
270.1364664651015
 20
25.09499923544527
 30
0.0
 10
270.0826919290564
 20
25.8951488392146
 30
0.0
 10
270.135088272775
 20
26.76442694071677
 30
0.0
 10
270.294091986608
 20
27.68471539835931
 30
0.0
 10
270.5575298045163
 20
28.63533443877363
 30
0.0
 10
270.9205880826656
 20
29.59458727859673
 30
0.0
 10
271.3756816573338
 20
30.54013019922331
 30
0.0
 10
271.912662939292
 20
31.44990103667546
 30
0.0
 10
272.5190087678035
 20
32.30239596775961
 30
0.0
 10
273.1802514529782
 20
33.07854025769925
 30
0.0
 10
273.8798934004323
 20
33.75782196462486
 30
0.0
 10
274.544939622249
 20
34.29025069422745
 30
0.0
 10
274.9698697090608
 20
34.55163442080839
 30
0.0
 10
275.1536328859682
 20
34.66467114256376
 30
0.0
  0
SPLINE
  5
209
330
1F
100
AcDbEntity
  8
0
  6
Continuous
 62
     7
370
    15
100
AcDbSpline
210
0.0
220
0.0
230
1.0
 70
     8
 71
     3
 72
    13
 73
     9
 74
     0
 42
0.000000001
 43
0.00000001
 40
0.0
 40
0.0
 40
0.0
 40
0.0
 40
0.0970872213167748
 40
0.2824263917880332
 40
0.4677051665835772
 40
0.6538945039964769
 40
0.8432647442896387
 40
1.0
 40
1.0
 40
1.0
 40
1.0
 10
275.1536328859682
 20
34.66467114256376
 30
0.0
 10
275.2783475485593
 20
34.73335794512819
 30
0.0
 10
275.6411420716795
 20
34.93316761676801
 30
0.0
 10
276.2287560916841
 20
35.16587854161052
 30
0.0
 10
276.8897730752792
 20
35.31651199029203
 30
0.0
 10
277.4957265544486
 20
35.33077663547946
 30
0.0
 10
278.0114762999819
 20
35.23873788056925
 30
0.0
 10
278.2901972688349
 20
35.08462328464264
 30
0.0
 10
278.4164171723887
 20
35.01483187456629
 30
0.0
  0
LINE
  5
20A
330
1F
100
AcDbEntity
  8
0
  6
Continuous
 62
     7
370
    15
100
AcDbLine
 10
256.5285875272
 20
68.4480706354
 30
0.0
 11
252.400851692
 21
70.8309618117
 31
0.0
  0
SPLINE
  5
20B
330
1F
100
AcDbEntity
  8
0
  6
Continuous
 62
     7
370
    15
100
AcDbSpline
210
0.0
220
0.0
230
1.0
 70
     8
 71
     3
 72
    31
 73
    27
 74
     0
 42
0.000000001
 43
0.00000001
 40
0.0
 40
0.0
 40
0.0
 40
0.0
 40
0.018342481450696
 40
0.0620149509310538
 40
0.105864957153825
 40
0.1498655462930296
 40
0.1939766288579195
 40
0.2381579821269867
 40
0.2823764970167145
 40
0.3266079441111511
 40
0.370833879296485
 40
0.415047333874742
 40
0.4592453778710863
 40
0.503427682981613
 40
0.5475955173449968
 40
0.5917510864138393
 40
0.6358971226055855
 40
0.6800366424902103
 40
0.724172811530625
 40
0.768308874283194
 40
0.8124474407720712
 40
0.856591413997809
 40
0.9007441210778869
 40
0.9449088566948951
 40
0.9890887974791109
 40
1.0
 40
1.0
 40
1.0
 40
1.0
 10
248.4936361472751
 20
71.99481775759834
 30
0.0
 10
248.3207720436155
 20
72.01277948975763
 30
0.0
 10
247.7363277341031
 20
72.07350714765333
 30
0.0
 10
246.6875932084147
 20
72.0238572699546
 30
0.0
 10
245.357430852405
 20
71.84992161190955
 30
0.0
 10
243.9890341794336
 20
71.52276552357138
 30
0.0
 10
242.5952641595376
 20
71.05542159594692
 30
0.0
 10
241.1843408568608
 20
70.44793759475024
 30
0.0
 10
239.7658533357784
 20
69.70525640250985
 30
0.0
 10
238.3489609619395
 20
68.83225755003713
 30
0.0
 10
236.9427260032074
 20
67.83491402969166
 30
0.0
 10
235.5559695564468
 20
66.71984453171244
 30
0.0
 10
234.1972723526802
 20
65.49431324396878
 30
0.0
 10
232.8750081850929
 20
64.16620060310888
 30
0.0
 10
231.5973190117527
 20
62.74397145465853
 30
0.0
 10
230.372079205849
 20
61.23663200127165
 30
0.0
 10
229.2068546258827
 20
59.65368384660359
 30
0.0
 10
228.1088619436135
 20
58.00507262139844
 30
0.0
 10
227.0849169315063
 20
56.30112869574068
 30
0.0
 10
226.1414296869544
 20
54.55252282486429
 30
0.0
 10
225.2842420174146
 20
52.77016727443275
 30
0.0
 10
224.519034178051
 20
50.96525758219195
 30
0.0
 10
223.8496250781645
 20
49.1487602807606
 30
0.0
 10
223.2841698058284
 20
47.33295964836743
 30
0.0
 10
222.9305213691028
 20
45.97932863868098
 30
0.0
 10
222.7731957057417
 20
45.23684365429978
 30
0.0
 10
222.7420362112807
 20
45.08978909076612
 30
0.0
  0
LINE
  5
20C
330
1F
100
AcDbEntity
  8
0
  6
Continuous
 62
     7
370
    15
100
AcDbLine
 10
237.9780643374
 20
68.547237006
 30
0.0
 11
207.6315036799
 21
79.4829345708
 31
0.0
  0
LINE
  5
20D
330
1F
100
AcDbEntity
  8
0
  6
Continuous
 62
     7
370
    15
100
AcDbLine
 10
197.5221490045
 20
61.9711211999
 30
0.0
 11
226.9858863311
 21
37.0921849745
 31
0.0
  0
LINE
  5
20E
330
1F
100
AcDbEntity
  8
0
  6
Continuous
 62
     7
370
    15
100
AcDbLine
 10
227.4028833761
 20
27.5285186927
 30
0.0
 11
231.5306192113
 21
25.1456275163
 31
0.0
  0
SPLINE
  5
20F
330
1F
100
AcDbEntity
  8
0
  6
Continuous
 62
     7
370
    15
100
AcDbSpline
210
0.0
220
0.0
230
1.0
 70
     8
 71
     3
 72
    11
 73
     7
 74
     0
 42
0.000000001
 43
0.00000001
 40
0.0
 40
0.0
 40
0.0
 40
0.0
 40
0.1050885860694574
 40
0.4236183153902486
 40
0.7416590627631888
 40
1.0
 40
1.0
 40
1.0
 40
1.0
 10
222.7473246463345
 20
34.00293105215827
 30
0.0
 10
222.7897314017215
 20
33.85257743868586
 30
0.0
 10
222.9606755446594
 20
33.24649311655098
 30
0.0
 10
223.3417883187274
 20
32.25647642362352
 30
0.0
 10
223.8817353575022
 20
31.13878671692389
 30
0.0
 10
224.3121689079152
 20
30.50880106412881
 30
0.0
 10
224.5050942034286
 20
30.22643420838977
 30
0.0
  0
SPLINE
  5
210
330
1F
100
AcDbEntity
  8
0
  6
Continuous
 62
     7
370
    15
100
AcDbSpline
210
0.0
220
0.0
230
1.0
 70
     8
 71
     3
 72
    26
 73
    22
 74
     0
 42
0.000000001
 43
0.00000001
 40
0.0
 40
0.0
 40
0.0
 40
0.0
 40
0.0211003487122628
 40
0.0734660947596716
 40
0.1265293848983989
 40
0.1807963946600735
 40
0.2363312363639711
 40
0.2928241536681345
 40
0.3498299648572936
 40
0.4069680242110202
 40
0.464024702657787
 40
0.5209555255077407
 40
0.5777730718169946
 40
0.6345160112361959
 40
0.6912339037794962
 40
0.7479784728614466
 40
0.8047900183011125
 40
0.8617257557541511
 40
0.9188408427311997
 40
0.9761800833651304
 40
0.9999999999999999
 40
0.9999999999999999
 40
0.9999999999999999
 40
0.9999999999999999
 10
207.6719341935442
 20
79.44809608930083
 30
0.0
 10
207.5727651721984
 20
79.4901963076363
 30
0.0
 10
207.2274836406575
 20
79.63677865429857
 30
0.0
 10
206.572614955703
 20
79.73747306873983
 30
0.0
 10
205.7265734059401
 20
79.75227641100344
 30
0.0
 10
204.8394368549244
 20
79.61380176793917
 30
0.0
 10
203.925213054327
 20
79.33293678322603
 30
0.0
 10
202.9957580287139
 20
78.90828671696613
 30
0.0
 10
202.0677961923381
 20
78.34717491417597
 30
0.0
 10
201.1579593030651
 20
77.66004265175665
 30
0.0
 10
200.2814003263964
 20
76.86006668706793
 30
0.0
 10
199.4512745157482
 20
75.9612901427632
 30
0.0
 10
198.6792862102979
 20
74.97821615447718
 30
0.0
 10
197.9762603394112
 20
73.92597563202476
 30
0.0
 10
197.35223388434
 20
72.82030492327159
 30
0.0
 10
196.8163937052243
 20
71.67747999361013
 30
0.0
 10
196.3771230724858
 20
70.51412203609044
 30
0.0
 10
196.0411989822937
 20
69.34653922186868
 30
0.0
 10
195.8166847906267
 20
68.19188432752945
 30
0.0
 10
195.7248341940694
 20
67.28429526742319
 30
0.0
 10
195.7175675113981
 20
66.77098034713222
 30
0.0
 10
195.7154347665389
 20
66.62032429031451
 30
0.0
  0
SPLINE
  5
211
330
1F
100
AcDbEntity
  8
0
  6
Continuous
 62
     7
370
    15
100
AcDbSpline
210
0.0
220
0.0
230
1.0
 70
     8
 71
     3
 72
    13
 73
     9
 74
     0
 42
0.000000001
 43
0.00000001
 40
0.0
 40
0.0
 40
0.0
 40
0.0
 40
0.1011487783717619
 40
0.2919018006118885
 40
0.4826418266735833
 40
0.6715266520409041
 40
0.8566629140943125
 40
0.9999999999999999
 40
0.9999999999999999
 40
0.9999999999999999
 40
0.9999999999999999
 10
195.7154347665389
 20
66.62032429031451
 30
0.0
 10
195.7188921999048
 20
66.42967865862792
 30
0.0
 10
195.728869888625
 20
65.87950094947581
 30
0.0
 10
195.8407296956913
 20
65.01618502242972
 30
0.0
 10
196.0924210869544
 20
64.06807480756707
 30
0.0
 10
196.4742879688933
 20
63.2233730246651
 30
0.0
 10
196.9284282610779
 20
62.53128696043407
 30
0.0
 10
197.3038030421153
 20
62.18646330522675
 30
0.0
 10
197.467606673584
 20
62.03599137745584
 30
0.0
  0
LINE
  5
212
330
1F
100
AcDbEntity
  8
0
  6
Continuous
 62
     7
370
    15
100
AcDbLine
 10
272.2346410698
 20
42.0681149258
 30
0.0
 11
272.163918902
 21
42.1089552353
 31
0.0
  0
LINE
  5
213
330
1F
100
AcDbEntity
  8
0
  6
Continuous
 62
     7
370
    15
100
AcDbLine
 10
268.4156440091
 20
42.1089552353
 30
0.0
 11
268.3449218413
 21
42.0681149258
 31
0.0
  0
LINE
  5
214
330
1F
100
AcDbEntity
  8
0
  6
Continuous
 62
     7
370
    15
100
AcDbLine
 10
273.4210793927
 20
31.28527334
 30
0.0
 11
276.0645223469
 21
31.8238550456
 31
0.0
  0
LWPOLYLINE
  5
215
330
1F
100
AcDbEntity
  8
0
  6
Continuous
 62
     7
370
    15
100
AcDbPolyline
 90
       53
 70
   128
 43
0.0
 10
275.2572065934
 20
38.7721624023
 10
274.2131108695
 20
38.0964883728
 10
273.1842404124
 20
37.2848063965
 10
272.1855984701
 20
36.3489526244
 10
271.2317474909
 20
35.3025739117
 10
270.33659677
 20
34.1609288164
 10
269.5131996205
 20
32.9406650948
 10
268.7735630271
 20
31.6595769396
 10
268.1284725567
 20
30.3363455009
 10
267.5873350812
 20
28.9902664729
 10
267.1580416033
 20
27.6409687187
 10
266.8468521887
 20
26.308128038
 10
266.6583046798
 20
25.0111802493
 10
266.5951485239
 20
23.7690377717
 10
266.6583046798
 20
22.5998138397
 10
266.8468521887
 20
21.5205583711
 10
267.1580416033
 20
20.5470093408
 10
267.5873350812
 20
19.6933632859
 10
268.1284725567
 20
18.9720682882
 10
268.7735630271
 20
18.393642453
 10
269.5131996205
 20
17.9665205314
 10
270.33659677
 20
17.6969309228
 10
271.2317474909
 20
17.5888048508
 10
272.1855984701
 20
17.6437190371
 10
273.1842404124
 20
17.8608727091
 10
274.2131108695
 20
18.2370992772
 10
275.2572065934
 20
18.7669125111
 10
276.3013023173
 20
19.4425865405
 10
277.3301727744
 20
20.2542685168
 10
278.3288147167
 20
21.190122289
 10
279.2826656959
 20
22.2365010016
 10
280.1778164168
 20
23.3781460969
 10
281.0012135663
 20
24.5984098185
 10
281.7408501597
 20
25.8794979737
 10
282.3859406301
 20
27.2027294124
 10
282.9270781056
 20
28.5488084405
 10
283.3563715835
 20
29.8981061946
 10
283.6675609981
 20
31.2309468753
 10
283.856108507
 20
32.527894664
 10
283.9192646629
 20
33.7700371416
 10
283.856108507
 20
34.9392610736
 10
283.6675609981
 20
36.0185165422
 10
283.3563715835
 20
36.9920655726
 10
282.9270781056
 20
37.8457116274
 10
282.3859406301
 20
38.5670066251
 10
281.7408501597
 20
39.1454324604
 10
281.0012135663
 20
39.572554382
 10
280.1778164168
 20
39.8421439905
 10
279.2826656959
 20
39.9502700625
 10
278.3288147167
 20
39.8953558762
 10
277.3301727744
 20
39.6782022042
 10
276.3013023173
 20
39.3019756361
 10
275.2572065934
 20
38.7721624023
  0
LWPOLYLINE
  5
216
330
1F
100
AcDbEntity
  8
0
  6
Continuous
 62
     7
370
    15
100
AcDbPolyline
 90
       28
 70
   128
 43
0.0
 10
275.0804298981
 20
39.0783486192
 10
274.0350328832
 20
38.4032134988
 10
273.0043109509
 20
37.5942752565
 10
272.0027331777
 20
36.6628896121
 10
271.04435952
 20
35.6221311785
 10
270.1426434433
 20
34.4866099226
 10
269.3102430646
 20
33.2722660738
 10
268.5588434607
 20
31.9961463579
 10
267.8989926348
 20
30.6761646983
 10
267.3399534462
 20
29.3308507442
 10
266.8895735797
 20
27.9790897544
 10
266.5541753813
 20
26.6398574903
 10
266.3384671066
 20
25.3319538371
 10
266.2454768268
 20
24.0737388952
 10
266.2765099217
 20
22.8828752443
 10
266.4311307546
 20
21.7760799997
 10
266.707168788
 20
20.7688901405
 10
267.100749053
 20
19.8754444045
 10
267.6063465454
 20
19.1082848114
 10
268.2168637846
 20
18.4781806002
 10
268.9237304469
 20
17.993977053
 10
269.7170236739
 20
17.662471326
 10
270.5856073676
 20
17.488317033
 10
271.5172885168
 20
17.4739589186
 10
272.4989883605
 20
17.6195985391
 10
273.5169259848
 20
17.9231914337
 10
274.5568117768
 20
18.3804758234
 10
275.0818664573
 20
18.6656577649
  0
LWPOLYLINE
  5
217
330
1F
100
AcDbEntity
  8
0
  6
Continuous
 62
     7
370
    15
100
AcDbPolyline
 90
       15
 70
   128
 43
0.0
 10
283.9192646629
 20
33.9741391695
 10
283.9153829694
 20
34.274358585
 10
283.8223926896
 20
35.4252092352
 10
283.6066844149
 20
36.4840614156
 10
283.2712862165
 20
37.4360511625
 10
282.82090635
 20
38.2678146269
 10
282.2618671614
 20
38.9676756727
 10
281.6020163355
 20
39.5258097851
 10
280.8506167316
 20
39.9343819846
 10
280.018216353
 20
40.1876568132
 10
279.1165002762
 20
40.2820788473
 10
278.1581266186
 20
40.2163226086
 10
277.1565488453
 20
39.9913111706
 10
276.125826913
 20
39.6102032007
 10
275.0804298981
 20
39.0783486192
  0
SPLINE
  5
218
330
1F
100
AcDbEntity
  8
0
  6
Continuous
 62
     7
370
    15
100
AcDbSpline
210
0.0
220
0.0
230
1.0
 70
    11
 71
     3
 72
    96
 73
    92
 74
     0
 42
0.000000001
 43
0.00000001
 40
0.0
 40
0.0
 40
0.0
 40
0.0
 40
0.0312499999999997
 40
0.0312499999999997
 40
0.0468749999999999
 40
0.0468749999999999
 40
0.0625000000000002
 40
0.0625000000000002
 40
0.0937500000000007
 40
0.0937500000000007
 40
0.109375000000001
 40
0.109375000000001
 40
0.1250000000000012
 40
0.1250000000000012
 40
0.1562500000000008
 40
0.1562500000000008
 40
0.1718750000000006
 40
0.1718750000000006
 40
0.1875000000000004
 40
0.1875000000000004
 40
0.21875
 40
0.21875
 40
0.2343750000000002
 40
0.2343750000000002
 40
0.2500000000000004
 40
0.2500000000000004
 40
0.2812500000000001
 40
0.2812500000000001
 40
0.2968750000000003
 40
0.2968750000000003
 40
0.3125000000000005
 40
0.3125000000000005
 40
0.3437500000000012
 40
0.3437500000000012
 40
0.3593750000000015
 40
0.3593750000000015
 40
0.3750000000000018
 40
0.3750000000000018
 40
0.3906250000000022
 40
0.3906250000000022
 40
0.4062500000000026
 40
0.4062500000000026
 40
0.4375000000000033
 40
0.4375000000000033
 40
0.4531250000000034
 40
0.4531250000000034
 40
0.4687500000000036
 40
0.4687500000000036
 40
0.5000000000000032
 40
0.5000000000000032
 40
0.5312500000000029
 40
0.5312500000000029
 40
0.5468750000000032
 40
0.5468750000000032
 40
0.5625000000000034
 40
0.5625000000000034
 40
0.5937500000000031
 40
0.5937500000000031
 40
0.6250000000000027
 40
0.6250000000000027
 40
0.6562500000000022
 40
0.6562500000000022
 40
0.6875000000000018
 40
0.6875000000000018
 40
0.7187500000000013
 40
0.7187500000000013
 40
0.7500000000000009
 40
0.7500000000000009
 40
0.7656250000000011
 40
0.7656250000000011
 40
0.7812500000000013
 40
0.7812500000000013
 40
0.812500000000001
 40
0.812500000000001
 40
0.8281250000000008
 40
0.8281250000000008
 40
0.8437500000000007
 40
0.8437500000000007
 40
0.8750000000000006
 40
0.8750000000000006
 40
0.8906250000000006
 40
0.8906250000000006
 40
0.9062500000000004
 40
0.9062500000000004
 40
0.9218750000000004
 40
0.9218750000000004
 40
0.9375000000000004
 40
0.9375000000000004
 40
0.9687500000000002
 40
0.9687500000000002
 40
1.0
 40
1.0
 40
1.0
 40
1.0
 10
270.2592730661225
 20
43.66865926211746
 30
0.0
 10
270.4896787082502
 20
43.62959025930571
 30
0.0
 10
270.7139941356745
 20
43.57933631693226
 30
0.0
 10
271.0424300732623
 20
43.49050632301275
 30
0.0
 10
271.1505561987282
 20
43.45862768360308
 30
0.0
 10
271.364151762149
 20
43.39061569959949
 30
0.0
 10
271.4700815374177
 20
43.35430889006208
 30
0.0
 10
271.780270319792
 20
43.24053874920095
 30
0.0
 10
271.9759046896672
 20
43.15880663776947
 30
0.0
 10
272.2534266580784
 20
43.02869089264914
 30
0.0
 10
272.3432605994504
 20
42.98404987974955
 30
0.0
 10
272.5175041289093
 20
42.89226532704863
 30
0.0
 10
272.6022147489223
 20
42.84492511522542
 30
0.0
 10
272.8437454859331
 20
42.70158383634133
 30
0.0
 10
272.9892727891404
 20
42.60375132025698
 30
0.0
 10
273.1846668189425
 20
42.45320655554994
 30
0.0
 10
273.2459588038132
 20
42.4023817596432
 30
0.0
 10
273.3606261413731
 20
42.29924415355013
 30
0.0
 10
273.4141166493321
 20
42.24676266690681
 30
0.0
 10
273.5594054572776
 20
42.08971486658355
 30
0.0
 10
273.6372538818064
 20
41.98469258891735
 30
0.0
 10
273.7250087378146
 20
41.82496300073092
 30
0.0
 10
273.7493921094496
 20
41.77134825546123
 30
0.0
 10
273.7878937022839
 20
41.66299688785324
 30
0.0
 10
273.8019669451628
 20
41.60813286078124
 30
0.0
 10
273.8272351412987
 20
41.4449553026198
 30
0.0
 10
273.8222034807864
 20
41.33687648395357
 30
0.0
 10
273.7798110294042
 20
41.17372089026084
 30
0.0
 10
273.759830084678
 20
41.11916336578793
 30
0.0
 10
273.7071861018312
 20
41.0093312938891
 30
0.0
 10
273.6745657297678
 20
40.95434854211019
 30
0.0
 10
273.5597017102946
 20
40.79246228692427
 30
0.0
 10
273.4600315033668
 20
40.68715929689212
 30
0.0
 10
273.2733187544668
 20
40.5321380133167
 30
0.0
 10
273.2042057218909
 20
40.48057503326424
 30
0.0
 10
273.0563570113802
 20
40.38099675501169
 30
0.0
 10
272.9776103307359
 20
40.33286592133612
 30
0.0
 10
272.81068451202
 20
40.23982402693585
 30
0.0
 10
272.7225050829569
 20
40.19491308347868
 30
0.0
 10
272.5366180800042
 20
40.10839727084831
 30
0.0
 10
272.438287036676
 20
40.06658277654903
 30
0.0
 10
272.1363433241703
 20
39.94940560801963
 30
0.0
 10
271.9243103796301
 20
39.88129369830568
 30
0.0
 10
271.5910150902611
 20
39.79450089104333
 30
0.0
 10
271.4776502274693
 20
39.76827971666884
 30
0.0
 10
271.2508789884307
 20
39.72222733331841
 30
0.0
 10
271.1368647552484
 20
39.70223195581117
 30
0.0
 10
270.7929592016192
 20
39.65136347615083
 30
0.0
 10
270.559173292655
 20
39.62956320566001
 30
0.0
 10
270.1016327349598
 20
39.61278755578189
 30
0.0
 10
269.8767247805176
 20
39.61742116434564
 30
0.0
 10
269.5446326433288
 20
39.64486175338038
 30
0.0
 10
269.4345940188633
 20
39.65751286636574
 30
0.0
 10
269.2201086502834
 20
39.68941822534598
 30
0.0
 10
269.1151805394027
 20
39.70869524422395
 30
0.0
 10
268.8070884080283
 20
39.7765253573871
 30
0.0
 10
268.6105581772773
 20
39.83501381897477
 30
0.0
 10
268.2353896741737
 20
39.98024020286631
 30
0.0
 10
268.061086259093
 20
40.0654012487954
 30
0.0
 10
267.7406399860815
 20
40.25881982052788
 30
0.0
 10
267.5939840873637
 20
40.36728557257464
 30
0.0
 10
267.3293206682459
 20
40.60821048341626
 30
0.0
 10
267.2151317329204
 20
40.73717188975343
 30
0.0
 10
267.0221818242786
 20
41.01037039241051
 30
0.0
 10
266.9432788148461
 20
41.15490387559946
 30
0.0
 10
266.8245073909053
 20
41.45733548758064
 30
0.0
 10
266.7862235263459
 20
41.610974505729
 30
0.0
 10
266.7608980276801
 20
41.843379695142
 30
0.0
 10
266.7578445592248
 20
41.9211750798026
 30
0.0
 10
266.7631133487419
 20
42.07715121683665
 30
0.0
 10
266.771512887841
 20
42.15573373733403
 30
0.0
 10
266.8147836151435
 20
42.38880745421871
 30
0.0
 10
266.8668272562605
 20
42.53823690233071
 30
0.0
 10
266.9811276641638
 20
42.75144481231124
 30
0.0
 10
267.0253122352792
 20
42.82068279665844
 30
0.0
 10
267.126737972024
 20
42.95501207163252
 30
0.0
 10
267.1842930774
 20
43.02026482181071
 30
0.0
 10
267.3720869780085
 20
43.20325903681378
 30
0.0
 10
267.5186095718165
 20
43.31042520296231
 30
0.0
 10
267.7712487110269
 20
43.44795923685551
 30
0.0
 10
267.8615080089582
 20
43.49004591772081
 30
0.0
 10
268.0481394146319
 20
43.56406738048025
 30
0.0
 10
268.1449935154446
 20
43.59633222858753
 30
0.0
 10
268.3455297727956
 20
43.65184366291032
 30
0.0
 10
268.4492125572514
 20
43.67508916254999
 30
0.0
 10
268.6633914667523
 20
43.71279677403176
 30
0.0
 10
268.7733790801077
 20
43.72711158393335
 30
0.0
 10
269.1056245464257
 20
43.75678300086657
 30
0.0
 10
269.3324589185614
 20
43.75942696815986
 30
0.0
 10
269.7965034288546
 20
43.73481334669069
 30
0.0
 10
270.0288674239948
 20
43.70772826492919
 30
0.0
 10
270.2592730661225
 20
43.66865926211744
 30
0.0
  0
ARC
  5
219
330
1F
100
AcDbEntity
  8
0
  6
Continuous
 62
     7
370
    15
100
AcDbCircle
 10
259.7133660313
 20
56.5480421834
 30
0.0
 40
8.703891722760828
100
AcDbArc
 50
34.3325496066
 51
84.2964748064
  0
ARC
  5
21A
330
1F
100
AcDbEntity
  8
0
  6
Continuous
 62
     7
370
    15
100
AcDbCircle
 10
243.4202020441
 20
28.325325753
 30
0.0
 40
8.690205791198
100
AcDbArc
 50
215.038918254
 51
265.86285515
  0
LWPOLYLINE
  5
21B
330
1F
100
AcDbEntity
  8
0
  6
Continuous
 62
     7
370
    15
100
AcDbPolyline
 90
        9
 70
   128
 43
0.0
 10
236.8515977397
 20
22.0738919956
 10
236.6852744766
 20
22.1724980064
 10
235.6943800887
 20
22.8789531981
 10
234.799958983
 20
23.732674631
 10
234.0083297347
 20
24.7276312497
 10
233.3250847532
 20
25.8567942529
 10
232.755050775
 20
27.1121867475
 10
232.3022547652
 20
28.484940101
 10
231.9698954694
 20
29.9653565935
  0
SPLINE
  5
21C
330
1F
100
AcDbEntity
  8
0
  6
Continuous
 62
     7
370
    15
100
AcDbSpline
210
0.0
220
0.0
230
1.0
 70
     8
 71
     3
 72
    32
 73
    28
 74
     0
 42
0.000000001
 43
0.00000001
 40
0.0
 40
0.0
 40
0.0
 40
0.0
 40
0.0193254758652704
 40
0.0385826927409049
 40
0.0577846348017481
 40
0.0769443985967347
 40
0.0960751672961712
 40
0.1151901840600305
 40
0.1343027247899319
 40
0.1534260705421022
 40
0.1725734798867981
 40
0.1917581615009326
 40
0.2109932472750491
 40
0.230291766203487
 40
0.2496666193081581
 40
0.3745846283004807
 40
0.4997410234225904
 40
0.4999962720874485
 40
0.624862702147581
 40
0.7503411293900218
 40
0.78614513231055
 40
0.8217618639989446
 40
0.8572756267685467
 40
0.8927714566740896
 40
0.9283345184906214
 40
0.9640494961172915
 40
1.0
 40
1.0
 40
1.0
 40
1.0
 10
231.9698401933869
 20
37.41718135997424
 30
0.0
 10
231.9917834106748
 20
37.35709031625844
 30
0.0
 10
232.0355923402074
 20
37.23712047477406
 30
0.0
 10
232.0980315914299
 20
37.05637292066244
 30
0.0
 10
232.1579402189571
 20
36.87552952424343
 30
0.0
 10
232.2151268045911
 20
36.69452240870073
 30
0.0
 10
232.2696848757994
 20
36.5133930063779
 30
0.0
 10
232.3216326223904
 20
36.33215448904617
 30
0.0
 10
232.3710091018534
 20
36.1508285348363
 30
0.0
 10
232.4178484833009
 20
35.96943545810142
 30
0.0
 10
232.4621870896463
 20
35.78799710270007
 30
0.0
 10
232.5040609328693
 20
35.60653521372889
 30
0.0
 10
232.5435085240573
 20
35.42507516127908
 30
0.0
 10
232.5805620434169
 20
35.24363271559023
 30
0.0
 10
232.6782541430507
 20
34.73328176385166
 30
0.0
 10
232.7957503418835
 20
33.90668023516489
 30
0.0
 10
232.8306017780045
 20
33.19136073987225
 30
0.0
 10
232.8309976021779
 20
32.51464877496331
 30
0.0
 10
232.7959462511355
 20
31.87295765086422
 30
0.0
 10
232.671012170964
 20
31.25165671209009
 30
0.0
 10
232.5502859900885
 20
30.87903261011821
 30
0.0
 10
232.4759785775663
 20
30.69023590898721
 30
0.0
 10
232.393065106334
 20
30.51604462602572
 30
0.0
 10
232.3013663053241
 20
30.35622845596025
 30
0.0
 10
232.2004642377015
 20
30.21102458334463
 30
0.0
 10
232.0909113409017
 20
30.07897762321647
 30
0.0
 10
232.0103830430017
 20
30.00327813827423
 30
0.0
 10
231.9699865672459
 20
29.96530400386506
 30
0.0
  0
LWPOLYLINE
  5
21D
330
1F
100
AcDbEntity
  8
0
  6
Continuous
 62
     7
370
    15
100
AcDbPolyline
 90
       27
 70
   128
 43
0.0
 10
231.9698401931
 20
37.4171813601
 10
232.3021795331
 20
39.2813472225
 10
232.7549590915
 20
41.176906536
 10
233.32498016
 20
43.0904679241
 10
234.0082157652
 20
45.0085128326
 10
234.7998391178
 20
46.9174910328
 10
235.694257712
 20
48.803916349
 10
236.6851528342
 20
50.6544619327
 10
237.7655242024
 20
52.4560544112
 10
238.9277394203
 20
54.1959662465
 10
240.1635878971
 20
55.8619056497
 10
241.4643388522
 20
57.4421034179
 10
242.8208029947
 20
58.9253960791
 10
244.223397442
 20
60.3013047574
 10
245.6622134193
 20
61.5601092022
 10
247.1270862607
 20
62.6929164581
 10
248.6076672193
 20
63.6917236901
 10
250.0934965761
 20
64.54947472
 10
251.5740775346
 20
65.2601098763
 10
253.0389503761
 20
65.8186088026
 10
254.4777663533
 20
66.221025925
 10
255.8803608006
 20
66.4645183257
 10
257.2368249431
 20
66.5473658272
 10
258.5375758983
 20
66.4689831447
 10
259.7734243751
 20
66.2299240209
 10
260.9356395929
 20
65.8318773138
 10
261.8495660556
 20
65.3763351146
  0
LINE
  5
21E
330
1F
100
AcDbEntity
  8
0
  6
Continuous
 62
     7
370
    15
100
AcDbLine
 10
271.4039376386
 20
22.9112974479
 30
0.0
 11
271.5381956906
 21
22.8395218952
 31
0.0
  0
LWPOLYLINE
  5
21F
330
1F
100
AcDbEntity
  8
0
  6
Continuous
 62
     7
370
    15
100
AcDbPolyline
 90
       19
 70
   128
 43
0.0
 10
272.4597484216
 20
40.0521766374
 10
272.671351316
 20
40.233619682
 10
272.9460774779
 20
40.6165043865
 10
273.0397814556
 20
41.0273902861
 10
272.9460774779
 20
41.4382761857
 10
272.671351316
 20
41.8211608902
 10
272.2343251038
 20
42.1499514399
 10
271.6647814556
 20
42.402241302
 10
271.0015338296
 20
42.5608373395
 10
270.2897814556
 20
42.6149314944
 10
269.5780290815
 20
42.5608373395
 10
268.9147814556
 20
42.402241302
 10
268.3452378073
 20
42.1499514399
 10
267.9082115952
 20
41.8211608902
 10
267.6334854333
 20
41.4382761857
 10
267.5397814556
 20
41.0273902861
 10
267.6334854333
 20
40.6165043865
 10
267.9082115952
 20
40.233619682
 10
268.2175371822
 20
39.9837435619
  0
SPLINE
  5
220
330
1F
100
AcDbEntity
  8
0
  6
Continuous
 62
     7
370
    15
100
AcDbSpline
210
0.0
220
0.0
230
1.0
 70
     8
 71
     3
 72
     8
 73
     4
 74
     0
 42
0.000000001
 43
0.00000001
 40
0.0
 40
0.0
 40
0.0
 40
0.0
 40
1.0
 40
1.0
 40
1.0
 40
1.0
 10
231.0078469143309
 20
42.85251907790064
 30
0.0
 10
229.8382204943929
 20
42.6569629046579
 30
0.0
 10
228.667617251533
 20
42.46337793793798
 30
0.0
 10
227.4963857698802
 20
42.27109848869171
 30
0.0
  0
SPLINE
  5
221
330
1F
100
AcDbEntity
  8
0
  6
Continuous
 62
     7
370
    15
100
AcDbSpline
210
0.0
220
0.0
230
1.0
 70
     8
 71
     3
 72
     8
 73
     4
 74
     0
 42
0.000000001
 43
0.00000001
 40
0.0
 40
0.0
 40
0.0
 40
0.0
 40
0.0012417047560385
 40
0.0012417047560385
 40
0.0012417047560385
 40
0.0012417047560385
 10
227.0218851662305
 20
42.54507390957157
 30
0.0
 10
227.1801563066909
 20
42.45368858481364
 30
0.0
 10
227.3383256123702
 20
42.36236203741003
 30
0.0
 10
227.4963857698802
 20
42.27109848869171
 30
0.0
  0
LWPOLYLINE
  5
222
330
1F
100
AcDbEntity
  8
0
  6
Continuous
 62
     7
370
    15
100
AcDbPolyline
 90
       28
 70
   128
 43
0.0
 10
227.0218851662
 20
42.5450739096
 10
227.500720757
 20
44.4937400458
 10
228.1026024733
 20
46.4595512395
 10
228.8230497211
 20
48.4278733829
 10
229.6566992676
 20
50.3840536758
 10
230.5973451674
 20
52.3135297057
 10
231.6379849607
 20
54.2019378551
 10
232.7708718023
 20
56.0352202283
 10
233.9875721316
 20
57.7997293031
 10
235.279028454
 20
59.482329527
 10
236.6356267684
 20
61.0704951024
 10
238.0472681365
 20
62.5524032325
 10
239.5034438623
 20
63.9170221338
 10
240.9933137225
 20
65.1541931603
 10
242.5057866639
 20
66.2547064273
 10
244.0296033693
 20
67.210369373
 10
245.5534200746
 20
68.0140677462
 10
247.065893016
 20
68.6598185671
 10
248.5557628762
 20
69.1428146663
 10
250.011938602
 20
69.4594604714
 10
251.4235799701
 20
69.6073987726
 10
252.7801782845
 20
69.5855282715
 10
254.071634607
 20
69.3940117789
 10
255.2883349362
 20
69.0342750028
 10
256.4212217778
 20
68.5089959353
 10
257.4618615711
 20
67.8220849167
 10
258.4025074709
 20
66.9786555255
 10
258.9027378136
 20
66.4161954738
  0
LINE
  5
223
330
1F
100
AcDbEntity
  8
0
  6
Continuous
 62
     7
370
    15
100
AcDbLine
 10
222.8941493311
 20
44.927965086
 30
0.0
 11
227.0218851662
 21
42.5450739096
 31
0.0
  0
ARC
  5
224
330
1F
100
AcDbEntity
  8
0
  6
Continuous
 62
     7
370
    15
100
AcDbCircle
 10
248.0118274417
 20
63.113482698
 30
0.0
 40
8.878232805098477
100
AcDbArc
 50
60.3725835944
 51
85.9811821539
  0
SPLINE
  5
225
330
1F
100
AcDbEntity
  8
0
  6
Continuous
 62
     7
370
    15
100
AcDbSpline
210
0.0
220
0.0
230
1.0
 70
     8
 71
     3
 72
    13
 73
     9
 74
     0
 42
0.000000001
 43
0.00000001
 40
0.0
 40
0.0
 40
0.0
 40
0.0
 40
0.1935905955612326
 40
0.3928012754572475
 40
0.5863901717324603
 40
0.7855816257054034
 40
0.9793802663311049
 40
1.0
 40
1.0
 40
1.0
 40
1.0
 10
240.7292117030951
 20
57.74758156634704
 30
0.0
 10
240.7803179284836
 20
57.72165323606873
 30
0.0
 10
240.8840140324094
 20
57.66904385608166
 30
0.0
 10
241.0634689691636
 20
57.62403352437487
 30
0.0
 10
241.2566979144432
 20
57.60431015006232
 30
0.0
 10
241.4563609732429
 20
57.61617197377625
 30
0.0
 10
241.6002325625795
 20
57.63690552896438
 30
0.0
 10
241.6728255367271
 20
57.66042032795268
 30
0.0
 10
241.6798065046506
 20
57.66268164951158
 30
0.0
  0
LWPOLYLINE
  5
226
330
1F
100
AcDbEntity
  8
0
  6
Continuous
 62
     7
370
    15
100
AcDbPolyline
 90
       25
 70
   128
 43
0.0
 10
242.7608112802
 20
58.8613546896
 10
242.7453286096
 20
58.9656758537
 10
242.688077693
 20
59.1090934608
 10
242.6004705214
 20
59.2345210467
 10
242.4798787815
 20
59.3457882087
 10
242.3366329761
 20
59.4335273329
 10
242.1664338855
 20
59.500468271
 10
241.9837505912
 20
59.5408798386
 10
241.7832937345
 20
59.5557982611
 10
241.581701104
 20
59.5436918682
 10
241.3735290095
 20
59.5038629383
 10
241.1760935804
 20
59.4392330311
 10
240.9840780368
 20
59.3476538857
 10
240.8138249667
 20
59.2366582921
 10
240.6603549243
 20
59.1028238171
 10
240.5367751308
 20
58.9575924677
 10
240.4392431855
 20
58.7966508318
 10
240.3758717799
 20
58.6336619173
 10
240.3447241196
 20
58.4641851634
 10
240.3483120559
 20
58.3024549974
 10
240.3866841051
 20
58.144402155
 10
240.4565682115
 20
58.0034944452
 10
240.55987852
 20
57.8760529351
 10
240.7292117031
 20
57.7475815663
 10
240.7292117031
 20
57.7475815663
  0
SPLINE
  5
227
330
1F
100
AcDbEntity
  8
0
  6
Continuous
 62
     7
370
    15
100
AcDbSpline
210
0.0
220
0.0
230
1.0
 70
     8
 71
     3
 72
    10
 73
     6
 74
     0
 42
0.000000001
 43
0.00000001
 40
0.0
 40
0.0
 40
0.0
 40
0.0
 40
0.1982376724753472
 40
0.6709252460000957
 40
1.0
 40
1.0
 40
1.0
 40
1.0
 10
232.8497807232918
 20
41.4644085763895
 30
0.0
 10
232.7654577409555
 20
41.57482187670657
 30
0.0
 10
232.4800709274349
 20
41.94851003472365
 30
0.0
 10
231.9888089406149
 20
42.39785883454213
 30
0.0
 10
231.5718071893143
 20
42.67934120073609
 30
0.0
 10
231.4006532899406
 20
42.79487262099697
 30
0.0
  0
SPLINE
  5
228
330
1F
100
AcDbEntity
  8
0
  6
Continuous
 62
     7
370
    15
100
AcDbSpline
210
0.0
220
0.0
230
1.0
 70
     8
 71
     3
 72
    10
 73
     6
 74
     0
 42
0.000000001
 43
0.00000001
 40
0.0
 40
0.0
 40
0.0
 40
0.0
 40
0.5
 40
0.5
 40
1.0
 40
1.0
 40
1.0
 40
1.0
 10
231.2647239427085
 20
42.84740260280628
 30
0.0
 10
231.2241486343136
 20
42.85622712413324
 30
0.0
 10
231.1805742912599
 20
42.86118020004193
 30
0.0
 10
231.0927715642731
 20
42.86276538530804
 30
0.0
 10
231.0498034473512
 20
42.85953401779951
 30
0.0
 10
231.0078469143309
 20
42.85251907790064
 30
0.0
  0
SPLINE
  5
229
330
1F
100
AcDbEntity
  8
0
  6
Continuous
 62
     7
370
    15
100
AcDbSpline
210
0.0
220
0.0
230
1.0
 70
     8
 71
     3
 72
     8
 73
     4
 74
     0
 42
0.000000001
 43
0.00000001
 40
0.0
 40
0.0
 40
0.0
 40
0.0
 40
1.0
 40
1.0
 40
1.0
 40
1.0
 10
231.4006532899406
 20
42.79487262099696
 30
0.0
 10
231.3621713481044
 20
42.81854343079283
 30
0.0
 10
231.3160636963575
 20
42.83623697600228
 30
0.0
 10
231.2647239427085
 20
42.84740260280633
 30
0.0
  0
SPLINE
  5
22A
330
1F
100
AcDbEntity
  8
0
  6
Continuous
 62
     7
370
    15
100
AcDbSpline
210
0.0
220
0.0
230
1.0
 70
     8
 71
     3
 72
    10
 73
     6
 74
     0
 42
0.000000001
 43
0.00000001
 40
0.0
 40
0.0
 40
0.0
 40
0.0
 40
0.5
 40
0.5
 40
1.0
 40
1.0
 40
1.0
 40
1.0
 10
222.7374524112432
 20
45.0184129691347
 30
0.0
 10
222.7485030095933
 20
45.01203713459056
 30
0.0
 10
222.7671229555327
 20
45.00129089308518
 30
0.0
 10
222.8204229055933
 20
44.97052542024522
 30
0.0
 10
222.8540036783146
 20
44.95114067797426
 30
0.0
 10
222.8941493310541
 20
44.92796508595411
 30
0.0
  0
SPLINE
  5
22B
330
1F
100
AcDbEntity
  8
0
  6
Continuous
 62
     7
370
    15
100
AcDbSpline
210
0.0
220
0.0
230
1.0
 70
     8
 71
     3
 72
     9
 73
     5
 74
     0
 42
0.000000001
 43
0.00000001
 40
0.0
 40
0.0
 40
0.0
 40
0.0
 40
0.5377956222890862
 40
0.9999999999999999
 40
0.9999999999999999
 40
0.9999999999999999
 40
0.9999999999999999
 10
231.4006532899406
 20
32.30551655805386
 30
0.0
 10
231.6407194633881
 20
32.17875051051238
 30
0.0
 10
232.0871086928608
 20
31.94303634273632
 30
0.0
 10
232.478714850304
 20
31.82739170372199
 30
0.0
 10
232.6597169306128
 20
31.77394024531079
 30
0.0
  0
SPLINE
  5
22C
330
1F
100
AcDbEntity
  8
0
  6
Continuous
 62
     7
370
    15
100
AcDbSpline
210
0.0
220
0.0
230
1.0
 70
     8
 71
     3
 72
     8
 73
     4
 74
     0
 42
0.000000001
 43
0.00000001
 40
0.0
 40
0.0
 40
0.0
 40
0.0
 40
1.0
 40
1.0
 40
1.0
 40
1.0
 10
231.264723942709
 20
32.35485317007428
 30
0.0
 10
231.3160523247062
 20
32.34369001643399
 30
0.0
 10
231.3621728888104
 20
32.32697601213228
 30
0.0
 10
231.4006532899407
 20
32.30551655805389
 30
0.0
  0
SPLINE
  5
22D
330
1F
100
AcDbEntity
  8
0
  6
Continuous
 62
     7
370
    15
100
AcDbSpline
210
0.0
220
0.0
230
1.0
 70
     8
 71
     3
 72
    12
 73
     8
 74
     0
 42
0.000000001
 43
0.00000001
 40
0.0
 40
0.0
 40
0.0
 40
0.0
 40
0.1882348860552934
 40
0.3552030333413834
 40
0.5009466077120189
 40
0.7563025321915505
 40
1.0
 40
1.0
 40
1.0
 40
1.0
 10
232.0806404590408
 20
30.68927816077254
 30
0.0
 10
232.1696839923679
 20
30.78355980879013
 30
0.0
 10
232.3377109389133
 20
30.96147118359467
 30
0.0
 10
232.5176202909326
 20
31.30878828478357
 30
0.0
 10
232.6791442853926
 20
31.76944189357241
 30
0.0
 10
232.8049013490093
 20
32.39099280511559
 30
0.0
 10
232.8222041451991
 20
32.97432011077291
 30
0.0
 10
232.8306534367632
 20
33.25917016787898
 30
0.0
  0
SPLINE
  5
22E
330
1F
100
AcDbEntity
  8
0
  6
Continuous
 62
     7
370
    15
100
AcDbSpline
210
0.0
220
0.0
230
1.0
 70
     8
 71
     3
 72
     9
 73
     5
 74
     0
 42
0.000000001
 43
0.00000001
 40
0.0
 40
0.0
 40
0.0
 40
0.0
 40
0.5048004990382029
 40
1.0
 40
1.0
 40
1.0
 40
1.0
 10
231.9699060470099
 20
29.96525364051142
 30
0.0
 10
231.9884509452949
 20
30.08696751623663
 30
0.0
 10
232.0251880291929
 20
30.32808034389251
 30
0.0
 10
232.0622851405487
 20
30.56958657713935
 30
0.0
 10
232.0806556115792
 20
30.68918034332236
 30
0.0
  0
LINE
  5
22F
330
1F
100
AcDbEntity
  8
0
  6
Continuous
 62
     7
370
    15
100
AcDbLine
 10
223.1715195113
 20
44.7677906362
 30
0.0
 11
222.7374524112
 21
45.0184129691
 31
0.0
  0
LINE
  5
230
330
1F
100
AcDbEntity
  8
0
  6
Continuous
 62
     7
370
    15
100
AcDbLine
 10
227.4963857699
 20
42.2710984887
 30
0.0
 11
223.1715195113
 21
44.7677906362
 31
0.0
  0
SPLINE
  5
231
330
1F
100
AcDbEntity
  8
0
  6
Continuous
 62
     7
370
    15
100
AcDbSpline
210
0.0
220
0.0
230
1.0
 70
     8
 71
     3
 72
    11
 73
     7
 74
     0
 42
0.000000001
 43
0.00000001
 40
0.0
 40
0.0
 40
0.0
 40
0.0
 40
0.0763291486410529
 40
0.4828240100964536
 40
0.8892344489868813
 40
1.0
 40
1.0
 40
1.0
 40
1.0
 10
227.0678794555393
 20
39.4550592904648
 30
0.0
 10
227.0674440762093
 20
39.53329842948439
 30
0.0
 10
227.0646900615534
 20
40.02820418332124
 30
0.0
 10
227.0199944043395
 20
40.96119022581858
 30
0.0
 10
226.9819192897778
 20
41.92667403409824
 30
0.0
 10
226.9939373089139
 20
42.44801279653342
 30
0.0
 10
226.9965112538333
 20
42.55966990439026
 30
0.0
  0
LINE
  5
232
330
1F
100
AcDbEntity
  8
0
  6
Continuous
 62
     7
370
    15
100
AcDbLine
 10
227.0678794555
 20
37.6792586614
 30
0.0
 11
227.0678794555
 21
39.4550592905
 31
0.0
  0
LINE
  5
233
330
1F
100
AcDbEntity
  8
0
  6
Continuous
 62
     7
370
    15
100
AcDbLine
 10
226.1398018052
 20
42.8678850377
 30
0.0
 11
226.1408428325
 21
43.0536367697
 31
0.0
  0
ARC
  5
234
330
1F
100
AcDbEntity
  8
0
  6
Continuous
 62
     7
370
    15
100
AcDbCircle
 10
238.0756550065
 20
42.6022953732
 30
0.0
 40
11.93880770898526
100
AcDbArc
 50
178.7252979842
 51
202.7773427363
  0
LINE
  5
235
330
1F
100
AcDbEntity
  8
0
  6
Continuous
 62
     7
370
    15
100
AcDbLine
 10
197.5221490045
 20
61.9711211999
 30
0.0
 11
197.4693239558
 21
62.0166338161
 31
0.0
  0
LWPOLYLINE
  5
236
330
1F
100
AcDbEntity
  8
0
  6
Continuous
 62
     7
370
    15
100
AcDbPolyline
 90
       10
 70
   128
 43
0.0
 10
234.4774474533
 20
24.1057671572
 10
233.9875721316
 20
24.1996863728
 10
232.7708718023
 20
24.5594231489
 10
231.6379849607
 20
25.0847022164
 10
230.5973451674
 20
25.771613235
 10
229.6566992676
 20
26.6150426262
 10
228.8230497211
 20
27.6087116403
 10
228.1026024733
 20
28.745223097
 10
227.500720757
 20
30.0161164528
 10
227.0218851662
 20
31.4119307837
  0
SPLINE
  5
237
330
1F
100
AcDbEntity
  8
0
  6
Continuous
 62
     7
370
    15
100
AcDbSpline
210
0.0
220
0.0
230
1.0
 70
     8
 71
     3
 72
     8
 73
     4
 74
     0
 42
0.000000001
 43
0.00000001
 40
0.0
 40
0.0
 40
0.0
 40
0.0
 40
0.0012417047560385
 40
0.0012417047560385
 40
0.0012417047560385
 40
0.0012417047560385
 10
227.4963857698802
 20
31.77854905595982
 30
0.0
 10
227.3383256123702
 20
31.65614585095568
 30
0.0
 10
227.1801563066909
 20
31.53394362098491
 30
0.0
 10
227.0218851662305
 20
31.41193078367414
 30
0.0
  0
SPLINE
  5
238
330
1F
100
AcDbEntity
  8
0
  6
Continuous
 62
     7
370
    15
100
AcDbSpline
210
0.0
220
0.0
230
1.0
 70
     8
 71
     3
 72
     8
 73
     4
 74
     0
 42
0.000000001
 43
0.00000001
 40
0.0
 40
0.0
 40
0.0
 40
0.0
 40
1.0
 40
1.0
 40
1.0
 40
1.0
 10
227.4963857698802
 20
31.77854905595982
 30
0.0
 10
228.6676183545559
 20
31.97082868628782
 30
0.0
 10
229.8382377291483
 20
32.16441635349808
 30
0.0
 10
231.0078469143309
 20
32.35996964516875
 30
0.0
  0
SPLINE
  5
239
330
1F
100
AcDbEntity
  8
0
  6
Continuous
 62
     7
370
    15
100
AcDbSpline
210
0.0
220
0.0
230
1.0
 70
     8
 71
     3
 72
    10
 73
     6
 74
     0
 42
0.000000001
 43
0.00000001
 40
0.0
 40
0.0
 40
0.0
 40
0.0
 40
0.5
 40
0.5
 40
1.0
 40
1.0
 40
1.0
 40
1.0
 10
231.0078469143309
 20
32.35996964516875
 30
0.0
 10
231.0496127753453
 20
32.36695270558269
 30
0.0
 10
231.0935100611593
 20
32.37024279659108
 30
0.0
 10
231.1811374439493
 20
32.36857982216203
 30
0.0
 10
231.2236427410099
 20
32.36378771561128
 30
0.0
 10
231.264723942709
 20
32.35485317007428
 30
0.0
  0
LINE
  5
23A
330
1F
100
AcDbEntity
  8
0
  6
Continuous
 62
     7
370
    15
100
AcDbLine
 10
223.1715195113
 20
34.2752412034
 30
0.0
 11
227.4963857699
 21
31.778549056
 31
0.0
  0
LINE
  5
23B
330
1F
100
AcDbEntity
  8
0
  6
Continuous
 62
     7
370
    15
100
AcDbLine
 10
223.1715195113
 20
34.2752412034
 30
0.0
 11
226.7143260649
 21
36.3204598931
 31
0.0
  0
LINE
  5
23C
330
1F
100
AcDbEntity
  8
0
  6
Continuous
 62
     7
370
    15
100
AcDbLine
 10
222.7374524112
 20
34.0246188704
 30
0.0
 11
223.1715195113
 21
34.2752412034
 31
0.0
  0
LINE
  5
23D
330
1F
100
AcDbEntity
  8
0
  6
Continuous
 62
     7
370
    15
100
AcDbLine
 10
227.0218851662
 20
31.4119307837
 30
0.0
 11
222.8941493311
 21
33.7948219601
 31
0.0
  0
SPLINE
  5
23E
330
1F
100
AcDbEntity
  8
0
  6
Continuous
 62
     7
370
    15
100
AcDbSpline
210
0.0
220
0.0
230
1.0
 70
     8
 71
     3
 72
     8
 73
     4
 74
     0
 42
0.000000001
 43
0.00000001
 40
0.0
 40
0.0
 40
0.0
 40
0.0
 40
1.0
 40
1.0
 40
1.0
 40
1.0
 10
222.8941493310541
 20
33.79482196005667
 30
0.0
 10
222.8139301018879
 20
33.84113153532728
 30
0.0
 10
222.7595403396006
 20
33.92479437633936
 30
0.0
 10
222.7374524112424
 20
34.02461887044674
 30
0.0
  0
ARC
  5
23F
330
1F
100
AcDbEntity
  8
0
  6
Continuous
 62
     7
370
    15
100
AcDbCircle
 10
231.9232576829
 20
35.2202011714
 30
0.0
 40
8.921645768970532
100
AcDbArc
 50
214.8451889641
 51
239.5573983443
  0
ELLIPSE
  5
240
330
1F
100
AcDbEntity
  8
0
  6
Continuous
 62
     7
370
    15
100
AcDbEllipse
 10
226.4214328461
 20
37.3060843612
 30
0.0
 11
-7.507462981948265E-5
 21
1.066811201853405
 31
0.0
210
0.0
220
0.0
230
1.0
 40
0.7174342186
 41
3.534193645557477
 42
5.104989972352354
  0
ELLIPSE
  5
241
330
1F
100
AcDbEntity
  8
0
  6
Continuous
 62
     7
370
    15
100
AcDbEllipse
 10
226.3607726744
 20
37.2710546055
 30
0.0
 11
0.3250094736511642
 21
1.213179526238669
 31
0.0
210
0.0
220
0.0
230
1.0
 40
0.5176380889
 41
3.619174351347721
 42
5.189970678142622
  0
LWPOLYLINE
  5
242
330
1F
100
AcDbEntity
  8
0
  6
Continuous
 62
     7
370
    15
100
AcDbPolyline
 90
        6
 70
   128
 43
0.0
 10
267.7377577728
 20
41.4395248434
 10
267.6399409827
 20
41.0441760456
 10
267.7227064417
 20
40.647683326
 10
267.9804138207
 20
40.2770670083
 10
268.3955007875
 20
39.957583982
 10
268.650661433
 20
39.8253301074
  0
LWPOLYLINE
  5
243
330
1F
100
AcDbEntity
  8
0
  6
Continuous
 62
     7
370
    15
100
AcDbPolyline
 90
       17
 70
   128
 43
0.0
 10
272.0971837748
 20
39.9086137216
 10
272.1429411223
 20
39.9338453332
 10
272.5700721516
 20
40.24799322
 10
272.8418051383
 20
40.6152557288
 10
272.9396219284
 20
41.0106045266
 10
272.8568564694
 20
41.4070972462
 10
272.5991490905
 20
41.7777135639
 10
272.1840621236
 20
42.0971965903
 10
271.6398830597
 20
42.3437740849
 10
271.0036968026
 20
42.5006421991
 10
270.3188583944
 20
42.5571106301
 10
269.6320384409
 20
42.5093311476
 10
268.9900425869
 20
42.3605598444
 10
268.4366217888
 20
42.120935239
 10
268.0094907595
 20
41.8067873523
 10
267.7377577728
 20
41.4395248434
 10
267.7377577728
 20
41.4395248434
  0
LWPOLYLINE
  5
244
330
1F
100
AcDbEntity
  8
0
  6
Continuous
 62
     7
370
    15
100
AcDbPolyline
 90
       21
 70
   128
 43
0.0
 10
268.5563314069
 20
41.3073307401
 10
268.4913228479
 20
40.9843963543
 10
268.602359948
 20
40.6656705141
 10
268.8785736222
 20
40.3823523255
 10
269.2929261516
 20
40.1621749466
 10
269.8048578236
 20
40.0266908735
 10
270.3642571994
 20
39.9891622312
 10
270.9163663705
 20
40.0532625847
 10
271.4071410445
 20
40.2127173447
 10
271.7885407768
 20
40.4519179684
 10
272.0232315042
 20
40.7474498321
 10
272.0882400633
 20
41.0703842179
 10
271.9772029632
 20
41.3891100581
 10
271.700989289
 20
41.6724282468
 10
271.2866367596
 20
41.8926056256
 10
270.7747050875
 20
42.0280896987
 10
270.2153057117
 20
42.065618341
 10
269.6631965406
 20
42.0015179876
 10
269.1724218667
 20
41.8420632275
 10
268.7910221344
 20
41.6028626039
 10
268.5563314069
 20
41.3073307401
  0
SPLINE
  5
245
330
1F
100
AcDbEntity
  8
0
  6
Continuous
 62
     7
370
    15
100
AcDbSpline
210
0.0
220
0.0
230
1.0
 70
     8
 71
     3
 72
     9
 73
     5
 74
     0
 42
0.000000001
 43
0.00000001
 40
0.0
 40
0.0
 40
0.0
 40
0.0
 40
0.5557703975068056
 40
1.0
 40
1.0
 40
1.0
 40
1.0
 10
268.6119307571511
 20
40.7237289796874
 30
0.0
 10
268.6946449578905
 20
40.62874817708842
 30
0.0
 10
268.8434729651225
 20
40.45784882184196
 30
0.0
 10
269.0062419417708
 20
40.3324394324932
 30
0.0
 10
269.0785487395656
 20
40.2767288693139
 30
0.0
  0
SPLINE
  5
246
330
1F
100
AcDbEntity
  8
0
  6
Continuous
 62
     7
370
    15
100
AcDbSpline
210
0.0
220
0.0
230
1.0
 70
     8
 71
     3
 72
    13
 73
     9
 74
     0
 42
0.000000001
 43
0.00000001
 40
0.0
 40
0.0
 40
0.0
 40
0.0
 40
0.1844095697099039
 40
0.3495005370884514
 40
0.5197705331556537
 40
0.6927076360809709
 40
0.871806172583426
 40
0.9999999999999999
 40
0.9999999999999999
 40
0.9999999999999999
 40
0.9999999999999999
 10
271.5010141715685
 20
40.25716155630305
 30
0.0
 10
271.5282099014716
 20
40.27503352432266
 30
0.0
 10
271.5797523578776
 20
40.30890520696638
 30
0.0
 10
271.6616841402418
 20
40.41132202620232
 30
0.0
 10
271.7444779268794
 20
40.56138445579179
 30
0.0
 10
271.8290982610582
 20
40.77001461342837
 30
0.0
 10
271.9037196452156
 20
40.99638677063669
 30
0.0
 10
271.9488182644001
 20
41.15423508751806
 30
0.0
 10
271.9676321539831
 20
41.22008501504057
 30
0.0
  0
SPLINE
  5
247
330
1F
100
AcDbEntity
  8
0
  6
Continuous
 62
     7
370
    15
100
AcDbSpline
210
0.0
220
0.0
230
1.0
 70
     8
 71
     3
 72
    12
 73
     8
 74
     0
 42
0.000000001
 43
0.00000001
 40
0.0
 40
0.0
 40
0.0
 40
0.0
 40
0.2161857461389905
 40
0.4397628073512019
 40
0.5934185666353944
 40
0.7522096186328828
 40
1.0
 40
1.0
 40
1.0
 40
1.0
 10
271.9676321539831
 20
41.22008501504057
 30
0.0
 10
271.8846988484299
 20
41.22464792249283
 30
0.0
 10
271.7159967766034
 20
41.23392974160777
 30
0.0
 10
271.4679753225052
 20
41.32104543498453
 30
0.0
 10
271.2412173737114
 20
41.46041507570293
 30
0.0
 10
271.0083237491993
 20
41.6528451675275
 30
0.0
 10
270.8517953883373
 20
41.82805134272495
 30
0.0
 10
270.7563994379816
 20
41.93483045610152
 30
0.0
  0
SPLINE
  5
248
330
1F
100
AcDbEntity
  8
0
  6
Continuous
 62
     7
370
    15
100
AcDbSpline
210
0.0
220
0.0
230
1.0
 70
     8
 71
     3
 72
    12
 73
     8
 74
     0
 42
0.000000001
 43
0.00000001
 40
0.0
 40
0.0
 40
0.0
 40
0.0
 40
0.2161857461389807
 40
0.4397628073511831
 40
0.5934185666353916
 40
0.7522096186328932
 40
1.0
 40
1.0
 40
1.0
 40
1.0
 10
270.7563994379816
 20
41.93483045610152
 30
0.0
 10
270.6415167215505
 20
41.87346183415166
 30
0.0
 10
270.4078234887813
 20
41.74862641852443
 30
0.0
 10
270.0642536986962
 20
41.63856639722135
 30
0.0
 10
269.7501390139385
 20
41.59766469498127
 30
0.0
 10
269.4275249321176
 20
41.60494561483382
 30
0.0
 10
269.2106952377701
 20
41.65571258966901
 30
0.0
 10
269.0785487395656
 20
41.68665243842493
 30
0.0
  0
SPLINE
  5
249
330
1F
100
AcDbEntity
  8
0
  6
Continuous
 62
     7
370
    15
100
AcDbSpline
210
0.0
220
0.0
230
1.0
 70
     8
 71
     3
 72
    13
 73
     9
 74
     0
 42
0.000000001
 43
0.00000001
 40
0.0
 40
0.0
 40
0.0
 40
0.0
 40
0.1281940639112356
 40
0.3016059688761477
 40
0.4802226824374594
 40
0.6449624637537983
 40
0.815590090087477
 40
0.9999999999999999
 40
0.9999999999999999
 40
0.9999999999999999
 40
0.9999999999999999
 10
269.0785487395656
 20
41.68665243842493
 30
0.0
 10
269.0597342991861
 20
41.6207992229437
 30
0.0
 10
269.0154690083734
 20
41.46586441353959
 30
0.0
 10
268.9409379748201
 20
41.23919463388241
 30
0.0
 10
268.8572117471754
 20
41.03184132428291
 30
0.0
 10
268.7735110324426
 20
40.87923248658488
 30
0.0
 10
268.6914828324246
 20
40.77601448000313
 30
0.0
 10
268.6391256046547
 20
40.74160275862845
 30
0.0
 10
268.6119307571511
 20
40.7237289796874
 30
0.0
  0
LINE
  5
24A
330
1F
100
AcDbEntity
  8
0
  6
Continuous
 62
     7
370
    15
100
AcDbLine
 10
269.0785487396
 20
40.2767288693
 30
0.0
 11
269.0785487396
 21
41.6866524384
 31
0.0
  0
LINE
  5
24B
330
1F
100
AcDbEntity
  8
0
  6
Continuous
 62
     7
370
    15
100
AcDbLine
 10
270.756399438
 20
40.0237946245
 30
0.0
 11
270.756399438
 21
41.9348304561
 31
0.0
  0
LWPOLYLINE
  5
24C
330
1F
100
AcDbEntity
  8
0
  6
Continuous
 62
     7
370
    15
100
AcDbPolyline
 90
        8
 70
   128
 43
0.0
 10
273.6487251929
 20
33.5064063843
 10
273.6574776888
 20
33.4904780051
 10
273.8908525759
 20
32.9505746814
 10
274.0043785785
 20
32.4164116854
 10
273.9869429805
 20
31.9402766129
 10
273.8402524998
 20
31.5687768823
 10
273.5786662227
 20
31.3382774755
 10
273.4210793927
 20
31.28527334
  0
LWPOLYLINE
  5
24D
330
1F
100
AcDbEntity
  8
0
  6
Continuous
 62
     7
370
    15
100
AcDbPolyline
 90
        8
 70
   128
 43
0.0
 10
240.7487105695
 20
59.1569411773
 10
240.4752420326
 20
58.8192908253
 10
240.3655313652
 20
58.4481416844
 10
240.4362810219
 20
58.099997847
 10
240.6767200089
 20
57.8278610562
 10
241.0502436699
 20
57.6731616716
 10
241.4999864136
 20
57.6594512722
 10
241.6851126271
 20
57.6944269016
  0
LWPOLYLINE
  5
24E
330
1F
100
AcDbEntity
  8
0
  6
Continuous
 62
     7
370
    15
100
AcDbPolyline
 90
        7
 70
   128
 43
0.0
 10
242.7358512767
 20
58.83706662
 10
242.6655018325
 20
59.0985078301
 10
242.4250628455
 20
59.3706446208
 10
242.0515391845
 20
59.5253440054
 10
241.6017964408
 20
59.5390544049
 10
241.1443038702
 20
59.4096885352
 10
240.7487105695
 20
59.1569411773
  0
LINE
  5
24F
330
1F
100
AcDbEntity
  8
0
  6
Continuous
 62
     7
370
    15
100
AcDbLine
 10
241.2987760617
 20
57.9286088221
 30
0.0
 11
242.1190443621
 21
58.2042642728
 31
0.0
  0
LINE
  5
250
330
1F
100
AcDbEntity
  8
0
  6
Continuous
 62
     7
370
    15
100
AcDbLine
 10
242.3711597276
 20
58.8749082892
 30
0.0
 11
242.1190443621
 21
58.2042642728
 31
0.0
  0
LINE
  5
251
330
1F
100
AcDbEntity
  8
0
  6
Continuous
 62
     7
370
    15
100
AcDbLine
 10
241.8030067927
 20
59.269896855
 30
0.0
 11
242.3711597276
 21
58.8749082892
 31
0.0
  0
LINE
  5
252
330
1F
100
AcDbEntity
  8
0
  6
Continuous
 62
     7
370
    15
100
AcDbLine
 10
241.8030067927
 20
59.269896855
 30
0.0
 11
240.9827384922
 21
58.9942414043
 31
0.0
  0
LINE
  5
253
330
1F
100
AcDbEntity
  8
0
  6
Continuous
 62
     7
370
    15
100
AcDbLine
 10
240.7306231268
 20
58.3235973878
 30
0.0
 11
240.9827384922
 21
58.9942414043
 31
0.0
  0
LINE
  5
254
330
1F
100
AcDbEntity
  8
0
  6
Continuous
 62
     7
370
    15
100
AcDbLine
 10
240.7306231268
 20
58.3235973878
 30
0.0
 11
241.2987760617
 21
57.9286088221
 31
0.0
  0
LINE
  5
255
330
1F
100
AcDbEntity
  8
0
  6
Continuous
 62
     7
370
    15
100
AcDbLine
 10
242.0448515553
 20
58.6422134892
 30
0.0
 11
242.2341968613
 21
58.5105777512
 31
0.0
  0
LINE
  5
256
330
1F
100
AcDbEntity
  8
0
  6
Continuous
 62
     7
370
    15
100
AcDbLine
 10
242.0448515553
 20
58.6422134892
 30
0.0
 11
241.8030067927
 21
59.269896855
 31
0.0
  0
LINE
  5
257
330
1F
100
AcDbEntity
  8
0
  6
Continuous
 62
     7
370
    15
100
AcDbLine
 10
242.0448515553
 20
58.6422134892
 30
0.0
 11
241.2245832549
 21
58.3665580385
 31
0.0
  0
LINE
  5
258
330
1F
100
AcDbEntity
  8
0
  6
Continuous
 62
     7
370
    15
100
AcDbLine
 10
241.1094307557
 20
58.06024456
 30
0.0
 11
241.2245832549
 21
58.3665580385
 31
0.0
  0
LINE
  5
259
330
1F
100
AcDbEntity
  8
0
  6
Continuous
 62
     7
370
    15
100
AcDbLine
 10
241.2245832549
 20
58.3665580385
 30
0.0
 11
240.9827384922
 21
58.9942414043
 31
0.0
  0
LWPOLYLINE
  5
25A
330
1F
100
AcDbEntity
  8
0
  6
Continuous
 62
     7
370
     0
100
AcDbPolyline
 90
        8
 70
   128
 43
0.0
 10
244.1445082212
 20
36.525414519
 10
244.2065471538
 20
35.3540429448
 10
244.3917930608
 20
34.2707434868
 10
244.697645496
 20
33.2907232946
 10
245.1198109614
 20
32.4277397035
 10
245.6523631793
 20
31.6939071116
 10
246.2878262841
 20
31.0995269197
 10
246.7338509071
 20
30.8023544381
  0
LWPOLYLINE
  5
25B
330
1F
100
AcDbEntity
  8
0
  6
Continuous
 62
     7
370
     0
100
AcDbPolyline
 90
       21
 70
   128
 43
0.0
 10
259.232835065
 20
52.4535759976
 10
258.5525853228
 20
52.7688132009
 10
257.7017196175
 20
52.9826216585
 10
256.7846182471
 20
53.0370356294
 10
255.8141553045
 20
52.9312912607
 10
254.8039539622
 20
52.6668729716
 10
253.7681952326
 20
52.2474926152
 10
252.7214188979
 20
51.6790373724
 10
251.6783194032
 20
50.9694871088
 10
250.653539579
 20
50.1288023547
 10
249.6614650877
 20
49.1687844813
 10
248.7160224803
 20
48.1029100351
 10
247.8304836988
 20
46.9461415569
 10
247.0172797665
 20
45.7147175405
 10
246.2878262841
 20
44.4259244798
 10
245.6523631793
 20
43.0978542042
 10
245.1198109614
 20
41.7491499093
 10
244.697645496
 20
40.398744447
 10
244.3917930608
 20
39.0655945498
 10
244.2065471538
 20
37.76841472
 10
244.1445082212
 20
36.525414519
  0
LWPOLYLINE
  5
25C
330
1F
100
AcDbEntity
  8
0
  6
Continuous
 62
     7
370
     0
100
AcDbPolyline
 90
       42
 70
   128
 43
0.0
 10
275.2572065934
 20
34.8935935458
 10
274.4476615133
 20
34.3544817766
 10
273.6570914837
 20
33.684463646
 10
272.9040267961
 20
32.8992438114
 10
272.2061186485
 20
32.0172271599
 10
271.5797254164
 20
31.0590874144
 10
271.0395292261
 20
30.0472825584
 10
270.5981918186
 20
29.0055284402
 10
270.2660577686
 20
27.9582428934
 10
270.0509120168
 20
26.9299734035
 10
269.9577973972
 20
25.9448217358
 10
269.9888964375
 20
25.0258790106
 10
270.1434802028
 20
24.1946844663
 10
270.4179253804
 20
23.4707205987
 10
270.8057992081
 20
22.8709565072
 10
271.298010252
 20
22.4094501537
 10
271.8830215025
 20
22.097018856
 10
272.5471207918
 20
21.940985739
 10
273.2747421952
 20
21.9450080866
 10
274.0488308839
 20
22.1089916184
 10
274.8512428751
 20
22.4290926995
 10
275.6631703117
 20
22.8978084318
 10
276.4655823029
 20
23.5041525157
 10
277.2396709916
 20
24.23391276
 10
277.967292395
 20
25.0699842029
 10
278.6313916843
 20
25.9927700385
 10
279.2164029348
 20
26.9806409489
 10
279.7086139787
 20
28.0104420773
 10
280.0964878064
 20
29.0580357579
 10
280.370932984
 20
30.0988672829
 10
280.5255167493
 20
31.1085404435
 10
280.5566157896
 20
32.0633893564
 10
280.46350117
 20
32.9410331726
 10
280.2483554182
 20
33.7209006649
 10
279.9162213682
 20
34.3847124
 10
279.4748839607
 20
34.9169091938
 10
278.9346877704
 20
35.3050168042
 10
278.3082945383
 20
35.539938318
 10
277.6103863907
 20
35.6161673739
 10
276.8573217031
 20
35.5319172275
 10
276.0667516735
 20
35.2891626308
 10
275.2572065934
 20
34.8935935458
  0
LWPOLYLINE
  5
25D
330
1F
100
AcDbEntity
  8
0
  6
Continuous
 62
     7
370
     0
100
AcDbPolyline
 90
       41
 70
   128
 43
0.0
 10
234.5985666752
 20
32.2392719319
 10
234.6609770021
 20
33.9718643581
 10
234.8477583149
 20
35.7640308458
 10
235.15756485
 20
37.6028587944
 10
235.5881644442
 20
39.4750994064
 10
236.1364546175
 20
41.3672631452
 10
236.7984849268
 20
43.2657169278
 10
237.5694854284
 20
45.1567823512
 10
238.4439010461
 20
47.0268342456
 10
239.4154315953
 20
48.8623988444
 10
240.4770771761
 20
50.6502508624
 10
241.6211886078
 20
52.377508785
 10
242.8395225413
 20
54.0317276793
 10
244.1233008528
 20
55.6009888601
 10
245.46327389
 20
57.0739857648
 10
246.8497871165
 20
58.4401054168
 10
248.2728506727
 20
59.6895048929
 10
249.7222113532
 20
60.813182241
 10
251.187426481
 20
61.8030413403
 10
252.6579391475
 20
62.6519502331
 10
254.1231542753
 20
63.3537925115
 10
255.5725149557
 20
63.9035113858
 10
256.995578512
 20
64.2971461189
 10
258.3820917385
 20
64.5318605634
 10
259.7220647757
 20
64.6059635965
 10
261.0058430872
 20
64.5189213042
 10
262.2241770207
 20
64.271360828
 10
263.3682884524
 20
63.865065847
 10
264.4299340332
 20
63.3029637257
 10
265.4014645824
 20
62.5891044229
 10
266.2758802001
 20
61.7286313112
 10
267.0468807017
 20
60.727744119
 10
267.708911011
 20
59.5936542615
 10
268.2572011843
 20
58.3345328821
 10
268.6878007785
 20
56.9594519793
 10
268.9976073136
 20
55.4783190424
 10
269.1843886264
 20
53.9018056681
 10
269.2467989533
 20
52.2412706716
 10
269.1843886264
 20
50.5086782454
 10
268.9976073136
 20
48.7165117577
 10
268.7086847813
 20
46.9832843948
  0
LWPOLYLINE
  5
25E
330
1F
100
AcDbEntity
  8
0
  6
Continuous
 62
     7
370
     0
100
AcDbPolyline
 90
       23
 70
   128
 43
0.0
 10
256.2097006234
 20
25.3320628353
 10
255.5725149557
 20
24.7910377106
 10
254.1231542753
 20
23.6673603624
 10
252.6579391475
 20
22.6775012632
 10
251.187426481
 20
21.8285923703
 10
249.7222113532
 20
21.1267500919
 10
248.2728506727
 20
20.5770312177
 10
246.8497871165
 20
20.1833964846
 10
245.46327389
 20
19.94868204
 10
244.1233008528
 20
19.8745790069
 10
242.8395225413
 20
19.9616212993
 10
241.6211886078
 20
20.2091817754
 10
240.4770771761
 20
20.6154767565
 10
239.4154315953
 20
21.1775788777
 10
238.4439010461
 20
21.8914381805
 10
237.5694854284
 20
22.7519112923
 10
236.7984849268
 20
23.7527984845
 10
236.1364546175
 20
24.886888342
 10
235.5881644442
 20
26.1460097213
 10
235.15756485
 20
27.5210906242
 10
234.8477583149
 20
29.0022235611
 10
234.6609770021
 20
30.5787369353
 10
234.5985666752
 20
32.2392719319
  0
LWPOLYLINE
  5
25F
330
1F
100
AcDbEntity
  8
0
  6
Continuous
 62
     7
370
     0
100
AcDbPolyline
 90
       27
 70
   128
 43
0.0
 10
233.891459894
 20
32.2392719319
 10
233.9534579692
 20
33.9832220122
 10
234.1390173228
 20
35.7865209896
 10
234.4468363892
 20
37.6365200175
 10
234.874756039
 20
39.520242682
 10
235.4197747231
 20
41.424476022
 10
236.0780695272
 20
43.3358632088
 10
236.8450229861
 20
45.2409972346
 10
237.7152554725
 20
47.1265149531
 10
238.6826629306
 20
48.9791908123
 10
239.7404596923
 20
50.786029622
 10
240.8812260732
 20
52.5343577064
 10
242.0969604169
 20
54.2119118
 10
243.3791352204
 20
55.8069250661
 10
244.7187569488
 20
57.3082096329
 10
246.106429118
 20
58.7052350676
 10
247.532418205
 20
59.9882022406
 10
248.9867219208
 20
61.1481120591
 10
250.4591393698
 20
62.1768285889
 10
251.9393426015
 20
63.0671361229
 10
253.4169490537
 20
63.8127897933
 10
254.8815943789
 20
64.4085593755
 10
256.3230051425
 20
64.8502659737
 10
257.7310708835
 20
65.1348113337
 10
259.0959150325
 20
65.2601995741
 10
260.4079641885
 20
65.2255511866
 10
260.5783672472
 20
65.2088449186
  0
ARC
  5
260
330
1F
100
AcDbEntity
  8
0
  6
Continuous
 62
     7
370
     0
100
AcDbCircle
 10
249.284625416
 20
31.6333291214
 30
0.0
 40
15.40508719477996
100
AcDbArc
 50
177.7457495802
 51
212.5890690703
  0
LWPOLYLINE
  5
261
330
1F
100
AcDbEntity
  8
0
  6
Continuous
 62
     7
370
     0
100
AcDbPolyline
 90
       27
 70
   128
 43
0.0
 10
242.0231878776
 20
36.525414519
 10
242.085433824
 20
37.841278238
 10
242.271388884
 20
39.2124618471
 10
242.5787145651
 20
40.621721917
 10
243.0035460684
 20
42.0513361844
 10
243.5405408913
 20
43.4833264205
 10
244.1829460123
 20
44.8996845173
 10
244.9226828142
 20
46.2825989499
 10
245.7504486777
 20
47.6146787669
 10
246.6558339667
 20
48.8791722917
 10
247.6274529358
 20
50.0601777846
 10
248.6530869128
 20
51.1428434163
 10
249.7198379553
 20
52.1135540382
 10
250.81429105
 20
52.9601024011
 10
251.9226828142
 20
53.6718426681
 10
253.0310745785
 20
54.2398242925
 10
254.1255276732
 20
54.6569045757
 10
255.1922787157
 20
54.9178384911
 10
256.2179126927
 20
55.0193446435
 10
257.1895316618
 20
54.960146534
 10
258.0949169508
 20
54.7409886132
 10
258.9226828142
 20
54.3646269191
 10
259.6624196162
 20
53.8357944185
 10
260.3048247372
 20
53.1611414867
 10
260.8418195601
 20
52.349152276
 10
261.2666510634
 20
51.4100380216
 10
261.3248111113
 20
51.2459039321
  0
LWPOLYLINE
  5
262
330
1F
100
AcDbEntity
  8
0
  6
Continuous
 62
     7
370
     0
100
AcDbPolyline
 90
       13
 70
   128
 43
0.0
 10
248.8258269533
 20
29.5946823726
 10
248.6530869128
 20
29.5627041123
 10
247.6274529358
 20
29.46119796
 10
246.6558339667
 20
29.5203960695
 10
245.7504486777
 20
29.7395539903
 10
244.9226828142
 20
30.1159156843
 10
244.1829460123
 20
30.644748185
 10
243.5405408913
 20
31.3194011167
 10
243.0035460684
 20
32.1313903275
 10
242.5787145651
 20
33.0705045818
 10
242.271388884
 20
34.1249339731
 10
242.085433824
 20
35.2814184398
 10
242.0231878776
 20
36.525414519
  0
LWPOLYLINE
  5
263
330
1F
100
AcDbEntity
  8
0
  6
Continuous
 62
     7
370
     0
100
AcDbPolyline
 90
       22
 70
   128
 43
0.0
 10
271.5381956906
 20
22.8395218952
 10
271.621363504
 20
22.8004869559
 10
272.258182333
 20
22.6155162683
 10
272.963517468
 20
22.5952176322
 10
273.7191010994
 20
22.7401167717
 10
274.505364008
 20
23.0464608751
 10
275.3019423976
 20
23.5063157912
 10
276.0882053062
 20
24.107771519
 10
276.8437889376
 20
24.8352506712
 10
277.5491240726
 20
25.6699119199
 10
278.1859429016
 20
26.5901379771
 10
278.7377521516
 20
27.5720954714
 10
279.1902602527
 20
28.5903522194
 10
279.5317474829
 20
29.6185359063
 10
279.7533695022
 20
30.6300171146
 10
279.8493864169
 20
31.5985990123
 10
279.8173114391
 20
32.4991958371
 10
279.6579752941
 20
33.3084826043
 10
279.3755047043
 20
34.0054992116
 10
278.9772155095
 20
34.5721932952
 10
278.4734231907
 20
34.9938877758
 10
278.4259686394
 20
35.0227653212
  0
LWPOLYLINE
  5
264
330
1F
100
AcDbEntity
  8
0
  6
Continuous
 62
     7
370
     0
100
AcDbPolyline
 90
       21
 70
   128
 43
0.0
 10
231.0078469143
 20
42.8525190779
 10
231.4774924261
 20
44.6119470084
 10
232.061660915
 20
46.3824028114
 10
232.7555742336
 20
48.1494052221
 10
233.5535565881
 20
49.8985012227
 10
234.4490809622
 20
51.6153842586
 10
235.4348225045
 20
53.2860112583
 10
236.5027184416
 20
54.8967174967
 10
237.6440340263
 20
56.4343283644
 10
238.8494339829
 20
57.8862671285
 10
240.1090588639
 20
59.2406578022
 10
241.4126056948
 20
60.4864222835
 10
242.7494122455
 20
61.6133709677
 10
244.1085442417
 20
62.6122860914
 10
245.4788848004
 20
63.4749971292
 10
246.8492253591
 20
64.1944476232
 10
248.2083573553
 20
64.7647529005
 10
249.545163906
 20
65.1812482067
 10
250.8487107368
 20
65.4405268605
 10
252.1083356179
 20
65.5404681181
 10
252.2648534814
 20
65.5417016935
  0
LWPOLYLINE
  5
265
330
1F
100
AcDbEntity
  8
0
  6
Continuous
 62
     7
370
     0
100
AcDbPolyline
 90
       22
 70
   128
 43
0.0
 10
222.8941493311
 20
44.927965086
 10
223.3729849219
 20
46.8766312222
 10
223.9748666382
 20
48.8424424159
 10
224.6953138859
 20
50.8107645593
 10
225.5289634325
 20
52.7669448522
 10
226.4696093322
 20
54.6964208821
 10
227.5102491255
 20
56.5848290315
 10
228.6431359672
 20
58.4181114047
 10
229.8598362964
 20
60.1826204794
 10
231.1512926188
 20
61.8652207033
 10
232.5078909332
 20
63.4533862787
 10
233.9195323013
 20
64.9352944088
 10
235.3757080272
 20
66.2999133102
 10
236.8655778873
 20
67.5370843366
 10
238.3780508288
 20
68.6375976037
 10
239.9018675341
 20
69.5932605494
 10
241.4256842394
 20
70.3969589226
 10
242.9381571808
 20
71.0427097434
 10
244.428027041
 20
71.5257058427
 10
245.8842027669
 20
71.8423516478
 10
247.2958441349
 20
71.990289949
 10
248.6340504267
 20
71.969884693
  0
LWPOLYLINE
  5
266
330
1F
100
AcDbEntity
  8
0
  6
Continuous
 62
     7
370
     0
100
AcDbPolyline
 90
       19
 70
   128
 43
0.0
 10
231.4006532899
 20
42.794872621
 10
231.8878975073
 20
44.5992255802
 10
232.4962947605
 20
46.4142575431
 10
233.220517678
 20
48.2240753581
 10
234.0542246718
 20
50.0128315307
 10
234.9901154675
 20
51.7648629909
 10
236.019995028
 20
53.4648282448
 10
237.1348453125
 20
55.0978417114
 10
238.3249042427
 20
56.6496040663
 10
239.5797511826
 20
58.1065274528
 10
240.8883981868
 20
59.4558544625
 10
242.2393862142
 20
60.6857698439
 10
243.6208854693
 20
61.7855039622
 10
245.0207989876
 20
62.7454271022
 10
246.4268685618
 20
63.5571337897
 10
247.82678208
 20
64.2135163939
 10
249.2082813351
 20
64.708827364
 10
250.5592693626
 20
65.0387295574
 10
251.3323602239
 20
65.1540077592
  0
LINE
  5
267
330
1F
100
AcDbEntity
  8
0
  6
Continuous
 62
     7
370
     0
100
AcDbLine
 10
231.2647239427
 20
32.3548531701
 30
0.0
 11
232.424213323
 21
33.0242121416
 31
0.0
  0
LINE
  5
268
330
1F
100
AcDbEntity
  8
0
  6
Continuous
 62
     7
370
     0
100
AcDbLine
 10
232.8095453932
 20
32.8206688697
 30
0.0
 11
232.424213323
 21
33.0242121416
 31
0.0
  0
ARC
  5
269
330
1F
100
AcDbEntity
  8
0
  6
Continuous
 62
     7
370
     0
100
AcDbCircle
 10
231.6990668621
 20
34.2001326949
 30
0.0
 40
1.381530505411535
100
AcDbArc
 50
301.6605905892
 51
324.2377952694
  0
LINE
  5
26A
330
1F
100
AcDbEntity
  8
0
  6
Continuous
 62
     7
370
     0
100
AcDbLine
 10
227.1285396273
 20
37.7142884171
 30
0.0
 11
232.7035426945
 21
34.4959076516
 31
0.0
  0
LINE
  5
26B
330
1F
100
AcDbEntity
  8
0
  6
Continuous
 62
     7
370
     0
100
AcDbLine
 10
227.0678794555
 20
37.6792586614
 30
0.0
 11
227.1285396273
 21
37.7142884171
 31
0.0
  0
LINE
  5
26C
330
1F
100
AcDbEntity
  8
0
  6
Continuous
 62
     7
370
     0
100
AcDbLine
 10
226.8469085864
 20
42.4596809818
 30
0.0
 11
226.8479496137
 21
42.6454327137
 31
0.0
  0
LWPOLYLINE
  5
26D
330
1F
100
AcDbEntity
  8
0
  6
Continuous
 62
     7
370
     0
100
AcDbPolyline
 90
        3
 70
   128
 43
0.0
 10
226.9816887986
 20
40.436477003
 10
226.9102614227
 20
41.0537104821
 10
226.8469085864
 20
42.4596809818
  0
LWPOLYLINE
  5
26E
330
1F
100
AcDbEntity
  8
0
  6
Continuous
 62
     7
370
     0
100
AcDbPolyline
 90
       18
 70
   128
 43
0.0
 10
195.9136889028
 20
66.275299573
 10
195.9778176392
 20
67.418551984
 10
196.1690594696
 20
68.6154444916
 10
196.4840016791
 20
69.8446185207
 10
196.9170241163
 20
71.0841394318
 10
197.4603994858
 20
72.3118879446
 10
198.1044312411
 20
73.5059548581
 10
198.8376266203
 20
74.6450320197
 10
199.6469017345
 20
75.7087925706
 10
200.5178150501
 20
76.6782536785
 10
201.4348250984
 20
77.5361152869
 10
202.3815678133
 20
78.2670688353
 10
203.3411485486
 20
78.8580704401
 10
204.2964435635
 20
79.2985736638
 10
205.2304055956
 20
79.5807177158
 10
206.1263680705
 20
79.6994677289
 10
206.9683425165
 20
79.6527046063
 10
207.6315036799
 20
79.4829345708
  0
ARC
  5
26F
330
1F
100
AcDbEntity
  8
0
  6
Continuous
 62
     7
370
     0
100
AcDbCircle
 10
201.3000088844
 20
65.8293925303
 30
0.0
 40
5.404745695699952
100
AcDbArc
 50
175.2675545006
 51
224.8656241104
  0
LWPOLYLINE
  5
270
330
1F
100
AcDbEntity
  8
0
  6
Continuous
 62
     7
370
     0
100
AcDbPolyline
 90
        3
 70
   128
 43
0.0
 10
232.0735789092
 20
30.6855229106
 10
231.8878975073
 20
31.0637237978
 10
231.4006532899
 20
32.3055165581
  0
LWPOLYLINE
  5
271
330
1F
100
AcDbEntity
  8
0
  6
Continuous
 62
     7
370
     0
100
AcDbPolyline
 90
        3
 70
   128
 43
0.0
 10
231.9878919556
 20
30.1678827632
 10
231.4774924261
 20
31.1427828807
 10
231.0078469143
 20
32.3599696452
  0
LINE
  5
272
330
1F
100
AcDbEntity
  8
0
  6
Continuous
 62
     7
370
     0
100
AcDbLine
 10
232.424213323
 20
33.0242121416
 30
0.0
 11
226.7143260649
 21
36.3204598931
 31
0.0
  0
ARC
  5
273
330
1F
100
AcDbEntity
  8
0
  6
Continuous
 62
     7
370
     0
100
AcDbCircle
 10
234.5626550805
 20
36.986532797
 30
0.0
 40
12.0971502632543
100
AcDbArc
 50
195.2980304775
 51
214.568481162
  0
LWPOLYLINE
  5
274
330
1F
100
AcDbEntity
  8
0
  6
Continuous
 62
     7
370
     0
100
AcDbPolyline
 90
       10
 70
   128
 43
0.0
 10
273.5185493692
 20
33.3805443559
 10
273.5824560846
 20
33.2533909452
 10
273.7714286773
 20
32.7245831451
 10
273.8321452429
 20
32.2217019018
 10
273.7580261996
 20
31.7992422008
 10
273.5571034957
 20
31.5029841061
 10
273.2511502239
 20
31.3650317789
 10
272.8733211684
 20
31.4003344946
 10
272.4645599701
 20
31.6050666561
 10
272.20038328
 20
31.8219415178
  0
OLE2FRAME
  5
275
330
1F
100
AcDbEntity
  8
0
100
AcDbOle2Frame
 70
     2
  3
Paintbrush-Bild
 10
13.8511154363
 20
38.264191557
 30
0.0
 11
51.6290888628
 21
31.9806341108
 31
0.0
 71
     2
 72
     0
 73
     1
 90
    12928
310
80552BED0767C5B32B40DDAF6807D121434000000000000000006FFBDDFB85D0
310
4940DDAF6807D121434000000000000000006FFBDDFB85D04940416F4BD60AFB
310
3F4000000000000000002BED0767C5B32B40416F4BD60AFB3F40000000000000
310
0000000000000100000000010000010000000100000000000100000000320000
310
D0CF11E0A1B11AE1000000000000000000000000000000003E000300FEFF0900
310
0600000000000000000000000100000001000000000000000010000002000000
310
01000000FEFFFFFF0000000000000000FFFFFFFFFFFFFFFFFFFFFFFFFFFFFFFF
310
FFFFFFFFFFFFFFFFFFFFFFFFFFFFFFFFFFFFFFFFFFFFFFFFFFFFFFFFFFFFFFFF
310
FFFFFFFFFFFFFFFFFFFFFFFFFFFFFFFFFFFFFFFFFFFFFFFFFFFFFFFFFFFFFFFF
310
FFFFFFFFFFFFFFFFFFFFFFFFFFFFFFFFFFFFFFFFFFFFFFFFFFFFFFFFFFFFFFFF
310
FFFFFFFFFFFFFFFFFFFFFFFFFFFFFFFFFFFFFFFFFFFFFFFFFFFFFFFFFFFFFFFF
310
FFFFFFFFFFFFFFFFFFFFFFFFFFFFFFFFFFFFFFFFFFFFFFFFFFFFFFFFFFFFFFFF
310
FFFFFFFFFFFFFFFFFFFFFFFFFFFFFFFFFFFFFFFFFFFFFFFFFFFFFFFFFFFFFFFF
310
FFFFFFFFFFFFFFFFFFFFFFFFFFFFFFFFFFFFFFFFFFFFFFFFFFFFFFFFFFFFFFFF
310
FFFFFFFFFFFFFFFFFFFFFFFFFFFFFFFFFFFFFFFFFFFFFFFFFFFFFFFFFFFFFFFF
310
FFFFFFFFFFFFFFFFFFFFFFFFFFFFFFFFFFFFFFFFFFFFFFFFFFFFFFFFFFFFFFFF
310
FFFFFFFFFFFFFFFFFFFFFFFFFFFFFFFFFFFFFFFFFFFFFFFFFFFFFFFFFFFFFFFF
310
FFFFFFFFFFFFFFFFFFFFFFFFFFFFFFFFFFFFFFFFFFFFFFFFFFFFFFFFFFFFFFFF
310
FFFFFFFFFFFFFFFFFFFFFFFFFFFFFFFFFFFFFFFFFFFFFFFFFFFFFFFFFFFFFFFF
310
FFFFFFFFFFFFFFFFFFFFFFFFFFFFFFFFFFFFFFFFFFFFFFFFFFFFFFFFFFFFFFFF
310
FDFFFFFFFEFFFFFFFEFFFFFFFEFFFFFF05000000060000000700000008000000
310
090000000A0000000B0000000C0000000D0000000E0000000F00000010000000
310
11000000120000001300000014000000150000001600000017000000FEFFFFFF
310
FFFFFFFFFFFFFFFFFFFFFFFFFFFFFFFFFFFFFFFFFFFFFFFFFFFFFFFFFFFFFFFF
310
FFFFFFFFFFFFFFFFFFFFFFFFFFFFFFFFFFFFFFFFFFFFFFFFFFFFFFFFFFFFFFFF
310
FFFFFFFFFFFFFFFFFFFFFFFFFFFFFFFFFFFFFFFFFFFFFFFFFFFFFFFFFFFFFFFF
310
FFFFFFFFFFFFFFFFFFFFFFFFFFFFFFFFFFFFFFFFFFFFFFFFFFFFFFFFFFFFFFFF
310
FFFFFFFFFFFFFFFFFFFFFFFFFFFFFFFFFFFFFFFFFFFFFFFFFFFFFFFFFFFFFFFF
310
FFFFFFFFFFFFFFFFFFFFFFFFFFFFFFFFFFFFFFFFFFFFFFFFFFFFFFFFFFFFFFFF
310
FFFFFFFFFFFFFFFFFFFFFFFFFFFFFFFFFFFFFFFFFFFFFFFFFFFFFFFFFFFFFFFF
310
FFFFFFFFFFFFFFFFFFFFFFFFFFFFFFFFFFFFFFFFFFFFFFFFFFFFFFFFFFFFFFFF
310
FFFFFFFFFFFFFFFFFFFFFFFFFFFFFFFFFFFFFFFFFFFFFFFFFFFFFFFFFFFFFFFF
310
FFFFFFFFFFFFFFFFFFFFFFFFFFFFFFFFFFFFFFFFFFFFFFFFFFFFFFFFFFFFFFFF
310
FFFFFFFFFFFFFFFFFFFFFFFFFFFFFFFFFFFFFFFFFFFFFFFFFFFFFFFFFFFFFFFF
310
FFFFFFFFFFFFFFFFFFFFFFFFFFFFFFFFFFFFFFFFFFFFFFFFFFFFFFFFFFFFFFFF
310
FFFFFFFFFFFFFFFFFFFFFFFFFFFFFFFFFFFFFFFFFFFFFFFFFFFFFFFFFFFFFFFF
310
52006F006F007400200045006E00740072007900000000000000000000000000
310
0000000000000000000000000000000000000000000000000000000000000000
310
16000500FFFFFFFFFFFFFFFF020000000A00030000000000C000000000000046
310
00000000000000000000000070E08108EA25D20103000000C000000000000000
310
01004F006C006500000000000000000000000000000000000000000000000000
310
0000000000000000000000000000000000000000000000000000000000000000
310
0A000200FFFFFFFFFFFFFFFFFFFFFFFF00000000000000000000000000000000
310
0000000000000000000000000000000000000000000000001400000000000000
310
010043006F006D0070004F0062006A0000000000000000000000000000000000
310
0000000000000000000000000000000000000000000000000000000000000000
310
120002010100000003000000FFFFFFFF00000000000000000000000000000000
310
0000000000000000000000000000000000000000010000004D00000000000000
310
01004F006C006500310030004E00610074006900760065000000000000000000
310
0000000000000000000000000000000000000000000000000000000000000000
310
1A000200FFFFFFFFFFFFFFFFFFFFFFFF00000000000000000000000000000000
310
0000000000000000000000000000000000000000040000002426000000000000
310
FEFFFFFF02000000FEFFFFFFFFFFFFFFFFFFFFFFFFFFFFFFFFFFFFFFFFFFFFFF
310
FFFFFFFFFFFFFFFFFFFFFFFFFFFFFFFFFFFFFFFFFFFFFFFFFFFFFFFFFFFFFFFF
310
FFFFFFFFFFFFFFFFFFFFFFFFFFFFFFFFFFFFFFFFFFFFFFFFFFFFFFFFFFFFFFFF
310
FFFFFFFFFFFFFFFFFFFFFFFFFFFFFFFFFFFFFFFFFFFFFFFFFFFFFFFFFFFFFFFF
310
FFFFFFFFFFFFFFFFFFFFFFFFFFFFFFFFFFFFFFFFFFFFFFFFFFFFFFFFFFFFFFFF
310
FFFFFFFFFFFFFFFFFFFFFFFFFFFFFFFFFFFFFFFFFFFFFFFFFFFFFFFFFFFFFFFF
310
FFFFFFFFFFFFFFFFFFFFFFFFFFFFFFFFFFFFFFFFFFFFFFFFFFFFFFFFFFFFFFFF
310
FFFFFFFFFFFFFFFFFFFFFFFFFFFFFFFFFFFFFFFFFFFFFFFFFFFFFFFFFFFFFFFF
310
FFFFFFFFFFFFFFFFFFFFFFFFFFFFFFFFFFFFFFFFFFFFFFFFFFFFFFFFFFFFFFFF
310
FFFFFFFFFFFFFFFFFFFFFFFFFFFFFFFFFFFFFFFFFFFFFFFFFFFFFFFFFFFFFFFF
310
FFFFFFFFFFFFFFFFFFFFFFFFFFFFFFFFFFFFFFFFFFFFFFFFFFFFFFFFFFFFFFFF
310
FFFFFFFFFFFFFFFFFFFFFFFFFFFFFFFFFFFFFFFFFFFFFFFFFFFFFFFFFFFFFFFF
310
FFFFFFFFFFFFFFFFFFFFFFFFFFFFFFFFFFFFFFFFFFFFFFFFFFFFFFFFFFFFFFFF
310
FFFFFFFFFFFFFFFFFFFFFFFFFFFFFFFFFFFFFFFFFFFFFFFFFFFFFFFFFFFFFFFF
310
FFFFFFFFFFFFFFFFFFFFFFFFFFFFFFFFFFFFFFFFFFFFFFFFFFFFFFFFFFFFFFFF
310
FFFFFFFFFFFFFFFFFFFFFFFFFFFFFFFFFFFFFFFFFFFFFFFFFFFFFFFFFFFFFFFF
310
0100000200000000000000000000000000000000000000000000000000000000
310
0000000000000000000000000000000000000000000000000000000000000000
310
0100FEFF030A0000FFFFFFFF0A00030000000000C00000000000004607000000
310
5042727573680007000000504272757368000700000050427275736800F439B2
310
7100000000000000000000000000000000000000000000000000000000000000
310
0000000000000000000000000000000000000000000000000000000000000000
310
0000000000000000000000000000000000000000000000000000000000000000
310
0000000000000000000000000000000000000000000000000000000000000000
310
0000000000000000000000000000000000000000000000000000000000000000
310
0000000000000000000000000000000000000000000000000000000000000000
310
0000000000000000000000000000000000000000000000000000000000000000
310
0000000000000000000000000000000000000000000000000000000000000000
310
0000000000000000000000000000000000000000000000000000000000000000
310
0000000000000000000000000000000000000000000000000000000000000000
310
0000000000000000000000000000000000000000000000000000000000000000
310
0000000000000000000000000000000000000000000000000000000000000000
310
20260000424D0E260000000000003E00000028000000B40200006E0000000100
310
01000000000000000000130B0000130B00000200000002000000000000FFFFFF
310
FFFFFFFFFFFFFFFFFFFFFFFFFFFFFFFFFFFFFFFFFFFFFFFFFFFFFFFFFFFFFFFF
310
FFFFFFFFFFFFFFFFFFFFFFFFFFFFFFFFFFFFFFFFFFFFFFFFFFFFFFFFFFFFFFFF
310
FFFFFFFFFFFFFFFFFFFFFFFFFFFFFFFFFFFFFFFFFFFFFFFFF000FFFFFFFFFFFF
310
FFFFFFFFFFFFFFFFFFFFFFFFFFFFFFFFFFFFFFFFFFFFFFFFFFFFFFFFFFFFFFFF
310
FFFFFFFFFFFFFFFFFFFFFFFFFFFFFFFFFFFFFFFFFFFFFFFFFFFFFFFFFFFFFFFF
310
FFFFFFFFFFFFFFFFFFFFFFFFFFFFFFFFF000FFFFFFFFFFFFFFFFFFFFFFFFFFFF
310
FFFFFFFFFFFFFFFFFFFFFFFFFFFFFFFFFFFFFFFFFFFFFFFFFFFFFFFFFFFFFFFF
310
FFFFFFFFFFFFFFFFFFFFFFFFFFFFFFFFFFFFFFFFFFFFFFFFFFFFFFFFFFFFFFFF
310
FFFFFFFFFFFFFFFFF000FFFFFFFFFFFFFFFFFFFFFFFFFFFFFFFFFFFFFFFFFFFF
310
FFFFFFFFFFFFFFFFFFFFFFFFFFFFFFFFFFFFFFFFFFFFFFFFFFFFFFFFFFFFFFFF
310
FFFFFFFFFFFFFFFFFFFFFFFFFFFFFFFFFFFFFFFFFFFFFFFFFFFFFFFFFFFFFFFF
310
F000FFFFFFFFFFFFFFFFFFFFFFFFFFFFFFFFFFFFFFFFFFFFFFFFFFFFFFFFFFFF
310
FFFFFFFFFFFFFFFFFFFFFFFFFFFFFFFFFFFFFFFFFFFFFFFFFFFFFFFFFFFFFFFF
310
FFFFFFFFFFFFFFFFFFFFFFFFFFFFFFFFFFFFFFFFFFFFFFFFF000FFFFFFFFFFFF
310
FFFFFFFFFFFFFFFFFFFFFFFFFFFFFFFFFFFFFFFFFFFFFFFFFFFFFFFFFFFFFFFF
310
FFFFFFFFFFFFFFFFFFFFFFFFFFFFFFFFFFFFFFFFFFFFFFFFFFFFFFFFFFFFFFFF
310
FFFFFFFFFFFFFFFFFFFFFFFFFFFFFFFFF000FFFFFFFFFFFFFFFFFFFFFFFFFFFF
310
FFFFFFFFFFFFFFFFFFFFFFFFFFFFFFFFFFFFFFFFFFFFFFFFFFFFFFFFFFFFFFFF
310
FFFFFFFFFFFFFFFFFFFFFFFFFFFFFFFFFFFFFFFFFFFFFFFFFFFFFFFFFFFFFFFF
310
FFFFFFFFFFFFFFFFF000FFFFFFFFFFFFFFFFFFFFFFFFFFFFFFFFFFFFFFFFFFFF
310
FFFFFFFFFFFFFFFFFFFFFFFFFFFFFFFFFFFFFFFFFFFFFFFFFFFFFFFFFFFFFFFF
310
FFFFFFFFFFFFFFFFFFFFFFFFFFFFFFFFFFFFFFFFFFFFFFFFFFFFFFFFFFFFFFFF
310
F000FFFFFFFFFFFFFFFFFFFFFFFFFFFFFFFFFFFFFFFFFFFFFFFFFFFFFFFFFFFF
310
FFFFFFFFFFFFFFFFFFFFFFFFFFFFFFFFFFFFFFFFFFFFFFFFFFFFFFFFFFFFFFFF
310
FFFFFFFFFFFFFFFFFFFFFFFFFFFFFFFFFFFFFFFFFFFFFFFFF000FFFFFFFFFFFF
310
FFFFFFFFFFFFFFFFFFFFFFFFFFFFFFFFFFFFFFFFFFFFFFFFFFFFFFFFFFFFFFFF
310
FFFFFFFFFFFFFFFFFFFFFFFFFFFFFFFFFFFFFFFFFFFFFFFFFFFFFFFFFFFFFFFF
310
FFFFFFFFFFFFFFFFFFFFFFFFFFFFFFFFF000FFFFFFFFFFFFFFFFFFFFFFFFFFFF
310
FFFFFFFFFFFFFFFFFFFFFFFFFFFFFFFFFFFFFFFFFFFFFFFFFFFFFFFFFFFFFFFF
310
FFFFFFFFFFFFFFFFFFFFFFFFFFFFFFFFFFFFFFFFFFFFFFFFFFFFFFFFFFFFFFFF
310
FFFFFFFFFFFFFFFFF000FFFFFFFFFFFFFFFFFFFFFFFFFFFFFFFFFFFFFFFFFFFF
310
FFFFFFFFFFFFFFFFFFFFFFFFFFFFFFFFFFFFFFFFFFFFFFFFFFFFFFFFFFFFFFFF
310
FFFFFFFFFFFFFFFFFFFFFFFFFFFFFFFFFFFFFFFFFFFFFFFFFFFFFFFFFFFFFFFF
310
F000FFFFFFFFFFFFFFFFFFFFFFFFFFFFFFFFFFFFFFFFFFFFFFFFFFFFFFFFFFFF
310
FFFFFFFFFFFFFFFFFFFFFFFFFFFFFFFFFFFFFFFFFFFFFFFFFFFFFFFFFFFFFFFF
310
FFFFFFFFFFFFFFFFFFFFFFFFFFFFFFFFFFFFFFFFFFFFFFFFF000FFFFFFFFFFFF
310
FFFFFFFFFFFFFFFFFFFFFFFFFFFFFFFFFFFFFFFFFFFFFFFFFFFFFFFFFFFFFFFF
310
FFFFFFFFFFFFFFFFFFFFFFFFFFFFFFFFFFFFFFFFFFFFFFFFFFFFFFFFFFFFFFFF
310
FFFFFFFFFFFFFFFFFFFFFFFFFFFFFFFFF000FFFFFFFFFFFFFFFFFFFFFFFFFFFF
310
FFFFFFFFFFFFFFFFFFFFFFFFFFFFFFFFFFFFFFFFFFFFFFFFFFFFFFFFFFFFFFFF
310
FFFFFFFFFFFFFFFFFFFFFFFFFFFFFFFFFFFFFFFFFFFFFFFFFFFFFFFFFFFFFFFF
310
FFFFFFFFFFFFFFFFF000FFFFFFFFFFFFFFFFFFFFFFFFFFFFFFFFFFFFFFFFFFFF
310
FFFFFFFFFFFFFFFFFFFFFFFFFFFFFFFFFFFFFFFFFFFFFFFFFFFFFFFFFFFFFFFF
310
FFFFFFFFFFFFFFFFFFFFFFFFFFFFFFFFFFFFFFFFFFFFFFFFFFFFFFFFFFFFFFFF
310
F000FFFFFFFFFFFFFFFFFFFFFFFFFFFFFFFFFFFFFFFFFFFFFFFFFFFFFFFFFFFF
310
FFFFFFFFFFFFFFFFFFFFFFFFFFFFFFFFFFFFFFFFFFFFFFFFFFFFFFFFFFFFFFFF
310
FFFFFFFFFFFFFFFFFFFFFFFFFFFFFFFFFFFFFFFFFFFFFFFFF000FFFFFFFFFFFF
310
FFFFFFFFFFFFFFFFFFFFFFFFFFFFFFFFFFFFFFFFFFFFFFFFFFFFFFFFFFFFFFFF
310
FFFFFFFFFFFFFFFFFFFFFFFFFFFFFFFFFFFFFFFFFFFFFFFFFFFFFFFFFFFFFFFF
310
FFFFFFFFFFFFFFFFFFFFFFFFFFFFFFFFF000FFFFFFFFFFFFFFFFFFFFFFFFFFFF
310
FFFFFFFFFFFFFFFFFFFFFFFFFFFFFFFFFFFFFFFFFFFFFFFFFFFFFFFFFFFFFFFF
310
FFFFFFFFFFFFFFFFFFFFFFFFFFFFFFFFFFFFFFFFFFFFFFFFFFFFFFFFFFFFFFFF
310
FFFFFFFFFFFFFFFFF000FFFFF80003FFFFFFFFFFFFFFFFFFFFFFFFFFFFFFFFFF
310
FFFFF00007FFFFFFFFFF00007FFFFFF800000000000000007FFFFFFFFFFFFFFF
310
FFFFFFFC001FFFFFFFFFFFFFFC001FFFFFFFFFFFFFFFFFFFFFFFFFFE0007FFFF
310
F000FFFF8000007FFFFFFFF8000FFFFFC0007FFFFF80007FFFFF0000007FFFFF
310
FFF8000007FFFFF800000000000000007FFFFFF0001FFFFFFFFFFFC00001FFFF
310
FFFFFFFFC00001FFFFFFFF000000000003FFFFE000007FFFF000FFFE0000000F
310
FFFFFFF0000FFFFF80007FFFFF80007FFFFC0000001FFFFFFFC0000001FFFFF8
310
00000000000000007FFFFFF0001FFFFFFFFFFE0000003FFFFFFFFFFE0000003F
310
FFFFFF000000000003FFFF0000000FFFF000FFF800000003FFFFFFF00007FFFF
310
80007FFFFF80007FFFF000000007FFFFFF000000003FFFF80000000000000000
310
7FFFFFF0001FFFFFFFFFF80000000FFFFFFFFFF80000000FFFFFFF0000000000
310
03FFFC00000003FFF000FFE000000000FFFFFFF00007FFFF80003FFFFF80007F
310
FFC000000001FFFFFC000000001FFFF800000000000000007FFFFFF0001FFFFF
310
FFFFE000000003FFFFFFFFE000000003FFFFFF000000000003FFF000000000FF
310
F000FF80000000007FFFFFF00007FFFF80003FFFFF80007FFF8000000000FFFF
310
F80000000007FFF800000000000000007FFFFFF0001FFFFFFFFFC000000001FF
310
FFFFFFC000000001FFFFFF000000000003FFC0000000007FF000FF0000000000
310
3FFFFFE00007FFFF00003FFFFF80007FFE00000000003FFFF00000000003FFF8
310
00000000000000007FFFFFF0001FFFFFFFFF8000000000FFFFFFFF8000000000
310
FFFFFF000000000003FF80000000003FF000FE00000000001FFFFFE00003FFFF
310
00003FFFFF80007FFC00000000001FFFE00000000001FFF8000001FFFE000000
310
7FFFFFF0001FFFFFFFFE00000000003FFFFFFE00000000003FFFFF0000000000
310
03FF00000000001FF000FC00000000000FFFFFE00003FFFF00001FFFFF80007F
310
F800000000001FFFC00000000000FFF8000001FFFE0000007FFFFFF0001FFFFF
310
FFFC00000000001FFFFFFC00000000001FFFFF000000000003FE00000000000F
310
F000F8000000000007FFFFE00003FFFF00001FFFFF80007FF800000000000FFF
310
800000000000FFF8000001FFFE0000007FFFFFF0001FFFFFFFF800000000000F
310
FFFFF800000000000FFFFF000000000003FC000000000007F000F80000000000
310
03FFFFC00003FFFE00001FFFFF80007FF0000000000007FF0000000000007FF8
310
000001FFFE0000007FFFFFF0001FFFFFFFF0000000000007FFFFF00000000000
310
07FFFF000000000003F8000000000003F000F0000000000003FFFFC00001FFFE
310
00001FFFFF80007FE0000000000007FE0000000000003FF8000001FFFE000000
310
7FFFFFF0001FFFFFFFF0000000000007FFFFF0000000000007FFFF0000000000
310
03F800001F800003F000E00001FFF00001FFFFC00001FFFE00000FFFFF80007F
310
E00001FFE00003FE00001FFF00003FF8000001FFFE0000007FFFFFF0001FFFFF
310
FFE000003E000003FFFFE000003E000003FFFF000000000003F00001FFF80001
310
F000E00007FFFC0001FFFFC00001FFFE00000FFFFF80007FC0000FFFFC0003FC
310
0000FFFFC0001FF8000001FFFE0000007FFFFFF0001FFFFFFFC00003FFE00001
310
FFFFC00003FFE00001FFFF0001FFFFFFFFF00007FFFE0001F000E0000FFFFF00
310
00FFFF800001FFFC00000FFFFF80007FC0001FFFFE0001FC0001FFFFE0001FF8
310
000001FFFE0000007FFFFFF0001FFFFFFF80000FFFF80000FFFF80000FFFF800
310
00FFFF0003FFFFFFFFE0000FFFFF8000F000C0003FFFFF8000FFFF800000FFFC
310
000007FFFF80007F80003FFFFF0001FC0003FFFFF0001FF8000001FFFE000000
310
7FFFFFF0001FFFFFFF80003FFFFE0000FFFF80003FFFFE0000FFFF0003FFFFFF
310
FFE0003FFFFF8000F000C0003FFFFF8000FFFF800000FFFC000007FFFF80007F
310
80007FFFFF8001F80007FFFFF8000FF8000001FFFE0000007FFFFFF0001FFFFF
310
FF00007FFFFF00007FFF00007FFFFF00007FFF0003FFFFFFFFE0003FFFFFC000
310
F000C0007FFFFFC000FFFF000000FFFC000007FFFF80007F8000FFFFFF8000F8
310
000FFFFFF8000FF8000001FFFE0000007FFFFFF0001FFFFFFF0000FFFFFF8000
310
7FFF0000FFFFFF80007FFF0003FFFFFFFFC0007FFFFFC00070008000FFFFFFC0
310
00FFFF000000FFF8000007FFFF80007F8000FFFFFF8000F8000FFFFFF8000FF8
310
000001FFFE0000007FFFFFF0001FFFFFFE0001FFFFFFC0003FFE0001FFFFFFC0
310
003FFF0003FFFFFFFFC0007FFFFFE00070008000FFFFFFC0007FFF0000007FF8
310
000003FFFF80007F0001FFFFFF8000F8000FFFFFF8000FF8000001FFFE000000
310
7FFFFFF0001FFFFFFE0001FFFFFFC0003FFE0001FFFFFFC0003FFF0003FFFFFF
310
FFC000FFFFFFE00070008000FFFFFFC0007FFF0000007FF8000003FFFF80007F
310
0001FFFFFF8000F8001FFFFFF8000FF8000001FFFE0000007FFFFFF0001FFFFF
310
FE0003FFFFFFE0003FFE0003FFFFFFE0003FFF0003FFFFFFFFC000FFFFFFE000
310
70008000FFFFFFC0007FFE0000007FF8000003FFFF80007F0001FFFFFF8000F0
310
001FFFFFF8000FF8000001FFFE0000007FFFFFF0001FFFFFFC0003FFFFFFE000
310
1FFC0003FFFFFFE0001FFF0003FFFFFFFFC000FFFFFFC00070008000FFFFFF80
310
007FFE0000007FF0000003FFFF80007F0001FFFFFF0000F0001FFFFFF8000FF8
310
000001FFFE0000007FFFFFF0001FFFFFFC0007FFFFFFF0001FFC0007FFFFFFF0
310
001FFF0003FFFFFFFFC000FFFFFFC00070008001FFFFFF0000FFFE0000003FF0
310
000001FFFF80007F0001FFFFFF0000F8001FFFFFF0000FF8000001FFFE000000
310
7FFFFFF0001FFFFFFC0007FFFFFFF0001FFC0007FFFFFFF0001FFF0003FFFFFF
310
FFC001FFFFFF80007000FFFFFFFFFE0000FFFE0008003FF0008001FFFF80007F
310
FFFFFFFFFC0000FFFFFFFFFFE0000FF8000001FFFE0000007FFFFFF0001FFFFF
310
F8000FFFFFFFF8000FF8000FFFFFFFF8000FFF0003FFFFFFFFFFFFFFFFFF0000
310
7000FFFFFFFFFC0000FFFC0008003FF0008001FFFF80007FFFFFFFFFF80001FF
310
FFFFFFFF80000FF8000001FFFE0000007FFFFFF0001FFFFFF8000FFFFFFFF800
310
0FF8000FFFFFFFF8000FFF0003FFFFFFFFFFFFFFFFFE0000F000FFFFFFFFE000
310
00FFFC000C003FE000C001FFFF80007FFFFFFFFFC00001FFFFFFFFFE00001FF8
310
000001FFFE0000007FFFFFF0001FFFFFF8000FFFFFFFF8000FF8000FFFFFFFF8
310
000FFF0003FFFFFFFFFFFFFFFFF00000F000FFFFFFFE000001FFFC000C001FE0
310
00C000FFFF80007FFFFFFFFE000001FFFFFFFFE000001FF80FFFFFFFFFFFFFC0
310
7FFFFFF0001FFFFFF8000FFFFFFFF8000FF8000FFFFFFFF8000FFF0003FFFFFF
310
FFFFFFFFFF800000F000FFFFFFC0000001FFFC001C001FE001C000FFFF80007F
310
FFFFFF80000003FFFFFFF80000001FF80FFFFFFFFFFFFFC07FFFFFF0001FFFFF
310
F8001FFFFFFFFC000FF8001FFFFFFFFC000FFF0003FFFFFFFFFFFFFFF0000001
310
F000FFFFF800000001FFF8001C001FE001C000FFFF80007FFFFFF800000003FF
310
FFFF800000003FF80FFFFFFFFFFFFFC07FFFFFF0001FFFFFF8001FFFFFFFFC00
310
0FF8001FFFFFFFFC000FFF0003FFFFFFFFFFFFFE00000001F000FFFFC0000000
310
03FFF8001E001FC001E000FFFF80007FFFFF8000000007FFFFFC000000003FF8
310
0FFFFFFFFFFFFFC07FFFFFF0001FFFFFF8001FFFFFFFFC000FF8001FFFFFFFFC
310
000FFF0003FFFFFFFFFFFFE000000003F000FFFE0000000007FFF8001E000FC0
310
01E0007FFF80007FFFFE0000000007FFFFE0000000007FF80FFFFFFFFFFFFFC0
310
7FFFFFF0001FFFFFF0001FFFFFFFFC0007F0001FFFFFFFFC0007FF0003FFFFFF
310
FFFFFF0000000003F000FFF80000000007FFF8001E000FC003E0007FFF80007F
310
FFF0000000000FFFFF8000000000FFF80FFFFFFFFFFFFFC07FFFFFF0001FFFFF
310
F0001FFFFFFFFC0007F0001FFFFFFFFC0007FF0003FFFFFFFFFFFC0000000007
310
F000FFE0000000000FFFF0003E000FC003E0007FFF80007FFFC0000000001FFF
310
FE0000000001FFF80FFFFFFFFFFFFFC07FFFFFF0001FFFFFF0001FFFFFFFFC00
310
07F0001FFFFFFFFC0007FF0003FFFFFFFFFFF0000000000FF000FFC000000000
310
1FFFF0003F000F8003F0003FFF80007FFF80000000003FFFF80000000003FFF8
310
0FFFFFFFFFFFFFC07FFFFFF0001FFFFFF0001FFFFFFFFC0007F0001FFFFFFFFC
310
0007FF0003FFFFFFFFFFE0000000001FF000FF00000000007FFFF0003F000780
310
03F0003FFF80007FFF00000000007FFFF00000000007FFF80FFFFFFFFFFFFFC0
310
7FFFFFF0001FFFFFF0001FFFFFFFFC0007F0001FFFFFFFFC0007FF0003FFFFFF
310
FFFF80000000007FF000FE0000000000FFFFE0003F00078007F0003FFF80007F
310
FE0000000001FFFFE0000000001FFFF80FFFFFFFFFFFFFC07FFFFFF0001FFFFF
310
F0001FFFFFFFFC0007F0001FFFFFFFFC0007FF0003FFFFFFFFFF0000000000FF
310
F000FC0000000003FFFFE0007F00078007F0003FFF80007FFC0000000007FFFF
310
C0000000007FFFF80FFFFFFFFFFFFFC07FFFFFF0001FFFFFF8001FFFFFFFFC00
310
0FF8001FFFFFFFFC000FFF0003FFFFFFFFFE0000000003FFF000FC000000000F
310
FFFFE0007F80070007F8001FFF80007FF8000000001FFFFF8000000001FFFFF8
310
0FFFFFFFFFFFFFC07FFFFFF0001FFFFFF8001FFFFFFFFC000FF8001FFFFFFFFC
310
000FFF0003FFFFFFFFFC000000000FFFF000F8000000007FFFFFE0007F800700
310
07F8001FFF80007FF000000000FFFFFF800000000FFFFFF80FFFFFFFFFFFFFC0
310
7FFFFFF0001FFFFFF8000FFFFFFFF8000FF8000FFFFFFFF8000FFF0003FFFFFF
310
FFFC000000007FFFF000F800000007FFFFFFC0007F8003000FF8001FFF80007F
310
F000000007FFFFFF000000007FFFFFF80FFFFFFFFFFFFFC07FFFFFF0001FFFFF
310
F8000FFFFFFFF8000FF8000FFFFFFFF8000FFF0003FFFFFFFFF80000000FFFFF
310
F000F0000000FFFFFFFFC000FF8003000FF8001FFF80007FE0000000FFFFFFFF
310
0000000FFFFFFFF8000001FFFE0000007FFFFFF0001FFFFFF8000FFFFFFFF800
310
0FF8000FFFFFFFF8000FFF0003FFFFFFFFF8000000FFFFFFF000F000000FFFFF
310
FFFFC000FFC002000FF8000FFF80007FE000001FFFFFFFFE000001FFFFFFFFF8
310
000001FFFE0000007FFFFFF0001FFFFFF8000FFFFFFFF8000FF8000FFFFFFFF8
310
000FFF0003FFFFFFFFF000001FFFFFFFF000E00000FFFFFFFFFFC000FFC00200
310
0FFC000FFF80007FE00001FFFFFFFFFE00001FFFFFFFFFF8000001FFFE000000
310
7FFFFFF0001FFFFFFC000FFFFFFFF8001FFC000FFFFFFFF8001FFF0003FFFFFF
310
FFF00001FFFFFFFFF000E00007FFFFFFFFFF8000FFC000001FFC000FFF80007F
310
C0000FFFFFFFFFFE0000FFFFFFFFFFF8000001FFFE0000007FFFFFF0001FFFFF
310
FC0007FFFFFFF0001FFC0007FFFFFFF0001FFF0003FFFFFFFFF00007FFFFFFFF
310
F000E0001FFFFFFFFFFF8000FFC000001FFC000FFF80007FC0003FFFFFFFFFFE
310
0001FFFFFFFFFFF8000001FFFE0000007FFFFFF0001FFFFFFC0007FFFFFFF000
310
1FFC0007FFFFFFF0001FFF0003FFFFFFFFF0001FFFFFFFFFF000E0003FFFFF00
310
03FF8001FFE000001FFC0007FF80007FC0007FFFFF0007FC0003FFFFF0003FF8
310
000001FFFE0000007FFFFFF0001FFFFFFC0003FFFFFFE0001FFC0003FFFFFFE0
310
001FFF0003FFFFFFFFF0003FFFFFFFFFF000E0003FFFFF0001FF8001FFE00000
310
1FFE0007FF80007FC0007FFFFE0003FC0007FFFFE0003FF8000001FFFE000000
310
7FFFFFF0001FFFFFFE0003FFFFFFE0003FFE0003FFFFFFE0003FFF0003FFFFFF
310
FFF0003FFFFF8001F000E0003FFFFF0001FF0001FFE000001FFE0007FF80007F
310
C0007FFFFE0003FC0007FFFFE0003FF8000001FFFE0000007FFFFFF0001FFFFF
310
FE0001FFFFFFC0003FFE0001FFFFFFC0003FFF0003FFFFFFFFF0003FFFFF0001
310
F000E0003FFFFF0003FF0001FFE000003FFE0007FF80007FC0007FFFFE0003FC
310
0007FFFFE0003FF8000001FFFE0000007FFFFFF0001FFFFFFF0001FFFFFFC000
310
7FFF0001FFFFFFC0007FFF0003FFFFFFFFF0003FFFFF0001F000E0003FFFFE00
310
03FF0003FFF000003FFE0003FF80007FC0007FFFFC0003FE0007FFFFE0003FF8
310
000001FFFE0000007FFFFFF0001FFFFFFF0000FFFFFF80007FFF0000FFFFFF80
310
007FFF0003FFFFFFFFF0003FFFFF0001F000E0003FFFFE0003FF0003FFF00000
310
3FFF0003FF80007FC0007FFFFC0007FE0007FFFFC0003FF8000001FFFE000000
310
7FFFFFF0001FFFFFFF80007FFFFF0000FFFF80007FFFFF0000FFFF0003FFFFFF
310
FFF0003FFFFF0003F000E0003FFFFC0003FE0003FFF000003FFF0003FF80007F
310
E0003FFFF80007FE0003FFFFC0007FF8000001FFFE0000007FFFFFF0001FFFFF
310
FF80003FFFFE0000FFFF80003FFFFE0000FFFF0003FFFFFFFFF0001FFFFE0003
310
F000F0001FFFF80003FE0003FFF000007FFF0001FF80007FE0003FFFF00007FE
310
0001FFFF80007FF8000001FFFE0000007FFFFFF0001FFFFFFFC0000FFFF80001
310
FFFFC0000FFFF80001FFFF0003FFFFFFFFF0001FFFFC0003F000F0000FFFF000
310
07FE0007FFF800007FFF0001FF80007FE0001FFFE00007FF0000FFFE00007FF8
310
000001FFFE0000007FFFFFF0001FFFFFFFC00003FFE00001FFFFC00003FFE000
310
01FFFF0003FFFFFFFFF8000FFFF80003F000F00003FFC00007FC0007FFF80000
310
7FFF8001FF80007FF00007FF80000FFF00007FF80000FFF8000001FFFE000000
310
7F80000000000001FFE000003E000003FFFFE000003E000003FFFF0003FFFFFF
310
FFF80003FFE00007F000F800000000000FFC0007FFF800007FFF8001FF80007F
310
F000000000000FFF000000000000FFF8000001FFFE0000007F80000000000001
310
FFF0000000000007FFFFF0000000000007FFFF0003FFFFFFFFFC00007E000007
310
F000F800000000000FFC0007FFF80000FFFF8000FF80007FF800000000001FFF
310
800000000001FFF8000001FFFE0000007F80000000000001FFF800000000000F
310
FFFFF800000000000FFFFF0003FFFFFFFFFC00000000000FF000FC0000000000
310
1FFC0007FFFC0000FFFF8000FF80007FF800000000003FFFC00000000001FFF8
310
000001FFFE0000007F80000000000001FFF800000000000FFFFFF80000000000
310
0FFFFF0003FFFFFFFFFE00000000001FF000FE00000000003FF8000FFFFC0000
310
FFFF8000FF80007FFC00000000003FFFC00000000003FFF8000001FFFE000000
310
7F80000000000001FFFC00000000001FFFFFFC00000000001FFFFF0003FFFFFF
310
FFFF00000000001FF000FF00000000003FF8000FFFFC0000FFFFC000FF80007F
310
FE00000000007FFFE00000000007FFF8000001FFFE0000007F80000000000001
310
FFFE00000000003FFFFFFE00000000003FFFFF0003FFFFFFFFFF80000000003F
310
F000FF80000000007FF8000FFFFC0001FFFFC0007F80007FFF0000000000FFFF
310
F0000000000FFFF800000000000000007F80000000000001FFFF8000000000FF
310
FFFFFF8000000000FFFFFF0003FFFFFFFFFFC0000000007FF000FFC000000000
310
FFF8000FFFFE0001FFFFC0007F80007FFF8000000001FFFFF8000000001FFFF8
310
00000000000000007F80000000000001FFFFC000000001FFFFFFFFC000000001
310
FFFFFF0003FFFFFFFFFFE000000000FFF000FFE000000003FFF0001FFFFE0001
310
FFFFC0007F80007FFFC000000007FFFFFE000000003FFFF80000000000000000
310
7F80000000000001FFFFE000000003FFFFFFFFE000000003FFFFFF0003FFFFFF
310
FFFFF000000003FFF000FFF80000000FFFF0001FFFFE0001FFFFE0007F80007F
310
FFF00000000FFFFFFF00000000FFFFF800000000000000007F80000000000001
310
FFFFF80000000FFFFFFFFFF80000000FFFFFFF0003FFFFFFFFFFFC0000000FFF
310
F000FFFE0000003FFFF0001FFFFE0003FFFFE0003F80007FFFFC0000003FFFFF
310
FFC0000003FFFFF800000000000000007F80000000000001FFFFFE0000003FFF
310
FFFFFFFE0000003FFFFFFF0003FFFFFFFFFFFF0000003FFFF000FFFF800000FF
310
FFF0001FFFFF0003FFFFE0003F80007FFFFF000001FFFFFFFFF800001FFFFFF8
310
00000000000000007F80000000000001FFFFFFC00001FFFFFFFFFFFFC00001FF
310
FFFFFF0003FFFFFFFFFFFFC00000FFFFF000FFFFF8000FFFFFFFFFFFFFFFFFFF
310
FFFFFFFFFFFFFFFFFFFFF0001FFFFFFFFFFF0000FFFFFFF80000000000000000
310
7FFFFFFFFFFFFFFFFFFFFFFC001FFFFFFFFFFFFFFC001FFFFFFFFFFFFFFFFFFF
310
FFFFFFFC001FFFFFF000FFFFFFFFFFFFFFFFFFFFFFFFFFFFFFFFFFFFFFFFFFFF
310
FFFFFFFFFFFFFFFFFFFFFFFFFFFFFFFFFFFFFFFFFFFFFFFFFFFFFFFFFFFFFFFF
310
FFFFFFFFFFFFFFFFFFFFFFFFFFFFFFFFFFFFFFFFFFFFFFFFFFFFFFFFFFFFFFFF
310
F000FFFFFFFFFFFFFFFFFFFFFFFFFFFFFFFFFFFFFFFFFFFFFFFFFFFFFFFFFFFF
310
FFFFFFFFFFFFFFFFFFFFFFFFFFFFFFFFFFFFFFFFFFFFFFFFFFFFFFFFFFFFFFFF
310
FFFFFFFFFFFFFFFFFFFFFFFFFFFFFFFFFFFFFFFFFFFFFFFFF000FFFFFFFFFFFF
310
FFFFFFFFFFFFFFFFFFFFFFFFFFFFFFFFFFFFFFFFFFFFFFFFFFFFFFFFFFFFFFFF
310
FFFFFFFFFFFFFFFFFFFFFFFFFFFFFFFFFFFFFFFFFFFFFFFFFFFFFFFFFFFFFFFF
310
FFFFFFFFFFFFFFFFFFFFFFFFFFFFFFFFF000FFFFFFFFFFFFFFFFFFFFFFFFFFFF
310
FFFFFFFFFFFFFFFFFFFFFFFFFFFFFFFFFFFFFFFFFFFFFFFFFFFFFFFFFFFFFFFF
310
FFFFFFFFFFFFFFFFFFFFFFFFFFFFFFFFFFFFFFFFFFFFFFFFFFFFFFFFFFFFFFFF
310
FFFFFFFFFFFFFFFFF000FFFFFFFFFFFFFFFFFFFFFFFFFFFFFFFFFFFFFFFFFFFF
310
FFFFFFFFFFFFFFFFFFFFFFFFFFFFFFFFFFFFFFFFFFFFFFFFFFFFFFFFFFFFFFFF
310
FFFFFFFFFFFFFFFFFFFFFFFFFFFFFFFFFFFFFFFFFFFFFFFFFFFFFFFFFFFFFFFF
310
F000FFFFFFFFFFFFFFFFFFFFFFFFFFFFFFFFFFFFFFFFFFFFFFFFFFFFFFFFFFFF
310
FFFFFFFFFFFFFFFFFFFFFFFFFFFFFFFFFFFFFFFFFFFFFFFFFFFFFFFFFFFFFFFF
310
FFFFFFFFFFFFFFFFFFFFFFFFFFFFFFFFFFFFFFFFFFFFFFFFF000FFFFFFFFFFFF
310
FFFFFFFFFFFFFFFFFFFFFFFFFFFFFFFFFFFFFFFFFFFFFFFFFFFFFFFFFFFFFFFF
310
FFFFFFFFFFFFFFFFFFFFFFFFFFFFFFFFFFFFFFFFFFFFFFFFFFFFFFFFFFFFFFFF
310
FFFFFFFFFFFFFFFFFFFFFFFFFFFFFFFFF000FFFFFFFFFFFFFFFFFFFFFFFFFFFF
310
FFFFFFFFFFFFFFFFFFFFFFFFFFFFFFFFFFFFFFFFFFFFFFFFFFFFFFFFFFFFFFFF
310
FFFFFFFFFFFFFFFFFFFFFFFFFFFFFFFFFFFFFFFFFFFFFFFFFFFFFFFFFFFFFFFF
310
FFFFFFFFFFFFFFFFF000FFFFFFFFFFFFFFFFFFFFFFFFFFFFFFFFFFFFFFFFFFFF
310
FFFFFFFFFFFFFFFFFFFFFFFFFFFFFFFFFFFFFFFFFFFFFFFFFFFFFFFFFFFFFFFF
310
FFFFFFFFFFFFFFFFFFFFFFFFFFFFFFFFFFFFFFFFFFFFFFFFFFFFFFFFFFFFFFFF
310
F000FFFFFFFFFFFFFFFFFFFFFFFFFFFFFFFFFFFFFFFFFFFFFFFFFFFFFFFFFFFF
310
FFFFFFFFFFFFFFFFFFFFFFFFFFFFFFFFFFFFFFFFFFFFFFFFFFFFFFFFFFFFFFFF
310
FFFFFFFFFFFFFFFFFFFFFFFFFFFFFFFFFFFFFFFFFFFFFFFFF000FFFFFFFFFFFF
310
FFFFFFFFFFFFFFFFFFFFFFFFFFFFFFFFFFFFFFFFFFFFFFFFFFFFFFFFFFFFFFFF
310
FFFFFFFFFFFFFFFFFFFFFFFFFFFFFFFFFFFFFFFFFFFFFFFFFFFFFFFFFFFFFFFF
310
FFFFFFFFFFFFFFFFFFFFFFFFFFFFFFFFF000FFFFFFFFFFFFFFFFFFFFFFFFFFFF
310
FFFFFFFFFFFFFFFFFFFFFFFFFFFFFFFFFFFFFFFFFFFFFFFFFFFFFFFFFFFFFFFF
310
FFFFFFFFFFFFFFFFFFFFFFFFFFFFFFFFFFFFFFFFFFFFFFFFFFFFFFFFFFFFFFFF
310
FFFFFFFFFFFFFFFFF000FFFFFFFFFFFFFFFFFFFFFFFFFFFFFFFFFFFFFFFFFFFF
310
FFFFFFFFFFFFFFFFFFFFFFFFFFFFFFFFFFFFFFFFFFFFFFFFFFFFFFFFFFFFFFFF
310
FFFFFFFFFFFFFFFFFFFFFFFFFFFFFFFFFFFFFFFFFFFFFFFFFFFFFFFFFFFFFFFF
310
F000FFFFFFFFFFFFFFFFFFFFFFFFFFFFFFFFFFFFFFFFFFFFFFFFFFFFFFFFFFFF
310
FFFFFFFFFFFFFFFFFFFFFFFFFFFFFFFFFFFFFFFFFFFFFFFFFFFFFFFFFFFFFFFF
310
FFFFFFFFFFFFFFFFFFFFFFFFFFFFFFFFFFFFFFFFFFFFFFFFF000FFFFFFFFFFFF
310
FFFFFFFFFFFFFFFFFFFFFFFFFFFFFFFFFFFFFFFFFFFFFFFFFFFFFFFFFFFFFFFF
310
FFFFFFFFFFFFFFFFFFFFFFFFFFFFFFFFFFFFFFFFFFFFFFFFFFFFFFFFFFFFFFFF
310
FFFFFFFFFFFFFFFFFFFFFFFFFFFFFFFFF000FFFFFFFFFFFFFFFFFFFFFFFFFFFF
310
FFFFFFFFFFFFFFFFFFFFFFFFFFFFFFFFFFFFFFFFFFFFFFFFFFFFFFFFFFFFFFFF
310
FFFFFFFFFFFFFFFFFFFFFFFFFFFFFFFFFFFFFFFFFFFFFFFFFFFFFFFFFFFFFFFF
310
FFFFFFFFFFFFFFFFF000FFFFFFFFFFFFFFFFFFFFFFFFFFFFFFFFFFFFFFFFFFFF
310
FFFFFFFFFFFFFFFFFFFFFFFFFFFFFFFFFFFFFFFFFFFFFFFFFFFFFFFFFFFFFFFF
310
FFFFFFFFFFFFFFFFFFFFFFFFFFFFFFFFFFFFFFFFFFFFFFFFFFFFFFFFFFFFFFFF
310
F000FFFFFFFFFFFFFFFFFFFFFFFFFFFFFFFFFFFFFFFFFFFFFFFFFFFFFFFFFFFF
310
FFFFFFFFFFFFFFFFFFFFFFFFFFFFFFFFFFFFFFFFFFFFFFFFFFFFFFFFFFFFFFFF
310
FFFFFFFFFFFFFFFFFFFFFFFFFFFFFFFFFFFFFFFFFFFFFFFFF000FFFFFFFFFFFF
310
FFFFFFFFFFFFFFFFFFFFFFFFFFFFFFFFFFFFFFFFFFFFFFFFFFFFFFFFFFFFFFFF
310
FFFFFFFFFFFFFFFFFFFFFFFFFFFFFFFFFFFFFFFFFFFFFFFFFFFFFFFFFFFFFFFF
310
FFFFFFFFFFFFFFFFFFFFFFFFFFFFFFFFF000FFFFFFFFFFFFFFFFFFFFFFFFFFFF
310
FFFFFFFFFFFFFFFFFFFFFFFFFFFFFFFFFFFFFFFFFFFFFFFFFFFFFFFFFFFFFFFF
310
FFFFFFFFFFFFFFFFFFFFFFFFFFFFFFFFFFFFFFFFFFFFFFFFFFFFFFFFFFFFFFFF
310
FFFFFFFFFFFFFFFFF000FFFFFFFFFFFFFFFFFFFFFFFFFFFFFFFFFFFFFFFFFFFF
310
FFFFFFFFFFFFFFFFFFFFFFFFFFFFFFFFFFFFFFFFFFFFFFFFFFFFFFFFFFFFFFFF
310
FFFFFFFFFFFFFFFFFFFFFFFFFFFFFFFFFFFFFFFFFFFFFFFFFFFFFFFFFFFFFFFF
310
F000FFFFFFFFFFFFFFFFFFFFFFFFFFFFFFFFFFFFFFFFFFFFFFFFFFFFFFFFFFFF
310
FFFFFFFFFFFFFFFFFFFFFFFFFFFFFFFFFFFFFFFFFFFFFFFFFFFFFFFFFFFFFFFF
310
FFFFFFFFFFFFFFFFFFFFFFFFFFFFFFFFFFFFFFFFFFFFFFFFF000FFFFFFFFFFFF
310
FFFFFFFFFFFFFFFFFFFFFFFFFFFFFFFFFFFFFFFFFFFFFFFFFFFFFFFFFFFFFFFF
310
FFFFFFFFFFFFFFFFFFFFFFFFFFFFFFFFFFFFFFFFFFFFFFFFFFFFFFFFFFFFFFFF
310
FFFFFFFFFFFFFFFFFFFFFFFFFFFFFFFFF0000000000000000000000000000000
310
0000000000000000000000000000000000000000000000000000000000000000
310
0000000000000000000000000000000000000000000000000000000000000000
310
0000000000000000000000000000000000000000000000000000000000000000
310
0000000000000000000000000000000000000000000000000000000000000000
310
0000000000000000000000000000000000000000000000000000000000000000
310
0000000000000000000000000000000000000000000000000000000000000000
310
0000000000000000000000000000000000000000000000000000000000000000
310
0000000000000000000000000000000000000000000000000000000000000000
310
0000000000000000000000000000000000000000000000000000000000000000
310
0000000000000000000000000000000000000000000000000000000000000000
310
0000000000000000000000000000000000000000000000000000000000000000
310
0000000000000000000000000000000000000000000000000000000000000000
310
0000000000000000000000000000000000000000000000000000000000000000
310
0000000000000000000000000000000000000000000000000000000000000000
310
0000000000000000000000000000000000000000000000000000000000000000
  1
OLE
  0
ENDSEC
  0
SECTION
  2
OBJECTS
  0
DICTIONARY
  5
C
330
0
100
AcDbDictionary
281
     1
  3
ACAD_GROUP
350
D
  3
ACAD_LAYOUT
350
1A
  3
ACAD_MLINESTYLE
350
17
  3
ACAD_PLOTSETTINGS
350
19
  3
ACAD_PLOTSTYLENAME
350
E
  3
ACAD_SCALELIST
350
47
  0
DICTIONARY
  5
D
102
{ACAD_REACTORS
330
C
102
}
330
C
100
AcDbDictionary
281
     1
  0
DICTIONARY
  5
1A
102
{ACAD_REACTORS
330
C
102
}
330
C
100
AcDbDictionary
281
     1
  3
Layout1
350
1E
  3
Layout2
350
26
  3
Model
350
22
  0
DICTIONARY
  5
17
102
{ACAD_REACTORS
330
C
102
}
330
C
100
AcDbDictionary
281
     1
  3
Standard
350
18
  0
DICTIONARY
  5
19
102
{ACAD_REACTORS
330
C
102
}
330
C
100
AcDbDictionary
281
     1
  0
ACDBDICTIONARYWDFLT
  5
E
102
{ACAD_REACTORS
330
C
102
}
330
C
100
AcDbDictionary
281
     1
  3
Normal
350
F
100
AcDbDictionaryWithDefault
340
F
  0
DICTIONARY
  5
47
102
{ACAD_REACTORS
330
C
102
}
330
C
100
AcDbDictionary
281
     1
  3
A0
350
48
  3
A1
350
49
  3
A2
350
4A
  3
A3
350
4B
  3
A4
350
4C
  3
A5
350
4D
  3
A6
350
4E
  3
A7
350
4F
  3
A8
350
50
  3
A9
350
51
  3
B0
350
52
  3
B1
350
53
  3
B2
350
54
  3
B3
350
55
  3
B4
350
56
  3
B5
350
57
  3
B6
350
58
  3
B7
350
59
  3
B8
350
5A
  3
B9
350
5B
  3
C0
350
5C
  3
C1
350
5D
  3
C2
350
5E
  3
C3
350
5F
  3
C4
350
60
  3
C5
350
61
  3
C6
350
62
  3
C7
350
63
  3
C8
350
64
  3
C9
350
65
  3
D0
350
66
  3
D1
350
67
  3
D2
350
68
  0
LAYOUT
  5
1E
102
{ACAD_REACTORS
330
1A
102
}
330
1A
100
AcDbPlotSettings
  1

  2
none_device
  4

  6

 40
0.0
 41
0.0
 42
0.0
 43
0.0
 44
0.0
 45
0.0
 46
0.0
 47
0.0
 48
0.0
 49
0.0
140
0.0
141
0.0
142
1.0
143
1.0
 70
   688
 72
     1
 73
     0
 74
     5
  7

 75
    16
147
1.0
148
0.0
149
0.0
100
AcDbLayout
  1
Layout1
 70
     1
 71
     1
 10
0.0
 20
0.0
 11
420.0
 21
297.0
 12
0.0
 22
0.0
 32
0.0
 14
1.0000000000E+20
 24
1.0000000000E+20
 34
1.0000000000E+20
 15
-1.0000000000E+20
 25
-1.0000000000E+20
 35
-1.0000000000E+20
146
0.0
 13
0.0
 23
0.0
 33
0.0
 16
1.0
 26
0.0
 36
0.0
 17
0.0
 27
1.0
 37
0.0
 76
     0
330
1B
  0
LAYOUT
  5
26
102
{ACAD_REACTORS
330
1A
102
}
330
1A
100
AcDbPlotSettings
  1

  2
none_device
  4

  6

 40
0.0
 41
0.0
 42
0.0
 43
0.0
 44
0.0
 45
0.0
 46
0.0
 47
0.0
 48
0.0
 49
0.0
140
0.0
141
0.0
142
1.0
143
1.0
 70
   688
 72
     1
 73
     0
 74
     5
  7

 75
    16
147
1.0
148
0.0
149
0.0
100
AcDbLayout
  1
Layout2
 70
     1
 71
     2
 10
0.0
 20
0.0
 11
0.0
 21
0.0
 12
0.0
 22
0.0
 32
0.0
 14
0.0
 24
0.0
 34
0.0
 15
0.0
 25
0.0
 35
0.0
146
0.0
 13
0.0
 23
0.0
 33
0.0
 16
1.0
 26
0.0
 36
0.0
 17
0.0
 27
1.0
 37
0.0
 76
     0
330
23
  0
LAYOUT
  5
22
102
{ACAD_REACTORS
330
1A
102
}
330
1A
100
AcDbPlotSettings
  1

  2
none_device
  4
Letter_(8.50_x_11.00_Inches)
  6

 40
6.35
 41
6.35
 42
6.35000508
 43
6.35000508
 44
215.9
 45
279.4
 46
0.0
 47
0.0
 48
0.0
 49
0.0
140
0.0
141
0.0
142
1.0
143
1.0
 70
  1712
 72
     1
 73
     0
 74
     0
  7

 75
     0
147
1.0
148
0.0
149
0.0
100
AcDbLayout
  1
Model
 70
     1
 71
     0
 10
0.0
 20
0.0
 11
297.0
 21
210.0
 12
0.0
 22
0.0
 32
0.0
 14
0.0
 24
0.0
 34
0.0
 15
297.0
 25
210.0
 35
0.0
146
0.0
 13
0.0
 23
0.0
 33
0.0
 16
1.0
 26
0.0
 36
0.0
 17
0.0
 27
1.0
 37
0.0
 76
     0
330
1F
331
29
  0
MLINESTYLE
  5
18
102
{ACAD_REACTORS
330
17
102
}
330
17
100
AcDbMlineStyle
  2
Standard
 70
     0
  3

 62
   256
 51
90.0
 52
90.0
 71
     2
 49
0.5
 62
   256
  6
BYLAYER
 49
-0.5
 62
   256
  6
BYLAYER
  0
ACDBPLACEHOLDER
  5
F
102
{ACAD_REACTORS
330
E
102
}
330
E
  0
SCALE
  5
48
102
{ACAD_REACTORS
330
47
102
}
330
47
100
AcDbScale
 70
     0
300
1:1
140
1.0
141
1.0
290
     1
  0
SCALE
  5
49
102
{ACAD_REACTORS
330
47
102
}
330
47
100
AcDbScale
 70
     0
300
1:2
140
1.0
141
2.0
290
     0
  0
SCALE
  5
4A
102
{ACAD_REACTORS
330
47
102
}
330
47
100
AcDbScale
 70
     0
300
1:4
140
1.0
141
4.0
290
     0
  0
SCALE
  5
4B
102
{ACAD_REACTORS
330
47
102
}
330
47
100
AcDbScale
 70
     0
300
1:5
140
1.0
141
5.0
290
     0
  0
SCALE
  5
4C
102
{ACAD_REACTORS
330
47
102
}
330
47
100
AcDbScale
 70
     0
300
1:8
140
1.0
141
8.0
290
     0
  0
SCALE
  5
4D
102
{ACAD_REACTORS
330
47
102
}
330
47
100
AcDbScale
 70
     0
300
1:10
140
1.0
141
10.0
290
     0
  0
SCALE
  5
4E
102
{ACAD_REACTORS
330
47
102
}
330
47
100
AcDbScale
 70
     0
300
1:16
140
1.0
141
16.0
290
     0
  0
SCALE
  5
4F
102
{ACAD_REACTORS
330
47
102
}
330
47
100
AcDbScale
 70
     0
300
1:20
140
1.0
141
20.0
290
     0
  0
SCALE
  5
50
102
{ACAD_REACTORS
330
47
102
}
330
47
100
AcDbScale
 70
     0
300
1:30
140
1.0
141
30.0
290
     0
  0
SCALE
  5
51
102
{ACAD_REACTORS
330
47
102
}
330
47
100
AcDbScale
 70
     0
300
1:40
140
1.0
141
40.0
290
     0
  0
SCALE
  5
52
102
{ACAD_REACTORS
330
47
102
}
330
47
100
AcDbScale
 70
     0
300
1:50
140
1.0
141
50.0
290
     0
  0
SCALE
  5
53
102
{ACAD_REACTORS
330
47
102
}
330
47
100
AcDbScale
 70
     0
300
1:100
140
1.0
141
100.0
290
     0
  0
SCALE
  5
54
102
{ACAD_REACTORS
330
47
102
}
330
47
100
AcDbScale
 70
     0
300
2:1
140
2.0
141
1.0
290
     0
  0
SCALE
  5
55
102
{ACAD_REACTORS
330
47
102
}
330
47
100
AcDbScale
 70
     0
300
4:1
140
4.0
141
1.0
290
     0
  0
SCALE
  5
56
102
{ACAD_REACTORS
330
47
102
}
330
47
100
AcDbScale
 70
     0
300
8:1
140
8.0
141
1.0
290
     0
  0
SCALE
  5
57
102
{ACAD_REACTORS
330
47
102
}
330
47
100
AcDbScale
 70
     0
300
10:1
140
10.0
141
1.0
290
     0
  0
SCALE
  5
58
102
{ACAD_REACTORS
330
47
102
}
330
47
100
AcDbScale
 70
     0
300
100:1
140
100.0
141
1.0
290
     0
  0
SCALE
  5
59
102
{ACAD_REACTORS
330
47
102
}
330
47
100
AcDbScale
 70
     0
300
1/128" = 1'-0"
140
0.0078125
141
12.0
290
     0
  0
SCALE
  5
5A
102
{ACAD_REACTORS
330
47
102
}
330
47
100
AcDbScale
 70
     0
300
1/64" = 1'-0"
140
0.015625
141
12.0
290
     0
  0
SCALE
  5
5B
102
{ACAD_REACTORS
330
47
102
}
330
47
100
AcDbScale
 70
     0
300
1/32" = 1'-0"
140
0.03125
141
12.0
290
     0
  0
SCALE
  5
5C
102
{ACAD_REACTORS
330
47
102
}
330
47
100
AcDbScale
 70
     0
300
1/16" = 1'-0"
140
0.0625
141
12.0
290
     0
  0
SCALE
  5
5D
102
{ACAD_REACTORS
330
47
102
}
330
47
100
AcDbScale
 70
     0
300
3/32" = 1'-0"
140
0.09375
141
12.0
290
     0
  0
SCALE
  5
5E
102
{ACAD_REACTORS
330
47
102
}
330
47
100
AcDbScale
 70
     0
300
1/8" = 1'-0"
140
0.125
141
12.0
290
     0
  0
SCALE
  5
5F
102
{ACAD_REACTORS
330
47
102
}
330
47
100
AcDbScale
 70
     0
300
3/16" = 1'-0"
140
0.1875
141
12.0
290
     0
  0
SCALE
  5
60
102
{ACAD_REACTORS
330
47
102
}
330
47
100
AcDbScale
 70
     0
300
1/4" = 1'-0"
140
0.25
141
12.0
290
     0
  0
SCALE
  5
61
102
{ACAD_REACTORS
330
47
102
}
330
47
100
AcDbScale
 70
     0
300
3/8" = 1'-0"
140
0.375
141
12.0
290
     0
  0
SCALE
  5
62
102
{ACAD_REACTORS
330
47
102
}
330
47
100
AcDbScale
 70
     0
300
1/2" = 1'-0"
140
0.5
141
12.0
290
     0
  0
SCALE
  5
63
102
{ACAD_REACTORS
330
47
102
}
330
47
100
AcDbScale
 70
     0
300
3/4" = 1'-0"
140
0.75
141
12.0
290
     0
  0
SCALE
  5
64
102
{ACAD_REACTORS
330
47
102
}
330
47
100
AcDbScale
 70
     0
300
1" = 1'-0"
140
1.0
141
12.0
290
     0
  0
SCALE
  5
65
102
{ACAD_REACTORS
330
47
102
}
330
47
100
AcDbScale
 70
     0
300
1-1/2" = 1'-0"
140
1.5
141
12.0
290
     0
  0
SCALE
  5
66
102
{ACAD_REACTORS
330
47
102
}
330
47
100
AcDbScale
 70
     0
300
3" = 1'-0"
140
3.0
141
12.0
290
     0
  0
SCALE
  5
67
102
{ACAD_REACTORS
330
47
102
}
330
47
100
AcDbScale
 70
     0
300
6" = 1'-0"
140
6.0
141
12.0
290
     0
  0
SCALE
  5
68
102
{ACAD_REACTORS
330
47
102
}
330
47
100
AcDbScale
 70
     0
300
1'-0" = 1'-0"
140
12.0
141
12.0
290
     0
  0
ENDSEC
  0
EOF
