  0
SECTION
  2
HEADER
  9
$ACADVER
  1
AC1015
  9
$ACADMAINTVER
 70
     6
  9
$DWGCODEPAGE
  3
ANSI_1252
  9
$INSBASE
 10
0.0
 20
0.0
 30
0.0
  9
$EXTMIN
 10
0.0
 20
0.0
 30
0.0
  9
$EXTMAX
 10
297.0
 20
210.0
 30
0.0
  9
$LIMMIN
 10
0.0
 20
0.0
  9
$LIMMAX
 10
297.0
 20
210.0
  9
$ORTHOMODE
 70
     0
  9
$REGENMODE
 70
     1
  9
$FILLMODE
 70
     1
  9
$QTEXTMODE
 70
     0
  9
$MIRRTEXT
 70
     1
  9
$LTSCALE
 40
1.0
  9
$ATTMODE
 70
     1
  9
$TEXTSIZE
 40
2.0
  9
$TRACEWID
 40
1.0
  9
$TEXTSTYLE
  7
Standard
  9
$CLAYER
  8
0
  9
$CELTYPE
  6
ByLayer
  9
$CECOLOR
 62
   256
  9
$CELTSCALE
 40
1.0
  9
$DISPSILH
 70
     0
  9
$DIMSCALE
 40
1.0
  9
$DIMASZ
 40
3.0
  9
$DIMEXO
 40
0.0
  9
$DIMDLI
 40
3.75
  9
$DIMRND
 40
0.0
  9
$DIMDLE
 40
0.0
  9
$DIMEXE
 40
1.0
  9
$DIMTP
 40
0.0
  9
$DIMTM
 40
0.0
  9
$DIMTXT
 40
2.0
  9
$DIMCEN
 40
2.5
  9
$DIMTSZ
 40
0.0
  9
$DIMTOL
 70
     0
  9
$DIMLIM
 70
     0
  9
$DIMTIH
 70
     1
  9
$DIMTOH
 70
     1
  9
$DIMSE1
 70
     0
  9
$DIMSE2
 70
     0
  9
$DIMTAD
 70
     1
  9
$DIMZIN
 70
     0
  9
$DIMBLK
  1

  9
$DIMASO
 70
     1
  9
$DIMSHO
 70
     1
  9
$DIMPOST
  1

  9
$DIMAPOST
  1

  9
$DIMALT
 70
     0
  9
$DIMALTD
 70
     3
  9
$DIMALTF
 40
0.0393700787
  9
$DIMLFAC
 40
2.0
  9
$DIMTOFL
 70
     1
  9
$DIMTVP
 40
0.0
  9
$DIMTIX
 70
     0
  9
$DIMSOXD
 70
     0
  9
$DIMSAH
 70
     0
  9
$DIMBLK1
  1

  9
$DIMBLK2
  1

  9
$DIMSTYLE
  2
ISO-25
  9
$DIMCLRD
 70
     0
  9
$DIMCLRE
 70
     0
  9
$DIMCLRT
 70
     0
  9
$DIMTFAC
 40
1.0
  9
$DIMGAP
 40
1.524
  9
$DIMJUST
 70
     0
  9
$DIMSD1
 70
     0
  9
$DIMSD2
 70
     0
  9
$DIMTOLJ
 70
     0
  9
$DIMTZIN
 70
     0
  9
$DIMALTZ
 70
     0
  9
$DIMALTTZ
 70
     0
  9
$DIMUPT
 70
     0
  9
$DIMDEC
 70
     2
  9
$DIMTDEC
 70
     3
  9
$DIMALTU
 70
     2
  9
$DIMALTTD
 70
     3
  9
$DIMTXSTY
  7
Standard
  9
$DIMAUNIT
 70
     0
  9
$DIMADEC
 70
     2
  9
$DIMALTRND
 40
0.0
  9
$DIMAZIN
 70
     0
  9
$DIMDSEP
 70
    44
  9
$DIMATFIT
 70
     3
  9
$DIMFRAC
 70
     0
  9
$DIMLDRBLK
  1

  9
$DIMLUNIT
 70
     2
  9
$DIMLWD
 70
    -2
  9
$DIMLWE
 70
    -2
  9
$DIMTMOVE
 70
     0
  9
$LUNITS
 70
     2
  9
$LUPREC
 70
     2
  9
$SKETCHINC
 40
1.0
  9
$FILLETRAD
 40
10.0
  9
$AUNITS
 70
     0
  9
$AUPREC
 70
     2
  9
$MENU
  1
.
  9
$ELEVATION
 40
0.0
  9
$PELEVATION
 40
0.0
  9
$THICKNESS
 40
0.0
  9
$LIMCHECK
 70
     0
  9
$CHAMFERA
 40
0.0
  9
$CHAMFERB
 40
0.0
  9
$CHAMFERC
 40
0.0
  9
$CHAMFERD
 40
0.0
  9
$SKPOLY
 70
     0
  9
$TDCREATE
 40
2457676.387824791
  9
$TDUCREATE
 40
2457676.304491458
  9
$TDUPDATE
 40
2457676.387826088
  9
$TDUUPDATE
 40
2457676.304492755
  9
$TDINDWG
 40
0.0000000116
  9
$TDUSRTIMER
 40
0.0000000116
  9
$USRTIMER
 70
     1
  9
$ANGBASE
 50
0.0
  9
$ANGDIR
 70
     0
  9
$PDMODE
 70
     0
  9
$PDSIZE
 40
-1.0
  9
$PLINEWID
 40
0.0
  9
$SPLFRAME
 70
     0
  9
$SPLINETYPE
 70
     6
  9
$SPLINESEGS
 70
     8
  9
$HANDSEED
  5
25A
  9
$SURFTAB1
 70
     6
  9
$SURFTAB2
 70
     6
  9
$SURFTYPE
 70
     6
  9
$SURFU
 70
     6
  9
$SURFV
 70
     6
  9
$UCSBASE
  2

  9
$UCSNAME
  2

  9
$UCSORG
 10
0.0
 20
0.0
 30
0.0
  9
$UCSXDIR
 10
1.0
 20
0.0
 30
0.0
  9
$UCSYDIR
 10
0.0
 20
1.0
 30
0.0
  9
$UCSORTHOREF
  2

  9
$UCSORTHOVIEW
 70
     0
  9
$UCSORGTOP
 10
0.0
 20
0.0
 30
0.0
  9
$UCSORGBOTTOM
 10
0.0
 20
0.0
 30
0.0
  9
$UCSORGLEFT
 10
0.0
 20
0.0
 30
0.0
  9
$UCSORGRIGHT
 10
0.0
 20
0.0
 30
0.0
  9
$UCSORGFRONT
 10
0.0
 20
0.0
 30
0.0
  9
$UCSORGBACK
 10
0.0
 20
0.0
 30
0.0
  9
$PUCSBASE
  2

  9
$PUCSNAME
  2

  9
$PUCSORG
 10
0.0
 20
0.0
 30
0.0
  9
$PUCSXDIR
 10
1.0
 20
0.0
 30
0.0
  9
$PUCSYDIR
 10
0.0
 20
1.0
 30
0.0
  9
$PUCSORTHOREF
  2

  9
$PUCSORTHOVIEW
 70
     0
  9
$PUCSORGTOP
 10
0.0
 20
0.0
 30
0.0
  9
$PUCSORGBOTTOM
 10
0.0
 20
0.0
 30
0.0
  9
$PUCSORGLEFT
 10
0.0
 20
0.0
 30
0.0
  9
$PUCSORGRIGHT
 10
0.0
 20
0.0
 30
0.0
  9
$PUCSORGFRONT
 10
0.0
 20
0.0
 30
0.0
  9
$PUCSORGBACK
 10
0.0
 20
0.0
 30
0.0
  9
$USERI1
 70
     0
  9
$USERI2
 70
     0
  9
$USERI3
 70
     0
  9
$USERI4
 70
     0
  9
$USERI5
 70
     0
  9
$USERR1
 40
0.0
  9
$USERR2
 40
0.0
  9
$USERR3
 40
0.0
  9
$USERR4
 40
0.0
  9
$USERR5
 40
0.0
  9
$WORLDVIEW
 70
     1
  9
$SHADEDGE
 70
     3
  9
$SHADEDIF
 70
    70
  9
$TILEMODE
 70
     1
  9
$MAXACTVP
 70
    64
  9
$PINSBASE
 10
0.0
 20
0.0
 30
0.0
  9
$PLIMCHECK
 70
     0
  9
$PEXTMIN
 10
1.0000000000E+20
 20
1.0000000000E+20
 30
1.0000000000E+20
  9
$PEXTMAX
 10
-1.0000000000E+20
 20
-1.0000000000E+20
 30
-1.0000000000E+20
  9
$PLIMMIN
 10
0.0
 20
0.0
  9
$PLIMMAX
 10
420.0
 20
297.0
  9
$UNITMODE
 70
     0
  9
$VISRETAIN
 70
     1
  9
$PLINEGEN
 70
     0
  9
$PSLTSCALE
 70
     1
  9
$TREEDEPTH
 70
  3020
  9
$CMLSTYLE
  2
Standard
  9
$CMLJUST
 70
     0
  9
$CMLSCALE
 40
20.0
  9
$PROXYGRAPHICS
 70
     1
  9
$MEASUREMENT
 70
     1
  9
$CELWEIGHT
370
    -1
  9
$ENDCAPS
280
     0
  9
$JOINSTYLE
280
     0
  9
$LWDISPLAY
290
     1
  9
$INSUNITS
 70
     4
  9
$HYPERLINKBASE
  1

  9
$STYLESHEET
  1

  9
$XEDIT
290
     1
  9
$CEPSNTYPE
380
     0
  9
$PSTYLEMODE
290
     1
  9
$FINGERPRINTGUID
  2
{B87EC2B7-BA69-4210-9B9F-47E24D80CA22}
  9
$VERSIONGUID
  2
{FAEB1C32-E019-11D5-929B-00C0DF256EC4}
  9
$EXTNAMES
290
     1
  9
$PSVPSCALE
 40
0.0
  9
$OLESTARTUP
290
     0
  0
ENDSEC
  0
SECTION
  2
CLASSES
  0
CLASS
  1
ACDBDICTIONARYWDFLT
  2
AcDbDictionaryWithDefault
  3
ObjectDBX Classes
 90
        0
280
     0
281
     0
  0
CLASS
  1
VISUALSTYLE
  2
AcDbVisualStyle
  3
ObjectDBX Classes
 90
     4095
280
     0
281
     0
  0
CLASS
  1
MATERIAL
  2
AcDbMaterial
  3
ObjectDBX Classes
 90
     1153
280
     0
281
     0
  0
CLASS
  1
SCALE
  2
AcDbScale
  3
ObjectDBX Classes
 90
     1153
280
     0
281
     0
  0
CLASS
  1
TABLESTYLE
  2
AcDbTableStyle
  3
ObjectDBX Classes
 90
     4095
280
     0
281
     0
  0
CLASS
  1
MLEADERSTYLE
  2
AcDbMLeaderStyle
  3
ACDB_MLEADERSTYLE_CLASS
 90
     4095
280
     0
281
     0
  0
CLASS
  1
SUN
  2
AcDbSun
  3
SCENEOE
 90
     1153
280
     0
281
     0
  0
CLASS
  1
ACDBPLACEHOLDER
  2
AcDbPlaceHolder
  3
ObjectDBX Classes
 90
        0
280
     0
281
     0
  0
CLASS
  1
LAYOUT
  2
AcDbLayout
  3
ObjectDBX Classes
 90
        0
280
     0
281
     0
  0
ENDSEC
  0
SECTION
  2
TABLES
  0
TABLE
  2
VPORT
  5
8
330
0
100
AcDbSymbolTable
 70
     1
  0
VPORT
  5
29
330
8
100
AcDbSymbolTableRecord
100
AcDbViewportTableRecord
  2
*Active
 70
     0
 10
0.0
 20
0.0
 11
1.0
 21
1.0
 12
148.5
 22
105.0
 13
0.0
 23
0.0
 14
10.0
 24
10.0
 15
10.0
 25
10.0
 16
0.0
 26
0.0
 36
1.0
 17
0.0
 27
0.0
 37
0.0
 40
210.0
 41
1.4142857143
 42
50.0
 43
0.0
 44
0.0
 50
0.0
 51
0.0
 71
     0
 72
  2000
 73
     1
 74
     3
 75
     0
 76
     0
 77
     0
 78
     0
281
     0
 65
     1
110
0.0
120
0.0
130
0.0
111
1.0
121
0.0
131
0.0
112
0.0
122
1.0
132
0.0
 79
     0
146
0.0
  0
ENDTAB
  0
TABLE
  2
LTYPE
  5
5
330
0
100
AcDbSymbolTable
 70
     6
  0
LTYPE
  5
14
330
5
100
AcDbSymbolTableRecord
100
AcDbLinetypeTableRecord
  2
ByBlock
 70
     0
  3

 72
    65
 73
     0
 40
0.0
  0
LTYPE
  5
15
330
5
100
AcDbSymbolTableRecord
100
AcDbLinetypeTableRecord
  2
ByLayer
 70
     0
  3

 72
    65
 73
     0
 40
0.0
  0
LTYPE
  5
16
330
5
100
AcDbSymbolTableRecord
100
AcDbLinetypeTableRecord
  2
Continuous
 70
     0
  3
Solid line
 72
    65
 73
     0
 40
0.0
  0
LTYPE
  5
6E
330
5
100
AcDbSymbolTableRecord
100
AcDbLinetypeTableRecord
  2
HIDDEN
 70
     0
  3
Hidden __ __ __ __ __ __ __ __ __ __ __ __ __ __
 72
    65
 73
     2
 40
1.905
 49
1.27
 74
     0
 49
-0.635
 74
     0
  0
LTYPE
  5
6F
330
5
100
AcDbSymbolTableRecord
100
AcDbLinetypeTableRecord
  2
PHANTOM
 70
     0
  3
Phantom ______  __  __  ______  __  __  ______
 72
    65
 73
     6
 40
12.7
 49
6.35
 74
     0
 49
-1.27
 74
     0
 49
1.27
 74
     0
 49
-1.27
 74
     0
 49
1.27
 74
     0
 49
-1.27
 74
     0
  0
LTYPE
  5
70
330
5
100
AcDbSymbolTableRecord
100
AcDbLinetypeTableRecord
  2
CENTER
 70
     0
  3
Center ____ _ ____ _ ____ _ ____ _ ____ _ ____
 72
    65
 73
     4
 40
10.16
 49
6.35
 74
     0
 49
-1.27
 74
     0
 49
1.27
 74
     0
 49
-1.27
 74
     0
  0
LTYPE
  5
71
330
5
100
AcDbSymbolTableRecord
100
AcDbLinetypeTableRecord
  2
CENTERX2
 70
     0
  3
Center (2x) ________  __  ________  __  _____
 72
    65
 73
     4
 40
20.32
 49
12.7
 74
     0
 49
-2.54
 74
     0
 49
2.54
 74
     0
 49
-2.54
 74
     0
  0
LTYPE
  5
72
330
5
100
AcDbSymbolTableRecord
100
AcDbLinetypeTableRecord
  2
DOT2
 70
     0
  3
Dot (.5x) ........................................
 72
    65
 73
     2
 40
0.635
 49
0.0
 74
     0
 49
-0.635
 74
     0
  0
ENDTAB
  0
TABLE
  2
LAYER
  5
2
330
0
100
AcDbSymbolTable
 70
     5
  0
LAYER
  5
10
330
2
100
AcDbSymbolTableRecord
100
AcDbLayerTableRecord
  2
0
 70
     0
 62
     7
  6
Continuous
370
    -3
390
F
  0
LAYER
  5
73
330
2
100
AcDbSymbolTableRecord
100
AcDbLayerTableRecord
  2
FORMAT
 70
     0
 62
     7
  6
Continuous
370
    -3
390
F
  0
LAYER
  5
74
330
2
100
AcDbSymbolTableRecord
100
AcDbLayerTableRecord
  2
VERMASSUNG
 70
     0
 62
     7
  6
Continuous
370
    -3
390
F
  0
LAYER
  5
75
330
2
100
AcDbSymbolTableRecord
100
AcDbLayerTableRecord
  2
KOPF_DÜNN
 70
     0
 62
     7
  6
Continuous
370
    -3
390
F
  0
LAYER
  5
76
330
2
100
AcDbSymbolTableRecord
100
AcDbLayerTableRecord
  2
KOPF_DICK
 70
     0
 62
     7
  6
Continuous
370
    15
390
F
  0
ENDTAB
  0
TABLE
  2
STYLE
  5
3
330
0
100
AcDbSymbolTable
 70
     2
  0
STYLE
  5
11
330
3
100
AcDbSymbolTableRecord
100
AcDbTextStyleTableRecord
  2
Standard
 70
     0
 40
0.0
 41
1.0
 50
0.0
 71
     0
 42
2.0
  3
txt
  4

  0
STYLE
  5
77
330
3
100
AcDbSymbolTableRecord
100
AcDbTextStyleTableRecord
  2
SLDTEXTSTYLE0
 70
     0
 40
0.0
 41
0.7
 50
0.0
 71
     0
 42
2.0
  3
TXT
  4

  0
ENDTAB
  0
TABLE
  2
VIEW
  5
6
330
0
100
AcDbSymbolTable
 70
     0
  0
ENDTAB
  0
TABLE
  2
UCS
  5
7
330
0
100
AcDbSymbolTable
 70
     0
  0
ENDTAB
  0
TABLE
  2
APPID
  5
9
330
0
100
AcDbSymbolTable
 70
     1
  0
APPID
  5
12
330
9
100
AcDbSymbolTableRecord
100
AcDbRegAppTableRecord
  2
ACAD
 70
     0
  0
ENDTAB
  0
TABLE
  2
DIMSTYLE
  5
A
330
0
100
AcDbSymbolTable
 70
     2
100
AcDbDimStyleTable
  0
DIMSTYLE
105
27
330
A
100
AcDbSymbolTableRecord
100
AcDbDimStyleTableRecord
  2
ISO-25
 70
     0
 41
2.5
 42
0.625
 43
3.75
 44
1.25
 73
     0
 74
     0
 77
     1
 78
     8
140
2.5
141
2.5
143
0.0393700787
147
0.625
171
     3
172
     1
178
     0
271
     2
272
     2
274
     3
278
    44
283
     0
284
     8
340
11
  0
DIMSTYLE
105
1AA
102
{ACAD_REACTORS
330
1A9
330
1B6
330
1C0
330
1CA
330
1D4
330
1DF
102
}
330
A
100
AcDbSymbolTableRecord
100
AcDbDimStyleTableRecord
  2
SLDDIMSTYLE0
 70
     0
 41
3.0
 44
0.0
 45
0.000000001
 73
     0
 74
     0
 77
     1
 78
    12
 79
     3
140
2.0
147
0.5
173
     1
178
     0
271
     2
272
     3
276
     2
284
    12
340
77
  0
ENDTAB
  0
TABLE
  2
BLOCK_RECORD
  5
1
330
0
100
AcDbSymbolTable
 70
     7
  0
BLOCK_RECORD
  5
1F
330
1
100
AcDbSymbolTableRecord
100
AcDbBlockTableRecord
  2
*Model_Space
340
22
  0
BLOCK_RECORD
  5
1B
330
1
100
AcDbSymbolTableRecord
100
AcDbBlockTableRecord
  2
*Paper_Space
340
1E
  0
BLOCK_RECORD
  5
23
330
1
100
AcDbSymbolTableRecord
100
AcDbBlockTableRecord
  2
*Paper_Space0
340
26
  0
BLOCK_RECORD
  5
1AB
330
1
100
AcDbSymbolTableRecord
100
AcDbBlockTableRecord
  2
_D
340
0
  0
BLOCK_RECORD
  5
1B7
330
1
100
AcDbSymbolTableRecord
100
AcDbBlockTableRecord
  2
_D_1
340
0
  0
BLOCK_RECORD
  5
1C1
330
1
100
AcDbSymbolTableRecord
100
AcDbBlockTableRecord
  2
_D_2
340
0
  0
BLOCK_RECORD
  5
1CB
330
1
100
AcDbSymbolTableRecord
100
AcDbBlockTableRecord
  2
_D_3
340
0
  0
BLOCK_RECORD
  5
1D5
330
1
100
AcDbSymbolTableRecord
100
AcDbBlockTableRecord
  2
_D_4
340
0
  0
BLOCK_RECORD
  5
1E0
330
1
100
AcDbSymbolTableRecord
100
AcDbBlockTableRecord
  2
_D_5
340
0
  0
ENDTAB
  0
ENDSEC
  0
SECTION
  2
BLOCKS
  0
BLOCK
  5
20
330
1F
100
AcDbEntity
  8
0
100
AcDbBlockBegin
  2
*Model_Space
 70
     0
 10
0.0
 20
0.0
 30
0.0
  3
*Model_Space
  1

  0
ENDBLK
  5
21
330
1F
100
AcDbEntity
  8
0
100
AcDbBlockEnd
  0
BLOCK
  5
1C
330
1B
100
AcDbEntity
 67
     1
  8
0
100
AcDbBlockBegin
  2
*Paper_Space
 70
     0
 10
0.0
 20
0.0
 30
0.0
  3
*Paper_Space
  1

  0
ENDBLK
  5
1D
330
1B
100
AcDbEntity
 67
     1
  8
0
100
AcDbBlockEnd
  0
BLOCK
  5
24
330
23
100
AcDbEntity
  8
0
100
AcDbBlockBegin
  2
*Paper_Space0
 70
     0
 10
0.0
 20
0.0
 30
0.0
  3
*Paper_Space0
  1

  0
ENDBLK
  5
25
330
23
100
AcDbEntity
  8
0
100
AcDbBlockEnd
  0
BLOCK
  5
1AC
330
1AB
100
AcDbEntity
  8
0
100
AcDbBlockBegin
  2
_D
 70
     0
 10
0.0
 20
0.0
 30
0.0
  3
_D
  1

  0
SOLID
  5
1AE
330
1AB
100
AcDbEntity
  8
VERMASSUNG
100
AcDbTrace
 10
38.0776834627
 20
67.4642241379
 30
0.0
 11
38.5276834627
 21
70.4642241379
 31
0.0
 12
37.6276834627
 22
70.4642241379
 32
0.0
 13
37.6276834627
 23
70.4642241379
 33
0.0
  0
SOLID
  5
1AF
330
1AB
100
AcDbEntity
  8
VERMASSUNG
100
AcDbTrace
 10
38.0776834627
 20
167.4642241379
 30
0.0
 11
37.6276834627
 21
164.4642241379
 31
0.0
 12
38.5276834627
 22
164.4642241379
 32
0.0
 13
38.5276834627
 23
164.4642241379
 33
0.0
  0
LINE
  5
1B0
330
1AB
100
AcDbEntity
  8
VERMASSUNG
100
AcDbLine
 10
190.9783405172
 20
67.4642241379
 30
0.0
 11
37.0776834627
 21
67.4642241379
 31
0.0
  0
LINE
  5
1B1
330
1AB
100
AcDbEntity
  8
VERMASSUNG
100
AcDbLine
 10
190.9783405172
 20
167.4642241379
 30
0.0
 11
37.0776834627
 21
167.4642241379
 31
0.0
  0
LINE
  5
1B2
330
1AB
100
AcDbEntity
  8
VERMASSUNG
100
AcDbLine
 10
38.0776834627
 20
67.4642241379
 30
0.0
 11
38.0776834627
 21
167.4642241379
 31
0.0
  0
MTEXT
  5
1B3
330
1AB
100
AcDbEntity
  8
VERMASSUNG
100
AcDbMText
 10
35.2995482064
 20
106.2600861359
 30
0.0
 40
2.0
 41
0.0
 71
     1
 72
     1
  1
MAS-BT 50
  7
SLDTEXTSTYLE0
 11
3.391901413832837E-15
 21
1.0
 31
0.0
 73
     1
 44
1.0
  0
MTEXT
  5
1B4
330
1AB
100
AcDbEntity
  8
VERMASSUNG
100
AcDbMText
 10
35.4995481577
 20
121.2600858006
 30
0.0
 40
2.0
 41
0.0
 71
     1
 72
     1
  1
%%c
  7
SLDTEXTSTYLE0
 11
3.391901413832837E-15
 21
1.0
 31
0.0
 73
     1
 44
1.0
  0
MTEXT
  5
1B5
330
1AB
100
AcDbEntity
  8
VERMASSUNG
100
AcDbMText
 10
35.4995478667
 20
124.8696762492
 30
0.0
 40
2.0
 41
0.0
 71
     1
 72
     1
  1
100
  7
SLDTEXTSTYLE0
 11
3.391901413832837E-15
 21
1.0
 31
0.0
 73
     1
 44
1.0
  0
ENDBLK
  5
1AD
330
1AB
100
AcDbEntity
  8
0
100
AcDbBlockEnd
  0
BLOCK
  5
1B8
330
1B7
100
AcDbEntity
  8
0
100
AcDbBlockBegin
  2
_D_1
 70
     0
 10
0.0
 20
0.0
 30
0.0
  3
_D_1
  1

  0
SOLID
  5
1BA
330
1B7
100
AcDbEntity
  8
VERMASSUNG
100
AcDbTrace
 10
52.1783405172
 20
186.5781621791
 30
0.0
 11
55.1783405172
 21
186.1281621791
 31
0.0
 12
55.1783405172
 22
187.0281621791
 32
0.0
 13
55.1783405172
 23
187.0281621791
 33
0.0
  0
SOLID
  5
1BB
330
1B7
100
AcDbEntity
  8
VERMASSUNG
100
AcDbTrace
 10
257.9783405172
 20
186.5781621791
 30
0.0
 11
254.9783405172
 21
187.0281621791
 31
0.0
 12
254.9783405172
 22
186.1281621791
 32
0.0
 13
254.9783405172
 23
186.1281621791
 33
0.0
  0
LINE
  5
1BC
330
1B7
100
AcDbEntity
  8
VERMASSUNG
100
AcDbLine
 10
52.1783405172
 20
135.8139019987
 30
0.0
 11
52.1783405172
 21
187.5781621791
 31
0.0
  0
LINE
  5
1BD
330
1B7
100
AcDbEntity
  8
VERMASSUNG
100
AcDbLine
 10
257.9783405172
 20
129.7642241379
 30
0.0
 11
257.9783405172
 21
187.5781621791
 31
0.0
  0
LINE
  5
1BE
330
1B7
100
AcDbEntity
  8
VERMASSUNG
100
AcDbLine
 10
52.1783405172
 20
186.5781621791
 30
0.0
 11
257.9783405172
 21
186.5781621791
 31
0.0
  0
MTEXT
  5
1BF
330
1B7
100
AcDbEntity
  8
VERMASSUNG
100
AcDbMText
 10
151.978340661
 20
189.156297775
 30
0.0
 40
2.0
 41
0.0
 71
     1
 72
     1
  1
205.8
  7
SLDTEXTSTYLE0
 73
     1
 44
1.0
  0
ENDBLK
  5
1B9
330
1B7
100
AcDbEntity
  8
0
100
AcDbBlockEnd
  0
BLOCK
  5
1C2
330
1C1
100
AcDbEntity
  8
0
100
AcDbBlockBegin
  2
_D_2
 70
     0
 10
0.0
 20
0.0
 30
0.0
  3
_D_2
  1

  0
SOLID
  5
1C4
330
1C1
100
AcDbEntity
  8
VERMASSUNG
100
AcDbTrace
 10
153.9783405172
 20
180.5781621791
 30
0.0
 11
156.9783405172
 21
180.1281621791
 31
0.0
 12
156.9783405172
 22
181.0281621791
 32
0.0
 13
156.9783405172
 23
181.0281621791
 33
0.0
  0
SOLID
  5
1C5
330
1C1
100
AcDbEntity
  8
VERMASSUNG
100
AcDbTrace
 10
257.9783405172
 20
180.5781621791
 30
0.0
 11
254.9783405172
 21
181.0281621791
 31
0.0
 12
254.9783405172
 22
180.1281621791
 32
0.0
 13
254.9783405172
 23
180.1281621791
 33
0.0
  0
LINE
  5
1C6
330
1C1
100
AcDbEntity
  8
VERMASSUNG
100
AcDbLine
 10
153.9783405172
 20
152.3892241379
 30
0.0
 11
153.9783405172
 21
181.5781621791
 31
0.0
  0
LINE
  5
1C7
330
1C1
100
AcDbEntity
  8
VERMASSUNG
100
AcDbLine
 10
257.9783405172
 20
129.7642241379
 30
0.0
 11
257.9783405172
 21
181.5781621791
 31
0.0
  0
LINE
  5
1C8
330
1C1
100
AcDbEntity
  8
VERMASSUNG
100
AcDbLine
 10
153.9783405172
 20
180.5781621791
 30
0.0
 11
257.9783405172
 21
180.5781621791
 31
0.0
  0
MTEXT
  5
1C9
330
1C1
100
AcDbEntity
  8
VERMASSUNG
100
AcDbMText
 10
203.9783404222
 20
183.156297775
 30
0.0
 40
2.0
 41
0.0
 71
     1
 72
     1
  1
104
  7
SLDTEXTSTYLE0
 73
     1
 44
1.0
  0
ENDBLK
  5
1C3
330
1C1
100
AcDbEntity
  8
0
100
AcDbBlockEnd
  0
BLOCK
  5
1CC
330
1CB
100
AcDbEntity
  8
0
100
AcDbBlockBegin
  2
_D_3
 70
     0
 10
0.0
 20
0.0
 30
0.0
  3
_D_3
  1

  0
SOLID
  5
1CE
330
1CB
100
AcDbEntity
  8
VERMASSUNG
100
AcDbTrace
 10
191.9783405172
 20
174.5781621791
 30
0.0
 11
194.9783405172
 21
174.1281621791
 31
0.0
 12
194.9783405172
 22
175.0281621791
 32
0.0
 13
194.9783405172
 23
175.0281621791
 33
0.0
  0
SOLID
  5
1CF
330
1CB
100
AcDbEntity
  8
VERMASSUNG
100
AcDbTrace
 10
257.9783405172
 20
174.5781621791
 30
0.0
 11
254.9783405172
 21
175.0281621791
 31
0.0
 12
254.9783405172
 22
174.1281621791
 32
0.0
 13
254.9783405172
 23
174.1281621791
 33
0.0
  0
LINE
  5
1D0
330
1CB
100
AcDbEntity
  8
VERMASSUNG
100
AcDbLine
 10
191.9783405172
 20
166.4642241379
 30
0.0
 11
191.9783405172
 21
175.5781621791
 31
0.0
  0
LINE
  5
1D1
330
1CB
100
AcDbEntity
  8
VERMASSUNG
100
AcDbLine
 10
257.9783405172
 20
129.7642241379
 30
0.0
 11
257.9783405172
 21
175.5781621791
 31
0.0
  0
LINE
  5
1D2
330
1CB
100
AcDbEntity
  8
VERMASSUNG
100
AcDbLine
 10
191.9783405172
 20
174.5781621791
 30
0.0
 11
257.9783405172
 21
174.5781621791
 31
0.0
  0
MTEXT
  5
1D3
330
1CB
100
AcDbEntity
  8
VERMASSUNG
100
AcDbMText
 10
223.5783405672
 20
177.156297775
 30
0.0
 40
2.0
 41
0.0
 71
     1
 72
     1
  1
66
  7
SLDTEXTSTYLE0
 73
     1
 44
1.0
  0
ENDBLK
  5
1CD
330
1CB
100
AcDbEntity
  8
0
100
AcDbBlockEnd
  0
BLOCK
  5
1D6
330
1D5
100
AcDbEntity
  8
0
100
AcDbBlockBegin
  2
_D_4
 70
     0
 10
0.0
 20
0.0
 30
0.0
  3
_D_4
  1

  0
SOLID
  5
1D8
330
1D5
100
AcDbEntity
  8
VERMASSUNG
100
AcDbTrace
 10
274.0436202843
 20
129.9642241379
 30
0.0
 11
273.5936202843
 21
126.9642241379
 31
0.0
 12
274.4936202843
 22
126.9642241379
 32
0.0
 13
274.4936202843
 23
126.9642241379
 33
0.0
  0
SOLID
  5
1D9
330
1D5
100
AcDbEntity
  8
VERMASSUNG
100
AcDbTrace
 10
274.0436202843
 20
104.9642241379
 30
0.0
 11
274.4936202843
 21
107.9642241379
 31
0.0
 12
273.5936202843
 22
107.9642241379
 32
0.0
 13
273.5936202843
 23
107.9642241379
 33
0.0
  0
LINE
  5
1DA
330
1D5
100
AcDbEntity
  8
VERMASSUNG
100
AcDbLine
 10
257.7783405172
 20
129.9642241379
 30
0.0
 11
275.0436202843
 21
129.9642241379
 31
0.0
  0
LINE
  5
1DB
330
1D5
100
AcDbEntity
  8
VERMASSUNG
100
AcDbLine
 10
257.7783405172
 20
104.9642241379
 30
0.0
 11
275.0436202843
 21
104.9642241379
 31
0.0
  0
LINE
  5
1DC
330
1D5
100
AcDbEntity
  8
VERMASSUNG
100
AcDbLine
 10
274.0436202843
 20
129.9642241379
 30
0.0
 11
274.0436202843
 21
104.9642241379
 31
0.0
  0
MTEXT
  5
1DD
330
1D5
100
AcDbEntity
  8
VERMASSUNG
100
AcDbMText
 10
271.4654849794
 20
114.2592241807
 30
0.0
 40
2.0
 41
0.0
 71
     1
 72
     1
  1
%%c
  7
SLDTEXTSTYLE0
 11
-7.044195017643634E-15
 21
1.0
 31
0.0
 73
     1
 44
1.0
  0
MTEXT
  5
1DE
330
1D5
100
AcDbEntity
  8
VERMASSUNG
100
AcDbMText
 10
271.2654850281
 20
117.869224195
 30
0.0
 40
2.0
 41
0.0
 71
     1
 72
     1
  1
25
  7
SLDTEXTSTYLE0
 11
-7.044195017643634E-15
 21
1.0
 31
0.0
 73
     1
 44
1.0
  0
ENDBLK
  5
1D7
330
1D5
100
AcDbEntity
  8
0
100
AcDbBlockEnd
  0
BLOCK
  5
1E1
330
1E0
100
AcDbEntity
  8
0
100
AcDbBlockBegin
  2
_D_5
 70
     0
 10
0.0
 20
0.0
 30
0.0
  3
_D_5
  1

  0
SOLID
  5
1E3
330
1E0
100
AcDbEntity
  8
VERMASSUNG
100
AcDbTrace
 10
267.7436202843
 20
124.4642241379
 30
0.0
 11
267.2936202843
 21
121.4642241379
 31
0.0
 12
268.1936202843
 22
121.4642241379
 32
0.0
 13
268.1936202843
 23
121.4642241379
 33
0.0
  0
SOLID
  5
1E4
330
1E0
100
AcDbEntity
  8
VERMASSUNG
100
AcDbTrace
 10
267.7436202843
 20
110.4642241379
 30
0.0
 11
268.1936202843
 21
113.4642241379
 31
0.0
 12
267.2936202843
 22
113.4642241379
 32
0.0
 13
267.2936202843
 23
113.4642241379
 33
0.0
  0
LINE
  5
1E5
330
1E0
100
AcDbEntity
  8
VERMASSUNG
100
AcDbLine
 10
256.9783405172
 20
124.4642241379
 30
0.0
 11
268.7436202843
 21
124.4642241379
 31
0.0
  0
LINE
  5
1E6
330
1E0
100
AcDbEntity
  8
VERMASSUNG
100
AcDbLine
 10
256.9783405172
 20
110.4642241379
 30
0.0
 11
268.7436202843
 21
110.4642241379
 31
0.0
  0
LINE
  5
1E7
330
1E0
100
AcDbEntity
  8
VERMASSUNG
100
AcDbLine
 10
267.7436202843
 20
124.4642241379
 30
0.0
 11
267.7436202843
 21
110.4642241379
 31
0.0
  0
MTEXT
  5
1E8
330
1E0
100
AcDbEntity
  8
VERMASSUNG
100
AcDbMText
 10
265.1654849794
 20
114.3592240108
 30
0.0
 40
2.0
 41
0.0
 71
     1
 72
     1
  1
%%c
  7
SLDTEXTSTYLE0
 11
-7.044195017643634E-15
 21
1.0
 31
0.0
 73
     1
 44
1.0
  0
MTEXT
  5
1E9
330
1E0
100
AcDbEntity
  8
VERMASSUNG
100
AcDbMText
 10
264.9654850281
 20
117.9692240251
 30
0.0
 40
2.0
 41
0.0
 71
     1
 72
     1
  1
14
  7
SLDTEXTSTYLE0
 11
-7.044195017643634E-15
 21
1.0
 31
0.0
 73
     1
 44
1.0
  0
ENDBLK
  5
1E2
330
1E0
100
AcDbEntity
  8
0
100
AcDbBlockEnd
  0
ENDSEC
  0
SECTION
  2
ENTITIES
  0
MTEXT
  5
78
330
1F
100
AcDbEntity
  8
KOPF_DÜNN
100
AcDbMText
 10
13.8892156294
 20
23.8442973028
 30
0.0
 40
3.0
 41
0.0
 71
     1
 72
     1
  1
A34.550.025.104
  7
SLDTEXTSTYLE0
 73
     1
 44
1.0
  0
MTEXT
  5
79
330
1F
100
AcDbEntity
  8
VERMASSUNG
100
AcDbMText
 10
13.9329988022
 20
28.8834360957
 30
0.0
 40
3.0
 41
0.0
 71
     1
 72
     1
  1
Aufnahme_Master shank
  7
SLDTEXTSTYLE0
 73
     1
 44
1.0
  0
MTEXT
  5
7A
330
1F
100
AcDbEntity
  8
VERMASSUNG
100
AcDbMText
 10
98.8601118557
 20
13.8365368761
 30
0.0
 40
2.0
 41
0.0
 71
     1
 72
     1
  1
Datum: 17.11.2011
  7
SLDTEXTSTYLE0
 73
     1
 44
1.0
  0
MTEXT
  5
7B
330
1F
100
AcDbEntity
  8
VERMASSUNG
100
AcDbMText
 10
13.933048693
 20
18.0482802738
 30
0.0
 40
2.0
 41
0.0
 71
     1
 72
     1
  1
MAS-BT A/D
  7
SLDTEXTSTYLE0
 73
     1
 44
1.0
  0
MTEXT
  5
7C
330
1F
100
AcDbEntity
  8
VERMASSUNG
100
AcDbMText
 10
13.9808475933
 20
13.9090974274
 30
0.0
 40
2.0
 41
0.0
 71
     1
 72
     1
  1
Gewicht: 3886g
  7
SLDTEXTSTYLE0
 73
     1
 44
1.0
  0
LINE
  5
7D
330
1F
100
AcDbEntity
  8
0
  6
Continuous
 62
     7
370
    15
100
AcDbLine
 10
187.9780532905
 20
67.4642241379
 30
0.0
 11
190.9783405172
 21
67.4642241379
 31
0.0
  0
LINE
  5
7E
330
1F
100
AcDbEntity
  8
0
  6
Continuous
 62
     7
370
    15
100
AcDbLine
 10
190.9783405172
 20
167.4642241379
 30
0.0
 11
187.9779063363
 21
167.4642241379
 31
0.0
  0
ARC
  5
7F
330
1F
100
AcDbEntity
  8
0
  6
Continuous
 62
     7
370
    15
100
AcDbCircle
 10
190.9783405172
 20
68.4642241379
 30
0.0
 40
1.0
100
AcDbArc
 50
270.0
 51
0.0
  0
ARC
  5
80
330
1F
100
AcDbEntity
  8
0
  6
Continuous
 62
     7
370
    15
100
AcDbCircle
 10
190.9783405172
 20
166.4642241379
 30
0.0
 40
1.0
100
AcDbArc
 50
0.0
 51
90.0
  0
ARC
  5
81
330
1F
100
AcDbEntity
  8
0
  6
Continuous
 62
     7
370
    15
100
AcDbCircle
 10
155.9783405172
 20
81.5392241379
 30
0.0
 40
1.000000000000014
100
AcDbArc
 50
38.7236281536
 51
90.0
  0
ARC
  5
82
330
1F
100
AcDbEntity
  8
0
  6
Continuous
 62
     7
370
    15
100
AcDbCircle
 10
155.9783405172
 20
153.3892241379
 30
0.0
 40
1.0
100
AcDbArc
 50
270.0
 51
321.2804100885
  0
LINE
  5
83
330
1F
100
AcDbEntity
  8
0
  6
Continuous
 62
     7
370
    15
100
AcDbLine
 10
153.9783405172
 20
82.5392241379
 30
0.0
 11
155.9783405172
 21
82.5392241379
 31
0.0
  0
LINE
  5
84
330
1F
100
AcDbEntity
  8
0
  6
Continuous
 62
     7
370
    15
100
AcDbLine
 10
155.9783405172
 20
152.3892241379
 30
0.0
 11
153.9783405172
 21
152.3892241379
 31
0.0
  0
LINE
  5
85
330
1F
100
AcDbEntity
  8
0
  6
Continuous
 62
     7
370
    15
100
AcDbLine
 10
153.9783405172
 20
152.3892241379
 30
0.0
 11
53.8897267311
 21
137.7929679608
 31
0.0
  0
LINE
  5
86
330
1F
100
AcDbEntity
  8
0
  6
Continuous
 62
     7
370
    15
100
AcDbLine
 10
53.8897267311
 20
97.1354803151
 30
0.0
 11
153.9783405172
 21
82.5392241379
 31
0.0
  0
ARC
  5
87
330
1F
100
AcDbEntity
  8
0
  6
Continuous
 62
     7
370
    15
100
AcDbCircle
 10
54.1783405172
 20
99.1145462772
 30
0.0
 40
2.0
100
AcDbArc
 50
180.0
 51
261.7028550302
  0
ARC
  5
88
330
1F
100
AcDbEntity
  8
0
  6
Continuous
 62
     7
370
    15
100
AcDbCircle
 10
54.1783405172
 20
135.8139019987
 30
0.0
 40
2.000000000000021
100
AcDbArc
 50
98.2971449698
 51
180.0
  0
ARC
  5
89
330
1F
100
AcDbEntity
  8
0
  6
Continuous
 62
     7
370
    15
100
AcDbCircle
 10
194.9783405172
 20
101.9642241379
 30
0.0
 40
3.0
100
AcDbArc
 50
90.0
 51
180.0
  0
ARC
  5
8A
330
1F
100
AcDbEntity
  8
0
  6
Continuous
 62
     7
370
    15
100
AcDbCircle
 10
194.9783405172
 20
132.9642241379
 30
0.0
 40
3.0
100
AcDbArc
 50
180.0
 51
270.0
  0
LINE
  5
8B
330
1F
100
AcDbEntity
  8
0
  6
Continuous
 62
     7
370
    15
100
AcDbLine
 10
257.7783405172
 20
104.9642241379
 30
0.0
 11
257.9783405172
 21
105.1642241379
 31
0.0
  0
LINE
  5
8C
330
1F
100
AcDbEntity
  8
0
  6
Continuous
 62
     7
370
    15
100
AcDbLine
 10
257.9783405172
 20
129.7642241379
 30
0.0
 11
257.7783405172
 21
129.9642241379
 31
0.0
  0
LINE
  5
8D
330
1F
100
AcDbEntity
  8
0
  6
Continuous
 62
     7
370
    15
100
AcDbLine
 10
257.7783405172
 20
129.9642241379
 30
0.0
 11
194.9783405172
 21
129.9642241379
 31
0.0
  0
LINE
  5
8E
330
1F
100
AcDbEntity
  8
0
  6
Continuous
 62
     7
370
    15
100
AcDbLine
 10
194.9783405172
 20
104.9642241379
 30
0.0
 11
257.7783405172
 21
104.9642241379
 31
0.0
  0
LINE
  5
8F
330
1F
100
AcDbEntity
  8
0
  6
Continuous
 62
     7
370
    15
100
AcDbLine
 10
251.1529419364
 20
118.0842901499
 30
0.0
 11
250.5776341452
 21
115.8476958016
 31
0.0
  0
LINE
  5
90
330
1F
100
AcDbEntity
  8
0
  6
Continuous
 62
     7
370
    15
100
AcDbLine
 10
249.5036483085
 20
119.7008184862
 30
0.0
 11
251.1529419364
 21
118.0842901499
 31
0.0
  0
LINE
  5
91
330
1F
100
AcDbEntity
  8
0
  6
Continuous
 62
     7
370
    15
100
AcDbLine
 10
247.2790468893
 20
119.0807524743
 30
0.0
 11
249.5036483085
 21
119.7008184862
 31
0.0
  0
LINE
  5
92
330
1F
100
AcDbEntity
  8
0
  6
Continuous
 62
     7
370
    15
100
AcDbLine
 10
246.7037390981
 20
116.844158126
 30
0.0
 11
247.2790468893
 21
119.0807524743
 31
0.0
  0
LINE
  5
93
330
1F
100
AcDbEntity
  8
0
  6
Continuous
 62
     7
370
    15
100
AcDbLine
 10
248.353032726
 20
115.2276297897
 30
0.0
 11
246.7037390981
 21
116.844158126
 31
0.0
  0
LINE
  5
94
330
1F
100
AcDbEntity
  8
0
  6
Continuous
 62
     7
370
    15
100
AcDbLine
 10
250.5776341452
 20
115.8476958016
 30
0.0
 11
248.353032726
 21
115.2276297897
 31
0.0
  0
CIRCLE
  5
95
330
1F
100
AcDbEntity
  8
0
  6
Continuous
 62
     7
370
    15
100
AcDbCircle
 10
248.9283405172
 20
117.4642241379
 30
0.0
 40
4.0
  0
LWPOLYLINE
  5
96
330
1F
100
AcDbEntity
  8
0
  6
Continuous
 62
     7
370
    15
100
AcDbPolyline
 90
       20
 70
   128
 43
0.0
 10
178.2414636585
 20
104.9978774576
 10
177.4687666586
 20
105.210123412
 10
176.6645974799
 20
105.1751057674
 10
175.9161003308
 20
104.896619229
 10
175.3043864916
 20
104.4048421345
 10
174.8957446485
 20
103.7530661627
 10
174.7344574859
 20
103.0119213535
 10
174.8380029704
 20
102.261722247
 10
175.1951603423
 20
101.583764557
 10
175.7672260583
 20
101.0515155188
 10
176.4922079216
 20
100.7226525743
 10
177.2915428981
 20
100.6328131264
 10
178.0786106402
 20
100.7917326734
 10
178.7681201452
 20
101.1821898163
 10
179.2853523597
 20
101.7618724653
 10
179.5742571473
 20
102.4679630105
 10
179.6035271916
 20
103.2239455853
 10
179.3699906291
 20
103.9478977474
 10
178.89895477
 20
104.5613680468
 10
178.2414636585
 20
104.9978774576
  0
LINE
  5
97
330
1F
100
AcDbEntity
  8
0
  6
Continuous
 62
     7
370
    15
100
AcDbLine
 10
175.4510125596
 20
102.8082558948
 30
0.0
 11
176.4253724962
 21
101.4626164839
 31
0.0
  0
LINE
  5
98
330
1F
100
AcDbEntity
  8
0
  6
Continuous
 62
     7
370
    15
100
AcDbLine
 10
178.1527004539
 20
101.5827286356
 30
0.0
 11
176.4253724962
 21
101.4626164839
 31
0.0
  0
LINE
  5
99
330
1F
100
AcDbEntity
  8
0
  6
Continuous
 62
     7
370
    15
100
AcDbLine
 10
178.9056684749
 20
103.0484801983
 30
0.0
 11
178.1527004539
 21
101.5827286356
 31
0.0
  0
LINE
  5
9A
330
1F
100
AcDbEntity
  8
0
  6
Continuous
 62
     7
370
    15
100
AcDbLine
 10
178.9056684749
 20
103.0484801983
 30
0.0
 11
177.9313085382
 21
104.3941196093
 31
0.0
  0
LINE
  5
9B
330
1F
100
AcDbEntity
  8
0
  6
Continuous
 62
     7
370
    15
100
AcDbLine
 10
176.2039805806
 20
104.2740074576
 30
0.0
 11
177.9313085382
 21
104.3941196093
 31
0.0
  0
LINE
  5
9C
330
1F
100
AcDbEntity
  8
0
  6
Continuous
 62
     7
370
    15
100
AcDbLine
 10
176.2039805806
 20
104.2740074576
 30
0.0
 11
175.4510125596
 21
102.8082558948
 31
0.0
  0
LINE
  5
9D
330
1F
100
AcDbEntity
  8
0
  6
Continuous
 62
     7
370
    15
100
AcDbLine
 10
178.1527004539
 20
102.2667689223
 30
0.0
 11
178.1527004539
 21
101.5827286356
 31
0.0
  0
LINE
  5
9E
330
1F
100
AcDbEntity
  8
0
  6
Continuous
 62
     7
370
    15
100
AcDbLine
 10
178.7001078507
 20
103.3323696183
 30
0.0
 11
178.1527004539
 21
102.2667689223
 31
0.0
  0
LINE
  5
9F
330
1F
100
AcDbEntity
  8
0
  6
Continuous
 62
     7
370
    15
100
AcDbLine
 10
175.6565731838
 20
103.2084067615
 30
0.0
 11
176.4253724962
 21
102.1466567705
 31
0.0
  0
LINE
  5
A0
330
1F
100
AcDbEntity
  8
0
  6
Continuous
 62
     7
370
    15
100
AcDbLine
 10
176.4253724962
 20
102.1466567705
 30
0.0
 11
176.4253724962
 21
101.4626164839
 31
0.0
  0
LINE
  5
A1
330
1F
100
AcDbEntity
  8
0
  6
Continuous
 62
     7
370
    15
100
AcDbLine
 10
178.1527004539
 20
102.2667689223
 30
0.0
 11
176.4253724962
 21
102.1466567705
 31
0.0
  0
SPLINE
  5
A2
330
1F
100
AcDbEntity
  8
0
  6
Continuous
 62
     7
370
    15
100
AcDbSpline
210
0.0
220
0.0
230
1.0
 70
     8
 71
     3
 72
    12
 73
     8
 74
     0
 42
0.000000001
 43
0.00000001
 40
0.0
 40
0.0
 40
0.0
 40
0.0
 40
0.4999999999999992
 40
0.4999999999999992
 40
0.7499999999999996
 40
0.7499999999999996
 40
1.0
 40
1.0
 40
1.0
 40
1.0
 10
184.0626201820848
 20
165.670271089632
 30
0.0
 10
183.5237234869872
 20
164.6125712721309
 30
0.0
 10
182.9613926762676
 20
163.5102028371723
 30
0.0
 10
182.0927264336771
 20
161.8102382308096
 30
0.0
 10
181.7983977113346
 20
161.2347198153709
 30
0.0
 10
181.2048667123668
 20
160.0752911469124
 30
0.0
 10
180.9056404542484
 20
159.4913314778311
 30
0.0
 10
180.604153605995
 20
158.9036215172423
 30
0.0
  0
SPLINE
  5
A3
330
1F
100
AcDbEntity
  8
0
  6
Continuous
 62
     7
370
    15
100
AcDbSpline
210
0.0
220
0.0
230
1.0
 70
     8
 71
     3
 72
     9
 73
     5
 74
     0
 42
0.000000001
 43
0.00000001
 40
0.0
 40
0.0
 40
0.0
 40
0.0
 40
0.5047943291262357
 40
1.0
 40
1.0
 40
1.0
 40
1.0
 10
184.7033169226534
 20
166.6243293880185
 30
0.0
 10
184.594934488427
 20
166.4634878271392
 30
0.0
 10
184.3802283636296
 20
166.1448599194969
 30
0.0
 10
184.1678009348104
 20
165.8274856928935
 30
0.0
 10
184.06260566741
 20
165.6703201760904
 30
0.0
  0
LINE
  5
A4
330
1F
100
AcDbEntity
  8
0
  6
Continuous
 62
     7
370
    15
100
AcDbLine
 10
184.7033405172
 20
68.3040628526
 30
0.0
 11
184.7033405172
 21
166.6243854232
 31
0.0
  0
SPLINE
  5
A5
330
1F
100
AcDbEntity
  8
0
  6
Continuous
 62
     7
370
    15
100
AcDbSpline
210
0.0
220
0.0
230
1.0
 70
     8
 71
     3
 72
     9
 73
     5
 74
     0
 42
0.000000001
 43
0.00000001
 40
0.0
 40
0.0
 40
0.0
 40
0.0
 40
0.4952056703152484
 40
1.0
 40
1.0
 40
1.0
 40
1.0
 10
184.06260566741
 20
69.25812809977164
 30
0.0
 10
184.1678009346905
 20
69.10096258314819
 30
0.0
 10
184.3802283635071
 20
68.78358835654977
 30
0.0
 10
184.5949344883063
 20
68.46496044890299
 30
0.0
 10
184.7033169226534
 20
68.30411888784359
 30
0.0
  0
SPLINE
  5
A6
330
1F
100
AcDbEntity
  8
0
  6
Continuous
 62
     7
370
    15
100
AcDbSpline
210
0.0
220
0.0
230
1.0
 70
     8
 71
     3
 72
    12
 73
     8
 74
     0
 42
0.000000001
 43
0.00000001
 40
0.0
 40
0.0
 40
0.0
 40
0.0
 40
0.2499999999999993
 40
0.2499999999999993
 40
0.4999999999999986
 40
0.4999999999999986
 40
1.0
 40
1.0
 40
1.0
 40
1.0
 10
184.0626201498458
 20
69.2581772495058
 30
0.0
 10
183.793282628477
 20
69.78680963819045
 30
0.0
 10
183.5175125110829
 20
70.32773429213715
 30
0.0
 10
182.9552522244772
 20
71.4297910465002
 30
0.0
 10
182.6681668510725
 20
71.99208788573702
 30
0.0
 10
181.7977404103532
 20
73.69548312105701
 30
0.0
 10
181.2057304141839
 20
74.8521298921391
 30
0.0
 10
180.604153605995
 20
76.02482675861974
 30
0.0
  0
SPLINE
  5
A7
330
1F
100
AcDbEntity
  8
0
  6
Continuous
 62
     7
370
    15
100
AcDbSpline
210
0.0
220
0.0
230
1.0
 70
     8
 71
     3
 72
    12
 73
     8
 74
     0
 42
0.000000001
 43
0.00000001
 40
0.0
 40
0.0
 40
0.0
 40
0.0
 40
0.0005125153354919
 40
0.2509311781591491
 40
0.5009716914396624
 40
0.7506335204375856
 40
1.0
 40
1.0
 40
1.0
 40
1.0
 10
187.9779063363112
 20
167.4640990957474
 30
0.0
 10
187.9780507929981
 20
167.4641407690647
 30
0.0
 10
188.0487778212882
 20
167.4845443236522
 30
0.0
 10
187.8055142610119
 20
167.4129326922656
 30
0.0
 10
187.1999896468067
 20
167.2445794837937
 30
0.0
 10
186.1748259623905
 20
166.9672458933381
 30
0.0
 10
185.1936420951658
 20
166.7386271440146
 30
0.0
 10
184.7033405179284
 20
166.6243854232488
 30
0.0
  0
SPLINE
  5
A8
330
1F
100
AcDbEntity
  8
0
  6
Continuous
 62
     7
370
    15
100
AcDbSpline
210
0.0
220
0.0
230
1.0
 70
     8
 71
     3
 72
    13
 73
     9
 74
     0
 42
0.000000001
 43
0.00000001
 40
0.0
 40
0.0
 40
0.0
 40
0.0
 40
0.2492492380460214
 40
0.4988437701385547
 40
0.6658825660855477
 40
0.832025671123022
 40
0.9994886337290263
 40
1.0
 40
1.0
 40
1.0
 40
1.0
 10
184.7033405179284
 20
68.3040628526132
 30
0.0
 10
185.1945252413519
 20
68.18957532892117
 30
0.0
 10
186.1775751442842
 20
67.96044167780117
 30
0.0
 10
187.0766185691032
 20
67.7172319266528
 30
0.0
 10
187.6349434697838
 20
67.56329471926787
 30
0.0
 10
187.900614694492
 20
67.48704116041922
 30
0.0
 10
188.0095089405111
 20
67.45512697609249
 30
0.0
 10
187.9781487606903
 20
67.46427989003828
 30
0.0
 10
187.9780532905175
 20
67.46430775436436
 30
0.0
  0
LINE
  5
A9
330
1F
100
AcDbEntity
  8
0
  6
Continuous
 62
     7
370
    15
100
AcDbLine
 10
169.6533405172
 20
165.5693156334
 30
0.0
 11
157.9783405172
 21
165.5693156334
 31
0.0
  0
LINE
  5
AA
330
1F
100
AcDbEntity
  8
0
  6
Continuous
 62
     7
370
    15
100
AcDbLine
 10
169.6533405172
 20
69.3591326425
 30
0.0
 11
169.6533405172
 21
165.5693156334
 31
0.0
  0
LINE
  5
AB
330
1F
100
AcDbEntity
  8
0
  6
Continuous
 62
     7
370
    15
100
AcDbLine
 10
157.9783405172
 20
69.3591326425
 30
0.0
 11
169.6533405172
 21
69.3591326425
 31
0.0
  0
SPLINE
  5
AC
330
1F
100
AcDbEntity
  8
0
  6
Continuous
 62
     7
370
    15
100
AcDbSpline
210
0.0
220
0.0
230
1.0
 70
     8
 71
     3
 72
     8
 73
     4
 74
     0
 42
0.000000001
 43
0.00000001
 40
0.0
 40
0.0
 40
0.0
 40
0.0
 40
0.0012417047560385
 40
0.0012417047560385
 40
0.0012417047560385
 40
0.0012417047560385
 10
170.2109095537691
 20
164.784794291852
 30
0.0
 10
170.0255210024746
 20
165.0464673774005
 30
0.0
 10
169.8396547568667
 20
165.3079714862781
 30
0.0
 10
169.6533405172413
 20
165.5693156333954
 30
0.0
  0
SPLINE
  5
AD
330
1F
100
AcDbEntity
  8
0
  6
Continuous
 62
     7
370
    15
100
AcDbSpline
210
0.0
220
0.0
230
1.0
 70
     8
 71
     3
 72
     8
 73
     4
 74
     0
 42
0.000000001
 43
0.00000001
 40
0.0
 40
0.0
 40
0.0
 40
0.0
 40
1.0
 40
1.0
 40
1.0
 40
1.0
 10
173.7525274284877
 20
158.394500218114
 30
0.0
 10
172.5775399525848
 20
160.5275769730499
 30
0.0
 10
171.3962934184884
 20
162.6572955389261
 30
0.0
 10
170.2109095537691
 20
164.784794291852
 30
0.0
  0
SPLINE
  5
AE
330
1F
100
AcDbEntity
  8
0
  6
Continuous
 62
     7
370
    15
100
AcDbSpline
210
0.0
220
0.0
230
1.0
 70
     8
 71
     3
 72
     8
 73
     4
 74
     0
 42
0.000000001
 43
0.00000001
 40
0.0
 40
0.0
 40
0.0
 40
0.0
 40
1.0
 40
1.0
 40
1.0
 40
1.0
 10
173.7525274284877
 20
76.53394805774802
 30
0.0
 10
172.5774906306607
 20
74.4007817636027
 30
0.0
 10
171.3962434232217
 20
72.27106300662102
 30
0.0
 10
170.2109095537691
 20
70.14365398401007
 30
0.0
  0
SPLINE
  5
AF
330
1F
100
AcDbEntity
  8
0
  6
Continuous
 62
     7
370
    15
100
AcDbSpline
210
0.0
220
0.0
230
1.0
 70
     8
 71
     3
 72
     8
 73
     4
 74
     0
 42
0.000000001
 43
0.00000001
 40
0.0
 40
0.0
 40
0.0
 40
0.0
 40
0.0012417047560385
 40
0.0012417047560385
 40
0.0012417047560385
 40
0.0012417047560385
 10
169.6533405172414
 20
69.35913264246665
 30
0.0
 10
169.8396547568667
 20
69.6204767895839
 30
0.0
 10
170.0255210024746
 20
69.88198089846149
 30
0.0
 10
170.2109095537691
 20
70.14365398401007
 30
0.0
  0
LINE
  5
B0
330
1F
100
AcDbEntity
  8
0
  6
Continuous
 62
     7
370
    15
100
AcDbLine
 10
191.9783405172
 20
68.4642241379
 30
0.0
 11
191.9783405172
 21
166.4642154695
 31
0.0
  0
LINE
  5
B1
330
1F
100
AcDbEntity
  8
0
  6
Continuous
 62
     7
370
    15
100
AcDbLine
 10
156.9783405172
 20
70.462335878
 30
0.0
 11
156.9783405172
 21
164.4661123979
 31
0.0
  0
SPLINE
  5
B2
330
1F
100
AcDbEntity
  8
0
  6
Continuous
 62
     7
370
    15
100
AcDbSpline
210
0.0
220
0.0
230
1.0
 70
     8
 71
     3
 72
    12
 73
     8
 74
     0
 42
0.000000001
 43
0.00000001
 40
0.0
 40
0.0
 40
0.0
 40
0.0
 40
0.2500000000000001
 40
0.2500000000000001
 40
0.5000000000000002
 40
0.5000000000000002
 40
1.0
 40
1.0
 40
1.0
 40
1.0
 10
157.364476937291
 20
165.3986578718023
 30
0.0
 10
157.3128468151813
 20
165.3424536010876
 30
0.0
 10
157.2643145821908
 20
165.2811641905672
 30
0.0
 10
157.174489445233
 20
165.1467021165225
 30
0.0
 10
157.1327791720205
 20
165.0725830462797
 30
0.0
 10
157.0266477918584
 20
164.8362754011112
 30
0.0
 10
156.9783405172413
 20
164.6544518584613
 30
0.0
 10
156.9783405172413
 20
164.4661123978722
 30
0.0
  0
SPLINE
  5
B3
330
1F
100
AcDbEntity
  8
0
  6
Continuous
 62
     7
370
    15
100
AcDbSpline
210
0.0
220
0.0
230
1.0
 70
     8
 71
     3
 72
     8
 73
     4
 74
     0
 42
0.000000001
 43
0.00000001
 40
0.0
 40
0.0
 40
0.0
 40
0.0
 40
1.0
 40
1.0
 40
1.0
 40
1.0
 10
157.9783405172413
 20
165.5693156333954
 30
0.0
 10
157.7514462735415
 20
165.5693156333954
 30
0.0
 10
157.5335966276152
 20
165.5053034664266
 30
0.0
 10
157.364476937291
 20
165.3986578718023
 30
0.0
  0
SPLINE
  5
B4
330
1F
100
AcDbEntity
  8
0
  6
Continuous
 62
     7
370
    15
100
AcDbSpline
210
0.0
220
0.0
230
1.0
 70
     8
 71
     3
 72
    10
 73
     6
 74
     0
 42
0.000000001
 43
0.00000001
 40
0.0
 40
0.0
 40
0.0
 40
0.0
 40
0.5
 40
0.5
 40
1.0
 40
1.0
 40
1.0
 40
1.0
 10
157.364476937291
 20
69.52979040405977
 30
0.0
 10
157.4490875780218
 20
69.47643557544708
 30
0.0
 10
157.5443222001284
 20
69.43386611349688
 30
0.0
 10
157.7543595593083
 20
69.37458377881592
 30
0.0
 10
157.8647914640923
 20
69.35913264246665
 30
0.0
 10
157.9783405172413
 20
69.35913264246665
 30
0.0
  0
SPLINE
  5
B5
330
1F
100
AcDbEntity
  8
0
  6
Continuous
 62
     7
370
    15
100
AcDbSpline
210
0.0
220
0.0
230
1.0
 70
     8
 71
     3
 72
    12
 73
     8
 74
     0
 42
0.000000001
 43
0.00000001
 40
0.0
 40
0.0
 40
0.0
 40
0.0
 40
0.2500000000000039
 40
0.2500000000000039
 40
0.5000000000000079
 40
0.5000000000000079
 40
1.0
 40
1.0
 40
1.0
 40
1.0
 10
157.364476937291
 20
69.52979040405977
 30
0.0
 10
157.3128468151813
 20
69.5859946747744
 30
0.0
 10
157.2643145821908
 20
69.6472840852948
 30
0.0
 10
157.174489445233
 20
69.78174615933952
 30
0.0
 10
157.1327791720205
 20
69.85586522958235
 30
0.0
 10
157.0266477918584
 20
70.09217287475079
 30
0.0
 10
156.9783405172413
 20
70.2739964174007
 30
0.0
 10
156.9783405172413
 20
70.4623358779898
 30
0.0
  0
SPLINE
  5
B6
330
1F
100
AcDbEntity
  8
0
  6
Continuous
 62
     7
370
    15
100
AcDbSpline
210
0.0
220
0.0
230
1.0
 70
     8
 71
     3
 72
    10
 73
     6
 74
     0
 42
0.000000001
 43
0.00000001
 40
0.0
 40
0.0
 40
0.0
 40
0.0
 40
0.5
 40
0.5
 40
1.0
 40
1.0
 40
1.0
 40
1.0
 10
174.1283405172413
 20
76.88469292378184
 30
0.0
 10
174.0493404489901
 20
76.84892868917396
 30
0.0
 10
173.9755831987135
 20
76.79943908561451
 30
0.0
 10
173.8475280755802
 20
76.67915059411156
 30
0.0
 10
173.7946780411686
 20
76.61046844112224
 30
0.0
 10
173.7525274284876
 20
76.53394805774802
 30
0.0
  0
SPLINE
  5
B7
330
1F
100
AcDbEntity
  8
0
  6
Continuous
 62
     7
370
    15
100
AcDbSpline
210
0.0
220
0.0
230
1.0
 70
     8
 71
     3
 72
    10
 73
     6
 74
     0
 42
0.000000001
 43
0.00000001
 40
0.0
 40
0.0
 40
0.0
 40
0.0
 40
0.5
 40
0.5
 40
1.0
 40
1.0
 40
1.0
 40
1.0
 10
174.1283405172413
 20
158.0437553520802
 30
0.0
 10
174.0490540695586
 20
158.0796492339327
 30
0.0
 10
173.975541850438
 20
158.1291509437836
 30
0.0
 10
173.8485893975673
 20
158.2481986404522
 30
0.0
 10
173.7945235488307
 20
158.3182603007205
 30
0.0
 10
173.7525274284876
 20
158.394500218114
 30
0.0
  0
SPLINE
  5
B8
330
1F
100
AcDbEntity
  8
0
  6
Continuous
 62
     7
370
    15
100
AcDbSpline
210
0.0
220
0.0
230
1.0
 70
     8
 71
     3
 72
     8
 73
     4
 74
     0
 42
0.000000001
 43
0.00000001
 40
0.0
 40
0.0
 40
0.0
 40
0.0
 40
1.0
 40
1.0
 40
1.0
 40
1.0
 10
174.4453477515152
 20
157.9762963335937
 30
0.0
 10
174.3356459662135
 20
157.9754379163944
 30
0.0
 10
174.228298945229
 20
157.9985030282691
 30
0.0
 10
174.1283405172413
 20
158.04375535208
 30
0.0
  0
SPLINE
  5
B9
330
1F
100
AcDbEntity
  8
0
  6
Continuous
 62
     7
370
    15
100
AcDbSpline
210
0.0
220
0.0
230
1.0
 70
     8
 71
     3
 72
     8
 73
     4
 74
     0
 42
0.000000001
 43
0.00000001
 40
0.0
 40
0.0
 40
0.0
 40
0.0
 40
1.0
 40
1.0
 40
1.0
 40
1.0
 10
174.4453477515152
 20
76.95215194226837
 30
0.0
 10
174.3356459662135
 20
76.95301035946771
 30
0.0
 10
174.228298945229
 20
76.92994524759291
 30
0.0
 10
174.1283405172412
 20
76.884692923782
 30
0.0
  0
SPLINE
  5
BA
330
1F
100
AcDbEntity
  8
0
  6
Continuous
 62
     7
370
    15
100
AcDbSpline
210
0.0
220
0.0
230
1.0
 70
     8
 71
     3
 72
    12
 73
     8
 74
     0
 42
0.000000001
 43
0.00000001
 40
0.0
 40
0.0
 40
0.0
 40
0.0
 40
0.2500000000000049
 40
0.2500000000000049
 40
0.5000000000000098
 40
0.5000000000000098
 40
1.0
 40
1.0
 40
1.0
 40
1.0
 10
180.604153605995
 20
158.9036215172423
 30
0.0
 10
180.5679331846081
 20
158.8330144491425
 30
0.0
 10
180.5250075099602
 20
158.7692798578168
 30
0.0
 10
180.4274809267012
 20
158.6535056815683
 30
0.0
 10
180.3720494070845
 20
158.6009578375568
 30
0.0
 10
180.1935615041804
 20
158.4668092343425
 30
0.0
 10
180.0567246755325
 20
158.4062871322786
 30
0.0
 10
179.9113332829681
 20
158.3857405483502
 30
0.0
  0
SPLINE
  5
BB
330
1F
100
AcDbEntity
  8
0
  6
Continuous
 62
     7
370
    15
100
AcDbSpline
210
0.0
220
0.0
230
1.0
 70
     8
 71
     3
 72
    12
 73
     8
 74
     0
 42
0.000000001
 43
0.00000001
 40
0.0
 40
0.0
 40
0.0
 40
0.0
 40
0.249999999999999
 40
0.249999999999999
 40
0.499999999999998
 40
0.499999999999998
 40
1.0
 40
1.0
 40
1.0
 40
1.0
 10
180.604153605995
 20
76.02482675861971
 30
0.0
 10
180.567933184608
 20
76.09543382671966
 30
0.0
 10
180.5250075099601
 20
76.15916841804537
 30
0.0
 10
180.4274809267011
 20
76.27494259429379
 30
0.0
 10
180.3720494070845
 20
76.3274904383052
 30
0.0
 10
180.1935615041803
 20
76.46163904151959
 30
0.0
 10
180.0567246755325
 20
76.5221611435834
 30
0.0
 10
179.9113332829681
 20
76.5427077275118
 30
0.0
  0
SPLINE
  5
BC
330
1F
100
AcDbEntity
  8
0
  6
Continuous
 62
     7
370
    15
100
AcDbSpline
210
0.0
220
0.0
230
1.0
 70
    11
 71
     3
 72
    66
 73
    62
 74
     0
 42
0.000000001
 43
0.00000001
 40
0.0
 40
0.0
 40
0.0
 40
0.0
 40
0.0312499999999999
 40
0.0312499999999999
 40
0.0624999999999999
 40
0.0624999999999999
 40
0.0937499999999998
 40
0.0937499999999998
 40
0.1249999999999997
 40
0.1249999999999997
 40
0.1562499999999997
 40
0.1562499999999997
 40
0.1874999999999996
 40
0.1874999999999996
 40
0.2187499999999995
 40
0.2187499999999995
 40
0.2499999999999994
 40
0.2499999999999994
 40
0.2812499999999994
 40
0.2812499999999994
 40
0.3124999999999993
 40
0.3124999999999993
 40
0.3437499999999992
 40
0.3437499999999992
 40
0.3749999999999992
 40
0.3749999999999992
 40
0.4062499999999991
 40
0.4062499999999991
 40
0.437499999999999
 40
0.437499999999999
 40
0.4687499999999989
 40
0.4687499999999989
 40
0.4999999999999989
 40
0.4999999999999989
 40
0.5312499999999988
 40
0.5312499999999988
 40
0.5624999999999988
 40
0.5624999999999988
 40
0.6249999999999987
 40
0.6249999999999987
 40
0.6562499999999988
 40
0.6562499999999988
 40
0.6874999999999989
 40
0.6874999999999989
 40
0.7187499999999991
 40
0.7187499999999991
 40
0.7499999999999992
 40
0.7499999999999992
 40
0.7812499999999993
 40
0.7812499999999993
 40
0.8124999999999996
 40
0.8124999999999996
 40
0.8437499999999997
 40
0.8437499999999997
 40
0.8749999999999998
 40
0.8749999999999998
 40
0.90625
 40
0.90625
 40
0.9375000000000001
 40
0.9375000000000001
 40
1.0
 40
1.0
 40
1.0
 40
1.0
 10
177.1783405172413
 20
100.6043068270877
 30
0.0
 10
177.3435408079052
 20
100.6043068270877
 30
0.0
 10
177.5059733492018
 20
100.6192128564455
 30
0.0
 10
177.8255315047918
 20
100.677648035188
 30
0.0
 10
177.9843148427688
 20
100.7218890875637
 30
0.0
 10
178.2870528592482
 20
100.8374806329862
 30
0.0
 10
178.4306320243825
 20
100.9082566032049
 30
0.0
 10
178.7023617542505
 20
101.0756951351175
 30
0.0
 10
178.8309903177883
 20
101.1732344074381
 30
0.0
 10
179.0615560794554
 20
101.3866527676396
 30
0.0
 10
179.1650300807048
 20
101.5032674196657
 30
0.0
 10
179.3477906186306
 20
101.7569927836854
 30
0.0
 10
179.4254348748592
 20
101.8922856427542
 30
0.0
 10
179.5501275255493
 20
102.1726319981458
 30
0.0
 10
179.5981315061277
 20
102.3197528739818
 30
0.0
 10
179.662363248446
 20
102.6217429783591
 30
0.0
 10
179.6782526924882
 20
102.7738667459283
 30
0.0
 10
179.6784276228434
 20
103.0803493887546
 30
0.0
 10
179.6621969715085
 20
103.2363353098202
 30
0.0
 10
179.5984157487989
 20
103.5389147787896
 30
0.0
 10
179.5512236374026
 20
103.6862932901818
 30
0.0
 10
179.4260570197447
 20
103.9730819955595
 30
0.0
 10
179.3477975323696
 20
104.1120390970974
 30
0.0
 10
179.1668773490143
 20
104.3696327573654
 30
0.0
 10
179.0635921200904
 20
104.4899253010664
 30
0.0
 10
178.8303403780417
 20
104.712646118713
 30
0.0
 10
178.7039265097761
 20
104.8116240227049
 30
0.0
 10
178.4332542390815
 20
104.9848408773141
 30
0.0
 10
178.2871724669172
 20
105.0598219147908
 30
0.0
 10
177.9842880214444
 20
105.1801500848866
 30
0.0
 10
177.8284576618046
 20
105.2255337723758
 30
0.0
 10
177.5081121725392
 20
105.2869600327968
 30
0.0
 10
177.3424020865675
 20
105.3027136543165
 30
0.0
 10
177.0160706978711
 20
105.302825899572
 30
0.0
 10
176.8538836120441
 20
105.287693669666
 30
0.0
 10
176.5315080308355
 20
105.2264415564855
 30
0.0
 10
176.373492556798
 20
105.1804348131103
 30
0.0
 10
175.9220816817224
 20
105.0015540838683
 30
0.0
 10
175.6430022246703
 20
104.8234019765694
 30
0.0
 10
175.2969285201719
 20
104.4939055602824
 30
0.0
 10
175.1912865042572
 20
104.3715327204423
 30
0.0
 10
175.0095030282864
 20
104.1131300163278
 30
0.0
 10
174.9326152049025
 20
103.9768984507795
 30
0.0
 10
174.8069606475322
 20
103.6904629888934
 30
0.0
 10
174.7586525716175
 20
103.5401559043179
 30
0.0
 10
174.6948346861772
 20
103.2385879742333
 30
0.0
 10
174.6785065091343
 20
103.0857219117688
 30
0.0
 10
174.6781770190746
 20
102.7757067950253
 30
0.0
 10
174.6942735309093
 20
102.6228377946727
 30
0.0
 10
174.7575022681705
 20
102.3238050288978
 30
0.0
 10
174.805338861581
 20
102.175739432475
 30
0.0
 10
174.9306821794945
 20
101.8931823943295
 30
0.0
 10
175.0073788540197
 20
101.7595660622058
 30
0.0
 10
175.1884302206714
 20
101.5072761922736
 30
0.0
 10
175.2939058310323
 20
101.3879328832057
 30
0.0
 10
175.5244323997086
 20
101.1742491037209
 30
0.0
 10
175.6501518373389
 20
101.0785891290611
 30
0.0
 10
175.9229186865357
 20
100.9098680600573
 30
0.0
 10
176.0686380629417
 20
100.8380008514041
 30
0.0
 10
176.5197071680498
 20
100.6653497741356
 30
0.0
 10
176.8479399359136
 20
100.6043068270877
 30
0.0
 10
177.1783405172413
 20
100.6043068270877
 30
0.0
  0
SPLINE
  5
BD
330
1F
100
AcDbEntity
  8
0
  6
Continuous
 62
     7
370
    15
100
AcDbSpline
210
0.0
220
0.0
230
1.0
 70
     8
 71
     3
 72
    10
 73
     6
 74
     0
 42
0.000000001
 43
0.00000001
 40
0.0
 40
0.0
 40
0.0
 40
0.0
 40
0.5
 40
0.5
 40
1.0
 40
1.0
 40
1.0
 40
1.0
 10
179.9113332829674
 20
158.3857405483531
 30
0.0
 10
179.0637689161992
 20
158.265963496292
 30
0.0
 10
178.1830554804773
 20
158.1672733166282
 30
0.0
 10
176.3554992292617
 20
158.0260009103911
 30
0.0
 10
175.4020668261604
 20
157.9837826667135
 30
0.0
 10
174.4453477515152
 20
157.9762963335937
 30
0.0
  0
SPLINE
  5
BE
330
1F
100
AcDbEntity
  8
0
  6
Continuous
 62
     7
370
    15
100
AcDbSpline
210
0.0
220
0.0
230
1.0
 70
     8
 71
     3
 72
    10
 73
     6
 74
     0
 42
0.000000001
 43
0.00000001
 40
0.0
 40
0.0
 40
0.0
 40
0.0
 40
0.5
 40
0.5
 40
1.0
 40
1.0
 40
1.0
 40
1.0
 10
179.9113332829674
 20
76.54270772750898
 30
0.0
 10
179.0637689161992
 20
76.66248477957002
 30
0.0
 10
178.1830554804773
 20
76.76117495923384
 30
0.0
 10
176.3554992292617
 20
76.90244736547098
 30
0.0
 10
175.4020668261604
 20
76.94466560914857
 30
0.0
 10
174.4453477515152
 20
76.95215194226839
 30
0.0
  0
LINE
  5
BF
330
1F
100
AcDbEntity
  8
0
  6
Continuous
 62
     7
370
    15
100
AcDbLine
 10
153.9783405172
 20
82.5392241379
 30
0.0
 11
153.9783405172
 21
152.3892241379
 31
0.0
  0
LINE
  5
C0
330
1F
100
AcDbEntity
  8
0
  6
Continuous
 62
     7
370
    15
100
AcDbLine
 10
52.1783405172
 20
99.1145462772
 30
0.0
 11
52.1783405172
 21
135.8139019936
 31
0.0
  0
LINE
  5
C1
330
1F
100
AcDbEntity
  8
0
  6
Continuous
 62
     7
370
    15
100
AcDbLine
 10
257.9783405172
 20
117.4642241379
 30
0.0
 11
257.9783405172
 21
105.1642241379
 31
0.0
  0
LINE
  5
C2
330
1F
100
AcDbEntity
  8
0
  6
Continuous
 62
     7
370
    15
100
AcDbLine
 10
257.9783405172
 20
129.7642241379
 30
0.0
 11
257.9783405172
 21
117.4642241379
 31
0.0
  0
LINE
  5
C3
330
1F
100
AcDbEntity
  8
0
  6
Continuous
 62
     7
370
    15
100
AcDbLine
 10
257.7783405172
 20
117.4642241379
 30
0.0
 11
257.7783405172
 21
104.9642241379
 31
0.0
  0
LINE
  5
C4
330
1F
100
AcDbEntity
  8
0
  6
Continuous
 62
     7
370
    15
100
AcDbLine
 10
257.7783405172
 20
129.9642241379
 30
0.0
 11
257.7783405172
 21
117.4642241379
 31
0.0
  0
SPLINE
  5
C5
330
1F
100
AcDbEntity
  8
0
  6
Continuous
 62
     7
370
    15
100
AcDbSpline
210
0.0
220
0.0
230
1.0
 70
    11
 71
     3
 72
    78
 73
    74
 74
     0
 42
0.000000001
 43
0.00000001
 40
0.0
 40
0.0
 40
0.0
 40
0.0
 40
0.0312500000000009
 40
0.0312500000000009
 40
0.0625000000000019
 40
0.0625000000000019
 40
0.0937500000000028
 40
0.0937500000000028
 40
0.1250000000000037
 40
0.1250000000000037
 40
0.1562500000000047
 40
0.1562500000000047
 40
0.1875000000000056
 40
0.1875000000000056
 40
0.2187500000000066
 40
0.2187500000000066
 40
0.2500000000000075
 40
0.2500000000000075
 40
0.2812500000000084
 40
0.2812500000000084
 40
0.2968750000000084
 40
0.2968750000000084
 40
0.3125000000000085
 40
0.3125000000000085
 40
0.3437500000000079
 40
0.3437500000000079
 40
0.3593750000000076
 40
0.3593750000000076
 40
0.3750000000000073
 40
0.3750000000000073
 40
0.4062500000000068
 40
0.4062500000000068
 40
0.4375000000000062
 40
0.4375000000000062
 40
0.4687500000000057
 40
0.4687500000000057
 40
0.5000000000000051
 40
0.5000000000000051
 40
0.5312500000000044
 40
0.5312500000000044
 40
0.5625000000000039
 40
0.5625000000000039
 40
0.5937500000000032
 40
0.5937500000000032
 40
0.6250000000000027
 40
0.6250000000000027
 40
0.656250000000002
 40
0.656250000000002
 40
0.6875000000000014
 40
0.6875000000000014
 40
0.7187500000000009
 40
0.7187500000000009
 40
0.7500000000000003
 40
0.7500000000000003
 40
0.7812499999999999
 40
0.7812499999999999
 40
0.8124999999999993
 40
0.8124999999999993
 40
0.8281249999999994
 40
0.8281249999999994
 40
0.8437499999999994
 40
0.8437499999999994
 40
0.8593749999999994
 40
0.8593749999999994
 40
0.8749999999999994
 40
0.8749999999999994
 40
0.9062499999999997
 40
0.9062499999999997
 40
0.9374999999999998
 40
0.9374999999999998
 40
0.96875
 40
0.96875
 40
1.0
 40
1.0
 40
1.0
 40
1.0
 10
245.6366602751997
 20
120.6566191549639
 30
0.0
 10
245.8797471960087
 20
120.8383238099688
 30
0.0
 10
246.1359254698927
 20
120.9950712867862
 30
0.0
 10
246.6722740301609
 20
121.2642063789411
 30
0.0
 10
246.9534136512162
 20
121.3768228730416
 30
0.0
 10
247.5364532766598
 20
121.5562614809574
 30
0.0
 10
247.8321563525016
 20
121.6213354962844
 30
0.0
 10
248.4316288215275
 20
121.7047626172589
 30
0.0
 10
248.7370523710801
 20
121.7230549559541
 30
0.0
 10
249.3490875289602
 20
121.7109316087837
 30
0.0
 10
249.6507154287133
 20
121.6808890047298
 30
0.0
 10
250.2454824665947
 20
121.5740566409202
 30
0.0
 10
250.540058181274
 20
121.4967724909685
 30
0.0
 10
251.1140048167715
 20
121.2941280405563
 30
0.0
 10
251.388244705731
 20
121.1708654070027
 30
0.0
 10
251.9115657494346
 20
120.8797965891485
 30
0.0
 10
252.1618701097933
 20
120.711070247774
 30
0.0
 10
252.6294266317327
 20
120.3268464735379
 30
0.0
 10
252.8413108370584
 20
120.1161067475287
 30
0.0
 10
253.124891014337
 20
119.7700677568083
 30
0.0
 10
253.2136660708447
 20
119.6496957368939
 30
0.0
 10
253.378832481288
 20
119.3980059120695
 30
0.0
 10
253.4556857513596
 20
119.2657418500119
 30
0.0
 10
253.661847897283
 20
118.8578078175462
 30
0.0
 10
253.7663913241298
 20
118.5736161925968
 30
0.0
 10
253.8696952697576
 20
118.1271792141249
 30
0.0
 10
253.8950631462483
 20
117.9742859993039
 30
0.0
 10
253.9256297816024
 20
117.6705671069681
 30
0.0
 10
253.9311532418913
 20
117.5187191702261
 30
0.0
 10
253.9187349111623
 20
117.0632095667009
 30
0.0
 10
253.870347829801
 20
116.7555728310635
 30
0.0
 10
253.7019782551854
 20
116.1710713421955
 30
0.0
 10
253.5816273069981
 20
115.8893796362203
 30
0.0
 10
253.2805615757652
 20
115.3604372493015
 30
0.0
 10
253.1027201918305
 20
115.1168379249645
 30
0.0
 10
252.697992446401
 20
114.6662770257107
 30
0.0
 10
252.4727156843918
 20
114.4619202661051
 30
0.0
 10
251.9918625726027
 20
114.100138462653
 30
0.0
 10
251.7324344275782
 20
113.9399094084784
 30
0.0
 10
251.1911551222252
 20
113.6669784608886
 30
0.0
 10
250.9110276278717
 20
113.5546164048735
 30
0.0
 10
250.3324019323363
 20
113.3753512935326
 30
0.0
 10
250.0311827902055
 20
113.3083056805454
 30
0.0
 10
249.4281773572707
 20
113.2238585545565
 30
0.0
 10
249.1254253494408
 20
113.2056944833225
 30
0.0
 10
248.5174400458358
 20
113.2169162060571
 30
0.0
 10
248.2095072454717
 20
113.2470096955008
 30
0.0
 10
247.6108021676609
 20
113.3543767146666
 30
0.0
 10
247.3186555910398
 20
113.4312086557015
 30
0.0
 10
246.7487300361815
 20
113.6319357592987
 30
0.0
 10
246.4684432994871
 20
113.7574488634745
 30
0.0
 10
245.9416643916962
 20
114.0507020398323
 30
0.0
 10
245.6937931666999
 20
114.2183305873837
 30
0.0
 10
245.2304883668679
 20
114.5988285866024
 30
0.0
 10
245.0129487999412
 20
114.8145722517664
 30
0.0
 10
244.63120625165
 20
115.2818581936207
 30
0.0
 10
244.4655776652178
 20
115.5335216639704
 30
0.0
 10
244.2600554976701
 20
115.9423109777786
 30
0.0
 10
244.1991520806958
 20
116.08343363213
 30
0.0
 10
244.0959704975151
 20
116.3686015382988
 30
0.0
 10
244.053194427817
 20
116.5135783885909
 30
0.0
 10
243.9857054072253
 20
116.8084599928428
 30
0.0
 10
243.9609884910959
 20
116.9583636561326
 30
0.0
 10
243.9307079849051
 20
117.2634110103534
 30
0.0
 10
243.9253668627994
 20
117.4186055184954
 30
0.0
 10
243.93910325747
 20
117.8766654590282
 30
0.0
 10
243.9869283841875
 20
118.1774217842177
 30
0.0
 10
244.1587639100668
 20
118.7689267499813
 30
0.0
 10
244.2791434901081
 20
119.0476120531391
 30
0.0
 10
244.5809889300285
 20
119.5751670849511
 30
0.0
 10
244.7624068743738
 20
119.8222403233544
 30
0.0
 10
245.1668012905672
 20
120.2699237912113
 30
0.0
 10
245.3935733543908
 20
120.4749144999589
 30
0.0
 10
245.6366602751997
 20
120.6566191549639
 30
0.0
  0
LINE
  5
C6
330
1F
100
AcDbEntity
  8
0
  6
Continuous
 62
     7
370
     0
100
AcDbLine
 10
180.604153606
 20
76.0248267586
 30
0.0
 11
180.604153606
 21
158.9036215172
 31
0.0
  0
LINE
  5
C7
330
1F
100
AcDbEntity
  8
0
  6
Continuous
 62
     7
370
     0
100
AcDbLine
 10
190.9783405172
 20
67.4642241379
 30
0.0
 11
190.9783405172
 21
167.4642241379
 31
0.0
  0
LINE
  5
C8
330
1F
100
AcDbEntity
  8
0
  6
Continuous
 62
     7
370
     0
100
AcDbLine
 10
157.9783405172
 20
69.3591326425
 30
0.0
 11
157.9783405172
 21
165.5693156334
 31
0.0
  0
LINE
  5
C9
330
1F
100
AcDbEntity
  8
0
  6
Continuous
 62
     7
370
     0
100
AcDbLine
 10
173.7525274285
 20
76.5339480577
 30
0.0
 11
173.7525274285
 21
158.3945002181
 31
0.0
  0
LINE
  5
CA
330
1F
100
AcDbEntity
  8
0
  6
Continuous
 62
     7
370
     0
100
AcDbLine
 10
174.4453477515
 20
76.9521519423
 30
0.0
 11
174.4453477515
 21
157.9762963336
 31
0.0
  0
LINE
  5
CB
330
1F
100
AcDbEntity
  8
0
  6
Continuous
 62
     7
370
     0
100
AcDbLine
 10
179.911333283
 20
76.5427077275
 30
0.0
 11
179.911333283
 21
158.3857405484
 31
0.0
  0
LINE
  5
CC
330
1F
100
AcDbEntity
  8
0
  6
Continuous
 62
     7
370
     0
100
AcDbLine
 10
155.9783405172
 20
82.5392241379
 30
0.0
 11
155.9783405172
 21
152.3892241379
 31
0.0
  0
LINE
  5
CD
330
1F
100
AcDbEntity
  8
0
  6
Continuous
 62
     7
370
     0
100
AcDbLine
 10
53.8897267311
 20
97.1354803151
 30
0.0
 11
53.8897267311
 21
137.7929679608
 31
0.0
  0
LINE
  5
CE
330
1F
100
AcDbEntity
  8
0
  6
Continuous
 62
     7
370
     0
100
AcDbLine
 10
194.9783405172
 20
129.9642241379
 30
0.0
 11
194.9783405172
 21
104.9642241379
 31
0.0
  0
LWPOLYLINE
  5
CF
330
1F
100
AcDbEntity
  8
0
  6
HIDDEN
 62
     7
370
     0
100
AcDbPolyline
 90
       20
 70
   128
 43
0.0
 10
157.7663176336
 20
105.5060170797
 10
157.5512814644
 20
104.9939192056
 10
157.4583796318
 20
104.3128957599
 10
157.4976794907
 20
103.5367462003
 10
157.6649222916
 20
102.7495783747
 10
157.9419846822
 20
102.0366941311
 10
158.2988426532
 20
101.475345539
 10
158.6968251062
 20
101.1263634284
 10
159.0928044673
 20
101.0275654261
 10
159.4438702283
 20
101.1896578287
 10
159.7119789666
 20
101.5950754091
 10
159.8680769405
 20
102.199884882
 10
159.8952485122
 20
102.9385457561
 10
159.7905492204
 20
103.7310126645
 10
159.5653248579
 20
104.4914095211
 10
159.2439819791
 20
105.1373355278
 10
158.8613430711
 20
105.5987945791
 10
158.4588729968
 20
105.8257804266
 10
158.0801856337
 20
105.7936956317
 10
157.7663176336
 20
105.5060170797
  0
LWPOLYLINE
  5
D0
330
1F
100
AcDbEntity
  8
0
  6
HIDDEN
 62
     7
370
     0
100
AcDbPolyline
 90
       22
 70
   128
 43
0.0
 10
157.8367728313
 20
106.0303372668
 10
157.5919820559
 20
105.472149217
 10
157.4683538763
 20
104.737822217
 10
157.4768731989
 20
103.8926044431
 10
157.6167830445
 20
103.0115972039
 10
157.8756518093
 20
102.1730818588
 10
158.2304778676
 20
101.4515641759
 10
158.6497333668
 20
100.9111541677
 10
159.0961656161
 20
100.599869635
 10
159.530107151
 20
100.5453695745
 10
159.9130003617
 20
100.7524965559
 10
160.2108235062
 20
101.2028464377
 10
160.3971136912
 20
101.8564036568
 10
160.4553182161
 20
102.6550967861
 10
160.3802653536
 20
103.5279584361
 10
160.1786238797
 20
104.3974310186
 10
159.8683105244
 20
105.1862580791
 10
159.4768979911
 20
105.8243488716
 10
159.0391650009
 20
106.2550062289
 10
158.5940060512
 20
106.439964355
 10
158.180975468
 20
106.3627889086
 10
157.8367728313
 20
106.0303372668
  0
LWPOLYLINE
  5
D1
330
1F
100
AcDbEntity
  8
0
  6
HIDDEN
 62
     7
370
     0
100
AcDbPolyline
 90
       22
 70
   128
 43
0.0
 10
161.0236244465
 20
106.6596302653
 10
160.778833671
 20
106.1014422155
 10
160.6552054915
 20
105.3671152154
 10
160.6637248141
 20
104.5218974416
 10
160.8036346597
 20
103.6408902024
 10
161.0625034245
 20
102.8023748573
 10
161.4173294827
 20
102.0808571744
 10
161.8365849819
 20
101.5404471662
 10
162.2830172313
 20
101.2291626335
 10
162.7169587661
 20
101.174662573
 10
163.0998519769
 20
101.3817895543
 10
163.3976751214
 20
101.8321394362
 10
163.5839653063
 20
102.4856966553
 10
163.6421698313
 20
103.2843897846
 10
163.5671169687
 20
104.1572514345
 10
163.3654754948
 20
105.0267240171
 10
163.0551621395
 20
105.8155510776
 10
162.6637496062
 20
106.4536418701
 10
162.2260166161
 20
106.8842992274
 10
161.7808576663
 20
107.0692573534
 10
161.3678270832
 20
106.992081907
 10
161.0236244465
 20
106.6596302653
  0
LINE
  5
D2
330
1F
100
AcDbEntity
  8
0
  6
HIDDEN
 62
     7
370
     0
100
AcDbLine
 10
158.5017538091
 20
101.9462778723
 30
0.0
 11
159.3242902094
 21
101.9682990581
 31
0.0
  0
LINE
  5
D3
330
1F
100
AcDbEntity
  8
0
  6
HIDDEN
 62
     7
370
     0
100
AcDbLine
 10
159.5008769175
 20
103.4570905211
 30
0.0
 11
159.3242902094
 21
101.9682990581
 31
0.0
  0
LINE
  5
D4
330
1F
100
AcDbEntity
  8
0
  6
HIDDEN
 62
     7
370
     0
100
AcDbLine
 10
158.8549272254
 20
104.9238607984
 30
0.0
 11
159.5008769175
 21
103.4570905211
 31
0.0
  0
LINE
  5
D5
330
1F
100
AcDbEntity
  8
0
  6
HIDDEN
 62
     7
370
     0
100
AcDbLine
 10
158.8549272254
 20
104.9238607984
 30
0.0
 11
158.0323908251
 21
104.9018396126
 31
0.0
  0
LINE
  5
D6
330
1F
100
AcDbEntity
  8
0
  6
HIDDEN
 62
     7
370
     0
100
AcDbLine
 10
157.855804117
 20
103.4130481496
 30
0.0
 11
158.0323908251
 21
104.9018396126
 31
0.0
  0
LINE
  5
D7
330
1F
100
AcDbEntity
  8
0
  6
HIDDEN
 62
     7
370
     0
100
AcDbLine
 10
157.855804117
 20
103.4130481496
 30
0.0
 11
158.5017538091
 21
101.9462778723
 31
0.0
  0
LWPOLYLINE
  5
D8
330
1F
100
AcDbEntity
  8
0
  6
HIDDEN
 62
     7
370
     0
100
AcDbPolyline
 90
       18
 70
   128
 43
0.0
 10
162.2625890789
 20
105.9838001225
 10
162.0723399907
 20
105.5055840067
 10
162.0085201147
 20
104.8632127003
 10
162.0797486789
 20
104.1434420077
 10
162.276405871
 20
103.4434809494
 10
162.5719320474
 20
102.8578631449
 10
162.9264147606
 20
102.4656795237
 10
163.2919791557
 20
102.319896657
 10
163.6192537357
 20
102.4402033288
 10
163.8640382549
 20
102.8103514564
 10
163.9932732077
 20
103.3803504842
 10
163.9895046975
 20
104.0732188849
 10
163.8532416826
 20
104.7953809417
 10
163.6028872381
 20
105.4493046672
 10
163.2722531191
 20
105.9466740387
 10
162.9059932955
 20
106.2203165667
 10
162.5535731859
 20
106.2332753114
 10
162.2625890789
 20
105.9838001225
  0
LINE
  5
D9
330
1F
100
AcDbEntity
  8
0
  6
HIDDEN
 62
     7
370
     0
100
AcDbLine
 10
161.2329277251
 20
103.7991106644
 30
0.0
 11
159.5008769175
 21
103.4570905211
 31
0.0
  0
LINE
  5
DA
330
1F
100
AcDbEntity
  8
0
  6
HIDDEN
 62
     7
370
     0
100
AcDbLine
 10
160.5869780329
 20
105.2658809417
 30
0.0
 11
159.7644416327
 21
105.2438597559
 31
0.0
  0
LINE
  5
DB
330
1F
100
AcDbEntity
  8
0
  6
HIDDEN
 62
     7
370
     0
100
AcDbLine
 10
160.2338046167
 20
102.2882980157
 30
0.0
 11
161.0563410169
 21
102.3103192014
 31
0.0
  0
LINE
  5
DC
330
1F
100
AcDbEntity
  8
0
  6
HIDDEN
 62
     7
370
     0
100
AcDbLine
 10
159.5878549245
 20
103.7550682929
 30
0.0
 11
160.2338046167
 21
102.2882980157
 31
0.0
  0
LINE
  5
DD
330
1F
100
AcDbEntity
  8
0
  6
HIDDEN
 62
     7
370
     0
100
AcDbLine
 10
159.5878549245
 20
103.7550682929
 30
0.0
 11
159.7644416327
 21
105.2438597559
 31
0.0
  0
LINE
  5
DE
330
1F
100
AcDbEntity
  8
0
  6
HIDDEN
 62
     7
370
     0
100
AcDbLine
 10
160.5869780329
 20
105.2658809417
 30
0.0
 11
161.2329277251
 21
103.7991106644
 31
0.0
  0
LINE
  5
DF
330
1F
100
AcDbEntity
  8
0
  6
HIDDEN
 62
     7
370
     0
100
AcDbLine
 10
161.2329277251
 20
103.7991106644
 30
0.0
 11
161.0563410169
 21
102.3103192014
 31
0.0
  0
LINE
  5
E0
330
1F
100
AcDbEntity
  8
0
  6
HIDDEN
 62
     7
370
     0
100
AcDbLine
 10
160.5869780329
 20
105.2658809417
 30
0.0
 11
158.8549272254
 21
104.9238607984
 31
0.0
  0
LINE
  5
E1
330
1F
100
AcDbEntity
  8
0
  6
HIDDEN
 62
     7
370
     0
100
AcDbLine
 10
160.2338046167
 20
102.2882980157
 30
0.0
 11
158.5017538091
 21
101.9462778723
 31
0.0
  0
LINE
  5
E2
330
1F
100
AcDbEntity
  8
0
  6
HIDDEN
 62
     7
370
     0
100
AcDbLine
 10
161.0563410169
 20
102.3103192014
 30
0.0
 11
159.3242902094
 21
101.9682990581
 31
0.0
  0
LINE
  5
E3
330
1F
100
AcDbEntity
  8
0
  6
HIDDEN
 62
     7
370
     0
100
AcDbLine
 10
159.5878549245
 20
103.7550682929
 30
0.0
 11
157.855804117
 21
103.4130481496
 31
0.0
  0
LINE
  5
E4
330
1F
100
AcDbEntity
  8
0
  6
HIDDEN
 62
     7
370
     0
100
AcDbLine
 10
159.7644416327
 20
105.2438597559
 30
0.0
 11
158.0323908251
 21
104.9018396126
 31
0.0
  0
LWPOLYLINE
  5
E5
330
1F
100
AcDbEntity
  8
0
  6
HIDDEN
 62
     7
370
     0
100
AcDbPolyline
 90
       22
 70
   128
 43
0.0
 10
161.0236244465
 20
128.2688180106
 10
160.778833671
 20
128.8270060604
 10
160.6552054915
 20
129.5613330605
 10
160.6637248141
 20
130.4065508343
 10
160.8036346597
 20
131.2875580735
 10
161.0625034245
 20
132.1260734186
 10
161.4173294827
 20
132.8475911015
 10
161.836584982
 20
133.3880011097
 10
162.2830172313
 20
133.6992856424
 10
162.7169587661
 20
133.7537857029
 10
163.0998519769
 20
133.5466587215
 10
163.3976751214
 20
133.0963088397
 10
163.5839653063
 20
132.4427516206
 10
163.6421698313
 20
131.6440584913
 10
163.5671169687
 20
130.7711968413
 10
163.3654754949
 20
129.9017242588
 10
163.0551621396
 20
129.1128971983
 10
162.6637496062
 20
128.4748064058
 10
162.2260166161
 20
128.0441490485
 10
161.7808576663
 20
127.8591909224
 10
161.3678270832
 20
127.9363663688
 10
161.0236244465
 20
128.2688180106
  0
LWPOLYLINE
  5
E6
330
1F
100
AcDbEntity
  8
0
  6
HIDDEN
 62
     7
370
     0
100
AcDbPolyline
 90
       18
 70
   128
 43
0.0
 10
162.2625890789
 20
128.9446481534
 10
162.0723399907
 20
129.4228642692
 10
162.0085201147
 20
130.0652355756
 10
162.0797486789
 20
130.7850062682
 10
162.276405871
 20
131.4849673265
 10
162.5719320475
 20
132.070585131
 10
162.9264147606
 20
132.4627687522
 10
163.2919791557
 20
132.6085516189
 10
163.6192537357
 20
132.488244947
 10
163.8640382549
 20
132.1180968194
 10
163.9932732077
 20
131.5480977917
 10
163.9895046975
 20
130.855229391
 10
163.8532416826
 20
130.1330673342
 10
163.6028872381
 20
129.4791436087
 10
163.2722531191
 20
128.9817742371
 10
162.9059932955
 20
128.7081317091
 10
162.5535731859
 20
128.6951729645
 10
162.2625890789
 20
128.9446481534
  0
LWPOLYLINE
  5
E7
330
1F
100
AcDbEntity
  8
0
  6
HIDDEN
 62
     7
370
     0
100
AcDbPolyline
 90
       22
 70
   128
 43
0.0
 10
157.8367728313
 20
128.898111009
 10
157.5919820559
 20
129.4562990588
 10
157.4683538763
 20
130.1906260589
 10
157.4768731989
 20
131.0358438327
 10
157.6167830445
 20
131.9168510719
 10
157.8756518093
 20
132.755366417
 10
158.2304778676
 20
133.4768840999
 10
158.6497333668
 20
134.0172941081
 10
159.0961656161
 20
134.3285786408
 10
159.530107151
 20
134.3830787013
 10
159.9130003617
 20
134.17595172
 10
160.2108235062
 20
133.7256018381
 10
160.3971136912
 20
133.072044619
 10
160.4553182161
 20
132.2733514897
 10
160.3802653536
 20
131.4004898398
 10
160.1786238797
 20
130.5310172573
 10
159.8683105244
 20
129.7421901967
 10
159.4768979911
 20
129.1040994042
 10
159.039165001
 20
128.6734420469
 10
158.5940060512
 20
128.4884839209
 10
158.180975468
 20
128.5656593673
 10
157.8367728313
 20
128.898111009
  0
LWPOLYLINE
  5
E8
330
1F
100
AcDbEntity
  8
0
  6
HIDDEN
 62
     7
370
     0
100
AcDbPolyline
 90
       20
 70
   128
 43
0.0
 10
157.7663176336
 20
129.4224311961
 10
157.5512814645
 20
129.9345290703
 10
157.4583796318
 20
130.615552516
 10
157.4976794907
 20
131.3917020756
 10
157.6649222916
 20
132.1788699012
 10
157.9419846822
 20
132.8917541448
 10
158.2988426532
 20
133.4531027369
 10
158.6968251062
 20
133.8020848475
 10
159.0928044673
 20
133.9008828497
 10
159.4438702283
 20
133.7387904472
 10
159.7119789667
 20
133.3333728667
 10
159.8680769405
 20
132.7285633939
 10
159.8952485122
 20
131.9899025197
 10
159.7905492204
 20
131.1974356114
 10
159.5653248579
 20
130.4370387548
 10
159.2439819791
 20
129.7911127481
 10
158.8613430711
 20
129.3296536967
 10
158.4588729968
 20
129.1026678492
 10
158.0801856337
 20
129.1347526441
 10
157.7663176336
 20
129.4224311961
  0
LINE
  5
E9
330
1F
100
AcDbEntity
  8
0
  6
HIDDEN
 62
     7
370
     0
100
AcDbLine
 10
159.5878549246
 20
131.1733799829
 30
0.0
 11
159.7644416327
 21
129.6845885199
 31
0.0
  0
LINE
  5
EA
330
1F
100
AcDbEntity
  8
0
  6
HIDDEN
 62
     7
370
     0
100
AcDbLine
 10
157.855804117
 20
131.5154001263
 30
0.0
 11
158.0323908251
 21
130.0266086632
 31
0.0
  0
LINE
  5
EB
330
1F
100
AcDbEntity
  8
0
  6
HIDDEN
 62
     7
370
     0
100
AcDbLine
 10
159.5878549246
 20
131.1733799829
 30
0.0
 11
157.855804117
 21
131.5154001263
 31
0.0
  0
LINE
  5
EC
330
1F
100
AcDbEntity
  8
0
  6
HIDDEN
 62
     7
370
     0
100
AcDbLine
 10
159.5878549246
 20
131.1733799829
 30
0.0
 11
160.2338046167
 21
132.6401502602
 31
0.0
  0
LINE
  5
ED
330
1F
100
AcDbEntity
  8
0
  6
HIDDEN
 62
     7
370
     0
100
AcDbLine
 10
157.855804117
 20
131.5154001263
 30
0.0
 11
158.5017538091
 21
132.9821704035
 31
0.0
  0
LINE
  5
EE
330
1F
100
AcDbEntity
  8
0
  6
HIDDEN
 62
     7
370
     0
100
AcDbLine
 10
160.2338046167
 20
132.6401502602
 30
0.0
 11
158.5017538091
 21
132.9821704035
 31
0.0
  0
LINE
  5
EF
330
1F
100
AcDbEntity
  8
0
  6
HIDDEN
 62
     7
370
     0
100
AcDbLine
 10
160.2338046167
 20
132.6401502602
 30
0.0
 11
161.0563410169
 21
132.6181290745
 31
0.0
  0
LINE
  5
F0
330
1F
100
AcDbEntity
  8
0
  6
HIDDEN
 62
     7
370
     0
100
AcDbLine
 10
158.5017538091
 20
132.9821704035
 30
0.0
 11
159.3242902094
 21
132.9601492178
 31
0.0
  0
LINE
  5
F1
330
1F
100
AcDbEntity
  8
0
  6
HIDDEN
 62
     7
370
     0
100
AcDbLine
 10
160.5869780329
 20
129.6625673342
 30
0.0
 11
158.8549272254
 21
130.0045874775
 31
0.0
  0
LINE
  5
F2
330
1F
100
AcDbEntity
  8
0
  6
HIDDEN
 62
     7
370
     0
100
AcDbLine
 10
159.7644416327
 20
129.6845885199
 30
0.0
 11
158.0323908251
 21
130.0266086632
 31
0.0
  0
LINE
  5
F3
330
1F
100
AcDbEntity
  8
0
  6
HIDDEN
 62
     7
370
     0
100
AcDbLine
 10
160.5869780329
 20
129.6625673342
 30
0.0
 11
159.7644416327
 21
129.6845885199
 31
0.0
  0
LINE
  5
F4
330
1F
100
AcDbEntity
  8
0
  6
HIDDEN
 62
     7
370
     0
100
AcDbLine
 10
158.8549272254
 20
130.0045874775
 30
0.0
 11
158.0323908251
 21
130.0266086632
 31
0.0
  0
LINE
  5
F5
330
1F
100
AcDbEntity
  8
0
  6
HIDDEN
 62
     7
370
     0
100
AcDbLine
 10
161.2329277251
 20
131.1293376115
 30
0.0
 11
159.5008769175
 21
131.4713577548
 31
0.0
  0
LINE
  5
F6
330
1F
100
AcDbEntity
  8
0
  6
HIDDEN
 62
     7
370
     0
100
AcDbLine
 10
161.0563410169
 20
132.6181290745
 30
0.0
 11
159.3242902094
 21
132.9601492178
 31
0.0
  0
LINE
  5
F7
330
1F
100
AcDbEntity
  8
0
  6
HIDDEN
 62
     7
370
     0
100
AcDbLine
 10
161.2329277251
 20
131.1293376115
 30
0.0
 11
161.0563410169
 21
132.6181290745
 31
0.0
  0
LINE
  5
F8
330
1F
100
AcDbEntity
  8
0
  6
HIDDEN
 62
     7
370
     0
100
AcDbLine
 10
159.5008769175
 20
131.4713577548
 30
0.0
 11
159.3242902094
 21
132.9601492178
 31
0.0
  0
LINE
  5
F9
330
1F
100
AcDbEntity
  8
0
  6
HIDDEN
 62
     7
370
     0
100
AcDbLine
 10
160.5869780329
 20
129.6625673342
 30
0.0
 11
161.2329277251
 21
131.1293376115
 31
0.0
  0
LINE
  5
FA
330
1F
100
AcDbEntity
  8
0
  6
HIDDEN
 62
     7
370
     0
100
AcDbLine
 10
158.8549272254
 20
130.0045874775
 30
0.0
 11
159.5008769175
 21
131.4713577548
 31
0.0
  0
LWPOLYLINE
  5
FB
330
1F
100
AcDbEntity
  8
0
  6
HIDDEN
 62
     7
370
     0
100
AcDbPolyline
 90
       22
 70
   128
 43
0.0
 10
175.8741616484
 20
128.0932434781
 10
175.1357661698
 20
128.5672637929
 10
174.5788623857
 20
129.2247449501
 10
174.2529336412
 20
130.0072668635
 10
174.1869401355
 20
130.8452990272
 10
174.3867456814
 20
131.6643786057
 10
174.8345966791
 20
132.3917267839
 10
175.4906996021
 20
132.9627154845
 10
176.2967568266
 20
133.3266098554
 10
177.1811466308
 20
133.4510762851
 10
178.0652870994
 20
133.3250553849
 10
178.8706184719
 20
132.959744665
 10
179.5255835217
 20
132.3876035858
 10
179.9719857299
 20
131.6594693932
 10
180.1701603012
 20
130.8400400054
 10
180.1024985553
 20
130.0021253196
 10
179.7750125353
 20
129.2201777327
 10
179.2168008111
 20
128.5636767194
 10
178.4774629443
 20
128.0909552757
 10
177.6226923486
 20
127.8440167764
 10
176.7284391428
 20
127.8448027908
 10
175.8741616484
 20
128.0932434781
  0
LWPOLYLINE
  5
FC
330
1F
100
AcDbEntity
  8
0
  6
HIDDEN
 62
     7
370
     0
100
AcDbPolyline
 90
       18
 70
   128
 43
0.0
 10
176.308887938
 20
128.597475394
 10
175.7169586414
 20
129.0069074299
 10
175.3223970648
 20
129.5896254604
 10
175.1784909357
 20
130.2669301864
 10
175.3046755741
 20
130.9473478516
 10
175.6839090454
 20
131.53898428
 10
176.2649737679
 20
131.9619356936
 10
176.9693937311
 20
132.1590801604
 10
177.7020331155
 20
132.1037922276
 10
178.3639449127
 20
131.803538837
 10
178.8657342665
 20
131.2988708727
 10
179.1396317444
 20
130.6579465398
 10
179.1486459742
 20
129.9673262209
 10
178.8915595341
 20
129.3202820169
 10
178.4030933726
 20
128.804200833
 10
177.7492175513
 20
128.4887822927
 10
177.0182416233
 20
128.4166254178
 10
176.308887938
 20
128.597475394
  0
LWPOLYLINE
  5
FD
330
1F
100
AcDbEntity
  8
0
  6
HIDDEN
 62
     7
370
     0
100
AcDbPolyline
 90
       22
 70
   128
 43
0.0
 10
175.8741616484
 20
129.351829475
 10
175.1357661698
 20
129.8258497898
 10
174.5788623857
 20
130.483330947
 10
174.2529336412
 20
131.2658528604
 10
174.1869401355
 20
132.1038850241
 10
174.3867456814
 20
132.9229646026
 10
174.8345966791
 20
133.6503127808
 10
175.4906996021
 20
134.2213014814
 10
176.2967568266
 20
134.5851958523
 10
177.1811466308
 20
134.709662282
 10
178.0652870994
 20
134.5836413818
 10
178.8706184719
 20
134.2183306619
 10
179.5255835217
 20
133.6461895827
 10
179.9719857299
 20
132.9180553901
 10
180.1701603012
 20
132.0986260023
 10
180.1024985553
 20
131.2607113165
 10
179.7750125353
 20
130.4787637296
 10
179.2168008111
 20
129.8222627163
 10
178.4774629443
 20
129.3495412726
 10
177.6226923486
 20
129.1026027733
 10
176.7284391428
 20
129.1033887877
 10
175.8741616484
 20
129.351829475
  0
LINE
  5
FE
330
1F
100
AcDbEntity
  8
0
  6
HIDDEN
 62
     7
370
     0
100
AcDbLine
 10
176.2039805806
 20
132.6616793536
 30
0.0
 11
177.9313085382
 21
132.7817915053
 31
0.0
  0
LINE
  5
FF
330
1F
100
AcDbEntity
  8
0
  6
HIDDEN
 62
     7
370
     0
100
AcDbLine
 10
177.9313085382
 20
132.7817915053
 30
0.0
 11
177.9313085382
 21
133.465831792
 31
0.0
  0
LINE
  5
100
330
1F
100
AcDbEntity
  8
0
  6
HIDDEN
 62
     7
370
     0
100
AcDbLine
 10
178.9056684749
 20
131.4361520944
 30
0.0
 11
177.9313085382
 21
132.7817915053
 31
0.0
  0
LINE
  5
101
330
1F
100
AcDbEntity
  8
0
  6
HIDDEN
 62
     7
370
     0
100
AcDbLine
 10
176.2039805806
 20
132.6616793536
 30
0.0
 11
176.2039805806
 21
133.3457196403
 31
0.0
  0
LINE
  5
102
330
1F
100
AcDbEntity
  8
0
  6
HIDDEN
 62
     7
370
     0
100
AcDbLine
 10
175.4510125596
 20
131.1959277909
 30
0.0
 11
176.2039805806
 21
132.6616793536
 31
0.0
  0
LINE
  5
103
330
1F
100
AcDbEntity
  8
0
  6
HIDDEN
 62
     7
370
     0
100
AcDbLine
 10
178.1527004539
 20
129.9704005316
 30
0.0
 11
178.1527004539
 21
130.6544408183
 31
0.0
  0
LINE
  5
104
330
1F
100
AcDbEntity
  8
0
  6
HIDDEN
 62
     7
370
     0
100
AcDbLine
 10
178.1527004539
 20
130.6544408183
 30
0.0
 11
178.9056684749
 21
132.120192381
 31
0.0
  0
LINE
  5
105
330
1F
100
AcDbEntity
  8
0
  6
HIDDEN
 62
     7
370
     0
100
AcDbLine
 10
178.9056684749
 20
131.4361520944
 30
0.0
 11
178.9056684749
 21
132.120192381
 31
0.0
  0
LINE
  5
106
330
1F
100
AcDbEntity
  8
0
  6
HIDDEN
 62
     7
370
     0
100
AcDbLine
 10
178.1527004539
 20
129.9704005316
 30
0.0
 11
178.9056684749
 21
131.4361520944
 31
0.0
  0
LINE
  5
107
330
1F
100
AcDbEntity
  8
0
  6
HIDDEN
 62
     7
370
     0
100
AcDbLine
 10
176.4253724962
 20
129.8502883799
 30
0.0
 11
176.4253724962
 21
130.5343286665
 31
0.0
  0
LINE
  5
108
330
1F
100
AcDbEntity
  8
0
  6
HIDDEN
 62
     7
370
     0
100
AcDbLine
 10
175.4510125596
 20
131.8799680775
 30
0.0
 11
176.4253724962
 21
130.5343286665
 31
0.0
  0
LINE
  5
109
330
1F
100
AcDbEntity
  8
0
  6
HIDDEN
 62
     7
370
     0
100
AcDbLine
 10
175.4510125596
 20
131.1959277909
 30
0.0
 11
175.4510125596
 21
131.8799680775
 31
0.0
  0
LINE
  5
10A
330
1F
100
AcDbEntity
  8
0
  6
HIDDEN
 62
     7
370
     0
100
AcDbLine
 10
175.4510125596
 20
131.1959277909
 30
0.0
 11
176.4253724962
 21
129.8502883799
 31
0.0
  0
LINE
  5
10B
330
1F
100
AcDbEntity
  8
0
  6
HIDDEN
 62
     7
370
     0
100
AcDbLine
 10
178.1527004539
 20
130.6544408183
 30
0.0
 11
176.4253724962
 21
130.5343286665
 31
0.0
  0
LINE
  5
10C
330
1F
100
AcDbEntity
  8
0
  6
HIDDEN
 62
     7
370
     0
100
AcDbLine
 10
178.1527004539
 20
129.9704005316
 30
0.0
 11
176.4253724962
 21
129.8502883799
 31
0.0
  0
LWPOLYLINE
  5
10D
330
1F
100
AcDbEntity
  8
0
  6
HIDDEN
 62
     7
370
     0
100
AcDbPolyline
 90
       20
 70
   128
 43
0.0
 10
176.115217376
 20
129.9305708182
 10
175.4577262645
 20
130.367080229
 10
174.9866904054
 20
130.9805505284
 10
174.7531538429
 20
131.7045026906
 10
174.7824238872
 20
132.4604852654
 10
175.0713286748
 20
133.1665758106
 10
175.5885608892
 20
133.7462584595
 10
176.2780703943
 20
134.1367156025
 10
177.0651381363
 20
134.2956351494
 10
177.8644731129
 20
134.2057957016
 10
178.5894549762
 20
133.8769327571
 10
179.1615206922
 20
133.3446837189
 10
179.5186780641
 20
132.6667260289
 10
179.6222235486
 20
131.9165269224
 10
179.460936386
 20
131.1753821132
 10
179.0522945428
 20
130.5236061414
 10
178.4405807036
 20
130.0318290468
 10
177.6920835546
 20
129.7533425085
 10
176.8879143759
 20
129.7183248639
 10
176.115217376
 20
129.9305708182
  0
LINE
  5
10E
330
1F
100
AcDbEntity
  8
0
  6
HIDDEN
 62
     7
370
     0
100
AcDbLine
 10
175.4510125596
 20
131.8799680775
 30
0.0
 11
176.2039805806
 21
133.3457196403
 31
0.0
  0
LINE
  5
10F
330
1F
100
AcDbEntity
  8
0
  6
HIDDEN
 62
     7
370
     0
100
AcDbLine
 10
178.9056684749
 20
132.120192381
 30
0.0
 11
177.9313085382
 21
133.465831792
 31
0.0
  0
LINE
  5
110
330
1F
100
AcDbEntity
  8
0
  6
HIDDEN
 62
     7
370
     0
100
AcDbLine
 10
176.2039805806
 20
133.3457196403
 30
0.0
 11
177.9313085382
 21
133.465831792
 31
0.0
  0
LWPOLYLINE
  5
111
330
1F
100
AcDbEntity
  8
0
  6
HIDDEN
 62
     7
370
     0
100
AcDbPolyline
 90
       22
 70
   128
 43
0.0
 10
178.4825193861
 20
105.5766188009
 10
177.6282418917
 20
105.8250594882
 10
176.7339886859
 20
105.8258455025
 10
175.8792180902
 20
105.5789070032
 10
175.1398802233
 20
105.1061855595
 10
174.5816684992
 20
104.4496845462
 10
174.2541824792
 20
103.6677369594
 10
174.1865207333
 20
102.8298222736
 10
174.3846953046
 20
102.0103928858
 10
174.8310975127
 20
101.2822586931
 10
175.4860625626
 20
100.710117614
 10
176.2913939351
 20
100.344806894
 10
177.1755344037
 20
100.2187859939
 10
178.0599242079
 20
100.3432524235
 10
178.8659814324
 20
100.7071467945
 10
179.5220843554
 20
101.278135495
 10
179.9699353531
 20
102.0054836733
 10
180.1697408989
 20
102.8245632518
 10
180.1037473933
 20
103.6625954154
 10
179.7778186488
 20
104.4451173289
 10
179.2209148647
 20
105.1025984861
 10
178.4825193861
 20
105.5766188009
  0
LWPOLYLINE
  5
112
330
1F
100
AcDbEntity
  8
0
  6
HIDDEN
 62
     7
370
     0
100
AcDbPolyline
 90
       22
 70
   128
 43
0.0
 10
178.4825193861
 20
106.8352047978
 10
177.6282418917
 20
107.0836454851
 10
176.7339886859
 20
107.0844314995
 10
175.8792180902
 20
106.8374930001
 10
175.1398802233
 20
106.3647715564
 10
174.5816684992
 20
105.7082705431
 10
174.2541824792
 20
104.9263229563
 10
174.1865207333
 20
104.0884082705
 10
174.3846953046
 20
103.2689788827
 10
174.8310975127
 20
102.54084469
 10
175.4860625626
 20
101.9687036109
 10
176.2913939351
 20
101.6033928909
 10
177.1755344037
 20
101.4773719908
 10
178.0599242079
 20
101.6018384204
 10
178.8659814324
 20
101.9657327914
 10
179.5220843554
 20
102.5367214919
 10
179.9699353531
 20
103.2640696702
 10
180.1697408989
 20
104.0831492487
 10
180.1037473933
 20
104.9211814123
 10
179.7778186488
 20
105.7037033258
 10
179.2209148647
 20
106.361184483
 10
178.4825193861
 20
106.8352047978
  0
LINE
  5
113
330
1F
100
AcDbEntity
  8
0
  6
HIDDEN
 62
     7
370
     0
100
AcDbLine
 10
177.9313085382
 20
105.078159896
 30
0.0
 11
177.9313085382
 21
104.3941196093
 31
0.0
  0
LINE
  5
114
330
1F
100
AcDbEntity
  8
0
  6
HIDDEN
 62
     7
370
     0
100
AcDbLine
 10
176.2039805806
 20
104.9580477442
 30
0.0
 11
176.2039805806
 21
104.2740074576
 31
0.0
  0
LINE
  5
115
330
1F
100
AcDbEntity
  8
0
  6
HIDDEN
 62
     7
370
     0
100
AcDbLine
 10
178.9056684749
 20
103.732520485
 30
0.0
 11
178.7001078507
 21
103.3323696183
 31
0.0
  0
LINE
  5
116
330
1F
100
AcDbEntity
  8
0
  6
HIDDEN
 62
     7
370
     0
100
AcDbLine
 10
178.9056684749
 20
103.732520485
 30
0.0
 11
178.9056684749
 21
103.0484801983
 31
0.0
  0
LINE
  5
117
330
1F
100
AcDbEntity
  8
0
  6
HIDDEN
 62
     7
370
     0
100
AcDbLine
 10
175.4510125596
 20
103.4922961815
 30
0.0
 11
175.6565731838
 21
103.2084067615
 31
0.0
  0
LINE
  5
118
330
1F
100
AcDbEntity
  8
0
  6
HIDDEN
 62
     7
370
     0
100
AcDbLine
 10
175.4510125596
 20
103.4922961815
 30
0.0
 11
175.4510125596
 21
102.8082558948
 31
0.0
  0
LINE
  5
119
330
1F
100
AcDbEntity
  8
0
  6
HIDDEN
 62
     7
370
     0
100
AcDbLine
 10
176.2039805806
 20
104.9580477442
 30
0.0
 11
175.4510125596
 21
103.4922961815
 31
0.0
  0
LINE
  5
11A
330
1F
100
AcDbEntity
  8
0
  6
HIDDEN
 62
     7
370
     0
100
AcDbLine
 10
178.9056684749
 20
103.732520485
 30
0.0
 11
177.9313085382
 21
105.078159896
 31
0.0
  0
LINE
  5
11B
330
1F
100
AcDbEntity
  8
0
  6
HIDDEN
 62
     7
370
     0
100
AcDbLine
 10
176.2039805806
 20
104.9580477442
 30
0.0
 11
177.9313085382
 21
105.078159896
 31
0.0
  0
LWPOLYLINE
  5
11C
330
1F
100
AcDbEntity
  8
0
  6
HIDDEN
 62
     7
370
     0
100
AcDbPolyline
 90
       18
 70
   128
 43
0.0
 10
178.0477930965
 20
106.3309728818
 10
177.3384394112
 20
106.511822858
 10
176.6074634832
 20
106.4396659831
 10
175.9535876619
 20
106.1242474429
 10
175.4651215004
 20
105.608166259
 10
175.2080350603
 20
104.961122055
 10
175.2170492901
 20
104.270501736
 10
175.4909467679
 20
103.6295774031
 10
175.9927361218
 20
103.1249094388
 10
176.654647919
 20
102.8246560482
 10
177.3872873034
 20
102.7693681155
 10
178.0917072665
 20
102.9665125822
 10
178.6727719891
 20
103.3894639958
 10
179.0520054604
 20
103.9811004243
 10
179.1781900988
 20
104.6615180895
 10
179.0342839696
 20
105.3388228155
 10
178.6397223931
 20
105.9215408459
 10
178.0477930965
 20
106.3309728818
  0
SPLINE
  5
11D
330
1F
100
AcDbEntity
  8
0
  6
HIDDEN
 62
     7
370
     0
100
AcDbSpline
210
0.0
220
0.0
230
1.0
 70
     8
 71
     3
 72
     9
 73
     5
 74
     0
 42
0.000000001
 43
0.00000001
 40
0.0
 40
0.0
 40
0.0
 40
0.0
 40
0.3267154957258129
 40
1.0
 40
1.0
 40
1.0
 40
1.0
 10
186.6023079748522
 20
67.84046370175557
 30
0.0
 10
186.4455151015851
 20
67.88254592945029
 30
0.0
 10
185.9656086529521
 20
68.01134982227212
 30
0.0
 10
185.2113971193481
 20
68.18637646865925
 30
0.0
 10
184.7035981808277
 20
68.30421919750678
 30
0.0
  0
LWPOLYLINE
  5
11E
330
1F
100
AcDbEntity
  8
0
  6
HIDDEN
 62
     7
370
     0
100
AcDbPolyline
 90
       22
 70
   128
 43
0.0
 10
157.2477276291
 20
103.4350693353
 10
157.4442026051
 20
102.5638296794
 10
157.7503361505
 20
101.7700034902
 10
158.1389269564
 20
101.1241257084
 10
158.5754470243
 20
100.6835854092
 10
159.0211096306
 20
100.4875265316
 10
159.436315697
 20
100.5533697672
 10
159.7841723423
 20
100.8752646555
 10
160.0337709772
 20
101.4246094232
 10
160.1629336674
 20
102.1525923768
 10
160.1601837412
 20
102.9945290362
 10
160.0257655416
 20
103.8756096345
 10
159.7716227155
 20
104.7175462939
 10
159.4203369684
 20
105.4455292475
 10
159.0031215803
 20
105.9948740152
 10
158.5570479695
 20
106.3167689035
 10
158.1217517338
 20
106.3826121391
 10
157.7359108541
 20
106.1865532614
 10
157.4338089858
 20
105.7460129623
 10
157.2422892056
 20
105.1001351805
 10
157.1783688864
 20
104.3063089913
 10
157.2477276291
 20
103.4350693353
  0
LWPOLYLINE
  5
11F
330
1F
100
AcDbEntity
  8
0
  6
HIDDEN
 62
     7
370
     0
100
AcDbPolyline
 90
       19
 70
   128
 43
0.0
 10
157.9605982177
 20
103.4910876536
 10
158.1289531402
 20
102.7834255784
 10
158.397789094
 20
102.1611179934
 10
158.7346804953
 20
101.6992243777
 10
159.0989932693
 20
101.4534559182
 10
159.4467859186
 20
101.4534559182
 10
159.736109517
 20
101.6992243777
 10
159.9320673685
 20
102.1611179934
 10
160.0110240641
 20
102.7834255784
 10
159.9634562611
 20
103.4910876536
 10
159.7951013386
 20
104.1987497288
 10
159.5262653849
 20
104.8210573138
 10
159.1893739836
 20
105.2829509295
 10
158.8250612096
 20
105.528719389
 10
158.4772685602
 20
105.528719389
 10
158.1879449619
 20
105.2829509295
 10
157.9919871104
 20
104.8210573138
 10
157.9130304148
 20
104.1987497288
 10
157.9605982177
 20
103.4910876536
  0
SPLINE
  5
120
330
1F
100
AcDbEntity
  8
0
  6
HIDDEN
 62
     7
370
     0
100
AcDbSpline
210
0.0
220
0.0
230
1.0
 70
    11
 71
     3
 72
    66
 73
    62
 74
     0
 42
0.000000001
 43
0.00000001
 40
0.0
 40
0.0
 40
0.0
 40
0.0
 40
0.0312500000000009
 40
0.0312500000000009
 40
0.0625000000000019
 40
0.0625000000000019
 40
0.0937500000000028
 40
0.0937500000000028
 40
0.1250000000000037
 40
0.1250000000000037
 40
0.1562500000000047
 40
0.1562500000000047
 40
0.1875000000000056
 40
0.1875000000000056
 40
0.2187500000000065
 40
0.2187500000000065
 40
0.2343750000000068
 40
0.2343750000000068
 40
0.2500000000000072
 40
0.2500000000000072
 40
0.2812500000000072
 40
0.2812500000000072
 40
0.3125000000000072
 40
0.3125000000000072
 40
0.3750000000000063
 40
0.3750000000000063
 40
0.4375000000000053
 40
0.4375000000000053
 40
0.4687500000000049
 40
0.4687500000000049
 40
0.5000000000000044
 40
0.5000000000000044
 40
0.531250000000004
 40
0.531250000000004
 40
0.5625000000000037
 40
0.5625000000000037
 40
0.5937500000000032
 40
0.5937500000000032
 40
0.6250000000000028
 40
0.6250000000000028
 40
0.6875000000000018
 40
0.6875000000000018
 40
0.7500000000000008
 40
0.7500000000000008
 40
0.7812500000000006
 40
0.7812500000000006
 40
0.8125000000000004
 40
0.8125000000000004
 40
0.8437500000000002
 40
0.8437500000000002
 40
0.859375
 40
0.859375
 40
0.8749999999999998
 40
0.8749999999999998
 40
0.9062499999999999
 40
0.9062499999999999
 40
0.9374999999999999
 40
0.9374999999999999
 40
0.96875
 40
0.96875
 40
1.0
 40
1.0
 40
1.0
 40
1.0
 10
174.7593654570217
 20
106.8082633125204
 30
0.0
 10
174.7197751693817
 20
106.9618768322113
 30
0.0
 10
174.6945141787002
 20
107.1141202598113
 30
0.0
 10
174.6733692726853
 20
107.4162251765597
 30
0.0
 10
174.6780169847789
 20
107.5667053204017
 30
0.0
 10
174.7167106525645
 20
107.8491495937003
 30
0.0
 10
174.7510076116593
 20
107.9845962886735
 30
0.0
 10
174.8453183976087
 20
108.2337396872505
 30
0.0
 10
174.9044649379019
 20
108.3462311042733
 30
0.0
 10
175.0428011225941
 20
108.5473980395085
 30
0.0
 10
175.1214376385449
 20
108.6346521957002
 30
0.0
 10
175.2859911905598
 20
108.7768618146496
 30
0.0
 10
175.3739258868216
 20
108.8333247425266
 30
0.0
 10
175.5415044331724
 20
108.9082336580732
 30
0.0
 10
175.6221013099797
 20
108.9270435771842
 30
0.0
 10
175.7169436754413
 20
108.9224757007109
 30
0.0
 10
175.7438679808633
 20
108.915601445232
 30
0.0
 10
175.7863966559145
 20
108.8915112774058
 30
0.0
 10
175.8018829449866
 20
108.8741036254561
 30
0.0
 10
175.8293072716748
 20
108.8102112491696
 30
0.0
 10
175.8229446681426
 20
108.7510414784366
 30
0.0
 10
175.7802945326071
 20
108.6176216703813
 30
0.0
 10
175.7447989253102
 20
108.5430662596194
 30
0.0
 10
175.6162615781403
 20
108.3007095283476
 30
0.0
 10
175.5050881587014
 20
108.1195175521884
 30
0.0
 10
175.2763623430791
 20
107.7158191091513
 30
0.0
 10
175.1552971594722
 20
107.4897944438382
 30
0.0
 10
174.9871831849198
 20
107.1112627069071
 30
0.0
 10
174.9328429682942
 20
106.9771842027138
 30
0.0
 10
174.8342178940531
 20
106.6950042563633
 30
0.0
 10
174.790215052491
 20
106.5483055835931
 30
0.0
 10
174.719428624939
 20
106.2378888022004
 30
0.0
 10
174.6942384784834
 20
106.0793843724629
 30
0.0
 10
174.6733245041185
 20
105.7680207978634
 30
0.0
 10
174.6782863458714
 20
105.6203024192342
 30
0.0
 10
174.7164604642293
 20
105.3568004202622
 30
0.0
 10
174.7492967899286
 20
105.2422615012238
 30
0.0
 10
174.8300292522407
 20
105.0512958047552
 30
0.0
 10
174.8781309591826
 20
104.9731121167887
 30
0.0
 10
175.0345733559
 20
104.7793169388493
 30
0.0
 10
175.1513628156443
 20
104.7055417848214
 30
0.0
 10
175.3864197877276
 20
104.6224928280408
 30
0.0
 10
175.502217374687
 20
104.6153494351252
 30
0.0
 10
175.6529180783959
 20
104.647123452555
 30
0.0
 10
175.6992378661512
 20
104.6650209045536
 30
0.0
 10
175.7753210770115
 20
104.718620424945
 30
0.0
 10
175.8047072325139
 20
104.7541395955095
 30
0.0
 10
175.8281682657417
 20
104.8482489703124
 30
0.0
 10
175.8211286219357
 20
104.9073694441267
 30
0.0
 10
175.7721309250559
 20
105.0172766735442
 30
0.0
 10
175.7492778804782
 20
105.0579198988513
 30
0.0
 10
175.6939353628064
 20
105.1442273827054
 30
0.0
 10
175.6613462273793
 20
105.190268885962
 30
0.0
 10
175.552547752519
 20
105.3380476941617
 30
0.0
 10
175.4679270308668
 20
105.44651629648
 30
0.0
 10
175.2977388020623
 20
105.6805631591253
 30
0.0
 10
175.2111087271165
 20
105.8075741238662
 30
0.0
 10
175.0519927257758
 20
106.0732600853392
 30
0.0
 10
174.9776788314869
 20
106.2148369979142
 30
0.0
 10
174.8513500097416
 20
106.5055678237318
 30
0.0
 10
174.7989557446616
 20
106.6546497928294
 30
0.0
 10
174.7593654570217
 20
106.8082633125204
 30
0.0
  0
ELLIPSE
  5
121
330
1F
100
AcDbEntity
  8
0
  6
HIDDEN
 62
     7
370
     0
100
AcDbEllipse
 10
177.1783405172
 20
117.4642241379
 30
0.0
 11
2.047880110722474
 21
2.047880110722474
 31
0.0
210
0.0
220
0.0
230
1.0
 40
0.7002075382
 41
0.9599310885968769
 42
4.101523742186683
  0
ELLIPSE
  5
122
330
1F
100
AcDbEntity
  8
0
  6
HIDDEN
 62
     7
370
     0
100
AcDbEllipse
 10
177.1783405172
 20
117.4642241379
 30
0.0
 11
-2.047880110722474
 21
2.047880110722474
 31
0.0
210
0.0
220
0.0
230
1.0
 40
0.7002075382
 41
2.181661564992914
 42
5.32325421858272
  0
LINE
  5
123
330
1F
100
AcDbEntity
  8
0
  6
HIDDEN
 62
     7
370
     0
100
AcDbLine
 10
156.9783405172
 20
152.7642241379
 30
0.0
 11
157.1499133925
 21
152.7642241379
 31
0.0
  0
ELLIPSE
  5
124
330
1F
100
AcDbEntity
  8
0
  6
HIDDEN
 62
     7
370
     0
100
AcDbEllipse
 10
157.1499133925
 20
154.7642241379
 30
0.0
 11
0.0
 21
2.0
 31
0.0
210
0.0
220
0.0
230
1.0
 40
0.4142135624
 41
3.141592653589793
 42
4.712388980384695
  0
ELLIPSE
  5
125
330
1F
100
AcDbEntity
  8
0
  6
HIDDEN
 62
     7
370
     0
100
AcDbEllipse
 10
157.1499133925
 20
80.1642241379
 30
0.0
 11
0.0
 21
2.0
 31
0.0
210
0.0
220
0.0
230
1.0
 40
0.4142135624
 41
4.712388980384702
 42
6.283185307179586
  0
LINE
  5
126
330
1F
100
AcDbEntity
  8
0
  6
HIDDEN
 62
     7
370
     0
100
AcDbLine
 10
157.1499133925
 20
82.1642241379
 30
0.0
 11
156.9783405172
 21
82.1642241379
 31
0.0
  0
LINE
  5
127
330
1F
100
AcDbEntity
  8
0
  6
HIDDEN
 62
     7
370
     0
100
AcDbLine
 10
157.9783405172
 20
70.143653984
 30
0.0
 11
157.3644769373
 21
69.5297904041
 31
0.0
  0
LINE
  5
128
330
1F
100
AcDbEntity
  8
0
  6
HIDDEN
 62
     7
370
     0
100
AcDbLine
 10
157.3644769373
 20
165.3986578718
 30
0.0
 11
157.9783405172
 21
164.7847942919
 31
0.0
  0
SPLINE
  5
129
330
1F
100
AcDbEntity
  8
0
  6
HIDDEN
 62
     7
370
     0
100
AcDbSpline
210
0.0
220
0.0
230
1.0
 70
     8
 71
     3
 72
    13
 73
     9
 74
     0
 42
0.000000001
 43
0.00000001
 40
0.0
 40
0.0
 40
0.0
 40
0.0
 40
0.0005825290635634
 40
0.1623661983695077
 40
0.328738549447489
 40
0.499871825213266
 40
0.7262528256364211
 40
1.0
 40
1.0
 40
1.0
 40
1.0
 10
186.9779063598476
 20
68.46435694459022
 30
0.0
 10
186.9780511458825
 20
68.46431260239692
 30
0.0
 10
187.0184068286061
 20
68.45195326480491
 30
0.0
 10
186.9042522217091
 20
68.48758235080447
 30
0.0
 10
186.6801351140216
 20
68.55543031371536
 30
0.0
 10
186.2008262230321
 20
68.69452348786861
 30
0.0
 10
185.407318565382
 20
68.9247700686354
 30
0.0
 10
184.5383006929028
 20
69.14025563939987
 30
0.0
 10
184.0626402541281
 20
69.25820253598903
 30
0.0
  0
LINE
  5
12A
330
1F
100
AcDbEntity
  8
0
  6
HIDDEN
 62
     7
370
     0
100
AcDbLine
 10
170.2109095538
 20
70.143653984
 30
0.0
 11
157.9783405172
 21
70.143653984
 31
0.0
  0
LINE
  5
12B
330
1F
100
AcDbEntity
  8
0
  6
HIDDEN
 62
     7
370
     0
100
AcDbLine
 10
157.9783405172
 20
70.143653984
 30
0.0
 11
157.9783405172
 21
80.1642241379
 31
0.0
  0
LINE
  5
12C
330
1F
100
AcDbEntity
  8
0
  6
HIDDEN
 62
     7
370
     0
100
AcDbLine
 10
157.9783405172
 20
164.7847942919
 30
0.0
 11
170.2109095538
 21
164.7847942919
 31
0.0
  0
LINE
  5
12D
330
1F
100
AcDbEntity
  8
0
  6
HIDDEN
 62
     7
370
     0
100
AcDbLine
 10
157.9783405172
 20
164.7847942919
 30
0.0
 11
157.9783405172
 21
154.7642241379
 31
0.0
  0
LINE
  5
12E
330
1F
100
AcDbEntity
  8
0
  6
HIDDEN
 62
     7
370
     0
100
AcDbLine
 10
157.1499133925
 20
152.7642241379
 30
0.0
 11
174.1283405172
 21
152.7642241379
 31
0.0
  0
LINE
  5
12F
330
1F
100
AcDbEntity
  8
0
  6
HIDDEN
 62
     7
370
     0
100
AcDbLine
 10
184.9783405172
 20
82.1642241379
 30
0.0
 11
174.1283405172
 21
82.1642241379
 31
0.0
  0
SPLINE
  5
130
330
1F
100
AcDbEntity
  8
0
  6
HIDDEN
 62
     7
370
     0
100
AcDbSpline
210
0.0
220
0.0
230
1.0
 70
     8
 71
     3
 72
    14
 73
    10
 74
     0
 42
0.000000001
 43
0.00000001
 40
0.0
 40
0.0
 40
0.0
 40
0.0
 40
0.1878282877378226
 40
0.3545816312771876
 40
0.500302431933891
 40
0.6713282049362227
 40
0.837642206038437
 40
0.9994166164999645
 40
1.0
 40
1.0
 40
1.0
 40
1.0
 10
184.0626402541281
 20
165.670245739873
 30
0.0
 10
184.3956431764751
 20
165.7517936773247
 30
0.0
 10
185.0242850112487
 20
165.9057396086705
 30
0.0
 10
185.7237215831765
 20
166.0967183267877
 30
0.0
 10
186.2715986826658
 20
166.2540906138572
 30
0.0
 10
186.6777142768105
 20
166.3724160498785
 30
0.0
 10
186.9108421694925
 20
166.4427930644974
 30
0.0
 10
187.0048315560754
 20
166.4724274157709
 30
0.0
 10
186.9781486629362
 20
166.46416489017
 30
0.0
 10
186.9780527860509
 20
166.4641352012898
 30
0.0
  0
LINE
  5
131
330
1F
100
AcDbEntity
  8
0
  6
HIDDEN
 62
     7
370
     0
100
AcDbLine
 10
184.5619744628
 20
165.7945597389
 30
0.0
 11
184.0626359657
 21
165.6702903943
 31
0.0
  0
LINE
  5
132
330
1F
100
AcDbEntity
  8
0
  6
HIDDEN
 62
     7
370
     0
100
AcDbLine
 10
174.1283405172
 20
82.1642241379
 30
0.0
 11
157.1499133925
 21
82.1642241379
 31
0.0
  0
LINE
  5
133
330
1F
100
AcDbEntity
  8
0
  6
HIDDEN
 62
     7
370
     0
100
AcDbLine
 10
174.1283405172
 20
152.7642241379
 30
0.0
 11
184.9783405172
 21
152.7642241379
 31
0.0
  0
LINE
  5
134
330
1F
100
AcDbEntity
  8
0
  6
HIDDEN
 62
     7
370
     0
100
AcDbLine
 10
62.1783405172
 20
104.9642241379
 30
0.0
 11
62.1783405172
 21
129.9642241379
 31
0.0
  0
LINE
  5
135
330
1F
100
AcDbEntity
  8
0
  6
HIDDEN
 62
     7
370
     0
100
AcDbLine
 10
65.4629448662
 20
106.9642241379
 30
0.0
 11
65.4629448662
 21
127.9642241379
 31
0.0
  0
CIRCLE
  5
136
330
1F
100
AcDbEntity
  8
0
  6
HIDDEN
 62
     7
370
     0
100
AcDbCircle
 10
248.9283405172
 20
117.4642241379
 30
0.0
 40
3.500000000000014
  0
LINE
  5
137
330
1F
100
AcDbEntity
  8
0
  6
HIDDEN
 62
     7
370
     0
100
AcDbLine
 10
115.1783405172
 20
106.9642241379
 30
0.0
 11
115.1783405172
 21
127.9642241379
 31
0.0
  0
LINE
  5
138
330
1F
100
AcDbEntity
  8
0
  6
HIDDEN
 62
     7
370
     0
100
AcDbLine
 10
119.9852254695
 20
114.9642241379
 30
0.0
 11
119.9852254695
 21
119.9642241379
 31
0.0
  0
SPLINE
  5
139
330
1F
100
AcDbEntity
  8
0
  6
HIDDEN
 62
     7
370
     0
100
AcDbSpline
210
0.0
220
0.0
230
1.0
 70
     8
 71
     3
 72
     9
 73
     5
 74
     0
 42
0.000000001
 43
0.00000001
 40
0.0
 40
0.0
 40
0.0
 40
0.0
 40
0.4951995007203773
 40
1.0
 40
1.0
 40
1.0
 40
1.0
 10
184.0626247316784
 20
165.6702363023438
 30
0.0
 10
184.1678209534031
 20
165.8273920625965
 30
0.0
 10
184.3802529562052
 20
166.1447505413997
 30
0.0
 10
184.5949713397194
 20
166.4633770895027
 30
0.0
 10
184.7033612869219
 20
166.6242199300688
 30
0.0
  0
SPLINE
  5
13A
330
1F
100
AcDbEntity
  8
0
  6
HIDDEN
 62
     7
370
     0
100
AcDbSpline
210
0.0
220
0.0
230
1.0
 70
     8
 71
     3
 72
     9
 73
     5
 74
     0
 42
0.000000001
 43
0.00000001
 40
0.0
 40
0.0
 40
0.0
 40
0.0
 40
0.5048004990382029
 40
1.0
 40
1.0
 40
1.0
 40
1.0
 10
184.7033612869219
 20
68.30422834579319
 30
0.0
 10
184.5949713397742
 20
68.46507118627567
 30
0.0
 10
184.3802529562657
 20
68.78369773436529
 30
0.0
 10
184.1678209534574
 20
69.10105621318216
 30
0.0
 10
184.0626247316785
 20
69.25821197351826
 30
0.0
  0
LINE
  5
13B
330
1F
100
AcDbEntity
  8
0
  6
HIDDEN
 62
     7
370
     0
100
AcDbLine
 10
239.4783405172
 20
117.4642241379
 30
0.0
 11
239.4783405172
 21
110.7642241379
 31
0.0
  0
LINE
  5
13C
330
1F
100
AcDbEntity
  8
0
  6
HIDDEN
 62
     7
370
     0
100
AcDbLine
 10
239.4783405172
 20
124.1642241379
 30
0.0
 11
239.4783405172
 21
117.4642241379
 31
0.0
  0
LINE
  5
13D
330
1F
100
AcDbEntity
  8
0
  6
HIDDEN
 62
     7
370
     0
100
AcDbLine
 10
242.844365921
 20
117.4642241379
 30
0.0
 11
242.844365921
 21
110.4642241379
 31
0.0
  0
LINE
  5
13E
330
1F
100
AcDbEntity
  8
0
  6
HIDDEN
 62
     7
370
     0
100
AcDbLine
 10
242.844365921
 20
124.4642241379
 30
0.0
 11
242.844365921
 21
117.4642241379
 31
0.0
  0
ELLIPSE
  5
13F
330
1F
100
AcDbEntity
  8
0
  6
HIDDEN
 62
     7
370
     0
100
AcDbEllipse
 10
177.1783405172
 20
117.4642241379
 30
0.0
 11
2.047880110722474
 21
2.047880110722474
 31
0.0
210
0.0
220
0.0
230
1.0
 40
0.7002075382
 41
4.101523742186686
 42
7.243116395776465
  0
ELLIPSE
  5
140
330
1F
100
AcDbEntity
  8
0
  6
HIDDEN
 62
     7
370
     0
100
AcDbEllipse
 10
177.1783405172
 20
117.4642241379
 30
0.0
 11
-2.047880110722474
 21
2.047880110722474
 31
0.0
210
0.0
220
0.0
230
1.0
 40
0.7002075382
 41
5.323254218582722
 42
8.464846872172501
  0
SPLINE
  5
141
330
1F
100
AcDbEntity
  8
0
  6
HIDDEN
 62
     7
370
     0
100
AcDbSpline
210
0.0
220
0.0
230
1.0
 70
    11
 71
     3
 72
    66
 73
    62
 74
     0
 42
0.000000001
 43
0.00000001
 40
0.0
 40
0.0
 40
0.0
 40
0.0
 40
0.0312499999999998
 40
0.0312499999999998
 40
0.0624999999999996
 40
0.0624999999999996
 40
0.0937499999999994
 40
0.0937499999999994
 40
0.1249999999999991
 40
0.1249999999999991
 40
0.1562499999999989
 40
0.1562499999999989
 40
0.1874999999999987
 40
0.1874999999999987
 40
0.2187499999999985
 40
0.2187499999999985
 40
0.2499999999999983
 40
0.2499999999999983
 40
0.2812499999999981
 40
0.2812499999999981
 40
0.3124999999999978
 40
0.3124999999999978
 40
0.3437499999999976
 40
0.3437499999999976
 40
0.3749999999999974
 40
0.3749999999999974
 40
0.4062499999999972
 40
0.4062499999999972
 40
0.437499999999997
 40
0.437499999999997
 40
0.4687499999999968
 40
0.4687499999999968
 40
0.4999999999999966
 40
0.4999999999999966
 40
0.5312499999999963
 40
0.5312499999999963
 40
0.5624999999999961
 40
0.5624999999999961
 40
0.6249999999999959
 40
0.6249999999999959
 40
0.6562499999999962
 40
0.6562499999999962
 40
0.6874999999999966
 40
0.6874999999999966
 40
0.7187499999999969
 40
0.7187499999999969
 40
0.7499999999999972
 40
0.7499999999999972
 40
0.7812499999999977
 40
0.7812499999999977
 40
0.812499999999998
 40
0.812499999999998
 40
0.8437499999999983
 40
0.8437499999999983
 40
0.8749999999999987
 40
0.8749999999999987
 40
0.906249999999999
 40
0.906249999999999
 40
0.9374999999999993
 40
0.9374999999999993
 40
1.0
 40
1.0
 40
1.0
 40
1.0
 10
177.1783405172414
 20
129.6256783448448
 30
0.0
 10
177.0131402265775
 20
129.6256783448448
 30
0.0
 10
176.850707685281
 20
129.6412439361268
 30
0.0
 10
176.5311495296909
 20
129.7021902079563
 30
0.0
 10
176.3723661917139
 20
129.7483122519416
 30
0.0
 10
176.0696281752345
 20
129.8685754395296
 30
0.0
 10
175.9260490101002
 20
129.9421190889503
 30
0.0
 10
175.6543192802322
 20
130.1156360118826
 30
0.0
 10
175.5256907166944
 20
130.2165086686692
 30
0.0
 10
175.2951249550272
 20
130.4364934575675
 30
0.0
 10
175.1916509537779
 20
130.5563726211563
 30
0.0
 10
175.0088904158521
 20
130.8162139877537
 30
0.0
 10
174.9312461596235
 20
130.954303418326
 30
0.0
 10
174.8065535089334
 20
131.2392858505741
 30
0.0
 10
174.758549528355
 20
131.3882809599166
 30
0.0
 10
174.6943177860367
 20
131.6928060473113
 30
0.0
 10
174.6784283419945
 20
131.8455753947478
 30
0.0
 10
174.6782534116393
 20
132.1520650763619
 30
0.0
 10
174.6944840629742
 20
132.3073918466569
 30
0.0
 10
174.7582652856838
 20
132.6074540525554
 30
0.0
 10
174.8054573970801
 20
132.7529887650547
 30
0.0
 10
174.930624014738
 20
133.0351220453766
 30
0.0
 10
175.008883502113
 20
133.1712618867313
 30
0.0
 10
175.1898036854684
 20
133.4227984365008
 30
0.0
 10
175.2930889143923
 20
133.539825280344
 30
0.0
 10
175.526340656441
 20
133.7559005739655
 30
0.0
 10
175.6527545247066
 20
133.8516044978509
 30
0.0
 10
175.9234267954012
 20
134.0187574946225
 30
0.0
 10
176.0695085675655
 20
134.0909186802456
 30
0.0
 10
176.3723930130383
 20
134.2065727222021
 30
0.0
 10
176.5282233726781
 20
134.2501055293848
 30
0.0
 10
176.8485688619435
 20
134.3090014323182
 30
0.0
 10
177.0142789479151
 20
134.324087535338
 30
0.0
 10
177.3406103366116
 20
134.3241950670048
 30
0.0
 10
177.5027974224386
 20
134.3097044098151
 30
0.0
 10
177.8251730036471
 20
134.250976345538
 30
0.0
 10
177.9831884776847
 20
134.2068455384086
 30
0.0
 10
178.4345993527602
 20
134.0349159398107
 30
0.0
 10
178.7136788098124
 20
133.8633422471396
 30
0.0
 10
179.0597525143108
 20
133.5436914287733
 30
0.0
 10
179.1653945302255
 20
133.4246502993849
 30
0.0
 10
179.3471780061962
 20
133.1723305385265
 30
0.0
 10
179.4240658295802
 20
133.0388662271552
 30
0.0
 10
179.5497203869506
 20
132.7571008146028
 30
0.0
 10
179.5980284628652
 20
132.6086800829719
 30
0.0
 10
179.6618463483055
 20
132.3096304851953
 30
0.0
 10
179.6781745253484
 20
132.157427415328
 30
0.0
 10
179.6785040154081
 20
131.8474255564883
 30
0.0
 10
179.6624075035734
 20
131.6939028893902
 30
0.0
 10
179.5991787663121
 20
131.3923741718111
 30
0.0
 10
179.5513421729017
 20
131.2424393465093
 30
0.0
 10
179.4259988549883
 20
130.9552202504184
 30
0.0
 10
179.349302180463
 20
130.8188413361022
 30
0.0
 10
179.1682508138113
 20
130.560485778088
 30
0.0
 10
179.0627752034504
 20
130.4378106017137
 30
0.0
 10
178.8322486347741
 20
130.2175569176616
 30
0.0
 10
178.7065291971438
 20
130.1186313462278
 30
0.0
 10
178.433762347947
 20
129.9437926653061
 30
0.0
 10
178.2880429715409
 20
129.8691158203257
 30
0.0
 10
177.8369738664329
 20
129.689489604833
 30
0.0
 10
177.5087410985691
 20
129.6256783448448
 30
0.0
 10
177.1783405172413
 20
129.6256783448448
 30
0.0
  0
SPLINE
  5
142
330
1F
100
AcDbEntity
  8
0
  6
HIDDEN
 62
     7
370
     0
100
AcDbSpline
210
0.0
220
0.0
230
1.0
 70
    11
 71
     3
 72
    60
 73
    56
 74
     0
 42
0.000000001
 43
0.00000001
 40
0.0
 40
0.0
 40
0.0
 40
0.0
 40
0.0312499999999996
 40
0.0312499999999996
 40
0.0624999999999992
 40
0.0624999999999992
 40
0.0937499999999988
 40
0.0937499999999988
 40
0.1249999999999984
 40
0.1249999999999984
 40
0.156249999999998
 40
0.156249999999998
 40
0.1874999999999976
 40
0.1874999999999976
 40
0.2187499999999972
 40
0.2187499999999972
 40
0.2499999999999968
 40
0.2499999999999968
 40
0.3124999999999964
 40
0.3124999999999964
 40
0.3749999999999962
 40
0.3749999999999962
 40
0.4062499999999958
 40
0.4062499999999958
 40
0.4374999999999953
 40
0.4374999999999953
 40
0.4531249999999951
 40
0.4531249999999951
 40
0.4687499999999948
 40
0.4687499999999948
 40
0.499999999999995
 40
0.499999999999995
 40
0.5624999999999961
 40
0.5624999999999961
 40
0.6249999999999966
 40
0.6249999999999966
 40
0.6874999999999971
 40
0.6874999999999971
 40
0.7187499999999974
 40
0.7187499999999974
 40
0.7499999999999977
 40
0.7499999999999977
 40
0.7812499999999979
 40
0.7812499999999979
 40
0.8124999999999982
 40
0.8124999999999982
 40
0.8437499999999984
 40
0.8437499999999984
 40
0.8749999999999987
 40
0.8749999999999987
 40
0.906249999999999
 40
0.906249999999999
 40
0.9374999999999992
 40
0.9374999999999992
 40
1.0
 40
1.0
 40
1.0
 40
1.0
 10
174.7593654570216
 20
126.9336993382081
 30
0.0
 10
174.7989555398684
 20
126.8022188068542
 30
0.0
 10
174.8512671607886
 20
126.6830349561745
 30
0.0
 10
174.9769872663911
 20
126.4678414688465
 30
0.0
 10
175.0514102968354
 20
126.3712535632383
 30
0.0
 10
175.2101206050284
 20
126.2106926514833
 30
0.0
 10
175.2949992048339
 20
126.1454134147813
 30
0.0
 10
175.4667724243757
 20
126.047911240224
 30
0.0
 10
175.5507826606718
 20
126.0174361434268
 30
0.0
 10
175.6961785839504
 20
125.9976871750694
 30
0.0
 10
175.7544448324596
 20
126.0094637245656
 30
0.0
 10
175.8210495572697
 20
126.0738840673489
 30
0.0
 10
175.8282104416675
 20
126.1245972054287
 30
0.0
 10
175.8050651222852
 20
126.2476207178037
 30
0.0
 10
175.7761570363156
 20
126.3180919440891
 30
0.0
 10
175.7007362784705
 20
126.4717136067535
 30
0.0
 10
175.6537908056941
 20
126.5553488749375
 30
0.0
 10
175.5021489140727
 20
126.8187291139476
 30
0.0
 10
175.3862217768095
 20
127.0122780393711
 30
0.0
 10
175.1525962058271
 20
127.449147511267
 30
0.0
 10
175.0339134391253
 20
127.6921526454544
 30
0.0
 10
174.8774421301696
 20
128.1032271839842
 30
0.0
 10
174.8294554816175
 20
128.2468987494675
 30
0.0
 10
174.7488464718272
 20
128.5473616774264
 30
0.0
 10
174.7161469429321
 20
128.7058609317007
 30
0.0
 10
174.6877263335882
 20
128.94107145353
 30
0.0
 10
174.6815802616146
 20
129.0203190613265
 30
0.0
 10
174.6771020598498
 20
129.171996631786
 30
0.0
 10
174.6786182702619
 20
129.2452047040944
 30
0.0
 10
174.6943812099384
 20
129.4569604353213
 30
0.0
 10
174.7198552646238
 20
129.5828585811828
 30
0.0
 10
174.8262200083726
 20
129.904588947202
 30
0.0
 10
174.9320980376432
 20
130.042602663562
 30
0.0
 10
175.1552682585883
 20
130.2284145146922
 30
0.0
 10
175.2761546907154
 20
130.2773385494484
 30
0.0
 10
175.5052371643971
 20
130.3133898752394
 30
0.0
 10
175.6153999826476
 20
130.3015116920377
 30
0.0
 10
175.7433831499987
 20
130.2369041304883
 30
0.0
 10
175.7797244954112
 20
130.2068969167248
 30
0.0
 10
175.8228144985713
 20
130.1263687931749
 30
0.0
 10
175.8292993071732
 20
130.0747883759231
 30
0.0
 10
175.7932585544723
 20
129.9452411662975
 30
0.0
 10
175.749039339347
 20
129.865382341804
 30
0.0
 10
175.6233893645349
 20
129.6832528664991
 30
0.0
 10
175.5422652330535
 20
129.5792004264789
 30
0.0
 10
175.3753198629591
 20
129.3562365307997
 30
0.0
 10
175.2874316982291
 20
129.2344331487544
 30
0.0
 10
175.1217922009801
 20
128.9768719256947
 30
0.0
 10
175.0438461128427
 20
128.8413930653808
 30
0.0
 10
174.9045903791711
 20
128.5546387440328
 30
0.0
 10
174.8455646602721
 20
128.4081867061417
 30
0.0
 10
174.7517797065689
 20
128.1079419762397
 30
0.0
 10
174.7169666484594
 20
127.9522401201146
 30
0.0
 10
174.6586490437828
 20
127.4964771328529
 30
0.0
 10
174.6801852913279
 20
127.1966604009161
 30
0.0
 10
174.7593654570216
 20
126.9336993382081
 30
0.0
  0
LWPOLYLINE
  5
143
330
1F
100
AcDbEntity
  8
0
  6
HIDDEN
 62
     7
370
     0
100
AcDbPolyline
 90
       19
 70
   128
 43
0.0
 10
157.9605982177
 20
130.2508749971
 10
158.1289531402
 20
129.7426785766
 10
158.397789094
 20
129.4388858217
 10
158.7346804953
 20
129.376138622
 10
159.0989932693
 20
129.562005216
 10
159.4467859186
 20
129.9740673492
 10
159.736109517
 20
130.5626242471
 10
159.9320673685
 20
131.2566872616
 10
160.0110240641
 20
131.9725421498
 10
159.9634562611
 20
132.6238462474
 10
159.7951013386
 20
133.1320426679
 10
159.5262653849
 20
133.4358354229
 10
159.1893739836
 20
133.4985826225
 10
158.8250612096
 20
133.3127160285
 10
158.4772685602
 20
132.9006538953
 10
158.1879449619
 20
132.3120969974
 10
157.9919871104
 20
131.6180339829
 10
157.9130304148
 20
130.9021790947
 10
157.9605982177
 20
130.2508749971
  0
LWPOLYLINE
  5
144
330
1F
100
AcDbEntity
  8
0
  6
HIDDEN
 62
     7
370
     0
100
AcDbPolyline
 90
       22
 70
   128
 43
0.0
 10
157.2477276291
 20
129.798399476
 10
157.4442026051
 20
129.1599419041
 10
157.7503361505
 20
128.728820453
 10
158.1389269564
 20
128.5433421556
 10
158.5754470243
 20
128.6199875725
 10
159.0211096306
 20
128.9519464222
 10
159.436315697
 20
129.5097227039
 10
159.7841723423
 20
130.2437555475
 10
160.0337709772
 20
131.0888229134
 10
160.1629336674
 20
131.9698368577
 10
160.1601837412
 20
132.8085154251
 10
160.0257655416
 20
133.5303383445
 10
159.7716227155
 20
134.0711684818
 10
159.4203369684
 20
134.3829507059
 10
159.0031215803
 20
134.437981798
 10
158.5570479695
 20
134.231372004
 10
158.1217517338
 20
133.7814795109
 10
157.7359108541
 20
133.1282792409
 10
157.4338089858
 20
132.3298109045
 10
157.2422892056
 20
131.4570219176
 10
157.1783688864
 20
130.5874634117
 10
157.2477276291
 20
129.798399476
  0
LINE
  5
145
330
1F
100
AcDbEntity
  8
0
  6
HIDDEN
 62
     7
370
     0
100
AcDbLine
 10
157.4555905172
 20
104.3784110217
 30
0.0
 11
157.4555905172
 21
104.1594218689
 31
0.0
  0
LINE
  5
146
330
1F
100
AcDbEntity
  8
0
  6
HIDDEN
 62
     7
370
     0
100
AcDbLine
 10
157.8227014529
 20
102.3003068285
 30
0.0
 11
157.9059412868
 21
102.0977546646
 31
0.0
  0
LINE
  5
147
330
1F
100
AcDbEntity
  8
0
  6
HIDDEN
 62
     7
370
     0
100
AcDbLine
 10
159.5367643959
 20
100.5466487855
 30
0.0
 11
162.723616011
 21
101.175941784
 31
0.0
  0
LINE
  5
148
330
1F
100
AcDbEntity
  8
0
  6
HIDDEN
 62
     7
370
     0
100
AcDbLine
 10
161.5612682538
 20
107.06227746
 30
0.0
 11
158.3744166386
 21
106.4329844616
 31
0.0
  0
LINE
  5
149
330
1F
100
AcDbEntity
  8
0
  6
HIDDEN
 62
     7
370
     0
100
AcDbLine
 10
163.3704753763
 20
101.7728073496
 30
0.0
 11
163.8271563654
 21
102.7259181787
 31
0.0
  0
LINE
  5
14A
330
1F
100
AcDbEntity
  8
0
  6
HIDDEN
 62
     7
370
     0
100
AcDbLine
 10
163.1711391532
 20
106.0481059631
 30
0.0
 11
162.386449558
 21
106.7560890261
 31
0.0
  0
LINE
  5
14B
330
1F
100
AcDbEntity
  8
0
  6
HIDDEN
 62
     7
370
     0
100
AcDbLine
 10
162.386449558
 20
128.1723592498
 30
0.0
 11
163.1711391532
 21
128.8803423128
 31
0.0
  0
LINE
  5
14C
330
1F
100
AcDbEntity
  8
0
  6
HIDDEN
 62
     7
370
     0
100
AcDbLine
 10
163.8271563654
 20
132.2025300971
 30
0.0
 11
163.3704753763
 21
133.1556409262
 31
0.0
  0
LINE
  5
14D
330
1F
100
AcDbEntity
  8
0
  6
HIDDEN
 62
     7
370
     0
100
AcDbLine
 10
158.3744166386
 20
128.4954638143
 30
0.0
 11
161.5612682538
 21
127.8661708158
 31
0.0
  0
LINE
  5
14E
330
1F
100
AcDbEntity
  8
0
  6
HIDDEN
 62
     7
370
     0
100
AcDbLine
 10
162.723616011
 20
133.7525064919
 30
0.0
 11
159.5367643959
 21
134.3817994904
 31
0.0
  0
LINE
  5
14F
330
1F
100
AcDbEntity
  8
0
  6
HIDDEN
 62
     7
370
     0
100
AcDbLine
 10
157.9059412868
 20
132.8306936113
 30
0.0
 11
157.8227014529
 21
132.6281414474
 31
0.0
  0
LINE
  5
150
330
1F
100
AcDbEntity
  8
0
  6
HIDDEN
 62
     7
370
     0
100
AcDbLine
 10
157.4555905172
 20
130.7690264069
 30
0.0
 11
157.4555905172
 21
130.5500372541
 31
0.0
  0
LINE
  5
151
330
1F
100
AcDbEntity
  8
0
  6
HIDDEN
 62
     7
370
     0
100
AcDbLine
 10
174.1783405172
 20
131.8905856529
 30
0.0
 11
174.1783405172
 21
130.631999656
 31
0.0
  0
LINE
  5
152
330
1F
100
AcDbEntity
  8
0
  6
HIDDEN
 62
     7
370
     0
100
AcDbLine
 10
180.1783405172
 20
130.631999656
 30
0.0
 11
180.1783405172
 21
131.8905856529
 31
0.0
  0
LINE
  5
153
330
1F
100
AcDbEntity
  8
0
  6
HIDDEN
 62
     7
370
     0
100
AcDbLine
 10
180.1783405172
 20
103.037862623
 30
0.0
 11
180.1783405172
 21
104.2964486199
 31
0.0
  0
LINE
  5
154
330
1F
100
AcDbEntity
  8
0
  6
HIDDEN
 62
     7
370
     0
100
AcDbLine
 10
174.1783405172
 20
104.2964486199
 30
0.0
 11
174.1783405172
 21
103.037862623
 31
0.0
  0
LINE
  5
155
330
1F
100
AcDbEntity
  8
0
  6
HIDDEN
 62
     7
370
     0
100
AcDbLine
 10
156.9783405172
 20
100.0414485351
 30
0.0
 11
159.2595143959
 21
100.4919014973
 31
0.0
  0
LINE
  5
156
330
1F
100
AcDbEntity
  8
0
  6
HIDDEN
 62
     7
370
     0
100
AcDbLine
 10
158.0971666386
 20
106.3782371734
 30
0.0
 11
156.9783405172
 21
106.1573077014
 31
0.0
  0
LINE
  5
157
330
1F
100
AcDbEntity
  8
0
  6
HIDDEN
 62
     7
370
     0
100
AcDbLine
 10
179.6783405172
 20
102.9285292287
 30
0.0
 11
179.6783405172
 21
116.6091737796
 31
0.0
  0
LINE
  5
158
330
1F
100
AcDbEntity
  8
0
  6
HIDDEN
 62
     7
370
     0
100
AcDbLine
 10
174.6783405172
 20
105.7712143782
 30
0.0
 11
174.6783405172
 21
102.9284007005
 31
0.0
  0
LINE
  5
159
330
1F
100
AcDbEntity
  8
0
  6
HIDDEN
 62
     7
370
     0
100
AcDbLine
 10
174.6783405172
 20
116.6091737796
 30
0.0
 11
174.6783405172
 21
107.4234812956
 31
0.0
  0
LINE
  5
15A
330
1F
100
AcDbEntity
  8
0
  6
HIDDEN
 62
     7
370
     0
100
AcDbLine
 10
159.3688489545
 20
101.430870167
 30
0.0
 11
175.5886277084
 21
104.6337156204
 31
0.0
  0
LINE
  5
15B
330
1F
100
AcDbEntity
  8
0
  6
HIDDEN
 62
     7
370
     0
100
AcDbLine
 10
175.5932098578
 20
108.9157218528
 30
0.0
 11
158.5552055244
 21
105.5513051402
 31
0.0
  0
ARC
  5
15C
330
1F
100
AcDbEntity
  8
0
  6
HIDDEN
 62
     7
370
     0
100
AcDbCircle
 10
53.3783405172
 20
103.7642241379
 30
0.0
 40
1.200000000000017
100
AcDbArc
 50
90.0
 51
180.0
  0
ARC
  5
15D
330
1F
100
AcDbEntity
  8
0
  6
HIDDEN
 62
     7
370
     0
100
AcDbCircle
 10
53.3783405172
 20
131.1642241379
 30
0.0
 40
1.200000000000017
100
AcDbArc
 50
180.0
 51
270.0
  0
LINE
  5
15E
330
1F
100
AcDbEntity
  8
0
  6
HIDDEN
 62
     7
370
     0
100
AcDbLine
 10
186.9783405172
 20
68.3640087508
 30
0.0
 11
186.9783405172
 21
80.1642241379
 31
0.0
  0
ARC
  5
15F
330
1F
100
AcDbEntity
  8
0
  6
HIDDEN
 62
     7
370
     0
100
AcDbCircle
 10
184.9783405172
 20
80.1642241379
 30
0.0
 40
2.0
100
AcDbArc
 50
0.0
 51
90.0
  0
LINE
  5
160
330
1F
100
AcDbEntity
  8
0
  6
HIDDEN
 62
     7
370
     0
100
AcDbLine
 10
186.9783405172
 20
154.7642241379
 30
0.0
 11
186.9783405172
 21
166.5643274885
 31
0.0
  0
ARC
  5
161
330
1F
100
AcDbEntity
  8
0
  6
HIDDEN
 62
     7
370
     0
100
AcDbCircle
 10
184.9783405172
 20
154.7642241379
 30
0.0
 40
2.0
100
AcDbArc
 50
270.0
 51
0.0
  0
ARC
  5
162
330
1F
100
AcDbEntity
  8
0
  6
HIDDEN
 62
     7
370
     0
100
AcDbCircle
 10
63.9474004096
 20
105.1392241379
 30
0.0
 40
0.4000000000000199
100
AcDbArc
 50
270.0
 51
330.0
  0
ARC
  5
163
330
1F
100
AcDbEntity
  8
0
  6
HIDDEN
 62
     7
370
     0
100
AcDbCircle
 10
63.9474004096
 20
129.7892241379
 30
0.0
 40
0.4000000000000057
100
AcDbArc
 50
30.0
 51
90.0
  0
LINE
  5
164
330
1F
100
AcDbEntity
  8
0
  6
HIDDEN
 62
     7
370
     0
100
AcDbLine
 10
63.070712948
 20
104.7392241379
 30
0.0
 11
63.9474004096
 21
104.7392241379
 31
0.0
  0
LINE
  5
165
330
1F
100
AcDbEntity
  8
0
  6
HIDDEN
 62
     7
370
     0
100
AcDbLine
 10
63.9474004096
 20
130.1892241379
 30
0.0
 11
63.070712948
 21
130.1892241379
 31
0.0
  0
ARC
  5
166
330
1F
100
AcDbEntity
  8
0
  6
HIDDEN
 62
     7
370
     0
100
AcDbCircle
 10
63.070712948
 20
105.1392241379
 30
0.0
 40
0.4000000000000199
100
AcDbArc
 50
255.0
 51
270.0
  0
ARC
  5
167
330
1F
100
AcDbEntity
  8
0
  6
HIDDEN
 62
     7
370
     0
100
AcDbCircle
 10
63.070712948
 20
129.7892241379
 30
0.0
 40
0.4000000000000261
100
AcDbArc
 50
90.0
 51
105.0
  0
LINE
  5
168
330
1F
100
AcDbEntity
  8
0
  6
HIDDEN
 62
     7
370
     0
100
AcDbLine
 10
62.9671853299
 20
130.1755944684
 30
0.0
 11
62.1783405172
 21
129.9642241379
 31
0.0
  0
LINE
  5
169
330
1F
100
AcDbEntity
  8
0
  6
HIDDEN
 62
     7
370
     0
100
AcDbLine
 10
62.1783405172
 20
104.9642241379
 30
0.0
 11
62.9671853299
 21
104.7528538074
 31
0.0
  0
LINE
  5
16A
330
1F
100
AcDbEntity
  8
0
  6
HIDDEN
 62
     7
370
     0
100
AcDbLine
 10
64.2938105711
 20
104.9392241379
 30
0.0
 11
65.4629448662
 21
106.9642241379
 31
0.0
  0
LINE
  5
16B
330
1F
100
AcDbEntity
  8
0
  6
HIDDEN
 62
     7
370
     0
100
AcDbLine
 10
65.4629448662
 20
127.9642241379
 30
0.0
 11
64.2938105711
 21
129.9892241379
 31
0.0
  0
LINE
  5
16C
330
1F
100
AcDbEntity
  8
0
  6
HIDDEN
 62
     7
370
     0
100
AcDbLine
 10
53.3783405172
 20
104.9642241379
 30
0.0
 11
62.1783405172
 21
104.9642241379
 31
0.0
  0
LINE
  5
16D
330
1F
100
AcDbEntity
  8
0
  6
HIDDEN
 62
     7
370
     0
100
AcDbLine
 10
62.1783405172
 20
129.9642241379
 30
0.0
 11
53.3783405172
 21
129.9642241379
 31
0.0
  0
LINE
  5
16E
330
1F
100
AcDbEntity
  8
0
  6
HIDDEN
 62
     7
370
     0
100
AcDbLine
 10
65.4629448662
 20
106.9642241379
 30
0.0
 11
115.1783405172
 21
106.9642241379
 31
0.0
  0
LINE
  5
16F
330
1F
100
AcDbEntity
  8
0
  6
HIDDEN
 62
     7
370
     0
100
AcDbLine
 10
115.1783405172
 20
127.9642241379
 30
0.0
 11
65.4629448662
 21
127.9642241379
 31
0.0
  0
LINE
  5
170
330
1F
100
AcDbEntity
  8
0
  6
HIDDEN
 62
     7
370
     0
100
AcDbLine
 10
115.1783405172
 20
106.9642241379
 30
0.0
 11
119.9852254695
 21
114.9642241379
 31
0.0
  0
LINE
  5
171
330
1F
100
AcDbEntity
  8
0
  6
HIDDEN
 62
     7
370
     0
100
AcDbLine
 10
119.9852254695
 20
119.9642241379
 30
0.0
 11
115.1783405172
 21
127.9642241379
 31
0.0
  0
LINE
  5
172
330
1F
100
AcDbEntity
  8
0
  6
HIDDEN
 62
     7
370
     0
100
AcDbLine
 10
186.9783448376
 20
166.4642246616
 30
0.0
 11
187.978344687
 21
167.4642244405
 31
0.0
  0
LINE
  5
173
330
1F
100
AcDbEntity
  8
0
  6
HIDDEN
 62
     7
370
     0
100
AcDbLine
 10
187.9783446877
 20
67.4642238347
 30
0.0
 11
186.9783448383
 21
68.4642236135
 31
0.0
  0
ARC
  5
174
330
1F
100
AcDbEntity
  8
0
  6
HIDDEN
 62
     7
370
     0
100
AcDbCircle
 10
256.9783405172
 20
125.4642241379
 30
0.0
 40
1.0
100
AcDbArc
 50
270.0
 51
0.0
  0
ARC
  5
175
330
1F
100
AcDbEntity
  8
0
  6
HIDDEN
 62
     7
370
     0
100
AcDbCircle
 10
256.9783405172
 20
109.4642241379
 30
0.0
 40
1.0
100
AcDbArc
 50
0.0
 51
90.0
  0
ARC
  5
176
330
1F
100
AcDbEntity
  8
0
  6
HIDDEN
 62
     7
370
     0
100
AcDbCircle
 10
240.2783405172
 20
124.1642241379
 30
0.0
 40
0.8000000000000114
100
AcDbArc
 50
90.0
 51
180.0
  0
ARC
  5
177
330
1F
100
AcDbEntity
  8
0
  6
HIDDEN
 62
     7
370
     0
100
AcDbCircle
 10
240.2783405172
 20
110.7642241379
 30
0.0
 40
0.8000000000000114
100
AcDbArc
 50
180.0
 51
270.0
  0
LINE
  5
178
330
1F
100
AcDbEntity
  8
0
  6
HIDDEN
 62
     7
370
     0
100
AcDbLine
 10
240.8730185192
 20
124.9642241379
 30
0.0
 11
240.2783405172
 21
124.9642241379
 31
0.0
  0
LINE
  5
179
330
1F
100
AcDbEntity
  8
0
  6
HIDDEN
 62
     7
370
     0
100
AcDbLine
 10
240.2783405172
 20
109.9642241379
 30
0.0
 11
240.8730185192
 21
109.9642241379
 31
0.0
  0
ARC
  5
17A
330
1F
100
AcDbEntity
  8
0
  6
HIDDEN
 62
     7
370
     0
100
AcDbCircle
 10
240.8730185192
 20
124.1642241379
 30
0.0
 40
0.7999999999999972
100
AcDbArc
 50
75.0
 51
90.0
  0
ARC
  5
17B
330
1F
100
AcDbEntity
  8
0
  6
HIDDEN
 62
     7
370
     0
100
AcDbCircle
 10
240.8730185192
 20
110.7642241379
 30
0.0
 40
0.7999999999999972
100
AcDbArc
 50
270.0
 51
285.0
  0
LINE
  5
17C
330
1F
100
AcDbEntity
  8
0
  6
HIDDEN
 62
     7
370
     0
100
AcDbLine
 10
241.0800737553
 20
109.9914834769
 30
0.0
 11
242.844365921
 21
110.4642241379
 31
0.0
  0
LINE
  5
17D
330
1F
100
AcDbEntity
  8
0
  6
HIDDEN
 62
     7
370
     0
100
AcDbLine
 10
242.844365921
 20
124.4642241379
 30
0.0
 11
241.0800737553
 21
124.936964799
 31
0.0
  0
LINE
  5
17E
330
1F
100
AcDbEntity
  8
0
  6
HIDDEN
 62
     7
370
     0
100
AcDbLine
 10
256.9783405172
 20
124.4642241379
 30
0.0
 11
242.844365921
 21
124.4642241379
 31
0.0
  0
LINE
  5
17F
330
1F
100
AcDbEntity
  8
0
  6
HIDDEN
 62
     7
370
     0
100
AcDbLine
 10
242.844365921
 20
110.4642241379
 30
0.0
 11
256.9783405172
 21
110.4642241379
 31
0.0
  0
LINE
  5
180
330
1F
100
AcDbEntity
  8
0
  6
HIDDEN
 62
     7
370
     0
100
AcDbLine
 10
178.0333908756
 20
114.9642241379
 30
0.0
 11
239.4783405172
 21
114.9642241379
 31
0.0
  0
LINE
  5
181
330
1F
100
AcDbEntity
  8
0
  6
HIDDEN
 62
     7
370
     0
100
AcDbLine
 10
239.4783405172
 20
119.9642241379
 30
0.0
 11
178.0333908756
 21
119.9642241379
 31
0.0
  0
LINE
  5
182
330
1F
100
AcDbEntity
  8
0
  6
HIDDEN
 62
     7
370
     0
100
AcDbLine
 10
119.9852254695
 20
114.9642241379
 30
0.0
 11
176.3232901589
 21
114.9642241379
 31
0.0
  0
LINE
  5
183
330
1F
100
AcDbEntity
  8
0
  6
HIDDEN
 62
     7
370
     0
100
AcDbLine
 10
176.3232901589
 20
119.9642241379
 30
0.0
 11
119.9852254695
 21
119.9642241379
 31
0.0
  0
LINE
  5
184
330
1F
100
AcDbEntity
  8
0
  6
HIDDEN
 62
     7
370
     0
100
AcDbLine
 10
179.6783405172
 20
118.3192744962
 30
0.0
 11
179.6783405172
 21
132.0000475754
 31
0.0
  0
LINE
  5
185
330
1F
100
AcDbEntity
  8
0
  6
HIDDEN
 62
     7
370
     0
100
AcDbLine
 10
174.6783405172
 20
127.5063046159
 30
0.0
 11
174.6783405172
 21
118.3192744962
 31
0.0
  0
LINE
  5
186
330
1F
100
AcDbEntity
  8
0
  6
HIDDEN
 62
     7
370
     0
100
AcDbLine
 10
174.6783405172
 20
131.9999190472
 30
0.0
 11
174.6783405172
 21
129.1573206393
 31
0.0
  0
LINE
  5
187
330
1F
100
AcDbEntity
  8
0
  6
HIDDEN
 62
     7
370
     0
100
AcDbLine
 10
158.5552055244
 20
129.3771431356
 30
0.0
 11
175.5931442418
 21
126.0127393799
 31
0.0
  0
LINE
  5
188
330
1F
100
AcDbEntity
  8
0
  6
HIDDEN
 62
     7
370
     0
100
AcDbLine
 10
175.5889275527
 20
130.2946734466
 30
0.0
 11
159.3688489545
 21
133.4975781089
 31
0.0
  0
LINE
  5
189
330
1F
100
AcDbEntity
  8
0
  6
HIDDEN
 62
     7
370
     0
100
AcDbLine
 10
156.9783405172
 20
128.7711405745
 30
0.0
 11
158.0971666386
 21
128.5502111025
 31
0.0
  0
LINE
  5
18A
330
1F
100
AcDbEntity
  8
0
  6
HIDDEN
 62
     7
370
     0
100
AcDbLine
 10
159.2595143959
 20
134.4365467785
 30
0.0
 11
156.9783405172
 21
134.8869997407
 31
0.0
  0
CIRCLE
  5
18B
330
1F
100
AcDbEntity
  8
0
  6
HIDDEN
 62
     7
370
     0
100
AcDbCircle
 10
248.9283405172
 20
117.4642241379
 30
0.0
 40
2.959579651493027
  0
CIRCLE
  5
18C
330
1F
100
AcDbEntity
  8
0
  6
HIDDEN
 62
     7
370
     0
100
AcDbCircle
 10
248.9283405172
 20
117.4642241379
 30
0.0
 40
2.669801903606307
  0
LINE
  5
18D
330
1F
100
AcDbEntity
  8
0
  6
HIDDEN
 62
     7
370
     0
100
AcDbLine
 10
157.9783405172
 20
154.7642241379
 30
0.0
 11
156.9783405172
 21
154.7642241379
 31
0.0
  0
LINE
  5
18E
330
1F
100
AcDbEntity
  8
0
  6
HIDDEN
 62
     7
370
     0
100
AcDbLine
 10
156.9783405172
 20
80.1642241379
 30
0.0
 11
157.9783405172
 21
80.1642241379
 31
0.0
  0
LINE
  5
18F
330
1F
100
AcDbEntity
  8
0
  6
HIDDEN
 62
     7
370
     0
100
AcDbLine
 10
53.3783405172
 20
129.9642241379
 30
0.0
 11
53.3783405172
 21
104.9642241379
 31
0.0
  0
LINE
  5
190
330
1F
100
AcDbEntity
  8
0
  6
HIDDEN
 62
     7
370
     0
100
AcDbLine
 10
174.1283405172
 20
76.8846929238
 30
0.0
 11
174.1283405172
 21
80.1642241379
 31
0.0
  0
LINE
  5
191
330
1F
100
AcDbEntity
  8
0
  6
HIDDEN
 62
     7
370
     0
100
AcDbLine
 10
174.1283405172
 20
80.1642241379
 30
0.0
 11
186.9783405172
 21
80.1642241379
 31
0.0
  0
LINE
  5
192
330
1F
100
AcDbEntity
  8
0
  6
HIDDEN
 62
     7
370
     0
100
AcDbLine
 10
174.1283405172
 20
152.7642241379
 30
0.0
 11
174.1283405172
 21
154.7642241379
 31
0.0
  0
LINE
  5
193
330
1F
100
AcDbEntity
  8
0
  6
HIDDEN
 62
     7
370
     0
100
AcDbLine
 10
174.1283405172
 20
154.7642241379
 30
0.0
 11
157.9783405172
 21
154.7642241379
 31
0.0
  0
LINE
  5
194
330
1F
100
AcDbEntity
  8
0
  6
HIDDEN
 62
     7
370
     0
100
AcDbLine
 10
174.1283405172
 20
80.1642241379
 30
0.0
 11
174.1283405172
 21
82.1642241379
 31
0.0
  0
LINE
  5
195
330
1F
100
AcDbEntity
  8
0
  6
HIDDEN
 62
     7
370
     0
100
AcDbLine
 10
174.1283405172
 20
80.1642241379
 30
0.0
 11
174.1283405172
 21
82.1642241379
 31
0.0
  0
LINE
  5
196
330
1F
100
AcDbEntity
  8
0
  6
HIDDEN
 62
     7
370
     0
100
AcDbLine
 10
174.1283405172
 20
154.7642241379
 30
0.0
 11
186.9783405172
 21
154.7642241379
 31
0.0
  0
LINE
  5
197
330
1F
100
AcDbEntity
  8
0
  6
HIDDEN
 62
     7
370
     0
100
AcDbLine
 10
174.1283405172
 20
158.0437553521
 30
0.0
 11
174.1283405172
 21
154.7642241379
 31
0.0
  0
LINE
  5
198
330
1F
100
AcDbEntity
  8
0
  6
HIDDEN
 62
     7
370
     0
100
AcDbLine
 10
157.9783405172
 20
80.1642241379
 30
0.0
 11
174.1283405172
 21
80.1642241379
 31
0.0
  0
LINE
  5
199
330
1F
100
AcDbEntity
  8
0
  6
HIDDEN
 62
     7
370
     0
100
AcDbLine
 10
174.1283405172
 20
152.7642241379
 30
0.0
 11
174.1283405172
 21
154.7642241379
 31
0.0
  0
LINE
  5
19A
330
1F
100
AcDbEntity
  8
0
  6
HIDDEN
 62
     7
370
     0
100
AcDbLine
 10
63.9474004096
 20
130.1892241379
 30
0.0
 11
63.9474004096
 21
104.7392241379
 31
0.0
  0
LINE
  5
19B
330
1F
100
AcDbEntity
  8
0
  6
HIDDEN
 62
     7
370
     0
100
AcDbLine
 10
64.2938105711
 20
129.9892241379
 30
0.0
 11
64.2938105711
 21
104.9392241379
 31
0.0
  0
LINE
  5
19C
330
1F
100
AcDbEntity
  8
0
  6
HIDDEN
 62
     7
370
     0
100
AcDbLine
 10
63.070712948
 20
130.1892241379
 30
0.0
 11
63.070712948
 21
104.7392241379
 31
0.0
  0
LINE
  5
19D
330
1F
100
AcDbEntity
  8
0
  6
HIDDEN
 62
     7
370
     0
100
AcDbLine
 10
62.9671853299
 20
130.1755944684
 30
0.0
 11
62.9671853299
 21
104.7528538074
 31
0.0
  0
LINE
  5
19E
330
1F
100
AcDbEntity
  8
0
  6
HIDDEN
 62
     7
370
     0
100
AcDbLine
 10
256.9783405172
 20
124.4642241379
 30
0.0
 11
256.9783405172
 21
110.4721527636
 31
0.0
  0
LINE
  5
19F
330
1F
100
AcDbEntity
  8
0
  6
HIDDEN
 62
     7
370
     0
100
AcDbLine
 10
240.2783405172
 20
124.9642241379
 30
0.0
 11
240.2783405172
 21
109.9962178157
 31
0.0
  0
LINE
  5
1A0
330
1F
100
AcDbEntity
  8
0
  6
HIDDEN
 62
     7
370
     0
100
AcDbLine
 10
240.8730185192
 20
124.9642241379
 30
0.0
 11
240.8730185192
 21
109.9962178157
 31
0.0
  0
LINE
  5
1A1
330
1F
100
AcDbEntity
  8
0
  6
HIDDEN
 62
     7
370
     0
100
AcDbLine
 10
241.0800737553
 20
124.936964799
 30
0.0
 11
241.0800737553
 21
110.0233608712
 31
0.0
  0
LINE
  5
1A2
330
1F
100
AcDbEntity
  8
0
  6
HIDDEN
 62
     7
370
     0
100
AcDbLine
 10
179.911333283
 20
158.3857405484
 30
0.0
 11
179.911333283
 21
76.5427077275
 31
0.0
  0
LINE
  5
1A3
330
1F
100
AcDbEntity
  8
0
  6
HIDDEN
 62
     7
370
     0
100
AcDbLine
 10
180.604153606
 20
158.9036215172
 30
0.0
 11
180.604153606
 21
76.0248267586
 31
0.0
  0
LINE
  5
1A4
330
1F
100
AcDbEntity
  8
0
  6
HIDDEN
 62
     7
370
     0
100
AcDbLine
 10
174.4453477515
 20
157.9762963336
 30
0.0
 11
174.4453477515
 21
76.9521519423
 31
0.0
  0
LINE
  5
1A5
330
1F
100
AcDbEntity
  8
0
  6
HIDDEN
 62
     7
370
     0
100
AcDbLine
 10
173.7525274285
 20
158.3945002181
 30
0.0
 11
173.7525274285
 21
76.5339480577
 31
0.0
  0
LINE
  5
1A6
330
1F
100
AcDbEntity
  8
0
  6
HIDDEN
 62
     7
370
     0
100
AcDbLine
 10
157.9783405172
 20
165.5693156334
 30
0.0
 11
157.9783405172
 21
164.7847942919
 31
0.0
  0
LINE
  5
1A7
330
1F
100
AcDbEntity
  8
0
  6
HIDDEN
 62
     7
370
     0
100
AcDbLine
 10
157.9783405172
 20
154.7642241379
 30
0.0
 11
157.9783405172
 21
80.1642241379
 31
0.0
  0
LINE
  5
1A8
330
1F
100
AcDbEntity
  8
0
  6
HIDDEN
 62
     7
370
     0
100
AcDbLine
 10
157.9783405172
 20
70.143653984
 30
0.0
 11
157.9783405172
 21
69.3591326425
 31
0.0
  0
DIMENSION
  5
1A9
330
1F
100
AcDbEntity
  8
VERMASSUNG
100
AcDbDimension
  2
_D
 10
36.1783405172
 20
167.4642241379
 30
0.0
 11
36.1783405172
 21
117.4642241379
 31
0.0
 70
   160
  1
MAS-BT 50 %%c<>
 71
     2
 42
-1.0
  3
SLDDIMSTYLE0
100
AcDbAlignedDimension
 13
190.9783405172
 23
67.4642241379
 33
0.0
 14
190.9783405172
 24
167.4642241379
 34
0.0
 50
90.0
100
AcDbRotatedDimension
  0
DIMENSION
  5
1B6
330
1F
100
AcDbEntity
  8
VERMASSUNG
100
AcDbDimension
  2
_D_1
 10
257.9783405172
 20
186.5781621791
 30
0.0
 11
155.0783405172
 21
186.5781621791
 31
0.0
 70
   160
  1
<>
 71
     2
 42
-1.0
  3
SLDDIMSTYLE0
100
AcDbAlignedDimension
 13
52.1783405172
 23
135.8139019987
 33
0.0
 14
257.9783405172
 24
129.7642241379
 34
0.0
100
AcDbRotatedDimension
  0
DIMENSION
  5
1C0
330
1F
100
AcDbEntity
  8
VERMASSUNG
100
AcDbDimension
  2
_D_2
 10
257.9783405172
 20
180.5781621791
 30
0.0
 11
205.9783405172
 21
180.5781621791
 31
0.0
 70
   160
  1
<>
 71
     2
 42
-1.0
  3
SLDDIMSTYLE0
100
AcDbAlignedDimension
 13
153.9783405172
 23
152.3892241379
 33
0.0
 14
257.9783405172
 24
129.7642241379
 34
0.0
100
AcDbRotatedDimension
  0
DIMENSION
  5
1CA
330
1F
100
AcDbEntity
  8
VERMASSUNG
100
AcDbDimension
  2
_D_3
 10
257.9783405172
 20
174.5781621791
 30
0.0
 11
224.9783405172
 21
174.5781621791
 31
0.0
 70
   160
  1
<>
 71
     2
 42
-1.0
  3
SLDDIMSTYLE0
100
AcDbAlignedDimension
 13
191.9783405172
 23
166.4642241379
 33
0.0
 14
257.9783405172
 24
129.7642241379
 34
0.0
100
AcDbRotatedDimension
  0
DIMENSION
  5
1D4
330
1F
100
AcDbEntity
  8
VERMASSUNG
100
AcDbDimension
  2
_D_4
 10
274.0436202843
 20
104.9642241379
 30
0.0
 11
274.0436202843
 21
117.4642241379
 31
0.0
 70
   160
  1
%%c<>
 71
     2
 42
-1.0
  3
SLDDIMSTYLE0
100
AcDbAlignedDimension
 13
257.7783405172
 23
129.9642241379
 33
0.0
 14
257.7783405172
 24
104.9642241379
 34
0.0
 50
90.0
100
AcDbRotatedDimension
  0
DIMENSION
  5
1DF
330
1F
100
AcDbEntity
  8
VERMASSUNG
100
AcDbDimension
  2
_D_5
 10
267.7436202843
 20
110.4642241379
 30
0.0
 11
267.7436202843
 21
117.4642241379
 31
0.0
 70
   160
  1
%%c<>
 71
     2
 42
-1.0
  3
SLDDIMSTYLE0
100
AcDbAlignedDimension
 13
256.9783405172
 23
124.4642241379
 33
0.0
 14
256.9783405172
 24
110.4642241379
 34
0.0
 50
90.0
100
AcDbRotatedDimension
  0
LINE
  5
1EA
330
1F
100
AcDbEntity
  8
VERMASSUNG
  6
CENTERX2
370
     0
100
AcDbLine
 10
50.1783405172
 20
117.4642241379
 30
0.0
 11
261.2550646552
 21
117.4642241379
 31
0.0
  0
LINE
  5
1EB
330
1F
100
AcDbEntity
  8
0
  6
Continuous
 62
     7
370
    15
100
AcDbLine
 10
274.6326302427
 20
39.1498671048
 30
0.0
 11
274.6326302427
 21
38.7415966989
 31
0.0
  0
LINE
  5
1EC
330
1F
100
AcDbEntity
  8
0
  6
Continuous
 62
     7
370
    15
100
AcDbLine
 10
278.6326302427
 20
38.7415966989
 30
0.0
 11
278.6326302427
 21
39.1498671048
 31
0.0
  0
SPLINE
  5
1ED
330
1F
100
AcDbEntity
  8
0
  6
Continuous
 62
     7
370
    15
100
AcDbSpline
210
0.0
220
0.0
230
1.0
 70
     8
 71
     3
 72
    21
 73
    17
 74
     0
 42
0.000000001
 43
0.00000001
 40
0.0
 40
0.0
 40
0.0
 40
0.0
 40
0.0173758674625957
 40
0.0926028857879612
 40
0.1681405220998714
 40
0.2439511530418597
 40
0.3199684883436351
 40
0.3961217741112891
 40
0.4723505865198206
 40
0.5486102486216298
 40
0.6248655863342333
 40
0.7011013947300125
 40
0.7773113016435946
 40
0.8534939089306917
 40
0.9296509021774152
 40
1.0
 40
1.0
 40
1.0
 40
1.0
 10
247.5075717072276
 20
23.05785955210211
 30
0.0
 10
247.6018139348915
 20
23.04599350530605
 30
0.0
 10
248.104068125282
 20
22.98275463803368
 30
0.0
 10
249.0656409121226
 20
23.01146942503245
 30
0.0
 10
250.3857257956368
 20
23.15021550109357
 30
0.0
 10
251.7472544645081
 20
23.44575306610122
 30
0.0
 10
253.13586914583
 20
23.88110944932145
 30
0.0
 10
254.5438198420761
 20
24.45763183504594
 30
0.0
 10
255.9614006593029
 20
25.17030152783063
 30
0.0
 10
257.379444985029
 20
26.01453575399362
 30
0.0
 10
258.7888685469969
 20
26.98446889701777
 30
0.0
 10
260.1806801070455
 20
28.07380765305199
 30
0.0
 10
261.5466961591121
 20
29.2748019917208
 30
0.0
 10
262.876821674577
 20
30.58203638991187
 30
0.0
 10
264.1363761335054
 20
31.9431256151013
 30
0.0
 10
264.9226421453581
 20
32.90838535193001
 30
0.0
 10
265.3001903017432
 20
33.37188247450522
 30
0.0
  0
SPLINE
  5
1EE
330
1F
100
AcDbEntity
  8
0
  6
Continuous
 62
     7
370
    15
100
AcDbSpline
210
0.0
220
0.0
230
1.0
 70
     8
 71
     3
 72
    21
 73
    17
 74
     0
 42
0.000000001
 43
0.00000001
 40
0.0
 40
0.0
 40
0.0
 40
0.0
 40
0.0543599900076831
 40
0.1304068259766097
 40
0.206478645989008
 40
0.282580579031276
 40
0.3587169083437544
 40
0.4348903241497903
 40
0.5111007170079569
 40
0.5873433247080322
 40
0.6636060584534057
 40
0.7398560682313272
 40
0.816049671970908
 40
0.8921259519682427
 40
0.9680095629569605
 40
1.0
 40
1.0
 40
1.0
 40
1.0
 10
271.5441832233778
 20
44.20066785022335
 30
0.0
 10
271.7128767008491
 20
44.63252926759403
 30
0.0
 10
272.1175636950312
 20
45.66854264237775
 30
0.0
 10
272.6430744853744
 20
47.31422521022492
 30
0.0
 10
273.1328623949705
 20
49.12270372706607
 30
0.0
 10
273.5121212303306
 20
50.91167364390792
 30
0.0
 10
273.7826294980077
 20
52.66963717291475
 30
0.0
 10
273.9411917754069
 20
54.38581884983935
 30
0.0
 10
273.9867414891564
 20
56.04954214124918
 30
0.0
 10
273.9183843917169
 20
57.65036670393854
 30
0.0
 10
273.7361766257783
 20
59.17826723095071
 30
0.0
 10
273.4401493175971
 20
60.62263829151362
 30
0.0
 10
273.0338146844446
 20
61.97623567520166
 30
0.0
 10
272.5116981407791
 20
63.22066346686249
 30
0.0
 10
272.0223099826802
 20
64.15849570127095
 30
0.0
 10
271.6713808493029
 20
64.63604374274051
 30
0.0
 10
271.5673115522596
 20
64.77766233251626
 30
0.0
  0
LINE
  5
1EF
330
1F
100
AcDbEntity
  8
0
  6
Continuous
 62
     7
370
    15
100
AcDbLine
 10
241.4266795739
 20
25.5037182165
 30
0.0
 11
243.6452270998
 21
24.222977991
 31
0.0
  0
LINE
  5
1F0
330
1F
100
AcDbEntity
  8
0
  6
Continuous
 62
     7
370
    15
100
AcDbLine
 10
268.6431954157
 20
67.5254211101
 30
0.0
 11
266.4246478898
 21
68.8061613355
 31
0.0
  0
LINE
  5
1F1
330
1F
100
AcDbEntity
  8
0
  6
Continuous
 62
     7
370
    15
100
AcDbLine
 10
279.762296029
 20
27.1372187302
 30
0.0
 11
279.8329952147
 21
27.1780457703
 31
0.0
  0
LINE
  5
1F2
330
1F
100
AcDbEntity
  8
0
  6
Continuous
 62
     7
370
    15
100
AcDbLine
 10
284.1809951318
 20
34.7098186214
 30
0.0
 11
284.1809951318
 21
34.7914594326
 31
0.0
  0
LINE
  5
1F3
330
1F
100
AcDbEntity
  8
0
  6
Continuous
 62
     7
370
    15
100
AcDbLine
 10
282.8863237889
 20
37.652989473
 30
0.0
 11
260.6831708596
 21
50.4705968286
 31
0.0
  0
LINE
  5
1F4
330
1F
100
AcDbEntity
  8
0
  6
Continuous
 62
     7
370
    15
100
AcDbLine
 10
254.4336787807
 20
39.6449860489
 30
0.0
 11
276.6368317099
 21
26.8273786932
 31
0.0
  0
SPLINE
  5
1F5
330
1F
100
AcDbEntity
  8
0
  6
Continuous
 62
     7
370
    15
100
AcDbSpline
210
0.0
220
0.0
230
1.0
 70
     8
 71
     3
 72
    20
 73
    16
 74
     0
 42
0.000000001
 43
0.00000001
 40
0.0
 40
0.0
 40
0.0
 40
0.0
 40
0.0257959272470821
 40
0.1148086651678768
 40
0.1965766110998004
 40
0.2839645646370334
 40
0.3690411246399319
 40
0.4539001201580304
 40
0.5391645008902763
 40
0.6248990755625184
 40
0.7109057556090445
 40
0.7969185090936471
 40
0.8825694122983966
 40
0.9675881757458866
 40
0.9999999999999999
 40
0.9999999999999999
 40
0.9999999999999999
 40
0.9999999999999999
 10
277.7538586379085
 20
29.37238262821886
 30
0.0
 10
277.7253584830381
 20
29.3838183072228
 30
0.0
 10
277.5985142449379
 20
29.43471452154204
 30
0.0
 10
277.4368101875632
 20
29.62223705442323
 30
0.0
 10
277.2531097018058
 20
29.96861365802673
 30
0.0
 10
277.150286938511
 20
30.44047317333788
 30
0.0
 10
277.1427275875971
 20
31.01633946094439
 30
0.0
 10
277.2384117849314
 20
31.65345183396842
 30
0.0
 10
277.435889299273
 20
32.32508546271322
 30
0.0
 10
277.7290727626176
 20
33.00117478765835
 30
0.0
 10
278.1058586570782
 20
33.64972319057098
 30
0.0
 10
278.5486939729655
 20
34.24010230615645
 30
0.0
 10
279.0346953561307
 20
34.74251074609921
 30
0.0
 10
279.4368469658979
 20
35.06019424279697
 30
0.0
 10
279.665581951265
 20
35.19844590649102
 30
0.0
 10
279.7287147200912
 20
35.23660452184154
 30
0.0
  0
SPLINE
  5
1F6
330
1F
100
AcDbEntity
  8
0
  6
Continuous
 62
     7
370
    15
100
AcDbSpline
210
0.0
220
0.0
230
1.0
 70
     8
 71
     3
 72
    12
 73
     8
 74
     0
 42
0.000000001
 43
0.00000001
 40
0.0
 40
0.0
 40
0.0
 40
0.0
 40
0.1368552119169986
 40
0.3981929302416783
 40
0.6598002274827477
 40
0.9286031364782703
 40
1.0
 40
1.0
 40
1.0
 40
1.0
 10
279.7287147200912
 20
35.23660452184154
 30
0.0
 10
279.8130463000215
 20
35.28219479721064
 30
0.0
 10
280.0584168522567
 20
35.41484393117823
 30
0.0
 10
280.4426643407137
 20
35.54092771234146
 30
0.0
 10
280.8333270667959
 20
35.56498020632363
 30
0.0
 10
281.0783563560403
 20
35.52702653877397
 30
0.0
 10
281.1819606560059
 20
35.45068905128722
 30
0.0
 10
281.2037038277022
 20
35.43466829637796
 30
0.0
  0
LINE
  5
1F7
330
1F
100
AcDbEntity
  8
0
  6
Continuous
 62
     7
370
    15
100
AcDbLine
 10
261.1036693613
 20
71.8778968562
 30
0.0
 11
256.9759335261
 21
74.2607880326
 31
0.0
  0
SPLINE
  5
1F8
330
1F
100
AcDbEntity
  8
0
  6
Continuous
 62
     7
370
    15
100
AcDbSpline
210
0.0
220
0.0
230
1.0
 70
     8
 71
     3
 72
    31
 73
    27
 74
     0
 42
0.000000001
 43
0.00000001
 40
0.0
 40
0.0
 40
0.0
 40
0.0
 40
0.018342481450696
 40
0.0620149509310538
 40
0.105864957153825
 40
0.1498655462930296
 40
0.1939766288579195
 40
0.2381579821269867
 40
0.2823764970167145
 40
0.3266079441111511
 40
0.370833879296485
 40
0.415047333874742
 40
0.4592453778710863
 40
0.503427682981613
 40
0.5475955173449968
 40
0.5917510864138393
 40
0.6358971226055855
 40
0.6800366424902103
 40
0.724172811530625
 40
0.768308874283194
 40
0.8124474407720712
 40
0.856591413997809
 40
0.9007441210778869
 40
0.9449088566948951
 40
0.9890887974791109
 40
1.0
 40
1.0
 40
1.0
 40
1.0
 10
253.0687179813981
 20
75.42464397847623
 30
0.0
 10
252.8958538777384
 20
75.44260571063553
 30
0.0
 10
252.3114095682261
 20
75.50333336853123
 30
0.0
 10
251.2626750425377
 20
75.45368349083249
 30
0.0
 10
249.932512686528
 20
75.27974783278745
 30
0.0
 10
248.5641160135566
 20
74.9525917444493
 30
0.0
 10
247.1703459936606
 20
74.48524781682482
 30
0.0
 10
245.7594226909838
 20
73.87776381562813
 30
0.0
 10
244.3409351699014
 20
73.13508262338776
 30
0.0
 10
242.9240427960625
 20
72.26208377091501
 30
0.0
 10
241.5178078373304
 20
71.26474025056956
 30
0.0
 10
240.1310513905698
 20
70.14967075259034
 30
0.0
 10
238.7723541868032
 20
68.92413946484668
 30
0.0
 10
237.4500900192159
 20
67.59602682398679
 30
0.0
 10
236.1724008458757
 20
66.17379767553642
 30
0.0
 10
234.947161039972
 20
64.66645822214954
 30
0.0
 10
233.7819364600057
 20
63.08351006748149
 30
0.0
 10
232.6839437777365
 20
61.43489884227633
 30
0.0
 10
231.6599987656293
 20
59.73095491661858
 30
0.0
 10
230.7165115210775
 20
57.98234904574219
 30
0.0
 10
229.8593238515376
 20
56.19999349531065
 30
0.0
 10
229.094116012174
 20
54.39508380306985
 30
0.0
 10
228.4247069122874
 20
52.5785865016385
 30
0.0
 10
227.8592516399513
 20
50.76278586924533
 30
0.0
 10
227.5056032032259
 20
49.40915485955887
 30
0.0
 10
227.3482775398647
 20
48.66666987517767
 30
0.0
 10
227.3171180454037
 20
48.51961531164401
 30
0.0
  0
LINE
  5
1F9
330
1F
100
AcDbEntity
  8
0
  6
Continuous
 62
     7
370
    15
100
AcDbLine
 10
242.5531461715
 20
71.9770632268
 30
0.0
 11
212.206585514
 21
82.9127607917
 31
0.0
  0
LINE
  5
1FA
330
1F
100
AcDbEntity
  8
0
  6
Continuous
 62
     7
370
    15
100
AcDbLine
 10
202.0972308386
 20
65.4009474208
 30
0.0
 11
231.5609681652
 21
40.5220111954
 31
0.0
  0
LINE
  5
1FB
330
1F
100
AcDbEntity
  8
0
  6
Continuous
 62
     7
370
    15
100
AcDbLine
 10
231.9779652102
 20
30.9583449136
 30
0.0
 11
236.1057010454
 21
28.5754537372
 31
0.0
  0
SPLINE
  5
1FC
330
1F
100
AcDbEntity
  8
0
  6
Continuous
 62
     7
370
    15
100
AcDbSpline
210
0.0
220
0.0
230
1.0
 70
     8
 71
     3
 72
    11
 73
     7
 74
     0
 42
0.000000001
 43
0.00000001
 40
0.0
 40
0.0
 40
0.0
 40
0.0
 40
0.1050885860694574
 40
0.4236183153902486
 40
0.7416590627631888
 40
1.0
 40
1.0
 40
1.0
 40
1.0
 10
227.3224064804575
 20
37.43275727303617
 30
0.0
 10
227.3648132358445
 20
37.28240365956376
 30
0.0
 10
227.5357573787823
 20
36.67631933742888
 30
0.0
 10
227.9168701528504
 20
35.68630264450142
 30
0.0
 10
228.4568171916252
 20
34.56861293780179
 30
0.0
 10
228.8872507420382
 20
33.93862728500671
 30
0.0
 10
229.0801760375516
 20
33.65626042926767
 30
0.0
  0
SPLINE
  5
1FD
330
1F
100
AcDbEntity
  8
0
  6
Continuous
 62
     7
370
    15
100
AcDbSpline
210
0.0
220
0.0
230
1.0
 70
     8
 71
     3
 72
    26
 73
    22
 74
     0
 42
0.000000001
 43
0.00000001
 40
0.0
 40
0.0
 40
0.0
 40
0.0
 40
0.0211003487122628
 40
0.0734660947596716
 40
0.1265293848983989
 40
0.1807963946600735
 40
0.2363312363639711
 40
0.2928241536681345
 40
0.3498299648572936
 40
0.4069680242110202
 40
0.464024702657787
 40
0.5209555255077407
 40
0.5777730718169946
 40
0.6345160112361959
 40
0.6912339037794962
 40
0.7479784728614466
 40
0.8047900183011125
 40
0.8617257557541511
 40
0.9188408427311997
 40
0.9761800833651304
 40
0.9999999999999999
 40
0.9999999999999999
 40
0.9999999999999999
 40
0.9999999999999999
 10
212.2470160276672
 20
82.87792231017872
 30
0.0
 10
212.1478470063214
 20
82.92002252851418
 30
0.0
 10
211.8025654747805
 20
83.06660487517647
 30
0.0
 10
211.147696789826
 20
83.16729928961774
 30
0.0
 10
210.3016552400631
 20
83.18210263188134
 30
0.0
 10
209.4145186890474
 20
83.04362798881706
 30
0.0
 10
208.50029488845
 20
82.76276300410393
 30
0.0
 10
207.5708398628369
 20
82.33811293784404
 30
0.0
 10
206.642878026461
 20
81.77700113505387
 30
0.0
 10
205.7330411371881
 20
81.08986887263455
 30
0.0
 10
204.8564821605194
 20
80.28989290794583
 30
0.0
 10
204.0263563498712
 20
79.3911163636411
 30
0.0
 10
203.2543680444209
 20
78.4080423753551
 30
0.0
 10
202.5513421735342
 20
77.35580185290266
 30
0.0
 10
201.927315718463
 20
76.25013114414949
 30
0.0
 10
201.3914755393473
 20
75.10730621448803
 30
0.0
 10
200.9522049066088
 20
73.94394825696833
 30
0.0
 10
200.6162808164167
 20
72.77636544274658
 30
0.0
 10
200.3917666247497
 20
71.62171054840735
 30
0.0
 10
200.2999160281925
 20
70.71412148830109
 30
0.0
 10
200.2926493455211
 20
70.20080656801012
 30
0.0
 10
200.2905166006619
 20
70.05015051119243
 30
0.0
  0
SPLINE
  5
1FE
330
1F
100
AcDbEntity
  8
0
  6
Continuous
 62
     7
370
    15
100
AcDbSpline
210
0.0
220
0.0
230
1.0
 70
     8
 71
     3
 72
    13
 73
     9
 74
     0
 42
0.000000001
 43
0.00000001
 40
0.0
 40
0.0
 40
0.0
 40
0.0
 40
0.1011487783717619
 40
0.2919018006118885
 40
0.4826418266735833
 40
0.6715266520409041
 40
0.8566629140943125
 40
0.9999999999999999
 40
0.9999999999999999
 40
0.9999999999999999
 40
0.9999999999999999
 10
200.2905166006619
 20
70.05015051119243
 30
0.0
 10
200.2939740340278
 20
69.85950487950582
 30
0.0
 10
200.303951722748
 20
69.30932717035371
 30
0.0
 10
200.4158115298143
 20
68.44601124330762
 30
0.0
 10
200.6675029210774
 20
67.49790102844497
 30
0.0
 10
201.0493698030164
 20
66.653199245543
 30
0.0
 10
201.5035100952009
 20
65.96111318131197
 30
0.0
 10
201.8788848762383
 20
65.61628952610464
 30
0.0
 10
202.042688507707
 20
65.46581759833374
 30
0.0
  0
LINE
  5
1FF
330
1F
100
AcDbEntity
  8
0
  6
Continuous
 62
     7
370
    15
100
AcDbLine
 10
277.638372058
 20
38.8223781743
 30
0.0
 11
276.6442145226
 21
38.483306219
 31
0.0
  0
LINE
  5
200
330
1F
100
AcDbEntity
  8
0
  6
Continuous
 62
     7
370
    15
100
AcDbLine
 10
277.6267877781
 20
39.4889390601
 30
0.0
 11
277.638372058
 21
38.8223781743
 31
0.0
  0
LINE
  5
201
330
1F
100
AcDbEntity
  8
0
  6
Continuous
 62
     7
370
    15
100
AcDbLine
 10
276.6210459627
 20
39.8164279907
 30
0.0
 11
277.6267877781
 21
39.4889390601
 31
0.0
  0
LINE
  5
202
330
1F
100
AcDbEntity
  8
0
  6
Continuous
 62
     7
370
    15
100
AcDbLine
 10
275.6268884273
 20
39.4773560354
 30
0.0
 11
276.6210459627
 21
39.8164279907
 31
0.0
  0
LINE
  5
203
330
1F
100
AcDbEntity
  8
0
  6
Continuous
 62
     7
370
    15
100
AcDbLine
 10
275.6384727072
 20
38.8107951495
 30
0.0
 11
275.6268884273
 21
39.4773560354
 31
0.0
  0
LINE
  5
204
330
1F
100
AcDbEntity
  8
0
  6
Continuous
 62
     7
370
    15
100
AcDbLine
 10
276.6442145226
 20
38.483306219
 30
0.0
 11
275.6384727072
 21
38.8107951495
 31
0.0
  0
LWPOLYLINE
  5
205
330
1F
100
AcDbEntity
  8
0
  6
Continuous
 62
     7
370
    15
100
AcDbPolyline
 90
       22
 70
   128
 43
0.0
 10
275.6153041473
 20
40.1439169212
 10
275.1529529124
 20
39.9266473536
 10
274.8220775017
 20
39.6403574521
 10
274.6520776475
 20
39.3104853307
 10
274.6580585829
 20
38.9663415751
 10
274.8394888756
 20
38.6385048682
 10
275.1802476478
 20
38.3561049401
 10
275.6500569872
 20
38.1442342637
 10
276.2071722723
 20
38.0217184783
 10
276.8020913652
 20
37.9994436493
 10
277.3819530936
 20
38.0793889928
 10
277.8952341984
 20
38.2544510143
 10
278.2963274009
 20
38.5090746849
 10
278.5495938099
 20
38.8206355741
 10
278.6325295935
 20
39.1614501296
 10
278.5377655433
 20
39.5012354825
 10
278.2737218611
 20
39.8098002131
 10
277.8638599868
 20
40.059726991
 10
277.3445979466
 20
40.2288087251
 10
276.7620744515
 20
40.3020217614
 10
276.1680492703
 20
40.2728608003
 10
275.6153041473
 20
40.1439169212
  0
LINE
  5
206
330
1F
100
AcDbEntity
  8
0
  6
Continuous
 62
     7
370
    15
100
AcDbLine
 10
277.6267877781
 20
38.8184271863
 30
0.0
 11
277.6267877781
 21
39.4889390601
 31
0.0
  0
LINE
  5
207
330
1F
100
AcDbEntity
  8
0
  6
Continuous
 62
     7
370
    15
100
AcDbLine
 10
276.6210459627
 20
38.4908503489
 30
0.0
 11
276.6210459627
 21
39.8164279907
 31
0.0
  0
LWPOLYLINE
  5
208
330
1F
100
AcDbEntity
  8
0
  6
Continuous
 62
     7
370
    15
100
AcDbPolyline
 90
       14
 70
   128
 43
0.0
 10
247.3109331108
 20
62.2668928408
 10
247.2335261217
 20
62.5420100672
 10
246.9864110708
 20
62.8098202111
 10
246.6083021633
 20
62.9587695921
 10
246.1567630528
 20
62.9661820172
 10
245.7005364757
 20
62.8309290119
 10
245.3090787926
 20
62.57360162
 10
245.0419858872
 20
62.2333756044
 10
244.9399202331
 20
61.8620472918
 10
245.018420401
 20
61.5161480517
 10
245.2655354519
 20
61.2483379077
 10
245.6436443593
 20
61.0993885267
 10
246.0951834698
 20
61.0919761016
 10
246.2601944612
 20
61.1242531225
  0
LINE
  5
209
330
1F
100
AcDbEntity
  8
0
  6
Continuous
 62
     7
370
    15
100
AcDbLine
 10
245.4728045467
 20
62.3392666062
 30
0.0
 11
245.3415374297
 21
61.6657903388
 31
0.0
  0
LINE
  5
20A
330
1F
100
AcDbEntity
  8
0
  6
Continuous
 62
     7
370
    15
100
AcDbLine
 10
245.9947061443
 20
61.3556027921
 30
0.0
 11
245.3415374297
 21
61.6657903388
 31
0.0
  0
LINE
  5
20B
330
1F
100
AcDbEntity
  8
0
  6
Continuous
 62
     7
370
    15
100
AcDbLine
 10
246.7791419759
 20
61.7188915126
 30
0.0
 11
245.9947061443
 21
61.3556027921
 31
0.0
  0
LINE
  5
20C
330
1F
100
AcDbEntity
  8
0
  6
Continuous
 62
     7
370
    15
100
AcDbLine
 10
246.7791419759
 20
61.7188915126
 30
0.0
 11
246.9104090929
 21
62.39236778
 31
0.0
  0
LINE
  5
20D
330
1F
100
AcDbEntity
  8
0
  6
Continuous
 62
     7
370
    15
100
AcDbLine
 10
246.2572403783
 20
62.7025553267
 30
0.0
 11
246.9104090929
 21
62.39236778
 31
0.0
  0
LINE
  5
20E
330
1F
100
AcDbEntity
  8
0
  6
Continuous
 62
     7
370
    15
100
AcDbLine
 10
246.2572403783
 20
62.7025553267
 30
0.0
 11
245.4728045467
 21
62.3392666062
 31
0.0
  0
LINE
  5
20F
330
1F
100
AcDbEntity
  8
0
  6
Continuous
 62
     7
370
    15
100
AcDbLine
 10
245.7146493094
 20
61.7115832404
 30
0.0
 11
245.4728045467
 21
62.3392666062
 31
0.0
  0
LINE
  5
210
330
1F
100
AcDbEntity
  8
0
  6
Continuous
 62
     7
370
    15
100
AcDbLine
 10
245.7146493094
 20
61.7115832404
 30
0.0
 11
245.6748699103
 21
61.5074919052
 31
0.0
  0
LINE
  5
211
330
1F
100
AcDbEntity
  8
0
  6
Continuous
 62
     7
370
    15
100
AcDbLine
 10
246.499085141
 20
62.074871961
 30
0.0
 11
246.8189213749
 21
61.9229828478
 31
0.0
  0
LINE
  5
212
330
1F
100
AcDbEntity
  8
0
  6
Continuous
 62
     7
370
    15
100
AcDbLine
 10
246.499085141
 20
62.074871961
 30
0.0
 11
246.2572403783
 21
62.7025553267
 31
0.0
  0
LINE
  5
213
330
1F
100
AcDbEntity
  8
0
  6
Continuous
 62
     7
370
    15
100
AcDbLine
 10
246.499085141
 20
62.074871961
 30
0.0
 11
245.7146493094
 21
61.7115832404
 31
0.0
  0
ARC
  5
214
330
1F
100
AcDbEntity
  8
0
  6
Continuous
 62
     7
370
    15
100
AcDbCircle
 10
264.2884478654
 20
59.9778684043
 30
0.0
 40
8.703891722761961
100
AcDbArc
 50
34.3325496066
 51
84.2964748064
  0
ARC
  5
215
330
1F
100
AcDbEntity
  8
0
  6
Continuous
 62
     7
370
    15
100
AcDbCircle
 10
247.9952838783
 20
31.7551519739
 30
0.0
 40
8.69020579119795
100
AcDbArc
 50
215.038918254
 51
265.86285515
  0
LWPOLYLINE
  5
216
330
1F
100
AcDbEntity
  8
0
  6
Continuous
 62
     7
370
    15
100
AcDbPolyline
 90
        9
 70
   128
 43
0.0
 10
241.4266795739
 20
25.5037182165
 10
241.2603563107
 20
25.6023242273
 10
240.2694619228
 20
26.308779419
 10
239.3750408171
 20
27.1625008519
 10
238.5834115688
 20
28.1574574706
 10
237.9001665873
 20
29.2866204738
 10
237.3301326091
 20
30.5420129683
 10
236.8773365993
 20
31.9147663219
 10
236.5449773035
 20
33.3951828144
  0
SPLINE
  5
217
330
1F
100
AcDbEntity
  8
0
  6
Continuous
 62
     7
370
    15
100
AcDbSpline
210
0.0
220
0.0
230
1.0
 70
     8
 71
     3
 72
    32
 73
    28
 74
     0
 42
0.000000001
 43
0.00000001
 40
0.0
 40
0.0
 40
0.0
 40
0.0
 40
0.0193254758652704
 40
0.0385826927409049
 40
0.0577846348017481
 40
0.0769443985967347
 40
0.0960751672961712
 40
0.1151901840600305
 40
0.1343027247899319
 40
0.1534260705421022
 40
0.1725734798867981
 40
0.1917581615009326
 40
0.2109932472750491
 40
0.230291766203487
 40
0.2496666193081581
 40
0.3745846283004807
 40
0.4997410234225904
 40
0.4999962720874485
 40
0.624862702147581
 40
0.7503411293900218
 40
0.78614513231055
 40
0.8217618639989446
 40
0.8572756267685467
 40
0.8927714566740896
 40
0.9283345184906214
 40
0.9640494961172915
 40
1.0
 40
1.0
 40
1.0
 40
1.0
 10
236.54492202751
 20
40.84700758085214
 30
0.0
 10
236.5668652447978
 20
40.78691653713634
 30
0.0
 10
236.6106741743304
 20
40.66694669565196
 30
0.0
 10
236.6731134255529
 20
40.48619914154033
 30
0.0
 10
236.7330220530801
 20
40.30535574512133
 30
0.0
 10
236.7902086387141
 20
40.12434862957863
 30
0.0
 10
236.8447667099224
 20
39.9432192272558
 30
0.0
 10
236.8967144565134
 20
39.76198070992407
 30
0.0
 10
236.9460909359763
 20
39.5806547557142
 30
0.0
 10
236.9929303174239
 20
39.39926167897932
 30
0.0
 10
237.0372689237693
 20
39.21782332357797
 30
0.0
 10
237.0791427669923
 20
39.03636143460679
 30
0.0
 10
237.1185903581803
 20
38.85490138215697
 30
0.0
 10
237.1556438775399
 20
38.67345893646812
 30
0.0
 10
237.2533359771737
 20
38.16310798472957
 30
0.0
 10
237.3708321760065
 20
37.33650645604279
 30
0.0
 10
237.4056836121274
 20
36.62118696075015
 30
0.0
 10
237.4060794363009
 20
35.94447499584121
 30
0.0
 10
237.3710280852586
 20
35.30278387174211
 30
0.0
 10
237.246094005087
 20
34.68148293296799
 30
0.0
 10
237.1253678242115
 20
34.30885883099611
 30
0.0
 10
237.0510604116892
 20
34.12006212986511
 30
0.0
 10
236.968146940457
 20
33.94587084690362
 30
0.0
 10
236.8764481394471
 20
33.78605467683815
 30
0.0
 10
236.7755460718246
 20
33.64085080422253
 30
0.0
 10
236.6659931750247
 20
33.50880384409437
 30
0.0
 10
236.5854648771247
 20
33.43310435915213
 30
0.0
 10
236.5450684013689
 20
33.39513022474296
 30
0.0
  0
LWPOLYLINE
  5
218
330
1F
100
AcDbEntity
  8
0
  6
Continuous
 62
     7
370
    15
100
AcDbPolyline
 90
       27
 70
   128
 43
0.0
 10
236.5449220273
 20
40.847007581
 10
236.8772613672
 20
42.7111734433
 10
237.3300409257
 20
44.6067327569
 10
237.9000619942
 20
46.520294145
 10
238.5832975993
 20
48.4383390534
 10
239.3749209519
 20
50.3473172537
 10
240.2693395461
 20
52.2337425699
 10
241.2602346683
 20
54.0842881536
 10
242.3406060365
 20
55.8858806321
 10
243.5028212544
 20
57.6257924674
 10
244.7386697312
 20
59.2917318705
 10
246.0394206863
 20
60.8719296388
 10
247.3958848288
 20
62.3552223
 10
248.7984792762
 20
63.7311309783
 10
250.2372952534
 20
64.9899354231
 10
251.7021680949
 20
66.122742679
 10
253.1827490534
 20
67.121549911
 10
254.6685784102
 20
67.9793009409
 10
256.1491593688
 20
68.6899360972
 10
257.6140322102
 20
69.2484350235
 10
259.0528481874
 20
69.6508521459
 10
260.4554426348
 20
69.8943445466
 10
261.8119067773
 20
69.9771920481
 10
263.1126577324
 20
69.8988093656
 10
264.3485062092
 20
69.6597502417
 10
265.5107214271
 20
69.2617035346
 10
266.4246478898
 20
68.8061613355
  0
LWPOLYLINE
  5
219
330
1F
100
AcDbEntity
  8
0
  6
Continuous
 62
     7
370
    15
100
AcDbPolyline
 90
       38
 70
   128
 43
0.0
 10
279.8322884275
 20
37.2210896706
 10
279.0973534272
 20
36.7245877688
 10
278.3835611687
 20
36.097903409
 10
277.7114461557
 20
35.3590651591
 10
277.1003439135
 20
34.5293280505
 10
276.5678347409
 20
33.632562109
 10
276.1292379574
 20
32.6945656581
 10
275.7971711937
 20
31.7423231478
 10
275.5811874061
 20
30.8032288614
 10
275.4875000549
 20
29.9042988317
 10
275.5188043547
 20
29.071393639
 10
275.6741997377
 20
28.3284744493
 10
275.9492157618
 20
27.6969136949
 10
276.3359407165
 20
27.194880229
 10
276.823249229
 20
26.8368166402
 10
277.3971223208
 20
26.6330237661
 10
278.0410507078
 20
26.5893643567
 10
278.7365097426
 20
26.7070944136
 10
279.4634923352
 20
26.9828270575
 10
280.2010845199
 20
27.4086299622
 10
280.9280671124
 20
27.9722535535
 10
281.6235261473
 20
28.6574834067
 10
282.2674545342
 20
29.4446067067
 10
282.841327626
 20
30.3109793491
 10
283.3286361386
 20
31.2316773705
 10
283.7153610933
 20
32.1802139651
 10
283.9903771173
 20
33.129301462
 10
284.1457725003
 20
34.051636342
 10
284.1770768001
 20
34.9206847099
 10
284.083389449
 20
35.7114456264
 10
283.8674056614
 20
36.4011703396
 10
283.5353388977
 20
36.9700167254
 10
283.0967421141
 20
37.4016201089
 10
282.5642329415
 20
37.6835640466
 10
281.9531306993
 20
37.8077375247
 10
281.2810156864
 20
37.7705682984
 10
280.5672234279
 20
37.5731256586
 10
279.8322884275
 20
37.2210896706
  0
LWPOLYLINE
  5
21A
330
1F
100
AcDbEntity
  8
0
  6
Continuous
 62
     7
370
    15
100
AcDbPolyline
 90
       20
 70
   128
 43
0.0
 10
279.7615777494
 20
37.3435641574
 10
279.0146925864
 20
36.838989054
 10
278.2892939497
 20
36.2021147045
 10
277.6062502374
 20
35.4512628246
 10
276.9852113734
 20
34.6080340557
 10
276.4440435151
 20
33.6966865542
 10
275.9983150765
 20
32.7434381284
 10
275.6608488532
 20
31.775712
 10
275.4413531341
 20
30.8213478878
 10
275.3461424114
 20
29.9078011097
 10
275.3779557242
 20
29.0613527432
 10
275.5358778614
 20
28.3063535666
 10
275.8153656907
 20
27.6645235317
 10
276.2083788561
 20
27.1543269199
 10
276.7036110843
 20
26.790441159
 10
277.2868154458
 20
26.5833345796
 10
277.9412142131
 20
26.5389652611
 10
278.6479815249
 20
26.6586096279
 10
279.3867849726
 20
26.9388257294
 10
279.762296029
 20
27.1372187302
  0
LWPOLYLINE
  5
21B
330
1F
100
AcDbEntity
  8
0
  6
Continuous
 62
     7
370
    15
100
AcDbPolyline
 90
       11
 70
   128
 43
0.0
 10
284.1809951318
 20
34.7914594326
 10
284.1770130874
 20
35.005754238
 10
284.0818023647
 20
35.8093730555
 10
283.8623066456
 20
36.5103128048
 10
283.5248404223
 20
37.0884087253
 10
283.0791119837
 20
37.52703005
 10
282.5379441254
 20
37.8135584419
 10
281.9169052614
 20
37.939751001
 10
281.2338615491
 20
37.901977397
 10
280.5084629124
 20
37.7013243078
 10
279.7615777494
 20
37.3435641574
  0
LWPOLYLINE
  5
21C
330
1F
100
AcDbEntity
  8
0
  6
Continuous
 62
     7
370
    15
100
AcDbPolyline
 90
       54
 70
   128
 43
0.0
 10
278.5808803254
 20
39.4057058722
 10
278.6736568725
 20
39.3255302468
 10
278.7368067633
 20
39.26097334
 10
278.7923396361
 20
39.196191906
 10
278.8807858004
 20
39.0634646226
 10
278.9345180345
 20
38.927796756
 10
278.9497120823
 20
38.8037701656
 10
278.9361983238
 20
38.6983985755
 10
278.8636711788
 20
38.5322722322
 10
278.7552667255
 20
38.3960880611
 10
278.5982831645
 20
38.2590112517
 10
278.4020286891
 20
38.1302996765
 10
278.2463953351
 20
38.0473962987
 10
278.1619819978
 20
38.0075336562
 10
277.9149714195
 20
37.9070153698
 10
277.6435543722
 20
37.8190696617
 10
277.3473219785
 20
37.7455406721
 10
277.0393968858
 20
37.6917704893
 10
276.9227102831
 20
37.6773036824
 10
276.6881354479
 20
37.6582272029
 10
276.4534227199
 20
37.6530867504
 10
276.3370164713
 20
37.6560297865
 10
276.0784125949
 20
37.6767320973
 10
275.8261717924
 20
37.7179014083
 10
275.5833340371
 20
37.7804780939
 10
275.4611451118
 20
37.8219203258
 10
275.343417441
 20
37.869136097
 10
275.118927608
 20
37.982675692
 10
274.9146827002
 20
38.1203001628
 10
274.823804747
 20
38.1955601506
 10
274.7394381248
 20
38.2755614351
 10
274.5889374242
 20
38.4517934313
 10
274.4676340671
 20
38.6458153625
 10
274.4227695057
 20
38.7398855094
 10
274.3853661017
 20
38.8361349913
 10
274.3325180312
 20
39.041792684
 10
274.3159494964
 20
39.2723159593
 10
274.3209921994
 20
39.3519360317
 10
274.3489684786
 20
39.5109079979
 10
274.3723679042
 20
39.5893548519
 10
274.439536585
 20
39.7430370059
 10
274.5305979634
 20
39.8829229041
 10
274.6494788216
 20
40.0125944506
 10
274.7965374327
 20
40.1280286156
 10
275.0144599415
 20
40.2449247863
 10
275.2701498011
 20
40.329541038
 10
275.5325610467
 20
40.3759683594
 10
275.8145200526
 20
40.3919796656
 10
275.9182089291
 20
40.3905776786
 10
276.1294171058
 20
40.377204494
 10
276.3443314
 20
40.3505464483
 10
276.4522527254
 20
40.3326293995
 10
276.5975276147
 20
40.3040403342
 10
276.5975276147
 20
40.3040403342
  0
SPLINE
  5
21D
330
1F
100
AcDbEntity
  8
0
  6
Continuous
 62
     7
370
    15
100
AcDbSpline
210
0.0
220
0.0
230
1.0
 70
     8
 71
     3
 72
     8
 73
     4
 74
     0
 42
0.000000001
 43
0.00000001
 40
0.0
 40
0.0
 40
0.0
 40
0.0
 40
1.0
 40
1.0
 40
1.0
 40
1.0
 10
235.5829287484538
 20
46.28234529877853
 30
0.0
 10
234.4133023285159
 20
46.0867891255358
 30
0.0
 10
233.242699085656
 20
45.89320415881588
 30
0.0
 10
232.0714676040032
 20
45.70092470956961
 30
0.0
  0
SPLINE
  5
21E
330
1F
100
AcDbEntity
  8
0
  6
Continuous
 62
     7
370
    15
100
AcDbSpline
210
0.0
220
0.0
230
1.0
 70
     8
 71
     3
 72
     8
 73
     4
 74
     0
 42
0.000000001
 43
0.00000001
 40
0.0
 40
0.0
 40
0.0
 40
0.0
 40
0.0012417047560385
 40
0.0012417047560385
 40
0.0012417047560385
 40
0.0012417047560385
 10
231.5969670003535
 20
45.97490013044947
 30
0.0
 10
231.7552381408139
 20
45.88351480569153
 30
0.0
 10
231.9134074464932
 20
45.79218825828793
 30
0.0
 10
232.0714676040032
 20
45.70092470956961
 30
0.0
  0
LWPOLYLINE
  5
21F
330
1F
100
AcDbEntity
  8
0
  6
Continuous
 62
     7
370
    15
100
AcDbPolyline
 90
       28
 70
   128
 43
0.0
 10
231.5969670004
 20
45.9749001304
 10
232.0758025912
 20
47.9235662667
 10
232.6776843075
 20
49.8893774604
 10
233.3981315552
 20
51.8576996038
 10
234.2317811018
 20
53.8138798967
 10
235.1724270015
 20
55.7433559266
 10
236.2130667948
 20
57.631764076
 10
237.3459536365
 20
59.4650464491
 10
238.5626539657
 20
61.2295555239
 10
239.8541102881
 20
62.9121557478
 10
241.2107086025
 20
64.5003213232
 10
242.6223499706
 20
65.9822294533
 10
244.0785256965
 20
67.3468483547
 10
245.5683955566
 20
68.5840193811
 10
247.0808684981
 20
69.6845326482
 10
248.6046852034
 20
70.6401955939
 10
250.1285019087
 20
71.4438939671
 10
251.6409748501
 20
72.0896447879
 10
253.1308447103
 20
72.5726408872
 10
254.5870204362
 20
72.8892866923
 10
255.9986618042
 20
73.0372249935
 10
257.3552601187
 20
73.0153544924
 10
258.6467164411
 20
72.8238379997
 10
259.8634167703
 20
72.4641012237
 10
260.996303612
 20
71.9388221562
 10
262.0369434052
 20
71.2519111376
 10
262.977589305
 20
70.4084817463
 10
263.4778196477
 20
69.8460216947
  0
LINE
  5
220
330
1F
100
AcDbEntity
  8
0
  6
Continuous
 62
     7
370
    15
100
AcDbLine
 10
227.4692311652
 20
48.3577913068
 30
0.0
 11
231.5969670004
 21
45.9749001304
 31
0.0
  0
ARC
  5
221
330
1F
100
AcDbEntity
  8
0
  6
Continuous
 62
     7
370
    15
100
AcDbCircle
 10
252.5869092758
 20
66.5433089189
 30
0.0
 40
8.87823280508602
100
AcDbArc
 50
60.3725835944
 51
85.9811821539
  0
SPLINE
  5
222
330
1F
100
AcDbEntity
  8
0
  6
Continuous
 62
     7
370
    15
100
AcDbSpline
210
0.0
220
0.0
230
1.0
 70
     8
 71
     3
 72
    13
 73
     9
 74
     0
 42
0.000000001
 43
0.00000001
 40
0.0
 40
0.0
 40
0.0
 40
0.0
 40
0.1935905955800059
 40
0.392801275495339
 40
0.5863901717893248
 40
0.7855816257815843
 40
0.9793802664260793
 40
1.0
 40
1.0
 40
1.0
 40
1.0
 10
245.3042935372181
 20
61.17740778722495
 30
0.0
 10
245.3553997626066
 20
61.15147945694662
 30
0.0
 10
245.4590958665324
 20
61.09887007695954
 30
0.0
 10
245.6385508032865
 20
61.05385974525286
 30
0.0
 10
245.8317797485663
 20
61.03413637093983
 30
0.0
 10
246.0314428073656
 20
61.04599819465562
 30
0.0
 10
246.1753143966693
 20
61.06673174983408
 30
0.0
 10
246.2479073707843
 20
61.09024654881003
 30
0.0
 10
246.254888338675
 20
61.09250787035813
 30
0.0
  0
LWPOLYLINE
  5
223
330
1F
100
AcDbEntity
  8
0
  6
Continuous
 62
     7
370
    15
100
AcDbPolyline
 90
       25
 70
   128
 43
0.0
 10
247.3358931143
 20
62.2911809104
 10
247.3204104438
 20
62.3955020746
 10
247.2631595272
 20
62.5389196817
 10
247.1755523556
 20
62.6643472675
 10
247.0549606156
 20
62.7756144296
 10
246.9117148102
 20
62.8633535538
 10
246.7415157196
 20
62.9302944918
 10
246.5588324253
 20
62.9707060595
 10
246.3583755687
 20
62.985624482
 10
246.1567829381
 20
62.973518089
 10
245.9486108437
 20
62.9336891591
 10
245.7511754145
 20
62.869059252
 10
245.5591598709
 20
62.7774801066
 10
245.3889068008
 20
62.666484513
 10
245.2354367584
 20
62.532650038
 10
245.1118569649
 20
62.3874186885
 10
245.0143250197
 20
62.2264770527
 10
244.950953614
 20
62.0634881382
 10
244.9198059538
 20
61.8940113843
 10
244.92339389
 20
61.7322812183
 10
244.9617659392
 20
61.5742283758
 10
245.0316500456
 20
61.4333206661
 10
245.1349603541
 20
61.305879156
 10
245.3042935372
 20
61.1774077872
 10
245.3042935372
 20
61.1774077872
  0
SPLINE
  5
224
330
1F
100
AcDbEntity
  8
0
  6
Continuous
 62
     7
370
    15
100
AcDbSpline
210
0.0
220
0.0
230
1.0
 70
     8
 71
     3
 72
    10
 73
     6
 74
     0
 42
0.000000001
 43
0.00000001
 40
0.0
 40
0.0
 40
0.0
 40
0.0
 40
0.1982376724753472
 40
0.6709252460000957
 40
1.0
 40
1.0
 40
1.0
 40
1.0
 10
237.4248625574148
 20
44.89423479726739
 30
0.0
 10
237.3405395750785
 20
45.00464809758446
 30
0.0
 10
237.0551527615578
 20
45.37833625560155
 30
0.0
 10
236.5638907747379
 20
45.82768505542003
 30
0.0
 10
236.1468890234373
 20
46.10916742161399
 30
0.0
 10
235.9757351240636
 20
46.22469884187486
 30
0.0
  0
SPLINE
  5
225
330
1F
100
AcDbEntity
  8
0
  6
Continuous
 62
     7
370
    15
100
AcDbSpline
210
0.0
220
0.0
230
1.0
 70
     8
 71
     3
 72
    10
 73
     6
 74
     0
 42
0.000000001
 43
0.00000001
 40
0.0
 40
0.0
 40
0.0
 40
0.0
 40
0.5
 40
0.5
 40
1.0
 40
1.0
 40
1.0
 40
1.0
 10
235.8398057768315
 20
46.27722882368418
 30
0.0
 10
235.7992304684366
 20
46.28605334501114
 30
0.0
 10
235.7556561253828
 20
46.29100642091982
 30
0.0
 10
235.6678533983961
 20
46.29259160618595
 30
0.0
 10
235.6248852814742
 20
46.2893602386774
 30
0.0
 10
235.5829287484538
 20
46.28234529877853
 30
0.0
  0
SPLINE
  5
226
330
1F
100
AcDbEntity
  8
0
  6
Continuous
 62
     7
370
    15
100
AcDbSpline
210
0.0
220
0.0
230
1.0
 70
     8
 71
     3
 72
     8
 73
     4
 74
     0
 42
0.000000001
 43
0.00000001
 40
0.0
 40
0.0
 40
0.0
 40
0.0
 40
1.0
 40
1.0
 40
1.0
 40
1.0
 10
235.9757351240636
 20
46.22469884187486
 30
0.0
 10
235.9372531822274
 20
46.24836965167073
 30
0.0
 10
235.8911455304805
 20
46.26606319688018
 30
0.0
 10
235.8398057768315
 20
46.27722882368422
 30
0.0
  0
SPLINE
  5
227
330
1F
100
AcDbEntity
  8
0
  6
Continuous
 62
     7
370
    15
100
AcDbSpline
210
0.0
220
0.0
230
1.0
 70
     8
 71
     3
 72
    10
 73
     6
 74
     0
 42
0.000000001
 43
0.00000001
 40
0.0
 40
0.0
 40
0.0
 40
0.0
 40
0.5
 40
0.5
 40
1.0
 40
1.0
 40
1.0
 40
1.0
 10
227.3125342453662
 20
48.4482391900126
 30
0.0
 10
227.3235848437163
 20
48.44186335546846
 30
0.0
 10
227.3422047896557
 20
48.43111711396307
 30
0.0
 10
227.3955047397163
 20
48.40035164112312
 30
0.0
 10
227.4290855124376
 20
48.38096689885217
 30
0.0
 10
227.4692311651771
 20
48.35779130683201
 30
0.0
  0
SPLINE
  5
228
330
1F
100
AcDbEntity
  8
0
  6
Continuous
 62
     7
370
    15
100
AcDbSpline
210
0.0
220
0.0
230
1.0
 70
     8
 71
     3
 72
     9
 73
     5
 74
     0
 42
0.000000001
 43
0.00000001
 40
0.0
 40
0.0
 40
0.0
 40
0.0
 40
0.5377956222890862
 40
0.9999999999999999
 40
0.9999999999999999
 40
0.9999999999999999
 40
0.9999999999999999
 10
235.9757351240636
 20
35.73534277893176
 30
0.0
 10
236.215801297511
 20
35.60857673139029
 30
0.0
 10
236.6621905269837
 20
35.37286256361421
 30
0.0
 10
237.053796684427
 20
35.2572179245999
 30
0.0
 10
237.2347987647358
 20
35.20376646618869
 30
0.0
  0
SPLINE
  5
229
330
1F
100
AcDbEntity
  8
0
  6
Continuous
 62
     7
370
    15
100
AcDbSpline
210
0.0
220
0.0
230
1.0
 70
     8
 71
     3
 72
     8
 73
     4
 74
     0
 42
0.000000001
 43
0.00000001
 40
0.0
 40
0.0
 40
0.0
 40
0.0
 40
1.0
 40
1.0
 40
1.0
 40
1.0
 10
235.839805776832
 20
35.78467939095217
 30
0.0
 10
235.8911341588292
 20
35.77351623731188
 30
0.0
 10
235.9372547229334
 20
35.75680223301018
 30
0.0
 10
235.9757351240637
 20
35.73534277893178
 30
0.0
  0
SPLINE
  5
22A
330
1F
100
AcDbEntity
  8
0
  6
Continuous
 62
     7
370
    15
100
AcDbSpline
210
0.0
220
0.0
230
1.0
 70
     8
 71
     3
 72
    12
 73
     8
 74
     0
 42
0.000000001
 43
0.00000001
 40
0.0
 40
0.0
 40
0.0
 40
0.0
 40
0.1882348860552934
 40
0.3552030333413834
 40
0.5009466077120189
 40
0.7563025321915505
 40
1.0
 40
1.0
 40
1.0
 40
1.0
 10
236.6557222931638
 20
34.11910438165044
 30
0.0
 10
236.7447658264908
 20
34.21338602966803
 30
0.0
 10
236.9127927730363
 20
34.39129740447257
 30
0.0
 10
237.0927021250556
 20
34.73861450566147
 30
0.0
 10
237.2542261195156
 20
35.19926811445031
 30
0.0
 10
237.3799831831323
 20
35.82081902599349
 30
0.0
 10
237.3972859793221
 20
36.4041463316508
 30
0.0
 10
237.4057352708861
 20
36.68899638875688
 30
0.0
  0
SPLINE
  5
22B
330
1F
100
AcDbEntity
  8
0
  6
Continuous
 62
     7
370
    15
100
AcDbSpline
210
0.0
220
0.0
230
1.0
 70
     8
 71
     3
 72
     9
 73
     5
 74
     0
 42
0.000000001
 43
0.00000001
 40
0.0
 40
0.0
 40
0.0
 40
0.0
 40
0.5048004990382029
 40
1.0
 40
1.0
 40
1.0
 40
1.0
 10
236.544987881133
 20
33.39507986138932
 30
0.0
 10
236.5635327794179
 20
33.51679373711453
 30
0.0
 10
236.6002698633159
 20
33.75790656477041
 30
0.0
 10
236.6373669746717
 20
33.99941279801725
 30
0.0
 10
236.6557374457022
 20
34.11900656420026
 30
0.0
  0
LINE
  5
22C
330
1F
100
AcDbEntity
  8
0
  6
Continuous
 62
     7
370
    15
100
AcDbLine
 10
227.7466013455
 20
48.197616857
 30
0.0
 11
227.3125342454
 21
48.44823919
 31
0.0
  0
LINE
  5
22D
330
1F
100
AcDbEntity
  8
0
  6
Continuous
 62
     7
370
    15
100
AcDbLine
 10
232.071467604
 20
45.7009247096
 30
0.0
 11
227.7466013455
 21
48.197616857
 31
0.0
  0
SPLINE
  5
22E
330
1F
100
AcDbEntity
  8
0
  6
Continuous
 62
     7
370
    15
100
AcDbSpline
210
0.0
220
0.0
230
1.0
 70
     8
 71
     3
 72
    11
 73
     7
 74
     0
 42
0.000000001
 43
0.00000001
 40
0.0
 40
0.0
 40
0.0
 40
0.0
 40
0.0763291486410529
 40
0.4828240100964536
 40
0.8892344489868813
 40
1.0
 40
1.0
 40
1.0
 40
1.0
 10
231.6429612896623
 20
42.88488551134271
 30
0.0
 10
231.6425259103323
 20
42.96312465036228
 30
0.0
 10
231.6397718956764
 20
43.45803040419914
 30
0.0
 10
231.5950762384625
 20
44.39101644669648
 30
0.0
 10
231.5570011239008
 20
45.35650025497614
 30
0.0
 10
231.5690191430369
 20
45.87783901741131
 30
0.0
 10
231.5715930879564
 20
45.98949612526816
 30
0.0
  0
LINE
  5
22F
330
1F
100
AcDbEntity
  8
0
  6
Continuous
 62
     7
370
    15
100
AcDbLine
 10
231.6429612897
 20
41.1090848823
 30
0.0
 11
231.6429612897
 21
42.8848855113
 31
0.0
  0
LINE
  5
230
330
1F
100
AcDbEntity
  8
0
  6
Continuous
 62
     7
370
    15
100
AcDbLine
 10
230.7148836394
 20
46.2977112586
 30
0.0
 11
230.7159246666
 21
46.4834629905
 31
0.0
  0
ARC
  5
231
330
1F
100
AcDbEntity
  8
0
  6
Continuous
 62
     7
370
    15
100
AcDbCircle
 10
242.6507368406
 20
46.032121594
 30
0.0
 40
11.9388077089846
100
AcDbArc
 50
178.7252979842
 51
202.7773427363
  0
LINE
  5
232
330
1F
100
AcDbEntity
  8
0
  6
Continuous
 62
     7
370
    15
100
AcDbLine
 10
202.0972308386
 20
65.4009474208
 30
0.0
 11
202.0444057899
 21
65.4464600369
 31
0.0
  0
LWPOLYLINE
  5
233
330
1F
100
AcDbEntity
  8
0
  6
Continuous
 62
     7
370
    15
100
AcDbPolyline
 90
       10
 70
   128
 43
0.0
 10
239.0525292875
 20
27.535593378
 10
238.5626539657
 20
27.6295125937
 10
237.3459536365
 20
27.9892493698
 10
236.2130667948
 20
28.5145284372
 10
235.1724270015
 20
29.2014394559
 10
234.2317811018
 20
30.0448688471
 10
233.3981315552
 20
31.0385378611
 10
232.6776843075
 20
32.1750493179
 10
232.0758025912
 20
33.4459426737
 10
231.5969670004
 20
34.8417570046
  0
SPLINE
  5
234
330
1F
100
AcDbEntity
  8
0
  6
Continuous
 62
     7
370
    15
100
AcDbSpline
210
0.0
220
0.0
230
1.0
 70
     8
 71
     3
 72
     8
 73
     4
 74
     0
 42
0.000000001
 43
0.00000001
 40
0.0
 40
0.0
 40
0.0
 40
0.0
 40
0.0012417047560385
 40
0.0012417047560385
 40
0.0012417047560385
 40
0.0012417047560385
 10
232.0714676040032
 20
35.20837527683773
 30
0.0
 10
231.9134074464932
 20
35.08597207183357
 30
0.0
 10
231.7552381408139
 20
34.96376984186281
 30
0.0
 10
231.5969670003535
 20
34.84175700455205
 30
0.0
  0
SPLINE
  5
235
330
1F
100
AcDbEntity
  8
0
  6
Continuous
 62
     7
370
    15
100
AcDbSpline
210
0.0
220
0.0
230
1.0
 70
     8
 71
     3
 72
     8
 73
     4
 74
     0
 42
0.000000001
 43
0.00000001
 40
0.0
 40
0.0
 40
0.0
 40
0.0
 40
1.0
 40
1.0
 40
1.0
 40
1.0
 10
232.0714676040032
 20
35.20837527683773
 30
0.0
 10
233.2427001886789
 20
35.40065490716573
 30
0.0
 10
234.4133195632713
 20
35.59424257437598
 30
0.0
 10
235.5829287484538
 20
35.78979586604665
 30
0.0
  0
SPLINE
  5
236
330
1F
100
AcDbEntity
  8
0
  6
Continuous
 62
     7
370
    15
100
AcDbSpline
210
0.0
220
0.0
230
1.0
 70
     8
 71
     3
 72
    10
 73
     6
 74
     0
 42
0.000000001
 43
0.00000001
 40
0.0
 40
0.0
 40
0.0
 40
0.0
 40
0.5
 40
0.5
 40
1.0
 40
1.0
 40
1.0
 40
1.0
 10
235.5829287484538
 20
35.78979586604666
 30
0.0
 10
235.6246946094682
 20
35.7967789264606
 30
0.0
 10
235.6685918952823
 20
35.80006901746898
 30
0.0
 10
235.7562192780723
 20
35.79840604303993
 30
0.0
 10
235.7987245751329
 20
35.79361393648919
 30
0.0
 10
235.839805776832
 20
35.78467939095217
 30
0.0
  0
LINE
  5
237
330
1F
100
AcDbEntity
  8
0
  6
Continuous
 62
     7
370
    15
100
AcDbLine
 10
227.7466013455
 20
37.7050674243
 30
0.0
 11
232.071467604
 21
35.2083752768
 31
0.0
  0
LINE
  5
238
330
1F
100
AcDbEntity
  8
0
  6
Continuous
 62
     7
370
    15
100
AcDbLine
 10
227.7466013455
 20
37.7050674243
 30
0.0
 11
231.2894078991
 21
39.750286114
 31
0.0
  0
LINE
  5
239
330
1F
100
AcDbEntity
  8
0
  6
Continuous
 62
     7
370
    15
100
AcDbLine
 10
227.3125342454
 20
37.4544450913
 30
0.0
 11
227.7466013455
 21
37.7050674243
 31
0.0
  0
LINE
  5
23A
330
1F
100
AcDbEntity
  8
0
  6
Continuous
 62
     7
370
    15
100
AcDbLine
 10
231.5969670004
 20
34.8417570046
 30
0.0
 11
227.4692311652
 21
37.2246481809
 31
0.0
  0
SPLINE
  5
23B
330
1F
100
AcDbEntity
  8
0
  6
Continuous
 62
     7
370
    15
100
AcDbSpline
210
0.0
220
0.0
230
1.0
 70
     8
 71
     3
 72
     8
 73
     4
 74
     0
 42
0.000000001
 43
0.00000001
 40
0.0
 40
0.0
 40
0.0
 40
0.0
 40
1.0
 40
1.0
 40
1.0
 40
1.0
 10
227.4692311651771
 20
37.22464818093458
 30
0.0
 10
227.3890119360109
 20
37.27095775620518
 30
0.0
 10
227.3346221737236
 20
37.35462059721727
 30
0.0
 10
227.3125342453654
 20
37.45444509132463
 30
0.0
  0
ARC
  5
23C
330
1F
100
AcDbEntity
  8
0
  6
Continuous
 62
     7
370
    15
100
AcDbCircle
 10
236.498339517
 20
38.6500273923
 30
0.0
 40
8.92164576897089
100
AcDbArc
 50
214.8451889641
 51
239.5573983443
  0
ELLIPSE
  5
23D
330
1F
100
AcDbEntity
  8
0
  6
Continuous
 62
     7
370
    15
100
AcDbEllipse
 10
230.9965146803
 20
40.735910582
 30
0.0
 11
-7.507462981948265E-5
 21
1.066811201853405
 31
0.0
210
0.0
220
0.0
230
1.0
 40
0.7174342186
 41
3.534193645557461
 42
5.104989972352341
  0
ELLIPSE
  5
23E
330
1F
100
AcDbEntity
  8
0
  6
Continuous
 62
     7
370
    15
100
AcDbEllipse
 10
230.9358545085
 20
40.7008808264
 30
0.0
 11
0.3250094736511642
 21
1.213179526238669
 31
0.0
210
0.0
220
0.0
230
1.0
 40
0.5176380889
 41
3.619174351347739
 42
5.189970678142588
  0
LWPOLYLINE
  5
23F
330
1F
100
AcDbEntity
  8
0
  6
Continuous
 62
     7
370
     0
100
AcDbPolyline
 90
       45
 70
   128
 43
0.0
 10
239.1736485093
 20
35.6690981528
 10
239.2360588362
 20
37.401690579
 10
239.422840149
 20
39.1938570667
 10
239.7326466841
 20
41.0326850153
 10
240.1632462783
 20
42.9049256272
 10
240.7115364517
 20
44.7970893661
 10
241.3735667609
 20
46.6955431487
 10
242.1445672625
 20
48.5866085721
 10
243.0189828802
 20
50.4566604665
 10
243.9905134294
 20
52.2922250653
 10
245.0521590102
 20
54.0800770833
 10
246.1962704419
 20
55.8073350059
 10
247.4146043755
 20
57.4615539001
 10
248.6983826869
 20
59.030815081
 10
250.0383557241
 20
60.5038119857
 10
251.4248689506
 20
61.8699316377
 10
252.8479325069
 20
63.1193311137
 10
254.2972931873
 20
64.2430084619
 10
255.7625083151
 20
65.2328675612
 10
257.2330209816
 20
66.081776454
 10
258.6982361094
 20
66.7836187324
 10
260.1475967899
 20
67.3333376067
 10
261.5706603461
 20
67.7269723397
 10
262.9571735726
 20
67.9616867843
 10
264.2971466098
 20
68.0357898174
 10
265.5809249213
 20
67.9487475251
 10
266.7992588548
 20
67.7011870489
 10
267.9433702865
 20
67.2948920679
 10
269.0050158673
 20
66.7327899466
 10
269.9765464165
 20
66.0189306438
 10
270.8509620342
 20
65.158457532
 10
271.6219625358
 20
64.1575703399
 10
272.2839928451
 20
63.0234804824
 10
272.8322830184
 20
61.764359103
 10
273.2628826127
 20
60.3892782002
 10
273.5726891477
 20
58.9081452632
 10
273.7594704606
 20
57.331631889
 10
273.8218807874
 20
55.6710968924
 10
273.7594704606
 20
53.9385044662
 10
273.5726891477
 20
52.1463379785
 10
273.2628826127
 20
50.3075100299
 10
272.8322830184
 20
48.435269418
 10
272.2839928451
 20
46.5431056791
 10
271.6219625358
 20
44.6446518965
 10
271.4681713781
 20
44.2445485545
  0
LWPOLYLINE
  5
240
330
1F
100
AcDbEntity
  8
0
  6
Continuous
 62
     7
370
     0
100
AcDbPolyline
 90
       26
 70
   128
 43
0.0
 10
265.2186792991
 20
33.4189377747
 10
264.2971466098
 20
32.3093799642
 10
262.9571735726
 20
30.8363830596
 10
261.5706603461
 20
29.4702634075
 10
260.1475967899
 20
28.2208639315
 10
258.6982361094
 20
27.0971865833
 10
257.2330209816
 20
26.1073274841
 10
255.7625083151
 20
25.2584185912
 10
254.2972931873
 20
24.5565763128
 10
252.8479325069
 20
24.0068574385
 10
251.4248689506
 20
23.6132227055
 10
250.0383557241
 20
23.3785082609
 10
248.6983826869
 20
23.3044052278
 10
247.4146043755
 20
23.3914475202
 10
246.1962704419
 20
23.6390079963
 10
245.0521590102
 20
24.0453029773
 10
243.9905134294
 20
24.6074050986
 10
243.0189828802
 20
25.3212644014
 10
242.1445672625
 20
26.1817375132
 10
241.3735667609
 20
27.1826247054
 10
240.7115364517
 20
28.3167145628
 10
240.1632462783
 20
29.5758359422
 10
239.7326466841
 20
30.9509168451
 10
239.422840149
 20
32.432049782
 10
239.2360588362
 20
34.0085631562
 10
239.1736485093
 20
35.6690981528
  0
LWPOLYLINE
  5
241
330
1F
100
AcDbEntity
  8
0
  6
Continuous
 62
     7
370
     0
100
AcDbPolyline
 90
       27
 70
   128
 43
0.0
 10
238.4665417281
 20
35.6690981528
 10
238.5285398033
 20
37.413048233
 10
238.7140991569
 20
39.2163472105
 10
239.0219182233
 20
41.0663462384
 10
239.4498378731
 20
42.9500689029
 10
239.9948565572
 20
44.8543022429
 10
240.6531513613
 20
46.7656894297
 10
241.4201048203
 20
48.6708234555
 10
242.2903373066
 20
50.556341174
 10
243.2577447647
 20
52.4090170332
 10
244.3155415264
 20
54.2158558429
 10
245.4563079073
 20
55.9641839273
 10
246.672042251
 20
57.6417380208
 10
247.9542170545
 20
59.236751287
 10
249.2938387829
 20
60.7380358537
 10
250.6815109522
 20
62.1350612885
 10
252.1075000391
 20
63.4180284615
 10
253.561803755
 20
64.5779382799
 10
255.0342212039
 20
65.6066548098
 10
256.5144244356
 20
66.4969623438
 10
257.9920308879
 20
67.2426160142
 10
259.4566762131
 20
67.8383855963
 10
260.8980869766
 20
68.2800921946
 10
262.3061527176
 20
68.5646375546
 10
263.6709968666
 20
68.690025795
 10
264.9830460226
 20
68.6553774075
 10
265.1534490813
 20
68.6386711395
  0
ARC
  5
242
330
1F
100
AcDbEntity
  8
0
  6
Continuous
 62
     7
370
     0
100
AcDbCircle
 10
253.8597072502
 20
35.0631553423
 30
0.0
 40
15.4050871947795
100
AcDbArc
 50
177.7457495802
 51
212.5890690703
  0
LWPOLYLINE
  5
243
330
1F
100
AcDbEntity
  8
0
  6
Continuous
 62
     7
370
     0
100
AcDbPolyline
 90
       21
 70
   128
 43
0.0
 10
251.0176870942
 20
42.5065160893
 10
251.0819112808
 20
43.5095857942
 10
251.27307848
 20
44.5632960628
 10
251.5867078948
 20
45.6429488196
 10
252.0154483175
 20
46.7232379189
 10
252.549250436
 20
47.7788423
 10
253.1756023809
 20
48.7850194907
 10
253.8798229937
 20
49.7181855507
 10
254.6454059401
 20
50.5564678582
 10
255.4544066045
 20
51.2802177866
 10
256.2878626972
 20
51.8724712509
 10
257.1262387137
 20
52.3193463319
 10
257.9498838308
 20
52.6103686564
 10
258.7394925051
 20
52.7387169079
 10
259.4765569783
 20
52.7013827121
 10
260.1438010841
 20
52.4992411509
 10
260.725585186
 20
52.1370302511
 10
261.2082727579
 20
51.6232399293
 10
261.5805500121
 20
50.9699129951
 10
261.8336910854
 20
50.1923628782
 10
261.9139847271
 20
49.7600631071
  0
LWPOLYLINE
  5
244
330
1F
100
AcDbEntity
  8
0
  6
Continuous
 62
     7
370
     0
100
AcDbPolyline
 90
       11
 70
   128
 43
0.0
 10
255.6644926482
 20
38.9344523273
 10
255.4544066045
 20
38.8553417026
 10
254.6454059401
 20
38.6450393456
 10
253.8798229937
 20
38.5993983982
 10
253.1756023809
 20
38.7194886454
 10
252.549250436
 20
39.0024952736
 10
252.0154483175
 20
39.4417848473
 10
251.5867078948
 20
40.0270607913
 10
251.27307848
 20
40.7446047334
 10
251.0819112808
 20
41.5775980519
 10
251.0176870942
 20
42.5065160893
  0
ARC
  5
245
330
1F
100
AcDbEntity
  8
0
  6
Continuous
 62
     7
370
     0
100
AcDbCircle
 10
256.1946447116
 20
42.165363628
 30
0.0
 40
3.074622603022012
100
AcDbArc
 50
173.6294853733
 51
235.0583342334
  0
LWPOLYLINE
  5
246
330
1F
100
AcDbEntity
  8
0
  6
Continuous
 62
     7
370
     0
100
AcDbPolyline
 90
       15
 70
   128
 43
0.0
 10
260.6831708596
 20
50.4705968286
 10
260.1863570157
 20
50.6779673383
 10
259.5480630756
 20
50.7633251874
 10
258.8525308655
 20
50.6845452186
 10
258.1197695806
 20
50.4438937882
 10
257.370859429
 20
50.0482939996
 10
256.6273451922
 20
49.5091265385
 10
255.9106164211
 20
48.8419022712
 10
255.2412920975
 20
48.0658160248
 10
254.6386274635
 20
47.2031943879
 10
254.1199600834
 20
46.2788534142
 10
253.7002110734
 20
45.3193847107
 10
253.3914558482
 20
44.352390445
 10
253.2025767336
 20
43.4056892816
 10
253.1390074377
 20
42.5065160893
  0
LWPOLYLINE
  5
247
330
1F
100
AcDbEntity
  8
0
  6
Continuous
 62
     7
370
     0
100
AcDbPolyline
 90
       30
 70
   128
 43
0.0
 10
279.8322884275
 20
35.4655269251
 10
279.2242602034
 20
35.038158621
 10
278.6446627033
 20
34.4780514205
 10
278.1205972621
 20
33.8113953137
 10
277.6765685974
 20
33.0693623992
 10
277.333338996
 20
32.2866493114
 10
277.1069574926
 20
31.4998548444
 10
277.0080094348
 20
30.745768633
 10
277.0411215238
 20
30.0596509103
 10
277.2047454749
 20
29.4735837785
 10
277.4912304143
 20
29.0149710853
 10
277.8871806244
 20
28.7052570505
 10
278.3740819136
 20
28.5589235582
 10
278.9291673187
 20
28.5828129998
 10
279.5264816631
 20
28.7758083315
 10
280.1380951919
 20
29.1288853063
 10
280.7354095363
 20
29.625534437
 10
281.2904949414
 20
30.2425329625
 10
281.7773962306
 20
30.9510307173
 10
282.1733464408
 20
31.717899134
 10
282.4598313801
 20
32.5072802976
 10
282.6234553313
 20
33.2822636222
 10
282.6565674202
 20
34.006611749
 10
282.5576193624
 20
34.6464549646
 10
282.3312378591
 20
35.1718749113
 10
281.9880082577
 20
35.5583035365
 10
281.543979593
 20
35.7876718671
 10
281.0199141518
 20
35.8492548948
 10
280.4403166516
 20
35.7401730658
 10
279.8322884275
 20
35.4655269251
  0
LWPOLYLINE
  5
248
330
1F
100
AcDbEntity
  8
0
  6
Continuous
 62
     7
370
     0
100
AcDbPolyline
 90
       16
 70
   128
 43
0.0
 10
277.7539105797
 20
29.3582508827
 10
277.9356765028
 20
29.2782863776
 10
278.4049275673
 20
29.20869737
 10
278.9280238222
 20
29.299307387
 10
279.4787350369
 20
29.5455728639
 10
280.0294462517
 20
29.9351450214
 10
280.5525425066
 20
30.4484890848
 10
281.0217935711
 20
31.0598638392
 10
281.4136692374
 20
31.7386124016
 10
281.7085192234
 20
32.4506994848
 10
281.8915585195
 20
33.1604180691
 10
281.9536087711
 20
33.8321799012
 10
281.8915585195
 20
34.4323000377
 10
281.7085192234
 20
34.930685949
 10
281.4136692374
 20
35.3023464847
 10
281.2013642441
 20
35.4498737794
  0
LWPOLYLINE
  5
249
330
1F
100
AcDbEntity
  8
0
  6
Continuous
 62
     7
370
     0
100
AcDbPolyline
 90
       21
 70
   128
 43
0.0
 10
235.5829287485
 20
46.2823452988
 10
236.0525742602
 20
48.0417732292
 10
236.6367427491
 20
49.8122290322
 10
237.3306560678
 20
51.579231443
 10
238.1286384222
 20
53.3283274436
 10
239.0241627963
 20
55.0452104795
 10
240.0099043387
 20
56.7158374792
 10
241.0778002758
 20
58.3265437175
 10
242.2191158605
 20
59.8641545853
 10
243.424515817
 20
61.3160933493
 10
244.6841406981
 20
62.670484023
 10
245.9876875289
 20
63.9162485044
 10
247.3244940796
 20
65.0431971886
 10
248.6836260759
 20
66.0421123123
 10
250.0539666345
 20
66.9048233501
 10
251.4243071932
 20
67.6242738441
 10
252.7834391894
 20
68.1945791214
 10
254.1202457402
 20
68.6110744276
 10
255.423792571
 20
68.8703530813
 10
256.683417452
 20
68.9702943389
 10
256.8399353156
 20
68.9715279144
  0
LWPOLYLINE
  5
24A
330
1F
100
AcDbEntity
  8
0
  6
Continuous
 62
     7
370
     0
100
AcDbPolyline
 90
       22
 70
   128
 43
0.0
 10
227.4692311652
 20
48.3577913068
 10
227.948066756
 20
50.3064574431
 10
228.5499484723
 20
52.2722686368
 10
229.27039572
 20
54.2405907802
 10
230.1040452666
 20
56.196771073
 10
231.0446911663
 20
58.126247103
 10
232.0853309596
 20
60.0146552523
 10
233.2182178013
 20
61.8479376255
 10
234.4349181305
 20
63.6124467003
 10
235.7263744529
 20
65.2950469242
 10
237.0829727673
 20
66.8832124996
 10
238.4946141354
 20
68.3651206297
 10
239.9507898613
 20
69.729739531
 10
241.4406597214
 20
70.9669105575
 10
242.9531326629
 20
72.0674238245
 10
244.4769493682
 20
73.0230867702
 10
246.0007660735
 20
73.8267851434
 10
247.5132390149
 20
74.4725359643
 10
249.0031088751
 20
74.9555320636
 10
250.459284601
 20
75.2721778686
 10
251.8709259691
 20
75.4201161699
 10
253.2091322609
 20
75.3997109139
  0
LWPOLYLINE
  5
24B
330
1F
100
AcDbEntity
  8
0
  6
Continuous
 62
     7
370
     0
100
AcDbPolyline
 90
       19
 70
   128
 43
0.0
 10
235.9757351241
 20
46.2246988419
 10
236.4629793414
 20
48.0290518011
 10
237.0713765947
 20
49.844083764
 10
237.7955995121
 20
51.6539015789
 10
238.629306506
 20
53.4426577516
 10
239.5651973016
 20
55.1946892118
 10
240.5950768621
 20
56.8946544657
 10
241.7099271467
 20
58.5276679323
 10
242.8999860768
 20
60.0794302872
 10
244.1548330168
 20
61.5363536737
 10
245.4634800209
 20
62.8856806833
 10
246.8144680484
 20
64.1155960648
 10
248.1959673034
 20
65.2153301831
 10
249.5958808217
 20
66.1752533231
 10
251.0019503959
 20
66.9869600106
 10
252.4018639142
 20
67.6433426148
 10
253.7833631692
 20
68.1386535849
 10
255.1343511967
 20
68.4685557783
 10
255.907442058
 20
68.5838339801
  0
LINE
  5
24C
330
1F
100
AcDbEntity
  8
0
  6
Continuous
 62
     7
370
     0
100
AcDbLine
 10
235.8398057768
 20
35.784679391
 30
0.0
 11
236.9992951572
 21
36.4540383625
 31
0.0
  0
LINE
  5
24D
330
1F
100
AcDbEntity
  8
0
  6
Continuous
 62
     7
370
     0
100
AcDbLine
 10
237.3846272273
 20
36.2504950906
 30
0.0
 11
236.9992951572
 21
36.4540383625
 31
0.0
  0
ARC
  5
24E
330
1F
100
AcDbEntity
  8
0
  6
Continuous
 62
     7
370
     0
100
AcDbCircle
 10
236.2741486962
 20
37.6299589158
 30
0.0
 40
1.381530505409498
100
AcDbArc
 50
301.6605905892
 51
324.2377952694
  0
LINE
  5
24F
330
1F
100
AcDbEntity
  8
0
  6
Continuous
 62
     7
370
     0
100
AcDbLine
 10
231.7036214614
 20
41.144114638
 30
0.0
 11
237.2786245286
 21
37.9257338724
 31
0.0
  0
LINE
  5
250
330
1F
100
AcDbEntity
  8
0
  6
Continuous
 62
     7
370
     0
100
AcDbLine
 10
231.6429612897
 20
41.1090848823
 30
0.0
 11
231.7036214614
 21
41.144114638
 31
0.0
  0
LINE
  5
251
330
1F
100
AcDbEntity
  8
0
  6
Continuous
 62
     7
370
     0
100
AcDbLine
 10
231.4219904205
 20
45.8895072027
 30
0.0
 11
231.4230314478
 21
46.0752589346
 31
0.0
  0
LWPOLYLINE
  5
252
330
1F
100
AcDbEntity
  8
0
  6
Continuous
 62
     7
370
     0
100
AcDbPolyline
 90
        3
 70
   128
 43
0.0
 10
231.5567706327
 20
43.8663032238
 10
231.4853432568
 20
44.4835367029
 10
231.4219904205
 20
45.8895072027
  0
LWPOLYLINE
  5
253
330
1F
100
AcDbEntity
  8
0
  6
Continuous
 62
     7
370
     0
100
AcDbPolyline
 90
       18
 70
   128
 43
0.0
 10
200.4887707369
 20
69.7051257939
 10
200.5528994733
 20
70.8483782048
 10
200.7441413037
 20
72.0452707125
 10
201.0590835132
 20
73.2744447416
 10
201.4921059505
 20
74.5139656526
 10
202.0354813199
 20
75.7417141655
 10
202.6795130752
 20
76.9357810789
 10
203.4127084544
 20
78.0748582406
 10
204.2219835686
 20
79.1386187914
 10
205.0928968842
 20
80.1080798993
 10
206.0099069325
 20
80.9659415078
 10
206.9566496474
 20
81.6968950562
 10
207.9162303827
 20
82.287896661
 10
208.8715253976
 20
82.7283998847
 10
209.8054874297
 20
83.0105439367
 10
210.7014499046
 20
83.1292939498
 10
211.5434243507
 20
83.0825308272
 10
212.206585514
 20
82.9127607917
  0
ARC
  5
254
330
1F
100
AcDbEntity
  8
0
  6
Continuous
 62
     7
370
     0
100
AcDbCircle
 10
205.8750907185
 20
69.2592187512
 30
0.0
 40
5.404745695693388
100
AcDbArc
 50
175.2675545005
 51
224.8656241104
  0
LWPOLYLINE
  5
255
330
1F
100
AcDbEntity
  8
0
  6
Continuous
 62
     7
370
     0
100
AcDbPolyline
 90
        3
 70
   128
 43
0.0
 10
236.6486607433
 20
34.1153491315
 10
236.4629793414
 20
34.4935500187
 10
235.9757351241
 20
35.7353427789
  0
LWPOLYLINE
  5
256
330
1F
100
AcDbEntity
  8
0
  6
Continuous
 62
     7
370
     0
100
AcDbPolyline
 90
        3
 70
   128
 43
0.0
 10
236.5629737897
 20
33.5977089841
 10
236.0525742602
 20
34.5726091016
 10
235.5829287485
 20
35.789795866
  0
LINE
  5
257
330
1F
100
AcDbEntity
  8
0
  6
Continuous
 62
     7
370
     0
100
AcDbLine
 10
236.9992951572
 20
36.4540383625
 30
0.0
 11
231.2894078991
 21
39.750286114
 31
0.0
  0
ARC
  5
258
330
1F
100
AcDbEntity
  8
0
  6
Continuous
 62
     7
370
     0
100
AcDbCircle
 10
239.1377369146
 20
40.4163590178
 30
0.0
 40
12.09715026325623
100
AcDbArc
 50
195.2980304775
 51
214.568481162
  0
OLE2FRAME
  5
259
330
1F
100
AcDbEntity
  8
0
100
AcDbOle2Frame
 70
     2
  3
Paintbrush-Bild
 10
13.8511154363
 20
38.264191557
 30
0.0
 11
51.6290888628
 21
31.9806341108
 31
0.0
 71
     2
 72
     0
 73
     1
 90
    12928
310
80552BED0767C5B32B40DDAF6807D121434000000000000000006FFBDDFB85D0
310
4940DDAF6807D121434000000000000000006FFBDDFB85D04940416F4BD60AFB
310
3F4000000000000000002BED0767C5B32B40416F4BD60AFB3F40000000000000
310
0000000000000100000000010000010000000100000000000100000000320000
310
D0CF11E0A1B11AE1000000000000000000000000000000003E000300FEFF0900
310
0600000000000000000000000100000001000000000000000010000002000000
310
01000000FEFFFFFF0000000000000000FFFFFFFFFFFFFFFFFFFFFFFFFFFFFFFF
310
FFFFFFFFFFFFFFFFFFFFFFFFFFFFFFFFFFFFFFFFFFFFFFFFFFFFFFFFFFFFFFFF
310
FFFFFFFFFFFFFFFFFFFFFFFFFFFFFFFFFFFFFFFFFFFFFFFFFFFFFFFFFFFFFFFF
310
FFFFFFFFFFFFFFFFFFFFFFFFFFFFFFFFFFFFFFFFFFFFFFFFFFFFFFFFFFFFFFFF
310
FFFFFFFFFFFFFFFFFFFFFFFFFFFFFFFFFFFFFFFFFFFFFFFFFFFFFFFFFFFFFFFF
310
FFFFFFFFFFFFFFFFFFFFFFFFFFFFFFFFFFFFFFFFFFFFFFFFFFFFFFFFFFFFFFFF
310
FFFFFFFFFFFFFFFFFFFFFFFFFFFFFFFFFFFFFFFFFFFFFFFFFFFFFFFFFFFFFFFF
310
FFFFFFFFFFFFFFFFFFFFFFFFFFFFFFFFFFFFFFFFFFFFFFFFFFFFFFFFFFFFFFFF
310
FFFFFFFFFFFFFFFFFFFFFFFFFFFFFFFFFFFFFFFFFFFFFFFFFFFFFFFFFFFFFFFF
310
FFFFFFFFFFFFFFFFFFFFFFFFFFFFFFFFFFFFFFFFFFFFFFFFFFFFFFFFFFFFFFFF
310
FFFFFFFFFFFFFFFFFFFFFFFFFFFFFFFFFFFFFFFFFFFFFFFFFFFFFFFFFFFFFFFF
310
FFFFFFFFFFFFFFFFFFFFFFFFFFFFFFFFFFFFFFFFFFFFFFFFFFFFFFFFFFFFFFFF
310
FFFFFFFFFFFFFFFFFFFFFFFFFFFFFFFFFFFFFFFFFFFFFFFFFFFFFFFFFFFFFFFF
310
FFFFFFFFFFFFFFFFFFFFFFFFFFFFFFFFFFFFFFFFFFFFFFFFFFFFFFFFFFFFFFFF
310
FDFFFFFFFEFFFFFFFEFFFFFFFEFFFFFF05000000060000000700000008000000
310
090000000A0000000B0000000C0000000D0000000E0000000F00000010000000
310
11000000120000001300000014000000150000001600000017000000FEFFFFFF
310
FFFFFFFFFFFFFFFFFFFFFFFFFFFFFFFFFFFFFFFFFFFFFFFFFFFFFFFFFFFFFFFF
310
FFFFFFFFFFFFFFFFFFFFFFFFFFFFFFFFFFFFFFFFFFFFFFFFFFFFFFFFFFFFFFFF
310
FFFFFFFFFFFFFFFFFFFFFFFFFFFFFFFFFFFFFFFFFFFFFFFFFFFFFFFFFFFFFFFF
310
FFFFFFFFFFFFFFFFFFFFFFFFFFFFFFFFFFFFFFFFFFFFFFFFFFFFFFFFFFFFFFFF
310
FFFFFFFFFFFFFFFFFFFFFFFFFFFFFFFFFFFFFFFFFFFFFFFFFFFFFFFFFFFFFFFF
310
FFFFFFFFFFFFFFFFFFFFFFFFFFFFFFFFFFFFFFFFFFFFFFFFFFFFFFFFFFFFFFFF
310
FFFFFFFFFFFFFFFFFFFFFFFFFFFFFFFFFFFFFFFFFFFFFFFFFFFFFFFFFFFFFFFF
310
FFFFFFFFFFFFFFFFFFFFFFFFFFFFFFFFFFFFFFFFFFFFFFFFFFFFFFFFFFFFFFFF
310
FFFFFFFFFFFFFFFFFFFFFFFFFFFFFFFFFFFFFFFFFFFFFFFFFFFFFFFFFFFFFFFF
310
FFFFFFFFFFFFFFFFFFFFFFFFFFFFFFFFFFFFFFFFFFFFFFFFFFFFFFFFFFFFFFFF
310
FFFFFFFFFFFFFFFFFFFFFFFFFFFFFFFFFFFFFFFFFFFFFFFFFFFFFFFFFFFFFFFF
310
FFFFFFFFFFFFFFFFFFFFFFFFFFFFFFFFFFFFFFFFFFFFFFFFFFFFFFFFFFFFFFFF
310
FFFFFFFFFFFFFFFFFFFFFFFFFFFFFFFFFFFFFFFFFFFFFFFFFFFFFFFFFFFFFFFF
310
52006F006F007400200045006E00740072007900000000000000000000000000
310
0000000000000000000000000000000000000000000000000000000000000000
310
16000500FFFFFFFFFFFFFFFF020000000A00030000000000C000000000000046
310
000000000000000000000000C0F8F228EB25D20103000000C000000000000000
310
01004F006C006500000000000000000000000000000000000000000000000000
310
0000000000000000000000000000000000000000000000000000000000000000
310
0A000200FFFFFFFFFFFFFFFFFFFFFFFF00000000000000000000000000000000
310
0000000000000000000000000000000000000000000000001400000000000000
310
010043006F006D0070004F0062006A0000000000000000000000000000000000
310
0000000000000000000000000000000000000000000000000000000000000000
310
120002010100000003000000FFFFFFFF00000000000000000000000000000000
310
0000000000000000000000000000000000000000010000004D00000000000000
310
01004F006C006500310030004E00610074006900760065000000000000000000
310
0000000000000000000000000000000000000000000000000000000000000000
310
1A000200FFFFFFFFFFFFFFFFFFFFFFFF00000000000000000000000000000000
310
0000000000000000000000000000000000000000040000002426000000000000
310
FEFFFFFF02000000FEFFFFFFFFFFFFFFFFFFFFFFFFFFFFFFFFFFFFFFFFFFFFFF
310
FFFFFFFFFFFFFFFFFFFFFFFFFFFFFFFFFFFFFFFFFFFFFFFFFFFFFFFFFFFFFFFF
310
FFFFFFFFFFFFFFFFFFFFFFFFFFFFFFFFFFFFFFFFFFFFFFFFFFFFFFFFFFFFFFFF
310
FFFFFFFFFFFFFFFFFFFFFFFFFFFFFFFFFFFFFFFFFFFFFFFFFFFFFFFFFFFFFFFF
310
FFFFFFFFFFFFFFFFFFFFFFFFFFFFFFFFFFFFFFFFFFFFFFFFFFFFFFFFFFFFFFFF
310
FFFFFFFFFFFFFFFFFFFFFFFFFFFFFFFFFFFFFFFFFFFFFFFFFFFFFFFFFFFFFFFF
310
FFFFFFFFFFFFFFFFFFFFFFFFFFFFFFFFFFFFFFFFFFFFFFFFFFFFFFFFFFFFFFFF
310
FFFFFFFFFFFFFFFFFFFFFFFFFFFFFFFFFFFFFFFFFFFFFFFFFFFFFFFFFFFFFFFF
310
FFFFFFFFFFFFFFFFFFFFFFFFFFFFFFFFFFFFFFFFFFFFFFFFFFFFFFFFFFFFFFFF
310
FFFFFFFFFFFFFFFFFFFFFFFFFFFFFFFFFFFFFFFFFFFFFFFFFFFFFFFFFFFFFFFF
310
FFFFFFFFFFFFFFFFFFFFFFFFFFFFFFFFFFFFFFFFFFFFFFFFFFFFFFFFFFFFFFFF
310
FFFFFFFFFFFFFFFFFFFFFFFFFFFFFFFFFFFFFFFFFFFFFFFFFFFFFFFFFFFFFFFF
310
FFFFFFFFFFFFFFFFFFFFFFFFFFFFFFFFFFFFFFFFFFFFFFFFFFFFFFFFFFFFFFFF
310
FFFFFFFFFFFFFFFFFFFFFFFFFFFFFFFFFFFFFFFFFFFFFFFFFFFFFFFFFFFFFFFF
310
FFFFFFFFFFFFFFFFFFFFFFFFFFFFFFFFFFFFFFFFFFFFFFFFFFFFFFFFFFFFFFFF
310
FFFFFFFFFFFFFFFFFFFFFFFFFFFFFFFFFFFFFFFFFFFFFFFFFFFFFFFFFFFFFFFF
310
0100000200000000000000000000000000000000000000000000000000000000
310
0000000000000000000000000000000000000000000000000000000000000000
310
0100FEFF030A0000FFFFFFFF0A00030000000000C00000000000004607000000
310
5042727573680007000000504272757368000700000050427275736800F439B2
310
7100000000000000000000000000000000000000000000000000000000000000
310
0000000000000000000000000000000000000000000000000000000000000000
310
0000000000000000000000000000000000000000000000000000000000000000
310
0000000000000000000000000000000000000000000000000000000000000000
310
0000000000000000000000000000000000000000000000000000000000000000
310
0000000000000000000000000000000000000000000000000000000000000000
310
0000000000000000000000000000000000000000000000000000000000000000
310
0000000000000000000000000000000000000000000000000000000000000000
310
0000000000000000000000000000000000000000000000000000000000000000
310
0000000000000000000000000000000000000000000000000000000000000000
310
0000000000000000000000000000000000000000000000000000000000000000
310
0000000000000000000000000000000000000000000000000000000000000000
310
20260000424D0E260000000000003E00000028000000B40200006E0000000100
310
01000000000000000000130B0000130B00000200000002000000000000FFFFFF
310
FFFFFFFFFFFFFFFFFFFFFFFFFFFFFFFFFFFFFFFFFFFFFFFFFFFFFFFFFFFFFFFF
310
FFFFFFFFFFFFFFFFFFFFFFFFFFFFFFFFFFFFFFFFFFFFFFFFFFFFFFFFFFFFFFFF
310
FFFFFFFFFFFFFFFFFFFFFFFFFFFFFFFFFFFFFFFFFFFFFFFFF000FFFFFFFFFFFF
310
FFFFFFFFFFFFFFFFFFFFFFFFFFFFFFFFFFFFFFFFFFFFFFFFFFFFFFFFFFFFFFFF
310
FFFFFFFFFFFFFFFFFFFFFFFFFFFFFFFFFFFFFFFFFFFFFFFFFFFFFFFFFFFFFFFF
310
FFFFFFFFFFFFFFFFFFFFFFFFFFFFFFFFF000FFFFFFFFFFFFFFFFFFFFFFFFFFFF
310
FFFFFFFFFFFFFFFFFFFFFFFFFFFFFFFFFFFFFFFFFFFFFFFFFFFFFFFFFFFFFFFF
310
FFFFFFFFFFFFFFFFFFFFFFFFFFFFFFFFFFFFFFFFFFFFFFFFFFFFFFFFFFFFFFFF
310
FFFFFFFFFFFFFFFFF000FFFFFFFFFFFFFFFFFFFFFFFFFFFFFFFFFFFFFFFFFFFF
310
FFFFFFFFFFFFFFFFFFFFFFFFFFFFFFFFFFFFFFFFFFFFFFFFFFFFFFFFFFFFFFFF
310
FFFFFFFFFFFFFFFFFFFFFFFFFFFFFFFFFFFFFFFFFFFFFFFFFFFFFFFFFFFFFFFF
310
F000FFFFFFFFFFFFFFFFFFFFFFFFFFFFFFFFFFFFFFFFFFFFFFFFFFFFFFFFFFFF
310
FFFFFFFFFFFFFFFFFFFFFFFFFFFFFFFFFFFFFFFFFFFFFFFFFFFFFFFFFFFFFFFF
310
FFFFFFFFFFFFFFFFFFFFFFFFFFFFFFFFFFFFFFFFFFFFFFFFF000FFFFFFFFFFFF
310
FFFFFFFFFFFFFFFFFFFFFFFFFFFFFFFFFFFFFFFFFFFFFFFFFFFFFFFFFFFFFFFF
310
FFFFFFFFFFFFFFFFFFFFFFFFFFFFFFFFFFFFFFFFFFFFFFFFFFFFFFFFFFFFFFFF
310
FFFFFFFFFFFFFFFFFFFFFFFFFFFFFFFFF000FFFFFFFFFFFFFFFFFFFFFFFFFFFF
310
FFFFFFFFFFFFFFFFFFFFFFFFFFFFFFFFFFFFFFFFFFFFFFFFFFFFFFFFFFFFFFFF
310
FFFFFFFFFFFFFFFFFFFFFFFFFFFFFFFFFFFFFFFFFFFFFFFFFFFFFFFFFFFFFFFF
310
FFFFFFFFFFFFFFFFF000FFFFFFFFFFFFFFFFFFFFFFFFFFFFFFFFFFFFFFFFFFFF
310
FFFFFFFFFFFFFFFFFFFFFFFFFFFFFFFFFFFFFFFFFFFFFFFFFFFFFFFFFFFFFFFF
310
FFFFFFFFFFFFFFFFFFFFFFFFFFFFFFFFFFFFFFFFFFFFFFFFFFFFFFFFFFFFFFFF
310
F000FFFFFFFFFFFFFFFFFFFFFFFFFFFFFFFFFFFFFFFFFFFFFFFFFFFFFFFFFFFF
310
FFFFFFFFFFFFFFFFFFFFFFFFFFFFFFFFFFFFFFFFFFFFFFFFFFFFFFFFFFFFFFFF
310
FFFFFFFFFFFFFFFFFFFFFFFFFFFFFFFFFFFFFFFFFFFFFFFFF000FFFFFFFFFFFF
310
FFFFFFFFFFFFFFFFFFFFFFFFFFFFFFFFFFFFFFFFFFFFFFFFFFFFFFFFFFFFFFFF
310
FFFFFFFFFFFFFFFFFFFFFFFFFFFFFFFFFFFFFFFFFFFFFFFFFFFFFFFFFFFFFFFF
310
FFFFFFFFFFFFFFFFFFFFFFFFFFFFFFFFF000FFFFFFFFFFFFFFFFFFFFFFFFFFFF
310
FFFFFFFFFFFFFFFFFFFFFFFFFFFFFFFFFFFFFFFFFFFFFFFFFFFFFFFFFFFFFFFF
310
FFFFFFFFFFFFFFFFFFFFFFFFFFFFFFFFFFFFFFFFFFFFFFFFFFFFFFFFFFFFFFFF
310
FFFFFFFFFFFFFFFFF000FFFFFFFFFFFFFFFFFFFFFFFFFFFFFFFFFFFFFFFFFFFF
310
FFFFFFFFFFFFFFFFFFFFFFFFFFFFFFFFFFFFFFFFFFFFFFFFFFFFFFFFFFFFFFFF
310
FFFFFFFFFFFFFFFFFFFFFFFFFFFFFFFFFFFFFFFFFFFFFFFFFFFFFFFFFFFFFFFF
310
F000FFFFFFFFFFFFFFFFFFFFFFFFFFFFFFFFFFFFFFFFFFFFFFFFFFFFFFFFFFFF
310
FFFFFFFFFFFFFFFFFFFFFFFFFFFFFFFFFFFFFFFFFFFFFFFFFFFFFFFFFFFFFFFF
310
FFFFFFFFFFFFFFFFFFFFFFFFFFFFFFFFFFFFFFFFFFFFFFFFF000FFFFFFFFFFFF
310
FFFFFFFFFFFFFFFFFFFFFFFFFFFFFFFFFFFFFFFFFFFFFFFFFFFFFFFFFFFFFFFF
310
FFFFFFFFFFFFFFFFFFFFFFFFFFFFFFFFFFFFFFFFFFFFFFFFFFFFFFFFFFFFFFFF
310
FFFFFFFFFFFFFFFFFFFFFFFFFFFFFFFFF000FFFFFFFFFFFFFFFFFFFFFFFFFFFF
310
FFFFFFFFFFFFFFFFFFFFFFFFFFFFFFFFFFFFFFFFFFFFFFFFFFFFFFFFFFFFFFFF
310
FFFFFFFFFFFFFFFFFFFFFFFFFFFFFFFFFFFFFFFFFFFFFFFFFFFFFFFFFFFFFFFF
310
FFFFFFFFFFFFFFFFF000FFFFFFFFFFFFFFFFFFFFFFFFFFFFFFFFFFFFFFFFFFFF
310
FFFFFFFFFFFFFFFFFFFFFFFFFFFFFFFFFFFFFFFFFFFFFFFFFFFFFFFFFFFFFFFF
310
FFFFFFFFFFFFFFFFFFFFFFFFFFFFFFFFFFFFFFFFFFFFFFFFFFFFFFFFFFFFFFFF
310
F000FFFFFFFFFFFFFFFFFFFFFFFFFFFFFFFFFFFFFFFFFFFFFFFFFFFFFFFFFFFF
310
FFFFFFFFFFFFFFFFFFFFFFFFFFFFFFFFFFFFFFFFFFFFFFFFFFFFFFFFFFFFFFFF
310
FFFFFFFFFFFFFFFFFFFFFFFFFFFFFFFFFFFFFFFFFFFFFFFFF000FFFFFFFFFFFF
310
FFFFFFFFFFFFFFFFFFFFFFFFFFFFFFFFFFFFFFFFFFFFFFFFFFFFFFFFFFFFFFFF
310
FFFFFFFFFFFFFFFFFFFFFFFFFFFFFFFFFFFFFFFFFFFFFFFFFFFFFFFFFFFFFFFF
310
FFFFFFFFFFFFFFFFFFFFFFFFFFFFFFFFF000FFFFFFFFFFFFFFFFFFFFFFFFFFFF
310
FFFFFFFFFFFFFFFFFFFFFFFFFFFFFFFFFFFFFFFFFFFFFFFFFFFFFFFFFFFFFFFF
310
FFFFFFFFFFFFFFFFFFFFFFFFFFFFFFFFFFFFFFFFFFFFFFFFFFFFFFFFFFFFFFFF
310
FFFFFFFFFFFFFFFFF000FFFFF80003FFFFFFFFFFFFFFFFFFFFFFFFFFFFFFFFFF
310
FFFFF00007FFFFFFFFFF00007FFFFFF800000000000000007FFFFFFFFFFFFFFF
310
FFFFFFFC001FFFFFFFFFFFFFFC001FFFFFFFFFFFFFFFFFFFFFFFFFFE0007FFFF
310
F000FFFF8000007FFFFFFFF8000FFFFFC0007FFFFF80007FFFFF0000007FFFFF
310
FFF8000007FFFFF800000000000000007FFFFFF0001FFFFFFFFFFFC00001FFFF
310
FFFFFFFFC00001FFFFFFFF000000000003FFFFE000007FFFF000FFFE0000000F
310
FFFFFFF0000FFFFF80007FFFFF80007FFFFC0000001FFFFFFFC0000001FFFFF8
310
00000000000000007FFFFFF0001FFFFFFFFFFE0000003FFFFFFFFFFE0000003F
310
FFFFFF000000000003FFFF0000000FFFF000FFF800000003FFFFFFF00007FFFF
310
80007FFFFF80007FFFF000000007FFFFFF000000003FFFF80000000000000000
310
7FFFFFF0001FFFFFFFFFF80000000FFFFFFFFFF80000000FFFFFFF0000000000
310
03FFFC00000003FFF000FFE000000000FFFFFFF00007FFFF80003FFFFF80007F
310
FFC000000001FFFFFC000000001FFFF800000000000000007FFFFFF0001FFFFF
310
FFFFE000000003FFFFFFFFE000000003FFFFFF000000000003FFF000000000FF
310
F000FF80000000007FFFFFF00007FFFF80003FFFFF80007FFF8000000000FFFF
310
F80000000007FFF800000000000000007FFFFFF0001FFFFFFFFFC000000001FF
310
FFFFFFC000000001FFFFFF000000000003FFC0000000007FF000FF0000000000
310
3FFFFFE00007FFFF00003FFFFF80007FFE00000000003FFFF00000000003FFF8
310
00000000000000007FFFFFF0001FFFFFFFFF8000000000FFFFFFFF8000000000
310
FFFFFF000000000003FF80000000003FF000FE00000000001FFFFFE00003FFFF
310
00003FFFFF80007FFC00000000001FFFE00000000001FFF8000001FFFE000000
310
7FFFFFF0001FFFFFFFFE00000000003FFFFFFE00000000003FFFFF0000000000
310
03FF00000000001FF000FC00000000000FFFFFE00003FFFF00001FFFFF80007F
310
F800000000001FFFC00000000000FFF8000001FFFE0000007FFFFFF0001FFFFF
310
FFFC00000000001FFFFFFC00000000001FFFFF000000000003FE00000000000F
310
F000F8000000000007FFFFE00003FFFF00001FFFFF80007FF800000000000FFF
310
800000000000FFF8000001FFFE0000007FFFFFF0001FFFFFFFF800000000000F
310
FFFFF800000000000FFFFF000000000003FC000000000007F000F80000000000
310
03FFFFC00003FFFE00001FFFFF80007FF0000000000007FF0000000000007FF8
310
000001FFFE0000007FFFFFF0001FFFFFFFF0000000000007FFFFF00000000000
310
07FFFF000000000003F8000000000003F000F0000000000003FFFFC00001FFFE
310
00001FFFFF80007FE0000000000007FE0000000000003FF8000001FFFE000000
310
7FFFFFF0001FFFFFFFF0000000000007FFFFF0000000000007FFFF0000000000
310
03F800001F800003F000E00001FFF00001FFFFC00001FFFE00000FFFFF80007F
310
E00001FFE00003FE00001FFF00003FF8000001FFFE0000007FFFFFF0001FFFFF
310
FFE000003E000003FFFFE000003E000003FFFF000000000003F00001FFF80001
310
F000E00007FFFC0001FFFFC00001FFFE00000FFFFF80007FC0000FFFFC0003FC
310
0000FFFFC0001FF8000001FFFE0000007FFFFFF0001FFFFFFFC00003FFE00001
310
FFFFC00003FFE00001FFFF0001FFFFFFFFF00007FFFE0001F000E0000FFFFF00
310
00FFFF800001FFFC00000FFFFF80007FC0001FFFFE0001FC0001FFFFE0001FF8
310
000001FFFE0000007FFFFFF0001FFFFFFF80000FFFF80000FFFF80000FFFF800
310
00FFFF0003FFFFFFFFE0000FFFFF8000F000C0003FFFFF8000FFFF800000FFFC
310
000007FFFF80007F80003FFFFF0001FC0003FFFFF0001FF8000001FFFE000000
310
7FFFFFF0001FFFFFFF80003FFFFE0000FFFF80003FFFFE0000FFFF0003FFFFFF
310
FFE0003FFFFF8000F000C0003FFFFF8000FFFF800000FFFC000007FFFF80007F
310
80007FFFFF8001F80007FFFFF8000FF8000001FFFE0000007FFFFFF0001FFFFF
310
FF00007FFFFF00007FFF00007FFFFF00007FFF0003FFFFFFFFE0003FFFFFC000
310
F000C0007FFFFFC000FFFF000000FFFC000007FFFF80007F8000FFFFFF8000F8
310
000FFFFFF8000FF8000001FFFE0000007FFFFFF0001FFFFFFF0000FFFFFF8000
310
7FFF0000FFFFFF80007FFF0003FFFFFFFFC0007FFFFFC00070008000FFFFFFC0
310
00FFFF000000FFF8000007FFFF80007F8000FFFFFF8000F8000FFFFFF8000FF8
310
000001FFFE0000007FFFFFF0001FFFFFFE0001FFFFFFC0003FFE0001FFFFFFC0
310
003FFF0003FFFFFFFFC0007FFFFFE00070008000FFFFFFC0007FFF0000007FF8
310
000003FFFF80007F0001FFFFFF8000F8000FFFFFF8000FF8000001FFFE000000
310
7FFFFFF0001FFFFFFE0001FFFFFFC0003FFE0001FFFFFFC0003FFF0003FFFFFF
310
FFC000FFFFFFE00070008000FFFFFFC0007FFF0000007FF8000003FFFF80007F
310
0001FFFFFF8000F8001FFFFFF8000FF8000001FFFE0000007FFFFFF0001FFFFF
310
FE0003FFFFFFE0003FFE0003FFFFFFE0003FFF0003FFFFFFFFC000FFFFFFE000
310
70008000FFFFFFC0007FFE0000007FF8000003FFFF80007F0001FFFFFF8000F0
310
001FFFFFF8000FF8000001FFFE0000007FFFFFF0001FFFFFFC0003FFFFFFE000
310
1FFC0003FFFFFFE0001FFF0003FFFFFFFFC000FFFFFFC00070008000FFFFFF80
310
007FFE0000007FF0000003FFFF80007F0001FFFFFF0000F0001FFFFFF8000FF8
310
000001FFFE0000007FFFFFF0001FFFFFFC0007FFFFFFF0001FFC0007FFFFFFF0
310
001FFF0003FFFFFFFFC000FFFFFFC00070008001FFFFFF0000FFFE0000003FF0
310
000001FFFF80007F0001FFFFFF0000F8001FFFFFF0000FF8000001FFFE000000
310
7FFFFFF0001FFFFFFC0007FFFFFFF0001FFC0007FFFFFFF0001FFF0003FFFFFF
310
FFC001FFFFFF80007000FFFFFFFFFE0000FFFE0008003FF0008001FFFF80007F
310
FFFFFFFFFC0000FFFFFFFFFFE0000FF8000001FFFE0000007FFFFFF0001FFFFF
310
F8000FFFFFFFF8000FF8000FFFFFFFF8000FFF0003FFFFFFFFFFFFFFFFFF0000
310
7000FFFFFFFFFC0000FFFC0008003FF0008001FFFF80007FFFFFFFFFF80001FF
310
FFFFFFFF80000FF8000001FFFE0000007FFFFFF0001FFFFFF8000FFFFFFFF800
310
0FF8000FFFFFFFF8000FFF0003FFFFFFFFFFFFFFFFFE0000F000FFFFFFFFE000
310
00FFFC000C003FE000C001FFFF80007FFFFFFFFFC00001FFFFFFFFFE00001FF8
310
000001FFFE0000007FFFFFF0001FFFFFF8000FFFFFFFF8000FF8000FFFFFFFF8
310
000FFF0003FFFFFFFFFFFFFFFFF00000F000FFFFFFFE000001FFFC000C001FE0
310
00C000FFFF80007FFFFFFFFE000001FFFFFFFFE000001FF80FFFFFFFFFFFFFC0
310
7FFFFFF0001FFFFFF8000FFFFFFFF8000FF8000FFFFFFFF8000FFF0003FFFFFF
310
FFFFFFFFFF800000F000FFFFFFC0000001FFFC001C001FE001C000FFFF80007F
310
FFFFFF80000003FFFFFFF80000001FF80FFFFFFFFFFFFFC07FFFFFF0001FFFFF
310
F8001FFFFFFFFC000FF8001FFFFFFFFC000FFF0003FFFFFFFFFFFFFFF0000001
310
F000FFFFF800000001FFF8001C001FE001C000FFFF80007FFFFFF800000003FF
310
FFFF800000003FF80FFFFFFFFFFFFFC07FFFFFF0001FFFFFF8001FFFFFFFFC00
310
0FF8001FFFFFFFFC000FFF0003FFFFFFFFFFFFFE00000001F000FFFFC0000000
310
03FFF8001E001FC001E000FFFF80007FFFFF8000000007FFFFFC000000003FF8
310
0FFFFFFFFFFFFFC07FFFFFF0001FFFFFF8001FFFFFFFFC000FF8001FFFFFFFFC
310
000FFF0003FFFFFFFFFFFFE000000003F000FFFE0000000007FFF8001E000FC0
310
01E0007FFF80007FFFFE0000000007FFFFE0000000007FF80FFFFFFFFFFFFFC0
310
7FFFFFF0001FFFFFF0001FFFFFFFFC0007F0001FFFFFFFFC0007FF0003FFFFFF
310
FFFFFF0000000003F000FFF80000000007FFF8001E000FC003E0007FFF80007F
310
FFF0000000000FFFFF8000000000FFF80FFFFFFFFFFFFFC07FFFFFF0001FFFFF
310
F0001FFFFFFFFC0007F0001FFFFFFFFC0007FF0003FFFFFFFFFFFC0000000007
310
F000FFE0000000000FFFF0003E000FC003E0007FFF80007FFFC0000000001FFF
310
FE0000000001FFF80FFFFFFFFFFFFFC07FFFFFF0001FFFFFF0001FFFFFFFFC00
310
07F0001FFFFFFFFC0007FF0003FFFFFFFFFFF0000000000FF000FFC000000000
310
1FFFF0003F000F8003F0003FFF80007FFF80000000003FFFF80000000003FFF8
310
0FFFFFFFFFFFFFC07FFFFFF0001FFFFFF0001FFFFFFFFC0007F0001FFFFFFFFC
310
0007FF0003FFFFFFFFFFE0000000001FF000FF00000000007FFFF0003F000780
310
03F0003FFF80007FFF00000000007FFFF00000000007FFF80FFFFFFFFFFFFFC0
310
7FFFFFF0001FFFFFF0001FFFFFFFFC0007F0001FFFFFFFFC0007FF0003FFFFFF
310
FFFF80000000007FF000FE0000000000FFFFE0003F00078007F0003FFF80007F
310
FE0000000001FFFFE0000000001FFFF80FFFFFFFFFFFFFC07FFFFFF0001FFFFF
310
F0001FFFFFFFFC0007F0001FFFFFFFFC0007FF0003FFFFFFFFFF0000000000FF
310
F000FC0000000003FFFFE0007F00078007F0003FFF80007FFC0000000007FFFF
310
C0000000007FFFF80FFFFFFFFFFFFFC07FFFFFF0001FFFFFF8001FFFFFFFFC00
310
0FF8001FFFFFFFFC000FFF0003FFFFFFFFFE0000000003FFF000FC000000000F
310
FFFFE0007F80070007F8001FFF80007FF8000000001FFFFF8000000001FFFFF8
310
0FFFFFFFFFFFFFC07FFFFFF0001FFFFFF8001FFFFFFFFC000FF8001FFFFFFFFC
310
000FFF0003FFFFFFFFFC000000000FFFF000F8000000007FFFFFE0007F800700
310
07F8001FFF80007FF000000000FFFFFF800000000FFFFFF80FFFFFFFFFFFFFC0
310
7FFFFFF0001FFFFFF8000FFFFFFFF8000FF8000FFFFFFFF8000FFF0003FFFFFF
310
FFFC000000007FFFF000F800000007FFFFFFC0007F8003000FF8001FFF80007F
310
F000000007FFFFFF000000007FFFFFF80FFFFFFFFFFFFFC07FFFFFF0001FFFFF
310
F8000FFFFFFFF8000FF8000FFFFFFFF8000FFF0003FFFFFFFFF80000000FFFFF
310
F000F0000000FFFFFFFFC000FF8003000FF8001FFF80007FE0000000FFFFFFFF
310
0000000FFFFFFFF8000001FFFE0000007FFFFFF0001FFFFFF8000FFFFFFFF800
310
0FF8000FFFFFFFF8000FFF0003FFFFFFFFF8000000FFFFFFF000F000000FFFFF
310
FFFFC000FFC002000FF8000FFF80007FE000001FFFFFFFFE000001FFFFFFFFF8
310
000001FFFE0000007FFFFFF0001FFFFFF8000FFFFFFFF8000FF8000FFFFFFFF8
310
000FFF0003FFFFFFFFF000001FFFFFFFF000E00000FFFFFFFFFFC000FFC00200
310
0FFC000FFF80007FE00001FFFFFFFFFE00001FFFFFFFFFF8000001FFFE000000
310
7FFFFFF0001FFFFFFC000FFFFFFFF8001FFC000FFFFFFFF8001FFF0003FFFFFF
310
FFF00001FFFFFFFFF000E00007FFFFFFFFFF8000FFC000001FFC000FFF80007F
310
C0000FFFFFFFFFFE0000FFFFFFFFFFF8000001FFFE0000007FFFFFF0001FFFFF
310
FC0007FFFFFFF0001FFC0007FFFFFFF0001FFF0003FFFFFFFFF00007FFFFFFFF
310
F000E0001FFFFFFFFFFF8000FFC000001FFC000FFF80007FC0003FFFFFFFFFFE
310
0001FFFFFFFFFFF8000001FFFE0000007FFFFFF0001FFFFFFC0007FFFFFFF000
310
1FFC0007FFFFFFF0001FFF0003FFFFFFFFF0001FFFFFFFFFF000E0003FFFFF00
310
03FF8001FFE000001FFC0007FF80007FC0007FFFFF0007FC0003FFFFF0003FF8
310
000001FFFE0000007FFFFFF0001FFFFFFC0003FFFFFFE0001FFC0003FFFFFFE0
310
001FFF0003FFFFFFFFF0003FFFFFFFFFF000E0003FFFFF0001FF8001FFE00000
310
1FFE0007FF80007FC0007FFFFE0003FC0007FFFFE0003FF8000001FFFE000000
310
7FFFFFF0001FFFFFFE0003FFFFFFE0003FFE0003FFFFFFE0003FFF0003FFFFFF
310
FFF0003FFFFF8001F000E0003FFFFF0001FF0001FFE000001FFE0007FF80007F
310
C0007FFFFE0003FC0007FFFFE0003FF8000001FFFE0000007FFFFFF0001FFFFF
310
FE0001FFFFFFC0003FFE0001FFFFFFC0003FFF0003FFFFFFFFF0003FFFFF0001
310
F000E0003FFFFF0003FF0001FFE000003FFE0007FF80007FC0007FFFFE0003FC
310
0007FFFFE0003FF8000001FFFE0000007FFFFFF0001FFFFFFF0001FFFFFFC000
310
7FFF0001FFFFFFC0007FFF0003FFFFFFFFF0003FFFFF0001F000E0003FFFFE00
310
03FF0003FFF000003FFE0003FF80007FC0007FFFFC0003FE0007FFFFE0003FF8
310
000001FFFE0000007FFFFFF0001FFFFFFF0000FFFFFF80007FFF0000FFFFFF80
310
007FFF0003FFFFFFFFF0003FFFFF0001F000E0003FFFFE0003FF0003FFF00000
310
3FFF0003FF80007FC0007FFFFC0007FE0007FFFFC0003FF8000001FFFE000000
310
7FFFFFF0001FFFFFFF80007FFFFF0000FFFF80007FFFFF0000FFFF0003FFFFFF
310
FFF0003FFFFF0003F000E0003FFFFC0003FE0003FFF000003FFF0003FF80007F
310
E0003FFFF80007FE0003FFFFC0007FF8000001FFFE0000007FFFFFF0001FFFFF
310
FF80003FFFFE0000FFFF80003FFFFE0000FFFF0003FFFFFFFFF0001FFFFE0003
310
F000F0001FFFF80003FE0003FFF000007FFF0001FF80007FE0003FFFF00007FE
310
0001FFFF80007FF8000001FFFE0000007FFFFFF0001FFFFFFFC0000FFFF80001
310
FFFFC0000FFFF80001FFFF0003FFFFFFFFF0001FFFFC0003F000F0000FFFF000
310
07FE0007FFF800007FFF0001FF80007FE0001FFFE00007FF0000FFFE00007FF8
310
000001FFFE0000007FFFFFF0001FFFFFFFC00003FFE00001FFFFC00003FFE000
310
01FFFF0003FFFFFFFFF8000FFFF80003F000F00003FFC00007FC0007FFF80000
310
7FFF8001FF80007FF00007FF80000FFF00007FF80000FFF8000001FFFE000000
310
7F80000000000001FFE000003E000003FFFFE000003E000003FFFF0003FFFFFF
310
FFF80003FFE00007F000F800000000000FFC0007FFF800007FFF8001FF80007F
310
F000000000000FFF000000000000FFF8000001FFFE0000007F80000000000001
310
FFF0000000000007FFFFF0000000000007FFFF0003FFFFFFFFFC00007E000007
310
F000F800000000000FFC0007FFF80000FFFF8000FF80007FF800000000001FFF
310
800000000001FFF8000001FFFE0000007F80000000000001FFF800000000000F
310
FFFFF800000000000FFFFF0003FFFFFFFFFC00000000000FF000FC0000000000
310
1FFC0007FFFC0000FFFF8000FF80007FF800000000003FFFC00000000001FFF8
310
000001FFFE0000007F80000000000001FFF800000000000FFFFFF80000000000
310
0FFFFF0003FFFFFFFFFE00000000001FF000FE00000000003FF8000FFFFC0000
310
FFFF8000FF80007FFC00000000003FFFC00000000003FFF8000001FFFE000000
310
7F80000000000001FFFC00000000001FFFFFFC00000000001FFFFF0003FFFFFF
310
FFFF00000000001FF000FF00000000003FF8000FFFFC0000FFFFC000FF80007F
310
FE00000000007FFFE00000000007FFF8000001FFFE0000007F80000000000001
310
FFFE00000000003FFFFFFE00000000003FFFFF0003FFFFFFFFFF80000000003F
310
F000FF80000000007FF8000FFFFC0001FFFFC0007F80007FFF0000000000FFFF
310
F0000000000FFFF800000000000000007F80000000000001FFFF8000000000FF
310
FFFFFF8000000000FFFFFF0003FFFFFFFFFFC0000000007FF000FFC000000000
310
FFF8000FFFFE0001FFFFC0007F80007FFF8000000001FFFFF8000000001FFFF8
310
00000000000000007F80000000000001FFFFC000000001FFFFFFFFC000000001
310
FFFFFF0003FFFFFFFFFFE000000000FFF000FFE000000003FFF0001FFFFE0001
310
FFFFC0007F80007FFFC000000007FFFFFE000000003FFFF80000000000000000
310
7F80000000000001FFFFE000000003FFFFFFFFE000000003FFFFFF0003FFFFFF
310
FFFFF000000003FFF000FFF80000000FFFF0001FFFFE0001FFFFE0007F80007F
310
FFF00000000FFFFFFF00000000FFFFF800000000000000007F80000000000001
310
FFFFF80000000FFFFFFFFFF80000000FFFFFFF0003FFFFFFFFFFFC0000000FFF
310
F000FFFE0000003FFFF0001FFFFE0003FFFFE0003F80007FFFFC0000003FFFFF
310
FFC0000003FFFFF800000000000000007F80000000000001FFFFFE0000003FFF
310
FFFFFFFE0000003FFFFFFF0003FFFFFFFFFFFF0000003FFFF000FFFF800000FF
310
FFF0001FFFFF0003FFFFE0003F80007FFFFF000001FFFFFFFFF800001FFFFFF8
310
00000000000000007F80000000000001FFFFFFC00001FFFFFFFFFFFFC00001FF
310
FFFFFF0003FFFFFFFFFFFFC00000FFFFF000FFFFF8000FFFFFFFFFFFFFFFFFFF
310
FFFFFFFFFFFFFFFFFFFFF0001FFFFFFFFFFF0000FFFFFFF80000000000000000
310
7FFFFFFFFFFFFFFFFFFFFFFC001FFFFFFFFFFFFFFC001FFFFFFFFFFFFFFFFFFF
310
FFFFFFFC001FFFFFF000FFFFFFFFFFFFFFFFFFFFFFFFFFFFFFFFFFFFFFFFFFFF
310
FFFFFFFFFFFFFFFFFFFFFFFFFFFFFFFFFFFFFFFFFFFFFFFFFFFFFFFFFFFFFFFF
310
FFFFFFFFFFFFFFFFFFFFFFFFFFFFFFFFFFFFFFFFFFFFFFFFFFFFFFFFFFFFFFFF
310
F000FFFFFFFFFFFFFFFFFFFFFFFFFFFFFFFFFFFFFFFFFFFFFFFFFFFFFFFFFFFF
310
FFFFFFFFFFFFFFFFFFFFFFFFFFFFFFFFFFFFFFFFFFFFFFFFFFFFFFFFFFFFFFFF
310
FFFFFFFFFFFFFFFFFFFFFFFFFFFFFFFFFFFFFFFFFFFFFFFFF000FFFFFFFFFFFF
310
FFFFFFFFFFFFFFFFFFFFFFFFFFFFFFFFFFFFFFFFFFFFFFFFFFFFFFFFFFFFFFFF
310
FFFFFFFFFFFFFFFFFFFFFFFFFFFFFFFFFFFFFFFFFFFFFFFFFFFFFFFFFFFFFFFF
310
FFFFFFFFFFFFFFFFFFFFFFFFFFFFFFFFF000FFFFFFFFFFFFFFFFFFFFFFFFFFFF
310
FFFFFFFFFFFFFFFFFFFFFFFFFFFFFFFFFFFFFFFFFFFFFFFFFFFFFFFFFFFFFFFF
310
FFFFFFFFFFFFFFFFFFFFFFFFFFFFFFFFFFFFFFFFFFFFFFFFFFFFFFFFFFFFFFFF
310
FFFFFFFFFFFFFFFFF000FFFFFFFFFFFFFFFFFFFFFFFFFFFFFFFFFFFFFFFFFFFF
310
FFFFFFFFFFFFFFFFFFFFFFFFFFFFFFFFFFFFFFFFFFFFFFFFFFFFFFFFFFFFFFFF
310
FFFFFFFFFFFFFFFFFFFFFFFFFFFFFFFFFFFFFFFFFFFFFFFFFFFFFFFFFFFFFFFF
310
F000FFFFFFFFFFFFFFFFFFFFFFFFFFFFFFFFFFFFFFFFFFFFFFFFFFFFFFFFFFFF
310
FFFFFFFFFFFFFFFFFFFFFFFFFFFFFFFFFFFFFFFFFFFFFFFFFFFFFFFFFFFFFFFF
310
FFFFFFFFFFFFFFFFFFFFFFFFFFFFFFFFFFFFFFFFFFFFFFFFF000FFFFFFFFFFFF
310
FFFFFFFFFFFFFFFFFFFFFFFFFFFFFFFFFFFFFFFFFFFFFFFFFFFFFFFFFFFFFFFF
310
FFFFFFFFFFFFFFFFFFFFFFFFFFFFFFFFFFFFFFFFFFFFFFFFFFFFFFFFFFFFFFFF
310
FFFFFFFFFFFFFFFFFFFFFFFFFFFFFFFFF000FFFFFFFFFFFFFFFFFFFFFFFFFFFF
310
FFFFFFFFFFFFFFFFFFFFFFFFFFFFFFFFFFFFFFFFFFFFFFFFFFFFFFFFFFFFFFFF
310
FFFFFFFFFFFFFFFFFFFFFFFFFFFFFFFFFFFFFFFFFFFFFFFFFFFFFFFFFFFFFFFF
310
FFFFFFFFFFFFFFFFF000FFFFFFFFFFFFFFFFFFFFFFFFFFFFFFFFFFFFFFFFFFFF
310
FFFFFFFFFFFFFFFFFFFFFFFFFFFFFFFFFFFFFFFFFFFFFFFFFFFFFFFFFFFFFFFF
310
FFFFFFFFFFFFFFFFFFFFFFFFFFFFFFFFFFFFFFFFFFFFFFFFFFFFFFFFFFFFFFFF
310
F000FFFFFFFFFFFFFFFFFFFFFFFFFFFFFFFFFFFFFFFFFFFFFFFFFFFFFFFFFFFF
310
FFFFFFFFFFFFFFFFFFFFFFFFFFFFFFFFFFFFFFFFFFFFFFFFFFFFFFFFFFFFFFFF
310
FFFFFFFFFFFFFFFFFFFFFFFFFFFFFFFFFFFFFFFFFFFFFFFFF000FFFFFFFFFFFF
310
FFFFFFFFFFFFFFFFFFFFFFFFFFFFFFFFFFFFFFFFFFFFFFFFFFFFFFFFFFFFFFFF
310
FFFFFFFFFFFFFFFFFFFFFFFFFFFFFFFFFFFFFFFFFFFFFFFFFFFFFFFFFFFFFFFF
310
FFFFFFFFFFFFFFFFFFFFFFFFFFFFFFFFF000FFFFFFFFFFFFFFFFFFFFFFFFFFFF
310
FFFFFFFFFFFFFFFFFFFFFFFFFFFFFFFFFFFFFFFFFFFFFFFFFFFFFFFFFFFFFFFF
310
FFFFFFFFFFFFFFFFFFFFFFFFFFFFFFFFFFFFFFFFFFFFFFFFFFFFFFFFFFFFFFFF
310
FFFFFFFFFFFFFFFFF000FFFFFFFFFFFFFFFFFFFFFFFFFFFFFFFFFFFFFFFFFFFF
310
FFFFFFFFFFFFFFFFFFFFFFFFFFFFFFFFFFFFFFFFFFFFFFFFFFFFFFFFFFFFFFFF
310
FFFFFFFFFFFFFFFFFFFFFFFFFFFFFFFFFFFFFFFFFFFFFFFFFFFFFFFFFFFFFFFF
310
F000FFFFFFFFFFFFFFFFFFFFFFFFFFFFFFFFFFFFFFFFFFFFFFFFFFFFFFFFFFFF
310
FFFFFFFFFFFFFFFFFFFFFFFFFFFFFFFFFFFFFFFFFFFFFFFFFFFFFFFFFFFFFFFF
310
FFFFFFFFFFFFFFFFFFFFFFFFFFFFFFFFFFFFFFFFFFFFFFFFF000FFFFFFFFFFFF
310
FFFFFFFFFFFFFFFFFFFFFFFFFFFFFFFFFFFFFFFFFFFFFFFFFFFFFFFFFFFFFFFF
310
FFFFFFFFFFFFFFFFFFFFFFFFFFFFFFFFFFFFFFFFFFFFFFFFFFFFFFFFFFFFFFFF
310
FFFFFFFFFFFFFFFFFFFFFFFFFFFFFFFFF000FFFFFFFFFFFFFFFFFFFFFFFFFFFF
310
FFFFFFFFFFFFFFFFFFFFFFFFFFFFFFFFFFFFFFFFFFFFFFFFFFFFFFFFFFFFFFFF
310
FFFFFFFFFFFFFFFFFFFFFFFFFFFFFFFFFFFFFFFFFFFFFFFFFFFFFFFFFFFFFFFF
310
FFFFFFFFFFFFFFFFF000FFFFFFFFFFFFFFFFFFFFFFFFFFFFFFFFFFFFFFFFFFFF
310
FFFFFFFFFFFFFFFFFFFFFFFFFFFFFFFFFFFFFFFFFFFFFFFFFFFFFFFFFFFFFFFF
310
FFFFFFFFFFFFFFFFFFFFFFFFFFFFFFFFFFFFFFFFFFFFFFFFFFFFFFFFFFFFFFFF
310
F000FFFFFFFFFFFFFFFFFFFFFFFFFFFFFFFFFFFFFFFFFFFFFFFFFFFFFFFFFFFF
310
FFFFFFFFFFFFFFFFFFFFFFFFFFFFFFFFFFFFFFFFFFFFFFFFFFFFFFFFFFFFFFFF
310
FFFFFFFFFFFFFFFFFFFFFFFFFFFFFFFFFFFFFFFFFFFFFFFFF000FFFFFFFFFFFF
310
FFFFFFFFFFFFFFFFFFFFFFFFFFFFFFFFFFFFFFFFFFFFFFFFFFFFFFFFFFFFFFFF
310
FFFFFFFFFFFFFFFFFFFFFFFFFFFFFFFFFFFFFFFFFFFFFFFFFFFFFFFFFFFFFFFF
310
FFFFFFFFFFFFFFFFFFFFFFFFFFFFFFFFF000FFFFFFFFFFFFFFFFFFFFFFFFFFFF
310
FFFFFFFFFFFFFFFFFFFFFFFFFFFFFFFFFFFFFFFFFFFFFFFFFFFFFFFFFFFFFFFF
310
FFFFFFFFFFFFFFFFFFFFFFFFFFFFFFFFFFFFFFFFFFFFFFFFFFFFFFFFFFFFFFFF
310
FFFFFFFFFFFFFFFFF000FFFFFFFFFFFFFFFFFFFFFFFFFFFFFFFFFFFFFFFFFFFF
310
FFFFFFFFFFFFFFFFFFFFFFFFFFFFFFFFFFFFFFFFFFFFFFFFFFFFFFFFFFFFFFFF
310
FFFFFFFFFFFFFFFFFFFFFFFFFFFFFFFFFFFFFFFFFFFFFFFFFFFFFFFFFFFFFFFF
310
F000FFFFFFFFFFFFFFFFFFFFFFFFFFFFFFFFFFFFFFFFFFFFFFFFFFFFFFFFFFFF
310
FFFFFFFFFFFFFFFFFFFFFFFFFFFFFFFFFFFFFFFFFFFFFFFFFFFFFFFFFFFFFFFF
310
FFFFFFFFFFFFFFFFFFFFFFFFFFFFFFFFFFFFFFFFFFFFFFFFF000FFFFFFFFFFFF
310
FFFFFFFFFFFFFFFFFFFFFFFFFFFFFFFFFFFFFFFFFFFFFFFFFFFFFFFFFFFFFFFF
310
FFFFFFFFFFFFFFFFFFFFFFFFFFFFFFFFFFFFFFFFFFFFFFFFFFFFFFFFFFFFFFFF
310
FFFFFFFFFFFFFFFFFFFFFFFFFFFFFFFFF0000000000000000000000000000000
310
0000000000000000000000000000000000000000000000000000000000000000
310
0000000000000000000000000000000000000000000000000000000000000000
310
0000000000000000000000000000000000000000000000000000000000000000
310
0000000000000000000000000000000000000000000000000000000000000000
310
0000000000000000000000000000000000000000000000000000000000000000
310
0000000000000000000000000000000000000000000000000000000000000000
310
0000000000000000000000000000000000000000000000000000000000000000
310
0000000000000000000000000000000000000000000000000000000000000000
310
0000000000000000000000000000000000000000000000000000000000000000
310
0000000000000000000000000000000000000000000000000000000000000000
310
0000000000000000000000000000000000000000000000000000000000000000
310
0000000000000000000000000000000000000000000000000000000000000000
310
0000000000000000000000000000000000000000000000000000000000000000
310
0000000000000000000000000000000000000000000000000000000000000000
310
0000000000000000000000000000000000000000000000000000000000000000
  1
OLE
  0
ENDSEC
  0
SECTION
  2
OBJECTS
  0
DICTIONARY
  5
C
330
0
100
AcDbDictionary
281
     1
  3
ACAD_GROUP
350
D
  3
ACAD_LAYOUT
350
1A
  3
ACAD_MLINESTYLE
350
17
  3
ACAD_PLOTSETTINGS
350
19
  3
ACAD_PLOTSTYLENAME
350
E
  3
ACAD_SCALELIST
350
47
  0
DICTIONARY
  5
D
102
{ACAD_REACTORS
330
C
102
}
330
C
100
AcDbDictionary
281
     1
  0
DICTIONARY
  5
1A
102
{ACAD_REACTORS
330
C
102
}
330
C
100
AcDbDictionary
281
     1
  3
Layout1
350
1E
  3
Layout2
350
26
  3
Model
350
22
  0
DICTIONARY
  5
17
102
{ACAD_REACTORS
330
C
102
}
330
C
100
AcDbDictionary
281
     1
  3
Standard
350
18
  0
DICTIONARY
  5
19
102
{ACAD_REACTORS
330
C
102
}
330
C
100
AcDbDictionary
281
     1
  0
ACDBDICTIONARYWDFLT
  5
E
102
{ACAD_REACTORS
330
C
102
}
330
C
100
AcDbDictionary
281
     1
  3
Normal
350
F
100
AcDbDictionaryWithDefault
340
F
  0
DICTIONARY
  5
47
102
{ACAD_REACTORS
330
C
102
}
330
C
100
AcDbDictionary
281
     1
  3
A0
350
48
  3
A1
350
49
  3
A2
350
4A
  3
A3
350
4B
  3
A4
350
4C
  3
A5
350
4D
  3
A6
350
4E
  3
A7
350
4F
  3
A8
350
50
  3
A9
350
51
  3
B0
350
52
  3
B1
350
53
  3
B2
350
54
  3
B3
350
55
  3
B4
350
56
  3
B5
350
57
  3
B6
350
58
  3
B7
350
59
  3
B8
350
5A
  3
B9
350
5B
  3
C0
350
5C
  3
C1
350
5D
  3
C2
350
5E
  3
C3
350
5F
  3
C4
350
60
  3
C5
350
61
  3
C6
350
62
  3
C7
350
63
  3
C8
350
64
  3
C9
350
65
  3
D0
350
66
  3
D1
350
67
  3
D2
350
68
  0
LAYOUT
  5
1E
102
{ACAD_REACTORS
330
1A
102
}
330
1A
100
AcDbPlotSettings
  1

  2
none_device
  4

  6

 40
0.0
 41
0.0
 42
0.0
 43
0.0
 44
0.0
 45
0.0
 46
0.0
 47
0.0
 48
0.0
 49
0.0
140
0.0
141
0.0
142
1.0
143
1.0
 70
   688
 72
     1
 73
     0
 74
     5
  7

 75
    16
147
1.0
148
0.0
149
0.0
100
AcDbLayout
  1
Layout1
 70
     1
 71
     1
 10
0.0
 20
0.0
 11
420.0
 21
297.0
 12
0.0
 22
0.0
 32
0.0
 14
1.0000000000E+20
 24
1.0000000000E+20
 34
1.0000000000E+20
 15
-1.0000000000E+20
 25
-1.0000000000E+20
 35
-1.0000000000E+20
146
0.0
 13
0.0
 23
0.0
 33
0.0
 16
1.0
 26
0.0
 36
0.0
 17
0.0
 27
1.0
 37
0.0
 76
     0
330
1B
  0
LAYOUT
  5
26
102
{ACAD_REACTORS
330
1A
102
}
330
1A
100
AcDbPlotSettings
  1

  2
none_device
  4

  6

 40
0.0
 41
0.0
 42
0.0
 43
0.0
 44
0.0
 45
0.0
 46
0.0
 47
0.0
 48
0.0
 49
0.0
140
0.0
141
0.0
142
1.0
143
1.0
 70
   688
 72
     1
 73
     0
 74
     5
  7

 75
    16
147
1.0
148
0.0
149
0.0
100
AcDbLayout
  1
Layout2
 70
     1
 71
     2
 10
0.0
 20
0.0
 11
0.0
 21
0.0
 12
0.0
 22
0.0
 32
0.0
 14
0.0
 24
0.0
 34
0.0
 15
0.0
 25
0.0
 35
0.0
146
0.0
 13
0.0
 23
0.0
 33
0.0
 16
1.0
 26
0.0
 36
0.0
 17
0.0
 27
1.0
 37
0.0
 76
     0
330
23
  0
LAYOUT
  5
22
102
{ACAD_REACTORS
330
1A
102
}
330
1A
100
AcDbPlotSettings
  1

  2
none_device
  4
Letter_(8.50_x_11.00_Inches)
  6

 40
6.35
 41
6.35
 42
6.35000508
 43
6.35000508
 44
215.9
 45
279.4
 46
0.0
 47
0.0
 48
0.0
 49
0.0
140
0.0
141
0.0
142
1.0
143
1.0
 70
  1712
 72
     1
 73
     0
 74
     0
  7

 75
     0
147
1.0
148
0.0
149
0.0
100
AcDbLayout
  1
Model
 70
     1
 71
     0
 10
0.0
 20
0.0
 11
297.0
 21
210.0
 12
0.0
 22
0.0
 32
0.0
 14
0.0
 24
0.0
 34
0.0
 15
297.0
 25
210.0
 35
0.0
146
0.0
 13
0.0
 23
0.0
 33
0.0
 16
1.0
 26
0.0
 36
0.0
 17
0.0
 27
1.0
 37
0.0
 76
     0
330
1F
331
29
  0
MLINESTYLE
  5
18
102
{ACAD_REACTORS
330
17
102
}
330
17
100
AcDbMlineStyle
  2
Standard
 70
     0
  3

 62
   256
 51
90.0
 52
90.0
 71
     2
 49
0.5
 62
   256
  6
BYLAYER
 49
-0.5
 62
   256
  6
BYLAYER
  0
ACDBPLACEHOLDER
  5
F
102
{ACAD_REACTORS
330
E
102
}
330
E
  0
SCALE
  5
48
102
{ACAD_REACTORS
330
47
102
}
330
47
100
AcDbScale
 70
     0
300
1:1
140
1.0
141
1.0
290
     1
  0
SCALE
  5
49
102
{ACAD_REACTORS
330
47
102
}
330
47
100
AcDbScale
 70
     0
300
1:2
140
1.0
141
2.0
290
     0
  0
SCALE
  5
4A
102
{ACAD_REACTORS
330
47
102
}
330
47
100
AcDbScale
 70
     0
300
1:4
140
1.0
141
4.0
290
     0
  0
SCALE
  5
4B
102
{ACAD_REACTORS
330
47
102
}
330
47
100
AcDbScale
 70
     0
300
1:5
140
1.0
141
5.0
290
     0
  0
SCALE
  5
4C
102
{ACAD_REACTORS
330
47
102
}
330
47
100
AcDbScale
 70
     0
300
1:8
140
1.0
141
8.0
290
     0
  0
SCALE
  5
4D
102
{ACAD_REACTORS
330
47
102
}
330
47
100
AcDbScale
 70
     0
300
1:10
140
1.0
141
10.0
290
     0
  0
SCALE
  5
4E
102
{ACAD_REACTORS
330
47
102
}
330
47
100
AcDbScale
 70
     0
300
1:16
140
1.0
141
16.0
290
     0
  0
SCALE
  5
4F
102
{ACAD_REACTORS
330
47
102
}
330
47
100
AcDbScale
 70
     0
300
1:20
140
1.0
141
20.0
290
     0
  0
SCALE
  5
50
102
{ACAD_REACTORS
330
47
102
}
330
47
100
AcDbScale
 70
     0
300
1:30
140
1.0
141
30.0
290
     0
  0
SCALE
  5
51
102
{ACAD_REACTORS
330
47
102
}
330
47
100
AcDbScale
 70
     0
300
1:40
140
1.0
141
40.0
290
     0
  0
SCALE
  5
52
102
{ACAD_REACTORS
330
47
102
}
330
47
100
AcDbScale
 70
     0
300
1:50
140
1.0
141
50.0
290
     0
  0
SCALE
  5
53
102
{ACAD_REACTORS
330
47
102
}
330
47
100
AcDbScale
 70
     0
300
1:100
140
1.0
141
100.0
290
     0
  0
SCALE
  5
54
102
{ACAD_REACTORS
330
47
102
}
330
47
100
AcDbScale
 70
     0
300
2:1
140
2.0
141
1.0
290
     0
  0
SCALE
  5
55
102
{ACAD_REACTORS
330
47
102
}
330
47
100
AcDbScale
 70
     0
300
4:1
140
4.0
141
1.0
290
     0
  0
SCALE
  5
56
102
{ACAD_REACTORS
330
47
102
}
330
47
100
AcDbScale
 70
     0
300
8:1
140
8.0
141
1.0
290
     0
  0
SCALE
  5
57
102
{ACAD_REACTORS
330
47
102
}
330
47
100
AcDbScale
 70
     0
300
10:1
140
10.0
141
1.0
290
     0
  0
SCALE
  5
58
102
{ACAD_REACTORS
330
47
102
}
330
47
100
AcDbScale
 70
     0
300
100:1
140
100.0
141
1.0
290
     0
  0
SCALE
  5
59
102
{ACAD_REACTORS
330
47
102
}
330
47
100
AcDbScale
 70
     0
300
1/128" = 1'-0"
140
0.0078125
141
12.0
290
     0
  0
SCALE
  5
5A
102
{ACAD_REACTORS
330
47
102
}
330
47
100
AcDbScale
 70
     0
300
1/64" = 1'-0"
140
0.015625
141
12.0
290
     0
  0
SCALE
  5
5B
102
{ACAD_REACTORS
330
47
102
}
330
47
100
AcDbScale
 70
     0
300
1/32" = 1'-0"
140
0.03125
141
12.0
290
     0
  0
SCALE
  5
5C
102
{ACAD_REACTORS
330
47
102
}
330
47
100
AcDbScale
 70
     0
300
1/16" = 1'-0"
140
0.0625
141
12.0
290
     0
  0
SCALE
  5
5D
102
{ACAD_REACTORS
330
47
102
}
330
47
100
AcDbScale
 70
     0
300
3/32" = 1'-0"
140
0.09375
141
12.0
290
     0
  0
SCALE
  5
5E
102
{ACAD_REACTORS
330
47
102
}
330
47
100
AcDbScale
 70
     0
300
1/8" = 1'-0"
140
0.125
141
12.0
290
     0
  0
SCALE
  5
5F
102
{ACAD_REACTORS
330
47
102
}
330
47
100
AcDbScale
 70
     0
300
3/16" = 1'-0"
140
0.1875
141
12.0
290
     0
  0
SCALE
  5
60
102
{ACAD_REACTORS
330
47
102
}
330
47
100
AcDbScale
 70
     0
300
1/4" = 1'-0"
140
0.25
141
12.0
290
     0
  0
SCALE
  5
61
102
{ACAD_REACTORS
330
47
102
}
330
47
100
AcDbScale
 70
     0
300
3/8" = 1'-0"
140
0.375
141
12.0
290
     0
  0
SCALE
  5
62
102
{ACAD_REACTORS
330
47
102
}
330
47
100
AcDbScale
 70
     0
300
1/2" = 1'-0"
140
0.5
141
12.0
290
     0
  0
SCALE
  5
63
102
{ACAD_REACTORS
330
47
102
}
330
47
100
AcDbScale
 70
     0
300
3/4" = 1'-0"
140
0.75
141
12.0
290
     0
  0
SCALE
  5
64
102
{ACAD_REACTORS
330
47
102
}
330
47
100
AcDbScale
 70
     0
300
1" = 1'-0"
140
1.0
141
12.0
290
     0
  0
SCALE
  5
65
102
{ACAD_REACTORS
330
47
102
}
330
47
100
AcDbScale
 70
     0
300
1-1/2" = 1'-0"
140
1.5
141
12.0
290
     0
  0
SCALE
  5
66
102
{ACAD_REACTORS
330
47
102
}
330
47
100
AcDbScale
 70
     0
300
3" = 1'-0"
140
3.0
141
12.0
290
     0
  0
SCALE
  5
67
102
{ACAD_REACTORS
330
47
102
}
330
47
100
AcDbScale
 70
     0
300
6" = 1'-0"
140
6.0
141
12.0
290
     0
  0
SCALE
  5
68
102
{ACAD_REACTORS
330
47
102
}
330
47
100
AcDbScale
 70
     0
300
1'-0" = 1'-0"
140
12.0
141
12.0
290
     0
  0
ENDSEC
  0
EOF
