  0
SECTION
  2
HEADER
  9
$ACADVER
  1
AC1015
  9
$ACADMAINTVER
 70
     6
  9
$DWGCODEPAGE
  3
ANSI_1252
  9
$INSBASE
 10
0.0
 20
0.0
 30
0.0
  9
$EXTMIN
 10
0.0
 20
0.0
 30
0.0
  9
$EXTMAX
 10
297.0
 20
210.0
 30
0.0
  9
$LIMMIN
 10
0.0
 20
0.0
  9
$LIMMAX
 10
297.0
 20
210.0
  9
$ORTHOMODE
 70
     0
  9
$REGENMODE
 70
     1
  9
$FILLMODE
 70
     1
  9
$QTEXTMODE
 70
     0
  9
$MIRRTEXT
 70
     1
  9
$LTSCALE
 40
1.0
  9
$ATTMODE
 70
     1
  9
$TEXTSIZE
 40
2.0
  9
$TRACEWID
 40
1.0
  9
$TEXTSTYLE
  7
Standard
  9
$CLAYER
  8
0
  9
$CELTYPE
  6
ByLayer
  9
$CECOLOR
 62
   256
  9
$CELTSCALE
 40
1.0
  9
$DISPSILH
 70
     0
  9
$DIMSCALE
 40
1.0
  9
$DIMASZ
 40
3.0
  9
$DIMEXO
 40
0.0
  9
$DIMDLI
 40
3.75
  9
$DIMRND
 40
0.0
  9
$DIMDLE
 40
0.0
  9
$DIMEXE
 40
1.0
  9
$DIMTP
 40
0.0
  9
$DIMTM
 40
0.0
  9
$DIMTXT
 40
2.0
  9
$DIMCEN
 40
2.5
  9
$DIMTSZ
 40
0.0
  9
$DIMTOL
 70
     0
  9
$DIMLIM
 70
     0
  9
$DIMTIH
 70
     1
  9
$DIMTOH
 70
     1
  9
$DIMSE1
 70
     0
  9
$DIMSE2
 70
     0
  9
$DIMTAD
 70
     1
  9
$DIMZIN
 70
     0
  9
$DIMBLK
  1

  9
$DIMASO
 70
     1
  9
$DIMSHO
 70
     1
  9
$DIMPOST
  1

  9
$DIMAPOST
  1

  9
$DIMALT
 70
     0
  9
$DIMALTD
 70
     3
  9
$DIMALTF
 40
0.0393700787
  9
$DIMLFAC
 40
2.0
  9
$DIMTOFL
 70
     1
  9
$DIMTVP
 40
0.0
  9
$DIMTIX
 70
     0
  9
$DIMSOXD
 70
     0
  9
$DIMSAH
 70
     0
  9
$DIMBLK1
  1

  9
$DIMBLK2
  1

  9
$DIMSTYLE
  2
ISO-25
  9
$DIMCLRD
 70
     0
  9
$DIMCLRE
 70
     0
  9
$DIMCLRT
 70
     0
  9
$DIMTFAC
 40
1.0
  9
$DIMGAP
 40
1.524
  9
$DIMJUST
 70
     0
  9
$DIMSD1
 70
     0
  9
$DIMSD2
 70
     0
  9
$DIMTOLJ
 70
     0
  9
$DIMTZIN
 70
     0
  9
$DIMALTZ
 70
     0
  9
$DIMALTTZ
 70
     0
  9
$DIMUPT
 70
     0
  9
$DIMDEC
 70
     2
  9
$DIMTDEC
 70
     3
  9
$DIMALTU
 70
     2
  9
$DIMALTTD
 70
     3
  9
$DIMTXSTY
  7
Standard
  9
$DIMAUNIT
 70
     0
  9
$DIMADEC
 70
     2
  9
$DIMALTRND
 40
0.0
  9
$DIMAZIN
 70
     0
  9
$DIMDSEP
 70
    44
  9
$DIMATFIT
 70
     3
  9
$DIMFRAC
 70
     0
  9
$DIMLDRBLK
  1

  9
$DIMLUNIT
 70
     2
  9
$DIMLWD
 70
    -2
  9
$DIMLWE
 70
    -2
  9
$DIMTMOVE
 70
     0
  9
$LUNITS
 70
     2
  9
$LUPREC
 70
     2
  9
$SKETCHINC
 40
1.0
  9
$FILLETRAD
 40
10.0
  9
$AUNITS
 70
     0
  9
$AUPREC
 70
     2
  9
$MENU
  1
.
  9
$ELEVATION
 40
0.0
  9
$PELEVATION
 40
0.0
  9
$THICKNESS
 40
0.0
  9
$LIMCHECK
 70
     0
  9
$CHAMFERA
 40
0.0
  9
$CHAMFERB
 40
0.0
  9
$CHAMFERC
 40
0.0
  9
$CHAMFERD
 40
0.0
  9
$SKPOLY
 70
     0
  9
$TDCREATE
 40
2457675.610506863
  9
$TDUCREATE
 40
2457675.52717353
  9
$TDUPDATE
 40
2457675.610508322
  9
$TDUUPDATE
 40
2457675.527174988
  9
$TDINDWG
 40
0.0000000116
  9
$TDUSRTIMER
 40
0.0000000116
  9
$USRTIMER
 70
     1
  9
$ANGBASE
 50
0.0
  9
$ANGDIR
 70
     0
  9
$PDMODE
 70
     0
  9
$PDSIZE
 40
-1.0
  9
$PLINEWID
 40
0.0
  9
$SPLFRAME
 70
     0
  9
$SPLINETYPE
 70
     6
  9
$SPLINESEGS
 70
     8
  9
$HANDSEED
  5
23C
  9
$SURFTAB1
 70
     6
  9
$SURFTAB2
 70
     6
  9
$SURFTYPE
 70
     6
  9
$SURFU
 70
     6
  9
$SURFV
 70
     6
  9
$UCSBASE
  2

  9
$UCSNAME
  2

  9
$UCSORG
 10
0.0
 20
0.0
 30
0.0
  9
$UCSXDIR
 10
1.0
 20
0.0
 30
0.0
  9
$UCSYDIR
 10
0.0
 20
1.0
 30
0.0
  9
$UCSORTHOREF
  2

  9
$UCSORTHOVIEW
 70
     0
  9
$UCSORGTOP
 10
0.0
 20
0.0
 30
0.0
  9
$UCSORGBOTTOM
 10
0.0
 20
0.0
 30
0.0
  9
$UCSORGLEFT
 10
0.0
 20
0.0
 30
0.0
  9
$UCSORGRIGHT
 10
0.0
 20
0.0
 30
0.0
  9
$UCSORGFRONT
 10
0.0
 20
0.0
 30
0.0
  9
$UCSORGBACK
 10
0.0
 20
0.0
 30
0.0
  9
$PUCSBASE
  2

  9
$PUCSNAME
  2

  9
$PUCSORG
 10
0.0
 20
0.0
 30
0.0
  9
$PUCSXDIR
 10
1.0
 20
0.0
 30
0.0
  9
$PUCSYDIR
 10
0.0
 20
1.0
 30
0.0
  9
$PUCSORTHOREF
  2

  9
$PUCSORTHOVIEW
 70
     0
  9
$PUCSORGTOP
 10
0.0
 20
0.0
 30
0.0
  9
$PUCSORGBOTTOM
 10
0.0
 20
0.0
 30
0.0
  9
$PUCSORGLEFT
 10
0.0
 20
0.0
 30
0.0
  9
$PUCSORGRIGHT
 10
0.0
 20
0.0
 30
0.0
  9
$PUCSORGFRONT
 10
0.0
 20
0.0
 30
0.0
  9
$PUCSORGBACK
 10
0.0
 20
0.0
 30
0.0
  9
$USERI1
 70
     0
  9
$USERI2
 70
     0
  9
$USERI3
 70
     0
  9
$USERI4
 70
     0
  9
$USERI5
 70
     0
  9
$USERR1
 40
0.0
  9
$USERR2
 40
0.0
  9
$USERR3
 40
0.0
  9
$USERR4
 40
0.0
  9
$USERR5
 40
0.0
  9
$WORLDVIEW
 70
     1
  9
$SHADEDGE
 70
     3
  9
$SHADEDIF
 70
    70
  9
$TILEMODE
 70
     1
  9
$MAXACTVP
 70
    64
  9
$PINSBASE
 10
0.0
 20
0.0
 30
0.0
  9
$PLIMCHECK
 70
     0
  9
$PEXTMIN
 10
1.0000000000E+20
 20
1.0000000000E+20
 30
1.0000000000E+20
  9
$PEXTMAX
 10
-1.0000000000E+20
 20
-1.0000000000E+20
 30
-1.0000000000E+20
  9
$PLIMMIN
 10
0.0
 20
0.0
  9
$PLIMMAX
 10
420.0
 20
297.0
  9
$UNITMODE
 70
     0
  9
$VISRETAIN
 70
     1
  9
$PLINEGEN
 70
     0
  9
$PSLTSCALE
 70
     1
  9
$TREEDEPTH
 70
  3020
  9
$CMLSTYLE
  2
Standard
  9
$CMLJUST
 70
     0
  9
$CMLSCALE
 40
20.0
  9
$PROXYGRAPHICS
 70
     1
  9
$MEASUREMENT
 70
     1
  9
$CELWEIGHT
370
    -1
  9
$ENDCAPS
280
     0
  9
$JOINSTYLE
280
     0
  9
$LWDISPLAY
290
     1
  9
$INSUNITS
 70
     4
  9
$HYPERLINKBASE
  1

  9
$STYLESHEET
  1

  9
$XEDIT
290
     1
  9
$CEPSNTYPE
380
     0
  9
$PSTYLEMODE
290
     1
  9
$FINGERPRINTGUID
  2
{5F351B6E-C164-49FD-81EE-F1F238D30F86}
  9
$VERSIONGUID
  2
{FAEB1C32-E019-11D5-929B-00C0DF256EC4}
  9
$EXTNAMES
290
     1
  9
$PSVPSCALE
 40
0.0
  9
$OLESTARTUP
290
     0
  0
ENDSEC
  0
SECTION
  2
CLASSES
  0
CLASS
  1
ACDBDICTIONARYWDFLT
  2
AcDbDictionaryWithDefault
  3
ObjectDBX Classes
 90
        0
280
     0
281
     0
  0
CLASS
  1
VISUALSTYLE
  2
AcDbVisualStyle
  3
ObjectDBX Classes
 90
     4095
280
     0
281
     0
  0
CLASS
  1
MATERIAL
  2
AcDbMaterial
  3
ObjectDBX Classes
 90
     1153
280
     0
281
     0
  0
CLASS
  1
SCALE
  2
AcDbScale
  3
ObjectDBX Classes
 90
     1153
280
     0
281
     0
  0
CLASS
  1
TABLESTYLE
  2
AcDbTableStyle
  3
ObjectDBX Classes
 90
     4095
280
     0
281
     0
  0
CLASS
  1
MLEADERSTYLE
  2
AcDbMLeaderStyle
  3
ACDB_MLEADERSTYLE_CLASS
 90
     4095
280
     0
281
     0
  0
CLASS
  1
SUN
  2
AcDbSun
  3
SCENEOE
 90
     1153
280
     0
281
     0
  0
CLASS
  1
ACDBPLACEHOLDER
  2
AcDbPlaceHolder
  3
ObjectDBX Classes
 90
        0
280
     0
281
     0
  0
CLASS
  1
LAYOUT
  2
AcDbLayout
  3
ObjectDBX Classes
 90
        0
280
     0
281
     0
  0
ENDSEC
  0
SECTION
  2
TABLES
  0
TABLE
  2
VPORT
  5
8
330
0
100
AcDbSymbolTable
 70
     1
  0
VPORT
  5
29
330
8
100
AcDbSymbolTableRecord
100
AcDbViewportTableRecord
  2
*Active
 70
     0
 10
0.0
 20
0.0
 11
1.0
 21
1.0
 12
148.5
 22
105.0
 13
0.0
 23
0.0
 14
10.0
 24
10.0
 15
10.0
 25
10.0
 16
0.0
 26
0.0
 36
1.0
 17
0.0
 27
0.0
 37
0.0
 40
210.0
 41
1.4142857143
 42
50.0
 43
0.0
 44
0.0
 50
0.0
 51
0.0
 71
     0
 72
  2000
 73
     1
 74
     3
 75
     0
 76
     0
 77
     0
 78
     0
281
     0
 65
     1
110
0.0
120
0.0
130
0.0
111
1.0
121
0.0
131
0.0
112
0.0
122
1.0
132
0.0
 79
     0
146
0.0
  0
ENDTAB
  0
TABLE
  2
LTYPE
  5
5
330
0
100
AcDbSymbolTable
 70
     6
  0
LTYPE
  5
14
330
5
100
AcDbSymbolTableRecord
100
AcDbLinetypeTableRecord
  2
ByBlock
 70
     0
  3

 72
    65
 73
     0
 40
0.0
  0
LTYPE
  5
15
330
5
100
AcDbSymbolTableRecord
100
AcDbLinetypeTableRecord
  2
ByLayer
 70
     0
  3

 72
    65
 73
     0
 40
0.0
  0
LTYPE
  5
16
330
5
100
AcDbSymbolTableRecord
100
AcDbLinetypeTableRecord
  2
Continuous
 70
     0
  3
Solid line
 72
    65
 73
     0
 40
0.0
  0
LTYPE
  5
6E
330
5
100
AcDbSymbolTableRecord
100
AcDbLinetypeTableRecord
  2
HIDDEN
 70
     0
  3
Hidden __ __ __ __ __ __ __ __ __ __ __ __ __ __
 72
    65
 73
     2
 40
1.905
 49
1.27
 74
     0
 49
-0.635
 74
     0
  0
LTYPE
  5
6F
330
5
100
AcDbSymbolTableRecord
100
AcDbLinetypeTableRecord
  2
PHANTOM
 70
     0
  3
Phantom ______  __  __  ______  __  __  ______
 72
    65
 73
     6
 40
12.7
 49
6.35
 74
     0
 49
-1.27
 74
     0
 49
1.27
 74
     0
 49
-1.27
 74
     0
 49
1.27
 74
     0
 49
-1.27
 74
     0
  0
LTYPE
  5
70
330
5
100
AcDbSymbolTableRecord
100
AcDbLinetypeTableRecord
  2
CENTER
 70
     0
  3
Center ____ _ ____ _ ____ _ ____ _ ____ _ ____
 72
    65
 73
     4
 40
10.16
 49
6.35
 74
     0
 49
-1.27
 74
     0
 49
1.27
 74
     0
 49
-1.27
 74
     0
  0
LTYPE
  5
71
330
5
100
AcDbSymbolTableRecord
100
AcDbLinetypeTableRecord
  2
CENTERX2
 70
     0
  3
Center (2x) ________  __  ________  __  _____
 72
    65
 73
     4
 40
20.32
 49
12.7
 74
     0
 49
-2.54
 74
     0
 49
2.54
 74
     0
 49
-2.54
 74
     0
  0
LTYPE
  5
72
330
5
100
AcDbSymbolTableRecord
100
AcDbLinetypeTableRecord
  2
DOT2
 70
     0
  3
Dot (.5x) ........................................
 72
    65
 73
     2
 40
0.635
 49
0.0
 74
     0
 49
-0.635
 74
     0
  0
ENDTAB
  0
TABLE
  2
LAYER
  5
2
330
0
100
AcDbSymbolTable
 70
     5
  0
LAYER
  5
10
330
2
100
AcDbSymbolTableRecord
100
AcDbLayerTableRecord
  2
0
 70
     0
 62
     7
  6
Continuous
370
    -3
390
F
  0
LAYER
  5
73
330
2
100
AcDbSymbolTableRecord
100
AcDbLayerTableRecord
  2
FORMAT
 70
     0
 62
     7
  6
Continuous
370
    -3
390
F
  0
LAYER
  5
74
330
2
100
AcDbSymbolTableRecord
100
AcDbLayerTableRecord
  2
VERMASSUNG
 70
     0
 62
     7
  6
Continuous
370
    -3
390
F
  0
LAYER
  5
75
330
2
100
AcDbSymbolTableRecord
100
AcDbLayerTableRecord
  2
KOPF_DÜNN
 70
     0
 62
     7
  6
Continuous
370
    -3
390
F
  0
LAYER
  5
76
330
2
100
AcDbSymbolTableRecord
100
AcDbLayerTableRecord
  2
KOPF_DICK
 70
     0
 62
     7
  6
Continuous
370
    15
390
F
  0
ENDTAB
  0
TABLE
  2
STYLE
  5
3
330
0
100
AcDbSymbolTable
 70
     2
  0
STYLE
  5
11
330
3
100
AcDbSymbolTableRecord
100
AcDbTextStyleTableRecord
  2
Standard
 70
     0
 40
0.0
 41
1.0
 50
0.0
 71
     0
 42
2.0
  3
txt
  4

  0
STYLE
  5
77
330
3
100
AcDbSymbolTableRecord
100
AcDbTextStyleTableRecord
  2
SLDTEXTSTYLE0
 70
     0
 40
0.0
 41
0.7
 50
0.0
 71
     0
 42
2.0
  3
TXT
  4

  0
ENDTAB
  0
TABLE
  2
VIEW
  5
6
330
0
100
AcDbSymbolTable
 70
     0
  0
ENDTAB
  0
TABLE
  2
UCS
  5
7
330
0
100
AcDbSymbolTable
 70
     0
  0
ENDTAB
  0
TABLE
  2
APPID
  5
9
330
0
100
AcDbSymbolTable
 70
     1
  0
APPID
  5
12
330
9
100
AcDbSymbolTableRecord
100
AcDbRegAppTableRecord
  2
ACAD
 70
     0
  0
ENDTAB
  0
TABLE
  2
DIMSTYLE
  5
A
330
0
100
AcDbSymbolTable
 70
     2
100
AcDbDimStyleTable
  0
DIMSTYLE
105
27
330
A
100
AcDbSymbolTableRecord
100
AcDbDimStyleTableRecord
  2
ISO-25
 70
     0
 41
2.5
 42
0.625
 43
3.75
 44
1.25
 73
     0
 74
     0
 77
     1
 78
     8
140
2.5
141
2.5
143
0.0393700787
147
0.625
171
     3
172
     1
178
     0
271
     2
272
     2
274
     3
278
    44
283
     0
284
     8
340
11
  0
DIMSTYLE
105
1A4
102
{ACAD_REACTORS
330
1A3
330
1B0
330
1BA
330
1C4
330
1CF
102
}
330
A
100
AcDbSymbolTableRecord
100
AcDbDimStyleTableRecord
  2
SLDDIMSTYLE0
 70
     0
 41
3.0
 44
0.0
 45
0.000000001
 73
     0
 74
     0
 77
     1
 78
    12
 79
     3
140
2.0
147
0.5
173
     1
178
     0
271
     2
272
     3
276
     2
284
    12
340
77
  0
ENDTAB
  0
TABLE
  2
BLOCK_RECORD
  5
1
330
0
100
AcDbSymbolTable
 70
     6
  0
BLOCK_RECORD
  5
1F
330
1
100
AcDbSymbolTableRecord
100
AcDbBlockTableRecord
  2
*Model_Space
340
22
  0
BLOCK_RECORD
  5
1B
330
1
100
AcDbSymbolTableRecord
100
AcDbBlockTableRecord
  2
*Paper_Space
340
1E
  0
BLOCK_RECORD
  5
23
330
1
100
AcDbSymbolTableRecord
100
AcDbBlockTableRecord
  2
*Paper_Space0
340
26
  0
BLOCK_RECORD
  5
1A5
330
1
100
AcDbSymbolTableRecord
100
AcDbBlockTableRecord
  2
_D
340
0
  0
BLOCK_RECORD
  5
1B1
330
1
100
AcDbSymbolTableRecord
100
AcDbBlockTableRecord
  2
_D_1
340
0
  0
BLOCK_RECORD
  5
1BB
330
1
100
AcDbSymbolTableRecord
100
AcDbBlockTableRecord
  2
_D_2
340
0
  0
BLOCK_RECORD
  5
1C5
330
1
100
AcDbSymbolTableRecord
100
AcDbBlockTableRecord
  2
_D_3
340
0
  0
BLOCK_RECORD
  5
1D0
330
1
100
AcDbSymbolTableRecord
100
AcDbBlockTableRecord
  2
_D_4
340
0
  0
ENDTAB
  0
ENDSEC
  0
SECTION
  2
BLOCKS
  0
BLOCK
  5
20
330
1F
100
AcDbEntity
  8
0
100
AcDbBlockBegin
  2
*Model_Space
 70
     0
 10
0.0
 20
0.0
 30
0.0
  3
*Model_Space
  1

  0
ENDBLK
  5
21
330
1F
100
AcDbEntity
  8
0
100
AcDbBlockEnd
  0
BLOCK
  5
1C
330
1B
100
AcDbEntity
 67
     1
  8
0
100
AcDbBlockBegin
  2
*Paper_Space
 70
     0
 10
0.0
 20
0.0
 30
0.0
  3
*Paper_Space
  1

  0
ENDBLK
  5
1D
330
1B
100
AcDbEntity
 67
     1
  8
0
100
AcDbBlockEnd
  0
BLOCK
  5
24
330
23
100
AcDbEntity
  8
0
100
AcDbBlockBegin
  2
*Paper_Space0
 70
     0
 10
0.0
 20
0.0
 30
0.0
  3
*Paper_Space0
  1

  0
ENDBLK
  5
25
330
23
100
AcDbEntity
  8
0
100
AcDbBlockEnd
  0
BLOCK
  5
1A6
330
1A5
100
AcDbEntity
  8
0
100
AcDbBlockBegin
  2
_D
 70
     0
 10
0.0
 20
0.0
 30
0.0
  3
_D
  1

  0
SOLID
  5
1A8
330
1A5
100
AcDbEntity
  8
VERMASSUNG
100
AcDbTrace
 10
75.2320699109
 20
80.5595026533
 30
0.0
 11
75.6820699109
 21
83.5595026533
 31
0.0
 12
74.7820699109
 22
83.5595026533
 32
0.0
 13
74.7820699109
 23
83.5595026533
 33
0.0
  0
SOLID
  5
1A9
330
1A5
100
AcDbEntity
  8
VERMASSUNG
100
AcDbTrace
 10
75.2320699109
 20
143.5595026533
 30
0.0
 11
74.7820699109
 21
140.5595026533
 31
0.0
 12
75.6820699109
 22
140.5595026533
 32
0.0
 13
75.6820699109
 23
140.5595026533
 33
0.0
  0
LINE
  5
1AA
330
1A5
100
AcDbEntity
  8
VERMASSUNG
100
AcDbLine
 10
172.3431244914
 20
80.5595026533
 30
0.0
 11
74.2320699109
 21
80.5595026533
 31
0.0
  0
LINE
  5
1AB
330
1A5
100
AcDbEntity
  8
VERMASSUNG
100
AcDbLine
 10
172.3431244914
 20
143.5595026533
 30
0.0
 11
74.2320699109
 21
143.5595026533
 31
0.0
  0
LINE
  5
1AC
330
1A5
100
AcDbEntity
  8
VERMASSUNG
100
AcDbLine
 10
75.2320699109
 20
80.5595026533
 30
0.0
 11
75.2320699109
 21
143.5595026533
 31
0.0
  0
MTEXT
  5
1AD
330
1A5
100
AcDbEntity
  8
VERMASSUNG
100
AcDbMText
 10
72.4539346547
 20
101.2557487913
 30
0.0
 40
2.0
 41
0.0
 71
     1
 72
     1
  1
MAS-BT 40
  7
SLDTEXTSTYLE0
 11
3.391901413832837E-15
 21
1.0
 31
0.0
 73
     1
 44
1.0
  0
MTEXT
  5
1AE
330
1A5
100
AcDbEntity
  8
VERMASSUNG
100
AcDbMText
 10
72.653934606
 20
116.4557490476
 30
0.0
 40
2.0
 41
0.0
 71
     1
 72
     1
  1
%%c
  7
SLDTEXTSTYLE0
 11
3.391901413832837E-15
 21
1.0
 31
0.0
 73
     1
 44
1.0
  0
MTEXT
  5
1AF
330
1A5
100
AcDbEntity
  8
VERMASSUNG
100
AcDbMText
 10
72.6539343149
 20
120.0638764947
 30
0.0
 40
2.0
 41
0.0
 71
     1
 72
     1
  1
63
  7
SLDTEXTSTYLE0
 11
3.391901413832837E-15
 21
1.0
 31
0.0
 73
     1
 44
1.0
  0
ENDBLK
  5
1A7
330
1A5
100
AcDbEntity
  8
0
100
AcDbBlockEnd
  0
BLOCK
  5
1B2
330
1B1
100
AcDbEntity
  8
0
100
AcDbBlockBegin
  2
_D_1
 70
     0
 10
0.0
 20
0.0
 30
0.0
  3
_D_1
  1

  0
SOLID
  5
1B4
330
1B1
100
AcDbEntity
  8
VERMASSUNG
100
AcDbTrace
 10
80.9431244914
 20
155.8561349918
 30
0.0
 11
83.9431244914
 21
155.4061349918
 31
0.0
 12
83.9431244914
 22
156.3061349918
 32
0.0
 13
83.9431244914
 23
156.3061349918
 33
0.0
  0
SOLID
  5
1B5
330
1B1
100
AcDbEntity
  8
VERMASSUNG
100
AcDbTrace
 10
210.3431244914
 20
155.8561349918
 30
0.0
 11
207.3431244914
 21
156.3061349918
 31
0.0
 12
207.3431244914
 22
155.4061349918
 32
0.0
 13
207.3431244914
 23
155.4061349918
 33
0.0
  0
LINE
  5
1B6
330
1B1
100
AcDbEntity
  8
VERMASSUNG
100
AcDbLine
 10
80.9431244914
 20
123.8822582503
 30
0.0
 11
80.9431244914
 21
156.8561349918
 31
0.0
  0
LINE
  5
1B7
330
1B1
100
AcDbEntity
  8
VERMASSUNG
100
AcDbLine
 10
210.3431244914
 20
142.9595026533
 30
0.0
 11
210.3431244914
 21
156.8561349918
 31
0.0
  0
LINE
  5
1B8
330
1B1
100
AcDbEntity
  8
VERMASSUNG
100
AcDbLine
 10
80.9431244914
 20
155.8561349918
 30
0.0
 11
210.3431244914
 21
155.8561349918
 31
0.0
  0
MTEXT
  5
1B9
330
1B1
100
AcDbEntity
  8
VERMASSUNG
100
AcDbMText
 10
142.6431244653
 20
158.4342705877
 30
0.0
 40
2.0
 41
0.0
 71
     1
 72
     1
  1
129.4
  7
SLDTEXTSTYLE0
 73
     1
 44
1.0
  0
ENDBLK
  5
1B3
330
1B1
100
AcDbEntity
  8
0
100
AcDbBlockEnd
  0
BLOCK
  5
1BC
330
1BB
100
AcDbEntity
  8
0
100
AcDbBlockBegin
  2
_D_2
 70
     0
 10
0.0
 20
0.0
 30
0.0
  3
_D_2
  1

  0
SOLID
  5
1BE
330
1BB
100
AcDbEntity
  8
VERMASSUNG
100
AcDbTrace
 10
146.3431244914
 20
149.8561349918
 30
0.0
 11
149.3431244914
 21
149.4061349918
 31
0.0
 12
149.3431244914
 22
150.3061349918
 32
0.0
 13
149.3431244914
 23
150.3061349918
 33
0.0
  0
SOLID
  5
1BF
330
1BB
100
AcDbEntity
  8
VERMASSUNG
100
AcDbTrace
 10
210.3431244914
 20
149.8561349918
 30
0.0
 11
207.3431244914
 21
150.3061349918
 31
0.0
 12
207.3431244914
 22
149.4061349918
 32
0.0
 13
207.3431244914
 23
149.4061349918
 33
0.0
  0
LINE
  5
1C0
330
1BB
100
AcDbEntity
  8
VERMASSUNG
100
AcDbLine
 10
146.3431244914
 20
134.2845026533
 30
0.0
 11
146.3431244914
 21
150.8561349918
 31
0.0
  0
LINE
  5
1C1
330
1BB
100
AcDbEntity
  8
VERMASSUNG
100
AcDbLine
 10
210.3431244914
 20
142.9595026533
 30
0.0
 11
210.3431244914
 21
150.8561349918
 31
0.0
  0
LINE
  5
1C2
330
1BB
100
AcDbEntity
  8
VERMASSUNG
100
AcDbLine
 10
146.3431244914
 20
149.8561349918
 30
0.0
 11
210.3431244914
 21
149.8561349918
 31
0.0
  0
MTEXT
  5
1C3
330
1BB
100
AcDbEntity
  8
VERMASSUNG
100
AcDbMText
 10
176.8431244784
 20
152.4342705877
 30
0.0
 40
2.0
 41
0.0
 71
     1
 72
     1
  1
64
  7
SLDTEXTSTYLE0
 73
     1
 44
1.0
  0
ENDBLK
  5
1BD
330
1BB
100
AcDbEntity
  8
0
100
AcDbBlockEnd
  0
BLOCK
  5
1C6
330
1C5
100
AcDbEntity
  8
0
100
AcDbBlockBegin
  2
_D_3
 70
     0
 10
0.0
 20
0.0
 30
0.0
  3
_D_3
  1

  0
SOLID
  5
1C8
330
1C5
100
AcDbEntity
  8
VERMASSUNG
100
AcDbTrace
 10
218.4719300734
 20
130.0595026533
 30
0.0
 11
218.0219300734
 21
127.0595026533
 31
0.0
 12
218.9219300734
 22
127.0595026533
 32
0.0
 13
218.9219300734
 23
127.0595026533
 33
0.0
  0
SOLID
  5
1C9
330
1C5
100
AcDbEntity
  8
VERMASSUNG
100
AcDbTrace
 10
218.4719300734
 20
94.0595026533
 30
0.0
 11
218.9219300734
 21
97.0595026533
 31
0.0
 12
218.0219300734
 22
97.0595026533
 32
0.0
 13
218.0219300734
 23
97.0595026533
 33
0.0
  0
LINE
  5
1CA
330
1C5
100
AcDbEntity
  8
VERMASSUNG
100
AcDbLine
 10
209.3431244914
 20
130.0595026533
 30
0.0
 11
219.4719300734
 21
130.0595026533
 31
0.0
  0
LINE
  5
1CB
330
1C5
100
AcDbEntity
  8
VERMASSUNG
100
AcDbLine
 10
209.3431244914
 20
94.0595026533
 30
0.0
 11
219.4719300734
 21
94.0595026533
 31
0.0
  0
LINE
  5
1CC
330
1C5
100
AcDbEntity
  8
VERMASSUNG
100
AcDbLine
 10
218.4719300734
 20
130.0595026533
 30
0.0
 11
218.4719300734
 21
94.0595026533
 31
0.0
  0
MTEXT
  5
1CD
330
1C5
100
AcDbEntity
  8
VERMASSUNG
100
AcDbMText
 10
215.8937947685
 20
108.8545026961
 30
0.0
 40
2.0
 41
0.0
 71
     1
 72
     1
  1
%%c
  7
SLDTEXTSTYLE0
 11
-7.044195017643634E-15
 21
1.0
 31
0.0
 73
     1
 44
1.0
  0
MTEXT
  5
1CE
330
1C5
100
AcDbEntity
  8
VERMASSUNG
100
AcDbMText
 10
215.6937948172
 20
112.4645027104
 30
0.0
 40
2.0
 41
0.0
 71
     1
 72
     1
  1
36
  7
SLDTEXTSTYLE0
 11
-7.044195017643634E-15
 21
1.0
 31
0.0
 73
     1
 44
1.0
  0
ENDBLK
  5
1C7
330
1C5
100
AcDbEntity
  8
0
100
AcDbBlockEnd
  0
BLOCK
  5
1D1
330
1D0
100
AcDbEntity
  8
0
100
AcDbBlockBegin
  2
_D_4
 70
     0
 10
0.0
 20
0.0
 30
0.0
  3
_D_4
  1

  0
SOLID
  5
1D3
330
1D0
100
AcDbEntity
  8
VERMASSUNG
100
AcDbTrace
 10
224.3719300734
 20
143.5595026533
 30
0.0
 11
223.9219300734
 21
140.5595026533
 31
0.0
 12
224.8219300734
 22
140.5595026533
 32
0.0
 13
224.8219300734
 23
140.5595026533
 33
0.0
  0
SOLID
  5
1D4
330
1D0
100
AcDbEntity
  8
VERMASSUNG
100
AcDbTrace
 10
224.3719300734
 20
80.5595026533
 30
0.0
 11
224.8219300734
 21
83.5595026533
 31
0.0
 12
223.9219300734
 22
83.5595026533
 32
0.0
 13
223.9219300734
 23
83.5595026533
 33
0.0
  0
LINE
  5
1D5
330
1D0
100
AcDbEntity
  8
VERMASSUNG
100
AcDbLine
 10
209.7431244914
 20
143.5595026533
 30
0.0
 11
225.3719300734
 21
143.5595026533
 31
0.0
  0
LINE
  5
1D6
330
1D0
100
AcDbEntity
  8
VERMASSUNG
100
AcDbLine
 10
209.7431244914
 20
80.5595026533
 30
0.0
 11
225.3719300734
 21
80.5595026533
 31
0.0
  0
LINE
  5
1D7
330
1D0
100
AcDbEntity
  8
VERMASSUNG
100
AcDbLine
 10
224.3719300734
 20
143.5595026533
 30
0.0
 11
224.3719300734
 21
80.5595026533
 31
0.0
  0
MTEXT
  5
1D8
330
1D0
100
AcDbEntity
  8
VERMASSUNG
100
AcDbMText
 10
221.5937948172
 20
106.954502664
 30
0.0
 40
2.0
 41
0.0
 71
     1
 72
     1
  1
WH
  7
SLDTEXTSTYLE0
 11
-7.044195017643634E-15
 21
1.0
 31
0.0
 73
     1
 44
1.0
  0
MTEXT
  5
1D9
330
1D0
100
AcDbEntity
  8
VERMASSUNG
100
AcDbMText
 10
221.7937947685
 20
110.7545027281
 30
0.0
 40
2.0
 41
0.0
 71
     1
 72
     1
  1
%%c
  7
SLDTEXTSTYLE0
 11
-7.044195017643634E-15
 21
1.0
 31
0.0
 73
     1
 44
1.0
  0
MTEXT
  5
1DA
330
1D0
100
AcDbEntity
  8
VERMASSUNG
100
AcDbMText
 10
221.5937948172
 20
114.3645027424
 30
0.0
 40
2.0
 41
0.0
 71
     1
 72
     1
  1
63
  7
SLDTEXTSTYLE0
 11
-7.044195017643634E-15
 21
1.0
 31
0.0
 73
     1
 44
1.0
  0
ENDBLK
  5
1D2
330
1D0
100
AcDbEntity
  8
0
100
AcDbBlockEnd
  0
ENDSEC
  0
SECTION
  2
ENTITIES
  0
MTEXT
  5
78
330
1F
100
AcDbEntity
  8
KOPF_DÜNN
100
AcDbMText
 10
13.8892156294
 20
23.8442973028
 30
0.0
 40
3.0
 41
0.0
 71
     1
 72
     1
  1
A34.540.063.064
  7
SLDTEXTSTYLE0
 73
     1
 44
1.0
  0
MTEXT
  5
79
330
1F
100
AcDbEntity
  8
VERMASSUNG
100
AcDbMText
 10
13.9329988022
 20
28.8834360957
 30
0.0
 40
3.0
 41
0.0
 71
     1
 72
     1
  1
Aufnahme_Master shank
  7
SLDTEXTSTYLE0
 73
     1
 44
1.0
  0
MTEXT
  5
7A
330
1F
100
AcDbEntity
  8
VERMASSUNG
100
AcDbMText
 10
98.8601118557
 20
13.8365368761
 30
0.0
 40
2.0
 41
0.0
 71
     1
 72
     1
  1
Datum: 17.11.2011
  7
SLDTEXTSTYLE0
 73
     1
 44
1.0
  0
MTEXT
  5
7B
330
1F
100
AcDbEntity
  8
VERMASSUNG
100
AcDbMText
 10
13.933048693
 20
18.0482802738
 30
0.0
 40
2.0
 41
0.0
 71
     1
 72
     1
  1
MAS-BT A/D
  7
SLDTEXTSTYLE0
 73
     1
 44
1.0
  0
MTEXT
  5
7C
330
1F
100
AcDbEntity
  8
VERMASSUNG
100
AcDbMText
 10
13.9808475933
 20
13.9090974274
 30
0.0
 40
2.0
 41
0.0
 71
     1
 72
     1
  1
Gewicht: 1531g
  7
SLDTEXTSTYLE0
 73
     1
 44
1.0
  0
LINE
  5
7D
330
1F
100
AcDbEntity
  8
0
  6
Continuous
 62
     7
370
    15
100
AcDbLine
 10
170.3431269328
 20
80.5595026533
 30
0.0
 11
209.7431244914
 21
80.5595026533
 31
0.0
  0
LINE
  5
7E
330
1F
100
AcDbEntity
  8
0
  6
Continuous
 62
     7
370
    15
100
AcDbLine
 10
182.2935165125
 20
143.5595026533
 30
0.0
 11
170.3426243214
 21
143.5595026533
 31
0.0
  0
LINE
  5
7F
330
1F
100
AcDbEntity
  8
0
  6
Continuous
 62
     7
370
    15
100
AcDbLine
 10
209.7431244914
 20
143.5595026533
 30
0.0
 11
202.2888238037
 21
143.5595026533
 31
0.0
  0
LINE
  5
80
330
1F
100
AcDbEntity
  8
0
  6
Continuous
 62
     7
370
    15
100
AcDbLine
 10
209.7431244914
 20
80.5595026533
 30
0.0
 11
210.3431244914
 21
81.1595026533
 31
0.0
  0
LINE
  5
81
330
1F
100
AcDbEntity
  8
0
  6
Continuous
 62
     7
370
    15
100
AcDbLine
 10
210.3431244914
 20
142.9595026533
 30
0.0
 11
209.7431244914
 21
143.5595026533
 31
0.0
  0
ARC
  5
82
330
1F
100
AcDbEntity
  8
0
  6
Continuous
 62
     7
370
    15
100
AcDbCircle
 10
147.3431244914
 20
88.8345026533
 30
0.0
 40
1.000000000000013
100
AcDbArc
 50
46.4323856419
 51
90.0
  0
ARC
  5
83
330
1F
100
AcDbEntity
  8
0
  6
Continuous
 62
     7
370
    15
100
AcDbCircle
 10
147.3431244914
 20
135.2845026533
 30
0.0
 40
1.000000000000024
100
AcDbArc
 50
270.0
 51
313.5375202149
  0
LINE
  5
84
330
1F
100
AcDbEntity
  8
0
  6
Continuous
 62
     7
370
    15
100
AcDbLine
 10
146.3431244914
 20
134.2845026533
 30
0.0
 11
81.7988175983
 21
124.8717912314
 31
0.0
  0
LINE
  5
85
330
1F
100
AcDbEntity
  8
0
  6
Continuous
 62
     7
370
    15
100
AcDbLine
 10
81.7988175983
 20
99.2472140752
 30
0.0
 11
146.3431244914
 21
89.8345026533
 31
0.0
  0
LINE
  5
86
330
1F
100
AcDbEntity
  8
0
  6
Continuous
 62
     7
370
    15
100
AcDbLine
 10
146.3431244914
 20
89.8345026533
 30
0.0
 11
147.3431244914
 21
89.8345026533
 31
0.0
  0
LINE
  5
87
330
1F
100
AcDbEntity
  8
0
  6
Continuous
 62
     7
370
    15
100
AcDbLine
 10
147.3431244914
 20
134.2845026533
 30
0.0
 11
146.3431244914
 21
134.2845026533
 31
0.0
  0
ARC
  5
88
330
1F
100
AcDbEntity
  8
0
  6
Continuous
 62
     7
370
    15
100
AcDbCircle
 10
81.9431244914
 20
100.2367470563
 30
0.0
 40
1.000000000000014
100
AcDbArc
 50
180.0
 51
261.7028550302
  0
ARC
  5
89
330
1F
100
AcDbEntity
  8
0
  6
Continuous
 62
     7
370
    15
100
AcDbCircle
 10
81.9431244914
 20
123.8822582503
 30
0.0
 40
1.000000000000014
100
AcDbArc
 50
98.2971449698
 51
180.0
  0
SPLINE
  5
8A
330
1F
100
AcDbEntity
  8
0
  6
Continuous
 62
     7
370
    15
100
AcDbSpline
210
0.0
220
0.0
230
1.0
 70
    24
 71
     3
 72
    13
 73
     9
 74
     0
 42
0.000000001
 43
0.00000001
 40
0.0
 40
0.0
 40
0.0
 40
0.0
 40
0.1840187439226675
 40
0.3511654572065137
 40
0.5179850771817616
 40
0.6927577357084541
 40
0.8679671654568162
 40
1.0
 40
1.0
 40
1.0
 40
1.0
 10
195.9947370135148
 20
114.8220011726512
 30
0.0
 10
195.7480398389219
 20
114.9280731177458
 30
0.0
 10
195.2772642849714
 20
115.1304916448042
 30
0.0
 10
194.533979575599
 20
115.4500804484149
 30
0.0
 10
193.7809875891584
 20
115.7738430726698
 30
0.0
 10
193.0197635311243
 20
116.1011452260966
 30
0.0
 10
192.3378246961578
 20
116.3943572532707
 30
0.0
 10
191.9277572833366
 20
116.5706732089344
 30
0.0
 10
191.7515368567836
 20
116.646442392107
 30
0.0
  0
SPLINE
  5
8B
330
1F
100
AcDbEntity
  8
0
  6
Continuous
 62
     7
370
    15
100
AcDbSpline
210
0.0
220
0.0
230
1.0
 70
    24
 71
     3
 72
    18
 73
    14
 74
     0
 42
0.000000001
 43
0.00000001
 40
0.0
 40
0.0
 40
0.0
 40
0.0
 40
0.2165386594557409
 40
0.3272843284064306
 40
0.4397251388026104
 40
0.4906042423424283
 40
0.593752894111708
 40
0.6989995256476021
 40
0.7521304657896225
 40
0.8137323080972904
 40
0.8756486252096645
 40
0.937700355951634
 40
1.0
 40
1.0
 40
1.0
 40
1.0
 10
188.0499243346577
 20
113.8839438727636
 30
0.0
 10
188.087117656107
 20
113.5689375593388
 30
0.0
 10
188.1433329816397
 20
113.0928256724722
 30
0.0
 10
188.2237896333499
 20
112.4114035176825
 30
0.0
 10
188.2750867604582
 20
111.976945978801
 30
0.0
 10
188.3253070146565
 20
111.5516089419926
 30
0.0
 10
188.374259447122
 20
111.1370096353625
 30
0.0
 10
188.4229418200995
 20
110.7246975792496
 30
0.0
 10
188.4630878289193
 20
110.3846836804022
 30
0.0
 10
188.4948356627628
 20
110.1157975549212
 30
0.0
 10
188.5275759684751
 20
109.8385057562602
 30
0.0
 10
188.5598766449127
 20
109.5649373679244
 30
0.0
 10
188.5809528549403
 20
109.3864338365628
 30
0.0
 10
188.5915119692631
 20
109.2970041339644
 30
0.0
  0
SPLINE
  5
8C
330
1F
100
AcDbEntity
  8
0
  6
Continuous
 62
     7
370
    15
100
AcDbSpline
210
0.0
220
0.0
230
1.0
 70
    24
 71
     3
 72
    13
 73
     9
 74
     0
 42
0.000000001
 43
0.00000001
 40
0.0
 40
0.0
 40
0.0
 40
0.0
 40
0.1320328345431813
 40
0.3072422642915458
 40
0.4820149228182397
 40
0.6488345427934887
 40
0.8159812560773346
 40
1.0
 40
1.0
 40
1.0
 40
1.0
 10
188.5915119692631
 20
109.2970041339644
 30
0.0
 10
188.7677323958161
 20
109.2212349507917
 30
0.0
 10
189.1777998086373
 20
109.044918995128
 30
0.0
 10
189.8597386436037
 20
108.7517069679539
 30
0.0
 10
190.6209627016379
 20
108.4244048145271
 30
0.0
 10
191.3739546880786
 20
108.1006421902722
 30
0.0
 10
192.1172393974509
 20
107.7810533866616
 30
0.0
 10
192.5880149514014
 20
107.5786348596032
 30
0.0
 10
192.8347121259943
 20
107.4725629145085
 30
0.0
  0
CIRCLE
  5
8D
330
1F
100
AcDbEntity
  8
0
  6
Continuous
 62
     7
370
    15
100
AcDbCircle
 10
192.2931244914
 20
112.0595026533
 30
0.0
 40
4.699999999999999
  0
SPLINE
  5
8E
330
1F
100
AcDbEntity
  8
0
  6
Continuous
 62
     7
370
    15
100
AcDbSpline
210
0.0
220
0.0
230
1.0
 70
    24
 71
     3
 72
    11
 73
     7
 74
     0
 42
0.000000001
 43
0.00000001
 40
0.0
 40
0.0
 40
0.0
 40
0.0
 40
0.216456724493412
 40
0.4403141600939108
 40
0.7519028444798602
 40
1.0
 40
1.0
 40
1.0
 40
1.0
 10
192.8347121259943
 20
107.4725629145085
 30
0.0
 10
193.0882777782537
 20
107.6617979397133
 30
0.0
 10
193.6040785576686
 20
108.046737984327
 30
0.0
 10
194.561264285173
 20
108.7610818382993
 30
0.0
 10
195.588011446711
 20
109.527339110376
 30
0.0
 10
196.2450659695592
 20
110.0176962549033
 30
0.0
 10
196.5363246481201
 20
110.2350614338519
 30
0.0
  0
SPLINE
  5
8F
330
1F
100
AcDbEntity
  8
0
  6
Continuous
 62
     7
370
    15
100
AcDbSpline
210
0.0
220
0.0
230
1.0
 70
    24
 71
     3
 72
    18
 73
    14
 74
     0
 42
0.000000001
 43
0.00000001
 40
0.0
 40
0.0
 40
0.0
 40
0.0
 40
0.2165386594557419
 40
0.3272843284064315
 40
0.4397251388026072
 40
0.4906042423424258
 40
0.5937528941117068
 40
0.6989995256476039
 40
0.7521304657896215
 40
0.8137323080972904
 40
0.8756486252096644
 40
0.9377003559516331
 40
1.0
 40
1.0
 40
1.0
 40
1.0
 10
196.5363246481201
 20
110.2350614338519
 30
0.0
 10
196.4991313266709
 20
110.5500677472767
 30
0.0
 10
196.4429160011382
 20
111.0261796341433
 30
0.0
 10
196.362459349428
 20
111.707601788933
 30
0.0
 10
196.3111622223196
 20
112.1420593278145
 30
0.0
 10
196.2609419681213
 20
112.5673963646229
 30
0.0
 10
196.2119895356558
 20
112.981995671253
 30
0.0
 10
196.1633071626783
 20
113.3943077273659
 30
0.0
 10
196.1231611538585
 20
113.7343216262133
 30
0.0
 10
196.091413320015
 20
114.0032077516943
 30
0.0
 10
196.0586730143027
 20
114.2804995503553
 30
0.0
 10
196.0263723378652
 20
114.5540679386911
 30
0.0
 10
196.0052961278376
 20
114.7325714700527
 30
0.0
 10
195.9947370135148
 20
114.8220011726512
 30
0.0
  0
SPLINE
  5
90
330
1F
100
AcDbEntity
  8
0
  6
Continuous
 62
     7
370
    15
100
AcDbSpline
210
0.0
220
0.0
230
1.0
 70
    24
 71
     3
 72
    11
 73
     7
 74
     0
 42
0.000000001
 43
0.00000001
 40
0.0
 40
0.0
 40
0.0
 40
0.0
 40
0.2164567244934144
 40
0.4403141600939134
 40
0.7519028444798631
 40
1.0
 40
1.0
 40
1.0
 40
1.0
 10
191.7515368567836
 20
116.646442392107
 30
0.0
 10
191.4979712045241
 20
116.4572073669022
 30
0.0
 10
190.9821704251093
 20
116.0722673222885
 30
0.0
 10
190.0249846976048
 20
115.3579234683162
 30
0.0
 10
188.9982375360668
 20
114.5916661962395
 30
0.0
 10
188.3411830132186
 20
114.1013090517123
 30
0.0
 10
188.0499243346577
 20
113.8839438727636
 30
0.0
  0
CIRCLE
  5
91
330
1F
100
AcDbEntity
  8
0
  6
Continuous
 62
     7
370
    15
100
AcDbCircle
 10
192.2931244914
 20
112.0595026533
 30
0.0
 40
7.000000000000028
  0
ARC
  5
92
330
1F
100
AcDbEntity
  8
0
  6
Continuous
 62
     7
370
    15
100
AcDbCircle
 10
192.2931244914
 20
112.0595026533
 30
0.0
 40
4.000000000000008
100
AcDbArc
 50
246.733831917
 51
306.733831917
  0
ARC
  5
93
330
1F
100
AcDbEntity
  8
0
  6
Continuous
 62
     7
370
    15
100
AcDbCircle
 10
192.2931244914
 20
112.0595026533
 30
0.0
 40
4.000000000000008
100
AcDbArc
 50
66.733831917
 51
126.733831917
  0
ARC
  5
94
330
1F
100
AcDbEntity
  8
0
  6
Continuous
 62
     7
370
    15
100
AcDbCircle
 10
192.2931244914
 20
112.0595026533
 30
0.0
 40
3.999999999999999
100
AcDbArc
 50
6.733831917
 51
66.733831917
  0
ARC
  5
95
330
1F
100
AcDbEntity
  8
0
  6
Continuous
 62
     7
370
    15
100
AcDbCircle
 10
192.2931244914
 20
112.0595026533
 30
0.0
 40
4.00000000000002
100
AcDbArc
 50
186.733831917
 51
246.733831917
  0
ARC
  5
96
330
1F
100
AcDbEntity
  8
0
  6
Continuous
 62
     7
370
    15
100
AcDbCircle
 10
192.2931244914
 20
112.0595026533
 30
0.0
 40
4.00000000000002
100
AcDbArc
 50
126.733831917
 51
186.733831917
  0
ARC
  5
97
330
1F
100
AcDbEntity
  8
0
  6
Continuous
 62
     7
370
    15
100
AcDbCircle
 10
192.2931244914
 20
112.0595026533
 30
0.0
 40
4.000000000000008
100
AcDbArc
 50
306.733831917
 51
6.733831917
  0
SPLINE
  5
98
330
1F
100
AcDbEntity
  8
0
  6
Continuous
 62
     7
370
    15
100
AcDbSpline
210
0.0
220
0.0
230
1.0
 70
     8
 71
     3
 72
    36
 73
    32
 74
     0
 42
0.000000001
 43
0.00000001
 40
0.0
 40
0.0
 40
0.0
 40
0.0
 40
0.0002992979586426
 40
0.035706981341076
 40
0.0670254678408869
 40
0.1202177578323722
 40
0.1528981332758023
 40
0.2082564683883076
 40
0.2450894248389935
 40
0.3074632631161167
 40
0.3492191809442163
 40
0.3772813880341219
 40
0.4201218034135502
 40
0.4650401844096094
 40
0.4952530989252214
 40
0.5414770601926908
 40
0.5870695486750721
 40
0.6179604359844059
 40
0.6440674772484739
 40
0.6650589642285265
 40
0.7104095088761823
 40
0.7409493986205109
 40
0.7669597489368349
 40
0.7878712031959849
 40
0.8303468516178809
 40
0.8589998163084699
 40
0.883510532345893
 40
0.9032413788276815
 40
0.9396598916581619
 40
0.964225375641677
 40
1.0
 40
1.0
 40
1.0
 40
1.0
 10
182.2935165124603
 20
143.5594083131183
 30
0.0
 10
182.2933863414736
 20
143.5594396390046
 30
0.0
 10
182.2778566231538
 20
143.5631768941499
 30
0.0
 10
182.346160173079
 20
143.5466858842324
 30
0.0
 10
182.5717031804869
 20
143.4928960580797
 30
0.0
 10
182.984228719016
 20
143.3968998388758
 30
0.0
 10
183.6657984784337
 20
143.2473310919191
 30
0.0
 10
184.425516340658
 20
143.0918766932349
 30
0.0
 10
185.5244032095165
 20
142.8912217289428
 30
0.0
 10
186.6638277324414
 20
142.7121157439514
 30
0.0
 10
187.8277912495415
 20
142.5676300787966
 30
0.0
 10
188.862828869748
 20
142.4635896667078
 30
0.0
 10
189.9642447993808
 20
142.3800567754155
 30
0.0
 10
191.1165308941584
 20
142.3299363074453
 30
0.0
 10
192.3127067144961
 20
142.3119576295956
 30
0.0
 10
193.5180068624292
 20
142.3289097612621
 30
0.0
 10
194.7126858629531
 20
142.3872266479672
 30
0.0
 10
195.6859709987369
 20
142.4618044470582
 30
0.0
 10
196.4067499743028
 20
142.5314679060992
 30
0.0
 10
197.2379780716937
 20
142.6250241926093
 30
0.0
 10
198.0712329443482
 20
142.7372341571144
 30
0.0
 10
198.8865509077123
 20
142.8652126602325
 30
0.0
 10
199.4668383340167
 20
142.9652274157972
 30
0.0
 10
200.0936208556476
 20
143.0806162182921
 30
0.0
 10
200.6747534415064
 20
143.1965414570222
 30
0.0
 10
201.1881653426071
 20
143.3058457129191
 30
0.0
 10
201.5226540875638
 20
143.3799424197008
 30
0.0
 10
201.8365210774413
 20
143.4513664654893
 30
0.0
 10
202.0723285978157
 20
143.5066655729049
 30
0.0
 10
202.2563763845752
 20
143.5506139841222
 30
0.0
 10
202.2767466309678
 20
143.5555456412171
 30
0.0
 10
202.2888238037274
 20
143.5584695368626
 30
0.0
  0
LINE
  5
99
330
1F
100
AcDbEntity
  8
0
  6
Continuous
 62
     7
370
    15
100
AcDbLine
 10
209.7431244914
 20
112.0595026533
 30
0.0
 11
209.7431244914
 21
80.5595026533
 31
0.0
  0
LINE
  5
9A
330
1F
100
AcDbEntity
  8
0
  6
Continuous
 62
     7
370
    15
100
AcDbLine
 10
209.7431244914
 20
143.5595026533
 30
0.0
 11
209.7431244914
 21
112.0595026533
 31
0.0
  0
SPLINE
  5
9B
330
1F
100
AcDbEntity
  8
0
  6
Continuous
 62
     7
370
    15
100
AcDbSpline
210
0.0
220
0.0
230
1.0
 70
     8
 71
     3
 72
    11
 73
     7
 74
     0
 42
0.000000001
 43
0.00000001
 40
0.0
 40
0.0
 40
0.0
 40
0.0
 40
0.2488814606662326
 40
0.5011921284372279
 40
0.7520447562616803
 40
0.9999999999999999
 40
0.9999999999999999
 40
0.9999999999999999
 40
0.9999999999999999
 10
170.3426243213719
 20
143.5593529079013
 30
0.0
 10
170.3128459918844
 20
143.5502208817571
 30
0.0
 10
170.2528790329265
 20
143.5318310040704
 30
0.0
 10
169.7609569711377
 20
143.3877937555847
 30
0.0
 10
169.0328875485071
 20
143.1783906774724
 30
0.0
 10
168.3221440773344
 20
143.0061864081228
 30
0.0
 10
167.9688365601978
 20
142.9205844078063
 30
0.0
  0
SPLINE
  5
9C
330
1F
100
AcDbEntity
  8
0
  6
Continuous
 62
     7
370
    15
100
AcDbSpline
210
0.0
220
0.0
230
1.0
 70
     8
 71
     3
 72
    24
 73
    20
 74
     0
 42
0.000000001
 43
0.00000001
 40
0.0
 40
0.0
 40
0.0
 40
0.0
 40
0.0452118299938796
 40
0.0902983079486113
 40
0.1353076335800017
 40
0.1802882546038636
 40
0.2252887114240151
 40
0.2703574803299604
 40
0.3155428177259056
 40
0.3608926078743606
 40
0.4064542165075418
 40
0.4522743524470858
 40
0.4983989390904098
 40
0.5831126211220132
 40
0.6669847569265852
 40
0.7503090416968102
 40
0.8333849812054679
 40
0.9165147655217979
 40
1.0
 40
1.0
 40
1.0
 40
1.0
 10
167.9687431848066
 20
81.19840463377228
 30
0.0
 10
168.036446926712
 20
81.18264559275416
 30
0.0
 10
168.1716666985433
 20
81.15117120344009
 30
0.0
 10
168.3643284153878
 20
81.10471040009998
 30
0.0
 10
168.5490652870413
 20
81.05907942046707
 30
0.0
 10
168.725183228336
 20
81.0144541230334
 30
0.0
 10
168.8928670209493
 20
80.97096683643433
 30
0.0
 10
169.0520665052414
 20
80.92876578863647
 30
0.0
 10
169.2027946437216
 20
80.8879991963247
 30
0.0
 10
169.3450475971597
 20
80.8488194437173
 30
0.0
 10
169.4788263522345
 20
80.81138215191487
 30
0.0
 10
169.6041302631813
 20
80.77584556794521
 30
0.0
 10
169.7532369457309
 20
80.73312689841836
 30
0.0
 10
169.9140941771256
 20
80.68659141954126
 30
0.0
 10
170.070106162443
 20
80.64090566220794
 30
0.0
 10
170.1917606900228
 20
80.60486577233739
 30
0.0
 10
170.2782082154456
 20
80.57899194378462
 30
0.0
 10
170.3325459953953
 20
80.5625799130948
 30
0.0
 10
170.3395932855099
 20
80.56052986953706
 30
0.0
 10
170.3431244477779
 20
80.55950266101561
 30
0.0
  0
LINE
  5
9D
330
1F
100
AcDbEntity
  8
0
  6
Continuous
 62
     7
370
    15
100
AcDbLine
 10
167.9681244914
 20
81.1984046338
 30
0.0
 11
167.9681244914
 21
142.9205844078
 31
0.0
  0
SPLINE
  5
9E
330
1F
100
AcDbEntity
  8
0
  6
Continuous
 62
     7
370
    15
100
AcDbSpline
210
0.0
220
0.0
230
1.0
 70
    11
 71
     3
 72
    92
 73
    88
 74
     0
 42
0.000000001
 43
0.00000001
 40
0.0
 40
0.0
 40
0.0
 40
0.0
 40
0.0312500000000006
 40
0.0312500000000006
 40
0.0625000000000012
 40
0.0625000000000012
 40
0.0937500000000019
 40
0.0937500000000019
 40
0.1093750000000021
 40
0.1093750000000021
 40
0.1250000000000024
 40
0.1250000000000024
 40
0.1406250000000027
 40
0.1406250000000027
 40
0.156250000000003
 40
0.156250000000003
 40
0.1875000000000036
 40
0.1875000000000036
 40
0.2187500000000042
 40
0.2187500000000042
 40
0.2500000000000048
 40
0.2500000000000048
 40
0.2812500000000054
 40
0.2812500000000054
 40
0.312500000000006
 40
0.312500000000006
 40
0.3281250000000062
 40
0.3281250000000062
 40
0.3437500000000063
 40
0.3437500000000063
 40
0.3750000000000069
 40
0.3750000000000069
 40
0.3906250000000071
 40
0.3906250000000071
 40
0.4062500000000072
 40
0.4062500000000072
 40
0.4375000000000071
 40
0.4375000000000071
 40
0.4531250000000071
 40
0.4531250000000071
 40
0.468750000000007
 40
0.468750000000007
 40
0.5000000000000069
 40
0.5000000000000069
 40
0.5156250000000068
 40
0.5156250000000068
 40
0.5312500000000067
 40
0.5312500000000067
 40
0.5625000000000064
 40
0.5625000000000064
 40
0.5781250000000063
 40
0.5781250000000063
 40
0.5937500000000062
 40
0.5937500000000062
 40
0.6250000000000059
 40
0.6250000000000059
 40
0.6406250000000058
 40
0.6406250000000058
 40
0.6562500000000057
 40
0.6562500000000057
 40
0.6718750000000056
 40
0.6718750000000056
 40
0.6875000000000054
 40
0.6875000000000054
 40
0.7031250000000053
 40
0.7031250000000053
 40
0.7187500000000051
 40
0.7187500000000051
 40
0.7500000000000046
 40
0.7500000000000046
 40
0.781250000000004
 40
0.781250000000004
 40
0.8125000000000033
 40
0.8125000000000033
 40
0.8281250000000032
 40
0.8281250000000032
 40
0.8437500000000031
 40
0.8437500000000031
 40
0.8750000000000024
 40
0.8750000000000024
 40
0.9062500000000019
 40
0.9062500000000019
 40
0.9375000000000013
 40
0.9375000000000013
 40
0.9687500000000007
 40
0.9687500000000007
 40
1.0
 40
1.0
 40
1.0
 40
1.0
 10
185.6423642486101
 20
118.584166326403
 30
0.0
 10
185.1570365651789
 20
118.2043031367404
 30
0.0
 10
184.7140033403356
 20
117.7843957219619
 30
0.0
 10
183.9161350255466
 20
116.8594316245899
 30
0.0
 10
183.5593148618571
 20
116.3486373234684
 30
0.0
 10
182.9752534355183
 20
115.2788292339583
 30
0.0
 10
182.7432672006334
 20
114.7161805193111
 30
0.0
 10
182.4944746363064
 20
113.8259000833835
 30
0.0
 10
182.4282850509313
 20
113.5199526841515
 30
0.0
 10
182.3347134796476
 20
112.9106736188472
 30
0.0
 10
182.3065682365029
 20
112.6052247176169
 30
0.0
 10
182.2872371967786
 20
111.9927201868761
 30
0.0
 10
182.2960500174207
 20
111.6856646169519
 30
0.0
 10
182.3515164286037
 20
111.0699090699403
 30
0.0
 10
182.3986367052052
 20
110.7604185814045
 30
0.0
 10
182.5925818951582
 20
109.8557573909654
 30
0.0
 10
182.7917042700803
 20
109.275341331989
 30
0.0
 10
183.3232499541343
 20
108.1574492036279
 30
0.0
 10
183.6484490409026
 20
107.6360237431531
 30
0.0
 10
184.3990741104727
 20
106.669619181638
 30
0.0
 10
184.829023703472
 20
106.2211562213205
 30
0.0
 10
185.7544116305852
 20
105.424300648308
 30
0.0
 10
186.2528134402439
 20
105.0711706165499
 30
0.0
 10
187.3192007396379
 20
104.4514089714244
 30
0.0
 10
187.8753310620681
 20
104.19196558024
 30
0.0
 10
188.7363407973163
 20
103.8753379300263
 30
0.0
 10
189.0281535516119
 20
103.7818053903677
 30
0.0
 10
189.6214632849026
 20
103.6187494294416
 30
0.0
 10
189.924378031243
 20
103.5489947011375
 30
0.0
 10
190.8360292993262
 20
103.3787611447233
 30
0.0
 10
191.4465734441489
 20
103.316574759054
 30
0.0
 10
192.3664305670041
 20
103.29756550082
 30
0.0
 10
192.6737270084398
 20
103.3036863168943
 30
0.0
 10
193.289700565665
 20
103.3413315212395
 30
0.0
 10
193.5997687854632
 20
103.3731197372746
 30
0.0
 10
194.5167774705799
 20
103.5057168362942
 30
0.0
 10
195.1133326537302
 20
103.6431073284385
 30
0.0
 10
195.9863641620236
 20
103.9222416918845
 30
0.0
 10
196.2737196991532
 20
104.0275376357534
 30
0.0
 10
196.8409045197397
 20
104.2635584324715
 30
0.0
 10
197.1219298111916
 20
104.3950011841353
 30
0.0
 10
197.9378948129751
 20
104.8215571273742
 30
0.0
 10
198.4497274249278
 20
105.1495979108436
 30
0.0
 10
199.1683248412893
 20
105.7097758598027
 30
0.0
 10
199.399608611661
 20
105.9079340970862
 30
0.0
 10
199.8447174522454
 20
106.3286935616316
 30
0.0
 10
200.0593424263031
 20
106.5524449766135
 30
0.0
 10
200.6604220784251
 20
107.246545800689
 30
0.0
 10
201.0093872376129
 20
107.7433061500221
 30
0.0
 10
201.4503307660104
 20
108.543549801098
 30
0.0
 10
201.5834567464149
 20
108.8195495323304
 30
0.0
 10
201.8196017846281
 20
109.3917750216285
 30
0.0
 10
201.9213623145702
 20
109.6856553401124
 30
0.0
 10
202.1710613598165
 20
110.5722959362874
 30
0.0
 10
202.2670918098895
 20
111.1770930503262
 30
0.0
 10
202.299302320656
 20
112.1061365088431
 30
0.0
 10
202.2908484527974
 20
112.4197167070958
 30
0.0
 10
202.2365473147136
 20
113.0350818288049
 30
0.0
 10
202.1908863830977
 20
113.3393129549521
 30
0.0
 10
202.0635395283539
 20
113.9410713201372
 30
0.0
 10
201.981852022802
 20
114.2385982318175
 30
0.0
 10
201.7822494315623
 20
114.8269343475503
 30
0.0
 10
201.6654632973571
 20
115.1140675382472
 30
0.0
 10
201.4023447857572
 20
115.669524863632
 30
0.0
 10
201.2556805141195
 20
115.9388143910875
 30
0.0
 10
200.9333269548456
 20
116.4612848327921
 30
0.0
 10
200.756856423285
 20
116.7154423661033
 30
0.0
 10
200.1896465780189
 20
117.4471790566645
 30
0.0
 10
199.7666999963534
 20
117.8887438455138
 30
0.0
 10
198.8392392189888
 20
118.6892603399303
 30
0.0
 10
198.3318426971537
 20
119.0485550243741
 30
0.0
 10
197.2737900671428
 20
119.663882526872
 30
0.0
 10
196.7192006049965
 20
119.9238440305666
 30
0.0
 10
195.8492262965338
 20
120.243992599532
 30
0.0
 10
195.5532653174197
 20
120.3386815899429
 30
0.0
 10
194.9592643683619
 20
120.5016163203787
 30
0.0
 10
194.6599280961687
 20
120.5703645210761
 30
0.0
 10
193.7550408033486
 20
120.7393616470482
 30
0.0
 10
193.1426646000989
 20
120.8026748006184
 30
0.0
 10
191.8990530801696
 20
120.8277597834368
 30
0.0
 10
191.2827296076074
 20
120.7890043579292
 30
0.0
 10
190.0687542717221
 20
120.6129005102501
 30
0.0
 10
189.4697223740058
 20
120.4756108782819
 30
0.0
 10
188.2883746745411
 20
120.0964155033014
 30
0.0
 10
187.7228344751364
 20
119.8598260801994
 30
0.0
 10
186.6433820863143
 20
119.2941574080835
 30
0.0
 10
186.1276919320413
 20
118.9640295160655
 30
0.0
 10
185.6423642486101
 20
118.584166326403
 30
0.0
  0
SPLINE
  5
9F
330
1F
100
AcDbEntity
  8
0
  6
Continuous
 62
     7
370
    15
100
AcDbSpline
210
0.0
220
0.0
230
1.0
 70
     8
 71
     3
 72
    10
 73
     6
 74
     0
 42
0.000000001
 43
0.00000001
 40
0.0
 40
0.0
 40
0.0
 40
0.0
 40
0.5
 40
0.5
 40
1.0
 40
1.0
 40
1.0
 40
1.0
 10
167.3197328954344
 20
141.9639633746619
 30
0.0
 10
167.003629064295
 20
141.3441008163847
 30
0.0
 10
166.6738500199502
 20
140.6982000810859
 30
0.0
 10
166.0016267475613
 20
139.3837814407853
 30
0.0
 10
165.6594935816308
 20
138.7158592137731
 30
0.0
 10
165.3123132531166
 20
138.0395214812916
 30
0.0
  0
SPLINE
  5
A0
330
1F
100
AcDbEntity
  8
0
  6
Continuous
 62
     7
370
    15
100
AcDbSpline
210
0.0
220
0.0
230
1.0
 70
     8
 71
     3
 72
     9
 73
     5
 74
     0
 42
0.000000001
 43
0.00000001
 40
0.0
 40
0.0
 40
0.0
 40
0.0
 40
0.5067583433955531
 40
1.0
 40
1.0
 40
1.0
 40
1.0
 10
167.9687550343735
 20
142.9216377606568
 30
0.0
 10
167.8583550770251
 20
142.7595635009921
 30
0.0
 10
167.6404998432885
 20
142.4397379632839
 30
0.0
 10
167.4259064972146
 20
142.1213894183318
 30
0.0
 10
167.3200601197007
 20
141.964366654642
 30
0.0
  0
SPLINE
  5
A1
330
1F
100
AcDbEntity
  8
0
  6
Continuous
 62
     7
370
    15
100
AcDbSpline
210
0.0
220
0.0
230
1.0
 70
     8
 71
     3
 72
     9
 73
     5
 74
     0
 42
0.000000001
 43
0.00000001
 40
0.0
 40
0.0
 40
0.0
 40
0.0
 40
0.4932438861071711
 40
0.9999999999999999
 40
0.9999999999999999
 40
0.9999999999999999
 40
0.9999999999999999
 10
167.3200462046779
 20
82.15463655160299
 30
0.0
 10
167.4258926951709
 20
81.99761263969742
 30
0.0
 10
167.6404853003188
 20
81.67926320582028
 30
0.0
 10
167.8583393493053
 20
81.35943771808004
 30
0.0
 10
167.9687382205655
 20
81.19736419678893
 30
0.0
  0
SPLINE
  5
A2
330
1F
100
AcDbEntity
  8
0
  6
Continuous
 62
     7
370
    15
100
AcDbSpline
210
0.0
220
0.0
230
1.0
 70
     8
 71
     3
 72
    10
 73
     6
 74
     0
 42
0.000000001
 43
0.00000001
 40
0.0
 40
0.0
 40
0.0
 40
0.0
 40
0.5
 40
0.5
 40
1.0
 40
1.0
 40
1.0
 40
1.0
 10
167.3197269757666
 20
82.15505354010271
 30
0.0
 10
167.0035478730925
 20
82.77506369211645
 30
0.0
 10
166.6731056459255
 20
83.42226175798415
 30
0.0
 10
166.0013941252428
 20
84.73567768257791
 30
0.0
 10
165.6594202502108
 20
85.40328894888071
 30
0.0
 10
165.3123132531166
 20
86.07948382532389
 30
0.0
  0
LINE
  5
A3
330
1F
100
AcDbEntity
  8
0
  6
Continuous
 62
     7
370
    15
100
AcDbLine
 10
157.9181244914
 20
142.2958927563
 30
0.0
 11
149.3431244914
 21
142.2958927563
 31
0.0
  0
LINE
  5
A4
330
1F
100
AcDbEntity
  8
0
  6
Continuous
 62
     7
370
    15
100
AcDbLine
 10
157.9181244914
 20
81.8231125503
 30
0.0
 11
157.9181244914
 21
142.2958927563
 31
0.0
  0
LINE
  5
A5
330
1F
100
AcDbEntity
  8
0
  6
Continuous
 62
     7
370
    15
100
AcDbLine
 10
149.3431244914
 20
81.8231125503
 30
0.0
 11
157.9181244914
 21
81.8231125503
 31
0.0
  0
LINE
  5
A6
330
1F
100
AcDbEntity
  8
0
  6
Continuous
 62
     7
370
    15
100
AcDbLine
 10
148.3431244914
 20
82.9330971078
 30
0.0
 11
148.3431244914
 21
141.1859081988
 31
0.0
  0
SPLINE
  5
A7
330
1F
100
AcDbEntity
  8
0
  6
Continuous
 62
     7
370
    15
100
AcDbSpline
210
0.0
220
0.0
230
1.0
 70
     8
 71
     3
 72
    12
 73
     8
 74
     0
 42
0.000000001
 43
0.00000001
 40
0.0
 40
0.0
 40
0.0
 40
0.0
 40
0.2500000000000015
 40
0.2500000000000015
 40
0.500000000000003
 40
0.500000000000003
 40
1.0
 40
1.0
 40
1.0
 40
1.0
 10
148.7301573143545
 20
142.1264925531287
 30
0.0
 10
148.6782965631664
 20
142.0696799808144
 30
0.0
 10
148.6295647661474
 20
142.0076877945625
 30
0.0
 10
148.53939175623
 20
141.8716347214385
 30
0.0
 10
148.4976145079451
 20
141.7967286188398
 30
0.0
 10
148.3915256380991
 20
141.5586019835424
 30
0.0
 10
148.3431244913889
 20
141.3751952519736
 30
0.0
 10
148.3431244913889
 20
141.1859081987918
 30
0.0
  0
SPLINE
  5
A8
330
1F
100
AcDbEntity
  8
0
  6
Continuous
 62
     7
370
    15
100
AcDbSpline
210
0.0
220
0.0
230
1.0
 70
     8
 71
     3
 72
     8
 73
     4
 74
     0
 42
0.000000001
 43
0.00000001
 40
0.0
 40
0.0
 40
0.0
 40
0.0
 40
1.0
 40
1.0
 40
1.0
 40
1.0
 10
149.3431244913889
 20
142.2958927563096
 30
0.0
 10
149.1167801777891
 20
142.2958927563096
 30
0.0
 10
148.8993280573839
 20
142.2325242872887
 30
0.0
 10
148.7301573143545
 20
142.1264925531287
 30
0.0
  0
SPLINE
  5
A9
330
1F
100
AcDbEntity
  8
0
  6
Continuous
 62
     7
370
    15
100
AcDbSpline
210
0.0
220
0.0
230
1.0
 70
     8
 71
     3
 72
     8
 73
     4
 74
     0
 42
0.000000001
 43
0.00000001
 40
0.0
 40
0.0
 40
0.0
 40
0.0
 40
1.0
 40
1.0
 40
1.0
 40
1.0
 10
148.7301573143545
 20
81.99251275348679
 30
0.0
 10
148.8997508200064
 20
81.88621604292959
 30
0.0
 10
149.1161195123396
 20
81.82311255030592
 30
0.0
 10
149.3431244913889
 20
81.82311255030592
 30
0.0
  0
SPLINE
  5
AA
330
1F
100
AcDbEntity
  8
0
  6
Continuous
 62
     7
370
    15
100
AcDbSpline
210
0.0
220
0.0
230
1.0
 70
     8
 71
     3
 72
    12
 73
     8
 74
     0
 42
0.000000001
 43
0.00000001
 40
0.0
 40
0.0
 40
0.0
 40
0.0
 40
0.2500000000000017
 40
0.2500000000000017
 40
0.5000000000000033
 40
0.5000000000000033
 40
1.0
 40
1.0
 40
1.0
 40
1.0
 10
148.7301573143545
 20
81.99251275348679
 30
0.0
 10
148.6782965631664
 20
82.04932532580118
 30
0.0
 10
148.6295647661474
 20
82.111317512053
 30
0.0
 10
148.53939175623
 20
82.247370585177
 30
0.0
 10
148.4976145079451
 20
82.32227668777573
 30
0.0
 10
148.3915256380991
 20
82.56040332307312
 30
0.0
 10
148.3431244913889
 20
82.7438100546419
 30
0.0
 10
148.3431244913889
 20
82.93309710782377
 30
0.0
  0
CIRCLE
  5
AB
330
1F
100
AcDbEntity
  8
0
  6
Continuous
 62
     7
370
    15
100
AcDbCircle
 10
192.2931244914
 20
112.0595026533
 30
0.0
 40
7.249999999999972
  0
SPLINE
  5
AC
330
1F
100
AcDbEntity
  8
0
  6
Continuous
 62
     7
370
    15
100
AcDbSpline
210
0.0
220
0.0
230
1.0
 70
     8
 71
     3
 72
     8
 73
     4
 74
     0
 42
0.000000001
 43
0.00000001
 40
0.0
 40
0.0
 40
0.0
 40
0.0
 40
0.0012389803509652
 40
0.0012389803509652
 40
0.0012389803509652
 40
0.0012389803509652
 10
158.4756860349227
 20
141.5135253760943
 30
0.0
 10
158.2905660617898
 20
141.7745753574733
 30
0.0
 10
158.1046876140309
 20
142.0353569705923
 30
0.0
 10
157.9181244913889
 20
142.2958927563096
 30
0.0
  0
SPLINE
  5
AD
330
1F
100
AcDbEntity
  8
0
  6
Continuous
 62
     7
370
    15
100
AcDbSpline
210
0.0
220
0.0
230
1.0
 70
     8
 71
     3
 72
     8
 73
     4
 74
     0
 42
0.000000001
 43
0.00000001
 40
0.0
 40
0.0
 40
0.0
 40
0.0
 40
1.0
 40
1.0
 40
1.0
 40
1.0
 10
160.5739357296612
 20
137.7267483177728
 30
0.0
 10
159.8776423636197
 20
138.9906866858876
 30
0.0
 10
159.1778471984285
 20
140.2527421313958
 30
0.0
 10
158.4756860349227
 20
141.5135253760943
 30
0.0
  0
SPLINE
  5
AE
330
1F
100
AcDbEntity
  8
0
  6
Continuous
 62
     7
370
    15
100
AcDbSpline
210
0.0
220
0.0
230
1.0
 70
     8
 71
     3
 72
     8
 73
     4
 74
     0
 42
0.000000001
 43
0.00000001
 40
0.0
 40
0.0
 40
0.0
 40
0.0
 40
1.0
 40
1.0
 40
1.0
 40
1.0
 10
160.5739357296612
 20
86.3922569888427
 30
0.0
 10
159.8776175890032
 20
85.12827364889591
 30
0.0
 10
159.1778203968928
 20
83.86621505104394
 30
0.0
 10
158.4756860349227
 20
82.60547993052126
 30
0.0
  0
SPLINE
  5
AF
330
1F
100
AcDbEntity
  8
0
  6
Continuous
 62
     7
370
    15
100
AcDbSpline
210
0.0
220
0.0
230
1.0
 70
     8
 71
     3
 72
     8
 73
     4
 74
     0
 42
0.000000001
 43
0.00000001
 40
0.0
 40
0.0
 40
0.0
 40
0.0
 40
0.0012389803509652
 40
0.0012389803509652
 40
0.0012389803509652
 40
0.0012389803509652
 10
157.9181244913889
 20
81.82311255030592
 30
0.0
 10
158.1046876140309
 20
82.08364833602326
 30
0.0
 10
158.2905660617898
 20
82.34442994914227
 30
0.0
 10
158.4756860349227
 20
82.60547993052126
 30
0.0
  0
LINE
  5
B0
330
1F
100
AcDbEntity
  8
0
  6
Continuous
 62
     7
370
    15
100
AcDbLine
 10
210.3431244914
 20
112.0595026533
 30
0.0
 11
210.3431244914
 21
81.1595026533
 31
0.0
  0
LINE
  5
B1
330
1F
100
AcDbEntity
  8
0
  6
Continuous
 62
     7
370
    15
100
AcDbLine
 10
210.3431244914
 20
142.9595026533
 30
0.0
 11
210.3431244914
 21
112.0595026533
 31
0.0
  0
SPLINE
  5
B2
330
1F
100
AcDbEntity
  8
0
  6
Continuous
 62
     7
370
    15
100
AcDbSpline
210
0.0
220
0.0
230
1.0
 70
     8
 71
     3
 72
    10
 73
     6
 74
     0
 42
0.000000001
 43
0.00000001
 40
0.0
 40
0.0
 40
0.0
 40
0.0
 40
0.5
 40
0.5
 40
1.0
 40
1.0
 40
1.0
 40
1.0
 10
161.2667560526887
 20
137.3072253228873
 30
0.0
 10
161.1247387402418
 20
137.3072253228873
 30
0.0
 10
160.9842916933795
 20
137.3477151750968
 30
0.0
 10
160.7427017741182
 20
137.4956510050359
 30
0.0
 10
160.6420243318649
 20
137.6031512810154
 30
0.0
 10
160.5739357296613
 20
137.7267483177725
 30
0.0
  0
SPLINE
  5
B3
330
1F
100
AcDbEntity
  8
0
  6
Continuous
 62
     7
370
    15
100
AcDbSpline
210
0.0
220
0.0
230
1.0
 70
     8
 71
     3
 72
    10
 73
     6
 74
     0
 42
0.000000001
 43
0.00000001
 40
0.0
 40
0.0
 40
0.0
 40
0.0
 40
0.5
 40
0.5
 40
1.0
 40
1.0
 40
1.0
 40
1.0
 10
161.2667560526887
 20
86.81177998372823
 30
0.0
 10
161.1258986881781
 20
86.81177998372823
 30
0.0
 10
160.9830645567039
 20
86.77067607790953
 30
0.0
 10
160.7428028659306
 20
86.62327818460858
 30
0.0
 10
160.6420965968511
 20
86.51598520376893
 30
0.0
 10
160.5739357296612
 20
86.39225698884272
 30
0.0
  0
SPLINE
  5
B4
330
1F
100
AcDbEntity
  8
0
  6
Continuous
 62
     7
370
    15
100
AcDbSpline
210
0.0
220
0.0
230
1.0
 70
     8
 71
     3
 72
    12
 73
     8
 74
     0
 42
0.000000001
 43
0.00000001
 40
0.0
 40
0.0
 40
0.0
 40
0.0
 40
0.25
 40
0.25
 40
0.5
 40
0.5
 40
1.0
 40
1.0
 40
1.0
 40
1.0
 10
165.3123132531167
 20
138.0395214812917
 30
0.0
 10
165.2764091027801
 20
137.9695770471435
 30
0.0
 10
165.2338775506506
 20
137.9063256840857
 30
0.0
 10
165.1370832738106
 20
137.7912670291697
 30
0.0
 10
165.0819935955463
 20
137.7389384954577
 30
0.0
 10
164.9038603619924
 20
137.6051535923726
 30
0.0
 10
164.7664832699898
 20
137.5446058252145
 30
0.0
 10
164.6194929300898
 20
137.5254058768306
 30
0.0
  0
SPLINE
  5
B5
330
1F
100
AcDbEntity
  8
0
  6
Continuous
 62
     7
370
    15
100
AcDbSpline
210
0.0
220
0.0
230
1.0
 70
     8
 71
     3
 72
    12
 73
     8
 74
     0
 42
0.000000001
 43
0.00000001
 40
0.0
 40
0.0
 40
0.0
 40
0.0
 40
0.25
 40
0.25
 40
0.5
 40
0.5
 40
1.0
 40
1.0
 40
1.0
 40
1.0
 10
165.3123132531167
 20
86.07948382532386
 30
0.0
 10
165.2764091027801
 20
86.14942825947203
 30
0.0
 10
165.2338775506506
 20
86.21267962252986
 30
0.0
 10
165.1370832738106
 20
86.3277382774458
 30
0.0
 10
165.0819935955463
 20
86.38006681115779
 30
0.0
 10
164.9038603619924
 20
86.51385171424288
 30
0.0
 10
164.7664832699898
 20
86.57439948140103
 30
0.0
 10
164.6194929300898
 20
86.59359942978492
 30
0.0
  0
LINE
  5
B6
330
1F
100
AcDbEntity
  8
0
  6
Continuous
 62
     7
370
    15
100
AcDbLine
 10
161.2931244914
 20
86.8117799837
 30
0.0
 11
161.2667560527
 21
86.8117799837
 31
0.0
  0
LINE
  5
B7
330
1F
100
AcDbEntity
  8
0
  6
Continuous
 62
     7
370
    15
100
AcDbLine
 10
161.2931244914
 20
137.3072253229
 30
0.0
 11
161.2667560527
 21
137.3072253229
 31
0.0
  0
SPLINE
  5
B8
330
1F
100
AcDbEntity
  8
0
  6
Continuous
 62
     7
370
    15
100
AcDbSpline
210
0.0
220
0.0
230
1.0
 70
     8
 71
     3
 72
    10
 73
     6
 74
     0
 42
0.000000001
 43
0.00000001
 40
0.0
 40
0.0
 40
0.0
 40
0.0
 40
0.5000000000000001
 40
0.5000000000000001
 40
1.0
 40
1.0
 40
1.0
 40
1.0
 10
164.6194929300891
 20
137.5254058768335
 30
0.0
 10
164.0975782056932
 20
137.4572331263253
 30
0.0
 10
163.5587270255838
 20
137.4026098613674
 30
0.0
 10
162.4473643835517
 20
137.3275140084761
 30
0.0
 10
161.8705236063556
 20
137.3072253228873
 30
0.0
 10
161.2931244913889
 20
137.3072253228873
 30
0.0
  0
SPLINE
  5
B9
330
1F
100
AcDbEntity
  8
0
  6
Continuous
 62
     7
370
    15
100
AcDbSpline
210
0.0
220
0.0
230
1.0
 70
     8
 71
     3
 72
    10
 73
     6
 74
     0
 42
0.000000001
 43
0.00000001
 40
0.0
 40
0.0
 40
0.0
 40
0.0
 40
0.5000000000000001
 40
0.5000000000000001
 40
1.0
 40
1.0
 40
1.0
 40
1.0
 10
164.6194929300891
 20
86.59359942978197
 30
0.0
 10
164.0975782056932
 20
86.66177218029019
 30
0.0
 10
163.5587270255838
 20
86.71639544524811
 30
0.0
 10
162.4473643835517
 20
86.79149129813946
 30
0.0
 10
161.8705236063556
 20
86.81177998372824
 30
0.0
 10
161.2931244913889
 20
86.81177998372824
 30
0.0
  0
SPLINE
  5
BA
330
1F
100
AcDbEntity
  8
0
  6
Continuous
 62
     7
370
    15
100
AcDbSpline
210
0.0
220
0.0
230
1.0
 70
     8
 71
     3
 72
    10
 73
     6
 74
     0
 42
0.000000001
 43
0.00000001
 40
0.0
 40
0.0
 40
0.0
 40
0.0
 40
0.2361223901715998
 40
0.9999931972311772
 40
1.0
 40
1.0
 40
1.0
 40
1.0
 10
148.1753000985163
 20
134.5595026533078
 30
0.0
 10
148.158638133991
 20
134.5595026532971
 30
0.0
 10
148.0880736645831
 20
134.5595026532521
 30
0.0
 10
148.0024649805427
 20
134.5595026537789
 30
0.0
 10
148.0318738808855
 20
134.5595026533078
 30
0.0
 10
148.0318741427887
 20
134.5595026533078
 30
0.0
  0
SPLINE
  5
BB
330
1F
100
AcDbEntity
  8
0
  6
Continuous
 62
     7
370
    15
100
AcDbSpline
210
0.0
220
0.0
230
1.0
 70
    24
 71
     3
 72
     9
 73
     5
 74
     0
 42
0.000000001
 43
0.00000001
 40
0.0
 40
0.0
 40
0.0
 40
0.0
 40
0.7305601591452278
 40
0.9999999999999999
 40
0.9999999999999999
 40
0.9999999999999999
 40
0.9999999999999999
 10
148.0318742403416
 20
89.55950265330776
 30
0.0
 10
148.0503654966487
 20
89.55950265330776
 30
0.0
 10
148.0756765625145
 20
89.55950265330777
 30
0.0
 10
148.152006570041
 20
89.55950265330776
 30
0.0
 10
148.1725729151214
 20
89.55950265330776
 30
0.0
  0
LINE
  5
BC
330
1F
100
AcDbEntity
  8
0
  6
Continuous
 62
     7
370
    15
100
AcDbLine
 10
146.3431244914
 20
89.8345026533
 30
0.0
 11
146.3431244914
 21
134.2845026533
 31
0.0
  0
LINE
  5
BD
330
1F
100
AcDbEntity
  8
0
  6
Continuous
 62
     7
370
    15
100
AcDbLine
 10
80.9431244914
 20
100.2367470563
 30
0.0
 11
80.9431244914
 21
123.8822582503
 31
0.0
  0
CIRCLE
  5
BE
330
1F
100
AcDbEntity
  8
0
  6
HIDDEN
 62
     7
370
     0
100
AcDbCircle
 10
192.2931244914
 20
112.0595026533
 30
0.0
 40
8.000000000000009
  0
LINE
  5
BF
330
1F
100
AcDbEntity
  8
0
  6
HIDDEN
 62
     7
370
     0
100
AcDbLine
 10
189.1330996039
 20
129.6396296722
 30
0.0
 11
200.2931244914
 21
129.6396296722
 31
0.0
  0
LINE
  5
C0
330
1F
100
AcDbEntity
  8
0
  6
HIDDEN
 62
     7
370
     0
100
AcDbLine
 10
184.2931244914
 20
129.6396296722
 30
0.0
 11
189.1330996039
 21
129.6396296722
 31
0.0
  0
LINE
  5
C1
330
1F
100
AcDbEntity
  8
0
  6
HIDDEN
 62
     7
370
     0
100
AcDbLine
 10
189.1330996039
 20
139.8095026533
 30
0.0
 11
200.2931244914
 21
139.8095026533
 31
0.0
  0
LINE
  5
C2
330
1F
100
AcDbEntity
  8
0
  6
HIDDEN
 62
     7
370
     0
100
AcDbLine
 10
184.2931244914
 20
139.8095026533
 30
0.0
 11
189.1330996039
 21
139.8095026533
 31
0.0
  0
LINE
  5
C3
330
1F
100
AcDbEntity
  8
0
  6
HIDDEN
 62
     7
370
     0
100
AcDbLine
 10
190.2721556549
 20
120.3095026533
 30
0.0
 11
197.4094609974
 21
120.3095026533
 31
0.0
  0
LINE
  5
C4
330
1F
100
AcDbEntity
  8
0
  6
HIDDEN
 62
     7
370
     0
100
AcDbLine
 10
187.1767879854
 20
120.3095026533
 30
0.0
 11
190.2721556549
 21
120.3095026533
 31
0.0
  0
SPLINE
  5
C5
330
1F
100
AcDbEntity
  8
0
  6
HIDDEN
 62
     7
370
     0
100
AcDbSpline
210
0.0
220
0.0
230
1.0
 70
     8
 71
     3
 72
    11
 73
     7
 74
     0
 42
0.000000001
 43
0.00000001
 40
0.0
 40
0.0
 40
0.0
 40
0.0
 40
0.2164567244934119
 40
0.4403141600939107
 40
0.7519028444798602
 40
1.0
 40
1.0
 40
1.0
 40
1.0
 10
192.8347121259943
 20
140.7283048068248
 30
0.0
 10
193.0882777782537
 20
140.5834263966186
 30
0.0
 10
193.6040785576686
 20
140.2887161460827
 30
0.0
 10
194.561264285173
 20
140.0430781834007
 30
0.0
 10
195.588011446711
 20
140.1911832438808
 30
0.0
 10
196.2450659695592
 20
140.5633368232333
 30
0.0
 10
196.5363246481201
 20
140.7283048068248
 30
0.0
  0
SPLINE
  5
C6
330
1F
100
AcDbEntity
  8
0
  6
HIDDEN
 62
     7
370
     0
100
AcDbSpline
210
0.0
220
0.0
230
1.0
 70
     8
 71
     3
 72
    18
 73
    14
 74
     0
 42
0.000000001
 43
0.00000001
 40
0.0
 40
0.0
 40
0.0
 40
0.0
 40
0.2165386594557418
 40
0.3272843284064315
 40
0.4397251388026071
 40
0.4906042423424257
 40
0.5937528941117066
 40
0.6989995256476036
 40
0.7521304657896213
 40
0.8137323080972901
 40
0.8756486252096642
 40
0.9377003559516331
 40
0.9999999999999999
 40
0.9999999999999999
 40
0.9999999999999999
 40
0.9999999999999999
 10
196.5363246481201
 20
140.7283048068248
 30
0.0
 10
196.4991313266709
 20
140.5825804399759
 30
0.0
 10
196.4429160011381
 20
140.3623273837482
 30
0.0
 10
196.362459349428
 20
140.1835467656253
 30
0.0
 10
196.3111622223196
 20
140.1216218045558
 30
0.0
 10
196.2609419681213
 20
140.1037245717505
 30
0.0
 10
196.2119895356558
 20
140.1251650287119
 30
0.0
 10
196.1633071626783
 20
140.1978978967088
 30
0.0
 10
196.1231611538585
 20
140.2871297650384
 30
0.0
 10
196.091413320015
 20
140.3734777946591
 30
0.0
 10
196.0586730143027
 20
140.4789316823697
 30
0.0
 10
196.0263723378652
 20
140.5967838570244
 30
0.0
 10
196.0052961278376
 20
140.6844062607122
 30
0.0
 10
195.9947370135148
 20
140.7283048068248
 30
0.0
  0
SPLINE
  5
C7
330
1F
100
AcDbEntity
  8
0
  6
HIDDEN
 62
     7
370
     0
100
AcDbSpline
210
0.0
220
0.0
230
1.0
 70
     8
 71
     3
 72
    13
 73
     9
 74
     0
 42
0.000000001
 43
0.00000001
 40
0.0
 40
0.0
 40
0.0
 40
0.0
 40
0.1840187439226676
 40
0.3511654572065137
 40
0.5179850771817616
 40
0.692757735708454
 40
0.8679671654568161
 40
1.0
 40
1.0
 40
1.0
 40
1.0
 10
195.9947370135148
 20
140.7283048068248
 30
0.0
 10
195.7480398389219
 20
140.6034010670291
 30
0.0
 10
195.2772642849714
 20
140.3650455715118
 30
0.0
 10
194.533979575599
 20
140.1518925323845
 30
0.0
 10
193.7809875891584
 20
140.0800188123486
 30
0.0
 10
193.0197635311243
 20
140.1928944353828
 30
0.0
 10
192.3378246961578
 20
140.4257973055146
 30
0.0
 10
191.9277572833366
 20
140.6373801835659
 30
0.0
 10
191.7515368567836
 20
140.7283048068248
 30
0.0
  0
SPLINE
  5
C8
330
1F
100
AcDbEntity
  8
0
  6
HIDDEN
 62
     7
370
     0
100
AcDbSpline
210
0.0
220
0.0
230
1.0
 70
     8
 71
     3
 72
    11
 73
     7
 74
     0
 42
0.000000001
 43
0.00000001
 40
0.0
 40
0.0
 40
0.0
 40
0.0
 40
0.2164567244934145
 40
0.4403141600939137
 40
0.7519028444798632
 40
1.0
 40
1.0
 40
1.0
 40
1.0
 10
191.7515368567836
 20
140.7283048068248
 30
0.0
 10
191.4979712045241
 20
140.5834263966187
 30
0.0
 10
190.9821704251092
 20
140.2887161460827
 30
0.0
 10
190.0249846976048
 20
140.0430781834008
 30
0.0
 10
188.9982375360668
 20
140.1911832438809
 30
0.0
 10
188.3411830132186
 20
140.5633368232334
 30
0.0
 10
188.0499243346577
 20
140.7283048068248
 30
0.0
  0
SPLINE
  5
C9
330
1F
100
AcDbEntity
  8
0
  6
HIDDEN
 62
     7
370
     0
100
AcDbSpline
210
0.0
220
0.0
230
1.0
 70
     8
 71
     3
 72
    18
 73
    14
 74
     0
 42
0.000000001
 43
0.00000001
 40
0.0
 40
0.0
 40
0.0
 40
0.0
 40
0.216538659455741
 40
0.3272843284064306
 40
0.4397251388026104
 40
0.4906042423424283
 40
0.5937528941117081
 40
0.6989995256476024
 40
0.7521304657896227
 40
0.8137323080972907
 40
0.8756486252096648
 40
0.9377003559516344
 40
1.0
 40
1.0
 40
1.0
 40
1.0
 10
188.0499243346577
 20
140.7283048068248
 30
0.0
 10
188.087117656107
 20
140.5825804399759
 30
0.0
 10
188.1433329816397
 20
140.3623273837482
 30
0.0
 10
188.2237896333498
 20
140.1835467656253
 30
0.0
 10
188.2750867604582
 20
140.1216218045558
 30
0.0
 10
188.3253070146565
 20
140.1037245717505
 30
0.0
 10
188.374259447122
 20
140.1251650287118
 30
0.0
 10
188.4229418200995
 20
140.1978978967088
 30
0.0
 10
188.4630878289193
 20
140.2871297650383
 30
0.0
 10
188.4948356627628
 20
140.373477794659
 30
0.0
 10
188.5275759684751
 20
140.4789316823696
 30
0.0
 10
188.5598766449127
 20
140.5967838570244
 30
0.0
 10
188.5809528549403
 20
140.6844062607121
 30
0.0
 10
188.5915119692631
 20
140.7283048068248
 30
0.0
  0
SPLINE
  5
CA
330
1F
100
AcDbEntity
  8
0
  6
HIDDEN
 62
     7
370
     0
100
AcDbSpline
210
0.0
220
0.0
230
1.0
 70
     8
 71
     3
 72
    13
 73
     9
 74
     0
 42
0.000000001
 43
0.00000001
 40
0.0
 40
0.0
 40
0.0
 40
0.0
 40
0.1320328345431812
 40
0.3072422642915457
 40
0.4820149228182395
 40
0.6488345427934885
 40
0.8159812560773346
 40
1.0
 40
1.0
 40
1.0
 40
1.0
 10
188.5915119692631
 20
140.7283048068248
 30
0.0
 10
188.7677323958161
 20
140.6373801835658
 30
0.0
 10
189.1777998086373
 20
140.4257973055145
 30
0.0
 10
189.8597386436038
 20
140.1928944353827
 30
0.0
 10
190.6209627016379
 20
140.0800188123486
 30
0.0
 10
191.3739546880786
 20
140.1518925323844
 30
0.0
 10
192.1172393974509
 20
140.3650455715117
 30
0.0
 10
192.5880149514014
 20
140.603401067029
 30
0.0
 10
192.8347121259943
 20
140.7283048068248
 30
0.0
  0
LINE
  5
CB
330
1F
100
AcDbEntity
  8
0
  6
HIDDEN
 62
     7
370
     0
100
AcDbLine
 10
190.7131120476
 20
129.8095026533
 30
0.0
 11
196.2931244914
 21
129.8095026533
 31
0.0
  0
LINE
  5
CC
330
1F
100
AcDbEntity
  8
0
  6
HIDDEN
 62
     7
370
     0
100
AcDbLine
 10
188.2931244914
 20
129.8095026533
 30
0.0
 11
190.7131120476
 21
129.8095026533
 31
0.0
  0
LINE
  5
CD
330
1F
100
AcDbEntity
  8
0
  6
HIDDEN
 62
     7
370
     0
100
AcDbLine
 10
194.6855183871
 20
130.8095026533
 30
0.0
 11
192.834712126
 21
130.8095026533
 31
0.0
  0
LINE
  5
CE
330
1F
100
AcDbEntity
  8
0
  6
HIDDEN
 62
     7
370
     0
100
AcDbLine
 10
192.834712126
 20
130.8095026533
 30
0.0
 11
190.7131120476
 21
130.8095026533
 31
0.0
  0
LINE
  5
CF
330
1F
100
AcDbEntity
  8
0
  6
HIDDEN
 62
     7
370
     0
100
AcDbLine
 10
192.834712126
 20
130.8095026533
 30
0.0
 11
192.834712126
 21
140.7283048068
 31
0.0
  0
LINE
  5
D0
330
1F
100
AcDbEntity
  8
0
  6
HIDDEN
 62
     7
370
     0
100
AcDbLine
 10
190.7131120476
 20
130.8095026533
 30
0.0
 11
188.5915119693
 21
130.8095026533
 31
0.0
  0
LINE
  5
D1
330
1F
100
AcDbEntity
  8
0
  6
HIDDEN
 62
     7
370
     0
100
AcDbLine
 10
196.5363246481
 20
130.8095026533
 30
0.0
 11
194.6855183871
 21
130.8095026533
 31
0.0
  0
LINE
  5
D2
330
1F
100
AcDbEntity
  8
0
  6
HIDDEN
 62
     7
370
     0
100
AcDbLine
 10
188.5915119693
 20
130.8095026533
 30
0.0
 11
188.320718152
 21
130.8095026533
 31
0.0
  0
LINE
  5
D3
330
1F
100
AcDbEntity
  8
0
  6
HIDDEN
 62
     7
370
     0
100
AcDbLine
 10
188.5915119693
 20
130.8095026533
 30
0.0
 11
188.5915119693
 21
140.7283048068
 31
0.0
  0
LINE
  5
D4
330
1F
100
AcDbEntity
  8
0
  6
HIDDEN
 62
     7
370
     0
100
AcDbLine
 10
195.9947370135
 20
130.8095026533
 30
0.0
 11
195.9947370135
 21
140.7283048068
 31
0.0
  0
LINE
  5
D5
330
1F
100
AcDbEntity
  8
0
  6
HIDDEN
 62
     7
370
     0
100
AcDbLine
 10
196.5363246481
 20
130.8095026533
 30
0.0
 11
196.5363246481
 21
140.7283048068
 31
0.0
  0
LINE
  5
D6
330
1F
100
AcDbEntity
  8
0
  6
HIDDEN
 62
     7
370
     0
100
AcDbLine
 10
188.320718152
 20
130.8095026533
 30
0.0
 11
188.0499243347
 21
130.8095026533
 31
0.0
  0
LINE
  5
D7
330
1F
100
AcDbEntity
  8
0
  6
HIDDEN
 62
     7
370
     0
100
AcDbLine
 10
191.7515368568
 20
130.8095026533
 30
0.0
 11
191.7515368568
 21
140.7283048068
 31
0.0
  0
LINE
  5
D8
330
1F
100
AcDbEntity
  8
0
  6
HIDDEN
 62
     7
370
     0
100
AcDbLine
 10
188.0499243347
 20
130.8095026533
 30
0.0
 11
188.0499243347
 21
140.7283048068
 31
0.0
  0
LINE
  5
D9
330
1F
100
AcDbEntity
  8
0
  6
HIDDEN
 62
     7
370
     0
100
AcDbLine
 10
185.6423642486
 20
142.876361551
 30
0.0
 11
185.436421863
 21
142.9123383348
 31
0.0
  0
SPLINE
  5
DA
330
1F
100
AcDbEntity
  8
0
  6
HIDDEN
 62
     7
370
     0
100
AcDbSpline
210
0.0
220
0.0
230
1.0
 70
     8
 71
     3
 72
    17
 73
    13
 74
     0
 42
0.000000001
 43
0.00000001
 40
0.0
 40
0.0
 40
0.0
 40
0.0
 40
0.0000798893780745
 40
0.0001006289810985
 40
0.249526692034707
 40
0.5019897896943354
 40
0.5864077299882784
 40
0.6698680570938791
 40
0.7526597486136936
 40
0.8350788165640299
 40
0.917425292453104
 40
1.0
 40
1.0
 40
1.0
 40
1.0
 10
170.3431244477778
 20
80.55950266101561
 30
0.0
 10
170.3431246780717
 20
80.55950265780221
 30
0.0
 10
170.3431249681509
 20
80.55950265375458
 30
0.0
 10
170.3437388521364
 20
80.5595015075301
 30
0.0
 10
170.2396006829985
 20
80.59171818096442
 30
0.0
 10
169.8711137091656
 20
80.70007932949855
 30
0.0
 10
169.5045013391954
 20
80.80491000795801
 30
0.0
 10
169.254969776253
 20
80.87460271267261
 30
0.0
 10
168.9771839909726
 20
80.94974442159878
 30
0.0
 10
168.6705242140092
 20
81.02940941518114
 30
0.0
 10
168.3373373814364
 20
81.11255859662307
 30
0.0
 10
168.0923399392726
 20
81.16987107885505
 30
0.0
 10
167.9696716942665
 20
81.19856697686217
 30
0.0
  0
LWPOLYLINE
  5
DB
330
1F
100
AcDbEntity
  8
0
  6
HIDDEN
 62
     7
370
     0
100
AcDbPolyline
 90
       23
 70
   128
 43
0.0
 10
148.5916954697
 20
103.0717905608
 10
148.7211914908
 20
102.4888674502
 10
148.9213263381
 20
101.9531693032
 10
149.1758862764
 20
101.5080951979
 10
149.4642483735
 20
101.1897023912
 10
149.7630512472
 20
101.0237851748
 10
150.0480876657
 20
101.0237851748
 10
150.2962656736
 20
101.1897023912
 10
150.4874793647
 20
101.5080951979
 10
150.6062377429
 20
101.9531693032
 10
150.6429197106
 20
102.4888674502
 10
150.5945535131
 20
103.0717905608
 10
150.4650574919
 20
103.6547136714
 10
150.2649226447
 20
104.1904118183
 10
150.0103627064
 20
104.6354859237
 10
149.7220006093
 20
104.9538787304
 10
149.4231977356
 20
105.1197959468
 10
149.1381613171
 20
105.1197959468
 10
148.8899833092
 20
104.9538787304
 10
148.6987696181
 20
104.6354859237
 10
148.5800112399
 20
104.1904118183
 10
148.5433292722
 20
103.6547136714
 10
148.5916954697
 20
103.0717905608
  0
LWPOLYLINE
  5
DC
330
1F
100
AcDbEntity
  8
0
  6
HIDDEN
 62
     7
370
     0
100
AcDbPolyline
 90
       21
 70
   128
 43
0.0
 10
148.948130764
 20
103.0997997199
 10
149.0632827576
 20
102.5974325495
 10
149.2441839683
 20
102.144240578
 10
149.473126525
 20
101.784585393
 10
149.7276999352
 20
101.55367255
 10
149.9829847797
 20
101.4741054068
 10
150.2139919994
 20
101.55367255
 10
150.3981089981
 20
101.784585393
 10
150.517313121
 20
102.144240578
 10
150.5599358382
 20
102.5974325495
 10
150.521804941
 20
103.0997997199
 10
150.4066529473
 20
103.6021668903
 10
150.2257517367
 20
104.0553588619
 10
149.99680918
 20
104.4150140468
 10
149.7422357698
 20
104.6459268899
 10
149.4869509252
 20
104.725494033
 10
149.2559437055
 20
104.6459268899
 10
149.0718267069
 20
104.4150140468
 10
148.9526225839
 20
104.0553588619
 10
148.9099998668
 20
103.6021668903
 10
148.948130764
 20
103.0997997199
  0
SPLINE
  5
DD
330
1F
100
AcDbEntity
  8
0
  6
HIDDEN
 62
     7
370
     0
100
AcDbSpline
210
0.0
220
0.0
230
1.0
 70
     8
 71
     3
 72
    22
 73
    18
 74
     0
 42
0.000000001
 43
0.00000001
 40
0.0
 40
0.0
 40
0.0
 40
0.0
 40
0.125
 40
0.125
 40
0.25
 40
0.25
 40
0.375
 40
0.375
 40
0.5
 40
0.5
 40
0.625
 40
0.625
 40
0.75
 40
0.75
 40
0.875
 40
0.875
 40
1.0
 40
1.0
 40
1.0
 40
1.0
 10
161.371310964495
 20
106.3567284244492
 30
0.0
 10
161.4686504145302
 20
106.2659321983947
 30
0.0
 10
161.5531244459902
 20
106.1615896069601
 30
0.0
 10
161.6905760930388
 20
105.9241426932878
 30
0.0
 10
161.7402632717094
 20
105.796578976245
 30
0.0
 10
161.8093382543057
 20
105.5257959155023
 30
0.0
 10
161.8278550896814
 20
105.386319758768
 30
0.0
 10
161.84880713903
 20
105.1084381728863
 30
0.0
 10
161.8517666337686
 20
104.9706113939238
 30
0.0
 10
161.8517400279082
 20
104.7095880324335
 30
0.0
 10
161.8486731150103
 20
104.5835103787869
 30
0.0
 10
161.8276881695842
 20
104.3541908477678
 30
0.0
 10
161.8089380428783
 20
104.2479713650972
 30
0.0
 10
161.7399843889749
 20
104.0587006916938
 30
0.0
 10
161.6904867053229
 20
103.9769073059612
 30
0.0
 10
161.5538386533076
 20
103.8368522873396
 30
0.0
 10
161.4685226097136
 20
103.7810398571989
 30
0.0
 10
161.371310964495
 20
103.7394510058138
 30
0.0
  0
LINE
  5
DE
330
1F
100
AcDbEntity
  8
0
  6
HIDDEN
 62
     7
370
     0
100
AcDbLine
 10
161.3713109645
 20
103.7394510058
 30
0.0
 11
161.4783891705
 21
103.7641280236
 31
0.0
  0
SPLINE
  5
DF
330
1F
100
AcDbEntity
  8
0
  6
HIDDEN
 62
     7
370
     0
100
AcDbSpline
210
0.0
220
0.0
230
1.0
 70
     8
 71
     3
 72
    38
 73
    34
 74
     0
 42
0.000000001
 43
0.00000001
 40
0.0
 40
0.0
 40
0.0
 40
0.0
 40
0.0625
 40
0.0625
 40
0.125
 40
0.125
 40
0.1875
 40
0.1875
 40
0.25
 40
0.25
 40
0.3125
 40
0.3125
 40
0.375
 40
0.375
 40
0.4375
 40
0.4375
 40
0.5
 40
0.5
 40
0.5625
 40
0.5625
 40
0.625
 40
0.625
 40
0.6875
 40
0.6875
 40
0.75
 40
0.75
 40
0.8125
 40
0.8125
 40
0.875
 40
0.875
 40
0.9375
 40
0.9375
 40
1.0
 40
1.0
 40
1.0
 40
1.0
 10
161.6015535524123
 20
103.7925122276872
 30
0.0
 10
161.6287087120753
 20
103.8196163457537
 30
0.0
 10
161.6455465657206
 20
103.8562870665144
 30
0.0
 10
161.6424307348811
 20
103.9582976548597
 30
0.0
 10
161.6215863006631
 20
104.0214862044918
 30
0.0
 10
161.5382027596672
 20
104.1804841293099
 30
0.0
 10
161.4778241245335
 20
104.273097167466
 30
0.0
 10
161.3431855283647
 20
104.4817797261677
 30
0.0
 10
161.2719256228364
 20
104.5938659247131
 30
0.0
 10
161.1357212127811
 20
104.8370340317735
 30
0.0
 10
161.0719098008649
 20
104.9661785903572
 30
0.0
 10
160.9646040811498
 20
105.2335977674972
 30
0.0
 10
160.9205460221802
 20
105.3737266486074
 30
0.0
 10
160.8608708724076
 20
105.6513027939959
 30
0.0
 10
160.8443694179626
 20
105.7929331383402
 30
0.0
 10
160.8420190072005
 20
106.0646889650583
 30
0.0
 10
160.8557298168212
 20
106.1954960998746
 30
0.0
 10
160.9117852435659
 20
106.4419011982206
 30
0.0
 10
160.9530364582475
 20
106.5534960233554
 30
0.0
 10
161.0575784696763
 20
106.7537406313125
 30
0.0
 10
161.120128578367
 20
106.8402063008378
 30
0.0
 10
161.2541537024568
 20
106.9800203629331
 30
0.0
 10
161.326960030604
 20
107.034265498407
 30
0.0
 10
161.4616993202667
 20
107.1014242783162
 30
0.0
 10
161.5249696714866
 20
107.1147504421749
 30
0.0
 10
161.6136860612893
 20
107.096697434158
 30
0.0
 10
161.6388835621287
 20
107.065208403818
 30
0.0
 10
161.6477260080614
 20
106.9727879410441
 30
0.0
 10
161.6328902723353
 20
106.9122905030964
 30
0.0
 10
161.5824012579311
 20
106.7772815583937
 30
0.0
 10
161.546463985234
 20
106.7013231152174
 30
0.0
 10
161.4649168872845
 20
106.5380469189254
 30
0.0
 10
161.4192269652616
 20
106.4506220592806
 30
0.0
 10
161.371310964495
 20
106.3567284244493
 30
0.0
  0
SPLINE
  5
E0
330
1F
100
AcDbEntity
  8
0
  6
HIDDEN
 62
     7
370
     0
100
AcDbSpline
210
0.0
220
0.0
230
1.0
 70
    11
 71
     3
 72
    64
 73
    60
 74
     0
 42
0.000000001
 43
0.00000001
 40
0.0
 40
0.0
 40
0.0
 40
0.0
 40
0.0312500000000009
 40
0.0312500000000009
 40
0.0625000000000018
 40
0.0625000000000018
 40
0.0937500000000027
 40
0.0937500000000027
 40
0.1250000000000036
 40
0.1250000000000036
 40
0.1875000000000049
 40
0.1875000000000049
 40
0.2187500000000055
 40
0.2187500000000055
 40
0.250000000000006
 40
0.250000000000006
 40
0.2812500000000066
 40
0.2812500000000066
 40
0.3125000000000071
 40
0.3125000000000071
 40
0.3437500000000077
 40
0.3437500000000077
 40
0.3750000000000082
 40
0.3750000000000082
 40
0.4062500000000088
 40
0.4062500000000088
 40
0.4375000000000094
 40
0.4375000000000094
 40
0.4687500000000092
 40
0.4687500000000092
 40
0.500000000000009
 40
0.500000000000009
 40
0.5312500000000089
 40
0.5312500000000089
 40
0.5625000000000087
 40
0.5625000000000087
 40
0.5937500000000084
 40
0.5937500000000084
 40
0.6250000000000082
 40
0.6250000000000082
 40
0.6875000000000073
 40
0.6875000000000073
 40
0.7187500000000067
 40
0.7187500000000067
 40
0.750000000000006
 40
0.750000000000006
 40
0.7812500000000054
 40
0.7812500000000054
 40
0.8125000000000048
 40
0.8125000000000048
 40
0.8750000000000037
 40
0.8750000000000037
 40
0.9062500000000028
 40
0.9062500000000028
 40
0.9375000000000019
 40
0.9375000000000019
 40
0.968750000000001
 40
0.968750000000001
 40
1.0
 40
1.0
 40
1.0
 40
1.0
 10
162.943124491389
 20
108.1638245502247
 30
0.0
 10
162.8031822127654
 20
108.1638245502247
 30
0.0
 10
162.6658207132116
 20
108.1750478397612
 30
0.0
 10
162.3959664998982
 20
108.219062198184
 30
0.0
 10
162.2620457250892
 20
108.2524441326423
 30
0.0
 10
162.0083537339369
 20
108.339462257196
 30
0.0
 10
161.8882086317432
 20
108.3928449812631
 30
0.0
 10
161.6608208069999
 20
108.5201251367492
 30
0.0
 10
161.5541287809462
 20
108.5940754446048
 30
0.0
 10
161.2660721924291
 20
108.8396259842448
 30
0.0
 10
161.1099861897385
 20
109.0414027730261
 30
0.0
 10
160.9522047372002
 20
109.379479451198
 30
0.0
 10
160.9112436823303
 20
109.5001924032125
 30
0.0
 10
160.8568269209434
 20
109.7490458232925
 30
0.0
 10
160.8432172112986
 20
109.8761699516478
 30
0.0
 10
160.8430327066404
 20
110.1359600326206
 30
0.0
 10
160.8569417479691
 20
110.269541216287
 30
0.0
 10
160.9110825433169
 20
110.5299464249033
 30
0.0
 10
160.9511304691908
 20
110.6582180237871
 30
0.0
 10
161.0576026293827
 20
110.910463942538
 30
0.0
 10
161.1227417282085
 20
111.0311736193159
 30
0.0
 10
161.2744534526989
 20
111.2592994443077
 30
0.0
 10
161.3622905752076
 20
111.3681719790662
 30
0.0
 10
161.555421031477
 20
111.5663606892719
 30
0.0
 10
161.6602914922373
 20
111.6557250360903
 30
0.0
 10
161.887000847821
 20
111.8143589878056
 30
0.0
 10
162.0096886034587
 20
111.8836806865668
 30
0.0
 10
162.2622403743566
 20
111.9947667291037
 30
0.0
 10
162.3932460531847
 20
112.0375204510838
 30
0.0
 10
162.6653349858519
 20
112.0957469457024
 30
0.0
 10
162.8044906966436
 20
112.1104756305908
 30
0.0
 10
163.0801093901655
 20
112.1105911389444
 30
0.0
 10
163.2190932503441
 20
112.096014932028
 30
0.0
 10
163.4915057751095
 20
112.0379610162457
 30
0.0
 10
163.6228465935555
 20
111.9952221899542
 30
0.0
 10
163.8763268495844
 20
111.8838387567429
 30
0.0
 10
163.9990075368611
 20
111.8144938684343
 30
0.0
 10
164.2254936624324
 20
111.6560829553542
 30
0.0
 10
164.3306373594147
 20
111.5665957811711
 30
0.0
 10
164.6218318088656
 20
111.2676559831837
 30
0.0
 10
164.7756110463922
 20
111.0360257769531
 30
0.0
 10
164.9348659934122
 20
110.6588589487235
 30
0.0
 10
164.9748907393379
 20
110.5308915601967
 30
0.0
 10
165.0291077970698
 20
110.2708780602222
 30
0.0
 10
165.0431340740153
 20
110.1372858901937
 30
0.0
 10
165.0431148986828
 20
109.8772042651024
 30
0.0
 10
165.0295591293479
 20
109.7499284944043
 30
0.0
 10
164.9751854346187
 20
109.5007618146503
 30
0.0
 10
164.9343019548978
 20
109.3800956795229
 30
0.0
 10
164.7762135211669
 20
109.0411694069626
 30
0.0
 10
164.6202636312073
 20
108.8396005595035
 30
0.0
 10
164.3314359686184
 20
108.593542069153
 30
0.0
 10
164.2242381016122
 20
108.5193954036794
 30
0.0
 10
163.9976716112584
 20
108.3927026085501
 30
0.0
 10
163.8776824646377
 20
108.3393610854235
 30
0.0
 10
163.6235445513052
 20
108.252246473882
 30
0.0
 10
163.4898953547635
 20
108.2189881072476
 30
0.0
 10
163.2204227990128
 20
108.1750579121647
 30
0.0
 10
163.0830667700125
 20
108.1638245502247
 30
0.0
 10
162.9431244913889
 20
108.1638245502247
 30
0.0
  0
LWPOLYLINE
  5
E1
330
1F
100
AcDbEntity
  8
0
  6
HIDDEN
 62
     7
370
     0
100
AcDbPolyline
 90
       18
 70
   128
 43
0.0
 10
161.3713109645
 20
103.7394510058
 10
161.825021039
 20
103.3776966296
 10
162.3684977009
 20
103.1500492421
 10
162.9581080958
 20
103.0747854428
 10
163.5465155366
 20
103.1579477624
 10
164.0864799153
 20
103.3928595401
 10
164.5346503599
 20
103.7606609568
 10
164.8550456458
 20
104.2318231904
 10
165.0219429373
 20
104.7685191277
 10
165.0219429373
 20
105.3276603026
 10
164.8550456458
 20
105.8643562399
 10
164.5346503599
 20
106.3355184735
 10
164.0864799153
 20
106.7033198902
 10
163.5465155366
 20
106.9382316678
 10
162.9581080958
 20
107.0213939875
 10
162.3684977009
 20
106.9461301882
 10
161.825021039
 20
106.7184828006
 10
161.3713109645
 20
106.3567284244
  0
LINE
  5
E2
330
1F
100
AcDbEntity
  8
0
  6
HIDDEN
 62
     7
370
     0
100
AcDbLine
 10
169.8431244914
 20
112.0595026533
 30
0.0
 11
169.8431244914
 21
94.5595026533
 31
0.0
  0
LINE
  5
E3
330
1F
100
AcDbEntity
  8
0
  6
HIDDEN
 62
     7
370
     0
100
AcDbLine
 10
169.8431244914
 20
129.5595026533
 30
0.0
 11
169.8431244914
 21
112.0595026533
 31
0.0
  0
LINE
  5
E4
330
1F
100
AcDbEntity
  8
0
  6
HIDDEN
 62
     7
370
     0
100
AcDbLine
 10
174.7091498952
 20
112.0595026533
 30
0.0
 11
174.7091498952
 21
94.0595026533
 31
0.0
  0
LINE
  5
E5
330
1F
100
AcDbEntity
  8
0
  6
HIDDEN
 62
     7
370
     0
100
AcDbLine
 10
174.7091498952
 20
130.0595026533
 30
0.0
 11
174.7091498952
 21
112.0595026533
 31
0.0
  0
SPLINE
  5
E6
330
1F
100
AcDbEntity
  8
0
  6
HIDDEN
 62
     7
370
     0
100
AcDbSpline
210
0.0
220
0.0
230
1.0
 70
     8
 71
     3
 72
    40
 73
    36
 74
     0
 42
0.000000001
 43
0.00000001
 40
0.0
 40
0.0
 40
0.0
 40
0.0
 40
0.0235249350752621
 40
0.071415851411512
 40
0.0958356759467947
 40
0.1193587967673034
 40
0.1671534068499878
 40
0.1914652514776314
 40
0.2160172494590947
 40
0.2658861479710969
 40
0.2912554917537937
 40
0.316846126062623
 40
0.3426231443539386
 40
0.3690114793479595
 40
0.3956232922967917
 40
0.4200005843522501
 40
0.4697051310080941
 40
0.4951119960900058
 40
0.5178311707483559
 40
0.564024023970103
 40
0.5875397103191747
 40
0.6107728321050218
 40
0.6579295759652911
 40
0.6818903127630701
 40
0.7069166984919465
 40
0.7577800846526871
 40
0.7836799536430259
 40
0.8091396177252999
 40
0.8347910053588578
 40
0.861070729028437
 40
0.8875783274047904
 40
0.9115129895417773
 40
0.9602732886942723
 40
0.9851665879727132
 40
1.0
 40
1.0
 40
1.0
 40
1.0
 10
185.0431244913889
 20
130.0595026533078
 30
0.0
 10
185.0477050627585
 20
130.0576581136805
 30
0.0
 10
185.0616105380877
 20
130.0520585501739
 30
0.0
 10
185.1917393755721
 20
129.9997810106348
 30
0.0
 10
185.4065545565353
 20
129.9159504488656
 30
0.0
 10
185.6801960154327
 20
129.8115950948835
 30
0.0
 10
186.0368430962247
 20
129.6808647662674
 30
0.0
 10
186.4734875591872
 20
129.5314649653743
 30
0.0
 10
186.9694646288272
 20
129.3706002651132
 30
0.0
 10
187.544354315896
 20
129.2009538991171
 30
0.0
 10
188.1883330157865
 20
129.0361711375882
 30
0.0
 10
188.7089120088721
 20
128.9175082756452
 30
0.0
 10
189.2642672848681
 20
128.8078212210275
 30
0.0
 10
189.8520519197139
 20
128.7111384796204
 30
0.0
 10
190.4504367231588
 20
128.6340192144992
 30
0.0
 10
191.2489315458894
 20
128.5596599713409
 30
0.0
 10
192.0602870484676
 20
128.5276160959359
 30
0.0
 10
192.85690918888
 20
128.5410490641754
 30
0.0
 10
193.6189429966251
 20
128.5808701844521
 30
0.0
 10
194.3509005495555
 20
128.6563002426111
 30
0.0
 10
195.0548080165301
 20
128.7620854016203
 30
0.0
 10
195.7412427350239
 20
128.8860690089106
 30
0.0
 10
196.3887308880525
 20
129.0318141505016
 30
0.0
 10
196.9929198205101
 20
129.1902946814248
 30
0.0
 10
197.5784035584847
 20
129.3580121682695
 30
0.0
 10
198.1046905625886
 20
129.5274227575469
 30
0.0
 10
198.5492749035406
 20
129.6818884051796
 30
0.0
 10
198.8400299305996
 20
129.7874213534689
 30
0.0
 10
199.0853852515099
 20
129.8796680031624
 30
0.0
 10
199.2835509340566
 20
129.9562967463075
 30
0.0
 10
199.4248329526498
 20
130.0120871761139
 30
0.0
 10
199.5412953955958
 20
130.0586925539201
 30
0.0
 10
199.5557822501623
 20
130.0646387081134
 30
0.0
 10
199.4880589711029
 20
130.0372952389317
 30
0.0
 10
199.4253966295111
 20
130.0124554445789
 30
0.0
 10
199.4019993660359
 20
130.0031806042461
 30
0.0
  0
LINE
  5
E7
330
1F
100
AcDbEntity
  8
0
  6
HIDDEN
 62
     7
370
     0
100
AcDbLine
 10
185.0431244914
 20
140.8095026533
 30
0.0
 11
199.5431244914
 21
140.8095026533
 31
0.0
  0
LINE
  5
E8
330
1F
100
AcDbEntity
  8
0
  6
HIDDEN
 62
     7
370
     0
100
AcDbLine
 10
148.3431244914
 20
134.5595026533
 30
0.0
 11
148.6803827916
 21
134.5595026533
 31
0.0
  0
ELLIPSE
  5
E9
330
1F
100
AcDbEntity
  8
0
  6
HIDDEN
 62
     7
370
     0
100
AcDbEllipse
 10
148.6803827916
 20
136.1595026533
 30
0.0
 11
0.0
 21
1.600000000000023
 31
0.0
210
0.0
220
0.0
230
1.0
 40
0.4142135624
 41
3.141592653589793
 42
4.712388980384695
  0
ELLIPSE
  5
EA
330
1F
100
AcDbEntity
  8
0
  6
HIDDEN
 62
     7
370
     0
100
AcDbEllipse
 10
148.6803827916
 20
87.9595026533
 30
0.0
 11
0.0
 21
1.599999999999994
 31
0.0
210
0.0
220
0.0
230
1.0
 40
0.4142135624
 41
4.712388980384695
 42
6.283185307179586
  0
LINE
  5
EB
330
1F
100
AcDbEntity
  8
0
  6
HIDDEN
 62
     7
370
     0
100
AcDbLine
 10
148.6803827916
 20
89.5595026533
 30
0.0
 11
148.3431244914
 21
89.5595026533
 31
0.0
  0
LINE
  5
EC
330
1F
100
AcDbEntity
  8
0
  6
HIDDEN
 62
     7
370
     0
100
AcDbLine
 10
149.3431244914
 20
82.6054799305
 30
0.0
 11
148.7301573144
 21
81.9925127535
 31
0.0
  0
LINE
  5
ED
330
1F
100
AcDbEntity
  8
0
  6
HIDDEN
 62
     7
370
     0
100
AcDbLine
 10
148.7301573144
 20
142.1264925531
 30
0.0
 11
149.3431244914
 21
141.5135253761
 31
0.0
  0
LINE
  5
EE
330
1F
100
AcDbEntity
  8
0
  6
HIDDEN
 62
     7
370
     0
100
AcDbLine
 10
87.9431244914
 20
103.5595026533
 30
0.0
 11
87.9431244914
 21
120.5595026533
 31
0.0
  0
LINE
  5
EF
330
1F
100
AcDbEntity
  8
0
  6
HIDDEN
 62
     7
370
     0
100
AcDbLine
 10
90.9390537057
 20
105.0595026533
 30
0.0
 11
90.9390537057
 21
119.0595026533
 31
0.0
  0
LINE
  5
F0
330
1F
100
AcDbEntity
  8
0
  6
HIDDEN
 62
     7
370
     0
100
AcDbLine
 10
149.3431244914
 20
141.5135253761
 30
0.0
 11
158.4756860349
 21
141.5135253761
 31
0.0
  0
LINE
  5
F1
330
1F
100
AcDbEntity
  8
0
  6
HIDDEN
 62
     7
370
     0
100
AcDbLine
 10
149.3431244914
 20
141.5135253761
 30
0.0
 11
149.3431244914
 21
136.1595026533
 31
0.0
  0
LINE
  5
F2
330
1F
100
AcDbEntity
  8
0
  6
HIDDEN
 62
     7
370
     0
100
AcDbLine
 10
158.4756860349
 20
82.6054799305
 30
0.0
 11
149.3431244914
 21
82.6054799305
 31
0.0
  0
LINE
  5
F3
330
1F
100
AcDbEntity
  8
0
  6
HIDDEN
 62
     7
370
     0
100
AcDbLine
 10
149.3431244914
 20
82.6054799305
 30
0.0
 11
149.3431244914
 21
87.9595026533
 31
0.0
  0
LINE
  5
F4
330
1F
100
AcDbEntity
  8
0
  6
HIDDEN
 62
     7
370
     0
100
AcDbLine
 10
161.2931244914
 20
89.5595026533
 30
0.0
 11
148.6803827916
 21
89.5595026533
 31
0.0
  0
LINE
  5
F5
330
1F
100
AcDbEntity
  8
0
  6
HIDDEN
 62
     7
370
     0
100
AcDbLine
 10
148.6803827916
 20
134.5595026533
 30
0.0
 11
161.2931244914
 21
134.5595026533
 31
0.0
  0
LINE
  5
F6
330
1F
100
AcDbEntity
  8
0
  6
HIDDEN
 62
     7
370
     0
100
AcDbLine
 10
167.7431244914
 20
89.5595026533
 30
0.0
 11
161.2931244914
 21
89.5595026533
 31
0.0
  0
SPLINE
  5
F7
330
1F
100
AcDbEntity
  8
0
  6
HIDDEN
 62
     7
370
     0
100
AcDbSpline
210
0.0
220
0.0
230
1.0
 70
     8
 71
     3
 72
    13
 73
     9
 74
     0
 42
0.000000001
 43
0.00000001
 40
0.0
 40
0.0
 40
0.0
 40
0.0
 40
0.1850454653090146
 40
0.3520092965804931
 40
0.5010298177385868
 40
0.6766227814541285
 40
0.8430962614767981
 40
1.0
 40
1.0
 40
1.0
 40
1.0
 10
167.3193881220014
 20
141.9643634290188
 30
0.0
 10
167.5461782376151
 20
142.0232001005568
 30
0.0
 10
167.9775977751609
 20
142.1351242448564
 30
0.0
 10
168.465053246116
 20
142.275390316484
 30
0.0
 10
168.854162422663
 20
142.3946850757419
 30
0.0
 10
169.1350623430902
 20
142.4853528853695
 30
0.0
 10
169.3119471181583
 20
142.5472686457179
 30
0.0
 10
169.3328094979823
 20
142.5554579018753
 30
0.0
 10
169.342931996418
 20
142.5594313571255
 30
0.0
  0
LINE
  5
F8
330
1F
100
AcDbEntity
  8
0
  6
HIDDEN
 62
     7
370
     0
100
AcDbLine
 10
168.0696186648
 20
142.1640765082
 30
0.0
 11
167.319366104
 21
141.9645508552
 31
0.0
  0
LINE
  5
F9
330
1F
100
AcDbEntity
  8
0
  6
HIDDEN
 62
     7
370
     0
100
AcDbLine
 10
167.3193662576
 20
82.1544547599
 30
0.0
 11
167.4133089876
 21
82.1294710884
 31
0.0
  0
SPLINE
  5
FA
330
1F
100
AcDbEntity
  8
0
  6
HIDDEN
 62
     7
370
     0
100
AcDbSpline
210
0.0
220
0.0
230
1.0
 70
     8
 71
     3
 72
    13
 73
     9
 74
     0
 42
0.000000001
 43
0.00000001
 40
0.0
 40
0.0
 40
0.0
 40
0.0
 40
0.0000729225245184
 40
0.1576810837176015
 40
0.3241445774567602
 40
0.4996852408392112
 40
0.7294243771557649
 40
1.0
 40
1.0
 40
1.0
 40
1.0
 10
169.3430919162128
 20
81.55951509242107
 30
0.0
 10
169.343102774954
 20
81.55951080256817
 30
0.0
 10
169.3665827368236
 20
81.55023481192407
 30
0.0
 10
169.2949975217606
 20
81.57840031399877
 30
0.0
 10
169.139381183319
 20
81.63198924385102
 30
0.0
 10
168.8031279610046
 20
81.74051253266722
 30
0.0
 10
168.2458148950181
 20
81.91157859601104
 30
0.0
 10
167.6445571297464
 20
82.06934258503263
 30
0.0
 10
167.3193904394788
 20
82.15466305341837
 30
0.0
  0
LINE
  5
FB
330
1F
100
AcDbEntity
  8
0
  6
HIDDEN
 62
     7
370
     0
100
AcDbLine
 10
161.2931244914
 20
134.5595026533
 30
0.0
 11
167.7431244914
 21
134.5595026533
 31
0.0
  0
LINE
  5
FC
330
1F
100
AcDbEntity
  8
0
  6
HIDDEN
 62
     7
370
     0
100
AcDbLine
 10
123.9431244914
 20
105.0595026533
 30
0.0
 11
123.9431244914
 21
119.0595026533
 31
0.0
  0
LINE
  5
FD
330
1F
100
AcDbEntity
  8
0
  6
HIDDEN
 62
     7
370
     0
100
AcDbLine
 10
124.5439851104
 20
106.0595026533
 30
0.0
 11
124.5439851104
 21
118.0595026533
 31
0.0
  0
SPLINE
  5
FE
330
1F
100
AcDbEntity
  8
0
  6
HIDDEN
 62
     7
370
     0
100
AcDbSpline
210
0.0
220
0.0
230
1.0
 70
     8
 71
     3
 72
     9
 73
     5
 74
     0
 42
0.000000001
 43
0.00000001
 40
0.0
 40
0.0
 40
0.0
 40
0.0
 40
0.4932377403388442
 40
1.0
 40
1.0
 40
1.0
 40
1.0
 10
167.3201840300864
 20
141.9643341644801
 30
0.0
 10
167.4260323712476
 20
142.1213562252562
 30
0.0
 10
167.6406314023122
 20
142.4397058727676
 30
0.0
 10
167.8584910452741
 20
142.7595314215437
 30
0.0
 10
167.9688940902304
 20
142.9216069393389
 30
0.0
  0
SPLINE
  5
FF
330
1F
100
AcDbEntity
  8
0
  6
HIDDEN
 62
     7
370
     0
100
AcDbSpline
210
0.0
220
0.0
230
1.0
 70
     8
 71
     3
 72
     9
 73
     5
 74
     0
 42
0.000000001
 43
0.00000001
 40
0.0
 40
0.0
 40
0.0
 40
0.0
 40
0.506764932008893
 40
1.0
 40
1.0
 40
1.0
 40
1.0
 10
167.9688977755164
 20
81.19741250283062
 30
0.0
 10
167.8584933357446
 20
81.35948923834907
 30
0.0
 10
167.6406320892409
 20
81.67931550350903
 30
0.0
 10
167.4260321275353
 20
81.99766458503396
 30
0.0
 10
167.3201839008325
 20
82.15468551590483
 30
0.0
  0
SPLINE
  5
100
330
1F
100
AcDbEntity
  8
0
  6
HIDDEN
 62
     7
370
     0
100
AcDbSpline
210
0.0
220
0.0
230
1.0
 70
    11
 71
     3
 72
    64
 73
    60
 74
     0
 42
0.000000001
 43
0.00000001
 40
0.0
 40
0.0
 40
0.0
 40
0.0
 40
0.0312499999999999
 40
0.0312499999999999
 40
0.0624999999999997
 40
0.0624999999999997
 40
0.0937499999999996
 40
0.0937499999999996
 40
0.1249999999999994
 40
0.1249999999999994
 40
0.1874999999999991
 40
0.1874999999999991
 40
0.2187499999999991
 40
0.2187499999999991
 40
0.2499999999999992
 40
0.2499999999999992
 40
0.2812499999999993
 40
0.2812499999999993
 40
0.3124999999999994
 40
0.3124999999999994
 40
0.3437499999999996
 40
0.3437499999999996
 40
0.3749999999999997
 40
0.3749999999999997
 40
0.4062499999999998
 40
0.4062499999999998
 40
0.4374999999999999
 40
0.4374999999999999
 40
0.4687500000000001
 40
0.4687500000000001
 40
0.5000000000000002
 40
0.5000000000000002
 40
0.5312500000000003
 40
0.5312500000000003
 40
0.5625000000000003
 40
0.5625000000000003
 40
0.5937500000000004
 40
0.5937500000000004
 40
0.6250000000000006
 40
0.6250000000000006
 40
0.6875000000000006
 40
0.6875000000000006
 40
0.7187500000000006
 40
0.7187500000000006
 40
0.7500000000000004
 40
0.7500000000000004
 40
0.7812500000000004
 40
0.7812500000000004
 40
0.8125000000000004
 40
0.8125000000000004
 40
0.8750000000000006
 40
0.8750000000000006
 40
0.9062500000000004
 40
0.9062500000000004
 40
0.9375000000000003
 40
0.9375000000000003
 40
0.9687500000000001
 40
0.9687500000000001
 40
1.0
 40
1.0
 40
1.0
 40
1.0
 10
162.9431244913889
 20
112.00847174909
 30
0.0
 10
163.0830667700124
 20
112.00847174909
 30
0.0
 10
163.2204282695662
 20
112.0232708491958
 30
0.0
 10
163.4902824828796
 20
112.0807876276043
 30
0.0
 10
163.6242032576887
 20
112.1242634696707
 30
0.0
 10
163.877895248841
 20
112.2359728608649
 30
0.0
 10
163.9980403510346
 20
112.3038842369123
 30
0.0
 10
164.225428175778
 20
112.4628274949832
 30
0.0
 10
164.3321202018317
 20
112.5538765487749
 30
0.0
 10
164.6201767903487
 20
112.8497611828669
 30
0.0
 10
164.7762627930394
 20
113.0847988520083
 30
0.0
 10
164.9340442455776
 20
113.4580629560526
 30
0.0
 10
164.9750053004476
 20
113.5883211014691
 30
0.0
 10
165.0294220618344
 20
113.8499791518939
 30
0.0
 10
165.0430317714793
 20
113.9803894731064
 30
0.0
 10
165.0432162761374
 20
114.2402237270874
 30
0.0
 10
165.0293072348088
 20
114.3704475885001
 30
0.0
 10
164.9751664394609
 20
114.6181129771249
 30
0.0
 10
164.9351185135871
 20
114.7370434794458
 30
0.0
 10
164.8286463533951
 20
114.9655399181222
 30
0.0
 10
164.7635072545694
 20
115.0721409573058
 30
0.0
 10
164.6117955300789
 20
115.2695036116958
 30
0.0
 10
164.5239584075702
 20
115.3614863908319
 30
0.0
 10
164.3308279513009
 20
115.5259439427685
 30
0.0
 10
164.2259574905405
 20
115.5985123877329
 30
0.0
 10
163.9992481349568
 20
115.7255552222184
 30
0.0
 10
163.8765603793191
 20
115.7800500065994
 30
0.0
 10
163.6240086084212
 20
115.8665785542011
 30
0.0
 10
163.4930029295932
 20
115.8994084849668
 30
0.0
 10
163.2209139969259
 20
115.9439680849895
 30
0.0
 10
163.0817582861343
 20
115.9551366984817
 30
0.0
 10
162.8061395926124
 20
115.9552245515085
 30
0.0
 10
162.6671557324338
 20
115.9441720612796
 30
0.0
 10
162.3947432076684
 20
115.8997467358563
 30
0.0
 10
162.2634023892223
 20
115.8669314911296
 30
0.0
 10
162.0099221331934
 20
115.7801749589433
 30
0.0
 10
161.8872414459167
 20
115.7256611388175
 30
0.0
 10
161.6607553203454
 20
115.5988011259864
 30
0.0
 10
161.5556116233631
 20
115.5261424530251
 30
0.0
 10
161.2644171739122
 20
115.2780710562548
 30
0.0
 10
161.1106379363856
 20
115.0792729042542
 30
0.0
 10
160.9513829893656
 20
114.737627524657
 30
0.0
 10
160.9113582434399
 20
114.6189938894063
 30
0.0
 10
160.857141185708
 20
114.3717368568872
 30
0.0
 10
160.8431149087626
 20
114.2415299043176
 30
0.0
 10
160.843134084095
 20
113.9814436883813
 30
0.0
 10
160.85668985343
 20
113.8508945116141
 30
0.0
 10
160.9110635481592
 20
113.5889324665251
 30
0.0
 10
160.95194702788
 20
113.4587375002568
 30
0.0
 10
161.1100354616109
 20
113.0845528150264
 30
0.0
 10
161.2659853515705
 20
112.8497418945728
 30
0.0
 10
161.5548130141594
 20
112.5532281465622
 30
0.0
 10
161.6620108811656
 20
112.4619219969926
 30
0.0
 10
161.8885773715194
 20
112.3037006381352
 30
0.0
 10
162.0085665181402
 20
112.2358444552371
 30
0.0
 10
162.2627044314727
 20
112.1240082469723
 30
0.0
 10
162.3963536280144
 20
112.0806909755268
 30
0.0
 10
162.6658261837651
 20
112.0232838433334
 30
0.0
 10
162.8031822127654
 20
112.00847174909
 30
0.0
 10
162.9431244913889
 20
112.00847174909
 30
0.0
  0
SPLINE
  5
101
330
1F
100
AcDbEntity
  8
0
  6
HIDDEN
 62
     7
370
     0
100
AcDbSpline
210
0.0
220
0.0
230
1.0
 70
    11
 71
     3
 72
    56
 73
    52
 74
     0
 42
0.000000001
 43
0.00000001
 40
0.0
 40
0.0
 40
0.0
 40
0.0
 40
0.0312499999999994
 40
0.0312499999999994
 40
0.0624999999999988
 40
0.0624999999999988
 40
0.124999999999998
 40
0.124999999999998
 40
0.1562499999999981
 40
0.1562499999999981
 40
0.1874999999999982
 40
0.1874999999999982
 40
0.2187499999999983
 40
0.2187499999999983
 40
0.2499999999999983
 40
0.2499999999999983
 40
0.3124999999999985
 40
0.3124999999999985
 40
0.3437499999999984
 40
0.3437499999999984
 40
0.3749999999999984
 40
0.3749999999999984
 40
0.4374999999999988
 40
0.4374999999999988
 40
0.4687499999999989
 40
0.4687499999999989
 40
0.4999999999999991
 40
0.4999999999999991
 40
0.5312499999999992
 40
0.5312499999999992
 40
0.5624999999999992
 40
0.5624999999999992
 40
0.624999999999999
 40
0.624999999999999
 40
0.6874999999999987
 40
0.6874999999999987
 40
0.7499999999999984
 40
0.7499999999999984
 40
0.7812499999999987
 40
0.7812499999999987
 40
0.8124999999999988
 40
0.8124999999999988
 40
0.843749999999999
 40
0.843749999999999
 40
0.8749999999999992
 40
0.8749999999999992
 40
0.9062499999999994
 40
0.9062499999999994
 40
0.9374999999999996
 40
0.9374999999999996
 40
1.0
 40
1.0
 40
1.0
 40
1.0
 10
160.9025484905517
 20
117.7263827422841
 30
0.0
 10
160.9312200071487
 20
117.6245686774112
 30
0.0
 10
160.9689899267325
 20
117.5321657597615
 30
0.0
 10
161.0592880635022
 20
117.3653876750659
 30
0.0
 10
161.1125637596755
 20
117.2905179859429
 30
0.0
 10
161.2814948364497
 20
117.104397321428
 30
0.0
 10
161.412681552434
 20
117.0263808238445
 30
0.0
 10
161.5579670724374
 20
117.0058062732899
 30
0.0
 10
161.596108005239
 20
117.0153544932225
 30
0.0
 10
161.6408845384032
 20
117.0627107224027
 30
0.0
 10
161.6477792764432
 20
117.1008114846628
 30
0.0
 10
161.6365307308293
 20
117.1929319626269
 30
0.0
 10
161.6188698856246
 20
117.2479874047662
 30
0.0
 10
161.5701458798626
 20
117.3675941629455
 30
0.0
 10
161.5392068814712
 20
117.4322720320483
 30
0.0
 10
161.4355513461525
 20
117.6396334144718
 30
0.0
 10
161.3517460094904
 20
117.7964211696947
 30
0.0
 10
161.226295745038
 20
118.0555664323475
 30
0.0
 10
161.1842025649905
 20
118.1463188068973
 30
0.0
 10
161.1014615736776
 20
118.3393200289355
 30
0.0
 10
161.0606313402699
 20
118.4421009914639
 30
0.0
 10
160.9477815841098
 20
118.7643421046438
 30
0.0
 10
160.8830914007459
 20
119.0032886433549
 30
0.0
 10
160.842621723008
 20
119.3720557483322
 30
0.0
 10
160.839579926818
 20
119.4918151589771
 30
0.0
 10
160.8553830833954
 20
119.7109134201863
 30
0.0
 10
160.8741261809402
 20
119.8092424285101
 30
0.0
 10
160.9254000843337
 20
119.9761174757167
 30
0.0
 10
160.957924630366
 20
120.0459921218129
 30
0.0
 10
161.0300777788079
 20
120.1626011821054
 30
0.0
 10
161.0691829555607
 20
120.2088218218785
 30
0.0
 10
161.1911806940071
 20
120.3216406393666
 30
0.0
 10
161.2787125067369
 20
120.3620939287263
 30
0.0
 10
161.4408290596894
 20
120.3929520481487
 30
0.0
 10
161.518386716978
 20
120.3840488625802
 30
0.0
 10
161.6295315400819
 20
120.3129728141421
 30
0.0
 10
161.6622645264239
 20
120.2507338954319
 30
0.0
 10
161.6186361441038
 20
120.0928326121589
 30
0.0
 10
161.5883208831078
 20
120.0295772092887
 30
0.0
 10
161.5034638994707
 20
119.8842631434289
 30
0.0
 10
161.4486148252076
 20
119.8008912276697
 30
0.0
 10
161.3337761397953
 20
119.6222980701792
 30
0.0
 10
161.2723567106158
 20
119.5245513217617
 30
0.0
 10
161.1561487237288
 20
119.3195730226623
 30
0.0
 10
161.1006346587603
 20
119.2112910873488
 30
0.0
 10
161.002430683415
 20
118.9859411832203
 30
0.0
 10
160.9605402651688
 20
118.8710352277593
 30
0.0
 10
160.8940335848642
 20
118.6357678247262
 30
0.0
 10
160.8695900899368
 20
118.5147704902305
 30
0.0
 10
160.8291001641414
 20
118.1615690580541
 30
0.0
 10
160.8452054573578
 20
117.9300108720298
 30
0.0
 10
160.9025484905517
 20
117.7263827422841
 30
0.0
  0
SPLINE
  5
102
330
1F
100
AcDbEntity
  8
0
  6
HIDDEN
 62
     7
370
     0
100
AcDbSpline
210
0.0
220
0.0
230
1.0
 70
     8
 71
     3
 72
    22
 73
    18
 74
     0
 42
0.000000001
 43
0.00000001
 40
0.0
 40
0.0
 40
0.0
 40
0.0
 40
0.1250000000000006
 40
0.1250000000000006
 40
0.2500000000000012
 40
0.2500000000000012
 40
0.3750000000000018
 40
0.3750000000000018
 40
0.5000000000000023
 40
0.5000000000000023
 40
0.6250000000000029
 40
0.6250000000000029
 40
0.7500000000000036
 40
0.7500000000000036
 40
0.8750000000000018
 40
0.8750000000000018
 40
1.0
 40
1.0
 40
1.0
 40
1.0
 10
164.6194929300891
 20
119.924157628963
 30
0.0
 10
164.5212147065336
 20
119.7996289090308
 30
0.0
 10
164.4098919392264
 20
119.6880257695985
 30
0.0
 10
164.1620833308617
 20
119.4900419264101
 30
0.0
 10
164.0241318053116
 20
119.4033874042213
 30
0.0
 10
163.7358708437276
 20
119.2648638289984
 30
0.0
 10
163.5834273248153
 20
119.2114200777218
 30
0.0
 10
163.2665155865396
 20
119.1392399275767
 30
0.0
 10
163.1065270824312
 20
119.1213218881832
 30
0.0
 10
162.7835569758093
 20
119.1210367466857
 30
0.0
 10
162.6199944921565
 20
119.139335056554
 30
0.0
 10
162.3064962610166
 20
119.2104304787449
 30
0.0
 10
162.1529942947877
 20
119.2637410310088
 30
0.0
 10
161.8623915969135
 20
119.4031224690333
 30
0.0
 10
161.7275713534997
 20
119.4876763661412
 30
0.0
 10
161.4786232768704
 20
119.6858678140473
 30
0.0
 10
161.3650340437013
 20
119.7996292036867
 30
0.0
 10
161.2667560526887
 20
119.924157628963
 30
0.0
  0
SPLINE
  5
103
330
1F
100
AcDbEntity
  8
0
  6
HIDDEN
 62
     7
370
     0
100
AcDbSpline
210
0.0
220
0.0
230
1.0
 70
     8
 71
     3
 72
    18
 73
    14
 74
     0
 42
0.000000001
 43
0.00000001
 40
0.0
 40
0.0
 40
0.0
 40
0.0
 40
0.2500000000000002
 40
0.2500000000000002
 40
0.3750000000000004
 40
0.3750000000000004
 40
0.5000000000000006
 40
0.5000000000000006
 40
0.6250000000000008
 40
0.6250000000000008
 40
0.750000000000001
 40
0.750000000000001
 40
1.0
 40
1.0
 40
1.0
 40
1.0
 10
164.6194929300891
 20
122.3012559535418
 30
0.0
 10
164.7580632788195
 20
122.131675959306
 30
0.0
 10
164.8625486983701
 20
121.9580647511642
 30
0.0
 10
164.970104931508
 20
121.6750334887607
 30
0.0
 10
164.99711490548
 20
121.5783604536678
 30
0.0
 10
165.0336558675926
 20
121.3772920264964
 30
0.0
 10
165.0431316881048
 20
121.2715481294098
 30
0.0
 10
165.0431172862939
 20
121.0572986371305
 30
0.0
 10
165.0338951732721
 20
120.9492706387202
 30
0.0
 10
164.9976504272407
 20
120.7322777491888
 30
0.0
 10
164.9702761359619
 20
120.6224281314538
 30
0.0
 10
164.8630160140639
 20
120.3028443415379
 30
0.0
 10
164.7578254919246
 20
120.0994393569702
 30
0.0
 10
164.6194929300893
 20
119.9241576289628
 30
0.0
  0
SPLINE
  5
104
330
1F
100
AcDbEntity
  8
0
  6
HIDDEN
 62
     7
370
     0
100
AcDbSpline
210
0.0
220
0.0
230
1.0
 70
     8
 71
     3
 72
    22
 73
    18
 74
     0
 42
0.000000001
 43
0.00000001
 40
0.0
 40
0.0
 40
0.0
 40
0.0
 40
0.1249999999999982
 40
0.1249999999999982
 40
0.2499999999999963
 40
0.2499999999999963
 40
0.3749999999999969
 40
0.3749999999999969
 40
0.4999999999999976
 40
0.4999999999999976
 40
0.6249999999999981
 40
0.6249999999999981
 40
0.7499999999999988
 40
0.7499999999999988
 40
0.8749999999999993
 40
0.8749999999999993
 40
1.0
 40
1.0
 40
1.0
 40
1.0
 10
161.2667560526887
 20
122.3012559535418
 30
0.0
 10
161.3650342762442
 20
122.4215271424125
 30
0.0
 10
161.4763570435514
 20
122.5286753508086
 30
0.0
 10
161.7241656519161
 20
122.7180533892291
 30
0.0
 10
161.8621171774663
 20
122.8005335427866
 30
0.0
 10
162.1503781390502
 20
122.932068374098
 30
0.0
 10
162.3028216579625
 20
122.9826283798832
 30
0.0
 10
162.6197333962382
 20
123.050855055283
 30
0.0
 10
162.7797219003466
 20
123.0677521269086
 30
0.0
 10
163.1026920069685
 20
123.0680212318912
 30
0.0
 10
163.2662544906213
 20
123.0507647025905
 30
0.0
 10
163.5797527217612
 20
122.9835642049444
 30
0.0
 10
163.7332546879901
 20
122.9331331993122
 30
0.0
 10
164.0238573858644
 20
122.8007864241772
 30
0.0
 10
164.1586776292781
 20
122.7203098868425
 30
0.0
 10
164.4076257059074
 20
122.5307456036358
 30
0.0
 10
164.5212149390765
 20
122.4215268578306
 30
0.0
 10
164.6194929300891
 20
122.3012559535418
 30
0.0
  0
SPLINE
  5
105
330
1F
100
AcDbEntity
  8
0
  6
HIDDEN
 62
     7
370
     0
100
AcDbSpline
210
0.0
220
0.0
230
1.0
 70
     8
 71
     3
 72
    18
 73
    14
 74
     0
 42
0.000000001
 43
0.00000001
 40
0.0
 40
0.0
 40
0.0
 40
0.0
 40
0.2500000000000004
 40
0.2500000000000004
 40
0.3750000000000006
 40
0.3750000000000006
 40
0.5000000000000008
 40
0.5000000000000008
 40
0.625000000000001
 40
0.625000000000001
 40
0.7500000000000011
 40
0.7500000000000011
 40
1.0
 40
1.0
 40
1.0
 40
1.0
 10
161.2667560526887
 20
119.924157628963
 30
0.0
 10
161.1281857039584
 20
120.0997406576715
 30
0.0
 10
161.0237002844078
 20
120.3017336733025
 30
0.0
 10
160.9161440512699
 20
120.6217779641003
 30
0.0
 10
160.8891340772978
 20
120.7298372399454
 30
0.0
 10
160.8525931151853
 20
120.9470884690622
 30
0.0
 10
160.8431172946731
 20
121.0575514022503
 30
0.0
 10
160.8431316964839
 20
121.2717939676929
 30
0.0
 10
160.8523538095057
 20
121.3752252544843
 30
0.0
 10
160.8885985555372
 20
121.5761478917675
 30
0.0
 10
160.9159728468159
 20
121.6744531346268
 30
0.0
 10
161.0232329687139
 20
121.9570932276957
 30
0.0
 10
161.1284234908532
 20
122.1319669587924
 30
0.0
 10
161.2667560526885
 20
122.3012559535419
 30
0.0
  0
LINE
  5
106
330
1F
100
AcDbEntity
  8
0
  6
HIDDEN
 62
     7
370
     0
100
AcDbLine
 10
193.3431244914
 20
98.3095026533
 30
0.0
 11
193.3431244914
 21
89.8095026533
 31
0.0
  0
LWPOLYLINE
  5
107
330
1F
100
AcDbEntity
  8
0
  6
HIDDEN
 62
     7
370
     0
100
AcDbPolyline
 90
       21
 70
   128
 43
0.0
 10
148.948130764
 20
120.0869668812
 10
149.0632827576
 20
119.7210309328
 10
149.2441839683
 20
119.4821693644
 10
149.473126525
 20
119.3937636106
 10
149.7276999352
 20
119.4644674426
 10
149.9829847797
 20
119.6873598766
 10
150.2139919994
 20
120.0406226482
 10
150.3981089981
 20
120.489675936
 10
150.517313121
 20
120.9905632755
 10
150.5599358382
 20
121.494254324
 10
150.521804941
 20
121.9514442922
 10
150.4066529473
 20
122.3173802406
 10
150.2257517367
 20
122.556241809
 10
149.99680918
 20
122.6446475628
 10
149.7422357698
 20
122.5739437308
 10
149.4869509252
 20
122.3510512968
 10
149.2559437055
 20
121.9977885252
 10
149.0718267069
 20
121.5487352374
 10
148.9526225839
 20
121.0478478979
 10
148.9099998668
 20
120.5441568494
 10
148.948130764
 20
120.0869668812
  0
LWPOLYLINE
  5
108
330
1F
100
AcDbEntity
  8
0
  6
HIDDEN
 62
     7
370
     0
100
AcDbPolyline
 90
       23
 70
   128
 43
0.0
 10
148.5916954697
 20
119.8607291207
 10
148.7211914908
 20
119.4312319287
 10
148.9213263381
 20
119.132652054
 10
149.1758862764
 20
118.9891786622
 10
149.4642483735
 20
119.0124351143
 10
149.7630512472
 20
119.2005373109
 10
150.0480876657
 20
119.5382463306
 10
150.2962656736
 20
119.9982029971
 10
150.4874793647
 20
120.5431443568
 10
150.6062377429
 20
121.1289225016
 10
150.6429197106
 20
121.70808117
 10
150.5945535131
 20
122.233700371
 10
150.4650574919
 20
122.6631975629
 10
150.2649226447
 20
122.9617774377
 10
150.0103627064
 20
123.1052508294
 10
149.7220006093
 20
123.0819943773
 10
149.4231977356
 20
122.8938921808
 10
149.1381613171
 20
122.5561831611
 10
148.8899833092
 20
122.0962264946
 10
148.6987696181
 20
121.5512851349
 10
148.5800112399
 20
120.9655069901
 10
148.5433292722
 20
120.3863483217
 10
148.5916954697
 20
119.8607291207
  0
LWPOLYLINE
  5
109
330
1F
100
AcDbEntity
  8
0
  6
HIDDEN
 62
     7
370
     0
100
AcDbPolyline
 90
       21
 70
   128
 43
0.0
 10
148.9580410911
 20
104.3776788594
 10
148.8362642023
 20
104.0354855868
 10
148.788574072
 20
103.5989591306
 10
148.8196389424
 20
103.1108297418
 10
148.9264179675
 20
102.6188789259
 10
149.0984588723
 20
102.1712622565
 10
149.3189210945
 20
101.8117955719
 10
149.5662242557
 20
101.5756659757
 10
149.8161605993
 20
101.485987478
 10
150.0442646148
 20
101.5515384349
 10
150.2282078917
 20
101.7659022622
 10
150.3499847804
 20
102.1080955348
 10
150.3976749108
 20
102.544621991
 10
150.3666100404
 20
103.0327513798
 10
150.2598310153
 20
103.5247021956
 10
150.0877901105
 20
103.972318865
 10
149.8673278883
 20
104.3317855497
 10
149.6200247271
 20
104.5679151459
 10
149.3700883834
 20
104.6575936436
 10
149.141984368
 20
104.5920426866
 10
148.9580410911
 20
104.3776788594
  0
LWPOLYLINE
  5
10A
330
1F
100
AcDbEntity
  8
0
  6
HIDDEN
 62
     7
370
     0
100
AcDbPolyline
 90
       23
 70
   128
 43
0.0
 10
148.9992010128
 20
104.732517807
 10
148.8580357089
 20
104.3516410449
 10
148.7922206668
 20
103.8701979157
 10
148.8070878297
 20
103.3271920783
 10
148.9014327484
 20
102.7666146364
 10
149.0676121588
 20
102.2338802403
 10
149.2921631934
 20
101.7721478626
 10
149.5568940627
 20
101.4188243146
 10
149.8403578461
 20
101.2025337686
 10
150.1195899938
 20
101.1407987985
 10
150.3719687778
 20
101.2386208044
 10
150.57704797
 20
101.4880748291
 10
150.7182132738
 20
101.8689515912
 10
150.784028316
 20
102.3503947204
 10
150.7691611531
 20
102.8934005578
 10
150.6748162344
 20
103.4539779997
 10
150.508636824
 20
103.9867123958
 10
150.2840857894
 20
104.4484447734
 10
150.0193549201
 20
104.8017683215
 10
149.7358911367
 20
105.0180588675
 10
149.456658989
 20
105.0797938376
 10
149.204280205
 20
104.9819718317
 10
148.9992010128
 20
104.732517807
  0
LWPOLYLINE
  5
10B
330
1F
100
AcDbEntity
  8
0
  6
HIDDEN
 62
     7
370
     0
100
AcDbPolyline
 90
       23
 70
   128
 43
0.0
 10
150.7527581713
 20
105.0787847109
 10
150.6115928675
 20
104.6979079489
 10
150.5457778253
 20
104.2164648197
 10
150.5606449882
 20
103.6734589823
 10
150.6549899069
 20
103.1128815404
 10
150.8211693173
 20
102.5801471443
 10
151.0457203519
 20
102.1184147666
 10
151.3104512212
 20
101.7650912185
 10
151.5939150046
 20
101.5488006726
 10
151.8731471523
 20
101.4870657025
 10
152.1255259363
 20
101.5848877084
 10
152.3306051285
 20
101.8343417331
 10
152.4717704323
 20
102.2152184951
 10
152.5375854745
 20
102.6966616244
 10
152.5227183116
 20
103.2396674618
 10
152.4283733929
 20
103.8002449037
 10
152.2621939825
 20
104.3329792997
 10
152.0376429479
 20
104.7947116774
 10
151.7729120786
 20
105.1480352255
 10
151.4894482952
 20
105.3643257715
 10
151.2102161475
 20
105.4260607416
 10
150.9578373635
 20
105.3282387357
 10
150.7527581713
 20
105.0787847109
  0
LINE
  5
10C
330
1F
100
AcDbEntity
  8
0
  6
HIDDEN
 62
     7
370
     0
100
AcDbLine
 10
149.5136213566
 20
102.0441612037
 30
0.0
 11
150.0486096741
 21
102.1352005475
 31
0.0
  0
LINE
  5
10D
330
1F
100
AcDbEntity
  8
0
  6
HIDDEN
 62
     7
370
     0
100
AcDbLine
 10
150.1281128089
 20
103.1628299046
 30
0.0
 11
150.0486096741
 21
102.1352005475
 31
0.0
  0
LINE
  5
10E
330
1F
100
AcDbEntity
  8
0
  6
HIDDEN
 62
     7
370
     0
100
AcDbLine
 10
149.6726276262
 20
104.0994199179
 30
0.0
 11
150.1281128089
 21
103.1628299046
 31
0.0
  0
LINE
  5
10F
330
1F
100
AcDbEntity
  8
0
  6
HIDDEN
 62
     7
370
     0
100
AcDbLine
 10
149.6726276262
 20
104.0994199179
 30
0.0
 11
149.1376393086
 21
104.0083805741
 31
0.0
  0
LINE
  5
110
330
1F
100
AcDbEntity
  8
0
  6
HIDDEN
 62
     7
370
     0
100
AcDbLine
 10
149.0581361739
 20
102.980751217
 30
0.0
 11
149.1376393086
 21
104.0083805741
 31
0.0
  0
LINE
  5
111
330
1F
100
AcDbEntity
  8
0
  6
HIDDEN
 62
     7
370
     0
100
AcDbLine
 10
149.0581361739
 20
102.980751217
 30
0.0
 11
149.5136213566
 21
102.0441612037
 31
0.0
  0
LWPOLYLINE
  5
112
330
1F
100
AcDbEntity
  8
0
  6
HIDDEN
 62
     7
370
     0
100
AcDbPolyline
 90
       18
 70
   128
 43
0.0
 10
151.6981235286
 20
104.5987092063
 10
151.5926824834
 20
104.2776749901
 10
151.5680746402
 20
103.863066973
 10
151.6276234246
 20
103.4108802651
 10
151.7632864433
 20
102.982185187
 10
151.9567416539
 20
102.6348793845
 10
152.1818618582
 20
102.4158684307
 10
152.4082433252
 20
102.3547309685
 10
152.6053119834
 20
102.4597239509
 10
152.7464526185
 20
102.7166674939
 10
152.8126034056
 20
103.0908599482
 10
152.7948303144
 20
103.5317645494
 10
152.6955336992
 20
103.979834688
 10
152.5281241183
 20
104.3745560089
 10
152.3152111632
 20
104.6626192104
 10
152.0855499082
 20
104.8051197611
 10
151.8701573785
 20
104.7828121719
 10
151.6981235286
 20
104.5987092063
  0
LINE
  5
113
330
1F
100
AcDbEntity
  8
0
  6
HIDDEN
 62
     7
370
     0
100
AcDbLine
 10
151.4271509146
 20
103.4193450121
 30
0.0
 11
150.1281128089
 21
103.1628299046
 31
0.0
  0
LINE
  5
114
330
1F
100
AcDbEntity
  8
0
  6
HIDDEN
 62
     7
370
     0
100
AcDbLine
 10
150.9716657318
 20
104.3559350254
 30
0.0
 11
150.4366774143
 21
104.2648956816
 31
0.0
  0
LINE
  5
115
330
1F
100
AcDbEntity
  8
0
  6
HIDDEN
 62
     7
370
     0
100
AcDbLine
 10
150.8126594623
 20
102.3006763112
 30
0.0
 11
151.3476477798
 21
102.391715655
 31
0.0
  0
LINE
  5
116
330
1F
100
AcDbEntity
  8
0
  6
HIDDEN
 62
     7
370
     0
100
AcDbLine
 10
150.3571742796
 20
103.2372663245
 30
0.0
 11
150.8126594623
 21
102.3006763112
 31
0.0
  0
LINE
  5
117
330
1F
100
AcDbEntity
  8
0
  6
HIDDEN
 62
     7
370
     0
100
AcDbLine
 10
150.3571742796
 20
103.2372663245
 30
0.0
 11
150.4366774143
 21
104.2648956816
 31
0.0
  0
LINE
  5
118
330
1F
100
AcDbEntity
  8
0
  6
HIDDEN
 62
     7
370
     0
100
AcDbLine
 10
150.9716657318
 20
104.3559350254
 30
0.0
 11
151.4271509146
 21
103.4193450121
 31
0.0
  0
LINE
  5
119
330
1F
100
AcDbEntity
  8
0
  6
HIDDEN
 62
     7
370
     0
100
AcDbLine
 10
151.4271509146
 20
103.4193450121
 30
0.0
 11
151.3476477798
 21
102.391715655
 31
0.0
  0
LINE
  5
11A
330
1F
100
AcDbEntity
  8
0
  6
HIDDEN
 62
     7
370
     0
100
AcDbLine
 10
150.9716657318
 20
104.3559350254
 30
0.0
 11
149.6726276262
 21
104.0994199179
 31
0.0
  0
LINE
  5
11B
330
1F
100
AcDbEntity
  8
0
  6
HIDDEN
 62
     7
370
     0
100
AcDbLine
 10
150.8126594623
 20
102.3006763112
 30
0.0
 11
149.5136213566
 21
102.0441612037
 31
0.0
  0
LINE
  5
11C
330
1F
100
AcDbEntity
  8
0
  6
HIDDEN
 62
     7
370
     0
100
AcDbLine
 10
151.3476477798
 20
102.391715655
 30
0.0
 11
150.0486096741
 21
102.1352005475
 31
0.0
  0
LINE
  5
11D
330
1F
100
AcDbEntity
  8
0
  6
HIDDEN
 62
     7
370
     0
100
AcDbLine
 10
150.3571742796
 20
103.2372663245
 30
0.0
 11
149.0581361739
 21
102.980751217
 31
0.0
  0
LINE
  5
11E
330
1F
100
AcDbEntity
  8
0
  6
HIDDEN
 62
     7
370
     0
100
AcDbLine
 10
150.4366774143
 20
104.2648956816
 30
0.0
 11
149.1376393086
 21
104.0083805741
 31
0.0
  0
LWPOLYLINE
  5
11F
330
1F
100
AcDbEntity
  8
0
  6
HIDDEN
 62
     7
370
     0
100
AcDbPolyline
 90
       23
 70
   128
 43
0.0
 10
150.7527581713
 20
119.0402205957
 10
150.6115928675
 20
119.4210973577
 10
150.5457778253
 20
119.9025404869
 10
150.5606449882
 20
120.4455463243
 10
150.6549899069
 20
121.0061237663
 10
150.8211693173
 20
121.5388581623
 10
151.0457203519
 20
122.00059054
 10
151.3104512212
 20
122.3539140881
 10
151.5939150046
 20
122.570204634
 10
151.8731471523
 20
122.6319396041
 10
152.1255259363
 20
122.5341175982
 10
152.3306051285
 20
122.2846635735
 10
152.4717704323
 20
121.9037868115
 10
152.5375854745
 20
121.4223436822
 10
152.5227183116
 20
120.8793378449
 10
152.4283733929
 20
120.3187604029
 10
152.2621939825
 20
119.7860260069
 10
152.0376429479
 20
119.3242936292
 10
151.7729120786
 20
118.9709700811
 10
151.4894482952
 20
118.7546795352
 10
151.2102161475
 20
118.6929445651
 10
150.9578373635
 20
118.790766571
 10
150.7527581713
 20
119.0402205957
  0
LWPOLYLINE
  5
120
330
1F
100
AcDbEntity
  8
0
  6
HIDDEN
 62
     7
370
     0
100
AcDbPolyline
 90
       18
 70
   128
 43
0.0
 10
151.6981235286
 20
119.5202961003
 10
151.5926824834
 20
119.8413303165
 10
151.5680746402
 20
120.2559383337
 10
151.6276234246
 20
120.7081250415
 10
151.7632864433
 20
121.1368201196
 10
151.9567416539
 20
121.4841259221
 10
152.1818618582
 20
121.7031368759
 10
152.4082433252
 20
121.7642743381
 10
152.6053119834
 20
121.6592813557
 10
152.7464526185
 20
121.4023378127
 10
152.8126034056
 20
121.0281453584
 10
152.7948303144
 20
120.5872407572
 10
152.6955336992
 20
120.1391706186
 10
152.5281241183
 20
119.7444492977
 10
152.3152111632
 20
119.4563860962
 10
152.0855499082
 20
119.3138855455
 10
151.8701573785
 20
119.3361931347
 10
151.6981235286
 20
119.5202961003
  0
LWPOLYLINE
  5
121
330
1F
100
AcDbEntity
  8
0
  6
HIDDEN
 62
     7
370
     0
100
AcDbPolyline
 90
       23
 70
   128
 43
0.0
 10
148.9992010128
 20
119.3864874997
 10
148.8580357089
 20
119.7673642617
 10
148.7922206668
 20
120.2488073909
 10
148.8070878297
 20
120.7918132283
 10
148.9014327484
 20
121.3523906702
 10
149.0676121588
 20
121.8851250663
 10
149.2921631934
 20
122.346857444
 10
149.5568940627
 20
122.7001809921
 10
149.8403578461
 20
122.916471538
 10
150.1195899938
 20
122.9782065081
 10
150.3719687778
 20
122.8803845022
 10
150.57704797
 20
122.6309304775
 10
150.7182132738
 20
122.2500537155
 10
150.784028316
 20
121.7686105862
 10
150.7691611531
 20
121.2256047488
 10
150.6748162344
 20
120.6650273069
 10
150.508636824
 20
120.1322929109
 10
150.2840857894
 20
119.6705605332
 10
150.0193549201
 20
119.3172369851
 10
149.7358911367
 20
119.1009464391
 10
149.456658989
 20
119.0392114691
 10
149.204280205
 20
119.1370334749
 10
148.9992010128
 20
119.3864874997
  0
LWPOLYLINE
  5
122
330
1F
100
AcDbEntity
  8
0
  6
HIDDEN
 62
     7
370
     0
100
AcDbPolyline
 90
       21
 70
   128
 43
0.0
 10
148.9580410911
 20
119.7413264473
 10
148.8362642023
 20
120.0835197198
 10
148.788574072
 20
120.520046176
 10
148.8196389424
 20
121.0081755648
 10
148.9264179675
 20
121.5001263807
 10
149.0984588723
 20
121.9477430501
 10
149.3189210945
 20
122.3072097347
 10
149.5662242557
 20
122.5433393309
 10
149.8161605993
 20
122.6330178286
 10
150.0442646148
 20
122.5674668717
 10
150.2282078917
 20
122.3531030444
 10
150.3499847804
 20
122.0109097718
 10
150.3976749108
 20
121.5743833156
 10
150.3666100404
 20
121.0862539268
 10
150.2598310153
 20
120.594303111
 10
150.0877901105
 20
120.1466864416
 10
149.8673278883
 20
119.7872197569
 10
149.6200247271
 20
119.5510901607
 10
149.3700883834
 20
119.461411663
 10
149.141984368
 20
119.52696262
 10
148.9580410911
 20
119.7413264473
  0
LINE
  5
123
330
1F
100
AcDbEntity
  8
0
  6
HIDDEN
 62
     7
370
     0
100
AcDbLine
 10
150.3571742796
 20
120.8817389822
 30
0.0
 11
150.4366774143
 21
119.854109625
 31
0.0
  0
LINE
  5
124
330
1F
100
AcDbEntity
  8
0
  6
HIDDEN
 62
     7
370
     0
100
AcDbLine
 10
149.0581361739
 20
121.1382540896
 30
0.0
 11
149.1376393086
 21
120.1106247325
 31
0.0
  0
LINE
  5
125
330
1F
100
AcDbEntity
  8
0
  6
HIDDEN
 62
     7
370
     0
100
AcDbLine
 10
149.0581361739
 20
121.1382540896
 30
0.0
 11
149.5136213566
 21
122.074844103
 31
0.0
  0
LINE
  5
126
330
1F
100
AcDbEntity
  8
0
  6
HIDDEN
 62
     7
370
     0
100
AcDbLine
 10
150.3571742796
 20
120.8817389822
 30
0.0
 11
149.0581361739
 21
121.1382540896
 31
0.0
  0
LINE
  5
127
330
1F
100
AcDbEntity
  8
0
  6
HIDDEN
 62
     7
370
     0
100
AcDbLine
 10
150.3571742796
 20
120.8817389822
 30
0.0
 11
150.8126594623
 21
121.8183289955
 31
0.0
  0
LINE
  5
128
330
1F
100
AcDbEntity
  8
0
  6
HIDDEN
 62
     7
370
     0
100
AcDbLine
 10
150.8126594623
 20
121.8183289955
 30
0.0
 11
149.5136213566
 21
122.074844103
 31
0.0
  0
LINE
  5
129
330
1F
100
AcDbEntity
  8
0
  6
HIDDEN
 62
     7
370
     0
100
AcDbLine
 10
149.5136213566
 20
122.074844103
 30
0.0
 11
150.0486096741
 21
121.9838047591
 31
0.0
  0
LINE
  5
12A
330
1F
100
AcDbEntity
  8
0
  6
HIDDEN
 62
     7
370
     0
100
AcDbLine
 10
150.8126594623
 20
121.8183289955
 30
0.0
 11
151.3476477798
 21
121.7272896516
 31
0.0
  0
LINE
  5
12B
330
1F
100
AcDbEntity
  8
0
  6
HIDDEN
 62
     7
370
     0
100
AcDbLine
 10
150.9716657318
 20
119.7630702812
 30
0.0
 11
149.6726276262
 21
120.0195853887
 31
0.0
  0
LINE
  5
12C
330
1F
100
AcDbEntity
  8
0
  6
HIDDEN
 62
     7
370
     0
100
AcDbLine
 10
149.6726276262
 20
120.0195853887
 30
0.0
 11
149.1376393086
 21
120.1106247325
 31
0.0
  0
LINE
  5
12D
330
1F
100
AcDbEntity
  8
0
  6
HIDDEN
 62
     7
370
     0
100
AcDbLine
 10
150.4366774143
 20
119.854109625
 30
0.0
 11
149.1376393086
 21
120.1106247325
 31
0.0
  0
LINE
  5
12E
330
1F
100
AcDbEntity
  8
0
  6
HIDDEN
 62
     7
370
     0
100
AcDbLine
 10
150.9716657318
 20
119.7630702812
 30
0.0
 11
150.4366774143
 21
119.854109625
 31
0.0
  0
LINE
  5
12F
330
1F
100
AcDbEntity
  8
0
  6
HIDDEN
 62
     7
370
     0
100
AcDbLine
 10
151.4271509146
 20
120.6996602945
 30
0.0
 11
150.1281128089
 21
120.956175402
 31
0.0
  0
LINE
  5
130
330
1F
100
AcDbEntity
  8
0
  6
HIDDEN
 62
     7
370
     0
100
AcDbLine
 10
151.3476477798
 20
121.7272896516
 30
0.0
 11
150.0486096741
 21
121.9838047591
 31
0.0
  0
LINE
  5
131
330
1F
100
AcDbEntity
  8
0
  6
HIDDEN
 62
     7
370
     0
100
AcDbLine
 10
150.1281128089
 20
120.956175402
 30
0.0
 11
150.0486096741
 21
121.9838047591
 31
0.0
  0
LINE
  5
132
330
1F
100
AcDbEntity
  8
0
  6
HIDDEN
 62
     7
370
     0
100
AcDbLine
 10
151.4271509146
 20
120.6996602945
 30
0.0
 11
151.3476477798
 21
121.7272896516
 31
0.0
  0
LINE
  5
133
330
1F
100
AcDbEntity
  8
0
  6
HIDDEN
 62
     7
370
     0
100
AcDbLine
 10
149.6726276262
 20
120.0195853887
 30
0.0
 11
150.1281128089
 21
120.956175402
 31
0.0
  0
LINE
  5
134
330
1F
100
AcDbEntity
  8
0
  6
HIDDEN
 62
     7
370
     0
100
AcDbLine
 10
150.9716657318
 20
119.7630702812
 30
0.0
 11
151.4271509146
 21
120.6996602945
 31
0.0
  0
LWPOLYLINE
  5
135
330
1F
100
AcDbEntity
  8
0
  6
HIDDEN
 62
     7
370
     0
100
AcDbPolyline
 90
       25
 70
   128
 43
0.0
 10
161.1353096693
 20
118.3888186575
 10
160.749983187
 20
118.8837884646
 10
160.5141156601
 20
119.455607972
 10
160.443781071
 20
120.0653086251
 10
160.5437726057
 20
120.6713403321
 10
160.8072760062
 20
121.2324030336
 10
161.2163339514
 20
121.7102612337
 10
161.7430698181
 20
122.0723496858
 10
162.3515874277
 20
122.2939926602
 10
163.0004173107
 20
122.3600855545
 10
163.6453427826
 20
122.2661242473
 10
164.2424132385
 20
122.0185120463
 10
164.7509393134
 20
121.6341233137
 10
165.1362657958
 20
121.1391535066
 10
165.3721333226
 20
120.5673339993
 10
165.4424679117
 20
119.9576333461
 10
165.3424763771
 20
119.3516016392
 10
165.0789729766
 20
118.7905389377
 10
164.6699150314
 20
118.3126807376
 10
164.1431791646
 20
117.9505922855
 10
163.534661555
 20
117.7289493111
 10
162.8858316721
 20
117.6628564167
 10
162.2409062002
 20
117.756817724
 10
161.6438357443
 20
118.004429925
 10
161.1353096693
 20
118.3888186575
  0
LWPOLYLINE
  5
136
330
1F
100
AcDbEntity
  8
0
  6
HIDDEN
 62
     7
370
     0
100
AcDbPolyline
 90
       21
 70
   128
 43
0.0
 10
161.6776541159
 20
118.6190992485
 10
161.3660653088
 20
119.0421605685
 10
161.2088500425
 20
119.5349952597
 10
161.2213976427
 20
120.0493612289
 10
161.4024798627
 20
120.534908751
 10
161.7343711134
 20
120.9441090518
 10
162.1845835665
 20
121.2369067545
 10
162.7090472905
 20
121.3846407802
 10
163.2564241217
 20
121.3728498929
 10
163.7731330023
 20
121.2026882669
 10
164.2085948668
 20
120.8908125078
 10
164.5201836739
 20
120.4677511878
 10
164.6773989403
 20
119.9749164965
 10
164.6648513401
 20
119.4605505274
 10
164.48376912
 20
118.9750030052
 10
164.1518778694
 20
118.5658027045
 10
163.7016654163
 20
118.2730050017
 10
163.1772016923
 20
118.1252709761
 10
162.629824861
 20
118.1370618634
 10
162.1131159805
 20
118.3072234893
 10
161.6776541159
 20
118.6190992485
  0
LWPOLYLINE
  5
137
330
1F
100
AcDbEntity
  8
0
  6
HIDDEN
 62
     7
370
     0
100
AcDbPolyline
 90
       25
 70
   128
 43
0.0
 10
161.1353096693
 20
119.4125120106
 10
160.749983187
 20
119.9074818177
 10
160.5141156601
 20
120.4793013251
 10
160.443781071
 20
121.0890019782
 10
160.5437726057
 20
121.6950336852
 10
160.8072760062
 20
122.2560963867
 10
161.2163339514
 20
122.7339545868
 10
161.7430698181
 20
123.0960430389
 10
162.3515874277
 20
123.3176860133
 10
163.0004173107
 20
123.3837789076
 10
163.6453427826
 20
123.2898176004
 10
164.2424132385
 20
123.0422053994
 10
164.7509393134
 20
122.6578166668
 10
165.1362657958
 20
122.1628468597
 10
165.3721333226
 20
121.5910273524
 10
165.4424679117
 20
120.9813266992
 10
165.3424763771
 20
120.3752949923
 10
165.0789729766
 20
119.8142322908
 10
164.6699150314
 20
119.3363740907
 10
164.1431791646
 20
118.9742856386
 10
163.534661555
 20
118.7526426642
 10
162.8858316721
 20
118.6865497698
 10
162.2409062002
 20
118.7805110771
 10
161.6438357443
 20
119.0281232781
 10
161.1353096693
 20
119.4125120106
  0
LINE
  5
138
330
1F
100
AcDbEntity
  8
0
  6
HIDDEN
 62
     7
370
     0
100
AcDbLine
 10
162.6016004085
 20
121.756810668
 30
0.0
 11
163.9868668655
 21
121.3758349232
 31
0.0
  0
LINE
  5
139
330
1F
100
AcDbEntity
  8
0
  6
HIDDEN
 62
     7
370
     0
100
AcDbLine
 10
162.6016004085
 20
121.756810668
 30
0.0
 11
162.6016004085
 21
122.4408509547
 31
0.0
  0
LINE
  5
13A
330
1F
100
AcDbEntity
  8
0
  6
HIDDEN
 62
     7
370
     0
100
AcDbLine
 10
161.5578580343
 20
120.8199719096
 30
0.0
 11
162.6016004085
 21
121.756810668
 31
0.0
  0
LINE
  5
13B
330
1F
100
AcDbEntity
  8
0
  6
HIDDEN
 62
     7
370
     0
100
AcDbLine
 10
163.9868668655
 20
121.3758349232
 30
0.0
 11
163.9868668655
 21
122.0598752099
 31
0.0
  0
LINE
  5
13C
330
1F
100
AcDbEntity
  8
0
  6
HIDDEN
 62
     7
370
     0
100
AcDbLine
 10
164.3283909485
 20
120.05802042
 30
0.0
 11
163.9868668655
 21
121.3758349232
 31
0.0
  0
LINE
  5
13D
330
1F
100
AcDbEntity
  8
0
  6
HIDDEN
 62
     7
370
     0
100
AcDbLine
 10
161.8993821172
 20
119.5021574064
 30
0.0
 11
161.8993821172
 21
120.186197693
 31
0.0
  0
LINE
  5
13E
330
1F
100
AcDbEntity
  8
0
  6
HIDDEN
 62
     7
370
     0
100
AcDbLine
 10
161.5578580343
 20
121.5040121962
 30
0.0
 11
161.8993821172
 21
120.186197693
 31
0.0
  0
LINE
  5
13F
330
1F
100
AcDbEntity
  8
0
  6
HIDDEN
 62
     7
370
     0
100
AcDbLine
 10
161.5578580343
 20
120.8199719096
 30
0.0
 11
161.5578580343
 21
121.5040121962
 31
0.0
  0
LINE
  5
140
330
1F
100
AcDbEntity
  8
0
  6
HIDDEN
 62
     7
370
     0
100
AcDbLine
 10
161.5578580343
 20
120.8199719096
 30
0.0
 11
161.8993821172
 21
119.5021574064
 31
0.0
  0
LINE
  5
141
330
1F
100
AcDbEntity
  8
0
  6
HIDDEN
 62
     7
370
     0
100
AcDbLine
 10
163.2846485743
 20
119.1211816616
 30
0.0
 11
163.2846485743
 21
119.8052219482
 31
0.0
  0
LINE
  5
142
330
1F
100
AcDbEntity
  8
0
  6
HIDDEN
 62
     7
370
     0
100
AcDbLine
 10
163.2846485743
 20
119.8052219482
 30
0.0
 11
164.3283909485
 21
120.7420607066
 31
0.0
  0
LINE
  5
143
330
1F
100
AcDbEntity
  8
0
  6
HIDDEN
 62
     7
370
     0
100
AcDbLine
 10
164.3283909485
 20
120.05802042
 30
0.0
 11
164.3283909485
 21
120.7420607066
 31
0.0
  0
LINE
  5
144
330
1F
100
AcDbEntity
  8
0
  6
HIDDEN
 62
     7
370
     0
100
AcDbLine
 10
163.2846485743
 20
119.1211816616
 30
0.0
 11
164.3283909485
 21
120.05802042
 31
0.0
  0
LINE
  5
145
330
1F
100
AcDbEntity
  8
0
  6
HIDDEN
 62
     7
370
     0
100
AcDbLine
 10
163.2846485743
 20
119.8052219482
 30
0.0
 11
161.8993821172
 21
120.186197693
 31
0.0
  0
LINE
  5
146
330
1F
100
AcDbEntity
  8
0
  6
HIDDEN
 62
     7
370
     0
100
AcDbLine
 10
163.2846485743
 20
119.1211816616
 30
0.0
 11
161.8993821172
 21
119.5021574064
 31
0.0
  0
LWPOLYLINE
  5
147
330
1F
100
AcDbEntity
  8
0
  6
HIDDEN
 62
     7
370
     0
100
AcDbPolyline
 90
       23
 70
   128
 43
0.0
 10
161.4571007077
 20
119.7892162377
 10
161.1173977726
 20
120.2366582439
 10
160.9256043583
 20
120.7559093409
 10
160.8972584265
 20
121.304902893
 10
161.034656396
 20
121.8391627076
 10
161.3266671006
 20
122.3154062319
 10
161.7496335695
 20
122.6950510479
 10
162.2692895749
 20
122.9473405905
 10
162.8435356778
 20
123.0518358612
 10
163.4258498741
 20
123.0000712748
 10
163.9690565308
 20
122.7962404901
 10
164.4291482751
 20
122.4568566651
 10
164.7688512102
 20
122.009414659
 10
164.9606446245
 20
121.490163562
 10
164.9889905563
 20
120.9411700099
 10
164.8515925868
 20
120.4069101953
 10
164.5595818822
 20
119.9306666709
 10
164.1366154133
 20
119.5510218549
 10
163.6169594079
 20
119.2987323124
 10
163.042713305
 20
119.1942370417
 10
162.4603991086
 20
119.2460016281
 10
161.917192452
 20
119.4498324128
 10
161.4571007077
 20
119.7892162377
  0
LINE
  5
148
330
1F
100
AcDbEntity
  8
0
  6
HIDDEN
 62
     7
370
     0
100
AcDbLine
 10
164.3283909485
 20
120.7420607066
 30
0.0
 11
163.9868668655
 21
122.0598752099
 31
0.0
  0
LINE
  5
149
330
1F
100
AcDbEntity
  8
0
  6
HIDDEN
 62
     7
370
     0
100
AcDbLine
 10
161.5578580343
 20
121.5040121962
 30
0.0
 11
162.6016004085
 21
122.4408509547
 31
0.0
  0
LINE
  5
14A
330
1F
100
AcDbEntity
  8
0
  6
HIDDEN
 62
     7
370
     0
100
AcDbLine
 10
162.6016004085
 20
122.4408509547
 30
0.0
 11
163.9868668655
 21
122.0598752099
 31
0.0
  0
LINE
  5
14B
330
1F
100
AcDbEntity
  8
0
  6
HIDDEN
 62
     7
370
     0
100
AcDbLine
 10
184.2931244914
 20
139.8095026533
 30
0.0
 11
184.2931244914
 21
129.6396296722
 31
0.0
  0
LINE
  5
14C
330
1F
100
AcDbEntity
  8
0
  6
HIDDEN
 62
     7
370
     0
100
AcDbLine
 10
200.2931244914
 20
129.6396296722
 30
0.0
 11
200.2931244914
 21
139.8095026533
 31
0.0
  0
LINE
  5
14D
330
1F
100
AcDbEntity
  8
0
  6
HIDDEN
 62
     7
370
     0
100
AcDbLine
 10
200.2931244914
 20
139.8095026533
 30
0.0
 11
199.2931244914
 21
140.8095026533
 31
0.0
  0
LINE
  5
14E
330
1F
100
AcDbEntity
  8
0
  6
HIDDEN
 62
     7
370
     0
100
AcDbLine
 10
185.2931244914
 20
140.8095026533
 30
0.0
 11
184.2931244914
 21
139.8095026533
 31
0.0
  0
LINE
  5
14F
330
1F
100
AcDbEntity
  8
0
  6
HIDDEN
 62
     7
370
     0
100
AcDbLine
 10
184.2931244914
 20
129.6396296722
 30
0.0
 11
186.6938250722
 21
120.6800931308
 31
0.0
  0
LINE
  5
150
330
1F
100
AcDbEntity
  8
0
  6
HIDDEN
 62
     7
370
     0
100
AcDbLine
 10
197.8924239105
 20
120.6800931308
 30
0.0
 11
200.2931244914
 21
129.6396296722
 31
0.0
  0
ARC
  5
151
330
1F
100
AcDbEntity
  8
0
  6
HIDDEN
 62
     7
370
     0
100
AcDbCircle
 10
187.1767879854
 20
120.8095026533
 30
0.0
 40
0.5000000000000115
100
AcDbArc
 50
195.0
 51
270.0
  0
ARC
  5
152
330
1F
100
AcDbEntity
  8
0
  6
HIDDEN
 62
     7
370
     0
100
AcDbCircle
 10
197.4094609974
 20
120.8095026533
 30
0.0
 40
0.5
100
AcDbArc
 50
270.0
 51
345.0
  0
LINE
  5
153
330
1F
100
AcDbEntity
  8
0
  6
HIDDEN
 62
     7
370
     0
100
AcDbLine
 10
187.5931244914
 20
140.8095026533
 30
0.0
 11
188.2931244914
 21
140.1095026533
 31
0.0
  0
LINE
  5
154
330
1F
100
AcDbEntity
  8
0
  6
HIDDEN
 62
     7
370
     0
100
AcDbLine
 10
196.2931244914
 20
140.1095026533
 30
0.0
 11
196.9931244914
 21
140.8095026533
 31
0.0
  0
LINE
  5
155
330
1F
100
AcDbEntity
  8
0
  6
HIDDEN
 62
     7
370
     0
100
AcDbLine
 10
188.2931244914
 20
130.8095026533
 30
0.0
 11
188.2931244914
 21
129.8095026533
 31
0.0
  0
LINE
  5
156
330
1F
100
AcDbEntity
  8
0
  6
HIDDEN
 62
     7
370
     0
100
AcDbLine
 10
196.2931244914
 20
129.8095026533
 30
0.0
 11
196.2931244914
 21
130.8095026533
 31
0.0
  0
LINE
  5
157
330
1F
100
AcDbEntity
  8
0
  6
HIDDEN
 62
     7
370
     0
100
AcDbLine
 10
188.2931244914
 20
129.8095026533
 30
0.0
 11
192.2931244914
 21
128.3536217162
 31
0.0
  0
LINE
  5
158
330
1F
100
AcDbEntity
  8
0
  6
HIDDEN
 62
     7
370
     0
100
AcDbLine
 10
192.2931244914
 20
128.3536217162
 30
0.0
 11
196.2931244914
 21
129.8095026533
 31
0.0
  0
LINE
  5
159
330
1F
100
AcDbEntity
  8
0
  6
HIDDEN
 62
     7
370
     0
100
AcDbLine
 10
148.3431244914
 20
100.6844080753
 30
0.0
 11
149.9999462064
 21
101.0115730742
 31
0.0
  0
LINE
  5
15A
330
1F
100
AcDbEntity
  8
0
  6
HIDDEN
 62
     7
370
     0
100
AcDbLine
 10
149.1863027764
 20
105.1320080474
 30
0.0
 11
148.3431244914
 21
104.9655094917
 31
0.0
  0
LINE
  5
15B
330
1F
100
AcDbEntity
  8
0
  6
HIDDEN
 62
     7
370
     0
100
AcDbLine
 10
150.0546134857
 20
101.481057409
 30
0.0
 11
161.4834170367
 21
103.7378509231
 31
0.0
  0
LINE
  5
15C
330
1F
100
AcDbEntity
  8
0
  6
HIDDEN
 62
     7
370
     0
100
AcDbLine
 10
161.493742436
 20
107.1036123738
 30
0.0
 11
149.4153222192
 21
104.7185420308
 31
0.0
  0
LINE
  5
15D
330
1F
100
AcDbEntity
  8
0
  6
HIDDEN
 62
     7
370
     0
100
AcDbLine
 10
165.0431244914
 20
105.0480897151
 30
0.0
 11
165.0431244914
 21
110.0098870411
 31
0.0
  0
LINE
  5
15E
330
1F
100
AcDbEntity
  8
0
  6
HIDDEN
 62
     7
370
     0
100
AcDbLine
 10
160.8431244914
 20
110.0100462016
 30
0.0
 11
160.8431244914
 21
105.9405493268
 31
0.0
  0
ARC
  5
15F
330
1F
100
AcDbEntity
  8
0
  6
HIDDEN
 62
     7
370
     0
100
AcDbCircle
 10
209.3431244914
 20
131.0595026533
 30
0.0
 40
1.0
100
AcDbArc
 50
270.0
 51
0.0
  0
ARC
  5
160
330
1F
100
AcDbEntity
  8
0
  6
HIDDEN
 62
     7
370
     0
100
AcDbCircle
 10
209.3431244914
 20
93.0595026533
 30
0.0
 40
1.0
100
AcDbArc
 50
0.0
 51
90.0
  0
ARC
  5
161
330
1F
100
AcDbEntity
  8
0
  6
HIDDEN
 62
     7
370
     0
100
AcDbCircle
 10
170.8431244914
 20
129.5595026533
 30
0.0
 40
1.0
100
AcDbArc
 50
90.0
 51
180.0
  0
ARC
  5
162
330
1F
100
AcDbEntity
  8
0
  6
HIDDEN
 62
     7
370
     0
100
AcDbCircle
 10
170.8431244914
 20
94.5595026533
 30
0.0
 40
1.0
100
AcDbArc
 50
180.0
 51
270.0
  0
ARC
  5
163
330
1F
100
AcDbEntity
  8
0
  6
HIDDEN
 62
     7
370
     0
100
AcDbCircle
 10
172.7114719938
 20
129.5595026533
 30
0.0
 40
1.0
100
AcDbArc
 50
75.0
 51
90.0
  0
ARC
  5
164
330
1F
100
AcDbEntity
  8
0
  6
HIDDEN
 62
     7
370
     0
100
AcDbCircle
 10
172.7114719938
 20
94.5595026533
 30
0.0
 40
1.0
100
AcDbArc
 50
270.0
 51
285.0
  0
LINE
  5
165
330
1F
100
AcDbEntity
  8
0
  6
HIDDEN
 62
     7
370
     0
100
AcDbLine
 10
172.7114719938
 20
130.5595026533
 30
0.0
 11
170.8431244914
 21
130.5595026533
 31
0.0
  0
LINE
  5
166
330
1F
100
AcDbEntity
  8
0
  6
HIDDEN
 62
     7
370
     0
100
AcDbLine
 10
170.8431244914
 20
93.5595026533
 30
0.0
 11
172.7114719938
 21
93.5595026533
 31
0.0
  0
LINE
  5
167
330
1F
100
AcDbEntity
  8
0
  6
HIDDEN
 62
     7
370
     0
100
AcDbLine
 10
172.9702910389
 20
93.593576827
 30
0.0
 11
174.7091498952
 21
94.0595026533
 31
0.0
  0
LINE
  5
168
330
1F
100
AcDbEntity
  8
0
  6
HIDDEN
 62
     7
370
     0
100
AcDbLine
 10
174.7091498952
 20
130.0595026533
 30
0.0
 11
172.9702910389
 21
130.5254284796
 31
0.0
  0
LINE
  5
169
330
1F
100
AcDbEntity
  8
0
  6
HIDDEN
 62
     7
370
     0
100
AcDbLine
 10
185.0431244914
 20
130.0595026533
 30
0.0
 11
174.7091498952
 21
130.0595026533
 31
0.0
  0
LINE
  5
16A
330
1F
100
AcDbEntity
  8
0
  6
HIDDEN
 62
     7
370
     0
100
AcDbLine
 10
209.3431244914
 20
130.0595026533
 30
0.0
 11
199.5203322809
 21
130.0595026533
 31
0.0
  0
LINE
  5
16B
330
1F
100
AcDbEntity
  8
0
  6
HIDDEN
 62
     7
370
     0
100
AcDbLine
 10
174.7091498952
 20
94.0595026533
 30
0.0
 11
209.3431244914
 21
94.0595026533
 31
0.0
  0
LINE
  5
16C
330
1F
100
AcDbEntity
  8
0
  6
HIDDEN
 62
     7
370
     0
100
AcDbLine
 10
182.2931244914
 20
143.5595026533
 30
0.0
 11
185.0431244914
 21
140.8095026533
 31
0.0
  0
LINE
  5
16D
330
1F
100
AcDbEntity
  8
0
  6
HIDDEN
 62
     7
370
     0
100
AcDbLine
 10
199.5431244914
 20
140.8095026533
 30
0.0
 11
202.2931244914
 21
143.5595026533
 31
0.0
  0
ARC
  5
16E
330
1F
100
AcDbEntity
  8
0
  6
HIDDEN
 62
     7
370
     0
100
AcDbCircle
 10
81.7431244914
 20
102.7595026533
 30
0.0
 40
0.7999999999999972
100
AcDbArc
 50
90.0
 51
180.0
  0
ARC
  5
16F
330
1F
100
AcDbEntity
  8
0
  6
HIDDEN
 62
     7
370
     0
100
AcDbCircle
 10
81.7431244914
 20
121.3595026533
 30
0.0
 40
0.7999999999999972
100
AcDbArc
 50
180.0
 51
270.0
  0
LINE
  5
170
330
1F
100
AcDbEntity
  8
0
  6
HIDDEN
 62
     7
370
     0
100
AcDbLine
 10
88.8354969221
 20
103.3345026533
 30
0.0
 11
89.7121843837
 21
103.3345026533
 31
0.0
  0
LINE
  5
171
330
1F
100
AcDbEntity
  8
0
  6
HIDDEN
 62
     7
370
     0
100
AcDbLine
 10
89.7121843837
 20
120.7845026533
 30
0.0
 11
88.8354969221
 21
120.7845026533
 31
0.0
  0
ARC
  5
172
330
1F
100
AcDbEntity
  8
0
  6
HIDDEN
 62
     7
370
     0
100
AcDbCircle
 10
88.8354969221
 20
103.7345026533
 30
0.0
 40
0.3999999999999923
100
AcDbArc
 50
255.0
 51
270.0
  0
ARC
  5
173
330
1F
100
AcDbEntity
  8
0
  6
HIDDEN
 62
     7
370
     0
100
AcDbCircle
 10
88.8354969221
 20
120.3845026533
 30
0.0
 40
0.3999999999999923
100
AcDbArc
 50
90.0
 51
105.0
  0
ARC
  5
174
330
1F
100
AcDbEntity
  8
0
  6
HIDDEN
 62
     7
370
     0
100
AcDbCircle
 10
89.7121843837
 20
103.7345026533
 30
0.0
 40
0.3999999999999998
100
AcDbArc
 50
270.0
 51
330.0
  0
ARC
  5
175
330
1F
100
AcDbEntity
  8
0
  6
HIDDEN
 62
     7
370
     0
100
AcDbCircle
 10
89.7121843837
 20
120.3845026533
 30
0.0
 40
0.3999999999999998
100
AcDbArc
 50
30.0
 51
90.0
  0
LINE
  5
176
330
1F
100
AcDbEntity
  8
0
  6
HIDDEN
 62
     7
370
     0
100
AcDbLine
 10
88.7319693041
 20
120.7708729838
 30
0.0
 11
87.9431244914
 21
120.5595026533
 31
0.0
  0
LINE
  5
177
330
1F
100
AcDbEntity
  8
0
  6
HIDDEN
 62
     7
370
     0
100
AcDbLine
 10
87.9431244914
 20
103.5595026533
 30
0.0
 11
88.7319693041
 21
103.3481323228
 31
0.0
  0
LINE
  5
178
330
1F
100
AcDbEntity
  8
0
  6
HIDDEN
 62
     7
370
     0
100
AcDbLine
 10
90.0585945452
 20
103.5345026533
 30
0.0
 11
90.9390537057
 21
105.0595026533
 31
0.0
  0
LINE
  5
179
330
1F
100
AcDbEntity
  8
0
  6
HIDDEN
 62
     7
370
     0
100
AcDbLine
 10
90.9390537057
 20
119.0595026533
 30
0.0
 11
90.0585945452
 21
120.5845026533
 31
0.0
  0
LINE
  5
17A
330
1F
100
AcDbEntity
  8
0
  6
HIDDEN
 62
     7
370
     0
100
AcDbLine
 10
81.7431244914
 20
103.5595026533
 30
0.0
 11
87.9431244914
 21
103.5595026533
 31
0.0
  0
LINE
  5
17B
330
1F
100
AcDbEntity
  8
0
  6
HIDDEN
 62
     7
370
     0
100
AcDbLine
 10
87.9431244914
 20
120.5595026533
 30
0.0
 11
81.7431244914
 21
120.5595026533
 31
0.0
  0
ARC
  5
17C
330
1F
100
AcDbEntity
  8
0
  6
HIDDEN
 62
     7
370
     0
100
AcDbCircle
 10
167.7431244914
 20
87.9595026533
 30
0.0
 40
1.599999999999994
100
AcDbArc
 50
0.0
 51
90.0
  0
LINE
  5
17D
330
1F
100
AcDbEntity
  8
0
  6
HIDDEN
 62
     7
370
     0
100
AcDbLine
 10
169.3431244914
 20
136.1595026533
 30
0.0
 11
169.3431244914
 21
142.5594313571
 31
0.0
  0
LINE
  5
17E
330
1F
100
AcDbEntity
  8
0
  6
HIDDEN
 62
     7
370
     0
100
AcDbLine
 10
169.3431244914
 20
81.5595150924
 30
0.0
 11
169.3431244914
 21
87.9595026533
 31
0.0
  0
ARC
  5
17F
330
1F
100
AcDbEntity
  8
0
  6
HIDDEN
 62
     7
370
     0
100
AcDbCircle
 10
167.7431244914
 20
136.1595026533
 30
0.0
 40
1.599999999999994
100
AcDbArc
 50
270.0
 51
0.0
  0
LINE
  5
180
330
1F
100
AcDbEntity
  8
0
  6
HIDDEN
 62
     7
370
     0
100
AcDbLine
 10
185.0431244914
 20
140.8095026533
 30
0.0
 11
185.0431244914
 21
130.0595026533
 31
0.0
  0
LINE
  5
181
330
1F
100
AcDbEntity
  8
0
  6
HIDDEN
 62
     7
370
     0
100
AcDbLine
 10
199.5431244914
 20
130.0503417443
 30
0.0
 11
199.5431244914
 21
140.8095026533
 31
0.0
  0
LINE
  5
182
330
1F
100
AcDbEntity
  8
0
  6
HIDDEN
 62
     7
370
     0
100
AcDbLine
 10
90.9390537057
 20
105.0595026533
 30
0.0
 11
123.9431244914
 21
105.0595026533
 31
0.0
  0
LINE
  5
183
330
1F
100
AcDbEntity
  8
0
  6
HIDDEN
 62
     7
370
     0
100
AcDbLine
 10
123.9431244914
 20
119.0595026533
 30
0.0
 11
90.9390537057
 21
119.0595026533
 31
0.0
  0
LINE
  5
184
330
1F
100
AcDbEntity
  8
0
  6
HIDDEN
 62
     7
370
     0
100
AcDbLine
 10
123.9431244914
 20
105.0595026533
 30
0.0
 11
124.5439851104
 21
106.0595026533
 31
0.0
  0
LINE
  5
185
330
1F
100
AcDbEntity
  8
0
  6
HIDDEN
 62
     7
370
     0
100
AcDbLine
 10
124.5439851104
 20
118.0595026533
 30
0.0
 11
123.9431244914
 21
119.0595026533
 31
0.0
  0
LINE
  5
186
330
1F
100
AcDbEntity
  8
0
  6
HIDDEN
 62
     7
370
     0
100
AcDbLine
 10
169.3431235814
 20
142.5595024414
 30
0.0
 11
170.3431229507
 21
143.5595021881
 31
0.0
  0
LINE
  5
187
330
1F
100
AcDbEntity
  8
0
  6
HIDDEN
 62
     7
370
     0
100
AcDbLine
 10
170.3431308528
 20
80.5595015156
 30
0.0
 11
169.3431306039
 21
81.5595013201
 31
0.0
  0
LINE
  5
188
330
1F
100
AcDbEntity
  8
0
  6
HIDDEN
 62
     7
370
     0
100
AcDbLine
 10
169.8431244914
 20
118.0595026533
 30
0.0
 11
124.5439851104
 21
118.0595026533
 31
0.0
  0
LINE
  5
189
330
1F
100
AcDbEntity
  8
0
  6
HIDDEN
 62
     7
370
     0
100
AcDbLine
 10
124.5439851104
 20
106.0595026533
 30
0.0
 11
169.8431244914
 21
106.0595026533
 31
0.0
  0
LINE
  5
18A
330
1F
100
AcDbEntity
  8
0
  6
HIDDEN
 62
     7
370
     0
100
AcDbLine
 10
165.0431244914
 20
114.108959105
 30
0.0
 11
165.0431244914
 21
121.163278869
 31
0.0
  0
LINE
  5
18B
330
1F
100
AcDbEntity
  8
0
  6
HIDDEN
 62
     7
370
     0
100
AcDbLine
 10
160.8431244914
 20
118.1774449018
 30
0.0
 11
160.8431244914
 21
114.1091182655
 31
0.0
  0
LINE
  5
18C
330
1F
100
AcDbEntity
  8
0
  6
HIDDEN
 62
     7
370
     0
100
AcDbLine
 10
160.8431244914
 20
121.1616631023
 30
0.0
 11
160.8431244914
 21
119.4745413456
 31
0.0
  0
LINE
  5
18D
330
1F
100
AcDbEntity
  8
0
  6
HIDDEN
 62
     7
370
     0
100
AcDbLine
 10
193.3431244914
 20
98.3095026533
 30
0.0
 11
190.7894668605
 21
94.0595026533
 31
0.0
  0
LINE
  5
18E
330
1F
100
AcDbEntity
  8
0
  6
HIDDEN
 62
     7
370
     0
100
AcDbLine
 10
190.7894668605
 20
94.0595026533
 30
0.0
 11
193.3431244914
 21
89.8095026533
 31
0.0
  0
LINE
  5
18F
330
1F
100
AcDbEntity
  8
0
  6
HIDDEN
 62
     7
370
     0
100
AcDbLine
 10
210.3431244914
 20
98.3095026533
 30
0.0
 11
193.3431244914
 21
98.3095026533
 31
0.0
  0
LINE
  5
190
330
1F
100
AcDbEntity
  8
0
  6
HIDDEN
 62
     7
370
     0
100
AcDbLine
 10
193.3431244914
 20
89.8095026533
 30
0.0
 11
210.3431244914
 21
89.8095026533
 31
0.0
  0
LINE
  5
191
330
1F
100
AcDbEntity
  8
0
  6
HIDDEN
 62
     7
370
     0
100
AcDbLine
 10
149.4153222192
 20
119.4004632758
 30
0.0
 11
161.4879015203
 21
117.0165463117
 31
0.0
  0
LINE
  5
192
330
1F
100
AcDbEntity
  8
0
  6
HIDDEN
 62
     7
370
     0
100
AcDbLine
 10
161.4938533431
 20
120.3790935739
 30
0.0
 11
150.0546134857
 21
122.6379478976
 31
0.0
  0
LINE
  5
193
330
1F
100
AcDbEntity
  8
0
  6
HIDDEN
 62
     7
370
     0
100
AcDbLine
 10
148.3431244914
 20
119.1534958149
 30
0.0
 11
149.1863027764
 21
118.9869972592
 31
0.0
  0
LINE
  5
194
330
1F
100
AcDbEntity
  8
0
  6
HIDDEN
 62
     7
370
     0
100
AcDbLine
 10
149.9999462064
 20
123.1074322325
 30
0.0
 11
148.3431244914
 21
123.4345972313
 31
0.0
  0
LINE
  5
195
330
1F
100
AcDbEntity
  8
0
  6
HIDDEN
 62
     7
370
     0
100
AcDbLine
 10
148.7881244914
 20
103.7026925835
 30
0.0
 11
148.7881244914
 21
103.5486695545
 31
0.0
  0
LINE
  5
196
330
1F
100
AcDbEntity
  8
0
  6
HIDDEN
 62
     7
370
     0
100
AcDbLine
 10
149.0298127377
 20
102.3247173095
 30
0.0
 11
149.0883583378
 21
102.1822550121
 31
0.0
  0
LINE
  5
197
330
1F
100
AcDbEntity
  8
0
  6
HIDDEN
 62
     7
370
     0
100
AcDbLine
 10
150.1755737438
 20
101.148184426
 30
0.0
 11
151.9291309023
 21
101.49445133
 31
0.0
  0
LINE
  5
198
330
1F
100
AcDbEntity
  8
0
  6
HIDDEN
 62
     7
370
     0
100
AcDbLine
 10
151.1542323975
 20
105.418675114
 30
0.0
 11
149.400675239
 21
105.0724082101
 31
0.0
  0
LINE
  5
199
330
1F
100
AcDbEntity
  8
0
  6
HIDDEN
 62
     7
370
     0
100
AcDbLine
 10
152.3603704792
 20
101.8923617071
 30
0.0
 11
152.702881221
 21
102.607194829
 31
0.0
  0
LINE
  5
19A
330
1F
100
AcDbEntity
  8
0
  6
HIDDEN
 62
     7
370
     0
100
AcDbLine
 10
152.2928704634
 20
104.6835621942
 30
0.0
 11
151.704353267
 21
105.2145494914
 31
0.0
  0
LINE
  5
19B
330
1F
100
AcDbEntity
  8
0
  6
HIDDEN
 62
     7
370
     0
100
AcDbLine
 10
151.704353267
 20
118.9044558152
 30
0.0
 11
152.2928704634
 21
119.4354431125
 31
0.0
  0
LINE
  5
19C
330
1F
100
AcDbEntity
  8
0
  6
HIDDEN
 62
     7
370
     0
100
AcDbLine
 10
152.702881221
 20
121.5118104777
 30
0.0
 11
152.3603704792
 21
122.2266435995
 31
0.0
  0
LINE
  5
19D
330
1F
100
AcDbEntity
  8
0
  6
HIDDEN
 62
     7
370
     0
100
AcDbLine
 10
149.400675239
 20
119.0465970966
 30
0.0
 11
151.1542323975
 21
118.7003301926
 31
0.0
  0
LINE
  5
19E
330
1F
100
AcDbEntity
  8
0
  6
HIDDEN
 62
     7
370
     0
100
AcDbLine
 10
151.9291309023
 20
122.6245539766
 30
0.0
 11
150.1755737438
 21
122.9708208806
 31
0.0
  0
LINE
  5
19F
330
1F
100
AcDbEntity
  8
0
  6
HIDDEN
 62
     7
370
     0
100
AcDbLine
 10
149.0883583378
 20
121.9367502945
 30
0.0
 11
149.0298127377
 21
121.7942879971
 31
0.0
  0
LINE
  5
1A0
330
1F
100
AcDbEntity
  8
0
  6
HIDDEN
 62
     7
370
     0
100
AcDbLine
 10
148.7881244914
 20
120.5703357521
 30
0.0
 11
148.7881244914
 21
120.4163127231
 31
0.0
  0
LINE
  5
1A1
330
1F
100
AcDbEntity
  8
0
  6
HIDDEN
 62
     7
370
     0
100
AcDbLine
 10
160.4431244914
 20
121.0351643387
 30
0.0
 11
160.4431244914
 21
120.0114709856
 31
0.0
  0
LINE
  5
1A2
330
1F
100
AcDbEntity
  8
0
  6
HIDDEN
 62
     7
370
     0
100
AcDbLine
 10
165.4431244914
 20
120.0114709856
 30
0.0
 11
165.4431244914
 21
121.0351643387
 31
0.0
  0
DIMENSION
  5
1A3
330
1F
100
AcDbEntity
  8
VERMASSUNG
100
AcDbDimension
  2
_D
 10
73.3327269655
 20
143.5595026533
 30
0.0
 11
73.3327269655
 21
112.0595026533
 31
0.0
 70
   160
  1
MAS-BT 40 %%c<>
 71
     2
 42
-1.0
  3
SLDDIMSTYLE0
100
AcDbAlignedDimension
 13
172.3431244914
 23
80.5595026533
 33
0.0
 14
172.3431244914
 24
143.5595026533
 34
0.0
 50
90.0
100
AcDbRotatedDimension
  0
DIMENSION
  5
1B0
330
1F
100
AcDbEntity
  8
VERMASSUNG
100
AcDbDimension
  2
_D_1
 10
210.3431244914
 20
155.8561349918
 30
0.0
 11
145.6431244914
 21
155.8561349918
 31
0.0
 70
   160
  1
<>
 71
     2
 42
-1.0
  3
SLDDIMSTYLE0
100
AcDbAlignedDimension
 13
80.9431244914
 23
123.8822582503
 33
0.0
 14
210.3431244914
 24
142.9595026533
 34
0.0
100
AcDbRotatedDimension
  0
DIMENSION
  5
1BA
330
1F
100
AcDbEntity
  8
VERMASSUNG
100
AcDbDimension
  2
_D_2
 10
210.3431244914
 20
149.8561349918
 30
0.0
 11
178.3431244914
 21
149.8561349918
 31
0.0
 70
   160
  1
<>
 71
     2
 42
-1.0
  3
SLDDIMSTYLE0
100
AcDbAlignedDimension
 13
146.3431244914
 23
134.2845026533
 33
0.0
 14
210.3431244914
 24
142.9595026533
 34
0.0
100
AcDbRotatedDimension
  0
DIMENSION
  5
1C4
330
1F
100
AcDbEntity
  8
VERMASSUNG
100
AcDbDimension
  2
_D_3
 10
218.4719300734
 20
94.0595026533
 30
0.0
 11
218.4719300734
 21
112.0595026533
 31
0.0
 70
   160
  1
%%c<>
 71
     2
 42
-1.0
  3
SLDDIMSTYLE0
100
AcDbAlignedDimension
 13
209.3431244914
 23
130.0595026533
 33
0.0
 14
209.3431244914
 24
94.0595026533
 34
0.0
 50
90.0
100
AcDbRotatedDimension
  0
DIMENSION
  5
1CF
330
1F
100
AcDbEntity
  8
VERMASSUNG
100
AcDbDimension
  2
_D_4
 10
224.3719300734
 20
80.5595026533
 30
0.0
 11
224.3719300734
 21
112.0595026533
 31
0.0
 70
   160
  1
WH%%c<>
 71
     2
 42
-1.0
  3
SLDDIMSTYLE0
100
AcDbAlignedDimension
 13
209.7431244914
 23
143.5595026533
 33
0.0
 14
209.7431244914
 24
80.5595026533
 34
0.0
 50
90.0
100
AcDbRotatedDimension
  0
LINE
  5
1DB
330
1F
100
AcDbEntity
  8
VERMASSUNG
  6
CENTERX2
370
     0
100
AcDbLine
 10
78.8140104439
 20
112.0595026533
 30
0.0
 11
214.70357563
 21
112.0595026533
 31
0.0
  0
LINE
  5
1DC
330
1F
100
AcDbEntity
  8
0
  6
Continuous
 62
     7
370
    15
100
AcDbLine
 10
272.5612696913
 20
43.848532079
 30
0.0
 11
272.4728669816
 21
43.8995824659
 31
0.0
  0
LINE
  5
1DD
330
1F
100
AcDbEntity
  8
0
  6
Continuous
 62
     7
370
    15
100
AcDbLine
 10
267.5223152362
 20
43.8995824659
 30
0.0
 11
267.4339125264
 21
43.848532079
 31
0.0
  0
LINE
  5
1DE
330
1F
100
AcDbEntity
  8
0
  6
Continuous
 62
     7
370
    15
100
AcDbLine
 10
274.1545176492
 20
29.9589631499
 30
0.0
 11
277.4817489067
 21
30.6368616015
 31
0.0
  0
LINE
  5
1DF
330
1F
100
AcDbEntity
  8
0
  6
Continuous
 62
     7
370
    15
100
AcDbLine
 10
276.1689078393
 20
14.3122732096
 30
0.0
 11
276.3810053963
 21
14.4347543298
 31
0.0
  0
LINE
  5
1E0
330
1F
100
AcDbEntity
  8
0
  6
Continuous
 62
     7
370
    15
100
AcDbLine
 10
287.3040295784
 20
33.3560373459
 30
0.0
 11
287.3040295784
 21
33.6009597795
 31
0.0
  0
LINE
  5
1E1
330
1F
100
AcDbEntity
  8
0
  6
Continuous
 62
     7
370
    15
100
AcDbLine
 10
253.5230448632
 20
22.0578385342
 30
0.0
 11
268.2927377552
 21
13.5314763164
 31
0.0
  0
LINE
  5
1E2
330
1F
100
AcDbEntity
  8
0
  6
Continuous
 62
     7
370
    15
100
AcDbLine
 10
284.0414577942
 20
40.8120154814
 30
0.0
 11
269.2717649022
 21
49.3383776992
 31
0.0
  0
SPLINE
  5
1E3
330
1F
100
AcDbEntity
  8
0
  6
Continuous
 62
     7
370
    15
100
AcDbSpline
210
0.0
220
0.0
230
1.0
 70
     8
 71
     3
 72
    30
 73
    26
 74
     0
 42
0.000000001
 43
0.00000001
 40
0.0
 40
0.0
 40
0.0
 40
0.0
 40
0.0117879789459223
 40
0.060774279659391
 40
0.1093187994419641
 40
0.1569024524984937
 40
0.2036357165306794
 40
0.2498372051938174
 40
0.2957784874103958
 40
0.3416320853336923
 40
0.3874783293465351
 40
0.4333627803338165
 40
0.4793069038200556
 40
0.5253125576421022
 40
0.5713714701174344
 40
0.6174704679280367
 40
0.6635941704056701
 40
0.7097262598105831
 40
0.7558471043981397
 40
0.801937100229858
 40
0.8479793711554415
 40
0.8939577062223121
 40
0.9398580125986405
 40
0.9856713553619805
 40
1.0
 40
1.0
 40
1.0
 40
1.0
 10
271.4576262775562
 20
19.5111990282769
 30
0.0
 10
271.4195920459602
 20
19.53137329933344
 30
0.0
 10
271.223502195592
 20
19.63538407138681
 30
0.0
 10
270.923454227978
 20
19.91398983529012
 30
0.0
 10
270.5641213110326
 20
20.349515943113
 30
0.0
 10
270.2732223979311
 20
20.87576034759546
 30
0.0
 10
270.0489911786308
 20
21.4746869101511
 30
0.0
 10
269.8946365307688
 20
22.14148768941528
 30
0.0
 10
269.8113166808892
 20
22.86871252331972
 30
0.0
 10
269.8005149640545
 20
23.64887463953067
 30
0.0
 10
269.863049357609
 20
24.47315630164127
 30
0.0
 10
269.9989208555955
 20
25.33185134929752
 30
0.0
 10
270.2071603254469
 20
26.21463295181317
 30
0.0
 10
270.4857950922158
 20
27.11072287609177
 30
0.0
 10
270.8318423228226
 20
28.00906450345577
 30
0.0
 10
271.2413534330699
 20
28.89853453025319
 30
0.0
 10
271.7094765810705
 20
29.7681210370246
 30
0.0
 10
272.2305168706127
 20
30.60706587302135
 30
0.0
 10
272.7980046669535
 20
31.40500540723965
 30
0.0
 10
273.4047854249162
 20
32.15216445651193
 30
0.0
 10
274.0431016252887
 20
32.83938181053383
 30
0.0
 10
274.7047417473319
 20
33.45871558187146
 30
0.0
 10
275.3809115358349
 20
34.00181127660355
 30
0.0
 10
275.9073013696835
 20
34.3604254276413
 30
0.0
 10
276.2047822026252
 20
34.53573340266682
 30
0.0
 10
276.2756561016436
 20
34.57749999178181
 30
0.0
  0
SPLINE
  5
1E4
330
1F
100
AcDbEntity
  8
0
  6
Continuous
 62
     7
370
    15
100
AcDbSpline
210
0.0
220
0.0
230
1.0
 70
     8
 71
     3
 72
    15
 73
    11
 74
     0
 42
0.000000001
 43
0.00000001
 40
0.0
 40
0.0
 40
0.0
 40
0.0
 40
0.0733257345205312
 40
0.2131804423481576
 40
0.3529780279235946
 40
0.4929431191522963
 40
0.6335864628231701
 40
0.7757087489683185
 40
0.920294552873752
 40
0.9999999999999999
 40
0.9999999999999999
 40
0.9999999999999999
 40
0.9999999999999999
 10
276.2756561016435
 20
34.57749999178181
 30
0.0
 10
276.3938789380787
 20
34.64343930886821
 30
0.0
 10
276.7375890520202
 20
34.83514516598003
 30
0.0
 10
277.2999813297083
 20
35.08541829857838
 30
0.0
 10
277.9492319716113
 20
35.29587505244496
 30
0.0
 10
278.5707067528602
 20
35.41274633029109
 30
0.0
 10
279.1587832691279
 20
35.43952646012815
 30
0.0
 10
279.7060623795824
 20
35.37153726943261
 30
0.0
 10
280.1411937845456
 20
35.25146456709001
 30
0.0
 10
280.3733550264381
 20
35.11889749164633
 30
0.0
 10
280.4558571994177
 20
35.07178768253048
 30
0.0
  0
LINE
  5
1E5
330
1F
100
AcDbEntity
  8
0
  6
Continuous
 62
     7
370
    15
100
AcDbLine
 10
265.7185533267
 20
51.3896030802
 30
0.0
 11
262.6868330024
 21
53.1397779699
 31
0.0
  0
SPLINE
  5
1E6
330
1F
100
AcDbEntity
  8
0
  6
Continuous
 62
     7
370
    15
100
AcDbSpline
210
0.0
220
0.0
230
1.0
 70
     8
 71
     3
 72
    31
 73
    27
 74
     0
 42
0.000000001
 43
0.00000001
 40
0.0
 40
0.0
 40
0.0
 40
0.0
 40
0.0007709156204719
 40
0.0437816486372953
 40
0.0870314737305597
 40
0.1305651892470318
 40
0.174368052233411
 40
0.2183863534194074
 40
0.2625526524300271
 40
0.3068047599524232
 40
0.3510948341622856
 40
0.395386009228277
 40
0.4396600532256709
 40
0.4839099465168742
 40
0.528134077286431
 40
0.5723341319600698
 40
0.6165137102724622
 40
0.6606774708698198
 40
0.7048306333137556
 40
0.7489787059384543
 40
0.7931273484806828
 40
0.8372808816415833
 40
0.8814446194827086
 40
0.9256243688191457
 40
0.9698258482722049
 40
1.0
 40
1.0
 40
1.0
 40
1.0
 10
261.1083910362394
 20
53.75698835147956
 30
0.0
 10
261.1038730364615
 20
53.7583473637367
 30
0.0
 10
260.8472879140897
 20
53.83552805064402
 30
0.0
 10
260.2997800363227
 20
53.89864095851439
 30
0.0
 10
259.4689886749412
 20
53.93761538478593
 30
0.0
 10
258.6008382884494
 20
53.86530119574279
 30
0.0
 10
257.7072953435953
 20
53.69676242461394
 30
0.0
 10
256.792874722924
 20
53.42867067922337
 30
0.0
 10
255.8647455251262
 20
53.06389232070651
 30
0.0
 10
254.9296246179514
 20
52.60484523395902
 30
0.0
 10
253.9943454352529
 20
52.05516015221032
 30
0.0
 10
253.0655065984652
 20
51.41903892260634
 30
0.0
 10
252.1494843071499
 20
50.70125499981054
 30
0.0
 10
251.2523993500704
 20
49.90700993527253
 30
0.0
 10
250.3801766406405
 20
49.04192506290948
 30
0.0
 10
249.5385596875477
 20
48.11202627879173
 30
0.0
 10
248.7330940448298
 20
47.12371829319199
 30
0.0
 10
247.9691044566644
 20
46.08375450188547
 30
0.0
 10
247.2516581615566
 20
44.99919974442536
 30
0.0
 10
246.5855606152573
 20
43.87739478492697
 30
0.0
 10
245.9752306562016
 20
42.72590197700094
 30
0.0
 10
245.4250400800352
 20
41.55252722692675
 30
0.0
 10
244.9378824539566
 20
40.36497057802237
 30
0.0
 10
244.5203834683978
 20
39.1718502774314
 30
0.0
 10
244.2011813588508
 20
38.10504968479818
 30
0.0
 10
244.0521526751467
 20
37.44426433596673
 30
0.0
 10
243.9916918220086
 20
37.17618409169074
 30
0.0
  0
LINE
  5
1E7
330
1F
100
AcDbEntity
  8
0
  6
Continuous
 62
     7
370
    15
100
AcDbLine
 10
253.6812608771
 20
51.8256176063
 30
0.0
 11
233.7873353249
 21
58.9945998073
 31
0.0
  0
LINE
  5
1E8
330
1F
100
AcDbEntity
  8
0
  6
Continuous
 62
     7
370
    15
100
AcDbLine
 10
227.4158659136
 20
47.9576951963
 30
0.0
 11
246.4437399999
 21
31.8907156189
 31
0.0
  0
LINE
  5
1E9
330
1F
100
AcDbEntity
  8
0
  6
Continuous
 62
     7
370
    15
100
AcDbLine
 10
246.9381129634
 20
25.8592388049
 30
0.0
 11
249.9698332877
 21
24.1090639152
 31
0.0
  0
SPLINE
  5
1EA
330
1F
100
AcDbEntity
  8
0
  6
Continuous
 62
     7
370
    15
100
AcDbSpline
210
0.0
220
0.0
230
1.0
 70
     8
 71
     3
 72
    12
 73
     8
 74
     0
 42
0.000000001
 43
0.00000001
 40
0.0
 40
0.0
 40
0.0
 40
0.0
 40
0.0855859195517083
 40
0.3385475334971267
 40
0.5907932072853288
 40
0.841647021635601
 40
1.0
 40
1.0
 40
1.0
 40
1.0
 10
243.9749598010814
 20
29.92605474670328
 30
0.0
 10
244.0045767184524
 20
29.82454986008153
 30
0.0
 10
244.1217307360556
 20
29.42303254060073
 30
0.0
 10
244.3812874308239
 20
28.76820744448013
 30
0.0
 10
244.7842368688734
 20
27.99893379819266
 30
0.0
 10
245.1939011816068
 20
27.38332521477847
 30
0.0
 10
245.4957650264205
 20
27.0609517392597
 30
0.0
 10
245.612578920368
 20
26.93620112196075
 30
0.0
  0
SPLINE
  5
1EB
330
1F
100
AcDbEntity
  8
0
  6
Continuous
 62
     7
370
    15
100
AcDbSpline
210
0.0
220
0.0
230
1.0
 70
     8
 71
     3
 72
    25
 73
    21
 74
     0
 42
0.000000001
 43
0.00000001
 40
0.0
 40
0.0
 40
0.0
 40
0.0
 40
0.0232694003468894
 40
0.0791626131868768
 40
0.1359281871575532
 40
0.1938965877875053
 40
0.2529220544769632
 40
0.3125970828144644
 40
0.372528602125981
 40
0.4324312719595857
 40
0.4922296949128786
 40
0.5519216127986452
 40
0.6115361053019694
 40
0.6711151859183896
 40
0.7307060103901474
 40
0.7903441038850836
 40
0.8500777422480434
 40
0.909956688946914
 40
0.9700237435933985
 40
1.0
 40
1.0
 40
1.0
 40
1.0
 10
233.6870481352701
 20
59.01492914452406
 30
0.0
 10
233.6192010734165
 20
59.03964225614065
 30
0.0
 10
233.3883850389115
 20
59.12371638209078
 30
0.0
 10
232.9532728998653
 20
59.16344930745876
 30
0.0
 10
232.3940340559344
 20
59.13663935850335
 30
0.0
 10
231.8084050699889
 20
59.00506534726091
 30
0.0
 10
231.2074641234917
 20
58.77688402251601
 30
0.0
 10
230.6008339005101
 20
58.45289208502003
 30
0.0
 10
230.0004226725912
 20
58.03979470711992
 30
0.0
 10
229.4172194265373
 20
57.54576514605522
 30
0.0
 10
228.8611379180734
 20
56.98035621301835
 30
0.0
 10
228.3409400081457
 20
56.35356632210697
 30
0.0
 10
227.8647162437693
 20
55.67600096672075
 30
0.0
 10
227.4399429201767
 20
54.958811282616
 30
0.0
 10
227.0734261071648
 20
54.21362724468302
 30
0.0
 10
226.771341103973
 20
53.45243956935226
 30
0.0
 10
226.5385913430776
 20
52.68709055843018
 30
0.0
 10
226.3809594262211
 20
51.93016199613717
 30
0.0
 10
226.3111844340465
 20
51.31498392257583
 30
0.0
 10
226.3050435026423
 20
50.96083586360682
 30
0.0
 10
226.3029991294158
 20
50.84293667823261
 30
0.0
  0
SPLINE
  5
1EC
330
1F
100
AcDbEntity
  8
0
  6
Continuous
 62
     7
370
    15
100
AcDbSpline
210
0.0
220
0.0
230
1.0
 70
     8
 71
     3
 72
    13
 73
     9
 74
     0
 42
0.000000001
 43
0.00000001
 40
0.0
 40
0.0
 40
0.0
 40
0.0
 40
0.1063462785138259
 40
0.3074822728864909
 40
0.5086431010355922
 40
0.7081406220428126
 40
0.9041612869134139
 40
1.0
 40
1.0
 40
1.0
 40
1.0
 10
226.3029991294158
 20
50.84293667823262
 30
0.0
 10
226.3053037742441
 20
50.71949421132867
 30
0.0
 10
226.3119672648704
 20
50.36258120200875
 30
0.0
 10
226.3868312886617
 20
49.80522672045124
 30
0.0
 10
226.5544671761162
 20
49.19681092866413
 30
0.0
 10
226.8099390933181
 20
48.66256270090128
 30
0.0
 10
227.0767817252747
 20
48.2689007011414
 30
0.0
 10
227.2831743685352
 20
48.09157286784509
 30
0.0
 10
227.3509481212892
 20
48.03334321130122
 30
0.0
  0
ARC
  5
1ED
330
1F
100
AcDbEntity
  8
0
  6
Continuous
 62
     7
370
    15
100
AcDbCircle
 10
268.9850358082
 20
43.4889611799
 30
0.0
 40
2.851392975424089
100
AcDbArc
 50
218.2695736364
 51
249.0138944636
  0
LWPOLYLINE
  5
1EE
330
1F
100
AcDbEntity
  8
0
  6
Continuous
 62
     7
370
    15
100
AcDbPolyline
 90
       25
 70
   128
 43
0.0
 10
272.6547786935
 20
41.156030162
 10
272.7455888082
 20
41.2197690981
 10
273.1061507315
 20
41.5426076789
 10
273.3543612108
 20
41.8990044078
 10
273.4812492726
 20
42.2760781786
 10
273.4822288518
 20
42.6602005626
 10
273.3572645439
 20
43.0374883762
 10
273.1108728845
 20
43.3943054547
 10
272.7519591101
 20
43.7177554991
 10
272.2934952997
 20
43.9961481823
 10
271.7520515299
 20
44.2194216672
 10
271.1471969894
 20
44.3795062684
 10
270.500792697
 20
44.4706161113
 10
269.8362013881
 20
44.4894582488
 10
269.1774431243
 20
44.4353516769
 10
268.5483271455
 20
44.3102519481
 10
267.9715913424
 20
44.1186804926
 10
267.4680804495
 20
43.8675612019
 10
267.0559926624
 20
43.5659701815
 10
266.7502219074
 20
43.2248077166
 10
266.5618195363
 20
42.8564043076
 10
266.4975949017
 20
42.4740750135
 10
266.5598692491
 20
42.0916382113
 10
266.7463918215
 20
41.7229161633
 10
266.7463918215
 20
41.7229161633
  0
LWPOLYLINE
  5
1EF
330
1F
100
AcDbEntity
  8
0
  6
Continuous
 62
     7
370
    15
100
AcDbPolyline
 90
       28
 70
   128
 43
0.0
 10
267.8146430159
 20
41.9687481457
 10
268.0741652147
 20
41.6916695083
 10
268.4373798013
 20
41.4566101952
 10
268.8847057834
 20
41.2762423147
 10
269.3920277014
 20
41.1602895459
 10
269.9319956994
 20
41.1150029327
 10
270.475499963
 20
41.1428238881
 10
270.9932400365
 20
41.2422525771
 10
271.4573044186
 20
41.4079287735
 10
271.8426752784
 20
41.6309208305
 10
272.128577173
 20
41.8992071887
 10
272.2995970573
 20
42.198324461
 10
272.3465152051
 20
42.512147158
 10
272.2668022468
 20
42.8237570167
 10
272.0647555287
 20
43.116355069
 10
271.7512674417
 20
43.3741672781
 10
271.3432382097
 20
43.5832949213
 10
270.8626647942
 20
43.732463873
 10
270.3354550323
 20
43.8136323965
 10
269.7900309389
 20
43.8224246757
 10
269.255796468
 20
43.7583667165
 10
268.7615523382
 20
43.6249119
 10
268.3339433784
 20
43.4292548101
 10
267.9960220984
 20
43.181943371
 10
267.7660059219
 20
42.8963102065
 10
267.6562950804
 20
42.5877538743
 10
267.6728041138
 20
42.2729087262
 10
267.8146430159
 20
41.9687481457
  0
SPLINE
  5
1F0
330
1F
100
AcDbEntity
  8
0
  6
Continuous
 62
     7
370
    15
100
AcDbSpline
210
0.0
220
0.0
230
1.0
 70
     8
 71
     3
 72
    14
 73
    10
 74
     0
 42
0.000000001
 43
0.00000001
 40
0.0
 40
0.0
 40
0.0
 40
0.0
 40
0.1540314877906259
 40
0.3731969538455452
 40
0.483836763293415
 40
0.6121163697965177
 40
0.7410508382760076
 40
0.8702672919440748
 40
1.0
 40
1.0
 40
1.0
 40
1.0
 10
271.5975235843154
 20
41.49497775334875
 30
0.0
 10
271.6343732908235
 20
41.52335043596837
 30
0.0
 10
271.7236550241641
 20
41.59209351491898
 30
0.0
 10
271.8378263259382
 20
41.70419152030429
 30
0.0
 10
271.9438527948591
 20
41.81788691898809
 30
0.0
 10
272.0276921555183
 20
41.91457722531245
 30
0.0
 10
272.1141546404868
 20
42.02088740979856
 30
0.0
 10
272.199455532367
 20
42.13143719796302
 30
0.0
 10
272.2551145124204
 20
42.20794469446878
 30
0.0
 10
272.2829994847521
 20
42.24627470736472
 30
0.0
  0
SPLINE
  5
1F1
330
1F
100
AcDbEntity
  8
0
  6
Continuous
 62
     7
370
    15
100
AcDbSpline
210
0.0
220
0.0
230
1.0
 70
     8
 71
     3
 72
    11
 73
     7
 74
     0
 42
0.000000001
 43
0.00000001
 40
0.0
 40
0.0
 40
0.0
 40
0.0
 40
0.1845133558519209
 40
0.5180565039163927
 40
0.867612283048502
 40
1.0
 40
1.0
 40
1.0
 40
1.0
 10
272.2829994847521
 20
42.24627470736472
 30
0.0
 10
272.2333359862976
 20
42.2673492341681
 30
0.0
 10
272.093896224537
 20
42.32651999515202
 30
0.0
 10
271.8339842465197
 20
42.59688048824869
 30
0.0
 10
271.5924746329404
 20
43.0744602163938
 30
0.0
 10
271.4633178503776
 20
43.3962879751553
 30
0.0
 10
271.4278390614506
 20
43.48469261715228
 30
0.0
  0
SPLINE
  5
1F2
330
1F
100
AcDbEntity
  8
0
  6
Continuous
 62
     7
370
    15
100
AcDbSpline
210
0.0
220
0.0
230
1.0
 70
     8
 71
     3
 72
    11
 73
     7
 74
     0
 42
0.000000001
 43
0.00000001
 40
0.0
 40
0.0
 40
0.0
 40
0.0
 40
0.2164567244934141
 40
0.4403141600939137
 40
0.751902844479863
 40
1.0
 40
1.0
 40
1.0
 40
1.0
 10
271.4278390614506
 20
43.48469261715228
 30
0.0
 10
271.2712853805761
 20
43.43867306124658
 30
0.0
 10
270.9528254081951
 20
43.34506052897742
 30
0.0
 10
270.361850457187
 20
43.29433833709872
 30
0.0
 10
269.7279276603337
 20
43.40797176496416
 30
0.0
 10
269.3222563749268
 20
43.5939343308497
 30
0.0
 10
269.1424306855678
 20
43.67636768960176
 30
0.0
  0
SPLINE
  5
1F3
330
1F
100
AcDbEntity
  8
0
  6
Continuous
 62
     7
370
    15
100
AcDbSpline
210
0.0
220
0.0
230
1.0
 70
     8
 71
     3
 72
    18
 73
    14
 74
     0
 42
0.000000001
 43
0.00000001
 40
0.0
 40
0.0
 40
0.0
 40
0.0
 40
0.216538659455741
 40
0.3272843284064307
 40
0.4397251388026092
 40
0.4906042423424277
 40
0.5937528941117078
 40
0.6989995256476028
 40
0.752130465789622
 40
0.8137323080972902
 40
0.8756486252096637
 40
0.9377003559516336
 40
1.0
 40
1.0
 40
1.0
 40
1.0
 10
269.1424306855678
 20
43.67636768960176
 30
0.0
 10
269.0442089603039
 20
43.54498808346954
 30
0.0
 10
268.8957531073459
 20
43.34641621520658
 30
0.0
 10
268.6832797161025
 20
43.1179243702078
 30
0.0
 10
268.5478120533789
 20
42.99349872879649
 30
0.0
 10
268.4151882430187
 20
42.88912961079021
 30
0.0
 10
268.285912550898
 20
42.80327126484566
 30
0.0
 10
268.1573500435052
 20
42.73887604453454
 30
0.0
 10
268.0513307342558
 20
42.69771536753816
 30
0.0
 10
267.9674896872079
 20
42.67160871187329
 30
0.0
 10
267.8810276777012
 20
42.65138423218321
 30
0.0
 10
267.795726660119
 20
42.63707129096161
 30
0.0
 10
267.7400676968893
 20
42.63211029532847
 30
0.0
 10
267.7121827329864
 20
42.62962485226367
 30
0.0
  0
SPLINE
  5
1F4
330
1F
100
AcDbEntity
  8
0
  6
Continuous
 62
     7
370
    15
100
AcDbSpline
210
0.0
220
0.0
230
1.0
 70
     8
 71
     3
 72
    11
 73
     7
 74
     0
 42
0.000000001
 43
0.00000001
 40
0.0
 40
0.0
 40
0.0
 40
0.0
 40
0.1528044966019086
 40
0.5562686252577409
 40
0.941250661421119
 40
1.0
 40
1.0
 40
1.0
 40
1.0
 10
267.7121827329864
 20
42.62962485226367
 30
0.0
 10
267.7476746922227
 20
42.54113472526265
 30
0.0
 10
267.8768794199055
 20
42.21899576737593
 30
0.0
 10
268.1175841581838
 20
41.74664027247353
 30
0.0
 10
268.3398616210497
 20
41.50238755391285
 30
0.0
 10
268.4441924773752
 20
41.45293150108183
 30
0.0
 10
268.4580057192404
 20
41.44638359719689
 30
0.0
  0
LINE
  5
1F5
330
1F
100
AcDbEntity
  8
0
  6
Continuous
 62
     7
370
    15
100
AcDbLine
 10
271.4278390615
 20
41.3946653878
 30
0.0
 11
271.4278390615
 21
43.4846926172
 31
0.0
  0
LINE
  5
1F6
330
1F
100
AcDbEntity
  8
0
  6
Continuous
 62
     7
370
    15
100
AcDbLine
 10
269.1424306856
 20
41.2074862715
 30
0.0
 11
269.1424306856
 21
43.6763676896
 31
0.0
  0
LWPOLYLINE
  5
1F7
330
1F
100
AcDbEntity
  8
0
  6
Continuous
 62
     7
370
    15
100
AcDbPolyline
 90
        8
 70
   128
 43
0.0
 10
274.5891733782
 20
30.1705190272
 10
274.4995117484
 20
30.1020989025
 10
274.188432479
 20
29.9664717775
 10
273.827398521
 20
29.9412575932
 10
273.4321887908
 20
30.0275583304
 10
273.0200758499
 20
30.2216022328
 10
272.6090710114
 20
30.5149086508
 10
272.3553007579
 20
30.7485899735
  0
LWPOLYLINE
  5
1F8
330
1F
100
AcDbEntity
  8
0
  6
Continuous
 62
     7
370
    15
100
AcDbPolyline
 90
        8
 70
   128
 43
0.0
 10
278.6895149792
 20
34.4698777227
 10
278.8115234386
 20
34.1115752538
 10
278.9660538764
 20
33.4817250816
 10
279.0369373442
 20
32.8773900082
 10
279.0220200837
 20
32.3169324489
 10
278.9217553483
 20
31.817381623
 10
278.7391896313
 20
31.3939161296
 10
278.6895149792
 20
31.3138514663
  0
LWPOLYLINE
  5
1F9
330
1F
100
AcDbEntity
  8
0
  6
Continuous
 62
     7
370
    15
100
AcDbPolyline
 90
       72
 70
   128
 43
0.0
 10
276.3792298091
 20
39.6648402257
 10
275.4136948628
 20
39.0580818522
 10
274.4557165365
 20
38.3573383586
 10
273.5127923096
 20
37.568094013
 10
272.5923018426
 20
36.6965257225
 10
271.7014492215
 20
35.7494546906
 10
270.8472065758
 20
34.7342930323
 10
270.0362595125
 20
33.6589857639
 10
269.2749547919
 20
32.5319486228
 10
268.5692506556
 20
31.3620022026
 10
267.9246701954
 20
30.1583029205
 10
267.3462581273
 20
28.9302713553
 10
266.8385413099
 20
27.687518519
 10
266.4054933158
 20
26.4397706377
 10
266.0505033326
 20
25.1967930301
 10
265.7763496384
 20
23.9683136814
 10
265.5851778573
 20
22.7639471081
 10
265.4784841679
 20
21.5931191116
 10
265.457103593
 20
20.4649930085
 10
265.5212034644
 20
19.388397915
 10
265.6702821138
 20
18.3717596474
 10
265.9031727987
 20
17.4230347787
 10
266.2180528337
 20
16.5496483673
 10
266.6124578555
 20
15.7584358459
 10
267.0833011101
 20
15.0555895254
 10
267.6268976107
 20
14.4466101311
 10
268.2389929776
 20
13.9362637525
 10
268.9147967346
 20
13.528544542
 10
269.6490198011
 20
13.2266434552
 10
270.4359158861
 20
13.0329232774
 10
271.2693264608
 20
12.9489001317
 10
272.1427289574
 20
12.9752316131
 10
273.0492878172
 20
13.1117116421
 10
273.9819079881
 20
13.3572720774
 10
274.9332904525
 20
13.7099910756
 10
275.895989353
 20
14.1671081324
 10
276.8624702652
 20
14.725045687
 10
277.8251691656
 20
15.3794371215
 10
278.7765516301
 20
16.1251609358
 10
279.7091718009
 20
16.9563808298
 10
280.6157306608
 20
17.866591381
 10
281.4891331574
 20
18.8486689576
 10
282.3225437321
 20
19.894927471
 10
283.109439817
 20
20.9971785299
 10
283.8436628835
 20
22.1467955251
 10
284.5194666406
 20
23.3347811451
 10
285.1315620075
 20
24.5518377915
 10
285.675158508
 20
25.788440346
 10
286.1460017627
 20
27.034910717
 10
286.5404067845
 20
28.2814935837
 10
286.8552868194
 20
29.5184327451
 10
287.0881775043
 20
30.7360474751
 10
287.2372561538
 20
31.9248082875
 10
287.3013560252
 20
33.0754115173
 10
287.2799754502
 20
34.178852134
 10
287.1732817608
 20
35.2264942188
 10
286.9821099798
 20
36.2101385519
 10
286.7079562855
 20
37.1220867828
 10
286.3529663024
 20
37.95520168
 10
285.9199183082
 20
38.7029629898
 10
285.4122014909
 20
39.3595184663
 10
284.8337894227
 20
39.9197296726
 10
284.1892089625
 20
40.3792121965
 10
283.4835048263
 20
40.7343699641
 10
282.7222001057
 20
40.9824233845
 10
281.9112530424
 20
41.1214311034
 10
281.0570103967
 20
41.1503051967
 10
280.1661577755
 20
41.0688196857
 10
279.2456673085
 20
40.8776123048
 10
278.3027430816
 20
40.5781795112
 10
277.3447647554
 20
40.1728647724
 10
276.3792298091
 20
39.6648402257
  0
LWPOLYLINE
  5
1FA
330
1F
100
AcDbEntity
  8
0
  6
Continuous
 62
     7
370
    15
100
AcDbPolyline
 90
       38
 70
   128
 43
0.0
 10
276.1670977747
 20
40.0322636861
 10
275.1964502114
 20
39.4229826222
 10
274.2331898622
 20
38.7204622493
 10
273.2846477199
 20
37.9300491716
 10
272.358042763
 20
37.0577589101
 10
271.4604270147
 20
36.1102301202
 10
270.5986318729
 20
35.0946740681
 10
269.7792161189
 20
34.0188197487
 10
269.0084160014
 20
32.8908550629
 10
268.2920977747
 20
31.7193645031
 10
267.6357130531
 20
30.5132638198
 10
267.0442573206
 20
29.2817321674
 10
266.5222319125
 20
28.0341422455
 10
266.0736097573
 20
26.7799889667
 10
265.7018051406
 20
25.5288171946
 10
265.4096477199
 20
24.2901491021
 10
265.1993609897
 20
23.0734117011
 10
265.0725453589
 20
21.887865098
 10
265.030165971
 20
20.7425320183
 10
265.0725453589
 20
19.6461291383
 10
265.1993609897
 20
18.6070007459
 10
265.4096477199
 20
17.6330552357
 10
265.7018051406
 20
16.731704921
 10
266.0736097573
 20
15.909809622
 10
266.5222319125
 20
15.1736244583
 10
267.0442573206
 20
14.5287522434
 10
267.6357130531
 20
13.9801008442
 10
268.2920977747
 20
13.5318458293
 10
269.0084160014
 20
13.1873986899
 10
269.7792161189
 20
12.9493808767
 10
270.5986318729
 20
12.819603849
 10
271.4604270147
 20
12.7990552884
 10
272.358042763
 20
12.8878915818
 10
273.2846477199
 20
13.0854366314
 10
274.2331898622
 20
13.3901870001
 10
275.1964502114
 20
13.7998233535
 10
276.1670977747
 20
14.3112281117
 10
276.1689078393
 20
14.3122732096
  0
LWPOLYLINE
  5
1FB
330
1F
100
AcDbEntity
  8
0
  6
Continuous
 62
     7
370
    15
100
AcDbPolyline
 90
       19
 70
   128
 43
0.0
 10
287.3040295784
 20
33.6009597795
 10
287.2616501906
 20
34.6973626595
 10
287.1348345598
 20
35.7364910519
 10
286.9245478295
 20
36.7104365621
 10
286.6323904088
 20
37.6117868768
 10
286.2605857921
 20
38.4336821757
 10
285.8119636369
 20
39.1698673394
 10
285.2899382288
 20
39.8147395544
 10
284.6984824963
 20
40.3633909535
 10
284.0420977747
 20
40.8116459684
 10
283.3257795481
 20
41.1560931079
 10
282.5549794306
 20
41.3941109211
 10
281.7355636766
 20
41.5238879487
 10
280.8737685347
 20
41.5444365093
 10
279.9761527864
 20
41.4556002159
 10
279.0495478295
 20
41.2580551663
 10
278.1010056872
 20
40.9533047977
 10
277.137745338
 20
40.5436684442
 10
276.1670977747
 20
40.0322636861
  0
ARC
  5
1FC
330
1F
100
AcDbEntity
  8
0
  6
Continuous
 62
     7
370
    15
100
AcDbCircle
 10
257.2847627791
 20
27.8053666683
 30
0.0
 40
6.869104842012691
100
AcDbArc
 50
188.2309578672
 51
236.7955268677
  0
SPLINE
  5
1FD
330
1F
100
AcDbEntity
  8
0
  6
Continuous
 62
     7
370
    15
100
AcDbSpline
210
0.0
220
0.0
230
1.0
 70
     8
 71
     3
 72
    29
 73
    25
 74
     0
 42
0.000000001
 43
0.00000001
 40
0.0
 40
0.0
 40
0.0
 40
0.0
 40
0.0226170105025813
 40
0.0451713142227494
 40
0.067687022847175
 40
0.0901883721233939
 40
0.1126996441656912
 40
0.1352450890154609
 40
0.1578488467174853
 40
0.1805348711543707
 40
0.2033268568163237
 40
0.2262481695770471
 40
0.249321782405382
 40
0.3751991801869415
 40
0.4999614246460882
 40
0.4999717960762048
 40
0.6247044141129467
 40
0.750955787939839
 40
0.793171387116697
 40
0.834908104501548
 40
0.8763104515880161
 40
0.9175264576289888
 40
0.9587061619389432
 40
1.0
 40
1.0
 40
1.0
 40
1.0
 10
250.4865777816053
 20
31.97621351026133
 30
0.0
 10
250.5049430067282
 20
31.92737362046093
 30
0.0
 10
250.5416225384772
 20
31.82982925187489
 30
0.0
 10
250.5933123671421
 20
31.68236664247269
 30
0.0
 10
250.6424937269646
 20
31.53442935295191
 30
0.0
 10
250.6889833968636
 20
31.38593748772063
 30
0.0
 10
250.7328934933226
 20
31.23694552158831
 30
0.0
 10
250.7742586847781
 20
31.08747373301018
 30
0.0
 10
250.813135971483
 20
30.93755362970142
 30
0.0
 10
250.8495778165056
 20
30.78721481972013
 30
0.0
 10
250.8836397975928
 20
30.63649236809506
 30
0.0
 10
250.9153768506905
 20
30.48541067135943
 30
0.0
 10
250.9885351225608
 20
30.10968946441207
 30
0.0
 10
251.0742116625909
 20
29.52091904269633
 30
0.0
 10
251.0999440244251
 20
29.01943543869793
 30
0.0
 10
251.1003811806476
 20
28.54898261343432
 30
0.0
 10
251.0749501239324
 20
28.10254008356191
 30
0.0
 10
250.9829828078963
 20
27.666513412068
 30
0.0
 10
250.8904289138531
 20
27.39832052945369
 30
0.0
 10
250.8268462899654
 20
27.25206941862379
 30
0.0
 10
250.7552007859298
 20
27.12114908677943
 30
0.0
 10
250.6749460116166
 20
27.00570275432725
 30
0.0
 10
250.586544352021
 20
26.90418074987794
 30
0.0
 10
250.5201876981088
 20
26.8491818729108
 30
0.0
 10
250.4869634562229
 20
26.82164437841585
 30
0.0
  0
LWPOLYLINE
  5
1FE
330
1F
100
AcDbEntity
  8
0
  6
Continuous
 62
     7
370
    15
100
AcDbPolyline
 90
       26
 70
   128
 43
0.0
 10
250.4863590404
 20
31.9763397868
 10
250.725748743
 20
33.2159165734
 10
251.0483380978
 20
34.474845321
 10
251.4516120947
 20
35.7433110174
 10
251.9324266805
 20
37.0114242976
 10
252.4870332705
 20
38.2692985438
 10
253.111107974
 20
39.5071269652
 10
253.7997853044
 20
40.7152590546
 10
254.5476961126
 20
41.884275827
 10
255.3490094461
 20
43.0050632528
 10
256.1974780094
 20
44.0688833141
 10
257.0864868695
 20
45.0674421285
 10
258.0091050283
 20
45.9929546115
 10
258.958139459
 20
46.8382051711
 10
259.9261911848
 20
47.5966039629
 10
260.9057129643
 20
48.2622382669
 10
261.8890681316
 20
48.8299185846
 10
262.8685901345
 20
49.2952190983
 10
263.8366423057
 20
49.6545121761
 10
264.7856774
 20
49.9049966538
 10
265.7082964355
 20
50.0447196744
 10
266.5973063786
 20
50.0725919122
 10
267.4457762227
 20
49.9883960663
 10
268.247091025
 20
49.7927885547
 10
268.9950034783
 20
49.4872943961
 10
269.2717649022
 20
49.3383776992
  0
SPLINE
  5
1FF
330
1F
100
AcDbEntity
  8
0
  6
Continuous
 62
     7
370
    15
100
AcDbSpline
210
0.0
220
0.0
230
1.0
 70
    11
 71
     3
 72
    92
 73
    88
 74
     0
 42
0.000000001
 43
0.00000001
 40
0.0
 40
0.0
 40
0.0
 40
0.0
 40
0.0312500000000006
 40
0.0312500000000006
 40
0.0625000000000012
 40
0.0625000000000012
 40
0.0937500000000019
 40
0.0937500000000019
 40
0.1093750000000021
 40
0.1093750000000021
 40
0.1250000000000024
 40
0.1250000000000024
 40
0.1406250000000027
 40
0.1406250000000027
 40
0.156250000000003
 40
0.156250000000003
 40
0.1875000000000036
 40
0.1875000000000036
 40
0.2187500000000042
 40
0.2187500000000042
 40
0.2500000000000048
 40
0.2500000000000048
 40
0.2812500000000054
 40
0.2812500000000054
 40
0.312500000000006
 40
0.312500000000006
 40
0.3281250000000062
 40
0.3281250000000062
 40
0.3437500000000063
 40
0.3437500000000063
 40
0.3750000000000069
 40
0.3750000000000069
 40
0.3906250000000071
 40
0.3906250000000071
 40
0.4062500000000072
 40
0.4062500000000072
 40
0.4375000000000071
 40
0.4375000000000071
 40
0.4531250000000071
 40
0.4531250000000071
 40
0.468750000000007
 40
0.468750000000007
 40
0.5000000000000069
 40
0.5000000000000069
 40
0.5156250000000068
 40
0.5156250000000068
 40
0.5312500000000067
 40
0.5312500000000067
 40
0.5625000000000064
 40
0.5625000000000064
 40
0.5781250000000063
 40
0.5781250000000063
 40
0.5937500000000062
 40
0.5937500000000062
 40
0.6250000000000059
 40
0.6250000000000059
 40
0.6406250000000058
 40
0.6406250000000058
 40
0.6562500000000057
 40
0.6562500000000057
 40
0.6718750000000056
 40
0.6718750000000056
 40
0.6875000000000054
 40
0.6875000000000054
 40
0.7031250000000053
 40
0.7031250000000053
 40
0.7187500000000051
 40
0.7187500000000051
 40
0.7500000000000046
 40
0.7500000000000046
 40
0.781250000000004
 40
0.781250000000004
 40
0.8125000000000033
 40
0.8125000000000033
 40
0.8281250000000032
 40
0.8281250000000032
 40
0.8437500000000031
 40
0.8437500000000031
 40
0.8750000000000024
 40
0.8750000000000024
 40
0.9062500000000019
 40
0.9062500000000019
 40
0.9375000000000013
 40
0.9375000000000013
 40
0.9687500000000007
 40
0.9687500000000007
 40
1.0
 40
1.0
 40
1.0
 40
1.0
 10
269.9530092391154
 20
46.00406851914786
 30
0.0
 10
269.6471180724227
 20
46.0584296297702
 30
0.0
 10
269.3420224834037
 20
46.09649295085154
 30
0.0
 10
268.7329092426602
 20
46.13453971464397
 30
0.0
 10
268.4261612068985
 20
46.13397476892976
 30
0.0
 10
267.8414300319713
 20
46.08726178673056
 30
0.0
 10
267.5604841512803
 20
46.04170286979429
 30
0.0
 10
267.157761029907
 20
45.93463167880971
 30
0.0
 10
267.026190737234
 20
45.89213173988926
 30
0.0
 10
266.7776955115877
 20
45.79600820102415
 30
0.0
 10
266.6597521707618
 20
45.74218124319068
 30
0.0
 10
266.4363645625265
 20
45.6230144525891
 30
0.0
 10
266.330919827298
 20
45.55767502848225
 30
0.0
 10
266.1328277036132
 20
45.41523536288772
 30
0.0
 10
266.0400658255931
 20
45.33783347595723
 30
0.0
 10
265.7887897738723
 20
45.09481347884373
 30
0.0
 10
265.6539820990632
 20
44.91657351416385
 30
0.0
 10
265.4466773256161
 20
44.53120663716876
 30
0.0
 10
265.3773008258684
 20
44.32952892447339
 30
0.0
 10
265.3010112548707
 20
43.91686142957887
 30
0.0
 10
265.294465791084
 20
43.70392739606022
 30
0.0
 10
265.3399088406773
 20
43.28669957453073
 30
0.0
 10
265.3912701703115
 20
43.08054641053996
 30
0.0
 10
265.5491761847041
 20
42.67613577108402
 30
0.0
 10
265.6540708551908
 20
42.48247491494549
 30
0.0
 10
265.8465389871329
 20
42.20781647100536
 30
0.0
 10
265.9166416293054
 20
42.11879744334986
 30
0.0
 10
266.0687593093405
 20
41.94609864374064
 30
0.0
 10
266.151193824268
 20
41.86205521685391
 30
0.0
 10
266.4133245700745
 20
41.62159714944613
 30
0.0
 10
266.6071983150813
 20
41.47689218995608
 30
0.0
 10
266.9256961320268
 20
41.28302197367918
 30
0.0
 10
267.03650586609
 20
41.22227709751922
 30
0.0
 10
267.2675949953986
 20
41.10867613426579
 30
0.0
 10
267.3884594973835
 20
41.05562085202651
 30
0.0
 10
267.7595511811512
 20
40.91096584403296
 30
0.0
 10
268.0190401631629
 20
40.83313192262968
 30
0.0
 10
268.4263923136422
 20
40.74276387556087
 30
0.0
 10
268.5652155760707
 20
40.71705821695446
 30
0.0
 10
268.8491916454123
 20
40.67447843463792
 30
0.0
 10
268.9950211205673
 20
40.65757699766061
 30
0.0
 10
269.4343186135631
 20
40.62092459136831
 30
0.0
 10
269.7312587001837
 20
40.61467450298998
 30
0.0
 10
270.1833740663999
 20
40.63085429937104
 30
0.0
 10
270.3352047442695
 20
40.64053496155785
 30
0.0
 10
270.6413354193555
 20
40.6685573083372
 30
0.0
 10
270.7963248780565
 20
40.68704089340532
 30
0.0
 10
271.2542403268462
 20
40.75416795088483
 30
0.0
 10
271.5532494478951
 20
40.81448129510192
 30
0.0
 10
271.9920753835588
 20
40.92733507139676
 30
0.0
 10
272.1367231660869
 20
40.96871703727301
 30
0.0
 10
272.4225253069442
 20
41.05931613523469
 30
0.0
 10
272.5624054703624
 20
41.10819380320769
 30
0.0
 10
272.9641622034525
 20
41.26213026108238
 30
0.0
 10
273.2119421649654
 20
41.37547541584018
 30
0.0
 10
273.5517967650268
 20
41.56168838107919
 30
0.0
 10
273.6596752136969
 20
41.6265816595811
 30
0.0
 10
273.8580412874474
 20
41.75793374305906
 30
0.0
 10
273.9494596564303
 20
41.8248724382258
 30
0.0
 10
274.1171894544833
 20
41.96134035982603
 30
0.0
 10
274.1935002083437
 20
42.03086937129446
 30
0.0
 10
274.3309382639654
 20
42.17277122175395
 30
0.0
 10
274.3911650433657
 20
42.24427341203744
 30
0.0
 10
274.4945224221813
 20
42.3872209698583
 30
0.0
 10
274.5378769971481
 20
42.45889929786259
 30
0.0
 10
274.6086289994464
 20
42.60304554892642
 30
0.0
 10
274.6360955023203
 20
42.67580722342162
 30
0.0
 10
274.694264526318
 20
42.89388197073104
 30
0.0
 10
274.7008470565946
 20
43.03720611661648
 30
0.0
 10
274.6559654749419
 20
43.32395358537676
 30
0.0
 10
274.6036035681792
 20
43.46792800389667
 30
0.0
 10
274.4470765982461
 20
43.74964819458943
 30
0.0
 10
274.3429098845719
 20
43.8886750868967
 30
0.0
 10
274.1485171301372
 20
44.09690379194475
 30
0.0
 10
274.0773567360997
 20
44.16613606830157
 30
0.0
 10
273.9249518129357
 20
44.3023154225213
 30
0.0
 10
273.843426618428
 20
44.36957505804086
 30
0.0
 10
273.5832501548347
 20
44.56925667932127
 30
0.0
 10
273.3891270519709
 20
44.69963619058511
 30
0.0
 10
272.9583128632476
 20
44.95561623018129
 30
0.0
 10
272.7267074977288
 20
45.07812905333022
 30
0.0
 10
272.2352402891865
 20
45.31047152354641
 30
0.0
 10
271.9749113157997
 20
45.42059432911741
 30
0.0
 10
271.4231760206628
 20
45.62619996649747
 30
0.0
 10
271.1395803729303
 20
45.71873599679132
 30
0.0
 10
270.5579422438992
 20
45.88035552037489
 30
0.0
 10
270.258900405808
 20
45.94970740852554
 30
0.0
 10
269.9530092391154
 20
46.00406851914786
 30
0.0
  0
LWPOLYLINE
  5
200
330
1F
100
AcDbEntity
  8
0
  6
Continuous
 62
     7
370
    15
100
AcDbPolyline
 90
       27
 70
   128
 43
0.0
 10
271.5178706884
 20
17.0981496937
 10
271.4742078078
 20
17.4881920387
 10
271.3457566938
 20
17.8051544515
 10
271.1399824583
 20
18.0306162286
 10
270.8688439519
 20
18.1514743512
 10
270.548098759
 20
18.1607049844
 10
270.1963874244
 20
18.0577716774
 10
269.8341501324
 20
17.8486565399
 10
269.4824387978
 20
17.5455125836
 10
269.1616936049
 20
17.1659574332
 10
268.8905550985
 20
16.7320494546
 10
268.684780863
 20
16.2690058022
 10
268.556329749
 20
15.80373689
 10
268.5126668684
 20
15.3632824561
 10
268.556329749
 20
14.9732401111
 10
268.684780863
 20
14.6562776983
 10
268.8905550985
 20
14.4308159212
 10
269.1616936049
 20
14.3099577986
 10
269.4824387978
 20
14.3007271654
 10
269.8341501324
 20
14.4036604723
 10
270.1963874244
 20
14.6127756099
 10
270.548098759
 20
14.9159195662
 10
270.8688439519
 20
15.2954747166
 10
271.1399824583
 20
15.7293826952
 10
271.3457566938
 20
16.1924263476
 10
271.4742078078
 20
16.6576952598
 10
271.5178706884
 20
17.0981496937
  0
LINE
  5
201
330
1F
100
AcDbEntity
  8
0
  6
Continuous
 62
     7
370
    15
100
AcDbLine
 10
271.4435562795
 20
19.5083434616
 30
0.0
 11
271.5260421216
 21
19.4589469486
 31
0.0
  0
LINE
  5
202
330
1F
100
AcDbEntity
  8
0
  6
Continuous
 62
     7
370
    15
100
AcDbLine
 10
280.5253107153
 20
35.0478264715
 30
0.0
 11
280.4547552949
 21
35.0872996787
 31
0.0
  0
LWPOLYLINE
  5
203
330
1F
100
AcDbEntity
  8
0
  6
Continuous
 62
     7
370
    15
100
AcDbPolyline
 90
        9
 70
   128
 43
0.0
 10
267.4343290271
 20
43.9508401602
 10
267.0069752635
 20
43.653743323
 10
266.6814633356
 20
43.3163730013
 10
266.4688781618
 20
42.950217937
 10
266.3764590752
 20
42.5677471016
 10
266.4073532969
 20
42.1819850806
 10
266.5605087614
 20
41.806068537
 10
266.8307099428
 20
41.4527988579
 10
267.138814908
 20
41.1843801952
  0
LWPOLYLINE
  5
204
330
1F
100
AcDbEntity
  8
0
  6
Continuous
 62
     7
370
    15
100
AcDbPolyline
 90
       18
 70
   128
 43
0.0
 10
272.5612696913
 20
40.9916012347
 10
272.9882069543
 20
41.2884575922
 10
273.3137188821
 20
41.6258279138
 10
273.5263040559
 20
41.9919829781
 10
273.6187231425
 20
42.3744538135
 10
273.5878289208
 20
42.7602158345
 10
273.4346734564
 20
43.1361323781
 10
273.164472275
 20
43.4894020573
 10
272.7864267537
 20
43.8079946967
 10
272.3134107794
 20
44.0810610063
 10
271.7615323437
 20
44.2993020404
 10
271.1495850049
 20
44.4552858622
 10
270.4984078956
 20
44.5437006298
 10
269.8301760713
 20
44.5615354844
 10
269.1676453653
 20
44.5081830814
 10
268.5333774662
 20
44.3854602728
 10
267.9489716066
 20
44.1975462367
 10
267.4343290271
 20
43.9508401602
  0
SPLINE
  5
205
330
1F
100
AcDbEntity
  8
0
  6
Continuous
 62
     7
370
    15
100
AcDbSpline
210
0.0
220
0.0
230
1.0
 70
     8
 71
     3
 72
     8
 73
     4
 74
     0
 42
0.000000001
 43
0.00000001
 40
0.0
 40
0.0
 40
0.0
 40
0.0
 40
1.0
 40
1.0
 40
1.0
 40
1.0
 10
249.7084226434302
 20
35.25511691376568
 30
0.0
 10
249.0153514083773
 20
35.13925529539096
 30
0.0
 10
248.3217306419811
 20
35.02449660223791
 30
0.0
 10
247.6277514811537
 20
34.91048505459975
 30
0.0
  0
SPLINE
  5
206
330
1F
100
AcDbEntity
  8
0
  6
Continuous
 62
     7
370
    15
100
AcDbSpline
210
0.0
220
0.0
230
1.0
 70
     8
 71
     3
 72
     8
 73
     4
 74
     0
 42
0.000000001
 43
0.00000001
 40
0.0
 40
0.0
 40
0.0
 40
0.0
 40
0.0012389803509652
 40
0.0012389803509652
 40
0.0012389803509652
 40
0.0012389803509652
 10
247.1540150670082
 20
35.18401917535374
 30
0.0
 10
247.3120884019892
 20
35.09274809490324
 30
0.0
 10
247.4700065809552
 20
35.001566567803
 30
0.0
 10
247.6277514811537
 20
34.91048505459975
 30
0.0
  0
LWPOLYLINE
  5
207
330
1F
100
AcDbEntity
  8
0
  6
Continuous
 62
     7
370
    15
100
AcDbPolyline
 90
       27
 70
   128
 43
0.0
 10
247.154015067
 20
35.1840191754
 10
247.4727866531
 20
36.4477648935
 10
247.8731599414
 20
37.7217512875
 10
248.3519848153
 20
38.9959546969
 10
248.9054939047
 20
40.2603497539
 10
249.5293322284
 20
41.5049882622
 10
250.2185914579
 20
42.720077469
 10
250.9678485365
 20
43.896057114
 10
251.7712083475
 20
45.0236746488
 10
252.6223500966
 20
46.094058036
 10
253.5145770435
 20
47.0987855531
 10
254.440869192
 20
48.029952055
 10
255.3939385222
 20
48.8802311708
 10
256.3662863329
 20
49.6429329474
 10
257.3502622409
 20
50.312056486
 10
258.3381243735
 20
50.8823371564
 10
259.3221002815
 20
51.3492880192
 10
260.2944480923
 20
51.7092351286
 10
261.2475174225
 20
51.959346439
 10
262.1738095709
 20
52.0976540873
 10
263.0660365179
 20
52.1230698759
 10
263.917178267
 20
52.0353938347
 10
264.720538078
 20
51.8353157944
 10
265.4697951566
 20
51.5244099587
 10
266.1590543861
 20
51.1051225192
 10
266.7828927097
 20
50.5807524081
 10
267.2921903253
 20
50.012400039
  0
LINE
  5
208
330
1F
100
AcDbEntity
  8
0
  6
Continuous
 62
     7
370
    15
100
AcDbLine
 10
244.1222947427
 20
36.9341940651
 30
0.0
 11
247.154015067
 21
35.1840191754
 31
0.0
  0
ARC
  5
209
330
1F
100
AcDbEntity
  8
0
  6
Continuous
 62
     7
370
    15
100
AcDbCircle
 10
260.0018242641
 20
48.4722366685
 30
0.0
 40
5.384720394337299
100
AcDbArc
 50
60.0902828064
 51
77.1577395833
  0
LINE
  5
20A
330
1F
100
AcDbEntity
  8
0
  6
Continuous
 62
     7
370
    15
100
AcDbLine
 10
250.1110180459
 20
35.193954523
 30
0.0
 11
250.101695395
 21
35.1993363749
 31
0.0
  0
SPLINE
  5
20B
330
1F
100
AcDbEntity
  8
0
  6
Continuous
 62
     7
370
    15
100
AcDbSpline
210
0.0
220
0.0
230
1.0
 70
     8
 71
     3
 72
    10
 73
     6
 74
     0
 42
0.000000001
 43
0.00000001
 40
0.0
 40
0.0
 40
0.0
 40
0.0
 40
0.2405691045052136
 40
0.7130190156981732
 40
1.0
 40
1.0
 40
1.0
 40
1.0
 10
251.0277491358217
 20
34.39210722129699
 30
0.0
 10
250.9620429107881
 20
34.47293382051389
 30
0.0
 10
250.7672972555013
 20
34.71249451694829
 30
0.0
 10
250.4545786306531
 20
34.97805470536132
 30
0.0
 10
250.2052403656913
 20
35.13474347681526
 30
0.0
 10
250.1110180458893
 20
35.19395452304429
 30
0.0
  0
SPLINE
  5
20C
330
1F
100
AcDbEntity
  8
0
  6
Continuous
 62
     7
370
    15
100
AcDbSpline
210
0.0
220
0.0
230
1.0
 70
     8
 71
     3
 72
    10
 73
     6
 74
     0
 42
0.000000001
 43
0.00000001
 40
0.0
 40
0.0
 40
0.0
 40
0.0
 40
0.5
 40
0.5
 40
1.0
 40
1.0
 40
1.0
 40
1.0
 10
250.1016953949821
 20
35.19933637485702
 30
0.0
 10
250.0518947961693
 20
35.22808564860614
 30
0.0
 10
249.9868628794254
 20
35.2488489939668
 30
0.0
 10
249.8498045190799
 20
35.26780268335458
 30
0.0
 10
249.7762656790302
 20
35.26645832212678
 30
0.0
 10
249.7084226434302
 20
35.25511691376568
 30
0.0
  0
SPLINE
  5
20D
330
1F
100
AcDbEntity
  8
0
  6
Continuous
 62
     7
370
    15
100
AcDbSpline
210
0.0
220
0.0
230
1.0
 70
     8
 71
     3
 72
     8
 73
     4
 74
     0
 42
0.000000001
 43
0.00000001
 40
0.0
 40
0.0
 40
0.0
 40
0.0
 40
1.0
 40
1.0
 40
1.0
 40
1.0
 10
243.9654701351098
 20
37.02471574426254
 30
0.0
 10
243.9878489316292
 20
37.0118037928107
 30
0.0
 10
244.0420363626465
 20
36.98052624165368
 30
0.0
 10
244.1222947426709
 20
36.93419406507368
 30
0.0
  0
LINE
  5
20E
330
1F
100
AcDbEntity
  8
0
  6
Continuous
 62
     7
370
    15
100
AcDbLine
 10
243.9654701351
 20
37.0247157443
 30
0.0
 11
243.9894684742
 21
37.1766258173
 31
0.0
  0
SPLINE
  5
20F
330
1F
100
AcDbEntity
  8
0
  6
Continuous
 62
     7
370
    15
100
AcDbSpline
210
0.0
220
0.0
230
1.0
 70
     8
 71
     3
 72
    11
 73
     7
 74
     0
 42
0.000000001
 43
0.00000001
 40
0.0
 40
0.0
 40
0.0
 40
0.0
 40
0.3095641458076239
 40
0.5897803711572325
 40
0.840990022424655
 40
1.0
 40
1.0
 40
1.0
 40
1.0
 10
250.5950031308891
 20
27.54777311717649
 30
0.0
 10
250.6859990938643
 20
27.6392473335872
 30
0.0
 10
250.8593642381942
 20
27.81352364444768
 30
0.0
 10
251.0096972218944
 20
28.2319894694387
 30
0.0
 10
251.0839779609958
 20
28.6451386976135
 30
0.0
 10
251.0915225929313
 20
28.94216994921338
 30
0.0
 10
251.0944470550257
 20
29.05730567002058
 30
0.0
  0
SPLINE
  5
210
330
1F
100
AcDbEntity
  8
0
  6
Continuous
 62
     7
370
    15
100
AcDbSpline
210
0.0
220
0.0
230
1.0
 70
     8
 71
     3
 72
     9
 73
     5
 74
     0
 42
0.000000001
 43
0.00000001
 40
0.0
 40
0.0
 40
0.0
 40
0.0
 40
0.506764932008893
 40
1.0
 40
1.0
 40
1.0
 40
1.0
 10
250.4862816664165
 20
26.82114235063221
 30
0.0
 10
250.5045505817775
 20
26.94359646936842
 30
0.0
 10
250.5406006598453
 20
27.18523536543564
 30
0.0
 10
250.5772815129285
 20
27.42738563582228
 30
0.0
 10
250.5953737959929
 20
27.5468226409005
 30
0.0
  0
SPLINE
  5
211
330
1F
100
AcDbEntity
  8
0
  6
Continuous
 62
     7
370
    15
100
AcDbSpline
210
0.0
220
0.0
230
1.0
 70
     8
 71
     3
 72
    10
 73
     6
 74
     0
 42
0.000000001
 43
0.00000001
 40
0.0
 40
0.0
 40
0.0
 40
0.0
 40
0.4807908150149239
 40
0.9757817590326512
 40
1.0
 40
1.0
 40
1.0
 40
1.0
 10
250.1110180458893
 20
28.620800987364
 30
0.0
 10
250.2608089927895
 20
28.54063061200197
 30
0.0
 10
250.5648149535709
 20
28.37792203386358
 30
0.0
 10
250.8544303977696
 20
28.26642060314209
 30
0.0
 10
250.9887688284483
 20
28.2381889856628
 30
0.0
 10
250.9950349743091
 20
28.23687213662625
 30
0.0
  0
LINE
  5
212
330
1F
100
AcDbEntity
  8
0
  6
Continuous
 62
     7
370
    15
100
AcDbLine
 10
244.3989033826
 20
36.7744593861
 30
0.0
 11
243.9654701351
 21
37.0247157443
 31
0.0
  0
LINE
  5
213
330
1F
100
AcDbEntity
  8
0
  6
Continuous
 62
     7
370
    15
100
AcDbLine
 10
247.6277514812
 20
34.9104850546
 30
0.0
 11
244.3989033826
 21
36.7744593861
 31
0.0
  0
SPLINE
  5
214
330
1F
100
AcDbEntity
  8
0
  6
Continuous
 62
     7
370
    15
100
AcDbSpline
210
0.0
220
0.0
230
1.0
 70
     8
 71
     3
 72
    11
 73
     7
 74
     0
 42
0.000000001
 43
0.00000001
 40
0.0
 40
0.0
 40
0.0
 40
0.0
 40
0.2159173943825851
 40
0.5239487086432763
 40
0.8320176005184987
 40
1.0
 40
1.0
 40
1.0
 40
1.0
 10
246.5039683039462
 20
32.76063344027781
 30
0.0
 10
246.499251782559
 20
32.96702444342789
 30
0.0
 10
246.4878065940083
 20
33.46785625406222
 30
0.0
 10
246.4225971379812
 20
34.28666331798389
 30
0.0
 10
246.3818359565012
 20
35.04986714085113
 30
0.0
 10
246.4033435042249
 20
35.48606415912402
 30
0.0
 10
246.4109327903779
 20
35.63998333360484
 30
0.0
  0
LINE
  5
215
330
1F
100
AcDbEntity
  8
0
  6
Continuous
 62
     7
370
    15
100
AcDbLine
 10
246.5039683039
 20
32.3402780849
 30
0.0
 11
246.5039683039
 21
32.7606334403
 31
0.0
  0
LINE
  5
216
330
1F
100
AcDbEntity
  8
0
  6
Continuous
 62
     7
370
    15
100
AcDbLine
 10
245.8940887052
 20
35.5756469
 30
0.0
 11
245.8992765999
 21
35.9083123642
 31
0.0
  0
ARC
  5
217
330
1F
100
AcDbEntity
  8
0
  6
Continuous
 62
     7
370
    15
100
AcDbCircle
 10
253.433614175
 20
35.3986271791
 30
0.0
 40
7.541603297120988
100
AcDbArc
 50
178.6550055644
 51
203.2406243607
  0
LWPOLYLINE
  5
218
330
1F
100
AcDbEntity
  8
0
  6
Continuous
 62
     7
370
    15
100
AcDbPolyline
 90
        3
 70
   128
 43
0.0
 10
233.7045331991
 20
59.0226051296
 10
233.7207948969
 20
59.0173901473
 10
233.7873353249
 20
58.9945998073
  0
LINE
  5
219
330
1F
100
AcDbEntity
  8
0
  6
Continuous
 62
     7
370
    15
100
AcDbLine
 10
227.4158659136
 20
47.9576951963
 30
0.0
 11
227.3518147006
 21
48.0139260239
 31
0.0
  0
LINE
  5
21A
330
1F
100
AcDbEntity
  8
0
  6
Continuous
 62
     7
370
    15
100
AcDbLine
 10
250.101695395
 20
28.6261828392
 30
0.0
 11
250.1110180459
 21
28.6208009874
 31
0.0
  0
ARC
  5
21B
330
1F
100
AcDbEntity
  8
0
  6
Continuous
 62
     7
370
    15
100
AcDbCircle
 10
252.9208451197
 20
29.2645583835
 30
0.0
 40
5.909903261159822
100
AcDbArc
 50
192.6330051264
 51
260.539101522
  0
SPLINE
  5
21C
330
1F
100
AcDbEntity
  8
0
  6
Continuous
 62
     7
370
    15
100
AcDbSpline
210
0.0
220
0.0
230
1.0
 70
     8
 71
     3
 72
     8
 73
     4
 74
     0
 42
0.000000001
 43
0.00000001
 40
0.0
 40
0.0
 40
0.0
 40
0.0
 40
0.0012389803509652
 40
0.0012389803509652
 40
0.0012389803509652
 40
0.0012389803509652
 10
247.6277514811537
 20
28.33733151891946
 30
0.0
 10
247.4700065809552
 20
28.21525506838474
 30
0.0
 10
247.3120884019892
 20
28.09349776538393
 30
0.0
 10
247.1540150670082
 20
27.97203074383949
 30
0.0
  0
SPLINE
  5
21D
330
1F
100
AcDbEntity
  8
0
  6
Continuous
 62
     7
370
    15
100
AcDbSpline
210
0.0
220
0.0
230
1.0
 70
     8
 71
     3
 72
     8
 73
     4
 74
     0
 42
0.000000001
 43
0.00000001
 40
0.0
 40
0.0
 40
0.0
 40
0.0
 40
1.0
 40
1.0
 40
1.0
 40
1.0
 10
247.6277514811537
 20
28.33733151891946
 30
0.0
 10
248.3217320640953
 20
28.45134330019207
 30
0.0
 10
249.0153651248573
 20
28.56610405271244
 30
0.0
 10
249.7084226434302
 20
28.68196337808539
 30
0.0
  0
SPLINE
  5
21E
330
1F
100
AcDbEntity
  8
0
  6
Continuous
 62
     7
370
    15
100
AcDbSpline
210
0.0
220
0.0
230
1.0
 70
     8
 71
     3
 72
    12
 73
     8
 74
     0
 42
0.000000001
 43
0.00000001
 40
0.0
 40
0.0
 40
0.0
 40
0.0
 40
0.25
 40
0.25
 40
0.5
 40
0.5
 40
1.0
 40
1.0
 40
1.0
 40
1.0
 10
249.7084226434302
 20
28.68196337808539
 30
0.0
 10
249.7422111593543
 20
28.68761184816964
 30
0.0
 10
249.7777829354232
 20
28.69087231168508
 30
0.0
 10
249.8483651818157
 20
28.6920099012332
 30
0.0
 10
249.8833881402646
 20
28.68999328477518
 30
0.0
 10
249.9875934355295
 20
28.67561754743559
 30
0.0
 10
250.0513038674692
 20
28.65527324880318
 30
0.0
 10
250.1016953949821
 20
28.62618283917674
 30
0.0
  0
LINE
  5
21F
330
1F
100
AcDbEntity
  8
0
  6
Continuous
 62
     7
370
    15
100
AcDbLine
 10
244.3989033826
 20
30.2013058504
 30
0.0
 11
247.6277514812
 21
28.3373315189
 31
0.0
  0
LINE
  5
220
330
1F
100
AcDbEntity
  8
0
  6
Continuous
 62
     7
370
    15
100
AcDbLine
 10
244.3989033826
 20
30.2013058504
 30
0.0
 11
246.2918362696
 21
31.2940727458
 31
0.0
  0
LINE
  5
221
330
1F
100
AcDbEntity
  8
0
  6
Continuous
 62
     7
370
    15
100
AcDbLine
 10
243.9654701351
 20
29.9510494922
 30
0.0
 11
244.3989033826
 21
30.2013058504
 31
0.0
  0
LINE
  5
222
330
1F
100
AcDbEntity
  8
0
  6
Continuous
 62
     7
370
    15
100
AcDbLine
 10
247.154015067
 20
27.9720307438
 30
0.0
 11
244.1222947427
 21
29.7222056336
 31
0.0
  0
SPLINE
  5
223
330
1F
100
AcDbEntity
  8
0
  6
Continuous
 62
     7
370
    15
100
AcDbSpline
210
0.0
220
0.0
230
1.0
 70
     8
 71
     3
 72
     8
 73
     4
 74
     0
 42
0.000000001
 43
0.00000001
 40
0.0
 40
0.0
 40
0.0
 40
0.0
 40
1.0
 40
1.0
 40
1.0
 40
1.0
 10
244.1222947426709
 20
29.72220563355943
 30
0.0
 10
244.0422699431553
 20
29.76840296698189
 30
0.0
 10
243.9877931457745
 20
29.85159048934501
 30
0.0
 10
243.9654701351098
 20
29.95104949218721
 30
0.0
  0
ARC
  5
224
330
1F
100
AcDbEntity
  8
0
  6
Continuous
 62
     7
370
    15
100
AcDbCircle
 10
249.6535157208
 20
30.538880161
 30
0.0
 40
5.41040251342007
100
AcDbArc
 50
222.7701087056
 51
239.8751754382
  0
ELLIPSE
  5
225
330
1F
100
AcDbEntity
  8
0
  6
Continuous
 62
     7
370
    15
100
AcDbEllipse
 10
246.0575216945
 20
32.0825723203
 30
0.0
 11
-6.005970382716441E-5
 21
0.8534489614827194
 31
0.0
210
0.0
220
0.0
230
1.0
 40
0.7174342186
 41
3.534193645557495
 42
5.104989972352381
  0
ELLIPSE
  5
226
330
1F
100
AcDbEntity
  8
0
  6
Continuous
 62
     7
370
    15
100
AcDbEllipse
 10
245.938282879
 20
32.0137148402
 30
0.0
 11
0.2600075789209484
 21
0.9705436209909308
 31
0.0
210
0.0
220
0.0
230
1.0
 40
0.5176380889
 41
3.619174351347765
 42
5.189970678142619
  0
LWPOLYLINE
  5
227
330
1F
100
AcDbEntity
  8
0
  6
Continuous
 62
     7
370
     0
100
AcDbPolyline
 90
        9
 70
   128
 43
0.0
 10
274.4836937834
 20
33.2333388801
 10
274.5334423594
 20
33.1415631921
 10
274.7723949235
 20
32.6134154645
 10
274.9358708381
 20
32.079996537
 10
275.016725421
 20
31.5646193764
 10
275.0114249392
 20
31.0898084377
 10
274.9202010491
 20
30.6763152372
 10
274.7470406723
 20
30.342211412
 10
274.5891733782
 20
30.1705190272
  0
LWPOLYLINE
  5
228
330
1F
100
AcDbEntity
  8
0
  6
Continuous
 62
     7
370
     0
100
AcDbPolyline
 90
       14
 70
   128
 43
0.0
 10
274.2661808038
 20
33.0248377403
 10
274.3755442195
 20
32.8050998779
 10
274.5762047115
 20
32.2829341441
 10
274.6935357061
 20
31.7674994571
 10
274.7216537374
 20
31.2846418645
 10
274.6591488499
 20
30.8585738623
 10
274.5091552996
 20
30.5106602791
 10
274.2791943895
 20
30.2583469548
 10
273.9807973198
 20
30.114285933
 10
273.6289269657
 20
30.0857010349
 10
273.2412275759
 20
30.1740256267
 10
272.8371400167
 20
30.3748307445
 10
272.4369269257
 20
30.6780471812
 10
272.3585536613
 20
30.7502720642
  0
LWPOLYLINE
  5
229
330
1F
100
AcDbEntity
  8
0
  6
Continuous
 62
     7
370
     0
100
AcDbPolyline
 90
       56
 70
   128
 43
0.0
 10
276.3792298091
 20
34.806422395
 10
275.6134908692
 20
34.3138076378
 10
274.8577345075
 20
33.7264887143
 10
274.1218131639
 20
33.0521222247
 10
273.4153206985
 20
32.2994995675
 10
272.7474673211
 20
31.4784323302
 10
272.1269595218
 20
30.5996243798
 10
271.5618865687
 20
29.6745323219
 10
271.0596150519
 20
28.7152161462
 10
270.6266928487
 20
27.7341820061
 10
270.2687637622
 20
26.744219182
 10
269.9904939454
 20
25.7582333532
 10
269.7955110709
 20
24.789078353
 10
269.6863570386
 20
23.8493885987
 10
269.6644548384
 20
22.9514143835
 10
269.7300899988
 20
22.1068621746
 10
269.8824068651
 20
21.3267420015
 10
270.1194197542
 20
20.6212239237
 10
270.4380388405
 20
19.9995054484
 10
270.8341104369
 20
19.4696916266
 10
271.3024711445
 20
19.0386893918
 10
271.8370151652
 20
18.7121175173
 10
272.4307739002
 20
18.4942333667
 10
273.0760067964
 20
18.3878773934
 10
273.7643022561
 20
18.39443611
 10
274.4866872956
 20
18.5138240135
 10
275.2337445209
 20
18.7444847003
 10
275.9957348988
 20
19.0834111553
 10
276.7627247193
 20
19.526184954
 10
277.5247150972
 20
20.0670338627
 10
278.2717723226
 20
20.6989070889
 10
278.994157362
 20
21.4135671986
 10
279.6824528218
 20
22.2016975044
 10
280.327685718
 20
23.0530235226
 10
280.921444453
 20
23.9564469164
 10
281.4559884737
 20
24.9001901804
 10
281.9243491813
 20
25.8719501779
 10
282.3204207777
 20
26.8590585311
 10
282.639039864
 20
27.8486467731
 10
282.876052753
 20
28.8278141078
 10
283.0283696194
 20
29.7837955915
 10
283.0940047798
 20
30.7041285436
 10
283.0721025795
 20
31.5768150166
 10
282.9629485473
 20
32.3904782077
 10
282.7679656727
 20
33.1345107729
 10
282.4896958559
 20
33.7992131099
 10
282.1317667694
 20
34.3759198072
 10
281.6988445663
 20
34.8571126109
 10
281.1965730495
 20
35.2365184371
 10
280.6315000964
 20
35.5091911505
 10
280.0109922971
 20
35.6715760453
 10
279.3431389196
 20
35.7215561861
 10
278.6366464543
 20
35.6584800053
 10
277.9007251106
 20
35.4831697974
 10
277.1449687489
 20
35.1979109991
 10
276.3792298091
 20
34.806422395
  0
LWPOLYLINE
  5
22A
330
1F
100
AcDbEntity
  8
0
  6
Continuous
 62
     7
370
     0
100
AcDbPolyline
 90
       29
 70
   128
 43
0.0
 10
271.5260421216
 20
19.4589469486
 10
271.9350011194
 20
19.2623311621
 10
272.528622696
 20
19.0946915049
 10
273.1695359251
 20
19.0373842043
 10
273.8490735547
 20
19.0911842432
 10
274.558046004
 20
19.2553640683
 10
275.2868656371
 20
19.5277034291
 10
276.0256764185
 20
19.9045194031
 10
276.7644871999
 20
20.3807162005
 10
277.4933068329
 20
20.9498540766
 10
278.2022792823
 20
21.6042364179
 10
278.8818169119
 20
22.335013826
 10
279.5227301409
 20
23.1323037899
 10
280.1163517175
 20
23.9853243306
 10
280.6546539282
 20
24.8825398087
 10
281.130357159
 20
25.811816924
 10
281.5370283397
 20
26.7605887977
 10
281.8691679404
 20
27.7160249177
 10
282.1222843427
 20
28.6652046497
 10
282.2929545814
 20
29.5952919659
 10
282.3788706343
 20
30.4937090311
 10
282.3788706343
 20
31.3483062956
 10
282.2929545814
 20
32.1475267975
 10
282.1222843427
 20
32.8805624505
 10
281.8691679404
 20
33.5375002049
 10
281.5370283397
 20
34.1094561047
 10
281.130357159
 20
34.5886954273
 10
280.6546539282
 20
34.9687372832
 10
280.5253107153
 20
35.0478264715
  0
LWPOLYLINE
  5
22B
330
1F
100
AcDbEntity
  8
0
  6
Continuous
 62
     7
370
     0
100
AcDbPolyline
 90
       20
 70
   128
 43
0.0
 10
249.7084226434
 20
35.2551169138
 10
250.028401272
 20
36.4438493876
 10
250.4314580773
 20
37.6398263953
 10
250.9137682586
 20
38.8316987331
 10
251.4707549415
 20
40.0081561487
 10
252.0971326103
 20
41.1580346692
 10
252.7869572647
 20
42.2704225419
 10
253.5336828252
 20
43.3347637807
 10
254.3302232524
 20
44.3409583376
 10
255.1690197891
 20
45.2794579461
 10
256.0421126899
 20
46.1413567302
 10
256.9412167544
 20
46.9184757158
 10
257.8577999498
 20
47.6034404455
 10
258.7831643753
 20
48.1897509579
 10
259.7085288008
 20
48.6718434695
 10
260.6251119961
 20
49.0451431714
 10
261.5242160607
 20
49.3061076425
 10
262.3973089615
 20
49.4522604647
 10
263.2361054982
 20
49.4822147234
 10
263.3276697634
 20
49.4783049968
  0
LWPOLYLINE
  5
22C
330
1F
100
AcDbEntity
  8
0
  6
Continuous
 62
     7
370
     0
100
AcDbPolyline
 90
       23
 70
   128
 43
0.0
 10
244.1222947427
 20
36.9341940651
 10
244.4410663287
 20
38.1979397832
 10
244.8414396171
 20
39.4719261772
 10
245.3202644909
 20
40.7461295867
 10
245.8737735804
 20
42.0105246436
 10
246.4976119041
 20
43.2551631519
 10
247.1868711335
 20
44.4702523587
 10
247.9361282122
 20
45.6462320037
 10
248.7394880231
 20
46.7738495386
 10
249.5906297722
 20
47.8442329257
 10
250.4828567192
 20
48.8489604428
 10
251.4091488676
 20
49.7801269447
 10
252.3622181979
 20
50.6304060605
 10
253.3345660086
 20
51.3931078372
 10
254.3185419166
 20
52.0622313757
 10
255.3064040492
 20
52.6325120461
 10
256.2903799572
 20
53.0994629089
 10
257.2627277679
 20
53.4594100183
 10
258.2157970981
 20
53.7095213287
 10
259.1420892466
 20
53.847828977
 10
260.0343161936
 20
53.8732447656
 10
260.8854579426
 20
53.7855687244
 10
261.1986736343
 20
53.722261936
  0
LWPOLYLINE
  5
22D
330
1F
100
AcDbEntity
  8
0
  6
Continuous
 62
     7
370
     0
100
AcDbPolyline
 90
       18
 70
   128
 43
0.0
 10
250.101695395
 20
35.1993363749
 10
250.4196220429
 20
36.3665967063
 10
250.8186294776
 20
37.5404432918
 10
251.2949595683
 20
38.7098200238
 10
251.8441259052
 20
39.8637128952
 10
252.460956056
 20
40.9912537365
 10
253.1396402834
 20
42.0818225801
 10
253.873786265
 20
43.1251476867
 10
254.656479301
 20
44.1114022912
 10
255.4803474414
 20
45.0312971587
 10
256.3376309202
 20
45.8761680763
 10
257.2202552427
 20
46.6380574595
 10
258.1199072362
 20
47.3097893016
 10
259.0281133496
 20
47.8850367626
 10
259.9363194629
 20
48.3583817601
 10
260.8359714564
 20
48.725366
 10
261.7185957789
 20
48.9825329684
 10
262.4626044904
 20
49.1145927485
  0
LINE
  5
22E
330
1F
100
AcDbEntity
  8
0
  6
Continuous
 62
     7
370
     0
100
AcDbLine
 10
250.1110180459
 20
28.6208009874
 30
0.0
 11
250.5167992872
 21
28.8550535118
 31
0.0
  0
LWPOLYLINE
  5
22F
330
1F
100
AcDbEntity
  8
0
  6
Continuous
 62
     7
370
     0
100
AcDbPolyline
 90
        3
 70
   128
 43
0.0
 10
251.0769745165
 20
28.5959589922
 10
251.0110201982
 20
28.6196763388
 10
250.5167992872
 20
28.8550535118
  0
ARC
  5
230
330
1F
100
AcDbEntity
  8
0
  6
Continuous
 62
     7
370
     0
100
AcDbCircle
 10
249.8288101177
 20
29.9116551069
 30
0.0
 40
1.260847345344555
100
AcDbArc
 50
303.0695173616
 51
345.5982002285
  0
LINE
  5
231
330
1F
100
AcDbEntity
  8
0
  6
Continuous
 62
     7
370
     0
100
AcDbLine
 10
246.6232071195
 20
32.409135565
 30
0.0
 11
251.0081976251
 21
29.8777344285
 31
0.0
  0
LINE
  5
232
330
1F
100
AcDbEntity
  8
0
  6
Continuous
 62
     7
370
     0
100
AcDbLine
 10
246.5039683039
 20
32.3402780849
 30
0.0
 11
246.6232071195
 21
32.409135565
 31
0.0
  0
LINE
  5
233
330
1F
100
AcDbEntity
  8
0
  6
Continuous
 62
     7
370
     0
100
AcDbLine
 10
246.2476420958
 20
35.371544872
 30
0.0
 11
246.2528299905
 21
35.7042103363
 31
0.0
  0
ARC
  5
234
330
1F
100
AcDbEntity
  8
0
  6
Continuous
 62
     7
370
     0
100
AcDbCircle
 10
254.7485635755
 20
35.2894788578
 30
0.0
 40
8.501317594037038
100
AcDbArc
 50
179.4468964096
 51
193.0219984054
  0
LWPOLYLINE
  5
235
330
1F
100
AcDbEntity
  8
0
  6
Continuous
 62
     7
370
     0
100
AcDbPolyline
 90
       17
 70
   128
 43
0.0
 10
226.4021261975
 20
50.6704243196
 10
226.4462101729
 20
51.4238710049
 10
226.5776040546
 20
52.2135509821
 10
226.7937504101
 20
53.0240940286
 10
227.0904421965
 20
53.8397238461
 10
227.4619046458
 20
54.6445651278
 10
227.9009076637
 20
55.4229525539
 10
228.398906556
 20
56.1597356983
 10
228.9462083406
 20
56.8405739153
 10
229.5321604109
 20
57.4522154634
 10
230.1453578764
 20
57.9827554357
 10
230.7738655458
 20
58.421867475
 10
231.4054502324
 20
58.7610047649
 10
232.0278188585
 20
58.993566384
 10
232.6288577269
 20
59.1150257848
 10
233.1968682996
 20
59.1230188982
 10
233.7045331991
 20
59.0226051296
  0
ARC
  5
236
330
1F
100
AcDbEntity
  8
0
  6
Continuous
 62
     7
370
     0
100
AcDbCircle
 10
229.9379233108
 20
50.4364547149
 30
0.0
 40
3.543529737706081
100
AcDbArc
 50
176.2141617386
 51
223.1294096193
  0
LWPOLYLINE
  5
237
330
1F
100
AcDbEntity
  8
0
  6
Continuous
 62
     7
370
     0
100
AcDbPolyline
 90
        3
 70
   128
 43
0.0
 10
250.5728639603
 20
27.5240337747
 10
250.4219474762
 20
27.8210895336
 10
250.101695395
 20
28.6261828392
  0
ARC
  5
238
330
1F
100
AcDbEntity
  8
0
  6
Continuous
 62
     7
370
     0
100
AcDbCircle
 10
255.7290515454
 20
30.5485851949
 30
0.0
 40
6.303352233688259
100
AcDbArc
 50
197.2254057936
 51
213.8205690985
  0
LINE
  5
239
330
1F
100
AcDbEntity
  8
0
  6
Continuous
 62
     7
370
     0
100
AcDbLine
 10
250.5167992872
 20
28.8550535118
 30
0.0
 11
246.2918362696
 21
31.2940727458
 31
0.0
  0
ARC
  5
23A
330
1F
100
AcDbEntity
  8
0
  6
Continuous
 62
     7
370
     0
100
AcDbCircle
 10
250.9463963831
 20
31.5925792893
 30
0.0
 40
7.075779872981915
100
AcDbArc
 50
195.3274201707
 51
221.9243997379
  0
OLE2FRAME
  5
23B
330
1F
100
AcDbEntity
  8
0
100
AcDbOle2Frame
 70
     2
  3
Paintbrush-Bild
 10
13.8511154363
 20
38.264191557
 30
0.0
 11
51.6290888628
 21
31.9806341108
 31
0.0
 71
     2
 72
     0
 73
     1
 90
    12928
310
80552BED0767C5B32B40DDAF6807D121434000000000000000006FFBDDFB85D0
310
4940DDAF6807D121434000000000000000006FFBDDFB85D04940416F4BD60AFB
310
3F4000000000000000002BED0767C5B32B40416F4BD60AFB3F40000000000000
310
0000000000000100000000010000010000000100000000000100000000320000
310
D0CF11E0A1B11AE1000000000000000000000000000000003E000300FEFF0900
310
0600000000000000000000000100000001000000000000000010000002000000
310
01000000FEFFFFFF0000000000000000FFFFFFFFFFFFFFFFFFFFFFFFFFFFFFFF
310
FFFFFFFFFFFFFFFFFFFFFFFFFFFFFFFFFFFFFFFFFFFFFFFFFFFFFFFFFFFFFFFF
310
FFFFFFFFFFFFFFFFFFFFFFFFFFFFFFFFFFFFFFFFFFFFFFFFFFFFFFFFFFFFFFFF
310
FFFFFFFFFFFFFFFFFFFFFFFFFFFFFFFFFFFFFFFFFFFFFFFFFFFFFFFFFFFFFFFF
310
FFFFFFFFFFFFFFFFFFFFFFFFFFFFFFFFFFFFFFFFFFFFFFFFFFFFFFFFFFFFFFFF
310
FFFFFFFFFFFFFFFFFFFFFFFFFFFFFFFFFFFFFFFFFFFFFFFFFFFFFFFFFFFFFFFF
310
FFFFFFFFFFFFFFFFFFFFFFFFFFFFFFFFFFFFFFFFFFFFFFFFFFFFFFFFFFFFFFFF
310
FFFFFFFFFFFFFFFFFFFFFFFFFFFFFFFFFFFFFFFFFFFFFFFFFFFFFFFFFFFFFFFF
310
FFFFFFFFFFFFFFFFFFFFFFFFFFFFFFFFFFFFFFFFFFFFFFFFFFFFFFFFFFFFFFFF
310
FFFFFFFFFFFFFFFFFFFFFFFFFFFFFFFFFFFFFFFFFFFFFFFFFFFFFFFFFFFFFFFF
310
FFFFFFFFFFFFFFFFFFFFFFFFFFFFFFFFFFFFFFFFFFFFFFFFFFFFFFFFFFFFFFFF
310
FFFFFFFFFFFFFFFFFFFFFFFFFFFFFFFFFFFFFFFFFFFFFFFFFFFFFFFFFFFFFFFF
310
FFFFFFFFFFFFFFFFFFFFFFFFFFFFFFFFFFFFFFFFFFFFFFFFFFFFFFFFFFFFFFFF
310
FFFFFFFFFFFFFFFFFFFFFFFFFFFFFFFFFFFFFFFFFFFFFFFFFFFFFFFFFFFFFFFF
310
FDFFFFFFFEFFFFFFFEFFFFFFFEFFFFFF05000000060000000700000008000000
310
090000000A0000000B0000000C0000000D0000000E0000000F00000010000000
310
11000000120000001300000014000000150000001600000017000000FEFFFFFF
310
FFFFFFFFFFFFFFFFFFFFFFFFFFFFFFFFFFFFFFFFFFFFFFFFFFFFFFFFFFFFFFFF
310
FFFFFFFFFFFFFFFFFFFFFFFFFFFFFFFFFFFFFFFFFFFFFFFFFFFFFFFFFFFFFFFF
310
FFFFFFFFFFFFFFFFFFFFFFFFFFFFFFFFFFFFFFFFFFFFFFFFFFFFFFFFFFFFFFFF
310
FFFFFFFFFFFFFFFFFFFFFFFFFFFFFFFFFFFFFFFFFFFFFFFFFFFFFFFFFFFFFFFF
310
FFFFFFFFFFFFFFFFFFFFFFFFFFFFFFFFFFFFFFFFFFFFFFFFFFFFFFFFFFFFFFFF
310
FFFFFFFFFFFFFFFFFFFFFFFFFFFFFFFFFFFFFFFFFFFFFFFFFFFFFFFFFFFFFFFF
310
FFFFFFFFFFFFFFFFFFFFFFFFFFFFFFFFFFFFFFFFFFFFFFFFFFFFFFFFFFFFFFFF
310
FFFFFFFFFFFFFFFFFFFFFFFFFFFFFFFFFFFFFFFFFFFFFFFFFFFFFFFFFFFFFFFF
310
FFFFFFFFFFFFFFFFFFFFFFFFFFFFFFFFFFFFFFFFFFFFFFFFFFFFFFFFFFFFFFFF
310
FFFFFFFFFFFFFFFFFFFFFFFFFFFFFFFFFFFFFFFFFFFFFFFFFFFFFFFFFFFFFFFF
310
FFFFFFFFFFFFFFFFFFFFFFFFFFFFFFFFFFFFFFFFFFFFFFFFFFFFFFFFFFFFFFFF
310
FFFFFFFFFFFFFFFFFFFFFFFFFFFFFFFFFFFFFFFFFFFFFFFFFFFFFFFFFFFFFFFF
310
FFFFFFFFFFFFFFFFFFFFFFFFFFFFFFFFFFFFFFFFFFFFFFFFFFFFFFFFFFFFFFFF
310
52006F006F007400200045006E00740072007900000000000000000000000000
310
0000000000000000000000000000000000000000000000000000000000000000
310
16000500FFFFFFFFFFFFFFFF020000000A00030000000000C000000000000046
310
000000000000000000000000D05351CA4E25D20103000000C000000000000000
310
01004F006C006500000000000000000000000000000000000000000000000000
310
0000000000000000000000000000000000000000000000000000000000000000
310
0A000200FFFFFFFFFFFFFFFFFFFFFFFF00000000000000000000000000000000
310
0000000000000000000000000000000000000000000000001400000000000000
310
010043006F006D0070004F0062006A0000000000000000000000000000000000
310
0000000000000000000000000000000000000000000000000000000000000000
310
120002010100000003000000FFFFFFFF00000000000000000000000000000000
310
0000000000000000000000000000000000000000010000004D00000000000000
310
01004F006C006500310030004E00610074006900760065000000000000000000
310
0000000000000000000000000000000000000000000000000000000000000000
310
1A000200FFFFFFFFFFFFFFFFFFFFFFFF00000000000000000000000000000000
310
0000000000000000000000000000000000000000040000002426000000000000
310
FEFFFFFF02000000FEFFFFFFFFFFFFFFFFFFFFFFFFFFFFFFFFFFFFFFFFFFFFFF
310
FFFFFFFFFFFFFFFFFFFFFFFFFFFFFFFFFFFFFFFFFFFFFFFFFFFFFFFFFFFFFFFF
310
FFFFFFFFFFFFFFFFFFFFFFFFFFFFFFFFFFFFFFFFFFFFFFFFFFFFFFFFFFFFFFFF
310
FFFFFFFFFFFFFFFFFFFFFFFFFFFFFFFFFFFFFFFFFFFFFFFFFFFFFFFFFFFFFFFF
310
FFFFFFFFFFFFFFFFFFFFFFFFFFFFFFFFFFFFFFFFFFFFFFFFFFFFFFFFFFFFFFFF
310
FFFFFFFFFFFFFFFFFFFFFFFFFFFFFFFFFFFFFFFFFFFFFFFFFFFFFFFFFFFFFFFF
310
FFFFFFFFFFFFFFFFFFFFFFFFFFFFFFFFFFFFFFFFFFFFFFFFFFFFFFFFFFFFFFFF
310
FFFFFFFFFFFFFFFFFFFFFFFFFFFFFFFFFFFFFFFFFFFFFFFFFFFFFFFFFFFFFFFF
310
FFFFFFFFFFFFFFFFFFFFFFFFFFFFFFFFFFFFFFFFFFFFFFFFFFFFFFFFFFFFFFFF
310
FFFFFFFFFFFFFFFFFFFFFFFFFFFFFFFFFFFFFFFFFFFFFFFFFFFFFFFFFFFFFFFF
310
FFFFFFFFFFFFFFFFFFFFFFFFFFFFFFFFFFFFFFFFFFFFFFFFFFFFFFFFFFFFFFFF
310
FFFFFFFFFFFFFFFFFFFFFFFFFFFFFFFFFFFFFFFFFFFFFFFFFFFFFFFFFFFFFFFF
310
FFFFFFFFFFFFFFFFFFFFFFFFFFFFFFFFFFFFFFFFFFFFFFFFFFFFFFFFFFFFFFFF
310
FFFFFFFFFFFFFFFFFFFFFFFFFFFFFFFFFFFFFFFFFFFFFFFFFFFFFFFFFFFFFFFF
310
FFFFFFFFFFFFFFFFFFFFFFFFFFFFFFFFFFFFFFFFFFFFFFFFFFFFFFFFFFFFFFFF
310
FFFFFFFFFFFFFFFFFFFFFFFFFFFFFFFFFFFFFFFFFFFFFFFFFFFFFFFFFFFFFFFF
310
0100000200000000000000000000000000000000000000000000000000000000
310
0000000000000000000000000000000000000000000000000000000000000000
310
0100FEFF030A0000FFFFFFFF0A00030000000000C00000000000004607000000
310
5042727573680007000000504272757368000700000050427275736800F439B2
310
7100000000000000000000000000000000000000000000000000000000000000
310
0000000000000000000000000000000000000000000000000000000000000000
310
0000000000000000000000000000000000000000000000000000000000000000
310
0000000000000000000000000000000000000000000000000000000000000000
310
0000000000000000000000000000000000000000000000000000000000000000
310
0000000000000000000000000000000000000000000000000000000000000000
310
0000000000000000000000000000000000000000000000000000000000000000
310
0000000000000000000000000000000000000000000000000000000000000000
310
0000000000000000000000000000000000000000000000000000000000000000
310
0000000000000000000000000000000000000000000000000000000000000000
310
0000000000000000000000000000000000000000000000000000000000000000
310
0000000000000000000000000000000000000000000000000000000000000000
310
20260000424D0E260000000000003E00000028000000B40200006E0000000100
310
01000000000000000000130B0000130B00000200000002000000000000FFFFFF
310
FFFFFFFFFFFFFFFFFFFFFFFFFFFFFFFFFFFFFFFFFFFFFFFFFFFFFFFFFFFFFFFF
310
FFFFFFFFFFFFFFFFFFFFFFFFFFFFFFFFFFFFFFFFFFFFFFFFFFFFFFFFFFFFFFFF
310
FFFFFFFFFFFFFFFFFFFFFFFFFFFFFFFFFFFFFFFFFFFFFFFFF000FFFFFFFFFFFF
310
FFFFFFFFFFFFFFFFFFFFFFFFFFFFFFFFFFFFFFFFFFFFFFFFFFFFFFFFFFFFFFFF
310
FFFFFFFFFFFFFFFFFFFFFFFFFFFFFFFFFFFFFFFFFFFFFFFFFFFFFFFFFFFFFFFF
310
FFFFFFFFFFFFFFFFFFFFFFFFFFFFFFFFF000FFFFFFFFFFFFFFFFFFFFFFFFFFFF
310
FFFFFFFFFFFFFFFFFFFFFFFFFFFFFFFFFFFFFFFFFFFFFFFFFFFFFFFFFFFFFFFF
310
FFFFFFFFFFFFFFFFFFFFFFFFFFFFFFFFFFFFFFFFFFFFFFFFFFFFFFFFFFFFFFFF
310
FFFFFFFFFFFFFFFFF000FFFFFFFFFFFFFFFFFFFFFFFFFFFFFFFFFFFFFFFFFFFF
310
FFFFFFFFFFFFFFFFFFFFFFFFFFFFFFFFFFFFFFFFFFFFFFFFFFFFFFFFFFFFFFFF
310
FFFFFFFFFFFFFFFFFFFFFFFFFFFFFFFFFFFFFFFFFFFFFFFFFFFFFFFFFFFFFFFF
310
F000FFFFFFFFFFFFFFFFFFFFFFFFFFFFFFFFFFFFFFFFFFFFFFFFFFFFFFFFFFFF
310
FFFFFFFFFFFFFFFFFFFFFFFFFFFFFFFFFFFFFFFFFFFFFFFFFFFFFFFFFFFFFFFF
310
FFFFFFFFFFFFFFFFFFFFFFFFFFFFFFFFFFFFFFFFFFFFFFFFF000FFFFFFFFFFFF
310
FFFFFFFFFFFFFFFFFFFFFFFFFFFFFFFFFFFFFFFFFFFFFFFFFFFFFFFFFFFFFFFF
310
FFFFFFFFFFFFFFFFFFFFFFFFFFFFFFFFFFFFFFFFFFFFFFFFFFFFFFFFFFFFFFFF
310
FFFFFFFFFFFFFFFFFFFFFFFFFFFFFFFFF000FFFFFFFFFFFFFFFFFFFFFFFFFFFF
310
FFFFFFFFFFFFFFFFFFFFFFFFFFFFFFFFFFFFFFFFFFFFFFFFFFFFFFFFFFFFFFFF
310
FFFFFFFFFFFFFFFFFFFFFFFFFFFFFFFFFFFFFFFFFFFFFFFFFFFFFFFFFFFFFFFF
310
FFFFFFFFFFFFFFFFF000FFFFFFFFFFFFFFFFFFFFFFFFFFFFFFFFFFFFFFFFFFFF
310
FFFFFFFFFFFFFFFFFFFFFFFFFFFFFFFFFFFFFFFFFFFFFFFFFFFFFFFFFFFFFFFF
310
FFFFFFFFFFFFFFFFFFFFFFFFFFFFFFFFFFFFFFFFFFFFFFFFFFFFFFFFFFFFFFFF
310
F000FFFFFFFFFFFFFFFFFFFFFFFFFFFFFFFFFFFFFFFFFFFFFFFFFFFFFFFFFFFF
310
FFFFFFFFFFFFFFFFFFFFFFFFFFFFFFFFFFFFFFFFFFFFFFFFFFFFFFFFFFFFFFFF
310
FFFFFFFFFFFFFFFFFFFFFFFFFFFFFFFFFFFFFFFFFFFFFFFFF000FFFFFFFFFFFF
310
FFFFFFFFFFFFFFFFFFFFFFFFFFFFFFFFFFFFFFFFFFFFFFFFFFFFFFFFFFFFFFFF
310
FFFFFFFFFFFFFFFFFFFFFFFFFFFFFFFFFFFFFFFFFFFFFFFFFFFFFFFFFFFFFFFF
310
FFFFFFFFFFFFFFFFFFFFFFFFFFFFFFFFF000FFFFFFFFFFFFFFFFFFFFFFFFFFFF
310
FFFFFFFFFFFFFFFFFFFFFFFFFFFFFFFFFFFFFFFFFFFFFFFFFFFFFFFFFFFFFFFF
310
FFFFFFFFFFFFFFFFFFFFFFFFFFFFFFFFFFFFFFFFFFFFFFFFFFFFFFFFFFFFFFFF
310
FFFFFFFFFFFFFFFFF000FFFFFFFFFFFFFFFFFFFFFFFFFFFFFFFFFFFFFFFFFFFF
310
FFFFFFFFFFFFFFFFFFFFFFFFFFFFFFFFFFFFFFFFFFFFFFFFFFFFFFFFFFFFFFFF
310
FFFFFFFFFFFFFFFFFFFFFFFFFFFFFFFFFFFFFFFFFFFFFFFFFFFFFFFFFFFFFFFF
310
F000FFFFFFFFFFFFFFFFFFFFFFFFFFFFFFFFFFFFFFFFFFFFFFFFFFFFFFFFFFFF
310
FFFFFFFFFFFFFFFFFFFFFFFFFFFFFFFFFFFFFFFFFFFFFFFFFFFFFFFFFFFFFFFF
310
FFFFFFFFFFFFFFFFFFFFFFFFFFFFFFFFFFFFFFFFFFFFFFFFF000FFFFFFFFFFFF
310
FFFFFFFFFFFFFFFFFFFFFFFFFFFFFFFFFFFFFFFFFFFFFFFFFFFFFFFFFFFFFFFF
310
FFFFFFFFFFFFFFFFFFFFFFFFFFFFFFFFFFFFFFFFFFFFFFFFFFFFFFFFFFFFFFFF
310
FFFFFFFFFFFFFFFFFFFFFFFFFFFFFFFFF000FFFFFFFFFFFFFFFFFFFFFFFFFFFF
310
FFFFFFFFFFFFFFFFFFFFFFFFFFFFFFFFFFFFFFFFFFFFFFFFFFFFFFFFFFFFFFFF
310
FFFFFFFFFFFFFFFFFFFFFFFFFFFFFFFFFFFFFFFFFFFFFFFFFFFFFFFFFFFFFFFF
310
FFFFFFFFFFFFFFFFF000FFFFFFFFFFFFFFFFFFFFFFFFFFFFFFFFFFFFFFFFFFFF
310
FFFFFFFFFFFFFFFFFFFFFFFFFFFFFFFFFFFFFFFFFFFFFFFFFFFFFFFFFFFFFFFF
310
FFFFFFFFFFFFFFFFFFFFFFFFFFFFFFFFFFFFFFFFFFFFFFFFFFFFFFFFFFFFFFFF
310
F000FFFFFFFFFFFFFFFFFFFFFFFFFFFFFFFFFFFFFFFFFFFFFFFFFFFFFFFFFFFF
310
FFFFFFFFFFFFFFFFFFFFFFFFFFFFFFFFFFFFFFFFFFFFFFFFFFFFFFFFFFFFFFFF
310
FFFFFFFFFFFFFFFFFFFFFFFFFFFFFFFFFFFFFFFFFFFFFFFFF000FFFFFFFFFFFF
310
FFFFFFFFFFFFFFFFFFFFFFFFFFFFFFFFFFFFFFFFFFFFFFFFFFFFFFFFFFFFFFFF
310
FFFFFFFFFFFFFFFFFFFFFFFFFFFFFFFFFFFFFFFFFFFFFFFFFFFFFFFFFFFFFFFF
310
FFFFFFFFFFFFFFFFFFFFFFFFFFFFFFFFF000FFFFFFFFFFFFFFFFFFFFFFFFFFFF
310
FFFFFFFFFFFFFFFFFFFFFFFFFFFFFFFFFFFFFFFFFFFFFFFFFFFFFFFFFFFFFFFF
310
FFFFFFFFFFFFFFFFFFFFFFFFFFFFFFFFFFFFFFFFFFFFFFFFFFFFFFFFFFFFFFFF
310
FFFFFFFFFFFFFFFFF000FFFFF80003FFFFFFFFFFFFFFFFFFFFFFFFFFFFFFFFFF
310
FFFFF00007FFFFFFFFFF00007FFFFFF800000000000000007FFFFFFFFFFFFFFF
310
FFFFFFFC001FFFFFFFFFFFFFFC001FFFFFFFFFFFFFFFFFFFFFFFFFFE0007FFFF
310
F000FFFF8000007FFFFFFFF8000FFFFFC0007FFFFF80007FFFFF0000007FFFFF
310
FFF8000007FFFFF800000000000000007FFFFFF0001FFFFFFFFFFFC00001FFFF
310
FFFFFFFFC00001FFFFFFFF000000000003FFFFE000007FFFF000FFFE0000000F
310
FFFFFFF0000FFFFF80007FFFFF80007FFFFC0000001FFFFFFFC0000001FFFFF8
310
00000000000000007FFFFFF0001FFFFFFFFFFE0000003FFFFFFFFFFE0000003F
310
FFFFFF000000000003FFFF0000000FFFF000FFF800000003FFFFFFF00007FFFF
310
80007FFFFF80007FFFF000000007FFFFFF000000003FFFF80000000000000000
310
7FFFFFF0001FFFFFFFFFF80000000FFFFFFFFFF80000000FFFFFFF0000000000
310
03FFFC00000003FFF000FFE000000000FFFFFFF00007FFFF80003FFFFF80007F
310
FFC000000001FFFFFC000000001FFFF800000000000000007FFFFFF0001FFFFF
310
FFFFE000000003FFFFFFFFE000000003FFFFFF000000000003FFF000000000FF
310
F000FF80000000007FFFFFF00007FFFF80003FFFFF80007FFF8000000000FFFF
310
F80000000007FFF800000000000000007FFFFFF0001FFFFFFFFFC000000001FF
310
FFFFFFC000000001FFFFFF000000000003FFC0000000007FF000FF0000000000
310
3FFFFFE00007FFFF00003FFFFF80007FFE00000000003FFFF00000000003FFF8
310
00000000000000007FFFFFF0001FFFFFFFFF8000000000FFFFFFFF8000000000
310
FFFFFF000000000003FF80000000003FF000FE00000000001FFFFFE00003FFFF
310
00003FFFFF80007FFC00000000001FFFE00000000001FFF8000001FFFE000000
310
7FFFFFF0001FFFFFFFFE00000000003FFFFFFE00000000003FFFFF0000000000
310
03FF00000000001FF000FC00000000000FFFFFE00003FFFF00001FFFFF80007F
310
F800000000001FFFC00000000000FFF8000001FFFE0000007FFFFFF0001FFFFF
310
FFFC00000000001FFFFFFC00000000001FFFFF000000000003FE00000000000F
310
F000F8000000000007FFFFE00003FFFF00001FFFFF80007FF800000000000FFF
310
800000000000FFF8000001FFFE0000007FFFFFF0001FFFFFFFF800000000000F
310
FFFFF800000000000FFFFF000000000003FC000000000007F000F80000000000
310
03FFFFC00003FFFE00001FFFFF80007FF0000000000007FF0000000000007FF8
310
000001FFFE0000007FFFFFF0001FFFFFFFF0000000000007FFFFF00000000000
310
07FFFF000000000003F8000000000003F000F0000000000003FFFFC00001FFFE
310
00001FFFFF80007FE0000000000007FE0000000000003FF8000001FFFE000000
310
7FFFFFF0001FFFFFFFF0000000000007FFFFF0000000000007FFFF0000000000
310
03F800001F800003F000E00001FFF00001FFFFC00001FFFE00000FFFFF80007F
310
E00001FFE00003FE00001FFF00003FF8000001FFFE0000007FFFFFF0001FFFFF
310
FFE000003E000003FFFFE000003E000003FFFF000000000003F00001FFF80001
310
F000E00007FFFC0001FFFFC00001FFFE00000FFFFF80007FC0000FFFFC0003FC
310
0000FFFFC0001FF8000001FFFE0000007FFFFFF0001FFFFFFFC00003FFE00001
310
FFFFC00003FFE00001FFFF0001FFFFFFFFF00007FFFE0001F000E0000FFFFF00
310
00FFFF800001FFFC00000FFFFF80007FC0001FFFFE0001FC0001FFFFE0001FF8
310
000001FFFE0000007FFFFFF0001FFFFFFF80000FFFF80000FFFF80000FFFF800
310
00FFFF0003FFFFFFFFE0000FFFFF8000F000C0003FFFFF8000FFFF800000FFFC
310
000007FFFF80007F80003FFFFF0001FC0003FFFFF0001FF8000001FFFE000000
310
7FFFFFF0001FFFFFFF80003FFFFE0000FFFF80003FFFFE0000FFFF0003FFFFFF
310
FFE0003FFFFF8000F000C0003FFFFF8000FFFF800000FFFC000007FFFF80007F
310
80007FFFFF8001F80007FFFFF8000FF8000001FFFE0000007FFFFFF0001FFFFF
310
FF00007FFFFF00007FFF00007FFFFF00007FFF0003FFFFFFFFE0003FFFFFC000
310
F000C0007FFFFFC000FFFF000000FFFC000007FFFF80007F8000FFFFFF8000F8
310
000FFFFFF8000FF8000001FFFE0000007FFFFFF0001FFFFFFF0000FFFFFF8000
310
7FFF0000FFFFFF80007FFF0003FFFFFFFFC0007FFFFFC00070008000FFFFFFC0
310
00FFFF000000FFF8000007FFFF80007F8000FFFFFF8000F8000FFFFFF8000FF8
310
000001FFFE0000007FFFFFF0001FFFFFFE0001FFFFFFC0003FFE0001FFFFFFC0
310
003FFF0003FFFFFFFFC0007FFFFFE00070008000FFFFFFC0007FFF0000007FF8
310
000003FFFF80007F0001FFFFFF8000F8000FFFFFF8000FF8000001FFFE000000
310
7FFFFFF0001FFFFFFE0001FFFFFFC0003FFE0001FFFFFFC0003FFF0003FFFFFF
310
FFC000FFFFFFE00070008000FFFFFFC0007FFF0000007FF8000003FFFF80007F
310
0001FFFFFF8000F8001FFFFFF8000FF8000001FFFE0000007FFFFFF0001FFFFF
310
FE0003FFFFFFE0003FFE0003FFFFFFE0003FFF0003FFFFFFFFC000FFFFFFE000
310
70008000FFFFFFC0007FFE0000007FF8000003FFFF80007F0001FFFFFF8000F0
310
001FFFFFF8000FF8000001FFFE0000007FFFFFF0001FFFFFFC0003FFFFFFE000
310
1FFC0003FFFFFFE0001FFF0003FFFFFFFFC000FFFFFFC00070008000FFFFFF80
310
007FFE0000007FF0000003FFFF80007F0001FFFFFF0000F0001FFFFFF8000FF8
310
000001FFFE0000007FFFFFF0001FFFFFFC0007FFFFFFF0001FFC0007FFFFFFF0
310
001FFF0003FFFFFFFFC000FFFFFFC00070008001FFFFFF0000FFFE0000003FF0
310
000001FFFF80007F0001FFFFFF0000F8001FFFFFF0000FF8000001FFFE000000
310
7FFFFFF0001FFFFFFC0007FFFFFFF0001FFC0007FFFFFFF0001FFF0003FFFFFF
310
FFC001FFFFFF80007000FFFFFFFFFE0000FFFE0008003FF0008001FFFF80007F
310
FFFFFFFFFC0000FFFFFFFFFFE0000FF8000001FFFE0000007FFFFFF0001FFFFF
310
F8000FFFFFFFF8000FF8000FFFFFFFF8000FFF0003FFFFFFFFFFFFFFFFFF0000
310
7000FFFFFFFFFC0000FFFC0008003FF0008001FFFF80007FFFFFFFFFF80001FF
310
FFFFFFFF80000FF8000001FFFE0000007FFFFFF0001FFFFFF8000FFFFFFFF800
310
0FF8000FFFFFFFF8000FFF0003FFFFFFFFFFFFFFFFFE0000F000FFFFFFFFE000
310
00FFFC000C003FE000C001FFFF80007FFFFFFFFFC00001FFFFFFFFFE00001FF8
310
000001FFFE0000007FFFFFF0001FFFFFF8000FFFFFFFF8000FF8000FFFFFFFF8
310
000FFF0003FFFFFFFFFFFFFFFFF00000F000FFFFFFFE000001FFFC000C001FE0
310
00C000FFFF80007FFFFFFFFE000001FFFFFFFFE000001FF80FFFFFFFFFFFFFC0
310
7FFFFFF0001FFFFFF8000FFFFFFFF8000FF8000FFFFFFFF8000FFF0003FFFFFF
310
FFFFFFFFFF800000F000FFFFFFC0000001FFFC001C001FE001C000FFFF80007F
310
FFFFFF80000003FFFFFFF80000001FF80FFFFFFFFFFFFFC07FFFFFF0001FFFFF
310
F8001FFFFFFFFC000FF8001FFFFFFFFC000FFF0003FFFFFFFFFFFFFFF0000001
310
F000FFFFF800000001FFF8001C001FE001C000FFFF80007FFFFFF800000003FF
310
FFFF800000003FF80FFFFFFFFFFFFFC07FFFFFF0001FFFFFF8001FFFFFFFFC00
310
0FF8001FFFFFFFFC000FFF0003FFFFFFFFFFFFFE00000001F000FFFFC0000000
310
03FFF8001E001FC001E000FFFF80007FFFFF8000000007FFFFFC000000003FF8
310
0FFFFFFFFFFFFFC07FFFFFF0001FFFFFF8001FFFFFFFFC000FF8001FFFFFFFFC
310
000FFF0003FFFFFFFFFFFFE000000003F000FFFE0000000007FFF8001E000FC0
310
01E0007FFF80007FFFFE0000000007FFFFE0000000007FF80FFFFFFFFFFFFFC0
310
7FFFFFF0001FFFFFF0001FFFFFFFFC0007F0001FFFFFFFFC0007FF0003FFFFFF
310
FFFFFF0000000003F000FFF80000000007FFF8001E000FC003E0007FFF80007F
310
FFF0000000000FFFFF8000000000FFF80FFFFFFFFFFFFFC07FFFFFF0001FFFFF
310
F0001FFFFFFFFC0007F0001FFFFFFFFC0007FF0003FFFFFFFFFFFC0000000007
310
F000FFE0000000000FFFF0003E000FC003E0007FFF80007FFFC0000000001FFF
310
FE0000000001FFF80FFFFFFFFFFFFFC07FFFFFF0001FFFFFF0001FFFFFFFFC00
310
07F0001FFFFFFFFC0007FF0003FFFFFFFFFFF0000000000FF000FFC000000000
310
1FFFF0003F000F8003F0003FFF80007FFF80000000003FFFF80000000003FFF8
310
0FFFFFFFFFFFFFC07FFFFFF0001FFFFFF0001FFFFFFFFC0007F0001FFFFFFFFC
310
0007FF0003FFFFFFFFFFE0000000001FF000FF00000000007FFFF0003F000780
310
03F0003FFF80007FFF00000000007FFFF00000000007FFF80FFFFFFFFFFFFFC0
310
7FFFFFF0001FFFFFF0001FFFFFFFFC0007F0001FFFFFFFFC0007FF0003FFFFFF
310
FFFF80000000007FF000FE0000000000FFFFE0003F00078007F0003FFF80007F
310
FE0000000001FFFFE0000000001FFFF80FFFFFFFFFFFFFC07FFFFFF0001FFFFF
310
F0001FFFFFFFFC0007F0001FFFFFFFFC0007FF0003FFFFFFFFFF0000000000FF
310
F000FC0000000003FFFFE0007F00078007F0003FFF80007FFC0000000007FFFF
310
C0000000007FFFF80FFFFFFFFFFFFFC07FFFFFF0001FFFFFF8001FFFFFFFFC00
310
0FF8001FFFFFFFFC000FFF0003FFFFFFFFFE0000000003FFF000FC000000000F
310
FFFFE0007F80070007F8001FFF80007FF8000000001FFFFF8000000001FFFFF8
310
0FFFFFFFFFFFFFC07FFFFFF0001FFFFFF8001FFFFFFFFC000FF8001FFFFFFFFC
310
000FFF0003FFFFFFFFFC000000000FFFF000F8000000007FFFFFE0007F800700
310
07F8001FFF80007FF000000000FFFFFF800000000FFFFFF80FFFFFFFFFFFFFC0
310
7FFFFFF0001FFFFFF8000FFFFFFFF8000FF8000FFFFFFFF8000FFF0003FFFFFF
310
FFFC000000007FFFF000F800000007FFFFFFC0007F8003000FF8001FFF80007F
310
F000000007FFFFFF000000007FFFFFF80FFFFFFFFFFFFFC07FFFFFF0001FFFFF
310
F8000FFFFFFFF8000FF8000FFFFFFFF8000FFF0003FFFFFFFFF80000000FFFFF
310
F000F0000000FFFFFFFFC000FF8003000FF8001FFF80007FE0000000FFFFFFFF
310
0000000FFFFFFFF8000001FFFE0000007FFFFFF0001FFFFFF8000FFFFFFFF800
310
0FF8000FFFFFFFF8000FFF0003FFFFFFFFF8000000FFFFFFF000F000000FFFFF
310
FFFFC000FFC002000FF8000FFF80007FE000001FFFFFFFFE000001FFFFFFFFF8
310
000001FFFE0000007FFFFFF0001FFFFFF8000FFFFFFFF8000FF8000FFFFFFFF8
310
000FFF0003FFFFFFFFF000001FFFFFFFF000E00000FFFFFFFFFFC000FFC00200
310
0FFC000FFF80007FE00001FFFFFFFFFE00001FFFFFFFFFF8000001FFFE000000
310
7FFFFFF0001FFFFFFC000FFFFFFFF8001FFC000FFFFFFFF8001FFF0003FFFFFF
310
FFF00001FFFFFFFFF000E00007FFFFFFFFFF8000FFC000001FFC000FFF80007F
310
C0000FFFFFFFFFFE0000FFFFFFFFFFF8000001FFFE0000007FFFFFF0001FFFFF
310
FC0007FFFFFFF0001FFC0007FFFFFFF0001FFF0003FFFFFFFFF00007FFFFFFFF
310
F000E0001FFFFFFFFFFF8000FFC000001FFC000FFF80007FC0003FFFFFFFFFFE
310
0001FFFFFFFFFFF8000001FFFE0000007FFFFFF0001FFFFFFC0007FFFFFFF000
310
1FFC0007FFFFFFF0001FFF0003FFFFFFFFF0001FFFFFFFFFF000E0003FFFFF00
310
03FF8001FFE000001FFC0007FF80007FC0007FFFFF0007FC0003FFFFF0003FF8
310
000001FFFE0000007FFFFFF0001FFFFFFC0003FFFFFFE0001FFC0003FFFFFFE0
310
001FFF0003FFFFFFFFF0003FFFFFFFFFF000E0003FFFFF0001FF8001FFE00000
310
1FFE0007FF80007FC0007FFFFE0003FC0007FFFFE0003FF8000001FFFE000000
310
7FFFFFF0001FFFFFFE0003FFFFFFE0003FFE0003FFFFFFE0003FFF0003FFFFFF
310
FFF0003FFFFF8001F000E0003FFFFF0001FF0001FFE000001FFE0007FF80007F
310
C0007FFFFE0003FC0007FFFFE0003FF8000001FFFE0000007FFFFFF0001FFFFF
310
FE0001FFFFFFC0003FFE0001FFFFFFC0003FFF0003FFFFFFFFF0003FFFFF0001
310
F000E0003FFFFF0003FF0001FFE000003FFE0007FF80007FC0007FFFFE0003FC
310
0007FFFFE0003FF8000001FFFE0000007FFFFFF0001FFFFFFF0001FFFFFFC000
310
7FFF0001FFFFFFC0007FFF0003FFFFFFFFF0003FFFFF0001F000E0003FFFFE00
310
03FF0003FFF000003FFE0003FF80007FC0007FFFFC0003FE0007FFFFE0003FF8
310
000001FFFE0000007FFFFFF0001FFFFFFF0000FFFFFF80007FFF0000FFFFFF80
310
007FFF0003FFFFFFFFF0003FFFFF0001F000E0003FFFFE0003FF0003FFF00000
310
3FFF0003FF80007FC0007FFFFC0007FE0007FFFFC0003FF8000001FFFE000000
310
7FFFFFF0001FFFFFFF80007FFFFF0000FFFF80007FFFFF0000FFFF0003FFFFFF
310
FFF0003FFFFF0003F000E0003FFFFC0003FE0003FFF000003FFF0003FF80007F
310
E0003FFFF80007FE0003FFFFC0007FF8000001FFFE0000007FFFFFF0001FFFFF
310
FF80003FFFFE0000FFFF80003FFFFE0000FFFF0003FFFFFFFFF0001FFFFE0003
310
F000F0001FFFF80003FE0003FFF000007FFF0001FF80007FE0003FFFF00007FE
310
0001FFFF80007FF8000001FFFE0000007FFFFFF0001FFFFFFFC0000FFFF80001
310
FFFFC0000FFFF80001FFFF0003FFFFFFFFF0001FFFFC0003F000F0000FFFF000
310
07FE0007FFF800007FFF0001FF80007FE0001FFFE00007FF0000FFFE00007FF8
310
000001FFFE0000007FFFFFF0001FFFFFFFC00003FFE00001FFFFC00003FFE000
310
01FFFF0003FFFFFFFFF8000FFFF80003F000F00003FFC00007FC0007FFF80000
310
7FFF8001FF80007FF00007FF80000FFF00007FF80000FFF8000001FFFE000000
310
7F80000000000001FFE000003E000003FFFFE000003E000003FFFF0003FFFFFF
310
FFF80003FFE00007F000F800000000000FFC0007FFF800007FFF8001FF80007F
310
F000000000000FFF000000000000FFF8000001FFFE0000007F80000000000001
310
FFF0000000000007FFFFF0000000000007FFFF0003FFFFFFFFFC00007E000007
310
F000F800000000000FFC0007FFF80000FFFF8000FF80007FF800000000001FFF
310
800000000001FFF8000001FFFE0000007F80000000000001FFF800000000000F
310
FFFFF800000000000FFFFF0003FFFFFFFFFC00000000000FF000FC0000000000
310
1FFC0007FFFC0000FFFF8000FF80007FF800000000003FFFC00000000001FFF8
310
000001FFFE0000007F80000000000001FFF800000000000FFFFFF80000000000
310
0FFFFF0003FFFFFFFFFE00000000001FF000FE00000000003FF8000FFFFC0000
310
FFFF8000FF80007FFC00000000003FFFC00000000003FFF8000001FFFE000000
310
7F80000000000001FFFC00000000001FFFFFFC00000000001FFFFF0003FFFFFF
310
FFFF00000000001FF000FF00000000003FF8000FFFFC0000FFFFC000FF80007F
310
FE00000000007FFFE00000000007FFF8000001FFFE0000007F80000000000001
310
FFFE00000000003FFFFFFE00000000003FFFFF0003FFFFFFFFFF80000000003F
310
F000FF80000000007FF8000FFFFC0001FFFFC0007F80007FFF0000000000FFFF
310
F0000000000FFFF800000000000000007F80000000000001FFFF8000000000FF
310
FFFFFF8000000000FFFFFF0003FFFFFFFFFFC0000000007FF000FFC000000000
310
FFF8000FFFFE0001FFFFC0007F80007FFF8000000001FFFFF8000000001FFFF8
310
00000000000000007F80000000000001FFFFC000000001FFFFFFFFC000000001
310
FFFFFF0003FFFFFFFFFFE000000000FFF000FFE000000003FFF0001FFFFE0001
310
FFFFC0007F80007FFFC000000007FFFFFE000000003FFFF80000000000000000
310
7F80000000000001FFFFE000000003FFFFFFFFE000000003FFFFFF0003FFFFFF
310
FFFFF000000003FFF000FFF80000000FFFF0001FFFFE0001FFFFE0007F80007F
310
FFF00000000FFFFFFF00000000FFFFF800000000000000007F80000000000001
310
FFFFF80000000FFFFFFFFFF80000000FFFFFFF0003FFFFFFFFFFFC0000000FFF
310
F000FFFE0000003FFFF0001FFFFE0003FFFFE0003F80007FFFFC0000003FFFFF
310
FFC0000003FFFFF800000000000000007F80000000000001FFFFFE0000003FFF
310
FFFFFFFE0000003FFFFFFF0003FFFFFFFFFFFF0000003FFFF000FFFF800000FF
310
FFF0001FFFFF0003FFFFE0003F80007FFFFF000001FFFFFFFFF800001FFFFFF8
310
00000000000000007F80000000000001FFFFFFC00001FFFFFFFFFFFFC00001FF
310
FFFFFF0003FFFFFFFFFFFFC00000FFFFF000FFFFF8000FFFFFFFFFFFFFFFFFFF
310
FFFFFFFFFFFFFFFFFFFFF0001FFFFFFFFFFF0000FFFFFFF80000000000000000
310
7FFFFFFFFFFFFFFFFFFFFFFC001FFFFFFFFFFFFFFC001FFFFFFFFFFFFFFFFFFF
310
FFFFFFFC001FFFFFF000FFFFFFFFFFFFFFFFFFFFFFFFFFFFFFFFFFFFFFFFFFFF
310
FFFFFFFFFFFFFFFFFFFFFFFFFFFFFFFFFFFFFFFFFFFFFFFFFFFFFFFFFFFFFFFF
310
FFFFFFFFFFFFFFFFFFFFFFFFFFFFFFFFFFFFFFFFFFFFFFFFFFFFFFFFFFFFFFFF
310
F000FFFFFFFFFFFFFFFFFFFFFFFFFFFFFFFFFFFFFFFFFFFFFFFFFFFFFFFFFFFF
310
FFFFFFFFFFFFFFFFFFFFFFFFFFFFFFFFFFFFFFFFFFFFFFFFFFFFFFFFFFFFFFFF
310
FFFFFFFFFFFFFFFFFFFFFFFFFFFFFFFFFFFFFFFFFFFFFFFFF000FFFFFFFFFFFF
310
FFFFFFFFFFFFFFFFFFFFFFFFFFFFFFFFFFFFFFFFFFFFFFFFFFFFFFFFFFFFFFFF
310
FFFFFFFFFFFFFFFFFFFFFFFFFFFFFFFFFFFFFFFFFFFFFFFFFFFFFFFFFFFFFFFF
310
FFFFFFFFFFFFFFFFFFFFFFFFFFFFFFFFF000FFFFFFFFFFFFFFFFFFFFFFFFFFFF
310
FFFFFFFFFFFFFFFFFFFFFFFFFFFFFFFFFFFFFFFFFFFFFFFFFFFFFFFFFFFFFFFF
310
FFFFFFFFFFFFFFFFFFFFFFFFFFFFFFFFFFFFFFFFFFFFFFFFFFFFFFFFFFFFFFFF
310
FFFFFFFFFFFFFFFFF000FFFFFFFFFFFFFFFFFFFFFFFFFFFFFFFFFFFFFFFFFFFF
310
FFFFFFFFFFFFFFFFFFFFFFFFFFFFFFFFFFFFFFFFFFFFFFFFFFFFFFFFFFFFFFFF
310
FFFFFFFFFFFFFFFFFFFFFFFFFFFFFFFFFFFFFFFFFFFFFFFFFFFFFFFFFFFFFFFF
310
F000FFFFFFFFFFFFFFFFFFFFFFFFFFFFFFFFFFFFFFFFFFFFFFFFFFFFFFFFFFFF
310
FFFFFFFFFFFFFFFFFFFFFFFFFFFFFFFFFFFFFFFFFFFFFFFFFFFFFFFFFFFFFFFF
310
FFFFFFFFFFFFFFFFFFFFFFFFFFFFFFFFFFFFFFFFFFFFFFFFF000FFFFFFFFFFFF
310
FFFFFFFFFFFFFFFFFFFFFFFFFFFFFFFFFFFFFFFFFFFFFFFFFFFFFFFFFFFFFFFF
310
FFFFFFFFFFFFFFFFFFFFFFFFFFFFFFFFFFFFFFFFFFFFFFFFFFFFFFFFFFFFFFFF
310
FFFFFFFFFFFFFFFFFFFFFFFFFFFFFFFFF000FFFFFFFFFFFFFFFFFFFFFFFFFFFF
310
FFFFFFFFFFFFFFFFFFFFFFFFFFFFFFFFFFFFFFFFFFFFFFFFFFFFFFFFFFFFFFFF
310
FFFFFFFFFFFFFFFFFFFFFFFFFFFFFFFFFFFFFFFFFFFFFFFFFFFFFFFFFFFFFFFF
310
FFFFFFFFFFFFFFFFF000FFFFFFFFFFFFFFFFFFFFFFFFFFFFFFFFFFFFFFFFFFFF
310
FFFFFFFFFFFFFFFFFFFFFFFFFFFFFFFFFFFFFFFFFFFFFFFFFFFFFFFFFFFFFFFF
310
FFFFFFFFFFFFFFFFFFFFFFFFFFFFFFFFFFFFFFFFFFFFFFFFFFFFFFFFFFFFFFFF
310
F000FFFFFFFFFFFFFFFFFFFFFFFFFFFFFFFFFFFFFFFFFFFFFFFFFFFFFFFFFFFF
310
FFFFFFFFFFFFFFFFFFFFFFFFFFFFFFFFFFFFFFFFFFFFFFFFFFFFFFFFFFFFFFFF
310
FFFFFFFFFFFFFFFFFFFFFFFFFFFFFFFFFFFFFFFFFFFFFFFFF000FFFFFFFFFFFF
310
FFFFFFFFFFFFFFFFFFFFFFFFFFFFFFFFFFFFFFFFFFFFFFFFFFFFFFFFFFFFFFFF
310
FFFFFFFFFFFFFFFFFFFFFFFFFFFFFFFFFFFFFFFFFFFFFFFFFFFFFFFFFFFFFFFF
310
FFFFFFFFFFFFFFFFFFFFFFFFFFFFFFFFF000FFFFFFFFFFFFFFFFFFFFFFFFFFFF
310
FFFFFFFFFFFFFFFFFFFFFFFFFFFFFFFFFFFFFFFFFFFFFFFFFFFFFFFFFFFFFFFF
310
FFFFFFFFFFFFFFFFFFFFFFFFFFFFFFFFFFFFFFFFFFFFFFFFFFFFFFFFFFFFFFFF
310
FFFFFFFFFFFFFFFFF000FFFFFFFFFFFFFFFFFFFFFFFFFFFFFFFFFFFFFFFFFFFF
310
FFFFFFFFFFFFFFFFFFFFFFFFFFFFFFFFFFFFFFFFFFFFFFFFFFFFFFFFFFFFFFFF
310
FFFFFFFFFFFFFFFFFFFFFFFFFFFFFFFFFFFFFFFFFFFFFFFFFFFFFFFFFFFFFFFF
310
F000FFFFFFFFFFFFFFFFFFFFFFFFFFFFFFFFFFFFFFFFFFFFFFFFFFFFFFFFFFFF
310
FFFFFFFFFFFFFFFFFFFFFFFFFFFFFFFFFFFFFFFFFFFFFFFFFFFFFFFFFFFFFFFF
310
FFFFFFFFFFFFFFFFFFFFFFFFFFFFFFFFFFFFFFFFFFFFFFFFF000FFFFFFFFFFFF
310
FFFFFFFFFFFFFFFFFFFFFFFFFFFFFFFFFFFFFFFFFFFFFFFFFFFFFFFFFFFFFFFF
310
FFFFFFFFFFFFFFFFFFFFFFFFFFFFFFFFFFFFFFFFFFFFFFFFFFFFFFFFFFFFFFFF
310
FFFFFFFFFFFFFFFFFFFFFFFFFFFFFFFFF000FFFFFFFFFFFFFFFFFFFFFFFFFFFF
310
FFFFFFFFFFFFFFFFFFFFFFFFFFFFFFFFFFFFFFFFFFFFFFFFFFFFFFFFFFFFFFFF
310
FFFFFFFFFFFFFFFFFFFFFFFFFFFFFFFFFFFFFFFFFFFFFFFFFFFFFFFFFFFFFFFF
310
FFFFFFFFFFFFFFFFF000FFFFFFFFFFFFFFFFFFFFFFFFFFFFFFFFFFFFFFFFFFFF
310
FFFFFFFFFFFFFFFFFFFFFFFFFFFFFFFFFFFFFFFFFFFFFFFFFFFFFFFFFFFFFFFF
310
FFFFFFFFFFFFFFFFFFFFFFFFFFFFFFFFFFFFFFFFFFFFFFFFFFFFFFFFFFFFFFFF
310
F000FFFFFFFFFFFFFFFFFFFFFFFFFFFFFFFFFFFFFFFFFFFFFFFFFFFFFFFFFFFF
310
FFFFFFFFFFFFFFFFFFFFFFFFFFFFFFFFFFFFFFFFFFFFFFFFFFFFFFFFFFFFFFFF
310
FFFFFFFFFFFFFFFFFFFFFFFFFFFFFFFFFFFFFFFFFFFFFFFFF000FFFFFFFFFFFF
310
FFFFFFFFFFFFFFFFFFFFFFFFFFFFFFFFFFFFFFFFFFFFFFFFFFFFFFFFFFFFFFFF
310
FFFFFFFFFFFFFFFFFFFFFFFFFFFFFFFFFFFFFFFFFFFFFFFFFFFFFFFFFFFFFFFF
310
FFFFFFFFFFFFFFFFFFFFFFFFFFFFFFFFF000FFFFFFFFFFFFFFFFFFFFFFFFFFFF
310
FFFFFFFFFFFFFFFFFFFFFFFFFFFFFFFFFFFFFFFFFFFFFFFFFFFFFFFFFFFFFFFF
310
FFFFFFFFFFFFFFFFFFFFFFFFFFFFFFFFFFFFFFFFFFFFFFFFFFFFFFFFFFFFFFFF
310
FFFFFFFFFFFFFFFFF000FFFFFFFFFFFFFFFFFFFFFFFFFFFFFFFFFFFFFFFFFFFF
310
FFFFFFFFFFFFFFFFFFFFFFFFFFFFFFFFFFFFFFFFFFFFFFFFFFFFFFFFFFFFFFFF
310
FFFFFFFFFFFFFFFFFFFFFFFFFFFFFFFFFFFFFFFFFFFFFFFFFFFFFFFFFFFFFFFF
310
F000FFFFFFFFFFFFFFFFFFFFFFFFFFFFFFFFFFFFFFFFFFFFFFFFFFFFFFFFFFFF
310
FFFFFFFFFFFFFFFFFFFFFFFFFFFFFFFFFFFFFFFFFFFFFFFFFFFFFFFFFFFFFFFF
310
FFFFFFFFFFFFFFFFFFFFFFFFFFFFFFFFFFFFFFFFFFFFFFFFF000FFFFFFFFFFFF
310
FFFFFFFFFFFFFFFFFFFFFFFFFFFFFFFFFFFFFFFFFFFFFFFFFFFFFFFFFFFFFFFF
310
FFFFFFFFFFFFFFFFFFFFFFFFFFFFFFFFFFFFFFFFFFFFFFFFFFFFFFFFFFFFFFFF
310
FFFFFFFFFFFFFFFFFFFFFFFFFFFFFFFFF0000000000000000000000000000000
310
0000000000000000000000000000000000000000000000000000000000000000
310
0000000000000000000000000000000000000000000000000000000000000000
310
0000000000000000000000000000000000000000000000000000000000000000
310
0000000000000000000000000000000000000000000000000000000000000000
310
0000000000000000000000000000000000000000000000000000000000000000
310
0000000000000000000000000000000000000000000000000000000000000000
310
0000000000000000000000000000000000000000000000000000000000000000
310
0000000000000000000000000000000000000000000000000000000000000000
310
0000000000000000000000000000000000000000000000000000000000000000
310
0000000000000000000000000000000000000000000000000000000000000000
310
0000000000000000000000000000000000000000000000000000000000000000
310
0000000000000000000000000000000000000000000000000000000000000000
310
0000000000000000000000000000000000000000000000000000000000000000
310
0000000000000000000000000000000000000000000000000000000000000000
310
0000000000000000000000000000000000000000000000000000000000000000
  1
OLE
  0
ENDSEC
  0
SECTION
  2
OBJECTS
  0
DICTIONARY
  5
C
330
0
100
AcDbDictionary
281
     1
  3
ACAD_GROUP
350
D
  3
ACAD_LAYOUT
350
1A
  3
ACAD_MLINESTYLE
350
17
  3
ACAD_PLOTSETTINGS
350
19
  3
ACAD_PLOTSTYLENAME
350
E
  3
ACAD_SCALELIST
350
47
  0
DICTIONARY
  5
D
102
{ACAD_REACTORS
330
C
102
}
330
C
100
AcDbDictionary
281
     1
  0
DICTIONARY
  5
1A
102
{ACAD_REACTORS
330
C
102
}
330
C
100
AcDbDictionary
281
     1
  3
Layout1
350
1E
  3
Layout2
350
26
  3
Model
350
22
  0
DICTIONARY
  5
17
102
{ACAD_REACTORS
330
C
102
}
330
C
100
AcDbDictionary
281
     1
  3
Standard
350
18
  0
DICTIONARY
  5
19
102
{ACAD_REACTORS
330
C
102
}
330
C
100
AcDbDictionary
281
     1
  0
ACDBDICTIONARYWDFLT
  5
E
102
{ACAD_REACTORS
330
C
102
}
330
C
100
AcDbDictionary
281
     1
  3
Normal
350
F
100
AcDbDictionaryWithDefault
340
F
  0
DICTIONARY
  5
47
102
{ACAD_REACTORS
330
C
102
}
330
C
100
AcDbDictionary
281
     1
  3
A0
350
48
  3
A1
350
49
  3
A2
350
4A
  3
A3
350
4B
  3
A4
350
4C
  3
A5
350
4D
  3
A6
350
4E
  3
A7
350
4F
  3
A8
350
50
  3
A9
350
51
  3
B0
350
52
  3
B1
350
53
  3
B2
350
54
  3
B3
350
55
  3
B4
350
56
  3
B5
350
57
  3
B6
350
58
  3
B7
350
59
  3
B8
350
5A
  3
B9
350
5B
  3
C0
350
5C
  3
C1
350
5D
  3
C2
350
5E
  3
C3
350
5F
  3
C4
350
60
  3
C5
350
61
  3
C6
350
62
  3
C7
350
63
  3
C8
350
64
  3
C9
350
65
  3
D0
350
66
  3
D1
350
67
  3
D2
350
68
  0
LAYOUT
  5
1E
102
{ACAD_REACTORS
330
1A
102
}
330
1A
100
AcDbPlotSettings
  1

  2
none_device
  4

  6

 40
0.0
 41
0.0
 42
0.0
 43
0.0
 44
0.0
 45
0.0
 46
0.0
 47
0.0
 48
0.0
 49
0.0
140
0.0
141
0.0
142
1.0
143
1.0
 70
   688
 72
     1
 73
     0
 74
     5
  7

 75
    16
147
1.0
148
0.0
149
0.0
100
AcDbLayout
  1
Layout1
 70
     1
 71
     1
 10
0.0
 20
0.0
 11
420.0
 21
297.0
 12
0.0
 22
0.0
 32
0.0
 14
1.0000000000E+20
 24
1.0000000000E+20
 34
1.0000000000E+20
 15
-1.0000000000E+20
 25
-1.0000000000E+20
 35
-1.0000000000E+20
146
0.0
 13
0.0
 23
0.0
 33
0.0
 16
1.0
 26
0.0
 36
0.0
 17
0.0
 27
1.0
 37
0.0
 76
     0
330
1B
  0
LAYOUT
  5
26
102
{ACAD_REACTORS
330
1A
102
}
330
1A
100
AcDbPlotSettings
  1

  2
none_device
  4

  6

 40
0.0
 41
0.0
 42
0.0
 43
0.0
 44
0.0
 45
0.0
 46
0.0
 47
0.0
 48
0.0
 49
0.0
140
0.0
141
0.0
142
1.0
143
1.0
 70
   688
 72
     1
 73
     0
 74
     5
  7

 75
    16
147
1.0
148
0.0
149
0.0
100
AcDbLayout
  1
Layout2
 70
     1
 71
     2
 10
0.0
 20
0.0
 11
0.0
 21
0.0
 12
0.0
 22
0.0
 32
0.0
 14
0.0
 24
0.0
 34
0.0
 15
0.0
 25
0.0
 35
0.0
146
0.0
 13
0.0
 23
0.0
 33
0.0
 16
1.0
 26
0.0
 36
0.0
 17
0.0
 27
1.0
 37
0.0
 76
     0
330
23
  0
LAYOUT
  5
22
102
{ACAD_REACTORS
330
1A
102
}
330
1A
100
AcDbPlotSettings
  1

  2
none_device
  4
Letter_(8.50_x_11.00_Inches)
  6

 40
6.35
 41
6.35
 42
6.35000508
 43
6.35000508
 44
215.9
 45
279.4
 46
0.0
 47
0.0
 48
0.0
 49
0.0
140
0.0
141
0.0
142
1.0
143
1.0
 70
  1712
 72
     1
 73
     0
 74
     0
  7

 75
     0
147
1.0
148
0.0
149
0.0
100
AcDbLayout
  1
Model
 70
     1
 71
     0
 10
0.0
 20
0.0
 11
297.0
 21
210.0
 12
0.0
 22
0.0
 32
0.0
 14
0.0
 24
0.0
 34
0.0
 15
297.0
 25
210.0
 35
0.0
146
0.0
 13
0.0
 23
0.0
 33
0.0
 16
1.0
 26
0.0
 36
0.0
 17
0.0
 27
1.0
 37
0.0
 76
     0
330
1F
331
29
  0
MLINESTYLE
  5
18
102
{ACAD_REACTORS
330
17
102
}
330
17
100
AcDbMlineStyle
  2
Standard
 70
     0
  3

 62
   256
 51
90.0
 52
90.0
 71
     2
 49
0.5
 62
   256
  6
BYLAYER
 49
-0.5
 62
   256
  6
BYLAYER
  0
ACDBPLACEHOLDER
  5
F
102
{ACAD_REACTORS
330
E
102
}
330
E
  0
SCALE
  5
48
102
{ACAD_REACTORS
330
47
102
}
330
47
100
AcDbScale
 70
     0
300
1:1
140
1.0
141
1.0
290
     1
  0
SCALE
  5
49
102
{ACAD_REACTORS
330
47
102
}
330
47
100
AcDbScale
 70
     0
300
1:2
140
1.0
141
2.0
290
     0
  0
SCALE
  5
4A
102
{ACAD_REACTORS
330
47
102
}
330
47
100
AcDbScale
 70
     0
300
1:4
140
1.0
141
4.0
290
     0
  0
SCALE
  5
4B
102
{ACAD_REACTORS
330
47
102
}
330
47
100
AcDbScale
 70
     0
300
1:5
140
1.0
141
5.0
290
     0
  0
SCALE
  5
4C
102
{ACAD_REACTORS
330
47
102
}
330
47
100
AcDbScale
 70
     0
300
1:8
140
1.0
141
8.0
290
     0
  0
SCALE
  5
4D
102
{ACAD_REACTORS
330
47
102
}
330
47
100
AcDbScale
 70
     0
300
1:10
140
1.0
141
10.0
290
     0
  0
SCALE
  5
4E
102
{ACAD_REACTORS
330
47
102
}
330
47
100
AcDbScale
 70
     0
300
1:16
140
1.0
141
16.0
290
     0
  0
SCALE
  5
4F
102
{ACAD_REACTORS
330
47
102
}
330
47
100
AcDbScale
 70
     0
300
1:20
140
1.0
141
20.0
290
     0
  0
SCALE
  5
50
102
{ACAD_REACTORS
330
47
102
}
330
47
100
AcDbScale
 70
     0
300
1:30
140
1.0
141
30.0
290
     0
  0
SCALE
  5
51
102
{ACAD_REACTORS
330
47
102
}
330
47
100
AcDbScale
 70
     0
300
1:40
140
1.0
141
40.0
290
     0
  0
SCALE
  5
52
102
{ACAD_REACTORS
330
47
102
}
330
47
100
AcDbScale
 70
     0
300
1:50
140
1.0
141
50.0
290
     0
  0
SCALE
  5
53
102
{ACAD_REACTORS
330
47
102
}
330
47
100
AcDbScale
 70
     0
300
1:100
140
1.0
141
100.0
290
     0
  0
SCALE
  5
54
102
{ACAD_REACTORS
330
47
102
}
330
47
100
AcDbScale
 70
     0
300
2:1
140
2.0
141
1.0
290
     0
  0
SCALE
  5
55
102
{ACAD_REACTORS
330
47
102
}
330
47
100
AcDbScale
 70
     0
300
4:1
140
4.0
141
1.0
290
     0
  0
SCALE
  5
56
102
{ACAD_REACTORS
330
47
102
}
330
47
100
AcDbScale
 70
     0
300
8:1
140
8.0
141
1.0
290
     0
  0
SCALE
  5
57
102
{ACAD_REACTORS
330
47
102
}
330
47
100
AcDbScale
 70
     0
300
10:1
140
10.0
141
1.0
290
     0
  0
SCALE
  5
58
102
{ACAD_REACTORS
330
47
102
}
330
47
100
AcDbScale
 70
     0
300
100:1
140
100.0
141
1.0
290
     0
  0
SCALE
  5
59
102
{ACAD_REACTORS
330
47
102
}
330
47
100
AcDbScale
 70
     0
300
1/128" = 1'-0"
140
0.0078125
141
12.0
290
     0
  0
SCALE
  5
5A
102
{ACAD_REACTORS
330
47
102
}
330
47
100
AcDbScale
 70
     0
300
1/64" = 1'-0"
140
0.015625
141
12.0
290
     0
  0
SCALE
  5
5B
102
{ACAD_REACTORS
330
47
102
}
330
47
100
AcDbScale
 70
     0
300
1/32" = 1'-0"
140
0.03125
141
12.0
290
     0
  0
SCALE
  5
5C
102
{ACAD_REACTORS
330
47
102
}
330
47
100
AcDbScale
 70
     0
300
1/16" = 1'-0"
140
0.0625
141
12.0
290
     0
  0
SCALE
  5
5D
102
{ACAD_REACTORS
330
47
102
}
330
47
100
AcDbScale
 70
     0
300
3/32" = 1'-0"
140
0.09375
141
12.0
290
     0
  0
SCALE
  5
5E
102
{ACAD_REACTORS
330
47
102
}
330
47
100
AcDbScale
 70
     0
300
1/8" = 1'-0"
140
0.125
141
12.0
290
     0
  0
SCALE
  5
5F
102
{ACAD_REACTORS
330
47
102
}
330
47
100
AcDbScale
 70
     0
300
3/16" = 1'-0"
140
0.1875
141
12.0
290
     0
  0
SCALE
  5
60
102
{ACAD_REACTORS
330
47
102
}
330
47
100
AcDbScale
 70
     0
300
1/4" = 1'-0"
140
0.25
141
12.0
290
     0
  0
SCALE
  5
61
102
{ACAD_REACTORS
330
47
102
}
330
47
100
AcDbScale
 70
     0
300
3/8" = 1'-0"
140
0.375
141
12.0
290
     0
  0
SCALE
  5
62
102
{ACAD_REACTORS
330
47
102
}
330
47
100
AcDbScale
 70
     0
300
1/2" = 1'-0"
140
0.5
141
12.0
290
     0
  0
SCALE
  5
63
102
{ACAD_REACTORS
330
47
102
}
330
47
100
AcDbScale
 70
     0
300
3/4" = 1'-0"
140
0.75
141
12.0
290
     0
  0
SCALE
  5
64
102
{ACAD_REACTORS
330
47
102
}
330
47
100
AcDbScale
 70
     0
300
1" = 1'-0"
140
1.0
141
12.0
290
     0
  0
SCALE
  5
65
102
{ACAD_REACTORS
330
47
102
}
330
47
100
AcDbScale
 70
     0
300
1-1/2" = 1'-0"
140
1.5
141
12.0
290
     0
  0
SCALE
  5
66
102
{ACAD_REACTORS
330
47
102
}
330
47
100
AcDbScale
 70
     0
300
3" = 1'-0"
140
3.0
141
12.0
290
     0
  0
SCALE
  5
67
102
{ACAD_REACTORS
330
47
102
}
330
47
100
AcDbScale
 70
     0
300
6" = 1'-0"
140
6.0
141
12.0
290
     0
  0
SCALE
  5
68
102
{ACAD_REACTORS
330
47
102
}
330
47
100
AcDbScale
 70
     0
300
1'-0" = 1'-0"
140
12.0
141
12.0
290
     0
  0
ENDSEC
  0
EOF
