  0
SECTION
  2
HEADER
  9
$ACADVER
  1
AC1015
  9
$ACADMAINTVER
 70
     6
  9
$DWGCODEPAGE
  3
ANSI_1252
  9
$INSBASE
 10
0.0
 20
0.0
 30
0.0
  9
$EXTMIN
 10
0.0
 20
0.0
 30
0.0
  9
$EXTMAX
 10
297.0
 20
210.0
 30
0.0
  9
$LIMMIN
 10
0.0
 20
0.0
  9
$LIMMAX
 10
297.0
 20
210.0
  9
$ORTHOMODE
 70
     0
  9
$REGENMODE
 70
     1
  9
$FILLMODE
 70
     1
  9
$QTEXTMODE
 70
     0
  9
$MIRRTEXT
 70
     1
  9
$LTSCALE
 40
1.0
  9
$ATTMODE
 70
     1
  9
$TEXTSIZE
 40
2.0
  9
$TRACEWID
 40
1.0
  9
$TEXTSTYLE
  7
Standard
  9
$CLAYER
  8
0
  9
$CELTYPE
  6
ByLayer
  9
$CECOLOR
 62
   256
  9
$CELTSCALE
 40
1.0
  9
$DISPSILH
 70
     0
  9
$DIMSCALE
 40
1.0
  9
$DIMASZ
 40
3.0
  9
$DIMEXO
 40
0.0
  9
$DIMDLI
 40
3.75
  9
$DIMRND
 40
0.0
  9
$DIMDLE
 40
0.0
  9
$DIMEXE
 40
1.0
  9
$DIMTP
 40
0.0
  9
$DIMTM
 40
0.0
  9
$DIMTXT
 40
2.0
  9
$DIMCEN
 40
2.5
  9
$DIMTSZ
 40
0.0
  9
$DIMTOL
 70
     0
  9
$DIMLIM
 70
     0
  9
$DIMTIH
 70
     1
  9
$DIMTOH
 70
     1
  9
$DIMSE1
 70
     0
  9
$DIMSE2
 70
     0
  9
$DIMTAD
 70
     1
  9
$DIMZIN
 70
     0
  9
$DIMBLK
  1

  9
$DIMASO
 70
     1
  9
$DIMSHO
 70
     1
  9
$DIMPOST
  1

  9
$DIMAPOST
  1

  9
$DIMALT
 70
     0
  9
$DIMALTD
 70
     3
  9
$DIMALTF
 40
0.0393700787
  9
$DIMLFAC
 40
2.0
  9
$DIMTOFL
 70
     1
  9
$DIMTVP
 40
0.0
  9
$DIMTIX
 70
     0
  9
$DIMSOXD
 70
     0
  9
$DIMSAH
 70
     0
  9
$DIMBLK1
  1

  9
$DIMBLK2
  1

  9
$DIMSTYLE
  2
ISO-25
  9
$DIMCLRD
 70
     0
  9
$DIMCLRE
 70
     0
  9
$DIMCLRT
 70
     0
  9
$DIMTFAC
 40
1.0
  9
$DIMGAP
 40
1.524
  9
$DIMJUST
 70
     0
  9
$DIMSD1
 70
     0
  9
$DIMSD2
 70
     0
  9
$DIMTOLJ
 70
     0
  9
$DIMTZIN
 70
     0
  9
$DIMALTZ
 70
     0
  9
$DIMALTTZ
 70
     0
  9
$DIMUPT
 70
     0
  9
$DIMDEC
 70
     2
  9
$DIMTDEC
 70
     3
  9
$DIMALTU
 70
     2
  9
$DIMALTTD
 70
     3
  9
$DIMTXSTY
  7
Standard
  9
$DIMAUNIT
 70
     0
  9
$DIMADEC
 70
     2
  9
$DIMALTRND
 40
0.0
  9
$DIMAZIN
 70
     0
  9
$DIMDSEP
 70
    44
  9
$DIMATFIT
 70
     3
  9
$DIMFRAC
 70
     0
  9
$DIMLDRBLK
  1

  9
$DIMLUNIT
 70
     2
  9
$DIMLWD
 70
    -2
  9
$DIMLWE
 70
    -2
  9
$DIMTMOVE
 70
     0
  9
$LUNITS
 70
     2
  9
$LUPREC
 70
     2
  9
$SKETCHINC
 40
1.0
  9
$FILLETRAD
 40
10.0
  9
$AUNITS
 70
     0
  9
$AUPREC
 70
     2
  9
$MENU
  1
.
  9
$ELEVATION
 40
0.0
  9
$PELEVATION
 40
0.0
  9
$THICKNESS
 40
0.0
  9
$LIMCHECK
 70
     0
  9
$CHAMFERA
 40
0.0
  9
$CHAMFERB
 40
0.0
  9
$CHAMFERC
 40
0.0
  9
$CHAMFERD
 40
0.0
  9
$SKPOLY
 70
     0
  9
$TDCREATE
 40
2457675.619365752
  9
$TDUCREATE
 40
2457675.536032419
  9
$TDUPDATE
 40
2457675.619366968
  9
$TDUUPDATE
 40
2457675.536033634
  9
$TDINDWG
 40
0.0000000116
  9
$TDUSRTIMER
 40
0.0000000116
  9
$USRTIMER
 70
     1
  9
$ANGBASE
 50
0.0
  9
$ANGDIR
 70
     0
  9
$PDMODE
 70
     0
  9
$PDSIZE
 40
-1.0
  9
$PLINEWID
 40
0.0
  9
$SPLFRAME
 70
     0
  9
$SPLINETYPE
 70
     6
  9
$SPLINESEGS
 70
     8
  9
$HANDSEED
  5
20F
  9
$SURFTAB1
 70
     6
  9
$SURFTAB2
 70
     6
  9
$SURFTYPE
 70
     6
  9
$SURFU
 70
     6
  9
$SURFV
 70
     6
  9
$UCSBASE
  2

  9
$UCSNAME
  2

  9
$UCSORG
 10
0.0
 20
0.0
 30
0.0
  9
$UCSXDIR
 10
1.0
 20
0.0
 30
0.0
  9
$UCSYDIR
 10
0.0
 20
1.0
 30
0.0
  9
$UCSORTHOREF
  2

  9
$UCSORTHOVIEW
 70
     0
  9
$UCSORGTOP
 10
0.0
 20
0.0
 30
0.0
  9
$UCSORGBOTTOM
 10
0.0
 20
0.0
 30
0.0
  9
$UCSORGLEFT
 10
0.0
 20
0.0
 30
0.0
  9
$UCSORGRIGHT
 10
0.0
 20
0.0
 30
0.0
  9
$UCSORGFRONT
 10
0.0
 20
0.0
 30
0.0
  9
$UCSORGBACK
 10
0.0
 20
0.0
 30
0.0
  9
$PUCSBASE
  2

  9
$PUCSNAME
  2

  9
$PUCSORG
 10
0.0
 20
0.0
 30
0.0
  9
$PUCSXDIR
 10
1.0
 20
0.0
 30
0.0
  9
$PUCSYDIR
 10
0.0
 20
1.0
 30
0.0
  9
$PUCSORTHOREF
  2

  9
$PUCSORTHOVIEW
 70
     0
  9
$PUCSORGTOP
 10
0.0
 20
0.0
 30
0.0
  9
$PUCSORGBOTTOM
 10
0.0
 20
0.0
 30
0.0
  9
$PUCSORGLEFT
 10
0.0
 20
0.0
 30
0.0
  9
$PUCSORGRIGHT
 10
0.0
 20
0.0
 30
0.0
  9
$PUCSORGFRONT
 10
0.0
 20
0.0
 30
0.0
  9
$PUCSORGBACK
 10
0.0
 20
0.0
 30
0.0
  9
$USERI1
 70
     0
  9
$USERI2
 70
     0
  9
$USERI3
 70
     0
  9
$USERI4
 70
     0
  9
$USERI5
 70
     0
  9
$USERR1
 40
0.0
  9
$USERR2
 40
0.0
  9
$USERR3
 40
0.0
  9
$USERR4
 40
0.0
  9
$USERR5
 40
0.0
  9
$WORLDVIEW
 70
     1
  9
$SHADEDGE
 70
     3
  9
$SHADEDIF
 70
    70
  9
$TILEMODE
 70
     1
  9
$MAXACTVP
 70
    64
  9
$PINSBASE
 10
0.0
 20
0.0
 30
0.0
  9
$PLIMCHECK
 70
     0
  9
$PEXTMIN
 10
1.0000000000E+20
 20
1.0000000000E+20
 30
1.0000000000E+20
  9
$PEXTMAX
 10
-1.0000000000E+20
 20
-1.0000000000E+20
 30
-1.0000000000E+20
  9
$PLIMMIN
 10
0.0
 20
0.0
  9
$PLIMMAX
 10
420.0
 20
297.0
  9
$UNITMODE
 70
     0
  9
$VISRETAIN
 70
     1
  9
$PLINEGEN
 70
     0
  9
$PSLTSCALE
 70
     1
  9
$TREEDEPTH
 70
  3020
  9
$CMLSTYLE
  2
Standard
  9
$CMLJUST
 70
     0
  9
$CMLSCALE
 40
20.0
  9
$PROXYGRAPHICS
 70
     1
  9
$MEASUREMENT
 70
     1
  9
$CELWEIGHT
370
    -1
  9
$ENDCAPS
280
     0
  9
$JOINSTYLE
280
     0
  9
$LWDISPLAY
290
     1
  9
$INSUNITS
 70
     4
  9
$HYPERLINKBASE
  1

  9
$STYLESHEET
  1

  9
$XEDIT
290
     1
  9
$CEPSNTYPE
380
     0
  9
$PSTYLEMODE
290
     1
  9
$FINGERPRINTGUID
  2
{6221099E-0202-41D0-AE07-EBAEBF88B50D}
  9
$VERSIONGUID
  2
{FAEB1C32-E019-11D5-929B-00C0DF256EC4}
  9
$EXTNAMES
290
     1
  9
$PSVPSCALE
 40
0.0
  9
$OLESTARTUP
290
     0
  0
ENDSEC
  0
SECTION
  2
CLASSES
  0
CLASS
  1
ACDBDICTIONARYWDFLT
  2
AcDbDictionaryWithDefault
  3
ObjectDBX Classes
 90
        0
280
     0
281
     0
  0
CLASS
  1
VISUALSTYLE
  2
AcDbVisualStyle
  3
ObjectDBX Classes
 90
     4095
280
     0
281
     0
  0
CLASS
  1
MATERIAL
  2
AcDbMaterial
  3
ObjectDBX Classes
 90
     1153
280
     0
281
     0
  0
CLASS
  1
SCALE
  2
AcDbScale
  3
ObjectDBX Classes
 90
     1153
280
     0
281
     0
  0
CLASS
  1
TABLESTYLE
  2
AcDbTableStyle
  3
ObjectDBX Classes
 90
     4095
280
     0
281
     0
  0
CLASS
  1
MLEADERSTYLE
  2
AcDbMLeaderStyle
  3
ACDB_MLEADERSTYLE_CLASS
 90
     4095
280
     0
281
     0
  0
CLASS
  1
SUN
  2
AcDbSun
  3
SCENEOE
 90
     1153
280
     0
281
     0
  0
CLASS
  1
ACDBPLACEHOLDER
  2
AcDbPlaceHolder
  3
ObjectDBX Classes
 90
        0
280
     0
281
     0
  0
CLASS
  1
LAYOUT
  2
AcDbLayout
  3
ObjectDBX Classes
 90
        0
280
     0
281
     0
  0
ENDSEC
  0
SECTION
  2
TABLES
  0
TABLE
  2
VPORT
  5
8
330
0
100
AcDbSymbolTable
 70
     1
  0
VPORT
  5
29
330
8
100
AcDbSymbolTableRecord
100
AcDbViewportTableRecord
  2
*Active
 70
     0
 10
0.0
 20
0.0
 11
1.0
 21
1.0
 12
148.5
 22
105.0
 13
0.0
 23
0.0
 14
10.0
 24
10.0
 15
10.0
 25
10.0
 16
0.0
 26
0.0
 36
1.0
 17
0.0
 27
0.0
 37
0.0
 40
210.0
 41
1.4142857143
 42
50.0
 43
0.0
 44
0.0
 50
0.0
 51
0.0
 71
     0
 72
  2000
 73
     1
 74
     3
 75
     0
 76
     0
 77
     0
 78
     0
281
     0
 65
     1
110
0.0
120
0.0
130
0.0
111
1.0
121
0.0
131
0.0
112
0.0
122
1.0
132
0.0
 79
     0
146
0.0
  0
ENDTAB
  0
TABLE
  2
LTYPE
  5
5
330
0
100
AcDbSymbolTable
 70
     6
  0
LTYPE
  5
14
330
5
100
AcDbSymbolTableRecord
100
AcDbLinetypeTableRecord
  2
ByBlock
 70
     0
  3

 72
    65
 73
     0
 40
0.0
  0
LTYPE
  5
15
330
5
100
AcDbSymbolTableRecord
100
AcDbLinetypeTableRecord
  2
ByLayer
 70
     0
  3

 72
    65
 73
     0
 40
0.0
  0
LTYPE
  5
16
330
5
100
AcDbSymbolTableRecord
100
AcDbLinetypeTableRecord
  2
Continuous
 70
     0
  3
Solid line
 72
    65
 73
     0
 40
0.0
  0
LTYPE
  5
6E
330
5
100
AcDbSymbolTableRecord
100
AcDbLinetypeTableRecord
  2
HIDDEN
 70
     0
  3
Hidden __ __ __ __ __ __ __ __ __ __ __ __ __ __
 72
    65
 73
     2
 40
1.905
 49
1.27
 74
     0
 49
-0.635
 74
     0
  0
LTYPE
  5
6F
330
5
100
AcDbSymbolTableRecord
100
AcDbLinetypeTableRecord
  2
PHANTOM
 70
     0
  3
Phantom ______  __  __  ______  __  __  ______
 72
    65
 73
     6
 40
12.7
 49
6.35
 74
     0
 49
-1.27
 74
     0
 49
1.27
 74
     0
 49
-1.27
 74
     0
 49
1.27
 74
     0
 49
-1.27
 74
     0
  0
LTYPE
  5
70
330
5
100
AcDbSymbolTableRecord
100
AcDbLinetypeTableRecord
  2
CENTER
 70
     0
  3
Center ____ _ ____ _ ____ _ ____ _ ____ _ ____
 72
    65
 73
     4
 40
10.16
 49
6.35
 74
     0
 49
-1.27
 74
     0
 49
1.27
 74
     0
 49
-1.27
 74
     0
  0
LTYPE
  5
71
330
5
100
AcDbSymbolTableRecord
100
AcDbLinetypeTableRecord
  2
CENTERX2
 70
     0
  3
Center (2x) ________  __  ________  __  _____
 72
    65
 73
     4
 40
20.32
 49
12.7
 74
     0
 49
-2.54
 74
     0
 49
2.54
 74
     0
 49
-2.54
 74
     0
  0
LTYPE
  5
72
330
5
100
AcDbSymbolTableRecord
100
AcDbLinetypeTableRecord
  2
DOT2
 70
     0
  3
Dot (.5x) ........................................
 72
    65
 73
     2
 40
0.635
 49
0.0
 74
     0
 49
-0.635
 74
     0
  0
ENDTAB
  0
TABLE
  2
LAYER
  5
2
330
0
100
AcDbSymbolTable
 70
     5
  0
LAYER
  5
10
330
2
100
AcDbSymbolTableRecord
100
AcDbLayerTableRecord
  2
0
 70
     0
 62
     7
  6
Continuous
370
    -3
390
F
  0
LAYER
  5
73
330
2
100
AcDbSymbolTableRecord
100
AcDbLayerTableRecord
  2
FORMAT
 70
     0
 62
     7
  6
Continuous
370
    -3
390
F
  0
LAYER
  5
74
330
2
100
AcDbSymbolTableRecord
100
AcDbLayerTableRecord
  2
VERMASSUNG
 70
     0
 62
     7
  6
Continuous
370
    -3
390
F
  0
LAYER
  5
75
330
2
100
AcDbSymbolTableRecord
100
AcDbLayerTableRecord
  2
KOPF_DÜNN
 70
     0
 62
     7
  6
Continuous
370
    -3
390
F
  0
LAYER
  5
76
330
2
100
AcDbSymbolTableRecord
100
AcDbLayerTableRecord
  2
KOPF_DICK
 70
     0
 62
     7
  6
Continuous
370
    15
390
F
  0
ENDTAB
  0
TABLE
  2
STYLE
  5
3
330
0
100
AcDbSymbolTable
 70
     2
  0
STYLE
  5
11
330
3
100
AcDbSymbolTableRecord
100
AcDbTextStyleTableRecord
  2
Standard
 70
     0
 40
0.0
 41
1.0
 50
0.0
 71
     0
 42
2.0
  3
txt
  4

  0
STYLE
  5
77
330
3
100
AcDbSymbolTableRecord
100
AcDbTextStyleTableRecord
  2
SLDTEXTSTYLE0
 70
     0
 40
0.0
 41
0.7
 50
0.0
 71
     0
 42
2.0
  3
TXT
  4

  0
ENDTAB
  0
TABLE
  2
VIEW
  5
6
330
0
100
AcDbSymbolTable
 70
     0
  0
ENDTAB
  0
TABLE
  2
UCS
  5
7
330
0
100
AcDbSymbolTable
 70
     0
  0
ENDTAB
  0
TABLE
  2
APPID
  5
9
330
0
100
AcDbSymbolTable
 70
     1
  0
APPID
  5
12
330
9
100
AcDbSymbolTableRecord
100
AcDbRegAppTableRecord
  2
ACAD
 70
     0
  0
ENDTAB
  0
TABLE
  2
DIMSTYLE
  5
A
330
0
100
AcDbSymbolTable
 70
     2
100
AcDbDimStyleTable
  0
DIMSTYLE
105
27
330
A
100
AcDbSymbolTableRecord
100
AcDbDimStyleTableRecord
  2
ISO-25
 70
     0
 41
2.5
 42
0.625
 43
3.75
 44
1.25
 73
     0
 74
     0
 77
     1
 78
     8
140
2.5
141
2.5
143
0.0393700787
147
0.625
171
     3
172
     1
178
     0
271
     2
272
     2
274
     3
278
    44
283
     0
284
     8
340
11
  0
DIMSTYLE
105
16B
102
{ACAD_REACTORS
330
16A
330
177
330
181
330
18B
330
195
330
1A0
102
}
330
A
100
AcDbSymbolTableRecord
100
AcDbDimStyleTableRecord
  2
SLDDIMSTYLE0
 70
     0
 41
3.0
 44
0.0
 45
0.000000001
 73
     0
 74
     0
 77
     1
 78
    12
 79
     3
140
2.0
147
0.5
173
     1
178
     0
271
     2
272
     3
276
     2
284
    12
340
77
  0
ENDTAB
  0
TABLE
  2
BLOCK_RECORD
  5
1
330
0
100
AcDbSymbolTable
 70
     7
  0
BLOCK_RECORD
  5
1F
330
1
100
AcDbSymbolTableRecord
100
AcDbBlockTableRecord
  2
*Model_Space
340
22
  0
BLOCK_RECORD
  5
1B
330
1
100
AcDbSymbolTableRecord
100
AcDbBlockTableRecord
  2
*Paper_Space
340
1E
  0
BLOCK_RECORD
  5
23
330
1
100
AcDbSymbolTableRecord
100
AcDbBlockTableRecord
  2
*Paper_Space0
340
26
  0
BLOCK_RECORD
  5
16C
330
1
100
AcDbSymbolTableRecord
100
AcDbBlockTableRecord
  2
_D
340
0
  0
BLOCK_RECORD
  5
178
330
1
100
AcDbSymbolTableRecord
100
AcDbBlockTableRecord
  2
_D_1
340
0
  0
BLOCK_RECORD
  5
182
330
1
100
AcDbSymbolTableRecord
100
AcDbBlockTableRecord
  2
_D_2
340
0
  0
BLOCK_RECORD
  5
18C
330
1
100
AcDbSymbolTableRecord
100
AcDbBlockTableRecord
  2
_D_3
340
0
  0
BLOCK_RECORD
  5
196
330
1
100
AcDbSymbolTableRecord
100
AcDbBlockTableRecord
  2
_D_4
340
0
  0
BLOCK_RECORD
  5
1A1
330
1
100
AcDbSymbolTableRecord
100
AcDbBlockTableRecord
  2
_D_5
340
0
  0
ENDTAB
  0
ENDSEC
  0
SECTION
  2
BLOCKS
  0
BLOCK
  5
20
330
1F
100
AcDbEntity
  8
0
100
AcDbBlockBegin
  2
*Model_Space
 70
     0
 10
0.0
 20
0.0
 30
0.0
  3
*Model_Space
  1

  0
ENDBLK
  5
21
330
1F
100
AcDbEntity
  8
0
100
AcDbBlockEnd
  0
BLOCK
  5
1C
330
1B
100
AcDbEntity
 67
     1
  8
0
100
AcDbBlockBegin
  2
*Paper_Space
 70
     0
 10
0.0
 20
0.0
 30
0.0
  3
*Paper_Space
  1

  0
ENDBLK
  5
1D
330
1B
100
AcDbEntity
 67
     1
  8
0
100
AcDbBlockEnd
  0
BLOCK
  5
24
330
23
100
AcDbEntity
  8
0
100
AcDbBlockBegin
  2
*Paper_Space0
 70
     0
 10
0.0
 20
0.0
 30
0.0
  3
*Paper_Space0
  1

  0
ENDBLK
  5
25
330
23
100
AcDbEntity
  8
0
100
AcDbBlockEnd
  0
BLOCK
  5
16D
330
16C
100
AcDbEntity
  8
0
100
AcDbBlockBegin
  2
_D
 70
     0
 10
0.0
 20
0.0
 30
0.0
  3
_D
  1

  0
SOLID
  5
16F
330
16C
100
AcDbEntity
  8
VERMASSUNG
100
AcDbTrace
 10
61.3013808513
 20
80.4244808182
 30
0.0
 11
61.7513808513
 21
83.4244808182
 31
0.0
 12
60.8513808513
 22
83.4244808182
 32
0.0
 13
60.8513808513
 23
83.4244808182
 33
0.0
  0
SOLID
  5
170
330
16C
100
AcDbEntity
  8
VERMASSUNG
100
AcDbTrace
 10
61.3013808513
 20
143.4244808182
 30
0.0
 11
60.8513808513
 21
140.4244808182
 31
0.0
 12
61.7513808513
 22
140.4244808182
 32
0.0
 13
61.7513808513
 23
140.4244808182
 33
0.0
  0
LINE
  5
171
330
16C
100
AcDbEntity
  8
VERMASSUNG
100
AcDbLine
 10
160.7167011411
 20
80.4244808182
 30
0.0
 11
60.3013808513
 21
80.4244808182
 31
0.0
  0
LINE
  5
172
330
16C
100
AcDbEntity
  8
VERMASSUNG
100
AcDbLine
 10
160.7167011411
 20
143.4244808182
 30
0.0
 11
60.3013808513
 21
143.4244808182
 31
0.0
  0
LINE
  5
173
330
16C
100
AcDbEntity
  8
VERMASSUNG
100
AcDbLine
 10
61.3013808513
 20
80.4244808182
 30
0.0
 11
61.3013808513
 21
143.4244808182
 31
0.0
  0
MTEXT
  5
174
330
16C
100
AcDbEntity
  8
VERMASSUNG
100
AcDbMText
 10
58.5232455951
 20
101.1207269562
 30
0.0
 40
2.0
 41
0.0
 71
     1
 72
     1
  1
MAS-BT 40
  7
SLDTEXTSTYLE0
 11
3.391901413832837E-15
 21
1.0
 31
0.0
 73
     1
 44
1.0
  0
MTEXT
  5
175
330
16C
100
AcDbEntity
  8
VERMASSUNG
100
AcDbMText
 10
58.7232455464
 20
116.3207272125
 30
0.0
 40
2.0
 41
0.0
 71
     1
 72
     1
  1
%%c
  7
SLDTEXTSTYLE0
 11
3.391901413832837E-15
 21
1.0
 31
0.0
 73
     1
 44
1.0
  0
MTEXT
  5
176
330
16C
100
AcDbEntity
  8
VERMASSUNG
100
AcDbMText
 10
58.7232452554
 20
119.9288546596
 30
0.0
 40
2.0
 41
0.0
 71
     1
 72
     1
  1
63
  7
SLDTEXTSTYLE0
 11
3.391901413832837E-15
 21
1.0
 31
0.0
 73
     1
 44
1.0
  0
ENDBLK
  5
16E
330
16C
100
AcDbEntity
  8
0
100
AcDbBlockEnd
  0
BLOCK
  5
179
330
178
100
AcDbEntity
  8
0
100
AcDbBlockBegin
  2
_D_1
 70
     0
 10
0.0
 20
0.0
 30
0.0
  3
_D_1
  1

  0
SOLID
  5
17B
330
178
100
AcDbEntity
  8
VERMASSUNG
100
AcDbTrace
 10
69.3167011411
 20
160.1803888969
 30
0.0
 11
72.3167011411
 21
159.7303888969
 31
0.0
 12
72.3167011411
 22
160.6303888969
 32
0.0
 13
72.3167011411
 23
160.6303888969
 33
0.0
  0
SOLID
  5
17C
330
178
100
AcDbEntity
  8
VERMASSUNG
100
AcDbTrace
 10
227.7167011411
 20
160.1803888969
 30
0.0
 11
224.7167011411
 21
160.6303888969
 31
0.0
 12
224.7167011411
 22
159.7303888969
 32
0.0
 13
224.7167011411
 23
159.7303888969
 33
0.0
  0
LINE
  5
17D
330
178
100
AcDbEntity
  8
VERMASSUNG
100
AcDbLine
 10
69.3167011411
 20
123.7472364152
 30
0.0
 11
69.3167011411
 21
161.1803888969
 31
0.0
  0
LINE
  5
17E
330
178
100
AcDbEntity
  8
VERMASSUNG
100
AcDbLine
 10
227.7167011411
 20
124.2244808182
 30
0.0
 11
227.7167011411
 21
161.1803888969
 31
0.0
  0
LINE
  5
17F
330
178
100
AcDbEntity
  8
VERMASSUNG
100
AcDbLine
 10
69.3167011411
 20
160.1803888969
 30
0.0
 11
227.7167011411
 21
160.1803888969
 31
0.0
  0
MTEXT
  5
180
330
178
100
AcDbEntity
  8
VERMASSUNG
100
AcDbMText
 10
145.516701115
 20
162.7585244929
 30
0.0
 40
2.0
 41
0.0
 71
     1
 72
     1
  1
158.4
  7
SLDTEXTSTYLE0
 73
     1
 44
1.0
  0
ENDBLK
  5
17A
330
178
100
AcDbEntity
  8
0
100
AcDbBlockEnd
  0
BLOCK
  5
183
330
182
100
AcDbEntity
  8
0
100
AcDbBlockBegin
  2
_D_2
 70
     0
 10
0.0
 20
0.0
 30
0.0
  3
_D_2
  1

  0
SOLID
  5
185
330
182
100
AcDbEntity
  8
VERMASSUNG
100
AcDbTrace
 10
227.7167011411
 20
148.1803888969
 30
0.0
 11
224.7167011411
 21
148.6303888969
 31
0.0
 12
224.7167011411
 22
147.7303888969
 32
0.0
 13
224.7167011411
 23
147.7303888969
 33
0.0
  0
SOLID
  5
186
330
182
100
AcDbEntity
  8
VERMASSUNG
100
AcDbTrace
 10
161.7167011411
 20
148.1803888969
 30
0.0
 11
164.7167011411
 21
147.7303888969
 31
0.0
 12
164.7167011411
 22
148.6303888969
 32
0.0
 13
164.7167011411
 23
148.6303888969
 33
0.0
  0
LINE
  5
187
330
182
100
AcDbEntity
  8
VERMASSUNG
100
AcDbLine
 10
227.7167011411
 20
124.2244808182
 30
0.0
 11
227.7167011411
 21
149.1803888969
 31
0.0
  0
LINE
  5
188
330
182
100
AcDbEntity
  8
VERMASSUNG
100
AcDbLine
 10
161.7167011411
 20
142.4244808182
 30
0.0
 11
161.7167011411
 21
149.1803888969
 31
0.0
  0
LINE
  5
189
330
182
100
AcDbEntity
  8
VERMASSUNG
100
AcDbLine
 10
227.7167011411
 20
148.1803888969
 30
0.0
 11
161.7167011411
 21
148.1803888969
 31
0.0
  0
MTEXT
  5
18A
330
182
100
AcDbEntity
  8
VERMASSUNG
100
AcDbMText
 10
193.316701191
 20
150.7585244929
 30
0.0
 40
2.0
 41
0.0
 71
     1
 72
     1
  1
66
  7
SLDTEXTSTYLE0
 73
     1
 44
1.0
  0
ENDBLK
  5
184
330
182
100
AcDbEntity
  8
0
100
AcDbBlockEnd
  0
BLOCK
  5
18D
330
18C
100
AcDbEntity
  8
0
100
AcDbBlockBegin
  2
_D_3
 70
     0
 10
0.0
 20
0.0
 30
0.0
  3
_D_3
  1

  0
SOLID
  5
18F
330
18C
100
AcDbEntity
  8
VERMASSUNG
100
AcDbTrace
 10
227.7167011411
 20
154.1803888969
 30
0.0
 11
224.7167011411
 21
154.6303888969
 31
0.0
 12
224.7167011411
 22
153.7303888969
 32
0.0
 13
224.7167011411
 23
153.7303888969
 33
0.0
  0
SOLID
  5
190
330
18C
100
AcDbEntity
  8
VERMASSUNG
100
AcDbTrace
 10
134.7167011411
 20
154.1803888969
 30
0.0
 11
137.7167011411
 21
153.7303888969
 31
0.0
 12
137.7167011411
 22
154.6303888969
 32
0.0
 13
137.7167011411
 23
154.6303888969
 33
0.0
  0
LINE
  5
191
330
18C
100
AcDbEntity
  8
VERMASSUNG
100
AcDbLine
 10
227.7167011411
 20
124.2244808182
 30
0.0
 11
227.7167011411
 21
155.1803888969
 31
0.0
  0
LINE
  5
192
330
18C
100
AcDbEntity
  8
VERMASSUNG
100
AcDbLine
 10
134.7167011411
 20
134.1494808182
 30
0.0
 11
134.7167011411
 21
155.1803888969
 31
0.0
  0
LINE
  5
193
330
18C
100
AcDbEntity
  8
VERMASSUNG
100
AcDbLine
 10
227.7167011411
 20
154.1803888969
 30
0.0
 11
134.7167011411
 21
154.1803888969
 31
0.0
  0
MTEXT
  5
194
330
18C
100
AcDbEntity
  8
VERMASSUNG
100
AcDbMText
 10
179.816701191
 20
156.7585244929
 30
0.0
 40
2.0
 41
0.0
 71
     1
 72
     1
  1
93
  7
SLDTEXTSTYLE0
 73
     1
 44
1.0
  0
ENDBLK
  5
18E
330
18C
100
AcDbEntity
  8
0
100
AcDbBlockEnd
  0
BLOCK
  5
197
330
196
100
AcDbEntity
  8
0
100
AcDbBlockBegin
  2
_D_4
 70
     0
 10
0.0
 20
0.0
 30
0.0
  3
_D_4
  1

  0
SOLID
  5
199
330
196
100
AcDbEntity
  8
VERMASSUNG
100
AcDbTrace
 10
233.324895737
 20
118.9244808182
 30
0.0
 11
232.874895737
 21
115.9244808182
 31
0.0
 12
233.774895737
 22
115.9244808182
 32
0.0
 13
233.774895737
 23
115.9244808182
 33
0.0
  0
SOLID
  5
19A
330
196
100
AcDbEntity
  8
VERMASSUNG
100
AcDbTrace
 10
233.324895737
 20
104.9244808182
 30
0.0
 11
233.774895737
 21
107.9244808182
 31
0.0
 12
232.874895737
 22
107.9244808182
 32
0.0
 13
232.874895737
 23
107.9244808182
 33
0.0
  0
LINE
  5
19B
330
196
100
AcDbEntity
  8
VERMASSUNG
100
AcDbLine
 10
226.7167011411
 20
118.9244808182
 30
0.0
 11
234.324895737
 21
118.9244808182
 31
0.0
  0
LINE
  5
19C
330
196
100
AcDbEntity
  8
VERMASSUNG
100
AcDbLine
 10
226.7167011411
 20
104.9244808182
 30
0.0
 11
234.324895737
 21
104.9244808182
 31
0.0
  0
LINE
  5
19D
330
196
100
AcDbEntity
  8
VERMASSUNG
100
AcDbLine
 10
233.324895737
 20
118.9244808182
 30
0.0
 11
233.324895737
 21
104.9244808182
 31
0.0
  0
MTEXT
  5
19E
330
196
100
AcDbEntity
  8
VERMASSUNG
100
AcDbMText
 10
230.7467604321
 20
108.8194806911
 30
0.0
 40
2.0
 41
0.0
 71
     1
 72
     1
  1
%%c
  7
SLDTEXTSTYLE0
 11
-7.044195017643634E-15
 21
1.0
 31
0.0
 73
     1
 44
1.0
  0
MTEXT
  5
19F
330
196
100
AcDbEntity
  8
VERMASSUNG
100
AcDbMText
 10
230.5467604808
 20
112.4294807054
 30
0.0
 40
2.0
 41
0.0
 71
     1
 72
     1
  1
14
  7
SLDTEXTSTYLE0
 11
-7.044195017643634E-15
 21
1.0
 31
0.0
 73
     1
 44
1.0
  0
ENDBLK
  5
198
330
196
100
AcDbEntity
  8
0
100
AcDbBlockEnd
  0
BLOCK
  5
1A2
330
1A1
100
AcDbEntity
  8
0
100
AcDbBlockBegin
  2
_D_5
 70
     0
 10
0.0
 20
0.0
 30
0.0
  3
_D_5
  1

  0
SOLID
  5
1A4
330
1A1
100
AcDbEntity
  8
VERMASSUNG
100
AcDbTrace
 10
239.624895737
 20
124.4244808182
 30
0.0
 11
239.174895737
 21
121.4244808182
 31
0.0
 12
240.074895737
 22
121.4244808182
 32
0.0
 13
240.074895737
 23
121.4244808182
 33
0.0
  0
SOLID
  5
1A5
330
1A1
100
AcDbEntity
  8
VERMASSUNG
100
AcDbTrace
 10
239.624895737
 20
99.4244808182
 30
0.0
 11
240.074895737
 21
102.4244808182
 31
0.0
 12
239.174895737
 22
102.4244808182
 32
0.0
 13
239.174895737
 23
102.4244808182
 33
0.0
  0
LINE
  5
1A6
330
1A1
100
AcDbEntity
  8
VERMASSUNG
100
AcDbLine
 10
227.5167011411
 20
124.4244808182
 30
0.0
 11
240.624895737
 21
124.4244808182
 31
0.0
  0
LINE
  5
1A7
330
1A1
100
AcDbEntity
  8
VERMASSUNG
100
AcDbLine
 10
227.5167011411
 20
99.4244808182
 30
0.0
 11
240.624895737
 21
99.4244808182
 31
0.0
  0
LINE
  5
1A8
330
1A1
100
AcDbEntity
  8
VERMASSUNG
100
AcDbLine
 10
239.624895737
 20
124.4244808182
 30
0.0
 11
239.624895737
 21
99.4244808182
 31
0.0
  0
MTEXT
  5
1A9
330
1A1
100
AcDbEntity
  8
VERMASSUNG
100
AcDbMText
 10
236.8467604808
 20
106.8194808289
 30
0.0
 40
2.0
 41
0.0
 71
     1
 72
     1
  1
WH
  7
SLDTEXTSTYLE0
 11
-7.044195017643634E-15
 21
1.0
 31
0.0
 73
     1
 44
1.0
  0
MTEXT
  5
1AA
330
1A1
100
AcDbEntity
  8
VERMASSUNG
100
AcDbMText
 10
237.0467604321
 20
110.619480893
 30
0.0
 40
2.0
 41
0.0
 71
     1
 72
     1
  1
%%c
  7
SLDTEXTSTYLE0
 11
-7.044195017643634E-15
 21
1.0
 31
0.0
 73
     1
 44
1.0
  0
MTEXT
  5
1AB
330
1A1
100
AcDbEntity
  8
VERMASSUNG
100
AcDbMText
 10
236.8467604808
 20
114.2294809073
 30
0.0
 40
2.0
 41
0.0
 71
     1
 72
     1
  1
25
  7
SLDTEXTSTYLE0
 11
-7.044195017643634E-15
 21
1.0
 31
0.0
 73
     1
 44
1.0
  0
ENDBLK
  5
1A3
330
1A1
100
AcDbEntity
  8
0
100
AcDbBlockEnd
  0
ENDSEC
  0
SECTION
  2
ENTITIES
  0
MTEXT
  5
78
330
1F
100
AcDbEntity
  8
KOPF_DÜNN
100
AcDbMText
 10
13.8892156294
 20
23.8442973028
 30
0.0
 40
3.0
 41
0.0
 71
     1
 72
     1
  1
A34.540.025.093
  7
SLDTEXTSTYLE0
 73
     1
 44
1.0
  0
MTEXT
  5
79
330
1F
100
AcDbEntity
  8
VERMASSUNG
100
AcDbMText
 10
13.9329988022
 20
28.8834360957
 30
0.0
 40
3.0
 41
0.0
 71
     1
 72
     1
  1
Aufnahme_Master shank WH25
  7
SLDTEXTSTYLE0
 73
     1
 44
1.0
  0
MTEXT
  5
7A
330
1F
100
AcDbEntity
  8
VERMASSUNG
100
AcDbMText
 10
98.8601118557
 20
13.8365368761
 30
0.0
 40
2.0
 41
0.0
 71
     1
 72
     1
  1
Datum: 17.11.2011
  7
SLDTEXTSTYLE0
 73
     1
 44
1.0
  0
MTEXT
  5
7B
330
1F
100
AcDbEntity
  8
VERMASSUNG
100
AcDbMText
 10
13.933048693
 20
18.0482802738
 30
0.0
 40
2.0
 41
0.0
 71
     1
 72
     1
  1
MAS-BT AD/B
  7
SLDTEXTSTYLE0
 73
     1
 44
1.0
  0
MTEXT
  5
7C
330
1F
100
AcDbEntity
  8
VERMASSUNG
100
AcDbMText
 10
13.9808475933
 20
13.9090974274
 30
0.0
 40
2.0
 41
0.0
 71
     1
 72
     1
  1
Gewicht: 1206g
  7
SLDTEXTSTYLE0
 73
     1
 44
1.0
  0
LINE
  5
7D
330
1F
100
AcDbEntity
  8
0
  6
Continuous
 62
     7
370
    15
100
AcDbLine
 10
158.7167035824
 20
80.4244808182
 30
0.0
 11
160.7167011411
 21
80.4244808182
 31
0.0
  0
LINE
  5
7E
330
1F
100
AcDbEntity
  8
0
  6
Continuous
 62
     7
370
    15
100
AcDbLine
 10
160.7167011411
 20
143.4244808182
 30
0.0
 11
158.716200971
 21
143.4244808182
 31
0.0
  0
ARC
  5
7F
330
1F
100
AcDbEntity
  8
0
  6
Continuous
 62
     7
370
    15
100
AcDbCircle
 10
160.7167011411
 20
81.4244808182
 30
0.0
 40
1.0
100
AcDbArc
 50
270.0
 51
0.0
  0
ARC
  5
80
330
1F
100
AcDbEntity
  8
0
  6
Continuous
 62
     7
370
    15
100
AcDbCircle
 10
160.7167011411
 20
142.4244808182
 30
0.0
 40
1.0
100
AcDbArc
 50
0.0
 51
90.0
  0
ARC
  5
81
330
1F
100
AcDbEntity
  8
0
  6
Continuous
 62
     7
370
    15
100
AcDbCircle
 10
135.7167011411
 20
88.6994808182
 30
0.0
 40
1.0
100
AcDbArc
 50
46.4299366488
 51
90.0
  0
ARC
  5
82
330
1F
100
AcDbEntity
  8
0
  6
Continuous
 62
     7
370
    15
100
AcDbCircle
 10
135.7167011411
 20
135.1494808182
 30
0.0
 40
1.000000000000006
100
AcDbArc
 50
270.0
 51
313.5373955816
  0
LINE
  5
83
330
1F
100
AcDbEntity
  8
0
  6
Continuous
 62
     7
370
    15
100
AcDbLine
 10
134.7167011411
 20
89.6994808182
 30
0.0
 11
135.7167011411
 21
89.6994808182
 31
0.0
  0
LINE
  5
84
330
1F
100
AcDbEntity
  8
0
  6
Continuous
 62
     7
370
    15
100
AcDbLine
 10
135.7167011411
 20
134.1494808182
 30
0.0
 11
134.7167011411
 21
134.1494808182
 31
0.0
  0
LINE
  5
85
330
1F
100
AcDbEntity
  8
0
  6
Continuous
 62
     7
370
    15
100
AcDbLine
 10
134.7167011411
 20
134.1494808182
 30
0.0
 11
70.172394248
 21
124.7367693963
 31
0.0
  0
LINE
  5
86
330
1F
100
AcDbEntity
  8
0
  6
Continuous
 62
     7
370
    15
100
AcDbLine
 10
70.172394248
 20
99.1121922401
 30
0.0
 11
134.7167011411
 21
89.6994808182
 31
0.0
  0
ARC
  5
87
330
1F
100
AcDbEntity
  8
0
  6
Continuous
 62
     7
370
    15
100
AcDbCircle
 10
164.7167011411
 20
96.4244808182
 30
0.0
 40
3.0
100
AcDbArc
 50
90.0
 51
180.0
  0
ARC
  5
88
330
1F
100
AcDbEntity
  8
0
  6
Continuous
 62
     7
370
    15
100
AcDbCircle
 10
164.7167011411
 20
127.4244808182
 30
0.0
 40
3.0
100
AcDbArc
 50
180.0
 51
270.0
  0
ARC
  5
89
330
1F
100
AcDbEntity
  8
0
  6
Continuous
 62
     7
370
    15
100
AcDbCircle
 10
70.3167011411
 20
100.1017252212
 30
0.0
 40
1.000000000000008
100
AcDbArc
 50
180.0
 51
261.7028550302
  0
ARC
  5
8A
330
1F
100
AcDbEntity
  8
0
  6
Continuous
 62
     7
370
    15
100
AcDbCircle
 10
70.3167011411
 20
123.7472364152
 30
0.0
 40
1.000000000000008
100
AcDbArc
 50
98.2971449698
 51
180.0
  0
LINE
  5
8B
330
1F
100
AcDbEntity
  8
0
  6
Continuous
 62
     7
370
    15
100
AcDbLine
 10
227.5167011411
 20
99.4244808182
 30
0.0
 11
227.7167011411
 21
99.6244808182
 31
0.0
  0
LINE
  5
8C
330
1F
100
AcDbEntity
  8
0
  6
Continuous
 62
     7
370
    15
100
AcDbLine
 10
227.7167011411
 20
124.2244808182
 30
0.0
 11
227.5167011411
 21
124.4244808182
 31
0.0
  0
LINE
  5
8D
330
1F
100
AcDbEntity
  8
0
  6
Continuous
 62
     7
370
    15
100
AcDbLine
 10
227.5167011411
 20
124.4244808182
 30
0.0
 11
164.7167011411
 21
124.4244808182
 31
0.0
  0
LINE
  5
8E
330
1F
100
AcDbEntity
  8
0
  6
Continuous
 62
     7
370
    15
100
AcDbLine
 10
164.7167011411
 20
99.4244808182
 30
0.0
 11
227.5167011411
 21
99.4244808182
 31
0.0
  0
SPLINE
  5
8F
330
1F
100
AcDbEntity
  8
0
  6
Continuous
 62
     7
370
    15
100
AcDbSpline
210
0.0
220
0.0
230
1.0
 70
     8
 71
     3
 72
    11
 73
     7
 74
     0
 42
0.000000001
 43
0.00000001
 40
0.0
 40
0.0
 40
0.0
 40
0.0
 40
0.2488814606714261
 40
0.5011921284371436
 40
0.7520447562616431
 40
1.0
 40
1.0
 40
1.0
 40
1.0
 10
158.7162009710332
 20
143.4243310727817
 30
0.0
 10
158.6864226415411
 20
143.4151990466372
 30
0.0
 10
158.6264556825753
 20
143.3968091689502
 30
0.0
 10
158.1345336207965
 20
143.2527719204636
 30
0.0
 10
157.4064641981678
 20
143.0433688423528
 30
0.0
 10
156.6957207269956
 20
142.8711645730032
 30
0.0
 10
156.3424132098592
 20
142.7855625726867
 30
0.0
  0
SPLINE
  5
90
330
1F
100
AcDbEntity
  8
0
  6
Continuous
 62
     7
370
    15
100
AcDbSpline
210
0.0
220
0.0
230
1.0
 70
     8
 71
     3
 72
    24
 73
    20
 74
     0
 42
0.000000001
 43
0.00000001
 40
0.0
 40
0.0
 40
0.0
 40
0.0
 40
0.0452123390553297
 40
0.0902993246598282
 40
0.1353091570720049
 40
0.1802902845531662
 40
0.2252912480536735
 40
0.2703605244088471
 40
0.315546370566241
 40
0.3608966713275183
 40
0.4064587929582132
 40
0.4522794448058856
 40
0.4984045507850309
 40
0.5831172992473144
 40
0.6669885232160451
 40
0.7503119012110596
 40
0.8333869220130001
 40
0.9165157587062372
 40
1.0
 40
1.0
 40
1.0
 40
1.0
 10
156.342319834468
 20
81.06338279865267
 30
0.0
 10
156.4100235763757
 20
81.04762375763408
 30
0.0
 10
156.5452433482112
 20
81.01614936831918
 30
0.0
 10
156.7379050650613
 20
80.96968856497806
 30
0.0
 10
156.922641936719
 20
80.92405758534451
 30
0.0
 10
157.0987598780164
 20
80.87943228791046
 30
0.0
 10
157.2664436706312
 20
80.83594500131136
 30
0.0
 10
157.4256431549233
 20
80.79374395351368
 30
0.0
 10
157.5763712934024
 20
80.75297736120216
 30
0.0
 10
157.7186242468367
 20
80.71379760859597
 30
0.0
 10
157.8524030019114
 20
80.67636031679181
 30
0.0
 10
157.9777069128376
 20
80.64082373283202
 30
0.0
 10
158.126812002432
 20
80.59810551965812
 30
0.0
 10
158.287666722511
 20
80.55157077477027
 30
0.0
 10
158.4436763548861
 20
80.50588572599429
 30
0.0
 10
158.5653300753741
 20
80.46984609931506
 30
0.0
 10
158.6517783758067
 20
80.44397205920579
 30
0.0
 10
158.7061183815814
 20
80.42755936874129
 30
0.0
 10
158.7131684484966
 20
80.42550846632889
 30
0.0
 10
158.7167010012506
 20
80.42448082771891
 30
0.0
  0
LINE
  5
91
330
1F
100
AcDbEntity
  8
0
  6
Continuous
 62
     7
370
    15
100
AcDbLine
 10
156.3417011411
 20
81.0633827987
 30
0.0
 11
156.3417011411
 21
142.7855625727
 31
0.0
  0
SPLINE
  5
92
330
1F
100
AcDbEntity
  8
0
  6
Continuous
 62
     7
370
    15
100
AcDbSpline
210
0.0
220
0.0
230
1.0
 70
     8
 71
     3
 72
    10
 73
     6
 74
     0
 42
0.000000001
 43
0.00000001
 40
0.0
 40
0.0
 40
0.0
 40
0.0
 40
0.5
 40
0.5
 40
1.0
 40
1.0
 40
1.0
 40
1.0
 10
155.6933095450958
 20
141.8289415395423
 30
0.0
 10
155.3772057139564
 20
141.2090789812652
 30
0.0
 10
155.0474266696116
 20
140.5631782459663
 30
0.0
 10
154.3752033972228
 20
139.2487596056657
 30
0.0
 10
154.0330702312922
 20
138.5808373786535
 30
0.0
 10
153.685889902778
 20
137.904499646172
 30
0.0
  0
SPLINE
  5
93
330
1F
100
AcDbEntity
  8
0
  6
Continuous
 62
     7
370
    15
100
AcDbSpline
210
0.0
220
0.0
230
1.0
 70
     8
 71
     3
 72
     9
 73
     5
 74
     0
 42
0.000000001
 43
0.00000001
 40
0.0
 40
0.0
 40
0.0
 40
0.0
 40
0.5067583433954557
 40
1.0
 40
1.0
 40
1.0
 40
1.0
 10
156.3423316840349
 20
142.7866159255371
 30
0.0
 10
156.2319317266865
 20
142.6245416658726
 30
0.0
 10
156.0140764929499
 20
142.3047161281644
 30
0.0
 10
155.799483146876
 20
141.9863675832123
 30
0.0
 10
155.6936367693621
 20
141.8293448195224
 30
0.0
  0
SPLINE
  5
94
330
1F
100
AcDbEntity
  8
0
  6
Continuous
 62
     7
370
    15
100
AcDbSpline
210
0.0
220
0.0
230
1.0
 70
     8
 71
     3
 72
     9
 73
     5
 74
     0
 42
0.000000001
 43
0.00000001
 40
0.0
 40
0.0
 40
0.0
 40
0.0
 40
0.4932438861072345
 40
1.0
 40
1.0
 40
1.0
 40
1.0
 10
155.6936228543393
 20
82.01961471648335
 30
0.0
 10
155.7994693448323
 20
81.86259080457776
 30
0.0
 10
156.0140619499802
 20
81.54424137070063
 30
0.0
 10
156.2319159989667
 20
81.2244158829604
 30
0.0
 10
156.3423148702269
 20
81.06234236166931
 30
0.0
  0
SPLINE
  5
95
330
1F
100
AcDbEntity
  8
0
  6
Continuous
 62
     7
370
    15
100
AcDbSpline
210
0.0
220
0.0
230
1.0
 70
     8
 71
     3
 72
    10
 73
     6
 74
     0
 42
0.000000001
 43
0.00000001
 40
0.0
 40
0.0
 40
0.0
 40
0.0
 40
0.5
 40
0.5
 40
1.0
 40
1.0
 40
1.0
 40
1.0
 10
155.693303625428
 20
82.02003170498311
 30
0.0
 10
155.3771245227539
 20
82.64004185699682
 30
0.0
 10
155.0466822955869
 20
83.28723992286453
 30
0.0
 10
154.3749707749042
 20
84.60065584745831
 30
0.0
 10
154.0329968998722
 20
85.26826711376111
 30
0.0
 10
153.685889902778
 20
85.94446199020427
 30
0.0
  0
LINE
  5
96
330
1F
100
AcDbEntity
  8
0
  6
Continuous
 62
     7
370
    15
100
AcDbLine
 10
161.7167011411
 20
81.4244808182
 30
0.0
 11
161.7167011411
 21
142.4244808108
 31
0.0
  0
LINE
  5
97
330
1F
100
AcDbEntity
  8
0
  6
Continuous
 62
     7
370
    15
100
AcDbLine
 10
136.7167011411
 20
82.7980752727
 30
0.0
 11
136.7167011411
 21
141.0508863637
 31
0.0
  0
SPLINE
  5
98
330
1F
100
AcDbEntity
  8
0
  6
Continuous
 62
     7
370
    15
100
AcDbSpline
210
0.0
220
0.0
230
1.0
 70
     8
 71
     3
 72
    12
 73
     8
 74
     0
 42
0.000000001
 43
0.00000001
 40
0.0
 40
0.0
 40
0.0
 40
0.0
 40
0.25
 40
0.25
 40
0.5
 40
0.5
 40
1.0
 40
1.0
 40
1.0
 40
1.0
 10
137.1037339640158
 20
141.9914707180091
 30
0.0
 10
137.0518732128278
 20
141.9346581456947
 30
0.0
 10
137.0031414158088
 20
141.8726659594429
 30
0.0
 10
136.9129684058914
 20
141.7366128863189
 30
0.0
 10
136.8711911576064
 20
141.6617067837202
 30
0.0
 10
136.7651022877605
 20
141.4235801484228
 30
0.0
 10
136.7167011410503
 20
141.240173416854
 30
0.0
 10
136.7167011410503
 20
141.0508863636721
 30
0.0
  0
SPLINE
  5
99
330
1F
100
AcDbEntity
  8
0
  6
Continuous
 62
     7
370
    15
100
AcDbSpline
210
0.0
220
0.0
230
1.0
 70
     8
 71
     3
 72
     8
 73
     4
 74
     0
 42
0.000000001
 43
0.00000001
 40
0.0
 40
0.0
 40
0.0
 40
0.0
 40
1.0
 40
1.0
 40
1.0
 40
1.0
 10
137.7167011410503
 20
142.16087092119
 30
0.0
 10
137.4903568274505
 20
142.16087092119
 30
0.0
 10
137.2729047070453
 20
142.0975024521691
 30
0.0
 10
137.1037339640158
 20
141.9914707180091
 30
0.0
  0
SPLINE
  5
9A
330
1F
100
AcDbEntity
  8
0
  6
Continuous
 62
     7
370
    15
100
AcDbSpline
210
0.0
220
0.0
230
1.0
 70
     8
 71
     3
 72
     8
 73
     4
 74
     0
 42
0.000000001
 43
0.00000001
 40
0.0
 40
0.0
 40
0.0
 40
0.0
 40
1.0
 40
1.0
 40
1.0
 40
1.0
 10
137.1037339640158
 20
81.85749091836718
 30
0.0
 10
137.2733274696678
 20
81.75119420780999
 30
0.0
 10
137.489696162001
 20
81.6880907151863
 30
0.0
 10
137.7167011410503
 20
81.6880907151863
 30
0.0
  0
SPLINE
  5
9B
330
1F
100
AcDbEntity
  8
0
  6
Continuous
 62
     7
370
    15
100
AcDbSpline
210
0.0
220
0.0
230
1.0
 70
     8
 71
     3
 72
    12
 73
     8
 74
     0
 42
0.000000001
 43
0.00000001
 40
0.0
 40
0.0
 40
0.0
 40
0.0
 40
0.2499999999999983
 40
0.2499999999999983
 40
0.4999999999999967
 40
0.4999999999999967
 40
1.0
 40
1.0
 40
1.0
 40
1.0
 10
137.1037339640158
 20
81.85749091836719
 30
0.0
 10
137.0518732128278
 20
81.91430349068158
 30
0.0
 10
137.0031414158088
 20
81.97629567693338
 30
0.0
 10
136.9129684058914
 20
82.11234875005738
 30
0.0
 10
136.8711911576064
 20
82.18725485265611
 30
0.0
 10
136.7651022877605
 20
82.42538148795352
 30
0.0
 10
136.7167011410503
 20
82.6087882195223
 30
0.0
 10
136.7167011410503
 20
82.79807527270417
 30
0.0
  0
LINE
  5
9C
330
1F
100
AcDbEntity
  8
0
  6
Continuous
 62
     7
370
    15
100
AcDbLine
 10
146.2917011411
 20
142.1608709212
 30
0.0
 11
137.7167011411
 21
142.1608709212
 31
0.0
  0
LINE
  5
9D
330
1F
100
AcDbEntity
  8
0
  6
Continuous
 62
     7
370
    15
100
AcDbLine
 10
146.2917011411
 20
81.6880907152
 30
0.0
 11
146.2917011411
 21
142.1608709212
 31
0.0
  0
LINE
  5
9E
330
1F
100
AcDbEntity
  8
0
  6
Continuous
 62
     7
370
    15
100
AcDbLine
 10
137.7167011411
 20
81.6880907152
 30
0.0
 11
146.2917011411
 21
81.6880907152
 31
0.0
  0
SPLINE
  5
9F
330
1F
100
AcDbEntity
  8
0
  6
Continuous
 62
     7
370
    15
100
AcDbSpline
210
0.0
220
0.0
230
1.0
 70
     8
 71
     3
 72
     8
 73
     4
 74
     0
 42
0.000000001
 43
0.00000001
 40
0.0
 40
0.0
 40
0.0
 40
0.0
 40
0.0012389803509652
 40
0.0012389803509652
 40
0.0012389803509652
 40
0.0012389803509652
 10
146.8492626845841
 20
141.3785035409746
 30
0.0
 10
146.6641427114513
 20
141.6395535223536
 30
0.0
 10
146.4782642636923
 20
141.9003351354726
 30
0.0
 10
146.2917011410503
 20
142.16087092119
 30
0.0
  0
SPLINE
  5
A0
330
1F
100
AcDbEntity
  8
0
  6
Continuous
 62
     7
370
    15
100
AcDbSpline
210
0.0
220
0.0
230
1.0
 70
     8
 71
     3
 72
     8
 73
     4
 74
     0
 42
0.000000001
 43
0.00000001
 40
0.0
 40
0.0
 40
0.0
 40
0.0
 40
1.0
 40
1.0
 40
1.0
 40
1.0
 10
148.9475123793226
 20
137.5917264826531
 30
0.0
 10
148.251219013281
 20
138.855664850768
 30
0.0
 10
147.5514238480899
 20
140.1177202962762
 30
0.0
 10
146.8492626845841
 20
141.3785035409746
 30
0.0
  0
SPLINE
  5
A1
330
1F
100
AcDbEntity
  8
0
  6
Continuous
 62
     7
370
    15
100
AcDbSpline
210
0.0
220
0.0
230
1.0
 70
     8
 71
     3
 72
     8
 73
     4
 74
     0
 42
0.000000001
 43
0.00000001
 40
0.0
 40
0.0
 40
0.0
 40
0.0
 40
1.0
 40
1.0
 40
1.0
 40
1.0
 10
148.9475123793225
 20
86.25723515372309
 30
0.0
 10
148.2511942386646
 20
84.99325181377631
 30
0.0
 10
147.5513970465542
 20
83.73119321592435
 30
0.0
 10
146.8492626845841
 20
82.47045809540165
 30
0.0
  0
SPLINE
  5
A2
330
1F
100
AcDbEntity
  8
0
  6
Continuous
 62
     7
370
    15
100
AcDbSpline
210
0.0
220
0.0
230
1.0
 70
     8
 71
     3
 72
     8
 73
     4
 74
     0
 42
0.000000001
 43
0.00000001
 40
0.0
 40
0.0
 40
0.0
 40
0.0
 40
0.0012389803509652
 40
0.0012389803509652
 40
0.0012389803509652
 40
0.0012389803509652
 10
146.2917011410503
 20
81.6880907151863
 30
0.0
 10
146.4782642636923
 20
81.94862650090366
 30
0.0
 10
146.6641427114512
 20
82.20940811402266
 30
0.0
 10
146.8492626845841
 20
82.47045809540165
 30
0.0
  0
SPLINE
  5
A3
330
1F
100
AcDbEntity
  8
0
  6
Continuous
 62
     7
370
    15
100
AcDbSpline
210
0.0
220
0.0
230
1.0
 70
     8
 71
     3
 72
    10
 73
     6
 74
     0
 42
0.000000001
 43
0.00000001
 40
0.0
 40
0.0
 40
0.0
 40
0.0
 40
0.5
 40
0.5
 40
1.0
 40
1.0
 40
1.0
 40
1.0
 10
149.6403327023501
 20
137.1722034877677
 30
0.0
 10
149.4983153899032
 20
137.1722034877677
 30
0.0
 10
149.3578683430409
 20
137.2126933399772
 30
0.0
 10
149.1162784237796
 20
137.3606291699163
 30
0.0
 10
149.0156009815263
 20
137.4681294458958
 30
0.0
 10
148.9475123793227
 20
137.5917264826529
 30
0.0
  0
SPLINE
  5
A4
330
1F
100
AcDbEntity
  8
0
  6
Continuous
 62
     7
370
    15
100
AcDbSpline
210
0.0
220
0.0
230
1.0
 70
     8
 71
     3
 72
    10
 73
     6
 74
     0
 42
0.000000001
 43
0.00000001
 40
0.0
 40
0.0
 40
0.0
 40
0.0
 40
0.5
 40
0.5
 40
1.0
 40
1.0
 40
1.0
 40
1.0
 10
149.6403327023501
 20
86.67675814860861
 30
0.0
 10
149.4994753378394
 20
86.67675814860861
 30
0.0
 10
149.3566412063653
 20
86.63565424278994
 30
0.0
 10
149.1163795155919
 20
86.48825634948896
 30
0.0
 10
149.0156732465125
 20
86.38096336864932
 30
0.0
 10
148.9475123793225
 20
86.2572351537231
 30
0.0
  0
SPLINE
  5
A5
330
1F
100
AcDbEntity
  8
0
  6
Continuous
 62
     7
370
    15
100
AcDbSpline
210
0.0
220
0.0
230
1.0
 70
     8
 71
     3
 72
    12
 73
     8
 74
     0
 42
0.000000001
 43
0.00000001
 40
0.0
 40
0.0
 40
0.0
 40
0.0
 40
0.25
 40
0.25
 40
0.5
 40
0.5
 40
1.0
 40
1.0
 40
1.0
 40
1.0
 10
153.685889902778
 20
137.904499646172
 30
0.0
 10
153.6499857524415
 20
137.8345552120239
 30
0.0
 10
153.607454200312
 20
137.7713038489661
 30
0.0
 10
153.510659923472
 20
137.6562451940501
 30
0.0
 10
153.4555702452077
 20
137.6039166603381
 30
0.0
 10
153.2774370116537
 20
137.470131757253
 30
0.0
 10
153.1400599196512
 20
137.4095839900949
 30
0.0
 10
152.9930695797512
 20
137.390384041711
 30
0.0
  0
SPLINE
  5
A6
330
1F
100
AcDbEntity
  8
0
  6
Continuous
 62
     7
370
    15
100
AcDbSpline
210
0.0
220
0.0
230
1.0
 70
     8
 71
     3
 72
    12
 73
     8
 74
     0
 42
0.000000001
 43
0.00000001
 40
0.0
 40
0.0
 40
0.0
 40
0.0
 40
0.25
 40
0.25
 40
0.5
 40
0.5
 40
1.0
 40
1.0
 40
1.0
 40
1.0
 10
153.685889902778
 20
85.94446199020425
 30
0.0
 10
153.6499857524415
 20
86.01440642435242
 30
0.0
 10
153.607454200312
 20
86.07765778741025
 30
0.0
 10
153.510659923472
 20
86.19271644232619
 30
0.0
 10
153.4555702452077
 20
86.24504497603816
 30
0.0
 10
153.2774370116537
 20
86.37882987912326
 30
0.0
 10
153.1400599196512
 20
86.43937764628143
 30
0.0
 10
152.9930695797512
 20
86.45857759466531
 30
0.0
  0
LINE
  5
A7
330
1F
100
AcDbEntity
  8
0
  6
Continuous
 62
     7
370
    15
100
AcDbLine
 10
149.6667011411
 20
86.6767581486
 30
0.0
 11
149.6403327024
 21
86.6767581486
 31
0.0
  0
LINE
  5
A8
330
1F
100
AcDbEntity
  8
0
  6
Continuous
 62
     7
370
    15
100
AcDbLine
 10
149.6667011411
 20
137.1722034878
 30
0.0
 11
149.6403327024
 21
137.1722034878
 31
0.0
  0
SPLINE
  5
A9
330
1F
100
AcDbEntity
  8
0
  6
Continuous
 62
     7
370
    15
100
AcDbSpline
210
0.0
220
0.0
230
1.0
 70
     8
 71
     3
 72
    10
 73
     6
 74
     0
 42
0.000000001
 43
0.00000001
 40
0.0
 40
0.0
 40
0.0
 40
0.0
 40
0.5000000000000001
 40
0.5000000000000001
 40
1.0
 40
1.0
 40
1.0
 40
1.0
 10
152.9930695797505
 20
137.3903840417139
 30
0.0
 10
152.4711548553546
 20
137.3222112912057
 30
0.0
 10
151.9323036752452
 20
137.2675880262478
 30
0.0
 10
150.820941033213
 20
137.1924921733564
 30
0.0
 10
150.244100256017
 20
137.1722034877677
 30
0.0
 10
149.6667011410503
 20
137.1722034877677
 30
0.0
  0
SPLINE
  5
AA
330
1F
100
AcDbEntity
  8
0
  6
Continuous
 62
     7
370
    15
100
AcDbSpline
210
0.0
220
0.0
230
1.0
 70
     8
 71
     3
 72
    10
 73
     6
 74
     0
 42
0.000000001
 43
0.00000001
 40
0.0
 40
0.0
 40
0.0
 40
0.0
 40
0.5000000000000001
 40
0.5000000000000001
 40
1.0
 40
1.0
 40
1.0
 40
1.0
 10
152.9930695797505
 20
86.45857759466239
 30
0.0
 10
152.4711548553546
 20
86.52675034517057
 30
0.0
 10
151.9323036752452
 20
86.58137361012851
 30
0.0
 10
150.820941033213
 20
86.65646946301986
 30
0.0
 10
150.244100256017
 20
86.67675814860861
 30
0.0
 10
149.6667011410503
 20
86.67675814860861
 30
0.0
  0
SPLINE
  5
AB
330
1F
100
AcDbEntity
  8
0
  6
Continuous
 62
     7
370
    15
100
AcDbSpline
210
0.0
220
0.0
230
1.0
 70
    24
 71
     3
 72
    10
 73
     6
 74
     0
 42
0.000000001
 43
0.00000001
 40
0.0
 40
0.0
 40
0.0
 40
0.0
 40
0.1265642595179368
 40
0.9999912776279501
 40
1.0
 40
1.0
 40
1.0
 40
1.0
 10
136.5218775778801
 20
134.4244808181881
 30
0.0
 10
136.5140084656192
 20
134.4244808181877
 30
0.0
 10
136.4518341704938
 20
134.4244808181843
 30
0.0
 10
136.3760416251332
 20
134.4244808182617
 30
0.0
 10
136.4054505941108
 20
134.4244808181881
 30
0.0
 10
136.405450887797
 20
134.4244808181881
 30
0.0
  0
SPLINE
  5
AC
330
1F
100
AcDbEntity
  8
0
  6
Continuous
 62
     7
370
    15
100
AcDbSpline
210
0.0
220
0.0
230
1.0
 70
    24
 71
     3
 72
     9
 73
     5
 74
     0
 42
0.000000001
 43
0.00000001
 40
0.0
 40
0.0
 40
0.0
 40
0.0
 40
0.8279593837915584
 40
0.9999999999999999
 40
0.9999999999999999
 40
0.9999999999999999
 40
0.9999999999999999
 10
136.4054509775078
 20
89.42448081818816
 30
0.0
 10
136.4227321143776
 20
89.42448081818816
 30
0.0
 10
136.4436040764667
 20
89.42448081818816
 30
0.0
 10
136.5094931824307
 20
89.42448081818816
 30
0.0
 10
136.5208287848222
 20
89.42448081818816
 30
0.0
  0
LINE
  5
AD
330
1F
100
AcDbEntity
  8
0
  6
Continuous
 62
     7
370
    15
100
AcDbLine
 10
134.7167011411
 20
89.6994808182
 30
0.0
 11
134.7167011411
 21
134.1494808182
 31
0.0
  0
LINE
  5
AE
330
1F
100
AcDbEntity
  8
0
  6
Continuous
 62
     7
370
    15
100
AcDbLine
 10
69.3167011411
 20
100.1017252212
 30
0.0
 11
69.3167011411
 21
123.7472364152
 31
0.0
  0
LINE
  5
AF
330
1F
100
AcDbEntity
  8
0
  6
Continuous
 62
     7
370
    15
100
AcDbLine
 10
227.7167011411
 20
111.9244808182
 30
0.0
 11
227.7167011411
 21
99.6244808182
 31
0.0
  0
LINE
  5
B0
330
1F
100
AcDbEntity
  8
0
  6
Continuous
 62
     7
370
    15
100
AcDbLine
 10
227.7167011411
 20
124.2244808182
 30
0.0
 11
227.7167011411
 21
111.9244808182
 31
0.0
  0
LINE
  5
B1
330
1F
100
AcDbEntity
  8
0
  6
Continuous
 62
     7
370
    15
100
AcDbLine
 10
227.5167011411
 20
111.9244808182
 30
0.0
 11
227.5167011411
 21
99.4244808182
 31
0.0
  0
LINE
  5
B2
330
1F
100
AcDbEntity
  8
0
  6
Continuous
 62
     7
370
    15
100
AcDbLine
 10
227.5167011411
 20
124.4244808182
 30
0.0
 11
227.5167011411
 21
111.9244808182
 31
0.0
  0
SPLINE
  5
B3
330
1F
100
AcDbEntity
  8
0
  6
Continuous
 62
     7
370
    15
100
AcDbSpline
210
0.0
220
0.0
230
1.0
 70
    11
 71
     3
 72
    74
 73
    70
 74
     0
 42
0.000000001
 43
0.00000001
 40
0.0
 40
0.0
 40
0.0
 40
0.0
 40
0.0625000000000014
 40
0.0625000000000014
 40
0.0937500000000021
 40
0.0937500000000021
 40
0.1250000000000028
 40
0.1250000000000028
 40
0.1562500000000035
 40
0.1562500000000035
 40
0.1875000000000042
 40
0.1875000000000042
 40
0.2500000000000043
 40
0.2500000000000043
 40
0.2812500000000043
 40
0.2812500000000043
 40
0.3125000000000043
 40
0.3125000000000043
 40
0.3437500000000043
 40
0.3437500000000043
 40
0.3750000000000043
 40
0.3750000000000043
 40
0.3906250000000043
 40
0.3906250000000043
 40
0.4062500000000043
 40
0.4062500000000043
 40
0.4375000000000042
 40
0.4375000000000042
 40
0.4687500000000041
 40
0.4687500000000041
 40
0.500000000000004
 40
0.500000000000004
 40
0.531250000000004
 40
0.531250000000004
 40
0.562500000000004
 40
0.562500000000004
 40
0.5937500000000039
 40
0.5937500000000039
 40
0.6250000000000038
 40
0.6250000000000038
 40
0.6562500000000038
 40
0.6562500000000038
 40
0.6875000000000037
 40
0.6875000000000037
 40
0.7187500000000037
 40
0.7187500000000037
 40
0.7500000000000036
 40
0.7500000000000036
 40
0.7812500000000034
 40
0.7812500000000034
 40
0.7968750000000034
 40
0.7968750000000034
 40
0.8125000000000033
 40
0.8125000000000033
 40
0.8437500000000026
 40
0.8437500000000026
 40
0.8593750000000021
 40
0.8593750000000021
 40
0.8750000000000017
 40
0.8750000000000017
 40
0.906250000000001
 40
0.906250000000001
 40
0.9218750000000008
 40
0.9218750000000008
 40
0.9375000000000006
 40
0.9375000000000006
 40
0.9687500000000003
 40
0.9687500000000003
 40
1.0
 40
1.0
 40
1.0
 40
1.0
 10
215.228469741358
 20
115.2666123482009
 30
0.0
 10
215.7401127035762
 20
115.6430945996944
 30
0.0
 10
216.3057818327686
 20
115.9189066450009
 30
0.0
 10
217.2233600830982
 20
116.1962746114941
 30
0.0
 10
217.5334168266655
 20
116.2630907834897
 30
0.0
 10
218.1616274426153
 20
116.348163808447
 30
0.0
 10
218.4811961085601
 20
116.3663663588369
 30
0.0
 10
219.1227488821222
 20
116.3521823995761
 30
0.0
 10
219.4387447341504
 20
116.3201579105893
 30
0.0
 10
220.0615203717967
 20
116.2076091944432
 30
0.0
 10
220.3693782362079
 20
116.1267254173877
 30
0.0
 10
221.2716046722514
 20
115.8083654608804
 30
0.0
 10
221.8222052783392
 20
115.506924908366
 30
0.0
 10
222.5584446778566
 20
114.9041455600178
 30
0.0
 10
222.7815357259305
 20
114.6831927467294
 30
0.0
 10
223.1803084164079
 20
114.1974849121347
 30
0.0
 10
223.3575717515797
 20
113.9290066098788
 30
0.0
 10
223.6425139025516
 20
113.3634799803504
 30
0.0
 10
223.7521810991023
 20
113.0647637746283
 30
0.0
 10
223.8948662519192
 20
112.437291783416
 30
0.0
 10
223.9252246256102
 20
112.1210277894431
 30
0.0
 10
223.9094071941292
 20
111.6428342133547
 30
0.0
 10
223.8935678865387
 20
111.4815415621768
 30
0.0
 10
223.8416374217284
 20
111.1650224406922
 30
0.0
 10
223.8057726675942
 20
111.0098342682251
 30
0.0
 10
223.6700851821975
 20
110.5529495960996
 30
0.0
 10
223.5402040822698
 20
110.2568374222775
 30
0.0
 10
223.2215813394591
 20
109.7092462451959
 30
0.0
 10
223.0320561556413
 20
109.4545353236596
 30
0.0
 10
222.6033830143121
 20
108.9864637611225
 30
0.0
 10
222.3684514937853
 20
108.7772104885913
 30
0.0
 10
221.8613096461845
 20
108.4021643244025
 30
0.0
 10
221.5876512981245
 20
108.2362587886038
 30
0.0
 10
221.0221545208023
 20
107.9560455138794
 30
0.0
 10
220.7282996510348
 20
107.8400200675524
 30
0.0
 10
220.1183814830478
 20
107.6547740021242
 30
0.0
 10
219.8043800437807
 20
107.5866828038742
 30
0.0
 10
219.1754756818263
 20
107.5010849428369
 30
0.0
 10
218.8581576853549
 20
107.482805999382
 30
0.0
 10
218.2176427118924
 20
107.4962892556707
 30
0.0
 10
217.8972921747078
 20
107.5284432625099
 30
0.0
 10
217.2734992744638
 20
107.6409452664106
 30
0.0
 10
216.9674596355781
 20
107.7212809022659
 30
0.0
 10
216.367410711858
 20
107.9325039890431
 30
0.0
 10
216.0758308438296
 20
108.0630738972421
 30
0.0
 10
215.5269276762241
 20
108.3675492220896
 30
0.0
 10
215.2669202632346
 20
108.5422612933141
 30
0.0
 10
214.7781644534578
 20
108.9419640517126
 30
0.0
 10
214.5513491370542
 20
109.1663006063567
 30
0.0
 10
214.2521849548469
 20
109.5308325718096
 30
0.0
 10
214.1587182300225
 20
109.6575374804215
 30
0.0
 10
213.9851787048298
 20
109.9222086704386
 30
0.0
 10
213.9046599477599
 20
110.0611387132124
 30
0.0
 10
213.6896777877588
 20
110.4880229558378
 30
0.0
 10
213.5807816316104
 20
110.7858904614776
 30
0.0
 10
213.4742174710092
 20
111.2548777482019
 30
0.0
 10
213.4484634919207
 20
111.4149668055586
 30
0.0
 10
213.4182298683556
 20
111.7328587137692
 30
0.0
 10
213.4134189616252
 20
111.8918916720229
 30
0.0
 10
213.4297622407337
 20
112.3692505045205
 30
0.0
 10
213.4833098185152
 20
112.6913994429071
 30
0.0
 10
213.6198701634456
 20
113.1489470619569
 30
0.0
 10
213.6746605505443
 20
113.2981314123659
 30
0.0
 10
213.8021182990428
 20
113.5901173493805
 30
0.0
 10
213.8752366109953
 20
113.7335382825512
 30
0.0
 10
214.1156735380482
 20
114.1454708901374
 30
0.0
 10
214.3046049938357
 20
114.3985425688477
 30
0.0
 10
214.7343176562034
 20
114.8666235401711
 30
0.0
 10
214.9726482602489
 20
115.0783712224541
 30
0.0
 10
215.228469741358
 20
115.2666123482009
 30
0.0
  0
LINE
  5
B4
330
1F
100
AcDbEntity
  8
0
  6
Continuous
 62
     7
370
    15
100
AcDbLine
 10
220.812526167
 20
111.070801551
 30
0.0
 11
219.000305722
 21
109.6393022
 31
0.0
  0
CIRCLE
  5
B5
330
1F
100
AcDbEntity
  8
0
  6
Continuous
 62
     7
370
    15
100
AcDbCircle
 10
218.6667011411
 20
111.9244808182
 30
0.0
 40
4.00000000000002
  0
LINE
  5
B6
330
1F
100
AcDbEntity
  8
0
  6
Continuous
 62
     7
370
    15
100
AcDbLine
 10
220.4789215861
 20
113.3559801692
 30
0.0
 11
220.812526167
 21
111.070801551
 31
0.0
  0
LINE
  5
B7
330
1F
100
AcDbEntity
  8
0
  6
Continuous
 62
     7
370
    15
100
AcDbLine
 10
216.854480696
 20
110.4929814672
 30
0.0
 11
216.5208761151
 21
112.7781600853
 31
0.0
  0
LINE
  5
B8
330
1F
100
AcDbEntity
  8
0
  6
Continuous
 62
     7
370
    15
100
AcDbLine
 10
219.000305722
 20
109.6393022
 30
0.0
 11
216.854480696
 21
110.4929814672
 31
0.0
  0
LINE
  5
B9
330
1F
100
AcDbEntity
  8
0
  6
Continuous
 62
     7
370
    15
100
AcDbLine
 10
216.5208761151
 20
112.7781600853
 30
0.0
 11
218.3330965601
 21
114.2096594363
 31
0.0
  0
LINE
  5
BA
330
1F
100
AcDbEntity
  8
0
  6
Continuous
 62
     7
370
    15
100
AcDbLine
 10
218.3330965601
 20
114.2096594363
 30
0.0
 11
220.4789215861
 21
113.3559801692
 31
0.0
  0
SPLINE
  5
BB
330
1F
100
AcDbEntity
  8
0
  6
HIDDEN
 62
     7
370
     0
100
AcDbSpline
210
0.0
220
0.0
230
1.0
 70
     8
 71
     3
 72
    17
 73
    13
 74
     0
 42
0.000000001
 43
0.00000001
 40
0.0
 40
0.0
 40
0.0
 40
0.0
 40
0.0000911568563012
 40
0.0001118962256225
 40
0.2495351486518076
 40
0.5019954014616274
 40
0.5864123905084778
 40
0.6698717771552243
 40
0.7526625357481239
 40
0.8350806749679495
 40
0.9174262229421157
 40
1.0
 40
1.0
 40
1.0
 40
1.0
 10
158.7167010012506
 20
80.42448082771891
 30
0.0
 10
158.7167012654756
 20
80.42448082366298
 30
0.0
 10
158.7167015898151
 20
80.42448081868426
 30
0.0
 10
158.7173160178968
 20
80.42447967708792
 30
0.0
 10
158.613177080842
 20
80.45669634356257
 30
0.0
 10
158.2446903790499
 20
80.56505749456333
 30
0.0
 10
157.8780779859382
 20
80.66988817281629
 30
0.0
 10
157.6285464266611
 20
80.73958087756832
 30
0.0
 10
157.350760640406
 20
80.81472258648806
 30
0.0
 10
157.0441008637041
 20
80.89438758007252
 30
0.0
 10
156.710914031073
 20
80.97753676151048
 30
0.0
 10
156.4659165889246
 20
81.03484924373805
 30
0.0
 10
156.3432483439279
 20
81.06354514174255
 30
0.0
  0
LWPOLYLINE
  5
BC
330
1F
100
AcDbEntity
  8
0
  6
HIDDEN
 62
     7
370
     0
100
AcDbPolyline
 90
       22
 70
   128
 43
0.0
 10
136.9652721194
 20
102.9367687257
 10
137.1028046025
 20
102.3269009665
 10
137.3170980843
 20
101.7712226341
 10
137.5891116484
 20
101.3191081868
 10
137.894675696
 20
101.0107299774
 10
138.2066395204
 20
100.8734887631
 10
138.4972837669
 20
100.919579028
 10
138.7407834186
 20
101.1449054498
 10
138.915502463
 20
101.5294467871
 10
139.0059163462
 20
102.0390348547
 10
139.0039913978
 20
102.6283905163
 10
138.9098986581
 20
103.2451469351
 10
138.7319986799
 20
103.8345025967
 10
138.4860986568
 20
104.3440906642
 10
138.1940478852
 20
104.7286320015
 10
137.8817963576
 20
104.9539584234
 10
137.5770889927
 20
105.0000486883
 10
137.3070003769
 20
104.8628074739
 10
137.095529069
 20
104.5544292645
 10
136.9614652229
 20
104.1023148173
 10
136.9167209994
 20
103.5466364849
 10
136.9652721194
 20
102.9367687257
  0
LWPOLYLINE
  5
BD
330
1F
100
AcDbEntity
  8
0
  6
HIDDEN
 62
     7
370
     0
100
AcDbPolyline
 90
       19
 70
   128
 43
0.0
 10
137.3217074137
 20
102.9647778848
 10
137.4539862813
 20
102.4087576828
 10
137.6652145307
 20
101.9198017232
 10
137.9299149175
 20
101.5568853109
 10
138.2161606684
 20
101.3637815213
 10
138.4894263215
 20
101.3637815213
 10
138.7167520059
 20
101.5568853109
 10
138.8707188892
 20
101.9198017232
 10
138.9327562929
 20
102.4087576828
 10
138.8953815906
 20
102.9647778848
 10
138.7631027229
 20
103.5207980868
 10
138.5518744736
 20
104.0097540464
 10
138.2871740868
 20
104.3726704587
 10
138.0009283358
 20
104.5657742483
 10
137.7276626828
 20
104.5657742483
 10
137.5003369983
 20
104.3726704587
 10
137.3463701151
 20
104.0097540464
 10
137.2843327113
 20
103.5207980868
 10
137.3217074137
 20
102.9647778848
  0
SPLINE
  5
BE
330
1F
100
AcDbEntity
  8
0
  6
HIDDEN
 62
     7
370
     0
100
AcDbSpline
210
0.0
220
0.0
230
1.0
 70
     8
 71
     3
 72
    12
 73
     8
 74
     0
 42
0.000000001
 43
0.00000001
 40
0.0
 40
0.0
 40
0.0
 40
0.0
 40
0.5000000000000014
 40
0.5000000000000014
 40
0.7500000000000007
 40
0.7500000000000007
 40
1.0
 40
1.0
 40
1.0
 40
1.0
 10
149.307782753729
 20
105.1459114949818
 30
0.0
 10
149.3808831142043
 20
104.9511765272205
 30
0.0
 10
149.4167868635365
 20
104.7435983521917
 30
0.0
 10
149.4168389815868
 20
104.4478367021202
 30
0.0
 10
149.4078021714965
 20
104.3501407095463
 30
0.0
 10
149.3717496983807
 20
104.1662728007176
 30
0.0
 10
149.3448020572779
 20
104.0789830941106
 30
0.0
 10
149.307782753729
 20
103.9961839783907
 30
0.0
  0
SPLINE
  5
BF
330
1F
100
AcDbEntity
  8
0
  6
HIDDEN
 62
     7
370
     0
100
AcDbSpline
210
0.0
220
0.0
230
1.0
 70
     8
 71
     3
 72
    50
 73
    46
 74
     0
 42
0.000000001
 43
0.00000001
 40
0.0
 40
0.0
 40
0.0
 40
0.0
 40
0.0625000000000017
 40
0.0625000000000017
 40
0.1250000000000033
 40
0.1250000000000033
 40
0.1875000000000049
 40
0.1875000000000049
 40
0.2500000000000066
 40
0.2500000000000066
 40
0.2812500000000069
 40
0.2812500000000069
 40
0.3125000000000072
 40
0.3125000000000072
 40
0.375000000000007
 40
0.375000000000007
 40
0.4062500000000068
 40
0.4062500000000068
 40
0.4375000000000065
 40
0.4375000000000065
 40
0.4687500000000062
 40
0.4687500000000062
 40
0.5000000000000059
 40
0.5000000000000059
 40
0.5312500000000056
 40
0.5312500000000056
 40
0.5625000000000053
 40
0.5625000000000053
 40
0.593750000000005
 40
0.593750000000005
 40
0.6250000000000048
 40
0.6250000000000048
 40
0.6875000000000042
 40
0.6875000000000042
 40
0.7187500000000034
 40
0.7187500000000034
 40
0.7500000000000027
 40
0.7500000000000027
 40
0.812500000000002
 40
0.812500000000002
 40
0.8750000000000013
 40
0.8750000000000013
 40
0.9375000000000007
 40
0.9375000000000007
 40
1.0
 40
1.0
 40
1.0
 40
1.0
 10
149.307782753729
 20
103.9961839783907
 30
0.0
 10
149.3629690490735
 20
103.8653591124524
 30
0.0
 10
149.4321256773545
 20
103.7794421855653
 30
0.0
 10
149.5796641256607
 20
103.6561446784589
 30
0.0
 10
149.6559490468838
 20
103.6221198282872
 30
0.0
 10
149.8007411740452
 20
103.5927674056878
 30
0.0
 10
149.8705961671247
 20
103.597774596181
 30
0.0
 10
149.9792224408186
 20
103.6483971149802
 30
0.0
 10
150.0191256705205
 20
103.6942005179017
 30
0.0
 10
150.0168706470179
 20
103.8079118684269
 30
0.0
 10
150.0049792197504
 20
103.8544886035194
 30
0.0
 10
149.9576449307021
 20
103.9624590910644
 30
0.0
 10
149.9220549038681
 20
104.024810231667
 30
0.0
 10
149.790851154002
 20
104.2354844335665
 30
0.0
 10
149.6766115581468
 20
104.4026579453206
 30
0.0
 10
149.5232745483194
 20
104.677396932749
 30
0.0
 10
149.4738401869711
 20
104.7746926716163
 30
0.0
 10
149.3860748521009
 20
104.9739124832041
 30
0.0
 10
149.3475947280039
 20
105.0757445155917
 30
0.0
 10
149.2837590700706
 20
105.2846880221193
 30
0.0
 10
149.2586053950815
 20
105.3918863681895
 30
0.0
 10
149.225293002887
 20
105.6022263347223
 30
0.0
 10
149.2166843489329
 20
105.7066004122679
 30
0.0
 10
149.2167179820302
 20
105.9137828224565
 30
0.0
 10
149.2254175892391
 20
106.0134753408192
 30
0.0
 10
149.2589025254726
 20
106.2033580836576
 30
0.0
 10
149.2841164738529
 20
106.2948138644368
 30
0.0
 10
149.3481165068431
 20
106.4626566001355
 30
0.0
 10
149.3866836589943
 20
106.539194005551
 30
0.0
 10
149.4746332203519
 20
106.6774371281611
 30
0.0
 10
149.5240692211077
 20
106.7387922741142
 30
0.0
 10
149.6773500122189
 20
106.891934859555
 30
0.0
 10
149.7916635161445
 20
106.9567408110657
 30
0.0
 10
149.9221100826673
 20
106.9775931727116
 30
0.0
 10
149.9581349924597
 20
106.9716239175539
 30
0.0
 10
150.0052632855047
 20
106.936670847719
 30
0.0
 10
150.0169999912635
 20
106.9072124773691
 30
0.0
 10
150.0189022200996
 20
106.7965015367907
 30
0.0
 10
149.9787788266516
 20
106.6931616322476
 30
0.0
 10
149.8705065492101
 20
106.4627318172413
 30
0.0
 10
149.8011340733034
 20
106.3326193093274
 30
0.0
 10
149.6556284653909
 20
106.0459338840086
 30
0.0
 10
149.5797292176797
 20
105.8909044604611
 30
0.0
 10
149.4333024946357
 20
105.5449789683858
 30
0.0
 10
149.3627719129005
 20
105.3549260106556
 30
0.0
 10
149.307782753729
 20
105.1459114949818
 30
0.0
  0
SPLINE
  5
C0
330
1F
100
AcDbEntity
  8
0
  6
HIDDEN
 62
     7
370
     0
100
AcDbSpline
210
0.0
220
0.0
230
1.0
 70
    11
 71
     3
 72
    66
 73
    62
 74
     0
 42
0.000000001
 43
0.00000001
 40
0.0
 40
0.0
 40
0.0
 40
0.0
 40
0.0312500000000004
 40
0.0312500000000004
 40
0.0625000000000008
 40
0.0625000000000008
 40
0.0937500000000012
 40
0.0937500000000012
 40
0.1250000000000016
 40
0.1250000000000016
 40
0.1562500000000021
 40
0.1562500000000021
 40
0.1875000000000024
 40
0.1875000000000024
 40
0.2187500000000029
 40
0.2187500000000029
 40
0.2500000000000033
 40
0.2500000000000033
 40
0.2812500000000036
 40
0.2812500000000036
 40
0.312500000000004
 40
0.312500000000004
 40
0.3437500000000043
 40
0.3437500000000043
 40
0.3750000000000047
 40
0.3750000000000047
 40
0.4062500000000051
 40
0.4062500000000051
 40
0.4375000000000054
 40
0.4375000000000054
 40
0.4687500000000052
 40
0.4687500000000052
 40
0.5000000000000049
 40
0.5000000000000049
 40
0.5312500000000047
 40
0.5312500000000047
 40
0.5625000000000043
 40
0.5625000000000043
 40
0.5937500000000041
 40
0.5937500000000041
 40
0.6250000000000039
 40
0.6250000000000039
 40
0.6562500000000036
 40
0.6562500000000036
 40
0.6875000000000033
 40
0.6875000000000033
 40
0.7187500000000031
 40
0.7187500000000031
 40
0.7500000000000028
 40
0.7500000000000028
 40
0.7812500000000026
 40
0.7812500000000026
 40
0.8125000000000023
 40
0.8125000000000023
 40
0.8750000000000018
 40
0.8750000000000018
 40
0.9375000000000013
 40
0.9375000000000013
 40
0.9687500000000007
 40
0.9687500000000007
 40
1.0
 40
1.0
 40
1.0
 40
1.0
 10
151.3167011410503
 20
109.4871876199556
 30
0.0
 10
151.167565765923
 20
109.4871876199556
 30
0.0
 10
151.0238374580049
 20
109.4933786089649
 30
0.0
 10
150.7448991903103
 20
109.5195516469503
 30
0.0
 10
150.6163420472293
 20
109.5390289947492
 30
0.0
 10
150.3723243965017
 20
109.5933512406491
 30
0.0
 10
150.256867902668
 20
109.628490598557
 30
0.0
 10
150.0430312491958
 20
109.7150715843527
 30
0.0
 10
149.9435391439641
 20
109.766679226499
 30
0.0
 10
149.7577355320282
 20
109.8902793617595
 30
0.0
 10
149.6710920784407
 20
109.9629302774582
 30
0.0
 10
149.5181307791115
 20
110.1277906192325
 30
0.0
 10
149.4509231301486
 20
110.2203436260855
 30
0.0
 10
149.3376582432075
 20
110.430780262907
 30
0.0
 10
149.2934138986101
 20
110.5456665500587
 30
0.0
 10
149.2328921190021
 20
110.7942781332926
 30
0.0
 10
149.2169043671476
 20
110.9293519742958
 30
0.0
 10
149.2165018914524
 20
111.2040791377266
 30
0.0
 10
149.2319762576942
 20
111.3477772481926
 30
0.0
 10
149.2919023618454
 20
111.6317754755673
 30
0.0
 10
149.3358848188692
 20
111.7720239118053
 30
0.0
 10
149.4486472361195
 20
112.0461422175105
 30
0.0
 10
149.5158271756166
 20
112.176442090622
 30
0.0
 10
149.6694092374481
 20
112.4252517434092
 30
0.0
 10
149.755712876328
 20
112.5431311956032
 30
0.0
 10
149.9408421365602
 20
112.7598030982959
 30
0.0
 10
150.0403547579932
 20
112.8598149448555
 30
0.0
 10
150.2552653911289
 20
113.0431033241718
 30
0.0
 10
150.370480022126
 20
113.1260070853229
 30
0.0
 10
150.6139379869514
 20
113.2669193805182
 30
0.0
 10
150.7447893969819
 20
113.3264155532048
 30
0.0
 10
151.0213650276776
 20
113.4100661316989
 30
0.0
 10
151.1689304622599
 20
113.433816144431
 30
0.0
 10
151.4629107028587
 20
113.4339766838275
 30
0.0
 10
151.6101055763941
 20
113.4104405596629
 30
0.0
 10
151.886208799475
 20
113.3273492122592
 30
0.0
 10
152.0159027283453
 20
113.2687522581877
 30
0.0
 10
152.2614512174332
 20
113.1270824205639
 30
0.0
 10
152.3749111250429
 20
113.0454883575955
 30
0.0
 10
152.5886988675281
 20
112.8638770712121
 30
0.0
 10
152.6895255450715
 20
112.7630839375158
 30
0.0
 10
152.8763188726043
 20
112.54499972837
 30
0.0
 10
152.9610563619043
 20
112.429321196045
 30
0.0
 10
153.1132995304036
 20
112.1840249043535
 30
0.0
 10
153.1813293099159
 20
112.0532084173359
 30
0.0
 10
153.2947006018919
 20
111.7800651928826
 30
0.0
 10
153.3390012747418
 20
111.640737972372
 30
0.0
 10
153.4002307027899
 20
111.3561507633099
 30
0.0
 10
153.4162636962807
 20
111.2128703771668
 30
0.0
 10
153.417120591326
 20
110.9375487134111
 30
0.0
 10
153.4017224905932
 20
110.8019212517315
 30
0.0
 10
153.3422399529
 20
110.5524017581125
 30
0.0
 10
153.2979498740404
 20
110.4359594064216
 30
0.0
 10
153.1296217989313
 20
110.1200540359203
 30
0.0
 10
152.9713634504286
 20
109.9547051095418
 30
0.0
 10
152.601335562474
 20
109.7070372068844
 30
0.0
 10
152.3854564726734
 20
109.621350525621
 30
0.0
 10
152.0204323192039
 20
109.5396272557203
 30
0.0
 10
151.8890838028587
 20
109.5196749231552
 30
0.0
 10
151.6127925904835
 20
109.4936136271233
 30
0.0
 10
151.4658365161776
 20
109.4871876199556
 30
0.0
 10
151.3167011410503
 20
109.4871876199556
 30
0.0
  0
LWPOLYLINE
  5
C1
330
1F
100
AcDbEntity
  8
0
  6
HIDDEN
 62
     7
370
     0
100
AcDbPolyline
 90
       20
 70
   128
 43
0.0
 10
149.3077827537
 20
103.9961839784
 10
149.5777980414
 20
103.4646754934
 10
150.0027112259
 20
103.0317203628
 10
150.5446719182
 20
102.7358853355
 10
151.1554033792
 20
102.6035227848
 10
151.7805029118
 20
102.6464232933
 10
152.3642879405
 20
102.8607653723
 10
152.8547561006
 20
103.2274558721
 10
153.2082175015
 20
103.7138307602
 10
153.3931865316
 20
104.2765647663
 10
153.3931865316
 20
104.8655307071
 10
153.2082175015
 20
105.4282647131
 10
152.8547561006
 20
105.9146396013
 10
152.3642879405
 20
106.2813301011
 10
151.7805029118
 20
106.4956721801
 10
151.1554033792
 20
106.5385726886
 10
150.5446719182
 20
106.4062101378
 10
150.0027112259
 20
106.1103751106
 10
149.5777980414
 20
105.67741998
 10
149.3077827537
 20
105.145911495
  0
CIRCLE
  5
C2
330
1F
100
AcDbEntity
  8
0
  6
HIDDEN
 62
     7
370
     0
100
AcDbCircle
 10
218.6667011411
 20
111.9244808182
 30
0.0
 40
3.5
  0
ELLIPSE
  5
C3
330
1F
100
AcDbEntity
  8
0
  6
HIDDEN
 62
     7
370
     0
100
AcDbEllipse
 10
137.0539594413
 20
87.8244808182
 30
0.0
 11
0.0
 21
1.600000000000009
 31
0.0
210
0.0
220
0.0
230
1.0
 40
0.4142135624
 41
4.712388980384695
 42
6.283185307179586
  0
LINE
  5
C4
330
1F
100
AcDbEntity
  8
0
  6
HIDDEN
 62
     7
370
     0
100
AcDbLine
 10
137.0539594413
 20
89.4244808182
 30
0.0
 11
136.7167011411
 21
89.4244808182
 31
0.0
  0
LINE
  5
C5
330
1F
100
AcDbEntity
  8
0
  6
HIDDEN
 62
     7
370
     0
100
AcDbLine
 10
136.7167011411
 20
134.4244808182
 30
0.0
 11
137.0539594413
 21
134.4244808182
 31
0.0
  0
ELLIPSE
  5
C6
330
1F
100
AcDbEntity
  8
0
  6
HIDDEN
 62
     7
370
     0
100
AcDbEllipse
 10
137.0539594413
 20
136.0244808182
 30
0.0
 11
0.0
 21
1.599999999999994
 31
0.0
210
0.0
220
0.0
230
1.0
 40
0.4142135624
 41
3.141592653589793
 42
4.712388980384677
  0
LINE
  5
C7
330
1F
100
AcDbEntity
  8
0
  6
HIDDEN
 62
     7
370
     0
100
AcDbLine
 10
137.7167011411
 20
82.4704580954
 30
0.0
 11
137.103733964
 21
81.8574909184
 31
0.0
  0
LINE
  5
C8
330
1F
100
AcDbEntity
  8
0
  6
HIDDEN
 62
     7
370
     0
100
AcDbLine
 10
137.103733964
 20
141.991470718
 30
0.0
 11
137.7167011411
 21
141.378503541
 31
0.0
  0
LINE
  5
C9
330
1F
100
AcDbEntity
  8
0
  6
HIDDEN
 62
     7
370
     0
100
AcDbLine
 10
76.3167011411
 20
103.4244808182
 30
0.0
 11
76.3167011411
 21
120.4244808182
 31
0.0
  0
LINE
  5
CA
330
1F
100
AcDbEntity
  8
0
  6
HIDDEN
 62
     7
370
     0
100
AcDbLine
 10
79.3126303554
 20
104.9244808182
 30
0.0
 11
79.3126303554
 21
118.9244808182
 31
0.0
  0
LINE
  5
CB
330
1F
100
AcDbEntity
  8
0
  6
HIDDEN
 62
     7
370
     0
100
AcDbLine
 10
137.7167011411
 20
141.378503541
 30
0.0
 11
146.8492626846
 21
141.378503541
 31
0.0
  0
LINE
  5
CC
330
1F
100
AcDbEntity
  8
0
  6
HIDDEN
 62
     7
370
     0
100
AcDbLine
 10
137.7167011411
 20
141.378503541
 30
0.0
 11
137.7167011411
 21
136.0244808182
 31
0.0
  0
LINE
  5
CD
330
1F
100
AcDbEntity
  8
0
  6
HIDDEN
 62
     7
370
     0
100
AcDbLine
 10
146.8492626846
 20
82.4704580954
 30
0.0
 11
137.7167011411
 21
82.4704580954
 31
0.0
  0
LINE
  5
CE
330
1F
100
AcDbEntity
  8
0
  6
HIDDEN
 62
     7
370
     0
100
AcDbLine
 10
137.7167011411
 20
82.4704580954
 30
0.0
 11
137.7167011411
 21
87.8244808182
 31
0.0
  0
LINE
  5
CF
330
1F
100
AcDbEntity
  8
0
  6
HIDDEN
 62
     7
370
     0
100
AcDbLine
 10
149.6667011411
 20
89.4244808182
 30
0.0
 11
137.0539594413
 21
89.4244808182
 31
0.0
  0
LINE
  5
D0
330
1F
100
AcDbEntity
  8
0
  6
HIDDEN
 62
     7
370
     0
100
AcDbLine
 10
137.0539594413
 20
134.4244808182
 30
0.0
 11
149.6667011411
 21
134.4244808182
 31
0.0
  0
SPLINE
  5
D1
330
1F
100
AcDbEntity
  8
0
  6
HIDDEN
 62
     7
370
     0
100
AcDbSpline
210
0.0
220
0.0
230
1.0
 70
     8
 71
     3
 72
    22
 73
    18
 74
     0
 42
0.000000001
 43
0.00000001
 40
0.0
 40
0.0
 40
0.0
 40
0.0
 40
0.0479373712882364
 40
0.0947427791178597
 40
0.1404168307205422
 40
0.1849601803027197
 40
0.2283735338939454
 40
0.2706576548351131
 40
0.3118133700098564
 40
0.3518415769422359
 40
0.3907432519081109
 40
0.4285194592373947
 40
0.4651713620212523
 40
0.5007002344840856
 40
0.7601597454038249
 40
0.9994256477007372
 40
0.9999999999999999
 40
0.9999999999999999
 40
0.9999999999999999
 40
0.9999999999999999
 10
155.6929647716628
 20
141.8293415938992
 30
0.0
 10
155.7536269193265
 20
141.8448277848478
 30
0.0
 10
155.8735187761904
 20
141.875434485403
 30
0.0
 10
156.0423336328176
 20
141.9195962290564
 30
0.0
 10
156.2006590556406
 20
141.9617712334449
 30
0.0
 10
156.3482178788776
 20
142.0018793725594
 30
0.0
 10
156.4855219692701
 20
142.0399414012781
 30
0.0
 10
156.6128999343298
 20
142.0759520193407
 30
0.0
 10
156.7307445015462
 20
142.1099127223384
 30
0.0
 10
156.8394452950817
 20
142.1418230163184
 30
0.0
 10
156.9394031873705
 20
142.1716838108499
 30
0.0
 10
157.0310229123221
 20
142.1994925114361
 30
0.0
 10
157.1147148103413
 20
142.2252586921255
 30
0.0
 10
157.3517047006938
 20
142.2989682631816
 30
0.0
 10
157.6311189106618
 20
142.391337424256
 30
0.0
 10
157.7168320267227
 20
142.4244174261636
 30
0.0
 10
157.7167007491683
 20
142.4244804603959
 30
0.0
 10
157.7167004347942
 20
142.4244806113458
 30
0.0
  0
LINE
  5
D2
330
1F
100
AcDbEntity
  8
0
  6
HIDDEN
 62
     7
370
     0
100
AcDbLine
 10
156.443195315
 20
142.0290546732
 30
0.0
 11
155.6929427536
 21
141.8295290201
 31
0.0
  0
LINE
  5
D3
330
1F
100
AcDbEntity
  8
0
  6
HIDDEN
 62
     7
370
     0
100
AcDbLine
 10
149.6667011411
 20
134.4244808182
 30
0.0
 11
156.1167011411
 21
134.4244808182
 31
0.0
  0
LINE
  5
D4
330
1F
100
AcDbEntity
  8
0
  6
HIDDEN
 62
     7
370
     0
100
AcDbLine
 10
155.6929429072
 20
82.0194329248
 30
0.0
 11
155.7868856368
 21
81.9944492534
 31
0.0
  0
SPLINE
  5
D5
330
1F
100
AcDbEntity
  8
0
  6
HIDDEN
 62
     7
370
     0
100
AcDbSpline
210
0.0
220
0.0
230
1.0
 70
     8
 71
     3
 72
    13
 73
     9
 74
     0
 42
0.000000001
 43
0.00000001
 40
0.0
 40
0.0
 40
0.0
 40
0.0
 40
0.0000729225244412
 40
0.1576810837163452
 40
0.3241445774555207
 40
0.4996852408391246
 40
0.729424377160925
 40
1.0
 40
1.0
 40
1.0
 40
1.0
 10
157.7166685658742
 20
81.42449325730144
 30
0.0
 10
157.7166794246154
 20
81.42448896744853
 30
0.0
 10
157.7401593864742
 20
81.4152129768194
 30
0.0
 10
157.6685741714276
 20
81.44337847887842
 30
0.0
 10
157.5129578329803
 20
81.49696740873881
 30
0.0
 10
157.1767046106646
 20
81.60549069754697
 30
0.0
 10
156.6193915446734
 20
81.77655676088482
 30
0.0
 10
156.0181337794016
 20
81.93432074991175
 30
0.0
 10
155.6929670891402
 20
82.01964121829876
 30
0.0
  0
LINE
  5
D6
330
1F
100
AcDbEntity
  8
0
  6
HIDDEN
 62
     7
370
     0
100
AcDbLine
 10
156.1167011411
 20
89.4244808182
 30
0.0
 11
149.6667011411
 21
89.4244808182
 31
0.0
  0
LINE
  5
D7
330
1F
100
AcDbEntity
  8
0
  6
HIDDEN
 62
     7
370
     0
100
AcDbLine
 10
209.2167011411
 20
111.9244808182
 30
0.0
 11
209.2167011411
 21
105.2244808182
 31
0.0
  0
LINE
  5
D8
330
1F
100
AcDbEntity
  8
0
  6
HIDDEN
 62
     7
370
     0
100
AcDbLine
 10
209.2167011411
 20
118.6244808182
 30
0.0
 11
209.2167011411
 21
111.9244808182
 31
0.0
  0
LINE
  5
D9
330
1F
100
AcDbEntity
  8
0
  6
HIDDEN
 62
     7
370
     0
100
AcDbLine
 10
212.5827265448
 20
111.9244808182
 30
0.0
 11
212.5827265448
 21
104.9244808182
 31
0.0
  0
LINE
  5
DA
330
1F
100
AcDbEntity
  8
0
  6
HIDDEN
 62
     7
370
     0
100
AcDbLine
 10
212.5827265448
 20
118.9244808182
 30
0.0
 11
212.5827265448
 21
111.9244808182
 31
0.0
  0
LINE
  5
DB
330
1F
100
AcDbEntity
  8
0
  6
HIDDEN
 62
     7
370
     0
100
AcDbLine
 10
112.3167011411
 20
104.9244808182
 30
0.0
 11
112.3167011411
 21
118.9244808182
 31
0.0
  0
LINE
  5
DC
330
1F
100
AcDbEntity
  8
0
  6
HIDDEN
 62
     7
370
     0
100
AcDbLine
 10
115.0205739267
 20
109.4244808182
 30
0.0
 11
115.0205739267
 21
114.4244808182
 31
0.0
  0
SPLINE
  5
DD
330
1F
100
AcDbEntity
  8
0
  6
HIDDEN
 62
     7
370
     0
100
AcDbSpline
210
0.0
220
0.0
230
1.0
 70
     8
 71
     3
 72
     9
 73
     5
 74
     0
 42
0.000000001
 43
0.00000001
 40
0.0
 40
0.0
 40
0.0
 40
0.0
 40
0.493237740338934
 40
1.0
 40
1.0
 40
1.0
 40
1.0
 10
155.6937606797478
 20
141.8293123293605
 30
0.0
 10
155.799609020909
 20
141.9863343901367
 30
0.0
 10
156.0142080519736
 20
142.3046840376481
 30
0.0
 10
156.2320676949355
 20
142.6245095864242
 30
0.0
 10
156.3424707398918
 20
142.7865851042193
 30
0.0
  0
SPLINE
  5
DE
330
1F
100
AcDbEntity
  8
0
  6
HIDDEN
 62
     7
370
     0
100
AcDbSpline
210
0.0
220
0.0
230
1.0
 70
     8
 71
     3
 72
     9
 73
     5
 74
     0
 42
0.000000001
 43
0.00000001
 40
0.0
 40
0.0
 40
0.0
 40
0.0
 40
0.5067649320089164
 40
1.0
 40
1.0
 40
1.0
 40
1.0
 10
156.3424744251778
 20
81.06239066771101
 30
0.0
 10
156.232069985406
 20
81.22446740322945
 30
0.0
 10
156.0142087389023
 20
81.5442936683894
 30
0.0
 10
155.7996087771967
 20
81.86264274991431
 30
0.0
 10
155.693760550494
 20
82.01966368078514
 30
0.0
  0
SPLINE
  5
DF
330
1F
100
AcDbEntity
  8
0
  6
HIDDEN
 62
     7
370
     0
100
AcDbSpline
210
0.0
220
0.0
230
1.0
 70
    11
 71
     3
 72
    66
 73
    62
 74
     0
 42
0.000000001
 43
0.00000001
 40
0.0
 40
0.0
 40
0.0
 40
0.0
 40
0.03125
 40
0.03125
 40
0.0625
 40
0.0625
 40
0.09375
 40
0.09375
 40
0.125
 40
0.125
 40
0.15625
 40
0.15625
 40
0.1874999999999999
 40
0.1874999999999999
 40
0.2187499999999999
 40
0.2187499999999999
 40
0.2499999999999999
 40
0.2499999999999999
 40
0.2812499999999999
 40
0.2812499999999999
 40
0.3124999999999999
 40
0.3124999999999999
 40
0.3437499999999999
 40
0.3437499999999999
 40
0.3749999999999999
 40
0.3749999999999999
 40
0.4062499999999998
 40
0.4062499999999998
 40
0.4374999999999997
 40
0.4374999999999997
 40
0.4687499999999997
 40
0.4687499999999997
 40
0.4999999999999996
 40
0.4999999999999996
 40
0.5312499999999996
 40
0.5312499999999996
 40
0.5624999999999994
 40
0.5624999999999994
 40
0.5937499999999994
 40
0.5937499999999994
 40
0.6249999999999994
 40
0.6249999999999994
 40
0.6562499999999994
 40
0.6562499999999994
 40
0.6874999999999994
 40
0.6874999999999994
 40
0.7187499999999994
 40
0.7187499999999994
 40
0.7499999999999994
 40
0.7499999999999994
 40
0.7812499999999993
 40
0.7812499999999993
 40
0.8124999999999993
 40
0.8124999999999993
 40
0.8749999999999992
 40
0.8749999999999992
 40
0.9374999999999991
 40
0.9374999999999991
 40
0.9687499999999996
 40
0.9687499999999996
 40
1.0
 40
1.0
 40
1.0
 40
1.0
 10
151.3167011410503
 20
110.4150650091198
 30
0.0
 10
151.4658365161776
 20
110.4150650091198
 30
0.0
 10
151.6095648240957
 20
110.4382735507731
 30
0.0
 10
151.8885030917903
 20
110.5223882004593
 30
0.0
 10
152.0170602348713
 20
110.5808422425277
 30
0.0
 10
152.2610778855989
 20
110.7216988956294
 30
0.0
 10
152.3765343794326
 20
110.804697036523
 30
0.0
 10
152.5903710329048
 20
110.9866626544742
 30
0.0
 10
152.6898631381365
 20
111.086290829404
 30
0.0
 10
152.8756667500724
 20
111.3031815913735
 30
0.0
 10
152.9623102036599
 20
111.4213628127743
 30
0.0
 10
153.1152715029891
 20
111.6684181781536
 30
0.0
 10
153.182479151952
 20
111.7981002350391
 30
0.0
 10
153.2957440388931
 20
112.0718419158697
 30
0.0
 10
153.3399883834905
 20
112.2118928033558
 30
0.0
 10
153.4005101630985
 20
112.4950479647245
 30
0.0
 10
153.416497914953
 20
112.6393359184927
 30
0.0
 10
153.4169003906482
 20
112.9142943419146
 30
0.0
 10
153.4014260244064
 20
113.0490729498842
 30
0.0
 10
153.3414999202552
 20
113.2988614513575
 30
0.0
 10
153.2975174632314
 20
113.414087969692
 30
0.0
 10
153.1847550459811
 20
113.6251600278671
 30
0.0
 10
153.1175751064841
 20
113.7183260147032
 30
0.0
 10
152.9639930446525
 20
113.884570536923
 30
0.0
 10
152.8776894057727
 20
113.9570838846863
 30
0.0
 10
152.6925601455404
 20
114.0807348287434
 30
0.0
 10
152.5930475241074
 20
114.1326508605988
 30
0.0
 10
152.3781368909717
 20
114.2199746266422
 30
0.0
 10
152.2629222599746
 20
114.2550909613735
 30
0.0
 10
152.0194642951492
 20
114.3095044240879
 30
0.0
 10
151.8886128851187
 20
114.3293531189098
 30
0.0
 10
151.612037254423
 20
114.3553971728119
 30
0.0
 10
151.4644718198407
 20
114.3617515456006
 30
0.0
 10
151.1704915792419
 20
114.3617963682304
 30
0.0
 10
151.0232967057065
 20
114.3555008028618
 30
0.0
 10
150.7471934826256
 20
114.329656550909
 30
0.0
 10
150.6174995537553
 20
114.3101702332418
 30
0.0
 10
150.3719510646674
 20
114.2555473099325
 30
0.0
 10
150.2584911570577
 20
114.2210097578229
 30
0.0
 10
150.0447034145726
 20
114.1346838109842
 30
0.0
 10
149.9438767370291
 20
114.0825237194624
 30
0.0
 10
149.7570834094963
 20
113.9582317057802
 30
0.0
 10
149.6723459201963
 20
113.887094806165
 30
0.0
 10
149.520102751697
 20
113.7235782813555
 30
0.0
 10
149.4520729721847
 20
113.6303284352949
 30
0.0
 10
149.3387016802088
 20
113.4205377042999
 30
0.0
 10
149.2944010073588
 20
113.3064024751656
 30
0.0
 10
149.2331715793107
 20
113.0567594686596
 30
0.0
 10
149.2171385858199
 20
112.9227197410386
 30
0.0
 10
149.2162816907747
 20
112.6478904432771
 30
0.0
 10
149.2316797915073
 20
112.5033875064019
 30
0.0
 10
149.2911623292006
 20
112.2199089046552
 30
0.0
 10
149.3354524080602
 20
112.0782690613372
 30
0.0
 10
149.5037804831693
 20
111.6682388718793
 30
0.0
 10
149.662038831672
 20
111.4157615133946
 30
0.0
 10
150.0320667196266
 20
110.9820962272927
 30
0.0
 10
150.2479458094272
 20
110.7940399809401
 30
0.0
 10
150.6129699628968
 20
110.5825213928403
 30
0.0
 10
150.7443184792419
 20
110.5227475612241
 30
0.0
 10
151.0206096916171
 20
110.439065169816
 30
0.0
 10
151.167565765923
 20
110.4150650091198
 30
0.0
 10
151.3167011410503
 20
110.4150650091198
 30
0.0
  0
SPLINE
  5
E0
330
1F
100
AcDbEntity
  8
0
  6
HIDDEN
 62
     7
370
     0
100
AcDbSpline
210
0.0
220
0.0
230
1.0
 70
    11
 71
     3
 72
    56
 73
    52
 74
     0
 42
0.000000001
 43
0.00000001
 40
0.0
 40
0.0
 40
0.0
 40
0.0
 40
0.0312499999999998
 40
0.0312499999999998
 40
0.0624999999999995
 40
0.0624999999999995
 40
0.1249999999999994
 40
0.1249999999999994
 40
0.1562499999999998
 40
0.1562499999999998
 40
0.1875000000000002
 40
0.1875000000000002
 40
0.2187500000000007
 40
0.2187500000000007
 40
0.2500000000000011
 40
0.2500000000000011
 40
0.3125000000000012
 40
0.3125000000000012
 40
0.3437500000000013
 40
0.3437500000000013
 40
0.3750000000000014
 40
0.3750000000000014
 40
0.4375000000000012
 40
0.4375000000000012
 40
0.4687500000000011
 40
0.4687500000000011
 40
0.500000000000001
 40
0.500000000000001
 40
0.5312500000000011
 40
0.5312500000000011
 40
0.5625000000000012
 40
0.5625000000000012
 40
0.6250000000000014
 40
0.6250000000000014
 40
0.6875000000000018
 40
0.6875000000000018
 40
0.7500000000000021
 40
0.7500000000000021
 40
0.7812500000000018
 40
0.7812500000000018
 40
0.8125000000000014
 40
0.8125000000000014
 40
0.8437500000000012
 40
0.8437500000000012
 40
0.8750000000000009
 40
0.8750000000000009
 40
0.9062500000000007
 40
0.9062500000000007
 40
0.9375000000000004
 40
0.9375000000000004
 40
1.0
 40
1.0
 40
1.0
 40
1.0
 10
149.2761251402131
 20
117.5913609071645
 30
0.0
 10
149.3047966568101
 20
117.4895468422916
 30
0.0
 10
149.3425665763939
 20
117.3971439246419
 30
0.0
 10
149.4328647131636
 20
117.2303658399463
 30
0.0
 10
149.4861404093368
 20
117.1554961508233
 30
0.0
 10
149.6550714861111
 20
116.9693754863084
 30
0.0
 10
149.7862582020954
 20
116.8913589887249
 30
0.0
 10
149.9315437220988
 20
116.8707844381703
 30
0.0
 10
149.9696846549004
 20
116.8803326581029
 30
0.0
 10
150.0144611880646
 20
116.927688887283
 30
0.0
 10
150.0213559261046
 20
116.9657896495432
 30
0.0
 10
150.0101073804907
 20
117.0579101275072
 30
0.0
 10
149.9924465352859
 20
117.1129655696465
 30
0.0
 10
149.943722529524
 20
117.2325723278259
 30
0.0
 10
149.9127835311326
 20
117.2972501969287
 30
0.0
 10
149.8091279958139
 20
117.5046115793522
 30
0.0
 10
149.7253226591517
 20
117.6613993345751
 30
0.0
 10
149.5998723946994
 20
117.9205445972279
 30
0.0
 10
149.5577792146518
 20
118.0112969717777
 30
0.0
 10
149.475038223339
 20
118.2042981938158
 30
0.0
 10
149.4342079899313
 20
118.3070791563442
 30
0.0
 10
149.3213582337712
 20
118.6293202695242
 30
0.0
 10
149.2566680504073
 20
118.8682668082353
 30
0.0
 10
149.2161983726694
 20
119.2370339132126
 30
0.0
 10
149.2131565764794
 20
119.3567933238575
 30
0.0
 10
149.2289597330568
 20
119.5758915850667
 30
0.0
 10
149.2477028306016
 20
119.6742205933905
 30
0.0
 10
149.2989767339951
 20
119.8410956405971
 30
0.0
 10
149.3315012800274
 20
119.9109702866932
 30
0.0
 10
149.4036544284693
 20
120.0275793469858
 30
0.0
 10
149.4427596052221
 20
120.0737999867589
 30
0.0
 10
149.5647573436685
 20
120.1866188042469
 30
0.0
 10
149.6522891563983
 20
120.2270720936066
 30
0.0
 10
149.8144057093508
 20
120.2579302130291
 30
0.0
 10
149.8919633666394
 20
120.2490270274606
 30
0.0
 10
150.0031081897433
 20
120.1779509790225
 30
0.0
 10
150.0358411760853
 20
120.1157120603122
 30
0.0
 10
149.9922127937652
 20
119.9578107770393
 30
0.0
 10
149.9618975327691
 20
119.8945553741691
 30
0.0
 10
149.8770405491321
 20
119.7492413083093
 30
0.0
 10
149.822191474869
 20
119.6658693925501
 30
0.0
 10
149.7073527894566
 20
119.4872762350596
 30
0.0
 10
149.6459333602772
 20
119.3895294866421
 30
0.0
 10
149.5297253733902
 20
119.1845511875427
 30
0.0
 10
149.4742113084216
 20
119.0762692522292
 30
0.0
 10
149.3760073330764
 20
118.8509193481007
 30
0.0
 10
149.3341169148302
 20
118.7360133926397
 30
0.0
 10
149.2676102345255
 20
118.5007459896066
 30
0.0
 10
149.2431667395982
 20
118.3797486551109
 30
0.0
 10
149.2026768138027
 20
118.0265472229345
 30
0.0
 10
149.2187821070192
 20
117.7949890369102
 30
0.0
 10
149.2761251402131
 20
117.5913609071645
 30
0.0
  0
SPLINE
  5
E1
330
1F
100
AcDbEntity
  8
0
  6
HIDDEN
 62
     7
370
     0
100
AcDbSpline
210
0.0
220
0.0
230
1.0
 70
     8
 71
     3
 72
    22
 73
    18
 74
     0
 42
0.000000001
 43
0.00000001
 40
0.0
 40
0.0
 40
0.0
 40
0.0
 40
0.1250000000000006
 40
0.1250000000000006
 40
0.2500000000000012
 40
0.2500000000000012
 40
0.3750000000000018
 40
0.3750000000000018
 40
0.5000000000000023
 40
0.5000000000000023
 40
0.6250000000000029
 40
0.6250000000000029
 40
0.7500000000000036
 40
0.7500000000000036
 40
0.8750000000000018
 40
0.8750000000000018
 40
1.0
 40
1.0
 40
1.0
 40
1.0
 10
152.9930695797505
 20
119.7891357938434
 30
0.0
 10
152.894791356195
 20
119.6646070739111
 30
0.0
 10
152.7834685888878
 20
119.5530039344789
 30
0.0
 10
152.5356599805231
 20
119.3550200912905
 30
0.0
 10
152.397708454973
 20
119.2683655691017
 30
0.0
 10
152.109447493389
 20
119.1298419938788
 30
0.0
 10
151.9570039744767
 20
119.0763982426022
 30
0.0
 10
151.6400922362011
 20
119.0042180924571
 30
0.0
 10
151.4801037320926
 20
118.9863000530636
 30
0.0
 10
151.1571336254707
 20
118.9860149115661
 30
0.0
 10
150.9935711418179
 20
119.0043132214344
 30
0.0
 10
150.680072910678
 20
119.0754086436253
 30
0.0
 10
150.5265709444491
 20
119.1287191958892
 30
0.0
 10
150.2359682465748
 20
119.2681006339137
 30
0.0
 10
150.1011480031611
 20
119.3526545310215
 30
0.0
 10
149.8521999265318
 20
119.5508459789277
 30
0.0
 10
149.7386106933627
 20
119.6646073685671
 30
0.0
 10
149.6403327023501
 20
119.7891357938434
 30
0.0
  0
SPLINE
  5
E2
330
1F
100
AcDbEntity
  8
0
  6
HIDDEN
 62
     7
370
     0
100
AcDbSpline
210
0.0
220
0.0
230
1.0
 70
     8
 71
     3
 72
    18
 73
    14
 74
     0
 42
0.000000001
 43
0.00000001
 40
0.0
 40
0.0
 40
0.0
 40
0.0
 40
0.2499999999999999
 40
0.2499999999999999
 40
0.3749999999999997
 40
0.3749999999999997
 40
0.4999999999999996
 40
0.4999999999999996
 40
0.6249999999999994
 40
0.6249999999999994
 40
0.7499999999999992
 40
0.7499999999999992
 40
1.0
 40
1.0
 40
1.0
 40
1.0
 10
152.9930695797505
 20
122.1662341184222
 30
0.0
 10
153.1316399284809
 20
121.9966541241864
 30
0.0
 10
153.2361253480314
 20
121.8230429160446
 30
0.0
 10
153.3436815811693
 20
121.540011653641
 30
0.0
 10
153.3706915551414
 20
121.4433386185482
 30
0.0
 10
153.4072325172539
 20
121.2422701913768
 30
0.0
 10
153.4167083377661
 20
121.1365262942902
 30
0.0
 10
153.4166939359554
 20
120.9222768020109
 30
0.0
 10
153.4074718229335
 20
120.8142488036006
 30
0.0
 10
153.371227076902
 20
120.5972559140692
 30
0.0
 10
153.3438527856233
 20
120.4874062963341
 30
0.0
 10
153.2365926637253
 20
120.1678225064183
 30
0.0
 10
153.1314021415861
 20
119.9644175218506
 30
0.0
 10
152.9930695797507
 20
119.7891357938431
 30
0.0
  0
SPLINE
  5
E3
330
1F
100
AcDbEntity
  8
0
  6
HIDDEN
 62
     7
370
     0
100
AcDbSpline
210
0.0
220
0.0
230
1.0
 70
     8
 71
     3
 72
    22
 73
    18
 74
     0
 42
0.000000001
 43
0.00000001
 40
0.0
 40
0.0
 40
0.0
 40
0.0
 40
0.1249999999999982
 40
0.1249999999999982
 40
0.2499999999999963
 40
0.2499999999999963
 40
0.3749999999999969
 40
0.3749999999999969
 40
0.4999999999999976
 40
0.4999999999999976
 40
0.6249999999999981
 40
0.6249999999999981
 40
0.7499999999999988
 40
0.7499999999999988
 40
0.8749999999999993
 40
0.8749999999999993
 40
1.0
 40
1.0
 40
1.0
 40
1.0
 10
149.6403327023501
 20
122.1662341184222
 30
0.0
 10
149.7386109259056
 20
122.2865053072929
 30
0.0
 10
149.8499336932128
 20
122.393653515689
 30
0.0
 10
150.0977423015775
 20
122.5830315541095
 30
0.0
 10
150.2356938271276
 20
122.665511707667
 30
0.0
 10
150.5239547887117
 20
122.7970465389784
 30
0.0
 10
150.6763983076239
 20
122.8476065447636
 30
0.0
 10
150.9933100458996
 20
122.9158332201634
 30
0.0
 10
151.153298550008
 20
122.932730291789
 30
0.0
 10
151.4762686566299
 20
122.9329993967715
 30
0.0
 10
151.6398311402827
 20
122.9157428674709
 30
0.0
 10
151.9533293714226
 20
122.8485423698248
 30
0.0
 10
152.1068313376515
 20
122.7981113641926
 30
0.0
 10
152.3974340355257
 20
122.6657645890576
 30
0.0
 10
152.5322542789395
 20
122.5852880517229
 30
0.0
 10
152.7812023555688
 20
122.3957237685162
 30
0.0
 10
152.8947915887379
 20
122.286505022711
 30
0.0
 10
152.9930695797505
 20
122.1662341184222
 30
0.0
  0
SPLINE
  5
E4
330
1F
100
AcDbEntity
  8
0
  6
HIDDEN
 62
     7
370
     0
100
AcDbSpline
210
0.0
220
0.0
230
1.0
 70
     8
 71
     3
 72
    18
 73
    14
 74
     0
 42
0.000000001
 43
0.00000001
 40
0.0
 40
0.0
 40
0.0
 40
0.0
 40
0.2499999999999994
 40
0.2499999999999994
 40
0.3749999999999997
 40
0.3749999999999997
 40
0.5
 40
0.5
 40
0.6250000000000002
 40
0.6250000000000002
 40
0.7500000000000006
 40
0.7500000000000006
 40
1.0
 40
1.0
 40
1.0
 40
1.0
 10
149.6403327023501
 20
119.7891357938434
 30
0.0
 10
149.5017623536197
 20
119.9647188225519
 30
0.0
 10
149.3972769340692
 20
120.1667118381828
 30
0.0
 10
149.2897207009312
 20
120.4867561289807
 30
0.0
 10
149.2627107269592
 20
120.5948154048259
 30
0.0
 10
149.2261697648466
 20
120.8120666339426
 30
0.0
 10
149.2166939443345
 20
120.9225295671305
 30
0.0
 10
149.2167083461453
 20
121.1367721325733
 30
0.0
 10
149.2259304591671
 20
121.2402034193648
 30
0.0
 10
149.2621752051986
 20
121.4411260566479
 30
0.0
 10
149.2895494964773
 20
121.5394312995072
 30
0.0
 10
149.3968096183753
 20
121.8220713925762
 30
0.0
 10
149.5020001405146
 20
121.9969451236728
 30
0.0
 10
149.6403327023499
 20
122.1662341184222
 30
0.0
  0
LWPOLYLINE
  5
E5
330
1F
100
AcDbEntity
  8
0
  6
HIDDEN
 62
     7
370
     0
100
AcDbPolyline
 90
       19
 70
   128
 43
0.0
 10
137.3217074137
 20
119.9519450461
 10
137.4539862813
 20
119.5526478586
 10
137.6652145307
 20
119.3139535511
 10
137.9299149175
 20
119.26465218
 10
138.2161606684
 20
119.4106902181
 10
138.4894263215
 20
119.7344533228
 10
138.7167520059
 20
120.1968908854
 10
138.8707188892
 20
120.7422261111
 10
138.9327562929
 20
121.3046835232
 10
138.8953815906
 20
121.816422457
 10
138.7631027229
 20
122.2157196446
 10
138.5518744736
 20
122.454413952
 10
138.2871740868
 20
122.5037153232
 10
138.0009283358
 20
122.3576772851
 10
137.7276626828
 20
122.0339141804
 10
137.5003369983
 20
121.5714766177
 10
137.3463701151
 20
121.0261413921
 10
137.2843327113
 20
120.4636839799
 10
137.3217074137
 20
119.9519450461
  0
LWPOLYLINE
  5
E6
330
1F
100
AcDbEntity
  8
0
  6
HIDDEN
 62
     7
370
     0
100
AcDbPolyline
 90
       22
 70
   128
 43
0.0
 10
136.9652721194
 20
119.7257072856
 10
137.1028046025
 20
119.2787869852
 10
137.3170980843
 20
118.9770019695
 10
137.5891116484
 20
118.8471671612
 10
137.894675696
 20
118.9008189531
 10
138.2066395204
 20
119.1331901479
 10
138.4972837669
 20
119.5236335451
 10
138.7407834186
 20
120.0374565356
 10
138.915502463
 20
120.6290036917
 10
139.0059163462
 20
121.2457134527
 10
139.0039913978
 20
121.8327884499
 10
138.9098986581
 20
122.3380644935
 10
138.7319986799
 20
122.7166455896
 10
138.4860986568
 20
122.9348931465
 10
138.1940478852
 20
122.973414911
 10
137.8817963576
 20
122.8287880552
 10
137.5770889927
 20
122.51386331
 10
137.3070003769
 20
122.056623121
 10
137.095529069
 20
121.4976952855
 10
136.9614652229
 20
120.8867429947
 10
136.9167209994
 20
120.2780520405
 10
136.9652721194
 20
119.7257072856
  0
LWPOLYLINE
  5
E7
330
1F
100
AcDbEntity
  8
0
  6
HIDDEN
 62
     7
370
     0
100
AcDbPolyline
 90
       19
 70
   128
 43
0.0
 10
137.9027255052
 20
104.4827875019
 10
137.6321283409
 20
104.5110147499
 10
137.401885594
 20
104.349364694
 10
137.2397679379
 20
104.0173347165
 10
137.1653291544
 20
103.5549725332
 10
137.1875476596
 20
103.0180458469
 10
137.3037435737
 20
102.4713159403
 10
137.4999019546
 20
101.9807265089
 10
137.7523632067
 20
101.6054498786
 10
138.0306767769
 20
101.3907499494
 10
138.3012739412
 20
101.3625227014
 10
138.5315166881
 20
101.5241727574
 10
138.6936343442
 20
101.8562027348
 10
138.7680731277
 20
102.3185649182
 10
138.7458546225
 20
102.8554916044
 10
138.6296587084
 20
103.4022215111
 10
138.4335003275
 20
103.8928109424
 10
138.1810390754
 20
104.2680875727
 10
137.9027255052
 20
104.4827875019
  0
LWPOLYLINE
  5
E8
330
1F
100
AcDbEntity
  8
0
  6
HIDDEN
 62
     7
370
     0
100
AcDbPolyline
 90
       21
 70
   128
 43
0.0
 10
138.0822283015
 20
104.8957947019
 10
137.7780783957
 20
104.9381244472
 10
137.5114801571
 20
104.7883167619
 10
137.3085300787
 20
104.4610358662
 10
137.1890943284
 20
103.9883182944
 10
137.1648641093
 20
103.4164369361
 10
137.2382112444
 20
102.801371523
 10
137.4019560048
 20
102.2033289433
 10
137.6400699126
 20
101.6808497715
 10
137.9292447195
 20
101.2850779093
 10
138.2411739806
 20
101.0547542639
 10
138.5453238864
 20
101.0124245187
 10
138.811922125
 20
101.1622322039
 10
139.0148722034
 20
101.4895130996
 10
139.1343079537
 20
101.9622306714
 10
139.1585381728
 20
102.5341120298
 10
139.0851910377
 20
103.1491774428
 10
138.9214462773
 20
103.7472200225
 10
138.6833323695
 20
104.2696991943
 10
138.3941575626
 20
104.6654710566
 10
138.0822283015
 20
104.8957947019
  0
LWPOLYLINE
  5
E9
330
1F
100
AcDbEntity
  8
0
  6
HIDDEN
 62
     7
370
     0
100
AcDbPolyline
 90
       21
 70
   128
 43
0.0
 10
139.83578546
 20
105.2420616059
 10
139.5316355542
 20
105.2843913511
 10
139.2650373156
 20
105.1345836659
 10
139.0620872373
 20
104.8073027702
 10
138.9426514869
 20
104.3345851984
 10
138.9184212679
 20
103.76270384
 10
138.9917684029
 20
103.147638427
 10
139.1555131633
 20
102.5495958473
 10
139.3936270712
 20
102.0271166755
 10
139.682801878
 20
101.6313448133
 10
139.9947311391
 20
101.4010211679
 10
140.2988810449
 20
101.3586914227
 10
140.5654792835
 20
101.5084991079
 10
140.7684293619
 20
101.8357800036
 10
140.8878651123
 20
102.3084975754
 10
140.9120953313
 20
102.8803789338
 10
140.8387481962
 20
103.4954443468
 10
140.6750034358
 20
104.0934869265
 10
140.436889528
 20
104.6159660983
 10
140.1477147211
 20
105.0117379605
 10
139.83578546
 20
105.2420616059
  0
LINE
  5
EA
330
1F
100
AcDbEntity
  8
0
  6
HIDDEN
 62
     7
370
     0
100
AcDbLine
 10
137.4912244578
 20
102.6029435195
 30
0.0
 11
138.0125848063
 21
101.8279558603
 31
0.0
  0
LINE
  5
EB
330
1F
100
AcDbEntity
  8
0
  6
HIDDEN
 62
     7
370
     0
100
AcDbLine
 10
138.4880614895
 20
102.1617810664
 30
0.0
 11
138.0125848063
 21
101.8279558603
 31
0.0
  0
LINE
  5
EC
330
1F
100
AcDbEntity
  8
0
  6
HIDDEN
 62
     7
370
     0
100
AcDbLine
 10
138.4421778243
 20
103.2705939318
 30
0.0
 11
138.4880614895
 21
102.1617810664
 31
0.0
  0
LINE
  5
ED
330
1F
100
AcDbEntity
  8
0
  6
HIDDEN
 62
     7
370
     0
100
AcDbLine
 10
138.4421778243
 20
103.2705939318
 30
0.0
 11
137.9208174758
 21
104.0455815911
 31
0.0
  0
LINE
  5
EE
330
1F
100
AcDbEntity
  8
0
  6
HIDDEN
 62
     7
370
     0
100
AcDbLine
 10
137.4453407926
 20
103.7117563849
 30
0.0
 11
137.9208174758
 21
104.0455815911
 31
0.0
  0
LINE
  5
EF
330
1F
100
AcDbEntity
  8
0
  6
HIDDEN
 62
     7
370
     0
100
AcDbLine
 10
137.4453407926
 20
103.7117563849
 30
0.0
 11
137.4912244578
 21
102.6029435195
 31
0.0
  0
LWPOLYLINE
  5
F0
330
1F
100
AcDbEntity
  8
0
  6
HIDDEN
 62
     7
370
     0
100
AcDbPolyline
 90
       17
 70
   128
 43
0.0
 10
140.5151068277
 20
104.6501240775
 10
140.2804671358
 20
104.6642707431
 10
140.089111097
 20
104.4935250859
 10
139.9701709337
 20
104.1638815846
 10
139.9417542076
 20
103.7255254739
 10
140.0081871075
 20
103.2451924979
 10
140.1593558267
 20
102.7960089981
 10
140.372246298
 20
102.4463590905
 10
140.6144478771
 20
102.2494738038
 10
140.849087569
 20
102.2353271382
 10
141.0404436078
 20
102.4060727954
 10
141.1593837711
 20
102.7357162967
 10
141.1878004972
 20
103.1740724074
 10
141.1213675973
 20
103.6544053834
 10
140.9701988781
 20
104.1035888832
 10
140.7573084068
 20
104.4532387908
 10
140.5151068277
 20
104.6501240775
  0
LINE
  5
F1
330
1F
100
AcDbEntity
  8
0
  6
HIDDEN
 62
     7
370
     0
100
AcDbLine
 10
139.7412159299
 20
103.5271090393
 30
0.0
 11
138.4421778243
 21
103.2705939318
 31
0.0
  0
LINE
  5
F2
330
1F
100
AcDbEntity
  8
0
  6
HIDDEN
 62
     7
370
     0
100
AcDbLine
 10
139.7870995952
 20
102.4182961739
 30
0.0
 11
138.4880614895
 21
102.1617810664
 31
0.0
  0
LINE
  5
F3
330
1F
100
AcDbEntity
  8
0
  6
HIDDEN
 62
     7
370
     0
100
AcDbLine
 10
138.7902625635
 20
102.859458627
 30
0.0
 11
139.311622912
 21
102.0844709677
 31
0.0
  0
LINE
  5
F4
330
1F
100
AcDbEntity
  8
0
  6
HIDDEN
 62
     7
370
     0
100
AcDbLine
 10
138.7443788982
 20
103.9682714924
 30
0.0
 11
138.7902625635
 21
102.859458627
 31
0.0
  0
LINE
  5
F5
330
1F
100
AcDbEntity
  8
0
  6
HIDDEN
 62
     7
370
     0
100
AcDbLine
 10
138.7443788982
 20
103.9682714924
 30
0.0
 11
139.2198555814
 21
104.3020966986
 31
0.0
  0
LINE
  5
F6
330
1F
100
AcDbEntity
  8
0
  6
HIDDEN
 62
     7
370
     0
100
AcDbLine
 10
139.7870995952
 20
102.4182961739
 30
0.0
 11
139.311622912
 21
102.0844709677
 31
0.0
  0
LINE
  5
F7
330
1F
100
AcDbEntity
  8
0
  6
HIDDEN
 62
     7
370
     0
100
AcDbLine
 10
139.7412159299
 20
103.5271090393
 30
0.0
 11
139.7870995952
 21
102.4182961739
 31
0.0
  0
LINE
  5
F8
330
1F
100
AcDbEntity
  8
0
  6
HIDDEN
 62
     7
370
     0
100
AcDbLine
 10
139.7412159299
 20
103.5271090393
 30
0.0
 11
139.2198555814
 21
104.3020966986
 31
0.0
  0
LINE
  5
F9
330
1F
100
AcDbEntity
  8
0
  6
HIDDEN
 62
     7
370
     0
100
AcDbLine
 10
138.7443788982
 20
103.9682714924
 30
0.0
 11
137.4453407926
 21
103.7117563849
 31
0.0
  0
LINE
  5
FA
330
1F
100
AcDbEntity
  8
0
  6
HIDDEN
 62
     7
370
     0
100
AcDbLine
 10
139.2198555814
 20
104.3020966986
 30
0.0
 11
137.9208174758
 21
104.0455815911
 31
0.0
  0
LINE
  5
FB
330
1F
100
AcDbEntity
  8
0
  6
HIDDEN
 62
     7
370
     0
100
AcDbLine
 10
138.7902625635
 20
102.859458627
 30
0.0
 11
137.4912244578
 21
102.6029435195
 31
0.0
  0
LINE
  5
FC
330
1F
100
AcDbEntity
  8
0
  6
HIDDEN
 62
     7
370
     0
100
AcDbLine
 10
139.311622912
 20
102.0844709677
 30
0.0
 11
138.0125848063
 21
101.8279558603
 31
0.0
  0
LWPOLYLINE
  5
FD
330
1F
100
AcDbEntity
  8
0
  6
HIDDEN
 62
     7
370
     0
100
AcDbPolyline
 90
       21
 70
   128
 43
0.0
 10
139.83578546
 20
118.6069000305
 10
139.5316355542
 20
118.5645702852
 10
139.2650373156
 20
118.7143779705
 10
139.0620872373
 20
119.0416588662
 10
138.9426514869
 20
119.514376438
 10
138.9184212679
 20
120.0862577963
 10
138.9917684029
 20
120.7013232094
 10
139.1555131633
 20
121.2993657891
 10
139.3936270712
 20
121.8218449608
 10
139.682801878
 20
122.2176168231
 10
139.9947311391
 20
122.4479404684
 10
140.2988810449
 20
122.4902702137
 10
140.5654792835
 20
122.3404625285
 10
140.7684293619
 20
122.0131816328
 10
140.8878651123
 20
121.540464061
 10
140.9120953313
 20
120.9685827026
 10
140.8387481962
 20
120.3535172896
 10
140.6750034358
 20
119.7554747099
 10
140.436889528
 20
119.2329955381
 10
140.1477147211
 20
118.8372236758
 10
139.83578546
 20
118.6069000305
  0
LWPOLYLINE
  5
FE
330
1F
100
AcDbEntity
  8
0
  6
HIDDEN
 62
     7
370
     0
100
AcDbPolyline
 90
       17
 70
   128
 43
0.0
 10
140.5151068277
 20
119.1988375589
 10
140.2804671358
 20
119.1846908933
 10
140.089111097
 20
119.3554365504
 10
139.9701709337
 20
119.6850800518
 10
139.9417542076
 20
120.1234361625
 10
140.0081871075
 20
120.6037691384
 10
140.1593558267
 20
121.0529526382
 10
140.372246298
 20
121.4026025459
 10
140.6144478771
 20
121.5994878326
 10
140.849087569
 20
121.6136344981
 10
141.0404436078
 20
121.442888841
 10
141.1593837711
 20
121.1132453396
 10
141.1878004972
 20
120.6748892289
 10
141.1213675973
 20
120.194556253
 10
140.9701988781
 20
119.7453727532
 10
140.7573084068
 20
119.3957228455
 10
140.5151068277
 20
119.1988375589
  0
LWPOLYLINE
  5
FF
330
1F
100
AcDbEntity
  8
0
  6
HIDDEN
 62
     7
370
     0
100
AcDbPolyline
 90
       21
 70
   128
 43
0.0
 10
138.0822283015
 20
118.9531669345
 10
137.7780783957
 20
118.9108371892
 10
137.5114801571
 20
119.0606448744
 10
137.3085300787
 20
119.3879257701
 10
137.1890943284
 20
119.860643342
 10
137.1648641093
 20
120.4325247003
 10
137.2382112444
 20
121.0475901134
 10
137.4019560048
 20
121.645632693
 10
137.6400699126
 20
122.1681118648
 10
137.9292447195
 20
122.5638837271
 10
138.2411739806
 20
122.7942073724
 10
138.5453238864
 20
122.8365371177
 10
138.811922125
 20
122.6867294325
 10
139.0148722034
 20
122.3594485368
 10
139.1343079537
 20
121.886730965
 10
139.1585381728
 20
121.3148496066
 10
139.0851910377
 20
120.6997841935
 10
138.9214462773
 20
120.1017416139
 10
138.6833323695
 20
119.5792624421
 10
138.3941575626
 20
119.1834905798
 10
138.0822283015
 20
118.9531669345
  0
LWPOLYLINE
  5
100
330
1F
100
AcDbEntity
  8
0
  6
HIDDEN
 62
     7
370
     0
100
AcDbPolyline
 90
       19
 70
   128
 43
0.0
 10
137.9027255052
 20
119.3661741344
 10
137.6321283409
 20
119.3379468865
 10
137.401885594
 20
119.4995969424
 10
137.2397679379
 20
119.8316269198
 10
137.1653291544
 20
120.2939891032
 10
137.1875476596
 20
120.8309157895
 10
137.3037435737
 20
121.3776456961
 10
137.4999019546
 20
121.8682351275
 10
137.7523632067
 20
122.2435117578
 10
138.0306767769
 20
122.458211687
 10
138.3012739412
 20
122.486438935
 10
138.5315166881
 20
122.324788879
 10
138.6936343442
 20
121.9927589016
 10
138.7680731277
 20
121.5303967182
 10
138.7458546225
 20
120.9934700319
 10
138.6296587084
 20
120.4467401253
 10
138.4335003275
 20
119.956150694
 10
138.1810390754
 20
119.5808740636
 10
137.9027255052
 20
119.3661741344
  0
LINE
  5
101
330
1F
100
AcDbEntity
  8
0
  6
HIDDEN
 62
     7
370
     0
100
AcDbLine
 10
138.7902625635
 20
120.9895030094
 30
0.0
 11
139.311622912
 21
121.7644906686
 31
0.0
  0
LINE
  5
102
330
1F
100
AcDbEntity
  8
0
  6
HIDDEN
 62
     7
370
     0
100
AcDbLine
 10
137.4912244578
 20
121.2460181169
 30
0.0
 11
138.0125848063
 21
122.0210057761
 31
0.0
  0
LINE
  5
103
330
1F
100
AcDbEntity
  8
0
  6
HIDDEN
 62
     7
370
     0
100
AcDbLine
 10
137.4453407926
 20
120.1372052514
 30
0.0
 11
137.4912244578
 21
121.2460181169
 31
0.0
  0
LINE
  5
104
330
1F
100
AcDbEntity
  8
0
  6
HIDDEN
 62
     7
370
     0
100
AcDbLine
 10
138.7902625635
 20
120.9895030094
 30
0.0
 11
137.4912244578
 21
121.2460181169
 31
0.0
  0
LINE
  5
105
330
1F
100
AcDbEntity
  8
0
  6
HIDDEN
 62
     7
370
     0
100
AcDbLine
 10
138.7443788982
 20
119.8806901439
 30
0.0
 11
138.7902625635
 21
120.9895030094
 31
0.0
  0
LINE
  5
106
330
1F
100
AcDbEntity
  8
0
  6
HIDDEN
 62
     7
370
     0
100
AcDbLine
 10
138.7443788982
 20
119.8806901439
 30
0.0
 11
137.4453407926
 21
120.1372052514
 31
0.0
  0
LINE
  5
107
330
1F
100
AcDbEntity
  8
0
  6
HIDDEN
 62
     7
370
     0
100
AcDbLine
 10
137.4453407926
 20
120.1372052514
 30
0.0
 11
137.9208174758
 21
119.8033800453
 31
0.0
  0
LINE
  5
108
330
1F
100
AcDbEntity
  8
0
  6
HIDDEN
 62
     7
370
     0
100
AcDbLine
 10
138.7443788982
 20
119.8806901439
 30
0.0
 11
139.2198555814
 21
119.5468649378
 31
0.0
  0
LINE
  5
109
330
1F
100
AcDbEntity
  8
0
  6
HIDDEN
 62
     7
370
     0
100
AcDbLine
 10
139.7870995952
 20
121.4306654625
 30
0.0
 11
138.4880614896
 21
121.68718057
 31
0.0
  0
LINE
  5
10A
330
1F
100
AcDbEntity
  8
0
  6
HIDDEN
 62
     7
370
     0
100
AcDbLine
 10
138.4880614896
 20
121.68718057
 30
0.0
 11
138.0125848063
 21
122.0210057761
 31
0.0
  0
LINE
  5
10B
330
1F
100
AcDbEntity
  8
0
  6
HIDDEN
 62
     7
370
     0
100
AcDbLine
 10
139.311622912
 20
121.7644906686
 30
0.0
 11
138.0125848063
 21
122.0210057761
 31
0.0
  0
LINE
  5
10C
330
1F
100
AcDbEntity
  8
0
  6
HIDDEN
 62
     7
370
     0
100
AcDbLine
 10
139.7870995952
 20
121.4306654625
 30
0.0
 11
139.311622912
 21
121.7644906686
 31
0.0
  0
LINE
  5
10D
330
1F
100
AcDbEntity
  8
0
  6
HIDDEN
 62
     7
370
     0
100
AcDbLine
 10
139.7412159299
 20
120.3218525971
 30
0.0
 11
138.4421778243
 21
120.5783677046
 31
0.0
  0
LINE
  5
10E
330
1F
100
AcDbEntity
  8
0
  6
HIDDEN
 62
     7
370
     0
100
AcDbLine
 10
139.2198555814
 20
119.5468649378
 30
0.0
 11
137.9208174758
 21
119.8033800453
 31
0.0
  0
LINE
  5
10F
330
1F
100
AcDbEntity
  8
0
  6
HIDDEN
 62
     7
370
     0
100
AcDbLine
 10
138.4421778243
 20
120.5783677046
 30
0.0
 11
137.9208174758
 21
119.8033800453
 31
0.0
  0
LINE
  5
110
330
1F
100
AcDbEntity
  8
0
  6
HIDDEN
 62
     7
370
     0
100
AcDbLine
 10
139.7412159299
 20
120.3218525971
 30
0.0
 11
139.2198555814
 21
119.5468649378
 31
0.0
  0
LINE
  5
111
330
1F
100
AcDbEntity
  8
0
  6
HIDDEN
 62
     7
370
     0
100
AcDbLine
 10
138.4421778243
 20
120.5783677046
 30
0.0
 11
138.4880614896
 21
121.68718057
 31
0.0
  0
LINE
  5
112
330
1F
100
AcDbEntity
  8
0
  6
HIDDEN
 62
     7
370
     0
100
AcDbLine
 10
139.7412159299
 20
120.3218525971
 30
0.0
 11
139.7870995952
 21
121.4306654625
 31
0.0
  0
LWPOLYLINE
  5
113
330
1F
100
AcDbEntity
  8
0
  6
HIDDEN
 62
     7
370
     0
100
AcDbPolyline
 90
       24
 70
   128
 43
0.0
 10
149.0838128403
 20
120.933012153
 10
149.4699660238
 20
121.4599272482
 10
149.9930831027
 20
121.8694030168
 10
150.6143668764
 20
122.1310705143
 10
151.2877395695
 20
122.2255230595
 10
151.9632602099
 20
122.1457555391
 10
152.5908285219
 20
121.8976839453
 10
153.1239006349
 20
121.4997066133
 10
153.5229410288
 20
120.9813397012
 10
153.7583547031
 20
120.3810281114
 10
153.8126821025
 20
119.7432942085
 10
153.6818940124
 20
119.1154357984
 10
153.375690387
 20
118.5440182673
 10
152.9167809485
 20
118.0714210393
 10
152.3392009106
 20
117.7326944888
 10
151.6857867424
 20
117.5529604146
 10
151.0049991836
 20
117.5455488707
 10
150.347329133
 20
117.7110095374
 10
149.7615529697
 20
118.0370709539
 10
149.2911150319
 20
118.4995506367
 10
148.9709055494
 20
119.0641485834
 10
148.8246729947
 20
119.6889911471
 10
148.8632627673
 20
120.3277366134
 10
149.0838128403
 20
120.933012153
  0
LWPOLYLINE
  5
114
330
1F
100
AcDbEntity
  8
0
  6
HIDDEN
 62
     7
370
     0
100
AcDbPolyline
 90
       20
 70
   128
 43
0.0
 10
149.7536793305
 20
120.3595281448
 10
150.0939259991
 20
120.7963605087
 10
150.5666793275
 20
121.1057088109
 10
151.1207091573
 20
121.2540503628
 10
151.6959777596
 20
121.2253100556
 10
152.2301458553
 20
121.0226023474
 10
152.6653280426
 20
120.6678937638
 10
152.954365579
 20
120.1996224837
 10
153.0659367625
 20
119.6685329662
 10
152.9879511243
 20
119.1321770014
 10
152.7288596183
 20
118.6486770803
 10
152.3167388294
 20
118.2704279217
 10
151.7962484398
 20
118.0384186912
 10
151.2237916594
 20
117.9777911887
 10
150.661403063
 20
118.095115345
 10
150.1700261813
 20
118.3776772672
 10
149.802909324
 20
118.7948569866
 10
149.599835299
 20
119.3014466076
 10
149.5828103279
 20
119.842549284
 10
149.7536793305
 20
120.3595281448
  0
LWPOLYLINE
  5
115
330
1F
100
AcDbEntity
  8
0
  6
HIDDEN
 62
     7
370
     0
100
AcDbPolyline
 90
       24
 70
   128
 43
0.0
 10
149.0838128403
 20
121.9567055061
 10
149.4699660238
 20
122.4836206013
 10
149.9930831027
 20
122.8930963699
 10
150.6143668764
 20
123.1547638674
 10
151.2877395695
 20
123.2492164126
 10
151.9632602099
 20
123.1694488922
 10
152.5908285219
 20
122.9213772984
 10
153.1239006349
 20
122.5233999664
 10
153.5229410288
 20
122.0050330543
 10
153.7583547031
 20
121.4047214645
 10
153.8126821025
 20
120.7669875616
 10
153.6818940124
 20
120.1391291515
 10
153.375690387
 20
119.5677116204
 10
152.9167809485
 20
119.0951143924
 10
152.3392009106
 20
118.7563878419
 10
151.6857867424
 20
118.5766537677
 10
151.0049991836
 20
118.5692422238
 10
150.347329133
 20
118.7347028905
 10
149.7615529697
 20
119.060764307
 10
149.2911150319
 20
119.5232439898
 10
148.9709055494
 20
120.0878419365
 10
148.8246729947
 20
120.7126845002
 10
148.8632627673
 20
121.3514299665
 10
149.0838128403
 20
121.9567055061
  0
LINE
  5
116
330
1F
100
AcDbEntity
  8
0
  6
HIDDEN
 62
     7
370
     0
100
AcDbLine
 10
151.2343072415
 20
121.6580921262
 30
0.0
 11
150.0275424795
 21
120.9139812636
 31
0.0
  0
LINE
  5
117
330
1F
100
AcDbEntity
  8
0
  6
HIDDEN
 62
     7
370
     0
100
AcDbLine
 10
151.2343072415
 20
121.6580921262
 30
0.0
 11
151.2343072415
 21
122.3421324129
 31
0.0
  0
LINE
  5
118
330
1F
100
AcDbEntity
  8
0
  6
HIDDEN
 62
     7
370
     0
100
AcDbLine
 10
151.2343072415
 20
121.6580921262
 30
0.0
 11
152.523465903
 21
121.0480851923
 31
0.0
  0
LINE
  5
119
330
1F
100
AcDbEntity
  8
0
  6
HIDDEN
 62
     7
370
     0
100
AcDbLine
 10
152.523465903
 20
121.0480851923
 30
0.0
 11
152.523465903
 21
121.732125479
 31
0.0
  0
LINE
  5
11A
330
1F
100
AcDbEntity
  8
0
  6
HIDDEN
 62
     7
370
     0
100
AcDbLine
 10
152.523465903
 20
121.0480851923
 30
0.0
 11
152.6058598026
 21
119.6939673958
 31
0.0
  0
LINE
  5
11B
330
1F
100
AcDbEntity
  8
0
  6
HIDDEN
 62
     7
370
     0
100
AcDbLine
 10
150.1099363791
 20
119.559863467
 30
0.0
 11
150.1099363791
 21
120.2439037536
 31
0.0
  0
LINE
  5
11C
330
1F
100
AcDbEntity
  8
0
  6
HIDDEN
 62
     7
370
     0
100
AcDbLine
 10
150.1099363791
 20
120.2439037536
 30
0.0
 11
150.0275424795
 21
121.5980215502
 31
0.0
  0
LINE
  5
11D
330
1F
100
AcDbEntity
  8
0
  6
HIDDEN
 62
     7
370
     0
100
AcDbLine
 10
150.0275424795
 20
120.9139812636
 30
0.0
 11
150.0275424795
 21
121.5980215502
 31
0.0
  0
LINE
  5
11E
330
1F
100
AcDbEntity
  8
0
  6
HIDDEN
 62
     7
370
     0
100
AcDbLine
 10
150.1099363791
 20
119.559863467
 30
0.0
 11
150.0275424795
 21
120.9139812636
 31
0.0
  0
LINE
  5
11F
330
1F
100
AcDbEntity
  8
0
  6
HIDDEN
 62
     7
370
     0
100
AcDbLine
 10
151.3990950406
 20
118.9498565331
 30
0.0
 11
151.3990950406
 21
119.6338968197
 31
0.0
  0
LINE
  5
120
330
1F
100
AcDbEntity
  8
0
  6
HIDDEN
 62
     7
370
     0
100
AcDbLine
 10
151.3990950406
 20
119.6338968197
 30
0.0
 11
152.6058598026
 21
120.3780076824
 31
0.0
  0
LINE
  5
121
330
1F
100
AcDbEntity
  8
0
  6
HIDDEN
 62
     7
370
     0
100
AcDbLine
 10
152.6058598026
 20
119.6939673958
 30
0.0
 11
152.6058598026
 21
120.3780076824
 31
0.0
  0
LINE
  5
122
330
1F
100
AcDbEntity
  8
0
  6
HIDDEN
 62
     7
370
     0
100
AcDbLine
 10
151.3990950406
 20
118.9498565331
 30
0.0
 11
152.6058598026
 21
119.6939673958
 31
0.0
  0
LINE
  5
123
330
1F
100
AcDbEntity
  8
0
  6
HIDDEN
 62
     7
370
     0
100
AcDbLine
 10
150.1099363791
 20
120.2439037536
 30
0.0
 11
151.3990950406
 21
119.6338968197
 31
0.0
  0
LINE
  5
124
330
1F
100
AcDbEntity
  8
0
  6
HIDDEN
 62
     7
370
     0
100
AcDbLine
 10
150.1099363791
 20
119.559863467
 30
0.0
 11
151.3990950406
 21
118.9498565331
 31
0.0
  0
LWPOLYLINE
  5
125
330
1F
100
AcDbEntity
  8
0
  6
HIDDEN
 62
     7
370
     0
100
AcDbPolyline
 90
       22
 70
   128
 43
0.0
 10
149.4812669578
 20
121.8565094044
 10
149.8352325633
 20
122.3263018239
 10
150.3208331533
 20
122.677181552
 10
150.8949209843
 20
122.8779713851
 10
151.5064858331
 20
122.9108302654
 10
152.1011874792
 20
122.7728385371
 10
152.6261840715
 20
122.4762573709
 10
153.0348273589
 20
122.0474393049
 10
153.2908075919
 20
121.5244867061
 10
153.3713798035
 20
120.9538662078
 10
153.2693847992
 20
120.3862799455
 10
152.9938852826
 20
119.8721604494
 10
152.5693605949
 20
119.4571894929
 10
152.0335316175
 20
119.1782390665
 10
151.4340091065
 20
119.0600951397
 10
150.8240632679
 20
119.113255319
 10
150.2578904663
 20
119.3329960891
 10
149.7857976397
 20
119.6997925183
 10
149.4497323074
 20
120.1810531341
 10
149.279555349
 20
120.734015819
 10
149.2903877342
 20
121.3095474116
 10
149.4812669578
 20
121.8565094044
  0
LINE
  5
126
330
1F
100
AcDbEntity
  8
0
  6
HIDDEN
 62
     7
370
     0
100
AcDbLine
 10
152.523465903
 20
121.732125479
 30
0.0
 11
152.6058598026
 21
120.3780076824
 31
0.0
  0
LINE
  5
127
330
1F
100
AcDbEntity
  8
0
  6
HIDDEN
 62
     7
370
     0
100
AcDbLine
 10
151.2343072415
 20
122.3421324129
 30
0.0
 11
152.523465903
 21
121.732125479
 31
0.0
  0
LINE
  5
128
330
1F
100
AcDbEntity
  8
0
  6
HIDDEN
 62
     7
370
     0
100
AcDbLine
 10
151.2343072415
 20
122.3421324129
 30
0.0
 11
150.0275424795
 21
121.5980215502
 31
0.0
  0
LINE
  5
129
330
1F
100
AcDbEntity
  8
0
  6
HIDDEN
 62
     7
370
     0
100
AcDbLine
 10
136.7167011411
 20
100.5493862402
 30
0.0
 11
138.3735228561
 21
100.876551239
 31
0.0
  0
LINE
  5
12A
330
1F
100
AcDbEntity
  8
0
  6
HIDDEN
 62
     7
370
     0
100
AcDbLine
 10
137.559879426
 20
104.9969862123
 30
0.0
 11
136.7167011411
 21
104.8304876566
 31
0.0
  0
LINE
  5
12B
330
1F
100
AcDbEntity
  8
0
  6
HIDDEN
 62
     7
370
     0
100
AcDbLine
 10
138.4281901354
 20
101.3460355739
 30
0.0
 11
149.8659734859
 21
103.6046022878
 31
0.0
  0
LINE
  5
12C
330
1F
100
AcDbEntity
  8
0
  6
HIDDEN
 62
     7
370
     0
100
AcDbLine
 10
149.8609578673
 20
106.967334418
 30
0.0
 11
137.7888988689
 21
104.5835201957
 31
0.0
  0
LINE
  5
12D
330
1F
100
AcDbEntity
  8
0
  6
HIDDEN
 62
     7
370
     0
100
AcDbLine
 10
153.4167011411
 20
104.5710477367
 30
0.0
 11
153.4167011411
 21
111.0752046927
 31
0.0
  0
LINE
  5
12E
330
1F
100
AcDbEntity
  8
0
  6
HIDDEN
 62
     7
370
     0
100
AcDbLine
 10
149.2167011411
 20
111.0752522046
 30
0.0
 11
149.2167011411
 21
105.8092450502
 31
0.0
  0
ARC
  5
12F
330
1F
100
AcDbEntity
  8
0
  6
HIDDEN
 62
     7
370
     0
100
AcDbCircle
 10
70.1167011411
 20
102.6244808182
 30
0.0
 40
0.8000000000000114
100
AcDbArc
 50
90.0
 51
180.0
  0
ARC
  5
130
330
1F
100
AcDbEntity
  8
0
  6
HIDDEN
 62
     7
370
     0
100
AcDbCircle
 10
70.1167011411
 20
121.2244808182
 30
0.0
 40
0.8000000000000114
100
AcDbArc
 50
180.0
 51
270.0
  0
ARC
  5
131
330
1F
100
AcDbEntity
  8
0
  6
HIDDEN
 62
     7
370
     0
100
AcDbCircle
 10
77.2090735718
 20
103.5994808182
 30
0.0
 40
0.400000000000006
100
AcDbArc
 50
255.0
 51
270.0
  0
ARC
  5
132
330
1F
100
AcDbEntity
  8
0
  6
HIDDEN
 62
     7
370
     0
100
AcDbCircle
 10
77.2090735718
 20
120.2494808182
 30
0.0
 40
0.400000000000006
100
AcDbArc
 50
90.0
 51
105.0
  0
ARC
  5
133
330
1F
100
AcDbEntity
  8
0
  6
HIDDEN
 62
     7
370
     0
100
AcDbCircle
 10
78.0857610334
 20
103.5994808182
 30
0.0
 40
0.4000000000000121
100
AcDbArc
 50
270.0
 51
330.0
  0
ARC
  5
134
330
1F
100
AcDbEntity
  8
0
  6
HIDDEN
 62
     7
370
     0
100
AcDbCircle
 10
78.0857610334
 20
120.2494808182
 30
0.0
 40
0.4000000000000057
100
AcDbArc
 50
30.0
 51
90.0
  0
LINE
  5
135
330
1F
100
AcDbEntity
  8
0
  6
HIDDEN
 62
     7
370
     0
100
AcDbLine
 10
77.2090735718
 20
103.1994808182
 30
0.0
 11
78.0857610334
 21
103.1994808182
 31
0.0
  0
LINE
  5
136
330
1F
100
AcDbEntity
  8
0
  6
HIDDEN
 62
     7
370
     0
100
AcDbLine
 10
78.0857610334
 20
120.6494808182
 30
0.0
 11
77.2090735718
 21
120.6494808182
 31
0.0
  0
LINE
  5
137
330
1F
100
AcDbEntity
  8
0
  6
HIDDEN
 62
     7
370
     0
100
AcDbLine
 10
77.1055459537
 20
120.6358511487
 30
0.0
 11
76.3167011411
 21
120.4244808182
 31
0.0
  0
LINE
  5
138
330
1F
100
AcDbEntity
  8
0
  6
HIDDEN
 62
     7
370
     0
100
AcDbLine
 10
76.3167011411
 20
103.4244808182
 30
0.0
 11
77.1055459537
 21
103.2131104877
 31
0.0
  0
LINE
  5
139
330
1F
100
AcDbEntity
  8
0
  6
HIDDEN
 62
     7
370
     0
100
AcDbLine
 10
78.4321711949
 20
103.3994808182
 30
0.0
 11
79.3126303554
 21
104.9244808182
 31
0.0
  0
LINE
  5
13A
330
1F
100
AcDbEntity
  8
0
  6
HIDDEN
 62
     7
370
     0
100
AcDbLine
 10
79.3126303554
 20
118.9244808182
 30
0.0
 11
78.4321711949
 21
120.4494808182
 31
0.0
  0
LINE
  5
13B
330
1F
100
AcDbEntity
  8
0
  6
HIDDEN
 62
     7
370
     0
100
AcDbLine
 10
70.1167011411
 20
103.4244808182
 30
0.0
 11
76.3167011411
 21
103.4244808182
 31
0.0
  0
LINE
  5
13C
330
1F
100
AcDbEntity
  8
0
  6
HIDDEN
 62
     7
370
     0
100
AcDbLine
 10
76.3167011411
 20
120.4244808182
 30
0.0
 11
70.1167011411
 21
120.4244808182
 31
0.0
  0
LINE
  5
13D
330
1F
100
AcDbEntity
  8
0
  6
HIDDEN
 62
     7
370
     0
100
AcDbLine
 10
157.7167011411
 20
136.0244808182
 30
0.0
 11
157.7167011411
 21
142.5247748318
 31
0.0
  0
ARC
  5
13E
330
1F
100
AcDbEntity
  8
0
  6
HIDDEN
 62
     7
370
     0
100
AcDbCircle
 10
156.1167011411
 20
136.0244808182
 30
0.0
 40
1.600000000000023
100
AcDbArc
 50
270.0
 51
0.0
  0
LINE
  5
13F
330
1F
100
AcDbEntity
  8
0
  6
HIDDEN
 62
     7
370
     0
100
AcDbLine
 10
157.7167011411
 20
81.3241233573
 30
0.0
 11
157.7167011411
 21
87.8244808182
 31
0.0
  0
ARC
  5
140
330
1F
100
AcDbEntity
  8
0
  6
HIDDEN
 62
     7
370
     0
100
AcDbCircle
 10
156.1167011411
 20
87.8244808182
 30
0.0
 40
1.600000000000009
100
AcDbArc
 50
0.0
 51
90.0
  0
ARC
  5
141
330
1F
100
AcDbEntity
  8
0
  6
HIDDEN
 62
     7
370
     0
100
AcDbCircle
 10
226.7167011411
 20
119.9244808182
 30
0.0
 40
1.0
100
AcDbArc
 50
270.0
 51
0.0
  0
ARC
  5
142
330
1F
100
AcDbEntity
  8
0
  6
HIDDEN
 62
     7
370
     0
100
AcDbCircle
 10
226.7167011411
 20
103.9244808182
 30
0.0
 40
1.0
100
AcDbArc
 50
0.0
 51
90.0
  0
ARC
  5
143
330
1F
100
AcDbEntity
  8
0
  6
HIDDEN
 62
     7
370
     0
100
AcDbCircle
 10
210.611379143
 20
118.6244808182
 30
0.0
 40
0.8000000000000114
100
AcDbArc
 50
75.0
 51
90.0
  0
ARC
  5
144
330
1F
100
AcDbEntity
  8
0
  6
HIDDEN
 62
     7
370
     0
100
AcDbCircle
 10
210.611379143
 20
105.2244808182
 30
0.0
 40
0.8000000000000114
100
AcDbArc
 50
270.0
 51
285.0
  0
LINE
  5
145
330
1F
100
AcDbEntity
  8
0
  6
HIDDEN
 62
     7
370
     0
100
AcDbLine
 10
210.611379143
 20
119.4244808182
 30
0.0
 11
210.0167011411
 21
119.4244808182
 31
0.0
  0
LINE
  5
146
330
1F
100
AcDbEntity
  8
0
  6
HIDDEN
 62
     7
370
     0
100
AcDbLine
 10
210.0167011411
 20
104.4244808182
 30
0.0
 11
210.611379143
 21
104.4244808182
 31
0.0
  0
ARC
  5
147
330
1F
100
AcDbEntity
  8
0
  6
HIDDEN
 62
     7
370
     0
100
AcDbCircle
 10
210.0167011411
 20
118.6244808182
 30
0.0
 40
0.7999999999999972
100
AcDbArc
 50
90.0
 51
180.0
  0
ARC
  5
148
330
1F
100
AcDbEntity
  8
0
  6
HIDDEN
 62
     7
370
     0
100
AcDbCircle
 10
210.0167011411
 20
105.2244808182
 30
0.0
 40
0.7999999999999972
100
AcDbArc
 50
180.0
 51
270.0
  0
LINE
  5
149
330
1F
100
AcDbEntity
  8
0
  6
HIDDEN
 62
     7
370
     0
100
AcDbLine
 10
210.8184343791
 20
104.4517401572
 30
0.0
 11
212.5827265448
 21
104.9244808182
 31
0.0
  0
LINE
  5
14A
330
1F
100
AcDbEntity
  8
0
  6
HIDDEN
 62
     7
370
     0
100
AcDbLine
 10
212.5827265448
 20
118.9244808182
 30
0.0
 11
210.8184343791
 21
119.3972214792
 31
0.0
  0
LINE
  5
14B
330
1F
100
AcDbEntity
  8
0
  6
HIDDEN
 62
     7
370
     0
100
AcDbLine
 10
226.7167011411
 20
118.9244808182
 30
0.0
 11
212.5827265448
 21
118.9244808182
 31
0.0
  0
LINE
  5
14C
330
1F
100
AcDbEntity
  8
0
  6
HIDDEN
 62
     7
370
     0
100
AcDbLine
 10
212.5827265448
 20
104.9244808182
 30
0.0
 11
226.7167011411
 21
104.9244808182
 31
0.0
  0
LINE
  5
14D
330
1F
100
AcDbEntity
  8
0
  6
HIDDEN
 62
     7
370
     0
100
AcDbLine
 10
79.3126303554
 20
104.9244808182
 30
0.0
 11
112.3167011411
 21
104.9244808182
 31
0.0
  0
LINE
  5
14E
330
1F
100
AcDbEntity
  8
0
  6
HIDDEN
 62
     7
370
     0
100
AcDbLine
 10
112.3167011411
 20
118.9244808182
 30
0.0
 11
79.3126303554
 21
118.9244808182
 31
0.0
  0
LINE
  5
14F
330
1F
100
AcDbEntity
  8
0
  6
HIDDEN
 62
     7
370
     0
100
AcDbLine
 10
112.3167011411
 20
104.9244808182
 30
0.0
 11
115.0205739267
 21
109.4244808182
 31
0.0
  0
LINE
  5
150
330
1F
100
AcDbEntity
  8
0
  6
HIDDEN
 62
     7
370
     0
100
AcDbLine
 10
115.0205739267
 20
114.4244808182
 30
0.0
 11
112.3167011411
 21
118.9244808182
 31
0.0
  0
LINE
  5
151
330
1F
100
AcDbEntity
  8
0
  6
HIDDEN
 62
     7
370
     0
100
AcDbLine
 10
157.7167002311
 20
142.4244806063
 30
0.0
 11
158.7166996004
 21
143.424480353
 31
0.0
  0
LINE
  5
152
330
1F
100
AcDbEntity
  8
0
  6
HIDDEN
 62
     7
370
     0
100
AcDbLine
 10
158.7167075024
 20
80.4244796805
 30
0.0
 11
157.7167072535
 21
81.424479485
 31
0.0
  0
LINE
  5
153
330
1F
100
AcDbEntity
  8
0
  6
HIDDEN
 62
     7
370
     0
100
AcDbLine
 10
209.2167011411
 20
114.4244808182
 30
0.0
 11
115.0205739267
 21
114.4244808182
 31
0.0
  0
LINE
  5
154
330
1F
100
AcDbEntity
  8
0
  6
HIDDEN
 62
     7
370
     0
100
AcDbLine
 10
115.0205739267
 20
109.4244808182
 30
0.0
 11
209.2167011411
 21
109.4244808182
 31
0.0
  0
LINE
  5
155
330
1F
100
AcDbEntity
  8
0
  6
HIDDEN
 62
     7
370
     0
100
AcDbLine
 10
153.4167011411
 20
112.7737094318
 30
0.0
 11
153.4167011411
 21
121.0266412671
 31
0.0
  0
LINE
  5
156
330
1F
100
AcDbEntity
  8
0
  6
HIDDEN
 62
     7
370
     0
100
AcDbLine
 10
149.2167011411
 20
118.0424230667
 30
0.0
 11
149.2167011411
 21
112.7737569437
 31
0.0
  0
LINE
  5
157
330
1F
100
AcDbEntity
  8
0
  6
HIDDEN
 62
     7
370
     0
100
AcDbLine
 10
149.2167011411
 20
121.0266412671
 30
0.0
 11
149.2167011411
 21
119.3395195105
 31
0.0
  0
LINE
  5
158
330
1F
100
AcDbEntity
  8
0
  6
HIDDEN
 62
     7
370
     0
100
AcDbLine
 10
137.7888988689
 20
119.2654414407
 30
0.0
 11
149.86147817
 21
116.8815244766
 31
0.0
  0
LINE
  5
159
330
1F
100
AcDbEntity
  8
0
  6
HIDDEN
 62
     7
370
     0
100
AcDbLine
 10
149.8674299927
 20
120.2440717388
 30
0.0
 11
138.4281901354
 21
122.5029260625
 31
0.0
  0
LINE
  5
15A
330
1F
100
AcDbEntity
  8
0
  6
HIDDEN
 62
     7
370
     0
100
AcDbLine
 10
136.7167011411
 20
119.0184739798
 30
0.0
 11
137.559879426
 21
118.8519754241
 31
0.0
  0
LINE
  5
15B
330
1F
100
AcDbEntity
  8
0
  6
HIDDEN
 62
     7
370
     0
100
AcDbLine
 10
138.3735228561
 20
122.9724103973
 30
0.0
 11
136.7167011411
 21
123.2995753962
 31
0.0
  0
LINE
  5
15C
330
1F
100
AcDbEntity
  8
0
  6
HIDDEN
 62
     7
370
     0
100
AcDbLine
 10
137.1617011411
 20
103.5676707484
 30
0.0
 11
137.1617011411
 21
103.4136477194
 31
0.0
  0
LINE
  5
15D
330
1F
100
AcDbEntity
  8
0
  6
HIDDEN
 62
     7
370
     0
100
AcDbLine
 10
137.4033893874
 20
102.1896954744
 30
0.0
 11
137.4619349874
 21
102.047233177
 31
0.0
  0
LINE
  5
15E
330
1F
100
AcDbEntity
  8
0
  6
HIDDEN
 62
     7
370
     0
100
AcDbLine
 10
138.5491503935
 20
101.0131625909
 30
0.0
 11
140.302707552
 21
101.3594294949
 31
0.0
  0
LINE
  5
15F
330
1F
100
AcDbEntity
  8
0
  6
HIDDEN
 62
     7
370
     0
100
AcDbLine
 10
139.5278090472
 20
105.2836532789
 30
0.0
 11
137.7742518886
 21
104.9373863749
 31
0.0
  0
LINE
  5
160
330
1F
100
AcDbEntity
  8
0
  6
HIDDEN
 62
     7
370
     0
100
AcDbLine
 10
140.7339471288
 20
101.757339872
 30
0.0
 11
141.0764578707
 21
102.4721729938
 31
0.0
  0
LINE
  5
161
330
1F
100
AcDbEntity
  8
0
  6
HIDDEN
 62
     7
370
     0
100
AcDbLine
 10
140.6664471131
 20
104.548540359
 30
0.0
 11
140.0779299166
 21
105.0795276563
 31
0.0
  0
LINE
  5
162
330
1F
100
AcDbEntity
  8
0
  6
HIDDEN
 62
     7
370
     0
100
AcDbLine
 10
140.0779299166
 20
118.7694339801
 30
0.0
 11
140.6664471131
 21
119.3004212773
 31
0.0
  0
LINE
  5
163
330
1F
100
AcDbEntity
  8
0
  6
HIDDEN
 62
     7
370
     0
100
AcDbLine
 10
141.0764578707
 20
121.3767886425
 30
0.0
 11
140.7339471288
 21
122.0916217644
 31
0.0
  0
LINE
  5
164
330
1F
100
AcDbEntity
  8
0
  6
HIDDEN
 62
     7
370
     0
100
AcDbLine
 10
137.7742518886
 20
118.9115752614
 30
0.0
 11
139.5278090472
 21
118.5653083574
 31
0.0
  0
LINE
  5
165
330
1F
100
AcDbEntity
  8
0
  6
HIDDEN
 62
     7
370
     0
100
AcDbLine
 10
140.302707552
 20
122.4895321415
 30
0.0
 11
138.5491503935
 21
122.8357990455
 31
0.0
  0
LINE
  5
166
330
1F
100
AcDbEntity
  8
0
  6
HIDDEN
 62
     7
370
     0
100
AcDbLine
 10
137.4619349874
 20
121.8017284594
 30
0.0
 11
137.4033893874
 21
121.659266162
 31
0.0
  0
LINE
  5
167
330
1F
100
AcDbEntity
  8
0
  6
HIDDEN
 62
     7
370
     0
100
AcDbLine
 10
137.1617011411
 20
120.435313917
 30
0.0
 11
137.1617011411
 21
120.281290888
 31
0.0
  0
LINE
  5
168
330
1F
100
AcDbEntity
  8
0
  6
HIDDEN
 62
     7
370
     0
100
AcDbLine
 10
148.8167011411
 20
120.9001425036
 30
0.0
 11
148.8167011411
 21
119.8764491505
 31
0.0
  0
LINE
  5
169
330
1F
100
AcDbEntity
  8
0
  6
HIDDEN
 62
     7
370
     0
100
AcDbLine
 10
153.8167011411
 20
119.8764491505
 30
0.0
 11
153.8167011411
 21
120.9001425036
 31
0.0
  0
DIMENSION
  5
16A
330
1F
100
AcDbEntity
  8
VERMASSUNG
100
AcDbDimension
  2
_D
 10
61.3013808513
 20
143.4244808182
 30
0.0
 11
61.3013808513
 21
111.9244808182
 31
0.0
 70
   160
  1
MAS-BT 40 %%c<>
 71
     2
 42
-1.0
  3
SLDDIMSTYLE0
100
AcDbAlignedDimension
 13
160.7167011411
 23
80.4244808182
 33
0.0
 14
160.7167011411
 24
143.4244808182
 34
0.0
 50
90.0
100
AcDbRotatedDimension
  0
DIMENSION
  5
177
330
1F
100
AcDbEntity
  8
VERMASSUNG
100
AcDbDimension
  2
_D_1
 10
227.7167011411
 20
160.1803888969
 30
0.0
 11
148.5167011411
 21
160.1803888969
 31
0.0
 70
   160
  1
<>
 71
     2
 42
-1.0
  3
SLDDIMSTYLE0
100
AcDbAlignedDimension
 13
69.3167011411
 23
123.7472364152
 33
0.0
 14
227.7167011411
 24
124.2244808182
 34
0.0
100
AcDbRotatedDimension
  0
DIMENSION
  5
181
330
1F
100
AcDbEntity
  8
VERMASSUNG
100
AcDbDimension
  2
_D_2
 10
161.7167011411
 20
148.1803888969
 30
0.0
 11
194.7167011411
 21
148.1803888969
 31
0.0
 70
   160
  1
<>
 71
     2
 42
-1.0
  3
SLDDIMSTYLE0
100
AcDbAlignedDimension
 13
227.7167011411
 23
124.2244808182
 33
0.0
 14
161.7167011411
 24
142.4244808182
 34
0.0
100
AcDbRotatedDimension
  0
DIMENSION
  5
18B
330
1F
100
AcDbEntity
  8
VERMASSUNG
100
AcDbDimension
  2
_D_3
 10
134.7167011411
 20
154.1803888969
 30
0.0
 11
181.2167011411
 21
154.1803888969
 31
0.0
 70
   160
  1
<>
 71
     2
 42
-1.0
  3
SLDDIMSTYLE0
100
AcDbAlignedDimension
 13
227.7167011411
 23
124.2244808182
 33
0.0
 14
134.7167011411
 24
134.1494808182
 34
0.0
100
AcDbRotatedDimension
  0
DIMENSION
  5
195
330
1F
100
AcDbEntity
  8
VERMASSUNG
100
AcDbDimension
  2
_D_4
 10
233.324895737
 20
104.9244808182
 30
0.0
 11
233.324895737
 21
111.9244808182
 31
0.0
 70
   160
  1
%%c<>
 71
     2
 42
-1.0
  3
SLDDIMSTYLE0
100
AcDbAlignedDimension
 13
226.7167011411
 23
118.9244808182
 33
0.0
 14
226.7167011411
 24
104.9244808182
 34
0.0
 50
90.0
100
AcDbRotatedDimension
  0
DIMENSION
  5
1A0
330
1F
100
AcDbEntity
  8
VERMASSUNG
100
AcDbDimension
  2
_D_5
 10
239.624895737
 20
99.4244808182
 30
0.0
 11
239.624895737
 21
111.9244808182
 31
0.0
 70
   160
  1
WH%%c<>
 71
     2
 42
-1.0
  3
SLDDIMSTYLE0
100
AcDbAlignedDimension
 13
227.5167011411
 23
124.4244808182
 33
0.0
 14
227.5167011411
 24
99.4244808182
 34
0.0
 50
90.0
100
AcDbRotatedDimension
  0
LINE
  5
1AC
330
1F
100
AcDbEntity
  8
VERMASSUNG
  6
CENTERX2
370
     0
100
AcDbLine
 10
66.8494783928
 20
111.9244808182
 30
0.0
 11
229.7959728253
 21
111.9244808182
 31
0.0
  0
LINE
  5
1AD
330
1F
100
AcDbEntity
  8
0
  6
Continuous
 62
     7
370
    15
100
AcDbLine
 10
269.5235061674
 20
28.5133451904
 30
0.0
 11
269.594205353
 21
28.5541722305
 31
0.0
  0
LINE
  5
1AE
330
1F
100
AcDbEntity
  8
0
  6
Continuous
 62
     7
370
    15
100
AcDbLine
 10
273.9422052702
 20
36.0859450816
 30
0.0
 11
273.9422052702
 21
36.1675858927
 31
0.0
  0
LINE
  5
1AF
330
1F
100
AcDbEntity
  8
0
  6
Continuous
 62
     7
370
    15
100
AcDbLine
 10
272.6475339273
 20
39.0291159332
 30
0.0
 11
250.444380998
 21
51.8467232888
 31
0.0
  0
LINE
  5
1B0
330
1F
100
AcDbEntity
  8
0
  6
Continuous
 62
     7
370
    15
100
AcDbLine
 10
244.194888919
 20
41.021112509
 30
0.0
 11
266.3980418483
 21
28.2035051534
 31
0.0
  0
SPLINE
  5
1B1
330
1F
100
AcDbEntity
  8
0
  6
Continuous
 62
     7
370
    15
100
AcDbSpline
210
0.0
220
0.0
230
1.0
 70
     8
 71
     3
 72
    21
 73
    17
 74
     0
 42
0.000000001
 43
0.00000001
 40
0.0
 40
0.0
 40
0.0
 40
0.0
 40
0.0568621545045617
 40
0.1322861891227237
 40
0.2035919198267459
 40
0.2795953044358681
 40
0.354145480308222
 40
0.4285501020880343
 40
0.5032575687675575
 40
0.5783643342827887
 40
0.6537652632299039
 40
0.729293631405129
 40
0.8047441789067115
 40
0.8798899566796896
 40
0.954551709248299
 40
1.0
 40
1.0
 40
1.0
 40
1.0
 10
267.5017800450179
 20
30.75453328285219
 30
0.0
 10
267.4442628700984
 20
30.78707153709681
 30
0.0
 10
267.3104528176037
 20
30.86276971793837
 30
0.0
 10
267.1471111043501
 20
31.07823196729395
 30
0.0
 10
267.0017859663151
 20
31.3989769107938
 30
0.0
 10
266.9162935938848
 20
31.81249132505398
 30
0.0
 10
266.902770122334
 20
32.30727351530169
 30
0.0
 10
266.9673783179567
 20
32.8529973390812
 30
0.0
 10
267.1103448129419
 20
33.43194395699915
 30
0.0
 10
267.3289417066359
 20
34.02412250522838
 30
0.0
 10
267.61688536779
 20
34.60822450401609
 30
0.0
 10
267.9644095166228
 20
35.1626678988899
 30
0.0
 10
268.3587541158522
 20
35.66757763803484
 30
0.0
 10
268.7840837033128
 20
36.1029084992531
 30
0.0
 10
269.167937587453
 20
36.41497659239162
 30
0.0
 10
269.4015344358671
 20
36.55844438239023
 30
0.0
 10
269.4899248584489
 20
36.61273098202098
 30
0.0
  0
SPLINE
  5
1B2
330
1F
100
AcDbEntity
  8
0
  6
Continuous
 62
     7
370
    15
100
AcDbSpline
210
0.0
220
0.0
230
1.0
 70
     8
 71
     3
 72
    12
 73
     8
 74
     0
 42
0.000000001
 43
0.00000001
 40
0.0
 40
0.0
 40
0.0
 40
0.0
 40
0.1173662125210536
 40
0.3413928753464514
 40
0.565349867141073
 40
0.7930668075572542
 40
1.0
 40
1.0
 40
1.0
 40
1.0
 10
269.4899248584489
 20
36.61273098202098
 30
0.0
 10
269.5638729984619
 20
36.65306076341064
 30
0.0
 10
269.7789721109173
 20
36.77037135676595
 30
0.0
 10
270.1184730951751
 20
36.89210874594612
 30
0.0
 10
270.4774593258673
 20
36.94388714272247
 30
0.0
 10
270.7705912423781
 20
36.91703931732732
 30
0.0
 10
270.9180841401001
 20
36.84115114062854
 30
0.0
 10
270.9883042410063
 20
36.80502143196
 30
0.0
  0
SPLINE
  5
1B3
330
1F
100
AcDbEntity
  8
0
  6
Continuous
 62
     7
370
    15
100
AcDbSpline
210
0.0
220
0.0
230
1.0
 70
     8
 71
     3
 72
    19
 73
    15
 74
     0
 42
0.000000001
 43
0.00000001
 40
0.0
 40
0.0
 40
0.0
 40
0.0
 40
0.022119239897078
 40
0.11171626397778
 40
0.201903638774744
 40
0.2927097204363523
 40
0.3840414837142258
 40
0.4757484844082514
 40
0.5676797631873404
 40
0.6597152506821475
 40
0.751764765490537
 40
0.8437794474702037
 40
0.9357420044710264
 40
1.0
 40
1.0
 40
1.0
 40
1.0
 10
239.8174630734581
 20
32.95871352144954
 30
0.0
 10
239.8848822633802
 20
32.94222349989218
 30
0.0
 10
240.2253921567377
 20
32.85893837753384
 30
0.0
 10
240.8826409709347
 20
32.81856868861659
 30
0.0
 10
241.783514871311
 20
32.84235756181833
 30
0.0
 10
242.720278235544
 20
32.98641237631632
 30
0.0
 10
243.6813883129019
 20
33.23877188730728
 30
0.0
 10
244.6603071182041
 20
33.60085986388435
 30
0.0
 10
245.6486634095249
 20
34.0688533901242
 30
0.0
 10
246.6383562271031
 20
34.63921451292144
 30
0.0
 10
247.6218835324981
 20
35.30604478406443
 30
0.0
 10
248.5901672009941
 20
36.06724373236577
 30
0.0
 10
249.4461708041516
 20
36.81980078881642
 30
0.0
 10
249.9635892874414
 20
37.34997372543038
 30
0.0
 10
250.1764183553677
 20
37.56804906595912
 30
0.0
  0
SPLINE
  5
1B4
330
1F
100
AcDbEntity
  8
0
  6
Continuous
 62
     7
370
    15
100
AcDbSpline
210
0.0
220
0.0
230
1.0
 70
     8
 71
     3
 72
    18
 73
    14
 74
     0
 42
0.000000001
 43
0.00000001
 40
0.0
 40
0.0
 40
0.0
 40
0.0
 40
0.090285859590147
 40
0.1824202104417152
 40
0.2746312570314802
 40
0.3669229380414677
 40
0.4592896736881244
 40
0.5517097361572911
 40
0.6441178940005663
 40
0.7364126010498058
 40
0.8284526494766985
 40
0.920064717568623
 40
1.0
 40
1.0
 40
1.0
 40
1.0
 10
256.432336053636
 20
48.38995041465733
 30
0.0
 10
256.5414649280533
 20
48.80062715415978
 30
0.0
 10
256.7619569555628
 20
49.63038873126205
 30
0.0
 10
256.9896554595091
 20
50.85919686273175
 30
0.0
 10
257.1397702478941
 20
52.07021374439989
 30
0.0
 10
257.2014948742807
 20
53.24559994880335
 30
0.0
 10
257.1758070276111
 20
54.37675202155629
 30
0.0
 10
257.0616767883303
 20
55.45495375998773
 30
0.0
 10
256.859193566806
 20
56.47137423244771
 30
0.0
 10
256.5699319841042
 20
57.41832029809771
 30
0.0
 10
256.1932673994878
 20
58.28437079125405
 30
0.0
 10
255.7600338150888
 20
59.04133062510642
 30
0.0
 10
255.4142032640126
 20
59.46183882577582
 30
0.0
 10
255.2530578852624
 20
59.65778147183057
 30
0.0
  0
LINE
  5
1B5
330
1F
100
AcDbEntity
  8
0
  6
Continuous
 62
     7
370
    15
100
AcDbLine
 10
236.4842652928
 20
34.5030028006
 30
0.0
 11
238.0310613766
 21
33.6100564282
 31
0.0
  0
LINE
  5
1B6
330
1F
100
AcDbEntity
  8
0
  6
Continuous
 62
     7
370
    15
100
AcDbLine
 10
253.7797814156
 20
60.8905955932
 30
0.0
 11
252.2329853318
 21
61.7835419655
 31
0.0
  0
LINE
  5
1B7
330
1F
100
AcDbEntity
  8
0
  6
Continuous
 62
     7
370
    15
100
AcDbLine
 10
248.6797737563
 20
63.8347673465
 30
0.0
 11
245.648053432
 21
65.5849422362
 31
0.0
  0
SPLINE
  5
1B8
330
1F
100
AcDbEntity
  8
0
  6
Continuous
 62
     7
370
    15
100
AcDbSpline
210
0.0
220
0.0
230
1.0
 70
     8
 71
     3
 72
    30
 73
    26
 74
     0
 42
0.000000001
 43
0.00000001
 40
0.0
 40
0.0
 40
0.0
 40
0.0
 40
0.0096062853002342
 40
0.0557805914097045
 40
0.1022586308020489
 40
0.149055746748717
 40
0.1961244478664849
 40
0.2433873251448109
 40
0.2907664791225567
 40
0.3381998400872971
 40
0.3856408138750606
 40
0.4330639669452814
 40
0.4804603027610324
 40
0.5278278090994905
 40
0.5751686223556888
 40
0.6224872095853877
 40
0.6697892813197582
 40
0.7170811817849314
 40
0.7643695714212617
 40
0.8116609789202428
 40
0.8589603338852264
 40
0.9062746093862575
 40
0.9536107466793406
 40
0.9984956308336588
 40
1.0
 40
1.0
 40
1.0
 40
1.0
 10
243.8376958114185
 20
66.24216700252724
 30
0.0
 10
243.7808817764865
 20
66.25605099037341
 30
0.0
 10
243.4509810531753
 20
66.33667081676616
 30
0.0
 10
242.8048394666135
 20
66.37580604155782
 30
0.0
 10
241.9044973601735
 20
66.35357115925639
 30
0.0
 10
240.9679613531077
 20
66.21045538105699
 30
0.0
 10
240.0070737635608
 20
65.95918762044771
 30
0.0
 10
239.0282770594405
 20
65.59813819362532
 30
0.0
 10
238.0399923180446
 20
65.13110899245608
 30
0.0
 10
237.0502079082061
 20
64.56186330261198
 30
0.0
 10
236.0668313768951
 20
63.8953608372117
 30
0.0
 10
235.097446243845
 20
63.13718494509484
 30
0.0
 10
234.1493327643411
 20
62.29350479815163
 30
0.0
 10
233.2295056977926
 20
61.37099916485566
 30
0.0
 10
232.3447490116035
 20
60.37685330601022
 30
0.0
 10
231.5015926262317
 20
59.31872116509643
 30
0.0
 10
230.7062814565189
 20
58.20468503512684
 30
0.0
 10
229.9647285108826
 20
57.04320466762658
 30
0.0
 10
229.28250353324
 20
55.84307053487631
 30
0.0
 10
228.664694343082
 20
54.61333093391529
 30
0.0
 10
228.1162513173589
 20
53.36330483805028
 30
0.0
 10
227.6404842002216
 20
52.10214979039915
 30
0.0
 10
227.2514393820708
 20
50.86214818312936
 30
0.0
 10
227.0353920257343
 20
50.03320309260447
 30
0.0
 10
226.9478962044647
 20
49.62726556884347
 30
0.0
 10
226.9450587797104
 20
49.61410131526117
 30
0.0
  0
LINE
  5
1B9
330
1F
100
AcDbEntity
  8
0
  6
Continuous
 62
     7
370
    15
100
AcDbLine
 10
236.6445772651
 20
64.2700265723
 30
0.0
 11
216.7485557545
 21
71.4397640736
 31
0.0
  0
LINE
  5
1BA
330
1F
100
AcDbEntity
  8
0
  6
Continuous
 62
     7
370
    15
100
AcDbLine
 10
210.3770863432
 20
60.4028594626
 30
0.0
 11
229.4049604295
 21
44.3358798853
 31
0.0
  0
LINE
  5
1BB
330
1F
100
AcDbEntity
  8
0
  6
Continuous
 62
     7
370
    15
100
AcDbLine
 10
229.899333393
 20
38.3044030712
 30
0.0
 11
232.9310537173
 21
36.5542281815
 31
0.0
  0
SPLINE
  5
1BC
330
1F
100
AcDbEntity
  8
0
  6
Continuous
 62
     7
370
    15
100
AcDbSpline
210
0.0
220
0.0
230
1.0
 70
     8
 71
     3
 72
    12
 73
     8
 74
     0
 42
0.000000001
 43
0.00000001
 40
0.0
 40
0.0
 40
0.0
 40
0.0
 40
0.098810989550198
 40
0.3820254461422846
 40
0.6643744439911058
 40
0.9450278620500971
 40
1.0
 40
1.0
 40
1.0
 40
1.0
 10
226.9363960944893
 20
42.37145341740712
 30
0.0
 10
226.9687995631166
 20
42.26080835164813
 30
0.0
 10
227.0940786400215
 20
41.83302971283034
 30
0.0
 10
227.3731177395303
 20
41.13978448958661
 30
0.0
 10
227.8114950231638
 20
40.3391539497969
 30
0.0
 10
228.1750479979524
 20
39.79649600933299
 30
0.0
 10
228.4130366699664
 20
39.55205697803856
 30
0.0
 10
228.4520168545031
 20
39.51202028861464
 30
0.0
  0
SPLINE
  5
1BD
330
1F
100
AcDbEntity
  8
0
  6
Continuous
 62
     7
370
    15
100
AcDbSpline
210
0.0
220
0.0
230
1.0
 70
     8
 71
     3
 72
    29
 73
    25
 74
     0
 42
0.000000001
 43
0.00000001
 40
0.0
 40
0.0
 40
0.0
 40
0.0
 40
0.0441906272078238
 40
0.0899341016775402
 40
0.1366759503669055
 40
0.184368152399783
 40
0.2326654030866259
 40
0.2812052096015781
 40
0.3297248128801215
 40
0.3781563091556156
 40
0.4265007956542285
 40
0.4747868261250456
 40
0.5230536913433877
 40
0.5713424341671365
 40
0.6196860666677361
 40
0.66813070108621
 40
0.716719985917185
 40
0.7591465030186806
 40
0.7850002704614917
 40
0.8339190781082437
 40
0.8828358662315523
 40
0.931279907760884
 40
0.9787604031332029
 40
0.9999999999999999
 40
0.9999999999999999
 40
0.9999999999999999
 40
0.9999999999999999
 10
216.5754379086411
 20
71.49399795240606
 30
0.0
 10
216.3985092132852
 20
71.53316991754834
 30
0.0
 10
216.0384345937741
 20
71.61289034060201
 30
0.0
 10
215.4525828680193
 20
71.59359196694014
 30
0.0
 10
214.8383208401887
 20
71.47277467380817
 30
0.0
 10
214.2041186489867
 20
71.23974596171779
 30
0.0
 10
213.5629818614991
 20
70.90049321133431
 30
0.0
 10
212.9283074363935
 20
70.46110958821735
 30
0.0
 10
212.3133274077955
 20
69.93165744731236
 30
0.0
 10
211.7297521394249
 20
69.3234362754736
 30
0.0
 10
211.1879150650068
 20
68.64845739364753
 30
0.0
 10
210.697277605469
 20
67.91943111892363
 30
0.0
 10
210.2665078114138
 20
67.14973461782262
 30
0.0
 10
209.9034325079015
 20
66.35330465242636
 30
0.0
 10
209.6148934545153
 20
65.54435108723425
 30
0.0
 10
209.4066996550416
 20
64.73709070552337
 30
0.0
 10
209.2889861478577
 20
63.97984639268521
 30
0.0
 10
209.2571975244915
 20
63.36917621653829
 30
0.0
 10
209.2765780150403
 20
62.78132974949627
 30
0.0
 10
209.3573024762675
 20
62.19278374984513
 30
0.0
 10
209.5459878337143
 20
61.55688004189786
 30
0.0
 10
209.8314939366162
 20
61.00603759840589
 30
0.0
 10
210.1238426880319
 20
60.61185123978802
 30
0.0
 10
210.3454102794911
 20
60.44424011637699
 30
0.0
 10
210.4138910711781
 20
60.39243586851228
 30
0.0
  0
LINE
  5
1BE
330
1F
100
AcDbEntity
  8
0
  6
Continuous
 62
     7
370
    15
100
AcDbLine
 10
264.393840381
 20
40.525993565
 30
0.0
 11
264.393840381
 21
40.0156555576
 31
0.0
  0
LINE
  5
1BF
330
1F
100
AcDbEntity
  8
0
  6
Continuous
 62
     7
370
    15
100
AcDbLine
 10
268.393840381
 20
40.0156555576
 30
0.0
 11
268.393840381
 21
40.525993565
 31
0.0
  0
LWPOLYLINE
  5
1C0
330
1F
100
AcDbEntity
  8
0
  6
Continuous
 62
     7
370
    15
100
AcDbPolyline
 90
       43
 70
   128
 43
0.0
 10
269.5934985659
 20
38.5972161308
 10
268.9453574637
 20
38.1669637066
 10
268.3116947628
 20
37.63414535
 10
267.7066654407
 20
37.0106633427
 10
267.1437848527
 20
36.3104452425
 10
266.6356268211
 20
35.5491327646
 10
266.1935427564
 20
34.7437323717
 10
265.8274080864
 20
33.9122353778
 10
265.5454016543
 20
33.0732160517
 10
265.353823018
 20
32.2454166987
 10
265.2569517275
 20
31.4473289885
 10
265.2569517275
 20
30.6967808816
 10
265.353823018
 20
30.0105383826
 10
265.5454016543
 20
29.4039310149
 10
265.8274080864
 20
28.8905093847
 10
266.1935427564
 20
28.4817424829
 10
266.6356268211
 20
28.1867614864
 10
267.1437848527
 20
28.0121557835
 10
267.7066654407
 20
27.9618257769
 10
268.3116947628
 20
28.0368957558
 10
268.9453574637
 20
28.2356887809
 10
269.5934985659
 20
28.5537641446
 10
270.241639668
 20
28.9840165688
 10
270.875302369
 20
29.5168349254
 10
271.4803316911
 20
30.1403169327
 10
272.043212279
 20
30.840535033
 10
272.5513703107
 20
31.6018475109
 10
272.9934543753
 20
32.4072479037
 10
273.3595890454
 20
33.2387448976
 10
273.6415954775
 20
34.0777642237
 10
273.8331741138
 20
34.9055635767
 10
273.9300454042
 20
35.7036512869
 10
273.9300454042
 20
36.4541993938
 10
273.8331741138
 20
37.1404418928
 10
273.6415954775
 20
37.7470492605
 10
273.3595890454
 20
38.2604708907
 10
272.9934543753
 20
38.6692377926
 10
272.5513703107
 20
38.964218789
 10
272.043212279
 20
39.1388244919
 10
271.4803316911
 20
39.1891544986
 10
270.875302369
 20
39.1140845197
 10
270.241639668
 20
38.9152914945
 10
269.5934985659
 20
38.5972161308
  0
LWPOLYLINE
  5
1C1
330
1F
100
AcDbEntity
  8
0
  6
Continuous
 62
     7
370
    15
100
AcDbPolyline
 90
       23
 70
   128
 43
0.0
 10
269.5227878878
 20
38.7196906176
 10
268.8641079059
 20
38.282442219
 10
268.2201417464
 20
37.7409601493
 10
267.6052745492
 20
37.1073402232
 10
267.0332414313
 20
36.3957364628
 10
266.5168206674
 20
35.6220449202
 10
266.067548244
 20
34.803548586
 10
265.6954601647
 20
33.9585313158
 10
265.4088682622
 20
33.105869399
 10
265.2141745261
 20
32.2646098939
 10
265.1157280927
 20
31.4535451477
 10
265.1157280927
 20
30.6907930066
 10
265.2141745261
 20
29.993392093
 10
265.4088682622
 20
29.3769211909
 10
265.6954601647
 20
28.8551512415
 10
266.067548244
 20
28.4397377233
 10
266.5168206674
 20
28.1399602879
 10
267.0332414313
 20
27.9625154679
 10
267.6052745492
 20
27.9113670872
 10
268.2201417464
 20
27.9876577161
 10
268.8641079059
 20
28.1896831482
 10
269.5227878878
 20
28.512930469
 10
269.5235061674
 20
28.5133451904
  0
LWPOLYLINE
  5
1C2
330
1F
100
AcDbEntity
  8
0
  6
Continuous
 62
     7
370
    15
100
AcDbPolyline
 90
       12
 70
   128
 43
0.0
 10
273.9422052702
 20
36.1675858927
 10
273.9298476828
 20
36.54182808
 10
273.8314012495
 20
37.2392289936
 10
273.6367075134
 20
37.8556998957
 10
273.3501156109
 20
38.3774698451
 10
272.9780275315
 20
38.7928833633
 10
272.5287551081
 20
39.0926607987
 10
272.0123343442
 20
39.2701056187
 10
271.4403012264
 20
39.3212539994
 10
270.8254340291
 20
39.2449633705
 10
270.1814678696
 20
39.0429379384
 10
269.5227878878
 20
38.7196906176
  0
LINE
  5
1C3
330
1F
100
AcDbEntity
  8
0
  6
Continuous
 62
     7
370
    15
100
AcDbLine
 10
266.3598639463
 20
41.7240850435
 30
0.0
 11
266.5376531601
 21
41.6683814859
 31
0.0
  0
LWPOLYLINE
  5
1C4
330
1F
100
AcDbEntity
  8
0
  6
Continuous
 62
     7
370
    15
100
AcDbPolyline
 90
       20
 70
   128
 43
0.0
 10
268.2766950128
 20
40.8735482216
 10
268.5360633676
 20
40.6852941229
 10
268.8053284534
 20
40.2722631546
 10
268.763562063
 20
39.9291106748
 10
268.5191489379
 20
39.6391503134
 10
268.0824155847
 20
39.3655062675
 10
267.5589626047
 20
39.1593112069
 10
266.9505655331
 20
39.01344114
 10
266.2359586649
 20
38.9516702164
 10
265.4468609865
 20
39.0425318234
 10
264.71388899
 20
39.3575136912
 10
264.1941794299
 20
39.8818323474
 10
263.9714239535
 20
40.5345413772
 10
264.0517836512
 20
41.0577805417
 10
264.322237947
 20
41.4408490592
 10
264.7727245263
 20
41.7061779472
 10
265.3060322497
 20
41.8162585821
 10
265.9282924358
 20
41.7990132653
 10
266.3598639463
 20
41.7240850435
 10
266.3598638701
 20
41.7240847646
  0
ARC
  5
1C5
330
1F
100
AcDbEntity
  8
0
  6
Continuous
 62
     7
370
    15
100
AcDbCircle
 10
251.0863712453
 20
56.2247770707
 30
0.0
 40
5.385418431241738
100
AcDbArc
 50
40.6396958219
 51
79.200585758
  0
ARC
  5
1C6
330
1F
100
AcDbEntity
  8
0
  6
Continuous
 62
     7
370
    15
100
AcDbCircle
 10
240.7245322538
 20
38.2760760489
 30
0.0
 40
5.385617906331964
100
AcDbArc
 50
220.5828918272
 51
259.1743886033
  0
ARC
  5
1C7
330
1F
100
AcDbEntity
  8
0
  6
Continuous
 62
     7
370
    15
100
AcDbCircle
 10
240.2029304868
 20
40.2230893349
 30
0.0
 40
6.82259926902288
100
AcDbArc
 50
188.054640006
 51
236.9718447289
  0
SPLINE
  5
1C8
330
1F
100
AcDbEntity
  8
0
  6
Continuous
 62
     7
370
    15
100
AcDbSpline
210
0.0
220
0.0
230
1.0
 70
     8
 71
     3
 72
    29
 73
    25
 74
     0
 42
0.000000001
 43
0.00000001
 40
0.0
 40
0.0
 40
0.0
 40
0.0
 40
0.0226170105032921
 40
0.0451713142240263
 40
0.0676870228488737
 40
0.0901883721253699
 40
0.1126996441678027
 40
0.135245089017566
 40
0.1578488467194459
 40
0.1805348711560506
 40
0.2033268568175892
 40
0.2262481695777687
 40
0.2493217824054336
 40
0.3751991801893576
 40
0.4999614246459921
 40
0.4999717960761083
 40
0.6247044141127994
 40
0.7509557879396762
 40
0.7931713871196463
 40
0.834908104506354
 40
0.8763104515934291
 40
0.9175264576337788
 40
0.9587061619419142
 40
1.0
 40
1.0
 40
1.0
 40
1.0
 10
233.4477982112057
 20
44.42137777658675
 30
0.0
 10
233.4661634363292
 20
44.37253788678483
 30
0.0
 10
233.5028429680794
 20
44.27499351819607
 30
0.0
 10
233.5545327967459
 20
44.12753090879023
 30
0.0
 10
233.6037141565697
 20
43.97959361926673
 30
0.0
 10
233.6502038264696
 20
43.83110175403365
 30
0.0
 10
233.6941139229291
 20
43.68210978790045
 30
0.0
 10
233.7354791143847
 20
43.53263799932233
 30
0.0
 10
233.7743564010892
 20
43.38271789601449
 30
0.0
 10
233.810798246111
 20
43.23237908603502
 30
0.0
 10
233.844860227197
 20
43.08165663441266
 30
0.0
 10
233.8765972802931
 20
42.93057493768064
 30
0.0
 10
233.9497555521602
 20
42.55485373073084
 30
0.0
 10
234.0354320921912
 20
41.96608330902191
 30
0.0
 10
234.0611644540202
 20
41.46459970501058
 30
0.0
 10
234.0616016102533
 20
40.99414687976788
 30
0.0
 10
234.0361705535305
 20
40.54770434988319
 30
0.0
 10
233.9442032374954
 20
40.11167767838963
 30
0.0
 10
233.8516493434504
 20
39.8434847957683
 30
0.0
 10
233.7880667195612
 20
39.69723368493111
 30
0.0
 10
233.7164212155255
 20
39.5663133530844
 30
0.0
 10
233.6361664412134
 20
39.4508670206347
 30
0.0
 10
233.5477647816201
 20
39.34934501619222
 30
0.0
 10
233.4814081277084
 20
39.29434613923226
 30
0.0
 10
233.4481838858233
 20
39.26680864474129
 30
0.0
  0
LWPOLYLINE
  5
1C9
330
1F
100
AcDbEntity
  8
0
  6
Continuous
 62
     7
370
    15
100
AcDbPolyline
 90
       24
 70
   128
 43
0.0
 10
233.4475794701
 20
44.4215040532
 10
233.7065708473
 20
45.7473938446
 10
234.0604499784
 20
47.0946259539
 10
234.5060645327
 20
48.4511993321
 10
235.0394450072
 20
49.8050297186
 10
235.6558400859
 20
51.1440572873
 10
236.3497589648
 20
52.4563540747
 10
237.1150202632
 20
53.730230233
 10
237.9448070871
 20
54.9543381627
 10
238.8317277537
 20
56.1177735964
 10
239.767881636
 20
57.2101727329
 10
240.7449295408
 20
58.2218045572
 10
241.754167994
 20
59.143657524
 10
242.7866067703
 20
59.9675198319
 10
243.8330489774
 20
60.6860525731
 10
244.8841729817
 20
61.2928551085
 10
245.9306154441
 20
61.7825220836
 10
246.9630547288
 20
62.1506915794
 10
247.972293939
 20
62.3940839678
 10
248.9493428426
 20
62.5105311265
 10
249.8854979566
 20
62.4989957525
 10
250.7724200768
 20
62.3595806019
 10
251.6022085633
 20
62.0935275752
 10
252.2329853318
 20
61.7835419655
  0
SPLINE
  5
1CA
330
1F
100
AcDbEntity
  8
0
  6
Continuous
 62
     7
370
    15
100
AcDbSpline
210
0.0
220
0.0
230
1.0
 70
     8
 71
     3
 72
     8
 73
     4
 74
     0
 42
0.000000001
 43
0.00000001
 40
0.0
 40
0.0
 40
0.0
 40
0.0
 40
1.0
 40
1.0
 40
1.0
 40
1.0
 10
232.6696430730306
 20
47.7002811800911
 30
0.0
 10
231.9765718379778
 20
47.58441956171639
 30
0.0
 10
231.2829510715815
 20
47.46966086856333
 30
0.0
 10
230.5889719107541
 20
47.35564932092517
 30
0.0
  0
SPLINE
  5
1CB
330
1F
100
AcDbEntity
  8
0
  6
Continuous
 62
     7
370
    15
100
AcDbSpline
210
0.0
220
0.0
230
1.0
 70
     8
 71
     3
 72
     8
 73
     4
 74
     0
 42
0.000000001
 43
0.00000001
 40
0.0
 40
0.0
 40
0.0
 40
0.0
 40
0.0012389803509652
 40
0.0012389803509652
 40
0.0012389803509652
 40
0.0012389803509652
 10
230.1152354966086
 20
47.62918344167917
 30
0.0
 10
230.2733088315896
 20
47.53791236122866
 30
0.0
 10
230.4312270105557
 20
47.44673083412842
 30
0.0
 10
230.5889719107541
 20
47.35564932092517
 30
0.0
  0
LWPOLYLINE
  5
1CC
330
1F
100
AcDbEntity
  8
0
  6
Continuous
 62
     7
370
    15
100
AcDbPolyline
 90
       26
 70
   128
 43
0.0
 10
230.1152354966
 20
47.6291834417
 10
230.4609008873
 20
48.9870701197
 10
230.9004512938
 20
50.355915203
 10
231.4298974325
 20
51.7232952894
 10
232.0444341413
 20
53.0768002729
 10
232.7384839911
 20
54.4041459756
 10
233.5057479049
 20
55.6932856366
 10
234.3392623279
 20
56.9325192466
 10
235.2314624266
 20
58.1105997348
 10
236.1742507468
 20
59.2168350458
 10
237.1590707041
 20
60.2411851786
 10
238.1769842424
 20
61.1743533079
 10
239.2187529539
 20
62.0078701605
 10
240.2749219251
 20
62.7341708811
 10
241.3359055486
 20
63.3466636897
 10
242.3920745198
 20
63.839789707
 10
243.4338432312
 20
64.2090734062
 10
244.4517567695
 20
64.4511632322
 10
245.4365767269
 20
64.5638620195
 10
246.3793650471
 20
64.5461469332
 10
247.2715651458
 20
64.3981787524
 10
248.1050795687
 20
64.1213004108
 10
248.8723434826
 20
63.7180248086
 10
249.5663933323
 20
63.1920120056
 10
250.1809300412
 20
62.5480360033
 10
250.2534107549
 20
62.4575643053
  0
LINE
  5
1CD
330
1F
100
AcDbEntity
  8
0
  6
Continuous
 62
     7
370
    15
100
AcDbLine
 10
227.0835151723
 20
49.3793583314
 30
0.0
 11
230.1152354966
 21
47.6291834417
 31
0.0
  0
ARC
  5
1CE
330
1F
100
AcDbEntity
  8
0
  6
Continuous
 62
     7
370
    15
100
AcDbCircle
 10
242.9355033729
 20
60.8507022142
 30
0.0
 40
5.456276790029587
100
AcDbArc
 50
60.1888352859
 51
79.3502771967
  0
LINE
  5
1CF
330
1F
100
AcDbEntity
  8
0
  6
Continuous
 62
     7
370
    15
100
AcDbLine
 10
233.0722384755
 20
47.6391187894
 30
0.0
 11
233.0629158246
 21
47.6445006412
 31
0.0
  0
SPLINE
  5
1D0
330
1F
100
AcDbEntity
  8
0
  6
Continuous
 62
     7
370
    15
100
AcDbSpline
210
0.0
220
0.0
230
1.0
 70
     8
 71
     3
 72
    10
 73
     6
 74
     0
 42
0.000000001
 43
0.00000001
 40
0.0
 40
0.0
 40
0.0
 40
0.0
 40
0.2467742107334153
 40
0.7153638603754585
 40
1.0
 40
1.0
 40
1.0
 40
1.0
 10
233.9958297330479
 20
46.82916374749491
 30
0.0
 10
233.9278968307645
 20
46.9127997312201
 30
0.0
 10
233.7309688654005
 20
47.15524872946079
 30
0.0
 10
233.4158210468527
 20
47.42325807994818
 30
0.0
 10
233.1664668251696
 20
47.5799184686758
 30
0.0
 10
233.0722384754897
 20
47.63911878936971
 30
0.0
  0
SPLINE
  5
1D1
330
1F
100
AcDbEntity
  8
0
  6
Continuous
 62
     7
370
    15
100
AcDbSpline
210
0.0
220
0.0
230
1.0
 70
     8
 71
     3
 72
    10
 73
     6
 74
     0
 42
0.000000001
 43
0.00000001
 40
0.0
 40
0.0
 40
0.0
 40
0.0
 40
0.5
 40
0.5
 40
1.0
 40
1.0
 40
1.0
 40
1.0
 10
233.0629158245825
 20
47.64450064118244
 30
0.0
 10
233.0131152257698
 20
47.67324991493156
 30
0.0
 10
232.9480833090258
 20
47.69401326029223
 30
0.0
 10
232.8110249486804
 20
47.71296694968001
 30
0.0
 10
232.7374861086306
 20
47.71162258845221
 30
0.0
 10
232.6696430730306
 20
47.7002811800911
 30
0.0
  0
SPLINE
  5
1D2
330
1F
100
AcDbEntity
  8
0
  6
Continuous
 62
     7
370
    15
100
AcDbSpline
210
0.0
220
0.0
230
1.0
 70
     8
 71
     3
 72
     8
 73
     4
 74
     0
 42
0.000000001
 43
0.00000001
 40
0.0
 40
0.0
 40
0.0
 40
0.0
 40
1.0
 40
1.0
 40
1.0
 40
1.0
 10
226.9266905647102
 20
49.46988001058796
 30
0.0
 10
226.9490693612296
 20
49.45696805913612
 30
0.0
 10
227.0032567922469
 20
49.4256905079791
 30
0.0
 10
227.0835151722713
 20
49.37935833139911
 30
0.0
  0
LINE
  5
1D3
330
1F
100
AcDbEntity
  8
0
  6
Continuous
 62
     7
370
    15
100
AcDbLine
 10
226.9266905647
 20
49.4698800106
 30
0.0
 11
226.9493471507
 21
49.6132967531
 31
0.0
  0
SPLINE
  5
1D4
330
1F
100
AcDbEntity
  8
0
  6
Continuous
 62
     7
370
    15
100
AcDbSpline
210
0.0
220
0.0
230
1.0
 70
     8
 71
     3
 72
    11
 73
     7
 74
     0
 42
0.000000001
 43
0.00000001
 40
0.0
 40
0.0
 40
0.0
 40
0.0
 40
0.2913010432653674
 40
0.5549855813085076
 40
0.7913748223724443
 40
1.0
 40
1.0
 40
1.0
 40
1.0
 10
233.5562235604894
 20
39.99293738350178
 30
0.0
 10
233.6471604112096
 20
40.08449489956423
 30
0.0
 10
233.8204129351057
 20
40.25892991258539
 30
0.0
 10
233.9715031937695
 20
40.67632860298907
 30
0.0
 10
234.0500894240836
 20
41.13043157211021
 30
0.0
 10
234.0577179588587
 20
41.4743655306491
 30
0.0
 10
234.0612942574136
 20
41.63560363930027
 30
0.0
  0
SPLINE
  5
1D5
330
1F
100
AcDbEntity
  8
0
  6
Continuous
 62
     7
370
    15
100
AcDbSpline
210
0.0
220
0.0
230
1.0
 70
     8
 71
     3
 72
     9
 73
     5
 74
     0
 42
0.000000001
 43
0.00000001
 40
0.0
 40
0.0
 40
0.0
 40
0.0
 40
0.5067649320089164
 40
1.0
 40
1.0
 40
1.0
 40
1.0
 10
233.4475020960169
 20
39.26630661695764
 30
0.0
 10
233.4657710113779
 20
39.38876073569385
 30
0.0
 10
233.5018210894457
 20
39.63039963176106
 30
0.0
 10
233.5385019425289
 20
39.87254990214767
 30
0.0
 10
233.5565942255934
 20
39.99198690722588
 30
0.0
  0
SPLINE
  5
1D6
330
1F
100
AcDbEntity
  8
0
  6
Continuous
 62
     7
370
    15
100
AcDbSpline
210
0.0
220
0.0
230
1.0
 70
     8
 71
     3
 72
    10
 73
     6
 74
     0
 42
0.000000001
 43
0.00000001
 40
0.0
 40
0.0
 40
0.0
 40
0.0
 40
0.4807908150166058
 40
0.9757817590360649
 40
1.0
 40
1.0
 40
1.0
 40
1.0
 10
233.0722384754897
 20
41.06596525368943
 30
0.0
 10
233.2220294223899
 20
40.9857948783274
 30
0.0
 10
233.5260353831713
 20
40.82308630018903
 30
0.0
 10
233.815650827369
 20
40.71158486946782
 30
0.0
 10
233.949989258047
 20
40.68335325198861
 30
0.0
 10
233.9562554039068
 20
40.68203640295226
 30
0.0
  0
LINE
  5
1D7
330
1F
100
AcDbEntity
  8
0
  6
Continuous
 62
     7
370
    15
100
AcDbLine
 10
227.3601238122
 20
49.2196236524
 30
0.0
 11
226.9266905647
 21
49.4698800106
 31
0.0
  0
LINE
  5
1D8
330
1F
100
AcDbEntity
  8
0
  6
Continuous
 62
     7
370
    15
100
AcDbLine
 10
230.5889719108
 20
47.3556493209
 30
0.0
 11
227.3601238122
 21
49.2196236524
 31
0.0
  0
SPLINE
  5
1D9
330
1F
100
AcDbEntity
  8
0
  6
Continuous
 62
     7
370
    15
100
AcDbSpline
210
0.0
220
0.0
230
1.0
 70
     8
 71
     3
 72
    11
 73
     7
 74
     0
 42
0.000000001
 43
0.00000001
 40
0.0
 40
0.0
 40
0.0
 40
0.0
 40
0.2180025369760413
 40
0.529008550034483
 40
0.8400525035994074
 40
1.0
 40
1.0
 40
1.0
 40
1.0
 10
229.4651887335466
 20
45.20579770660323
 30
0.0
 10
229.4604665489215
 20
45.41219203724257
 30
0.0
 10
229.4490076178642
 20
45.91303192241718
 30
0.0
 10
229.38393520549
 20
46.73175846503899
 30
0.0
 10
229.343207243382
 20
47.48592485334643
 30
0.0
 10
229.3640922749685
 20
47.91346972068547
 30
0.0
 10
229.3711847784838
 20
48.05866286832077
 30
0.0
  0
LINE
  5
1DA
330
1F
100
AcDbEntity
  8
0
  6
Continuous
 62
     7
370
    15
100
AcDbLine
 10
229.4651887335
 20
44.7854423512
 30
0.0
 11
229.4651887335
 21
45.2057977066
 31
0.0
  0
LINE
  5
1DB
330
1F
100
AcDbEntity
  8
0
  6
Continuous
 62
     7
370
    15
100
AcDbLine
 10
228.8553091348
 20
48.0208111663
 30
0.0
 11
228.8604970295
 21
48.3534766305
 31
0.0
  0
ARC
  5
1DC
330
1F
100
AcDbEntity
  8
0
  6
Continuous
 62
     7
370
    15
100
AcDbCircle
 10
236.3491051956
 20
47.8349457652
 30
0.0
 40
7.49610067630573
100
AcDbArc
 50
178.5792087138
 51
203.3164212113
  0
LINE
  5
1DD
330
1F
100
AcDbEntity
  8
0
  6
Continuous
 62
     7
370
    15
100
AcDbLine
 10
216.5982523433
 20
71.4879749067
 30
0.0
 11
216.7485557545
 21
71.4397640736
 31
0.0
  0
LINE
  5
1DE
330
1F
100
AcDbEntity
  8
0
  6
Continuous
 62
     7
370
    15
100
AcDbLine
 10
233.0629158246
 20
41.0713471055
 30
0.0
 11
233.0722384755
 21
41.0659652537
 31
0.0
  0
ARC
  5
1DF
330
1F
100
AcDbEntity
  8
0
  6
Continuous
 62
     7
370
    15
100
AcDbCircle
 10
235.8689269767
 20
41.6958357714
 30
0.0
 40
5.894055296995392
100
AcDbArc
 50
192.5292124781
 51
260.6428941703
  0
SPLINE
  5
1E0
330
1F
100
AcDbEntity
  8
0
  6
Continuous
 62
     7
370
    15
100
AcDbSpline
210
0.0
220
0.0
230
1.0
 70
     8
 71
     3
 72
     8
 73
     4
 74
     0
 42
0.000000001
 43
0.00000001
 40
0.0
 40
0.0
 40
0.0
 40
0.0
 40
0.0012389803509652
 40
0.0012389803509652
 40
0.0012389803509652
 40
0.0012389803509652
 10
230.5889719107541
 20
40.78249578524488
 30
0.0
 10
230.4312270105557
 20
40.66041933471016
 30
0.0
 10
230.2733088315896
 20
40.53866203170934
 30
0.0
 10
230.1152354966086
 20
40.41719501016491
 30
0.0
  0
SPLINE
  5
1E1
330
1F
100
AcDbEntity
  8
0
  6
Continuous
 62
     7
370
    15
100
AcDbSpline
210
0.0
220
0.0
230
1.0
 70
     8
 71
     3
 72
     8
 73
     4
 74
     0
 42
0.000000001
 43
0.00000001
 40
0.0
 40
0.0
 40
0.0
 40
0.0
 40
1.0
 40
1.0
 40
1.0
 40
1.0
 10
230.5889719107541
 20
40.78249578524488
 30
0.0
 10
231.2829524936957
 20
40.8965075665175
 30
0.0
 10
231.9765855544577
 20
41.01126831903787
 30
0.0
 10
232.6696430730306
 20
41.12712764441081
 30
0.0
  0
SPLINE
  5
1E2
330
1F
100
AcDbEntity
  8
0
  6
Continuous
 62
     7
370
    15
100
AcDbSpline
210
0.0
220
0.0
230
1.0
 70
     8
 71
     3
 72
    12
 73
     8
 74
     0
 42
0.000000001
 43
0.00000001
 40
0.0
 40
0.0
 40
0.0
 40
0.0
 40
0.25
 40
0.25
 40
0.5
 40
0.5
 40
1.0
 40
1.0
 40
1.0
 40
1.0
 10
232.6696430730306
 20
41.12712764441081
 30
0.0
 10
232.7034315889547
 20
41.13277611449506
 30
0.0
 10
232.7390033650236
 20
41.13603657801051
 30
0.0
 10
232.8095856114161
 20
41.13717416755863
 30
0.0
 10
232.844608569865
 20
41.1351575511006
 30
0.0
 10
232.94881386513
 20
41.12078181376101
 30
0.0
 10
233.0125242970696
 20
41.10043751512861
 30
0.0
 10
233.0629158245825
 20
41.07134710550216
 30
0.0
  0
LINE
  5
1E3
330
1F
100
AcDbEntity
  8
0
  6
Continuous
 62
     7
370
    15
100
AcDbLine
 10
227.3601238122
 20
42.6464701167
 30
0.0
 11
230.5889719108
 21
40.7824957852
 31
0.0
  0
LINE
  5
1E4
330
1F
100
AcDbEntity
  8
0
  6
Continuous
 62
     7
370
    15
100
AcDbLine
 10
227.3601238122
 20
42.6464701167
 30
0.0
 11
229.2530566992
 21
43.7392370122
 31
0.0
  0
LINE
  5
1E5
330
1F
100
AcDbEntity
  8
0
  6
Continuous
 62
     7
370
    15
100
AcDbLine
 10
226.9266905647
 20
42.3962137585
 30
0.0
 11
227.3601238122
 21
42.6464701167
 31
0.0
  0
LINE
  5
1E6
330
1F
100
AcDbEntity
  8
0
  6
Continuous
 62
     7
370
    15
100
AcDbLine
 10
230.1152354966
 20
40.4171950102
 30
0.0
 11
227.0835151723
 21
42.1673698999
 31
0.0
  0
SPLINE
  5
1E7
330
1F
100
AcDbEntity
  8
0
  6
Continuous
 62
     7
370
    15
100
AcDbSpline
210
0.0
220
0.0
230
1.0
 70
     8
 71
     3
 72
     8
 73
     4
 74
     0
 42
0.000000001
 43
0.00000001
 40
0.0
 40
0.0
 40
0.0
 40
0.0
 40
1.0
 40
1.0
 40
1.0
 40
1.0
 10
227.0835151722713
 20
42.16736989988486
 30
0.0
 10
227.0034903727566
 20
42.21356723330681
 30
0.0
 10
226.9490135753747
 20
42.29675475567151
 30
0.0
 10
226.9266905647102
 20
42.39621375851263
 30
0.0
  0
ARC
  5
1E8
330
1F
100
AcDbEntity
  8
0
  6
Continuous
 62
     7
370
    15
100
AcDbCircle
 10
232.6098874752
 20
42.9808186641
 30
0.0
 40
5.405179574298866
100
AcDbArc
 50
220.9676728376
 51
239.9024689524
  0
ELLIPSE
  5
1E9
330
1F
100
AcDbEntity
  8
0
  6
Continuous
 62
     7
370
    15
100
AcDbEllipse
 10
229.0187421241
 20
44.5277365866
 30
0.0
 11
-6.005970385558612E-5
 21
0.8534489614827194
 31
0.0
210
0.0
220
0.0
230
1.0
 40
0.7174342186
 41
3.534193645557468
 42
5.104989972352344
  0
ELLIPSE
  5
1EA
330
1F
100
AcDbEntity
  8
0
  6
Continuous
 62
     7
370
    15
100
AcDbEllipse
 10
228.8995033086
 20
44.4588791065
 30
0.0
 11
0.2600075789209484
 21
0.9705436209909308
 31
0.0
210
0.0
220
0.0
230
1.0
 40
0.5176380889
 41
3.619174351347763
 42
5.189970678142603
  0
LWPOLYLINE
  5
1EB
330
1F
100
AcDbEntity
  8
0
  6
Continuous
 62
     7
370
    15
100
AcDbPolyline
 90
       25
 70
   128
 43
0.0
 10
266.6269834847
 20
41.6726974358
 10
266.1049303391
 20
41.6684590721
 10
265.6025659354
 20
41.5863635722
 10
265.1541255775
 20
41.4320056086
 10
264.7901697348
 20
41.2159044215
 10
264.5355013964
 20
40.9527869496
 10
264.4074757888
 20
40.6605842139
 10
264.4148176455
 20
40.3592093479
 10
264.5570266311
 20
40.0692005507
 10
264.8244114384
 20
39.8103214425
 10
265.1987502344
 20
39.6002142067
 10
265.654532449
 20
39.4531973043
 10
266.1606972773
 20
39.3792896942
 10
266.6827504229
 20
39.3835280578
 10
267.1851148266
 20
39.4656235578
 10
267.6335551845
 20
39.6199815214
 10
267.9975110272
 20
39.8360827085
 10
268.2521793656
 20
40.0992001804
 10
268.3802049732
 20
40.3914029161
 10
268.3728631165
 20
40.6927777821
 10
268.2306541309
 20
40.9827865793
 10
267.9632693237
 20
41.2416656875
 10
267.5889305276
 20
41.4517729233
 10
267.1331483131
 20
41.5987898257
 10
266.6269834847
 20
41.6726974358
  0
LINE
  5
1EC
330
1F
100
AcDbEntity
  8
0
  6
Continuous
 62
     7
370
    15
100
AcDbLine
 10
266.8506828952
 20
39.9137886559
 30
0.0
 11
265.7038547632
 21
39.9914946033
 31
0.0
  0
LINE
  5
1ED
330
1F
100
AcDbEntity
  8
0
  6
Continuous
 62
     7
370
    15
100
AcDbLine
 10
267.540668513
 20
40.4482876176
 30
0.0
 11
266.8506828952
 21
39.9137886559
 31
0.0
  0
LINE
  5
1EE
330
1F
100
AcDbEntity
  8
0
  6
Continuous
 62
     7
370
    15
100
AcDbLine
 10
267.0838259989
 20
41.0604925267
 30
0.0
 11
267.540668513
 21
40.4482876176
 31
0.0
  0
LINE
  5
1EF
330
1F
100
AcDbEntity
  8
0
  6
Continuous
 62
     7
370
    15
100
AcDbLine
 10
265.9369978668
 20
41.1381984741
 30
0.0
 11
267.0838259989
 21
41.0604925267
 31
0.0
  0
LINE
  5
1F0
330
1F
100
AcDbEntity
  8
0
  6
Continuous
 62
     7
370
    15
100
AcDbLine
 10
265.247012249
 20
40.6036995124
 30
0.0
 11
265.9369978668
 21
41.1381984741
 31
0.0
  0
LINE
  5
1F1
330
1F
100
AcDbEntity
  8
0
  6
Continuous
 62
     7
370
    15
100
AcDbLine
 10
265.7038547632
 20
39.9914946033
 30
0.0
 11
265.247012249
 21
40.6036995124
 31
0.0
  0
LINE
  5
1F2
330
1F
100
AcDbEntity
  8
0
  6
Continuous
 62
     7
370
    15
100
AcDbLine
 10
267.0838259989
 20
40.0943935028
 30
0.0
 11
267.0838259989
 21
41.0604925267
 31
0.0
  0
LINE
  5
1F3
330
1F
100
AcDbEntity
  8
0
  6
Continuous
 62
     7
370
    15
100
AcDbLine
 10
265.9369978668
 20
39.9756974622
 30
0.0
 11
265.9369978668
 21
41.1381984741
 31
0.0
  0
ARC
  5
1F4
330
1F
100
AcDbEntity
  8
0
  6
Continuous
 62
     7
370
     0
100
AcDbCircle
 10
245.974157428
 20
43.549770911
 30
0.0
 40
3.091910370737609
100
AcDbArc
 50
173.8196216534
 51
234.8681979532
  0
LWPOLYLINE
  5
1F5
330
1F
100
AcDbEntity
  8
0
  6
Continuous
 62
     7
370
     0
100
AcDbPolyline
 90
       17
 70
   128
 43
0.0
 10
250.444380998
 20
51.8467232888
 10
250.0750966266
 20
52.0145952701
 10
249.5293436497
 20
52.1292123631
 10
248.9342294321
 20
52.116605989
 10
248.303047842
 20
51.9770577534
 10
247.6498984331
 20
51.7136849331
 10
246.9893714839
 20
51.3323708418
 10
246.336222075
 20
50.8416334063
 10
245.7050404849
 20
50.2524348898
 10
245.1099262673
 20
49.5779370137
 10
244.5641732904
 20
48.8332069459
 10
244.0799727739
 20
48.0348807255
 10
243.6681409573
 20
47.200791641
 10
243.3378774827
 20
46.3495718644
 10
243.0965598905
 20
45.5002362388
 10
242.9495788168
 20
44.6717575186
 10
242.9002175761
 20
43.8826425495
  0
LWPOLYLINE
  5
1F6
330
1F
100
AcDbEntity
  8
0
  6
Continuous
 62
     7
370
     0
100
AcDbPolyline
 90
       35
 70
   128
 43
0.0
 10
269.5934985659
 20
36.8416533853
 10
269.0737764455
 20
36.4860115554
 10
268.5717528387
 20
36.0312554095
 10
268.1045235571
 20
35.4928711227
 10
267.6879995336
 20
34.889192726
 10
267.3363649942
 20
34.2407777633
 10
267.0615944315
 20
33.5697072284
 10
266.8730448275
 20
32.8988336236
 10
266.7771370126
 20
32.2510027448
 10
266.7771370126
 20
31.6482756956
 10
266.8730448275
 20
31.1111776228
 10
267.0615944315
 20
30.6579987571
 10
267.3363649942
 20
30.3041715612
 10
267.6879995336
 20
30.0617451959
 10
268.1045235571
 20
29.9389752004
 10
268.5717528387
 20
29.9400423595
 10
269.0737764455
 20
30.0649103324
 10
269.5934985659
 20
30.3093268902
 10
270.1132206862
 20
30.66496872
 10
270.6152442931
 20
31.1197248659
 10
271.0824735747
 20
31.6581091528
 10
271.4989975982
 20
32.2617875494
 10
271.8506321375
 20
32.9102025121
 10
272.1254027002
 20
33.581273047
 10
272.3139523043
 20
34.2521466518
 10
272.4098601192
 20
34.8999775306
 10
272.4098601192
 20
35.5027045798
 10
272.3139523043
 20
36.0398026526
 10
272.1254027002
 20
36.4929815183
 10
271.8506321375
 20
36.8468087142
 10
271.4989975982
 20
37.0892350795
 10
271.0824735747
 20
37.2120050751
 10
270.6152442931
 20
37.210937916
 10
270.1132206862
 20
37.086069943
 10
269.5934985659
 20
36.8416533853
  0
LWPOLYLINE
  5
1F7
330
1F
100
AcDbEntity
  8
0
  6
Continuous
 62
     7
370
     0
100
AcDbPolyline
 90
       17
 70
   128
 43
0.0
 10
267.4999136876
 20
30.7428118921
 10
267.8649789981
 20
30.609590034
 10
268.292852
 20
30.5924982109
 10
268.7571212615
 20
30.6978846212
 10
269.2399451753
 20
30.9216993241
 10
269.722769089
 20
31.2553412462
 10
270.1870383505
 20
31.6859887155
 10
270.6149113525
 20
32.1970921913
 10
270.9899451753
 20
32.7690102536
 10
271.2977274795
 20
33.3797644121
 10
271.5264303638
 20
34.0058837269
 10
271.6672649046
 20
34.6233067839
 10
271.7148189094
 20
35.2083063614
 10
271.6672649046
 20
35.7384012535
 10
271.5264303638
 20
36.1932202108
 10
271.2977274795
 20
36.555284796
 10
270.9918760724
 20
36.8095635615
  0
LWPOLYLINE
  5
1F8
330
1F
100
AcDbEntity
  8
0
  6
Continuous
 62
     7
370
     0
100
AcDbPolyline
 90
       39
 70
   128
 43
0.0
 10
235.4755963736
 20
40.8211121301
 10
235.5229787322
 20
42.0145123764
 10
235.6647094102
 20
43.2521314851
 10
235.8995428732
 20
44.5230932151
 10
236.2254153964
 20
45.8162283091
 10
236.6394632003
 20
47.1201726492
 10
237.1380476178
 20
48.4234671259
 10
237.7167870713
 20
49.7146583402
 10
238.3705955775
 20
50.9823992575
 10
239.0937274439
 20
52.2155489249
 10
239.8798277616
 20
53.4032703789
 10
240.7219882527
 20
54.5351258805
 10
241.6128079805
 20
55.601168643
 10
242.5444583893
 20
56.5920302443
 10
243.5087521018
 20
57.4990029569
 10
244.4972148701
 20
58.314116272
 10
245.5011600479
 20
59.0302069445
 10
246.5117649289
 20
59.6409819438
 10
247.520148281
 20
60.1410737574
 10
248.5174483951
 20
60.5260875603
 10
249.4949009619
 20
60.7926398373
 10
250.4439160931
 20
60.9383881176
 10
251.3561538097
 20
60.9620515599
 10
252.2235973337
 20
60.8634222092
 10
253.0386235404
 20
60.6433668236
 10
253.79406995
 20
60.3038192578
 10
254.4832976724
 20
59.8477634681
 10
255.1002497495
 20
59.279207289
 10
255.6395043844
 20
58.6031472129
 10
256.0963225879
 20
57.8255244798
 10
256.4666898252
 20
56.9531728664
 10
256.7473512957
 20
55.9937586299
 10
256.9358405363
 20
54.9557131373
 10
257.0305010968
 20
53.8481587696
 10
257.0305010968
 20
52.6808287544
 10
256.9358405363
 20
51.4639816299
 10
256.7473512957
 20
50.2083110923
 10
256.4666898252
 20
48.9248520195
 10
256.3394998838
 20
48.4435435947
  0
LWPOLYLINE
  5
1F9
330
1F
100
AcDbEntity
  8
0
  6
Continuous
 62
     7
370
     0
100
AcDbPolyline
 90
       22
 70
   128
 43
0.0
 10
250.0900078048
 20
37.617932815
 10
249.4949009619
 20
37.0359289645
 10
248.5174483951
 20
36.1739385297
 10
247.520148281
 20
35.4074941303
 10
246.5117649289
 20
34.7433313073
 10
245.5011600479
 20
34.1872867476
 10
244.4972148701
 20
33.7442469906
 10
243.5087521018
 20
33.4181054857
 10
242.5444583893
 20
33.2117283762
 10
241.6128079805
 20
33.1269293115
 10
240.7219882527
 20
33.1644535089
 10
239.8798277616
 20
33.3239712043
 10
239.0937274439
 20
33.6040805506
 10
238.3705955775
 20
34.0023199366
 10
237.7167870713
 20
34.5151896205
 10
237.1380476178
 20
35.1381824848
 10
236.6394632003
 20
35.8658236461
 10
236.2254153964
 20
36.6917185674
 10
235.8995428732
 20
37.6086092547
 10
235.6647094102
 20
38.6084380396
 10
235.5229787322
 20
39.6824183907
 10
235.4755963736
 20
40.8211121301
  0
LWPOLYLINE
  5
1FA
330
1F
100
AcDbEntity
  8
0
  6
Continuous
 62
     7
370
     0
100
AcDbPolyline
 90
       25
 70
   128
 43
0.0
 10
234.7684895924
 20
40.8211121301
 10
234.8159977801
 20
42.0351569012
 10
234.9581170201
 20
43.2936956563
 10
235.1936348011
 20
44.5859909865
 10
235.5205417684
 20
45.9010174837
 10
235.9360488671
 20
47.2275558055
 10
236.4366111372
 20
48.5542883946
 10
237.0179579577
 20
49.8698960365
 10
237.6751294827
 20
51.1631544305
 10
238.4025189564
 20
52.4230299521
 10
239.1939205482
 20
53.6387737875
 10
240.0425822989
 20
54.800013639
 10
240.9412637256
 20
55.8968422176
 10
241.8822975952
 20
56.9199017686
 10
242.8576553385
 20
57.8604639086
 10
243.8590155473
 20
58.7105040931
 10
244.8778349692
 20
59.4627700789
 10
245.9054213961
 20
60.1108437979
 10
246.9330078231
 20
60.6491961137
 10
247.951827245
 20
61.0732339941
 10
248.9531874538
 20
61.3793396973
 10
249.9285451971
 20
61.5649016376
 10
250.8695790667
 20
61.6283366657
 10
251.7682604934
 20
61.5691035765
 10
252.0954439484
 20
61.514815252
  0
ARC
  5
1FB
330
1F
100
AcDbEntity
  8
0
  6
Continuous
 62
     7
370
     0
100
AcDbCircle
 10
244.0288960997
 20
40.3656111172
 30
0.0
 40
9.271602334676215
100
AcDbArc
 50
177.1840039461
 51
217.1033364391
  0
LWPOLYLINE
  5
1FC
330
1F
100
AcDbEntity
  8
0
  6
Continuous
 62
     7
370
     0
100
AcDbPolyline
 90
       24
 70
   128
 43
0.0
 10
240.7788972325
 20
43.8826425495
 10
240.8277932894
 20
44.7543349926
 10
240.9736089088
 20
45.6669262491
 10
241.2137420075
 20
46.6041311063
 10
241.5439074046
 20
47.5492251214
 10
241.9582132909
 20
48.4853430693
 10
242.449266368
 20
49.3957799029
 10
243.008303782
 20
50.2642888555
 10
243.6253494972
 20
51.0753713642
 10
244.289392318
 20
51.8145536424
 10
244.9885823846
 20
52.4686449649
 10
245.7104426338
 20
53.0259730565
 10
246.4420914522
 20
53.4765923842
 10
247.1704725494
 20
53.8124616355
 10
247.8825879474
 20
54.0275872155
 10
248.5657299301
 20
54.1181302033
 10
249.2077078126
 20
54.082474857
 10
249.7970654844
 20
53.9212574472
 10
250.3232858439
 20
53.6373549023
 10
250.7769784763
 20
53.2358334701
 10
251.1500472258
 20
52.7238583099
 10
251.4358346718
 20
52.1105656306
 10
251.6292409305
 20
51.4068996546
 10
251.6751948655
 20
51.1361895672
  0
LWPOLYLINE
  5
1FD
330
1F
100
AcDbEntity
  8
0
  6
Continuous
 62
     7
370
     0
100
AcDbPolyline
 90
       12
 70
   128
 43
0.0
 10
245.4257027865
 20
40.3105787875
 10
244.9885823846
 20
40.1570391542
 10
244.289392318
 20
40.0038628089
 10
243.6253494972
 20
39.9763575656
 10
243.008303782
 20
40.075014256
 10
242.449266368
 20
40.2980723491
 10
241.9582132909
 20
40.641551368
 10
241.5439074046
 20
41.0993219215
 10
241.2137420075
 20
41.6632150831
 10
240.9736089088
 20
42.323168166
 10
240.8277932894
 20
43.0674042919
 10
240.7788972325
 20
43.8826425495
  0
LWPOLYLINE
  5
1FE
330
1F
100
AcDbEntity
  8
0
  6
Continuous
 62
     7
370
     0
100
AcDbPolyline
 90
       19
 70
   128
 43
0.0
 10
232.669643073
 20
47.7002811801
 10
233.004171803
 20
48.9367890985
 10
233.4284027551
 20
50.1806418714
 10
233.9379819784
 20
51.4190736363
 10
234.5276795787
 20
52.6393741673
 10
235.191443394
 20
53.8290193225
 10
235.9224611087
 20
54.9757995807
 10
236.7132301697
 20
56.0679453504
 10
237.5556347858
 20
57.0942477626
 10
238.441029222
 20
58.0441737095
 10
239.3603265318
 20
58.9079739469
 10
240.304091818
 20
59.6767831533
 10
241.2626390644
 20
60.3427109151
 10
242.2261305454
 20
60.8989227078
 10
243.1846777918
 20
61.3397100396
 10
244.128443078
 20
61.6605490388
 10
245.0477403878
 20
61.8581468827
 10
245.933134824
 20
61.9304755927
 10
246.288890193
 20
61.9234692631
  0
LWPOLYLINE
  5
1FF
330
1F
100
AcDbEntity
  8
0
  6
Continuous
 62
     7
370
     0
100
AcDbPolyline
 90
       21
 70
   128
 43
0.0
 10
227.0835151723
 20
49.3793583314
 10
227.429180563
 20
50.7372450094
 10
227.8687309695
 20
52.1060900927
 10
228.3981771081
 20
53.4734701791
 10
229.012713817
 20
54.8269751626
 10
229.7067636667
 20
56.1543208653
 10
230.4740275806
 20
57.4434605264
 10
231.3075420035
 20
58.6826941363
 10
232.1997421023
 20
59.8607746246
 10
233.1425304225
 20
60.9670099356
 10
234.1273503798
 20
61.9913600683
 10
235.1452639181
 20
62.9245281976
 10
236.1870326295
 20
63.7580450502
 10
237.2432016007
 20
64.4843457709
 10
238.3041852242
 20
65.0968385794
 10
239.3603541955
 20
65.5899645967
 10
240.4021229069
 20
65.9592482959
 10
241.4200364452
 20
66.201338122
 10
242.4048564025
 20
66.3140369092
 10
243.3476447227
 20
66.2963218229
 10
243.9438467786
 20
66.2129964979
  0
LWPOLYLINE
  5
200
330
1F
100
AcDbEntity
  8
0
  6
Continuous
 62
     7
370
     0
100
AcDbPolyline
 90
       18
 70
   128
 43
0.0
 10
233.0629158246
 20
47.6445006412
 10
233.3952685847
 20
48.8586619056
 10
233.8151657487
 20
50.079468644
 10
234.3183299873
 20
51.2944849725
 10
234.8996357618
 20
52.4913339917
 10
235.553161536
 20
53.6578238654
 10
236.2722500969
 20
54.7820720145
 10
237.0495763685
 20
55.8526261598
 10
237.8772220301
 20
56.858580982
 10
238.7467561768
 20
57.7896892101
 10
239.6493212019
 20
58.6364660063
 10
240.5757230263
 20
59.3902855843
 10
241.5165247542
 20
60.0434690768
 10
242.4621428041
 20
60.5893627573
 10
243.4029445321
 20
61.0224058189
 10
244.3293463564
 20
61.3381870202
 10
245.2319113816
 20
61.5334896208
 10
245.42382492
 20
61.5597570148
  0
LINE
  5
201
330
1F
100
AcDbEntity
  8
0
  6
Continuous
 62
     7
370
     0
100
AcDbLine
 10
233.0722384755
 20
41.0659652537
 30
0.0
 11
233.4780197168
 21
41.3002177781
 31
0.0
  0
LWPOLYLINE
  5
202
330
1F
100
AcDbEntity
  8
0
  6
Continuous
 62
     7
370
     0
100
AcDbPolyline
 90
        3
 70
   128
 43
0.0
 10
234.024206699
 20
41.0459978657
 10
234.0009901004
 20
41.0542736168
 10
233.4780197168
 20
41.3002177781
  0
ARC
  5
203
330
1F
100
AcDbEntity
  8
0
  6
Continuous
 62
     7
370
     0
100
AcDbCircle
 10
232.7900305473
 20
42.3568193732
 30
0.0
 40
1.260847345344088
100
AcDbArc
 50
303.0695173616
 51
345.5982002281
  0
LINE
  5
204
330
1F
100
AcDbEntity
  8
0
  6
Continuous
 62
     7
370
     0
100
AcDbLine
 10
229.5844275491
 20
44.8542998313
 30
0.0
 11
233.9694180547
 21
42.3228986948
 31
0.0
  0
LINE
  5
205
330
1F
100
AcDbEntity
  8
0
  6
Continuous
 62
     7
370
     0
100
AcDbLine
 10
229.4651887335
 20
44.7854423512
 30
0.0
 11
229.5844275491
 21
44.8542998313
 31
0.0
  0
LINE
  5
206
330
1F
100
AcDbEntity
  8
0
  6
Continuous
 62
     7
370
     0
100
AcDbLine
 10
229.2088625254
 20
47.8167091383
 30
0.0
 11
229.2140504201
 21
48.1493746026
 31
0.0
  0
LWPOLYLINE
  5
207
330
1F
100
AcDbEntity
  8
0
  6
Continuous
 62
     7
370
     0
100
AcDbPolyline
 90
        3
 70
   128
 43
0.0
 10
229.390675331
 20
45.9810421672
 10
229.2565535885
 20
46.8460469324
 10
229.2088625254
 20
47.8167091383
  0
LWPOLYLINE
  5
208
330
1F
100
AcDbEntity
  8
0
  6
Continuous
 62
     7
370
     0
100
AcDbPolyline
 90
       17
 70
   128
 43
0.0
 10
209.3633466271
 20
63.1155885859
 10
209.4116193375
 20
63.9050778112
 10
209.5554086197
 20
64.7334749295
 10
209.7916498548
 20
65.5831240943
 10
210.115307971
 20
66.4359165088
 10
210.5194847575
 20
67.2736763834
 10
210.9955658877
 20
68.0785483207
 10
211.5334045191
 20
68.8333778728
 10
212.1215375547
 20
69.5220771583
 10
212.7474299603
 20
70.1299677475
 10
213.3977419256
 20
70.6440935081
 10
214.0586131803
 20
71.0534967419
 10
214.7159584009
 20
71.3494517299
 10
215.3557674153
 20
71.5256507053
 10
215.9644038052
 20
71.5783382928
 10
216.5288955425
 20
71.5063915481
 10
216.5982523433
 20
71.4879749067
  0
ARC
  5
209
330
1F
100
AcDbEntity
  8
0
  6
Continuous
 62
     7
370
     0
100
AcDbCircle
 10
212.8322767972
 20
62.8661381477
 30
0.0
 40
3.477887583905795
100
AcDbArc
 50
175.8869457832
 51
225.0942205936
  0
LWPOLYLINE
  5
20A
330
1F
100
AcDbEntity
  8
0
  6
Continuous
 62
     7
370
     0
100
AcDbPolyline
 90
        3
 70
   128
 43
0.0
 10
233.5271124605
 20
39.9820768212
 10
233.4074758859
 20
40.2156367316
 10
233.0629158246
 20
41.0713471055
  0
ARC
  5
20B
330
1F
100
AcDbEntity
  8
0
  6
Continuous
 62
     7
370
     0
100
AcDbCircle
 10
238.6748482719
 20
42.9863101496
 30
0.0
 40
6.286417824774245
100
AcDbArc
 50
197.2022721654
 51
213.8013536742
  0
LINE
  5
20C
330
1F
100
AcDbEntity
  8
0
  6
Continuous
 62
     7
370
     0
100
AcDbLine
 10
233.4780197168
 20
41.3002177781
 30
0.0
 11
229.2530566992
 21
43.7392370122
 31
0.0
  0
ARC
  5
20D
330
1F
100
AcDbEntity
  8
0
  6
Continuous
 62
     7
370
     0
100
AcDbCircle
 10
233.9245653321
 20
44.0403881835
 30
0.0
 40
7.092824880083464
100
AcDbArc
 50
195.3118335283
 51
220.46774401
  0
OLE2FRAME
  5
20E
330
1F
100
AcDbEntity
  8
0
100
AcDbOle2Frame
 70
     2
  3
Paintbrush-Bild
 10
13.8511154363
 20
38.264191557
 30
0.0
 11
51.6290888628
 21
31.9806341108
 31
0.0
 71
     2
 72
     0
 73
     1
 90
    12928
310
80552BED0767C5B32B40DDAF6807D121434000000000000000006FFBDDFB85D0
310
4940DDAF6807D121434000000000000000006FFBDDFB85D04940416F4BD60AFB
310
3F4000000000000000002BED0767C5B32B40416F4BD60AFB3F40000000000000
310
0000000000000100000000010000010000000100000000000100000000320000
310
D0CF11E0A1B11AE1000000000000000000000000000000003E000300FEFF0900
310
0600000000000000000000000100000001000000000000000010000002000000
310
01000000FEFFFFFF0000000000000000FFFFFFFFFFFFFFFFFFFFFFFFFFFFFFFF
310
FFFFFFFFFFFFFFFFFFFFFFFFFFFFFFFFFFFFFFFFFFFFFFFFFFFFFFFFFFFFFFFF
310
FFFFFFFFFFFFFFFFFFFFFFFFFFFFFFFFFFFFFFFFFFFFFFFFFFFFFFFFFFFFFFFF
310
FFFFFFFFFFFFFFFFFFFFFFFFFFFFFFFFFFFFFFFFFFFFFFFFFFFFFFFFFFFFFFFF
310
FFFFFFFFFFFFFFFFFFFFFFFFFFFFFFFFFFFFFFFFFFFFFFFFFFFFFFFFFFFFFFFF
310
FFFFFFFFFFFFFFFFFFFFFFFFFFFFFFFFFFFFFFFFFFFFFFFFFFFFFFFFFFFFFFFF
310
FFFFFFFFFFFFFFFFFFFFFFFFFFFFFFFFFFFFFFFFFFFFFFFFFFFFFFFFFFFFFFFF
310
FFFFFFFFFFFFFFFFFFFFFFFFFFFFFFFFFFFFFFFFFFFFFFFFFFFFFFFFFFFFFFFF
310
FFFFFFFFFFFFFFFFFFFFFFFFFFFFFFFFFFFFFFFFFFFFFFFFFFFFFFFFFFFFFFFF
310
FFFFFFFFFFFFFFFFFFFFFFFFFFFFFFFFFFFFFFFFFFFFFFFFFFFFFFFFFFFFFFFF
310
FFFFFFFFFFFFFFFFFFFFFFFFFFFFFFFFFFFFFFFFFFFFFFFFFFFFFFFFFFFFFFFF
310
FFFFFFFFFFFFFFFFFFFFFFFFFFFFFFFFFFFFFFFFFFFFFFFFFFFFFFFFFFFFFFFF
310
FFFFFFFFFFFFFFFFFFFFFFFFFFFFFFFFFFFFFFFFFFFFFFFFFFFFFFFFFFFFFFFF
310
FFFFFFFFFFFFFFFFFFFFFFFFFFFFFFFFFFFFFFFFFFFFFFFFFFFFFFFFFFFFFFFF
310
FDFFFFFFFEFFFFFFFEFFFFFFFEFFFFFF05000000060000000700000008000000
310
090000000A0000000B0000000C0000000D0000000E0000000F00000010000000
310
11000000120000001300000014000000150000001600000017000000FEFFFFFF
310
FFFFFFFFFFFFFFFFFFFFFFFFFFFFFFFFFFFFFFFFFFFFFFFFFFFFFFFFFFFFFFFF
310
FFFFFFFFFFFFFFFFFFFFFFFFFFFFFFFFFFFFFFFFFFFFFFFFFFFFFFFFFFFFFFFF
310
FFFFFFFFFFFFFFFFFFFFFFFFFFFFFFFFFFFFFFFFFFFFFFFFFFFFFFFFFFFFFFFF
310
FFFFFFFFFFFFFFFFFFFFFFFFFFFFFFFFFFFFFFFFFFFFFFFFFFFFFFFFFFFFFFFF
310
FFFFFFFFFFFFFFFFFFFFFFFFFFFFFFFFFFFFFFFFFFFFFFFFFFFFFFFFFFFFFFFF
310
FFFFFFFFFFFFFFFFFFFFFFFFFFFFFFFFFFFFFFFFFFFFFFFFFFFFFFFFFFFFFFFF
310
FFFFFFFFFFFFFFFFFFFFFFFFFFFFFFFFFFFFFFFFFFFFFFFFFFFFFFFFFFFFFFFF
310
FFFFFFFFFFFFFFFFFFFFFFFFFFFFFFFFFFFFFFFFFFFFFFFFFFFFFFFFFFFFFFFF
310
FFFFFFFFFFFFFFFFFFFFFFFFFFFFFFFFFFFFFFFFFFFFFFFFFFFFFFFFFFFFFFFF
310
FFFFFFFFFFFFFFFFFFFFFFFFFFFFFFFFFFFFFFFFFFFFFFFFFFFFFFFFFFFFFFFF
310
FFFFFFFFFFFFFFFFFFFFFFFFFFFFFFFFFFFFFFFFFFFFFFFFFFFFFFFFFFFFFFFF
310
FFFFFFFFFFFFFFFFFFFFFFFFFFFFFFFFFFFFFFFFFFFFFFFFFFFFFFFFFFFFFFFF
310
FFFFFFFFFFFFFFFFFFFFFFFFFFFFFFFFFFFFFFFFFFFFFFFFFFFFFFFFFFFFFFFF
310
52006F006F007400200045006E00740072007900000000000000000000000000
310
0000000000000000000000000000000000000000000000000000000000000000
310
16000500FFFFFFFFFFFFFFFF020000000A00030000000000C000000000000046
310
000000000000000000000000801D86925025D20103000000C000000000000000
310
01004F006C006500000000000000000000000000000000000000000000000000
310
0000000000000000000000000000000000000000000000000000000000000000
310
0A000200FFFFFFFFFFFFFFFFFFFFFFFF00000000000000000000000000000000
310
0000000000000000000000000000000000000000000000001400000000000000
310
010043006F006D0070004F0062006A0000000000000000000000000000000000
310
0000000000000000000000000000000000000000000000000000000000000000
310
120002010100000003000000FFFFFFFF00000000000000000000000000000000
310
0000000000000000000000000000000000000000010000004D00000000000000
310
01004F006C006500310030004E00610074006900760065000000000000000000
310
0000000000000000000000000000000000000000000000000000000000000000
310
1A000200FFFFFFFFFFFFFFFFFFFFFFFF00000000000000000000000000000000
310
0000000000000000000000000000000000000000040000002426000000000000
310
FEFFFFFF02000000FEFFFFFFFFFFFFFFFFFFFFFFFFFFFFFFFFFFFFFFFFFFFFFF
310
FFFFFFFFFFFFFFFFFFFFFFFFFFFFFFFFFFFFFFFFFFFFFFFFFFFFFFFFFFFFFFFF
310
FFFFFFFFFFFFFFFFFFFFFFFFFFFFFFFFFFFFFFFFFFFFFFFFFFFFFFFFFFFFFFFF
310
FFFFFFFFFFFFFFFFFFFFFFFFFFFFFFFFFFFFFFFFFFFFFFFFFFFFFFFFFFFFFFFF
310
FFFFFFFFFFFFFFFFFFFFFFFFFFFFFFFFFFFFFFFFFFFFFFFFFFFFFFFFFFFFFFFF
310
FFFFFFFFFFFFFFFFFFFFFFFFFFFFFFFFFFFFFFFFFFFFFFFFFFFFFFFFFFFFFFFF
310
FFFFFFFFFFFFFFFFFFFFFFFFFFFFFFFFFFFFFFFFFFFFFFFFFFFFFFFFFFFFFFFF
310
FFFFFFFFFFFFFFFFFFFFFFFFFFFFFFFFFFFFFFFFFFFFFFFFFFFFFFFFFFFFFFFF
310
FFFFFFFFFFFFFFFFFFFFFFFFFFFFFFFFFFFFFFFFFFFFFFFFFFFFFFFFFFFFFFFF
310
FFFFFFFFFFFFFFFFFFFFFFFFFFFFFFFFFFFFFFFFFFFFFFFFFFFFFFFFFFFFFFFF
310
FFFFFFFFFFFFFFFFFFFFFFFFFFFFFFFFFFFFFFFFFFFFFFFFFFFFFFFFFFFFFFFF
310
FFFFFFFFFFFFFFFFFFFFFFFFFFFFFFFFFFFFFFFFFFFFFFFFFFFFFFFFFFFFFFFF
310
FFFFFFFFFFFFFFFFFFFFFFFFFFFFFFFFFFFFFFFFFFFFFFFFFFFFFFFFFFFFFFFF
310
FFFFFFFFFFFFFFFFFFFFFFFFFFFFFFFFFFFFFFFFFFFFFFFFFFFFFFFFFFFFFFFF
310
FFFFFFFFFFFFFFFFFFFFFFFFFFFFFFFFFFFFFFFFFFFFFFFFFFFFFFFFFFFFFFFF
310
FFFFFFFFFFFFFFFFFFFFFFFFFFFFFFFFFFFFFFFFFFFFFFFFFFFFFFFFFFFFFFFF
310
0100000200000000000000000000000000000000000000000000000000000000
310
0000000000000000000000000000000000000000000000000000000000000000
310
0100FEFF030A0000FFFFFFFF0A00030000000000C00000000000004607000000
310
5042727573680007000000504272757368000700000050427275736800F439B2
310
7100000000000000000000000000000000000000000000000000000000000000
310
0000000000000000000000000000000000000000000000000000000000000000
310
0000000000000000000000000000000000000000000000000000000000000000
310
0000000000000000000000000000000000000000000000000000000000000000
310
0000000000000000000000000000000000000000000000000000000000000000
310
0000000000000000000000000000000000000000000000000000000000000000
310
0000000000000000000000000000000000000000000000000000000000000000
310
0000000000000000000000000000000000000000000000000000000000000000
310
0000000000000000000000000000000000000000000000000000000000000000
310
0000000000000000000000000000000000000000000000000000000000000000
310
0000000000000000000000000000000000000000000000000000000000000000
310
0000000000000000000000000000000000000000000000000000000000000000
310
20260000424D0E260000000000003E00000028000000B40200006E0000000100
310
01000000000000000000130B0000130B00000200000002000000000000FFFFFF
310
FFFFFFFFFFFFFFFFFFFFFFFFFFFFFFFFFFFFFFFFFFFFFFFFFFFFFFFFFFFFFFFF
310
FFFFFFFFFFFFFFFFFFFFFFFFFFFFFFFFFFFFFFFFFFFFFFFFFFFFFFFFFFFFFFFF
310
FFFFFFFFFFFFFFFFFFFFFFFFFFFFFFFFFFFFFFFFFFFFFFFFF000FFFFFFFFFFFF
310
FFFFFFFFFFFFFFFFFFFFFFFFFFFFFFFFFFFFFFFFFFFFFFFFFFFFFFFFFFFFFFFF
310
FFFFFFFFFFFFFFFFFFFFFFFFFFFFFFFFFFFFFFFFFFFFFFFFFFFFFFFFFFFFFFFF
310
FFFFFFFFFFFFFFFFFFFFFFFFFFFFFFFFF000FFFFFFFFFFFFFFFFFFFFFFFFFFFF
310
FFFFFFFFFFFFFFFFFFFFFFFFFFFFFFFFFFFFFFFFFFFFFFFFFFFFFFFFFFFFFFFF
310
FFFFFFFFFFFFFFFFFFFFFFFFFFFFFFFFFFFFFFFFFFFFFFFFFFFFFFFFFFFFFFFF
310
FFFFFFFFFFFFFFFFF000FFFFFFFFFFFFFFFFFFFFFFFFFFFFFFFFFFFFFFFFFFFF
310
FFFFFFFFFFFFFFFFFFFFFFFFFFFFFFFFFFFFFFFFFFFFFFFFFFFFFFFFFFFFFFFF
310
FFFFFFFFFFFFFFFFFFFFFFFFFFFFFFFFFFFFFFFFFFFFFFFFFFFFFFFFFFFFFFFF
310
F000FFFFFFFFFFFFFFFFFFFFFFFFFFFFFFFFFFFFFFFFFFFFFFFFFFFFFFFFFFFF
310
FFFFFFFFFFFFFFFFFFFFFFFFFFFFFFFFFFFFFFFFFFFFFFFFFFFFFFFFFFFFFFFF
310
FFFFFFFFFFFFFFFFFFFFFFFFFFFFFFFFFFFFFFFFFFFFFFFFF000FFFFFFFFFFFF
310
FFFFFFFFFFFFFFFFFFFFFFFFFFFFFFFFFFFFFFFFFFFFFFFFFFFFFFFFFFFFFFFF
310
FFFFFFFFFFFFFFFFFFFFFFFFFFFFFFFFFFFFFFFFFFFFFFFFFFFFFFFFFFFFFFFF
310
FFFFFFFFFFFFFFFFFFFFFFFFFFFFFFFFF000FFFFFFFFFFFFFFFFFFFFFFFFFFFF
310
FFFFFFFFFFFFFFFFFFFFFFFFFFFFFFFFFFFFFFFFFFFFFFFFFFFFFFFFFFFFFFFF
310
FFFFFFFFFFFFFFFFFFFFFFFFFFFFFFFFFFFFFFFFFFFFFFFFFFFFFFFFFFFFFFFF
310
FFFFFFFFFFFFFFFFF000FFFFFFFFFFFFFFFFFFFFFFFFFFFFFFFFFFFFFFFFFFFF
310
FFFFFFFFFFFFFFFFFFFFFFFFFFFFFFFFFFFFFFFFFFFFFFFFFFFFFFFFFFFFFFFF
310
FFFFFFFFFFFFFFFFFFFFFFFFFFFFFFFFFFFFFFFFFFFFFFFFFFFFFFFFFFFFFFFF
310
F000FFFFFFFFFFFFFFFFFFFFFFFFFFFFFFFFFFFFFFFFFFFFFFFFFFFFFFFFFFFF
310
FFFFFFFFFFFFFFFFFFFFFFFFFFFFFFFFFFFFFFFFFFFFFFFFFFFFFFFFFFFFFFFF
310
FFFFFFFFFFFFFFFFFFFFFFFFFFFFFFFFFFFFFFFFFFFFFFFFF000FFFFFFFFFFFF
310
FFFFFFFFFFFFFFFFFFFFFFFFFFFFFFFFFFFFFFFFFFFFFFFFFFFFFFFFFFFFFFFF
310
FFFFFFFFFFFFFFFFFFFFFFFFFFFFFFFFFFFFFFFFFFFFFFFFFFFFFFFFFFFFFFFF
310
FFFFFFFFFFFFFFFFFFFFFFFFFFFFFFFFF000FFFFFFFFFFFFFFFFFFFFFFFFFFFF
310
FFFFFFFFFFFFFFFFFFFFFFFFFFFFFFFFFFFFFFFFFFFFFFFFFFFFFFFFFFFFFFFF
310
FFFFFFFFFFFFFFFFFFFFFFFFFFFFFFFFFFFFFFFFFFFFFFFFFFFFFFFFFFFFFFFF
310
FFFFFFFFFFFFFFFFF000FFFFFFFFFFFFFFFFFFFFFFFFFFFFFFFFFFFFFFFFFFFF
310
FFFFFFFFFFFFFFFFFFFFFFFFFFFFFFFFFFFFFFFFFFFFFFFFFFFFFFFFFFFFFFFF
310
FFFFFFFFFFFFFFFFFFFFFFFFFFFFFFFFFFFFFFFFFFFFFFFFFFFFFFFFFFFFFFFF
310
F000FFFFFFFFFFFFFFFFFFFFFFFFFFFFFFFFFFFFFFFFFFFFFFFFFFFFFFFFFFFF
310
FFFFFFFFFFFFFFFFFFFFFFFFFFFFFFFFFFFFFFFFFFFFFFFFFFFFFFFFFFFFFFFF
310
FFFFFFFFFFFFFFFFFFFFFFFFFFFFFFFFFFFFFFFFFFFFFFFFF000FFFFFFFFFFFF
310
FFFFFFFFFFFFFFFFFFFFFFFFFFFFFFFFFFFFFFFFFFFFFFFFFFFFFFFFFFFFFFFF
310
FFFFFFFFFFFFFFFFFFFFFFFFFFFFFFFFFFFFFFFFFFFFFFFFFFFFFFFFFFFFFFFF
310
FFFFFFFFFFFFFFFFFFFFFFFFFFFFFFFFF000FFFFFFFFFFFFFFFFFFFFFFFFFFFF
310
FFFFFFFFFFFFFFFFFFFFFFFFFFFFFFFFFFFFFFFFFFFFFFFFFFFFFFFFFFFFFFFF
310
FFFFFFFFFFFFFFFFFFFFFFFFFFFFFFFFFFFFFFFFFFFFFFFFFFFFFFFFFFFFFFFF
310
FFFFFFFFFFFFFFFFF000FFFFFFFFFFFFFFFFFFFFFFFFFFFFFFFFFFFFFFFFFFFF
310
FFFFFFFFFFFFFFFFFFFFFFFFFFFFFFFFFFFFFFFFFFFFFFFFFFFFFFFFFFFFFFFF
310
FFFFFFFFFFFFFFFFFFFFFFFFFFFFFFFFFFFFFFFFFFFFFFFFFFFFFFFFFFFFFFFF
310
F000FFFFFFFFFFFFFFFFFFFFFFFFFFFFFFFFFFFFFFFFFFFFFFFFFFFFFFFFFFFF
310
FFFFFFFFFFFFFFFFFFFFFFFFFFFFFFFFFFFFFFFFFFFFFFFFFFFFFFFFFFFFFFFF
310
FFFFFFFFFFFFFFFFFFFFFFFFFFFFFFFFFFFFFFFFFFFFFFFFF000FFFFFFFFFFFF
310
FFFFFFFFFFFFFFFFFFFFFFFFFFFFFFFFFFFFFFFFFFFFFFFFFFFFFFFFFFFFFFFF
310
FFFFFFFFFFFFFFFFFFFFFFFFFFFFFFFFFFFFFFFFFFFFFFFFFFFFFFFFFFFFFFFF
310
FFFFFFFFFFFFFFFFFFFFFFFFFFFFFFFFF000FFFFFFFFFFFFFFFFFFFFFFFFFFFF
310
FFFFFFFFFFFFFFFFFFFFFFFFFFFFFFFFFFFFFFFFFFFFFFFFFFFFFFFFFFFFFFFF
310
FFFFFFFFFFFFFFFFFFFFFFFFFFFFFFFFFFFFFFFFFFFFFFFFFFFFFFFFFFFFFFFF
310
FFFFFFFFFFFFFFFFF000FFFFF80003FFFFFFFFFFFFFFFFFFFFFFFFFFFFFFFFFF
310
FFFFF00007FFFFFFFFFF00007FFFFFF800000000000000007FFFFFFFFFFFFFFF
310
FFFFFFFC001FFFFFFFFFFFFFFC001FFFFFFFFFFFFFFFFFFFFFFFFFFE0007FFFF
310
F000FFFF8000007FFFFFFFF8000FFFFFC0007FFFFF80007FFFFF0000007FFFFF
310
FFF8000007FFFFF800000000000000007FFFFFF0001FFFFFFFFFFFC00001FFFF
310
FFFFFFFFC00001FFFFFFFF000000000003FFFFE000007FFFF000FFFE0000000F
310
FFFFFFF0000FFFFF80007FFFFF80007FFFFC0000001FFFFFFFC0000001FFFFF8
310
00000000000000007FFFFFF0001FFFFFFFFFFE0000003FFFFFFFFFFE0000003F
310
FFFFFF000000000003FFFF0000000FFFF000FFF800000003FFFFFFF00007FFFF
310
80007FFFFF80007FFFF000000007FFFFFF000000003FFFF80000000000000000
310
7FFFFFF0001FFFFFFFFFF80000000FFFFFFFFFF80000000FFFFFFF0000000000
310
03FFFC00000003FFF000FFE000000000FFFFFFF00007FFFF80003FFFFF80007F
310
FFC000000001FFFFFC000000001FFFF800000000000000007FFFFFF0001FFFFF
310
FFFFE000000003FFFFFFFFE000000003FFFFFF000000000003FFF000000000FF
310
F000FF80000000007FFFFFF00007FFFF80003FFFFF80007FFF8000000000FFFF
310
F80000000007FFF800000000000000007FFFFFF0001FFFFFFFFFC000000001FF
310
FFFFFFC000000001FFFFFF000000000003FFC0000000007FF000FF0000000000
310
3FFFFFE00007FFFF00003FFFFF80007FFE00000000003FFFF00000000003FFF8
310
00000000000000007FFFFFF0001FFFFFFFFF8000000000FFFFFFFF8000000000
310
FFFFFF000000000003FF80000000003FF000FE00000000001FFFFFE00003FFFF
310
00003FFFFF80007FFC00000000001FFFE00000000001FFF8000001FFFE000000
310
7FFFFFF0001FFFFFFFFE00000000003FFFFFFE00000000003FFFFF0000000000
310
03FF00000000001FF000FC00000000000FFFFFE00003FFFF00001FFFFF80007F
310
F800000000001FFFC00000000000FFF8000001FFFE0000007FFFFFF0001FFFFF
310
FFFC00000000001FFFFFFC00000000001FFFFF000000000003FE00000000000F
310
F000F8000000000007FFFFE00003FFFF00001FFFFF80007FF800000000000FFF
310
800000000000FFF8000001FFFE0000007FFFFFF0001FFFFFFFF800000000000F
310
FFFFF800000000000FFFFF000000000003FC000000000007F000F80000000000
310
03FFFFC00003FFFE00001FFFFF80007FF0000000000007FF0000000000007FF8
310
000001FFFE0000007FFFFFF0001FFFFFFFF0000000000007FFFFF00000000000
310
07FFFF000000000003F8000000000003F000F0000000000003FFFFC00001FFFE
310
00001FFFFF80007FE0000000000007FE0000000000003FF8000001FFFE000000
310
7FFFFFF0001FFFFFFFF0000000000007FFFFF0000000000007FFFF0000000000
310
03F800001F800003F000E00001FFF00001FFFFC00001FFFE00000FFFFF80007F
310
E00001FFE00003FE00001FFF00003FF8000001FFFE0000007FFFFFF0001FFFFF
310
FFE000003E000003FFFFE000003E000003FFFF000000000003F00001FFF80001
310
F000E00007FFFC0001FFFFC00001FFFE00000FFFFF80007FC0000FFFFC0003FC
310
0000FFFFC0001FF8000001FFFE0000007FFFFFF0001FFFFFFFC00003FFE00001
310
FFFFC00003FFE00001FFFF0001FFFFFFFFF00007FFFE0001F000E0000FFFFF00
310
00FFFF800001FFFC00000FFFFF80007FC0001FFFFE0001FC0001FFFFE0001FF8
310
000001FFFE0000007FFFFFF0001FFFFFFF80000FFFF80000FFFF80000FFFF800
310
00FFFF0003FFFFFFFFE0000FFFFF8000F000C0003FFFFF8000FFFF800000FFFC
310
000007FFFF80007F80003FFFFF0001FC0003FFFFF0001FF8000001FFFE000000
310
7FFFFFF0001FFFFFFF80003FFFFE0000FFFF80003FFFFE0000FFFF0003FFFFFF
310
FFE0003FFFFF8000F000C0003FFFFF8000FFFF800000FFFC000007FFFF80007F
310
80007FFFFF8001F80007FFFFF8000FF8000001FFFE0000007FFFFFF0001FFFFF
310
FF00007FFFFF00007FFF00007FFFFF00007FFF0003FFFFFFFFE0003FFFFFC000
310
F000C0007FFFFFC000FFFF000000FFFC000007FFFF80007F8000FFFFFF8000F8
310
000FFFFFF8000FF8000001FFFE0000007FFFFFF0001FFFFFFF0000FFFFFF8000
310
7FFF0000FFFFFF80007FFF0003FFFFFFFFC0007FFFFFC00070008000FFFFFFC0
310
00FFFF000000FFF8000007FFFF80007F8000FFFFFF8000F8000FFFFFF8000FF8
310
000001FFFE0000007FFFFFF0001FFFFFFE0001FFFFFFC0003FFE0001FFFFFFC0
310
003FFF0003FFFFFFFFC0007FFFFFE00070008000FFFFFFC0007FFF0000007FF8
310
000003FFFF80007F0001FFFFFF8000F8000FFFFFF8000FF8000001FFFE000000
310
7FFFFFF0001FFFFFFE0001FFFFFFC0003FFE0001FFFFFFC0003FFF0003FFFFFF
310
FFC000FFFFFFE00070008000FFFFFFC0007FFF0000007FF8000003FFFF80007F
310
0001FFFFFF8000F8001FFFFFF8000FF8000001FFFE0000007FFFFFF0001FFFFF
310
FE0003FFFFFFE0003FFE0003FFFFFFE0003FFF0003FFFFFFFFC000FFFFFFE000
310
70008000FFFFFFC0007FFE0000007FF8000003FFFF80007F0001FFFFFF8000F0
310
001FFFFFF8000FF8000001FFFE0000007FFFFFF0001FFFFFFC0003FFFFFFE000
310
1FFC0003FFFFFFE0001FFF0003FFFFFFFFC000FFFFFFC00070008000FFFFFF80
310
007FFE0000007FF0000003FFFF80007F0001FFFFFF0000F0001FFFFFF8000FF8
310
000001FFFE0000007FFFFFF0001FFFFFFC0007FFFFFFF0001FFC0007FFFFFFF0
310
001FFF0003FFFFFFFFC000FFFFFFC00070008001FFFFFF0000FFFE0000003FF0
310
000001FFFF80007F0001FFFFFF0000F8001FFFFFF0000FF8000001FFFE000000
310
7FFFFFF0001FFFFFFC0007FFFFFFF0001FFC0007FFFFFFF0001FFF0003FFFFFF
310
FFC001FFFFFF80007000FFFFFFFFFE0000FFFE0008003FF0008001FFFF80007F
310
FFFFFFFFFC0000FFFFFFFFFFE0000FF8000001FFFE0000007FFFFFF0001FFFFF
310
F8000FFFFFFFF8000FF8000FFFFFFFF8000FFF0003FFFFFFFFFFFFFFFFFF0000
310
7000FFFFFFFFFC0000FFFC0008003FF0008001FFFF80007FFFFFFFFFF80001FF
310
FFFFFFFF80000FF8000001FFFE0000007FFFFFF0001FFFFFF8000FFFFFFFF800
310
0FF8000FFFFFFFF8000FFF0003FFFFFFFFFFFFFFFFFE0000F000FFFFFFFFE000
310
00FFFC000C003FE000C001FFFF80007FFFFFFFFFC00001FFFFFFFFFE00001FF8
310
000001FFFE0000007FFFFFF0001FFFFFF8000FFFFFFFF8000FF8000FFFFFFFF8
310
000FFF0003FFFFFFFFFFFFFFFFF00000F000FFFFFFFE000001FFFC000C001FE0
310
00C000FFFF80007FFFFFFFFE000001FFFFFFFFE000001FF80FFFFFFFFFFFFFC0
310
7FFFFFF0001FFFFFF8000FFFFFFFF8000FF8000FFFFFFFF8000FFF0003FFFFFF
310
FFFFFFFFFF800000F000FFFFFFC0000001FFFC001C001FE001C000FFFF80007F
310
FFFFFF80000003FFFFFFF80000001FF80FFFFFFFFFFFFFC07FFFFFF0001FFFFF
310
F8001FFFFFFFFC000FF8001FFFFFFFFC000FFF0003FFFFFFFFFFFFFFF0000001
310
F000FFFFF800000001FFF8001C001FE001C000FFFF80007FFFFFF800000003FF
310
FFFF800000003FF80FFFFFFFFFFFFFC07FFFFFF0001FFFFFF8001FFFFFFFFC00
310
0FF8001FFFFFFFFC000FFF0003FFFFFFFFFFFFFE00000001F000FFFFC0000000
310
03FFF8001E001FC001E000FFFF80007FFFFF8000000007FFFFFC000000003FF8
310
0FFFFFFFFFFFFFC07FFFFFF0001FFFFFF8001FFFFFFFFC000FF8001FFFFFFFFC
310
000FFF0003FFFFFFFFFFFFE000000003F000FFFE0000000007FFF8001E000FC0
310
01E0007FFF80007FFFFE0000000007FFFFE0000000007FF80FFFFFFFFFFFFFC0
310
7FFFFFF0001FFFFFF0001FFFFFFFFC0007F0001FFFFFFFFC0007FF0003FFFFFF
310
FFFFFF0000000003F000FFF80000000007FFF8001E000FC003E0007FFF80007F
310
FFF0000000000FFFFF8000000000FFF80FFFFFFFFFFFFFC07FFFFFF0001FFFFF
310
F0001FFFFFFFFC0007F0001FFFFFFFFC0007FF0003FFFFFFFFFFFC0000000007
310
F000FFE0000000000FFFF0003E000FC003E0007FFF80007FFFC0000000001FFF
310
FE0000000001FFF80FFFFFFFFFFFFFC07FFFFFF0001FFFFFF0001FFFFFFFFC00
310
07F0001FFFFFFFFC0007FF0003FFFFFFFFFFF0000000000FF000FFC000000000
310
1FFFF0003F000F8003F0003FFF80007FFF80000000003FFFF80000000003FFF8
310
0FFFFFFFFFFFFFC07FFFFFF0001FFFFFF0001FFFFFFFFC0007F0001FFFFFFFFC
310
0007FF0003FFFFFFFFFFE0000000001FF000FF00000000007FFFF0003F000780
310
03F0003FFF80007FFF00000000007FFFF00000000007FFF80FFFFFFFFFFFFFC0
310
7FFFFFF0001FFFFFF0001FFFFFFFFC0007F0001FFFFFFFFC0007FF0003FFFFFF
310
FFFF80000000007FF000FE0000000000FFFFE0003F00078007F0003FFF80007F
310
FE0000000001FFFFE0000000001FFFF80FFFFFFFFFFFFFC07FFFFFF0001FFFFF
310
F0001FFFFFFFFC0007F0001FFFFFFFFC0007FF0003FFFFFFFFFF0000000000FF
310
F000FC0000000003FFFFE0007F00078007F0003FFF80007FFC0000000007FFFF
310
C0000000007FFFF80FFFFFFFFFFFFFC07FFFFFF0001FFFFFF8001FFFFFFFFC00
310
0FF8001FFFFFFFFC000FFF0003FFFFFFFFFE0000000003FFF000FC000000000F
310
FFFFE0007F80070007F8001FFF80007FF8000000001FFFFF8000000001FFFFF8
310
0FFFFFFFFFFFFFC07FFFFFF0001FFFFFF8001FFFFFFFFC000FF8001FFFFFFFFC
310
000FFF0003FFFFFFFFFC000000000FFFF000F8000000007FFFFFE0007F800700
310
07F8001FFF80007FF000000000FFFFFF800000000FFFFFF80FFFFFFFFFFFFFC0
310
7FFFFFF0001FFFFFF8000FFFFFFFF8000FF8000FFFFFFFF8000FFF0003FFFFFF
310
FFFC000000007FFFF000F800000007FFFFFFC0007F8003000FF8001FFF80007F
310
F000000007FFFFFF000000007FFFFFF80FFFFFFFFFFFFFC07FFFFFF0001FFFFF
310
F8000FFFFFFFF8000FF8000FFFFFFFF8000FFF0003FFFFFFFFF80000000FFFFF
310
F000F0000000FFFFFFFFC000FF8003000FF8001FFF80007FE0000000FFFFFFFF
310
0000000FFFFFFFF8000001FFFE0000007FFFFFF0001FFFFFF8000FFFFFFFF800
310
0FF8000FFFFFFFF8000FFF0003FFFFFFFFF8000000FFFFFFF000F000000FFFFF
310
FFFFC000FFC002000FF8000FFF80007FE000001FFFFFFFFE000001FFFFFFFFF8
310
000001FFFE0000007FFFFFF0001FFFFFF8000FFFFFFFF8000FF8000FFFFFFFF8
310
000FFF0003FFFFFFFFF000001FFFFFFFF000E00000FFFFFFFFFFC000FFC00200
310
0FFC000FFF80007FE00001FFFFFFFFFE00001FFFFFFFFFF8000001FFFE000000
310
7FFFFFF0001FFFFFFC000FFFFFFFF8001FFC000FFFFFFFF8001FFF0003FFFFFF
310
FFF00001FFFFFFFFF000E00007FFFFFFFFFF8000FFC000001FFC000FFF80007F
310
C0000FFFFFFFFFFE0000FFFFFFFFFFF8000001FFFE0000007FFFFFF0001FFFFF
310
FC0007FFFFFFF0001FFC0007FFFFFFF0001FFF0003FFFFFFFFF00007FFFFFFFF
310
F000E0001FFFFFFFFFFF8000FFC000001FFC000FFF80007FC0003FFFFFFFFFFE
310
0001FFFFFFFFFFF8000001FFFE0000007FFFFFF0001FFFFFFC0007FFFFFFF000
310
1FFC0007FFFFFFF0001FFF0003FFFFFFFFF0001FFFFFFFFFF000E0003FFFFF00
310
03FF8001FFE000001FFC0007FF80007FC0007FFFFF0007FC0003FFFFF0003FF8
310
000001FFFE0000007FFFFFF0001FFFFFFC0003FFFFFFE0001FFC0003FFFFFFE0
310
001FFF0003FFFFFFFFF0003FFFFFFFFFF000E0003FFFFF0001FF8001FFE00000
310
1FFE0007FF80007FC0007FFFFE0003FC0007FFFFE0003FF8000001FFFE000000
310
7FFFFFF0001FFFFFFE0003FFFFFFE0003FFE0003FFFFFFE0003FFF0003FFFFFF
310
FFF0003FFFFF8001F000E0003FFFFF0001FF0001FFE000001FFE0007FF80007F
310
C0007FFFFE0003FC0007FFFFE0003FF8000001FFFE0000007FFFFFF0001FFFFF
310
FE0001FFFFFFC0003FFE0001FFFFFFC0003FFF0003FFFFFFFFF0003FFFFF0001
310
F000E0003FFFFF0003FF0001FFE000003FFE0007FF80007FC0007FFFFE0003FC
310
0007FFFFE0003FF8000001FFFE0000007FFFFFF0001FFFFFFF0001FFFFFFC000
310
7FFF0001FFFFFFC0007FFF0003FFFFFFFFF0003FFFFF0001F000E0003FFFFE00
310
03FF0003FFF000003FFE0003FF80007FC0007FFFFC0003FE0007FFFFE0003FF8
310
000001FFFE0000007FFFFFF0001FFFFFFF0000FFFFFF80007FFF0000FFFFFF80
310
007FFF0003FFFFFFFFF0003FFFFF0001F000E0003FFFFE0003FF0003FFF00000
310
3FFF0003FF80007FC0007FFFFC0007FE0007FFFFC0003FF8000001FFFE000000
310
7FFFFFF0001FFFFFFF80007FFFFF0000FFFF80007FFFFF0000FFFF0003FFFFFF
310
FFF0003FFFFF0003F000E0003FFFFC0003FE0003FFF000003FFF0003FF80007F
310
E0003FFFF80007FE0003FFFFC0007FF8000001FFFE0000007FFFFFF0001FFFFF
310
FF80003FFFFE0000FFFF80003FFFFE0000FFFF0003FFFFFFFFF0001FFFFE0003
310
F000F0001FFFF80003FE0003FFF000007FFF0001FF80007FE0003FFFF00007FE
310
0001FFFF80007FF8000001FFFE0000007FFFFFF0001FFFFFFFC0000FFFF80001
310
FFFFC0000FFFF80001FFFF0003FFFFFFFFF0001FFFFC0003F000F0000FFFF000
310
07FE0007FFF800007FFF0001FF80007FE0001FFFE00007FF0000FFFE00007FF8
310
000001FFFE0000007FFFFFF0001FFFFFFFC00003FFE00001FFFFC00003FFE000
310
01FFFF0003FFFFFFFFF8000FFFF80003F000F00003FFC00007FC0007FFF80000
310
7FFF8001FF80007FF00007FF80000FFF00007FF80000FFF8000001FFFE000000
310
7F80000000000001FFE000003E000003FFFFE000003E000003FFFF0003FFFFFF
310
FFF80003FFE00007F000F800000000000FFC0007FFF800007FFF8001FF80007F
310
F000000000000FFF000000000000FFF8000001FFFE0000007F80000000000001
310
FFF0000000000007FFFFF0000000000007FFFF0003FFFFFFFFFC00007E000007
310
F000F800000000000FFC0007FFF80000FFFF8000FF80007FF800000000001FFF
310
800000000001FFF8000001FFFE0000007F80000000000001FFF800000000000F
310
FFFFF800000000000FFFFF0003FFFFFFFFFC00000000000FF000FC0000000000
310
1FFC0007FFFC0000FFFF8000FF80007FF800000000003FFFC00000000001FFF8
310
000001FFFE0000007F80000000000001FFF800000000000FFFFFF80000000000
310
0FFFFF0003FFFFFFFFFE00000000001FF000FE00000000003FF8000FFFFC0000
310
FFFF8000FF80007FFC00000000003FFFC00000000003FFF8000001FFFE000000
310
7F80000000000001FFFC00000000001FFFFFFC00000000001FFFFF0003FFFFFF
310
FFFF00000000001FF000FF00000000003FF8000FFFFC0000FFFFC000FF80007F
310
FE00000000007FFFE00000000007FFF8000001FFFE0000007F80000000000001
310
FFFE00000000003FFFFFFE00000000003FFFFF0003FFFFFFFFFF80000000003F
310
F000FF80000000007FF8000FFFFC0001FFFFC0007F80007FFF0000000000FFFF
310
F0000000000FFFF800000000000000007F80000000000001FFFF8000000000FF
310
FFFFFF8000000000FFFFFF0003FFFFFFFFFFC0000000007FF000FFC000000000
310
FFF8000FFFFE0001FFFFC0007F80007FFF8000000001FFFFF8000000001FFFF8
310
00000000000000007F80000000000001FFFFC000000001FFFFFFFFC000000001
310
FFFFFF0003FFFFFFFFFFE000000000FFF000FFE000000003FFF0001FFFFE0001
310
FFFFC0007F80007FFFC000000007FFFFFE000000003FFFF80000000000000000
310
7F80000000000001FFFFE000000003FFFFFFFFE000000003FFFFFF0003FFFFFF
310
FFFFF000000003FFF000FFF80000000FFFF0001FFFFE0001FFFFE0007F80007F
310
FFF00000000FFFFFFF00000000FFFFF800000000000000007F80000000000001
310
FFFFF80000000FFFFFFFFFF80000000FFFFFFF0003FFFFFFFFFFFC0000000FFF
310
F000FFFE0000003FFFF0001FFFFE0003FFFFE0003F80007FFFFC0000003FFFFF
310
FFC0000003FFFFF800000000000000007F80000000000001FFFFFE0000003FFF
310
FFFFFFFE0000003FFFFFFF0003FFFFFFFFFFFF0000003FFFF000FFFF800000FF
310
FFF0001FFFFF0003FFFFE0003F80007FFFFF000001FFFFFFFFF800001FFFFFF8
310
00000000000000007F80000000000001FFFFFFC00001FFFFFFFFFFFFC00001FF
310
FFFFFF0003FFFFFFFFFFFFC00000FFFFF000FFFFF8000FFFFFFFFFFFFFFFFFFF
310
FFFFFFFFFFFFFFFFFFFFF0001FFFFFFFFFFF0000FFFFFFF80000000000000000
310
7FFFFFFFFFFFFFFFFFFFFFFC001FFFFFFFFFFFFFFC001FFFFFFFFFFFFFFFFFFF
310
FFFFFFFC001FFFFFF000FFFFFFFFFFFFFFFFFFFFFFFFFFFFFFFFFFFFFFFFFFFF
310
FFFFFFFFFFFFFFFFFFFFFFFFFFFFFFFFFFFFFFFFFFFFFFFFFFFFFFFFFFFFFFFF
310
FFFFFFFFFFFFFFFFFFFFFFFFFFFFFFFFFFFFFFFFFFFFFFFFFFFFFFFFFFFFFFFF
310
F000FFFFFFFFFFFFFFFFFFFFFFFFFFFFFFFFFFFFFFFFFFFFFFFFFFFFFFFFFFFF
310
FFFFFFFFFFFFFFFFFFFFFFFFFFFFFFFFFFFFFFFFFFFFFFFFFFFFFFFFFFFFFFFF
310
FFFFFFFFFFFFFFFFFFFFFFFFFFFFFFFFFFFFFFFFFFFFFFFFF000FFFFFFFFFFFF
310
FFFFFFFFFFFFFFFFFFFFFFFFFFFFFFFFFFFFFFFFFFFFFFFFFFFFFFFFFFFFFFFF
310
FFFFFFFFFFFFFFFFFFFFFFFFFFFFFFFFFFFFFFFFFFFFFFFFFFFFFFFFFFFFFFFF
310
FFFFFFFFFFFFFFFFFFFFFFFFFFFFFFFFF000FFFFFFFFFFFFFFFFFFFFFFFFFFFF
310
FFFFFFFFFFFFFFFFFFFFFFFFFFFFFFFFFFFFFFFFFFFFFFFFFFFFFFFFFFFFFFFF
310
FFFFFFFFFFFFFFFFFFFFFFFFFFFFFFFFFFFFFFFFFFFFFFFFFFFFFFFFFFFFFFFF
310
FFFFFFFFFFFFFFFFF000FFFFFFFFFFFFFFFFFFFFFFFFFFFFFFFFFFFFFFFFFFFF
310
FFFFFFFFFFFFFFFFFFFFFFFFFFFFFFFFFFFFFFFFFFFFFFFFFFFFFFFFFFFFFFFF
310
FFFFFFFFFFFFFFFFFFFFFFFFFFFFFFFFFFFFFFFFFFFFFFFFFFFFFFFFFFFFFFFF
310
F000FFFFFFFFFFFFFFFFFFFFFFFFFFFFFFFFFFFFFFFFFFFFFFFFFFFFFFFFFFFF
310
FFFFFFFFFFFFFFFFFFFFFFFFFFFFFFFFFFFFFFFFFFFFFFFFFFFFFFFFFFFFFFFF
310
FFFFFFFFFFFFFFFFFFFFFFFFFFFFFFFFFFFFFFFFFFFFFFFFF000FFFFFFFFFFFF
310
FFFFFFFFFFFFFFFFFFFFFFFFFFFFFFFFFFFFFFFFFFFFFFFFFFFFFFFFFFFFFFFF
310
FFFFFFFFFFFFFFFFFFFFFFFFFFFFFFFFFFFFFFFFFFFFFFFFFFFFFFFFFFFFFFFF
310
FFFFFFFFFFFFFFFFFFFFFFFFFFFFFFFFF000FFFFFFFFFFFFFFFFFFFFFFFFFFFF
310
FFFFFFFFFFFFFFFFFFFFFFFFFFFFFFFFFFFFFFFFFFFFFFFFFFFFFFFFFFFFFFFF
310
FFFFFFFFFFFFFFFFFFFFFFFFFFFFFFFFFFFFFFFFFFFFFFFFFFFFFFFFFFFFFFFF
310
FFFFFFFFFFFFFFFFF000FFFFFFFFFFFFFFFFFFFFFFFFFFFFFFFFFFFFFFFFFFFF
310
FFFFFFFFFFFFFFFFFFFFFFFFFFFFFFFFFFFFFFFFFFFFFFFFFFFFFFFFFFFFFFFF
310
FFFFFFFFFFFFFFFFFFFFFFFFFFFFFFFFFFFFFFFFFFFFFFFFFFFFFFFFFFFFFFFF
310
F000FFFFFFFFFFFFFFFFFFFFFFFFFFFFFFFFFFFFFFFFFFFFFFFFFFFFFFFFFFFF
310
FFFFFFFFFFFFFFFFFFFFFFFFFFFFFFFFFFFFFFFFFFFFFFFFFFFFFFFFFFFFFFFF
310
FFFFFFFFFFFFFFFFFFFFFFFFFFFFFFFFFFFFFFFFFFFFFFFFF000FFFFFFFFFFFF
310
FFFFFFFFFFFFFFFFFFFFFFFFFFFFFFFFFFFFFFFFFFFFFFFFFFFFFFFFFFFFFFFF
310
FFFFFFFFFFFFFFFFFFFFFFFFFFFFFFFFFFFFFFFFFFFFFFFFFFFFFFFFFFFFFFFF
310
FFFFFFFFFFFFFFFFFFFFFFFFFFFFFFFFF000FFFFFFFFFFFFFFFFFFFFFFFFFFFF
310
FFFFFFFFFFFFFFFFFFFFFFFFFFFFFFFFFFFFFFFFFFFFFFFFFFFFFFFFFFFFFFFF
310
FFFFFFFFFFFFFFFFFFFFFFFFFFFFFFFFFFFFFFFFFFFFFFFFFFFFFFFFFFFFFFFF
310
FFFFFFFFFFFFFFFFF000FFFFFFFFFFFFFFFFFFFFFFFFFFFFFFFFFFFFFFFFFFFF
310
FFFFFFFFFFFFFFFFFFFFFFFFFFFFFFFFFFFFFFFFFFFFFFFFFFFFFFFFFFFFFFFF
310
FFFFFFFFFFFFFFFFFFFFFFFFFFFFFFFFFFFFFFFFFFFFFFFFFFFFFFFFFFFFFFFF
310
F000FFFFFFFFFFFFFFFFFFFFFFFFFFFFFFFFFFFFFFFFFFFFFFFFFFFFFFFFFFFF
310
FFFFFFFFFFFFFFFFFFFFFFFFFFFFFFFFFFFFFFFFFFFFFFFFFFFFFFFFFFFFFFFF
310
FFFFFFFFFFFFFFFFFFFFFFFFFFFFFFFFFFFFFFFFFFFFFFFFF000FFFFFFFFFFFF
310
FFFFFFFFFFFFFFFFFFFFFFFFFFFFFFFFFFFFFFFFFFFFFFFFFFFFFFFFFFFFFFFF
310
FFFFFFFFFFFFFFFFFFFFFFFFFFFFFFFFFFFFFFFFFFFFFFFFFFFFFFFFFFFFFFFF
310
FFFFFFFFFFFFFFFFFFFFFFFFFFFFFFFFF000FFFFFFFFFFFFFFFFFFFFFFFFFFFF
310
FFFFFFFFFFFFFFFFFFFFFFFFFFFFFFFFFFFFFFFFFFFFFFFFFFFFFFFFFFFFFFFF
310
FFFFFFFFFFFFFFFFFFFFFFFFFFFFFFFFFFFFFFFFFFFFFFFFFFFFFFFFFFFFFFFF
310
FFFFFFFFFFFFFFFFF000FFFFFFFFFFFFFFFFFFFFFFFFFFFFFFFFFFFFFFFFFFFF
310
FFFFFFFFFFFFFFFFFFFFFFFFFFFFFFFFFFFFFFFFFFFFFFFFFFFFFFFFFFFFFFFF
310
FFFFFFFFFFFFFFFFFFFFFFFFFFFFFFFFFFFFFFFFFFFFFFFFFFFFFFFFFFFFFFFF
310
F000FFFFFFFFFFFFFFFFFFFFFFFFFFFFFFFFFFFFFFFFFFFFFFFFFFFFFFFFFFFF
310
FFFFFFFFFFFFFFFFFFFFFFFFFFFFFFFFFFFFFFFFFFFFFFFFFFFFFFFFFFFFFFFF
310
FFFFFFFFFFFFFFFFFFFFFFFFFFFFFFFFFFFFFFFFFFFFFFFFF000FFFFFFFFFFFF
310
FFFFFFFFFFFFFFFFFFFFFFFFFFFFFFFFFFFFFFFFFFFFFFFFFFFFFFFFFFFFFFFF
310
FFFFFFFFFFFFFFFFFFFFFFFFFFFFFFFFFFFFFFFFFFFFFFFFFFFFFFFFFFFFFFFF
310
FFFFFFFFFFFFFFFFFFFFFFFFFFFFFFFFF000FFFFFFFFFFFFFFFFFFFFFFFFFFFF
310
FFFFFFFFFFFFFFFFFFFFFFFFFFFFFFFFFFFFFFFFFFFFFFFFFFFFFFFFFFFFFFFF
310
FFFFFFFFFFFFFFFFFFFFFFFFFFFFFFFFFFFFFFFFFFFFFFFFFFFFFFFFFFFFFFFF
310
FFFFFFFFFFFFFFFFF000FFFFFFFFFFFFFFFFFFFFFFFFFFFFFFFFFFFFFFFFFFFF
310
FFFFFFFFFFFFFFFFFFFFFFFFFFFFFFFFFFFFFFFFFFFFFFFFFFFFFFFFFFFFFFFF
310
FFFFFFFFFFFFFFFFFFFFFFFFFFFFFFFFFFFFFFFFFFFFFFFFFFFFFFFFFFFFFFFF
310
F000FFFFFFFFFFFFFFFFFFFFFFFFFFFFFFFFFFFFFFFFFFFFFFFFFFFFFFFFFFFF
310
FFFFFFFFFFFFFFFFFFFFFFFFFFFFFFFFFFFFFFFFFFFFFFFFFFFFFFFFFFFFFFFF
310
FFFFFFFFFFFFFFFFFFFFFFFFFFFFFFFFFFFFFFFFFFFFFFFFF000FFFFFFFFFFFF
310
FFFFFFFFFFFFFFFFFFFFFFFFFFFFFFFFFFFFFFFFFFFFFFFFFFFFFFFFFFFFFFFF
310
FFFFFFFFFFFFFFFFFFFFFFFFFFFFFFFFFFFFFFFFFFFFFFFFFFFFFFFFFFFFFFFF
310
FFFFFFFFFFFFFFFFFFFFFFFFFFFFFFFFF0000000000000000000000000000000
310
0000000000000000000000000000000000000000000000000000000000000000
310
0000000000000000000000000000000000000000000000000000000000000000
310
0000000000000000000000000000000000000000000000000000000000000000
310
0000000000000000000000000000000000000000000000000000000000000000
310
0000000000000000000000000000000000000000000000000000000000000000
310
0000000000000000000000000000000000000000000000000000000000000000
310
0000000000000000000000000000000000000000000000000000000000000000
310
0000000000000000000000000000000000000000000000000000000000000000
310
0000000000000000000000000000000000000000000000000000000000000000
310
0000000000000000000000000000000000000000000000000000000000000000
310
0000000000000000000000000000000000000000000000000000000000000000
310
0000000000000000000000000000000000000000000000000000000000000000
310
0000000000000000000000000000000000000000000000000000000000000000
310
0000000000000000000000000000000000000000000000000000000000000000
310
0000000000000000000000000000000000000000000000000000000000000000
  1
OLE
  0
ENDSEC
  0
SECTION
  2
OBJECTS
  0
DICTIONARY
  5
C
330
0
100
AcDbDictionary
281
     1
  3
ACAD_GROUP
350
D
  3
ACAD_LAYOUT
350
1A
  3
ACAD_MLINESTYLE
350
17
  3
ACAD_PLOTSETTINGS
350
19
  3
ACAD_PLOTSTYLENAME
350
E
  3
ACAD_SCALELIST
350
47
  0
DICTIONARY
  5
D
102
{ACAD_REACTORS
330
C
102
}
330
C
100
AcDbDictionary
281
     1
  0
DICTIONARY
  5
1A
102
{ACAD_REACTORS
330
C
102
}
330
C
100
AcDbDictionary
281
     1
  3
Layout1
350
1E
  3
Layout2
350
26
  3
Model
350
22
  0
DICTIONARY
  5
17
102
{ACAD_REACTORS
330
C
102
}
330
C
100
AcDbDictionary
281
     1
  3
Standard
350
18
  0
DICTIONARY
  5
19
102
{ACAD_REACTORS
330
C
102
}
330
C
100
AcDbDictionary
281
     1
  0
ACDBDICTIONARYWDFLT
  5
E
102
{ACAD_REACTORS
330
C
102
}
330
C
100
AcDbDictionary
281
     1
  3
Normal
350
F
100
AcDbDictionaryWithDefault
340
F
  0
DICTIONARY
  5
47
102
{ACAD_REACTORS
330
C
102
}
330
C
100
AcDbDictionary
281
     1
  3
A0
350
48
  3
A1
350
49
  3
A2
350
4A
  3
A3
350
4B
  3
A4
350
4C
  3
A5
350
4D
  3
A6
350
4E
  3
A7
350
4F
  3
A8
350
50
  3
A9
350
51
  3
B0
350
52
  3
B1
350
53
  3
B2
350
54
  3
B3
350
55
  3
B4
350
56
  3
B5
350
57
  3
B6
350
58
  3
B7
350
59
  3
B8
350
5A
  3
B9
350
5B
  3
C0
350
5C
  3
C1
350
5D
  3
C2
350
5E
  3
C3
350
5F
  3
C4
350
60
  3
C5
350
61
  3
C6
350
62
  3
C7
350
63
  3
C8
350
64
  3
C9
350
65
  3
D0
350
66
  3
D1
350
67
  3
D2
350
68
  0
LAYOUT
  5
1E
102
{ACAD_REACTORS
330
1A
102
}
330
1A
100
AcDbPlotSettings
  1

  2
none_device
  4

  6

 40
0.0
 41
0.0
 42
0.0
 43
0.0
 44
0.0
 45
0.0
 46
0.0
 47
0.0
 48
0.0
 49
0.0
140
0.0
141
0.0
142
1.0
143
1.0
 70
   688
 72
     1
 73
     0
 74
     5
  7

 75
    16
147
1.0
148
0.0
149
0.0
100
AcDbLayout
  1
Layout1
 70
     1
 71
     1
 10
0.0
 20
0.0
 11
420.0
 21
297.0
 12
0.0
 22
0.0
 32
0.0
 14
1.0000000000E+20
 24
1.0000000000E+20
 34
1.0000000000E+20
 15
-1.0000000000E+20
 25
-1.0000000000E+20
 35
-1.0000000000E+20
146
0.0
 13
0.0
 23
0.0
 33
0.0
 16
1.0
 26
0.0
 36
0.0
 17
0.0
 27
1.0
 37
0.0
 76
     0
330
1B
  0
LAYOUT
  5
26
102
{ACAD_REACTORS
330
1A
102
}
330
1A
100
AcDbPlotSettings
  1

  2
none_device
  4

  6

 40
0.0
 41
0.0
 42
0.0
 43
0.0
 44
0.0
 45
0.0
 46
0.0
 47
0.0
 48
0.0
 49
0.0
140
0.0
141
0.0
142
1.0
143
1.0
 70
   688
 72
     1
 73
     0
 74
     5
  7

 75
    16
147
1.0
148
0.0
149
0.0
100
AcDbLayout
  1
Layout2
 70
     1
 71
     2
 10
0.0
 20
0.0
 11
0.0
 21
0.0
 12
0.0
 22
0.0
 32
0.0
 14
0.0
 24
0.0
 34
0.0
 15
0.0
 25
0.0
 35
0.0
146
0.0
 13
0.0
 23
0.0
 33
0.0
 16
1.0
 26
0.0
 36
0.0
 17
0.0
 27
1.0
 37
0.0
 76
     0
330
23
  0
LAYOUT
  5
22
102
{ACAD_REACTORS
330
1A
102
}
330
1A
100
AcDbPlotSettings
  1

  2
none_device
  4
Letter_(8.50_x_11.00_Inches)
  6

 40
6.35
 41
6.35
 42
6.35000508
 43
6.35000508
 44
215.9
 45
279.4
 46
0.0
 47
0.0
 48
0.0
 49
0.0
140
0.0
141
0.0
142
1.0
143
1.0
 70
  1712
 72
     1
 73
     0
 74
     0
  7

 75
     0
147
1.0
148
0.0
149
0.0
100
AcDbLayout
  1
Model
 70
     1
 71
     0
 10
0.0
 20
0.0
 11
297.0
 21
210.0
 12
0.0
 22
0.0
 32
0.0
 14
0.0
 24
0.0
 34
0.0
 15
297.0
 25
210.0
 35
0.0
146
0.0
 13
0.0
 23
0.0
 33
0.0
 16
1.0
 26
0.0
 36
0.0
 17
0.0
 27
1.0
 37
0.0
 76
     0
330
1F
331
29
  0
MLINESTYLE
  5
18
102
{ACAD_REACTORS
330
17
102
}
330
17
100
AcDbMlineStyle
  2
Standard
 70
     0
  3

 62
   256
 51
90.0
 52
90.0
 71
     2
 49
0.5
 62
   256
  6
BYLAYER
 49
-0.5
 62
   256
  6
BYLAYER
  0
ACDBPLACEHOLDER
  5
F
102
{ACAD_REACTORS
330
E
102
}
330
E
  0
SCALE
  5
48
102
{ACAD_REACTORS
330
47
102
}
330
47
100
AcDbScale
 70
     0
300
1:1
140
1.0
141
1.0
290
     1
  0
SCALE
  5
49
102
{ACAD_REACTORS
330
47
102
}
330
47
100
AcDbScale
 70
     0
300
1:2
140
1.0
141
2.0
290
     0
  0
SCALE
  5
4A
102
{ACAD_REACTORS
330
47
102
}
330
47
100
AcDbScale
 70
     0
300
1:4
140
1.0
141
4.0
290
     0
  0
SCALE
  5
4B
102
{ACAD_REACTORS
330
47
102
}
330
47
100
AcDbScale
 70
     0
300
1:5
140
1.0
141
5.0
290
     0
  0
SCALE
  5
4C
102
{ACAD_REACTORS
330
47
102
}
330
47
100
AcDbScale
 70
     0
300
1:8
140
1.0
141
8.0
290
     0
  0
SCALE
  5
4D
102
{ACAD_REACTORS
330
47
102
}
330
47
100
AcDbScale
 70
     0
300
1:10
140
1.0
141
10.0
290
     0
  0
SCALE
  5
4E
102
{ACAD_REACTORS
330
47
102
}
330
47
100
AcDbScale
 70
     0
300
1:16
140
1.0
141
16.0
290
     0
  0
SCALE
  5
4F
102
{ACAD_REACTORS
330
47
102
}
330
47
100
AcDbScale
 70
     0
300
1:20
140
1.0
141
20.0
290
     0
  0
SCALE
  5
50
102
{ACAD_REACTORS
330
47
102
}
330
47
100
AcDbScale
 70
     0
300
1:30
140
1.0
141
30.0
290
     0
  0
SCALE
  5
51
102
{ACAD_REACTORS
330
47
102
}
330
47
100
AcDbScale
 70
     0
300
1:40
140
1.0
141
40.0
290
     0
  0
SCALE
  5
52
102
{ACAD_REACTORS
330
47
102
}
330
47
100
AcDbScale
 70
     0
300
1:50
140
1.0
141
50.0
290
     0
  0
SCALE
  5
53
102
{ACAD_REACTORS
330
47
102
}
330
47
100
AcDbScale
 70
     0
300
1:100
140
1.0
141
100.0
290
     0
  0
SCALE
  5
54
102
{ACAD_REACTORS
330
47
102
}
330
47
100
AcDbScale
 70
     0
300
2:1
140
2.0
141
1.0
290
     0
  0
SCALE
  5
55
102
{ACAD_REACTORS
330
47
102
}
330
47
100
AcDbScale
 70
     0
300
4:1
140
4.0
141
1.0
290
     0
  0
SCALE
  5
56
102
{ACAD_REACTORS
330
47
102
}
330
47
100
AcDbScale
 70
     0
300
8:1
140
8.0
141
1.0
290
     0
  0
SCALE
  5
57
102
{ACAD_REACTORS
330
47
102
}
330
47
100
AcDbScale
 70
     0
300
10:1
140
10.0
141
1.0
290
     0
  0
SCALE
  5
58
102
{ACAD_REACTORS
330
47
102
}
330
47
100
AcDbScale
 70
     0
300
100:1
140
100.0
141
1.0
290
     0
  0
SCALE
  5
59
102
{ACAD_REACTORS
330
47
102
}
330
47
100
AcDbScale
 70
     0
300
1/128" = 1'-0"
140
0.0078125
141
12.0
290
     0
  0
SCALE
  5
5A
102
{ACAD_REACTORS
330
47
102
}
330
47
100
AcDbScale
 70
     0
300
1/64" = 1'-0"
140
0.015625
141
12.0
290
     0
  0
SCALE
  5
5B
102
{ACAD_REACTORS
330
47
102
}
330
47
100
AcDbScale
 70
     0
300
1/32" = 1'-0"
140
0.03125
141
12.0
290
     0
  0
SCALE
  5
5C
102
{ACAD_REACTORS
330
47
102
}
330
47
100
AcDbScale
 70
     0
300
1/16" = 1'-0"
140
0.0625
141
12.0
290
     0
  0
SCALE
  5
5D
102
{ACAD_REACTORS
330
47
102
}
330
47
100
AcDbScale
 70
     0
300
3/32" = 1'-0"
140
0.09375
141
12.0
290
     0
  0
SCALE
  5
5E
102
{ACAD_REACTORS
330
47
102
}
330
47
100
AcDbScale
 70
     0
300
1/8" = 1'-0"
140
0.125
141
12.0
290
     0
  0
SCALE
  5
5F
102
{ACAD_REACTORS
330
47
102
}
330
47
100
AcDbScale
 70
     0
300
3/16" = 1'-0"
140
0.1875
141
12.0
290
     0
  0
SCALE
  5
60
102
{ACAD_REACTORS
330
47
102
}
330
47
100
AcDbScale
 70
     0
300
1/4" = 1'-0"
140
0.25
141
12.0
290
     0
  0
SCALE
  5
61
102
{ACAD_REACTORS
330
47
102
}
330
47
100
AcDbScale
 70
     0
300
3/8" = 1'-0"
140
0.375
141
12.0
290
     0
  0
SCALE
  5
62
102
{ACAD_REACTORS
330
47
102
}
330
47
100
AcDbScale
 70
     0
300
1/2" = 1'-0"
140
0.5
141
12.0
290
     0
  0
SCALE
  5
63
102
{ACAD_REACTORS
330
47
102
}
330
47
100
AcDbScale
 70
     0
300
3/4" = 1'-0"
140
0.75
141
12.0
290
     0
  0
SCALE
  5
64
102
{ACAD_REACTORS
330
47
102
}
330
47
100
AcDbScale
 70
     0
300
1" = 1'-0"
140
1.0
141
12.0
290
     0
  0
SCALE
  5
65
102
{ACAD_REACTORS
330
47
102
}
330
47
100
AcDbScale
 70
     0
300
1-1/2" = 1'-0"
140
1.5
141
12.0
290
     0
  0
SCALE
  5
66
102
{ACAD_REACTORS
330
47
102
}
330
47
100
AcDbScale
 70
     0
300
3" = 1'-0"
140
3.0
141
12.0
290
     0
  0
SCALE
  5
67
102
{ACAD_REACTORS
330
47
102
}
330
47
100
AcDbScale
 70
     0
300
6" = 1'-0"
140
6.0
141
12.0
290
     0
  0
SCALE
  5
68
102
{ACAD_REACTORS
330
47
102
}
330
47
100
AcDbScale
 70
     0
300
1'-0" = 1'-0"
140
12.0
141
12.0
290
     0
  0
ENDSEC
  0
EOF
