  0
SECTION
  2
HEADER
  9
$ACADVER
  1
AC1015
  9
$ACADMAINTVER
 70
     6
  9
$DWGCODEPAGE
  3
ANSI_1252
  9
$INSBASE
 10
0.0
 20
0.0
 30
0.0
  9
$EXTMIN
 10
0.0
 20
0.0
 30
0.0
  9
$EXTMAX
 10
297.0
 20
210.0
 30
0.0
  9
$LIMMIN
 10
0.0
 20
0.0
  9
$LIMMAX
 10
297.0
 20
210.0
  9
$ORTHOMODE
 70
     0
  9
$REGENMODE
 70
     1
  9
$FILLMODE
 70
     1
  9
$QTEXTMODE
 70
     0
  9
$MIRRTEXT
 70
     1
  9
$LTSCALE
 40
1.0
  9
$ATTMODE
 70
     1
  9
$TEXTSIZE
 40
2.0
  9
$TRACEWID
 40
1.0
  9
$TEXTSTYLE
  7
Standard
  9
$CLAYER
  8
0
  9
$CELTYPE
  6
ByLayer
  9
$CECOLOR
 62
   256
  9
$CELTSCALE
 40
1.0
  9
$DISPSILH
 70
     0
  9
$DIMSCALE
 40
1.0
  9
$DIMASZ
 40
3.0
  9
$DIMEXO
 40
0.0
  9
$DIMDLI
 40
3.75
  9
$DIMRND
 40
0.0
  9
$DIMDLE
 40
0.0
  9
$DIMEXE
 40
1.0
  9
$DIMTP
 40
0.0
  9
$DIMTM
 40
0.0
  9
$DIMTXT
 40
2.0
  9
$DIMCEN
 40
2.5
  9
$DIMTSZ
 40
0.0
  9
$DIMTOL
 70
     0
  9
$DIMLIM
 70
     0
  9
$DIMTIH
 70
     1
  9
$DIMTOH
 70
     1
  9
$DIMSE1
 70
     0
  9
$DIMSE2
 70
     0
  9
$DIMTAD
 70
     1
  9
$DIMZIN
 70
     0
  9
$DIMBLK
  1

  9
$DIMASO
 70
     1
  9
$DIMSHO
 70
     1
  9
$DIMPOST
  1

  9
$DIMAPOST
  1

  9
$DIMALT
 70
     0
  9
$DIMALTD
 70
     3
  9
$DIMALTF
 40
0.0393700787
  9
$DIMLFAC
 40
1.0
  9
$DIMTOFL
 70
     1
  9
$DIMTVP
 40
0.0
  9
$DIMTIX
 70
     0
  9
$DIMSOXD
 70
     0
  9
$DIMSAH
 70
     0
  9
$DIMBLK1
  1

  9
$DIMBLK2
  1

  9
$DIMSTYLE
  2
ISO-25
  9
$DIMCLRD
 70
     0
  9
$DIMCLRE
 70
     0
  9
$DIMCLRT
 70
     0
  9
$DIMTFAC
 40
1.0
  9
$DIMGAP
 40
1.524
  9
$DIMJUST
 70
     0
  9
$DIMSD1
 70
     0
  9
$DIMSD2
 70
     0
  9
$DIMTOLJ
 70
     0
  9
$DIMTZIN
 70
     0
  9
$DIMALTZ
 70
     0
  9
$DIMALTTZ
 70
     0
  9
$DIMUPT
 70
     0
  9
$DIMDEC
 70
     2
  9
$DIMTDEC
 70
     3
  9
$DIMALTU
 70
     2
  9
$DIMALTTD
 70
     3
  9
$DIMTXSTY
  7
Standard
  9
$DIMAUNIT
 70
     0
  9
$DIMADEC
 70
     2
  9
$DIMALTRND
 40
0.0
  9
$DIMAZIN
 70
     0
  9
$DIMDSEP
 70
    44
  9
$DIMATFIT
 70
     3
  9
$DIMFRAC
 70
     0
  9
$DIMLDRBLK
  1

  9
$DIMLUNIT
 70
     2
  9
$DIMLWD
 70
    -2
  9
$DIMLWE
 70
    -2
  9
$DIMTMOVE
 70
     0
  9
$LUNITS
 70
     2
  9
$LUPREC
 70
     2
  9
$SKETCHINC
 40
1.0
  9
$FILLETRAD
 40
10.0
  9
$AUNITS
 70
     0
  9
$AUPREC
 70
     2
  9
$MENU
  1
.
  9
$ELEVATION
 40
0.0
  9
$PELEVATION
 40
0.0
  9
$THICKNESS
 40
0.0
  9
$LIMCHECK
 70
     0
  9
$CHAMFERA
 40
0.0
  9
$CHAMFERB
 40
0.0
  9
$CHAMFERC
 40
0.0
  9
$CHAMFERD
 40
0.0
  9
$SKPOLY
 70
     0
  9
$TDCREATE
 40
2457675.662600324
  9
$TDUCREATE
 40
2457675.579266991
  9
$TDUPDATE
 40
2457675.662601516
  9
$TDUUPDATE
 40
2457675.579268183
  9
$TDINDWG
 40
0.0000000116
  9
$TDUSRTIMER
 40
0.0000000116
  9
$USRTIMER
 70
     1
  9
$ANGBASE
 50
0.0
  9
$ANGDIR
 70
     0
  9
$PDMODE
 70
     0
  9
$PDSIZE
 40
-1.0
  9
$PLINEWID
 40
0.0
  9
$SPLFRAME
 70
     0
  9
$SPLINETYPE
 70
     6
  9
$SPLINESEGS
 70
     8
  9
$HANDSEED
  5
21A
  9
$SURFTAB1
 70
     6
  9
$SURFTAB2
 70
     6
  9
$SURFTYPE
 70
     6
  9
$SURFU
 70
     6
  9
$SURFV
 70
     6
  9
$UCSBASE
  2

  9
$UCSNAME
  2

  9
$UCSORG
 10
0.0
 20
0.0
 30
0.0
  9
$UCSXDIR
 10
1.0
 20
0.0
 30
0.0
  9
$UCSYDIR
 10
0.0
 20
1.0
 30
0.0
  9
$UCSORTHOREF
  2

  9
$UCSORTHOVIEW
 70
     0
  9
$UCSORGTOP
 10
0.0
 20
0.0
 30
0.0
  9
$UCSORGBOTTOM
 10
0.0
 20
0.0
 30
0.0
  9
$UCSORGLEFT
 10
0.0
 20
0.0
 30
0.0
  9
$UCSORGRIGHT
 10
0.0
 20
0.0
 30
0.0
  9
$UCSORGFRONT
 10
0.0
 20
0.0
 30
0.0
  9
$UCSORGBACK
 10
0.0
 20
0.0
 30
0.0
  9
$PUCSBASE
  2

  9
$PUCSNAME
  2

  9
$PUCSORG
 10
0.0
 20
0.0
 30
0.0
  9
$PUCSXDIR
 10
1.0
 20
0.0
 30
0.0
  9
$PUCSYDIR
 10
0.0
 20
1.0
 30
0.0
  9
$PUCSORTHOREF
  2

  9
$PUCSORTHOVIEW
 70
     0
  9
$PUCSORGTOP
 10
0.0
 20
0.0
 30
0.0
  9
$PUCSORGBOTTOM
 10
0.0
 20
0.0
 30
0.0
  9
$PUCSORGLEFT
 10
0.0
 20
0.0
 30
0.0
  9
$PUCSORGRIGHT
 10
0.0
 20
0.0
 30
0.0
  9
$PUCSORGFRONT
 10
0.0
 20
0.0
 30
0.0
  9
$PUCSORGBACK
 10
0.0
 20
0.0
 30
0.0
  9
$USERI1
 70
     0
  9
$USERI2
 70
     0
  9
$USERI3
 70
     0
  9
$USERI4
 70
     0
  9
$USERI5
 70
     0
  9
$USERR1
 40
0.0
  9
$USERR2
 40
0.0
  9
$USERR3
 40
0.0
  9
$USERR4
 40
0.0
  9
$USERR5
 40
0.0
  9
$WORLDVIEW
 70
     1
  9
$SHADEDGE
 70
     3
  9
$SHADEDIF
 70
    70
  9
$TILEMODE
 70
     1
  9
$MAXACTVP
 70
    64
  9
$PINSBASE
 10
0.0
 20
0.0
 30
0.0
  9
$PLIMCHECK
 70
     0
  9
$PEXTMIN
 10
1.0000000000E+20
 20
1.0000000000E+20
 30
1.0000000000E+20
  9
$PEXTMAX
 10
-1.0000000000E+20
 20
-1.0000000000E+20
 30
-1.0000000000E+20
  9
$PLIMMIN
 10
0.0
 20
0.0
  9
$PLIMMAX
 10
420.0
 20
297.0
  9
$UNITMODE
 70
     0
  9
$VISRETAIN
 70
     1
  9
$PLINEGEN
 70
     0
  9
$PSLTSCALE
 70
     1
  9
$TREEDEPTH
 70
  3020
  9
$CMLSTYLE
  2
Standard
  9
$CMLJUST
 70
     0
  9
$CMLSCALE
 40
20.0
  9
$PROXYGRAPHICS
 70
     1
  9
$MEASUREMENT
 70
     1
  9
$CELWEIGHT
370
    -1
  9
$ENDCAPS
280
     0
  9
$JOINSTYLE
280
     0
  9
$LWDISPLAY
290
     1
  9
$INSUNITS
 70
     4
  9
$HYPERLINKBASE
  1

  9
$STYLESHEET
  1

  9
$XEDIT
290
     1
  9
$CEPSNTYPE
380
     0
  9
$PSTYLEMODE
290
     1
  9
$FINGERPRINTGUID
  2
{BB1F5E47-B12F-415D-B4EC-947467E590E7}
  9
$VERSIONGUID
  2
{FAEB1C32-E019-11D5-929B-00C0DF256EC4}
  9
$EXTNAMES
290
     1
  9
$PSVPSCALE
 40
0.0
  9
$OLESTARTUP
290
     0
  0
ENDSEC
  0
SECTION
  2
CLASSES
  0
CLASS
  1
ACDBDICTIONARYWDFLT
  2
AcDbDictionaryWithDefault
  3
ObjectDBX Classes
 90
        0
280
     0
281
     0
  0
CLASS
  1
VISUALSTYLE
  2
AcDbVisualStyle
  3
ObjectDBX Classes
 90
     4095
280
     0
281
     0
  0
CLASS
  1
MATERIAL
  2
AcDbMaterial
  3
ObjectDBX Classes
 90
     1153
280
     0
281
     0
  0
CLASS
  1
SCALE
  2
AcDbScale
  3
ObjectDBX Classes
 90
     1153
280
     0
281
     0
  0
CLASS
  1
TABLESTYLE
  2
AcDbTableStyle
  3
ObjectDBX Classes
 90
     4095
280
     0
281
     0
  0
CLASS
  1
MLEADERSTYLE
  2
AcDbMLeaderStyle
  3
ACDB_MLEADERSTYLE_CLASS
 90
     4095
280
     0
281
     0
  0
CLASS
  1
SUN
  2
AcDbSun
  3
SCENEOE
 90
     1153
280
     0
281
     0
  0
CLASS
  1
ACDBPLACEHOLDER
  2
AcDbPlaceHolder
  3
ObjectDBX Classes
 90
        0
280
     0
281
     0
  0
CLASS
  1
LAYOUT
  2
AcDbLayout
  3
ObjectDBX Classes
 90
        0
280
     0
281
     0
  0
ENDSEC
  0
SECTION
  2
TABLES
  0
TABLE
  2
VPORT
  5
8
330
0
100
AcDbSymbolTable
 70
     1
  0
VPORT
  5
29
330
8
100
AcDbSymbolTableRecord
100
AcDbViewportTableRecord
  2
*Active
 70
     0
 10
0.0
 20
0.0
 11
1.0
 21
1.0
 12
148.5
 22
105.0
 13
0.0
 23
0.0
 14
10.0
 24
10.0
 15
10.0
 25
10.0
 16
0.0
 26
0.0
 36
1.0
 17
0.0
 27
0.0
 37
0.0
 40
210.0
 41
1.4142857143
 42
50.0
 43
0.0
 44
0.0
 50
0.0
 51
0.0
 71
     0
 72
  2000
 73
     1
 74
     3
 75
     0
 76
     0
 77
     0
 78
     0
281
     0
 65
     1
110
0.0
120
0.0
130
0.0
111
1.0
121
0.0
131
0.0
112
0.0
122
1.0
132
0.0
 79
     0
146
0.0
  0
ENDTAB
  0
TABLE
  2
LTYPE
  5
5
330
0
100
AcDbSymbolTable
 70
     6
  0
LTYPE
  5
14
330
5
100
AcDbSymbolTableRecord
100
AcDbLinetypeTableRecord
  2
ByBlock
 70
     0
  3

 72
    65
 73
     0
 40
0.0
  0
LTYPE
  5
15
330
5
100
AcDbSymbolTableRecord
100
AcDbLinetypeTableRecord
  2
ByLayer
 70
     0
  3

 72
    65
 73
     0
 40
0.0
  0
LTYPE
  5
16
330
5
100
AcDbSymbolTableRecord
100
AcDbLinetypeTableRecord
  2
Continuous
 70
     0
  3
Solid line
 72
    65
 73
     0
 40
0.0
  0
LTYPE
  5
6E
330
5
100
AcDbSymbolTableRecord
100
AcDbLinetypeTableRecord
  2
HIDDEN
 70
     0
  3
Hidden __ __ __ __ __ __ __ __ __ __ __ __ __ __
 72
    65
 73
     2
 40
1.905
 49
1.27
 74
     0
 49
-0.635
 74
     0
  0
LTYPE
  5
6F
330
5
100
AcDbSymbolTableRecord
100
AcDbLinetypeTableRecord
  2
PHANTOM
 70
     0
  3
Phantom ______  __  __  ______  __  __  ______
 72
    65
 73
     6
 40
12.7
 49
6.35
 74
     0
 49
-1.27
 74
     0
 49
1.27
 74
     0
 49
-1.27
 74
     0
 49
1.27
 74
     0
 49
-1.27
 74
     0
  0
LTYPE
  5
70
330
5
100
AcDbSymbolTableRecord
100
AcDbLinetypeTableRecord
  2
CENTER
 70
     0
  3
Center ____ _ ____ _ ____ _ ____ _ ____ _ ____
 72
    65
 73
     4
 40
10.16
 49
6.35
 74
     0
 49
-1.27
 74
     0
 49
1.27
 74
     0
 49
-1.27
 74
     0
  0
LTYPE
  5
71
330
5
100
AcDbSymbolTableRecord
100
AcDbLinetypeTableRecord
  2
CENTERX2
 70
     0
  3
Center (2x) ________  __  ________  __  _____
 72
    65
 73
     4
 40
20.32
 49
12.7
 74
     0
 49
-2.54
 74
     0
 49
2.54
 74
     0
 49
-2.54
 74
     0
  0
LTYPE
  5
72
330
5
100
AcDbSymbolTableRecord
100
AcDbLinetypeTableRecord
  2
DOT2
 70
     0
  3
Dot (.5x) ........................................
 72
    65
 73
     2
 40
0.635
 49
0.0
 74
     0
 49
-0.635
 74
     0
  0
ENDTAB
  0
TABLE
  2
LAYER
  5
2
330
0
100
AcDbSymbolTable
 70
     5
  0
LAYER
  5
10
330
2
100
AcDbSymbolTableRecord
100
AcDbLayerTableRecord
  2
0
 70
     0
 62
     7
  6
Continuous
370
    -3
390
F
  0
LAYER
  5
73
330
2
100
AcDbSymbolTableRecord
100
AcDbLayerTableRecord
  2
FORMAT
 70
     0
 62
     7
  6
Continuous
370
    -3
390
F
  0
LAYER
  5
74
330
2
100
AcDbSymbolTableRecord
100
AcDbLayerTableRecord
  2
VERMASSUNG
 70
     0
 62
     7
  6
Continuous
370
    -3
390
F
  0
LAYER
  5
75
330
2
100
AcDbSymbolTableRecord
100
AcDbLayerTableRecord
  2
KOPF_DÜNN
 70
     0
 62
     7
  6
Continuous
370
    -3
390
F
  0
LAYER
  5
76
330
2
100
AcDbSymbolTableRecord
100
AcDbLayerTableRecord
  2
KOPF_DICK
 70
     0
 62
     7
  6
Continuous
370
    15
390
F
  0
ENDTAB
  0
TABLE
  2
STYLE
  5
3
330
0
100
AcDbSymbolTable
 70
     2
  0
STYLE
  5
11
330
3
100
AcDbSymbolTableRecord
100
AcDbTextStyleTableRecord
  2
Standard
 70
     0
 40
0.0
 41
1.0
 50
0.0
 71
     0
 42
2.0
  3
txt
  4

  0
STYLE
  5
77
330
3
100
AcDbSymbolTableRecord
100
AcDbTextStyleTableRecord
  2
SLDTEXTSTYLE0
 70
     0
 40
0.0
 41
0.7
 50
0.0
 71
     0
 42
2.0
  3
TXT
  4

  0
ENDTAB
  0
TABLE
  2
VIEW
  5
6
330
0
100
AcDbSymbolTable
 70
     0
  0
ENDTAB
  0
TABLE
  2
UCS
  5
7
330
0
100
AcDbSymbolTable
 70
     0
  0
ENDTAB
  0
TABLE
  2
APPID
  5
9
330
0
100
AcDbSymbolTable
 70
     1
  0
APPID
  5
12
330
9
100
AcDbSymbolTableRecord
100
AcDbRegAppTableRecord
  2
ACAD
 70
     0
  0
ENDTAB
  0
TABLE
  2
DIMSTYLE
  5
A
330
0
100
AcDbSymbolTable
 70
     2
100
AcDbDimStyleTable
  0
DIMSTYLE
105
27
330
A
100
AcDbSymbolTableRecord
100
AcDbDimStyleTableRecord
  2
ISO-25
 70
     0
 41
2.5
 42
0.625
 43
3.75
 44
1.25
 73
     0
 74
     0
 77
     1
 78
     8
140
2.5
141
2.5
143
0.0393700787
147
0.625
171
     3
172
     1
178
     0
271
     2
272
     2
274
     3
278
    44
283
     0
284
     8
340
11
  0
DIMSTYLE
105
173
102
{ACAD_REACTORS
330
172
330
17F
330
18B
330
196
330
1A0
330
1AA
102
}
330
A
100
AcDbSymbolTableRecord
100
AcDbDimStyleTableRecord
  2
SLDDIMSTYLE0
 70
     0
 41
3.0
 44
0.0
 45
0.000000001
 73
     0
 74
     0
 77
     1
 78
    12
 79
     3
140
2.0
147
0.5
173
     1
178
     0
271
     2
272
     3
276
     2
284
    12
340
77
  0
ENDTAB
  0
TABLE
  2
BLOCK_RECORD
  5
1
330
0
100
AcDbSymbolTable
 70
     7
  0
BLOCK_RECORD
  5
1F
330
1
100
AcDbSymbolTableRecord
100
AcDbBlockTableRecord
  2
*Model_Space
340
22
  0
BLOCK_RECORD
  5
1B
330
1
100
AcDbSymbolTableRecord
100
AcDbBlockTableRecord
  2
*Paper_Space
340
1E
  0
BLOCK_RECORD
  5
23
330
1
100
AcDbSymbolTableRecord
100
AcDbBlockTableRecord
  2
*Paper_Space0
340
26
  0
BLOCK_RECORD
  5
174
330
1
100
AcDbSymbolTableRecord
100
AcDbBlockTableRecord
  2
_D
340
0
  0
BLOCK_RECORD
  5
180
330
1
100
AcDbSymbolTableRecord
100
AcDbBlockTableRecord
  2
_D_1
340
0
  0
BLOCK_RECORD
  5
18C
330
1
100
AcDbSymbolTableRecord
100
AcDbBlockTableRecord
  2
_D_2
340
0
  0
BLOCK_RECORD
  5
197
330
1
100
AcDbSymbolTableRecord
100
AcDbBlockTableRecord
  2
_D_3
340
0
  0
BLOCK_RECORD
  5
1A1
330
1
100
AcDbSymbolTableRecord
100
AcDbBlockTableRecord
  2
_D_4
340
0
  0
BLOCK_RECORD
  5
1AB
330
1
100
AcDbSymbolTableRecord
100
AcDbBlockTableRecord
  2
_D_5
340
0
  0
ENDTAB
  0
ENDSEC
  0
SECTION
  2
BLOCKS
  0
BLOCK
  5
20
330
1F
100
AcDbEntity
  8
0
100
AcDbBlockBegin
  2
*Model_Space
 70
     0
 10
0.0
 20
0.0
 30
0.0
  3
*Model_Space
  1

  0
ENDBLK
  5
21
330
1F
100
AcDbEntity
  8
0
100
AcDbBlockEnd
  0
BLOCK
  5
1C
330
1B
100
AcDbEntity
 67
     1
  8
0
100
AcDbBlockBegin
  2
*Paper_Space
 70
     0
 10
0.0
 20
0.0
 30
0.0
  3
*Paper_Space
  1

  0
ENDBLK
  5
1D
330
1B
100
AcDbEntity
 67
     1
  8
0
100
AcDbBlockEnd
  0
BLOCK
  5
24
330
23
100
AcDbEntity
  8
0
100
AcDbBlockBegin
  2
*Paper_Space0
 70
     0
 10
0.0
 20
0.0
 30
0.0
  3
*Paper_Space0
  1

  0
ENDBLK
  5
25
330
23
100
AcDbEntity
  8
0
100
AcDbBlockEnd
  0
BLOCK
  5
175
330
174
100
AcDbEntity
  8
0
100
AcDbBlockBegin
  2
_D
 70
     0
 10
0.0
 20
0.0
 30
0.0
  3
_D
  1

  0
SOLID
  5
177
330
174
100
AcDbEntity
  8
VERMASSUNG
100
AcDbTrace
 10
79.7762710026
 20
86.7154504797
 30
0.0
 11
80.2262710026
 21
89.7154504797
 31
0.0
 12
79.3262710026
 22
89.7154504797
 32
0.0
 13
79.3262710026
 23
89.7154504797
 33
0.0
  0
SOLID
  5
178
330
174
100
AcDbEntity
  8
VERMASSUNG
100
AcDbTrace
 10
79.7762710026
 20
149.7154504797
 30
0.0
 11
79.3262710026
 21
146.7154504797
 31
0.0
 12
80.2262710026
 22
146.7154504797
 32
0.0
 13
80.2262710026
 23
146.7154504797
 33
0.0
  0
LINE
  5
179
330
174
100
AcDbEntity
  8
VERMASSUNG
100
AcDbLine
 10
175.1533777908
 20
86.7154504797
 30
0.0
 11
78.7762710026
 21
86.7154504797
 31
0.0
  0
LINE
  5
17A
330
174
100
AcDbEntity
  8
VERMASSUNG
100
AcDbLine
 10
175.1533777908
 20
149.7154504797
 30
0.0
 11
78.7762710026
 21
149.7154504797
 31
0.0
  0
LINE
  5
17B
330
174
100
AcDbEntity
  8
VERMASSUNG
100
AcDbLine
 10
79.7762710026
 20
86.7154504797
 30
0.0
 11
79.7762710026
 21
149.7154504797
 31
0.0
  0
MTEXT
  5
17C
330
174
100
AcDbEntity
  8
VERMASSUNG
100
AcDbMText
 10
76.9981357463
 20
107.4116966177
 30
0.0
 40
2.0
 41
0.0
 71
     1
 72
     1
  1
MAS-BT 40
  7
SLDTEXTSTYLE0
 11
3.391901413832837E-15
 21
1.0
 31
0.0
 73
     1
 44
1.0
  0
MTEXT
  5
17D
330
174
100
AcDbEntity
  8
VERMASSUNG
100
AcDbMText
 10
77.1981356976
 20
122.611696874
 30
0.0
 40
2.0
 41
0.0
 71
     1
 72
     1
  1
%%c
  7
SLDTEXTSTYLE0
 11
3.391901413832837E-15
 21
1.0
 31
0.0
 73
     1
 44
1.0
  0
MTEXT
  5
17E
330
174
100
AcDbEntity
  8
VERMASSUNG
100
AcDbMText
 10
77.1981354066
 20
126.2198243211
 30
0.0
 40
2.0
 41
0.0
 71
     1
 72
     1
  1
63
  7
SLDTEXTSTYLE0
 11
3.391901413832837E-15
 21
1.0
 31
0.0
 73
     1
 44
1.0
  0
ENDBLK
  5
176
330
174
100
AcDbEntity
  8
0
100
AcDbBlockEnd
  0
BLOCK
  5
181
330
180
100
AcDbEntity
  8
0
100
AcDbBlockBegin
  2
_D_1
 70
     0
 10
0.0
 20
0.0
 30
0.0
  3
_D_1
  1

  0
SOLID
  5
183
330
180
100
AcDbEntity
  8
VERMASSUNG
100
AcDbTrace
 10
214.944639898
 20
128.2154504797
 30
0.0
 11
214.494639898
 21
125.2154504797
 31
0.0
 12
215.394639898
 22
125.2154504797
 32
0.0
 13
215.394639898
 23
125.2154504797
 33
0.0
  0
SOLID
  5
184
330
180
100
AcDbEntity
  8
VERMASSUNG
100
AcDbTrace
 10
214.944639898
 20
108.2154504797
 30
0.0
 11
215.394639898
 21
111.2154504797
 31
0.0
 12
214.494639898
 22
111.2154504797
 32
0.0
 13
214.494639898
 23
111.2154504797
 33
0.0
  0
LINE
  5
185
330
180
100
AcDbEntity
  8
VERMASSUNG
100
AcDbLine
 10
202.9533777908
 20
128.2154504797
 30
0.0
 11
215.944639898
 21
128.2154504797
 31
0.0
  0
LINE
  5
186
330
180
100
AcDbEntity
  8
VERMASSUNG
100
AcDbLine
 10
202.9533777908
 20
108.2154504797
 30
0.0
 11
215.944639898
 21
108.2154504797
 31
0.0
  0
LINE
  5
187
330
180
100
AcDbEntity
  8
VERMASSUNG
100
AcDbLine
 10
214.944639898
 20
128.2154504797
 30
0.0
 11
214.944639898
 21
108.2154504797
 31
0.0
  0
MTEXT
  5
188
330
180
100
AcDbEntity
  8
VERMASSUNG
100
AcDbMText
 10
212.1665046418
 20
112.5108037238
 30
0.0
 40
2.0
 41
0.0
 71
     1
 72
     1
  1
WH
  7
SLDTEXTSTYLE0
 11
-7.044195017643634E-15
 21
1.0
 31
0.0
 73
     1
 44
1.0
  0
MTEXT
  5
189
330
180
100
AcDbEntity
  8
VERMASSUNG
100
AcDbMText
 10
212.3665045931
 20
117.510803612
 30
0.0
 40
2.0
 41
0.0
 71
     1
 72
     1
  1
%%c
  7
SLDTEXTSTYLE0
 11
-7.044195017643634E-15
 21
1.0
 31
0.0
 73
     1
 44
1.0
  0
MTEXT
  5
18A
330
180
100
AcDbEntity
  8
VERMASSUNG
100
AcDbMText
 10
212.366504302
 20
121.120717215
 30
0.0
 40
2.0
 41
0.0
 71
     1
 72
     1
  1
20
  7
SLDTEXTSTYLE0
 11
-7.044195017643634E-15
 21
1.0
 31
0.0
 73
     1
 44
1.0
  0
ENDBLK
  5
182
330
180
100
AcDbEntity
  8
0
100
AcDbBlockEnd
  0
BLOCK
  5
18D
330
18C
100
AcDbEntity
  8
0
100
AcDbBlockBegin
  2
_D_2
 70
     0
 10
0.0
 20
0.0
 30
0.0
  3
_D_2
  1

  0
SOLID
  5
18F
330
18C
100
AcDbEntity
  8
VERMASSUNG
100
AcDbTrace
 10
208.644639898
 20
112.7154504797
 30
0.0
 11
209.094639898
 21
115.7154504797
 31
0.0
 12
208.194639898
 22
115.7154504797
 32
0.0
 13
208.194639898
 23
115.7154504797
 33
0.0
  0
SOLID
  5
190
330
18C
100
AcDbEntity
  8
VERMASSUNG
100
AcDbTrace
 10
208.644639898
 20
123.7154504797
 30
0.0
 11
208.194639898
 21
120.7154504797
 31
0.0
 12
209.094639898
 22
120.7154504797
 32
0.0
 13
209.094639898
 23
120.7154504797
 33
0.0
  0
LINE
  5
191
330
18C
100
AcDbEntity
  8
VERMASSUNG
100
AcDbLine
 10
202.1533777908
 20
112.7154504797
 30
0.0
 11
209.644639898
 21
112.7154504797
 31
0.0
  0
LINE
  5
192
330
18C
100
AcDbEntity
  8
VERMASSUNG
100
AcDbLine
 10
202.1533777908
 20
123.7154504797
 30
0.0
 11
209.644639898
 21
123.7154504797
 31
0.0
  0
LINE
  5
193
330
18C
100
AcDbEntity
  8
VERMASSUNG
100
AcDbLine
 10
208.644639898
 20
112.7154504797
 30
0.0
 11
208.644639898
 21
123.7154504797
 31
0.0
  0
MTEXT
  5
194
330
18C
100
AcDbEntity
  8
VERMASSUNG
100
AcDbMText
 10
206.0665043603
 20
115.4116585126
 30
0.0
 40
2.0
 41
0.0
 71
     1
 72
     1
  1
%%c
  7
SLDTEXTSTYLE0
 11
6.123233995736766E-17
 21
1.0
 31
0.0
 73
     1
 44
1.0
  0
MTEXT
  5
195
330
18C
100
AcDbEntity
  8
VERMASSUNG
100
AcDbMText
 10
206.066504302
 20
119.0206307062
 30
0.0
 40
2.0
 41
0.0
 71
     1
 72
     1
  1
11
  7
SLDTEXTSTYLE0
 11
6.123233995736766E-17
 21
1.0
 31
0.0
 73
     1
 44
1.0
  0
ENDBLK
  5
18E
330
18C
100
AcDbEntity
  8
0
100
AcDbBlockEnd
  0
BLOCK
  5
198
330
197
100
AcDbEntity
  8
0
100
AcDbBlockBegin
  2
_D_3
 70
     0
 10
0.0
 20
0.0
 30
0.0
  3
_D_3
  1

  0
SOLID
  5
19A
330
197
100
AcDbEntity
  8
VERMASSUNG
100
AcDbTrace
 10
203.1533777908
 20
153.8902818458
 30
0.0
 11
200.1533777908
 21
154.3402818458
 31
0.0
 12
200.1533777908
 22
153.4402818458
 32
0.0
 13
200.1533777908
 23
153.4402818458
 33
0.0
  0
SOLID
  5
19B
330
197
100
AcDbEntity
  8
VERMASSUNG
100
AcDbTrace
 10
176.1533777908
 20
153.8902818458
 30
0.0
 11
179.1533777908
 21
153.4402818458
 31
0.0
 12
179.1533777908
 22
154.3402818458
 32
0.0
 13
179.1533777908
 23
154.3402818458
 33
0.0
  0
LINE
  5
19C
330
197
100
AcDbEntity
  8
VERMASSUNG
100
AcDbLine
 10
203.1533777908
 20
128.0154504797
 30
0.0
 11
203.1533777908
 21
154.8902818458
 31
0.0
  0
LINE
  5
19D
330
197
100
AcDbEntity
  8
VERMASSUNG
100
AcDbLine
 10
176.1533777908
 20
148.7154504797
 30
0.0
 11
176.1533777908
 21
154.8902818458
 31
0.0
  0
LINE
  5
19E
330
197
100
AcDbEntity
  8
VERMASSUNG
100
AcDbLine
 10
203.1533777908
 20
153.8902818458
 30
0.0
 11
176.1533777908
 21
153.8902818458
 31
0.0
  0
MTEXT
  5
19F
330
197
100
AcDbEntity
  8
VERMASSUNG
100
AcDbMText
 10
188.2536877805
 20
156.4684174418
 30
0.0
 40
2.0
 41
0.0
 71
     1
 72
     1
  1
27
  7
SLDTEXTSTYLE0
 73
     1
 44
1.0
  0
ENDBLK
  5
199
330
197
100
AcDbEntity
  8
0
100
AcDbBlockEnd
  0
BLOCK
  5
1A2
330
1A1
100
AcDbEntity
  8
0
100
AcDbBlockBegin
  2
_D_4
 70
     0
 10
0.0
 20
0.0
 30
0.0
  3
_D_4
  1

  0
SOLID
  5
1A4
330
1A1
100
AcDbEntity
  8
VERMASSUNG
100
AcDbTrace
 10
203.1533777908
 20
159.8902818458
 30
0.0
 11
200.1533777908
 21
160.3402818458
 31
0.0
 12
200.1533777908
 22
159.4402818458
 32
0.0
 13
200.1533777908
 23
159.4402818458
 33
0.0
  0
SOLID
  5
1A5
330
1A1
100
AcDbEntity
  8
VERMASSUNG
100
AcDbTrace
 10
149.1533777908
 20
159.8902818458
 30
0.0
 11
152.1533777908
 21
159.4402818458
 31
0.0
 12
152.1533777908
 22
160.3402818458
 32
0.0
 13
152.1533777908
 23
160.3402818458
 33
0.0
  0
LINE
  5
1A6
330
1A1
100
AcDbEntity
  8
VERMASSUNG
100
AcDbLine
 10
203.1533777908
 20
128.0154504797
 30
0.0
 11
203.1533777908
 21
160.8902818458
 31
0.0
  0
LINE
  5
1A7
330
1A1
100
AcDbEntity
  8
VERMASSUNG
100
AcDbLine
 10
149.1533777908
 20
140.4404504797
 30
0.0
 11
149.1533777908
 21
160.8902818458
 31
0.0
  0
LINE
  5
1A8
330
1A1
100
AcDbEntity
  8
VERMASSUNG
100
AcDbLine
 10
203.1533777908
 20
159.8902818458
 30
0.0
 11
149.1533777908
 21
159.8902818458
 31
0.0
  0
MTEXT
  5
1A9
330
1A1
100
AcDbEntity
  8
VERMASSUNG
100
AcDbMText
 10
174.6544189854
 20
162.4684174418
 30
0.0
 40
2.0
 41
0.0
 71
     1
 72
     1
  1
54
  7
SLDTEXTSTYLE0
 73
     1
 44
1.0
  0
ENDBLK
  5
1A3
330
1A1
100
AcDbEntity
  8
0
100
AcDbBlockEnd
  0
BLOCK
  5
1AC
330
1AB
100
AcDbEntity
  8
0
100
AcDbBlockBegin
  2
_D_5
 70
     0
 10
0.0
 20
0.0
 30
0.0
  3
_D_5
  1

  0
SOLID
  5
1AE
330
1AB
100
AcDbEntity
  8
VERMASSUNG
100
AcDbTrace
 10
83.7533777908
 20
165.8902818458
 30
0.0
 11
86.7533777908
 21
165.4402818458
 31
0.0
 12
86.7533777908
 22
166.3402818458
 32
0.0
 13
86.7533777908
 23
166.3402818458
 33
0.0
  0
SOLID
  5
1AF
330
1AB
100
AcDbEntity
  8
VERMASSUNG
100
AcDbTrace
 10
203.1533777908
 20
165.8902818458
 30
0.0
 11
200.1533777908
 21
166.3402818458
 31
0.0
 12
200.1533777908
 22
165.4402818458
 32
0.0
 13
200.1533777908
 23
165.4402818458
 33
0.0
  0
LINE
  5
1B0
330
1AB
100
AcDbEntity
  8
VERMASSUNG
100
AcDbLine
 10
83.7533777908
 20
130.0382060767
 30
0.0
 11
83.7533777908
 21
166.8902818458
 31
0.0
  0
LINE
  5
1B1
330
1AB
100
AcDbEntity
  8
VERMASSUNG
100
AcDbLine
 10
203.1533777908
 20
128.0154504797
 30
0.0
 11
203.1533777908
 21
166.8902818458
 31
0.0
  0
LINE
  5
1B2
330
1AB
100
AcDbEntity
  8
VERMASSUNG
100
AcDbLine
 10
83.7533777908
 20
165.8902818458
 30
0.0
 11
203.1533777908
 21
165.8902818458
 31
0.0
  0
MTEXT
  5
1B3
330
1AB
100
AcDbEntity
  8
VERMASSUNG
100
AcDbMText
 10
140.6539977702
 20
168.4684174418
 30
0.0
 40
2.0
 41
0.0
 71
     1
 72
     1
  1
119.4
  7
SLDTEXTSTYLE0
 73
     1
 44
1.0
  0
ENDBLK
  5
1AD
330
1AB
100
AcDbEntity
  8
0
100
AcDbBlockEnd
  0
ENDSEC
  0
SECTION
  2
ENTITIES
  0
MTEXT
  5
78
330
1F
100
AcDbEntity
  8
KOPF_DÜNN
100
AcDbMText
 10
13.8892156294
 20
23.8442973028
 30
0.0
 40
3.0
 41
0.0
 71
     1
 72
     1
  1
A34.540.020.054
  7
SLDTEXTSTYLE0
 73
     1
 44
1.0
  0
MTEXT
  5
79
330
1F
100
AcDbEntity
  8
VERMASSUNG
100
AcDbMText
 10
13.9329988022
 20
28.8834360957
 30
0.0
 40
3.0
 41
0.0
 71
     1
 72
     1
  1
Aufnahme_Master shank WH20
  7
SLDTEXTSTYLE0
 73
     1
 44
1.0
  0
MTEXT
  5
7A
330
1F
100
AcDbEntity
  8
VERMASSUNG
100
AcDbMText
 10
98.8601118557
 20
13.8365368761
 30
0.0
 40
2.0
 41
0.0
 71
     1
 72
     1
  1
Datum: 02.09.2011
  7
SLDTEXTSTYLE0
 73
     1
 44
1.0
  0
MTEXT
  5
7B
330
1F
100
AcDbEntity
  8
VERMASSUNG
100
AcDbMText
 10
13.933048693
 20
18.0482802738
 30
0.0
 40
2.0
 41
0.0
 71
     1
 72
     1
  1
MAS-BT AD/B
  7
SLDTEXTSTYLE0
 73
     1
 44
1.0
  0
MTEXT
  5
7C
330
1F
100
AcDbEntity
  8
VERMASSUNG
100
AcDbMText
 10
13.9808475933
 20
13.9090974274
 30
0.0
 40
2.0
 41
0.0
 71
     1
 72
     1
  1
Gewicht: 1040g
  7
SLDTEXTSTYLE0
 73
     1
 44
1.0
  0
LINE
  5
7D
330
1F
100
AcDbEntity
  8
0
  6
Continuous
 62
     7
370
    15
100
AcDbLine
 10
173.1533802321
 20
86.7154504797
 30
0.0
 11
175.1533777908
 21
86.7154504797
 31
0.0
  0
LINE
  5
7E
330
1F
100
AcDbEntity
  8
0
  6
Continuous
 62
     7
370
    15
100
AcDbLine
 10
175.1533777908
 20
149.7154504797
 30
0.0
 11
173.1528776207
 21
149.7154504797
 31
0.0
  0
ARC
  5
7F
330
1F
100
AcDbEntity
  8
0
  6
Continuous
 62
     7
370
    15
100
AcDbCircle
 10
175.1533777908
 20
87.7154504797
 30
0.0
 40
1.000000000000014
100
AcDbArc
 50
270.0
 51
0.0
  0
ARC
  5
80
330
1F
100
AcDbEntity
  8
0
  6
Continuous
 62
     7
370
    15
100
AcDbCircle
 10
175.1533777908
 20
148.7154504797
 30
0.0
 40
1.0
100
AcDbArc
 50
0.0
 51
90.0
  0
ARC
  5
81
330
1F
100
AcDbEntity
  8
0
  6
Continuous
 62
     7
370
    15
100
AcDbCircle
 10
150.1533777908
 20
94.9904504797
 30
0.0
 40
1.000000000000032
100
AcDbArc
 50
46.4333463416
 51
90.0
  0
ARC
  5
82
330
1F
100
AcDbEntity
  8
0
  6
Continuous
 62
     7
370
    15
100
AcDbCircle
 10
150.1533777908
 20
141.4404504797
 30
0.0
 40
1.000000000000023
100
AcDbArc
 50
270.0
 51
313.5375610145
  0
LINE
  5
83
330
1F
100
AcDbEntity
  8
0
  6
Continuous
 62
     7
370
    15
100
AcDbLine
 10
149.1533777908
 20
140.4404504797
 30
0.0
 11
84.6090708977
 21
131.0277390578
 31
0.0
  0
LINE
  5
84
330
1F
100
AcDbEntity
  8
0
  6
Continuous
 62
     7
370
    15
100
AcDbLine
 10
84.6090708977
 20
105.4031619016
 30
0.0
 11
149.1533777908
 21
95.9904504797
 31
0.0
  0
LINE
  5
85
330
1F
100
AcDbEntity
  8
0
  6
Continuous
 62
     7
370
    15
100
AcDbLine
 10
149.1533777908
 20
95.9904504797
 30
0.0
 11
150.1533777908
 21
95.9904504797
 31
0.0
  0
LINE
  5
86
330
1F
100
AcDbEntity
  8
0
  6
Continuous
 62
     7
370
    15
100
AcDbLine
 10
150.1533777908
 20
140.4404504797
 30
0.0
 11
149.1533777908
 21
140.4404504797
 31
0.0
  0
ARC
  5
87
330
1F
100
AcDbEntity
  8
0
  6
Continuous
 62
     7
370
    15
100
AcDbCircle
 10
179.1533777908
 20
105.2154504797
 30
0.0
 40
3.0
100
AcDbArc
 50
90.0
 51
180.0
  0
ARC
  5
88
330
1F
100
AcDbEntity
  8
0
  6
Continuous
 62
     7
370
    15
100
AcDbCircle
 10
179.1533777908
 20
131.2154504797
 30
0.0
 40
3.0
100
AcDbArc
 50
180.0
 51
270.0
  0
ARC
  5
89
330
1F
100
AcDbEntity
  8
0
  6
Continuous
 62
     7
370
    15
100
AcDbCircle
 10
84.7533777908
 20
106.3926948826
 30
0.0
 40
1.00000000000001
100
AcDbArc
 50
180.0
 51
261.7028550302
  0
ARC
  5
8A
330
1F
100
AcDbEntity
  8
0
  6
Continuous
 62
     7
370
    15
100
AcDbCircle
 10
84.7533777908
 20
130.0382060767
 30
0.0
 40
1.0
100
AcDbArc
 50
98.2971449698
 51
180.0
  0
LINE
  5
8B
330
1F
100
AcDbEntity
  8
0
  6
Continuous
 62
     7
370
    15
100
AcDbLine
 10
179.1533777908
 20
108.2154504797
 30
0.0
 11
202.9533777908
 21
108.2154504797
 31
0.0
  0
LINE
  5
8C
330
1F
100
AcDbEntity
  8
0
  6
Continuous
 62
     7
370
    15
100
AcDbLine
 10
202.9533777908
 20
128.2154504797
 30
0.0
 11
179.1533777908
 21
128.2154504797
 31
0.0
  0
LINE
  5
8D
330
1F
100
AcDbEntity
  8
0
  6
Continuous
 62
     7
370
    15
100
AcDbLine
 10
202.9533777908
 20
108.2154504797
 30
0.0
 11
203.1533777908
 21
108.4154504797
 31
0.0
  0
LINE
  5
8E
330
1F
100
AcDbEntity
  8
0
  6
Continuous
 62
     7
370
    15
100
AcDbLine
 10
203.1533777908
 20
128.0154504797
 30
0.0
 11
202.9533777908
 21
128.2154504797
 31
0.0
  0
SPLINE
  5
8F
330
1F
100
AcDbEntity
  8
0
  6
Continuous
 62
     7
370
    15
100
AcDbSpline
210
0.0
220
0.0
230
1.0
 70
    24
 71
     3
 72
    10
 73
     6
 74
     0
 42
0.000000001
 43
0.00000001
 40
0.0
 40
0.0
 40
0.0
 40
0.0
 40
0.4391119879276932
 40
0.7513633230734784
 40
1.0
 40
1.0
 40
1.0
 40
1.0
 10
197.8450218550419
 20
116.977186608264
 30
0.0
 10
197.9454524335573
 20
117.157765790461
 30
0.0
 10
198.1172989221209
 20
117.4667543358517
 30
0.0
 10
198.3671097904131
 20
117.9159267190735
 30
0.0
 10
198.4914492246519
 20
118.1394952146609
 30
0.0
 10
198.5465677921281
 20
118.2386011442081
 30
0.0
  0
SPLINE
  5
90
330
1F
100
AcDbEntity
  8
0
  6
Continuous
 62
     7
370
    15
100
AcDbSpline
210
0.0
220
0.0
230
1.0
 70
    24
 71
     3
 72
    10
 73
     6
 74
     0
 42
0.000000001
 43
0.00000001
 40
0.0
 40
0.0
 40
0.0
 40
0.0
 40
0.4391119879276937
 40
0.751363323073478
 40
1.0
 40
1.0
 40
1.0
 40
1.0
 10
198.5465677921281
 20
118.2386011442081
 30
0.0
 10
198.4403969222087
 20
118.4158661676177
 30
0.0
 10
198.2587282367037
 20
118.7191838649603
 30
0.0
 10
197.9946389763013
 20
119.1601126146537
 30
0.0
 10
197.8631926967561
 20
119.3795779711903
 30
0.0
 10
197.8049237278407
 20
119.4768650156186
 30
0.0
  0
SPLINE
  5
91
330
1F
100
AcDbEntity
  8
0
  6
Continuous
 62
     7
370
    15
100
AcDbSpline
210
0.0
220
0.0
230
1.0
 70
    24
 71
     3
 72
    11
 73
     7
 74
     0
 42
0.000000001
 43
0.00000001
 40
0.0
 40
0.0
 40
0.0
 40
0.0
 40
0.1855070912791299
 40
0.522642577860297
 40
0.8775754485095907
 40
1.0
 40
1.0
 40
1.0
 40
1.0
 10
197.8049237278407
 20
119.4768650156186
 30
0.0
 10
197.7206657555505
 20
119.4755134069954
 30
0.0
 10
197.4832796613619
 20
119.4717054220272
 30
0.0
 10
197.0390724509669
 20
119.4645797545119
 30
0.0
 10
196.6327489295903
 20
119.4580617911622
 30
0.0
 10
196.417052019027
 20
119.4546017292074
 30
0.0
 10
196.361733726467
 20
119.453714351085
 30
0.0
  0
SPLINE
  5
92
330
1F
100
AcDbEntity
  8
0
  6
Continuous
 62
     7
370
    15
100
AcDbSpline
210
0.0
220
0.0
230
1.0
 70
    24
 71
     3
 72
    11
 73
     7
 74
     0
 42
0.000000001
 43
0.00000001
 40
0.0
 40
0.0
 40
0.0
 40
0.0
 40
0.1224245514904084
 40
0.4773574221397009
 40
0.8144929087208714
 40
1.0
 40
1.0
 40
1.0
 40
1.0
 10
196.4018318536682
 20
116.9540359437304
 30
0.0
 10
196.4571501462282
 20
116.9549233218527
 30
0.0
 10
196.6728470567915
 20
116.9583833838076
 30
0.0
 10
197.0791705781681
 20
116.9649013471572
 30
0.0
 10
197.5233777885631
 20
116.9720270146726
 30
0.0
 10
197.7607638827517
 20
116.9758349996408
 30
0.0
 10
197.8450218550419
 20
116.977186608264
 30
0.0
  0
CIRCLE
  5
93
330
1F
100
AcDbEntity
  8
0
  6
Continuous
 62
     7
370
    15
100
AcDbCircle
 10
197.1033777908
 20
118.2154504797
 30
0.0
 40
1.549999999999996
  0
SPLINE
  5
94
330
1F
100
AcDbEntity
  8
0
  6
Continuous
 62
     7
370
    15
100
AcDbSpline
210
0.0
220
0.0
230
1.0
 70
    24
 71
     3
 72
    10
 73
     6
 74
     0
 42
0.000000001
 43
0.00000001
 40
0.0
 40
0.0
 40
0.0
 40
0.0
 40
0.4391119879276936
 40
0.7513633230734776
 40
1.0
 40
1.0
 40
1.0
 40
1.0
 10
195.6601877893808
 20
118.1922998151409
 30
0.0
 10
195.7663586593002
 20
118.0150347917313
 30
0.0
 10
195.9480273448052
 20
117.7117170943887
 30
0.0
 10
196.2121166052076
 20
117.2707883446953
 30
0.0
 10
196.3435628847528
 20
117.0513229881586
 30
0.0
 10
196.4018318536682
 20
116.9540359437304
 30
0.0
  0
SPLINE
  5
95
330
1F
100
AcDbEntity
  8
0
  6
Continuous
 62
     7
370
    15
100
AcDbSpline
210
0.0
220
0.0
230
1.0
 70
    24
 71
     3
 72
    10
 73
     6
 74
     0
 42
0.000000001
 43
0.00000001
 40
0.0
 40
0.0
 40
0.0
 40
0.0
 40
0.4391119879276939
 40
0.7513633230734781
 40
0.9999999999999999
 40
0.9999999999999999
 40
0.9999999999999999
 40
0.9999999999999999
 10
196.361733726467
 20
119.453714351085
 30
0.0
 10
196.2613031479516
 20
119.273135168888
 30
0.0
 10
196.089456659388
 20
118.9641466234973
 30
0.0
 10
195.8396457910958
 20
118.5149742402755
 30
0.0
 10
195.715306356857
 20
118.2914057446881
 30
0.0
 10
195.6601877893808
 20
118.1922998151409
 30
0.0
  0
CIRCLE
  5
96
330
1F
100
AcDbEntity
  8
0
  6
Continuous
 62
     7
370
    15
100
AcDbCircle
 10
197.1033777908
 20
118.2154504797
 30
0.0
 40
2.2
  0
ARC
  5
97
330
1F
100
AcDbEntity
  8
0
  6
Continuous
 62
     7
370
    15
100
AcDbCircle
 10
197.1033777908
 20
118.2154504797
 30
0.0
 40
1.250000000000013
100
AcDbArc
 50
90.9190207891
 51
150.9190207891
  0
ARC
  5
98
330
1F
100
AcDbEntity
  8
0
  6
Continuous
 62
     7
370
    15
100
AcDbCircle
 10
197.1033777908
 20
118.2154504797
 30
0.0
 40
1.250000000000013
100
AcDbArc
 50
30.9190207891
 51
90.9190207891
  0
ARC
  5
99
330
1F
100
AcDbEntity
  8
0
  6
Continuous
 62
     7
370
    15
100
AcDbCircle
 10
197.1033777908
 20
118.2154504797
 30
0.0
 40
1.249999999999999
100
AcDbArc
 50
210.9190207891
 51
270.9190207891
  0
ARC
  5
9A
330
1F
100
AcDbEntity
  8
0
  6
Continuous
 62
     7
370
    15
100
AcDbCircle
 10
197.1033777908
 20
118.2154504797
 30
0.0
 40
1.249999999999999
100
AcDbArc
 50
270.9190207891
 51
330.9190207891
  0
ARC
  5
9B
330
1F
100
AcDbEntity
  8
0
  6
Continuous
 62
     7
370
    15
100
AcDbCircle
 10
197.1033777908
 20
118.2154504797
 30
0.0
 40
1.249999999999992
100
AcDbArc
 50
150.9190207891
 51
210.9190207891
  0
ARC
  5
9C
330
1F
100
AcDbEntity
  8
0
  6
Continuous
 62
     7
370
    15
100
AcDbCircle
 10
197.1033777908
 20
118.2154504797
 30
0.0
 40
1.249999999999996
100
AcDbArc
 50
330.9190207891
 51
30.9190207891
  0
SPLINE
  5
9D
330
1F
100
AcDbEntity
  8
0
  6
Continuous
 62
     7
370
    15
100
AcDbSpline
210
0.0
220
0.0
230
1.0
 70
     8
 71
     3
 72
    11
 73
     7
 74
     0
 42
0.000000001
 43
0.00000001
 40
0.0
 40
0.0
 40
0.0
 40
0.0
 40
0.2488814606714261
 40
0.5011921284371436
 40
0.7520447562616431
 40
1.0
 40
1.0
 40
1.0
 40
1.0
 10
173.1528776207374
 20
149.7153007342681
 30
0.0
 10
173.1230992912452
 20
149.7061687081235
 30
0.0
 10
173.0631323322794
 20
149.6877788304365
 30
0.0
 10
172.5712102705006
 20
149.5437415819499
 30
0.0
 10
171.843140847872
 20
149.3343385038391
 30
0.0
 10
171.1323973766997
 20
149.1621342344895
 30
0.0
 10
170.7790898595634
 20
149.0765322341731
 30
0.0
  0
SPLINE
  5
9E
330
1F
100
AcDbEntity
  8
0
  6
Continuous
 62
     7
370
    15
100
AcDbSpline
210
0.0
220
0.0
230
1.0
 70
     8
 71
     3
 72
    24
 73
    20
 74
     0
 42
0.000000001
 43
0.00000001
 40
0.0
 40
0.0
 40
0.0
 40
0.0
 40
0.0452116620202646
 40
0.0902979724668112
 40
0.1353071308763714
 40
0.18028758478476
 40
0.2252878744154589
 40
0.2703564758778689
 40
0.3155416453969173
 40
0.3608912670572131
 40
0.4064527064150013
 40
0.4522726721183896
 40
0.4983970873941831
 40
0.5831110774795425
 40
0.6669835141650492
 40
0.7503080981450883
 40
0.8333843407995101
 40
0.9165144378022373
 40
1.0
 40
1.0
 40
1.0
 40
1.0
 10
170.7789964841721
 20
87.35435246013904
 30
0.0
 10
170.8467002260798
 20
87.33859341912044
 30
0.0
 10
170.9819199979154
 20
87.30711902980553
 30
0.0
 10
171.1745817147654
 20
87.26065822646441
 30
0.0
 10
171.3593185864231
 20
87.21502724683086
 30
0.0
 10
171.5354365277206
 20
87.17040194939682
 30
0.0
 10
171.7031203203354
 20
87.12691466279773
 30
0.0
 10
171.8623198046275
 20
87.08471361500001
 30
0.0
 10
172.0130479431063
 20
87.0439470226887
 30
0.0
 10
172.155300896542
 20
87.00476727008166
 30
0.0
 10
172.2890796516113
 20
86.96732997828069
 30
0.0
 10
172.4143835625576
 20
86.93179339430884
 30
0.0
 10
172.5634907707373
 20
86.88907457419631
 30
0.0
 10
172.7243488307985
 20
86.84253885312033
 30
0.0
 10
172.8803615925189
 20
86.79685286198286
 30
0.0
 10
173.0020163864007
 20
86.76081288527155
 30
0.0
 10
173.0884636560626
 20
86.73493912653649
 30
0.0
 10
173.1428007015103
 20
86.71852731356807
 30
0.0
 10
173.1498470753197
 20
86.7164775534211
 30
0.0
 10
173.1533777787467
 20
86.71545048682326
 30
0.0
  0
LINE
  5
9F
330
1F
100
AcDbEntity
  8
0
  6
Continuous
 62
     7
370
    15
100
AcDbLine
 10
170.7783777908
 20
87.3543524601
 30
0.0
 11
170.7783777908
 21
149.0765322342
 31
0.0
  0
SPLINE
  5
A0
330
1F
100
AcDbEntity
  8
0
  6
Continuous
 62
     7
370
    15
100
AcDbSpline
210
0.0
220
0.0
230
1.0
 70
     8
 71
     3
 72
    10
 73
     6
 74
     0
 42
0.000000001
 43
0.00000001
 40
0.0
 40
0.0
 40
0.0
 40
0.0
 40
0.5
 40
0.5
 40
1.0
 40
1.0
 40
1.0
 40
1.0
 10
170.1299861948
 20
148.1199112010287
 30
0.0
 10
169.8138823636605
 20
147.5000486427515
 30
0.0
 10
169.4841033193157
 20
146.8541479074527
 30
0.0
 10
168.8118800469269
 20
145.5397292671521
 30
0.0
 10
168.4697468809963
 20
144.8718070401398
 30
0.0
 10
168.1225665524822
 20
144.1954693076584
 30
0.0
  0
SPLINE
  5
A1
330
1F
100
AcDbEntity
  8
0
  6
Continuous
 62
     7
370
    15
100
AcDbSpline
210
0.0
220
0.0
230
1.0
 70
     8
 71
     3
 72
     9
 73
     5
 74
     0
 42
0.000000001
 43
0.00000001
 40
0.0
 40
0.0
 40
0.0
 40
0.0
 40
0.5067583433954557
 40
1.0
 40
1.0
 40
1.0
 40
1.0
 10
170.779008333739
 20
149.0775855870235
 30
0.0
 10
170.6686083763906
 20
148.9155113273589
 30
0.0
 10
170.4507531426541
 20
148.5956857896507
 30
0.0
 10
170.2361597965801
 20
148.2773372446986
 30
0.0
 10
170.1303134190663
 20
148.1203144810088
 30
0.0
  0
SPLINE
  5
A2
330
1F
100
AcDbEntity
  8
0
  6
Continuous
 62
     7
370
    15
100
AcDbSpline
210
0.0
220
0.0
230
1.0
 70
     8
 71
     3
 72
     9
 73
     5
 74
     0
 42
0.000000001
 43
0.00000001
 40
0.0
 40
0.0
 40
0.0
 40
0.0
 40
0.4932438861072345
 40
1.0
 40
1.0
 40
1.0
 40
1.0
 10
170.1302995040434
 20
88.3105843779697
 30
0.0
 10
170.2361459945365
 20
88.15356046606412
 30
0.0
 10
170.4507385996843
 20
87.835211032187
 30
0.0
 10
170.6685926486709
 20
87.51538554444677
 30
0.0
 10
170.7789915199311
 20
87.35331202315567
 30
0.0
  0
SPLINE
  5
A3
330
1F
100
AcDbEntity
  8
0
  6
Continuous
 62
     7
370
    15
100
AcDbSpline
210
0.0
220
0.0
230
1.0
 70
     8
 71
     3
 72
    10
 73
     6
 74
     0
 42
0.000000001
 43
0.00000001
 40
0.0
 40
0.0
 40
0.0
 40
0.0
 40
0.5
 40
0.5
 40
1.0
 40
1.0
 40
1.0
 40
1.0
 10
170.1299802751321
 20
88.31100136646947
 30
0.0
 10
169.813801172458
 20
88.93101151848317
 30
0.0
 10
169.483358945291
 20
89.57820958435089
 30
0.0
 10
168.8116474246083
 20
90.89162550894467
 30
0.0
 10
168.4696735495764
 20
91.55923677524747
 30
0.0
 10
168.1225665524822
 20
92.23543165169063
 30
0.0
  0
LINE
  5
A4
330
1F
100
AcDbEntity
  8
0
  6
Continuous
 62
     7
370
    15
100
AcDbLine
 10
176.1533777908
 20
87.7154504797
 30
0.0
 11
176.1533777908
 21
148.7154504794
 31
0.0
  0
LINE
  5
A5
330
1F
100
AcDbEntity
  8
0
  6
Continuous
 62
     7
370
    15
100
AcDbLine
 10
160.7283777908
 20
148.4518405827
 30
0.0
 11
152.1533777908
 21
148.4518405827
 31
0.0
  0
LINE
  5
A6
330
1F
100
AcDbEntity
  8
0
  6
Continuous
 62
     7
370
    15
100
AcDbLine
 10
160.7283777908
 20
87.9790603767
 30
0.0
 11
160.7283777908
 21
148.4518405827
 31
0.0
  0
LINE
  5
A7
330
1F
100
AcDbEntity
  8
0
  6
Continuous
 62
     7
370
    15
100
AcDbLine
 10
152.1533777908
 20
87.9790603767
 30
0.0
 11
160.7283777908
 21
87.9790603767
 31
0.0
  0
SPLINE
  5
A8
330
1F
100
AcDbEntity
  8
0
  6
Continuous
 62
     7
370
    15
100
AcDbSpline
210
0.0
220
0.0
230
1.0
 70
     8
 71
     3
 72
     8
 73
     4
 74
     0
 42
0.000000001
 43
0.00000001
 40
0.0
 40
0.0
 40
0.0
 40
0.0
 40
0.0012389803509652
 40
0.0012389803509652
 40
0.0012389803509652
 40
0.0012389803509652
 10
161.2859393342882
 20
147.669473202461
 30
0.0
 10
161.1008193611554
 20
147.93052318384
 30
0.0
 10
160.9149409133964
 20
148.191304796959
 30
0.0
 10
160.7283777907545
 20
148.4518405826763
 30
0.0
  0
SPLINE
  5
A9
330
1F
100
AcDbEntity
  8
0
  6
Continuous
 62
     7
370
    15
100
AcDbSpline
210
0.0
220
0.0
230
1.0
 70
     8
 71
     3
 72
     8
 73
     4
 74
     0
 42
0.000000001
 43
0.00000001
 40
0.0
 40
0.0
 40
0.0
 40
0.0
 40
1.0
 40
1.0
 40
1.0
 40
1.0
 10
163.3841890290267
 20
143.8826961441395
 30
0.0
 10
162.6878956629852
 20
145.1466345122543
 30
0.0
 10
161.9881004977941
 20
146.4086899577626
 30
0.0
 10
161.2859393342882
 20
147.669473202461
 30
0.0
  0
SPLINE
  5
AA
330
1F
100
AcDbEntity
  8
0
  6
Continuous
 62
     7
370
    15
100
AcDbSpline
210
0.0
220
0.0
230
1.0
 70
     8
 71
     3
 72
     8
 73
     4
 74
     0
 42
0.000000001
 43
0.00000001
 40
0.0
 40
0.0
 40
0.0
 40
0.0
 40
1.0
 40
1.0
 40
1.0
 40
1.0
 10
163.3841890290267
 20
92.54820481520944
 30
0.0
 10
162.6878708883688
 20
91.28422147526267
 30
0.0
 10
161.9880736962583
 20
90.02216287741071
 30
0.0
 10
161.2859393342882
 20
88.76142775688801
 30
0.0
  0
SPLINE
  5
AB
330
1F
100
AcDbEntity
  8
0
  6
Continuous
 62
     7
370
    15
100
AcDbSpline
210
0.0
220
0.0
230
1.0
 70
     8
 71
     3
 72
     8
 73
     4
 74
     0
 42
0.000000001
 43
0.00000001
 40
0.0
 40
0.0
 40
0.0
 40
0.0
 40
0.0012389803509652
 40
0.0012389803509652
 40
0.0012389803509652
 40
0.0012389803509652
 10
160.7283777907545
 20
87.97906037667266
 30
0.0
 10
160.9149409133964
 20
88.23959616239001
 30
0.0
 10
161.1008193611554
 20
88.50037777550902
 30
0.0
 10
161.2859393342882
 20
88.76142775688801
 30
0.0
  0
LINE
  5
AC
330
1F
100
AcDbEntity
  8
0
  6
Continuous
 62
     7
370
    15
100
AcDbLine
 10
151.1533777908
 20
89.0890449342
 30
0.0
 11
151.1533777908
 21
147.3418560252
 31
0.0
  0
SPLINE
  5
AD
330
1F
100
AcDbEntity
  8
0
  6
Continuous
 62
     7
370
    15
100
AcDbSpline
210
0.0
220
0.0
230
1.0
 70
     8
 71
     3
 72
    12
 73
     8
 74
     0
 42
0.000000001
 43
0.00000001
 40
0.0
 40
0.0
 40
0.0
 40
0.0
 40
0.25
 40
0.25
 40
0.5
 40
0.5
 40
1.0
 40
1.0
 40
1.0
 40
1.0
 10
151.54041061372
 20
148.2824403794955
 30
0.0
 10
151.4885498625319
 20
148.2256278071811
 30
0.0
 10
151.439818065513
 20
148.1636356209293
 30
0.0
 10
151.3496450555955
 20
148.0275825478053
 30
0.0
 10
151.3078678073106
 20
147.9526764452065
 30
0.0
 10
151.2017789374646
 20
147.7145498099091
 30
0.0
 10
151.1533777907545
 20
147.5311430783404
 30
0.0
 10
151.1533777907545
 20
147.3418560251585
 30
0.0
  0
SPLINE
  5
AE
330
1F
100
AcDbEntity
  8
0
  6
Continuous
 62
     7
370
    15
100
AcDbSpline
210
0.0
220
0.0
230
1.0
 70
     8
 71
     3
 72
     8
 73
     4
 74
     0
 42
0.000000001
 43
0.00000001
 40
0.0
 40
0.0
 40
0.0
 40
0.0
 40
1.0
 40
1.0
 40
1.0
 40
1.0
 10
152.1533777907544
 20
148.4518405826763
 30
0.0
 10
151.9270334771546
 20
148.4518405826763
 30
0.0
 10
151.7095813567495
 20
148.3884721136555
 30
0.0
 10
151.54041061372
 20
148.2824403794955
 30
0.0
  0
SPLINE
  5
AF
330
1F
100
AcDbEntity
  8
0
  6
Continuous
 62
     7
370
    15
100
AcDbSpline
210
0.0
220
0.0
230
1.0
 70
     8
 71
     3
 72
     8
 73
     4
 74
     0
 42
0.000000001
 43
0.00000001
 40
0.0
 40
0.0
 40
0.0
 40
0.0
 40
1.0
 40
1.0
 40
1.0
 40
1.0
 10
151.54041061372
 20
88.14846057985353
 30
0.0
 10
151.710004119372
 20
88.04216386929633
 30
0.0
 10
151.9263728117052
 20
87.97906037667266
 30
0.0
 10
152.1533777907544
 20
87.97906037667266
 30
0.0
  0
SPLINE
  5
B0
330
1F
100
AcDbEntity
  8
0
  6
Continuous
 62
     7
370
    15
100
AcDbSpline
210
0.0
220
0.0
230
1.0
 70
     8
 71
     3
 72
    12
 73
     8
 74
     0
 42
0.000000001
 43
0.00000001
 40
0.0
 40
0.0
 40
0.0
 40
0.0
 40
0.2499999999999977
 40
0.2499999999999977
 40
0.4999999999999953
 40
0.4999999999999953
 40
1.0
 40
1.0
 40
1.0
 40
1.0
 10
151.54041061372
 20
88.14846057985353
 30
0.0
 10
151.4885498625319
 20
88.20527315216793
 30
0.0
 10
151.439818065513
 20
88.26726533841975
 30
0.0
 10
151.3496450555955
 20
88.40331841154375
 30
0.0
 10
151.3078678073106
 20
88.47822451414247
 30
0.0
 10
151.2017789374646
 20
88.71635114943987
 30
0.0
 10
151.1533777907545
 20
88.89975788100865
 30
0.0
 10
151.1533777907545
 20
89.08904493419053
 30
0.0
  0
SPLINE
  5
B1
330
1F
100
AcDbEntity
  8
0
  6
Continuous
 62
     7
370
    15
100
AcDbSpline
210
0.0
220
0.0
230
1.0
 70
     8
 71
     3
 72
    10
 73
     6
 74
     0
 42
0.000000001
 43
0.00000001
 40
0.0
 40
0.0
 40
0.0
 40
0.0
 40
0.5
 40
0.5
 40
1.0
 40
1.0
 40
1.0
 40
1.0
 10
164.0770093520543
 20
143.463173149254
 30
0.0
 10
163.9349920396073
 20
143.463173149254
 30
0.0
 10
163.794544992745
 20
143.5036630014635
 30
0.0
 10
163.5529550734837
 20
143.6515988314027
 30
0.0
 10
163.4522776312304
 20
143.7590991073822
 30
0.0
 10
163.3841890290269
 20
143.8826961441393
 30
0.0
  0
SPLINE
  5
B2
330
1F
100
AcDbEntity
  8
0
  6
Continuous
 62
     7
370
    15
100
AcDbSpline
210
0.0
220
0.0
230
1.0
 70
     8
 71
     3
 72
    10
 73
     6
 74
     0
 42
0.000000001
 43
0.00000001
 40
0.0
 40
0.0
 40
0.0
 40
0.0
 40
0.5
 40
0.5
 40
1.0
 40
1.0
 40
1.0
 40
1.0
 10
164.0770093520543
 20
92.96772781009497
 30
0.0
 10
163.9361519875436
 20
92.96772781009497
 30
0.0
 10
163.7933178560695
 20
92.92662390427628
 30
0.0
 10
163.5530561652961
 20
92.77922601097532
 30
0.0
 10
163.4523498962166
 20
92.67193303013569
 30
0.0
 10
163.3841890290267
 20
92.54820481520946
 30
0.0
  0
SPLINE
  5
B3
330
1F
100
AcDbEntity
  8
0
  6
Continuous
 62
     7
370
    15
100
AcDbSpline
210
0.0
220
0.0
230
1.0
 70
     8
 71
     3
 72
    12
 73
     8
 74
     0
 42
0.000000001
 43
0.00000001
 40
0.0
 40
0.0
 40
0.0
 40
0.0
 40
0.25
 40
0.25
 40
0.5
 40
0.5
 40
1.0
 40
1.0
 40
1.0
 40
1.0
 10
168.1225665524822
 20
144.1954693076584
 30
0.0
 10
168.0866624021456
 20
144.1255248735102
 30
0.0
 10
168.0441308500161
 20
144.0622735104524
 30
0.0
 10
167.9473365731762
 20
143.9472148555365
 30
0.0
 10
167.8922468949118
 20
143.8948863218245
 30
0.0
 10
167.7141136613579
 20
143.7611014187394
 30
0.0
 10
167.5767365693553
 20
143.7005536515812
 30
0.0
 10
167.4297462294554
 20
143.6813537031973
 30
0.0
  0
SPLINE
  5
B4
330
1F
100
AcDbEntity
  8
0
  6
Continuous
 62
     7
370
    15
100
AcDbSpline
210
0.0
220
0.0
230
1.0
 70
     8
 71
     3
 72
    12
 73
     8
 74
     0
 42
0.000000001
 43
0.00000001
 40
0.0
 40
0.0
 40
0.0
 40
0.0
 40
0.25
 40
0.25
 40
0.5
 40
0.5
 40
1.0
 40
1.0
 40
1.0
 40
1.0
 10
168.1225665524822
 20
92.2354316516906
 30
0.0
 10
168.0866624021456
 20
92.30537608583877
 30
0.0
 10
168.0441308500161
 20
92.3686274488966
 30
0.0
 10
167.9473365731761
 20
92.48368610381254
 30
0.0
 10
167.8922468949118
 20
92.53601463752453
 30
0.0
 10
167.7141136613579
 20
92.66979954060962
 30
0.0
 10
167.5767365693553
 20
92.73034730776777
 30
0.0
 10
167.4297462294554
 20
92.74954725615167
 30
0.0
  0
LINE
  5
B5
330
1F
100
AcDbEntity
  8
0
  6
Continuous
 62
     7
370
    15
100
AcDbLine
 10
164.1033777908
 20
92.9677278101
 30
0.0
 11
164.0770093521
 21
92.9677278101
 31
0.0
  0
LINE
  5
B6
330
1F
100
AcDbEntity
  8
0
  6
Continuous
 62
     7
370
    15
100
AcDbLine
 10
164.1033777908
 20
143.4631731493
 30
0.0
 11
164.0770093521
 21
143.4631731493
 31
0.0
  0
SPLINE
  5
B7
330
1F
100
AcDbEntity
  8
0
  6
Continuous
 62
     7
370
    15
100
AcDbSpline
210
0.0
220
0.0
230
1.0
 70
     8
 71
     3
 72
    10
 73
     6
 74
     0
 42
0.000000001
 43
0.00000001
 40
0.0
 40
0.0
 40
0.0
 40
0.0
 40
0.5000000000000001
 40
0.5000000000000001
 40
1.0
 40
1.0
 40
1.0
 40
1.0
 10
167.4297462294546
 20
143.6813537032003
 30
0.0
 10
166.9078315050587
 20
143.6131809526921
 30
0.0
 10
166.3689803249493
 20
143.5585576877342
 30
0.0
 10
165.2576176829172
 20
143.4834618348428
 30
0.0
 10
164.6807769057212
 20
143.463173149254
 30
0.0
 10
164.1033777907545
 20
143.463173149254
 30
0.0
  0
SPLINE
  5
B8
330
1F
100
AcDbEntity
  8
0
  6
Continuous
 62
     7
370
    15
100
AcDbSpline
210
0.0
220
0.0
230
1.0
 70
     8
 71
     3
 72
    10
 73
     6
 74
     0
 42
0.000000001
 43
0.00000001
 40
0.0
 40
0.0
 40
0.0
 40
0.0
 40
0.5000000000000001
 40
0.5000000000000001
 40
1.0
 40
1.0
 40
1.0
 40
1.0
 10
167.4297462294546
 20
92.74954725614873
 30
0.0
 10
166.9078315050587
 20
92.81772000665693
 30
0.0
 10
166.3689803249493
 20
92.87234327161487
 30
0.0
 10
165.2576176829172
 20
92.9474391245062
 30
0.0
 10
164.6807769057212
 20
92.96772781009498
 30
0.0
 10
164.1033777907545
 20
92.96772781009498
 30
0.0
  0
SPLINE
  5
B9
330
1F
100
AcDbEntity
  8
0
  6
Continuous
 62
     7
370
    15
100
AcDbSpline
210
0.0
220
0.0
230
1.0
 70
    24
 71
     3
 72
    16
 73
    12
 74
     0
 42
0.000000001
 43
0.00000001
 40
0.0
 40
0.0
 40
0.0
 40
0.0
 40
0.5
 40
0.5
 40
0.75
 40
0.75
 40
0.875
 40
0.875
 40
0.9375
 40
0.9375
 40
1.0
 40
1.0
 40
1.0
 40
1.0
 10
151.1533777907544
 20
140.7154504796745
 30
0.0
 10
151.1533777907544
 20
140.7154504796745
 30
0.0
 10
151.0725777662904
 20
140.7154504796745
 30
0.0
 10
150.9550058732955
 20
140.7154504796745
 30
0.0
 10
150.9160641453316
 20
140.7154504796745
 30
0.0
 10
150.8734889310811
 20
140.7154504796745
 30
0.0
 10
150.8619546864701
 20
140.7154504796745
 30
0.0
 10
150.8501851463315
 20
140.7154504796745
 30
0.0
 10
150.8471778659004
 20
140.7154504796745
 30
0.0
 10
150.8431483315039
 20
140.7154504796745
 30
0.0
 10
150.8421265520462
 20
140.7154504796745
 30
0.0
 10
150.84212665646
 20
140.7154504796745
 30
0.0
  0
SPLINE
  5
BA
330
1F
100
AcDbEntity
  8
0
  6
Continuous
 62
     7
370
    15
100
AcDbSpline
210
0.0
220
0.0
230
1.0
 70
    24
 71
     3
 72
     9
 73
     5
 74
     0
 42
0.000000001
 43
0.00000001
 40
0.0
 40
0.0
 40
0.0
 40
0.0
 40
0.7022321769713785
 40
1.0
 40
1.0
 40
1.0
 40
1.0
 10
150.8421275107623
 20
95.7154504796745
 30
0.0
 10
150.8609707243497
 20
95.7154504796745
 30
0.0
 10
150.8878040341942
 20
95.71545047967452
 30
0.0
 10
150.9677144037435
 20
95.7154504796745
 30
0.0
 10
150.9915091405217
 20
95.7154504796745
 30
0.0
  0
LINE
  5
BB
330
1F
100
AcDbEntity
  8
0
  6
Continuous
 62
     7
370
    15
100
AcDbLine
 10
149.1533777908
 20
95.9904504797
 30
0.0
 11
149.1533777908
 21
140.4404504797
 31
0.0
  0
LINE
  5
BC
330
1F
100
AcDbEntity
  8
0
  6
Continuous
 62
     7
370
    15
100
AcDbLine
 10
83.7533777908
 20
106.3926948826
 30
0.0
 11
83.7533777908
 21
130.0382060752
 31
0.0
  0
SPLINE
  5
BD
330
1F
100
AcDbEntity
  8
0
  6
Continuous
 62
     7
370
    15
100
AcDbSpline
210
0.0
220
0.0
230
1.0
 70
    11
 71
     3
 72
    62
 73
    58
 74
     0
 42
0.000000001
 43
0.00000001
 40
0.0
 40
0.0
 40
0.0
 40
0.0
 40
0.03125
 40
0.03125
 40
0.0625
 40
0.0625
 40
0.09375
 40
0.09375
 40
0.1249999999999999
 40
0.1249999999999999
 40
0.1562499999999999
 40
0.1562499999999999
 40
0.1875
 40
0.1875
 40
0.21875
 40
0.21875
 40
0.25
 40
0.25
 40
0.3125
 40
0.3125
 40
0.3437500000000001
 40
0.3437500000000001
 40
0.3750000000000001
 40
0.3750000000000001
 40
0.4062500000000002
 40
0.4062500000000002
 40
0.4375000000000002
 40
0.4375000000000002
 40
0.4687500000000002
 40
0.4687500000000002
 40
0.5000000000000002
 40
0.5000000000000002
 40
0.5312500000000002
 40
0.5312500000000002
 40
0.5625000000000002
 40
0.5625000000000002
 40
0.5937500000000002
 40
0.5937500000000002
 40
0.6250000000000001
 40
0.6250000000000001
 40
0.6562500000000001
 40
0.6562500000000001
 40
0.6875000000000001
 40
0.6875000000000001
 40
0.7187500000000001
 40
0.7187500000000001
 40
0.7500000000000001
 40
0.7500000000000001
 40
0.7812500000000001
 40
0.7812500000000001
 40
0.8125000000000001
 40
0.8125000000000001
 40
0.875
 40
0.875
 40
0.9375
 40
0.9375
 40
1.0
 40
1.0
 40
1.0
 40
1.0
 10
194.949801031626
 20
120.3362432005281
 30
0.0
 10
194.7917565391408
 20
120.2136669547783
 30
0.0
 10
194.6473434440558
 20
120.0780688204769
 30
0.0
 10
194.3869725387881
 20
119.7791321009624
 30
0.0
 10
194.2703652662128
 20
119.613940324881
 30
0.0
 10
194.0791522335916
 20
119.2676972723465
 30
0.0
 10
194.0029967200513
 20
119.085468318427
 30
0.0
 10
193.8936256949781
 20
118.7006868191539
 30
0.0
 10
193.8618597352188
 20
118.5002602351436
 30
0.0
 10
193.8479120539566
 20
118.1026476820732
 30
0.0
 10
193.8656282729037
 20
117.8998357472043
 30
0.0
 10
193.9486509570109
 20
117.5080438690923
 30
0.0
 10
194.0129540201603
 20
117.319496092294
 30
0.0
 10
194.1850424474881
 20
116.9562937727778
 30
0.0
 10
194.290384261162
 20
116.7870285452766
 30
0.0
 10
194.5338026147099
 20
116.4731168569543
 30
0.0
 10
194.6732376094656
 20
116.3275031082688
 30
0.0
 10
195.1234382583406
 20
115.9393266042391
 30
0.0
 10
195.4751491457471
 20
115.7369380971929
 30
0.0
 10
196.0338969474875
 20
115.5307245464779
 30
0.0
 10
196.227845622871
 20
115.4771647709511
 30
0.0
 10
196.6221223042561
 20
115.402883324882
 30
0.0
 10
196.8202547751646
 20
115.3823145291292
 30
0.0
 10
197.218452590187
 20
115.3732172295191
 30
0.0
 10
197.420248669309
 20
115.3849769883859
 30
0.0
 10
197.8171859327291
 20
115.4412648381371
 30
0.0
 10
198.0109632283669
 20
115.4852638054686
 30
0.0
 10
198.3892844779718
 20
115.6048254620502
 30
0.0
 10
198.5755189754835
 20
115.6812982703519
 30
0.0
 10
198.9292509390021
 20
115.8644447951463
 30
0.0
 10
199.0958096775497
 20
115.9701910151817
 30
0.0
 10
199.4078868695472
 20
116.2112201645806
 30
0.0
 10
199.554995344945
 20
116.3483750004867
 30
0.0
 10
199.8164665906573
 20
116.6473652272894
 30
0.0
 10
199.9305115625495
 20
116.8079876631941
 30
0.0
 10
200.1230301213532
 20
117.1533392248219
 30
0.0
 10
200.2021183313624
 20
117.3411875501249
 30
0.0
 10
200.3118997230849
 20
117.7243993030891
 30
0.0
 10
200.3438909010634
 20
117.9205855479852
 30
0.0
 10
200.3592768791815
 20
118.3227207728821
 30
0.0
 10
200.341872053384
 20
118.5249193024361
 30
0.0
 10
200.260122648609
 20
118.9158783366174
 30
0.0
 10
200.1946088783162
 20
119.108996369306
 30
0.0
 10
200.0242944810948
 20
119.4698498596595
 30
0.0
 10
199.9189058562308
 20
119.6402894810543
 30
0.0
 10
199.6737768662617
 20
119.9570317304301
 30
0.0
 10
199.5366032705218
 20
120.1004373455798
 30
0.0
 10
199.2356465130198
 20
120.3605265414124
 30
0.0
 10
199.0710841912433
 20
120.4772017824887
 30
0.0
 10
198.727870902427
 20
120.6771592569174
 30
0.0
 10
198.5478959435632
 20
120.7617324138633
 30
0.0
 10
197.9829810958952
 20
120.9703158633696
 30
0.0
 10
197.5891979135762
 20
121.0441996537327
 30
0.0
 10
196.7811526687013
 20
121.0621708964166
 30
0.0
 10
196.3862558921326
 20
121.0063640536611
 30
0.0
 10
195.6183752046923
 20
120.7626144557144
 30
0.0
 10
195.2658900165963
 20
120.5813956920277
 30
0.0
 10
194.949801031626
 20
120.3362432005281
 30
0.0
  0
LINE
  5
BE
330
1F
100
AcDbEntity
  8
0
  6
Continuous
 62
     7
370
    15
100
AcDbLine
 10
202.9533777908
 20
108.2154504797
 30
0.0
 11
202.9533777908
 21
128.2154504797
 31
0.0
  0
LINE
  5
BF
330
1F
100
AcDbEntity
  8
0
  6
Continuous
 62
     7
370
    15
100
AcDbLine
 10
203.1533777908
 20
108.4154504797
 30
0.0
 11
203.1533777908
 21
128.0154504797
 31
0.0
  0
LWPOLYLINE
  5
C0
330
1F
100
AcDbEntity
  8
0
  6
HIDDEN
 62
     7
370
     0
100
AcDbPolyline
 90
       23
 70
   128
 43
0.0
 10
153.9022467591
 20
124.8733564555
 10
153.6688228252
 20
125.0411764034
 10
153.490740573
 20
125.3529756202
 10
153.3824271674
 20
125.7834939877
 10
153.3526575164
 20
126.2978534681
 10
153.4038433801
 20
126.8543837154
 10
153.5318379842
 20
127.4079979587
 10
153.7262719671
 20
127.9138456645
 10
153.9713934439
 20
128.3309460601
 10
154.2473441302
 20
128.625508152
 10
154.5317681427
 20
128.7736682714
 10
154.8016231394
 20
128.7634233665
 10
155.0350470733
 20
128.5956034185
 10
155.2131293255
 20
128.2838042017
 10
155.3214427311
 20
127.8532858342
 10
155.3512123821
 20
127.3389263538
 10
155.3000265184
 20
126.7823961065
 10
155.1720319143
 20
126.2287818632
 10
154.9775979314
 20
125.7229341574
 10
154.7324764547
 20
125.3058337618
 10
154.4565257683
 20
125.0112716699
 10
154.1721017558
 20
124.8631115505
 10
153.9022467591
 20
124.8733564555
  0
LWPOLYLINE
  5
C1
330
1F
100
AcDbEntity
  8
0
  6
HIDDEN
 62
     7
370
     0
100
AcDbPolyline
 90
       19
 70
   128
 43
0.0
 10
154.7203988833
 20
125.4744864475
 10
154.5464189122
 20
125.6153515917
 10
154.4273228886
 20
125.8858511583
 10
154.3774755505
 20
126.2533589074
 10
154.4028892227
 20
126.6735479806
 10
154.5004986411
 20
127.0957373744
 10
154.6585306694
 20
127.4690048171
 10
154.8579243126
 20
127.7483287461
 10
155.0746297546
 20
127.9000185734
 10
155.2825091209
 20
127.9057782669
 10
155.456489092
 20
127.7649131227
 10
155.5755851156
 20
127.4944135561
 10
155.6254324537
 20
127.126905807
 10
155.6000187815
 20
126.7067167338
 10
155.5024093631
 20
126.28452734
 10
155.3443773349
 20
125.9112598973
 10
155.1449836916
 20
125.6319359683
 10
154.9282782496
 20
125.4802461411
 10
154.7203988833
 20
125.4744864475
  0
LWPOLYLINE
  5
C2
330
1F
100
AcDbEntity
  8
0
  6
HIDDEN
 62
     7
370
     0
100
AcDbPolyline
 90
       23
 70
   128
 43
0.0
 10
152.1486896006
 20
125.2196233594
 10
151.9152656667
 20
125.3874433074
 10
151.7371834145
 20
125.6992425242
 10
151.6288700089
 20
126.1297608917
 10
151.5991003579
 20
126.6441203721
 10
151.6502862216
 20
127.2006506194
 10
151.7782808257
 20
127.7542648627
 10
151.9727148086
 20
128.2601125685
 10
152.2178362854
 20
128.6772129641
 10
152.4937869717
 20
128.971775056
 10
152.7782109842
 20
129.1199351754
 10
153.0480659809
 20
129.1096902704
 10
153.2814899148
 20
128.9418703225
 10
153.459572167
 20
128.6300711057
 10
153.5678855726
 20
128.1995527382
 10
153.5976552236
 20
127.6851932578
 10
153.5464693599
 20
127.1286630105
 10
153.4184747558
 20
126.5750487672
 10
153.2240407729
 20
126.0692010614
 10
152.9789192961
 20
125.6521006658
 10
152.7029686098
 20
125.3575385739
 10
152.4185445973
 20
125.2093784545
 10
152.1486896006
 20
125.2196233594
  0
LWPOLYLINE
  5
C3
330
1F
100
AcDbEntity
  8
0
  6
HIDDEN
 62
     7
370
     0
100
AcDbPolyline
 90
       21
 70
   128
 43
0.0
 10
152.0413787977
 20
125.6374106405
 10
151.8369086161
 20
125.7926560982
 10
151.6878883841
 20
126.0859717571
 10
151.6089052403
 20
126.4886458369
 10
151.6076906052
 20
126.9612617931
 10
151.6843633757
 20
127.4575566829
 10
151.8314182868
 20
127.9289497048
 10
152.0344605793
 20
128.3292976252
 10
152.2736150587
 20
128.6194116005
 10
152.5254716186
 20
128.7708932532
 10
152.7653767838
 20
128.7689145039
 10
152.9698469654
 20
128.6136690462
 10
153.1188671974
 20
128.3203533873
 10
153.1978503412
 20
127.9176793075
 10
153.1990649763
 20
127.4450633513
 10
153.1223922058
 20
126.9487684614
 10
152.9753372947
 20
126.4773754396
 10
152.7722950023
 20
126.0770275191
 10
152.5331405228
 20
125.7869135439
 10
152.281283963
 20
125.6354318912
 10
152.0413787977
 20
125.6374106405
  0
LINE
  5
C4
330
1F
100
AcDbEntity
  8
0
  6
HIDDEN
 62
     7
370
     0
100
AcDbLine
 10
153.1260092933
 20
126.5431734346
 30
0.0
 11
153.4427882988
 21
125.8236818756
 31
0.0
  0
LINE
  5
C5
330
1F
100
AcDbEntity
  8
0
  6
HIDDEN
 62
     7
370
     0
100
AcDbLine
 10
153.1260092933
 20
126.5431734346
 30
0.0
 11
151.8269711876
 21
126.7996885421
 31
0.0
  0
LINE
  5
C6
330
1F
100
AcDbEntity
  8
0
  6
HIDDEN
 62
     7
370
     0
100
AcDbLine
 10
153.1260092933
 20
126.5431734346
 30
0.0
 11
153.3856368909
 21
127.6661390237
 31
0.0
  0
LINE
  5
C7
330
1F
100
AcDbEntity
  8
0
  6
HIDDEN
 62
     7
370
     0
100
AcDbLine
 10
153.3856368909
 20
127.6661390237
 30
0.0
 11
152.0865987852
 21
127.9226541312
 31
0.0
  0
LINE
  5
C8
330
1F
100
AcDbEntity
  8
0
  6
HIDDEN
 62
     7
370
     0
100
AcDbLine
 10
153.3856368909
 20
127.6661390237
 30
0.0
 11
153.9620434941
 21
128.0696130538
 31
0.0
  0
LINE
  5
C9
330
1F
100
AcDbEntity
  8
0
  6
HIDDEN
 62
     7
370
     0
100
AcDbLine
 10
152.0865987852
 20
127.9226541312
 30
0.0
 11
152.6630053884
 21
128.3261281613
 31
0.0
  0
LINE
  5
CA
330
1F
100
AcDbEntity
  8
0
  6
HIDDEN
 62
     7
370
     0
100
AcDbLine
 10
151.8269711876
 20
126.7996885421
 30
0.0
 11
152.0865987852
 21
127.9226541312
 31
0.0
  0
LINE
  5
CB
330
1F
100
AcDbEntity
  8
0
  6
HIDDEN
 62
     7
370
     0
100
AcDbLine
 10
151.8269711876
 20
126.7996885421
 30
0.0
 11
152.1437501931
 21
126.0801969831
 31
0.0
  0
LINE
  5
CC
330
1F
100
AcDbEntity
  8
0
  6
HIDDEN
 62
     7
370
     0
100
AcDbLine
 10
154.019194902
 20
126.2271559057
 30
0.0
 11
152.7201567963
 21
126.4836710132
 31
0.0
  0
LINE
  5
CD
330
1F
100
AcDbEntity
  8
0
  6
HIDDEN
 62
     7
370
     0
100
AcDbLine
 10
152.7201567963
 20
126.4836710132
 30
0.0
 11
152.1437501931
 21
126.0801969831
 31
0.0
  0
LINE
  5
CE
330
1F
100
AcDbEntity
  8
0
  6
HIDDEN
 62
     7
370
     0
100
AcDbLine
 10
153.4427882988
 20
125.8236818756
 30
0.0
 11
152.1437501931
 21
126.0801969831
 31
0.0
  0
LINE
  5
CF
330
1F
100
AcDbEntity
  8
0
  6
HIDDEN
 62
     7
370
     0
100
AcDbLine
 10
154.019194902
 20
126.2271559057
 30
0.0
 11
153.4427882988
 21
125.8236818756
 31
0.0
  0
LINE
  5
D0
330
1F
100
AcDbEntity
  8
0
  6
HIDDEN
 62
     7
370
     0
100
AcDbLine
 10
154.2788224996
 20
127.3501214948
 30
0.0
 11
152.9797843939
 21
127.6066366023
 31
0.0
  0
LINE
  5
D1
330
1F
100
AcDbEntity
  8
0
  6
HIDDEN
 62
     7
370
     0
100
AcDbLine
 10
152.9797843939
 20
127.6066366023
 30
0.0
 11
152.6630053884
 21
128.3261281613
 31
0.0
  0
LINE
  5
D2
330
1F
100
AcDbEntity
  8
0
  6
HIDDEN
 62
     7
370
     0
100
AcDbLine
 10
153.9620434941
 20
128.0696130538
 30
0.0
 11
152.6630053884
 21
128.3261281613
 31
0.0
  0
LINE
  5
D3
330
1F
100
AcDbEntity
  8
0
  6
HIDDEN
 62
     7
370
     0
100
AcDbLine
 10
154.2788224996
 20
127.3501214948
 30
0.0
 11
153.9620434941
 21
128.0696130538
 31
0.0
  0
LINE
  5
D4
330
1F
100
AcDbEntity
  8
0
  6
HIDDEN
 62
     7
370
     0
100
AcDbLine
 10
152.7201567963
 20
126.4836710132
 30
0.0
 11
152.9797843939
 21
127.6066366023
 31
0.0
  0
LINE
  5
D5
330
1F
100
AcDbEntity
  8
0
  6
HIDDEN
 62
     7
370
     0
100
AcDbLine
 10
154.019194902
 20
126.2271559057
 30
0.0
 11
154.2788224996
 21
127.3501214948
 31
0.0
  0
LWPOLYLINE
  5
D6
330
1F
100
AcDbEntity
  8
0
  6
HIDDEN
 62
     7
370
     0
100
AcDbPolyline
 90
       21
 70
   128
 43
0.0
 10
152.0413787977
 20
110.7934903188
 10
151.8369086161
 20
110.6382448612
 10
151.6878883841
 20
110.3449292023
 10
151.6089052403
 20
109.9422551225
 10
151.6076906052
 20
109.4696391663
 10
151.6843633757
 20
108.9733442764
 10
151.8314182868
 20
108.5019512546
 10
152.0344605793
 20
108.1016033341
 10
152.2736150587
 20
107.8114893589
 10
152.5254716186
 20
107.6600077061
 10
152.7653767838
 20
107.6619864555
 10
152.9698469654
 20
107.8172319131
 10
153.1188671974
 20
108.110547572
 10
153.1978503412
 20
108.5132216518
 10
153.1990649763
 20
108.985837608
 10
153.1223922058
 20
109.4821324979
 10
152.9753372947
 20
109.9535255198
 10
152.7722950023
 20
110.3538734402
 10
152.5331405228
 20
110.6439874154
 10
152.281283963
 20
110.7954690682
 10
152.0413787977
 20
110.7934903188
  0
LWPOLYLINE
  5
D7
330
1F
100
AcDbEntity
  8
0
  6
HIDDEN
 62
     7
370
     0
100
AcDbPolyline
 90
       23
 70
   128
 43
0.0
 10
152.1486896006
 20
111.2112775999
 10
151.9152656667
 20
111.043457652
 10
151.7371834145
 20
110.7316584352
 10
151.6288700089
 20
110.3011400677
 10
151.5991003579
 20
109.7867805872
 10
151.6502862216
 20
109.23025034
 10
151.7782808257
 20
108.6766360967
 10
151.9727148086
 20
108.1707883908
 10
152.2178362854
 20
107.7536879953
 10
152.4937869717
 20
107.4591259034
 10
152.7782109842
 20
107.310965784
 10
153.0480659809
 20
107.3212106889
 10
153.2814899148
 20
107.4890306368
 10
153.459572167
 20
107.8008298536
 10
153.5678855726
 20
108.2313482211
 10
153.5976552236
 20
108.7457077016
 10
153.5464693599
 20
109.3022379488
 10
153.4184747558
 20
109.8558521922
 10
153.2240407729
 20
110.361699898
 10
152.9789192961
 20
110.7788002936
 10
152.7029686098
 20
111.0733623855
 10
152.4185445973
 20
111.2215225048
 10
152.1486896006
 20
111.2112775999
  0
LWPOLYLINE
  5
D8
330
1F
100
AcDbEntity
  8
0
  6
HIDDEN
 62
     7
370
     0
100
AcDbPolyline
 90
       23
 70
   128
 43
0.0
 10
153.9022467591
 20
111.5575445039
 10
153.6688228252
 20
111.389724556
 10
153.490740573
 20
111.0779253392
 10
153.3824271674
 20
110.6474069717
 10
153.3526575164
 20
110.1330474912
 10
153.4038433801
 20
109.576517244
 10
153.5318379842
 20
109.0229030006
 10
153.7262719671
 20
108.5170552948
 10
153.9713934439
 20
108.0999548992
 10
154.2473441302
 20
107.8053928073
 10
154.5317681427
 20
107.657232688
 10
154.8016231394
 20
107.6674775929
 10
155.0350470733
 20
107.8352975408
 10
155.2131293255
 20
108.1470967576
 10
155.3214427311
 20
108.5776151251
 10
155.3512123821
 20
109.0919746056
 10
155.3000265184
 20
109.6485048528
 10
155.1720319143
 20
110.2021190961
 10
154.9775979314
 20
110.707966802
 10
154.7324764547
 20
111.1250671975
 10
154.4565257683
 20
111.4196292895
 10
154.1721017558
 20
111.5677894088
 10
153.9022467591
 20
111.5575445039
  0
LINE
  5
D9
330
1F
100
AcDbEntity
  8
0
  6
HIDDEN
 62
     7
370
     0
100
AcDbLine
 10
152.0865987852
 20
108.5082468282
 30
0.0
 11
152.6630053884
 21
108.104772798
 31
0.0
  0
LINE
  5
DA
330
1F
100
AcDbEntity
  8
0
  6
HIDDEN
 62
     7
370
     0
100
AcDbLine
 10
152.9797843939
 20
108.824264357
 30
0.0
 11
152.6630053884
 21
108.104772798
 31
0.0
  0
LINE
  5
DB
330
1F
100
AcDbEntity
  8
0
  6
HIDDEN
 62
     7
370
     0
100
AcDbLine
 10
152.7201567963
 20
109.9472299462
 30
0.0
 11
152.9797843939
 21
108.824264357
 31
0.0
  0
LINE
  5
DC
330
1F
100
AcDbEntity
  8
0
  6
HIDDEN
 62
     7
370
     0
100
AcDbLine
 10
152.7201567963
 20
109.9472299462
 30
0.0
 11
152.1437501931
 21
110.3507039763
 31
0.0
  0
LINE
  5
DD
330
1F
100
AcDbEntity
  8
0
  6
HIDDEN
 62
     7
370
     0
100
AcDbLine
 10
151.8269711876
 20
109.6312124173
 30
0.0
 11
152.1437501931
 21
110.3507039763
 31
0.0
  0
LINE
  5
DE
330
1F
100
AcDbEntity
  8
0
  6
HIDDEN
 62
     7
370
     0
100
AcDbLine
 10
151.8269711876
 20
109.6312124173
 30
0.0
 11
152.0865987852
 21
108.5082468282
 31
0.0
  0
LINE
  5
DF
330
1F
100
AcDbEntity
  8
0
  6
HIDDEN
 62
     7
370
     0
100
AcDbLine
 10
154.2788224996
 20
109.0807794645
 30
0.0
 11
152.9797843939
 21
108.824264357
 31
0.0
  0
LINE
  5
E0
330
1F
100
AcDbEntity
  8
0
  6
HIDDEN
 62
     7
370
     0
100
AcDbLine
 10
154.019194902
 20
110.2037450536
 30
0.0
 11
152.7201567963
 21
109.9472299462
 31
0.0
  0
LWPOLYLINE
  5
E1
330
1F
100
AcDbEntity
  8
0
  6
HIDDEN
 62
     7
370
     0
100
AcDbPolyline
 90
       19
 70
   128
 43
0.0
 10
154.7203988833
 20
110.9564145118
 10
154.5464189122
 20
110.8155493676
 10
154.4273228886
 20
110.5450498011
 10
154.3774755505
 20
110.177542052
 10
154.4028892227
 20
109.7573529787
 10
154.5004986411
 20
109.3351635849
 10
154.6585306694
 20
108.9618961423
 10
154.8579243126
 20
108.6825722132
 10
155.0746297546
 20
108.530882386
 10
155.2825091209
 20
108.5251226925
 10
155.456489092
 20
108.6659878366
 10
155.5755851156
 20
108.9364874032
 10
155.6254324537
 20
109.3039951523
 10
155.6000187815
 20
109.7241842256
 10
155.5024093631
 20
110.1463736194
 10
155.3443773349
 20
110.519641062
 10
155.1449836916
 20
110.7989649911
 10
154.9282782496
 20
110.9506548183
 10
154.7203988833
 20
110.9564145118
  0
LINE
  5
E2
330
1F
100
AcDbEntity
  8
0
  6
HIDDEN
 62
     7
370
     0
100
AcDbLine
 10
153.3856368909
 20
108.7647619356
 30
0.0
 11
153.9620434941
 21
108.3612879055
 31
0.0
  0
LINE
  5
E3
330
1F
100
AcDbEntity
  8
0
  6
HIDDEN
 62
     7
370
     0
100
AcDbLine
 10
153.1260092933
 20
109.8877275248
 30
0.0
 11
153.3856368909
 21
108.7647619356
 31
0.0
  0
LINE
  5
E4
330
1F
100
AcDbEntity
  8
0
  6
HIDDEN
 62
     7
370
     0
100
AcDbLine
 10
153.1260092933
 20
109.8877275248
 30
0.0
 11
153.4427882988
 21
110.6072190838
 31
0.0
  0
LINE
  5
E5
330
1F
100
AcDbEntity
  8
0
  6
HIDDEN
 62
     7
370
     0
100
AcDbLine
 10
154.019194902
 20
110.2037450536
 30
0.0
 11
153.4427882988
 21
110.6072190838
 31
0.0
  0
LINE
  5
E6
330
1F
100
AcDbEntity
  8
0
  6
HIDDEN
 62
     7
370
     0
100
AcDbLine
 10
154.019194902
 20
110.2037450536
 30
0.0
 11
154.2788224996
 21
109.0807794645
 31
0.0
  0
LINE
  5
E7
330
1F
100
AcDbEntity
  8
0
  6
HIDDEN
 62
     7
370
     0
100
AcDbLine
 10
154.2788224996
 20
109.0807794645
 30
0.0
 11
153.9620434941
 21
108.3612879055
 31
0.0
  0
LINE
  5
E8
330
1F
100
AcDbEntity
  8
0
  6
HIDDEN
 62
     7
370
     0
100
AcDbLine
 10
153.3856368909
 20
108.7647619356
 30
0.0
 11
152.0865987852
 21
108.5082468282
 31
0.0
  0
LINE
  5
E9
330
1F
100
AcDbEntity
  8
0
  6
HIDDEN
 62
     7
370
     0
100
AcDbLine
 10
153.9620434941
 20
108.3612879055
 30
0.0
 11
152.6630053884
 21
108.104772798
 31
0.0
  0
LINE
  5
EA
330
1F
100
AcDbEntity
  8
0
  6
HIDDEN
 62
     7
370
     0
100
AcDbLine
 10
153.1260092933
 20
109.8877275248
 30
0.0
 11
151.8269711876
 21
109.6312124173
 31
0.0
  0
LINE
  5
EB
330
1F
100
AcDbEntity
  8
0
  6
HIDDEN
 62
     7
370
     0
100
AcDbLine
 10
153.4427882988
 20
110.6072190838
 30
0.0
 11
152.1437501931
 21
110.3507039763
 31
0.0
  0
LWPOLYLINE
  5
EC
330
1F
100
AcDbEntity
  8
0
  6
HIDDEN
 62
     7
370
     0
100
AcDbPolyline
 90
       26
 70
   128
 43
0.0
 10
163.2577722086
 20
126.3066480875
 10
163.3730233097
 20
126.8854771328
 10
163.6378408371
 20
127.419187933
 10
164.0355853317
 20
127.8742454757
 10
164.5412650441
 20
128.2220568218
 10
165.1231062583
 20
128.4407677053
 10
165.7445497507
 20
128.5166357171
 10
166.3665479415
 20
128.4448937909
 10
166.9500183965
 20
128.2300497358
 10
167.4582995214
 20
127.8856029939
 10
167.8594541437
 20
127.4331964209
 10
168.1282762431
 20
126.9012563855
 10
168.2478747385
 20
126.3232066364
 10
168.2107348165
 20
125.7353681655
 10
168.0191901151
 20
125.1746770256
 10
167.6852760923
 20
124.6763635032
 10
167.2299737941
 20
124.2717384696
 10
166.6818915386
 20
123.9862260037
 10
166.0754673494
 20
123.8377659038
 10
165.4488050887
 20
123.835686464
 10
164.841280251
 20
123.9801183432
 10
164.2910658562
 20
124.2619863551
 10
163.8327338982
 20
124.663579696
 10
163.4950830597
 20
125.1596647793
 10
163.2993291845
 20
125.7190707547
 10
163.2577722086
 20
126.3066480875
  0
LWPOLYLINE
  5
ED
330
1F
100
AcDbEntity
  8
0
  6
HIDDEN
 62
     7
370
     0
100
AcDbPolyline
 90
       22
 70
   128
 43
0.0
 10
164.0064538833
 20
126.0083641973
 10
164.1146354294
 20
126.4878959963
 10
164.3684264259
 20
126.9161594981
 10
164.7452764289
 20
127.2551016112
 10
165.2117006618
 20
127.4746058413
 10
165.7262552848
 20
127.5551682743
 10
166.2432198615
 20
127.4896305846
 10
166.7166598205
 20
127.2838160835
 10
167.1045079439
 20
126.9560122926
 10
167.3723022239
 20
126.5353460172
 10
167.4962479634
 20
126.059195302
 10
167.4653320397
 20
125.5698682277
 10
167.2823014681
 20
125.110843652
 10
166.9634193182
 20
124.722907923
 10
166.5370196685
 20
124.4405308327
 10
166.0409899989
 20
124.2888028246
 10
165.5194047225
 20
124.2812055982
 10
165.01860898
 20
124.4184142003
 10
164.5831006707
 20
124.6882370446
 10
164.2515766193
 20
125.0666991872
 10
164.0534941925
 20
125.5201726058
 10
164.0064538833
 20
126.0083641973
  0
LWPOLYLINE
  5
EE
330
1F
100
AcDbEntity
  8
0
  6
HIDDEN
 62
     7
370
     0
100
AcDbPolyline
 90
       26
 70
   128
 43
0.0
 10
163.2577722086
 20
127.3303414406
 10
163.3730233097
 20
127.9091704859
 10
163.6378408371
 20
128.4428812861
 10
164.0355853317
 20
128.8979388288
 10
164.5412650441
 20
129.2457501749
 10
165.1231062583
 20
129.4644610584
 10
165.7445497507
 20
129.5403290702
 10
166.3665479415
 20
129.468587144
 10
166.9500183965
 20
129.2537430889
 10
167.4582995214
 20
128.909296347
 10
167.8594541437
 20
128.456889774
 10
168.1282762431
 20
127.9249497386
 10
168.2478747385
 20
127.3468999895
 10
168.2107348165
 20
126.7590615186
 10
168.0191901151
 20
126.1983703787
 10
167.6852760923
 20
125.7000568563
 10
167.2299737941
 20
125.2954318227
 10
166.6818915386
 20
125.0099193568
 10
166.0754673494
 20
124.8614592569
 10
165.4488050887
 20
124.8593798171
 10
164.841280251
 20
125.0038116963
 10
164.2910658562
 20
125.2856797082
 10
163.8327338982
 20
125.6872730491
 10
163.4950830597
 20
126.1833581324
 10
163.2993291845
 20
126.7427641078
 10
163.2577722086
 20
127.3303414406
  0
LINE
  5
EF
330
1F
100
AcDbEntity
  8
0
  6
HIDDEN
 62
     7
370
     0
100
AcDbLine
 10
165.1070408635
 20
127.807687096
 30
0.0
 11
164.3125392361
 21
126.6753280508
 31
0.0
  0
LINE
  5
F0
330
1F
100
AcDbEntity
  8
0
  6
HIDDEN
 62
     7
370
     0
100
AcDbLine
 10
165.1070408635
 20
127.807687096
 30
0.0
 11
165.1070408635
 21
128.4917273826
 31
0.0
  0
LINE
  5
F1
330
1F
100
AcDbEntity
  8
0
  6
HIDDEN
 62
     7
370
     0
100
AcDbLine
 10
165.1070408635
 20
127.807687096
 30
0.0
 11
166.5478794182
 21
127.7273030363
 31
0.0
  0
LINE
  5
F2
330
1F
100
AcDbEntity
  8
0
  6
HIDDEN
 62
     7
370
     0
100
AcDbLine
 10
166.5478794182
 20
127.7273030363
 30
0.0
 11
166.5478794182
 21
128.4113433229
 31
0.0
  0
LINE
  5
F3
330
1F
100
AcDbEntity
  8
0
  6
HIDDEN
 62
     7
370
     0
100
AcDbLine
 10
166.5478794182
 20
127.7273030363
 30
0.0
 11
167.1942163454
 21
126.5145599315
 31
0.0
  0
LINE
  5
F4
330
1F
100
AcDbEntity
  8
0
  6
HIDDEN
 62
     7
370
     0
100
AcDbLine
 10
164.9588761633
 20
125.462584946
 30
0.0
 11
164.9588761633
 21
126.1466252327
 31
0.0
  0
LINE
  5
F5
330
1F
100
AcDbEntity
  8
0
  6
HIDDEN
 62
     7
370
     0
100
AcDbLine
 10
164.9588761633
 20
126.1466252327
 30
0.0
 11
164.3125392361
 21
127.3593683375
 31
0.0
  0
LINE
  5
F6
330
1F
100
AcDbEntity
  8
0
  6
HIDDEN
 62
     7
370
     0
100
AcDbLine
 10
164.3125392361
 20
126.6753280508
 30
0.0
 11
164.3125392361
 21
127.3593683375
 31
0.0
  0
LINE
  5
F7
330
1F
100
AcDbEntity
  8
0
  6
HIDDEN
 62
     7
370
     0
100
AcDbLine
 10
164.9588761633
 20
125.462584946
 30
0.0
 11
164.3125392361
 21
126.6753280508
 31
0.0
  0
LINE
  5
F8
330
1F
100
AcDbEntity
  8
0
  6
HIDDEN
 62
     7
370
     0
100
AcDbLine
 10
166.399714718
 20
125.3822008864
 30
0.0
 11
166.399714718
 21
126.066241173
 31
0.0
  0
LINE
  5
F9
330
1F
100
AcDbEntity
  8
0
  6
HIDDEN
 62
     7
370
     0
100
AcDbLine
 10
166.399714718
 20
126.066241173
 30
0.0
 11
167.1942163454
 21
127.1986002181
 31
0.0
  0
LINE
  5
FA
330
1F
100
AcDbEntity
  8
0
  6
HIDDEN
 62
     7
370
     0
100
AcDbLine
 10
167.1942163454
 20
126.5145599315
 30
0.0
 11
167.1942163454
 21
127.1986002181
 31
0.0
  0
LINE
  5
FB
330
1F
100
AcDbEntity
  8
0
  6
HIDDEN
 62
     7
370
     0
100
AcDbLine
 10
166.399714718
 20
125.3822008864
 30
0.0
 11
167.1942163454
 21
126.5145599315
 31
0.0
  0
LINE
  5
FC
330
1F
100
AcDbEntity
  8
0
  6
HIDDEN
 62
     7
370
     0
100
AcDbLine
 10
164.9588761633
 20
126.1466252327
 30
0.0
 11
166.399714718
 21
126.066241173
 31
0.0
  0
LINE
  5
FD
330
1F
100
AcDbEntity
  8
0
  6
HIDDEN
 62
     7
370
     0
100
AcDbLine
 10
164.9588761633
 20
125.462584946
 30
0.0
 11
166.399714718
 21
125.3822008864
 31
0.0
  0
LWPOLYLINE
  5
FE
330
1F
100
AcDbEntity
  8
0
  6
HIDDEN
 62
     7
370
     0
100
AcDbPolyline
 90
       24
 70
   128
 43
0.0
 10
163.7019900022
 20
127.3934307422
 10
163.8109199482
 20
127.9092669691
 10
164.0639131062
 20
128.3783580121
 10
164.442206131
 20
128.7659135345
 10
164.9177427596
 20
129.0431903162
 10
165.4552546158
 20
129.1896240067
 10
166.014876904
 20
129.1943542892
 10
166.5551049992
 20
129.0570303401
 10
167.035872655
 20
128.7878368486
 10
167.4215235338
 20
128.4067386645
 10
167.6834556741
 20
127.9420000966
 10
167.8022427673
 20
127.4280886786
 10
167.7690749181
 20
126.9031188692
 10
167.5864120342
 20
126.4060252778
 10
167.267801386
 20
125.9736750618
 10
166.8368728678
 20
125.6381336591
 10
166.3255864764
 20
125.4242866403
 10
165.7718619844
 20
125.3479940606
 10
165.2167666044
 20
125.4149141916
 10
164.7014692212
 20
125.6200838734
 10
164.2641870845
 20
125.9482866092
 10
163.9373514098
 20
126.3751811035
 10
163.7452021041
 20
126.8691065447
 10
163.7019900022
 20
127.3934307422
  0
LINE
  5
FF
330
1F
100
AcDbEntity
  8
0
  6
HIDDEN
 62
     7
370
     0
100
AcDbLine
 10
166.5478794182
 20
128.4113433229
 30
0.0
 11
167.1942163454
 21
127.1986002181
 31
0.0
  0
LINE
  5
100
330
1F
100
AcDbEntity
  8
0
  6
HIDDEN
 62
     7
370
     0
100
AcDbLine
 10
165.1070408635
 20
128.4917273826
 30
0.0
 11
166.5478794182
 21
128.4113433229
 31
0.0
  0
LINE
  5
101
330
1F
100
AcDbEntity
  8
0
  6
HIDDEN
 62
     7
370
     0
100
AcDbLine
 10
165.1070408635
 20
128.4917273826
 30
0.0
 11
164.3125392361
 21
127.3593683375
 31
0.0
  0
CIRCLE
  5
102
330
1F
100
AcDbEntity
  8
0
  6
HIDDEN
 62
     7
370
     0
100
AcDbCircle
 10
197.1033777908
 20
118.2154504797
 30
0.0
 40
2.499999999999997
  0
SPLINE
  5
103
330
1F
100
AcDbEntity
  8
0
  6
HIDDEN
 62
     7
370
     0
100
AcDbSpline
210
0.0
220
0.0
230
1.0
 70
     8
 71
     3
 72
    17
 73
    13
 74
     0
 42
0.000000001
 43
0.00000001
 40
0.0
 40
0.0
 40
0.0
 40
0.0
 40
0.0000761713254959
 40
0.000096911005636
 40
0.2495239015124056
 40
0.5019879379180217
 40
0.5864061921135888
 40
0.6698668295575636
 40
0.7526588289270318
 40
0.8350782033390178
 40
0.9174249854174269
 40
0.9999999999999999
 40
0.9999999999999999
 40
0.9999999999999999
 40
0.9999999999999999
 10
173.1533777787467
 20
86.71545048682326
 30
0.0
 10
173.1533779979147
 20
86.71545048386668
 30
0.0
 10
173.1533782767571
 20
86.71545048010506
 30
0.0
 10
173.153991954783
 20
86.7154493322166
 30
0.0
 10
173.0498540783492
 20
86.74766600815101
 30
0.0
 10
172.6813670008155
 20
86.85602715580055
 30
0.0
 10
172.3147546396556
 20
86.96085783433844
 30
0.0
 10
172.0652230753045
 20
87.03055053904524
 30
0.0
 10
171.7874372903919
 20
87.1056922479769
 30
0.0
 10
171.4807775133333
 20
87.18535724155822
 30
0.0
 10
171.147590680796
 20
87.26850642299699
 30
0.0
 10
170.902593238635
 20
87.32581890522445
 30
0.0
 10
170.7799249936321
 20
87.35451480322892
 30
0.0
  0
LWPOLYLINE
  5
104
330
1F
100
AcDbEntity
  8
0
  6
HIDDEN
 62
     7
370
     0
100
AcDbPolyline
 90
       24
 70
   128
 43
0.0
 10
151.4019487691
 20
109.2277383872
 10
151.5242479579
 20
108.6695111988
 10
151.7117481847
 20
108.1526851673
 10
151.9505434154
 20
107.7155909151
 10
152.2229233002
 20
107.3906457232
 10
152.5086866689
 20
107.2019492901
 10
152.78663976
 20
107.163496367
 10
153.0361680641
 20
107.2781388312
 10
153.2387652084
 20
107.5373741757
 10
153.3794054896
 20
107.9219761008
 10
153.4476582614
 20
108.4034204412
 10
153.438461528
 20
108.9460006727
 10
153.352497369
 20
109.5094761016
 10
153.1961413528
 20
110.0520563331
 10
152.9809896898
 20
110.5335006735
 10
152.7229991947
 20
110.9181025986
 10
152.4413038422
 20
111.1773379431
 10
152.156795688
 20
111.2919804073
 10
151.8905754004
 20
111.2535274842
 10
151.66238732
 20
111.0648310511
 10
151.4891551131
 20
110.7398858592
 10
151.38372662
 20
110.302791607
 10
151.3539209895
 20
109.7859655755
 10
151.4019487691
 20
109.2277383872
  0
LWPOLYLINE
  5
105
330
1F
100
AcDbEntity
  8
0
  6
HIDDEN
 62
     7
370
     0
100
AcDbPolyline
 90
       21
 70
   128
 43
0.0
 10
151.7583840634
 20
109.2557475463
 10
151.873536057
 20
108.7533803759
 10
152.0544372676
 20
108.3001884043
 10
152.2833798243
 20
107.9405332194
 10
152.5379532345
 20
107.7096203763
 10
152.7932380791
 20
107.6300532332
 10
153.0242452988
 20
107.7096203763
 10
153.2083622974
 20
107.9405332194
 10
153.3275664204
 20
108.3001884043
 10
153.3701891375
 20
108.7533803759
 10
153.3320582403
 20
109.2557475463
 10
153.2169062467
 20
109.7581147167
 10
153.0360050361
 20
110.2113066882
 10
152.8070624794
 20
110.5709618732
 10
152.5524890692
 20
110.8018747162
 10
152.2972042246
 20
110.8814418594
 10
152.0661970049
 20
110.8018747162
 10
151.8820800062
 20
110.5709618732
 10
151.7628758833
 20
110.2113066882
 10
151.7202531662
 20
109.7581147167
 10
151.7583840634
 20
109.2557475463
  0
SPLINE
  5
106
330
1F
100
AcDbEntity
  8
0
  6
HIDDEN
 62
     7
370
     0
100
AcDbSpline
210
0.0
220
0.0
230
1.0
 70
     8
 71
     3
 72
    12
 73
     8
 74
     0
 42
0.000000001
 43
0.00000001
 40
0.0
 40
0.0
 40
0.0
 40
0.0
 40
0.500000000000001
 40
0.500000000000001
 40
0.7500000000000004
 40
0.7500000000000004
 40
1.0
 40
1.0
 40
1.0
 40
1.0
 10
163.7444594034331
 20
111.4368811564682
 30
0.0
 10
163.8175597639084
 20
111.2421461887069
 30
0.0
 10
163.8534635132407
 20
111.034568013678
 30
0.0
 10
163.8535156312909
 20
110.7388063636065
 30
0.0
 10
163.8444788212006
 20
110.6411103710327
 30
0.0
 10
163.8084263480849
 20
110.457242462204
 30
0.0
 10
163.7814787069821
 20
110.369952755597
 30
0.0
 10
163.7444594034331
 20
110.287153639877
 30
0.0
  0
SPLINE
  5
107
330
1F
100
AcDbEntity
  8
0
  6
HIDDEN
 62
     7
370
     0
100
AcDbSpline
210
0.0
220
0.0
230
1.0
 70
     8
 71
     3
 72
    50
 73
    46
 74
     0
 42
0.000000001
 43
0.00000001
 40
0.0
 40
0.0
 40
0.0
 40
0.0
 40
0.0624999999999997
 40
0.0624999999999997
 40
0.1249999999999993
 40
0.1249999999999993
 40
0.187499999999999
 40
0.187499999999999
 40
0.2499999999999987
 40
0.2499999999999987
 40
0.2812499999999989
 40
0.2812499999999989
 40
0.3124999999999992
 40
0.3124999999999992
 40
0.3750000000000001
 40
0.3750000000000001
 40
0.4062500000000006
 40
0.4062500000000006
 40
0.437500000000001
 40
0.437500000000001
 40
0.4687500000000014
 40
0.4687500000000014
 40
0.5000000000000019
 40
0.5000000000000019
 40
0.5312500000000022
 40
0.5312500000000022
 40
0.5625000000000028
 40
0.5625000000000028
 40
0.5937500000000032
 40
0.5937500000000032
 40
0.6250000000000038
 40
0.6250000000000038
 40
0.6875000000000046
 40
0.6875000000000046
 40
0.7187500000000044
 40
0.7187500000000044
 40
0.7500000000000044
 40
0.7500000000000044
 40
0.8125000000000033
 40
0.8125000000000033
 40
0.8750000000000022
 40
0.8750000000000022
 40
0.9375000000000011
 40
0.9375000000000011
 40
1.0
 40
1.0
 40
1.0
 40
1.0
 10
163.7444594034331
 20
110.287153639877
 30
0.0
 10
163.7996456987777
 20
110.1563287739387
 30
0.0
 10
163.8688023270586
 20
110.0704118470516
 30
0.0
 10
164.0163407753649
 20
109.9471143399453
 30
0.0
 10
164.092625696588
 20
109.9130894897736
 30
0.0
 10
164.2374178237494
 20
109.8837370671742
 30
0.0
 10
164.3072728168288
 20
109.8887442576673
 30
0.0
 10
164.4158990905227
 20
109.9393667764666
 30
0.0
 10
164.4558023202247
 20
109.985170179388
 30
0.0
 10
164.453547296722
 20
110.0988815299132
 30
0.0
 10
164.4416558694545
 20
110.1454582650058
 30
0.0
 10
164.3943215804063
 20
110.2534287525508
 30
0.0
 10
164.3587315535723
 20
110.3157798931534
 30
0.0
 10
164.2275278037062
 20
110.5264540950529
 30
0.0
 10
164.113288207851
 20
110.693627606807
 30
0.0
 10
163.9599511980235
 20
110.9683665942354
 30
0.0
 10
163.9105168366753
 20
111.0656623331026
 30
0.0
 10
163.8227515018051
 20
111.2648821446904
 30
0.0
 10
163.7842713777081
 20
111.3667141770781
 30
0.0
 10
163.7204357197747
 20
111.5756576836057
 30
0.0
 10
163.6952820447857
 20
111.6828560296759
 30
0.0
 10
163.6619696525911
 20
111.8931959962087
 30
0.0
 10
163.6533609986371
 20
111.9975700737542
 30
0.0
 10
163.6533946317343
 20
112.2047524839428
 30
0.0
 10
163.6620942389433
 20
112.3044450023056
 30
0.0
 10
163.6955791751768
 20
112.494327745144
 30
0.0
 10
163.7207931235571
 20
112.5857835259232
 30
0.0
 10
163.7847931565473
 20
112.7536262616219
 30
0.0
 10
163.8233603086985
 20
112.8301636670373
 30
0.0
 10
163.9113098700561
 20
112.9684067896475
 30
0.0
 10
163.9607458708118
 20
113.0297619356005
 30
0.0
 10
164.1140266619231
 20
113.1829045210414
 30
0.0
 10
164.2283401658487
 20
113.247710472552
 30
0.0
 10
164.3587867323714
 20
113.268562834198
 30
0.0
 10
164.3948116421639
 20
113.2625935790402
 30
0.0
 10
164.4419399352088
 20
113.2276405092054
 30
0.0
 10
164.4536766409676
 20
113.1981821388554
 30
0.0
 10
164.4555788698038
 20
113.087471198277
 30
0.0
 10
164.4154554763558
 20
112.984131293734
 30
0.0
 10
164.3071831989142
 20
112.7537014787276
 30
0.0
 10
164.2378107230076
 20
112.6235889708138
 30
0.0
 10
164.092305115095
 20
112.336903545495
 30
0.0
 10
164.0164058673839
 20
112.1818741219475
 30
0.0
 10
163.8699791443398
 20
111.8359486298722
 30
0.0
 10
163.7994485626047
 20
111.645895672142
 30
0.0
 10
163.7444594034331
 20
111.4368811564682
 30
0.0
  0
ELLIPSE
  5
108
330
1F
100
AcDbEntity
  8
0
  6
HIDDEN
 62
     7
370
     0
100
AcDbEllipse
 10
165.7533777908
 20
118.2154504797
 30
0.0
 11
-1.720219293006892
 21
1.720219293006892
 31
0.0
210
0.0
220
0.0
230
1.0
 40
0.7002075382
 41
2.181661564992903
 42
5.32325421858271
  0
ELLIPSE
  5
109
330
1F
100
AcDbEntity
  8
0
  6
HIDDEN
 62
     7
370
     0
100
AcDbEllipse
 10
165.7533777908
 20
118.2154504797
 30
0.0
 11
1.720219293006892
 21
1.720219293006892
 31
0.0
210
0.0
220
0.0
230
1.0
 40
0.7002075382
 41
0.9599310885968875
 42
4.101523742186694
  0
LWPOLYLINE
  5
10A
330
1F
100
AcDbEntity
  8
0
  6
HIDDEN
 62
     7
370
     0
100
AcDbPolyline
 90
       22
 70
   128
 43
0.0
 10
163.7444594034
 20
110.2871536399
 10
163.9815949156
 20
109.8027101787
 10
164.3481021237
 20
109.3956150051
 10
164.8172194759
 20
109.095593315
 10
165.3546930531
 20
108.9245520336
 10
165.9212777146
 20
108.8949802198
 10
166.4756026922
 20
109.0090371424
 10
166.9771923931
 20
109.2583946153
 10
167.3894218384
 20
109.6248451034
 10
167.682190939
 20
110.0816311964
 10
167.8341223379
 20
110.5953993767
 10
167.8341223379
 20
111.1286354196
 10
167.682190939
 20
111.6424035999
 10
167.3894218384
 20
112.0991896929
 10
166.9771923931
 20
112.465640181
 10
166.4756026922
 20
112.714997654
 10
165.9212777146
 20
112.8290545766
 10
165.3546930531
 20
112.7994827627
 10
164.8172194759
 20
112.6284414813
 10
164.3481021237
 20
112.3284197912
 10
163.9815949156
 20
111.9213246177
 10
163.7444594034
 20
111.4368811565
  0
CIRCLE
  5
10B
330
1F
100
AcDbEntity
  8
0
  6
HIDDEN
 62
     7
370
     0
100
AcDbCircle
 10
197.1033777908
 20
118.2154504797
 30
0.0
 40
2.25
  0
ELLIPSE
  5
10C
330
1F
100
AcDbEntity
  8
0
  6
HIDDEN
 62
     7
370
     0
100
AcDbEllipse
 10
151.490636091
 20
94.1154504797
 30
0.0
 11
0.0
 21
1.599999999999994
 31
0.0
210
0.0
220
0.0
230
1.0
 40
0.4142135624
 41
4.712388980384695
 42
6.283185307179586
  0
LINE
  5
10D
330
1F
100
AcDbEntity
  8
0
  6
HIDDEN
 62
     7
370
     0
100
AcDbLine
 10
151.490636091
 20
95.7154504797
 30
0.0
 11
151.1533777908
 21
95.7154504797
 31
0.0
  0
LINE
  5
10E
330
1F
100
AcDbEntity
  8
0
  6
HIDDEN
 62
     7
370
     0
100
AcDbLine
 10
151.1533777908
 20
140.7154504797
 30
0.0
 11
151.490636091
 21
140.7154504797
 31
0.0
  0
ELLIPSE
  5
10F
330
1F
100
AcDbEntity
  8
0
  6
HIDDEN
 62
     7
370
     0
100
AcDbEllipse
 10
151.490636091
 20
142.3154504797
 30
0.0
 11
0.0
 21
1.600000000000023
 31
0.0
210
0.0
220
0.0
230
1.0
 40
0.4142135624
 41
3.141592653589793
 42
4.712388980384695
  0
LINE
  5
110
330
1F
100
AcDbEntity
  8
0
  6
HIDDEN
 62
     7
370
     0
100
AcDbLine
 10
152.1533777908
 20
88.7614277569
 30
0.0
 11
151.5404106137
 21
88.1484605799
 31
0.0
  0
LINE
  5
111
330
1F
100
AcDbEntity
  8
0
  6
HIDDEN
 62
     7
370
     0
100
AcDbLine
 10
151.5404106137
 20
148.2824403795
 30
0.0
 11
152.1533777908
 21
147.6694732025
 31
0.0
  0
LINE
  5
112
330
1F
100
AcDbEntity
  8
0
  6
HIDDEN
 62
     7
370
     0
100
AcDbLine
 10
90.7533777908
 20
109.7154504797
 30
0.0
 11
90.7533777908
 21
126.7154504797
 31
0.0
  0
LINE
  5
113
330
1F
100
AcDbEntity
  8
0
  6
HIDDEN
 62
     7
370
     0
100
AcDbLine
 10
93.7493070051
 20
111.2154504797
 30
0.0
 11
93.7493070051
 21
125.2154504797
 31
0.0
  0
LINE
  5
114
330
1F
100
AcDbEntity
  8
0
  6
HIDDEN
 62
     7
370
     0
100
AcDbLine
 10
152.1533777908
 20
147.6694732025
 30
0.0
 11
161.2859393343
 21
147.6694732025
 31
0.0
  0
LINE
  5
115
330
1F
100
AcDbEntity
  8
0
  6
HIDDEN
 62
     7
370
     0
100
AcDbLine
 10
152.1533777908
 20
147.6694732025
 30
0.0
 11
152.1533777908
 21
142.3154504797
 31
0.0
  0
LINE
  5
116
330
1F
100
AcDbEntity
  8
0
  6
HIDDEN
 62
     7
370
     0
100
AcDbLine
 10
161.2859393343
 20
88.7614277569
 30
0.0
 11
152.1533777908
 21
88.7614277569
 31
0.0
  0
LINE
  5
117
330
1F
100
AcDbEntity
  8
0
  6
HIDDEN
 62
     7
370
     0
100
AcDbLine
 10
152.1533777908
 20
88.7614277569
 30
0.0
 11
152.1533777908
 21
94.1154504797
 31
0.0
  0
LINE
  5
118
330
1F
100
AcDbEntity
  8
0
  6
HIDDEN
 62
     7
370
     0
100
AcDbLine
 10
164.1033777908
 20
95.7154504797
 30
0.0
 11
151.490636091
 21
95.7154504797
 31
0.0
  0
LINE
  5
119
330
1F
100
AcDbEntity
  8
0
  6
HIDDEN
 62
     7
370
     0
100
AcDbLine
 10
151.490636091
 20
140.7154504797
 30
0.0
 11
164.1033777908
 21
140.7154504797
 31
0.0
  0
LINE
  5
11A
330
1F
100
AcDbEntity
  8
0
  6
HIDDEN
 62
     7
370
     0
100
AcDbLine
 10
164.1033777908
 20
140.7154504797
 30
0.0
 11
170.5533777908
 21
140.7154504797
 31
0.0
  0
LINE
  5
11B
330
1F
100
AcDbEntity
  8
0
  6
HIDDEN
 62
     7
370
     0
100
AcDbLine
 10
170.5533777908
 20
95.7154504797
 30
0.0
 11
164.1033777908
 21
95.7154504797
 31
0.0
  0
SPLINE
  5
11C
330
1F
100
AcDbEntity
  8
0
  6
HIDDEN
 62
     7
370
     0
100
AcDbSpline
210
0.0
220
0.0
230
1.0
 70
     8
 71
     3
 72
    13
 73
     9
 74
     0
 42
0.000000001
 43
0.00000001
 40
0.0
 40
0.0
 40
0.0
 40
0.0
 40
0.185045465315833
 40
0.3520092965873052
 40
0.5010298177386137
 40
0.6766227814616118
 40
0.843096261484258
 40
0.9999999999999999
 40
0.9999999999999999
 40
0.9999999999999999
 40
0.9999999999999999
 10
170.1296414213669
 20
148.1203112553856
 30
0.0
 10
170.3564315369886
 20
148.1791479269257
 30
0.0
 10
170.7878510745422
 20
148.2910720712275
 30
0.0
 10
171.275306545493
 20
148.4313381428559
 30
0.0
 10
171.6644157220384
 20
148.5506329021117
 30
0.0
 10
171.9453156424635
 20
148.6413007117368
 30
0.0
 10
172.1222004175262
 20
148.7032164720868
 30
0.0
 10
172.1430627973488
 20
148.7114057282429
 30
0.0
 10
172.1531852957835
 20
148.7153791834923
 30
0.0
  0
LINE
  5
11D
330
1F
100
AcDbEntity
  8
0
  6
HIDDEN
 62
     7
370
     0
100
AcDbLine
 10
170.8798719647
 20
148.3200243347
 30
0.0
 11
170.1296194033
 21
148.1204986816
 31
0.0
  0
LINE
  5
11E
330
1F
100
AcDbEntity
  8
0
  6
HIDDEN
 62
     7
370
     0
100
AcDbLine
 10
170.129619557
 20
88.3104025863
 30
0.0
 11
170.2235622865
 21
88.2854189149
 31
0.0
  0
SPLINE
  5
11F
330
1F
100
AcDbEntity
  8
0
  6
HIDDEN
 62
     7
370
     0
100
AcDbSpline
210
0.0
220
0.0
230
1.0
 70
     8
 71
     3
 72
    13
 73
     9
 74
     0
 42
0.000000001
 43
0.00000001
 40
0.0
 40
0.0
 40
0.0
 40
0.0
 40
0.0000730266253414
 40
0.1576811714088974
 40
0.3241446478178098
 40
0.4996852929261399
 40
0.7294244053301453
 40
1.0
 40
1.0
 40
1.0
 40
1.0
 10
172.1533564837023
 20
87.71545878072634
 30
0.0
 10
172.15336358541
 20
87.71545587059141
 30
0.0
 10
172.1686977953134
 20
87.70917222431194
 30
0.0
 10
172.1092367232161
 20
87.73288391736091
 30
0.0
 10
171.9484863211132
 20
87.78835884791796
 30
0.0
 10
171.6138016848534
 20
87.89630591590128
 30
0.0
 10
171.0559274263173
 20
88.06757813358428
 30
0.0
 10
170.4547610207768
 20
88.22530856157097
 30
0.0
 10
170.1296437388444
 20
88.31061087978512
 30
0.0
  0
LINE
  5
120
330
1F
100
AcDbEntity
  8
0
  6
HIDDEN
 62
     7
370
     0
100
AcDbLine
 10
126.7533777908
 20
111.2154504797
 30
0.0
 11
126.7533777908
 21
125.2154504797
 31
0.0
  0
LINE
  5
121
330
1F
100
AcDbEntity
  8
0
  6
HIDDEN
 62
     7
370
     0
100
AcDbLine
 10
129.697594824
 20
120.3154504797
 30
0.0
 11
129.697594824
 21
116.1154504797
 31
0.0
  0
SPLINE
  5
122
330
1F
100
AcDbEntity
  8
0
  6
HIDDEN
 62
     7
370
     0
100
AcDbSpline
210
0.0
220
0.0
230
1.0
 70
     8
 71
     3
 72
     9
 73
     5
 74
     0
 42
0.000000001
 43
0.00000001
 40
0.0
 40
0.0
 40
0.0
 40
0.0
 40
0.493237740338934
 40
1.0
 40
1.0
 40
1.0
 40
1.0
 10
170.1304373294519
 20
148.1202819908468
 30
0.0
 10
170.2362856706132
 20
148.277304051623
 30
0.0
 10
170.4508847016778
 20
148.5956536991344
 30
0.0
 10
170.6687443446396
 20
148.9154792479106
 30
0.0
 10
170.7791473895959
 20
149.0775547657056
 30
0.0
  0
SPLINE
  5
123
330
1F
100
AcDbEntity
  8
0
  6
HIDDEN
 62
     7
370
     0
100
AcDbSpline
210
0.0
220
0.0
230
1.0
 70
     8
 71
     3
 72
     9
 73
     5
 74
     0
 42
0.000000001
 43
0.00000001
 40
0.0
 40
0.0
 40
0.0
 40
0.0
 40
0.5067649320089164
 40
1.0
 40
1.0
 40
1.0
 40
1.0
 10
170.7791510748819
 20
87.35336032919737
 30
0.0
 10
170.6687466351101
 20
87.51543706471581
 30
0.0
 10
170.4508853886064
 20
87.83526332987576
 30
0.0
 10
170.2362854269008
 20
88.15361241140066
 30
0.0
 10
170.1304372001981
 20
88.3106333422715
 30
0.0
  0
LINE
  5
124
330
1F
100
AcDbEntity
  8
0
  6
HIDDEN
 62
     7
370
     0
100
AcDbLine
 10
189.6533777908
 20
113.0154504797
 30
0.0
 11
189.6533777908
 21
123.4154502498
 31
0.0
  0
LINE
  5
125
330
1F
100
AcDbEntity
  8
0
  6
HIDDEN
 62
     7
370
     0
100
AcDbLine
 10
193.0194031945
 20
112.7154504797
 30
0.0
 11
193.0194031945
 21
123.7154504797
 31
0.0
  0
ELLIPSE
  5
126
330
1F
100
AcDbEntity
  8
0
  6
HIDDEN
 62
     7
370
     0
100
AcDbEllipse
 10
165.7533777908
 20
118.2154504797
 30
0.0
 11
-1.720219293006892
 21
1.720219293006892
 31
0.0
210
0.0
220
0.0
230
1.0
 40
0.7002075382
 41
5.323254218582723
 42
8.464846872172501
  0
ELLIPSE
  5
127
330
1F
100
AcDbEntity
  8
0
  6
HIDDEN
 62
     7
370
     0
100
AcDbEllipse
 10
165.7533777908
 20
118.2154504797
 30
0.0
 11
1.720219293006892
 21
1.720219293006892
 31
0.0
210
0.0
220
0.0
230
1.0
 40
0.7002075382
 41
4.101523742186686
 42
7.243116395776465
  0
SPLINE
  5
128
330
1F
100
AcDbEntity
  8
0
  6
HIDDEN
 62
     7
370
     0
100
AcDbSpline
210
0.0
220
0.0
230
1.0
 70
    11
 71
     3
 72
    56
 73
    52
 74
     0
 42
0.000000001
 43
0.00000001
 40
0.0
 40
0.0
 40
0.0
 40
0.0
 40
0.0312500000000001
 40
0.0312500000000001
 40
0.0625000000000003
 40
0.0625000000000003
 40
0.1250000000000001
 40
0.1250000000000001
 40
0.15625
 40
0.15625
 40
0.1875
 40
0.1875
 40
0.21875
 40
0.21875
 40
0.25
 40
0.25
 40
0.3124999999999999
 40
0.3124999999999999
 40
0.3437500000000002
 40
0.3437500000000002
 40
0.3750000000000004
 40
0.3750000000000004
 40
0.4375000000000013
 40
0.4375000000000013
 40
0.4687500000000016
 40
0.4687500000000016
 40
0.500000000000002
 40
0.500000000000002
 40
0.5312500000000024
 40
0.5312500000000024
 40
0.562500000000003
 40
0.562500000000003
 40
0.6250000000000031
 40
0.6250000000000031
 40
0.6875000000000033
 40
0.6875000000000033
 40
0.7500000000000036
 40
0.7500000000000036
 40
0.7812500000000031
 40
0.7812500000000031
 40
0.8125000000000027
 40
0.8125000000000027
 40
0.8437500000000022
 40
0.8437500000000022
 40
0.8750000000000019
 40
0.8750000000000019
 40
0.9062500000000014
 40
0.9062500000000014
 40
0.937500000000001
 40
0.937500000000001
 40
1.0
 40
1.0
 40
1.0
 40
1.0
 10
163.7128017899172
 20
123.8823305686508
 30
0.0
 10
163.7414733065142
 20
123.780516503778
 30
0.0
 10
163.779243226098
 20
123.6881135861283
 30
0.0
 10
163.8695413628677
 20
123.5213355014327
 30
0.0
 10
163.922817059041
 20
123.4464658123097
 30
0.0
 10
164.0917481358152
 20
123.2603451477947
 30
0.0
 10
164.2229348517995
 20
123.1823286502113
 30
0.0
 10
164.368220371803
 20
123.1617540996566
 30
0.0
 10
164.4063613046046
 20
123.1713023195893
 30
0.0
 10
164.4511378377688
 20
123.2186585487694
 30
0.0
 10
164.4580325758087
 20
123.2567593110295
 30
0.0
 10
164.4467840301948
 20
123.3488797889936
 30
0.0
 10
164.4291231849901
 20
123.4039352311329
 30
0.0
 10
164.3803991792282
 20
123.5235419893123
 30
0.0
 10
164.3494601808367
 20
123.588219858415
 30
0.0
 10
164.245804645518
 20
123.7955812408385
 30
0.0
 10
164.1619993088559
 20
123.9523689960614
 30
0.0
 10
164.0365490444036
 20
124.2115142587143
 30
0.0
 10
163.994455864356
 20
124.3022666332641
 30
0.0
 10
163.9117148730432
 20
124.4952678553022
 30
0.0
 10
163.8708846396355
 20
124.5980488178306
 30
0.0
 10
163.7580348834754
 20
124.9202899310105
 30
0.0
 10
163.6933447001114
 20
125.1592364697217
 30
0.0
 10
163.6528750223735
 20
125.5280035746989
 30
0.0
 10
163.6498332261835
 20
125.6477629853439
 30
0.0
 10
163.6656363827609
 20
125.8668612465531
 30
0.0
 10
163.6843794803057
 20
125.9651902548769
 30
0.0
 10
163.7356533836992
 20
126.1320653020835
 30
0.0
 10
163.7681779297315
 20
126.2019399481796
 30
0.0
 10
163.8403310781735
 20
126.3185490084722
 30
0.0
 10
163.8794362549262
 20
126.3647696482453
 30
0.0
 10
164.0014339933726
 20
126.4775884657333
 30
0.0
 10
164.0889658061024
 20
126.518041755093
 30
0.0
 10
164.2510823590549
 20
126.5488998745154
 30
0.0
 10
164.3286400163435
 20
126.539996688947
 30
0.0
 10
164.4397848394475
 20
126.4689206405088
 30
0.0
 10
164.4725178257895
 20
126.4066817217986
 30
0.0
 10
164.4288894434693
 20
126.2487804385257
 30
0.0
 10
164.3985741824733
 20
126.1855250356554
 30
0.0
 10
164.3137171988362
 20
126.0402109697957
 30
0.0
 10
164.2588681245732
 20
125.9568390540365
 30
0.0
 10
164.1440294391608
 20
125.7782458965459
 30
0.0
 10
164.0826100099813
 20
125.6804991481285
 30
0.0
 10
163.9664020230943
 20
125.475520849029
 30
0.0
 10
163.9108879581258
 20
125.3672389137155
 30
0.0
 10
163.8126839827805
 20
125.1418890095871
 30
0.0
 10
163.7707935645344
 20
125.026983054126
 30
0.0
 10
163.7042868842297
 20
124.7917156510929
 30
0.0
 10
163.6798433893023
 20
124.6707183165972
 30
0.0
 10
163.6393534635069
 20
124.3175168844208
 30
0.0
 10
163.6554587567233
 20
124.0859586983965
 30
0.0
 10
163.7128017899172
 20
123.8823305686508
 30
0.0
  0
SPLINE
  5
129
330
1F
100
AcDbEntity
  8
0
  6
HIDDEN
 62
     7
370
     0
100
AcDbSpline
210
0.0
220
0.0
230
1.0
 70
     8
 71
     3
 72
    22
 73
    18
 74
     0
 42
0.000000001
 43
0.00000001
 40
0.0
 40
0.0
 40
0.0
 40
0.0
 40
0.125
 40
0.125
 40
0.25
 40
0.25
 40
0.375
 40
0.375
 40
0.5
 40
0.5
 40
0.625
 40
0.625
 40
0.75
 40
0.75
 40
0.875
 40
0.875
 40
1.0
 40
1.0
 40
1.0
 40
1.0
 10
167.4297462294546
 20
126.0801054553297
 30
0.0
 10
167.3314680058992
 20
125.9555767353975
 30
0.0
 10
167.220145238592
 20
125.8439735959652
 30
0.0
 10
166.9723366302272
 20
125.6459897527769
 30
0.0
 10
166.8343851046771
 20
125.5593352305881
 30
0.0
 10
166.5461241430931
 20
125.4208116553651
 30
0.0
 10
166.3936806241809
 20
125.3673679040886
 30
0.0
 10
166.0767688859052
 20
125.2951877539434
 30
0.0
 10
165.9167803817967
 20
125.27726971455
 30
0.0
 10
165.5938102751748
 20
125.2769845730525
 30
0.0
 10
165.430247791522
 20
125.2952828829208
 30
0.0
 10
165.1167495603821
 20
125.3663783051116
 30
0.0
 10
164.9632475941533
 20
125.4196888573756
 30
0.0
 10
164.672644896279
 20
125.5590702954001
 30
0.0
 10
164.5378246528653
 20
125.6436241925079
 30
0.0
 10
164.2888765762359
 20
125.8418156404141
 30
0.0
 10
164.1752873430669
 20
125.9555770300535
 30
0.0
 10
164.0770093520543
 20
126.0801054553298
 30
0.0
  0
SPLINE
  5
12A
330
1F
100
AcDbEntity
  8
0
  6
HIDDEN
 62
     7
370
     0
100
AcDbSpline
210
0.0
220
0.0
230
1.0
 70
     8
 71
     3
 72
    18
 73
    14
 74
     0
 42
0.000000001
 43
0.00000001
 40
0.0
 40
0.0
 40
0.0
 40
0.0
 40
0.2499999999999984
 40
0.2499999999999984
 40
0.3749999999999984
 40
0.3749999999999984
 40
0.4999999999999986
 40
0.4999999999999986
 40
0.6249999999999987
 40
0.6249999999999987
 40
0.7499999999999987
 40
0.7499999999999987
 40
1.0
 40
1.0
 40
1.0
 40
1.0
 10
167.4297462294546
 20
128.4572037799086
 30
0.0
 10
167.568316578185
 20
128.2876237856728
 30
0.0
 10
167.6728019977356
 20
128.1140125775309
 30
0.0
 10
167.7803582308735
 20
127.8309813151274
 30
0.0
 10
167.8073682048456
 20
127.7343082800346
 30
0.0
 10
167.8439091669581
 20
127.5332398528631
 30
0.0
 10
167.8533849874703
 20
127.4274959557766
 30
0.0
 10
167.8533705856595
 20
127.2132464634973
 30
0.0
 10
167.8441484726377
 20
127.105218465087
 30
0.0
 10
167.8079037266062
 20
126.8882255755555
 30
0.0
 10
167.7805294353274
 20
126.7783759578205
 30
0.0
 10
167.6732693134294
 20
126.4587921679046
 30
0.0
 10
167.5680787912902
 20
126.2553871833369
 30
0.0
 10
167.4297462294549
 20
126.0801054553295
 30
0.0
  0
SPLINE
  5
12B
330
1F
100
AcDbEntity
  8
0
  6
HIDDEN
 62
     7
370
     0
100
AcDbSpline
210
0.0
220
0.0
230
1.0
 70
     8
 71
     3
 72
    22
 73
    18
 74
     0
 42
0.000000001
 43
0.00000001
 40
0.0
 40
0.0
 40
0.0
 40
0.0
 40
0.1249999999999982
 40
0.1249999999999982
 40
0.2499999999999963
 40
0.2499999999999963
 40
0.3749999999999969
 40
0.3749999999999969
 40
0.4999999999999976
 40
0.4999999999999976
 40
0.6249999999999981
 40
0.6249999999999981
 40
0.7499999999999988
 40
0.7499999999999988
 40
0.8749999999999993
 40
0.8749999999999993
 40
1.0
 40
1.0
 40
1.0
 40
1.0
 10
164.0770093520543
 20
128.4572037799086
 30
0.0
 10
164.1752875756097
 20
128.5774749687793
 30
0.0
 10
164.2866103429169
 20
128.6846231771753
 30
0.0
 10
164.5344189512817
 20
128.8740012155959
 30
0.0
 10
164.6723704768318
 20
128.9564813691534
 30
0.0
 10
164.9606314384158
 20
129.0880162004648
 30
0.0
 10
165.113074957328
 20
129.13857620625
 30
0.0
 10
165.4299866956037
 20
129.2068028816497
 30
0.0
 10
165.5899751997121
 20
129.2236999532754
 30
0.0
 10
165.9129453063341
 20
129.2239690582579
 30
0.0
 10
166.0765077899869
 20
129.2067125289573
 30
0.0
 10
166.3900060211268
 20
129.1395120313112
 30
0.0
 10
166.5435079873556
 20
129.089081025679
 30
0.0
 10
166.8341106852299
 20
128.9567342505439
 30
0.0
 10
166.9689309286436
 20
128.8762577132093
 30
0.0
 10
167.2178790052729
 20
128.6866934300025
 30
0.0
 10
167.3314682384421
 20
128.5774746841973
 30
0.0
 10
167.4297462294546
 20
128.4572037799086
 30
0.0
  0
SPLINE
  5
12C
330
1F
100
AcDbEntity
  8
0
  6
HIDDEN
 62
     7
370
     0
100
AcDbSpline
210
0.0
220
0.0
230
1.0
 70
     8
 71
     3
 72
    18
 73
    14
 74
     0
 42
0.000000001
 43
0.00000001
 40
0.0
 40
0.0
 40
0.0
 40
0.0
 40
0.2499999999999977
 40
0.2499999999999977
 40
0.3749999999999977
 40
0.3749999999999977
 40
0.4999999999999978
 40
0.4999999999999978
 40
0.6249999999999978
 40
0.6249999999999978
 40
0.7499999999999979
 40
0.7499999999999979
 40
1.0
 40
1.0
 40
1.0
 40
1.0
 10
164.0770093520543
 20
126.0801054553298
 30
0.0
 10
163.9384390033239
 20
126.2556884840383
 30
0.0
 10
163.8339535837733
 20
126.4576814996692
 30
0.0
 10
163.7263973506354
 20
126.7777257904671
 30
0.0
 10
163.6993873766633
 20
126.8857850663123
 30
0.0
 10
163.6628464145508
 20
127.1030362954289
 30
0.0
 10
163.6533705940386
 20
127.2134992286169
 30
0.0
 10
163.6533849958494
 20
127.4277417940597
 30
0.0
 10
163.6626071088712
 20
127.5311730808511
 30
0.0
 10
163.6988518549027
 20
127.7320957181343
 30
0.0
 10
163.7262261461815
 20
127.8304009609935
 30
0.0
 10
163.8334862680795
 20
128.1130410540626
 30
0.0
 10
163.9386767902187
 20
128.2879147851592
 30
0.0
 10
164.077009352054
 20
128.4572037799086
 30
0.0
  0
LWPOLYLINE
  5
12D
330
1F
100
AcDbEntity
  8
0
  6
HIDDEN
 62
     7
370
     0
100
AcDbPolyline
 90
       21
 70
   128
 43
0.0
 10
151.7583840634
 20
126.2429147076
 10
151.873536057
 20
125.8769787592
 10
152.0544372676
 20
125.6381171908
 10
152.2833798243
 20
125.549711437
 10
152.5379532345
 20
125.6204152689
 10
152.7932380791
 20
125.8433077029
 10
153.0242452988
 20
126.1965704746
 10
153.2083622974
 20
126.6456237624
 10
153.3275664204
 20
127.1465111019
 10
153.3701891375
 20
127.6502021503
 10
153.3320582403
 20
128.1073921185
 10
153.2169062467
 20
128.473328067
 10
153.0360050361
 20
128.7121896353
 10
152.8070624794
 20
128.8005953891
 10
152.5524890692
 20
128.7298915572
 10
152.2972042246
 20
128.5069991232
 10
152.0661970049
 20
128.1537363516
 10
151.8820800062
 20
127.7046830638
 10
151.7628758833
 20
127.2037957243
 10
151.7202531662
 20
126.7001046758
 10
151.7583840634
 20
126.2429147076
  0
LWPOLYLINE
  5
12E
330
1F
100
AcDbEntity
  8
0
  6
HIDDEN
 62
     7
370
     0
100
AcDbPolyline
 90
       24
 70
   128
 43
0.0
 10
151.4019487691
 20
126.0166769471
 10
151.5242479579
 20
125.6033489242
 10
151.7117481847
 20
125.308671761
 10
151.9505434154
 20
125.1545003145
 10
152.2229233002
 20
125.1522687757
 10
152.5086866689
 20
125.3021426475
 10
152.78663976
 20
125.5930064706
 10
153.0361680641
 20
126.0032882057
 10
153.2387652084
 20
126.5025591336
 10
153.3794054896
 20
127.0537906134
 10
153.4476582614
 20
127.6161003281
 10
153.438461528
 20
128.1477843385
 10
153.352497369
 20
128.6094100739
 10
153.1961413528
 20
128.9667408652
 10
152.9809896898
 20
129.1932751223
 10
152.7229991947
 20
129.2722118358
 10
152.4413038422
 20
129.1976966307
 10
152.156795688
 20
128.9752559588
 10
151.8905754004
 20
128.6213872272
 10
151.66238732
 20
128.1623352609
 10
151.4891551131
 20
127.6321458443
 10
151.38372662
 20
127.0701407007
 10
151.3539209895
 20
126.5180011809
 10
151.4019487691
 20
126.0166769471
  0
LINE
  5
12F
330
1F
100
AcDbEntity
  8
0
  6
HIDDEN
 62
     7
370
     0
100
AcDbLine
 10
154.5146065663
 20
125.0604036415
 30
0.0
 11
155.1031237628
 21
125.5913909388
 31
0.0
  0
LINE
  5
130
330
1F
100
AcDbEntity
  8
0
  6
HIDDEN
 62
     7
370
     0
100
AcDbLine
 10
155.5131345204
 20
127.667758304
 30
0.0
 11
155.1706237785
 21
128.3825914259
 31
0.0
  0
LINE
  5
131
330
1F
100
AcDbEntity
  8
0
  6
HIDDEN
 62
     7
370
     0
100
AcDbLine
 10
152.2109285383
 20
125.2025449229
 30
0.0
 11
153.9644856969
 21
124.8562780189
 31
0.0
  0
LINE
  5
132
330
1F
100
AcDbEntity
  8
0
  6
HIDDEN
 62
     7
370
     0
100
AcDbLine
 10
154.7393842017
 20
128.780501803
 30
0.0
 11
152.9858270432
 21
129.126768707
 31
0.0
  0
LINE
  5
133
330
1F
100
AcDbEntity
  8
0
  6
HIDDEN
 62
     7
370
     0
100
AcDbLine
 10
151.8986116371
 20
128.0926981209
 30
0.0
 11
151.8400660371
 21
127.9502358235
 31
0.0
  0
LINE
  5
134
330
1F
100
AcDbEntity
  8
0
  6
HIDDEN
 62
     7
370
     0
100
AcDbLine
 10
151.5983777908
 20
126.7262835785
 30
0.0
 11
151.5983777908
 21
126.5722605495
 31
0.0
  0
LINE
  5
135
330
1F
100
AcDbEntity
  8
0
  6
HIDDEN
 62
     7
370
     0
100
AcDbLine
 10
151.5983777908
 20
109.8586404099
 30
0.0
 11
151.5983777908
 21
109.7046173808
 31
0.0
  0
LINE
  5
136
330
1F
100
AcDbEntity
  8
0
  6
HIDDEN
 62
     7
370
     0
100
AcDbLine
 10
151.8400660371
 20
108.4806651359
 30
0.0
 11
151.8986116371
 21
108.3382028384
 31
0.0
  0
LINE
  5
137
330
1F
100
AcDbEntity
  8
0
  6
HIDDEN
 62
     7
370
     0
100
AcDbLine
 10
152.9858270432
 20
107.3041322524
 30
0.0
 11
154.7393842017
 21
107.6503991564
 31
0.0
  0
LINE
  5
138
330
1F
100
AcDbEntity
  8
0
  6
HIDDEN
 62
     7
370
     0
100
AcDbLine
 10
153.9644856969
 20
111.5746229404
 30
0.0
 11
152.2109285383
 21
111.2283560364
 31
0.0
  0
LINE
  5
139
330
1F
100
AcDbEntity
  8
0
  6
HIDDEN
 62
     7
370
     0
100
AcDbLine
 10
155.1706237785
 20
108.0483095335
 30
0.0
 11
155.5131345204
 21
108.7631426553
 31
0.0
  0
LINE
  5
13A
330
1F
100
AcDbEntity
  8
0
  6
HIDDEN
 62
     7
370
     0
100
AcDbLine
 10
155.1031237628
 20
110.8395100205
 30
0.0
 11
154.5146065663
 21
111.3704973178
 31
0.0
  0
LINE
  5
13B
330
1F
100
AcDbEntity
  8
0
  6
HIDDEN
 62
     7
370
     0
100
AcDbLine
 10
163.2533777908
 20
127.1911121651
 30
0.0
 11
163.2533777908
 21
126.167418812
 31
0.0
  0
LINE
  5
13C
330
1F
100
AcDbEntity
  8
0
  6
HIDDEN
 62
     7
370
     0
100
AcDbLine
 10
168.2533777908
 20
126.167418812
 30
0.0
 11
168.2533777908
 21
127.1911121651
 31
0.0
  0
LINE
  5
13D
330
1F
100
AcDbEntity
  8
0
  6
HIDDEN
 62
     7
370
     0
100
AcDbLine
 10
151.1533777908
 20
106.8403559017
 30
0.0
 11
152.8101995058
 21
107.1675209005
 31
0.0
  0
LINE
  5
13E
330
1F
100
AcDbEntity
  8
0
  6
HIDDEN
 62
     7
370
     0
100
AcDbLine
 10
151.9965560757
 20
111.2879558738
 30
0.0
 11
151.1533777908
 21
111.1214573181
 31
0.0
  0
LINE
  5
13F
330
1F
100
AcDbEntity
  8
0
  6
HIDDEN
 62
     7
370
     0
100
AcDbLine
 10
152.8648667851
 20
107.6370052354
 30
0.0
 11
164.3026501356
 21
109.8955719493
 31
0.0
  0
LINE
  5
140
330
1F
100
AcDbEntity
  8
0
  6
HIDDEN
 62
     7
370
     0
100
AcDbLine
 10
164.297634517
 20
113.2583040795
 30
0.0
 11
152.2255755186
 21
110.8744898572
 31
0.0
  0
LINE
  5
141
330
1F
100
AcDbEntity
  8
0
  6
HIDDEN
 62
     7
370
     0
100
AcDbLine
 10
167.8533777908
 20
110.8620173982
 30
0.0
 11
167.8533777908
 21
117.4972081787
 31
0.0
  0
LINE
  5
142
330
1F
100
AcDbEntity
  8
0
  6
HIDDEN
 62
     7
370
     0
100
AcDbLine
 10
163.6533777908
 20
117.4972081787
 30
0.0
 11
163.6533777908
 21
112.1002147117
 31
0.0
  0
ARC
  5
143
330
1F
100
AcDbEntity
  8
0
  6
HIDDEN
 62
     7
370
     0
100
AcDbCircle
 10
84.5533777908
 20
108.9154504797
 30
0.0
 40
0.7999999999999972
100
AcDbArc
 50
90.0
 51
180.0
  0
ARC
  5
144
330
1F
100
AcDbEntity
  8
0
  6
HIDDEN
 62
     7
370
     0
100
AcDbCircle
 10
84.5533777908
 20
127.5154504797
 30
0.0
 40
0.7999999999999972
100
AcDbArc
 50
180.0
 51
270.0
  0
ARC
  5
145
330
1F
100
AcDbEntity
  8
0
  6
HIDDEN
 62
     7
370
     0
100
AcDbCircle
 10
92.5224376831
 20
109.8904504797
 30
0.0
 40
0.4000000000000057
100
AcDbArc
 50
270.0
 51
330.0
  0
ARC
  5
146
330
1F
100
AcDbEntity
  8
0
  6
HIDDEN
 62
     7
370
     0
100
AcDbCircle
 10
92.5224376831
 20
126.5404504797
 30
0.0
 40
0.4000000000000199
100
AcDbArc
 50
30.0
 51
90.0
  0
ARC
  5
147
330
1F
100
AcDbEntity
  8
0
  6
HIDDEN
 62
     7
370
     0
100
AcDbCircle
 10
91.6457502215
 20
109.8904504797
 30
0.0
 40
0.4000000000000057
100
AcDbArc
 50
255.0
 51
270.0
  0
ARC
  5
148
330
1F
100
AcDbEntity
  8
0
  6
HIDDEN
 62
     7
370
     0
100
AcDbCircle
 10
91.6457502215
 20
126.5404504797
 30
0.0
 40
0.4000000000000199
100
AcDbArc
 50
90.0
 51
105.0
  0
LINE
  5
149
330
1F
100
AcDbEntity
  8
0
  6
HIDDEN
 62
     7
370
     0
100
AcDbLine
 10
91.6457502215
 20
109.4904504797
 30
0.0
 11
92.5224376831
 21
109.4904504797
 31
0.0
  0
LINE
  5
14A
330
1F
100
AcDbEntity
  8
0
  6
HIDDEN
 62
     7
370
     0
100
AcDbLine
 10
92.5224376831
 20
126.9404504797
 30
0.0
 11
91.6457502215
 21
126.9404504797
 31
0.0
  0
LINE
  5
14B
330
1F
100
AcDbEntity
  8
0
  6
HIDDEN
 62
     7
370
     0
100
AcDbLine
 10
91.5422226035
 20
126.9268208102
 30
0.0
 11
90.7533777908
 21
126.7154504797
 31
0.0
  0
LINE
  5
14C
330
1F
100
AcDbEntity
  8
0
  6
HIDDEN
 62
     7
370
     0
100
AcDbLine
 10
90.7533777908
 20
109.7154504797
 30
0.0
 11
91.5422226035
 21
109.5040801492
 31
0.0
  0
LINE
  5
14D
330
1F
100
AcDbEntity
  8
0
  6
HIDDEN
 62
     7
370
     0
100
AcDbLine
 10
92.8688478446
 20
109.6904504797
 30
0.0
 11
93.7493070051
 21
111.2154504797
 31
0.0
  0
LINE
  5
14E
330
1F
100
AcDbEntity
  8
0
  6
HIDDEN
 62
     7
370
     0
100
AcDbLine
 10
93.7493070051
 20
125.2154504797
 30
0.0
 11
92.8688478446
 21
126.7404504797
 31
0.0
  0
LINE
  5
14F
330
1F
100
AcDbEntity
  8
0
  6
HIDDEN
 62
     7
370
     0
100
AcDbLine
 10
84.5533777908
 20
109.7154504797
 30
0.0
 11
90.7533777908
 21
109.7154504797
 31
0.0
  0
LINE
  5
150
330
1F
100
AcDbEntity
  8
0
  6
HIDDEN
 62
     7
370
     0
100
AcDbLine
 10
90.7533777908
 20
126.7154504797
 30
0.0
 11
84.5533777908
 21
126.7154504797
 31
0.0
  0
ARC
  5
151
330
1F
100
AcDbEntity
  8
0
  6
HIDDEN
 62
     7
370
     0
100
AcDbCircle
 10
170.5533777908
 20
142.3154504797
 30
0.0
 40
1.599999999999994
100
AcDbArc
 50
270.0
 51
0.0
  0
ARC
  5
152
330
1F
100
AcDbEntity
  8
0
  6
HIDDEN
 62
     7
370
     0
100
AcDbCircle
 10
170.5533777908
 20
94.1154504797
 30
0.0
 40
1.599999999999994
100
AcDbArc
 50
0.0
 51
90.0
  0
LINE
  5
153
330
1F
100
AcDbEntity
  8
0
  6
HIDDEN
 62
     7
370
     0
100
AcDbLine
 10
172.1533777908
 20
142.3154504797
 30
0.0
 11
172.1533777908
 21
148.7153791835
 31
0.0
  0
LINE
  5
154
330
1F
100
AcDbEntity
  8
0
  6
HIDDEN
 62
     7
370
     0
100
AcDbLine
 10
172.1533777908
 20
87.7154587807
 30
0.0
 11
172.1533777908
 21
94.1154504797
 31
0.0
  0
LINE
  5
155
330
1F
100
AcDbEntity
  8
0
  6
HIDDEN
 62
     7
370
     0
100
AcDbLine
 10
126.7533777908
 20
111.2154504797
 30
0.0
 11
129.697594824
 21
116.1154504797
 31
0.0
  0
LINE
  5
156
330
1F
100
AcDbEntity
  8
0
  6
HIDDEN
 62
     7
370
     0
100
AcDbLine
 10
129.697594824
 20
120.3154504797
 30
0.0
 11
126.7533777908
 21
125.2154504797
 31
0.0
  0
LINE
  5
157
330
1F
100
AcDbEntity
  8
0
  6
HIDDEN
 62
     7
370
     0
100
AcDbLine
 10
93.7493070051
 20
111.2154504797
 30
0.0
 11
126.7533777908
 21
111.2154504797
 31
0.0
  0
LINE
  5
158
330
1F
100
AcDbEntity
  8
0
  6
HIDDEN
 62
     7
370
     0
100
AcDbLine
 10
126.7533777908
 20
125.2154504797
 30
0.0
 11
93.7493070051
 21
125.2154504797
 31
0.0
  0
ARC
  5
159
330
1F
100
AcDbEntity
  8
0
  6
HIDDEN
 62
     7
370
     0
100
AcDbCircle
 10
202.1533777908
 20
111.7154504797
 30
0.0
 40
1.0
100
AcDbArc
 50
0.0
 51
90.0
  0
ARC
  5
15A
330
1F
100
AcDbEntity
  8
0
  6
HIDDEN
 62
     7
370
     0
100
AcDbCircle
 10
202.1533777908
 20
124.7154504797
 30
0.0
 40
1.0
100
AcDbArc
 50
270.0
 51
0.0
  0
LINE
  5
15B
330
1F
100
AcDbEntity
  8
0
  6
HIDDEN
 62
     7
370
     0
100
AcDbLine
 10
172.1533768808
 20
148.7154502678
 30
0.0
 11
173.1533762501
 21
149.7154500145
 31
0.0
  0
LINE
  5
15C
330
1F
100
AcDbEntity
  8
0
  6
HIDDEN
 62
     7
370
     0
100
AcDbLine
 10
173.1533841522
 20
86.715449342
 30
0.0
 11
172.1533839032
 21
87.7154491465
 31
0.0
  0
ARC
  5
15D
330
1F
100
AcDbEntity
  8
0
  6
HIDDEN
 62
     7
370
     0
100
AcDbCircle
 10
190.4533777908
 20
113.0154504797
 30
0.0
 40
0.7999999999999972
100
AcDbArc
 50
180.0
 51
270.0
  0
ARC
  5
15E
330
1F
100
AcDbEntity
  8
0
  6
HIDDEN
 62
     7
370
     0
100
AcDbCircle
 10
190.4533777908
 20
123.4154504797
 30
0.0
 40
0.7999999999999972
100
AcDbArc
 50
90.0
 51
180.0
  0
LINE
  5
15F
330
1F
100
AcDbEntity
  8
0
  6
HIDDEN
 62
     7
370
     0
100
AcDbLine
 10
190.4533777908
 20
112.2154504797
 30
0.0
 11
191.0480557927
 21
112.2154504797
 31
0.0
  0
LINE
  5
160
330
1F
100
AcDbEntity
  8
0
  6
HIDDEN
 62
     7
370
     0
100
AcDbLine
 10
191.0480557927
 20
124.2154504797
 30
0.0
 11
190.4533777908
 21
124.2154504797
 31
0.0
  0
ARC
  5
161
330
1F
100
AcDbEntity
  8
0
  6
HIDDEN
 62
     7
370
     0
100
AcDbCircle
 10
191.0480557927
 20
113.0154504797
 30
0.0
 40
0.8000000000000114
100
AcDbArc
 50
270.0
 51
285.0
  0
ARC
  5
162
330
1F
100
AcDbEntity
  8
0
  6
HIDDEN
 62
     7
370
     0
100
AcDbCircle
 10
191.0480557927
 20
123.4154504797
 30
0.0
 40
0.8000000000000114
100
AcDbArc
 50
75.0
 51
90.0
  0
LINE
  5
163
330
1F
100
AcDbEntity
  8
0
  6
HIDDEN
 62
     7
370
     0
100
AcDbLine
 10
191.2551110288
 20
112.2427098186
 30
0.0
 11
193.0194031945
 21
112.7154504797
 31
0.0
  0
LINE
  5
164
330
1F
100
AcDbEntity
  8
0
  6
HIDDEN
 62
     7
370
     0
100
AcDbLine
 10
193.0194031945
 20
123.7154504797
 30
0.0
 11
191.2551110288
 21
124.1881911407
 31
0.0
  0
LINE
  5
165
330
1F
100
AcDbEntity
  8
0
  6
HIDDEN
 62
     7
370
     0
100
AcDbLine
 10
193.0194031945
 20
112.7154504797
 30
0.0
 11
202.1533777908
 21
112.7154504797
 31
0.0
  0
LINE
  5
166
330
1F
100
AcDbEntity
  8
0
  6
HIDDEN
 62
     7
370
     0
100
AcDbLine
 10
202.1533777908
 20
123.7154504797
 30
0.0
 11
193.0194031945
 21
123.7154504797
 31
0.0
  0
LINE
  5
167
330
1F
100
AcDbEntity
  8
0
  6
HIDDEN
 62
     7
370
     0
100
AcDbLine
 10
165.0351354898
 20
120.3154504797
 30
0.0
 11
129.697594824
 21
120.3154504797
 31
0.0
  0
LINE
  5
168
330
1F
100
AcDbEntity
  8
0
  6
HIDDEN
 62
     7
370
     0
100
AcDbLine
 10
129.697594824
 20
116.1154504797
 30
0.0
 11
165.0351354898
 21
116.1154504797
 31
0.0
  0
LINE
  5
169
330
1F
100
AcDbEntity
  8
0
  6
HIDDEN
 62
     7
370
     0
100
AcDbLine
 10
166.4716200917
 20
116.1154504797
 30
0.0
 11
189.6533777908
 21
116.1154504797
 31
0.0
  0
LINE
  5
16A
330
1F
100
AcDbEntity
  8
0
  6
HIDDEN
 62
     7
370
     0
100
AcDbLine
 10
189.6533777908
 20
120.3154504797
 30
0.0
 11
166.4716200917
 21
120.3154504797
 31
0.0
  0
LINE
  5
16B
330
1F
100
AcDbEntity
  8
0
  6
HIDDEN
 62
     7
370
     0
100
AcDbLine
 10
167.8533777908
 20
118.9336927807
 30
0.0
 11
167.8533777908
 21
127.3176109286
 31
0.0
  0
LINE
  5
16C
330
1F
100
AcDbEntity
  8
0
  6
HIDDEN
 62
     7
370
     0
100
AcDbLine
 10
163.6533777908
 20
124.3333927282
 30
0.0
 11
163.6533777908
 21
118.9336927807
 31
0.0
  0
LINE
  5
16D
330
1F
100
AcDbEntity
  8
0
  6
HIDDEN
 62
     7
370
     0
100
AcDbLine
 10
163.6533777908
 20
127.3176109286
 30
0.0
 11
163.6533777908
 21
125.630489172
 31
0.0
  0
LINE
  5
16E
330
1F
100
AcDbEntity
  8
0
  6
HIDDEN
 62
     7
370
     0
100
AcDbLine
 10
152.2255755186
 20
125.5564111021
 30
0.0
 11
164.2981548197
 21
123.172494138
 31
0.0
  0
LINE
  5
16F
330
1F
100
AcDbEntity
  8
0
  6
HIDDEN
 62
     7
370
     0
100
AcDbLine
 10
164.3041066424
 20
126.5350414003
 30
0.0
 11
152.8648667851
 21
128.793895724
 31
0.0
  0
LINE
  5
170
330
1F
100
AcDbEntity
  8
0
  6
HIDDEN
 62
     7
370
     0
100
AcDbLine
 10
151.1533777908
 20
125.3094436413
 30
0.0
 11
151.9965560757
 21
125.1429450856
 31
0.0
  0
LINE
  5
171
330
1F
100
AcDbEntity
  8
0
  6
HIDDEN
 62
     7
370
     0
100
AcDbLine
 10
152.8101995058
 20
129.2633800588
 30
0.0
 11
151.1533777908
 21
129.5905450577
 31
0.0
  0
DIMENSION
  5
172
330
1F
100
AcDbEntity
  8
VERMASSUNG
100
AcDbDimension
  2
_D
 10
79.7762710026
 20
149.7154504797
 30
0.0
 11
79.7762710026
 21
118.2154504797
 31
0.0
 70
   160
  1
MAS-BT 40 %%c<>
 71
     2
 42
-1.0
  3
SLDDIMSTYLE0
100
AcDbAlignedDimension
 13
175.1533777908
 23
86.7154504797
 33
0.0
 14
175.1533777908
 24
149.7154504797
 34
0.0
 50
90.0
100
AcDbRotatedDimension
  0
DIMENSION
  5
17F
330
1F
100
AcDbEntity
  8
VERMASSUNG
100
AcDbDimension
  2
_D_1
 10
214.944639898
 20
108.2154504797
 30
0.0
 11
214.944639898
 21
118.2154504797
 31
0.0
 70
   160
  1
WH %%c<>
 71
     2
 42
-1.0
  3
SLDDIMSTYLE0
100
AcDbAlignedDimension
 13
202.9533777908
 23
128.2154504797
 33
0.0
 14
202.9533777908
 24
108.2154504797
 34
0.0
 50
90.0
100
AcDbRotatedDimension
  0
DIMENSION
  5
18B
330
1F
100
AcDbEntity
  8
VERMASSUNG
100
AcDbDimension
  2
_D_2
 10
208.644639898
 20
123.7154504797
 30
0.0
 11
208.644639898
 21
118.2154504797
 31
0.0
 70
   160
  1
%%c<>
 71
     2
 42
-1.0
  3
SLDDIMSTYLE0
100
AcDbAlignedDimension
 13
202.1533777908
 23
112.7154504797
 33
0.0
 14
202.1533777908
 24
123.7154504797
 34
0.0
 50
90.0
100
AcDbRotatedDimension
  0
DIMENSION
  5
196
330
1F
100
AcDbEntity
  8
VERMASSUNG
100
AcDbDimension
  2
_D_3
 10
176.1533777908
 20
153.8902818458
 30
0.0
 11
189.6533777908
 21
153.8902818458
 31
0.0
 70
   160
  1
<>
 71
     2
 42
-1.0
  3
SLDDIMSTYLE0
100
AcDbAlignedDimension
 13
203.1533777908
 23
128.0154504797
 33
0.0
 14
176.1533777908
 24
148.7154504797
 34
0.0
100
AcDbRotatedDimension
  0
DIMENSION
  5
1A0
330
1F
100
AcDbEntity
  8
VERMASSUNG
100
AcDbDimension
  2
_D_4
 10
149.1533777908
 20
159.8902818458
 30
0.0
 11
176.1533777908
 21
159.8902818458
 31
0.0
 70
   160
  1
<>
 71
     2
 42
-1.0
  3
SLDDIMSTYLE0
100
AcDbAlignedDimension
 13
203.1533777908
 23
128.0154504797
 33
0.0
 14
149.1533777908
 24
140.4404504797
 34
0.0
100
AcDbRotatedDimension
  0
DIMENSION
  5
1AA
330
1F
100
AcDbEntity
  8
VERMASSUNG
100
AcDbDimension
  2
_D_5
 10
203.1533777908
 20
165.8902818458
 30
0.0
 11
143.4533777908
 21
165.8902818458
 31
0.0
 70
   160
  1
<>
 71
     2
 42
-1.0
  3
SLDDIMSTYLE0
100
AcDbAlignedDimension
 13
83.7533777908
 23
130.0382060767
 33
0.0
 14
203.1533777908
 24
128.0154504797
 34
0.0
100
AcDbRotatedDimension
  0
LINE
  5
1B4
330
1F
100
AcDbEntity
  8
VERMASSUNG
  6
CENTERX2
370
     0
100
AcDbLine
 10
164.1033777908
 20
151.4016700732
 30
0.0
 11
164.1033777908
 21
135.8934523131
 31
0.0
  0
LINE
  5
1B5
330
1F
100
AcDbEntity
  8
VERMASSUNG
  6
CENTERX2
370
     0
100
AcDbLine
 10
164.1033777908
 20
85.029194862
 30
0.0
 11
164.1033777908
 21
100.5374255237
 31
0.0
  0
LINE
  5
1B6
330
1F
100
AcDbEntity
  8
VERMASSUNG
  6
CENTERX2
370
     0
100
AcDbLine
 10
81.7533777908
 20
118.2154504797
 30
0.0
 11
204.3038791204
 21
118.2154504797
 31
0.0
  0
LINE
  5
1B7
330
1F
100
AcDbEntity
  8
0
  6
Continuous
 62
     7
370
    15
100
AcDbLine
 10
255.0266128956
 20
48.3361508405
 30
0.0
 11
254.9408309338
 21
48.38568781
 31
0.0
  0
LINE
  5
1B8
330
1F
100
AcDbEntity
  8
0
  6
Continuous
 62
     7
370
    15
100
AcDbLine
 10
253.3849432424
 20
48.38568781
 30
0.0
 11
253.2991612807
 21
48.3361508405
 31
0.0
  0
SPLINE
  5
1B9
330
1F
100
AcDbEntity
  8
0
  6
Continuous
 62
     7
370
    15
100
AcDbSpline
210
0.0
220
0.0
230
1.0
 70
     8
 71
     3
 72
    21
 73
    17
 74
     0
 42
0.000000001
 43
0.00000001
 40
0.0
 40
0.0
 40
0.0
 40
0.0
 40
0.0524148721488978
 40
0.1265404530002971
 40
0.2011259498833513
 40
0.2761861933757763
 40
0.3516561120587349
 40
0.4274301457524313
 40
0.5033984954329814
 40
0.5794691918643964
 40
0.6555739870263302
 40
0.7316623944011065
 40
0.8077155497603588
 40
0.8837259650215351
 40
0.9596933947562415
 40
1.0
 40
1.0
 40
1.0
 40
1.0
 10
240.0317598785237
 20
34.33464577318423
 30
0.0
 10
240.210977283808
 20
34.29153301831957
 30
0.0
 10
240.6436455460866
 20
34.18744982004014
 30
0.0
 10
241.3725789141683
 20
34.13228065636725
 30
0.0
 10
242.2069714073301
 20
34.15361410295252
 30
0.0
 10
243.0710027490787
 20
34.27385230311475
 30
0.0
 10
243.9573015836719
 20
34.4882967335534
 30
0.0
 10
244.860203528659
 20
34.79693606367797
 30
0.0
 10
245.7731844195955
 20
35.19733288387414
 30
0.0
 10
246.6898495356036
 20
35.68665501564376
 30
0.0
 10
247.603913070431
 20
36.26117042878306
 30
0.0
 10
248.5091194845648
 20
36.91695147869352
 30
0.0
 10
249.40014706566
 20
37.64836847753771
 30
0.0
 10
250.2692187459088
 20
38.45402573819477
 30
0.0
 10
250.9859372513876
 20
39.18038980552915
 30
0.0
 10
251.3982849269256
 20
39.65887229326672
 30
0.0
 10
251.5412259969949
 20
39.82473911600888
 30
0.0
  0
SPLINE
  5
1BA
330
1F
100
AcDbEntity
  8
0
  6
Continuous
 62
     7
370
    15
100
AcDbSpline
210
0.0
220
0.0
230
1.0
 70
     8
 71
     3
 72
    21
 73
    17
 74
     0
 42
0.000000001
 43
0.00000001
 40
0.0
 40
0.0
 40
0.0
 40
0.0
 40
0.0375023216437888
 40
0.1134693137389305
 40
0.1894831098852987
 40
0.265551322774337
 40
0.3416791965025733
 40
0.4178676878526887
 40
0.4941104585837962
 40
0.5703894585820266
 40
0.6466546783747916
 40
0.7228351642328869
 40
0.7988331026760185
 40
0.8745279088217383
 40
0.9497986261365484
 40
1.0
 40
1.0
 40
1.0
 40
1.0
 10
256.5407976612394
 20
48.485240439531
 30
0.0
 10
256.6082444883112
 20
48.67753226616671
 30
0.0
 10
256.8123157256712
 20
49.2593421555172
 30
0.0
 10
257.0805121888552
 20
50.22892877715191
 30
0.0
 10
257.3463745885371
 20
51.38478705398432
 30
0.0
 10
257.5368658382931
 20
52.52302028310179
 30
0.0
 10
257.6549028476749
 20
53.63636232249834
 30
0.0
 10
257.698109760614
 20
54.71770445710626
 30
0.0
 10
257.6660323740607
 20
55.76007326814868
 30
0.0
 10
257.5582037266414
 20
56.75653191913818
 30
0.0
 10
257.3748322598704
 20
57.70031097113338
 30
0.0
 10
257.1163964980897
 20
58.58433405579868
 30
0.0
 10
256.7852016571649
 20
59.40308940949442
 30
0.0
 10
256.3803450309455
 20
60.14612006666997
 30
0.0
 10
255.9674300161122
 20
60.74918090111862
 30
0.0
 10
255.6625193318174
 20
61.06763397061755
 30
0.0
 10
255.5405245908874
 20
61.19504701880821
 30
0.0
  0
LINE
  5
1BB
330
1F
100
AcDbEntity
  8
0
  6
Continuous
 62
     7
370
    15
100
AcDbLine
 10
236.9812340613
 20
35.8173489918
 30
0.0
 11
238.5280301451
 21
34.9244026195
 31
0.0
  0
LINE
  5
1BC
330
1F
100
AcDbEntity
  8
0
  6
Continuous
 62
     7
370
    15
100
AcDbLine
 10
254.2767501841
 20
62.2049417845
 30
0.0
 11
252.7299541003
 21
63.0978881568
 31
0.0
  0
LINE
  5
1BD
330
1F
100
AcDbEntity
  8
0
  6
Continuous
 62
     7
370
    15
100
AcDbLine
 10
256.2317490468
 20
38.8082635425
 30
0.0
 11
256.3024482324
 21
38.8490905825
 31
0.0
  0
LINE
  5
1BE
330
1F
100
AcDbEntity
  8
0
  6
Continuous
 62
     7
370
    15
100
AcDbLine
 10
259.766708329
 20
44.8500152932
 30
0.0
 11
259.766708329
 21
44.9316561044
 31
0.0
  0
LINE
  5
1BF
330
1F
100
AcDbEntity
  8
0
  6
Continuous
 62
     7
370
    15
100
AcDbLine
 10
245.3168068954
 20
43.4180197782
 30
0.0
 11
253.7313775915
 21
38.5603915129
 31
0.0
  0
LINE
  5
1C0
330
1F
100
AcDbEntity
  8
0
  6
Continuous
 62
     7
370
    15
100
AcDbLine
 10
258.7309712547
 20
47.2208801367
 30
0.0
 11
250.3164005586
 21
52.078508402
 31
0.0
  0
LINE
  5
1C1
330
1F
100
AcDbEntity
  8
0
  6
Continuous
 62
     7
370
    15
100
AcDbLine
 10
249.1767425248
 20
65.1491135377
 30
0.0
 11
246.1450222005
 21
66.8992884274
 31
0.0
  0
SPLINE
  5
1C2
330
1F
100
AcDbEntity
  8
0
  6
Continuous
 62
     7
370
    15
100
AcDbSpline
210
0.0
220
0.0
230
1.0
 70
     8
 71
     3
 72
    12
 73
     8
 74
     0
 42
0.000000001
 43
0.00000001
 40
0.0
 40
0.0
 40
0.0
 40
0.0
 40
0.1060786123755341
 40
0.3547374218503409
 40
0.5843887844464073
 40
0.8297964312027309
 40
1.0
 40
1.0
 40
1.0
 40
1.0
 10
254.565091785373
 20
40.68779835989189
 30
0.0
 10
254.5402362207175
 20
40.7002991259349
 30
0.0
 10
254.4571167423696
 20
40.74210292990577
 30
0.0
 10
254.3479316350995
 20
40.8778384184155
 30
0.0
 10
254.2296333558083
 20
41.11791014755478
 30
0.0
 10
254.1611999087742
 20
41.40784407067168
 30
0.0
 10
254.1534205293493
 20
41.63445231419291
 30
0.0
 10
254.15023467177
 20
41.72725426544635
 30
0.0
  0
SPLINE
  5
1C3
330
1F
100
AcDbEntity
  8
0
  6
Continuous
 62
     7
370
    15
100
AcDbSpline
210
0.0
220
0.0
230
1.0
 70
     8
 71
     3
 72
    21
 73
    17
 74
     0
 42
0.000000001
 43
0.00000001
 40
0.0
 40
0.0
 40
0.0
 40
0.0
 40
0.0395436834745006
 40
0.1157997835351078
 40
0.1926347077255557
 40
0.2699952195966704
 40
0.3476989906735343
 40
0.4255059090395585
 40
0.5031058691026494
 40
0.5802155611344585
 40
0.656606892080818
 40
0.7321705550871102
 40
0.8071699714742595
 40
0.8824448582323213
 40
0.960400408922774
 40
1.0
 40
1.0
 40
1.0
 40
1.0
 10
254.15023467177
 20
41.72725426544635
 30
0.0
 10
254.1519344140447
 20
41.7980824077684
 30
0.0
 10
254.1569119419372
 20
42.00549564873202
 30
0.0
 10
254.2143537833958
 20
42.38577604185269
 30
0.0
 10
254.3454678306271
 20
42.86219976556137
 30
0.0
 10
254.5406356184231
 20
43.3478893706174
 30
0.0
 10
254.7925035487825
 20
43.8222388182765
 30
0.0
 10
255.0917711355699
 20
44.26622455878709
 30
0.0
 10
255.4258246388752
 20
44.66185599732302
 30
0.0
 10
255.7796755148232
 20
44.99370719738511
 30
0.0
 10
256.1365253660163
 20
45.25007426958598
 30
0.0
 10
256.4782805229414
 20
45.42372774895297
 30
0.0
 10
256.7874887211887
 20
45.51501959502313
 30
0.0
 10
257.0470104837606
 20
45.52678119702586
 30
0.0
 10
257.2206110612638
 20
45.49604238794011
 30
0.0
 10
257.2999884058502
 20
45.44081251495373
 30
0.0
 10
257.326727435204
 20
45.42220779590342
 30
0.0
  0
SPLINE
  5
1C4
330
1F
100
AcDbEntity
  8
0
  6
Continuous
 62
     7
370
    15
100
AcDbSpline
210
0.0
220
0.0
230
1.0
 70
     8
 71
     3
 72
    31
 73
    27
 74
     0
 42
0.000000001
 43
0.00000001
 40
0.0
 40
0.0
 40
0.0
 40
0.0
 40
0.0396213087942862
 40
0.0817320545073401
 40
0.1241106274718147
 40
0.1667532974967826
 40
0.2096157690052376
 40
0.2526360152946524
 40
0.2957532968829231
 40
0.3389186297236279
 40
0.3820950489194797
 40
0.4252589794936977
 40
0.4684014551647881
 40
0.5115193559945972
 40
0.5546132360446228
 40
0.5976858445699988
 40
0.640741183340291
 40
0.6837839377990366
 40
0.7268191528819771
 40
0.7698520607461425
 40
0.812887616794979
 40
0.855929811443491
 40
0.8989840730411293
 40
0.9420558070823387
 40
0.9851502771087408
 40
1.0
 40
1.0
 40
1.0
 40
1.0
 10
244.6478791076204
 20
67.49541906775333
 30
0.0
 10
244.4066626558595
 20
67.54683528715307
 30
0.0
 10
243.9090739395011
 20
67.65289824606138
 30
0.0
 10
243.1108315692501
 20
67.69514982467831
 30
0.0
 10
242.2690406016666
 20
67.6507555755909
 30
0.0
 10
241.3993780127655
 20
67.50879492217051
 30
0.0
 10
240.5086826224219
 20
67.27246079689105
 30
0.0
 10
239.6028859106312
 20
66.94243841911155
 30
0.0
 10
238.6884870394524
 20
66.52123721852504
 30
0.0
 10
237.7718728384562
 20
66.01191708063305
 30
0.0
 10
236.8593194901665
 20
65.41826976533837
 30
0.0
 10
235.9568815772252
 20
64.7446002547088
 30
0.0
 10
235.0703902418366
 20
63.99565098441777
 30
0.0
 10
234.2054718829979
 20
63.17654349751341
 30
0.0
 10
233.3675903804003
 20
62.29278164628726
 30
0.0
 10
232.5620362053732
 20
61.35022827861933
 30
0.0
 10
231.7939063403391
 20
60.35507980405178
 30
0.0
 10
231.0680809678306
 20
59.31383662509622
 30
0.0
 10
230.3891887128178
 20
58.23326673261451
 30
0.0
 10
229.7616062002931
 20
57.12037557434652
 30
0.0
 10
229.1893379493012
 20
55.98235069596383
 30
0.0
 10
228.6763437750369
 20
54.82658609204357
 30
0.0
 10
228.2251673923727
 20
53.66032475103324
 30
0.0
 10
227.8419528408549
 20
52.49174033661459
 30
0.0
 10
227.5885556798312
 20
51.58064422055307
 30
0.0
 10
227.4748265492944
 20
51.06420882175473
 30
0.0
 10
227.4456804694527
 20
50.93185867280555
 30
0.0
  0
LINE
  5
1C5
330
1F
100
AcDbEntity
  8
0
  6
Continuous
 62
     7
370
    15
100
AcDbLine
 10
237.1385440464
 20
65.5854545606
 30
0.0
 11
217.245524523
 21
72.7541102648
 31
0.0
  0
LINE
  5
1C6
330
1F
100
AcDbEntity
  8
0
  6
Continuous
 62
     7
370
    15
100
AcDbLine
 10
210.8740551116
 20
61.7172056539
 30
0.0
 11
229.901929198
 21
45.6502260765
 31
0.0
  0
LINE
  5
1C7
330
1F
100
AcDbEntity
  8
0
  6
Continuous
 62
     7
370
    15
100
AcDbLine
 10
230.3963021615
 20
39.6187492624
 30
0.0
 11
233.4280224858
 21
37.8685743727
 31
0.0
  0
SPLINE
  5
1C8
330
1F
100
AcDbEntity
  8
0
  6
Continuous
 62
     7
370
    15
100
AcDbSpline
210
0.0
220
0.0
230
1.0
 70
     8
 71
     3
 72
    12
 73
     8
 74
     0
 42
0.000000001
 43
0.00000001
 40
0.0
 40
0.0
 40
0.0
 40
0.0
 40
0.0808437189434832
 40
0.3227039237445101
 40
0.5638986797775591
 40
0.803803724362314
 40
1.0
 40
1.0
 40
1.0
 40
1.0
 10
227.433071780359
 20
43.68548147626502
 30
0.0
 10
227.4616972854494
 20
43.58724901848294
 30
0.0
 10
227.5759617321193
 20
43.19513445498165
 30
0.0
 10
227.828584271001
 20
42.55403701521506
 30
0.0
 10
228.2194538428204
 20
41.796707497628
 30
0.0
 10
228.6473428647056
 20
41.14949629076225
 30
0.0
 10
228.974360619094
 20
40.79437424634408
 30
0.0
 10
229.1214816263079
 20
40.63460948691583
 30
0.0
  0
SPLINE
  5
1C9
330
1F
100
AcDbEntity
  8
0
  6
Continuous
 62
     7
370
    15
100
AcDbSpline
210
0.0
220
0.0
230
1.0
 70
     8
 71
     3
 72
    25
 73
    21
 74
     0
 42
0.000000001
 43
0.00000001
 40
0.0
 40
0.0
 40
0.0
 40
0.0
 40
0.0333577104700368
 40
0.0887768915458268
 40
0.1452004606039748
 40
0.2027887059325798
 40
0.2612993771215977
 40
0.3203259364499876
 40
0.3795169970656934
 40
0.4386506694187138
 40
0.4976782556562464
 40
0.5566054513852589
 40
0.6154628315212841
 40
0.6742912600645882
 40
0.7331357734201538
 40
0.7920284861096858
 40
0.8510167595871929
 40
0.9101474451418875
 40
0.9694604150355839
 40
1.0
 40
1.0
 40
1.0
 40
1.0
 10
217.0722130342521
 20
72.79724051037185
 30
0.0
 10
216.9732987192691
 20
72.82647196811192
 30
0.0
 10
216.7100520728464
 20
72.90426741381093
 30
0.0
 10
216.2444428506591
 20
72.92424368985984
 30
0.0
 10
215.6883943052329
 20
72.86832797811392
 30
0.0
 10
215.1096020635411
 20
72.71335858055153
 30
0.0
 10
214.5183960872181
 20
72.46566977849375
 30
0.0
 10
213.9245926995992
 20
72.12737071898356
 30
0.0
 10
213.3392823558583
 20
71.70525283108545
 30
0.0
 10
212.7725525246242
 20
71.20734683177058
 30
0.0
 10
212.2334442347139
 20
70.64271288459213
 30
0.0
 10
211.7300424158214
 20
70.02082317443504
 30
0.0
 10
211.2698495639509
 20
69.35171210875573
 30
0.0
 10
210.8598060887533
 20
68.64590840123957
 30
0.0
 10
210.5062324518906
 20
67.91437481218067
 30
0.0
 10
210.2148659911099
 20
67.16838796661965
 30
0.0
 10
209.9902455195685
 20
66.4190619109514
 30
0.0
 10
209.8378191534942
 20
65.67822115154327
 30
0.0
 10
209.7694005720406
 20
65.07210804177843
 30
0.0
 10
209.7632715078421
 20
64.72158488982308
 30
0.0
 10
209.7611883274903
 20
64.60244713577656
 30
0.0
  0
SPLINE
  5
1CA
330
1F
100
AcDbEntity
  8
0
  6
Continuous
 62
     7
370
    15
100
AcDbSpline
210
0.0
220
0.0
230
1.0
 70
     8
 71
     3
 72
    13
 73
     9
 74
     0
 42
0.000000001
 43
0.00000001
 40
0.0
 40
0.0
 40
0.0
 40
0.0
 40
0.1043412342946585
 40
0.301655808070682
 40
0.4990049681465095
 40
0.6948144373748241
 40
0.8873793154613151
 40
1.0
 40
1.0
 40
1.0
 40
1.0
 10
209.7611883274903
 20
64.60244713577656
 30
0.0
 10
209.76339976008
 20
64.48152768653138
 30
0.0
 10
209.7697931240205
 20
64.13194341699409
 30
0.0
 10
209.84154974929
 20
63.58525250633461
 30
0.0
 10
210.0023992561496
 20
62.98718325376465
 30
0.0
 10
210.2470276036762
 20
62.45884728444731
 30
0.0
 10
210.5144255414791
 20
62.05476777754866
 30
0.0
 10
210.7265473273838
 20
61.86527606077133
 30
0.0
 10
210.804825279095
 20
61.79534913934587
 30
0.0
  0
LWPOLYLINE
  5
1CB
330
1F
100
AcDbEntity
  8
0
  6
Continuous
 62
     7
370
    15
100
AcDbPolyline
 90
       20
 70
   128
 43
0.0
 10
253.3976452943
 20
47.4805676054
 10
253.6956834572
 20
47.3618433262
 10
254.0443503829
 20
47.3054176234
 10
254.4058625999
 20
47.3174050975
 10
254.7410446501
 20
47.3965067197
 10
255.0135743574
 20
47.5341506017
 10
255.1939188992
 20
47.7154208933
 10
255.2625351463
 20
47.9206741456
 10
255.2119874634
 20
48.127667984
 10
255.0477534764
 20
48.3139714141
 10
254.7876304861
 20
48.4593955685
 10
254.4598068548
 20
48.5481814836
 10
254.0998073595
 20
48.5707078279
 10
253.7466435317
 20
48.5245335225
 10
253.4385861518
 20
48.4146622697
 10
253.2090180171
 20
48.2530003246
 10
253.0828163971
 20
48.0570662675
 10
253.0736571954
 20
47.8480925937
 10
253.1825329538
 20
47.6487248432
 10
253.3976452943
 20
47.4805676054
  0
LWPOLYLINE
  5
1CC
330
1F
100
AcDbEntity
  8
0
  6
Continuous
 62
     7
370
    15
100
AcDbPolyline
 90
       17
 70
   128
 43
0.0
 10
253.6237394607
 20
47.6153447261
 10
253.8778297893
 20
47.5207015501
 10
254.1753175076
 20
47.4893958968
 10
254.4709128072
 20
47.526193768
 10
254.7196139833
 20
47.6254930214
 10
254.8835585364
 20
47.7721762458
 10
254.9377873944
 20
47.9439122501
 10
254.8740447053
 20
48.1145557843
 10
254.7020347156
 20
48.2581279173
 10
254.447944387
 20
48.3527710932
 10
254.1504566687
 20
48.3840767466
 10
253.8548613691
 20
48.3472788754
 10
253.6061601929
 20
48.247979622
 10
253.4422156398
 20
48.1012963975
 10
253.3879867819
 20
47.9295603933
 10
253.451729471
 20
47.7589168591
 10
253.6237394607
 20
47.6153447261
  0
SPLINE
  5
1CD
330
1F
100
AcDbEntity
  8
0
  6
Continuous
 62
     7
370
    15
100
AcDbSpline
210
0.0
220
0.0
230
1.0
 70
     8
 71
     3
 72
    10
 73
     6
 74
     0
 42
0.000000001
 43
0.00000001
 40
0.0
 40
0.0
 40
0.0
 40
0.0
 40
0.4391119879277042
 40
0.751363323073491
 40
1.0
 40
1.0
 40
1.0
 40
1.0
 10
254.6813168023265
 20
47.60337185597637
 30
0.0
 10
254.7064523813444
 20
47.62626909641888
 30
0.0
 10
254.7494618019419
 20
47.6654485019944
 30
0.0
 10
254.8119840029715
 20
47.83592700138203
 30
0.0
 10
254.8431034460787
 20
47.95478595967839
 30
0.0
 10
254.8568984189707
 20
48.00747508081786
 30
0.0
  0
SPLINE
  5
1CE
330
1F
100
AcDbEntity
  8
0
  6
Continuous
 62
     7
370
    15
100
AcDbSpline
210
0.0
220
0.0
230
1.0
 70
     8
 71
     3
 72
    11
 73
     7
 74
     0
 42
0.000000001
 43
0.00000001
 40
0.0
 40
0.0
 40
0.0
 40
0.0
 40
0.1855070912791299
 40
0.5226425778603015
 40
0.8775754485095907
 40
1.0
 40
1.0
 40
1.0
 40
1.0
 10
254.8568984189707
 20
48.00747508081786
 30
0.0
 10
254.8266308613715
 20
48.00842616411882
 30
0.0
 10
254.7413558768946
 20
48.01110572005787
 30
0.0
 10
254.5817856076232
 20
48.0673365120716
 30
0.0
 10
254.4358241009206
 20
48.1903095827863
 30
0.0
 10
254.3583404102147
 20
48.27546799988652
 30
0.0
 10
254.3384687047744
 20
48.29730798924376
 30
0.0
  0
SPLINE
  5
1CF
330
1F
100
AcDbEntity
  8
0
  6
Continuous
 62
     7
370
    15
100
AcDbSpline
210
0.0
220
0.0
230
1.0
 70
     8
 71
     3
 72
    10
 73
     6
 74
     0
 42
0.000000001
 43
0.00000001
 40
0.0
 40
0.0
 40
0.0
 40
0.0
 40
0.4391119879276947
 40
0.7513633230734753
 40
1.0
 40
1.0
 40
1.0
 40
1.0
 10
254.3384687047744
 20
48.29730798924376
 30
0.0
 10
254.2391167510847
 20
48.24599689651315
 30
0.0
 10
254.0691158945141
 20
48.15819862590217
 30
0.0
 10
253.8219879959734
 20
48.14409143019051
 30
0.0
 10
253.6989839677691
 20
48.17107575927593
 30
0.0
 10
253.6444573739339
 20
48.18303767282816
 30
0.0
  0
SPLINE
  5
1D0
330
1F
100
AcDbEntity
  8
0
  6
Continuous
 62
     7
370
    15
100
AcDbSpline
210
0.0
220
0.0
230
1.0
 70
     8
 71
     3
 72
    10
 73
     6
 74
     0
 42
0.000000001
 43
0.00000001
 40
0.0
 40
0.0
 40
0.0
 40
0.0
 40
0.4391119879276889
 40
0.7513633230734907
 40
1.0
 40
1.0
 40
1.0
 40
1.0
 10
253.6444573739339
 20
48.18303767282816
 30
0.0
 10
253.6193217949161
 20
48.09023523202288
 30
0.0
 10
253.5763123743186
 20
47.93144122905826
 30
0.0
 10
253.513790173289
 20
47.8141285172342
 30
0.0
 10
253.4826707301818
 20
47.78974392241549
 30
0.0
 10
253.4688757572898
 20
47.77893444798667
 30
0.0
  0
SPLINE
  5
1D1
330
1F
100
AcDbEntity
  8
0
  6
Continuous
 62
     7
370
    15
100
AcDbSpline
210
0.0
220
0.0
230
1.0
 70
     8
 71
     3
 72
    10
 73
     6
 74
     0
 42
0.000000001
 43
0.00000001
 40
0.0
 40
0.0
 40
0.0
 40
0.0
 40
0.2516377106700451
 40
0.9811849618089039
 40
1.0
 40
1.0
 40
1.0
 40
1.0
 10
253.4688757572898
 20
47.77893444798667
 30
0.0
 10
253.4887176987258
 20
47.75746951633746
 30
0.0
 10
253.5660853337212
 20
47.67377352306052
 30
0.0
 10
253.6545360697473
 20
47.58437510787089
 30
0.0
 10
253.7191078620677
 20
47.56088690939004
 30
0.0
 10
253.720731301351
 20
47.56029637809556
 30
0.0
  0
LINE
  5
1D2
330
1F
100
AcDbEntity
  8
0
  6
Continuous
 62
     7
370
    15
100
AcDbLine
 10
253.6444573739
 20
47.6041786972
 30
0.0
 11
253.6444573739
 21
48.1830376728
 31
0.0
  0
LINE
  5
1D3
330
1F
100
AcDbEntity
  8
0
  6
Continuous
 62
     7
370
    15
100
AcDbLine
 10
254.3384687048
 20
47.5009716201
 30
0.0
 11
254.3384687048
 21
48.2973079892
 31
0.0
  0
ARC
  5
1D4
330
1F
100
AcDbEntity
  8
0
  6
Continuous
 62
     7
370
    15
100
AcDbCircle
 10
251.5994524366
 20
57.5671984817
 30
0.0
 40
5.353755168684988
100
AcDbArc
 50
43.6359469001
 51
76.3341348135
  0
ARC
  5
1D5
330
1F
100
AcDbEntity
  8
0
  6
Continuous
 62
     7
370
    15
100
AcDbCircle
 10
241.2048223774
 20
39.5612217733
 30
0.0
 40
5.35273992952608
100
AcDbArc
 50
223.690011534
 51
256.3478001937
  0
ARC
  5
1D6
330
1F
100
AcDbEntity
  8
0
  6
Continuous
 62
     7
370
    15
100
AcDbCircle
 10
240.7630603571
 20
41.5776941114
 30
0.0
 40
6.890847990550836
100
AcDbArc
 50
188.312493873
 51
236.7139908619
  0
SPLINE
  5
1D7
330
1F
100
AcDbEntity
  8
0
  6
Continuous
 62
     7
370
    15
100
AcDbSpline
210
0.0
220
0.0
230
1.0
 70
     8
 71
     3
 72
    29
 73
    25
 74
     0
 42
0.000000001
 43
0.00000001
 40
0.0
 40
0.0
 40
0.0
 40
0.0
 40
0.0226170105032921
 40
0.0451713142240263
 40
0.0676870228488737
 40
0.0901883721253699
 40
0.1126996441678027
 40
0.135245089017566
 40
0.1578488467194459
 40
0.1805348711560506
 40
0.2033268568175892
 40
0.2262481695777687
 40
0.2493217824054336
 40
0.3751991801893576
 40
0.4999614246459921
 40
0.4999717960761083
 40
0.6247044141127994
 40
0.7509557879396762
 40
0.7931713871196463
 40
0.834908104506354
 40
0.8763104515934291
 40
0.9175264576337788
 40
0.9587061619419142
 40
1.0
 40
1.0
 40
1.0
 40
1.0
 10
233.9447669796797
 20
45.73572396780527
 30
0.0
 10
233.9631322048033
 20
45.68688407800336
 30
0.0
 10
233.9998117365535
 20
45.58933970941459
 30
0.0
 10
234.05150156522
 20
45.44187710000876
 30
0.0
 10
234.1006829250438
 20
45.29393981048526
 30
0.0
 10
234.1471725949436
 20
45.14544794525218
 30
0.0
 10
234.1910826914032
 20
44.99645597911898
 30
0.0
 10
234.2324478828587
 20
44.84698419054085
 30
0.0
 10
234.2713251695632
 20
44.69706408723302
 30
0.0
 10
234.3077670145851
 20
44.54672527725356
 30
0.0
 10
234.3418289956711
 20
44.39600282563118
 30
0.0
 10
234.3735660487672
 20
44.24492112889916
 30
0.0
 10
234.4467243206342
 20
43.86919992194936
 30
0.0
 10
234.5324008606653
 20
43.28042950024044
 30
0.0
 10
234.5581332224942
 20
42.7789458962291
 30
0.0
 10
234.5585703787274
 20
42.3084930709864
 30
0.0
 10
234.5331393220045
 20
41.86205054110172
 30
0.0
 10
234.4411720059694
 20
41.42602386960816
 30
0.0
 10
234.3486181119245
 20
41.15783098698682
 30
0.0
 10
234.2850354880352
 20
41.01157987614964
 30
0.0
 10
234.2133899839996
 20
40.88065954430292
 30
0.0
 10
234.1331352096874
 20
40.76521321185322
 30
0.0
 10
234.0447335500941
 20
40.66369120741074
 30
0.0
 10
233.9783768961825
 20
40.60869233045079
 30
0.0
 10
233.9451526542973
 20
40.58115483595981
 30
0.0
  0
LWPOLYLINE
  5
1D8
330
1F
100
AcDbEntity
  8
0
  6
Continuous
 62
     7
370
    15
100
AcDbPolyline
 90
       27
 70
   128
 43
0.0
 10
233.9445482385
 20
45.7358502444
 10
234.1751862531
 20
46.9363465808
 10
234.4839723504
 20
48.1552909555
 10
234.8686471561
 20
49.3837644051
 10
235.326396021
 20
50.6127782425
 10
235.8538696167
 20
51.8333398265
 10
236.4472084415
 20
53.0365183607
 10
237.1020710609
 20
54.2135102397
 10
237.8136658734
 20
55.3557034648
 10
238.5767861705
 20
56.4547406575
 10
239.3858482339
 20
57.5025802101
 10
240.2349321914
 20
58.4915551258
 10
241.1178253324
 20
59.4144291179
 10
242.028067566
 20
60.2644495572
 10
242.9589986889
 20
61.035396881
 10
243.9038071184
 20
61.7216301009
 10
244.855579732
 20
62.3181280781
 10
245.8073524506
 20
62.8205262627
 10
246.7521611943
 20
63.2251486288
 10
247.6830928384
 20
63.529034572
 10
248.5933357961
 20
63.7299605721
 10
249.4762298592
 20
63.8264564622
 10
250.3253149297
 20
63.817816186
 10
251.1343782891
 20
63.704102964
 10
251.8975000556
 20
63.486148831
 10
252.6090965001
 20
63.165548548
 10
252.7299541003
 20
63.0978881568
  0
SPLINE
  5
1D9
330
1F
100
AcDbEntity
  8
0
  6
Continuous
 62
     7
370
    15
100
AcDbSpline
210
0.0
220
0.0
230
1.0
 70
     8
 71
     3
 72
     8
 73
     4
 74
     0
 42
0.000000001
 43
0.00000001
 40
0.0
 40
0.0
 40
0.0
 40
0.0
 40
1.0
 40
1.0
 40
1.0
 40
1.0
 10
233.1666118415047
 20
49.01462737130963
 30
0.0
 10
232.4735406064518
 20
48.89876575293491
 30
0.0
 10
231.7799198400556
 20
48.78400705978186
 30
0.0
 10
231.0859406792282
 20
48.66999551214369
 30
0.0
  0
SPLINE
  5
1DA
330
1F
100
AcDbEntity
  8
0
  6
Continuous
 62
     7
370
    15
100
AcDbSpline
210
0.0
220
0.0
230
1.0
 70
     8
 71
     3
 72
     8
 73
     4
 74
     0
 42
0.000000001
 43
0.00000001
 40
0.0
 40
0.0
 40
0.0
 40
0.0
 40
0.0012389803509652
 40
0.0012389803509652
 40
0.0012389803509652
 40
0.0012389803509652
 10
230.6122042650827
 20
48.94352963289769
 30
0.0
 10
230.7702776000637
 20
48.8522585524472
 30
0.0
 10
230.9281957790297
 20
48.76107702534695
 30
0.0
 10
231.0859406792282
 20
48.66999551214369
 30
0.0
  0
LWPOLYLINE
  5
1DB
330
1F
100
AcDbEntity
  8
0
  6
Continuous
 62
     7
370
    15
100
AcDbPolyline
 90
       28
 70
   128
 43
0.0
 10
230.6122042651
 20
48.9435296329
 10
230.9190197428
 20
50.16493002
 10
231.3021786649
 20
51.3962115045
 10
231.7588638641
 20
52.6283211166
 10
232.2857175725
 20
53.8521997976
 10
232.8788661099
 20
55.0588490068
 10
233.5339483648
 20
56.2393968826
 10
234.2461478595
 20
57.3851634729
 10
235.010228163
 20
58.4877245542
 10
235.8205713918
 20
59.5389735706
 10
236.6712195153
 20
60.5311812371
 10
237.5559181619
 20
61.4570523687
 10
238.4681626046
 20
62.3097795186
 10
239.4012455862
 20
63.0830930292
 10
240.3483066349
 20
63.7713071301
 10
241.3023825053
 20
64.3693617424
 10
242.2564583757
 20
64.8728596828
 10
243.2035194244
 20
65.2780989939
 10
244.136602406
 20
65.5821001626
 10
245.0488468487
 20
65.7826280271
 10
245.9335454953
 20
65.8782082107
 10
246.7841936188
 20
65.8681379622
 10
247.5945368476
 20
65.7524913228
 10
248.3586171511
 20
65.532118582
 10
249.0708166458
 20
65.2086400255
 10
249.7258989007
 20
64.784434022
 10
250.3190474381
 20
64.262619537
 10
250.7503795234
 20
63.7719104965
  0
LWPOLYLINE
  5
1DC
330
1F
100
AcDbEntity
  8
0
  6
Continuous
 62
     7
370
    15
100
AcDbPolyline
 90
       42
 70
   128
 43
0.0
 10
252.8370618734
 20
40.8496155452
 10
252.8776681333
 20
41.4838144554
 10
252.9985351367
 20
42.1500312704
 10
253.1968298635
 20
42.8326504328
 10
253.4679044533
 20
43.5156719278
 10
253.8054051476
 20
44.1830863107
 10
254.201421216
 20
44.8192499539
 10
254.6466703777
 20
45.4092517208
 10
255.1307163695
 20
45.9392624701
 10
255.6422135638
 20
46.396859199
 10
256.1691728998
 20
46.7713162281
 10
256.6992428974
 20
47.0538566018
 10
257.219999165
 20
47.2378578135
 10
257.7192356171
 20
47.3190070306
 10
258.1852505743
 20
47.2954021842
 10
258.6071210412
 20
47.1675965519
 10
258.9749587315
 20
46.9385857895
 10
259.2801418414
 20
46.613737715
 10
259.5155171377
 20
46.2006664922
 10
259.6755676227
 20
45.7090541602
 10
259.7565418488
 20
45.1504236955
 10
259.7565418488
 20
44.5378689227
 10
259.6755676227
 20
43.8857476065
 10
259.5155171377
 20
43.2093449178
 10
259.2801418414
 20
42.5245151625
 10
258.9749587315
 20
41.8473101694
 10
258.6071210412
 20
41.1936030497
 10
258.1852505743
 20
40.5787161442
 10
257.7192356171
 20
40.0170618809
 10
257.219999165
 20
39.5218049595
 10
256.6992428974
 20
39.1045537826
 10
256.1691728998
 20
38.7750883642
 10
255.6422135638
 20
38.5411310943
 10
255.1307163695
 20
38.4081657331
 10
254.6466703777
 20
38.379308876
 10
254.201421216
 20
38.4552369033
 10
253.8054051476
 20
38.6341701263
 10
253.4679044533
 20
38.9119145019
 10
253.1968298635
 20
39.2819599375
 10
252.9985351367
 20
39.7356328815
 10
252.8776681333
 20
40.2622996248
 10
252.8370618734
 20
40.8496155452
  0
LWPOLYLINE
  5
1DD
330
1F
100
AcDbEntity
  8
0
  6
Continuous
 62
     7
370
    15
100
AcDbPolyline
 90
       22
 70
   128
 43
0.0
 10
252.6956405172
 20
40.8496155452
 10
252.7370754763
 20
41.4967572903
 10
252.8604091532
 20
42.1765703669
 10
253.0627507111
 20
42.8731205325
 10
253.3393574355
 20
43.5700812418
 10
253.683745899
 20
44.2511163263
 10
254.087843928
 20
44.900262901
 10
254.5421798072
 20
45.5023055203
 10
255.0361042887
 20
46.0431328155
 10
255.5580402013
 20
46.5100682532
 10
256.0957538094
 20
46.8921672624
 10
256.636641562
 20
47.1804737663
 10
257.1680255086
 20
47.3682301047
 10
257.6774504597
 20
47.4510354282
 10
258.1529759263
 20
47.4269488503
 10
258.5834559945
 20
47.2965349398
 10
258.9588005764
 20
47.0628504883
 10
259.2702119131
 20
46.7313728614
 10
259.5103907868
 20
46.3098716135
 10
259.6737076083
 20
45.8082263768
 10
259.7563343696
 20
45.2381952904
 10
259.766708329
 20
44.9316561044
  0
LWPOLYLINE
  5
1DE
330
1F
100
AcDbEntity
  8
0
  6
Continuous
 62
     7
370
    15
100
AcDbPolyline
 90
       12
 70
   128
 43
0.0
 10
256.2317490468
 20
38.8082635425
 10
256.0957538094
 20
38.7327510747
 10
255.5580402013
 20
38.4940191667
 10
255.0361042887
 20
38.3583402268
 10
254.5421798072
 20
38.3288944542
 10
254.087843928
 20
38.406372033
 10
253.683745899
 20
38.5889569545
 10
253.3393574355
 20
38.8723695827
 10
253.0627507111
 20
39.2499669659
 10
252.8604091532
 20
39.7128985415
 10
252.7370754763
 20
40.2503135856
 10
252.6956405172
 20
40.8496155452
  0
SPLINE
  5
1DF
330
1F
100
AcDbEntity
  8
0
  6
Continuous
 62
     7
370
    15
100
AcDbSpline
210
0.0
220
0.0
230
1.0
 70
    11
 71
     3
 72
    62
 73
    58
 74
     0
 42
0.000000001
 43
0.00000001
 40
0.0
 40
0.0
 40
0.0
 40
0.0
 40
0.03125
 40
0.03125
 40
0.0625
 40
0.0625
 40
0.09375
 40
0.09375
 40
0.1249999999999999
 40
0.1249999999999999
 40
0.1562499999999999
 40
0.1562499999999999
 40
0.1875
 40
0.1875
 40
0.21875
 40
0.21875
 40
0.25
 40
0.25
 40
0.3125
 40
0.3125
 40
0.3437500000000001
 40
0.3437500000000001
 40
0.3750000000000001
 40
0.3750000000000001
 40
0.4062500000000002
 40
0.4062500000000002
 40
0.4375000000000002
 40
0.4375000000000002
 40
0.4687500000000002
 40
0.4687500000000002
 40
0.5000000000000002
 40
0.5000000000000002
 40
0.5312500000000002
 40
0.5312500000000002
 40
0.5625000000000002
 40
0.5625000000000002
 40
0.5937500000000002
 40
0.5937500000000002
 40
0.6250000000000001
 40
0.6250000000000001
 40
0.6562500000000001
 40
0.6562500000000001
 40
0.6875000000000001
 40
0.6875000000000001
 40
0.7187500000000001
 40
0.7187500000000001
 40
0.7500000000000001
 40
0.7500000000000001
 40
0.7812500000000001
 40
0.7812500000000001
 40
0.8125000000000001
 40
0.8125000000000001
 40
0.875
 40
0.875
 40
0.9375
 40
0.9375
 40
1.0
 40
1.0
 40
1.0
 40
1.0
 10
254.1512961802408
 20
48.94687290122059
 30
0.0
 10
254.052081766767
 20
48.96497243807806
 30
0.0
 10
253.9530828472133
 20
48.97781396198521
 30
0.0
 10
253.7553377400868
 20
48.99116482826584
 30
0.0
 10
253.6557067309683
 20
48.99150085161646
 30
0.0
 10
253.4656873097665
 20
48.9773123433736
 30
0.0
 10
253.3743346052195
 20
48.96298413264162
 30
0.0
 10
253.1996253047666
 20
48.91744199691277
 30
0.0
 10
253.1175328436464
 20
48.88621832398169
 30
0.0
 10
252.9720243273647
 20
48.80930772127142
 30
0.0
 10
252.9065831094163
 20
48.76250217589832
 30
0.0
 10
252.7974167139652
 20
48.65739886327184
 30
0.0
 10
252.7534895741913
 20
48.59949656775073
 30
0.0
 10
252.6859206096186
 20
48.47417055334284
 30
0.0
 10
252.6633202699217
 20
48.40858559903295
 30
0.0
 10
252.6383971123979
 20
48.27425481118187
 30
0.0
 10
252.6362125929965
 20
48.20494116109759
 30
0.0
 10
252.6581414397052
 20
48.00118457947045
 30
0.0
 10
252.710934873573
 20
47.86683146347433
 30
0.0
 10
252.8355745533233
 20
47.68788243546626
 30
0.0
 10
252.8852095248693
 20
47.63112968600642
 30
0.0
 10
252.9983449252889
 20
47.52673481059571
 30
0.0
 10
253.0611231646865
 20
47.47959510195599
 30
0.0
 10
253.1986909711921
 20
47.39536619944555
 30
0.0
 10
253.274194361794
 20
47.35801731694496
 30
0.0
 10
253.4344336372577
 20
47.29519882584437
 30
0.0
 10
253.5185002412331
 20
47.26983464877305
 30
0.0
 10
253.6945284308338
 20
47.23054767991119
 30
0.0
 10
253.7874094895377
 20
47.2165630616253
 30
0.0
 10
253.9772246994174
 20
47.20058068795819
 30
0.0
 10
254.0734990407998
 20
47.1984948235684
 30
0.0
 10
254.2690516631591
 20
47.20539090972959
 30
0.0
 10
254.3695539206919
 20
47.2145690627886
 30
0.0
 10
254.5677069745965
 20
47.24350934781107
 30
0.0
 10
254.6648165679086
 20
47.26303078628427
 30
0.0
 10
254.8549823726859
 20
47.31176868006528
 30
0.0
 10
254.9493586898187
 20
47.34156174233867
 30
0.0
 10
255.123658087662
 20
47.40807485131442
 30
0.0
 10
255.2043309891761
 20
47.44480930333135
 30
0.0
 10
255.3519470261467
 20
47.52528564021353
 30
0.0
 10
255.41728146667
 20
47.56834356508413
 30
0.0
 10
255.5266035795507
 20
47.65675418712483
 30
0.0
 10
255.5717184991749
 20
47.70312836490398
 30
0.0
 10
255.6390842415923
 20
47.7956263739766
 30
0.0
 10
255.6620832419773
 20
47.84236949080714
 30
0.0
 10
255.687402352652
 20
47.93631351647732
 30
0.0
 10
255.6896057042445
 20
47.98261769053503
 30
0.0
 10
255.675156839251
 20
48.07528326038268
 30
0.0
 10
255.6582261995038
 20
48.12177723249294
 30
0.0
 10
255.6075776206049
 20
48.21279779645155
 30
0.0
 10
255.5738479900681
 20
48.25774861729186
 30
0.0
 10
255.4478658160733
 20
48.39254176807096
 30
0.0
 10
255.3347643013985
 20
48.47878451897847
 30
0.0
 10
255.0554309591043
 20
48.6452048162984
 30
0.0
 10
254.8960831663395
 20
48.72144579917176
 30
0.0
 10
254.5384178489141
 20
48.8559829810749
 30
0.0
 10
254.3497250071883
 20
48.91067382750565
 30
0.0
 10
254.1512961802408
 20
48.94687290122059
 30
0.0
  0
LINE
  5
1E0
330
1F
100
AcDbEntity
  8
0
  6
Continuous
 62
     7
370
    15
100
AcDbLine
 10
227.5804839407
 20
50.6937045226
 30
0.0
 11
230.6122042651
 21
48.9435296329
 31
0.0
  0
ARC
  5
1E1
330
1F
100
AcDbEntity
  8
0
  6
Continuous
 62
     7
370
    15
100
AcDbCircle
 10
243.4698177293
 20
62.2544142736
 30
0.0
 40
5.36018421958544
100
AcDbArc
 50
60.0603086361
 51
76.3483600426
  0
LINE
  5
1E2
330
1F
100
AcDbEntity
  8
0
  6
Continuous
 62
     7
370
    15
100
AcDbLine
 10
233.569207244
 20
48.9534649806
 30
0.0
 11
233.5598845931
 21
48.9588468324
 31
0.0
  0
SPLINE
  5
1E3
330
1F
100
AcDbEntity
  8
0
  6
Continuous
 62
     7
370
    15
100
AcDbSpline
210
0.0
220
0.0
230
1.0
 70
     8
 71
     3
 72
    10
 73
     6
 74
     0
 42
0.000000001
 43
0.00000001
 40
0.0
 40
0.0
 40
0.0
 40
0.0
 40
0.2386821730236696
 40
0.7123059640471328
 40
1.0
 40
1.0
 40
1.0
 40
1.0
 10
234.4838743760694
 20
48.15405698274804
 30
0.0
 10
234.4188382613046
 20
48.23403868463491
 30
0.0
 10
234.2247491433843
 20
48.47273034118778
 30
0.0
 10
233.9127611025393
 20
48.73755319882084
 30
0.0
 10
233.6634277190924
 20
48.89425065318017
 30
0.0
 10
233.5692072439637
 20
48.95346498058824
 30
0.0
  0
SPLINE
  5
1E4
330
1F
100
AcDbEntity
  8
0
  6
Continuous
 62
     7
370
    15
100
AcDbSpline
210
0.0
220
0.0
230
1.0
 70
     8
 71
     3
 72
    10
 73
     6
 74
     0
 42
0.000000001
 43
0.00000001
 40
0.0
 40
0.0
 40
0.0
 40
0.0
 40
0.5
 40
0.5
 40
1.0
 40
1.0
 40
1.0
 40
1.0
 10
233.5598845930566
 20
48.95884683240097
 30
0.0
 10
233.5100839942438
 20
48.98759610615009
 30
0.0
 10
233.4450520774999
 20
49.00835945151076
 30
0.0
 10
233.3079937171544
 20
49.02731314089853
 30
0.0
 10
233.2344548771046
 20
49.02596877967073
 30
0.0
 10
233.1666118415047
 20
49.01462737130963
 30
0.0
  0
SPLINE
  5
1E5
330
1F
100
AcDbEntity
  8
0
  6
Continuous
 62
     7
370
    15
100
AcDbSpline
210
0.0
220
0.0
230
1.0
 70
     8
 71
     3
 72
     8
 73
     4
 74
     0
 42
0.000000001
 43
0.00000001
 40
0.0
 40
0.0
 40
0.0
 40
0.0
 40
1.0
 40
1.0
 40
1.0
 40
1.0
 10
227.4236593331842
 20
50.78422620180649
 30
0.0
 10
227.4460381297037
 20
50.77131425035464
 30
0.0
 10
227.5002255607209
 20
50.74003669919762
 30
0.0
 10
227.5804839407454
 20
50.69370452261763
 30
0.0
  0
LINE
  5
1E6
330
1F
100
AcDbEntity
  8
0
  6
Continuous
 62
     7
370
    15
100
AcDbLine
 10
227.4236593332
 20
50.7842262018
 30
0.0
 11
227.4469434538
 21
50.9316152542
 31
0.0
  0
SPLINE
  5
1E7
330
1F
100
AcDbEntity
  8
0
  6
Continuous
 62
     7
370
    15
100
AcDbSpline
210
0.0
220
0.0
230
1.0
 70
     8
 71
     3
 72
    11
 73
     7
 74
     0
 42
0.000000001
 43
0.00000001
 40
0.0
 40
0.0
 40
0.0
 40
0.0
 40
0.3095641458220321
 40
0.5897803711770564
 40
0.8409900224408633
 40
1.0
 40
1.0
 40
1.0
 40
1.0
 10
234.0531923289634
 20
41.30728357472032
 30
0.0
 10
234.1441882919429
 20
41.39875779113601
 30
0.0
 10
234.3175534362788
 20
41.57303410200372
 30
0.0
 10
234.4678864199761
 20
41.99149992700767
 30
0.0
 10
234.5421671590702
 20
42.40464915517576
 30
0.0
 10
234.5497117910058
 20
42.70168040676117
 30
0.0
 10
234.5526362530999
 20
42.81681612755659
 30
0.0
  0
SPLINE
  5
1E8
330
1F
100
AcDbEntity
  8
0
  6
Continuous
 62
     7
370
    15
100
AcDbSpline
210
0.0
220
0.0
230
1.0
 70
     8
 71
     3
 72
     9
 73
     5
 74
     0
 42
0.000000001
 43
0.00000001
 40
0.0
 40
0.0
 40
0.0
 40
0.0
 40
0.5067649320089164
 40
1.0
 40
1.0
 40
1.0
 40
1.0
 10
233.944470864491
 20
40.58065280817616
 30
0.0
 10
233.9627397798519
 20
40.70310692691237
 30
0.0
 10
233.9987898579198
 20
40.94474582297958
 30
0.0
 10
234.035470711003
 20
41.18689609336619
 30
0.0
 10
234.0535629940674
 20
41.30633309844441
 30
0.0
  0
SPLINE
  5
1E9
330
1F
100
AcDbEntity
  8
0
  6
Continuous
 62
     7
370
    15
100
AcDbSpline
210
0.0
220
0.0
230
1.0
 70
     8
 71
     3
 72
    10
 73
     6
 74
     0
 42
0.000000001
 43
0.00000001
 40
0.0
 40
0.0
 40
0.0
 40
0.0
 40
0.4807908150166064
 40
0.975781759036066
 40
1.0
 40
1.0
 40
1.0
 40
1.0
 10
233.5692072439637
 20
42.38031144490795
 30
0.0
 10
233.7189981908639
 20
42.30014106954592
 30
0.0
 10
234.0230041516454
 20
42.13743249140756
 30
0.0
 10
234.3126195958431
 20
42.02593106068637
 30
0.0
 10
234.446958026521
 20
41.99769944320714
 30
0.0
 10
234.4532241723809
 20
41.99638259417078
 30
0.0
  0
LINE
  5
1EA
330
1F
100
AcDbEntity
  8
0
  6
Continuous
 62
     7
370
    15
100
AcDbLine
 10
227.8570925807
 20
50.5339698436
 30
0.0
 11
227.4236593332
 21
50.7842262018
 31
0.0
  0
LINE
  5
1EB
330
1F
100
AcDbEntity
  8
0
  6
Continuous
 62
     7
370
    15
100
AcDbLine
 10
231.0859406792
 20
48.6699955121
 30
0.0
 11
227.8570925807
 21
50.5339698436
 31
0.0
  0
SPLINE
  5
1EC
330
1F
100
AcDbEntity
  8
0
  6
Continuous
 62
     7
370
    15
100
AcDbSpline
210
0.0
220
0.0
230
1.0
 70
     8
 71
     3
 72
    11
 73
     7
 74
     0
 42
0.000000001
 43
0.00000001
 40
0.0
 40
0.0
 40
0.0
 40
0.0
 40
0.2163155055778993
 40
0.5249147718327557
 40
0.8335516849882196
 40
1.0
 40
1.0
 40
1.0
 40
1.0
 10
229.9621575020207
 20
46.52014389782175
 30
0.0
 10
229.9574399103878
 20
46.72653552980488
 30
0.0
 10
229.9459921247611
 20
47.22736886637584
 30
0.0
 10
229.8808085674133
 20
48.04616071328249
 30
0.0
 10
229.8400544974031
 20
48.80762516099875
 30
0.0
 10
229.8614423209689
 20
49.24215732759824
 30
0.0
 10
229.8689356442365
 20
49.39439768924435
 30
0.0
  0
LINE
  5
1ED
330
1F
100
AcDbEntity
  8
0
  6
Continuous
 62
     7
370
    15
100
AcDbLine
 10
229.962157502
 20
46.0997885424
 30
0.0
 11
229.962157502
 21
46.5201438978
 31
0.0
  0
LINE
  5
1EE
330
1F
100
AcDbEntity
  8
0
  6
Continuous
 62
     7
370
    15
100
AcDbLine
 10
229.3522779032
 20
49.3351573575
 30
0.0
 11
229.3574657979
 21
49.6678228218
 31
0.0
  0
ARC
  5
1EF
330
1F
100
AcDbEntity
  8
0
  6
Continuous
 62
     7
370
    15
100
AcDbCircle
 10
236.9061074902
 20
49.1609045573
 30
0.0
 40
7.555839163670734
100
AcDbArc
 50
178.6785272924
 51
203.2171026327
  0
LINE
  5
1F0
330
1F
100
AcDbEntity
  8
0
  6
Continuous
 62
     7
370
    15
100
AcDbLine
 10
217.0982137395
 20
72.8014736852
 30
0.0
 11
217.245524523
 21
72.7541102648
 31
0.0
  0
LINE
  5
1F1
330
1F
100
AcDbEntity
  8
0
  6
Continuous
 62
     7
370
    15
100
AcDbLine
 10
210.8740551116
 20
61.7172056539
 30
0.0
 11
210.8059038305
 21
61.7771866835
 31
0.0
  0
LINE
  5
1F2
330
1F
100
AcDbEntity
  8
0
  6
Continuous
 62
     7
370
    15
100
AcDbLine
 10
233.5598845931
 20
42.3856932967
 30
0.0
 11
233.569207244
 21
42.3803114449
 31
0.0
  0
ARC
  5
1F3
330
1F
100
AcDbEntity
  8
0
  6
Continuous
 62
     7
370
    15
100
AcDbCircle
 10
236.3871003591
 20
43.0325942827
 30
0.0
 40
5.919642220385803
100
AcDbArc
 50
192.6964501329
 51
260.4756565155
  0
SPLINE
  5
1F4
330
1F
100
AcDbEntity
  8
0
  6
Continuous
 62
     7
370
    15
100
AcDbSpline
210
0.0
220
0.0
230
1.0
 70
     8
 71
     3
 72
     8
 73
     4
 74
     0
 42
0.000000001
 43
0.00000001
 40
0.0
 40
0.0
 40
0.0
 40
0.0
 40
0.0012389803509652
 40
0.0012389803509652
 40
0.0012389803509652
 40
0.0012389803509652
 10
231.0859406792282
 20
42.09684197646342
 30
0.0
 10
230.9281957790297
 20
41.9747655259287
 30
0.0
 10
230.7702776000637
 20
41.85300822292788
 30
0.0
 10
230.6122042650827
 20
41.73154120138344
 30
0.0
  0
SPLINE
  5
1F5
330
1F
100
AcDbEntity
  8
0
  6
Continuous
 62
     7
370
    15
100
AcDbSpline
210
0.0
220
0.0
230
1.0
 70
     8
 71
     3
 72
     8
 73
     4
 74
     0
 42
0.000000001
 43
0.00000001
 40
0.0
 40
0.0
 40
0.0
 40
0.0
 40
1.0
 40
1.0
 40
1.0
 40
1.0
 10
231.0859406792282
 20
42.09684197646342
 30
0.0
 10
231.7799212621698
 20
42.21085375773603
 30
0.0
 10
232.4735543229318
 20
42.32561451025639
 30
0.0
 10
233.1666118415047
 20
42.44147383562934
 30
0.0
  0
SPLINE
  5
1F6
330
1F
100
AcDbEntity
  8
0
  6
Continuous
 62
     7
370
    15
100
AcDbSpline
210
0.0
220
0.0
230
1.0
 70
     8
 71
     3
 72
    12
 73
     8
 74
     0
 42
0.000000001
 43
0.00000001
 40
0.0
 40
0.0
 40
0.0
 40
0.0
 40
0.2499999999999987
 40
0.2499999999999987
 40
0.4999999999999973
 40
0.4999999999999973
 40
1.0
 40
1.0
 40
1.0
 40
1.0
 10
233.1666118415047
 20
42.44147383562934
 30
0.0
 10
233.2004003574288
 20
42.44712230571358
 30
0.0
 10
233.2359721334977
 20
42.45038276922904
 30
0.0
 10
233.3065543798901
 20
42.45152035877715
 30
0.0
 10
233.3415773383391
 20
42.44950374231913
 30
0.0
 10
233.445782633604
 20
42.43512800497953
 30
0.0
 10
233.5094930655436
 20
42.41478370634713
 30
0.0
 10
233.5598845930566
 20
42.38569329672068
 30
0.0
  0
LINE
  5
1F7
330
1F
100
AcDbEntity
  8
0
  6
Continuous
 62
     7
370
    15
100
AcDbLine
 10
227.8570925807
 20
43.9608163079
 30
0.0
 11
231.0859406792
 21
42.0968419765
 31
0.0
  0
LINE
  5
1F8
330
1F
100
AcDbEntity
  8
0
  6
Continuous
 62
     7
370
    15
100
AcDbLine
 10
227.8570925807
 20
43.9608163079
 30
0.0
 11
229.7500254677
 21
45.0535832034
 31
0.0
  0
LINE
  5
1F9
330
1F
100
AcDbEntity
  8
0
  6
Continuous
 62
     7
370
    15
100
AcDbLine
 10
227.4236593332
 20
43.7105599497
 30
0.0
 11
227.8570925807
 21
43.9608163079
 31
0.0
  0
LINE
  5
1FA
330
1F
100
AcDbEntity
  8
0
  6
Continuous
 62
     7
370
    15
100
AcDbLine
 10
230.6122042651
 20
41.7315412014
 30
0.0
 11
227.5804839407
 21
43.4817160911
 31
0.0
  0
SPLINE
  5
1FB
330
1F
100
AcDbEntity
  8
0
  6
Continuous
 62
     7
370
    15
100
AcDbSpline
210
0.0
220
0.0
230
1.0
 70
     8
 71
     3
 72
     8
 73
     4
 74
     0
 42
0.000000001
 43
0.00000001
 40
0.0
 40
0.0
 40
0.0
 40
0.0
 40
1.0
 40
1.0
 40
1.0
 40
1.0
 10
227.5804839407454
 20
43.48171609110338
 30
0.0
 10
227.5004591412307
 20
43.52791342452534
 30
0.0
 10
227.4459823438488
 20
43.61110094689003
 30
0.0
 10
227.4236593331842
 20
43.71055994973115
 30
0.0
  0
ARC
  5
1FC
330
1F
100
AcDbEntity
  8
0
  6
Continuous
 62
     7
370
    15
100
AcDbCircle
 10
233.1145925264
 20
44.301271982
 30
0.0
 40
5.414344053268461
100
AcDbArc
 50
223.5450461559
 51
239.8640484934
  0
ELLIPSE
  5
1FD
330
1F
100
AcDbEntity
  8
0
  6
Continuous
 62
     7
370
    15
100
AcDbEllipse
 10
229.5157108926
 20
45.8420827778
 30
0.0
 11
-6.005970385558612E-5
 21
0.8534489614827194
 31
0.0
210
0.0
220
0.0
230
1.0
 40
0.7174342186
 41
3.534193645557441
 42
5.104989972352356
  0
ELLIPSE
  5
1FE
330
1F
100
AcDbEntity
  8
0
  6
Continuous
 62
     7
370
    15
100
AcDbEllipse
 10
229.3964720771
 20
45.7732252977
 30
0.0
 11
0.2600075789209199
 21
0.9705436209909308
 31
0.0
210
0.0
220
0.0
230
1.0
 40
0.5176380889
 41
3.619174351347694
 42
5.189970678142623
  0
LWPOLYLINE
  5
1FF
330
1F
100
AcDbEntity
  8
0
  6
Continuous
 62
     7
370
     0
100
AcDbPolyline
 90
       43
 70
   128
 43
0.0
 10
235.9725651421
 20
42.1354583214
 10
236.0135991526
 20
43.2444316208
 10
236.1363888903
 20
44.3923418238
 10
236.3399998513
 20
45.5704526406
 10
236.6228824333
 20
46.7697979366
 10
236.9828837289
 20
47.9812499698
 10
237.4172639108
 20
49.1955888588
 10
237.9227170838
 20
50.4035727515
 10
238.4953964438
 20
51.5960081609
 10
239.1309435552
 20
52.7638199337
 10
239.8245215207
 20
53.898120317
 10
240.5708517932
 20
54.9902766
 10
241.3642543487
 20
56.0319768141
 10
242.1986909146
 20
57.0152929914
 10
243.0678109248
 20
57.9327415023
 10
243.9649998513
 20
58.7773400095
 10
244.8834295447
 20
59.5426606085
 10
245.8161102003
 20
60.2228787473
 10
246.7559435552
 20
60.8128175553
 10
247.6957769101
 20
61.3079872417
 10
248.6284575657
 20
61.7046192665
 10
249.5468872591
 20
61.9996950203
 10
250.4440761856
 20
62.1909687984
 10
251.3131961958
 20
62.2769848921
 10
252.1476327617
 20
62.2570886667
 10
252.9410353172
 20
62.1314315447
 10
253.6873655897
 20
61.9009698526
 10
254.3809435552
 20
61.567457543
 10
255.0164906666
 20
61.1334328459
 10
255.5891700266
 20
60.6021989515
 10
256.0946231996
 20
59.9777988704
 10
256.5290033816
 20
59.2649846643
 10
256.8890046771
 20
58.4691812796
 10
257.1718872591
 20
57.5964452606
 10
257.3754982201
 20
56.6534186555
 10
257.4982879578
 20
55.647278466
 10
257.5393219683
 20
54.5856820267
 10
257.4982879578
 20
53.4767087273
 10
257.3754982201
 20
52.3287985242
 10
257.1718872591
 20
51.1506877074
 10
256.8890046771
 20
49.9513424114
 10
256.5290033816
 20
48.7398903782
 10
256.459840517
 20
48.5319760041
  0
LWPOLYLINE
  5
200
330
1F
100
AcDbEntity
  8
0
  6
Continuous
 62
     7
370
     0
100
AcDbPolyline
 90
       25
 70
   128
 43
0.0
 10
251.4602468538
 20
39.8714873803
 10
251.3131961958
 20
39.7058473566
 10
250.4440761856
 20
38.7883988457
 10
249.5468872591
 20
37.9438003385
 10
248.6284575657
 20
37.1784797395
 10
247.6957769101
 20
36.4982616007
 10
246.7559435552
 20
35.9083227927
 10
245.8161102003
 20
35.4131531063
 10
244.8834295447
 20
35.0165210815
 10
243.9649998513
 20
34.7214453277
 10
243.0678109248
 20
34.5301715496
 10
242.1986909146
 20
34.444155456
 10
241.3642543487
 20
34.4640516813
 10
240.5708517932
 20
34.5897088033
 10
239.8245215207
 20
34.8201704955
 10
239.1309435552
 20
35.1536828051
 10
238.4953964438
 20
35.5877075021
 10
237.9227170838
 20
36.1189413965
 10
237.4172639108
 20
36.7433414776
 10
236.9828837289
 20
37.4561556837
 10
236.6228824333
 20
38.2519590684
 10
236.3399998513
 20
39.1246950874
 10
236.1363888903
 20
40.0677216925
 10
236.0135991526
 20
41.073861882
 10
235.9725651421
 20
42.1354583214
  0
LWPOLYLINE
  5
201
330
1F
100
AcDbEntity
  8
0
  6
Continuous
 62
     7
370
     0
100
AcDbPolyline
 90
       27
 70
   128
 43
0.0
 10
235.2654583609
 20
42.1354583214
 10
235.3066853342
 20
43.2648099697
 10
235.430061024
 20
44.4333999437
 10
235.6346719999
 20
45.6325764122
 10
235.9190033938
 20
46.853461092
 10
236.2809501156
 20
48.0870149801
 10
236.7178324382
 20
49.3241052753
 10
237.226415838
 20
50.5555729936
 10
237.8029349413
 20
51.7723007791
 10
238.4431214023
 20
52.9652804048
 10
239.1422355046
 20
54.125679467
 10
239.8951012519
 20
55.244906777
 10
240.6961446896
 20
56.3146759675
 10
241.5394351723
 20
57.3270668416
 10
242.4187292724
 20
58.2745840114
 10
243.327517004
 20
59.1502123914
 10
244.2590700207
 20
59.9474691354
 10
245.2064914298
 20
60.6604516334
 10
246.1627668548
 20
61.2838812125
 10
247.1208163669
 20
61.813142218
 10
248.0735469027
 20
62.2443161868
 10
249.0139047788
 20
62.5742108577
 10
249.9349279143
 20
62.8003838058
 10
250.8297973763
 20
62.9211605259
 10
251.6918878643
 20
62.9356468293
 10
252.514816762
 20
62.8437354645
 10
252.8643268274
 20
62.7693890955
  0
ARC
  5
202
330
1F
100
AcDbEntity
  8
0
  6
Continuous
 62
     7
370
     0
100
AcDbCircle
 10
244.0382595567
 20
41.5523090797
 30
0.0
 40
8.79216150091293
100
AcDbArc
 50
176.1970061233
 51
220.3157775657
  0
LWPOLYLINE
  5
203
330
1F
100
AcDbEntity
  8
0
  6
Continuous
 62
     7
370
     0
100
AcDbPolyline
 90
       24
 70
   128
 43
0.0
 10
242.1597494775
 20
45.7072438106
 10
242.2007590736
 20
46.4383406984
 10
242.3230560447
 20
47.2037398167
 10
242.5244579984
 20
47.9897826002
 10
242.8013709122
 20
48.7824420967
 10
243.1488532684
 20
49.5675732788
 10
243.5607042363
 20
50.3311654618
 10
244.0295743255
 20
51.0595923253
 10
244.5470965382
 20
51.7398550745
 10
245.1040356782
 20
52.3598144047
 10
245.6904531534
 20
52.9084071267
 10
246.2958843302
 20
53.3758435907
 10
246.9095252746
 20
53.7537823817
 10
247.5204255497
 20
54.035479173
 10
248.1176836254
 20
54.2159070789
 10
248.6906414174
 20
54.2918463589
 10
249.2290744801
 20
54.261941875
 10
249.7233744629
 20
54.1267272732
 10
250.1647205709
 20
53.8886154614
 10
250.5452369723
 20
53.5518555504
 10
250.8581333428
 20
53.122457029
 10
251.0978260394
 20
52.6080825238
 10
251.2600377403
 20
52.0179110601
 10
251.3325651032
 20
51.491889097
  0
LWPOLYLINE
  5
204
330
1F
100
AcDbEntity
  8
0
  6
Continuous
 62
     7
370
     0
100
AcDbPolyline
 90
       13
 70
   128
 43
0.0
 10
246.33297144
 20
42.8314004732
 10
246.2958843302
 20
42.8141236824
 10
245.6904531534
 20
42.5825441887
 10
245.1040356782
 20
42.4540737056
 10
244.5470965382
 20
42.4310047918
 10
244.0295743255
 20
42.5137491128
 10
243.5607042363
 20
42.7008300942
 10
243.1488532684
 20
42.9889092713
 10
242.8013709122
 20
43.3728458645
 10
242.5244579984
 20
43.8457885162
 10
242.3230560447
 20
44.3992975535
 10
242.2007590736
 20
45.0234955946
 10
242.1597494775
 20
45.7072438106
  0
LWPOLYLINE
  5
205
330
1F
100
AcDbEntity
  8
0
  6
Continuous
 62
     7
370
     0
100
AcDbPolyline
 90
       20
 70
   128
 43
0.0
 10
233.1666118415
 20
49.0146273713
 10
233.4732367632
 20
50.1591336498
 10
233.8570218316
 20
51.3107473483
 10
234.3145897065
 20
52.4593341719
 10
234.8419137533
 20
53.5947864625
 10
235.4343534769
 20
54.7071121467
 10
236.0866953594
 20
55.7865226674
 10
236.7931987387
 20
56.8235191235
 10
237.5476463272
 20
57.8089758612
 10
238.3433989241
 20
58.7342207804
 10
239.1734538414
 20
59.59111165
 10
240.0305065279
 20
60.3721077601
 10
240.9070148496
 20
61.070336281
 10
241.7952654615
 20
61.6796527443
 10
242.6874416853
 20
62.1946951153
 10
243.5756922971
 20
62.6109309789
 10
244.4522006188
 20
62.9246974254
 10
245.3092533053
 20
63.1332332843
 10
246.1393082226
 20
63.234703423
 10
246.7858589615
 20
63.2378154544
  0
ARC
  5
206
330
1F
100
AcDbEntity
  8
0
  6
Continuous
 62
     7
370
     0
100
AcDbCircle
 10
246.7299607279
 20
45.4363040219
 30
0.0
 40
2.463833403968213
100
AcDbArc
 50
173.6866002849
 51
235.0012193218
  0
LWPOLYLINE
  5
207
330
1F
100
AcDbEntity
  8
0
  6
Continuous
 62
     7
370
     0
100
AcDbPolyline
 90
       17
 70
   128
 43
0.0
 10
250.3164005586
 20
52.078508402
 10
250.1688852984
 20
52.1541632051
 10
249.7384052302
 20
52.2845771156
 10
249.2628797636
 20
52.3086636936
 10
248.7534548124
 20
52.22585837
 10
248.2220708659
 20
52.0381020316
 10
247.6811831133
 20
51.7497955277
 10
247.1434695051
 20
51.3676965185
 10
246.6215335926
 20
50.9007610809
 10
246.1276091111
 20
50.3599337857
 10
245.6732732319
 20
49.7578911664
 10
245.2691752028
 20
49.1087445917
 10
244.9247867393
 20
48.4277095071
 10
244.648180015
 20
47.7307487978
 10
244.4458384571
 20
47.0341986322
 10
244.3225047801
 20
46.3543855557
 10
244.281069821
 20
45.7072438106
  0
LWPOLYLINE
  5
208
330
1F
100
AcDbEntity
  8
0
  6
Continuous
 62
     7
370
     0
100
AcDbPolyline
 90
       34
 70
   128
 43
0.0
 10
254.0037880624
 20
41.5231522375
 10
254.0453176697
 20
42.0493537048
 10
254.1684055034
 20
42.6044859441
 10
254.3686028485
 20
43.1684850298
 10
254.6386740513
 20
43.7209665655
 10
254.968858035
 20
44.241962429
 10
255.3472210899
 20
44.7126424723
 10
255.7600881896
 20
45.1159950924
 10
256.1925372414
 20
45.4374420747
 10
256.6289384096
 20
45.6653654876
 10
257.0535190192
 20
45.7915275852
 10
257.4509336206
 20
45.8113685406
 10
257.8068186148
 20
45.7241712499
 10
258.1083113906
 20
45.5330872504
 10
258.3445152138
 20
45.2450228158
 10
258.5068930627
 20
44.8703893452
 10
258.5895761787
 20
44.4227270683
 10
258.5895761787
 20
43.9182156663
 10
258.5068930627
 20
43.3750894956
 10
258.3445152138
 20
42.8129785513
 10
258.1083113906
 20
42.2521989873
 10
257.8068186148
 20
41.7130188382
 10
257.4509336206
 20
41.2149254795
 10
257.0535190192
 20
40.7759213029
 10
256.6289384096
 20
40.4118730631
 10
256.1925372414
 20
40.135938412
 10
255.7600881896
 20
39.958090347
 10
255.3472210899
 20
39.8847567603
 10
254.968858035
 20
39.918588119
 10
254.6386740513
 20
40.0583616695
 10
254.3686028485
 20
40.2990256316
 10
254.1684055034
 20
40.6318817827
 10
254.0453176697
 20
41.0448998341
 10
254.0037880624
 20
41.5231522375
  0
LWPOLYLINE
  5
209
330
1F
100
AcDbEntity
  8
0
  6
Continuous
 62
     7
370
     0
100
AcDbPolyline
 90
       24
 70
   128
 43
0.0
 10
227.5804839407
 20
50.6937045226
 10
227.8872994184
 20
51.9151049097
 10
228.2704583406
 20
53.1463863942
 10
228.7271435398
 20
54.3784960063
 10
229.2539972482
 20
55.6023746873
 10
229.8471457856
 20
56.8090238966
 10
230.5022280405
 20
57.9895717723
 10
231.2144275352
 20
59.1353383626
 10
231.9785078387
 20
60.2378994439
 10
232.7888510675
 20
61.2891484603
 10
233.6394991909
 20
62.2813561268
 10
234.5241978376
 20
63.2072272584
 10
235.4364422802
 20
64.0599544083
 10
236.3695252619
 20
64.8332679189
 10
237.3165863106
 20
65.5214820198
 10
238.270662181
 20
66.1195366321
 10
239.2247380513
 20
66.6230345726
 10
240.1717991
 20
67.0282738837
 10
241.1048820817
 20
67.3322750524
 10
242.0171265244
 20
67.5328029168
 10
242.901825171
 20
67.6283831004
 10
243.7524732944
 20
67.6183128519
 10
244.5628165232
 20
67.5026662126
 10
244.7349178683
 20
67.463166188
  0
LWPOLYLINE
  5
20A
330
1F
100
AcDbEntity
  8
0
  6
Continuous
 62
     7
370
     0
100
AcDbPolyline
 90
       19
 70
   128
 43
0.0
 10
233.5598845931
 20
48.9588468324
 10
233.8645694865
 20
50.0826897619
 10
234.2445603583
 20
51.2130196848
 10
234.6965382022
 20
52.3399638063
 10
235.2165552467
 20
53.4536789048
 10
235.8000694359
 20
54.5444373067
 10
236.4419841024
 20
55.6027118523
 10
237.1366924833
 20
56.6192591098
 10
237.8781266927
 20
57.585200112
 10
238.6598107205
 20
58.4920979088
 10
239.4749169975
 20
59.3320312591
 10
240.3163260297
 20
60.0976638186
 10
241.1766885837
 20
60.7823082184
 10
242.0484898774
 20
61.3799844757
 10
242.9241152179
 20
61.8854722252
 10
243.7959165116
 20
62.2943563164
 10
244.6562790656
 20
62.6030653772
 10
245.4976880978
 20
62.808903008
 10
245.9207936885
 20
62.874103206
  0
LWPOLYLINE
  5
20B
330
1F
100
AcDbEntity
  8
0
  6
Continuous
 62
     7
370
     0
100
AcDbPolyline
 90
       17
 70
   128
 43
0.0
 10
257.3357075901
 20
45.4282107312
 10
257.5215005684
 20
45.2819527774
 10
257.7247607277
 20
44.9927500292
 10
257.8503824147
 20
44.6188109936
 10
257.8928753589
 20
44.1764786009
 10
257.8503824147
 20
43.6850848991
 10
257.7247607277
 20
43.166106151
 10
257.5215005684
 20
42.6422242182
 10
257.2494853811
 20
42.136335255
 10
256.9206035348
 20
41.6705490367
 10
256.5492287442
 20
41.265222656
 10
256.1515918699
 20
40.9380708208
 10
255.7450715513
 20
40.7033916362
 10
255.347434677
 20
40.5714417085
 10
254.9760598865
 20
40.5479878829
 10
254.6471780402
 20
40.634055204
 10
254.5529281797
 20
40.6844850606
  0
LINE
  5
20C
330
1F
100
AcDbEntity
  8
0
  6
Continuous
 62
     7
370
     0
100
AcDbLine
 10
233.569207244
 20
42.3803114449
 30
0.0
 11
233.9749884853
 21
42.6145639693
 31
0.0
  0
LWPOLYLINE
  5
20D
330
1F
100
AcDbEntity
  8
0
  6
Continuous
 62
     7
370
     0
100
AcDbPolyline
 90
        3
 70
   128
 43
0.0
 10
234.5331004173
 20
42.3561831749
 10
234.4692093962
 20
42.3791867963
 10
233.9749884853
 20
42.6145639693
  0
ARC
  5
20E
330
1F
100
AcDbEntity
  8
0
  6
Continuous
 62
     7
370
     0
100
AcDbCircle
 10
233.2869993158
 20
43.6711655645
 30
0.0
 40
1.260847345343244
100
AcDbArc
 50
303.0695173616
 51
345.5982002282
  0
LINE
  5
20F
330
1F
100
AcDbEntity
  8
0
  6
Continuous
 62
     7
370
     0
100
AcDbLine
 10
230.0813963176
 20
46.1686460225
 30
0.0
 11
234.4663868232
 21
43.6372448861
 31
0.0
  0
LINE
  5
210
330
1F
100
AcDbEntity
  8
0
  6
Continuous
 62
     7
370
     0
100
AcDbLine
 10
229.962157502
 20
46.0997885424
 30
0.0
 11
230.0813963176
 21
46.1686460225
 31
0.0
  0
LINE
  5
211
330
1F
100
AcDbEntity
  8
0
  6
Continuous
 62
     7
370
     0
100
AcDbLine
 10
229.7058312938
 20
49.1310553295
 30
0.0
 11
229.7110191885
 21
49.4637207938
 31
0.0
  0
ARC
  5
212
330
1F
100
AcDbEntity
  8
0
  6
Continuous
 62
     7
370
     0
100
AcDbCircle
 10
238.2521165577
 20
49.0526222413
 30
0.0
 40
8.546645164039619
100
AcDbArc
 50
179.4741857274
 51
192.6038112494
  0
LWPOLYLINE
  5
213
330
1F
100
AcDbEntity
  8
0
  6
Continuous
 62
     7
370
     0
100
AcDbPolyline
 90
       18
 70
   128
 43
0.0
 10
209.8603153956
 20
64.4299347771
 10
209.9025064587
 20
65.1665623237
 10
210.0282937082
 20
65.9381806575
 10
210.2353339658
 20
66.7304159887
 10
210.519770463
 20
67.5285104721
 10
210.8763046863
 20
68.3175971177
 10
211.2982950776
 20
69.0829767341
 10
211.7778807542
 20
69.8103917473
 10
212.3061279426
 20
70.4862917919
 10
212.873196397
 20
71.0980861289
 10
213.4685227051
 20
71.6343781874
 10
214.0810170642
 20
72.085177861
 10
214.6992698631
 20
72.4420876049
 10
215.3117642222
 20
72.6984588656
 10
215.9070905303
 20
72.8495159318
 10
216.4741589847
 20
72.8924448961
 10
217.002406173
 20
72.826446073
 10
217.0982137395
 20
72.8014736852
  0
ARC
  5
214
330
1F
100
AcDbEntity
  8
0
  6
Continuous
 62
     7
370
     0
100
AcDbCircle
 10
213.4110520264
 20
64.2007123055
 30
0.0
 40
3.558127817133919
100
AcDbArc
 50
176.3063210893
 51
222.9315250867
  0
LWPOLYLINE
  5
215
330
1F
100
AcDbEntity
  8
0
  6
Continuous
 62
     7
370
     0
100
AcDbPolyline
 90
        3
 70
   128
 43
0.0
 10
234.0315023624
 20
41.2827170262
 10
233.8801366743
 20
41.5805999912
 10
233.5598845931
 20
42.3856932967
  0
ARC
  5
216
330
1F
100
AcDbEntity
  8
0
  6
Continuous
 62
     7
370
     0
100
AcDbCircle
 10
239.203570608
 20
44.3158683092
 30
0.0
 40
6.321251916424819
100
AcDbArc
 50
197.2488655996
 51
213.7856470572
  0
LINE
  5
217
330
1F
100
AcDbEntity
  8
0
  6
Continuous
 62
     7
370
     0
100
AcDbLine
 10
233.9749884853
 20
42.6145639693
 30
0.0
 11
229.7500254677
 21
45.0535832034
 31
0.0
  0
ARC
  5
218
330
1F
100
AcDbEntity
  8
0
  6
Continuous
 62
     7
370
     0
100
AcDbCircle
 10
234.3982672587
 20
45.3518317312
 30
0.0
 40
7.069618227151872
100
AcDbArc
 50
195.3389392146
 51
222.5491558567
  0
OLE2FRAME
  5
219
330
1F
100
AcDbEntity
  8
0
100
AcDbOle2Frame
 70
     2
  3
Paintbrush-Bild
 10
13.8511154363
 20
38.264191557
 30
0.0
 11
51.6290888628
 21
31.9806341108
 31
0.0
 71
     2
 72
     0
 73
     1
 90
    12928
310
80552BED0767C5B32B40DDAF6807D121434000000000000000006FFBDDFB85D0
310
4940DDAF6807D121434000000000000000006FFBDDFB85D04940416F4BD60AFB
310
3F4000000000000000002BED0767C5B32B40416F4BD60AFB3F40000000000000
310
0000000000000100000000010000010000000100000000000100000000320000
310
D0CF11E0A1B11AE1000000000000000000000000000000003E000300FEFF0900
310
0600000000000000000000000100000001000000000000000010000002000000
310
01000000FEFFFFFF0000000000000000FFFFFFFFFFFFFFFFFFFFFFFFFFFFFFFF
310
FFFFFFFFFFFFFFFFFFFFFFFFFFFFFFFFFFFFFFFFFFFFFFFFFFFFFFFFFFFFFFFF
310
FFFFFFFFFFFFFFFFFFFFFFFFFFFFFFFFFFFFFFFFFFFFFFFFFFFFFFFFFFFFFFFF
310
FFFFFFFFFFFFFFFFFFFFFFFFFFFFFFFFFFFFFFFFFFFFFFFFFFFFFFFFFFFFFFFF
310
FFFFFFFFFFFFFFFFFFFFFFFFFFFFFFFFFFFFFFFFFFFFFFFFFFFFFFFFFFFFFFFF
310
FFFFFFFFFFFFFFFFFFFFFFFFFFFFFFFFFFFFFFFFFFFFFFFFFFFFFFFFFFFFFFFF
310
FFFFFFFFFFFFFFFFFFFFFFFFFFFFFFFFFFFFFFFFFFFFFFFFFFFFFFFFFFFFFFFF
310
FFFFFFFFFFFFFFFFFFFFFFFFFFFFFFFFFFFFFFFFFFFFFFFFFFFFFFFFFFFFFFFF
310
FFFFFFFFFFFFFFFFFFFFFFFFFFFFFFFFFFFFFFFFFFFFFFFFFFFFFFFFFFFFFFFF
310
FFFFFFFFFFFFFFFFFFFFFFFFFFFFFFFFFFFFFFFFFFFFFFFFFFFFFFFFFFFFFFFF
310
FFFFFFFFFFFFFFFFFFFFFFFFFFFFFFFFFFFFFFFFFFFFFFFFFFFFFFFFFFFFFFFF
310
FFFFFFFFFFFFFFFFFFFFFFFFFFFFFFFFFFFFFFFFFFFFFFFFFFFFFFFFFFFFFFFF
310
FFFFFFFFFFFFFFFFFFFFFFFFFFFFFFFFFFFFFFFFFFFFFFFFFFFFFFFFFFFFFFFF
310
FFFFFFFFFFFFFFFFFFFFFFFFFFFFFFFFFFFFFFFFFFFFFFFFFFFFFFFFFFFFFFFF
310
FDFFFFFFFEFFFFFFFEFFFFFFFEFFFFFF05000000060000000700000008000000
310
090000000A0000000B0000000C0000000D0000000E0000000F00000010000000
310
11000000120000001300000014000000150000001600000017000000FEFFFFFF
310
FFFFFFFFFFFFFFFFFFFFFFFFFFFFFFFFFFFFFFFFFFFFFFFFFFFFFFFFFFFFFFFF
310
FFFFFFFFFFFFFFFFFFFFFFFFFFFFFFFFFFFFFFFFFFFFFFFFFFFFFFFFFFFFFFFF
310
FFFFFFFFFFFFFFFFFFFFFFFFFFFFFFFFFFFFFFFFFFFFFFFFFFFFFFFFFFFFFFFF
310
FFFFFFFFFFFFFFFFFFFFFFFFFFFFFFFFFFFFFFFFFFFFFFFFFFFFFFFFFFFFFFFF
310
FFFFFFFFFFFFFFFFFFFFFFFFFFFFFFFFFFFFFFFFFFFFFFFFFFFFFFFFFFFFFFFF
310
FFFFFFFFFFFFFFFFFFFFFFFFFFFFFFFFFFFFFFFFFFFFFFFFFFFFFFFFFFFFFFFF
310
FFFFFFFFFFFFFFFFFFFFFFFFFFFFFFFFFFFFFFFFFFFFFFFFFFFFFFFFFFFFFFFF
310
FFFFFFFFFFFFFFFFFFFFFFFFFFFFFFFFFFFFFFFFFFFFFFFFFFFFFFFFFFFFFFFF
310
FFFFFFFFFFFFFFFFFFFFFFFFFFFFFFFFFFFFFFFFFFFFFFFFFFFFFFFFFFFFFFFF
310
FFFFFFFFFFFFFFFFFFFFFFFFFFFFFFFFFFFFFFFFFFFFFFFFFFFFFFFFFFFFFFFF
310
FFFFFFFFFFFFFFFFFFFFFFFFFFFFFFFFFFFFFFFFFFFFFFFFFFFFFFFFFFFFFFFF
310
FFFFFFFFFFFFFFFFFFFFFFFFFFFFFFFFFFFFFFFFFFFFFFFFFFFFFFFFFFFFFFFF
310
FFFFFFFFFFFFFFFFFFFFFFFFFFFFFFFFFFFFFFFFFFFFFFFFFFFFFFFFFFFFFFFF
310
52006F006F007400200045006E00740072007900000000000000000000000000
310
0000000000000000000000000000000000000000000000000000000000000000
310
16000500FFFFFFFFFFFFFFFF020000000A00030000000000C000000000000046
310
00000000000000000000000010D708455925D20103000000C000000000000000
310
01004F006C006500000000000000000000000000000000000000000000000000
310
0000000000000000000000000000000000000000000000000000000000000000
310
0A000200FFFFFFFFFFFFFFFFFFFFFFFF00000000000000000000000000000000
310
0000000000000000000000000000000000000000000000001400000000000000
310
010043006F006D0070004F0062006A0000000000000000000000000000000000
310
0000000000000000000000000000000000000000000000000000000000000000
310
120002010100000003000000FFFFFFFF00000000000000000000000000000000
310
0000000000000000000000000000000000000000010000004D00000000000000
310
01004F006C006500310030004E00610074006900760065000000000000000000
310
0000000000000000000000000000000000000000000000000000000000000000
310
1A000200FFFFFFFFFFFFFFFFFFFFFFFF00000000000000000000000000000000
310
0000000000000000000000000000000000000000040000002426000000000000
310
FEFFFFFF02000000FEFFFFFFFFFFFFFFFFFFFFFFFFFFFFFFFFFFFFFFFFFFFFFF
310
FFFFFFFFFFFFFFFFFFFFFFFFFFFFFFFFFFFFFFFFFFFFFFFFFFFFFFFFFFFFFFFF
310
FFFFFFFFFFFFFFFFFFFFFFFFFFFFFFFFFFFFFFFFFFFFFFFFFFFFFFFFFFFFFFFF
310
FFFFFFFFFFFFFFFFFFFFFFFFFFFFFFFFFFFFFFFFFFFFFFFFFFFFFFFFFFFFFFFF
310
FFFFFFFFFFFFFFFFFFFFFFFFFFFFFFFFFFFFFFFFFFFFFFFFFFFFFFFFFFFFFFFF
310
FFFFFFFFFFFFFFFFFFFFFFFFFFFFFFFFFFFFFFFFFFFFFFFFFFFFFFFFFFFFFFFF
310
FFFFFFFFFFFFFFFFFFFFFFFFFFFFFFFFFFFFFFFFFFFFFFFFFFFFFFFFFFFFFFFF
310
FFFFFFFFFFFFFFFFFFFFFFFFFFFFFFFFFFFFFFFFFFFFFFFFFFFFFFFFFFFFFFFF
310
FFFFFFFFFFFFFFFFFFFFFFFFFFFFFFFFFFFFFFFFFFFFFFFFFFFFFFFFFFFFFFFF
310
FFFFFFFFFFFFFFFFFFFFFFFFFFFFFFFFFFFFFFFFFFFFFFFFFFFFFFFFFFFFFFFF
310
FFFFFFFFFFFFFFFFFFFFFFFFFFFFFFFFFFFFFFFFFFFFFFFFFFFFFFFFFFFFFFFF
310
FFFFFFFFFFFFFFFFFFFFFFFFFFFFFFFFFFFFFFFFFFFFFFFFFFFFFFFFFFFFFFFF
310
FFFFFFFFFFFFFFFFFFFFFFFFFFFFFFFFFFFFFFFFFFFFFFFFFFFFFFFFFFFFFFFF
310
FFFFFFFFFFFFFFFFFFFFFFFFFFFFFFFFFFFFFFFFFFFFFFFFFFFFFFFFFFFFFFFF
310
FFFFFFFFFFFFFFFFFFFFFFFFFFFFFFFFFFFFFFFFFFFFFFFFFFFFFFFFFFFFFFFF
310
FFFFFFFFFFFFFFFFFFFFFFFFFFFFFFFFFFFFFFFFFFFFFFFFFFFFFFFFFFFFFFFF
310
0100000200000000000000000000000000000000000000000000000000000000
310
0000000000000000000000000000000000000000000000000000000000000000
310
0100FEFF030A0000FFFFFFFF0A00030000000000C00000000000004607000000
310
5042727573680007000000504272757368000700000050427275736800F439B2
310
7100000000000000000000000000000000000000000000000000000000000000
310
0000000000000000000000000000000000000000000000000000000000000000
310
0000000000000000000000000000000000000000000000000000000000000000
310
0000000000000000000000000000000000000000000000000000000000000000
310
0000000000000000000000000000000000000000000000000000000000000000
310
0000000000000000000000000000000000000000000000000000000000000000
310
0000000000000000000000000000000000000000000000000000000000000000
310
0000000000000000000000000000000000000000000000000000000000000000
310
0000000000000000000000000000000000000000000000000000000000000000
310
0000000000000000000000000000000000000000000000000000000000000000
310
0000000000000000000000000000000000000000000000000000000000000000
310
0000000000000000000000000000000000000000000000000000000000000000
310
20260000424D0E260000000000003E00000028000000B40200006E0000000100
310
01000000000000000000130B0000130B00000200000002000000000000FFFFFF
310
FFFFFFFFFFFFFFFFFFFFFFFFFFFFFFFFFFFFFFFFFFFFFFFFFFFFFFFFFFFFFFFF
310
FFFFFFFFFFFFFFFFFFFFFFFFFFFFFFFFFFFFFFFFFFFFFFFFFFFFFFFFFFFFFFFF
310
FFFFFFFFFFFFFFFFFFFFFFFFFFFFFFFFFFFFFFFFFFFFFFFFF000FFFFFFFFFFFF
310
FFFFFFFFFFFFFFFFFFFFFFFFFFFFFFFFFFFFFFFFFFFFFFFFFFFFFFFFFFFFFFFF
310
FFFFFFFFFFFFFFFFFFFFFFFFFFFFFFFFFFFFFFFFFFFFFFFFFFFFFFFFFFFFFFFF
310
FFFFFFFFFFFFFFFFFFFFFFFFFFFFFFFFF000FFFFFFFFFFFFFFFFFFFFFFFFFFFF
310
FFFFFFFFFFFFFFFFFFFFFFFFFFFFFFFFFFFFFFFFFFFFFFFFFFFFFFFFFFFFFFFF
310
FFFFFFFFFFFFFFFFFFFFFFFFFFFFFFFFFFFFFFFFFFFFFFFFFFFFFFFFFFFFFFFF
310
FFFFFFFFFFFFFFFFF000FFFFFFFFFFFFFFFFFFFFFFFFFFFFFFFFFFFFFFFFFFFF
310
FFFFFFFFFFFFFFFFFFFFFFFFFFFFFFFFFFFFFFFFFFFFFFFFFFFFFFFFFFFFFFFF
310
FFFFFFFFFFFFFFFFFFFFFFFFFFFFFFFFFFFFFFFFFFFFFFFFFFFFFFFFFFFFFFFF
310
F000FFFFFFFFFFFFFFFFFFFFFFFFFFFFFFFFFFFFFFFFFFFFFFFFFFFFFFFFFFFF
310
FFFFFFFFFFFFFFFFFFFFFFFFFFFFFFFFFFFFFFFFFFFFFFFFFFFFFFFFFFFFFFFF
310
FFFFFFFFFFFFFFFFFFFFFFFFFFFFFFFFFFFFFFFFFFFFFFFFF000FFFFFFFFFFFF
310
FFFFFFFFFFFFFFFFFFFFFFFFFFFFFFFFFFFFFFFFFFFFFFFFFFFFFFFFFFFFFFFF
310
FFFFFFFFFFFFFFFFFFFFFFFFFFFFFFFFFFFFFFFFFFFFFFFFFFFFFFFFFFFFFFFF
310
FFFFFFFFFFFFFFFFFFFFFFFFFFFFFFFFF000FFFFFFFFFFFFFFFFFFFFFFFFFFFF
310
FFFFFFFFFFFFFFFFFFFFFFFFFFFFFFFFFFFFFFFFFFFFFFFFFFFFFFFFFFFFFFFF
310
FFFFFFFFFFFFFFFFFFFFFFFFFFFFFFFFFFFFFFFFFFFFFFFFFFFFFFFFFFFFFFFF
310
FFFFFFFFFFFFFFFFF000FFFFFFFFFFFFFFFFFFFFFFFFFFFFFFFFFFFFFFFFFFFF
310
FFFFFFFFFFFFFFFFFFFFFFFFFFFFFFFFFFFFFFFFFFFFFFFFFFFFFFFFFFFFFFFF
310
FFFFFFFFFFFFFFFFFFFFFFFFFFFFFFFFFFFFFFFFFFFFFFFFFFFFFFFFFFFFFFFF
310
F000FFFFFFFFFFFFFFFFFFFFFFFFFFFFFFFFFFFFFFFFFFFFFFFFFFFFFFFFFFFF
310
FFFFFFFFFFFFFFFFFFFFFFFFFFFFFFFFFFFFFFFFFFFFFFFFFFFFFFFFFFFFFFFF
310
FFFFFFFFFFFFFFFFFFFFFFFFFFFFFFFFFFFFFFFFFFFFFFFFF000FFFFFFFFFFFF
310
FFFFFFFFFFFFFFFFFFFFFFFFFFFFFFFFFFFFFFFFFFFFFFFFFFFFFFFFFFFFFFFF
310
FFFFFFFFFFFFFFFFFFFFFFFFFFFFFFFFFFFFFFFFFFFFFFFFFFFFFFFFFFFFFFFF
310
FFFFFFFFFFFFFFFFFFFFFFFFFFFFFFFFF000FFFFFFFFFFFFFFFFFFFFFFFFFFFF
310
FFFFFFFFFFFFFFFFFFFFFFFFFFFFFFFFFFFFFFFFFFFFFFFFFFFFFFFFFFFFFFFF
310
FFFFFFFFFFFFFFFFFFFFFFFFFFFFFFFFFFFFFFFFFFFFFFFFFFFFFFFFFFFFFFFF
310
FFFFFFFFFFFFFFFFF000FFFFFFFFFFFFFFFFFFFFFFFFFFFFFFFFFFFFFFFFFFFF
310
FFFFFFFFFFFFFFFFFFFFFFFFFFFFFFFFFFFFFFFFFFFFFFFFFFFFFFFFFFFFFFFF
310
FFFFFFFFFFFFFFFFFFFFFFFFFFFFFFFFFFFFFFFFFFFFFFFFFFFFFFFFFFFFFFFF
310
F000FFFFFFFFFFFFFFFFFFFFFFFFFFFFFFFFFFFFFFFFFFFFFFFFFFFFFFFFFFFF
310
FFFFFFFFFFFFFFFFFFFFFFFFFFFFFFFFFFFFFFFFFFFFFFFFFFFFFFFFFFFFFFFF
310
FFFFFFFFFFFFFFFFFFFFFFFFFFFFFFFFFFFFFFFFFFFFFFFFF000FFFFFFFFFFFF
310
FFFFFFFFFFFFFFFFFFFFFFFFFFFFFFFFFFFFFFFFFFFFFFFFFFFFFFFFFFFFFFFF
310
FFFFFFFFFFFFFFFFFFFFFFFFFFFFFFFFFFFFFFFFFFFFFFFFFFFFFFFFFFFFFFFF
310
FFFFFFFFFFFFFFFFFFFFFFFFFFFFFFFFF000FFFFFFFFFFFFFFFFFFFFFFFFFFFF
310
FFFFFFFFFFFFFFFFFFFFFFFFFFFFFFFFFFFFFFFFFFFFFFFFFFFFFFFFFFFFFFFF
310
FFFFFFFFFFFFFFFFFFFFFFFFFFFFFFFFFFFFFFFFFFFFFFFFFFFFFFFFFFFFFFFF
310
FFFFFFFFFFFFFFFFF000FFFFFFFFFFFFFFFFFFFFFFFFFFFFFFFFFFFFFFFFFFFF
310
FFFFFFFFFFFFFFFFFFFFFFFFFFFFFFFFFFFFFFFFFFFFFFFFFFFFFFFFFFFFFFFF
310
FFFFFFFFFFFFFFFFFFFFFFFFFFFFFFFFFFFFFFFFFFFFFFFFFFFFFFFFFFFFFFFF
310
F000FFFFFFFFFFFFFFFFFFFFFFFFFFFFFFFFFFFFFFFFFFFFFFFFFFFFFFFFFFFF
310
FFFFFFFFFFFFFFFFFFFFFFFFFFFFFFFFFFFFFFFFFFFFFFFFFFFFFFFFFFFFFFFF
310
FFFFFFFFFFFFFFFFFFFFFFFFFFFFFFFFFFFFFFFFFFFFFFFFF000FFFFFFFFFFFF
310
FFFFFFFFFFFFFFFFFFFFFFFFFFFFFFFFFFFFFFFFFFFFFFFFFFFFFFFFFFFFFFFF
310
FFFFFFFFFFFFFFFFFFFFFFFFFFFFFFFFFFFFFFFFFFFFFFFFFFFFFFFFFFFFFFFF
310
FFFFFFFFFFFFFFFFFFFFFFFFFFFFFFFFF000FFFFFFFFFFFFFFFFFFFFFFFFFFFF
310
FFFFFFFFFFFFFFFFFFFFFFFFFFFFFFFFFFFFFFFFFFFFFFFFFFFFFFFFFFFFFFFF
310
FFFFFFFFFFFFFFFFFFFFFFFFFFFFFFFFFFFFFFFFFFFFFFFFFFFFFFFFFFFFFFFF
310
FFFFFFFFFFFFFFFFF000FFFFF80003FFFFFFFFFFFFFFFFFFFFFFFFFFFFFFFFFF
310
FFFFF00007FFFFFFFFFF00007FFFFFF800000000000000007FFFFFFFFFFFFFFF
310
FFFFFFFC001FFFFFFFFFFFFFFC001FFFFFFFFFFFFFFFFFFFFFFFFFFE0007FFFF
310
F000FFFF8000007FFFFFFFF8000FFFFFC0007FFFFF80007FFFFF0000007FFFFF
310
FFF8000007FFFFF800000000000000007FFFFFF0001FFFFFFFFFFFC00001FFFF
310
FFFFFFFFC00001FFFFFFFF000000000003FFFFE000007FFFF000FFFE0000000F
310
FFFFFFF0000FFFFF80007FFFFF80007FFFFC0000001FFFFFFFC0000001FFFFF8
310
00000000000000007FFFFFF0001FFFFFFFFFFE0000003FFFFFFFFFFE0000003F
310
FFFFFF000000000003FFFF0000000FFFF000FFF800000003FFFFFFF00007FFFF
310
80007FFFFF80007FFFF000000007FFFFFF000000003FFFF80000000000000000
310
7FFFFFF0001FFFFFFFFFF80000000FFFFFFFFFF80000000FFFFFFF0000000000
310
03FFFC00000003FFF000FFE000000000FFFFFFF00007FFFF80003FFFFF80007F
310
FFC000000001FFFFFC000000001FFFF800000000000000007FFFFFF0001FFFFF
310
FFFFE000000003FFFFFFFFE000000003FFFFFF000000000003FFF000000000FF
310
F000FF80000000007FFFFFF00007FFFF80003FFFFF80007FFF8000000000FFFF
310
F80000000007FFF800000000000000007FFFFFF0001FFFFFFFFFC000000001FF
310
FFFFFFC000000001FFFFFF000000000003FFC0000000007FF000FF0000000000
310
3FFFFFE00007FFFF00003FFFFF80007FFE00000000003FFFF00000000003FFF8
310
00000000000000007FFFFFF0001FFFFFFFFF8000000000FFFFFFFF8000000000
310
FFFFFF000000000003FF80000000003FF000FE00000000001FFFFFE00003FFFF
310
00003FFFFF80007FFC00000000001FFFE00000000001FFF8000001FFFE000000
310
7FFFFFF0001FFFFFFFFE00000000003FFFFFFE00000000003FFFFF0000000000
310
03FF00000000001FF000FC00000000000FFFFFE00003FFFF00001FFFFF80007F
310
F800000000001FFFC00000000000FFF8000001FFFE0000007FFFFFF0001FFFFF
310
FFFC00000000001FFFFFFC00000000001FFFFF000000000003FE00000000000F
310
F000F8000000000007FFFFE00003FFFF00001FFFFF80007FF800000000000FFF
310
800000000000FFF8000001FFFE0000007FFFFFF0001FFFFFFFF800000000000F
310
FFFFF800000000000FFFFF000000000003FC000000000007F000F80000000000
310
03FFFFC00003FFFE00001FFFFF80007FF0000000000007FF0000000000007FF8
310
000001FFFE0000007FFFFFF0001FFFFFFFF0000000000007FFFFF00000000000
310
07FFFF000000000003F8000000000003F000F0000000000003FFFFC00001FFFE
310
00001FFFFF80007FE0000000000007FE0000000000003FF8000001FFFE000000
310
7FFFFFF0001FFFFFFFF0000000000007FFFFF0000000000007FFFF0000000000
310
03F800001F800003F000E00001FFF00001FFFFC00001FFFE00000FFFFF80007F
310
E00001FFE00003FE00001FFF00003FF8000001FFFE0000007FFFFFF0001FFFFF
310
FFE000003E000003FFFFE000003E000003FFFF000000000003F00001FFF80001
310
F000E00007FFFC0001FFFFC00001FFFE00000FFFFF80007FC0000FFFFC0003FC
310
0000FFFFC0001FF8000001FFFE0000007FFFFFF0001FFFFFFFC00003FFE00001
310
FFFFC00003FFE00001FFFF0001FFFFFFFFF00007FFFE0001F000E0000FFFFF00
310
00FFFF800001FFFC00000FFFFF80007FC0001FFFFE0001FC0001FFFFE0001FF8
310
000001FFFE0000007FFFFFF0001FFFFFFF80000FFFF80000FFFF80000FFFF800
310
00FFFF0003FFFFFFFFE0000FFFFF8000F000C0003FFFFF8000FFFF800000FFFC
310
000007FFFF80007F80003FFFFF0001FC0003FFFFF0001FF8000001FFFE000000
310
7FFFFFF0001FFFFFFF80003FFFFE0000FFFF80003FFFFE0000FFFF0003FFFFFF
310
FFE0003FFFFF8000F000C0003FFFFF8000FFFF800000FFFC000007FFFF80007F
310
80007FFFFF8001F80007FFFFF8000FF8000001FFFE0000007FFFFFF0001FFFFF
310
FF00007FFFFF00007FFF00007FFFFF00007FFF0003FFFFFFFFE0003FFFFFC000
310
F000C0007FFFFFC000FFFF000000FFFC000007FFFF80007F8000FFFFFF8000F8
310
000FFFFFF8000FF8000001FFFE0000007FFFFFF0001FFFFFFF0000FFFFFF8000
310
7FFF0000FFFFFF80007FFF0003FFFFFFFFC0007FFFFFC00070008000FFFFFFC0
310
00FFFF000000FFF8000007FFFF80007F8000FFFFFF8000F8000FFFFFF8000FF8
310
000001FFFE0000007FFFFFF0001FFFFFFE0001FFFFFFC0003FFE0001FFFFFFC0
310
003FFF0003FFFFFFFFC0007FFFFFE00070008000FFFFFFC0007FFF0000007FF8
310
000003FFFF80007F0001FFFFFF8000F8000FFFFFF8000FF8000001FFFE000000
310
7FFFFFF0001FFFFFFE0001FFFFFFC0003FFE0001FFFFFFC0003FFF0003FFFFFF
310
FFC000FFFFFFE00070008000FFFFFFC0007FFF0000007FF8000003FFFF80007F
310
0001FFFFFF8000F8001FFFFFF8000FF8000001FFFE0000007FFFFFF0001FFFFF
310
FE0003FFFFFFE0003FFE0003FFFFFFE0003FFF0003FFFFFFFFC000FFFFFFE000
310
70008000FFFFFFC0007FFE0000007FF8000003FFFF80007F0001FFFFFF8000F0
310
001FFFFFF8000FF8000001FFFE0000007FFFFFF0001FFFFFFC0003FFFFFFE000
310
1FFC0003FFFFFFE0001FFF0003FFFFFFFFC000FFFFFFC00070008000FFFFFF80
310
007FFE0000007FF0000003FFFF80007F0001FFFFFF0000F0001FFFFFF8000FF8
310
000001FFFE0000007FFFFFF0001FFFFFFC0007FFFFFFF0001FFC0007FFFFFFF0
310
001FFF0003FFFFFFFFC000FFFFFFC00070008001FFFFFF0000FFFE0000003FF0
310
000001FFFF80007F0001FFFFFF0000F8001FFFFFF0000FF8000001FFFE000000
310
7FFFFFF0001FFFFFFC0007FFFFFFF0001FFC0007FFFFFFF0001FFF0003FFFFFF
310
FFC001FFFFFF80007000FFFFFFFFFE0000FFFE0008003FF0008001FFFF80007F
310
FFFFFFFFFC0000FFFFFFFFFFE0000FF8000001FFFE0000007FFFFFF0001FFFFF
310
F8000FFFFFFFF8000FF8000FFFFFFFF8000FFF0003FFFFFFFFFFFFFFFFFF0000
310
7000FFFFFFFFFC0000FFFC0008003FF0008001FFFF80007FFFFFFFFFF80001FF
310
FFFFFFFF80000FF8000001FFFE0000007FFFFFF0001FFFFFF8000FFFFFFFF800
310
0FF8000FFFFFFFF8000FFF0003FFFFFFFFFFFFFFFFFE0000F000FFFFFFFFE000
310
00FFFC000C003FE000C001FFFF80007FFFFFFFFFC00001FFFFFFFFFE00001FF8
310
000001FFFE0000007FFFFFF0001FFFFFF8000FFFFFFFF8000FF8000FFFFFFFF8
310
000FFF0003FFFFFFFFFFFFFFFFF00000F000FFFFFFFE000001FFFC000C001FE0
310
00C000FFFF80007FFFFFFFFE000001FFFFFFFFE000001FF80FFFFFFFFFFFFFC0
310
7FFFFFF0001FFFFFF8000FFFFFFFF8000FF8000FFFFFFFF8000FFF0003FFFFFF
310
FFFFFFFFFF800000F000FFFFFFC0000001FFFC001C001FE001C000FFFF80007F
310
FFFFFF80000003FFFFFFF80000001FF80FFFFFFFFFFFFFC07FFFFFF0001FFFFF
310
F8001FFFFFFFFC000FF8001FFFFFFFFC000FFF0003FFFFFFFFFFFFFFF0000001
310
F000FFFFF800000001FFF8001C001FE001C000FFFF80007FFFFFF800000003FF
310
FFFF800000003FF80FFFFFFFFFFFFFC07FFFFFF0001FFFFFF8001FFFFFFFFC00
310
0FF8001FFFFFFFFC000FFF0003FFFFFFFFFFFFFE00000001F000FFFFC0000000
310
03FFF8001E001FC001E000FFFF80007FFFFF8000000007FFFFFC000000003FF8
310
0FFFFFFFFFFFFFC07FFFFFF0001FFFFFF8001FFFFFFFFC000FF8001FFFFFFFFC
310
000FFF0003FFFFFFFFFFFFE000000003F000FFFE0000000007FFF8001E000FC0
310
01E0007FFF80007FFFFE0000000007FFFFE0000000007FF80FFFFFFFFFFFFFC0
310
7FFFFFF0001FFFFFF0001FFFFFFFFC0007F0001FFFFFFFFC0007FF0003FFFFFF
310
FFFFFF0000000003F000FFF80000000007FFF8001E000FC003E0007FFF80007F
310
FFF0000000000FFFFF8000000000FFF80FFFFFFFFFFFFFC07FFFFFF0001FFFFF
310
F0001FFFFFFFFC0007F0001FFFFFFFFC0007FF0003FFFFFFFFFFFC0000000007
310
F000FFE0000000000FFFF0003E000FC003E0007FFF80007FFFC0000000001FFF
310
FE0000000001FFF80FFFFFFFFFFFFFC07FFFFFF0001FFFFFF0001FFFFFFFFC00
310
07F0001FFFFFFFFC0007FF0003FFFFFFFFFFF0000000000FF000FFC000000000
310
1FFFF0003F000F8003F0003FFF80007FFF80000000003FFFF80000000003FFF8
310
0FFFFFFFFFFFFFC07FFFFFF0001FFFFFF0001FFFFFFFFC0007F0001FFFFFFFFC
310
0007FF0003FFFFFFFFFFE0000000001FF000FF00000000007FFFF0003F000780
310
03F0003FFF80007FFF00000000007FFFF00000000007FFF80FFFFFFFFFFFFFC0
310
7FFFFFF0001FFFFFF0001FFFFFFFFC0007F0001FFFFFFFFC0007FF0003FFFFFF
310
FFFF80000000007FF000FE0000000000FFFFE0003F00078007F0003FFF80007F
310
FE0000000001FFFFE0000000001FFFF80FFFFFFFFFFFFFC07FFFFFF0001FFFFF
310
F0001FFFFFFFFC0007F0001FFFFFFFFC0007FF0003FFFFFFFFFF0000000000FF
310
F000FC0000000003FFFFE0007F00078007F0003FFF80007FFC0000000007FFFF
310
C0000000007FFFF80FFFFFFFFFFFFFC07FFFFFF0001FFFFFF8001FFFFFFFFC00
310
0FF8001FFFFFFFFC000FFF0003FFFFFFFFFE0000000003FFF000FC000000000F
310
FFFFE0007F80070007F8001FFF80007FF8000000001FFFFF8000000001FFFFF8
310
0FFFFFFFFFFFFFC07FFFFFF0001FFFFFF8001FFFFFFFFC000FF8001FFFFFFFFC
310
000FFF0003FFFFFFFFFC000000000FFFF000F8000000007FFFFFE0007F800700
310
07F8001FFF80007FF000000000FFFFFF800000000FFFFFF80FFFFFFFFFFFFFC0
310
7FFFFFF0001FFFFFF8000FFFFFFFF8000FF8000FFFFFFFF8000FFF0003FFFFFF
310
FFFC000000007FFFF000F800000007FFFFFFC0007F8003000FF8001FFF80007F
310
F000000007FFFFFF000000007FFFFFF80FFFFFFFFFFFFFC07FFFFFF0001FFFFF
310
F8000FFFFFFFF8000FF8000FFFFFFFF8000FFF0003FFFFFFFFF80000000FFFFF
310
F000F0000000FFFFFFFFC000FF8003000FF8001FFF80007FE0000000FFFFFFFF
310
0000000FFFFFFFF8000001FFFE0000007FFFFFF0001FFFFFF8000FFFFFFFF800
310
0FF8000FFFFFFFF8000FFF0003FFFFFFFFF8000000FFFFFFF000F000000FFFFF
310
FFFFC000FFC002000FF8000FFF80007FE000001FFFFFFFFE000001FFFFFFFFF8
310
000001FFFE0000007FFFFFF0001FFFFFF8000FFFFFFFF8000FF8000FFFFFFFF8
310
000FFF0003FFFFFFFFF000001FFFFFFFF000E00000FFFFFFFFFFC000FFC00200
310
0FFC000FFF80007FE00001FFFFFFFFFE00001FFFFFFFFFF8000001FFFE000000
310
7FFFFFF0001FFFFFFC000FFFFFFFF8001FFC000FFFFFFFF8001FFF0003FFFFFF
310
FFF00001FFFFFFFFF000E00007FFFFFFFFFF8000FFC000001FFC000FFF80007F
310
C0000FFFFFFFFFFE0000FFFFFFFFFFF8000001FFFE0000007FFFFFF0001FFFFF
310
FC0007FFFFFFF0001FFC0007FFFFFFF0001FFF0003FFFFFFFFF00007FFFFFFFF
310
F000E0001FFFFFFFFFFF8000FFC000001FFC000FFF80007FC0003FFFFFFFFFFE
310
0001FFFFFFFFFFF8000001FFFE0000007FFFFFF0001FFFFFFC0007FFFFFFF000
310
1FFC0007FFFFFFF0001FFF0003FFFFFFFFF0001FFFFFFFFFF000E0003FFFFF00
310
03FF8001FFE000001FFC0007FF80007FC0007FFFFF0007FC0003FFFFF0003FF8
310
000001FFFE0000007FFFFFF0001FFFFFFC0003FFFFFFE0001FFC0003FFFFFFE0
310
001FFF0003FFFFFFFFF0003FFFFFFFFFF000E0003FFFFF0001FF8001FFE00000
310
1FFE0007FF80007FC0007FFFFE0003FC0007FFFFE0003FF8000001FFFE000000
310
7FFFFFF0001FFFFFFE0003FFFFFFE0003FFE0003FFFFFFE0003FFF0003FFFFFF
310
FFF0003FFFFF8001F000E0003FFFFF0001FF0001FFE000001FFE0007FF80007F
310
C0007FFFFE0003FC0007FFFFE0003FF8000001FFFE0000007FFFFFF0001FFFFF
310
FE0001FFFFFFC0003FFE0001FFFFFFC0003FFF0003FFFFFFFFF0003FFFFF0001
310
F000E0003FFFFF0003FF0001FFE000003FFE0007FF80007FC0007FFFFE0003FC
310
0007FFFFE0003FF8000001FFFE0000007FFFFFF0001FFFFFFF0001FFFFFFC000
310
7FFF0001FFFFFFC0007FFF0003FFFFFFFFF0003FFFFF0001F000E0003FFFFE00
310
03FF0003FFF000003FFE0003FF80007FC0007FFFFC0003FE0007FFFFE0003FF8
310
000001FFFE0000007FFFFFF0001FFFFFFF0000FFFFFF80007FFF0000FFFFFF80
310
007FFF0003FFFFFFFFF0003FFFFF0001F000E0003FFFFE0003FF0003FFF00000
310
3FFF0003FF80007FC0007FFFFC0007FE0007FFFFC0003FF8000001FFFE000000
310
7FFFFFF0001FFFFFFF80007FFFFF0000FFFF80007FFFFF0000FFFF0003FFFFFF
310
FFF0003FFFFF0003F000E0003FFFFC0003FE0003FFF000003FFF0003FF80007F
310
E0003FFFF80007FE0003FFFFC0007FF8000001FFFE0000007FFFFFF0001FFFFF
310
FF80003FFFFE0000FFFF80003FFFFE0000FFFF0003FFFFFFFFF0001FFFFE0003
310
F000F0001FFFF80003FE0003FFF000007FFF0001FF80007FE0003FFFF00007FE
310
0001FFFF80007FF8000001FFFE0000007FFFFFF0001FFFFFFFC0000FFFF80001
310
FFFFC0000FFFF80001FFFF0003FFFFFFFFF0001FFFFC0003F000F0000FFFF000
310
07FE0007FFF800007FFF0001FF80007FE0001FFFE00007FF0000FFFE00007FF8
310
000001FFFE0000007FFFFFF0001FFFFFFFC00003FFE00001FFFFC00003FFE000
310
01FFFF0003FFFFFFFFF8000FFFF80003F000F00003FFC00007FC0007FFF80000
310
7FFF8001FF80007FF00007FF80000FFF00007FF80000FFF8000001FFFE000000
310
7F80000000000001FFE000003E000003FFFFE000003E000003FFFF0003FFFFFF
310
FFF80003FFE00007F000F800000000000FFC0007FFF800007FFF8001FF80007F
310
F000000000000FFF000000000000FFF8000001FFFE0000007F80000000000001
310
FFF0000000000007FFFFF0000000000007FFFF0003FFFFFFFFFC00007E000007
310
F000F800000000000FFC0007FFF80000FFFF8000FF80007FF800000000001FFF
310
800000000001FFF8000001FFFE0000007F80000000000001FFF800000000000F
310
FFFFF800000000000FFFFF0003FFFFFFFFFC00000000000FF000FC0000000000
310
1FFC0007FFFC0000FFFF8000FF80007FF800000000003FFFC00000000001FFF8
310
000001FFFE0000007F80000000000001FFF800000000000FFFFFF80000000000
310
0FFFFF0003FFFFFFFFFE00000000001FF000FE00000000003FF8000FFFFC0000
310
FFFF8000FF80007FFC00000000003FFFC00000000003FFF8000001FFFE000000
310
7F80000000000001FFFC00000000001FFFFFFC00000000001FFFFF0003FFFFFF
310
FFFF00000000001FF000FF00000000003FF8000FFFFC0000FFFFC000FF80007F
310
FE00000000007FFFE00000000007FFF8000001FFFE0000007F80000000000001
310
FFFE00000000003FFFFFFE00000000003FFFFF0003FFFFFFFFFF80000000003F
310
F000FF80000000007FF8000FFFFC0001FFFFC0007F80007FFF0000000000FFFF
310
F0000000000FFFF800000000000000007F80000000000001FFFF8000000000FF
310
FFFFFF8000000000FFFFFF0003FFFFFFFFFFC0000000007FF000FFC000000000
310
FFF8000FFFFE0001FFFFC0007F80007FFF8000000001FFFFF8000000001FFFF8
310
00000000000000007F80000000000001FFFFC000000001FFFFFFFFC000000001
310
FFFFFF0003FFFFFFFFFFE000000000FFF000FFE000000003FFF0001FFFFE0001
310
FFFFC0007F80007FFFC000000007FFFFFE000000003FFFF80000000000000000
310
7F80000000000001FFFFE000000003FFFFFFFFE000000003FFFFFF0003FFFFFF
310
FFFFF000000003FFF000FFF80000000FFFF0001FFFFE0001FFFFE0007F80007F
310
FFF00000000FFFFFFF00000000FFFFF800000000000000007F80000000000001
310
FFFFF80000000FFFFFFFFFF80000000FFFFFFF0003FFFFFFFFFFFC0000000FFF
310
F000FFFE0000003FFFF0001FFFFE0003FFFFE0003F80007FFFFC0000003FFFFF
310
FFC0000003FFFFF800000000000000007F80000000000001FFFFFE0000003FFF
310
FFFFFFFE0000003FFFFFFF0003FFFFFFFFFFFF0000003FFFF000FFFF800000FF
310
FFF0001FFFFF0003FFFFE0003F80007FFFFF000001FFFFFFFFF800001FFFFFF8
310
00000000000000007F80000000000001FFFFFFC00001FFFFFFFFFFFFC00001FF
310
FFFFFF0003FFFFFFFFFFFFC00000FFFFF000FFFFF8000FFFFFFFFFFFFFFFFFFF
310
FFFFFFFFFFFFFFFFFFFFF0001FFFFFFFFFFF0000FFFFFFF80000000000000000
310
7FFFFFFFFFFFFFFFFFFFFFFC001FFFFFFFFFFFFFFC001FFFFFFFFFFFFFFFFFFF
310
FFFFFFFC001FFFFFF000FFFFFFFFFFFFFFFFFFFFFFFFFFFFFFFFFFFFFFFFFFFF
310
FFFFFFFFFFFFFFFFFFFFFFFFFFFFFFFFFFFFFFFFFFFFFFFFFFFFFFFFFFFFFFFF
310
FFFFFFFFFFFFFFFFFFFFFFFFFFFFFFFFFFFFFFFFFFFFFFFFFFFFFFFFFFFFFFFF
310
F000FFFFFFFFFFFFFFFFFFFFFFFFFFFFFFFFFFFFFFFFFFFFFFFFFFFFFFFFFFFF
310
FFFFFFFFFFFFFFFFFFFFFFFFFFFFFFFFFFFFFFFFFFFFFFFFFFFFFFFFFFFFFFFF
310
FFFFFFFFFFFFFFFFFFFFFFFFFFFFFFFFFFFFFFFFFFFFFFFFF000FFFFFFFFFFFF
310
FFFFFFFFFFFFFFFFFFFFFFFFFFFFFFFFFFFFFFFFFFFFFFFFFFFFFFFFFFFFFFFF
310
FFFFFFFFFFFFFFFFFFFFFFFFFFFFFFFFFFFFFFFFFFFFFFFFFFFFFFFFFFFFFFFF
310
FFFFFFFFFFFFFFFFFFFFFFFFFFFFFFFFF000FFFFFFFFFFFFFFFFFFFFFFFFFFFF
310
FFFFFFFFFFFFFFFFFFFFFFFFFFFFFFFFFFFFFFFFFFFFFFFFFFFFFFFFFFFFFFFF
310
FFFFFFFFFFFFFFFFFFFFFFFFFFFFFFFFFFFFFFFFFFFFFFFFFFFFFFFFFFFFFFFF
310
FFFFFFFFFFFFFFFFF000FFFFFFFFFFFFFFFFFFFFFFFFFFFFFFFFFFFFFFFFFFFF
310
FFFFFFFFFFFFFFFFFFFFFFFFFFFFFFFFFFFFFFFFFFFFFFFFFFFFFFFFFFFFFFFF
310
FFFFFFFFFFFFFFFFFFFFFFFFFFFFFFFFFFFFFFFFFFFFFFFFFFFFFFFFFFFFFFFF
310
F000FFFFFFFFFFFFFFFFFFFFFFFFFFFFFFFFFFFFFFFFFFFFFFFFFFFFFFFFFFFF
310
FFFFFFFFFFFFFFFFFFFFFFFFFFFFFFFFFFFFFFFFFFFFFFFFFFFFFFFFFFFFFFFF
310
FFFFFFFFFFFFFFFFFFFFFFFFFFFFFFFFFFFFFFFFFFFFFFFFF000FFFFFFFFFFFF
310
FFFFFFFFFFFFFFFFFFFFFFFFFFFFFFFFFFFFFFFFFFFFFFFFFFFFFFFFFFFFFFFF
310
FFFFFFFFFFFFFFFFFFFFFFFFFFFFFFFFFFFFFFFFFFFFFFFFFFFFFFFFFFFFFFFF
310
FFFFFFFFFFFFFFFFFFFFFFFFFFFFFFFFF000FFFFFFFFFFFFFFFFFFFFFFFFFFFF
310
FFFFFFFFFFFFFFFFFFFFFFFFFFFFFFFFFFFFFFFFFFFFFFFFFFFFFFFFFFFFFFFF
310
FFFFFFFFFFFFFFFFFFFFFFFFFFFFFFFFFFFFFFFFFFFFFFFFFFFFFFFFFFFFFFFF
310
FFFFFFFFFFFFFFFFF000FFFFFFFFFFFFFFFFFFFFFFFFFFFFFFFFFFFFFFFFFFFF
310
FFFFFFFFFFFFFFFFFFFFFFFFFFFFFFFFFFFFFFFFFFFFFFFFFFFFFFFFFFFFFFFF
310
FFFFFFFFFFFFFFFFFFFFFFFFFFFFFFFFFFFFFFFFFFFFFFFFFFFFFFFFFFFFFFFF
310
F000FFFFFFFFFFFFFFFFFFFFFFFFFFFFFFFFFFFFFFFFFFFFFFFFFFFFFFFFFFFF
310
FFFFFFFFFFFFFFFFFFFFFFFFFFFFFFFFFFFFFFFFFFFFFFFFFFFFFFFFFFFFFFFF
310
FFFFFFFFFFFFFFFFFFFFFFFFFFFFFFFFFFFFFFFFFFFFFFFFF000FFFFFFFFFFFF
310
FFFFFFFFFFFFFFFFFFFFFFFFFFFFFFFFFFFFFFFFFFFFFFFFFFFFFFFFFFFFFFFF
310
FFFFFFFFFFFFFFFFFFFFFFFFFFFFFFFFFFFFFFFFFFFFFFFFFFFFFFFFFFFFFFFF
310
FFFFFFFFFFFFFFFFFFFFFFFFFFFFFFFFF000FFFFFFFFFFFFFFFFFFFFFFFFFFFF
310
FFFFFFFFFFFFFFFFFFFFFFFFFFFFFFFFFFFFFFFFFFFFFFFFFFFFFFFFFFFFFFFF
310
FFFFFFFFFFFFFFFFFFFFFFFFFFFFFFFFFFFFFFFFFFFFFFFFFFFFFFFFFFFFFFFF
310
FFFFFFFFFFFFFFFFF000FFFFFFFFFFFFFFFFFFFFFFFFFFFFFFFFFFFFFFFFFFFF
310
FFFFFFFFFFFFFFFFFFFFFFFFFFFFFFFFFFFFFFFFFFFFFFFFFFFFFFFFFFFFFFFF
310
FFFFFFFFFFFFFFFFFFFFFFFFFFFFFFFFFFFFFFFFFFFFFFFFFFFFFFFFFFFFFFFF
310
F000FFFFFFFFFFFFFFFFFFFFFFFFFFFFFFFFFFFFFFFFFFFFFFFFFFFFFFFFFFFF
310
FFFFFFFFFFFFFFFFFFFFFFFFFFFFFFFFFFFFFFFFFFFFFFFFFFFFFFFFFFFFFFFF
310
FFFFFFFFFFFFFFFFFFFFFFFFFFFFFFFFFFFFFFFFFFFFFFFFF000FFFFFFFFFFFF
310
FFFFFFFFFFFFFFFFFFFFFFFFFFFFFFFFFFFFFFFFFFFFFFFFFFFFFFFFFFFFFFFF
310
FFFFFFFFFFFFFFFFFFFFFFFFFFFFFFFFFFFFFFFFFFFFFFFFFFFFFFFFFFFFFFFF
310
FFFFFFFFFFFFFFFFFFFFFFFFFFFFFFFFF000FFFFFFFFFFFFFFFFFFFFFFFFFFFF
310
FFFFFFFFFFFFFFFFFFFFFFFFFFFFFFFFFFFFFFFFFFFFFFFFFFFFFFFFFFFFFFFF
310
FFFFFFFFFFFFFFFFFFFFFFFFFFFFFFFFFFFFFFFFFFFFFFFFFFFFFFFFFFFFFFFF
310
FFFFFFFFFFFFFFFFF000FFFFFFFFFFFFFFFFFFFFFFFFFFFFFFFFFFFFFFFFFFFF
310
FFFFFFFFFFFFFFFFFFFFFFFFFFFFFFFFFFFFFFFFFFFFFFFFFFFFFFFFFFFFFFFF
310
FFFFFFFFFFFFFFFFFFFFFFFFFFFFFFFFFFFFFFFFFFFFFFFFFFFFFFFFFFFFFFFF
310
F000FFFFFFFFFFFFFFFFFFFFFFFFFFFFFFFFFFFFFFFFFFFFFFFFFFFFFFFFFFFF
310
FFFFFFFFFFFFFFFFFFFFFFFFFFFFFFFFFFFFFFFFFFFFFFFFFFFFFFFFFFFFFFFF
310
FFFFFFFFFFFFFFFFFFFFFFFFFFFFFFFFFFFFFFFFFFFFFFFFF000FFFFFFFFFFFF
310
FFFFFFFFFFFFFFFFFFFFFFFFFFFFFFFFFFFFFFFFFFFFFFFFFFFFFFFFFFFFFFFF
310
FFFFFFFFFFFFFFFFFFFFFFFFFFFFFFFFFFFFFFFFFFFFFFFFFFFFFFFFFFFFFFFF
310
FFFFFFFFFFFFFFFFFFFFFFFFFFFFFFFFF000FFFFFFFFFFFFFFFFFFFFFFFFFFFF
310
FFFFFFFFFFFFFFFFFFFFFFFFFFFFFFFFFFFFFFFFFFFFFFFFFFFFFFFFFFFFFFFF
310
FFFFFFFFFFFFFFFFFFFFFFFFFFFFFFFFFFFFFFFFFFFFFFFFFFFFFFFFFFFFFFFF
310
FFFFFFFFFFFFFFFFF000FFFFFFFFFFFFFFFFFFFFFFFFFFFFFFFFFFFFFFFFFFFF
310
FFFFFFFFFFFFFFFFFFFFFFFFFFFFFFFFFFFFFFFFFFFFFFFFFFFFFFFFFFFFFFFF
310
FFFFFFFFFFFFFFFFFFFFFFFFFFFFFFFFFFFFFFFFFFFFFFFFFFFFFFFFFFFFFFFF
310
F000FFFFFFFFFFFFFFFFFFFFFFFFFFFFFFFFFFFFFFFFFFFFFFFFFFFFFFFFFFFF
310
FFFFFFFFFFFFFFFFFFFFFFFFFFFFFFFFFFFFFFFFFFFFFFFFFFFFFFFFFFFFFFFF
310
FFFFFFFFFFFFFFFFFFFFFFFFFFFFFFFFFFFFFFFFFFFFFFFFF000FFFFFFFFFFFF
310
FFFFFFFFFFFFFFFFFFFFFFFFFFFFFFFFFFFFFFFFFFFFFFFFFFFFFFFFFFFFFFFF
310
FFFFFFFFFFFFFFFFFFFFFFFFFFFFFFFFFFFFFFFFFFFFFFFFFFFFFFFFFFFFFFFF
310
FFFFFFFFFFFFFFFFFFFFFFFFFFFFFFFFF0000000000000000000000000000000
310
0000000000000000000000000000000000000000000000000000000000000000
310
0000000000000000000000000000000000000000000000000000000000000000
310
0000000000000000000000000000000000000000000000000000000000000000
310
0000000000000000000000000000000000000000000000000000000000000000
310
0000000000000000000000000000000000000000000000000000000000000000
310
0000000000000000000000000000000000000000000000000000000000000000
310
0000000000000000000000000000000000000000000000000000000000000000
310
0000000000000000000000000000000000000000000000000000000000000000
310
0000000000000000000000000000000000000000000000000000000000000000
310
0000000000000000000000000000000000000000000000000000000000000000
310
0000000000000000000000000000000000000000000000000000000000000000
310
0000000000000000000000000000000000000000000000000000000000000000
310
0000000000000000000000000000000000000000000000000000000000000000
310
0000000000000000000000000000000000000000000000000000000000000000
310
0000000000000000000000000000000000000000000000000000000000000000
  1
OLE
  0
ENDSEC
  0
SECTION
  2
OBJECTS
  0
DICTIONARY
  5
C
330
0
100
AcDbDictionary
281
     1
  3
ACAD_GROUP
350
D
  3
ACAD_LAYOUT
350
1A
  3
ACAD_MLINESTYLE
350
17
  3
ACAD_PLOTSETTINGS
350
19
  3
ACAD_PLOTSTYLENAME
350
E
  3
ACAD_SCALELIST
350
47
  0
DICTIONARY
  5
D
102
{ACAD_REACTORS
330
C
102
}
330
C
100
AcDbDictionary
281
     1
  0
DICTIONARY
  5
1A
102
{ACAD_REACTORS
330
C
102
}
330
C
100
AcDbDictionary
281
     1
  3
Layout1
350
1E
  3
Layout2
350
26
  3
Model
350
22
  0
DICTIONARY
  5
17
102
{ACAD_REACTORS
330
C
102
}
330
C
100
AcDbDictionary
281
     1
  3
Standard
350
18
  0
DICTIONARY
  5
19
102
{ACAD_REACTORS
330
C
102
}
330
C
100
AcDbDictionary
281
     1
  0
ACDBDICTIONARYWDFLT
  5
E
102
{ACAD_REACTORS
330
C
102
}
330
C
100
AcDbDictionary
281
     1
  3
Normal
350
F
100
AcDbDictionaryWithDefault
340
F
  0
DICTIONARY
  5
47
102
{ACAD_REACTORS
330
C
102
}
330
C
100
AcDbDictionary
281
     1
  3
A0
350
48
  3
A1
350
49
  3
A2
350
4A
  3
A3
350
4B
  3
A4
350
4C
  3
A5
350
4D
  3
A6
350
4E
  3
A7
350
4F
  3
A8
350
50
  3
A9
350
51
  3
B0
350
52
  3
B1
350
53
  3
B2
350
54
  3
B3
350
55
  3
B4
350
56
  3
B5
350
57
  3
B6
350
58
  3
B7
350
59
  3
B8
350
5A
  3
B9
350
5B
  3
C0
350
5C
  3
C1
350
5D
  3
C2
350
5E
  3
C3
350
5F
  3
C4
350
60
  3
C5
350
61
  3
C6
350
62
  3
C7
350
63
  3
C8
350
64
  3
C9
350
65
  3
D0
350
66
  3
D1
350
67
  3
D2
350
68
  0
LAYOUT
  5
1E
102
{ACAD_REACTORS
330
1A
102
}
330
1A
100
AcDbPlotSettings
  1

  2
none_device
  4

  6

 40
0.0
 41
0.0
 42
0.0
 43
0.0
 44
0.0
 45
0.0
 46
0.0
 47
0.0
 48
0.0
 49
0.0
140
0.0
141
0.0
142
1.0
143
1.0
 70
   688
 72
     1
 73
     0
 74
     5
  7

 75
    16
147
1.0
148
0.0
149
0.0
100
AcDbLayout
  1
Layout1
 70
     1
 71
     1
 10
0.0
 20
0.0
 11
420.0
 21
297.0
 12
0.0
 22
0.0
 32
0.0
 14
1.0000000000E+20
 24
1.0000000000E+20
 34
1.0000000000E+20
 15
-1.0000000000E+20
 25
-1.0000000000E+20
 35
-1.0000000000E+20
146
0.0
 13
0.0
 23
0.0
 33
0.0
 16
1.0
 26
0.0
 36
0.0
 17
0.0
 27
1.0
 37
0.0
 76
     0
330
1B
  0
LAYOUT
  5
26
102
{ACAD_REACTORS
330
1A
102
}
330
1A
100
AcDbPlotSettings
  1

  2
none_device
  4

  6

 40
0.0
 41
0.0
 42
0.0
 43
0.0
 44
0.0
 45
0.0
 46
0.0
 47
0.0
 48
0.0
 49
0.0
140
0.0
141
0.0
142
1.0
143
1.0
 70
   688
 72
     1
 73
     0
 74
     5
  7

 75
    16
147
1.0
148
0.0
149
0.0
100
AcDbLayout
  1
Layout2
 70
     1
 71
     2
 10
0.0
 20
0.0
 11
0.0
 21
0.0
 12
0.0
 22
0.0
 32
0.0
 14
0.0
 24
0.0
 34
0.0
 15
0.0
 25
0.0
 35
0.0
146
0.0
 13
0.0
 23
0.0
 33
0.0
 16
1.0
 26
0.0
 36
0.0
 17
0.0
 27
1.0
 37
0.0
 76
     0
330
23
  0
LAYOUT
  5
22
102
{ACAD_REACTORS
330
1A
102
}
330
1A
100
AcDbPlotSettings
  1

  2
none_device
  4
Letter_(8.50_x_11.00_Inches)
  6

 40
6.35
 41
6.35
 42
6.35000508
 43
6.35000508
 44
215.9
 45
279.4
 46
0.0
 47
0.0
 48
0.0
 49
0.0
140
0.0
141
0.0
142
1.0
143
1.0
 70
  1712
 72
     1
 73
     0
 74
     0
  7

 75
     0
147
1.0
148
0.0
149
0.0
100
AcDbLayout
  1
Model
 70
     1
 71
     0
 10
0.0
 20
0.0
 11
297.0
 21
210.0
 12
0.0
 22
0.0
 32
0.0
 14
0.0
 24
0.0
 34
0.0
 15
297.0
 25
210.0
 35
0.0
146
0.0
 13
0.0
 23
0.0
 33
0.0
 16
1.0
 26
0.0
 36
0.0
 17
0.0
 27
1.0
 37
0.0
 76
     0
330
1F
331
29
  0
MLINESTYLE
  5
18
102
{ACAD_REACTORS
330
17
102
}
330
17
100
AcDbMlineStyle
  2
Standard
 70
     0
  3

 62
   256
 51
90.0
 52
90.0
 71
     2
 49
0.5
 62
   256
  6
BYLAYER
 49
-0.5
 62
   256
  6
BYLAYER
  0
ACDBPLACEHOLDER
  5
F
102
{ACAD_REACTORS
330
E
102
}
330
E
  0
SCALE
  5
48
102
{ACAD_REACTORS
330
47
102
}
330
47
100
AcDbScale
 70
     0
300
1:1
140
1.0
141
1.0
290
     1
  0
SCALE
  5
49
102
{ACAD_REACTORS
330
47
102
}
330
47
100
AcDbScale
 70
     0
300
1:2
140
1.0
141
2.0
290
     0
  0
SCALE
  5
4A
102
{ACAD_REACTORS
330
47
102
}
330
47
100
AcDbScale
 70
     0
300
1:4
140
1.0
141
4.0
290
     0
  0
SCALE
  5
4B
102
{ACAD_REACTORS
330
47
102
}
330
47
100
AcDbScale
 70
     0
300
1:5
140
1.0
141
5.0
290
     0
  0
SCALE
  5
4C
102
{ACAD_REACTORS
330
47
102
}
330
47
100
AcDbScale
 70
     0
300
1:8
140
1.0
141
8.0
290
     0
  0
SCALE
  5
4D
102
{ACAD_REACTORS
330
47
102
}
330
47
100
AcDbScale
 70
     0
300
1:10
140
1.0
141
10.0
290
     0
  0
SCALE
  5
4E
102
{ACAD_REACTORS
330
47
102
}
330
47
100
AcDbScale
 70
     0
300
1:16
140
1.0
141
16.0
290
     0
  0
SCALE
  5
4F
102
{ACAD_REACTORS
330
47
102
}
330
47
100
AcDbScale
 70
     0
300
1:20
140
1.0
141
20.0
290
     0
  0
SCALE
  5
50
102
{ACAD_REACTORS
330
47
102
}
330
47
100
AcDbScale
 70
     0
300
1:30
140
1.0
141
30.0
290
     0
  0
SCALE
  5
51
102
{ACAD_REACTORS
330
47
102
}
330
47
100
AcDbScale
 70
     0
300
1:40
140
1.0
141
40.0
290
     0
  0
SCALE
  5
52
102
{ACAD_REACTORS
330
47
102
}
330
47
100
AcDbScale
 70
     0
300
1:50
140
1.0
141
50.0
290
     0
  0
SCALE
  5
53
102
{ACAD_REACTORS
330
47
102
}
330
47
100
AcDbScale
 70
     0
300
1:100
140
1.0
141
100.0
290
     0
  0
SCALE
  5
54
102
{ACAD_REACTORS
330
47
102
}
330
47
100
AcDbScale
 70
     0
300
2:1
140
2.0
141
1.0
290
     0
  0
SCALE
  5
55
102
{ACAD_REACTORS
330
47
102
}
330
47
100
AcDbScale
 70
     0
300
4:1
140
4.0
141
1.0
290
     0
  0
SCALE
  5
56
102
{ACAD_REACTORS
330
47
102
}
330
47
100
AcDbScale
 70
     0
300
8:1
140
8.0
141
1.0
290
     0
  0
SCALE
  5
57
102
{ACAD_REACTORS
330
47
102
}
330
47
100
AcDbScale
 70
     0
300
10:1
140
10.0
141
1.0
290
     0
  0
SCALE
  5
58
102
{ACAD_REACTORS
330
47
102
}
330
47
100
AcDbScale
 70
     0
300
100:1
140
100.0
141
1.0
290
     0
  0
SCALE
  5
59
102
{ACAD_REACTORS
330
47
102
}
330
47
100
AcDbScale
 70
     0
300
1/128" = 1'-0"
140
0.0078125
141
12.0
290
     0
  0
SCALE
  5
5A
102
{ACAD_REACTORS
330
47
102
}
330
47
100
AcDbScale
 70
     0
300
1/64" = 1'-0"
140
0.015625
141
12.0
290
     0
  0
SCALE
  5
5B
102
{ACAD_REACTORS
330
47
102
}
330
47
100
AcDbScale
 70
     0
300
1/32" = 1'-0"
140
0.03125
141
12.0
290
     0
  0
SCALE
  5
5C
102
{ACAD_REACTORS
330
47
102
}
330
47
100
AcDbScale
 70
     0
300
1/16" = 1'-0"
140
0.0625
141
12.0
290
     0
  0
SCALE
  5
5D
102
{ACAD_REACTORS
330
47
102
}
330
47
100
AcDbScale
 70
     0
300
3/32" = 1'-0"
140
0.09375
141
12.0
290
     0
  0
SCALE
  5
5E
102
{ACAD_REACTORS
330
47
102
}
330
47
100
AcDbScale
 70
     0
300
1/8" = 1'-0"
140
0.125
141
12.0
290
     0
  0
SCALE
  5
5F
102
{ACAD_REACTORS
330
47
102
}
330
47
100
AcDbScale
 70
     0
300
3/16" = 1'-0"
140
0.1875
141
12.0
290
     0
  0
SCALE
  5
60
102
{ACAD_REACTORS
330
47
102
}
330
47
100
AcDbScale
 70
     0
300
1/4" = 1'-0"
140
0.25
141
12.0
290
     0
  0
SCALE
  5
61
102
{ACAD_REACTORS
330
47
102
}
330
47
100
AcDbScale
 70
     0
300
3/8" = 1'-0"
140
0.375
141
12.0
290
     0
  0
SCALE
  5
62
102
{ACAD_REACTORS
330
47
102
}
330
47
100
AcDbScale
 70
     0
300
1/2" = 1'-0"
140
0.5
141
12.0
290
     0
  0
SCALE
  5
63
102
{ACAD_REACTORS
330
47
102
}
330
47
100
AcDbScale
 70
     0
300
3/4" = 1'-0"
140
0.75
141
12.0
290
     0
  0
SCALE
  5
64
102
{ACAD_REACTORS
330
47
102
}
330
47
100
AcDbScale
 70
     0
300
1" = 1'-0"
140
1.0
141
12.0
290
     0
  0
SCALE
  5
65
102
{ACAD_REACTORS
330
47
102
}
330
47
100
AcDbScale
 70
     0
300
1-1/2" = 1'-0"
140
1.5
141
12.0
290
     0
  0
SCALE
  5
66
102
{ACAD_REACTORS
330
47
102
}
330
47
100
AcDbScale
 70
     0
300
3" = 1'-0"
140
3.0
141
12.0
290
     0
  0
SCALE
  5
67
102
{ACAD_REACTORS
330
47
102
}
330
47
100
AcDbScale
 70
     0
300
6" = 1'-0"
140
6.0
141
12.0
290
     0
  0
SCALE
  5
68
102
{ACAD_REACTORS
330
47
102
}
330
47
100
AcDbScale
 70
     0
300
1'-0" = 1'-0"
140
12.0
141
12.0
290
     0
  0
ENDSEC
  0
EOF
