  0
SECTION
  2
HEADER
  9
$ACADVER
  1
AC1015
  9
$ACADMAINTVER
 70
     6
  9
$DWGCODEPAGE
  3
ANSI_1252
  9
$INSBASE
 10
0.0
 20
0.0
 30
0.0
  9
$EXTMIN
 10
0.0
 20
0.0
 30
0.0
  9
$EXTMAX
 10
297.0
 20
210.0
 30
0.0
  9
$LIMMIN
 10
0.0
 20
0.0
  9
$LIMMAX
 10
297.0
 20
210.0
  9
$ORTHOMODE
 70
     0
  9
$REGENMODE
 70
     1
  9
$FILLMODE
 70
     1
  9
$QTEXTMODE
 70
     0
  9
$MIRRTEXT
 70
     1
  9
$LTSCALE
 40
1.0
  9
$ATTMODE
 70
     1
  9
$TEXTSIZE
 40
2.0
  9
$TRACEWID
 40
1.0
  9
$TEXTSTYLE
  7
Standard
  9
$CLAYER
  8
0
  9
$CELTYPE
  6
ByLayer
  9
$CECOLOR
 62
   256
  9
$CELTSCALE
 40
1.0
  9
$DISPSILH
 70
     0
  9
$DIMSCALE
 40
1.0
  9
$DIMASZ
 40
3.0
  9
$DIMEXO
 40
0.0
  9
$DIMDLI
 40
3.75
  9
$DIMRND
 40
0.0
  9
$DIMDLE
 40
0.0
  9
$DIMEXE
 40
1.0
  9
$DIMTP
 40
0.0
  9
$DIMTM
 40
0.0
  9
$DIMTXT
 40
2.0
  9
$DIMCEN
 40
2.5
  9
$DIMTSZ
 40
0.0
  9
$DIMTOL
 70
     0
  9
$DIMLIM
 70
     0
  9
$DIMTIH
 70
     1
  9
$DIMTOH
 70
     1
  9
$DIMSE1
 70
     0
  9
$DIMSE2
 70
     0
  9
$DIMTAD
 70
     1
  9
$DIMZIN
 70
     0
  9
$DIMBLK
  1

  9
$DIMASO
 70
     1
  9
$DIMSHO
 70
     1
  9
$DIMPOST
  1

  9
$DIMAPOST
  1

  9
$DIMALT
 70
     0
  9
$DIMALTD
 70
     3
  9
$DIMALTF
 40
0.0393700787
  9
$DIMLFAC
 40
1.0
  9
$DIMTOFL
 70
     1
  9
$DIMTVP
 40
0.0
  9
$DIMTIX
 70
     0
  9
$DIMSOXD
 70
     0
  9
$DIMSAH
 70
     0
  9
$DIMBLK1
  1

  9
$DIMBLK2
  1

  9
$DIMSTYLE
  2
ISO-25
  9
$DIMCLRD
 70
     0
  9
$DIMCLRE
 70
     0
  9
$DIMCLRT
 70
     0
  9
$DIMTFAC
 40
1.0
  9
$DIMGAP
 40
1.524
  9
$DIMJUST
 70
     0
  9
$DIMSD1
 70
     0
  9
$DIMSD2
 70
     0
  9
$DIMTOLJ
 70
     0
  9
$DIMTZIN
 70
     0
  9
$DIMALTZ
 70
     0
  9
$DIMALTTZ
 70
     0
  9
$DIMUPT
 70
     0
  9
$DIMDEC
 70
     2
  9
$DIMTDEC
 70
     3
  9
$DIMALTU
 70
     2
  9
$DIMALTTD
 70
     3
  9
$DIMTXSTY
  7
Standard
  9
$DIMAUNIT
 70
     0
  9
$DIMADEC
 70
     2
  9
$DIMALTRND
 40
0.0
  9
$DIMAZIN
 70
     0
  9
$DIMDSEP
 70
    44
  9
$DIMATFIT
 70
     3
  9
$DIMFRAC
 70
     0
  9
$DIMLDRBLK
  1

  9
$DIMLUNIT
 70
     2
  9
$DIMLWD
 70
    -2
  9
$DIMLWE
 70
    -2
  9
$DIMTMOVE
 70
     0
  9
$LUNITS
 70
     2
  9
$LUPREC
 70
     2
  9
$SKETCHINC
 40
1.0
  9
$FILLETRAD
 40
10.0
  9
$AUNITS
 70
     0
  9
$AUPREC
 70
     2
  9
$MENU
  1
.
  9
$ELEVATION
 40
0.0
  9
$PELEVATION
 40
0.0
  9
$THICKNESS
 40
0.0
  9
$LIMCHECK
 70
     0
  9
$CHAMFERA
 40
0.0
  9
$CHAMFERB
 40
0.0
  9
$CHAMFERC
 40
0.0
  9
$CHAMFERD
 40
0.0
  9
$SKPOLY
 70
     0
  9
$TDCREATE
 40
2457675.447893669
  9
$TDUCREATE
 40
2457675.364560336
  9
$TDUPDATE
 40
2457675.447895035
  9
$TDUUPDATE
 40
2457675.364561701
  9
$TDINDWG
 40
0.0000000116
  9
$TDUSRTIMER
 40
0.0000000116
  9
$USRTIMER
 70
     1
  9
$ANGBASE
 50
0.0
  9
$ANGDIR
 70
     0
  9
$PDMODE
 70
     0
  9
$PDSIZE
 40
-1.0
  9
$PLINEWID
 40
0.0
  9
$SPLFRAME
 70
     0
  9
$SPLINETYPE
 70
     6
  9
$SPLINESEGS
 70
     8
  9
$HANDSEED
  5
203
  9
$SURFTAB1
 70
     6
  9
$SURFTAB2
 70
     6
  9
$SURFTYPE
 70
     6
  9
$SURFU
 70
     6
  9
$SURFV
 70
     6
  9
$UCSBASE
  2

  9
$UCSNAME
  2

  9
$UCSORG
 10
0.0
 20
0.0
 30
0.0
  9
$UCSXDIR
 10
1.0
 20
0.0
 30
0.0
  9
$UCSYDIR
 10
0.0
 20
1.0
 30
0.0
  9
$UCSORTHOREF
  2

  9
$UCSORTHOVIEW
 70
     0
  9
$UCSORGTOP
 10
0.0
 20
0.0
 30
0.0
  9
$UCSORGBOTTOM
 10
0.0
 20
0.0
 30
0.0
  9
$UCSORGLEFT
 10
0.0
 20
0.0
 30
0.0
  9
$UCSORGRIGHT
 10
0.0
 20
0.0
 30
0.0
  9
$UCSORGFRONT
 10
0.0
 20
0.0
 30
0.0
  9
$UCSORGBACK
 10
0.0
 20
0.0
 30
0.0
  9
$PUCSBASE
  2

  9
$PUCSNAME
  2

  9
$PUCSORG
 10
0.0
 20
0.0
 30
0.0
  9
$PUCSXDIR
 10
1.0
 20
0.0
 30
0.0
  9
$PUCSYDIR
 10
0.0
 20
1.0
 30
0.0
  9
$PUCSORTHOREF
  2

  9
$PUCSORTHOVIEW
 70
     0
  9
$PUCSORGTOP
 10
0.0
 20
0.0
 30
0.0
  9
$PUCSORGBOTTOM
 10
0.0
 20
0.0
 30
0.0
  9
$PUCSORGLEFT
 10
0.0
 20
0.0
 30
0.0
  9
$PUCSORGRIGHT
 10
0.0
 20
0.0
 30
0.0
  9
$PUCSORGFRONT
 10
0.0
 20
0.0
 30
0.0
  9
$PUCSORGBACK
 10
0.0
 20
0.0
 30
0.0
  9
$USERI1
 70
     0
  9
$USERI2
 70
     0
  9
$USERI3
 70
     0
  9
$USERI4
 70
     0
  9
$USERI5
 70
     0
  9
$USERR1
 40
0.0
  9
$USERR2
 40
0.0
  9
$USERR3
 40
0.0
  9
$USERR4
 40
0.0
  9
$USERR5
 40
0.0
  9
$WORLDVIEW
 70
     1
  9
$SHADEDGE
 70
     3
  9
$SHADEDIF
 70
    70
  9
$TILEMODE
 70
     1
  9
$MAXACTVP
 70
    64
  9
$PINSBASE
 10
0.0
 20
0.0
 30
0.0
  9
$PLIMCHECK
 70
     0
  9
$PEXTMIN
 10
1.0000000000E+20
 20
1.0000000000E+20
 30
1.0000000000E+20
  9
$PEXTMAX
 10
-1.0000000000E+20
 20
-1.0000000000E+20
 30
-1.0000000000E+20
  9
$PLIMMIN
 10
0.0
 20
0.0
  9
$PLIMMAX
 10
420.0
 20
297.0
  9
$UNITMODE
 70
     0
  9
$VISRETAIN
 70
     1
  9
$PLINEGEN
 70
     0
  9
$PSLTSCALE
 70
     1
  9
$TREEDEPTH
 70
  3020
  9
$CMLSTYLE
  2
Standard
  9
$CMLJUST
 70
     0
  9
$CMLSCALE
 40
20.0
  9
$PROXYGRAPHICS
 70
     1
  9
$MEASUREMENT
 70
     1
  9
$CELWEIGHT
370
    -1
  9
$ENDCAPS
280
     0
  9
$JOINSTYLE
280
     0
  9
$LWDISPLAY
290
     1
  9
$INSUNITS
 70
     4
  9
$HYPERLINKBASE
  1

  9
$STYLESHEET
  1

  9
$XEDIT
290
     1
  9
$CEPSNTYPE
380
     0
  9
$PSTYLEMODE
290
     1
  9
$FINGERPRINTGUID
  2
{B5703244-175F-4F1B-BE97-38B65E30ED5B}
  9
$VERSIONGUID
  2
{FAEB1C32-E019-11D5-929B-00C0DF256EC4}
  9
$EXTNAMES
290
     1
  9
$PSVPSCALE
 40
0.0
  9
$OLESTARTUP
290
     0
  0
ENDSEC
  0
SECTION
  2
CLASSES
  0
CLASS
  1
ACDBDICTIONARYWDFLT
  2
AcDbDictionaryWithDefault
  3
ObjectDBX Classes
 90
        0
280
     0
281
     0
  0
CLASS
  1
VISUALSTYLE
  2
AcDbVisualStyle
  3
ObjectDBX Classes
 90
     4095
280
     0
281
     0
  0
CLASS
  1
MATERIAL
  2
AcDbMaterial
  3
ObjectDBX Classes
 90
     1153
280
     0
281
     0
  0
CLASS
  1
SCALE
  2
AcDbScale
  3
ObjectDBX Classes
 90
     1153
280
     0
281
     0
  0
CLASS
  1
TABLESTYLE
  2
AcDbTableStyle
  3
ObjectDBX Classes
 90
     4095
280
     0
281
     0
  0
CLASS
  1
MLEADERSTYLE
  2
AcDbMLeaderStyle
  3
ACDB_MLEADERSTYLE_CLASS
 90
     4095
280
     0
281
     0
  0
CLASS
  1
SUN
  2
AcDbSun
  3
SCENEOE
 90
     1153
280
     0
281
     0
  0
CLASS
  1
ACDBPLACEHOLDER
  2
AcDbPlaceHolder
  3
ObjectDBX Classes
 90
        0
280
     0
281
     0
  0
CLASS
  1
LAYOUT
  2
AcDbLayout
  3
ObjectDBX Classes
 90
        0
280
     0
281
     0
  0
ENDSEC
  0
SECTION
  2
TABLES
  0
TABLE
  2
VPORT
  5
8
330
0
100
AcDbSymbolTable
 70
     1
  0
VPORT
  5
29
330
8
100
AcDbSymbolTableRecord
100
AcDbViewportTableRecord
  2
*Active
 70
     0
 10
0.0
 20
0.0
 11
1.0
 21
1.0
 12
148.5
 22
105.0
 13
0.0
 23
0.0
 14
10.0
 24
10.0
 15
10.0
 25
10.0
 16
0.0
 26
0.0
 36
1.0
 17
0.0
 27
0.0
 37
0.0
 40
210.0
 41
1.4142857143
 42
50.0
 43
0.0
 44
0.0
 50
0.0
 51
0.0
 71
     0
 72
  2000
 73
     1
 74
     3
 75
     0
 76
     0
 77
     0
 78
     0
281
     0
 65
     1
110
0.0
120
0.0
130
0.0
111
1.0
121
0.0
131
0.0
112
0.0
122
1.0
132
0.0
 79
     0
146
0.0
  0
ENDTAB
  0
TABLE
  2
LTYPE
  5
5
330
0
100
AcDbSymbolTable
 70
     6
  0
LTYPE
  5
14
330
5
100
AcDbSymbolTableRecord
100
AcDbLinetypeTableRecord
  2
ByBlock
 70
     0
  3

 72
    65
 73
     0
 40
0.0
  0
LTYPE
  5
15
330
5
100
AcDbSymbolTableRecord
100
AcDbLinetypeTableRecord
  2
ByLayer
 70
     0
  3

 72
    65
 73
     0
 40
0.0
  0
LTYPE
  5
16
330
5
100
AcDbSymbolTableRecord
100
AcDbLinetypeTableRecord
  2
Continuous
 70
     0
  3
Solid line
 72
    65
 73
     0
 40
0.0
  0
LTYPE
  5
6E
330
5
100
AcDbSymbolTableRecord
100
AcDbLinetypeTableRecord
  2
HIDDEN
 70
     0
  3
Hidden __ __ __ __ __ __ __ __ __ __ __ __ __ __
 72
    65
 73
     2
 40
1.905
 49
1.27
 74
     0
 49
-0.635
 74
     0
  0
LTYPE
  5
6F
330
5
100
AcDbSymbolTableRecord
100
AcDbLinetypeTableRecord
  2
PHANTOM
 70
     0
  3
Phantom ______  __  __  ______  __  __  ______
 72
    65
 73
     6
 40
12.7
 49
6.35
 74
     0
 49
-1.27
 74
     0
 49
1.27
 74
     0
 49
-1.27
 74
     0
 49
1.27
 74
     0
 49
-1.27
 74
     0
  0
LTYPE
  5
70
330
5
100
AcDbSymbolTableRecord
100
AcDbLinetypeTableRecord
  2
CENTER
 70
     0
  3
Center ____ _ ____ _ ____ _ ____ _ ____ _ ____
 72
    65
 73
     4
 40
10.16
 49
6.35
 74
     0
 49
-1.27
 74
     0
 49
1.27
 74
     0
 49
-1.27
 74
     0
  0
LTYPE
  5
71
330
5
100
AcDbSymbolTableRecord
100
AcDbLinetypeTableRecord
  2
CENTERX2
 70
     0
  3
Center (2x) ________  __  ________  __  _____
 72
    65
 73
     4
 40
20.32
 49
12.7
 74
     0
 49
-2.54
 74
     0
 49
2.54
 74
     0
 49
-2.54
 74
     0
  0
LTYPE
  5
72
330
5
100
AcDbSymbolTableRecord
100
AcDbLinetypeTableRecord
  2
DOT2
 70
     0
  3
Dot (.5x) ........................................
 72
    65
 73
     2
 40
0.635
 49
0.0
 74
     0
 49
-0.635
 74
     0
  0
ENDTAB
  0
TABLE
  2
LAYER
  5
2
330
0
100
AcDbSymbolTable
 70
     5
  0
LAYER
  5
10
330
2
100
AcDbSymbolTableRecord
100
AcDbLayerTableRecord
  2
0
 70
     0
 62
     7
  6
Continuous
370
    -3
390
F
  0
LAYER
  5
73
330
2
100
AcDbSymbolTableRecord
100
AcDbLayerTableRecord
  2
FORMAT
 70
     0
 62
     7
  6
Continuous
370
    -3
390
F
  0
LAYER
  5
74
330
2
100
AcDbSymbolTableRecord
100
AcDbLayerTableRecord
  2
VERMASSUNG
 70
     0
 62
     7
  6
Continuous
370
    -3
390
F
  0
LAYER
  5
75
330
2
100
AcDbSymbolTableRecord
100
AcDbLayerTableRecord
  2
KOPF_DÜNN
 70
     0
 62
     7
  6
Continuous
370
    -3
390
F
  0
LAYER
  5
76
330
2
100
AcDbSymbolTableRecord
100
AcDbLayerTableRecord
  2
KOPF_DICK
 70
     0
 62
     7
  6
Continuous
370
    15
390
F
  0
ENDTAB
  0
TABLE
  2
STYLE
  5
3
330
0
100
AcDbSymbolTable
 70
     2
  0
STYLE
  5
11
330
3
100
AcDbSymbolTableRecord
100
AcDbTextStyleTableRecord
  2
Standard
 70
     0
 40
0.0
 41
1.0
 50
0.0
 71
     0
 42
2.0
  3
txt
  4

  0
STYLE
  5
77
330
3
100
AcDbSymbolTableRecord
100
AcDbTextStyleTableRecord
  2
SLDTEXTSTYLE0
 70
     0
 40
0.0
 41
0.7
 50
0.0
 71
     0
 42
2.0
  3
TXT
  4

  0
ENDTAB
  0
TABLE
  2
VIEW
  5
6
330
0
100
AcDbSymbolTable
 70
     0
  0
ENDTAB
  0
TABLE
  2
UCS
  5
7
330
0
100
AcDbSymbolTable
 70
     0
  0
ENDTAB
  0
TABLE
  2
APPID
  5
9
330
0
100
AcDbSymbolTable
 70
     1
  0
APPID
  5
12
330
9
100
AcDbSymbolTableRecord
100
AcDbRegAppTableRecord
  2
ACAD
 70
     0
  0
ENDTAB
  0
TABLE
  2
DIMSTYLE
  5
A
330
0
100
AcDbSymbolTable
 70
     2
100
AcDbDimStyleTable
  0
DIMSTYLE
105
27
330
A
100
AcDbSymbolTableRecord
100
AcDbDimStyleTableRecord
  2
ISO-25
 70
     0
 41
2.5
 42
0.625
 43
3.75
 44
1.25
 73
     0
 74
     0
 77
     1
 78
     8
140
2.5
141
2.5
143
0.0393700787
147
0.625
171
     3
172
     1
178
     0
271
     2
272
     2
274
     3
278
    44
283
     0
284
     8
340
11
  0
DIMSTYLE
105
148
102
{ACAD_REACTORS
330
147
330
154
330
15F
330
16B
330
175
330
181
102
}
330
A
100
AcDbSymbolTableRecord
100
AcDbDimStyleTableRecord
  2
SLDDIMSTYLE0
 70
     0
 41
3.0
 44
0.0
 45
0.000000001
 73
     0
 74
     0
 77
     1
 78
    12
 79
     3
140
2.0
147
0.5
173
     1
178
     0
271
     2
272
     3
276
     2
284
    12
340
77
  0
ENDTAB
  0
TABLE
  2
BLOCK_RECORD
  5
1
330
0
100
AcDbSymbolTable
 70
     7
  0
BLOCK_RECORD
  5
1F
330
1
100
AcDbSymbolTableRecord
100
AcDbBlockTableRecord
  2
*Model_Space
340
22
  0
BLOCK_RECORD
  5
1B
330
1
100
AcDbSymbolTableRecord
100
AcDbBlockTableRecord
  2
*Paper_Space
340
1E
  0
BLOCK_RECORD
  5
23
330
1
100
AcDbSymbolTableRecord
100
AcDbBlockTableRecord
  2
*Paper_Space0
340
26
  0
BLOCK_RECORD
  5
149
330
1
100
AcDbSymbolTableRecord
100
AcDbBlockTableRecord
  2
_D
340
0
  0
BLOCK_RECORD
  5
155
330
1
100
AcDbSymbolTableRecord
100
AcDbBlockTableRecord
  2
_D_1
340
0
  0
BLOCK_RECORD
  5
160
330
1
100
AcDbSymbolTableRecord
100
AcDbBlockTableRecord
  2
_D_2
340
0
  0
BLOCK_RECORD
  5
16C
330
1
100
AcDbSymbolTableRecord
100
AcDbBlockTableRecord
  2
_D_3
340
0
  0
BLOCK_RECORD
  5
176
330
1
100
AcDbSymbolTableRecord
100
AcDbBlockTableRecord
  2
_D_4
340
0
  0
BLOCK_RECORD
  5
182
330
1
100
AcDbSymbolTableRecord
100
AcDbBlockTableRecord
  2
_D_5
340
0
  0
ENDTAB
  0
ENDSEC
  0
SECTION
  2
BLOCKS
  0
BLOCK
  5
20
330
1F
100
AcDbEntity
  8
0
100
AcDbBlockBegin
  2
*Model_Space
 70
     0
 10
0.0
 20
0.0
 30
0.0
  3
*Model_Space
  1

  0
ENDBLK
  5
21
330
1F
100
AcDbEntity
  8
0
100
AcDbBlockEnd
  0
BLOCK
  5
1C
330
1B
100
AcDbEntity
 67
     1
  8
0
100
AcDbBlockBegin
  2
*Paper_Space
 70
     0
 10
0.0
 20
0.0
 30
0.0
  3
*Paper_Space
  1

  0
ENDBLK
  5
1D
330
1B
100
AcDbEntity
 67
     1
  8
0
100
AcDbBlockEnd
  0
BLOCK
  5
24
330
23
100
AcDbEntity
  8
0
100
AcDbBlockBegin
  2
*Paper_Space0
 70
     0
 10
0.0
 20
0.0
 30
0.0
  3
*Paper_Space0
  1

  0
ENDBLK
  5
25
330
23
100
AcDbEntity
  8
0
100
AcDbBlockEnd
  0
BLOCK
  5
14A
330
149
100
AcDbEntity
  8
0
100
AcDbBlockBegin
  2
_D
 70
     0
 10
0.0
 20
0.0
 30
0.0
  3
_D
  1

  0
SOLID
  5
14C
330
149
100
AcDbEntity
  8
VERMASSUNG
100
AcDbTrace
 10
90.8380659114
 20
97.1703185049
 30
0.0
 11
91.2880659114
 21
100.1703185049
 31
0.0
 12
90.3880659114
 22
100.1703185049
 32
0.0
 13
90.3880659114
 23
100.1703185049
 33
0.0
  0
SOLID
  5
14D
330
149
100
AcDbEntity
  8
VERMASSUNG
100
AcDbTrace
 10
90.8380659114
 20
143.1703185049
 30
0.0
 11
90.3880659114
 21
140.1703185049
 31
0.0
 12
91.2880659114
 22
140.1703185049
 32
0.0
 13
91.2880659114
 23
140.1703185049
 33
0.0
  0
LINE
  5
14E
330
149
100
AcDbEntity
  8
VERMASSUNG
100
AcDbLine
 10
165.2924041094
 20
97.1703185049
 30
0.0
 11
89.8380659114
 21
97.1703185049
 31
0.0
  0
LINE
  5
14F
330
149
100
AcDbEntity
  8
VERMASSUNG
100
AcDbLine
 10
165.2924041094
 20
143.1703185049
 30
0.0
 11
89.8380659114
 21
143.1703185049
 31
0.0
  0
LINE
  5
150
330
149
100
AcDbEntity
  8
VERMASSUNG
100
AcDbLine
 10
90.8380659114
 20
97.1703185049
 30
0.0
 11
90.8380659114
 21
143.1703185049
 31
0.0
  0
MTEXT
  5
151
330
149
100
AcDbEntity
  8
VERMASSUNG
100
AcDbMText
 10
88.0599306552
 20
109.3665646429
 30
0.0
 40
2.0
 41
0.0
 71
     1
 72
     1
  1
MAS-BT 30
  7
SLDTEXTSTYLE0
 11
3.391901413832837E-15
 21
1.0
 31
0.0
 73
     1
 44
1.0
  0
MTEXT
  5
152
330
149
100
AcDbEntity
  8
VERMASSUNG
100
AcDbMText
 10
88.2599306065
 20
124.3665643077
 30
0.0
 40
2.0
 41
0.0
 71
     1
 72
     1
  1
%%c
  7
SLDTEXTSTYLE0
 11
3.391901413832837E-15
 21
1.0
 31
0.0
 73
     1
 44
1.0
  0
MTEXT
  5
153
330
149
100
AcDbEntity
  8
VERMASSUNG
100
AcDbMText
 10
88.2599303155
 20
127.9761547562
 30
0.0
 40
2.0
 41
0.0
 71
     1
 72
     1
  1
46
  7
SLDTEXTSTYLE0
 11
3.391901413832837E-15
 21
1.0
 31
0.0
 73
     1
 44
1.0
  0
ENDBLK
  5
14B
330
149
100
AcDbEntity
  8
0
100
AcDbBlockEnd
  0
BLOCK
  5
156
330
155
100
AcDbEntity
  8
0
100
AcDbBlockBegin
  2
_D_1
 70
     0
 10
0.0
 20
0.0
 30
0.0
  3
_D_1
  1

  0
SOLID
  5
158
330
155
100
AcDbEntity
  8
VERMASSUNG
100
AcDbTrace
 10
200.7815653965
 20
134.1703185049
 30
0.0
 11
200.3315653965
 21
131.1703185049
 31
0.0
 12
201.2315653965
 22
131.1703185049
 32
0.0
 13
201.2315653965
 23
131.1703185049
 33
0.0
  0
SOLID
  5
159
330
155
100
AcDbEntity
  8
VERMASSUNG
100
AcDbTrace
 10
200.7815653965
 20
106.1703185049
 30
0.0
 11
201.2315653965
 21
109.1703185049
 31
0.0
 12
200.3315653965
 22
109.1703185049
 32
0.0
 13
200.3315653965
 23
109.1703185049
 33
0.0
  0
LINE
  5
15A
330
155
100
AcDbEntity
  8
VERMASSUNG
100
AcDbLine
 10
192.2924041094
 20
134.1703185049
 30
0.0
 11
201.7815653965
 21
134.1703185049
 31
0.0
  0
LINE
  5
15B
330
155
100
AcDbEntity
  8
VERMASSUNG
100
AcDbLine
 10
192.2924041094
 20
106.1703185049
 30
0.0
 11
201.7815653965
 21
106.1703185049
 31
0.0
  0
LINE
  5
15C
330
155
100
AcDbEntity
  8
VERMASSUNG
100
AcDbLine
 10
200.7815653965
 20
134.1703185049
 30
0.0
 11
200.7815653965
 21
106.1703185049
 31
0.0
  0
MTEXT
  5
15D
330
155
100
AcDbEntity
  8
VERMASSUNG
100
AcDbMText
 10
198.2034298587
 20
116.9661423978
 30
0.0
 40
2.0
 41
0.0
 71
     1
 72
     1
  1
%%c
  7
SLDTEXTSTYLE0
 11
-7.044195017643634E-15
 21
1.0
 31
0.0
 73
     1
 44
1.0
  0
MTEXT
  5
15E
330
155
100
AcDbEntity
  8
VERMASSUNG
100
AcDbMText
 10
198.2034298005
 20
120.5751145914
 30
0.0
 40
2.0
 41
0.0
 71
     1
 72
     1
  1
28
  7
SLDTEXTSTYLE0
 11
-7.044195017643634E-15
 21
1.0
 31
0.0
 73
     1
 44
1.0
  0
ENDBLK
  5
157
330
155
100
AcDbEntity
  8
0
100
AcDbBlockEnd
  0
BLOCK
  5
161
330
160
100
AcDbEntity
  8
0
100
AcDbBlockBegin
  2
_D_2
 70
     0
 10
0.0
 20
0.0
 30
0.0
  3
_D_2
  1

  0
SOLID
  5
163
330
160
100
AcDbEntity
  8
VERMASSUNG
100
AcDbTrace
 10
206.7815653965
 20
95.1703185049
 30
0.0
 11
207.2315653965
 21
98.1703185049
 31
0.0
 12
206.3315653965
 22
98.1703185049
 32
0.0
 13
206.3315653965
 23
98.1703185049
 33
0.0
  0
SOLID
  5
164
330
160
100
AcDbEntity
  8
VERMASSUNG
100
AcDbTrace
 10
206.7815653965
 20
145.1703185049
 30
0.0
 11
206.3315653965
 21
142.1703185049
 31
0.0
 12
207.2315653965
 22
142.1703185049
 32
0.0
 13
207.2315653965
 23
142.1703185049
 33
0.0
  0
LINE
  5
165
330
160
100
AcDbEntity
  8
VERMASSUNG
100
AcDbLine
 10
192.7924041094
 20
95.1703185049
 30
0.0
 11
207.7815653965
 21
95.1703185049
 31
0.0
  0
LINE
  5
166
330
160
100
AcDbEntity
  8
VERMASSUNG
100
AcDbLine
 10
192.7924041094
 20
145.1703185049
 30
0.0
 11
207.7815653965
 21
145.1703185049
 31
0.0
  0
LINE
  5
167
330
160
100
AcDbEntity
  8
VERMASSUNG
100
AcDbLine
 10
206.7815653965
 20
95.1703185049
 30
0.0
 11
206.7815653965
 21
145.1703185049
 31
0.0
  0
MTEXT
  5
168
330
160
100
AcDbEntity
  8
VERMASSUNG
100
AcDbMText
 10
204.0034301403
 20
114.465671749
 30
0.0
 40
2.0
 41
0.0
 71
     1
 72
     1
  1
WH
  7
SLDTEXTSTYLE0
 11
6.123233995736766E-17
 21
1.0
 31
0.0
 73
     1
 44
1.0
  0
MTEXT
  5
169
330
160
100
AcDbEntity
  8
VERMASSUNG
100
AcDbMText
 10
204.2034300916
 20
119.4656716373
 30
0.0
 40
2.0
 41
0.0
 71
     1
 72
     1
  1
%%c
  7
SLDTEXTSTYLE0
 11
6.123233995736766E-17
 21
1.0
 31
0.0
 73
     1
 44
1.0
  0
MTEXT
  5
16A
330
160
100
AcDbEntity
  8
VERMASSUNG
100
AcDbMText
 10
204.2034298005
 20
123.0755852403
 30
0.0
 40
2.0
 41
0.0
 71
     1
 72
     1
  1
50
  7
SLDTEXTSTYLE0
 11
6.123233995736766E-17
 21
1.0
 31
0.0
 73
     1
 44
1.0
  0
ENDBLK
  5
162
330
160
100
AcDbEntity
  8
0
100
AcDbBlockEnd
  0
BLOCK
  5
16D
330
16C
100
AcDbEntity
  8
0
100
AcDbBlockBegin
  2
_D_3
 70
     0
 10
0.0
 20
0.0
 30
0.0
  3
_D_3
  1

  0
SOLID
  5
16F
330
16C
100
AcDbEntity
  8
VERMASSUNG
100
AcDbTrace
 10
193.2924041094
 20
159.3933593291
 30
0.0
 11
190.2924041094
 21
159.8433593291
 31
0.0
 12
190.2924041094
 22
158.9433593291
 32
0.0
 13
190.2924041094
 23
158.9433593291
 33
0.0
  0
SOLID
  5
170
330
16C
100
AcDbEntity
  8
VERMASSUNG
100
AcDbTrace
 10
144.2924041094
 20
159.3933593291
 30
0.0
 11
147.2924041094
 21
158.9433593291
 31
0.0
 12
147.2924041094
 22
159.8433593291
 32
0.0
 13
147.2924041094
 23
159.8433593291
 33
0.0
  0
LINE
  5
171
330
16C
100
AcDbEntity
  8
VERMASSUNG
100
AcDbLine
 10
193.2924041094
 20
144.6703185049
 30
0.0
 11
193.2924041094
 21
160.3933593291
 31
0.0
  0
LINE
  5
172
330
16C
100
AcDbEntity
  8
VERMASSUNG
100
AcDbLine
 10
144.2924041094
 20
136.0453185049
 30
0.0
 11
144.2924041094
 21
160.3933593291
 31
0.0
  0
LINE
  5
173
330
16C
100
AcDbEntity
  8
VERMASSUNG
100
AcDbLine
 10
193.2924041094
 20
159.3933593291
 30
0.0
 11
144.2924041094
 21
159.3933593291
 31
0.0
  0
MTEXT
  5
174
330
16C
100
AcDbEntity
  8
VERMASSUNG
100
AcDbMText
 10
167.2934453041
 20
161.9714949251
 30
0.0
 40
2.0
 41
0.0
 71
     1
 72
     1
  1
49
  7
SLDTEXTSTYLE0
 73
     1
 44
1.0
  0
ENDBLK
  5
16E
330
16C
100
AcDbEntity
  8
0
100
AcDbBlockEnd
  0
BLOCK
  5
177
330
176
100
AcDbEntity
  8
0
100
AcDbBlockBegin
  2
_D_4
 70
     0
 10
0.0
 20
0.0
 30
0.0
  3
_D_4
  1

  0
ARC
  5
179
330
176
100
AcDbEntity
  8
VERMASSUNG
100
AcDbCircle
 10
144.304222338
 20
167.2927022745
 30
0.0
 40
4.24705993853726
100
AcDbArc
 50
153.4349488229
 51
206.5650511771
  0
ARC
  5
17A
330
176
100
AcDbEntity
  8
VERMASSUNG
100
AcDbCircle
 10
144.8805858808
 20
167.2927022745
 30
0.0
 40
4.24705993853726
100
AcDbArc
 50
333.4349488229
 51
26.5650511771
  0
SOLID
  5
17B
330
176
100
AcDbEntity
  8
VERMASSUNG
100
AcDbTrace
 10
193.2924041094
 20
165.3933593291
 30
0.0
 11
190.2924041094
 21
165.8433593291
 31
0.0
 12
190.2924041094
 22
164.9433593291
 32
0.0
 13
190.2924041094
 23
164.9433593291
 33
0.0
  0
SOLID
  5
17C
330
176
100
AcDbEntity
  8
VERMASSUNG
100
AcDbTrace
 10
95.8924041094
 20
165.3933593291
 30
0.0
 11
98.8924041094
 21
164.9433593291
 31
0.0
 12
98.8924041094
 22
165.8433593291
 32
0.0
 13
98.8924041094
 23
165.8433593291
 33
0.0
  0
LINE
  5
17D
330
176
100
AcDbEntity
  8
VERMASSUNG
100
AcDbLine
 10
193.2924041094
 20
144.6703185049
 30
0.0
 11
193.2924041094
 21
166.3933593291
 31
0.0
  0
LINE
  5
17E
330
176
100
AcDbEntity
  8
VERMASSUNG
100
AcDbLine
 10
95.8924041094
 20
128.5546129701
 30
0.0
 11
95.8924041094
 21
166.3933593291
 31
0.0
  0
LINE
  5
17F
330
176
100
AcDbEntity
  8
VERMASSUNG
100
AcDbLine
 10
193.2924041094
 20
165.3933593291
 30
0.0
 11
95.8924041094
 21
165.3933593291
 31
0.0
  0
MTEXT
  5
180
330
176
100
AcDbEntity
  8
VERMASSUNG
100
AcDbMText
 10
142.0930364472
 20
167.9714949251
 30
0.0
 40
2.0
 41
0.0
 71
     1
 72
     1
  1
97.4
  7
SLDTEXTSTYLE0
 73
     1
 44
1.0
  0
ENDBLK
  5
178
330
176
100
AcDbEntity
  8
0
100
AcDbBlockEnd
  0
BLOCK
  5
183
330
182
100
AcDbEntity
  8
0
100
AcDbBlockBegin
  2
_D_5
 70
     0
 10
0.0
 20
0.0
 30
0.0
  3
_D_5
  1

  0
SOLID
  5
185
330
182
100
AcDbEntity
  8
VERMASSUNG
100
AcDbTrace
 10
166.2924041094
 20
152.8676518567
 30
0.0
 11
169.2924041094
 21
152.4176518567
 31
0.0
 12
169.2924041094
 22
153.3176518567
 32
0.0
 13
169.2924041094
 23
153.3176518567
 33
0.0
  0
SOLID
  5
186
330
182
100
AcDbEntity
  8
VERMASSUNG
100
AcDbTrace
 10
193.2924041094
 20
152.8676518567
 30
0.0
 11
190.2924041094
 21
153.3176518567
 31
0.0
 12
190.2924041094
 22
152.4176518567
 32
0.0
 13
190.2924041094
 23
152.4176518567
 33
0.0
  0
LINE
  5
187
330
182
100
AcDbEntity
  8
VERMASSUNG
100
AcDbLine
 10
166.2924041094
 20
143.1703185049
 30
0.0
 11
166.2924041094
 21
153.8676518567
 31
0.0
  0
LINE
  5
188
330
182
100
AcDbEntity
  8
VERMASSUNG
100
AcDbLine
 10
193.2924041094
 20
144.6703185049
 30
0.0
 11
193.2924041094
 21
153.8676518567
 31
0.0
  0
LINE
  5
189
330
182
100
AcDbEntity
  8
VERMASSUNG
100
AcDbLine
 10
166.2924041094
 20
152.8676518567
 30
0.0
 11
193.2924041094
 21
152.8676518567
 31
0.0
  0
MTEXT
  5
18A
330
182
100
AcDbEntity
  8
VERMASSUNG
100
AcDbMText
 10
178.3924041593
 20
155.4457874527
 30
0.0
 40
2.0
 41
0.0
 71
     1
 72
     1
  1
27
  7
SLDTEXTSTYLE0
 73
     1
 44
1.0
  0
ENDBLK
  5
184
330
182
100
AcDbEntity
  8
0
100
AcDbBlockEnd
  0
ENDSEC
  0
SECTION
  2
ENTITIES
  0
MTEXT
  5
78
330
1F
100
AcDbEntity
  8
KOPF_DÜNN
100
AcDbMText
 10
13.8892156294
 20
23.8442973028
 30
0.0
 40
3.0
 41
0.0
 71
     1
 72
     1
  1
A34.530.050.049
  7
SLDTEXTSTYLE0
 73
     1
 44
1.0
  0
MTEXT
  5
79
330
1F
100
AcDbEntity
  8
VERMASSUNG
100
AcDbMText
 10
13.9329988022
 20
28.8834360957
 30
0.0
 40
3.0
 41
0.0
 71
     1
 72
     1
  1
Aufnahme_Master shank WH50
  7
SLDTEXTSTYLE0
 73
     1
 44
1.0
  0
MTEXT
  5
7A
330
1F
100
AcDbEntity
  8
VERMASSUNG
100
AcDbMText
 10
98.8601118557
 20
13.8365368761
 30
0.0
 40
2.0
 41
0.0
 71
     1
 72
     1
  1
Datum: 02.09.2011
  7
SLDTEXTSTYLE0
 73
     1
 44
1.0
  0
MTEXT
  5
7B
330
1F
100
AcDbEntity
  8
VERMASSUNG
100
AcDbMText
 10
13.933048693
 20
18.0482802738
 30
0.0
 40
2.0
 41
0.0
 71
     1
 72
     1
  1
MAS-BT
  7
SLDTEXTSTYLE0
 73
     1
 44
1.0
  0
MTEXT
  5
7C
330
1F
100
AcDbEntity
  8
VERMASSUNG
100
AcDbMText
 10
13.9808475933
 20
13.9090974274
 30
0.0
 40
2.0
 41
0.0
 71
     1
 72
     1
  1
Gewicht: 653g
  7
SLDTEXTSTYLE0
 73
     1
 44
1.0
  0
LINE
  5
7D
330
1F
100
AcDbEntity
  8
0
  6
Continuous
 62
     7
370
    15
100
AcDbLine
 10
192.7924041094
 20
95.1703185049
 30
0.0
 11
193.2924041094
 21
95.6703185049
 31
0.0
  0
LINE
  5
7E
330
1F
100
AcDbEntity
  8
0
  6
Continuous
 62
     7
370
    15
100
AcDbLine
 10
193.2924041094
 20
144.6703185049
 30
0.0
 11
192.7924041094
 21
145.1703185049
 31
0.0
  0
LINE
  5
7F
330
1F
100
AcDbEntity
  8
0
  6
Continuous
 62
     7
370
    15
100
AcDbLine
 10
171.7563413944
 20
145.1703185049
 30
0.0
 11
169.7565057246
 21
145.1703185049
 31
0.0
  0
LINE
  5
80
330
1F
100
AcDbEntity
  8
0
  6
Continuous
 62
     7
370
    15
100
AcDbLine
 10
192.7924041094
 20
145.1703185049
 30
0.0
 11
186.7363805309
 21
145.1703185049
 31
0.0
  0
LINE
  5
81
330
1F
100
AcDbEntity
  8
0
  6
Continuous
 62
     7
370
    15
100
AcDbLine
 10
169.7565057246
 20
95.1703185049
 30
0.0
 11
192.7924041094
 21
95.1703185049
 31
0.0
  0
LINE
  5
82
330
1F
100
AcDbEntity
  8
0
  6
Continuous
 62
     7
370
    15
100
AcDbLine
 10
169.7565057246
 20
145.1703185049
 30
0.0
 11
166.2924041094
 21
143.1703185049
 31
0.0
  0
LINE
  5
83
330
1F
100
AcDbEntity
  8
0
  6
Continuous
 62
     7
370
    15
100
AcDbLine
 10
166.2924041094
 20
97.1703185049
 30
0.0
 11
169.7565057246
 21
95.1703185049
 31
0.0
  0
LINE
  5
84
330
1F
100
AcDbEntity
  8
0
  6
Continuous
 62
     7
370
    15
100
AcDbLine
 10
164.2923628777
 20
97.1703185049
 30
0.0
 11
166.2924041094
 21
97.1703185049
 31
0.0
  0
LINE
  5
85
330
1F
100
AcDbEntity
  8
0
  6
Continuous
 62
     7
370
    15
100
AcDbLine
 10
166.2924041094
 20
143.1703185049
 30
0.0
 11
164.2923023276
 21
143.1703185049
 31
0.0
  0
ARC
  5
86
330
1F
100
AcDbEntity
  8
0
  6
Continuous
 62
     7
370
    15
100
AcDbCircle
 10
145.2924041094
 20
103.2953185049
 30
0.0
 40
1.0
100
AcDbArc
 50
42.4519931116
 51
90.0
  0
ARC
  5
87
330
1F
100
AcDbEntity
  8
0
  6
Continuous
 62
     7
370
    15
100
AcDbCircle
 10
145.2924041094
 20
137.0453185049
 30
0.0
 40
1.0
100
AcDbArc
 50
270.0
 51
317.5125836087
  0
LINE
  5
88
330
1F
100
AcDbEntity
  8
0
  6
Continuous
 62
     7
370
    15
100
AcDbLine
 10
144.2924041094
 20
136.0453185049
 30
0.0
 11
96.3202506629
 21
129.0493794606
 31
0.0
  0
LINE
  5
89
330
1F
100
AcDbEntity
  8
0
  6
Continuous
 62
     7
370
    15
100
AcDbLine
 10
96.3202506629
 20
111.2912575492
 30
0.0
 11
144.2924041094
 21
104.2953185049
 31
0.0
  0
LINE
  5
8A
330
1F
100
AcDbEntity
  8
0
  6
Continuous
 62
     7
370
    15
100
AcDbLine
 10
144.2924041094
 20
104.2953185049
 30
0.0
 11
145.2924041094
 21
104.2953185049
 31
0.0
  0
LINE
  5
8B
330
1F
100
AcDbEntity
  8
0
  6
Continuous
 62
     7
370
    15
100
AcDbLine
 10
145.2924041094
 20
136.0453185049
 30
0.0
 11
144.2924041094
 21
136.0453185049
 31
0.0
  0
ARC
  5
8C
330
1F
100
AcDbEntity
  8
0
  6
Continuous
 62
     7
370
    15
100
AcDbCircle
 10
96.3924041094
 20
111.7860240398
 30
0.0
 40
0.5
100
AcDbArc
 50
180.0
 51
261.7028550302
  0
ARC
  5
8D
330
1F
100
AcDbEntity
  8
0
  6
Continuous
 62
     7
370
    15
100
AcDbCircle
 10
96.3924041094
 20
128.5546129701
 30
0.0
 40
0.500000000000005
100
AcDbArc
 50
98.2971449698
 51
180.0
  0
SPLINE
  5
8E
330
1F
100
AcDbEntity
  8
0
  6
Continuous
 62
     7
370
    15
100
AcDbSpline
210
0.0
220
0.0
230
1.0
 70
    24
 71
     3
 72
    15
 73
    11
 74
     0
 42
0.000000001
 43
0.00000001
 40
0.0
 40
0.0
 40
0.0
 40
0.0
 40
0.1077869592233315
 40
0.216170181913538
 40
0.3273150562947948
 40
0.4399598612360066
 40
0.593490269533854
 40
0.7521517812193883
 40
0.8755082115460667
 40
1.0
 40
1.0
 40
1.0
 40
1.0
 10
177.7176140247165
 20
117.0598498589601
 30
0.0
 10
177.8346206039694
 20
117.0677964837633
 30
0.0
 10
178.0692810276835
 20
117.0837336930667
 30
0.0
 10
178.4392437916549
 20
117.1088601030108
 30
0.0
 10
178.826061160824
 20
117.1351312111809
 30
0.0
 10
179.2767291580419
 20
117.1657388018617
 30
0.0
 10
179.7908541741355
 20
117.2006561426723
 30
0.0
 10
180.3060977415841
 20
117.2356494510737
 30
0.0
 10
180.7689715913649
 20
117.2670860150597
 30
0.0
 10
181.0384150575781
 20
117.2853855512512
 30
0.0
 10
181.1737539321568
 20
117.2945772331587
 30
0.0
  0
SPLINE
  5
8F
330
1F
100
AcDbEntity
  8
0
  6
Continuous
 62
     7
370
    15
100
AcDbSpline
210
0.0
220
0.0
230
1.0
 70
    24
 71
     3
 72
    18
 73
    14
 74
     0
 42
0.000000001
 43
0.00000001
 40
0.0
 40
0.0
 40
0.0
 40
0.0
 40
0.1621847089240266
 40
0.2719359695167576
 40
0.3834753487519231
 40
0.4398319183610991
 40
0.497221254401243
 40
0.6329009399326184
 40
0.6924199898039642
 40
0.7521730438945949
 40
0.8446312305611826
 40
0.9377052350185135
 40
1.0
 40
1.0
 40
1.0
 40
1.0
 10
181.1737539321568
 20
117.2945772331587
 30
0.0
 10
181.2518012440709
 20
117.4537884708546
 30
0.0
 10
181.3826635896913
 20
117.7207388052484
 30
0.0
 10
181.5771549700614
 20
118.1174880670804
 30
0.0
 10
181.7218554878656
 20
118.4126673368059
 30
0.0
 10
181.8408731999318
 20
118.6554554198422
 30
0.0
 10
181.9732585483377
 20
118.9255125769127
 30
0.0
 10
182.1076226386328
 20
119.1996062336077
 30
0.0
 10
182.2405785128437
 20
119.4708272247335
 30
0.0
 10
182.3495071142915
 20
119.6930342044699
 30
0.0
 10
182.4730646359691
 20
119.9450831920707
 30
0.0
 10
182.5946571251542
 20
120.1931236462891
 30
0.0
 10
182.6688118455016
 20
120.3443942604579
 30
0.0
 10
182.6985440168574
 20
120.4050458791345
 30
0.0
  0
SPLINE
  5
90
330
1F
100
AcDbEntity
  8
0
  6
Continuous
 62
     7
370
    15
100
AcDbSpline
210
0.0
220
0.0
230
1.0
 70
    24
 71
     3
 72
    21
 73
    17
 74
     0
 42
0.000000001
 43
0.00000001
 40
0.0
 40
0.0
 40
0.0
 40
0.0
 40
0.0459884793660882
 40
0.1381576750354469
 40
0.1843685985639291
 40
0.2461032364961886
 40
0.3080383296587317
 40
0.391802982432899
 40
0.5197555617867211
 40
0.5627493476222474
 40
0.6492610989675839
 40
0.7373630866510096
 40
0.8269240350124247
 40
0.8718879817001145
 40
0.967933517002699
 40
1.0
 40
1.0
 40
1.0
 40
1.0
 10
182.6985440168574
 20
120.4050458791345
 30
0.0
 10
182.6707758976707
 20
120.446392053424
 30
0.0
 10
182.5873554662969
 20
120.5706034078802
 30
0.0
 10
182.4733348558518
 20
120.7403778171713
 30
0.0
 10
182.3471777017827
 20
120.9282232972675
 30
0.0
 10
182.2383382409792
 20
121.0902830783313
 30
0.0
 10
182.1031839876304
 20
121.2915250593723
 30
0.0
 10
181.9218170650915
 20
121.5615767808881
 30
0.0
 10
181.7499836595555
 20
121.8174332861943
 30
0.0
 10
181.5770288043546
 20
122.0749596076299
 30
0.0
 10
181.4315949074313
 20
122.2915077724282
 30
0.0
 10
181.258125996335
 20
122.5497995128143
 30
0.0
 10
181.1153374715816
 20
122.7624087713417
 30
0.0
 10
180.9704402823696
 20
122.9781577890883
 30
0.0
 10
180.8638023989122
 20
123.1369394655008
 30
0.0
 10
180.7865344010203
 20
123.2519899695105
 30
0.0
 10
180.7671941941176
 20
123.2807871509118
 30
0.0
  0
SPLINE
  5
91
330
1F
100
AcDbEntity
  8
0
  6
Continuous
 62
     7
370
    15
100
AcDbSpline
210
0.0
220
0.0
230
1.0
 70
    24
 71
     3
 72
    11
 73
     7
 74
     0
 42
0.000000001
 43
0.00000001
 40
0.0
 40
0.0
 40
0.0
 40
0.0
 40
0.2164553779443465
 40
0.440311289579055
 40
0.7519005688038862
 40
1.0
 40
1.0
 40
1.0
 40
1.0
 10
180.7671941941176
 20
123.2807871509118
 30
0.0
 10
180.5304452617689
 20
123.2647080983494
 30
0.0
 10
180.0488530338514
 20
123.2320002560395
 30
0.0
 10
179.1551464841408
 20
123.1713032364351
 30
0.0
 10
178.1964858973915
 20
123.1061947951389
 30
0.0
 10
177.5830006890366
 20
123.0645293024437
 30
0.0
 10
177.3110542866773
 20
123.0460597767132
 30
0.0
  0
SPLINE
  5
92
330
1F
100
AcDbEntity
  8
0
  6
Continuous
 62
     7
370
    15
100
AcDbSpline
210
0.0
220
0.0
230
1.0
 70
    24
 71
     3
 72
    18
 73
    14
 74
     0
 42
0.000000001
 43
0.00000001
 40
0.0
 40
0.0
 40
0.0
 40
0.0
 40
0.162184708924031
 40
0.2719359695167609
 40
0.3834753487519288
 40
0.4398319183611044
 40
0.4972212544012506
 40
0.6329009399326222
 40
0.6924199898039693
 40
0.7521730438945974
 40
0.8446312305611912
 40
0.9377052350185132
 40
1.0
 40
1.0
 40
1.0
 40
1.0
 10
177.3110542866773
 20
123.0460597767132
 30
0.0
 10
177.2330069747631
 20
122.8868485390172
 30
0.0
 10
177.1021446291427
 20
122.6198982046235
 30
0.0
 10
176.9076532487726
 20
122.2231489427914
 30
0.0
 10
176.7629527309683
 20
121.927969673066
 30
0.0
 10
176.6439350189023
 20
121.6851815900296
 30
0.0
 10
176.5115496704962
 20
121.4151244329592
 30
0.0
 10
176.3771855802012
 20
121.1410307762642
 30
0.0
 10
176.2442297059903
 20
120.8698097851384
 30
0.0
 10
176.1353011045426
 20
120.6476028054019
 30
0.0
 10
176.0117435828649
 20
120.3955538178012
 30
0.0
 10
175.8901510936797
 20
120.1475133635829
 30
0.0
 10
175.8159963733325
 20
119.996242749414
 30
0.0
 10
175.7862642019766
 20
119.9355911307373
 30
0.0
  0
SPLINE
  5
93
330
1F
100
AcDbEntity
  8
0
  6
Continuous
 62
     7
370
    15
100
AcDbSpline
210
0.0
220
0.0
230
1.0
 70
    24
 71
     3
 72
    21
 73
    17
 74
     0
 42
0.000000001
 43
0.00000001
 40
0.0
 40
0.0
 40
0.0
 40
0.0
 40
0.0320027986440003
 40
0.1281258596102473
 40
0.1857521610573337
 40
0.2433822027624468
 40
0.301990963588703
 40
0.3608070697855114
 40
0.4204293179417181
 40
0.4803400136413007
 40
0.6453907657235333
 40
0.7016131473446395
 40
0.7585492287763493
 40
0.815651090371308
 40
0.9537817175651849
 40
1.0
 40
1.0
 40
1.0
 40
1.0
 10
175.7862642019766
 20
119.9355911307373
 30
0.0
 10
175.8055639388317
 20
119.9068542084278
 30
0.0
 10
175.8828320366101
 20
119.7918035556891
 30
0.0
 10
175.9972579446619
 20
119.621425666365
 30
0.0
 10
176.1303381892258
 20
119.4232718429381
 30
0.0
 10
176.2416898348902
 20
119.2574714688437
 30
0.0
 10
176.3556004558774
 20
119.0878608316563
 30
0.0
 10
176.472434741074
 20
118.913896916915
 30
0.0
 10
176.5914417996406
 20
118.7366977860671
 30
0.0
 10
176.7825486245484
 20
118.4521435446578
 30
0.0
 10
176.9725549366427
 20
118.169227944825
 30
0.0
 10
177.1558624783943
 20
117.8962866801008
 30
0.0
 10
177.26659348031
 20
117.7314104321395
 30
0.0
 10
177.4279673027197
 20
117.4911280369856
 30
0.0
 10
177.5784038970765
 20
117.2671309557298
 30
0.0
 10
177.6897086972522
 20
117.1014003336315
 30
0.0
 10
177.7176140247165
 20
117.0598498589601
 30
0.0
  0
CIRCLE
  5
94
330
1F
100
AcDbEntity
  8
0
  6
Continuous
 62
     7
370
    15
100
AcDbCircle
 10
179.2424041094
 20
120.1703185049
 30
0.0
 40
3.600000000000029
  0
CIRCLE
  5
95
330
1F
100
AcDbEntity
  8
0
  6
Continuous
 62
     7
370
    15
100
AcDbCircle
 10
179.2424041094
 20
120.1703185049
 30
0.0
 40
5.300000000000019
  0
ARC
  5
96
330
1F
100
AcDbEntity
  8
0
  6
Continuous
 62
     7
370
    15
100
AcDbCircle
 10
179.2424041094
 20
120.1703185049
 30
0.0
 40
3.000000000000008
100
AcDbArc
 50
153.8853365919
 51
213.8853365919
  0
ARC
  5
97
330
1F
100
AcDbEntity
  8
0
  6
Continuous
 62
     7
370
    15
100
AcDbCircle
 10
179.2424041094
 20
120.1703185049
 30
0.0
 40
3.000000000000009
100
AcDbArc
 50
93.8853365919
 51
153.8853365919
  0
ARC
  5
98
330
1F
100
AcDbEntity
  8
0
  6
Continuous
 62
     7
370
    15
100
AcDbCircle
 10
179.2424041094
 20
120.1703185049
 30
0.0
 40
3.000000000000082
100
AcDbArc
 50
213.8853365919
 51
273.8853365919
  0
ARC
  5
99
330
1F
100
AcDbEntity
  8
0
  6
Continuous
 62
     7
370
    15
100
AcDbCircle
 10
179.2424041094
 20
120.1703185049
 30
0.0
 40
3.000000000000024
100
AcDbArc
 50
33.8853365919
 51
93.8853365919
  0
ARC
  5
9A
330
1F
100
AcDbEntity
  8
0
  6
Continuous
 62
     7
370
    15
100
AcDbCircle
 10
179.2424041094
 20
120.1703185049
 30
0.0
 40
3.000000000000053
100
AcDbArc
 50
333.8853365919
 51
33.8853365919
  0
ARC
  5
9B
330
1F
100
AcDbEntity
  8
0
  6
Continuous
 62
     7
370
    15
100
AcDbCircle
 10
179.2424041094
 20
120.1703185049
 30
0.0
 40
3.000000000000082
100
AcDbArc
 50
273.8853365919
 51
333.8853365919
  0
LINE
  5
9C
330
1F
100
AcDbEntity
  8
0
  6
Continuous
 62
     7
370
    15
100
AcDbLine
 10
193.2924041094
 20
120.1703185049
 30
0.0
 11
193.2924041094
 21
95.6703185049
 31
0.0
  0
LINE
  5
9D
330
1F
100
AcDbEntity
  8
0
  6
Continuous
 62
     7
370
    15
100
AcDbLine
 10
193.2924041094
 20
144.6703185049
 30
0.0
 11
193.2924041094
 21
120.1703185049
 31
0.0
  0
LINE
  5
9E
330
1F
100
AcDbEntity
  8
0
  6
Continuous
 62
     7
370
    15
100
AcDbLine
 10
192.7924041094
 20
120.1703185049
 30
0.0
 11
192.7924041094
 21
95.1703185049
 31
0.0
  0
LINE
  5
9F
330
1F
100
AcDbEntity
  8
0
  6
Continuous
 62
     7
370
    15
100
AcDbLine
 10
192.7924041094
 20
145.1703185049
 30
0.0
 11
192.7924041094
 21
120.1703185049
 31
0.0
  0
SPLINE
  5
A0
330
1F
100
AcDbEntity
  8
0
  6
Continuous
 62
     7
370
    15
100
AcDbSpline
210
0.0
220
0.0
230
1.0
 70
     8
 71
     3
 72
    38
 73
    34
 74
     0
 42
0.000000001
 43
0.00000001
 40
0.0
 40
0.0
 40
0.0
 40
0.0
 40
0.0192507483205485
 40
0.0537952869923899
 40
0.0819238975039482
 40
0.1104917187224101
 40
0.139327864514755
 40
0.1692297930441315
 40
0.1995497776849741
 40
0.2301184131291143
 40
0.2469895076079169
 40
0.2638603928445042
 40
0.2980632153040368
 40
0.3325538299410292
 40
0.3750695055950021
 40
0.4037619725615382
 40
0.4473041894513317
 40
0.4923256889802719
 40
0.5227428177340768
 40
0.5689586001712057
 40
0.6143602255862061
 40
0.6451280131954903
 40
0.6763561979280033
 40
0.6920501406265606
 40
0.736839817502715
 40
0.7671665463162759
 40
0.8133804570202166
 40
0.8545738221136844
 40
0.8825291680434948
 40
0.9252401381927644
 40
0.9487616867071035
 40
0.9845829635536055
 40
1.0
 40
1.0
 40
1.0
 40
1.0
 10
186.7363805309458
 20
145.1689294557312
 30
0.0
 10
186.7355970363717
 20
145.1687480872509
 30
0.0
 10
186.7334075986016
 20
145.1682412617868
 30
0.0
 10
186.6405193880202
 20
145.1468525607732
 30
0.0
 10
186.4685776000424
 20
145.1079940469608
 30
0.0
 10
186.2419348372642
 20
145.0579827620483
 30
0.0
 10
185.9505246474851
 20
144.9958024265225
 30
0.0
 10
185.59510856104
 20
144.9232203118503
 30
0.0
 10
185.1783011540977
 20
144.8427656467889
 30
0.0
 10
184.7792341330635
 20
144.770930396405
 30
0.0
 10
184.4255043552624
 20
144.7113601396194
 30
0.0
 10
184.0351682499028
 20
144.6489533662565
 30
0.0
 10
183.5139962300895
 20
144.572581478941
 30
0.0
 10
182.7935930101426
 20
144.4813977784453
 30
0.0
 10
182.0705172085886
 20
144.4071980225116
 30
0.0
 10
181.2578173644249
 20
144.3432824242527
 30
0.0
 10
180.4041955611214
 20
144.2973531725439
 30
0.0
 10
179.5224829111644
 20
144.2779704852016
 30
0.0
 10
178.61959989287
 20
144.2828887247283
 30
0.0
 10
177.7191541225371
 20
144.3128528146548
 30
0.0
 10
176.8376908421441
 20
144.3709101966833
 30
0.0
 10
176.0905729353105
 20
144.4392885794082
 30
0.0
 10
175.5693329299997
 20
144.4974750114278
 30
0.0
 10
174.9755395735149
 20
144.5722007879508
 30
0.0
 10
174.4162535795997
 20
144.6528991646859
 30
0.0
 10
173.7312896277966
 20
144.7652283776606
 30
0.0
 10
173.1354730294769
 20
144.8742525119567
 30
0.0
 10
172.6459683591392
 20
144.9724437209147
 30
0.0
 10
172.2560247597802
 20
145.0548916687987
 30
0.0
 10
172.0047661828166
 20
145.1105447195695
 30
0.0
 10
171.82765338265
 20
145.1506601133127
 30
0.0
 10
171.7418281406901
 20
145.1704504039762
 30
0.0
 10
171.7529845541426
 20
145.1678788830607
 30
0.0
 10
171.7563413944006
 20
145.1671051411256
 30
0.0
  0
SPLINE
  5
A1
330
1F
100
AcDbEntity
  8
0
  6
Continuous
 62
     7
370
    15
100
AcDbSpline
210
0.0
220
0.0
230
1.0
 70
    11
 71
     3
 72
    96
 73
    92
 74
     0
 42
0.000000001
 43
0.00000001
 40
0.0
 40
0.0
 40
0.0
 40
0.0
 40
0.0312500000000001
 40
0.0312500000000001
 40
0.046875
 40
0.046875
 40
0.0624999999999998
 40
0.0624999999999998
 40
0.0937499999999995
 40
0.0937499999999995
 40
0.1093749999999993
 40
0.1093749999999993
 40
0.1249999999999992
 40
0.1249999999999992
 40
0.1562499999999984
 40
0.1562499999999984
 40
0.1718749999999982
 40
0.1718749999999982
 40
0.187499999999998
 40
0.187499999999998
 40
0.2187499999999973
 40
0.2187499999999973
 40
0.2343749999999969
 40
0.2343749999999969
 40
0.2499999999999965
 40
0.2499999999999965
 40
0.2812499999999957
 40
0.2812499999999957
 40
0.2968749999999952
 40
0.2968749999999952
 40
0.3124999999999946
 40
0.3124999999999946
 40
0.3437499999999937
 40
0.3437499999999937
 40
0.3593749999999933
 40
0.3593749999999933
 40
0.374999999999993
 40
0.374999999999993
 40
0.3906249999999926
 40
0.3906249999999926
 40
0.4062499999999922
 40
0.4062499999999922
 40
0.4374999999999914
 40
0.4374999999999914
 40
0.453124999999991
 40
0.453124999999991
 40
0.4687499999999906
 40
0.4687499999999906
 40
0.4999999999999902
 40
0.4999999999999902
 40
0.5312499999999897
 40
0.5312499999999897
 40
0.5468749999999896
 40
0.5468749999999896
 40
0.5624999999999896
 40
0.5624999999999896
 40
0.5937499999999899
 40
0.5937499999999899
 40
0.6249999999999902
 40
0.6249999999999902
 40
0.6562499999999906
 40
0.6562499999999906
 40
0.6874999999999909
 40
0.6874999999999909
 40
0.7187499999999917
 40
0.7187499999999917
 40
0.7499999999999925
 40
0.7499999999999925
 40
0.7656249999999929
 40
0.7656249999999929
 40
0.7812499999999934
 40
0.7812499999999934
 40
0.8124999999999944
 40
0.8124999999999944
 40
0.8281249999999949
 40
0.8281249999999949
 40
0.8437499999999954
 40
0.8437499999999954
 40
0.8749999999999963
 40
0.8749999999999963
 40
0.8906249999999968
 40
0.8906249999999968
 40
0.9062499999999973
 40
0.9062499999999973
 40
0.9218749999999978
 40
0.9218749999999978
 40
0.9374999999999983
 40
0.9374999999999983
 40
0.9687499999999992
 40
0.9687499999999992
 40
1.0
 40
1.0
 40
1.0
 40
1.0
 10
174.2411428074975
 20
125.0852890506184
 30
0.0
 10
174.6049657978004
 20
125.3731516282038
 30
0.0
 10
174.9901602542512
 20
125.622417011179
 30
0.0
 10
175.5973581861519
 20
125.9441761938931
 30
0.0
 10
175.8047011042142
 20
126.0426601419924
 30
0.0
 10
176.2292821358043
 20
126.2222185957073
 30
0.0
 10
176.4475165080411
 20
126.3035988731585
 30
0.0
 10
177.1097827036506
 20
126.5186790434085
 30
0.0
 10
177.5586488507281
 20
126.6231504546185
 30
0.0
 10
178.2425804628747
 20
126.7241695056391
 30
0.0
 10
178.4723409356437
 20
126.7484977893697
 30
0.0
 10
178.9354909755256
 20
126.7781828745209
 30
0.0
 10
179.1698096757158
 20
126.7834619897293
 30
0.0
 10
179.8661530989168
 20
126.7702706545499
 30
0.0
 10
180.3245358022898
 20
126.7235013229594
 30
0.0
 10
181.0035045049791
 20
126.5971903941758
 30
0.0
 10
181.2283849882614
 20
126.5456698234314
 30
0.0
 10
181.6751845062134
 20
126.4231985133563
 30
0.0
 10
181.8977606448238
 20
126.3519163783733
 30
0.0
 10
182.5482618572257
 20
126.1123539712868
 30
0.0
 10
182.9630130609005
 20
125.917791363168
 30
0.0
 10
183.5565697230332
 20
125.5724429160969
 30
0.0
 10
183.7496293488278
 20
125.4483498800275
 30
0.0
 10
184.125703293954
 20
125.1811748844198
 30
0.0
 10
184.3090368546805
 20
125.0376464655851
 30
0.0
 10
184.8311075183111
 20
124.587045053299
 30
0.0
 10
185.1464486915973
 20
124.2574721949371
 30
0.0
 10
185.5677863050422
 20
123.7162306221182
 30
0.0
 10
185.6995562375787
 20
123.5279460435403
 30
0.0
 10
185.9443545991588
 20
123.1342480129214
 30
0.0
 10
186.0565650130507
 20
122.9297732538661
 30
0.0
 10
186.3546349864511
 20
122.3068187721305
 30
0.0
 10
186.5056026602495
 20
121.8739411815283
 30
0.0
 10
186.655300958792
 20
121.1961394794611
 30
0.0
 10
186.6923962048509
 20
120.9635630573911
 30
0.0
 10
186.7376626688405
 20
120.5001172902342
 30
0.0
 10
186.7461789759195
 20
120.2688717356372
 30
0.0
 10
186.7355984708292
 20
119.8073147272509
 30
0.0
 10
186.7165008071305
 20
119.5770033019431
 30
0.0
 10
186.6504132428686
 20
119.1173230249156
 30
0.0
 10
186.6029484588473
 20
118.8866656187829
 30
0.0
 10
186.4222897855826
 20
118.2132985054499
 30
0.0
 10
186.2512646979348
 20
117.7846038614203
 30
0.0
 10
185.9233435664492
 20
117.1698235559045
 30
0.0
 10
185.8022090038282
 20
116.9703138656123
 30
0.0
 10
185.5421161710383
 20
116.589000774793
 30
0.0
 10
185.402575547322
 20
116.4060604487693
 30
0.0
 10
184.9567377123115
 20
115.879186487544
 30
0.0
 10
184.6199446707347
 20
115.5547331228231
 30
0.0
 10
183.8992845155143
 20
114.981273153987
 30
0.0
 10
183.5144563823685
 20
114.7299655282172
 30
0.0
 10
182.9016998507549
 20
114.4034236510913
 30
0.0
 10
182.6909625656761
 20
114.302924705962
 30
0.0
 10
182.2651028180556
 20
114.1221282192299
 30
0.0
 10
182.0491277670664
 20
114.0413217552558
 30
0.0
 10
181.392303631381
 20
113.826729749641
 30
0.0
 10
180.9426274902785
 20
113.7205344552546
 30
0.0
 10
180.0191138157439
 20
113.5829113592607
 30
0.0
 10
179.5557631281877
 20
113.5532575396668
 30
0.0
 10
178.6331984053884
 20
113.5694633318563
 30
0.0
 10
178.172703594661
 20
113.6151526206464
 30
0.0
 10
177.2538376154704
 20
113.7854374062762
 30
0.0
 10
176.8087488601519
 20
113.907551079574
 30
0.0
 10
175.9463526715311
 20
114.224202512875
 30
0.0
 10
175.5282405844722
 20
114.419143187831
 30
0.0
 10
174.7251217885034
 20
114.8863256666809
 30
0.0
 10
174.3512471684667
 20
115.1519171657575
 30
0.0
 10
173.8321416223556
 20
115.5993913844948
 30
0.0
 10
173.6661073366337
 20
115.7567891572132
 30
0.0
 10
173.3487473003569
 20
116.0890515806746
 30
0.0
 10
173.1966902684845
 20
116.2648660967704
 30
0.0
 10
172.7696517961716
 20
116.8142926678932
 30
0.0
 10
172.527537217196
 20
117.2036088930748
 30
0.0
 10
172.2305647633063
 20
117.8238717210473
 30
0.0
 10
172.1426908605208
 20
118.036718463271
 30
0.0
 10
171.9907576902312
 20
118.4755269385171
 30
0.0
 10
171.9267392055069
 20
118.7023358444543
 30
0.0
 10
171.7778422182138
 20
119.3823941940905
 30
0.0
 10
171.7329949594434
 20
119.8416699315756
 30
0.0
 10
171.7495383544635
 20
120.5396979306707
 30
0.0
 10
171.7694749536795
 20
120.7750531779843
 30
0.0
 10
171.8366784062995
 20
121.235723055501
 30
0.0
 10
171.8838425397519
 20
121.4625036879303
 30
0.0
 10
172.0043184935301
 20
121.9092299239388
 30
0.0
 10
172.0776327620648
 20
122.1291748553281
 30
0.0
 10
172.250316094581
 20
122.5622809599929
 30
0.0
 10
172.349397600112
 20
122.7742914034622
 30
0.0
 10
172.6774234300766
 20
123.3859976625056
 30
0.0
 10
172.9386325048173
 20
123.7663730787383
 30
0.0
 10
173.541612391345
 20
124.4759092722133
 30
0.0
 10
173.8773198171945
 20
124.7974264730329
 30
0.0
 10
174.2411428074975
 20
125.0852890506184
 30
0.0
  0
LINE
  5
A2
330
1F
100
AcDbEntity
  8
0
  6
Continuous
 62
     7
370
    15
100
AcDbLine
 10
169.7565057246
 20
120.1703185049
 30
0.0
 11
169.7565057246
 21
95.1703185049
 31
0.0
  0
LINE
  5
A3
330
1F
100
AcDbEntity
  8
0
  6
Continuous
 62
     7
370
    15
100
AcDbLine
 10
169.7565057246
 20
145.1703185049
 30
0.0
 11
169.7565057246
 21
120.1703185049
 31
0.0
  0
LINE
  5
A4
330
1F
100
AcDbEntity
  8
0
  6
Continuous
 62
     7
370
    15
100
AcDbLine
 10
166.2924041094
 20
120.1703185049
 30
0.0
 11
166.2924041094
 21
97.1703185049
 31
0.0
  0
LINE
  5
A5
330
1F
100
AcDbEntity
  8
0
  6
Continuous
 62
     7
370
    15
100
AcDbLine
 10
166.2924041094
 20
143.1703185049
 30
0.0
 11
166.2924041094
 21
120.1703185049
 31
0.0
  0
CIRCLE
  5
A6
330
1F
100
AcDbEntity
  8
0
  6
Continuous
 62
     7
370
    15
100
AcDbCircle
 10
179.2424041094
 20
120.1703185049
 30
0.0
 40
5.5
  0
SPLINE
  5
A7
330
1F
100
AcDbEntity
  8
0
  6
Continuous
 62
     7
370
    15
100
AcDbSpline
210
0.0
220
0.0
230
1.0
 70
     8
 71
     3
 72
    12
 73
     8
 74
     0
 42
0.000000001
 43
0.00000001
 40
0.0
 40
0.0
 40
0.0
 40
0.0
 40
0.0001599767578006
 40
0.2512944248697316
 40
0.5029658357238114
 40
0.7514776885319994
 40
1.0
 40
1.0
 40
1.0
 40
1.0
 10
164.2923023275686
 20
143.1702759074963
 30
0.0
 10
164.2923352218739
 20
143.1702901058528
 30
0.0
 10
164.3440061999134
 20
143.1925931446893
 30
0.0
 10
164.1635528484133
 20
143.1140665941965
 30
0.0
 10
163.7212073944234
 20
142.9302720788861
 30
0.0
 10
162.977096718017
 20
142.6298279987975
 30
0.0
 10
162.2706399340825
 20
142.3867080863127
 30
0.0
 10
161.9174041094359
 20
142.2651455721894
 30
0.0
  0
SPLINE
  5
A8
330
1F
100
AcDbEntity
  8
0
  6
Continuous
 62
     7
370
    15
100
AcDbSpline
210
0.0
220
0.0
230
1.0
 70
     8
 71
     3
 72
    16
 73
    12
 74
     0
 42
0.000000001
 43
0.00000001
 40
0.0
 40
0.0
 40
0.0
 40
0.0
 40
0.2483169671328836
 40
0.4966944461982081
 40
0.5811467853484823
 40
0.6649723970263193
 40
0.748461215409462
 40
0.8319066852961935
 40
0.9156027073820674
 40
0.9998405598659156
 40
1.0
 40
1.0
 40
1.0
 40
1.0
 10
161.9174041094359
 20
98.07549143768254
 30
0.0
 10
162.2711978228467
 20
97.95371726551963
 30
0.0
 10
162.9788714650468
 20
97.71013924625632
 30
0.0
 10
163.5495975891084
 20
97.47942376975732
 30
0.0
 10
163.8631687077985
 20
97.35139325185621
 30
0.0
 10
164.0190680657238
 20
97.2865266620826
 30
0.0
 10
164.1402979620716
 20
97.23539569162278
 30
0.0
 10
164.2283949142792
 20
97.19772740725863
 30
0.0
 10
164.2768410469198
 20
97.17681461371184
 30
0.0
 10
164.299105077314
 20
97.1673060092388
 30
0.0
 10
164.2923755907401
 20
97.1703299297643
 30
0.0
 10
164.2923628776517
 20
97.1703356424392
 30
0.0
  0
LINE
  5
A9
330
1F
100
AcDbEntity
  8
0
  6
Continuous
 62
     7
370
    15
100
AcDbLine
 10
161.9174041094
 20
98.0754914377
 30
0.0
 11
161.9174041094
 21
142.265147754
 31
0.0
  0
SPLINE
  5
AA
330
1F
100
AcDbEntity
  8
0
  6
Continuous
 62
     7
370
    15
100
AcDbSpline
210
0.0
220
0.0
230
1.0
 70
     8
 71
     3
 72
    10
 73
     6
 74
     0
 42
0.000000001
 43
0.00000001
 40
0.0
 40
0.0
 40
0.0
 40
0.0
 40
0.5
 40
0.5
 40
1.0
 40
1.0
 40
1.0
 40
1.0
 10
161.2398237176601
 20
141.3258879593702
 30
0.0
 10
161.0146399762957
 20
140.8596531076465
 30
0.0
 10
160.7844597290111
 20
140.3820484115281
 30
0.0
 10
160.3166780191077
 20
139.408665276726
 30
0.0
 10
160.0786359733563
 20
138.9119667663653
 30
0.0
 10
159.8389431403344
 20
138.4099915026283
 30
0.0
  0
SPLINE
  5
AB
330
1F
100
AcDbEntity
  8
0
  6
Continuous
 62
     7
370
    15
100
AcDbSpline
210
0.0
220
0.0
230
1.0
 70
     8
 71
     3
 72
     9
 73
     5
 74
     0
 42
0.000000001
 43
0.00000001
 40
0.0
 40
0.0
 40
0.0
 40
0.0
 40
0.5084843672206631
 40
1.0
 40
1.0
 40
1.0
 40
1.0
 10
161.917413352954
 20
142.2651631342179
 30
0.0
 10
161.8015933184797
 20
142.1055176659898
 30
0.0
 10
161.5738183032765
 20
141.7915542906736
 30
0.0
 10
161.34989075843
 20
141.479341879295
 30
0.0
 10
161.2398268695281
 20
141.3258845983547
 30
0.0
  0
SPLINE
  5
AC
330
1F
100
AcDbEntity
  8
0
  6
Continuous
 62
     7
370
    15
100
AcDbSpline
210
0.0
220
0.0
230
1.0
 70
     8
 71
     3
 72
     9
 73
     5
 74
     0
 42
0.000000001
 43
0.00000001
 40
0.0
 40
0.0
 40
0.0
 40
0.0
 40
0.4915156327722764
 40
1.0
 40
1.0
 40
1.0
 40
1.0
 10
161.2398268695281
 20
99.01475241151722
 30
0.0
 10
161.3498907584282
 20
98.86129513057973
 30
0.0
 10
161.5738183032742
 20
98.54908271920236
 30
0.0
 10
161.8015933184779
 20
98.23511934388496
 30
0.0
 10
161.917413352954
 20
98.075473875654
 30
0.0
  0
SPLINE
  5
AD
330
1F
100
AcDbEntity
  8
0
  6
Continuous
 62
     7
370
    15
100
AcDbSpline
210
0.0
220
0.0
230
1.0
 70
     8
 71
     3
 72
    10
 73
     6
 74
     0
 42
0.000000001
 43
0.00000001
 40
0.0
 40
0.0
 40
0.0
 40
0.0
 40
0.5
 40
0.5
 40
1.0
 40
1.0
 40
1.0
 40
1.0
 10
161.2398237985929
 20
99.01474888293326
 30
0.0
 10
161.0149222272847
 20
99.4803995114397
 30
0.0
 10
160.7847347372709
 20
99.95801638544219
 30
0.0
 10
160.3164223021412
 20
100.9325038037795
 30
0.0
 10
160.078284981169
 20
101.4294053067687
 30
0.0
 10
159.8389431403344
 20
101.9306455072436
 30
0.0
  0
LINE
  5
AE
330
1F
100
AcDbEntity
  8
0
  6
Continuous
 62
     7
370
    15
100
AcDbLine
 10
153.8674041094
 20
141.4335061422
 30
0.0
 11
147.2924041094
 21
141.4335061422
 31
0.0
  0
LINE
  5
AF
330
1F
100
AcDbEntity
  8
0
  6
Continuous
 62
     7
370
    15
100
AcDbLine
 10
153.8674041094
 20
98.9071308677
 30
0.0
 11
153.8674041094
 21
141.4335061422
 31
0.0
  0
LINE
  5
B0
330
1F
100
AcDbEntity
  8
0
  6
Continuous
 62
     7
370
    15
100
AcDbLine
 10
147.2924041094
 20
98.9071308677
 30
0.0
 11
153.8674041094
 21
98.9071308677
 31
0.0
  0
LINE
  5
B1
330
1F
100
AcDbEntity
  8
0
  6
Continuous
 62
     7
370
    15
100
AcDbLine
 10
146.2924041094
 20
100.1179495676
 30
0.0
 11
146.2924041094
 21
140.2226874423
 31
0.0
  0
SPLINE
  5
B2
330
1F
100
AcDbEntity
  8
0
  6
Continuous
 62
     7
370
    15
100
AcDbSpline
210
0.0
220
0.0
230
1.0
 70
     8
 71
     3
 72
    12
 73
     8
 74
     0
 42
0.000000001
 43
0.00000001
 40
0.0
 40
0.0
 40
0.0
 40
0.0
 40
0.2499999999999978
 40
0.2499999999999978
 40
0.4999999999999956
 40
0.4999999999999956
 40
1.0
 40
1.0
 40
1.0
 40
1.0
 10
146.7150822477531
 20
141.2928834610744
 30
0.0
 10
146.6581199722719
 20
141.2261123513984
 30
0.0
 10
146.6049211119614
 20
141.1537930810522
 30
0.0
 10
146.50689302417
 20
140.9968157295772
 30
0.0
 10
146.4616653899081
 20
140.9112107988632
 30
0.0
 10
146.3462733404498
 20
140.6404128674777
 30
0.0
 10
146.292404109417
 20
140.436001265985
 30
0.0
 10
146.292404109417
 20
140.2226874422959
 30
0.0
  0
SPLINE
  5
B3
330
1F
100
AcDbEntity
  8
0
  6
Continuous
 62
     7
370
    15
100
AcDbSpline
210
0.0
220
0.0
230
1.0
 70
     8
 71
     3
 72
     8
 73
     4
 74
     0
 42
0.000000001
 43
0.00000001
 40
0.0
 40
0.0
 40
0.0
 40
0.0
 40
1.0
 40
1.0
 40
1.0
 40
1.0
 10
147.292404109417
 20
141.4335061421512
 30
0.0
 10
147.0832362345672
 20
141.4335061421512
 30
0.0
 10
146.8809421581637
 20
141.3828246036546
 30
0.0
 10
146.7150822477531
 20
141.2928834610744
 30
0.0
  0
SPLINE
  5
B4
330
1F
100
AcDbEntity
  8
0
  6
Continuous
 62
     7
370
    15
100
AcDbSpline
210
0.0
220
0.0
230
1.0
 70
     8
 71
     3
 72
     8
 73
     4
 74
     0
 42
0.000000001
 43
0.00000001
 40
0.0
 40
0.0
 40
0.0
 40
0.0
 40
1.0
 40
1.0
 40
1.0
 40
1.0
 10
146.7150822477531
 20
99.04775354879756
 30
0.0
 10
146.8809310592783
 20
98.95781842482926
 30
0.0
 10
147.0832422425915
 20
98.90713086772072
 30
0.0
 10
147.292404109417
 20
98.90713086772072
 30
0.0
  0
SPLINE
  5
B5
330
1F
100
AcDbEntity
  8
0
  6
Continuous
 62
     7
370
    15
100
AcDbSpline
210
0.0
220
0.0
230
1.0
 70
     8
 71
     3
 72
    12
 73
     8
 74
     0
 42
0.000000001
 43
0.00000001
 40
0.0
 40
0.0
 40
0.0
 40
0.0
 40
0.2500000000000022
 40
0.2500000000000022
 40
0.5000000000000043
 40
0.5000000000000043
 40
1.0
 40
1.0
 40
1.0
 40
1.0
 10
146.7150822477531
 20
99.04775354879757
 30
0.0
 10
146.6581199722719
 20
99.1145246584735
 30
0.0
 10
146.6049211119614
 20
99.18684392881967
 30
0.0
 10
146.50689302417
 20
99.34382128029475
 30
0.0
 10
146.4616653899081
 20
99.42942621100867
 30
0.0
 10
146.3462733404498
 20
99.70022414239425
 30
0.0
 10
146.292404109417
 20
99.90463574388691
 30
0.0
 10
146.292404109417
 20
100.117949567576
 30
0.0
  0
SPLINE
  5
B6
330
1F
100
AcDbEntity
  8
0
  6
Continuous
 62
     7
370
    15
100
AcDbSpline
210
0.0
220
0.0
230
1.0
 70
     8
 71
     3
 72
     8
 73
     4
 74
     0
 42
0.000000001
 43
0.00000001
 40
0.0
 40
0.0
 40
0.0
 40
0.0
 40
0.0011496337376319
 40
0.0011496337376319
 40
0.0011496337376319
 40
0.0011496337376319
 10
154.4066341139597
 20
140.7155615994104
 30
0.0
 10
154.22743086283
 20
140.9550788782771
 30
0.0
 10
154.0476643091021
 20
141.1943857547139
 30
0.0
 10
153.867404109417
 20
141.4335061421512
 30
0.0
  0
SPLINE
  5
B7
330
1F
100
AcDbEntity
  8
0
  6
Continuous
 62
     7
370
    15
100
AcDbSpline
210
0.0
220
0.0
230
1.0
 70
     8
 71
     3
 72
     8
 73
     4
 74
     0
 42
0.000000001
 43
0.00000001
 40
0.0
 40
0.0
 40
0.0
 40
0.0
 40
1.0
 40
1.0
 40
1.0
 40
1.0
 10
155.242404109417
 20
139.1523405632223
 30
0.0
 10
154.9650924295428
 20
139.6740658793566
 30
0.0
 10
154.6864156870743
 20
140.1950953393574
 30
0.0
 10
154.4066341139597
 20
140.7155615994104
 30
0.0
  0
SPLINE
  5
B8
330
1F
100
AcDbEntity
  8
0
  6
Continuous
 62
     7
370
    15
100
AcDbSpline
210
0.0
220
0.0
230
1.0
 70
     8
 71
     3
 72
     8
 73
     4
 74
     0
 42
0.000000001
 43
0.00000001
 40
0.0
 40
0.0
 40
0.0
 40
0.0
 40
1.0
 40
1.0
 40
1.0
 40
1.0
 10
155.8734199084475
 20
137.970318504936
 30
0.0
 10
155.662399272658
 20
138.3637665441216
 30
0.0
 10
155.4521118707503
 20
138.757803095031
 30
0.0
 10
155.242404109417
 20
139.1523405632223
 30
0.0
  0
SPLINE
  5
B9
330
1F
100
AcDbEntity
  8
0
  6
Continuous
 62
     7
370
    15
100
AcDbSpline
210
0.0
220
0.0
230
1.0
 70
     8
 71
     3
 72
     8
 73
     4
 74
     0
 42
0.000000001
 43
0.00000001
 40
0.0
 40
0.0
 40
0.0
 40
0.0
 40
1.0
 40
1.0
 40
1.0
 40
1.0
 10
155.9458650784997
 20
137.8353222506198
 30
0.0
 10
155.921706866785
 20
137.8803131662487
 30
0.0
 10
155.8975585664593
 20
137.9253119697799
 30
0.0
 10
155.8734199084475
 20
137.970318504936
 30
0.0
  0
SPLINE
  5
BA
330
1F
100
AcDbEntity
  8
0
  6
Continuous
 62
     7
370
    15
100
AcDbSpline
210
0.0
220
0.0
230
1.0
 70
     8
 71
     3
 72
     8
 73
     4
 74
     0
 42
0.000000001
 43
0.00000001
 40
0.0
 40
0.0
 40
0.0
 40
0.0
 40
1.0
 40
1.0
 40
1.0
 40
1.0
 10
155.9458650784997
 20
102.5053147592522
 30
0.0
 10
155.921706866785
 20
102.4603238436232
 30
0.0
 10
155.8975585664593
 20
102.415325040092
 30
0.0
 10
155.8734199084475
 20
102.370318504936
 30
0.0
  0
SPLINE
  5
BB
330
1F
100
AcDbEntity
  8
0
  6
Continuous
 62
     7
370
    15
100
AcDbSpline
210
0.0
220
0.0
230
1.0
 70
     8
 71
     3
 72
     8
 73
     4
 74
     0
 42
0.000000001
 43
0.00000001
 40
0.0
 40
0.0
 40
0.0
 40
0.0
 40
1.0
 40
1.0
 40
1.0
 40
1.0
 10
155.8734199084475
 20
102.370318504936
 30
0.0
 10
155.662399272658
 20
101.9768704657503
 30
0.0
 10
155.4521118707503
 20
101.5828339148409
 30
0.0
 10
155.242404109417
 20
101.1882964466497
 30
0.0
  0
SPLINE
  5
BC
330
1F
100
AcDbEntity
  8
0
  6
Continuous
 62
     7
370
    15
100
AcDbSpline
210
0.0
220
0.0
230
1.0
 70
     8
 71
     3
 72
     8
 73
     4
 74
     0
 42
0.000000001
 43
0.00000001
 40
0.0
 40
0.0
 40
0.0
 40
0.0
 40
1.0
 40
1.0
 40
1.0
 40
1.0
 10
155.242404109417
 20
101.1882964466497
 30
0.0
 10
154.9650770944074
 20
100.6665422794825
 30
0.0
 10
154.6863970517157
 20
100.1455070039162
 30
0.0
 10
154.4066341139597
 20
99.62507541046148
 30
0.0
  0
SPLINE
  5
BD
330
1F
100
AcDbEntity
  8
0
  6
Continuous
 62
     7
370
    15
100
AcDbSpline
210
0.0
220
0.0
230
1.0
 70
     8
 71
     3
 72
     8
 73
     4
 74
     0
 42
0.000000001
 43
0.00000001
 40
0.0
 40
0.0
 40
0.0
 40
0.0
 40
0.0011496337376319
 40
0.0011496337376319
 40
0.0011496337376319
 40
0.0011496337376319
 10
153.867404109417
 20
98.90713086772072
 30
0.0
 10
154.0476643091021
 20
99.14625125515803
 30
0.0
 10
154.22743086283
 20
99.38555813159483
 30
0.0
 10
154.4066341139597
 20
99.62507541046148
 30
0.0
  0
SPLINE
  5
BE
330
1F
100
AcDbEntity
  8
0
  6
Continuous
 62
     7
370
    15
100
AcDbSpline
210
0.0
220
0.0
230
1.0
 70
     8
 71
     3
 72
    10
 73
     6
 74
     0
 42
0.000000001
 43
0.00000001
 40
0.0
 40
0.0
 40
0.0
 40
0.0
 40
0.5
 40
0.5
 40
1.0
 40
1.0
 40
1.0
 40
1.0
 10
156.6386854015272
 20
137.4372551599045
 30
0.0
 10
156.4981033009569
 20
137.4258870660177
 30
0.0
 10
156.3564850502989
 20
137.4584355894951
 30
0.0
 10
156.1129926568475
 20
137.6013140994123
 30
0.0
 10
156.0134824754273
 20
137.7093953551834
 30
0.0
 10
155.9458650784947
 20
137.8353222506165
 30
0.0
  0
SPLINE
  5
BF
330
1F
100
AcDbEntity
  8
0
  6
Continuous
 62
     7
370
    15
100
AcDbSpline
210
0.0
220
0.0
230
1.0
 70
     8
 71
     3
 72
    10
 73
     6
 74
     0
 42
0.000000001
 43
0.00000001
 40
0.0
 40
0.0
 40
0.0
 40
0.0
 40
0.5
 40
0.5
 40
1.0
 40
1.0
 40
1.0
 40
1.0
 10
156.6386854015272
 20
102.9033818499674
 30
0.0
 10
156.4981033009569
 20
102.9147499438542
 30
0.0
 10
156.3564850502989
 20
102.8822014203768
 30
0.0
 10
156.1129926568475
 20
102.7393229104596
 30
0.0
 10
156.0134824754273
 20
102.6312416546885
 30
0.0
 10
155.9458650784947
 20
102.5053147592555
 30
0.0
  0
SPLINE
  5
C0
330
1F
100
AcDbEntity
  8
0
  6
Continuous
 62
     7
370
    15
100
AcDbSpline
210
0.0
220
0.0
230
1.0
 70
     8
 71
     3
 72
     8
 73
     4
 74
     0
 42
0.000000001
 43
0.00000001
 40
0.0
 40
0.0
 40
0.0
 40
0.0
 40
1.0
 40
1.0
 40
1.0
 40
1.0
 10
159.4763621732972
 20
102.3703185049362
 30
0.0
 10
159.3771504147287
 20
102.4420931786929
 30
0.0
 10
159.2654884966761
 20
102.4963501615236
 30
0.0
 10
159.1461228173077
 20
102.5227543741492
 30
0.0
  0
SPLINE
  5
C1
330
1F
100
AcDbEntity
  8
0
  6
Continuous
 62
     7
370
    15
100
AcDbSpline
210
0.0
220
0.0
230
1.0
 70
     8
 71
     3
 72
     8
 73
     4
 74
     0
 42
0.000000001
 43
0.00000001
 40
0.0
 40
0.0
 40
0.0
 40
0.0
 40
1.0
 40
1.0
 40
1.0
 40
1.0
 10
159.4763621732972
 20
137.9703185049357
 30
0.0
 10
159.3771504147287
 20
137.898543831179
 30
0.0
 10
159.2654884966761
 20
137.8442868483483
 30
0.0
 10
159.1461228173077
 20
137.8178826357227
 30
0.0
  0
SPLINE
  5
C2
330
1F
100
AcDbEntity
  8
0
  6
Continuous
 62
     7
370
    15
100
AcDbSpline
210
0.0
220
0.0
230
1.0
 70
     8
 71
     3
 72
    10
 73
     6
 74
     0
 42
0.000000001
 43
0.00000001
 40
0.0
 40
0.0
 40
0.0
 40
0.0
 40
0.5
 40
0.5
 40
1.0
 40
1.0
 40
1.0
 40
1.0
 10
159.8389431403344
 20
138.4099915026283
 30
0.0
 10
159.7956049580269
 20
138.3192307768302
 30
0.0
 10
159.7428549628116
 20
138.237728336148
 30
0.0
 10
159.6207973117853
 20
138.0901504285119
 30
0.0
 10
159.5513168962283
 20
138.024544444104
 30
0.0
 10
159.4763621732972
 20
137.9703185049357
 30
0.0
  0
SPLINE
  5
C3
330
1F
100
AcDbEntity
  8
0
  6
Continuous
 62
     7
370
    15
100
AcDbSpline
210
0.0
220
0.0
230
1.0
 70
     8
 71
     3
 72
    10
 73
     6
 74
     0
 42
0.000000001
 43
0.00000001
 40
0.0
 40
0.0
 40
0.0
 40
0.0
 40
0.5
 40
0.5
 40
1.0
 40
1.0
 40
1.0
 40
1.0
 10
159.8389431403344
 20
101.9306455072436
 30
0.0
 10
159.7956049580269
 20
102.0214062330417
 30
0.0
 10
159.7428549628117
 20
102.1029086737239
 30
0.0
 10
159.6207973117853
 20
102.2504865813601
 30
0.0
 10
159.5513168962283
 20
102.3160925657679
 30
0.0
 10
159.4763621732972
 20
102.3703185049362
 30
0.0
  0
SPLINE
  5
C4
330
1F
100
AcDbEntity
  8
0
  6
Continuous
 62
     7
370
    15
100
AcDbSpline
210
0.0
220
0.0
230
1.0
 70
     8
 71
     3
 72
     8
 73
     4
 74
     0
 42
0.000000001
 43
0.00000001
 40
0.0
 40
0.0
 40
0.0
 40
0.0
 40
1.0
 40
1.0
 40
1.0
 40
1.0
 10
159.1461228173068
 20
137.8178826357255
 30
0.0
 10
158.3656935310366
 20
137.6452482493355
 30
0.0
 10
157.5318834657873
 20
137.5094831278525
 30
0.0
 10
156.6386854015272
 20
137.4372551599045
 30
0.0
  0
SPLINE
  5
C5
330
1F
100
AcDbEntity
  8
0
  6
Continuous
 62
     7
370
    15
100
AcDbSpline
210
0.0
220
0.0
230
1.0
 70
     8
 71
     3
 72
     8
 73
     4
 74
     0
 42
0.000000001
 43
0.00000001
 40
0.0
 40
0.0
 40
0.0
 40
0.0
 40
1.0
 40
1.0
 40
1.0
 40
1.0
 10
159.1461228173068
 20
102.5227543741464
 30
0.0
 10
158.3656935310366
 20
102.6953887605365
 30
0.0
 10
157.5318834657873
 20
102.8311538820194
 30
0.0
 10
156.6386854015272
 20
102.9033818499674
 30
0.0
  0
SPLINE
  5
C6
330
1F
100
AcDbEntity
  8
0
  6
Continuous
 62
     7
370
    15
100
AcDbSpline
210
0.0
220
0.0
230
1.0
 70
    24
 71
     3
 72
    16
 73
    12
 74
     0
 42
0.000000001
 43
0.00000001
 40
0.0
 40
0.0
 40
0.0
 40
0.0
 40
0.4999999999999998
 40
0.4999999999999998
 40
0.7499999999999999
 40
0.7499999999999999
 40
0.8749999999999999
 40
0.8749999999999999
 40
0.9375
 40
0.9375
 40
1.0
 40
1.0
 40
1.0
 40
1.0
 10
146.292404109417
 20
136.370318504936
 30
0.0
 10
146.292404109417
 20
136.370318504936
 30
0.0
 10
146.2224953761904
 20
136.370318504936
 30
0.0
 10
146.1232594087364
 20
136.370318504936
 30
0.0
 10
146.090831741751
 20
136.370318504936
 30
0.0
 10
146.0557789909866
 20
136.370318504936
 30
0.0
 10
146.0463557746681
 20
136.370318504936
 30
0.0
 10
146.0367668075269
 20
136.370318504936
 30
0.0
 10
146.0343228613944
 20
136.370318504936
 30
0.0
 10
146.0310502425678
 20
136.3703185049359
 30
0.0
 10
146.030221837586
 20
136.370318504936
 30
0.0
 10
146.030221837586
 20
136.370318504936
 30
0.0
  0
SPLINE
  5
C7
330
1F
100
AcDbEntity
  8
0
  6
Continuous
 62
     7
370
    15
100
AcDbSpline
210
0.0
220
0.0
230
1.0
 70
    24
 71
     3
 72
    10
 73
     6
 74
     0
 42
0.000000001
 43
0.00000001
 40
0.0
 40
0.0
 40
0.0
 40
0.0
 40
0.4055422736967035
 40
0.8118985826423182
 40
1.0
 40
1.0
 40
1.0
 40
1.0
 10
146.030221837586
 20
103.970318504936
 30
0.0
 10
146.0358141784549
 20
103.970318504936
 30
0.0
 10
146.0470100855641
 20
103.970318504936
 30
0.0
 10
146.1116059968141
 20
103.970318504936
 30
0.0
 10
146.1511551328796
 20
103.970318504936
 30
0.0
 10
146.1636694769953
 20
103.970318504936
 30
0.0
  0
LINE
  5
C8
330
1F
100
AcDbEntity
  8
0
  6
Continuous
 62
     7
370
    15
100
AcDbLine
 10
144.2924041094
 20
104.2953185049
 30
0.0
 11
144.2924041094
 21
136.0453185049
 31
0.0
  0
LINE
  5
C9
330
1F
100
AcDbEntity
  8
0
  6
Continuous
 62
     7
370
    15
100
AcDbLine
 10
95.8924041094
 20
111.7860240398
 30
0.0
 11
95.8924041094
 21
128.5546129405
 31
0.0
  0
CIRCLE
  5
CA
330
1F
100
AcDbEntity
  8
0
  6
HIDDEN
 62
     7
370
     0
100
AcDbCircle
 10
179.2424041094
 20
120.1703185049
 30
0.0
 40
6.000000000000032
  0
LINE
  5
CB
330
1F
100
AcDbEntity
  8
0
  6
HIDDEN
 62
     7
370
     0
100
AcDbLine
 10
174.2614741173
 20
142.4703185049
 30
0.0
 11
185.2424041094
 21
142.4703185049
 31
0.0
  0
LINE
  5
CC
330
1F
100
AcDbEntity
  8
0
  6
HIDDEN
 62
     7
370
     0
100
AcDbLine
 10
173.2424041094
 20
142.4703185049
 30
0.0
 11
174.2614741173
 21
142.4703185049
 31
0.0
  0
LINE
  5
CD
330
1F
100
AcDbEntity
  8
0
  6
HIDDEN
 62
     7
370
     0
100
AcDbLine
 10
174.2614741173
 20
135.067432822
 30
0.0
 11
185.2424041094
 21
135.067432822
 31
0.0
  0
LINE
  5
CE
330
1F
100
AcDbEntity
  8
0
  6
HIDDEN
 62
     7
370
     0
100
AcDbLine
 10
173.2424041094
 20
135.067432822
 30
0.0
 11
174.2614741173
 21
135.067432822
 31
0.0
  0
LINE
  5
CF
330
1F
100
AcDbEntity
  8
0
  6
HIDDEN
 62
     7
370
     0
100
AcDbLine
 10
176.3204229647
 20
126.6703185049
 30
0.0
 11
177.951057605
 21
126.6703185049
 31
0.0
  0
LINE
  5
D0
330
1F
100
AcDbEntity
  8
0
  6
HIDDEN
 62
     7
370
     0
100
AcDbLine
 10
180.5943905253
 20
126.6703185049
 30
0.0
 11
182.762206013
 21
126.6703185049
 31
0.0
  0
LINE
  5
D1
330
1F
100
AcDbEntity
  8
0
  6
HIDDEN
 62
     7
370
     0
100
AcDbLine
 10
175.7226022058
 20
126.6703185049
 30
0.0
 11
176.3204229647
 21
126.6703185049
 31
0.0
  0
SPLINE
  5
D2
330
1F
100
AcDbEntity
  8
0
  6
HIDDEN
 62
     7
370
     0
100
AcDbSpline
210
0.0
220
0.0
230
1.0
 70
     8
 71
     3
 72
    15
 73
    11
 74
     0
 42
0.000000001
 43
0.00000001
 40
0.0
 40
0.0
 40
0.0
 40
0.0
 40
0.1077869592233315
 40
0.2161701819135381
 40
0.327315056294795
 40
0.4399598612360068
 40
0.5934902695338541
 40
0.7521517812193884
 40
0.8755082115460667
 40
1.0
 40
1.0
 40
1.0
 40
1.0
 10
177.7176140247165
 20
143.0344201200737
 30
0.0
 10
177.8346206039694
 20
142.9783068320722
 30
0.0
 10
178.0692810276835
 20
142.8657698446439
 30
0.0
 10
178.4392437916549
 20
142.7288994754923
 30
0.0
 10
178.826061160824
 20
142.6255996465062
 30
0.0
 10
179.2767291580419
 20
142.5621349476196
 30
0.0
 10
179.7908541741355
 20
142.5725181385172
 30
0.0
 10
180.3060977415841
 20
142.6804848053177
 30
0.0
 10
180.7689715913649
 20
142.8416308794028
 30
0.0
 10
181.0384150575781
 20
142.9699610855905
 30
0.0
 10
181.1737539321568
 20
143.0344201200736
 30
0.0
  0
SPLINE
  5
D3
330
1F
100
AcDbEntity
  8
0
  6
HIDDEN
 62
     7
370
     0
100
AcDbSpline
210
0.0
220
0.0
230
1.0
 70
     8
 71
     3
 72
    18
 73
    14
 74
     0
 42
0.000000001
 43
0.00000001
 40
0.0
 40
0.0
 40
0.0
 40
0.0
 40
0.1621847089240263
 40
0.2719359695167574
 40
0.383475348751923
 40
0.4398319183610988
 40
0.4972212544012427
 40
0.6329009399326181
 40
0.6924199898039631
 40
0.7521730438945948
 40
0.844631230561183
 40
0.9377052350185133
 40
1.0
 40
1.0
 40
1.0
 40
1.0
 10
181.1737539321568
 20
143.0344201200736
 30
0.0
 10
181.251801244071
 20
142.9512997207128
 30
0.0
 10
181.3826635896913
 20
142.8119313022179
 30
0.0
 10
181.5771549700614
 20
142.6720376166835
 30
0.0
 10
181.7218554878656
 20
142.6044246067318
 30
0.0
 10
181.8408731999318
 20
142.5758062800411
 30
0.0
 10
181.9732585483377
 20
142.5642887550405
 30
0.0
 10
182.1076226386328
 20
142.5886270825324
 30
0.0
 10
182.2405785128437
 20
142.6467415825633
 30
0.0
 10
182.3495071142915
 20
142.7103485239493
 30
0.0
 10
182.4730646359691
 20
142.804644837384
 30
0.0
 10
182.5946571251542
 20
142.9194521860017
 30
0.0
 10
182.6688118455016
 20
143.00151658181
 30
0.0
 10
182.6985440168574
 20
143.0344201200737
 30
0.0
  0
SPLINE
  5
D4
330
1F
100
AcDbEntity
  8
0
  6
HIDDEN
 62
     7
370
     0
100
AcDbSpline
210
0.0
220
0.0
230
1.0
 70
     8
 71
     3
 72
    21
 73
    17
 74
     0
 42
0.000000001
 43
0.00000001
 40
0.0
 40
0.0
 40
0.0
 40
0.0
 40
0.0459884793660882
 40
0.1381576750354468
 40
0.1843685985639292
 40
0.2461032364961886
 40
0.3080383296587318
 40
0.3918029824328991
 40
0.5197555617867211
 40
0.5627493476222475
 40
0.6492610989675839
 40
0.7373630866510096
 40
0.8269240350124238
 40
0.8718879817001144
 40
0.967933517002699
 40
1.0
 40
1.0
 40
1.0
 40
1.0
 10
182.6985440168574
 20
143.0344201200737
 30
0.0
 10
182.6707758976707
 20
143.0100000602368
 30
0.0
 10
182.5873554662969
 20
142.9366378021715
 30
0.0
 10
182.4733348558519
 20
142.8487798371281
 30
0.0
 10
182.3471777017827
 20
142.7646794390537
 30
0.0
 10
182.2383382409792
 20
142.7020690979186
 30
0.0
 10
182.1031839876303
 20
142.639540740808
 30
0.0
 10
181.9218170650915
 20
142.581397517619
 30
0.0
 10
181.7499836595555
 20
142.5647041153726
 30
0.0
 10
181.5770288043546
 20
142.5801894562441
 30
0.0
 10
181.4315949074313
 20
142.6134327728044
 30
0.0
 10
181.258125996335
 20
142.6840582520755
 30
0.0
 10
181.1153374715816
 20
142.7657900688732
 30
0.0
 10
180.9704402823696
 20
142.8648423477848
 30
0.0
 10
180.8638023989122
 20
142.9489825040096
 30
0.0
 10
180.7865344010203
 20
143.0173161776553
 30
0.0
 10
180.7671941941176
 20
143.0344201200737
 30
0.0
  0
SPLINE
  5
D5
330
1F
100
AcDbEntity
  8
0
  6
HIDDEN
 62
     7
370
     0
100
AcDbSpline
210
0.0
220
0.0
230
1.0
 70
     8
 71
     3
 72
     9
 73
     5
 74
     0
 42
0.000000001
 43
0.00000001
 40
0.0
 40
0.0
 40
0.0
 40
0.0
 40
0.4925671300614174
 40
1.0
 40
1.0
 40
1.0
 40
1.0
 10
180.7671941941176
 20
143.0344201200737
 30
0.0
 10
180.5307111461459
 20
142.922870523799
 30
0.0
 10
180.05060796114
 20
142.6964047499646
 30
0.0
 10
179.5256212798184
 20
142.6183922471463
 30
0.0
 10
179.2592257814358
 20
142.5788061389501
 30
0.0
  0
SPLINE
  5
D6
330
1F
100
AcDbEntity
  8
0
  6
HIDDEN
 62
     7
370
     0
100
AcDbSpline
210
0.0
220
0.0
230
1.0
 70
     8
 71
     3
 72
     9
 73
     5
 74
     0
 42
0.000000001
 43
0.00000001
 40
0.0
 40
0.0
 40
0.0
 40
0.0
 40
0.5231349921241009
 40
0.9999999999999999
 40
0.9999999999999999
 40
0.9999999999999999
 40
0.9999999999999999
 10
179.1150770884362
 20
142.5939193243636
 30
0.0
 10
178.7847885891076
 20
142.6078291343682
 30
0.0
 10
178.153424783778
 20
142.6344184664032
 30
0.0
 10
177.5830473338361
 20
142.9052635683844
 30
0.0
 10
177.3110542866773
 20
143.0344201200738
 30
0.0
  0
SPLINE
  5
D7
330
1F
100
AcDbEntity
  8
0
  6
HIDDEN
 62
     7
370
     0
100
AcDbSpline
210
0.0
220
0.0
230
1.0
 70
     8
 71
     3
 72
    18
 73
    14
 74
     0
 42
0.000000001
 43
0.00000001
 40
0.0
 40
0.0
 40
0.0
 40
0.0
 40
0.1621847089240311
 40
0.271935969516761
 40
0.3834753487519288
 40
0.4398319183611046
 40
0.4972212544012506
 40
0.6329009399326223
 40
0.6924199898039693
 40
0.7521730438945973
 40
0.8446312305611913
 40
0.9377052350185132
 40
1.0
 40
1.0
 40
1.0
 40
1.0
 10
177.3110542866773
 20
143.0344201200738
 30
0.0
 10
177.2330069747631
 20
142.951299720713
 30
0.0
 10
177.1021446291427
 20
142.8119313022181
 30
0.0
 10
176.9076532487726
 20
142.6720376166836
 30
0.0
 10
176.7629527309683
 20
142.604424606732
 30
0.0
 10
176.6439350189023
 20
142.5758062800411
 30
0.0
 10
176.5115496704962
 20
142.5642887550407
 30
0.0
 10
176.3771855802012
 20
142.5886270825325
 30
0.0
 10
176.2442297059903
 20
142.6467415825634
 30
0.0
 10
176.1353011045426
 20
142.7103485239494
 30
0.0
 10
176.0117435828649
 20
142.8046448373841
 30
0.0
 10
175.8901510936797
 20
142.9194521860018
 30
0.0
 10
175.8159963733325
 20
143.00151658181
 30
0.0
 10
175.7862642019766
 20
143.0344201200737
 30
0.0
  0
SPLINE
  5
D8
330
1F
100
AcDbEntity
  8
0
  6
HIDDEN
 62
     7
370
     0
100
AcDbSpline
210
0.0
220
0.0
230
1.0
 70
     8
 71
     3
 72
    21
 73
    17
 74
     0
 42
0.000000001
 43
0.00000001
 40
0.0
 40
0.0
 40
0.0
 40
0.0
 40
0.0320027986440001
 40
0.1281258596102473
 40
0.1857521610573335
 40
0.2433822027624467
 40
0.3019909635887028
 40
0.3608070697855112
 40
0.420429317941718
 40
0.4803400136413006
 40
0.6453907657235332
 40
0.7016131473446394
 40
0.7585492287763493
 40
0.815651090371307
 40
0.9537817175651847
 40
1.0
 40
1.0
 40
1.0
 40
1.0
 10
175.7862642019766
 20
143.0344201200737
 30
0.0
 10
175.8055639388317
 20
143.0173517049078
 30
0.0
 10
175.8828320366101
 20
142.9490168886424
 30
0.0
 10
175.9972579446619
 20
142.8587131939664
 30
0.0
 10
176.1303381892258
 20
142.7690028375904
 30
0.0
 10
176.2416898348902
 20
142.7048314142711
 30
0.0
 10
176.3556004558774
 20
142.6511966799667
 30
0.0
 10
176.472434741074
 20
142.6095263054356
 30
0.0
 10
176.5914417996406
 20
142.5815653800684
 30
0.0
 10
176.7825486245485
 20
142.5608641737857
 30
0.0
 10
176.9725549366427
 20
142.5873045787986
 30
0.0
 10
177.1558624783943
 20
142.6545452000178
 30
0.0
 10
177.26659348031
 20
142.7072015231323
 30
0.0
 10
177.4279673027197
 20
142.8008091290987
 30
0.0
 10
177.5784038970765
 20
142.9120648578882
 30
0.0
 10
177.6897086972522
 20
143.0098934299819
 30
0.0
 10
177.7176140247165
 20
143.0344201200737
 30
0.0
  0
LINE
  5
D9
330
1F
100
AcDbEntity
  8
0
  6
HIDDEN
 62
     7
370
     0
100
AcDbLine
 10
176.7519391133
 20
135.1703185049
 30
0.0
 11
182.2424041094
 21
135.1703185049
 31
0.0
  0
LINE
  5
DA
330
1F
100
AcDbEntity
  8
0
  6
HIDDEN
 62
     7
370
     0
100
AcDbLine
 10
176.2424041094
 20
135.1703185049
 30
0.0
 11
176.7519391133
 21
135.1703185049
 31
0.0
  0
LINE
  5
DB
330
1F
100
AcDbEntity
  8
0
  6
HIDDEN
 62
     7
370
     0
100
AcDbLine
 10
179.4456839784
 20
136.1703185049
 30
0.0
 11
177.7176140247
 21
136.1703185049
 31
0.0
  0
LINE
  5
DC
330
1F
100
AcDbEntity
  8
0
  6
HIDDEN
 62
     7
370
     0
100
AcDbLine
 10
181.1737539322
 20
136.1703185049
 30
0.0
 11
179.4456839784
 21
136.1703185049
 31
0.0
  0
LINE
  5
DD
330
1F
100
AcDbEntity
  8
0
  6
HIDDEN
 62
     7
370
     0
100
AcDbLine
 10
181.9361489745
 20
136.1703185049
 30
0.0
 11
181.1737539322
 21
136.1703185049
 31
0.0
  0
LINE
  5
DE
330
1F
100
AcDbEntity
  8
0
  6
HIDDEN
 62
     7
370
     0
100
AcDbLine
 10
181.1737539322
 20
136.1703185049
 30
0.0
 11
181.1737539322
 21
143.0344201201
 31
0.0
  0
LINE
  5
DF
330
1F
100
AcDbEntity
  8
0
  6
HIDDEN
 62
     7
370
     0
100
AcDbLine
 10
177.7176140247
 20
136.1703185049
 30
0.0
 11
176.7519391133
 21
136.1703185049
 31
0.0
  0
LINE
  5
E0
330
1F
100
AcDbEntity
  8
0
  6
HIDDEN
 62
     7
370
     0
100
AcDbLine
 10
177.7176140247
 20
136.1703185049
 30
0.0
 11
177.7176140247
 21
143.0344201201
 31
0.0
  0
LINE
  5
E1
330
1F
100
AcDbEntity
  8
0
  6
HIDDEN
 62
     7
370
     0
100
AcDbLine
 10
176.7519391133
 20
136.1703185049
 30
0.0
 11
175.786264202
 21
136.1703185049
 31
0.0
  0
LINE
  5
E2
330
1F
100
AcDbEntity
  8
0
  6
HIDDEN
 62
     7
370
     0
100
AcDbLine
 10
182.6985440169
 20
136.1703185049
 30
0.0
 11
181.9361489745
 21
136.1703185049
 31
0.0
  0
LINE
  5
E3
330
1F
100
AcDbEntity
  8
0
  6
HIDDEN
 62
     7
370
     0
100
AcDbLine
 10
177.3110542867
 20
136.1703185049
 30
0.0
 11
177.3110542867
 21
143.0344201201
 31
0.0
  0
LINE
  5
E4
330
1F
100
AcDbEntity
  8
0
  6
HIDDEN
 62
     7
370
     0
100
AcDbLine
 10
175.786264202
 20
136.1703185049
 30
0.0
 11
175.786264202
 21
143.0344201201
 31
0.0
  0
LINE
  5
E5
330
1F
100
AcDbEntity
  8
0
  6
HIDDEN
 62
     7
370
     0
100
AcDbLine
 10
180.7671941941
 20
136.1703185049
 30
0.0
 11
180.7671941941
 21
143.0344201201
 31
0.0
  0
LINE
  5
E6
330
1F
100
AcDbEntity
  8
0
  6
HIDDEN
 62
     7
370
     0
100
AcDbLine
 10
182.6985440169
 20
136.1703185049
 30
0.0
 11
182.6985440169
 21
143.0344201201
 31
0.0
  0
LINE
  5
E7
330
1F
100
AcDbEntity
  8
0
  6
HIDDEN
 62
     7
370
     0
100
AcDbLine
 10
162.2864527154
 20
97.9457818292
 30
0.0
 11
161.9175834302
 21
98.0755463149
 31
0.0
  0
LINE
  5
E8
330
1F
100
AcDbEntity
  8
0
  6
HIDDEN
 62
     7
370
     0
100
AcDbLine
 10
164.7924041094
 20
120.1703185049
 30
0.0
 11
164.7924041094
 21
106.6703185049
 31
0.0
  0
LINE
  5
E9
330
1F
100
AcDbEntity
  8
0
  6
HIDDEN
 62
     7
370
     0
100
AcDbLine
 10
164.7924041094
 20
133.6703185049
 30
0.0
 11
164.7924041094
 21
120.1703185049
 31
0.0
  0
LINE
  5
EA
330
1F
100
AcDbEntity
  8
0
  6
HIDDEN
 62
     7
370
     0
100
AcDbLine
 10
169.6584295132
 20
120.1703185049
 30
0.0
 11
169.6584295132
 21
106.1703185049
 31
0.0
  0
LINE
  5
EB
330
1F
100
AcDbEntity
  8
0
  6
HIDDEN
 62
     7
370
     0
100
AcDbLine
 10
169.6584295132
 20
134.1703185049
 30
0.0
 11
169.6584295132
 21
120.1703185049
 31
0.0
  0
SPLINE
  5
EC
330
1F
100
AcDbEntity
  8
0
  6
HIDDEN
 62
     7
370
     0
100
AcDbSpline
210
0.0
220
0.0
230
1.0
 70
     8
 71
     3
 72
    39
 73
    35
 74
     0
 42
0.000000001
 43
0.00000001
 40
0.0
 40
0.0
 40
0.0
 40
0.0
 40
0.0503891738878792
 40
0.0759841067182827
 40
0.1019644991930109
 40
0.1523156109486251
 40
0.1778474106194838
 40
0.2037176138081453
 40
0.2297955334187288
 40
0.2562166548155679
 40
0.2828109158488978
 40
0.3097614324861912
 40
0.3368763927956103
 40
0.3641885919052937
 40
0.3921464826206507
 40
0.4203397236179833
 40
0.4462187659638592
 40
0.4725167760348321
 40
0.4990316134275807
 40
0.5259941207495411
 40
0.574729848862154
 40
0.6244850398485943
 40
0.6742609072669067
 40
0.7249729761092565
 40
0.7515329955762144
 40
0.7784554955431864
 40
0.8055627936964863
 40
0.8330532450029553
 40
0.8600285166306323
 40
0.8872063072681715
 40
0.9150465968170532
 40
0.943126576058745
 40
0.9943234673654224
 40
0.9999999999999999
 40
0.9999999999999999
 40
0.9999999999999999
 40
0.9999999999999999
 10
173.742404109417
 20
134.170318504936
 30
0.0
 10
173.7554094234258
 20
134.1651786992028
 30
0.0
 10
173.7750207226654
 20
134.1574281544487
 30
0.0
 10
173.8964961396116
 20
134.1103787628281
 30
0.0
 10
174.0598032695979
 20
134.0482725696606
 30
0.0
 10
174.2910971927384
 20
133.9629523899662
 30
0.0
 10
174.5816495959664
 20
133.8617900222246
 30
0.0
 10
174.8325195920299
 20
133.778254761761
 30
0.0
 10
175.1147262268474
 20
133.6892334193059
 30
0.0
 10
175.426850233285
 20
133.5969985942981
 30
0.0
 10
175.7684447223555
 20
133.5037040684101
 30
0.0
 10
176.1375798077347
 20
133.412063133766
 30
0.0
 10
176.5329141846165
 20
133.3247247576921
 30
0.0
 10
176.9541334337372
 20
133.2441656133079
 30
0.0
 10
177.3997385161437
 20
133.1732731568472
 30
0.0
 10
177.8533908824285
 20
133.1167851691685
 30
0.0
 10
178.3092079132064
 20
133.0759093459347
 30
0.0
 10
178.7630010545788
 20
133.0509051334664
 30
0.0
 10
179.2270759398168
 20
133.0418968834815
 30
0.0
 10
179.8217407714248
 20
133.0519439928924
 30
0.0
 10
180.5440220832835
 20
133.1014118027505
 30
0.0
 10
181.3608798257416
 20
133.209955952346
 30
0.0
 10
182.1311102096453
 20
133.3582612490752
 30
0.0
 10
182.7198217148292
 20
133.5031123974856
 30
0.0
 10
183.1550934091682
 20
133.6249655515735
 30
0.0
 10
183.4648328341199
 20
133.7184686934305
 30
0.0
 10
183.7485740748421
 20
133.809748731834
 30
0.0
 10
184.000663979153
 20
133.8952888171827
 30
0.0
 10
184.2192871385812
 20
133.9727756877387
 30
0.0
 10
184.4031484436511
 20
134.0402612542166
 30
0.0
 10
184.5518747873168
 20
134.0964047457322
 30
0.0
 10
184.6878029765522
 20
134.1487852024278
 30
0.0
 10
184.7495308063193
 20
134.1731179863558
 30
0.0
 10
184.7401439996049
 20
134.1694313822253
 30
0.0
 10
184.7392071030554
 20
134.169063422514
 30
0.0
  0
ELLIPSE
  5
ED
330
1F
100
AcDbEntity
  8
0
  6
HIDDEN
 62
     7
370
     0
100
AcDbEllipse
 10
146.6296624096
 20
102.3703185049
 30
0.0
 11
0.0
 21
1.600000000000009
 31
0.0
210
0.0
220
0.0
230
1.0
 40
0.4142135624
 41
4.712388980384695
 42
6.283185307179586
  0
LINE
  5
EE
330
1F
100
AcDbEntity
  8
0
  6
HIDDEN
 62
     7
370
     0
100
AcDbLine
 10
146.6296624096
 20
103.9703185049
 30
0.0
 11
146.2924041094
 21
103.9703185049
 31
0.0
  0
LINE
  5
EF
330
1F
100
AcDbEntity
  8
0
  6
HIDDEN
 62
     7
370
     0
100
AcDbLine
 10
146.2924041094
 20
136.3703185049
 30
0.0
 11
146.6296624096
 21
136.3703185049
 31
0.0
  0
ELLIPSE
  5
F0
330
1F
100
AcDbEntity
  8
0
  6
HIDDEN
 62
     7
370
     0
100
AcDbEllipse
 10
146.6296624096
 20
137.9703185049
 30
0.0
 11
0.0
 21
1.599999999999994
 31
0.0
210
0.0
220
0.0
230
1.0
 40
0.4142135624
 41
3.141592653589793
 42
4.712388980384695
  0
LINE
  5
F1
330
1F
100
AcDbEntity
  8
0
  6
HIDDEN
 62
     7
370
     0
100
AcDbLine
 10
146.7150822478
 20
141.2928834611
 30
0.0
 11
147.2924041094
 21
140.7155615994
 31
0.0
  0
LINE
  5
F2
330
1F
100
AcDbEntity
  8
0
  6
HIDDEN
 62
     7
370
     0
100
AcDbLine
 10
147.2924041094
 20
99.6250754105
 30
0.0
 11
146.7150822478
 21
99.0477535488
 31
0.0
  0
LINE
  5
F3
330
1F
100
AcDbEntity
  8
0
  6
HIDDEN
 62
     7
370
     0
100
AcDbLine
 10
155.2424041094
 20
103.9703185049
 30
0.0
 11
146.6296624096
 21
103.9703185049
 31
0.0
  0
LINE
  5
F4
330
1F
100
AcDbEntity
  8
0
  6
HIDDEN
 62
     7
370
     0
100
AcDbLine
 10
154.406634114
 20
99.6250754105
 30
0.0
 11
147.2924041094
 21
99.6250754105
 31
0.0
  0
LINE
  5
F5
330
1F
100
AcDbEntity
  8
0
  6
HIDDEN
 62
     7
370
     0
100
AcDbLine
 10
147.2924041094
 20
99.6250754105
 30
0.0
 11
147.2924041094
 21
102.3703185049
 31
0.0
  0
LINE
  5
F6
330
1F
100
AcDbEntity
  8
0
  6
HIDDEN
 62
     7
370
     0
100
AcDbLine
 10
155.7480006192
 20
103.9703185049
 30
0.0
 11
155.2424041094
 21
103.9703185049
 31
0.0
  0
LINE
  5
F7
330
1F
100
AcDbEntity
  8
0
  6
HIDDEN
 62
     7
370
     0
100
AcDbLine
 10
155.2424041094
 20
136.3703185049
 30
0.0
 11
155.7480006192
 21
136.3703185049
 31
0.0
  0
LINE
  5
F8
330
1F
100
AcDbEntity
  8
0
  6
HIDDEN
 62
     7
370
     0
100
AcDbLine
 10
146.6296624096
 20
136.3703185049
 30
0.0
 11
155.2424041094
 21
136.3703185049
 31
0.0
  0
SPLINE
  5
F9
330
1F
100
AcDbEntity
  8
0
  6
HIDDEN
 62
     7
370
     0
100
AcDbSpline
210
0.0
220
0.0
230
1.0
 70
    24
 71
     3
 72
    12
 73
     8
 74
     0
 42
0.000000001
 43
0.00000001
 40
0.0
 40
0.0
 40
0.0
 40
0.0
 40
0.5
 40
0.5
 40
0.75
 40
0.75
 40
1.0
 40
1.0
 40
1.0
 40
1.0
 10
156.0577647434553
 20
136.370318504936
 30
0.0
 10
156.1040458875172
 20
136.370318504936
 30
0.0
 10
156.1502190774836
 20
136.3703185049359
 30
0.0
 10
156.2194343360725
 20
136.370318504936
 30
0.0
 10
156.2424974996568
 20
136.370318504936
 30
0.0
 10
156.2886934403104
 20
136.370318504936
 30
0.0
 10
156.3116729321808
 20
136.370318504936
 30
0.0
 10
156.3353134419857
 20
136.370318504936
 30
0.0
  0
SPLINE
  5
FA
330
1F
100
AcDbEntity
  8
0
  6
HIDDEN
 62
     7
370
     0
100
AcDbSpline
210
0.0
220
0.0
230
1.0
 70
    24
 71
     3
 72
    12
 73
     8
 74
     0
 42
0.000000001
 43
0.00000001
 40
0.0
 40
0.0
 40
0.0
 40
0.0
 40
0.2499999999999953
 40
0.2499999999999953
 40
0.4999999999999907
 40
0.4999999999999907
 40
1.0
 40
1.0
 40
1.0
 40
1.0
 10
156.3353134419857
 20
103.970318504936
 30
0.0
 10
156.3116729321807
 20
103.970318504936
 30
0.0
 10
156.2886934403104
 20
103.970318504936
 30
0.0
 10
156.2424974996568
 20
103.970318504936
 30
0.0
 10
156.2194343360725
 20
103.970318504936
 30
0.0
 10
156.1502190774837
 20
103.970318504936
 30
0.0
 10
156.1040458875172
 20
103.970318504936
 30
0.0
 10
156.0577647434552
 20
103.970318504936
 30
0.0
  0
LINE
  5
FB
330
1F
100
AcDbEntity
  8
0
  6
HIDDEN
 62
     7
370
     0
100
AcDbLine
 10
147.2924041094
 20
140.7155615994
 30
0.0
 11
154.406634114
 21
140.7155615994
 31
0.0
  0
LINE
  5
FC
330
1F
100
AcDbEntity
  8
0
  6
HIDDEN
 62
     7
370
     0
100
AcDbLine
 10
147.2924041094
 20
140.7155615994
 30
0.0
 11
147.2924041094
 21
137.9703185049
 31
0.0
  0
SPLINE
  5
FD
330
1F
100
AcDbEntity
  8
0
  6
HIDDEN
 62
     7
370
     0
100
AcDbSpline
210
0.0
220
0.0
230
1.0
 70
    24
 71
     3
 72
     8
 73
     4
 74
     0
 42
0.000000001
 43
0.00000001
 40
0.0
 40
0.0
 40
0.0
 40
0.0
 40
1.0
 40
1.0
 40
1.0
 40
1.0
 10
156.0577647434553
 20
103.970318504936
 30
0.0
 10
155.9544774088906
 20
103.970318504936
 30
0.0
 10
155.8512228094049
 20
103.970318504936
 30
0.0
 10
155.7480006191992
 20
103.970318504936
 30
0.0
  0
SPLINE
  5
FE
330
1F
100
AcDbEntity
  8
0
  6
HIDDEN
 62
     7
370
     0
100
AcDbSpline
210
0.0
220
0.0
230
1.0
 70
    24
 71
     3
 72
     8
 73
     4
 74
     0
 42
0.000000001
 43
0.00000001
 40
0.0
 40
0.0
 40
0.0
 40
0.0
 40
1.0
 40
1.0
 40
1.0
 40
1.0
 10
155.7480006191992
 20
136.370318504936
 30
0.0
 10
155.8512228094049
 20
136.370318504936
 30
0.0
 10
155.9544774088906
 20
136.370318504936
 30
0.0
 10
156.0577647434552
 20
136.370318504936
 30
0.0
  0
LINE
  5
FF
330
1F
100
AcDbEntity
  8
0
  6
HIDDEN
 62
     7
370
     0
100
AcDbLine
 10
173.7424041094
 20
143.1703185049
 30
0.0
 11
184.7424041094
 21
143.1703185049
 31
0.0
  0
SPLINE
  5
100
330
1F
100
AcDbEntity
  8
0
  6
HIDDEN
 62
     7
370
     0
100
AcDbSpline
210
0.0
220
0.0
230
1.0
 70
    24
 71
     3
 72
     8
 73
     4
 74
     0
 42
0.000000001
 43
0.00000001
 40
0.0000000000000044
 40
0.0000000000000044
 40
0.0000000000000044
 40
0.0000000000000044
 40
0.0003364172281863
 40
0.0003364172281863
 40
0.0003364172281863
 40
0.0003364172281863
 10
158.3481001963385
 20
136.370318504936
 30
0.0
 10
158.4451478462957
 20
136.370318504936
 30
0.0
 10
158.5394546363362
 20
136.370318504936
 30
0.0
 10
158.6348301357556
 20
136.370318504936
 30
0.0
  0
SPLINE
  5
101
330
1F
100
AcDbEntity
  8
0
  6
HIDDEN
 62
     7
370
     0
100
AcDbSpline
210
0.0
220
0.0
230
1.0
 70
    24
 71
     3
 72
    11
 73
     7
 74
     0
 42
0.000000001
 43
0.00000001
 40
0.0
 40
0.0
 40
0.0
 40
0.0
 40
0.0000172284261761
 40
0.0000172284261761
 40
0.0000172284261761
 40
0.0003364215432166
 40
0.0003364215432166
 40
0.0003364215432166
 40
0.0003364215432166
 10
158.6348301357556
 20
103.970318504936
 30
0.0
 10
158.629945814701
 20
103.970318504936
 30
0.0
 10
158.6250639722396
 20
103.970318504936
 30
0.0
 10
158.620184212674
 20
103.970318504936
 30
0.0
 10
158.5297774991383
 20
103.970318504936
 30
0.0
 10
158.440177938047
 20
103.970318504936
 30
0.0
 10
158.3481001963385
 20
103.970318504936
 30
0.0
  0
SPLINE
  5
102
330
1F
100
AcDbEntity
  8
0
  6
HIDDEN
 62
     7
370
     0
100
AcDbSpline
210
0.0
220
0.0
230
1.0
 70
     8
 71
     3
 72
    17
 73
    13
 74
     0
 42
0.000000001
 43
0.00000001
 40
0.0
 40
0.0
 40
0.0
 40
0.0
 40
0.1460896832608845
 40
0.2781417820172507
 40
0.3961916548773283
 40
0.5002904236697202
 40
0.6041000070438066
 40
0.7058654103742606
 40
0.8056758795526384
 40
0.9036260067738472
 40
0.9998158752453397
 40
0.9999999999999999
 40
0.9999999999999999
 40
0.9999999999999999
 40
0.9999999999999999
 10
161.2398216227336
 20
141.3258905170802
 30
0.0
 10
161.4217670704878
 20
141.3922915934186
 30
0.0
 10
161.7681750435813
 20
141.5187133453752
 30
0.0
 10
162.1849368079479
 20
141.684735687212
 30
0.0
 10
162.5085908981142
 20
141.8210441367609
 30
0.0
 10
162.7603799120381
 20
141.9309825787311
 30
0.0
 10
162.9578999370369
 20
142.0171694099163
 30
0.0
 10
163.1094113627846
 20
142.0849264659801
 30
0.0
 10
163.2169414363234
 20
142.134108290047
 30
0.0
 10
163.2754462259938
 20
142.1616328757854
 30
0.0
 10
163.2991006669205
 20
142.1734127014347
 30
0.0
 10
163.2923784160817
 20
142.1703056453314
 30
0.0
 10
163.2923655730652
 20
142.1702997092284
 30
0.0
  0
SPLINE
  5
103
330
1F
100
AcDbEntity
  8
0
  6
HIDDEN
 62
     7
370
     0
100
AcDbSpline
210
0.0
220
0.0
230
1.0
 70
     8
 71
     3
 72
    14
 73
    10
 74
     0
 42
0.000000001
 43
0.00000001
 40
0.0
 40
0.0
 40
0.0
 40
0.0
 40
0.0001837459954047
 40
0.1206873855914853
 40
0.2440221049631146
 40
0.3703795474056452
 40
0.4999379337759089
 40
0.7219783401201791
 40
1.0
 40
1.0
 40
1.0
 40
1.0
 10
163.2923065045699
 20
98.17036478703672
 30
0.0
 10
163.2923390514337
 20
98.17034968220193
 30
0.0
 10
163.3137163658066
 20
98.1604285787992
 30
0.0
 10
163.2606368363838
 20
98.18613533897401
 30
0.0
 10
163.1748916226557
 20
98.2259679761911
 30
0.0
 10
163.0030961730606
 20
98.30369633144745
 30
0.0
 10
162.7064754661948
 20
98.43295947206448
 30
0.0
 10
162.1801060478919
 20
98.6649940398273
 30
0.0
 10
161.5758001657505
 20
98.88977439241495
 30
0.0
 10
161.2398216227334
 20
99.01474649279177
 30
0.0
  0
LINE
  5
104
330
1F
100
AcDbEntity
  8
0
  6
HIDDEN
 62
     7
370
     0
100
AcDbLine
 10
161.6924041094
 20
103.9703185049
 30
0.0
 11
158.6348301358
 21
103.9703185049
 31
0.0
  0
LINE
  5
105
330
1F
100
AcDbEntity
  8
0
  6
HIDDEN
 62
     7
370
     0
100
AcDbLine
 10
158.6348301358
 20
136.3703185049
 30
0.0
 11
161.6924041094
 21
136.3703185049
 31
0.0
  0
SPLINE
  5
106
330
1F
100
AcDbEntity
  8
0
  6
HIDDEN
 62
     7
370
     0
100
AcDbSpline
210
0.0
220
0.0
230
1.0
 70
    24
 71
     3
 72
    10
 73
     6
 74
     0
 42
0.000000001
 43
0.00000001
 40
0.0
 40
0.0
 40
0.0
 40
0.0
 40
0.5
 40
0.5
 40
1.0
 40
1.0
 40
1.0
 40
1.0
 10
156.3353134419857
 20
136.370318504936
 30
0.0
 10
156.6914832454467
 20
136.370318504936
 30
0.0
 10
157.039822340376
 20
136.370318504936
 30
0.0
 10
157.7101028656178
 20
136.3703185049359
 30
0.0
 10
158.0339180987696
 20
136.370318504936
 30
0.0
 10
158.3481001963347
 20
136.370318504936
 30
0.0
  0
SPLINE
  5
107
330
1F
100
AcDbEntity
  8
0
  6
HIDDEN
 62
     7
370
     0
100
AcDbSpline
210
0.0
220
0.0
230
1.0
 70
    24
 71
     3
 72
    10
 73
     6
 74
     0
 42
0.000000001
 43
0.00000001
 40
0.0
 40
0.0
 40
0.0
 40
0.0
 40
0.5
 40
0.5
 40
1.0
 40
1.0
 40
1.0
 40
1.0
 10
158.3481001963346
 20
103.970318504936
 30
0.0
 10
158.0339180987696
 20
103.970318504936
 30
0.0
 10
157.7101028656178
 20
103.970318504936
 30
0.0
 10
157.039822340376
 20
103.970318504936
 30
0.0
 10
156.6914832454468
 20
103.970318504936
 30
0.0
 10
156.3353134419857
 20
103.970318504936
 30
0.0
  0
LINE
  5
108
330
1F
100
AcDbEntity
  8
0
  6
HIDDEN
 62
     7
370
     0
100
AcDbLine
 10
100.8924041094
 20
113.9203185049
 30
0.0
 11
100.8924041094
 21
126.4203185049
 31
0.0
  0
SPLINE
  5
109
330
1F
100
AcDbEntity
  8
0
  6
HIDDEN
 62
     7
370
     0
100
AcDbSpline
210
0.0
220
0.0
230
1.0
 70
     8
 71
     3
 72
     9
 73
     5
 74
     0
 42
0.000000001
 43
0.00000001
 40
0.0
 40
0.0
 40
0.0
 40
0.0
 40
0.5084953388318496
 40
1.0
 40
1.0
 40
1.0
 40
1.0
 10
161.9174354365759
 20
98.07553907294687
 30
0.0
 10
161.8016071846833
 20
98.23518860257984
 30
0.0
 10
161.5738209238325
 20
98.54915319073068
 30
0.0
 10
161.3498866655397
 20
98.86135858461573
 30
0.0
 10
161.2398219337935
 20
99.01480899095206
 30
0.0
  0
SPLINE
  5
10A
330
1F
100
AcDbEntity
  8
0
  6
HIDDEN
 62
     7
370
     0
100
AcDbSpline
210
0.0
220
0.0
230
1.0
 70
     8
 71
     3
 72
     9
 73
     5
 74
     0
 42
0.000000001
 43
0.00000001
 40
0.0
 40
0.0
 40
0.0
 40
0.0
 40
0.491504661161002
 40
1.0
 40
1.0
 40
1.0
 40
1.0
 10
161.2398219337935
 20
141.3258280189199
 30
0.0
 10
161.3498866655378
 20
141.4792784252534
 30
0.0
 10
161.5738209238302
 20
141.7914838191372
 30
0.0
 10
161.8016071846815
 20
142.1054484072893
 30
0.0
 10
161.9174354365759
 20
142.2650979369251
 30
0.0
  0
LINE
  5
10B
330
1F
100
AcDbEntity
  8
0
  6
HIDDEN
 62
     7
370
     0
100
AcDbLine
 10
103.715128243
 20
115.0703185049
 30
0.0
 11
103.715128243
 21
125.2703185049
 31
0.0
  0
LINE
  5
10C
330
1F
100
AcDbEntity
  8
0
  6
HIDDEN
 62
     7
370
     0
100
AcDbLine
 10
129.8924041094
 20
115.0703185049
 30
0.0
 11
129.8924041094
 21
125.2703185049
 31
0.0
  0
LINE
  5
10D
330
1F
100
AcDbEntity
  8
0
  6
HIDDEN
 62
     7
370
     0
100
AcDbLine
 10
130.4031356356
 20
124.4203185049
 30
0.0
 11
130.4031356356
 21
115.9203185049
 31
0.0
  0
LINE
  5
10E
330
1F
100
AcDbEntity
  8
0
  6
HIDDEN
 62
     7
370
     0
100
AcDbLine
 10
185.2424041094
 20
142.4703185049
 30
0.0
 11
184.5424041094
 21
143.1703185049
 31
0.0
  0
LINE
  5
10F
330
1F
100
AcDbEntity
  8
0
  6
HIDDEN
 62
     7
370
     0
100
AcDbLine
 10
173.9424041094
 20
143.1703185049
 30
0.0
 11
173.2424041094
 21
142.4703185049
 31
0.0
  0
LINE
  5
110
330
1F
100
AcDbEntity
  8
0
  6
HIDDEN
 62
     7
370
     0
100
AcDbLine
 10
173.2424041094
 20
142.4703185049
 30
0.0
 11
173.2424041094
 21
135.067432822
 31
0.0
  0
LINE
  5
111
330
1F
100
AcDbEntity
  8
0
  6
HIDDEN
 62
     7
370
     0
100
AcDbLine
 10
185.2424041094
 20
135.067432822
 30
0.0
 11
185.2424041094
 21
142.4703185049
 31
0.0
  0
LINE
  5
112
330
1F
100
AcDbEntity
  8
0
  6
HIDDEN
 62
     7
370
     0
100
AcDbLine
 10
173.2424041094
 20
135.067432822
 30
0.0
 11
175.4328244579
 21
126.8926727914
 31
0.0
  0
LINE
  5
113
330
1F
100
AcDbEntity
  8
0
  6
HIDDEN
 62
     7
370
     0
100
AcDbLine
 10
183.0519837609
 20
126.8926727914
 30
0.0
 11
185.2424041094
 21
135.067432822
 31
0.0
  0
ARC
  5
114
330
1F
100
AcDbEntity
  8
0
  6
HIDDEN
 62
     7
370
     0
100
AcDbCircle
 10
175.7226022058
 20
126.9703185049
 30
0.0
 40
0.3000000000000205
100
AcDbArc
 50
195.0
 51
270.0
  0
ARC
  5
115
330
1F
100
AcDbEntity
  8
0
  6
HIDDEN
 62
     7
370
     0
100
AcDbCircle
 10
182.762206013
 20
126.9703185049
 30
0.0
 40
0.3000000000000205
100
AcDbArc
 50
270.0
 51
345.0
  0
LINE
  5
116
330
1F
100
AcDbEntity
  8
0
  6
HIDDEN
 62
     7
370
     0
100
AcDbLine
 10
175.6424041094
 20
143.1703185049
 30
0.0
 11
175.9004108858
 21
142.9123117285
 31
0.0
  0
LINE
  5
117
330
1F
100
AcDbEntity
  8
0
  6
HIDDEN
 62
     7
370
     0
100
AcDbLine
 10
182.584397333
 20
142.9123117285
 30
0.0
 11
182.8424041094
 21
143.1703185049
 31
0.0
  0
LINE
  5
118
330
1F
100
AcDbEntity
  8
0
  6
HIDDEN
 62
     7
370
     0
100
AcDbLine
 10
176.2424041094
 20
136.1703185049
 30
0.0
 11
176.2424041094
 21
135.1703185049
 31
0.0
  0
LINE
  5
119
330
1F
100
AcDbEntity
  8
0
  6
HIDDEN
 62
     7
370
     0
100
AcDbLine
 10
182.2424041094
 20
135.1703185049
 30
0.0
 11
182.2424041094
 21
136.1703185049
 31
0.0
  0
LINE
  5
11A
330
1F
100
AcDbEntity
  8
0
  6
HIDDEN
 62
     7
370
     0
100
AcDbLine
 10
176.2424041094
 20
135.1703185049
 30
0.0
 11
179.2424041094
 21
134.0784078021
 31
0.0
  0
LINE
  5
11B
330
1F
100
AcDbEntity
  8
0
  6
HIDDEN
 62
     7
370
     0
100
AcDbLine
 10
179.2424041094
 20
134.0784078021
 30
0.0
 11
182.2424041094
 21
135.1703185049
 31
0.0
  0
ARC
  5
11C
330
1F
100
AcDbEntity
  8
0
  6
HIDDEN
 62
     7
370
     0
100
AcDbCircle
 10
192.2924041094
 20
135.1703185049
 30
0.0
 40
1.0
100
AcDbArc
 50
270.0
 51
0.0
  0
ARC
  5
11D
330
1F
100
AcDbEntity
  8
0
  6
HIDDEN
 62
     7
370
     0
100
AcDbCircle
 10
192.2924041094
 20
105.1703185049
 30
0.0
 40
1.0
100
AcDbArc
 50
0.0
 51
90.0
  0
ARC
  5
11E
330
1F
100
AcDbEntity
  8
0
  6
HIDDEN
 62
     7
370
     0
100
AcDbCircle
 10
165.7924041094
 20
133.6703185049
 30
0.0
 40
1.0
100
AcDbArc
 50
90.0
 51
180.0
  0
ARC
  5
11F
330
1F
100
AcDbEntity
  8
0
  6
HIDDEN
 62
     7
370
     0
100
AcDbCircle
 10
165.7924041094
 20
106.6703185049
 30
0.0
 40
1.0
100
AcDbArc
 50
180.0
 51
270.0
  0
LINE
  5
120
330
1F
100
AcDbEntity
  8
0
  6
HIDDEN
 62
     7
370
     0
100
AcDbLine
 10
167.6607516118
 20
134.6703185049
 30
0.0
 11
165.7924041094
 21
134.6703185049
 31
0.0
  0
LINE
  5
121
330
1F
100
AcDbEntity
  8
0
  6
HIDDEN
 62
     7
370
     0
100
AcDbLine
 10
165.7924041094
 20
105.6703185049
 30
0.0
 11
167.6607516118
 21
105.6703185049
 31
0.0
  0
ARC
  5
122
330
1F
100
AcDbEntity
  8
0
  6
HIDDEN
 62
     7
370
     0
100
AcDbCircle
 10
167.6607516118
 20
133.6703185049
 30
0.0
 40
1.000000000000003
100
AcDbArc
 50
75.0
 51
90.0
  0
ARC
  5
123
330
1F
100
AcDbEntity
  8
0
  6
HIDDEN
 62
     7
370
     0
100
AcDbCircle
 10
167.6607516118
 20
106.6703185049
 30
0.0
 40
1.0
100
AcDbArc
 50
270.0
 51
285.0
  0
LINE
  5
124
330
1F
100
AcDbEntity
  8
0
  6
HIDDEN
 62
     7
370
     0
100
AcDbLine
 10
167.9195706569
 20
105.7043926786
 30
0.0
 11
169.6584295132
 21
106.1703185049
 31
0.0
  0
LINE
  5
125
330
1F
100
AcDbEntity
  8
0
  6
HIDDEN
 62
     7
370
     0
100
AcDbLine
 10
169.6584295132
 20
134.1703185049
 30
0.0
 11
167.9195706569
 21
134.6362443312
 31
0.0
  0
LINE
  5
126
330
1F
100
AcDbEntity
  8
0
  6
HIDDEN
 62
     7
370
     0
100
AcDbLine
 10
173.7424041094
 20
134.1703185049
 30
0.0
 11
169.6584295132
 21
134.1703185049
 31
0.0
  0
LINE
  5
127
330
1F
100
AcDbEntity
  8
0
  6
HIDDEN
 62
     7
370
     0
100
AcDbLine
 10
192.2924041094
 20
134.1703185049
 30
0.0
 11
184.7392071031
 21
134.1703185049
 31
0.0
  0
LINE
  5
128
330
1F
100
AcDbEntity
  8
0
  6
HIDDEN
 62
     7
370
     0
100
AcDbLine
 10
169.6584295132
 20
106.1703185049
 30
0.0
 11
192.2924041094
 21
106.1703185049
 31
0.0
  0
ARC
  5
129
330
1F
100
AcDbEntity
  8
0
  6
HIDDEN
 62
     7
370
     0
100
AcDbCircle
 10
96.6924041094
 20
113.1203185049
 30
0.0
 40
0.8000000000000114
100
AcDbArc
 50
90.0
 51
180.0
  0
ARC
  5
12A
330
1F
100
AcDbEntity
  8
0
  6
HIDDEN
 62
     7
370
     0
100
AcDbCircle
 10
96.6924041094
 20
127.2203185049
 30
0.0
 40
0.7999999999999972
100
AcDbArc
 50
180.0
 51
270.0
  0
LINE
  5
12B
330
1F
100
AcDbEntity
  8
0
  6
HIDDEN
 62
     7
370
     0
100
AcDbLine
 10
171.7424041094
 20
145.1703185049
 30
0.0
 11
173.7424041094
 21
143.1703185049
 31
0.0
  0
LINE
  5
12C
330
1F
100
AcDbEntity
  8
0
  6
HIDDEN
 62
     7
370
     0
100
AcDbLine
 10
184.7424041094
 20
143.1703185049
 30
0.0
 11
186.7424041094
 21
145.1703185049
 31
0.0
  0
LINE
  5
12D
330
1F
100
AcDbEntity
  8
0
  6
HIDDEN
 62
     7
370
     0
100
AcDbLine
 10
163.2924041094
 20
137.9703185049
 30
0.0
 11
163.2924041094
 21
142.1702997092
 31
0.0
  0
LINE
  5
12E
330
1F
100
AcDbEntity
  8
0
  6
HIDDEN
 62
     7
370
     0
100
AcDbLine
 10
163.2924041094
 20
98.170364787
 30
0.0
 11
163.2924041094
 21
102.3703185049
 31
0.0
  0
ARC
  5
12F
330
1F
100
AcDbEntity
  8
0
  6
HIDDEN
 62
     7
370
     0
100
AcDbCircle
 10
161.6924041094
 20
102.3703185049
 30
0.0
 40
1.600000000000009
100
AcDbArc
 50
0.0
 51
90.0
  0
ARC
  5
130
330
1F
100
AcDbEntity
  8
0
  6
HIDDEN
 62
     7
370
     0
100
AcDbCircle
 10
161.6924041094
 20
137.9703185049
 30
0.0
 40
1.599999999999994
100
AcDbArc
 50
270.0
 51
0.0
  0
ARC
  5
131
330
1F
100
AcDbEntity
  8
0
  6
HIDDEN
 62
     7
370
     0
100
AcDbCircle
 10
101.9713790805
 20
114.0453185049
 30
0.0
 40
0.400000000000006
100
AcDbArc
 50
255.0
 51
270.0
  0
ARC
  5
132
330
1F
100
AcDbEntity
  8
0
  6
HIDDEN
 62
     7
370
     0
100
AcDbCircle
 10
101.9713790805
 20
126.2953185049
 30
0.0
 40
0.3999999999999785
100
AcDbArc
 50
90.0
 51
105.0
  0
ARC
  5
133
330
1F
100
AcDbEntity
  8
0
  6
HIDDEN
 62
     7
370
     0
100
AcDbCircle
 10
102.6614640017
 20
114.0453185049
 30
0.0
 40
0.4000000000000199
100
AcDbArc
 50
270.0
 51
330.0
  0
ARC
  5
134
330
1F
100
AcDbEntity
  8
0
  6
HIDDEN
 62
     7
370
     0
100
AcDbCircle
 10
102.6614640017
 20
126.2953185049
 30
0.0
 40
0.4000000000000102
100
AcDbArc
 50
30.0
 51
90.0
  0
LINE
  5
135
330
1F
100
AcDbEntity
  8
0
  6
HIDDEN
 62
     7
370
     0
100
AcDbLine
 10
101.9713790805
 20
113.6453185049
 30
0.0
 11
102.6614640017
 21
113.6453185049
 31
0.0
  0
LINE
  5
136
330
1F
100
AcDbEntity
  8
0
  6
HIDDEN
 62
     7
370
     0
100
AcDbLine
 10
102.6614640017
 20
126.6953185049
 30
0.0
 11
101.9713790805
 21
126.6953185049
 31
0.0
  0
LINE
  5
137
330
1F
100
AcDbEntity
  8
0
  6
HIDDEN
 62
     7
370
     0
100
AcDbLine
 10
101.8678514625
 20
126.6816888355
 30
0.0
 11
100.8924041094
 21
126.4203185049
 31
0.0
  0
LINE
  5
138
330
1F
100
AcDbEntity
  8
0
  6
HIDDEN
 62
     7
370
     0
100
AcDbLine
 10
100.8924041094
 20
113.9203185049
 30
0.0
 11
101.8678514625
 21
113.6589481744
 31
0.0
  0
LINE
  5
139
330
1F
100
AcDbEntity
  8
0
  6
HIDDEN
 62
     7
370
     0
100
AcDbLine
 10
164.292413451
 20
97.1703123882
 30
0.0
 11
163.2924129806
 21
98.1703124171
 31
0.0
  0
LINE
  5
13A
330
1F
100
AcDbEntity
  8
0
  6
HIDDEN
 62
     7
370
     0
100
AcDbLine
 10
163.2924129809
 20
142.170324593
 30
0.0
 11
164.2924134512
 21
143.1703246219
 31
0.0
  0
LINE
  5
13B
330
1F
100
AcDbEntity
  8
0
  6
HIDDEN
 62
     7
370
     0
100
AcDbLine
 10
103.0078741633
 20
113.8453185049
 30
0.0
 11
103.715128243
 21
115.0703185049
 31
0.0
  0
LINE
  5
13C
330
1F
100
AcDbEntity
  8
0
  6
HIDDEN
 62
     7
370
     0
100
AcDbLine
 10
103.715128243
 20
125.2703185049
 30
0.0
 11
103.0078741633
 21
126.4953185049
 31
0.0
  0
LINE
  5
13D
330
1F
100
AcDbEntity
  8
0
  6
HIDDEN
 62
     7
370
     0
100
AcDbLine
 10
96.6924041094
 20
113.9203185049
 30
0.0
 11
100.8924041094
 21
113.9203185049
 31
0.0
  0
LINE
  5
13E
330
1F
100
AcDbEntity
  8
0
  6
HIDDEN
 62
     7
370
     0
100
AcDbLine
 10
100.8924041094
 20
126.4203185049
 30
0.0
 11
96.6924041094
 21
126.4203185049
 31
0.0
  0
LINE
  5
13F
330
1F
100
AcDbEntity
  8
0
  6
HIDDEN
 62
     7
370
     0
100
AcDbLine
 10
173.7424041094
 20
143.1703185049
 30
0.0
 11
173.7424041094
 21
134.1703185049
 31
0.0
  0
LINE
  5
140
330
1F
100
AcDbEntity
  8
0
  6
HIDDEN
 62
     7
370
     0
100
AcDbLine
 10
184.7424041094
 20
134.1690639977
 30
0.0
 11
184.7424041094
 21
143.1703185049
 31
0.0
  0
LINE
  5
141
330
1F
100
AcDbEntity
  8
0
  6
HIDDEN
 62
     7
370
     0
100
AcDbLine
 10
129.8924041094
 20
115.0703185049
 30
0.0
 11
130.4031356356
 21
115.9203185049
 31
0.0
  0
LINE
  5
142
330
1F
100
AcDbEntity
  8
0
  6
HIDDEN
 62
     7
370
     0
100
AcDbLine
 10
130.4031356356
 20
124.4203185049
 30
0.0
 11
129.8924041094
 21
125.2703185049
 31
0.0
  0
LINE
  5
143
330
1F
100
AcDbEntity
  8
0
  6
HIDDEN
 62
     7
370
     0
100
AcDbLine
 10
103.715128243
 20
115.0703185049
 30
0.0
 11
129.8924041094
 21
115.0703185049
 31
0.0
  0
LINE
  5
144
330
1F
100
AcDbEntity
  8
0
  6
HIDDEN
 62
     7
370
     0
100
AcDbLine
 10
129.8924041094
 20
125.2703185049
 30
0.0
 11
103.715128243
 21
125.2703185049
 31
0.0
  0
LINE
  5
145
330
1F
100
AcDbEntity
  8
0
  6
HIDDEN
 62
     7
370
     0
100
AcDbLine
 10
164.7924041094
 20
124.4203185049
 30
0.0
 11
130.4031356356
 21
124.4203185049
 31
0.0
  0
LINE
  5
146
330
1F
100
AcDbEntity
  8
0
  6
HIDDEN
 62
     7
370
     0
100
AcDbLine
 10
130.4031356356
 20
115.9203185049
 30
0.0
 11
164.7924041094
 21
115.9203185049
 31
0.0
  0
DIMENSION
  5
147
330
1F
100
AcDbEntity
  8
VERMASSUNG
100
AcDbDimension
  2
_D
 10
88.938722966
 20
143.1703185049
 30
0.0
 11
88.938722966
 21
120.1703185049
 31
0.0
 70
   160
  1
MAS-BT 30 %%c<>
 71
     2
 42
-1.0
  3
SLDDIMSTYLE0
100
AcDbAlignedDimension
 13
165.2924041094
 23
97.1703185049
 33
0.0
 14
165.2924041094
 24
143.1703185049
 34
0.0
 50
90.0
100
AcDbRotatedDimension
  0
DIMENSION
  5
154
330
1F
100
AcDbEntity
  8
VERMASSUNG
100
AcDbDimension
  2
_D_1
 10
200.7815653965
 20
106.1703185049
 30
0.0
 11
200.7815653965
 21
120.1703185049
 31
0.0
 70
   160
  1
%%c<>
 71
     2
 42
-1.0
  3
SLDDIMSTYLE0
100
AcDbAlignedDimension
 13
192.2924041094
 23
134.1703185049
 33
0.0
 14
192.2924041094
 24
106.1703185049
 34
0.0
 50
90.0
100
AcDbRotatedDimension
  0
DIMENSION
  5
15F
330
1F
100
AcDbEntity
  8
VERMASSUNG
100
AcDbDimension
  2
_D_2
 10
206.7815653965
 20
145.1703185049
 30
0.0
 11
206.7815653965
 21
120.1703185049
 31
0.0
 70
   160
  1
WH %%c<>
 71
     2
 42
-1.0
  3
SLDDIMSTYLE0
100
AcDbAlignedDimension
 13
192.7924041094
 23
95.1703185049
 33
0.0
 14
192.7924041094
 24
145.1703185049
 34
0.0
 50
90.0
100
AcDbRotatedDimension
  0
DIMENSION
  5
16B
330
1F
100
AcDbEntity
  8
VERMASSUNG
100
AcDbDimension
  2
_D_3
 10
144.2924041094
 20
159.3933593291
 30
0.0
 11
168.7924041094
 21
159.3933593291
 31
0.0
 70
   160
  1
<>
 71
     2
 42
-1.0
  3
SLDDIMSTYLE0
100
AcDbAlignedDimension
 13
193.2924041094
 23
144.6703185049
 33
0.0
 14
144.2924041094
 24
136.0453185049
 34
0.0
100
AcDbRotatedDimension
  0
DIMENSION
  5
175
330
1F
100
AcDbEntity
  8
VERMASSUNG
100
AcDbDimension
  2
_D_4
 10
95.8924041094
 20
165.3933593291
 30
0.0
 11
144.5924041094
 21
165.3933593291
 31
0.0
 70
   160
  1
(<>)
 71
     2
 42
-1.0
  3
SLDDIMSTYLE0
100
AcDbAlignedDimension
 13
193.2924041094
 23
144.6703185049
 33
0.0
 14
95.8924041094
 24
128.5546129701
 34
0.0
100
AcDbRotatedDimension
  0
DIMENSION
  5
181
330
1F
100
AcDbEntity
  8
VERMASSUNG
100
AcDbDimension
  2
_D_5
 10
193.2924041094
 20
152.8676518567
 30
0.0
 11
179.7924041094
 21
152.8676518567
 31
0.0
 70
   160
  1
<>
 71
     2
 42
-1.0
  3
SLDDIMSTYLE0
100
AcDbAlignedDimension
 13
166.2924041094
 23
143.1703185049
 33
0.0
 14
193.2924041094
 24
144.6703185049
 34
0.0
100
AcDbRotatedDimension
  0
LINE
  5
18B
330
1F
100
AcDbEntity
  8
VERMASSUNG
  6
CENTERX2
370
     0
100
AcDbLine
 10
155.2424041094
 20
95.2220388944
 30
0.0
 11
155.2424041094
 21
108.2158739064
 31
0.0
  0
LINE
  5
18C
330
1F
100
AcDbEntity
  8
VERMASSUNG
  6
CENTERX2
370
     0
100
AcDbLine
 10
155.2424041094
 20
145.1185872465
 30
0.0
 11
155.2424041094
 21
132.1247555913
 31
0.0
  0
LINE
  5
18D
330
1F
100
AcDbEntity
  8
VERMASSUNG
  6
CENTERX2
370
     0
100
AcDbLine
 10
194.4158210042
 20
120.1703185049
 30
0.0
 11
94.7058313029
 21
120.1703185049
 31
0.0
  0
LINE
  5
18E
330
1F
100
AcDbEntity
  8
0
  6
Continuous
 62
     7
370
    15
100
AcDbLine
 10
259.1737704325
 20
58.2227667459
 30
0.0
 11
259.0323260969
 21
58.3044473649
 31
0.0
  0
LINE
  5
18F
330
1F
100
AcDbEntity
  8
0
  6
Continuous
 62
     7
370
    15
100
AcDbLine
 10
251.535776311
 20
58.3044473649
 30
0.0
 11
251.3943319754
 21
58.2227667459
 31
0.0
  0
LINE
  5
190
330
1F
100
AcDbEntity
  8
0
  6
Continuous
 62
     7
370
    15
100
AcDbLine
 10
261.5466470783
 20
36.6570835744
 30
0.0
 11
266.8335329867
 21
37.7342469856
 31
0.0
  0
LINE
  5
191
330
1F
100
AcDbEntity
  8
0
  6
Continuous
 62
     7
370
    15
100
AcDbLine
 10
264.8682212075
 20
11.4178524241
 30
0.0
 11
265.2217171357
 21
11.6219876244
 31
0.0
  0
LINE
  5
192
330
1F
100
AcDbEntity
  8
0
  6
Continuous
 62
     7
370
    15
100
AcDbLine
 10
282.5430176187
 20
41.6266111775
 30
0.0
 11
282.5430176187
 21
42.0348152334
 31
0.0
  0
LINE
  5
193
330
1F
100
AcDbEntity
  8
0
  6
Continuous
 62
     7
370
    15
100
AcDbLine
 10
277.364332247
 20
53.4809353952
 30
0.0
 11
261.0754922883
 21
62.8842825474
 31
0.0
  0
LINE
  5
194
330
1F
100
AcDbEntity
  8
0
  6
Continuous
 62
     7
370
    15
100
AcDbLine
 10
236.0775239724
 20
19.5818394284
 30
0.0
 11
252.3663639311
 21
10.1784922761
 31
0.0
  0
SPLINE
  5
195
330
1F
100
AcDbEntity
  8
0
  6
Continuous
 62
     7
370
    15
100
AcDbSpline
210
0.0
220
0.0
230
1.0
 70
     8
 71
     3
 72
    30
 73
    26
 74
     0
 42
0.000000001
 43
0.00000001
 40
0.0
 40
0.0
 40
0.0
 40
0.0
 40
0.0038654285548528
 40
0.0530296184976512
 40
0.1019645127948713
 40
0.1496369646151534
 40
0.1961094052999093
 40
0.2418182192558019
 40
0.2871449635764464
 40
0.3323320118566525
 40
0.3774994622204117
 40
0.4227068926620074
 40
0.467987662196605
 40
0.5133478416076014
 40
0.5587791731258084
 40
0.6042663176485304
 40
0.6497906722526586
 40
0.6953322324305439
 40
0.7408690541730761
 40
0.786374689074962
 40
0.8318281936190522
 40
0.8772090926703255
 40
0.9224986593368786
 40
0.96768268925979
 40
1.0
 40
1.0
 40
1.0
 40
1.0
 10
257.4620521479702
 20
19.9454795272041
 30
0.0
 10
257.4427901572261
 20
19.95476317466009
 30
0.0
 10
257.1785358821389
 20
20.08212506374218
 30
0.0
 10
256.7465477157529
 20
20.4587555653543
 30
0.0
 10
256.176659859349
 20
21.08797125152092
 30
0.0
 10
255.7106646755453
 20
21.86511615508944
 30
0.0
 10
255.3448201220694
 20
22.75590181446923
 30
0.0
 10
255.0844915970072
 20
23.75379138314891
 30
0.0
 10
254.9310981898621
 20
24.84800516024578
 30
0.0
 10
254.8872680904088
 20
26.02818129381711
 30
0.0
 10
254.9548720849232
 20
27.28149447023132
 30
0.0
 10
255.1346397573739
 20
28.59349495658453
 30
0.0
 10
255.4257958728809
 20
29.94854621109596
 30
0.0
 10
255.8259934456657
 20
31.33021836259261
 30
0.0
 10
256.3312659483246
 20
32.72150115826567
 30
0.0
 10
256.9360853058877
 20
34.10517022642391
 30
0.0
 10
257.6334568800141
 20
35.46408668521363
 30
0.0
 10
258.4150229800721
 20
36.78144899771345
 30
0.0
 10
259.2711450130793
 20
38.0409647957495
 30
0.0
 10
260.1910514653223
 20
39.22722115823348
 30
0.0
 10
261.1629444558777
 20
40.32559236070253
 30
0.0
 10
262.1742774640019
 20
41.32369430644198
 30
0.0
 10
263.2114516454337
 20
42.20706168290906
 30
0.0
 10
264.1627008993325
 20
42.90376932998927
 30
0.0
 10
264.7618956424267
 20
43.26517606189068
 30
0.0
 10
265.0117540647558
 20
43.41587917952099
 30
0.0
  0
SPLINE
  5
196
330
1F
100
AcDbEntity
  8
0
  6
Continuous
 62
     7
370
    15
100
AcDbSpline
210
0.0
220
0.0
230
1.0
 70
     8
 71
     3
 72
    15
 73
    11
 74
     0
 42
0.000000001
 43
0.00000001
 40
0.0
 40
0.0
 40
0.0
 40
0.0
 40
0.0714172851621301
 40
0.2076805775706771
 40
0.3438571508846385
 40
0.4802167816391294
 40
0.6173714324786878
 40
0.7563062044269031
 40
0.8983087743848798
 40
1.0
 40
1.0
 40
1.0
 40
1.0
 10
265.0117540647558
 20
43.41587917952099
 30
0.0
 10
265.193274613429
 20
43.51716306588066
 30
0.0
 10
265.7211341127616
 20
43.81169534850702
 30
0.0
 10
266.5829757332458
 20
44.19643608482332
 30
0.0
 10
267.575092619782
 20
44.52075497638161
 30
0.0
 10
268.5214466628472
 20
44.70288222070677
 30
0.0
 10
269.4134874694718
 20
44.74854542479122
 30
0.0
 10
270.2422401298682
 20
44.65358163185928
 30
0.0
 10
270.9387343102952
 20
44.46318536235073
 30
0.0
 10
271.3245976351482
 20
44.2448992971517
 30
0.0
 10
271.4856149246199
 20
44.15381048854011
 30
0.0
  0
LINE
  5
197
330
1F
100
AcDbEntity
  8
0
  6
Continuous
 62
     7
370
    15
100
AcDbLine
 10
254.8823489383
 20
63.9439483158
 30
0.0
 11
251.9283919309
 21
63.5411376589
 31
0.0
  0
LINE
  5
198
330
1F
100
AcDbEntity
  8
0
  6
Continuous
 62
     7
370
    15
100
AcDbLine
 10
230.9344080716
 20
27.1745505659
 30
0.0
 11
232.0628012651
 21
24.4150493016
 31
0.0
  0
LINE
  5
199
330
1F
100
AcDbEntity
  8
0
  6
Continuous
 62
     7
370
    15
100
AcDbLine
 10
231.5343607946
 20
24.5138902272
 30
0.0
 11
232.1780651247
 21
24.1422876272
 31
0.0
  0
LINE
  5
19A
330
1F
100
AcDbEntity
  8
0
  6
Continuous
 62
     7
370
    15
100
AcDbLine
 10
255.1761959753
 20
63.9805352967
 30
0.0
 11
254.5324916452
 21
64.3521378967
 31
0.0
  0
LINE
  5
19B
330
1F
100
AcDbEntity
  8
0
  6
Continuous
 62
     7
370
    15
100
AcDbLine
 10
248.8402820567
 20
67.6381805468
 30
0.0
 11
244.1910549704
 21
70.3221222144
 31
0.0
  0
SPLINE
  5
19C
330
1F
100
AcDbEntity
  8
0
  6
Continuous
 62
     7
370
    15
100
AcDbSpline
210
0.0
220
0.0
230
1.0
 70
     8
 71
     3
 72
    31
 73
    27
 74
     0
 42
0.000000001
 43
0.00000001
 40
0.0
 40
0.0
 40
0.0
 40
0.0
 40
0.0245548855868056
 40
0.066969548752114
 40
0.1094461400438683
 40
0.1521641909768817
 40
0.1952358544463022
 40
0.2386890973355082
 40
0.2824801380149496
 40
0.3265245771191391
 40
0.3707301380466501
 40
0.4150184212128047
 40
0.4593303551982656
 40
0.5036259436993795
 40
0.5478907645423954
 40
0.5921200249940017
 40
0.6363148595295537
 40
0.6804798460828476
 40
0.7246214636405737
 40
0.7687471930319723
 40
0.8128650262552817
 40
0.8569832191230937
 40
0.9011082669133631
 40
0.9452477740558906
 40
0.9894102488465817
 40
0.9999999999999999
 40
0.9999999999999999
 40
0.9999999999999999
 40
0.9999999999999999
 10
244.1484585121585
 20
70.32307623838616
 30
0.0
 10
243.9522928742708
 20
70.43811103431526
 30
0.0
 10
243.4172822669695
 20
70.75185016158295
 30
0.0
 10
242.4552510453726
 20
71.10141835176599
 30
0.0
 10
241.283064806146
 20
71.38226632750612
 30
0.0
 10
240.0474908793306
 20
71.5045223878999
 30
0.0
 10
238.7600168361969
 20
71.47555582862609
 30
0.0
 10
237.4270987751058
 20
71.29226219035905
 30
0.0
 10
236.0583318081558
 20
70.95549798145453
 30
0.0
 10
234.6640842733887
 20
70.46696442414705
 30
0.0
 10
233.255468746767
 20
69.83037244265947
 30
0.0
 10
231.8436306304021
 20
69.05099269304043
 30
0.0
 10
230.4394493566533
 20
68.13542518797902
 30
0.0
 10
229.0532947338489
 20
67.09123425661443
 30
0.0
 10
227.6950221668129
 20
65.92671605649332
 30
0.0
 10
226.3740198406174
 20
64.65075061710313
 30
0.0
 10
225.0993524362376
 20
63.27283353113523
 30
0.0
 10
223.8797627832246
 20
61.80304094571732
 30
0.0
 10
222.7236340216842
 20
60.25198844825785
 30
0.0
 10
221.6389953978183
 20
58.63078432934415
 30
0.0
 10
220.6333019534892
 20
56.95095329102998
 30
0.0
 10
219.7140428323979
 20
55.22444311654394
 30
0.0
 10
218.8862776409746
 20
53.46333381499955
 30
0.0
 10
218.1615605203995
 20
51.68048710322932
 30
0.0
 10
217.6859911850268
 20
50.34159924675608
 30
0.0
 10
217.4663428038005
 20
49.60267460679304
 30
0.0
 10
217.4238601164151
 20
49.4597575303928
 30
0.0
  0
LINE
  5
19D
330
1F
100
AcDbEntity
  8
0
  6
Continuous
 62
     7
370
    15
100
AcDbLine
 10
230.6968547637
 20
68.2798225791
 30
0.0
 11
200.6068569569
 21
79.1230650623
 31
0.0
  0
LINE
  5
19E
330
1F
100
AcDbEntity
  8
0
  6
Continuous
 62
     7
370
    15
100
AcDbLine
 10
191.7758561663
 20
63.8256655063
 30
0.0
 11
220.5297529086
 21
39.5461128021
 31
0.0
  0
LINE
  5
19F
330
1F
100
AcDbEntity
  8
0
  6
Continuous
 62
     7
370
    15
100
AcDbLine
 10
221.1929241197
 20
30.4838745449
 30
0.0
 11
225.842151206
 21
27.7999328773
 31
0.0
  0
SPLINE
  5
1A0
330
1F
100
AcDbEntity
  8
0
  6
Continuous
 62
     7
370
    15
100
AcDbSpline
210
0.0
220
0.0
230
1.0
 70
     8
 71
     3
 72
    13
 73
     9
 74
     0
 42
0.000000001
 43
0.00000001
 40
0.0
 40
0.0
 40
0.0
 40
0.0
 40
0.076407884279566
 40
0.2881443697668702
 40
0.4984981639616494
 40
0.706848645968761
 40
0.913348846694875
 40
1.0
 40
1.0
 40
1.0
 40
1.0
 10
217.3865552472238
 20
34.8806746541683
 30
0.0
 10
217.4524217519775
 20
34.73336397531675
 30
0.0
 10
217.7008131670776
 20
34.17783566671567
 30
0.0
 10
218.2171638345449
 20
33.29691366473342
 30
0.0
 10
218.9714126593455
 20
32.28989466035907
 30
0.0
 10
219.8354072550387
 20
31.43128399668026
 30
0.0
 10
220.5927463562433
 20
30.82557412076594
 30
0.0
 10
221.088872974113
 20
30.56109622808787
 30
0.0
 10
221.235520577928
 20
30.48292052086661
 30
0.0
  0
SPLINE
  5
1A1
330
1F
100
AcDbEntity
  8
0
  6
Continuous
 62
     7
370
    15
100
AcDbSpline
210
0.0
220
0.0
230
1.0
 70
     8
 71
     3
 72
    24
 73
    20
 74
     0
 42
0.000000001
 43
0.00000001
 40
0.0
 40
0.0
 40
0.0
 40
0.0
 40
0.0563620547839758
 40
0.1166270742163405
 40
0.1779095646792644
 40
0.2401431911454469
 40
0.3029643859173361
 40
0.3660150322332428
 40
0.4290454146903953
 40
0.4919909107264193
 40
0.5548516349689795
 40
0.6176532337286017
 40
0.6804313544592043
 40
0.7432251406218596
 40
0.8060626237348373
 40
0.8689857913804456
 40
0.932035202990627
 40
0.9918953032237284
 40
0.9999999999999999
 40
0.9999999999999999
 40
0.9999999999999999
 40
0.9999999999999999
 10
200.4199097489534
 20
79.17995370551142
 30
0.0
 10
200.1892009889945
 20
79.23569343681932
 30
0.0
 10
199.7118073280783
 20
79.35103276937133
 30
0.0
 10
198.9234059710089
 20
79.33578634252925
 30
0.0
 10
198.0848506829235
 20
79.18114956279778
 30
0.0
 10
197.216687462799
 20
78.87188858422641
 30
0.0
 10
196.336947213876
 20
78.41677174181287
 30
0.0
 10
195.4633552320058
 20
77.82369977909974
 30
0.0
 10
194.6136206022331
 20
77.1057098413676
 30
0.0
 10
193.8037627492699
 20
76.27757123860376
 30
0.0
 10
193.0482893092039
 20
75.35539267045112
 30
0.0
 10
192.3605972515135
 20
74.35648662588
 30
0.0
 10
191.7529778994416
 20
73.2992558446156
 30
0.0
 10
191.2364869698257
 20
72.20299040781869
 30
0.0
 10
190.820813110031
 20
71.08754083781382
 30
0.0
 10
190.5138462399623
 20
69.972724938103
 30
0.0
 10
190.3262007131435
 20
68.89808525686853
 30
0.0
 10
190.273707390304
 20
68.16785481906254
 30
0.0
 10
190.271880736491
 20
67.80174039668518
 30
0.0
 10
190.2716629108531
 20
67.75808181887203
 30
0.0
  0
SPLINE
  5
1A2
330
1F
100
AcDbEntity
  8
0
  6
Continuous
 62
     7
370
    15
100
AcDbSpline
210
0.0
220
0.0
230
1.0
 70
     8
 71
     3
 72
    12
 73
     8
 74
     0
 42
0.000000001
 43
0.00000001
 40
0.0
 40
0.0
 40
0.0
 40
0.0
 40
0.1260474979673439
 40
0.3650848216749975
 40
0.6041913903502606
 40
0.8417133207915711
 40
1.0
 40
1.0
 40
1.0
 40
1.0
 10
190.2716629108531
 20
67.75808181887203
 30
0.0
 10
190.2751596631507
 20
67.58022381490383
 30
0.0
 10
190.285287680046
 20
67.0650746948553
 30
0.0
 10
190.3968735165312
 20
66.26410031412351
 30
0.0
 10
190.6534116175006
 20
65.40532746693971
 30
0.0
 10
190.9791579021557
 20
64.7192871514961
 30
0.0
 10
191.2674797719256
 20
64.3800455970049
 30
0.0
 10
191.3827817390794
 20
64.24438048563343
 30
0.0
  0
ARC
  5
1A3
330
1F
100
AcDbEntity
  8
0
  6
Continuous
 62
     7
370
    15
100
AcDbCircle
 10
252.7003097084
 20
56.295948617
 30
0.0
 40
2.652786962639273
100
AcDbArc
 50
170.5581124572
 51
255.0070019009
  0
LWPOLYLINE
  5
1A4
330
1F
100
AcDbEntity
  8
0
  6
Continuous
 62
     7
370
    15
100
AcDbPolyline
 90
       22
 70
   128
 43
0.0
 10
259.052374577
 20
53.9898273508
 10
259.4383509296
 20
54.2413660092
 10
259.9861351618
 20
54.7295678967
 10
260.3639738286
 20
55.268794092
 10
260.5582108562
 20
55.8395555553
 10
260.5618260123
 20
56.4212234804
 10
260.3746886357
 20
56.9927748729
 10
260.0035623587
 20
57.5335523762
 10
259.4618606521
 20
58.0240108825
 10
258.7691620268
 20
58.4464239434
 10
257.9505024161
 20
58.7855244503
 10
257.0354703111
 20
59.0290564275
 10
256.0571373563
 20
59.1682179947
 10
255.0508630538
 20
59.1979794902
 10
254.0530167785
 20
59.1172652562
 10
253.0996632949
 20
58.9289925153
 10
252.2252592816
 20
58.639965935
 10
251.461407978
 20
58.2606316888
 10
250.8357169603
 20
57.8046999048
 10
250.3708003323
 20
57.2886491456
 10
250.0834613921
 20
56.7311308302
 10
250.0834613921
 20
56.7311308302
  0
LWPOLYLINE
  5
1A5
330
1F
100
AcDbEntity
  8
0
  6
Continuous
 62
     7
370
    15
100
AcDbPolyline
 90
       28
 70
   128
 43
0.0
 10
251.7515751054
 20
56.5419454117
 10
251.6867499273
 20
56.0608618557
 10
251.8158561922
 20
55.5841156826
 10
252.1319337478
 20
55.1374084018
 10
252.6179427715
 20
54.7448221186
 10
253.2476823908
 20
54.4275212611
 10
253.9872031799
 20
54.2026116006
 10
254.7966373817
 20
54.0822180751
 10
255.6323481888
 20
54.0728311309
 10
256.4492822153
 20
54.1749568204
 10
257.2033983364
 20
54.3830895213
 10
257.8540419567
 20
54.6860087459
 10
258.3661367104
 20
55.0673840402
 10
258.7120754366
 20
55.5066553636
 10
258.8732084892
 20
55.9801414852
 10
258.8408491434
 20
56.4623166457
 10
258.6167419001
 20
56.9271866574
 10
258.2129684388
 20
57.3496902576
 10
257.6512962912
 20
57.7070501678
 10
256.9620053482
 20
57.9800010229
 10
256.182255463
 20
58.1538279715
 10
255.3540831536
 20
58.2191599579
 10
254.5221354038
 20
58.1724749177
 10
253.7312627319
 20
58.0162896536
 10
253.0241012885
 20
57.7590241536
 10
252.43877433
 20
57.4145476673
 10
252.0068369843
 20
57.0014310114
 10
251.7515751054
 20
56.5419454117
  0
SPLINE
  5
1A6
330
1F
100
AcDbEntity
  8
0
  6
Continuous
 62
     7
370
    15
100
AcDbSpline
210
0.0
220
0.0
230
1.0
 70
     8
 71
     3
 72
    12
 73
     8
 74
     0
 42
0.000000001
 43
0.00000001
 40
0.0
 40
0.0
 40
0.0
 40
0.0
 40
0.2429699898359486
 40
0.4872840581163588
 40
0.7378233552012543
 40
0.9917437488077774
 40
1.0
 40
1.0
 40
1.0
 40
1.0
 10
252.0064283229379
 20
55.38307046903723
 30
0.0
 10
252.0947847406017
 20
55.29282563158581
 30
0.0
 10
252.2719863521625
 20
55.11183673395665
 30
0.0
 10
252.5513389188685
 20
54.85790120498531
 30
0.0
 10
252.8435057631175
 20
54.63190403458784
 30
0.0
 10
253.0484720308547
 20
54.48308126706927
 30
0.0
 10
253.1541088240702
 20
54.43240860151899
 30
0.0
 10
253.1574354510495
 20
54.43081285962641
 30
0.0
  0
SPLINE
  5
1A7
330
1F
100
AcDbEntity
  8
0
  6
Continuous
 62
     7
370
    15
100
AcDbSpline
210
0.0
220
0.0
230
1.0
 70
     8
 71
     3
 72
     9
 73
     5
 74
     0
 42
0.000000001
 43
0.00000001
 40
0.0
 40
0.0
 40
0.0
 40
0.0
 40
0.2161375159076929
 40
1.0
 40
1.0
 40
1.0
 40
1.0
 10
257.6471450740765
 20
54.56786900245531
 30
0.0
 10
257.6652871801675
 20
54.57786061622078
 30
0.0
 10
257.7492249732651
 20
54.62408865638076
 30
0.0
 10
257.8303206380289
 20
54.67525211304943
 30
0.0
 10
257.8938884872598
 20
54.71535722728849
 30
0.0
  0
SPLINE
  5
1A8
330
1F
100
AcDbEntity
  8
0
  6
Continuous
 62
     7
370
    15
100
AcDbSpline
210
0.0
220
0.0
230
1.0
 70
     8
 71
     3
 72
    21
 73
    17
 74
     0
 42
0.000000001
 43
0.00000001
 40
0.0
 40
0.0
 40
0.0
 40
0.0
 40
0.0459884793660883
 40
0.1381576750354477
 40
0.1843685985639293
 40
0.2461032364961892
 40
0.3080383296587313
 40
0.3918029824328988
 40
0.5197555617867209
 40
0.5627493476222472
 40
0.6492610989675838
 40
0.7373630866510092
 40
0.8269240350124243
 40
0.871887981700116
 40
0.9679335170026987
 40
1.0
 40
1.0
 40
1.0
 40
1.0
 10
257.8938884872598
 20
54.71535722728849
 30
0.0
 10
257.9034896220983
 20
54.72362998672142
 30
0.0
 10
257.9323331604207
 20
54.74848284607091
 30
0.0
 10
257.9717570496616
 20
54.79258951006744
 30
0.0
 10
258.0153772833154
 20
54.85209525157703
 30
0.0
 10
258.0530097326684
 20
54.91155352206762
 30
0.0
 10
258.0997408130727
 20
54.99781487385791
 30
0.0
 10
258.1624504358176
 20
55.13460948060661
 30
0.0
 10
258.2218637394414
 20
55.29556339266139
 30
0.0
 10
258.2816647967109
 20
55.48393196776541
 30
0.0
 10
258.3319501777643
 20
55.65883903822122
 30
0.0
 10
258.3919289755545
 20
55.89275407352312
 30
0.0
 10
258.4412996898736
 20
56.1045662541652
 30
0.0
 10
258.4913994982899
 20
56.33266372683637
 30
0.0
 10
258.5282707278852
 20
56.50971293916941
 30
0.0
 10
258.5549869941713
 20
56.6440153650303
 30
0.0
 10
258.5616740849688
 20
56.67763130920567
 30
0.0
  0
SPLINE
  5
1A9
330
1F
100
AcDbEntity
  8
0
  6
Continuous
 62
     7
370
    15
100
AcDbSpline
210
0.0
220
0.0
230
1.0
 70
     8
 71
     3
 72
    11
 73
     7
 74
     0
 42
0.000000001
 43
0.00000001
 40
0.0
 40
0.0
 40
0.0
 40
0.0
 40
0.2164553779443468
 40
0.4403112895790553
 40
0.7519005688038863
 40
1.0
 40
1.0
 40
1.0
 40
1.0
 10
258.5616740849688
 20
56.67763130920567
 30
0.0
 10
258.3828977023645
 20
56.67898581858579
 30
0.0
 10
258.0192326351419
 20
56.68174114754812
 30
0.0
 10
257.3443673992905
 20
56.87134776429279
 30
0.0
 10
256.6204533771909
 20
57.32679738314921
 30
0.0
 10
256.1571918737792
 20
57.78812649263892
 30
0.0
 10
255.9518368016623
 20
57.99262497103868
 30
0.0
  0
SPLINE
  5
1AA
330
1F
100
AcDbEntity
  8
0
  6
Continuous
 62
     7
370
    15
100
AcDbSpline
210
0.0
220
0.0
230
1.0
 70
     8
 71
     3
 72
    18
 73
    14
 74
     0
 42
0.000000001
 43
0.00000001
 40
0.0
 40
0.0
 40
0.0
 40
0.0
 40
0.162184708924031
 40
0.2719359695167609
 40
0.3834753487519288
 40
0.4398319183611043
 40
0.4972212544012505
 40
0.6329009399326222
 40
0.6924199898039693
 40
0.7521730438945976
 40
0.8446312305611899
 40
0.9377052350185132
 40
1.0
 40
1.0
 40
1.0
 40
1.0
 10
255.9518368016623
 20
57.99262497103868
 30
0.0
 10
255.7840696723385
 20
57.89162232896253
 30
0.0
 10
255.5027736286585
 20
57.72227065839539
 30
0.0
 10
255.0847033612443
 20
57.52547926727856
 30
0.0
 10
254.7736613805752
 20
57.40884444837594
 30
0.0
 10
254.5178260493857
 20
57.3349528492332
 30
0.0
 10
254.2332562247255
 20
57.26935012933706
 30
0.0
 10
253.9444329820007
 20
57.23218519129191
 30
0.0
 10
253.6586367797224
 20
57.22319767081378
 30
0.0
 10
253.4244885647749
 20
57.22889464091008
 30
0.0
 10
253.1588946550063
 20
57.25344069170017
 30
0.0
 10
252.8975246941758
 20
57.29556900516265
 30
0.0
 10
252.7381249114882
 20
57.33109891290954
 30
0.0
 10
252.6742139206469
 20
57.34534455095443
 30
0.0
  0
SPLINE
  5
1AB
330
1F
100
AcDbEntity
  8
0
  6
Continuous
 62
     7
370
    15
100
AcDbSpline
210
0.0
220
0.0
230
1.0
 70
     8
 71
     3
 72
    21
 73
    17
 74
     0
 42
0.000000001
 43
0.00000001
 40
0.0
 40
0.0
 40
0.0
 40
0.0
 40
0.0320027986440003
 40
0.1281258596102473
 40
0.1857521610573331
 40
0.2433822027624462
 40
0.301990963588703
 40
0.3608070697855114
 40
0.4204293179417181
 40
0.4803400136413007
 40
0.6453907657235333
 40
0.7016131473446395
 40
0.7585492287763493
 40
0.8156510903713077
 40
0.9537817175651849
 40
1.0
 40
1.0
 40
1.0
 40
1.0
 10
252.6742139206469
 20
57.34534455095443
 30
0.0
 10
252.6675408228167
 20
57.31179873427385
 30
0.0
 10
252.6408245219937
 20
57.17749527393155
 30
0.0
 10
252.6012604966152
 20
56.9875005565367
 30
0.0
 10
252.5552465277251
 20
56.77903729929702
 30
0.0
 10
252.5167454626253
 20
56.61350413463047
 30
0.0
 10
252.4773596034579
 20
56.45397465761236
 30
0.0
 10
252.4369628550002
 20
56.30124409149473
 30
0.0
 10
252.3958148460788
 20
56.15750028688922
 30
0.0
 10
252.3297375441863
 20
55.94643013059438
 30
0.0
 10
252.264040756791
 20
55.77497115779229
 30
0.0
 10
252.2006601434542
 20
55.6436332559262
 30
0.0
 10
252.1623736728063
 20
55.57412529551467
 30
0.0
 10
252.1065768859251
 20
55.48660202899766
 30
0.0
 10
252.0545617668115
 20
55.42460152705555
 30
0.0
 10
252.0160768990584
 20
55.39139556573519
 30
0.0
 10
252.0064283229379
 20
55.38307046903723
 30
0.0
  0
LINE
  5
1AC
330
1F
100
AcDbEntity
  8
0
  6
Continuous
 62
     7
370
    15
100
AcDbLine
 10
252.6742139206
 20
54.7676090587
 30
0.0
 11
252.6742139206
 21
57.345344551
 31
0.0
  0
LINE
  5
1AD
330
1F
100
AcDbEntity
  8
0
  6
Continuous
 62
     7
370
    15
100
AcDbLine
 10
255.9518368017
 20
54.0991494444
 30
0.0
 11
255.9518368017
 21
57.992624971
 31
0.0
  0
LWPOLYLINE
  5
1AE
330
1F
100
AcDbEntity
  8
0
  6
Continuous
 62
     7
370
    15
100
AcDbPolyline
 90
        8
 70
   128
 43
0.0
 10
262.3186148893
 20
37.1335811672
 10
262.2737281099
 20
37.0797045748
 10
261.8834629929
 20
36.773856798
 10
261.4006322547
 20
36.6350450007
 10
260.8494470448
 20
36.6702297861
 10
260.2575460911
 20
36.8776468422
 10
259.654609779
 20
37.2468954115
 10
259.0894618551
 20
37.7405663283
  0
LWPOLYLINE
  5
1AF
330
1F
100
AcDbEntity
  8
0
  6
Continuous
 62
     7
370
    15
100
AcDbPolyline
 90
       73
 70
   128
 43
0.0
 10
265.2189014796
 20
51.6308616989
 10
263.7090052701
 20
50.683091155
 10
262.2106002824
 20
49.5902816861
 10
260.7350902833
 20
48.360750232
 10
259.2937047947
 20
47.0038542696
 10
257.8974136307
 20
45.5299205964
 10
256.5568434101
 20
43.9501667376
 10
255.2821966816
 20
42.2766155741
 10
254.0831742767
 20
40.5220038407
 10
252.9689014796
 20
38.6996851921
 10
251.9478585793
 20
36.8235285736
 10
251.0278163288
 20
34.9078126699
 10
250.2157768051
 20
32.9671172358
 10
249.5179201193
 20
31.0162121354
 10
248.9395573821
 20
29.0699449344
 10
248.4850902833
 20
27.1431279016
 10
248.1579775918
 20
25.2504252778
 10
247.9607088328
 20
23.406241673
 10
247.8947853406
 20
21.6246124379
 10
247.9607088328
 20
19.9190968467
 10
248.1579775918
 20
18.302674903
 10
248.4850902833
 20
16.7876485538
 10
248.9395573821
 20
15.3855480643
 10
249.5179201193
 20
14.107044266
 10
250.2157768051
 20
12.9618673446
 10
251.0278163288
 20
11.9587327881
 10
251.9478585793
 20
11.1052750561
 10
252.9689014796
 20
10.4079894773
 10
254.0831742767
 20
9.8721828159
 10
255.2821966816
 20
9.5019328843
 10
256.5568434101
 20
9.300057508
 10
257.8974136307
 20
9.2680930803
 10
259.2937047947
 20
9.4062828701
 10
260.7350902833
 20
9.7135751695
 10
262.2106002824
 20
10.1876312985
 10
263.7090052701
 20
10.8248434038
 10
265.2189014796
 20
11.6203619165
 10
266.7287976892
 20
12.5681324604
 10
268.2272026769
 20
13.6609419293
 10
269.702712676
 20
14.8904733834
 10
271.1440981645
 20
16.2473693458
 10
272.5403893285
 20
17.721303019
 10
273.8809595492
 20
19.3010568778
 10
275.1556062776
 20
20.9746080413
 10
276.3546286826
 20
22.7292197748
 10
277.4689014796
 20
24.5515384234
 10
278.4899443799
 20
26.4276950419
 10
279.4099866304
 20
28.3434109455
 10
280.2220261542
 20
30.2841063796
 10
280.91988284
 20
32.23501148
 10
281.4982455771
 20
34.181278681
 10
281.952712676
 20
36.1080957138
 10
282.2798253675
 20
38.0007983376
 10
282.4770941265
 20
39.8449819424
 10
282.5430176187
 20
41.6266111775
 10
282.4770941265
 20
43.3321267687
 10
282.2798253675
 20
44.9485487124
 10
281.952712676
 20
46.4635750616
 10
281.4982455771
 20
47.8656755511
 10
280.91988284
 20
49.1441793494
 10
280.2220261542
 20
50.2893562708
 10
279.4099866304
 20
51.2924908273
 10
278.4899443799
 20
52.1459485593
 10
277.4689014796
 20
52.8432341382
 10
276.3546286826
 20
53.3790407995
 10
275.1556062776
 20
53.7492907311
 10
273.8809595492
 20
53.9511661075
 10
272.5403893285
 20
53.9831305351
 10
271.1440981645
 20
53.8449407453
 10
269.702712676
 20
53.537648446
 10
268.2272026769
 20
53.0635923169
 10
266.7287976892
 20
52.4263802116
 10
265.2189014796
 20
51.6308616989
  0
LWPOLYLINE
  5
1B0
330
1F
100
AcDbEntity
  8
0
  6
Continuous
 62
     7
370
    15
100
AcDbPolyline
 90
       38
 70
   128
 43
0.0
 10
264.865348089
 20
52.2432341328
 10
263.3456907858
 20
51.2903873639
 10
261.8372844935
 20
50.193460577
 10
260.3512969247
 20
48.960575034
 10
258.8987298113
 20
47.6008585883
 10
257.4903374522
 20
46.1243781047
 10
256.1365470915
 20
44.5420649281
 10
254.8473817194
 20
42.8656339517
 10
253.6323858654
 20
41.1074968839
 10
252.5005549336
 20
39.2806703564
 10
251.4602686043
 20
37.3986795537
 10
250.5192287935
 20
35.4754580772
 10
249.6844026306
 20
33.5252447859
 10
248.9619708766
 20
31.5624783766
 10
248.3572821634
 20
29.6016904852
 10
247.8748133946
 20
27.6573980991
 10
247.5181366002
 20
25.743996079
 10
247.2898924905
 20
23.875650584
 10
247.1917709049
 20
22.0661941904
 10
247.2244983013
 20
20.3290234803
 10
247.3878323775
 20
18.6769998578
 10
247.6805638652
 20
17.1223543279
 10
248.1005254829
 20
15.6765969422
 10
248.6446079817
 20
14.3504315824
 10
249.3087831651
 20
13.153676713
 10
250.0881337124
 20
12.0951926883
 10
250.9768895849
 20
11.1828161537
 10
251.968470745
 20
10.4233020257
 10
253.0555358728
 20
9.8222734814
 10
254.2300367182
 20
9.3841803257
 10
255.4832776882
 20
9.1122660472
 10
256.8059802248
 20
9.0085438039
 10
258.1883515014
 20
9.0737815191
 10
259.6201569247
 20
9.3074961956
 10
261.0907959082
 20
9.7079574917
 10
262.5893803555
 20
10.272200532
 10
264.1048152715
 20
10.9960478585
 10
264.8682212075
 20
11.4178524241
  0
LWPOLYLINE
  5
1B1
330
1F
100
AcDbEntity
  8
0
  6
Continuous
 62
     7
370
    15
100
AcDbPolyline
 90
       20
 70
   128
 43
0.0
 10
282.5430176187
 20
42.0348152334
 10
282.5389252732
 20
42.4716720644
 10
282.4408036876
 20
44.1678396867
 10
282.2125595778
 20
45.7726601419
 10
281.8558827834
 20
47.2742519008
 10
281.3734140147
 20
48.6614977035
 10
280.7687253014
 20
49.9241268673
 10
280.0462935474
 20
51.0527913278
 10
279.2114673846
 20
52.039134848
 10
278.2704275737
 20
52.8758548858
 10
277.2301412444
 20
53.5567566586
 10
276.0983103126
 20
54.0767990079
 10
274.8833144586
 20
54.4321317222
 10
273.5941490866
 20
54.6201240424
 10
272.2403587259
 20
54.6393841391
 10
270.8319663667
 20
54.4897694172
 10
269.3793992534
 20
54.1723875719
 10
267.8934116846
 20
53.6895883872
 10
266.3850053923
 20
53.0449463395
 10
264.865348089
 20
52.2432341328
  0
SPLINE
  5
1B2
330
1F
100
AcDbEntity
  8
0
  6
Continuous
 62
     7
370
    15
100
AcDbSpline
210
0.0
220
0.0
230
1.0
 70
    11
 71
     3
 72
    96
 73
    92
 74
     0
 42
0.000000001
 43
0.00000001
 40
0.0
 40
0.0
 40
0.0
 40
0.0
 40
0.0312500000000001
 40
0.0312500000000001
 40
0.046875
 40
0.046875
 40
0.0624999999999998
 40
0.0624999999999998
 40
0.0937499999999995
 40
0.0937499999999995
 40
0.1093749999999993
 40
0.1093749999999993
 40
0.1249999999999992
 40
0.1249999999999992
 40
0.1562499999999984
 40
0.1562499999999984
 40
0.1718749999999982
 40
0.1718749999999982
 40
0.187499999999998
 40
0.187499999999998
 40
0.2187499999999973
 40
0.2187499999999973
 40
0.2343749999999969
 40
0.2343749999999969
 40
0.2499999999999965
 40
0.2499999999999965
 40
0.2812499999999957
 40
0.2812499999999957
 40
0.2968749999999952
 40
0.2968749999999952
 40
0.3124999999999946
 40
0.3124999999999946
 40
0.3437499999999937
 40
0.3437499999999937
 40
0.3593749999999933
 40
0.3593749999999933
 40
0.374999999999993
 40
0.374999999999993
 40
0.3906249999999926
 40
0.3906249999999926
 40
0.4062499999999922
 40
0.4062499999999922
 40
0.4374999999999914
 40
0.4374999999999914
 40
0.453124999999991
 40
0.453124999999991
 40
0.4687499999999906
 40
0.4687499999999906
 40
0.4999999999999902
 40
0.4999999999999902
 40
0.5312499999999897
 40
0.5312499999999897
 40
0.5468749999999896
 40
0.5468749999999896
 40
0.5624999999999896
 40
0.5624999999999896
 40
0.5937499999999899
 40
0.5937499999999899
 40
0.6249999999999902
 40
0.6249999999999902
 40
0.6562499999999906
 40
0.6562499999999906
 40
0.6874999999999909
 40
0.6874999999999909
 40
0.7187499999999917
 40
0.7187499999999917
 40
0.7499999999999925
 40
0.7499999999999925
 40
0.7656249999999929
 40
0.7656249999999929
 40
0.7812499999999934
 40
0.7812499999999934
 40
0.8124999999999944
 40
0.8124999999999944
 40
0.8281249999999949
 40
0.8281249999999949
 40
0.8437499999999954
 40
0.8437499999999954
 40
0.8749999999999963
 40
0.8749999999999963
 40
0.8906249999999968
 40
0.8906249999999968
 40
0.9062499999999973
 40
0.9062499999999973
 40
0.9218749999999978
 40
0.9218749999999978
 40
0.9374999999999983
 40
0.9374999999999983
 40
0.9687499999999992
 40
0.9687499999999992
 40
1.0
 40
1.0
 40
1.0
 40
1.0
 10
255.2230344250644
 20
61.42385541862836
 30
0.0
 10
255.6838457093197
 20
61.34571741300488
 30
0.0
 10
256.1324765641683
 20
61.24520952825797
 30
0.0
 10
256.7893484393439
 20
61.06754954041897
 30
0.0
 10
257.0056006902758
 20
61.00379226159964
 30
0.0
 10
257.4327918171175
 20
60.86776829359245
 30
0.0
 10
257.6446513676547
 20
60.79515467451766
 30
0.0
 10
258.2650289324034
 20
60.56761439279538
 30
0.0
 10
258.6562976721536
 20
60.40415016993243
 30
0.0
 10
259.2113416089761
 20
60.14391867969175
 30
0.0
 10
259.3910094917202
 20
60.05463665389257
 30
0.0
 10
259.739496550638
 20
59.87106754849072
 30
0.0
 10
259.9089177906638
 20
59.77638712484431
 30
0.0
 10
260.3919792646856
 20
59.4897045670761
 30
0.0
 10
260.6830338711001
 20
59.29403953490745
 30
0.0
 10
261.0738219307043
 20
58.99295000549333
 30
0.0
 10
261.1964059004458
 20
58.89130041367988
 30
0.0
 10
261.4257405755657
 20
58.68502520149373
 30
0.0
 10
261.5327215914835
 20
58.5800622282071
 30
0.0
 10
261.8232992073746
 20
58.26596662756056
 30
0.0
 10
261.9789960564322
 20
58.05592207222819
 30
0.0
 10
262.1545057684485
 20
57.7364628958553
 30
0.0
 10
262.2032725117185
 20
57.62923340531594
 30
0.0
 10
262.2802756973871
 20
57.41253067009995
 30
0.0
 10
262.3084221831449
 20
57.30280261595594
 30
0.0
 10
262.3589585754169
 20
56.97644749963307
 30
0.0
 10
262.3488952543921
 20
56.76028986230062
 30
0.0
 10
262.2641103516277
 20
56.43397867491513
 30
0.0
 10
262.2241484621754
 20
56.32486362596931
 30
0.0
 10
262.1188604964817
 20
56.10519948217166
 30
0.0
 10
262.0536197523549
 20
55.99523397861383
 30
0.0
 10
261.8238917134086
 20
55.67146146824198
 30
0.0
 10
261.6245512995529
 20
55.46085548817772
 30
0.0
 10
261.2511258017529
 20
55.15081292102685
 30
0.0
 10
261.1128997366012
 20
55.04768696092198
 30
0.0
 10
260.8172023155797
 20
54.84853040441684
 30
0.0
 10
260.6597089542911
 20
54.75226873706572
 30
0.0
 10
260.3258573168593
 20
54.56618494826515
 30
0.0
 10
260.1494984587332
 20
54.47636306135083
 30
0.0
 10
259.7777244528277
 20
54.30333143609009
 30
0.0
 10
259.5810623661713
 20
54.21970244749153
 30
0.0
 10
258.9771749411599
 20
53.98534811043273
 30
0.0
 10
258.5531090520794
 20
53.8491242910048
 30
0.0
 10
257.8865184733414
 20
53.67553867648012
 30
0.0
 10
257.6597887477579
 20
53.62309632773114
 30
0.0
 10
257.2062462696807
 20
53.53099156103028
 30
0.0
 10
256.9782178033161
 20
53.49100080601583
 30
0.0
 10
256.2904066960576
 20
53.3892638466951
 30
0.0
 10
255.8228348781293
 20
53.34566330571349
 30
0.0
 10
254.9077537627389
 20
53.31211200595726
 30
0.0
 10
254.4579378538545
 20
53.32137922308475
 30
0.0
 10
253.793753579477
 20
53.37626040115422
 30
0.0
 10
253.5736763305459
 20
53.40156262712494
 30
0.0
 10
253.1447055933861
 20
53.46537334508542
 30
0.0
 10
252.9348493716248
 20
53.50392738284138
 30
0.0
 10
252.318665108876
 20
53.63958760916766
 30
0.0
 10
251.9256046473739
 20
53.75656453234303
 30
0.0
 10
251.1752676411668
 20
54.0470173001261
 30
0.0
 10
250.8266608110054
 20
54.21733939198427
 30
0.0
 10
250.1857682649823
 20
54.60417653544925
 30
0.0
 10
249.8924564675468
 20
54.82110803954275
 30
0.0
 10
249.3631296293112
 20
55.30295786122598
 30
0.0
 10
249.1347517586601
 20
55.56088067390034
 30
0.0
 10
248.7488519413765
 20
56.10727767921449
 30
0.0
 10
248.5910459225115
 20
56.39634464559241
 30
0.0
 10
248.3535030746299
 20
57.00120786955473
 30
0.0
 10
248.276935345511
 20
57.30848590585146
 30
0.0
 10
248.2262843481796
 20
57.77329628467747
 30
0.0
 10
248.220177411269
 20
57.92888705399866
 30
0.0
 10
248.2307149903031
 20
58.24083932806678
 30
0.0
 10
248.2475140685014
 20
58.39800436906155
 30
0.0
 10
248.3340555231064
 20
58.86415180283088
 30
0.0
 10
248.4381428053404
 20
59.16301069905489
 30
0.0
 10
248.6667436211468
 20
59.58942651901595
 30
0.0
 10
248.7551127633776
 20
59.72790248771035
 30
0.0
 10
248.9579642368674
 20
59.99656103765853
 30
0.0
 10
249.0730744476192
 20
60.12706653801488
 30
0.0
 10
249.4486622488363
 20
60.49305496802105
 30
0.0
 10
249.7417074364523
 20
60.70738730031811
 30
0.0
 10
250.2469857148731
 20
60.9824553681045
 30
0.0
 10
250.4275043107358
 20
61.0666287298351
 30
0.0
 10
250.800767122083
 20
61.21467165535399
 30
0.0
 10
250.9944753237085
 20
61.27920135156853
 30
0.0
 10
251.3955478384105
 20
61.39022422021414
 30
0.0
 10
251.6029134073221
 20
61.43671521949345
 30
0.0
 10
252.031271226324
 20
61.51213044245699
 30
0.0
 10
252.2512464530347
 20
61.54076006226018
 30
0.0
 10
252.9157373856708
 20
61.60010289612661
 30
0.0
 10
253.3694061299422
 20
61.6053908307132
 30
0.0
 10
254.2974951505285
 20
61.55616358777487
 30
0.0
 10
254.762223140809
 20
61.50199342425184
 30
0.0
 10
255.2230344250644
 20
61.42385541862836
 30
0.0
  0
LWPOLYLINE
  5
1B3
330
1F
100
AcDbEntity
  8
0
  6
Continuous
 62
     7
370
    15
100
AcDbPolyline
 90
       29
 70
   128
 43
0.0
 10
248.5765081304
 20
61.6465812851
 10
247.0568508271
 20
60.6937345162
 10
245.5484445348
 20
59.5968077292
 10
244.062456966
 20
58.3639221863
 10
242.6098898527
 20
57.0042057406
 10
241.2014974935
 20
55.527725257
 10
239.8477071328
 20
53.9454120804
 10
238.5585417608
 20
52.268981104
 10
237.3435459068
 20
50.5108440362
 10
236.211714975
 20
48.6840175087
 10
235.1714286457
 20
46.8020267059
 10
234.2303888348
 20
44.8788052294
 10
233.395562672
 20
42.9285919381
 10
232.673130918
 20
40.9658255289
 10
232.0684422047
 20
39.0050376374
 10
231.585973436
 20
37.0607452514
 10
231.2292966416
 20
35.1473432313
 10
231.0010525318
 20
33.2789977362
 10
230.9029309462
 20
31.4695413426
 10
230.9356583426
 20
29.7323706325
 10
231.0989924189
 20
28.0803470101
 10
231.3917239066
 20
26.5257014802
 10
231.8116855243
 20
25.0799440944
 10
232.3557680231
 20
23.7537787347
 10
233.0199432065
 20
22.5570238653
 10
233.7992937538
 20
21.4985398406
 10
234.6880496263
 20
20.5861633059
 10
235.6796307864
 20
19.826649178
 10
236.0775239724
 20
19.5818394284
  0
LWPOLYLINE
  5
1B4
330
1F
100
AcDbEntity
  8
0
  6
Continuous
 62
     7
370
    15
100
AcDbPolyline
 90
       11
 70
   128
 43
0.0
 10
261.0754922883
 20
62.8842825474
 10
260.9413012858
 20
62.9601038108
 10
259.809470354
 20
63.4801461602
 10
258.5944745
 20
63.8354788745
 10
257.3053091279
 20
64.0234711947
 10
255.9515187672
 20
64.0427312913
 10
254.5431264081
 20
63.8931165695
 10
253.0905592947
 20
63.5757347241
 10
251.6045717259
 20
63.0929355395
 10
250.0961654336
 20
62.4482934917
 10
248.5765081304
 20
61.6465812851
  0
LINE
  5
1B5
330
1F
100
AcDbEntity
  8
0
  6
Continuous
 62
     7
370
    15
100
AcDbLine
 10
257.4496613081
 20
19.9459833401
 30
0.0
 11
257.51236357
 21
19.9091317903
 31
0.0
  0
LWPOLYLINE
  5
1B6
330
1F
100
AcDbEntity
  8
0
  6
Continuous
 62
     7
370
    15
100
AcDbPolyline
 90
       23
 70
   128
 43
0.0
 10
246.1270183876
 20
61.4275599907
 10
244.6691734343
 20
60.5103594883
 10
243.2230661914
 20
59.4493346955
 10
241.800339864
 20
58.2530283602
 10
240.4124494081
 20
56.9310724375
 10
239.0705693015
 20
55.4941105392
 10
237.7855035738
 20
53.9537122376
 10
236.5675988187
 20
52.3222799141
 10
235.4266608891
 20
50.6129489025
 10
234.3718759463
 20
48.8394817309
 10
233.4117364986
 20
47.0161573144
 10
232.5539730242
 20
45.157655989
 10
231.8054917302
 20
43.2789413145
 10
231.172318948
 20
41.395139597
 10
230.6595526124
 20
39.5214181001
 10
230.2713212165
 20
37.6728629276
 10
230.0107505713
 20
35.8643575589
 10
229.8799386383
 20
34.1104630157
 10
229.8799386383
 20
32.4253006258
 10
230.0107505713
 20
30.8224383257
 10
230.2713212165
 20
29.3147814202
 10
230.6595526124
 20
27.9144686763
 10
230.9344080716
 20
27.1745505659
  0
ARC
  5
1B7
330
1F
100
AcDbEntity
  8
0
  6
Continuous
 62
     7
370
    15
100
AcDbCircle
 10
254.3675652711
 20
47.8274362149
 30
0.0
 40
15.90188604081106
100
AcDbArc
 50
98.82337162
 51
121.2123868212
  0
LWPOLYLINE
  5
1B8
330
1F
100
AcDbEntity
  8
0
  6
Continuous
 62
     7
370
    15
100
AcDbPolyline
 90
        9
 70
   128
 43
0.0
 10
251.3949639074
 20
58.3864397741
 10
250.7465650937
 20
57.935672159
 10
250.2526849273
 20
57.4237999468
 10
249.930141905
 20
56.868254332
 10
249.7899198425
 20
56.2879537541
 10
249.8367938341
 20
55.7026596533
 10
250.0691676422
 20
55.1323035182
 10
250.4791280554
 20
54.596308143
 10
250.9806792758
 20
54.1640762883
  0
LWPOLYLINE
  5
1B9
330
1F
100
AcDbEntity
  8
0
  6
Continuous
 62
     7
370
    15
100
AcDbPolyline
 90
       18
 70
   128
 43
0.0
 10
259.7600237388
 20
54.2961927004
 10
259.8215373142
 20
54.3469627743
 10
260.3154174806
 20
54.8588349864
 10
260.6379605029
 20
55.4143806012
 10
260.7781825654
 20
55.9946811792
 10
260.7313085738
 20
56.57997528
 10
260.4989347657
 20
57.1503314151
 10
260.0889743525
 20
57.6863267903
 10
259.5153880444
 20
58.1697087261
 10
258.797708635
 20
58.5840162303
 10
257.9603758361
 20
58.9151405578
 10
257.0319040117
 20
59.1518056668
 10
256.0439111562
 20
59.2859522108
 10
255.0300421814
 20
59.3130119902
 10
254.0248231792
 20
59.2320635166
 10
253.0624856772
 20
59.0458633932
 10
252.1758009246
 20
58.7607524419
 10
251.3949639074
 20
58.3864397741
  0
ARC
  5
1BA
330
1F
100
AcDbEntity
  8
0
  6
Continuous
 62
     7
370
    15
100
AcDbCircle
 10
236.4449335141
 20
32.4156878835
 30
0.0
 40
9.303339757032274
100
AcDbArc
 50
193.7979761101
 51
238.1411124328
  0
SPLINE
  5
1BB
330
1F
100
AcDbEntity
  8
0
  6
Continuous
 62
     7
370
    15
100
AcDbSpline
210
0.0
220
0.0
230
1.0
 70
     8
 71
     3
 72
    29
 73
    25
 74
     0
 42
0.000000001
 43
0.00000001
 40
0.0
 40
0.0
 40
0.0
 40
0.0
 40
0.0227703431571904
 40
0.0454410032926536
 40
0.0680340978351017
 40
0.0905719725561206
 40
0.1130771376996924
 40
0.135572201690295
 40
0.1580798033766903
 40
0.1806225438190302
 40
0.2032229186428159
 40
0.2259032519635086
 40
0.2486856328315061
 40
0.3744034299808825
 40
0.4999236975978629
 40
0.5000033831470075
 40
0.6249154785933823
 40
0.7509968892327767
 40
0.792674979713154
 40
0.8340977989462397
 40
0.875403063254774
 40
0.9167296647521056
 40
0.9582162817868256
 40
1.0
 40
1.0
 40
1.0
 40
1.0
 10
227.4100241715108
 20
40.63065028985569
 30
0.0
 10
227.4421483188559
 20
40.52904878250033
 30
0.0
 10
227.5062559818457
 20
40.3262905544665
 30
0.0
 10
227.5961451109817
 20
40.02027635634103
 30
0.0
 10
227.6812665014162
 20
39.71395074642826
 30
0.0
 10
227.761309273703
 20
39.40717837465673
 30
0.0
 10
227.8365141079948
 20
39.10007851222008
 30
0.0
 10
227.9069780082234
 20
38.79270773680101
 30
0.0
 10
227.9728398926502
 20
38.48514534069967
 30
0.0
 10
228.034230657438
 20
38.17746858364713
 30
0.0
 10
228.0912876206266
 20
37.86976729712632
 30
0.0
 10
228.144146398941
 20
37.56211085834382
 30
0.0
 10
228.2663617022212
 20
36.79234056452606
 30
0.0
 10
228.4074848221791
 20
35.5821850655197
 30
0.0
 10
228.4487030944425
 20
34.55636540091551
 30
0.0
 10
228.4499883185437
 20
33.59655407146998
 30
0.0
 10
228.4092614494302
 20
32.69335924263758
 30
0.0
 10
228.2576190022122
 20
31.82599115428347
 30
0.0
 10
228.1030596422596
 20
31.30204993042431
 30
0.0
 10
227.9963777148116
 20
31.01952616637184
 30
0.0
 10
227.8748295456994
 20
30.767519857942
 30
0.0
 10
227.737208313051
 20
30.54626729271081
 30
0.0
 10
227.5841806850186
 20
30.35262093222869
 30
0.0
 10
227.4683245327977
 20
30.24884774657162
 30
0.0
 10
227.410189774444
 20
30.19677602697698
 30
0.0
  0
LWPOLYLINE
  5
1BC
330
1F
100
AcDbEntity
  8
0
  6
Continuous
 62
     7
370
    15
100
AcDbPolyline
 90
       24
 70
   128
 43
0.0
 10
227.4100241715
 20
40.6306502899
 10
227.8916919795
 20
42.5457518591
 10
228.5016902919
 20
44.4768485123
 10
229.2348491995
 20
46.4075736561
 10
230.084954972
 20
48.3215638457
 10
231.0448027212
 20
50.2025974699
 10
232.1062574644
 20
52.0347322337
 10
233.2603230708
 20
53.8024402738
 10
234.4972185062
 20
55.4907397619
 10
235.8064607298
 20
57.0853218796
 10
237.1769535415
 20
58.5726720899
 10
238.5970816248
 20
59.9401846767
 10
240.0548089905
 20
61.1762695819
 10
241.5377809843
 20
62.2704506344
 10
243.0334289969
 20
63.2134543384
 10
244.529076986
 20
63.9972884695
 10
246.0120489094
 20
64.6153098104
 10
247.4697761583
 20
65.0622804545
 10
248.8899040797
 20
65.3344121984
 10
250.2603966855
 20
65.4293986481
 10
251.5696386611
 20
65.3464347666
 10
252.8065338083
 20
65.0862236963
 10
253.960599089
 20
64.6509708001
 10
254.5324916452
 20
64.3521378967
  0
SPLINE
  5
1BD
330
1F
100
AcDbEntity
  8
0
  6
Continuous
 62
     7
370
    15
100
AcDbSpline
210
0.0
220
0.0
230
1.0
 70
     8
 71
     3
 72
     8
 73
     4
 74
     0
 42
0.000000001
 43
0.00000001
 40
0.0
 40
0.0
 40
0.0
 40
0.0
 40
1.0
 40
1.0
 40
1.0
 40
1.0
 10
226.3198665387558
 20
46.207702185103
 30
0.0
 10
226.2709707218981
 20
46.20092861032894
 30
0.0
 10
226.2220763358614
 20
46.19405723766045
 30
0.0
 10
226.173183300886
 20
46.18708867878505
 30
0.0
  0
SPLINE
  5
1BE
330
1F
100
AcDbEntity
  8
0
  6
Continuous
 62
     7
370
    15
100
AcDbSpline
210
0.0
220
0.0
230
1.0
 70
     8
 71
     3
 72
     8
 73
     4
 74
     0
 42
0.000000001
 43
0.00000001
 40
0.0
 40
0.0
 40
0.0
 40
0.0
 40
1.0
 40
1.0
 40
1.0
 40
1.0
 10
226.173183300886
 20
46.18708867878505
 30
0.0
 10
225.7457594017962
 20
46.12616939637491
 30
0.0
 10
225.3184378367258
 20
46.05783951321251
 30
0.0
 10
224.8911719374294
 20
45.98239127722017
 30
0.0
  0
SPLINE
  5
1BF
330
1F
100
AcDbEntity
  8
0
  6
Continuous
 62
     7
370
    15
100
AcDbSpline
210
0.0
220
0.0
230
1.0
 70
     8
 71
     3
 72
     8
 73
     4
 74
     0
 42
0.000000001
 43
0.00000001
 40
0.0
 40
0.0
 40
0.0
 40
0.0
 40
1.0
 40
1.0
 40
1.0
 40
1.0
 10
224.8911719374294
 20
45.98239127722017
 30
0.0
 10
224.3261362147936
 20
45.88261512233458
 30
0.0
 10
223.7606520902346
 20
45.78368473330387
 30
0.0
 10
223.1948291109471
 20
45.68544281191688
 30
0.0
  0
SPLINE
  5
1C0
330
1F
100
AcDbEntity
  8
0
  6
Continuous
 62
     7
370
    15
100
AcDbSpline
210
0.0
220
0.0
230
1.0
 70
     8
 71
     3
 72
     8
 73
     4
 74
     0
 42
0.000000001
 43
0.00000001
 40
0.0
 40
0.0
 40
0.0
 40
0.0
 40
0.0011496337376319
 40
0.0011496337376319
 40
0.0011496337376319
 40
0.0011496337376319
 10
222.3058724634279
 20
46.1987218323926
 30
0.0
 10
222.6024193204801
 20
46.02749724446826
 30
0.0
 10
222.8987489847646
 20
45.85639801451277
 30
0.0
 10
223.1948291109471
 20
45.68544281191688
 30
0.0
  0
LWPOLYLINE
  5
1C1
330
1F
100
AcDbEntity
  8
0
  6
Continuous
 62
     7
370
    15
100
AcDbPolyline
 90
       26
 70
   128
 43
0.0
 10
222.3058724634
 20
46.1987218324
 10
222.9295717561
 20
48.1026968351
 10
223.6718647917
 20
50.0035148547
 10
224.5266432245
 20
51.8855340181
 10
225.4868730639
 20
53.7332671479
 10
226.5446525574
 20
55.5315092078
 10
227.6912772143
 20
57.265462424
 10
228.9173114351
 20
58.9208580576
 10
230.2126661571
 20
60.4840738213
 10
231.566681878
 20
61.9422459782
 10
232.9682163724
 20
63.2833751976
 10
234.4057363822
 20
64.4964252977
 10
235.8674125235
 20
65.5714140623
 10
237.3412166313
 20
66.4994953854
 10
238.8150207392
 20
67.2730320652
 10
240.2766968805
 20
67.8856586515
 10
241.7142168903
 20
68.3323338266
 10
243.1157513847
 20
68.6093818905
 10
244.4697671055
 20
68.7145230087
 10
245.7651218276
 20
68.6468919727
 10
246.9911560484
 20
68.4070453197
 10
248.1377807053
 20
67.996956753
 10
249.1955601988
 20
67.4200009006
 10
250.1557900382
 20
66.6809255449
 10
251.010568471
 20
65.7858125531
 10
251.3287228539
 20
65.3755998762
  0
LINE
  5
1C2
330
1F
100
AcDbEntity
  8
0
  6
Continuous
 62
     7
370
    15
100
AcDbLine
 10
217.6566453771
 20
48.8826635
 30
0.0
 11
222.3058724634
 21
46.1987218324
 31
0.0
  0
SPLINE
  5
1C3
330
1F
100
AcDbEntity
  8
0
  6
Continuous
 62
     7
370
    15
100
AcDbSpline
210
0.0
220
0.0
230
1.0
 70
     8
 71
     3
 72
     9
 73
     5
 74
     0
 42
0.000000001
 43
0.00000001
 40
0.0
 40
0.0
 40
0.0
 40
0.0
 40
0.4340851415816632
 40
1.0
 40
1.0
 40
1.0
 40
1.0
 10
228.4515572245107
 20
44.32286004232723
 30
0.0
 10
228.277612107985
 20
44.6006210340294
 30
0.0
 10
227.8768955206999
 20
45.24049778882939
 30
0.0
 10
227.375172780187
 20
45.7337544538903
 30
0.0
 10
227.0912404265244
 20
46.01289572966215
 30
0.0
  0
SPLINE
  5
1C4
330
1F
100
AcDbEntity
  8
0
  6
Continuous
 62
     7
370
    15
100
AcDbSpline
210
0.0
220
0.0
230
1.0
 70
     8
 71
     3
 72
    12
 73
     8
 74
     0
 42
0.000000001
 43
0.00000001
 40
0.0
 40
0.0
 40
0.0
 40
0.0
 40
0.2026067450386927
 40
0.3787808072204706
 40
0.5286229614284275
 40
0.7989582169838703
 40
1.0
 40
1.0
 40
1.0
 40
1.0
 10
227.5950672036984
 20
31.68925880873653
 30
0.0
 10
227.7010005901157
 20
31.79104005418516
 30
0.0
 10
227.8990469760396
 20
31.98132385892018
 30
0.0
 10
228.1022863080979
 20
32.3890770548088
 30
0.0
 10
228.2811841276682
 20
32.9502168611098
 30
0.0
 10
228.4127085710607
 20
33.66865400521352
 30
0.0
 10
228.4311060122192
 20
34.36270010631015
 30
0.0
 10
228.4389525004245
 20
34.658709996997
 30
0.0
  0
SPLINE
  5
1C5
330
1F
100
AcDbEntity
  8
0
  6
Continuous
 62
     7
370
    15
100
AcDbSpline
210
0.0
220
0.0
230
1.0
 70
     8
 71
     3
 72
     9
 73
     5
 74
     0
 42
0.000000001
 43
0.00000001
 40
0.0
 40
0.0
 40
0.0
 40
0.0
 40
0.5084953388318496
 40
1.0
 40
1.0
 40
1.0
 40
1.0
 10
227.4100800063624
 20
30.19669443899593
 30
0.0
 10
227.4410663290129
 20
30.44937021350264
 30
0.0
 10
227.502003608638
 20
30.94627894640703
 30
0.0
 10
227.5644207271983
 20
31.44431096804642
 30
0.0
 10
227.5950990319074
 20
31.68909602809319
 30
0.0
  0
SPLINE
  5
1C6
330
1F
100
AcDbEntity
  8
0
  6
Continuous
 62
     7
370
    15
100
AcDbSpline
210
0.0
220
0.0
230
1.0
 70
     8
 71
     3
 72
    10
 73
     6
 74
     0
 42
0.000000001
 43
0.00000001
 40
0.0
 40
0.0
 40
0.0
 40
0.0
 40
0.5
 40
0.5
 40
1.0
 40
1.0
 40
1.0
 40
1.0
 10
227.0912404265244
 20
46.01289572966215
 30
0.0
 10
226.9998723261743
 20
46.09513948410837
 30
0.0
 10
226.8767178191258
 20
46.15659564528769
 30
0.0
 10
226.6035123333006
 20
46.2223640086949
 30
0.0
 10
226.4567230203464
 20
46.22666101780362
 30
0.0
 10
226.3198665387546
 20
46.20770218510685
 30
0.0
  0
SPLINE
  5
1C7
330
1F
100
AcDbEntity
  8
0
  6
Continuous
 62
     7
370
    15
100
AcDbSpline
210
0.0
220
0.0
230
1.0
 70
     8
 71
     3
 72
     8
 73
     4
 74
     0
 42
0.000000001
 43
0.00000001
 40
0.0
 40
0.0
 40
0.0
 40
0.0
 40
1.0
 40
1.0
 40
1.0
 40
1.0
 10
217.3478524251946
 20
49.06090721609991
 30
0.0
 10
217.4015315084509
 20
49.02993087533663
 30
0.0
 10
217.5087456027284
 20
48.9680442223899
 30
0.0
 10
217.6566453771263
 20
48.88266350000976
 30
0.0
  0
LINE
  5
1C8
330
1F
100
AcDbEntity
  8
0
  6
Continuous
 62
     7
370
    15
100
AcDbLine
 10
217.3478524252
 20
49.0609072161
 30
0.0
 11
217.4256324096
 21
49.4593008559
 31
0.0
  0
SPLINE
  5
1C9
330
1F
100
AcDbEntity
  8
0
  6
Continuous
 62
     7
370
    15
100
AcDbSpline
210
0.0
220
0.0
230
1.0
 70
     8
 71
     3
 72
    15
 73
    11
 74
     0
 42
0.000000001
 43
0.00000001
 40
0.0
 40
0.0
 40
0.0
 40
0.0
 40
0.1399493580072398
 40
0.2802320306539431
 40
0.4202251584356597
 40
0.560405570222953
 40
0.6788441088018904
 40
0.7975203862097641
 40
0.959100994964035
 40
1.0
 40
1.0
 40
1.0
 40
1.0
 10
220.5297529086346
 20
40.34014139361366
 30
0.0
 10
220.5224622257682
 20
40.66605942831928
 30
0.0
 10
220.507863495959
 20
41.31867173031765
 30
0.0
 10
220.4322795351821
 20
42.32475967090736
 30
0.0
 10
220.3644241998199
 20
43.3273128881377
 30
0.0
 10
220.3358435679729
 20
44.26025806774808
 30
0.0
 10
220.3588310473432
 20
45.11439227622012
 30
0.0
 10
220.4147023440283
 20
45.99647059189868
 30
0.0
 10
220.4825113454208
 20
46.69203284635441
 30
0.0
 10
220.4971692599601
 20
47.14879729812674
 30
0.0
 10
220.5001300228209
 20
47.24105948326029
 30
0.0
  0
LINE
  5
1CA
330
1F
100
AcDbEntity
  8
0
  6
Continuous
 62
     7
370
    15
100
AcDbLine
 10
220.5297529086
 20
38.6562233268
 30
0.0
 11
220.5297529086
 21
40.3401413936
 31
0.0
  0
LINE
  5
1CB
330
1F
100
AcDbEntity
  8
0
  6
Continuous
 62
     7
370
    15
100
AcDbLine
 10
223.1948291109
 20
45.6854428119
 30
0.0
 11
218.1643088318
 21
48.5895003545
 31
0.0
  0
LINE
  5
1CC
330
1F
100
AcDbEntity
  8
0
  6
Continuous
 62
     7
370
    15
100
AcDbLine
 10
218.1643088318
 20
48.5895003545
 30
0.0
 11
217.3478524252
 21
49.0609072161
 31
0.0
  0
LWPOLYLINE
  5
1CD
330
1F
100
AcDbEntity
  8
0
  6
Continuous
 62
     7
370
    15
100
AcDbPolyline
 90
        3
 70
   128
 43
0.0
 10
219.3453490501
 20
45.1473711598
 10
219.4111523578
 20
46.5868606092
 10
219.5585212321
 20
47.7846386678
  0
ARC
  5
1CE
330
1F
100
AcDbEntity
  8
0
  6
Continuous
 62
     7
370
    15
100
AcDbCircle
 10
229.4796355751
 20
44.802445479
 30
0.0
 40
10.14015468791147
100
AcDbArc
 50
178.0506610083
 51
208.0402026415
  0
LINE
  5
1CF
330
1F
100
AcDbEntity
  8
0
  6
Continuous
 62
     7
370
    15
100
AcDbLine
 10
200.4398641229
 20
79.1779070558
 30
0.0
 11
200.6068569569
 21
79.1230650623
 31
0.0
  0
LWPOLYLINE
  5
1D0
330
1F
100
AcDbEntity
  8
0
  6
Continuous
 62
     7
370
    15
100
AcDbPolyline
 90
        3
 70
   128
 43
0.0
 10
191.7758561663
 20
63.8256655063
 10
191.4130254185
 20
64.1868592447
 10
191.4082681351
 20
64.1924288261
  0
SPLINE
  5
1D1
330
1F
100
AcDbEntity
  8
0
  6
Continuous
 62
     7
370
    15
100
AcDbSpline
210
0.0
220
0.0
230
1.0
 70
     8
 71
     3
 72
    10
 73
     6
 74
     0
 42
0.000000001
 43
0.00000001
 40
0.0
 40
0.0
 40
0.0
 40
0.0
 40
0.3513793385339262
 40
0.7054914825718405
 40
1.0
 40
1.0
 40
1.0
 40
1.0
 10
227.0912404265244
 20
33.06585401588987
 30
0.0
 10
227.2295595365732
 20
33.0053351053844
 30
0.0
 10
227.507273514929
 20
32.88382660669387
 30
0.0
 10
227.8723083925437
 20
32.75518978635185
 30
0.0
 10
228.0881382863161
 20
32.7033695577059
 30
0.0
 10
228.1861366169396
 20
32.67984039864887
 30
0.0
  0
SPLINE
  5
1D2
330
1F
100
AcDbEntity
  8
0
  6
Continuous
 62
     7
370
    15
100
AcDbSpline
210
0.0
220
0.0
230
1.0
 70
     8
 71
     3
 72
     8
 73
     4
 74
     0
 42
0.000000001
 43
0.00000001
 40
0.0
 40
0.0
 40
0.0
 40
0.0
 40
1.0
 40
1.0
 40
1.0
 40
1.0
 10
224.8911719374294
 20
32.83608420585959
 30
0.0
 10
225.3184378367258
 20
32.91153244185194
 30
0.0
 10
225.7457594017962
 20
32.99321685447498
 30
0.0
 10
226.173183300886
 20
33.08123278401629
 30
0.0
  0
SPLINE
  5
1D3
330
1F
100
AcDbEntity
  8
0
  6
Continuous
 62
     7
370
    15
100
AcDbSpline
210
0.0
220
0.0
230
1.0
 70
     8
 71
     3
 72
     8
 73
     4
 74
     0
 42
0.000000001
 43
0.00000001
 40
0.0
 40
0.0
 40
0.0
 40
0.0
 40
1.0
 40
1.0
 40
1.0
 40
1.0
 10
226.173183300886
 20
33.08123278401629
 30
0.0
 10
226.2220763358614
 20
33.091300929318
 30
0.0
 10
226.2709707218981
 20
33.10145207660205
 30
0.0
 10
226.3198665387558
 20
33.11168649029478
 30
0.0
  0
ARC
  5
1D4
330
1F
100
AcDbEntity
  8
0
  6
Continuous
 62
     7
370
    15
100
AcDbCircle
 10
229.9251862148
 20
34.9401484187
 30
0.0
 40
8.210891531829478
100
AcDbArc
 50
201.8822030517
 51
263.8526739872
  0
SPLINE
  5
1D5
330
1F
100
AcDbEntity
  8
0
  6
Continuous
 62
     7
370
    15
100
AcDbSpline
210
0.0
220
0.0
230
1.0
 70
     8
 71
     3
 72
     8
 73
     4
 74
     0
 42
0.000000001
 43
0.00000001
 40
0.0
 40
0.0
 40
0.0
 40
0.0
 40
0.0011496337376319
 40
0.0011496337376319
 40
0.0011496337376319
 40
0.0011496337376319
 10
223.1948291109471
 20
32.5391357405563
 30
0.0
 10
222.8987489847646
 20
32.31893967645933
 30
0.0
 10
222.6024193204801
 20
32.09923124406374
 30
0.0
 10
222.3058724634279
 20
31.87995272139507
 30
0.0
  0
SPLINE
  5
1D6
330
1F
100
AcDbEntity
  8
0
  6
Continuous
 62
     7
370
    15
100
AcDbSpline
210
0.0
220
0.0
230
1.0
 70
     8
 71
     3
 72
     8
 73
     4
 74
     0
 42
0.000000001
 43
0.00000001
 40
0.0
 40
0.0
 40
0.0
 40
0.0
 40
1.0
 40
1.0
 40
1.0
 40
1.0
 10
223.1948291109471
 20
32.5391357405563
 30
0.0
 10
223.7606520902346
 20
32.6373776619433
 30
0.0
 10
224.3261362147936
 20
32.73630805097401
 30
0.0
 10
224.8911719374294
 20
32.83608420585959
 30
0.0
  0
SPLINE
  5
1D7
330
1F
100
AcDbEntity
  8
0
  6
Continuous
 62
     7
370
    15
100
AcDbSpline
210
0.0
220
0.0
230
1.0
 70
     8
 71
     3
 72
    10
 73
     6
 74
     0
 42
0.000000001
 43
0.00000001
 40
0.0
 40
0.0
 40
0.0
 40
0.0
 40
0.5
 40
0.5
 40
1.0
 40
1.0
 40
1.0
 40
1.0
 10
226.3198665387558
 20
33.11168649029477
 30
0.0
 10
226.4568307231695
 20
33.14035454851442
 30
0.0
 10
226.6029750675392
 20
33.15153760274703
 30
0.0
 10
226.8747325268458
 20
33.13549184935866
 30
0.0
 10
226.9997098069567
 20
33.10773800082828
 30
0.0
 10
227.0912404265246
 20
33.06585401588998
 30
0.0
  0
LINE
  5
1D8
330
1F
100
AcDbEntity
  8
0
  6
Continuous
 62
     7
370
    15
100
AcDbLine
 10
218.1643088318
 20
35.4431932831
 30
0.0
 11
223.1948291109
 21
32.5391357406
 31
0.0
  0
LINE
  5
1D9
330
1F
100
AcDbEntity
  8
0
  6
Continuous
 62
     7
370
    15
100
AcDbLine
 10
218.1643088318
 20
35.4431932831
 30
0.0
 11
220.1054888399
 21
36.5638126487
 31
0.0
  0
LINE
  5
1DA
330
1F
100
AcDbEntity
  8
0
  6
Continuous
 62
     7
370
    15
100
AcDbLine
 10
217.3478524252
 20
34.9717864215
 30
0.0
 11
218.1643088318
 21
35.4431932831
 31
0.0
  0
LINE
  5
1DB
330
1F
100
AcDbEntity
  8
0
  6
Continuous
 62
     7
370
    15
100
AcDbLine
 10
222.3058724634
 20
31.8799527214
 30
0.0
 11
217.6566453771
 21
34.563894389
 31
0.0
  0
SPLINE
  5
1DC
330
1F
100
AcDbEntity
  8
0
  6
Continuous
 62
     7
370
    15
100
AcDbSpline
210
0.0
220
0.0
230
1.0
 70
     8
 71
     3
 72
     8
 73
     4
 74
     0
 42
0.000000001
 43
0.00000001
 40
0.0
 40
0.0
 40
0.0
 40
0.0
 40
1.0
 40
1.0
 40
1.0
 40
1.0
 10
217.6566453771263
 20
34.56389438901223
 30
0.0
 10
217.5087413544136
 20
34.6492775638923
 30
0.0
 10
217.4015351007468
 20
34.79392678053279
 30
0.0
 10
217.3478524251946
 20
34.97178642145446
 30
0.0
  0
ELLIPSE
  5
1DD
330
1F
100
AcDbEntity
  8
0
  6
Continuous
 62
     7
370
    15
100
AcDbEllipse
 10
219.6368596898
 20
38.1408117976
 30
0.0
 11
-0.0001201194077111722
 21
1.706897922965446
 31
0.0
210
0.0
220
0.0
230
1.0
 40
0.7174342186
 41
3.534193645557456
 42
5.104989972352349
  0
ELLIPSE
  5
1DE
330
1F
100
AcDbEntity
  8
0
  6
Continuous
 62
     7
370
    15
100
AcDbEllipse
 10
219.3983820587
 20
38.0030968374
 30
0.0
 11
0.5200151578418968
 21
1.941087241981862
 31
0.0
210
0.0
220
0.0
230
1.0
 40
0.5176380889
 41
3.619174351347763
 42
5.189970678142621
  0
ARC
  5
1DF
330
1F
100
AcDbEntity
  8
0
  6
Continuous
 62
     7
370
     0
100
AcDbCircle
 10
258.8797200839
 20
38.8554927559
 30
0.0
 40
3.845903925235739
100
AcDbArc
 50
333.4021133941
 51
35.831407501
  0
LWPOLYLINE
  5
1E0
330
1F
100
AcDbEntity
  8
0
  6
Continuous
 62
     7
370
     0
100
AcDbPolyline
 90
       14
 70
   128
 43
0.0
 10
261.739061153
 20
40.8523646365
 10
261.8021591223
 20
40.730822497
 10
262.1150440787
 20
39.9891561773
 10
262.3074504535
 20
39.2488402546
 10
262.3690055693
 20
38.5497853518
 10
262.2963909737
 20
37.9296776998
 10
262.0935213384
 20
37.4219474625
 10
261.7713334181
 20
37.0539665085
 10
261.3471964469
 20
36.8455727863
 10
260.8439757586
 20
36.8080008553
 10
260.2888001108
 20
36.9432762281
 10
259.7115991665
 20
37.2441061743
 10
259.1434899779
 20
37.6942728737
 10
259.0906680458
 20
37.7444177583
  0
LWPOLYLINE
  5
1E1
330
1F
100
AcDbEntity
  8
0
  6
Continuous
 62
     7
370
     0
100
AcDbPolyline
 90
       57
 70
   128
 43
0.0
 10
265.2189014796
 20
43.873723986
 10
264.0313388751
 20
43.1111451285
 10
262.8587105593
 20
42.2041290254
 10
261.7157630137
 20
41.1640819304
 10
260.616869467
 20
40.0040830394
 10
259.5758491429
 20
38.7387200113
 10
258.6057934762
 20
37.3839055204
 10
257.7189014796
 20
35.9566771451
 10
256.9263263347
 20
34.4749831101
 10
256.2380351336
 20
32.9574565779
 10
255.6626835376
 20
31.4231813248
 10
255.207506927
 20
29.8914517526
 10
254.8782294115
 20
28.3815302492
 10
254.6789918472
 20
26.9124049537
 10
254.6122997618
 20
25.502550969
 10
254.6789918472
 20
24.1696980271
 10
254.8782294115
 20
22.930607527
 10
255.207506927
 20
21.8008617507
 10
255.6626835376
 20
20.7946679067
 10
256.2380351336
 20
19.9246794666
 10
256.9263263347
 20
19.2018370398
 10
257.7189014796
 20
18.6352307891
 10
258.6057934762
 20
18.2319861168
 10
259.5758491429
 20
17.9971740589
 10
260.616869467
 20
17.933747513
 10
261.7157630137
 20
18.0425041048
 10
262.8587105593
 20
18.3220761571
 10
264.0313388751
 20
18.768947889
 10
265.2189014796
 20
19.3774996294
 10
266.4064640842
 20
20.1400784869
 10
267.5790924
 20
21.0470945901
 10
268.7220399455
 20
22.087141685
 10
269.8209334923
 20
23.247140576
 10
270.8619538163
 20
24.5125036041
 10
271.832009483
 20
25.867318095
 10
272.7189014796
 20
27.2945464703
 10
273.5114766246
 20
28.7762405053
 10
274.1997678257
 20
30.2937670375
 10
274.7751194216
 20
31.8280422906
 10
275.2302960323
 20
33.3597718628
 10
275.5595735477
 20
34.8696933662
 10
275.7588111121
 20
36.3388186617
 10
275.8255031974
 20
37.7486726464
 10
275.7588111121
 20
39.0815255883
 10
275.5595735477
 20
40.3206160884
 10
275.2302960323
 20
41.4503618648
 10
274.7751194216
 20
42.4565557087
 10
274.1997678257
 20
43.3265441488
 10
273.5114766246
 20
44.0493865756
 10
272.7189014796
 20
44.6159928263
 10
271.832009483
 20
45.0192374986
 10
270.8619538163
 20
45.2540495565
 10
269.8209334923
 20
45.3174761024
 10
268.7220399455
 20
45.2087195106
 10
267.5790924
 20
44.9291474583
 10
266.4064640842
 20
44.4822757264
 10
265.2189014796
 20
43.873723986
  0
LWPOLYLINE
  5
1E2
330
1F
100
AcDbEntity
  8
0
  6
Continuous
 62
     7
370
     0
100
AcDbPolyline
 90
       29
 70
   128
 43
0.0
 10
257.51236357
 20
19.9091317903
 10
258.148522011
 20
19.6032850112
 10
259.0719333524
 20
19.3425122112
 10
260.0689094865
 20
19.2533675213
 10
261.1259680214
 20
19.3370564707
 10
262.2288140537
 20
19.5924473097
 10
263.3625334829
 20
20.0160863155
 10
264.5117946984
 20
20.6022444972
 10
265.661055914
 20
21.342995071
 10
266.7947753432
 20
22.228320656
 10
267.8976213755
 20
23.2462487425
 10
268.9546799104
 20
24.3830135995
 10
269.9516560445
 20
25.6232424322
 10
270.8750673858
 20
26.9501632734
 10
271.7124263802
 20
28.3458317949
 10
272.4524091837
 20
29.7913739742
 10
273.0850087982
 20
31.2672413333
 10
273.6016703992
 20
32.7534752978
 10
273.9954070249
 20
34.229977103
 10
274.2608940629
 20
35.676779595
 10
274.3945412564
 20
37.0743172519
 10
274.3945412564
 20
38.4036907745
 10
274.2608940629
 20
39.6469226663
 10
273.9954070249
 20
40.7872003487
 10
273.6016703992
 20
41.8091035223
 10
273.0850087982
 20
42.6988126997
 10
272.4524091837
 20
43.4442960904
 10
271.7124263802
 20
44.0354723107
 10
271.4918362816
 20
44.1696314495
  0
LWPOLYLINE
  5
1E3
330
1F
100
AcDbEntity
  8
0
  6
Continuous
 62
     7
370
     0
100
AcDbPolyline
 90
       18
 70
   128
 43
0.0
 10
226.3198665388
 20
46.2077021851
 10
226.9451673628
 20
47.969616082
 10
227.687927989
 20
49.7206509466
 10
228.5407957792
 20
51.4434731651
 10
229.4953281368
 20
53.1210284027
 10
230.5420760808
 20
54.7367104254
 10
231.6706777817
 20
56.2745254863
 10
232.8699611341
 20
57.7192506491
 10
234.1280543502
 20
59.0565844806
 10
235.4325034792
 20
60.2732886218
 10
236.77039569
 20
61.3573188352
 10
238.1284870961
 20
62.2979442318
 10
239.4933338579
 20
63.0858534963
 10
240.8514252641
 20
63.713247061
 10
242.1893174749
 20
64.1739143143
 10
243.4937666038
 20
64.4632950795
 10
244.7518598199
 20
64.5785247566
 10
245.7984166863
 20
64.5362404295
  0
LWPOLYLINE
  5
1E4
330
1F
100
AcDbEntity
  8
0
  6
Continuous
 62
     7
370
     0
100
AcDbPolyline
 90
       23
 70
   128
 43
0.0
 10
217.6566453771
 20
48.8826635
 10
218.2803446698
 20
50.7866385027
 10
219.0226377054
 20
52.6874565224
 10
219.8774161382
 20
54.5694756857
 10
220.8376459776
 20
56.4172088156
 10
221.8954254711
 20
58.2154508754
 10
223.042050128
 20
59.9494040916
 10
224.2680843488
 20
61.6047997252
 10
225.5634390708
 20
63.1680154889
 10
226.9174547917
 20
64.6261876458
 10
228.3189892861
 20
65.9673168653
 10
229.7565092959
 20
67.1803669653
 10
231.2181854372
 20
68.2553557299
 10
232.691989545
 20
69.183437053
 10
234.1657936529
 20
69.9569737329
 10
235.6274697942
 20
70.5696003191
 10
237.064989804
 20
71.0162754942
 10
238.4665242984
 20
71.2933235581
 10
239.8205400192
 20
71.3984646764
 10
241.1158947413
 20
71.3308336403
 10
242.3419289621
 20
71.0909869873
 10
243.488553619
 20
70.6808984207
 10
244.1910549704
 20
70.3221222144
  0
LWPOLYLINE
  5
1E5
330
1F
100
AcDbEntity
  8
0
  6
Continuous
 62
     7
370
     0
100
AcDbPolyline
 90
       17
 70
   128
 43
0.0
 10
227.0912404265
 20
46.0128957297
 10
227.7062064308
 20
47.7319204395
 10
228.4350904834
 20
49.4397041421
 10
229.2707312304
 20
51.1194677029
 10
230.2049184234
 20
52.7547072879
 10
231.2284735858
 20
54.3293565155
 10
232.3313401926
 20
55.8279443097
 10
233.5026824761
 20
57.2357469054
 10
234.7309918891
 20
58.5389325104
 10
236.0042001767
 20
59.7246972045
 10
237.3097979485
 20
60.7813907387
 10
238.6349575843
 20
61.6986310002
 10
239.9666592669
 20
62.4674060177
 10
241.2918189027
 20
63.0801625048
 10
242.5974166744
 20
63.5308800718
 10
243.870624962
 20
63.8151303764
 10
244.2634947023
 20
63.8697624978
  0
LINE
  5
1E6
330
1F
100
AcDbEntity
  8
0
  6
Continuous
 62
     7
370
     0
100
AcDbLine
 10
227.9160702612
 20
45.1205001332
 30
0.0
 11
227.6311622005
 21
45.3656004357
 31
0.0
  0
LINE
  5
1E7
330
1F
100
AcDbEntity
  8
0
  6
Continuous
 62
     7
370
     0
100
AcDbLine
 10
226.8583586003
 20
45.811558666
 30
0.0
 11
226.2010639825
 21
46.1910067721
 31
0.0
  0
ARC
  5
1E8
330
1F
100
AcDbEntity
  8
0
  6
Continuous
 62
     7
370
     0
100
AcDbCircle
 10
223.6351779441
 20
40.236329375
 30
0.0
 40
6.439881613030127
100
AcDbArc
 50
56.2191255253
 51
59.9667101493
  0
SPLINE
  5
1E9
330
1F
100
AcDbEntity
  8
0
  6
Continuous
 62
     7
370
     0
100
AcDbSpline
210
0.0
220
0.0
230
1.0
 70
     8
 71
     3
 72
     8
 73
     4
 74
     0
 42
0.000000001
 43
0.00000001
 40
0.0
 40
0.0
 40
0.0
 40
0.0
 40
1.0
 40
1.0
 40
1.0
 40
1.0
 10
227.4349056336951
 20
45.46144846254933
 30
0.0
 10
227.3618704590138
 20
45.49767663553015
 30
0.0
 10
227.2888584315288
 20
45.54020355246516
 30
0.0
 10
227.2158693208654
 20
45.58896652449141
 30
0.0
  0
SPLINE
  5
1EA
330
1F
100
AcDbEntity
  8
0
  6
Continuous
 62
     7
370
     0
100
AcDbSpline
210
0.0
220
0.0
230
1.0
 70
     8
 71
     3
 72
    12
 73
     8
 74
     0
 42
0.000000001
 43
0.00000001
 40
0.0
 40
0.0
 40
0.0
 40
0.0
 40
0.2499999999999953
 40
0.2499999999999953
 40
0.4999999999999907
 40
0.4999999999999907
 40
1.0
 40
1.0
 40
1.0
 40
1.0
 10
227.6311622005355
 20
45.36560043567111
 30
0.0
 10
227.6144458357417
 20
45.37921339402931
 30
0.0
 10
227.598196881212
 20
45.38555541935179
 30
0.0
 10
227.5655314183125
 20
45.40084590131465
 30
0.0
 10
227.5492232989465
 20
45.40810828204251
 30
0.0
 10
227.5002807202367
 20
45.43017886012112
 30
0.0
 10
227.4676313445024
 20
45.44521528836693
 30
0.0
 10
227.4349056336951
 20
45.46144846254934
 30
0.0
  0
SPLINE
  5
1EB
330
1F
100
AcDbEntity
  8
0
  6
Continuous
 62
     7
370
     0
100
AcDbSpline
210
0.0
220
0.0
230
1.0
 70
     8
 71
     3
 72
    11
 73
     7
 74
     0
 42
0.000000001
 43
0.00000001
 40
0.0
 40
0.0
 40
0.0
 40
0.0
 40
0.0381459392742484
 40
0.4736808686914999
 40
0.9124363688729341
 40
1.0
 40
1.0
 40
1.0
 40
1.0
 10
227.6311622005356
 20
34.83188037846678
 30
0.0
 10
227.6417202430513
 20
34.82831920624452
 30
0.0
 10
227.772825751153
 20
34.78409800776573
 30
0.0
 10
228.0220195113944
 20
34.71782077541975
 30
0.0
 10
228.2807448944877
 20
34.66762377961282
 30
0.0
 10
228.4163859237173
 20
34.65998145014844
 30
0.0
 10
228.4389525004245
 20
34.658709996997
 30
0.0
  0
SPLINE
  5
1EC
330
1F
100
AcDbEntity
  8
0
  6
Continuous
 62
     7
370
     0
100
AcDbSpline
210
0.0
220
0.0
230
1.0
 70
     8
 71
     3
 72
    12
 73
     8
 74
     0
 42
0.000000001
 43
0.00000001
 40
0.0
 40
0.0
 40
0.0
 40
0.0
 40
0.5000000000000093
 40
0.5000000000000093
 40
0.7500000000000047
 40
0.7500000000000047
 40
1.0
 40
1.0
 40
1.0
 40
1.0
 10
227.4349056336952
 20
34.96262536049531
 30
0.0
 10
227.4676316681038
 20
34.94107402013731
 30
0.0
 10
227.5002808528459
 20
34.91841440216577
 30
0.0
 10
227.5492235657044
 20
34.88397698604445
 30
0.0
 10
227.5655317378933
 20
34.87241037550736
 30
0.0
 10
227.5981972417119
 20
34.84998610100484
 30
0.0
 10
227.614446339237
 20
34.83756755277932
 30
0.0
 10
227.6311622005355
 20
34.83188037846742
 30
0.0
  0
SPLINE
  5
1ED
330
1F
100
AcDbEntity
  8
0
  6
Continuous
 62
     7
370
     0
100
AcDbSpline
210
0.0
220
0.0
230
1.0
 70
     8
 71
     3
 72
    11
 73
     7
 74
     0
 42
0.000000001
 43
0.00000001
 40
0.0
 40
0.0
 40
0.0
 40
0.0
 40
0.000121716006687
 40
0.000121716006687
 40
0.000121716006687
 40
0.0003100832903278
 40
0.0003100832903278
 40
0.0003100832903278
 40
0.0003100832903278
 10
227.2158693208654
 20
35.08800124234754
 30
0.0
 10
227.2444697835437
 20
35.07408740759644
 30
0.0
 10
227.2731478464364
 20
35.05916827389975
 30
0.0
 10
227.3018307071653
 20
35.04328055229865
 30
0.0
 10
227.3461937203314
 20
35.01870743843702
 30
0.0
 10
227.3906429604045
 20
34.99177401704598
 30
0.0
 10
227.4349056336951
 20
34.96262536049534
 30
0.0
  0
ARC
  5
1EE
330
1F
100
AcDbEntity
  8
0
  6
Continuous
 62
     7
370
     0
100
AcDbCircle
 10
229.7243198273
 20
40.2346223994
 30
0.0
 40
5.725384989433244
100
AcDbArc
 50
239.9622210953
 51
244.0155097316
  0
LINE
  5
1EF
330
1F
100
AcDbEntity
  8
0
  6
Continuous
 62
     7
370
     0
100
AcDbLine
 10
220.7682305397
 20
38.7939382871
 30
0.0
 11
226.8583586003
 21
35.2781821927
 31
0.0
  0
LINE
  5
1F0
330
1F
100
AcDbEntity
  8
0
  6
Continuous
 62
     7
370
     0
100
AcDbLine
 10
220.5297529086
 20
38.6562233268
 30
0.0
 11
220.7682305397
 21
38.7939382871
 31
0.0
  0
LINE
  5
1F1
330
1F
100
AcDbEntity
  8
0
  6
Continuous
 62
     7
370
     0
100
AcDbLine
 10
227.4013080799
 20
45.6971334717
 30
0.0
 11
227.4349056337
 21
45.4614484625
 31
0.0
  0
LWPOLYLINE
  5
1F2
330
1F
100
AcDbEntity
  8
0
  6
Continuous
 62
     7
370
     0
100
AcDbPolyline
 90
        3
 70
   128
 43
0.0
 10
227.1923248145
 20
45.9264126504
 10
227.2114318993
 20
45.820523383
 10
227.2158693209
 20
45.5889665245
  0
LWPOLYLINE
  5
1F3
330
1F
100
AcDbEntity
  8
0
  6
Continuous
 62
     7
370
     0
100
AcDbPolyline
 90
        3
 70
   128
 43
0.0
 10
226.8054087245
 20
46.1759949481
 10
226.8366196266
 20
46.0538877596
 10
226.8583586003
 20
45.811558666
  0
LWPOLYLINE
  5
1F4
330
1F
100
AcDbEntity
  8
0
  6
Continuous
 62
     7
370
     0
100
AcDbPolyline
 90
        3
 70
   128
 43
0.0
 10
220.0524558313
 20
44.7391671039
 10
220.118259139
 20
46.1786565533
 10
220.2656280132
 20
47.3764346119
  0
ARC
  5
1F5
330
1F
100
AcDbEntity
  8
0
  6
Continuous
 62
     7
370
     0
100
AcDbCircle
 10
231.9365710802
 20
44.6015751323
 30
0.0
 40
11.88491172870847
100
AcDbArc
 50
179.3366702626
 51
195.0115981598
  0
LWPOLYLINE
  5
1F6
330
1F
100
AcDbEntity
  8
0
  6
Continuous
 62
     7
370
     0
100
AcDbPolyline
 90
       17
 70
   128
 43
0.0
 10
190.370789979
 20
67.5855694602
 10
190.437697048
 20
68.6798193927
 10
190.6369922471
 20
69.8279965452
 10
190.964427945
 20
71.0056295152
 10
191.4130254185
 20
72.1876191004
 10
191.973223591
 20
73.3487732451
 10
192.6330828113
 20
74.4643439644
 10
193.3785393256
 20
75.5105548054
 10
194.1937050225
 20
76.4651076004
 10
195.0612060605
 20
77.3076577137
 10
195.9625531611
 20
78.0202476525
 10
196.8785356756
 20
78.5876897994
 10
197.7896310271
 20
78.9978901102
 10
198.6764207999
 20
79.2421058775
 10
199.5200046097
 20
79.3151320661
 10
200.3024029321
 20
79.2154122497
 10
200.4398641229
 20
79.1779070558
  0
ARC
  5
1F7
330
1F
100
AcDbEntity
  8
0
  6
Continuous
 62
     7
370
     0
100
AcDbCircle
 10
195.5528467669
 20
67.3148434512
 30
0.0
 40
5.189123733900795
100
AcDbArc
 50
177.0094174044
 51
216.9933917801
  0
ARC
  5
1F8
330
1F
100
AcDbEntity
  8
0
  6
Continuous
 62
     7
370
     0
100
AcDbCircle
 10
225.4406768011
 20
34.5360232124
 30
0.0
 40
2.210375024261165
100
AcDbArc
 50
318.3083095737
 51
7.6920861831
  0
LWPOLYLINE
  5
1F9
330
1F
100
AcDbEntity
  8
0
  6
Continuous
 62
     7
370
     0
100
AcDbPolyline
 90
        3
 70
   128
 43
0.0
 10
227.8056467358
 20
31.9213094767
 10
227.7062064308
 20
32.0568539413
 10
227.0912404265
 20
33.0658540159
  0
LWPOLYLINE
  5
1FA
330
1F
100
AcDbEntity
  8
0
  6
Continuous
 62
     7
370
     0
100
AcDbPolyline
 90
        3
 70
   128
 43
0.0
 10
227.4937299684
 20
31.38503782
 10
226.9451673628
 20
32.0717295576
 10
226.3198665388
 20
33.1116864903
  0
ARC
  5
1FB
330
1F
100
AcDbEntity
  8
0
  6
Continuous
 62
     7
370
     0
100
AcDbCircle
 10
224.8073868343
 20
35.2841609613
 30
0.0
 40
2.647119223530975
100
AcDbArc
 50
304.8456886156
 51
353.0232693864
  0
LINE
  5
1FC
330
1F
100
AcDbEntity
  8
0
  6
Continuous
 62
     7
370
     0
100
AcDbLine
 10
225.7269877504
 20
33.3185904042
 30
0.0
 11
220.1054888399
 21
36.5638126487
 31
0.0
  0
LINE
  5
1FD
330
1F
100
AcDbEntity
  8
0
  6
Continuous
 62
     7
370
     0
100
AcDbLine
 10
224.8911719374
 20
32.8360842059
 30
0.0
 11
225.7269877504
 21
33.3185904042
 31
0.0
  0
ARC
  5
1FE
330
1F
100
AcDbEntity
  8
0
  6
Continuous
 62
     7
370
     0
100
AcDbCircle
 10
224.9107537645
 20
35.0114377877
 30
0.0
 40
2.306386717508094
100
AcDbArc
 50
303.1862550559
 51
1.9023561302
  0
ARC
  5
1FF
330
1F
100
AcDbEntity
  8
0
  6
Continuous
 62
     7
370
     0
100
AcDbCircle
 10
229.3038850957
 20
39.5045351583
 30
0.0
 40
7.145635529420376
100
AcDbArc
 50
239.9622210953
 51
244.0155097316
  0
ARC
  5
200
330
1F
100
AcDbEntity
  8
0
  6
Continuous
 62
     7
370
     0
100
AcDbCircle
 10
224.4020128381
 20
35.3899595563
 30
0.0
 40
2.458887692115383
100
AcDbArc
 50
302.60547834
 51
357.3945215143
  0
ARC
  5
201
330
1F
100
AcDbEntity
  8
0
  6
Continuous
 62
     7
370
     0
100
AcDbCircle
 10
225.6683973114
 20
37.9354155935
 30
0.0
 40
8.69225657052151
100
AcDbArc
 50
202.8224273131
 51
239.0105338974
  0
OLE2FRAME
  5
202
330
1F
100
AcDbEntity
  8
0
100
AcDbOle2Frame
 70
     2
  3
Paintbrush-Bild
 10
13.8511154363
 20
38.264191557
 30
0.0
 11
51.6290888628
 21
31.9806341108
 31
0.0
 71
     2
 72
     0
 73
     1
 90
    12928
310
80552BED0767C5B32B40DDAF6807D121434000000000000000006FFBDDFB85D0
310
4940DDAF6807D121434000000000000000006FFBDDFB85D04940416F4BD60AFB
310
3F4000000000000000002BED0767C5B32B40416F4BD60AFB3F40000000000000
310
0000000000000100000000010000010000000100000000000100000000320000
310
D0CF11E0A1B11AE1000000000000000000000000000000003E000300FEFF0900
310
0600000000000000000000000100000001000000000000000010000002000000
310
01000000FEFFFFFF0000000000000000FFFFFFFFFFFFFFFFFFFFFFFFFFFFFFFF
310
FFFFFFFFFFFFFFFFFFFFFFFFFFFFFFFFFFFFFFFFFFFFFFFFFFFFFFFFFFFFFFFF
310
FFFFFFFFFFFFFFFFFFFFFFFFFFFFFFFFFFFFFFFFFFFFFFFFFFFFFFFFFFFFFFFF
310
FFFFFFFFFFFFFFFFFFFFFFFFFFFFFFFFFFFFFFFFFFFFFFFFFFFFFFFFFFFFFFFF
310
FFFFFFFFFFFFFFFFFFFFFFFFFFFFFFFFFFFFFFFFFFFFFFFFFFFFFFFFFFFFFFFF
310
FFFFFFFFFFFFFFFFFFFFFFFFFFFFFFFFFFFFFFFFFFFFFFFFFFFFFFFFFFFFFFFF
310
FFFFFFFFFFFFFFFFFFFFFFFFFFFFFFFFFFFFFFFFFFFFFFFFFFFFFFFFFFFFFFFF
310
FFFFFFFFFFFFFFFFFFFFFFFFFFFFFFFFFFFFFFFFFFFFFFFFFFFFFFFFFFFFFFFF
310
FFFFFFFFFFFFFFFFFFFFFFFFFFFFFFFFFFFFFFFFFFFFFFFFFFFFFFFFFFFFFFFF
310
FFFFFFFFFFFFFFFFFFFFFFFFFFFFFFFFFFFFFFFFFFFFFFFFFFFFFFFFFFFFFFFF
310
FFFFFFFFFFFFFFFFFFFFFFFFFFFFFFFFFFFFFFFFFFFFFFFFFFFFFFFFFFFFFFFF
310
FFFFFFFFFFFFFFFFFFFFFFFFFFFFFFFFFFFFFFFFFFFFFFFFFFFFFFFFFFFFFFFF
310
FFFFFFFFFFFFFFFFFFFFFFFFFFFFFFFFFFFFFFFFFFFFFFFFFFFFFFFFFFFFFFFF
310
FFFFFFFFFFFFFFFFFFFFFFFFFFFFFFFFFFFFFFFFFFFFFFFFFFFFFFFFFFFFFFFF
310
FDFFFFFFFEFFFFFFFEFFFFFFFEFFFFFF05000000060000000700000008000000
310
090000000A0000000B0000000C0000000D0000000E0000000F00000010000000
310
11000000120000001300000014000000150000001600000017000000FEFFFFFF
310
FFFFFFFFFFFFFFFFFFFFFFFFFFFFFFFFFFFFFFFFFFFFFFFFFFFFFFFFFFFFFFFF
310
FFFFFFFFFFFFFFFFFFFFFFFFFFFFFFFFFFFFFFFFFFFFFFFFFFFFFFFFFFFFFFFF
310
FFFFFFFFFFFFFFFFFFFFFFFFFFFFFFFFFFFFFFFFFFFFFFFFFFFFFFFFFFFFFFFF
310
FFFFFFFFFFFFFFFFFFFFFFFFFFFFFFFFFFFFFFFFFFFFFFFFFFFFFFFFFFFFFFFF
310
FFFFFFFFFFFFFFFFFFFFFFFFFFFFFFFFFFFFFFFFFFFFFFFFFFFFFFFFFFFFFFFF
310
FFFFFFFFFFFFFFFFFFFFFFFFFFFFFFFFFFFFFFFFFFFFFFFFFFFFFFFFFFFFFFFF
310
FFFFFFFFFFFFFFFFFFFFFFFFFFFFFFFFFFFFFFFFFFFFFFFFFFFFFFFFFFFFFFFF
310
FFFFFFFFFFFFFFFFFFFFFFFFFFFFFFFFFFFFFFFFFFFFFFFFFFFFFFFFFFFFFFFF
310
FFFFFFFFFFFFFFFFFFFFFFFFFFFFFFFFFFFFFFFFFFFFFFFFFFFFFFFFFFFFFFFF
310
FFFFFFFFFFFFFFFFFFFFFFFFFFFFFFFFFFFFFFFFFFFFFFFFFFFFFFFFFFFFFFFF
310
FFFFFFFFFFFFFFFFFFFFFFFFFFFFFFFFFFFFFFFFFFFFFFFFFFFFFFFFFFFFFFFF
310
FFFFFFFFFFFFFFFFFFFFFFFFFFFFFFFFFFFFFFFFFFFFFFFFFFFFFFFFFFFFFFFF
310
FFFFFFFFFFFFFFFFFFFFFFFFFFFFFFFFFFFFFFFFFFFFFFFFFFFFFFFFFFFFFFFF
310
52006F006F007400200045006E00740072007900000000000000000000000000
310
0000000000000000000000000000000000000000000000000000000000000000
310
16000500FFFFFFFFFFFFFFFF020000000A00030000000000C000000000000046
310
00000000000000000000000010D0FD132E25D20103000000C000000000000000
310
01004F006C006500000000000000000000000000000000000000000000000000
310
0000000000000000000000000000000000000000000000000000000000000000
310
0A000200FFFFFFFFFFFFFFFFFFFFFFFF00000000000000000000000000000000
310
0000000000000000000000000000000000000000000000001400000000000000
310
010043006F006D0070004F0062006A0000000000000000000000000000000000
310
0000000000000000000000000000000000000000000000000000000000000000
310
120002010100000003000000FFFFFFFF00000000000000000000000000000000
310
0000000000000000000000000000000000000000010000004D00000000000000
310
01004F006C006500310030004E00610074006900760065000000000000000000
310
0000000000000000000000000000000000000000000000000000000000000000
310
1A000200FFFFFFFFFFFFFFFFFFFFFFFF00000000000000000000000000000000
310
0000000000000000000000000000000000000000040000002426000000000000
310
FEFFFFFF02000000FEFFFFFFFFFFFFFFFFFFFFFFFFFFFFFFFFFFFFFFFFFFFFFF
310
FFFFFFFFFFFFFFFFFFFFFFFFFFFFFFFFFFFFFFFFFFFFFFFFFFFFFFFFFFFFFFFF
310
FFFFFFFFFFFFFFFFFFFFFFFFFFFFFFFFFFFFFFFFFFFFFFFFFFFFFFFFFFFFFFFF
310
FFFFFFFFFFFFFFFFFFFFFFFFFFFFFFFFFFFFFFFFFFFFFFFFFFFFFFFFFFFFFFFF
310
FFFFFFFFFFFFFFFFFFFFFFFFFFFFFFFFFFFFFFFFFFFFFFFFFFFFFFFFFFFFFFFF
310
FFFFFFFFFFFFFFFFFFFFFFFFFFFFFFFFFFFFFFFFFFFFFFFFFFFFFFFFFFFFFFFF
310
FFFFFFFFFFFFFFFFFFFFFFFFFFFFFFFFFFFFFFFFFFFFFFFFFFFFFFFFFFFFFFFF
310
FFFFFFFFFFFFFFFFFFFFFFFFFFFFFFFFFFFFFFFFFFFFFFFFFFFFFFFFFFFFFFFF
310
FFFFFFFFFFFFFFFFFFFFFFFFFFFFFFFFFFFFFFFFFFFFFFFFFFFFFFFFFFFFFFFF
310
FFFFFFFFFFFFFFFFFFFFFFFFFFFFFFFFFFFFFFFFFFFFFFFFFFFFFFFFFFFFFFFF
310
FFFFFFFFFFFFFFFFFFFFFFFFFFFFFFFFFFFFFFFFFFFFFFFFFFFFFFFFFFFFFFFF
310
FFFFFFFFFFFFFFFFFFFFFFFFFFFFFFFFFFFFFFFFFFFFFFFFFFFFFFFFFFFFFFFF
310
FFFFFFFFFFFFFFFFFFFFFFFFFFFFFFFFFFFFFFFFFFFFFFFFFFFFFFFFFFFFFFFF
310
FFFFFFFFFFFFFFFFFFFFFFFFFFFFFFFFFFFFFFFFFFFFFFFFFFFFFFFFFFFFFFFF
310
FFFFFFFFFFFFFFFFFFFFFFFFFFFFFFFFFFFFFFFFFFFFFFFFFFFFFFFFFFFFFFFF
310
FFFFFFFFFFFFFFFFFFFFFFFFFFFFFFFFFFFFFFFFFFFFFFFFFFFFFFFFFFFFFFFF
310
0100000200000000000000000000000000000000000000000000000000000000
310
0000000000000000000000000000000000000000000000000000000000000000
310
0100FEFF030A0000FFFFFFFF0A00030000000000C00000000000004607000000
310
5042727573680007000000504272757368000700000050427275736800F439B2
310
7100000000000000000000000000000000000000000000000000000000000000
310
0000000000000000000000000000000000000000000000000000000000000000
310
0000000000000000000000000000000000000000000000000000000000000000
310
0000000000000000000000000000000000000000000000000000000000000000
310
0000000000000000000000000000000000000000000000000000000000000000
310
0000000000000000000000000000000000000000000000000000000000000000
310
0000000000000000000000000000000000000000000000000000000000000000
310
0000000000000000000000000000000000000000000000000000000000000000
310
0000000000000000000000000000000000000000000000000000000000000000
310
0000000000000000000000000000000000000000000000000000000000000000
310
0000000000000000000000000000000000000000000000000000000000000000
310
0000000000000000000000000000000000000000000000000000000000000000
310
20260000424D0E260000000000003E00000028000000B40200006E0000000100
310
01000000000000000000130B0000130B00000200000002000000000000FFFFFF
310
FFFFFFFFFFFFFFFFFFFFFFFFFFFFFFFFFFFFFFFFFFFFFFFFFFFFFFFFFFFFFFFF
310
FFFFFFFFFFFFFFFFFFFFFFFFFFFFFFFFFFFFFFFFFFFFFFFFFFFFFFFFFFFFFFFF
310
FFFFFFFFFFFFFFFFFFFFFFFFFFFFFFFFFFFFFFFFFFFFFFFFF000FFFFFFFFFFFF
310
FFFFFFFFFFFFFFFFFFFFFFFFFFFFFFFFFFFFFFFFFFFFFFFFFFFFFFFFFFFFFFFF
310
FFFFFFFFFFFFFFFFFFFFFFFFFFFFFFFFFFFFFFFFFFFFFFFFFFFFFFFFFFFFFFFF
310
FFFFFFFFFFFFFFFFFFFFFFFFFFFFFFFFF000FFFFFFFFFFFFFFFFFFFFFFFFFFFF
310
FFFFFFFFFFFFFFFFFFFFFFFFFFFFFFFFFFFFFFFFFFFFFFFFFFFFFFFFFFFFFFFF
310
FFFFFFFFFFFFFFFFFFFFFFFFFFFFFFFFFFFFFFFFFFFFFFFFFFFFFFFFFFFFFFFF
310
FFFFFFFFFFFFFFFFF000FFFFFFFFFFFFFFFFFFFFFFFFFFFFFFFFFFFFFFFFFFFF
310
FFFFFFFFFFFFFFFFFFFFFFFFFFFFFFFFFFFFFFFFFFFFFFFFFFFFFFFFFFFFFFFF
310
FFFFFFFFFFFFFFFFFFFFFFFFFFFFFFFFFFFFFFFFFFFFFFFFFFFFFFFFFFFFFFFF
310
F000FFFFFFFFFFFFFFFFFFFFFFFFFFFFFFFFFFFFFFFFFFFFFFFFFFFFFFFFFFFF
310
FFFFFFFFFFFFFFFFFFFFFFFFFFFFFFFFFFFFFFFFFFFFFFFFFFFFFFFFFFFFFFFF
310
FFFFFFFFFFFFFFFFFFFFFFFFFFFFFFFFFFFFFFFFFFFFFFFFF000FFFFFFFFFFFF
310
FFFFFFFFFFFFFFFFFFFFFFFFFFFFFFFFFFFFFFFFFFFFFFFFFFFFFFFFFFFFFFFF
310
FFFFFFFFFFFFFFFFFFFFFFFFFFFFFFFFFFFFFFFFFFFFFFFFFFFFFFFFFFFFFFFF
310
FFFFFFFFFFFFFFFFFFFFFFFFFFFFFFFFF000FFFFFFFFFFFFFFFFFFFFFFFFFFFF
310
FFFFFFFFFFFFFFFFFFFFFFFFFFFFFFFFFFFFFFFFFFFFFFFFFFFFFFFFFFFFFFFF
310
FFFFFFFFFFFFFFFFFFFFFFFFFFFFFFFFFFFFFFFFFFFFFFFFFFFFFFFFFFFFFFFF
310
FFFFFFFFFFFFFFFFF000FFFFFFFFFFFFFFFFFFFFFFFFFFFFFFFFFFFFFFFFFFFF
310
FFFFFFFFFFFFFFFFFFFFFFFFFFFFFFFFFFFFFFFFFFFFFFFFFFFFFFFFFFFFFFFF
310
FFFFFFFFFFFFFFFFFFFFFFFFFFFFFFFFFFFFFFFFFFFFFFFFFFFFFFFFFFFFFFFF
310
F000FFFFFFFFFFFFFFFFFFFFFFFFFFFFFFFFFFFFFFFFFFFFFFFFFFFFFFFFFFFF
310
FFFFFFFFFFFFFFFFFFFFFFFFFFFFFFFFFFFFFFFFFFFFFFFFFFFFFFFFFFFFFFFF
310
FFFFFFFFFFFFFFFFFFFFFFFFFFFFFFFFFFFFFFFFFFFFFFFFF000FFFFFFFFFFFF
310
FFFFFFFFFFFFFFFFFFFFFFFFFFFFFFFFFFFFFFFFFFFFFFFFFFFFFFFFFFFFFFFF
310
FFFFFFFFFFFFFFFFFFFFFFFFFFFFFFFFFFFFFFFFFFFFFFFFFFFFFFFFFFFFFFFF
310
FFFFFFFFFFFFFFFFFFFFFFFFFFFFFFFFF000FFFFFFFFFFFFFFFFFFFFFFFFFFFF
310
FFFFFFFFFFFFFFFFFFFFFFFFFFFFFFFFFFFFFFFFFFFFFFFFFFFFFFFFFFFFFFFF
310
FFFFFFFFFFFFFFFFFFFFFFFFFFFFFFFFFFFFFFFFFFFFFFFFFFFFFFFFFFFFFFFF
310
FFFFFFFFFFFFFFFFF000FFFFFFFFFFFFFFFFFFFFFFFFFFFFFFFFFFFFFFFFFFFF
310
FFFFFFFFFFFFFFFFFFFFFFFFFFFFFFFFFFFFFFFFFFFFFFFFFFFFFFFFFFFFFFFF
310
FFFFFFFFFFFFFFFFFFFFFFFFFFFFFFFFFFFFFFFFFFFFFFFFFFFFFFFFFFFFFFFF
310
F000FFFFFFFFFFFFFFFFFFFFFFFFFFFFFFFFFFFFFFFFFFFFFFFFFFFFFFFFFFFF
310
FFFFFFFFFFFFFFFFFFFFFFFFFFFFFFFFFFFFFFFFFFFFFFFFFFFFFFFFFFFFFFFF
310
FFFFFFFFFFFFFFFFFFFFFFFFFFFFFFFFFFFFFFFFFFFFFFFFF000FFFFFFFFFFFF
310
FFFFFFFFFFFFFFFFFFFFFFFFFFFFFFFFFFFFFFFFFFFFFFFFFFFFFFFFFFFFFFFF
310
FFFFFFFFFFFFFFFFFFFFFFFFFFFFFFFFFFFFFFFFFFFFFFFFFFFFFFFFFFFFFFFF
310
FFFFFFFFFFFFFFFFFFFFFFFFFFFFFFFFF000FFFFFFFFFFFFFFFFFFFFFFFFFFFF
310
FFFFFFFFFFFFFFFFFFFFFFFFFFFFFFFFFFFFFFFFFFFFFFFFFFFFFFFFFFFFFFFF
310
FFFFFFFFFFFFFFFFFFFFFFFFFFFFFFFFFFFFFFFFFFFFFFFFFFFFFFFFFFFFFFFF
310
FFFFFFFFFFFFFFFFF000FFFFFFFFFFFFFFFFFFFFFFFFFFFFFFFFFFFFFFFFFFFF
310
FFFFFFFFFFFFFFFFFFFFFFFFFFFFFFFFFFFFFFFFFFFFFFFFFFFFFFFFFFFFFFFF
310
FFFFFFFFFFFFFFFFFFFFFFFFFFFFFFFFFFFFFFFFFFFFFFFFFFFFFFFFFFFFFFFF
310
F000FFFFFFFFFFFFFFFFFFFFFFFFFFFFFFFFFFFFFFFFFFFFFFFFFFFFFFFFFFFF
310
FFFFFFFFFFFFFFFFFFFFFFFFFFFFFFFFFFFFFFFFFFFFFFFFFFFFFFFFFFFFFFFF
310
FFFFFFFFFFFFFFFFFFFFFFFFFFFFFFFFFFFFFFFFFFFFFFFFF000FFFFFFFFFFFF
310
FFFFFFFFFFFFFFFFFFFFFFFFFFFFFFFFFFFFFFFFFFFFFFFFFFFFFFFFFFFFFFFF
310
FFFFFFFFFFFFFFFFFFFFFFFFFFFFFFFFFFFFFFFFFFFFFFFFFFFFFFFFFFFFFFFF
310
FFFFFFFFFFFFFFFFFFFFFFFFFFFFFFFFF000FFFFFFFFFFFFFFFFFFFFFFFFFFFF
310
FFFFFFFFFFFFFFFFFFFFFFFFFFFFFFFFFFFFFFFFFFFFFFFFFFFFFFFFFFFFFFFF
310
FFFFFFFFFFFFFFFFFFFFFFFFFFFFFFFFFFFFFFFFFFFFFFFFFFFFFFFFFFFFFFFF
310
FFFFFFFFFFFFFFFFF000FFFFF80003FFFFFFFFFFFFFFFFFFFFFFFFFFFFFFFFFF
310
FFFFF00007FFFFFFFFFF00007FFFFFF800000000000000007FFFFFFFFFFFFFFF
310
FFFFFFFC001FFFFFFFFFFFFFFC001FFFFFFFFFFFFFFFFFFFFFFFFFFE0007FFFF
310
F000FFFF8000007FFFFFFFF8000FFFFFC0007FFFFF80007FFFFF0000007FFFFF
310
FFF8000007FFFFF800000000000000007FFFFFF0001FFFFFFFFFFFC00001FFFF
310
FFFFFFFFC00001FFFFFFFF000000000003FFFFE000007FFFF000FFFE0000000F
310
FFFFFFF0000FFFFF80007FFFFF80007FFFFC0000001FFFFFFFC0000001FFFFF8
310
00000000000000007FFFFFF0001FFFFFFFFFFE0000003FFFFFFFFFFE0000003F
310
FFFFFF000000000003FFFF0000000FFFF000FFF800000003FFFFFFF00007FFFF
310
80007FFFFF80007FFFF000000007FFFFFF000000003FFFF80000000000000000
310
7FFFFFF0001FFFFFFFFFF80000000FFFFFFFFFF80000000FFFFFFF0000000000
310
03FFFC00000003FFF000FFE000000000FFFFFFF00007FFFF80003FFFFF80007F
310
FFC000000001FFFFFC000000001FFFF800000000000000007FFFFFF0001FFFFF
310
FFFFE000000003FFFFFFFFE000000003FFFFFF000000000003FFF000000000FF
310
F000FF80000000007FFFFFF00007FFFF80003FFFFF80007FFF8000000000FFFF
310
F80000000007FFF800000000000000007FFFFFF0001FFFFFFFFFC000000001FF
310
FFFFFFC000000001FFFFFF000000000003FFC0000000007FF000FF0000000000
310
3FFFFFE00007FFFF00003FFFFF80007FFE00000000003FFFF00000000003FFF8
310
00000000000000007FFFFFF0001FFFFFFFFF8000000000FFFFFFFF8000000000
310
FFFFFF000000000003FF80000000003FF000FE00000000001FFFFFE00003FFFF
310
00003FFFFF80007FFC00000000001FFFE00000000001FFF8000001FFFE000000
310
7FFFFFF0001FFFFFFFFE00000000003FFFFFFE00000000003FFFFF0000000000
310
03FF00000000001FF000FC00000000000FFFFFE00003FFFF00001FFFFF80007F
310
F800000000001FFFC00000000000FFF8000001FFFE0000007FFFFFF0001FFFFF
310
FFFC00000000001FFFFFFC00000000001FFFFF000000000003FE00000000000F
310
F000F8000000000007FFFFE00003FFFF00001FFFFF80007FF800000000000FFF
310
800000000000FFF8000001FFFE0000007FFFFFF0001FFFFFFFF800000000000F
310
FFFFF800000000000FFFFF000000000003FC000000000007F000F80000000000
310
03FFFFC00003FFFE00001FFFFF80007FF0000000000007FF0000000000007FF8
310
000001FFFE0000007FFFFFF0001FFFFFFFF0000000000007FFFFF00000000000
310
07FFFF000000000003F8000000000003F000F0000000000003FFFFC00001FFFE
310
00001FFFFF80007FE0000000000007FE0000000000003FF8000001FFFE000000
310
7FFFFFF0001FFFFFFFF0000000000007FFFFF0000000000007FFFF0000000000
310
03F800001F800003F000E00001FFF00001FFFFC00001FFFE00000FFFFF80007F
310
E00001FFE00003FE00001FFF00003FF8000001FFFE0000007FFFFFF0001FFFFF
310
FFE000003E000003FFFFE000003E000003FFFF000000000003F00001FFF80001
310
F000E00007FFFC0001FFFFC00001FFFE00000FFFFF80007FC0000FFFFC0003FC
310
0000FFFFC0001FF8000001FFFE0000007FFFFFF0001FFFFFFFC00003FFE00001
310
FFFFC00003FFE00001FFFF0001FFFFFFFFF00007FFFE0001F000E0000FFFFF00
310
00FFFF800001FFFC00000FFFFF80007FC0001FFFFE0001FC0001FFFFE0001FF8
310
000001FFFE0000007FFFFFF0001FFFFFFF80000FFFF80000FFFF80000FFFF800
310
00FFFF0003FFFFFFFFE0000FFFFF8000F000C0003FFFFF8000FFFF800000FFFC
310
000007FFFF80007F80003FFFFF0001FC0003FFFFF0001FF8000001FFFE000000
310
7FFFFFF0001FFFFFFF80003FFFFE0000FFFF80003FFFFE0000FFFF0003FFFFFF
310
FFE0003FFFFF8000F000C0003FFFFF8000FFFF800000FFFC000007FFFF80007F
310
80007FFFFF8001F80007FFFFF8000FF8000001FFFE0000007FFFFFF0001FFFFF
310
FF00007FFFFF00007FFF00007FFFFF00007FFF0003FFFFFFFFE0003FFFFFC000
310
F000C0007FFFFFC000FFFF000000FFFC000007FFFF80007F8000FFFFFF8000F8
310
000FFFFFF8000FF8000001FFFE0000007FFFFFF0001FFFFFFF0000FFFFFF8000
310
7FFF0000FFFFFF80007FFF0003FFFFFFFFC0007FFFFFC00070008000FFFFFFC0
310
00FFFF000000FFF8000007FFFF80007F8000FFFFFF8000F8000FFFFFF8000FF8
310
000001FFFE0000007FFFFFF0001FFFFFFE0001FFFFFFC0003FFE0001FFFFFFC0
310
003FFF0003FFFFFFFFC0007FFFFFE00070008000FFFFFFC0007FFF0000007FF8
310
000003FFFF80007F0001FFFFFF8000F8000FFFFFF8000FF8000001FFFE000000
310
7FFFFFF0001FFFFFFE0001FFFFFFC0003FFE0001FFFFFFC0003FFF0003FFFFFF
310
FFC000FFFFFFE00070008000FFFFFFC0007FFF0000007FF8000003FFFF80007F
310
0001FFFFFF8000F8001FFFFFF8000FF8000001FFFE0000007FFFFFF0001FFFFF
310
FE0003FFFFFFE0003FFE0003FFFFFFE0003FFF0003FFFFFFFFC000FFFFFFE000
310
70008000FFFFFFC0007FFE0000007FF8000003FFFF80007F0001FFFFFF8000F0
310
001FFFFFF8000FF8000001FFFE0000007FFFFFF0001FFFFFFC0003FFFFFFE000
310
1FFC0003FFFFFFE0001FFF0003FFFFFFFFC000FFFFFFC00070008000FFFFFF80
310
007FFE0000007FF0000003FFFF80007F0001FFFFFF0000F0001FFFFFF8000FF8
310
000001FFFE0000007FFFFFF0001FFFFFFC0007FFFFFFF0001FFC0007FFFFFFF0
310
001FFF0003FFFFFFFFC000FFFFFFC00070008001FFFFFF0000FFFE0000003FF0
310
000001FFFF80007F0001FFFFFF0000F8001FFFFFF0000FF8000001FFFE000000
310
7FFFFFF0001FFFFFFC0007FFFFFFF0001FFC0007FFFFFFF0001FFF0003FFFFFF
310
FFC001FFFFFF80007000FFFFFFFFFE0000FFFE0008003FF0008001FFFF80007F
310
FFFFFFFFFC0000FFFFFFFFFFE0000FF8000001FFFE0000007FFFFFF0001FFFFF
310
F8000FFFFFFFF8000FF8000FFFFFFFF8000FFF0003FFFFFFFFFFFFFFFFFF0000
310
7000FFFFFFFFFC0000FFFC0008003FF0008001FFFF80007FFFFFFFFFF80001FF
310
FFFFFFFF80000FF8000001FFFE0000007FFFFFF0001FFFFFF8000FFFFFFFF800
310
0FF8000FFFFFFFF8000FFF0003FFFFFFFFFFFFFFFFFE0000F000FFFFFFFFE000
310
00FFFC000C003FE000C001FFFF80007FFFFFFFFFC00001FFFFFFFFFE00001FF8
310
000001FFFE0000007FFFFFF0001FFFFFF8000FFFFFFFF8000FF8000FFFFFFFF8
310
000FFF0003FFFFFFFFFFFFFFFFF00000F000FFFFFFFE000001FFFC000C001FE0
310
00C000FFFF80007FFFFFFFFE000001FFFFFFFFE000001FF80FFFFFFFFFFFFFC0
310
7FFFFFF0001FFFFFF8000FFFFFFFF8000FF8000FFFFFFFF8000FFF0003FFFFFF
310
FFFFFFFFFF800000F000FFFFFFC0000001FFFC001C001FE001C000FFFF80007F
310
FFFFFF80000003FFFFFFF80000001FF80FFFFFFFFFFFFFC07FFFFFF0001FFFFF
310
F8001FFFFFFFFC000FF8001FFFFFFFFC000FFF0003FFFFFFFFFFFFFFF0000001
310
F000FFFFF800000001FFF8001C001FE001C000FFFF80007FFFFFF800000003FF
310
FFFF800000003FF80FFFFFFFFFFFFFC07FFFFFF0001FFFFFF8001FFFFFFFFC00
310
0FF8001FFFFFFFFC000FFF0003FFFFFFFFFFFFFE00000001F000FFFFC0000000
310
03FFF8001E001FC001E000FFFF80007FFFFF8000000007FFFFFC000000003FF8
310
0FFFFFFFFFFFFFC07FFFFFF0001FFFFFF8001FFFFFFFFC000FF8001FFFFFFFFC
310
000FFF0003FFFFFFFFFFFFE000000003F000FFFE0000000007FFF8001E000FC0
310
01E0007FFF80007FFFFE0000000007FFFFE0000000007FF80FFFFFFFFFFFFFC0
310
7FFFFFF0001FFFFFF0001FFFFFFFFC0007F0001FFFFFFFFC0007FF0003FFFFFF
310
FFFFFF0000000003F000FFF80000000007FFF8001E000FC003E0007FFF80007F
310
FFF0000000000FFFFF8000000000FFF80FFFFFFFFFFFFFC07FFFFFF0001FFFFF
310
F0001FFFFFFFFC0007F0001FFFFFFFFC0007FF0003FFFFFFFFFFFC0000000007
310
F000FFE0000000000FFFF0003E000FC003E0007FFF80007FFFC0000000001FFF
310
FE0000000001FFF80FFFFFFFFFFFFFC07FFFFFF0001FFFFFF0001FFFFFFFFC00
310
07F0001FFFFFFFFC0007FF0003FFFFFFFFFFF0000000000FF000FFC000000000
310
1FFFF0003F000F8003F0003FFF80007FFF80000000003FFFF80000000003FFF8
310
0FFFFFFFFFFFFFC07FFFFFF0001FFFFFF0001FFFFFFFFC0007F0001FFFFFFFFC
310
0007FF0003FFFFFFFFFFE0000000001FF000FF00000000007FFFF0003F000780
310
03F0003FFF80007FFF00000000007FFFF00000000007FFF80FFFFFFFFFFFFFC0
310
7FFFFFF0001FFFFFF0001FFFFFFFFC0007F0001FFFFFFFFC0007FF0003FFFFFF
310
FFFF80000000007FF000FE0000000000FFFFE0003F00078007F0003FFF80007F
310
FE0000000001FFFFE0000000001FFFF80FFFFFFFFFFFFFC07FFFFFF0001FFFFF
310
F0001FFFFFFFFC0007F0001FFFFFFFFC0007FF0003FFFFFFFFFF0000000000FF
310
F000FC0000000003FFFFE0007F00078007F0003FFF80007FFC0000000007FFFF
310
C0000000007FFFF80FFFFFFFFFFFFFC07FFFFFF0001FFFFFF8001FFFFFFFFC00
310
0FF8001FFFFFFFFC000FFF0003FFFFFFFFFE0000000003FFF000FC000000000F
310
FFFFE0007F80070007F8001FFF80007FF8000000001FFFFF8000000001FFFFF8
310
0FFFFFFFFFFFFFC07FFFFFF0001FFFFFF8001FFFFFFFFC000FF8001FFFFFFFFC
310
000FFF0003FFFFFFFFFC000000000FFFF000F8000000007FFFFFE0007F800700
310
07F8001FFF80007FF000000000FFFFFF800000000FFFFFF80FFFFFFFFFFFFFC0
310
7FFFFFF0001FFFFFF8000FFFFFFFF8000FF8000FFFFFFFF8000FFF0003FFFFFF
310
FFFC000000007FFFF000F800000007FFFFFFC0007F8003000FF8001FFF80007F
310
F000000007FFFFFF000000007FFFFFF80FFFFFFFFFFFFFC07FFFFFF0001FFFFF
310
F8000FFFFFFFF8000FF8000FFFFFFFF8000FFF0003FFFFFFFFF80000000FFFFF
310
F000F0000000FFFFFFFFC000FF8003000FF8001FFF80007FE0000000FFFFFFFF
310
0000000FFFFFFFF8000001FFFE0000007FFFFFF0001FFFFFF8000FFFFFFFF800
310
0FF8000FFFFFFFF8000FFF0003FFFFFFFFF8000000FFFFFFF000F000000FFFFF
310
FFFFC000FFC002000FF8000FFF80007FE000001FFFFFFFFE000001FFFFFFFFF8
310
000001FFFE0000007FFFFFF0001FFFFFF8000FFFFFFFF8000FF8000FFFFFFFF8
310
000FFF0003FFFFFFFFF000001FFFFFFFF000E00000FFFFFFFFFFC000FFC00200
310
0FFC000FFF80007FE00001FFFFFFFFFE00001FFFFFFFFFF8000001FFFE000000
310
7FFFFFF0001FFFFFFC000FFFFFFFF8001FFC000FFFFFFFF8001FFF0003FFFFFF
310
FFF00001FFFFFFFFF000E00007FFFFFFFFFF8000FFC000001FFC000FFF80007F
310
C0000FFFFFFFFFFE0000FFFFFFFFFFF8000001FFFE0000007FFFFFF0001FFFFF
310
FC0007FFFFFFF0001FFC0007FFFFFFF0001FFF0003FFFFFFFFF00007FFFFFFFF
310
F000E0001FFFFFFFFFFF8000FFC000001FFC000FFF80007FC0003FFFFFFFFFFE
310
0001FFFFFFFFFFF8000001FFFE0000007FFFFFF0001FFFFFFC0007FFFFFFF000
310
1FFC0007FFFFFFF0001FFF0003FFFFFFFFF0001FFFFFFFFFF000E0003FFFFF00
310
03FF8001FFE000001FFC0007FF80007FC0007FFFFF0007FC0003FFFFF0003FF8
310
000001FFFE0000007FFFFFF0001FFFFFFC0003FFFFFFE0001FFC0003FFFFFFE0
310
001FFF0003FFFFFFFFF0003FFFFFFFFFF000E0003FFFFF0001FF8001FFE00000
310
1FFE0007FF80007FC0007FFFFE0003FC0007FFFFE0003FF8000001FFFE000000
310
7FFFFFF0001FFFFFFE0003FFFFFFE0003FFE0003FFFFFFE0003FFF0003FFFFFF
310
FFF0003FFFFF8001F000E0003FFFFF0001FF0001FFE000001FFE0007FF80007F
310
C0007FFFFE0003FC0007FFFFE0003FF8000001FFFE0000007FFFFFF0001FFFFF
310
FE0001FFFFFFC0003FFE0001FFFFFFC0003FFF0003FFFFFFFFF0003FFFFF0001
310
F000E0003FFFFF0003FF0001FFE000003FFE0007FF80007FC0007FFFFE0003FC
310
0007FFFFE0003FF8000001FFFE0000007FFFFFF0001FFFFFFF0001FFFFFFC000
310
7FFF0001FFFFFFC0007FFF0003FFFFFFFFF0003FFFFF0001F000E0003FFFFE00
310
03FF0003FFF000003FFE0003FF80007FC0007FFFFC0003FE0007FFFFE0003FF8
310
000001FFFE0000007FFFFFF0001FFFFFFF0000FFFFFF80007FFF0000FFFFFF80
310
007FFF0003FFFFFFFFF0003FFFFF0001F000E0003FFFFE0003FF0003FFF00000
310
3FFF0003FF80007FC0007FFFFC0007FE0007FFFFC0003FF8000001FFFE000000
310
7FFFFFF0001FFFFFFF80007FFFFF0000FFFF80007FFFFF0000FFFF0003FFFFFF
310
FFF0003FFFFF0003F000E0003FFFFC0003FE0003FFF000003FFF0003FF80007F
310
E0003FFFF80007FE0003FFFFC0007FF8000001FFFE0000007FFFFFF0001FFFFF
310
FF80003FFFFE0000FFFF80003FFFFE0000FFFF0003FFFFFFFFF0001FFFFE0003
310
F000F0001FFFF80003FE0003FFF000007FFF0001FF80007FE0003FFFF00007FE
310
0001FFFF80007FF8000001FFFE0000007FFFFFF0001FFFFFFFC0000FFFF80001
310
FFFFC0000FFFF80001FFFF0003FFFFFFFFF0001FFFFC0003F000F0000FFFF000
310
07FE0007FFF800007FFF0001FF80007FE0001FFFE00007FF0000FFFE00007FF8
310
000001FFFE0000007FFFFFF0001FFFFFFFC00003FFE00001FFFFC00003FFE000
310
01FFFF0003FFFFFFFFF8000FFFF80003F000F00003FFC00007FC0007FFF80000
310
7FFF8001FF80007FF00007FF80000FFF00007FF80000FFF8000001FFFE000000
310
7F80000000000001FFE000003E000003FFFFE000003E000003FFFF0003FFFFFF
310
FFF80003FFE00007F000F800000000000FFC0007FFF800007FFF8001FF80007F
310
F000000000000FFF000000000000FFF8000001FFFE0000007F80000000000001
310
FFF0000000000007FFFFF0000000000007FFFF0003FFFFFFFFFC00007E000007
310
F000F800000000000FFC0007FFF80000FFFF8000FF80007FF800000000001FFF
310
800000000001FFF8000001FFFE0000007F80000000000001FFF800000000000F
310
FFFFF800000000000FFFFF0003FFFFFFFFFC00000000000FF000FC0000000000
310
1FFC0007FFFC0000FFFF8000FF80007FF800000000003FFFC00000000001FFF8
310
000001FFFE0000007F80000000000001FFF800000000000FFFFFF80000000000
310
0FFFFF0003FFFFFFFFFE00000000001FF000FE00000000003FF8000FFFFC0000
310
FFFF8000FF80007FFC00000000003FFFC00000000003FFF8000001FFFE000000
310
7F80000000000001FFFC00000000001FFFFFFC00000000001FFFFF0003FFFFFF
310
FFFF00000000001FF000FF00000000003FF8000FFFFC0000FFFFC000FF80007F
310
FE00000000007FFFE00000000007FFF8000001FFFE0000007F80000000000001
310
FFFE00000000003FFFFFFE00000000003FFFFF0003FFFFFFFFFF80000000003F
310
F000FF80000000007FF8000FFFFC0001FFFFC0007F80007FFF0000000000FFFF
310
F0000000000FFFF800000000000000007F80000000000001FFFF8000000000FF
310
FFFFFF8000000000FFFFFF0003FFFFFFFFFFC0000000007FF000FFC000000000
310
FFF8000FFFFE0001FFFFC0007F80007FFF8000000001FFFFF8000000001FFFF8
310
00000000000000007F80000000000001FFFFC000000001FFFFFFFFC000000001
310
FFFFFF0003FFFFFFFFFFE000000000FFF000FFE000000003FFF0001FFFFE0001
310
FFFFC0007F80007FFFC000000007FFFFFE000000003FFFF80000000000000000
310
7F80000000000001FFFFE000000003FFFFFFFFE000000003FFFFFF0003FFFFFF
310
FFFFF000000003FFF000FFF80000000FFFF0001FFFFE0001FFFFE0007F80007F
310
FFF00000000FFFFFFF00000000FFFFF800000000000000007F80000000000001
310
FFFFF80000000FFFFFFFFFF80000000FFFFFFF0003FFFFFFFFFFFC0000000FFF
310
F000FFFE0000003FFFF0001FFFFE0003FFFFE0003F80007FFFFC0000003FFFFF
310
FFC0000003FFFFF800000000000000007F80000000000001FFFFFE0000003FFF
310
FFFFFFFE0000003FFFFFFF0003FFFFFFFFFFFF0000003FFFF000FFFF800000FF
310
FFF0001FFFFF0003FFFFE0003F80007FFFFF000001FFFFFFFFF800001FFFFFF8
310
00000000000000007F80000000000001FFFFFFC00001FFFFFFFFFFFFC00001FF
310
FFFFFF0003FFFFFFFFFFFFC00000FFFFF000FFFFF8000FFFFFFFFFFFFFFFFFFF
310
FFFFFFFFFFFFFFFFFFFFF0001FFFFFFFFFFF0000FFFFFFF80000000000000000
310
7FFFFFFFFFFFFFFFFFFFFFFC001FFFFFFFFFFFFFFC001FFFFFFFFFFFFFFFFFFF
310
FFFFFFFC001FFFFFF000FFFFFFFFFFFFFFFFFFFFFFFFFFFFFFFFFFFFFFFFFFFF
310
FFFFFFFFFFFFFFFFFFFFFFFFFFFFFFFFFFFFFFFFFFFFFFFFFFFFFFFFFFFFFFFF
310
FFFFFFFFFFFFFFFFFFFFFFFFFFFFFFFFFFFFFFFFFFFFFFFFFFFFFFFFFFFFFFFF
310
F000FFFFFFFFFFFFFFFFFFFFFFFFFFFFFFFFFFFFFFFFFFFFFFFFFFFFFFFFFFFF
310
FFFFFFFFFFFFFFFFFFFFFFFFFFFFFFFFFFFFFFFFFFFFFFFFFFFFFFFFFFFFFFFF
310
FFFFFFFFFFFFFFFFFFFFFFFFFFFFFFFFFFFFFFFFFFFFFFFFF000FFFFFFFFFFFF
310
FFFFFFFFFFFFFFFFFFFFFFFFFFFFFFFFFFFFFFFFFFFFFFFFFFFFFFFFFFFFFFFF
310
FFFFFFFFFFFFFFFFFFFFFFFFFFFFFFFFFFFFFFFFFFFFFFFFFFFFFFFFFFFFFFFF
310
FFFFFFFFFFFFFFFFFFFFFFFFFFFFFFFFF000FFFFFFFFFFFFFFFFFFFFFFFFFFFF
310
FFFFFFFFFFFFFFFFFFFFFFFFFFFFFFFFFFFFFFFFFFFFFFFFFFFFFFFFFFFFFFFF
310
FFFFFFFFFFFFFFFFFFFFFFFFFFFFFFFFFFFFFFFFFFFFFFFFFFFFFFFFFFFFFFFF
310
FFFFFFFFFFFFFFFFF000FFFFFFFFFFFFFFFFFFFFFFFFFFFFFFFFFFFFFFFFFFFF
310
FFFFFFFFFFFFFFFFFFFFFFFFFFFFFFFFFFFFFFFFFFFFFFFFFFFFFFFFFFFFFFFF
310
FFFFFFFFFFFFFFFFFFFFFFFFFFFFFFFFFFFFFFFFFFFFFFFFFFFFFFFFFFFFFFFF
310
F000FFFFFFFFFFFFFFFFFFFFFFFFFFFFFFFFFFFFFFFFFFFFFFFFFFFFFFFFFFFF
310
FFFFFFFFFFFFFFFFFFFFFFFFFFFFFFFFFFFFFFFFFFFFFFFFFFFFFFFFFFFFFFFF
310
FFFFFFFFFFFFFFFFFFFFFFFFFFFFFFFFFFFFFFFFFFFFFFFFF000FFFFFFFFFFFF
310
FFFFFFFFFFFFFFFFFFFFFFFFFFFFFFFFFFFFFFFFFFFFFFFFFFFFFFFFFFFFFFFF
310
FFFFFFFFFFFFFFFFFFFFFFFFFFFFFFFFFFFFFFFFFFFFFFFFFFFFFFFFFFFFFFFF
310
FFFFFFFFFFFFFFFFFFFFFFFFFFFFFFFFF000FFFFFFFFFFFFFFFFFFFFFFFFFFFF
310
FFFFFFFFFFFFFFFFFFFFFFFFFFFFFFFFFFFFFFFFFFFFFFFFFFFFFFFFFFFFFFFF
310
FFFFFFFFFFFFFFFFFFFFFFFFFFFFFFFFFFFFFFFFFFFFFFFFFFFFFFFFFFFFFFFF
310
FFFFFFFFFFFFFFFFF000FFFFFFFFFFFFFFFFFFFFFFFFFFFFFFFFFFFFFFFFFFFF
310
FFFFFFFFFFFFFFFFFFFFFFFFFFFFFFFFFFFFFFFFFFFFFFFFFFFFFFFFFFFFFFFF
310
FFFFFFFFFFFFFFFFFFFFFFFFFFFFFFFFFFFFFFFFFFFFFFFFFFFFFFFFFFFFFFFF
310
F000FFFFFFFFFFFFFFFFFFFFFFFFFFFFFFFFFFFFFFFFFFFFFFFFFFFFFFFFFFFF
310
FFFFFFFFFFFFFFFFFFFFFFFFFFFFFFFFFFFFFFFFFFFFFFFFFFFFFFFFFFFFFFFF
310
FFFFFFFFFFFFFFFFFFFFFFFFFFFFFFFFFFFFFFFFFFFFFFFFF000FFFFFFFFFFFF
310
FFFFFFFFFFFFFFFFFFFFFFFFFFFFFFFFFFFFFFFFFFFFFFFFFFFFFFFFFFFFFFFF
310
FFFFFFFFFFFFFFFFFFFFFFFFFFFFFFFFFFFFFFFFFFFFFFFFFFFFFFFFFFFFFFFF
310
FFFFFFFFFFFFFFFFFFFFFFFFFFFFFFFFF000FFFFFFFFFFFFFFFFFFFFFFFFFFFF
310
FFFFFFFFFFFFFFFFFFFFFFFFFFFFFFFFFFFFFFFFFFFFFFFFFFFFFFFFFFFFFFFF
310
FFFFFFFFFFFFFFFFFFFFFFFFFFFFFFFFFFFFFFFFFFFFFFFFFFFFFFFFFFFFFFFF
310
FFFFFFFFFFFFFFFFF000FFFFFFFFFFFFFFFFFFFFFFFFFFFFFFFFFFFFFFFFFFFF
310
FFFFFFFFFFFFFFFFFFFFFFFFFFFFFFFFFFFFFFFFFFFFFFFFFFFFFFFFFFFFFFFF
310
FFFFFFFFFFFFFFFFFFFFFFFFFFFFFFFFFFFFFFFFFFFFFFFFFFFFFFFFFFFFFFFF
310
F000FFFFFFFFFFFFFFFFFFFFFFFFFFFFFFFFFFFFFFFFFFFFFFFFFFFFFFFFFFFF
310
FFFFFFFFFFFFFFFFFFFFFFFFFFFFFFFFFFFFFFFFFFFFFFFFFFFFFFFFFFFFFFFF
310
FFFFFFFFFFFFFFFFFFFFFFFFFFFFFFFFFFFFFFFFFFFFFFFFF000FFFFFFFFFFFF
310
FFFFFFFFFFFFFFFFFFFFFFFFFFFFFFFFFFFFFFFFFFFFFFFFFFFFFFFFFFFFFFFF
310
FFFFFFFFFFFFFFFFFFFFFFFFFFFFFFFFFFFFFFFFFFFFFFFFFFFFFFFFFFFFFFFF
310
FFFFFFFFFFFFFFFFFFFFFFFFFFFFFFFFF000FFFFFFFFFFFFFFFFFFFFFFFFFFFF
310
FFFFFFFFFFFFFFFFFFFFFFFFFFFFFFFFFFFFFFFFFFFFFFFFFFFFFFFFFFFFFFFF
310
FFFFFFFFFFFFFFFFFFFFFFFFFFFFFFFFFFFFFFFFFFFFFFFFFFFFFFFFFFFFFFFF
310
FFFFFFFFFFFFFFFFF000FFFFFFFFFFFFFFFFFFFFFFFFFFFFFFFFFFFFFFFFFFFF
310
FFFFFFFFFFFFFFFFFFFFFFFFFFFFFFFFFFFFFFFFFFFFFFFFFFFFFFFFFFFFFFFF
310
FFFFFFFFFFFFFFFFFFFFFFFFFFFFFFFFFFFFFFFFFFFFFFFFFFFFFFFFFFFFFFFF
310
F000FFFFFFFFFFFFFFFFFFFFFFFFFFFFFFFFFFFFFFFFFFFFFFFFFFFFFFFFFFFF
310
FFFFFFFFFFFFFFFFFFFFFFFFFFFFFFFFFFFFFFFFFFFFFFFFFFFFFFFFFFFFFFFF
310
FFFFFFFFFFFFFFFFFFFFFFFFFFFFFFFFFFFFFFFFFFFFFFFFF000FFFFFFFFFFFF
310
FFFFFFFFFFFFFFFFFFFFFFFFFFFFFFFFFFFFFFFFFFFFFFFFFFFFFFFFFFFFFFFF
310
FFFFFFFFFFFFFFFFFFFFFFFFFFFFFFFFFFFFFFFFFFFFFFFFFFFFFFFFFFFFFFFF
310
FFFFFFFFFFFFFFFFFFFFFFFFFFFFFFFFF000FFFFFFFFFFFFFFFFFFFFFFFFFFFF
310
FFFFFFFFFFFFFFFFFFFFFFFFFFFFFFFFFFFFFFFFFFFFFFFFFFFFFFFFFFFFFFFF
310
FFFFFFFFFFFFFFFFFFFFFFFFFFFFFFFFFFFFFFFFFFFFFFFFFFFFFFFFFFFFFFFF
310
FFFFFFFFFFFFFFFFF000FFFFFFFFFFFFFFFFFFFFFFFFFFFFFFFFFFFFFFFFFFFF
310
FFFFFFFFFFFFFFFFFFFFFFFFFFFFFFFFFFFFFFFFFFFFFFFFFFFFFFFFFFFFFFFF
310
FFFFFFFFFFFFFFFFFFFFFFFFFFFFFFFFFFFFFFFFFFFFFFFFFFFFFFFFFFFFFFFF
310
F000FFFFFFFFFFFFFFFFFFFFFFFFFFFFFFFFFFFFFFFFFFFFFFFFFFFFFFFFFFFF
310
FFFFFFFFFFFFFFFFFFFFFFFFFFFFFFFFFFFFFFFFFFFFFFFFFFFFFFFFFFFFFFFF
310
FFFFFFFFFFFFFFFFFFFFFFFFFFFFFFFFFFFFFFFFFFFFFFFFF000FFFFFFFFFFFF
310
FFFFFFFFFFFFFFFFFFFFFFFFFFFFFFFFFFFFFFFFFFFFFFFFFFFFFFFFFFFFFFFF
310
FFFFFFFFFFFFFFFFFFFFFFFFFFFFFFFFFFFFFFFFFFFFFFFFFFFFFFFFFFFFFFFF
310
FFFFFFFFFFFFFFFFFFFFFFFFFFFFFFFFF0000000000000000000000000000000
310
0000000000000000000000000000000000000000000000000000000000000000
310
0000000000000000000000000000000000000000000000000000000000000000
310
0000000000000000000000000000000000000000000000000000000000000000
310
0000000000000000000000000000000000000000000000000000000000000000
310
0000000000000000000000000000000000000000000000000000000000000000
310
0000000000000000000000000000000000000000000000000000000000000000
310
0000000000000000000000000000000000000000000000000000000000000000
310
0000000000000000000000000000000000000000000000000000000000000000
310
0000000000000000000000000000000000000000000000000000000000000000
310
0000000000000000000000000000000000000000000000000000000000000000
310
0000000000000000000000000000000000000000000000000000000000000000
310
0000000000000000000000000000000000000000000000000000000000000000
310
0000000000000000000000000000000000000000000000000000000000000000
310
0000000000000000000000000000000000000000000000000000000000000000
310
0000000000000000000000000000000000000000000000000000000000000000
  1
OLE
  0
ENDSEC
  0
SECTION
  2
OBJECTS
  0
DICTIONARY
  5
C
330
0
100
AcDbDictionary
281
     1
  3
ACAD_GROUP
350
D
  3
ACAD_LAYOUT
350
1A
  3
ACAD_MLINESTYLE
350
17
  3
ACAD_PLOTSETTINGS
350
19
  3
ACAD_PLOTSTYLENAME
350
E
  3
ACAD_SCALELIST
350
47
  0
DICTIONARY
  5
D
102
{ACAD_REACTORS
330
C
102
}
330
C
100
AcDbDictionary
281
     1
  0
DICTIONARY
  5
1A
102
{ACAD_REACTORS
330
C
102
}
330
C
100
AcDbDictionary
281
     1
  3
Layout1
350
1E
  3
Layout2
350
26
  3
Model
350
22
  0
DICTIONARY
  5
17
102
{ACAD_REACTORS
330
C
102
}
330
C
100
AcDbDictionary
281
     1
  3
Standard
350
18
  0
DICTIONARY
  5
19
102
{ACAD_REACTORS
330
C
102
}
330
C
100
AcDbDictionary
281
     1
  0
ACDBDICTIONARYWDFLT
  5
E
102
{ACAD_REACTORS
330
C
102
}
330
C
100
AcDbDictionary
281
     1
  3
Normal
350
F
100
AcDbDictionaryWithDefault
340
F
  0
DICTIONARY
  5
47
102
{ACAD_REACTORS
330
C
102
}
330
C
100
AcDbDictionary
281
     1
  3
A0
350
48
  3
A1
350
49
  3
A2
350
4A
  3
A3
350
4B
  3
A4
350
4C
  3
A5
350
4D
  3
A6
350
4E
  3
A7
350
4F
  3
A8
350
50
  3
A9
350
51
  3
B0
350
52
  3
B1
350
53
  3
B2
350
54
  3
B3
350
55
  3
B4
350
56
  3
B5
350
57
  3
B6
350
58
  3
B7
350
59
  3
B8
350
5A
  3
B9
350
5B
  3
C0
350
5C
  3
C1
350
5D
  3
C2
350
5E
  3
C3
350
5F
  3
C4
350
60
  3
C5
350
61
  3
C6
350
62
  3
C7
350
63
  3
C8
350
64
  3
C9
350
65
  3
D0
350
66
  3
D1
350
67
  3
D2
350
68
  0
LAYOUT
  5
1E
102
{ACAD_REACTORS
330
1A
102
}
330
1A
100
AcDbPlotSettings
  1

  2
none_device
  4

  6

 40
0.0
 41
0.0
 42
0.0
 43
0.0
 44
0.0
 45
0.0
 46
0.0
 47
0.0
 48
0.0
 49
0.0
140
0.0
141
0.0
142
1.0
143
1.0
 70
   688
 72
     1
 73
     0
 74
     5
  7

 75
    16
147
1.0
148
0.0
149
0.0
100
AcDbLayout
  1
Layout1
 70
     1
 71
     1
 10
0.0
 20
0.0
 11
420.0
 21
297.0
 12
0.0
 22
0.0
 32
0.0
 14
1.0000000000E+20
 24
1.0000000000E+20
 34
1.0000000000E+20
 15
-1.0000000000E+20
 25
-1.0000000000E+20
 35
-1.0000000000E+20
146
0.0
 13
0.0
 23
0.0
 33
0.0
 16
1.0
 26
0.0
 36
0.0
 17
0.0
 27
1.0
 37
0.0
 76
     0
330
1B
  0
LAYOUT
  5
26
102
{ACAD_REACTORS
330
1A
102
}
330
1A
100
AcDbPlotSettings
  1

  2
none_device
  4

  6

 40
0.0
 41
0.0
 42
0.0
 43
0.0
 44
0.0
 45
0.0
 46
0.0
 47
0.0
 48
0.0
 49
0.0
140
0.0
141
0.0
142
1.0
143
1.0
 70
   688
 72
     1
 73
     0
 74
     5
  7

 75
    16
147
1.0
148
0.0
149
0.0
100
AcDbLayout
  1
Layout2
 70
     1
 71
     2
 10
0.0
 20
0.0
 11
0.0
 21
0.0
 12
0.0
 22
0.0
 32
0.0
 14
0.0
 24
0.0
 34
0.0
 15
0.0
 25
0.0
 35
0.0
146
0.0
 13
0.0
 23
0.0
 33
0.0
 16
1.0
 26
0.0
 36
0.0
 17
0.0
 27
1.0
 37
0.0
 76
     0
330
23
  0
LAYOUT
  5
22
102
{ACAD_REACTORS
330
1A
102
}
330
1A
100
AcDbPlotSettings
  1

  2
none_device
  4
Letter_(8.50_x_11.00_Inches)
  6

 40
6.35
 41
6.35
 42
6.35000508
 43
6.35000508
 44
215.9
 45
279.4
 46
0.0
 47
0.0
 48
0.0
 49
0.0
140
0.0
141
0.0
142
1.0
143
1.0
 70
  1712
 72
     1
 73
     0
 74
     0
  7

 75
     0
147
1.0
148
0.0
149
0.0
100
AcDbLayout
  1
Model
 70
     1
 71
     0
 10
0.0
 20
0.0
 11
297.0
 21
210.0
 12
0.0
 22
0.0
 32
0.0
 14
0.0
 24
0.0
 34
0.0
 15
297.0
 25
210.0
 35
0.0
146
0.0
 13
0.0
 23
0.0
 33
0.0
 16
1.0
 26
0.0
 36
0.0
 17
0.0
 27
1.0
 37
0.0
 76
     0
330
1F
331
29
  0
MLINESTYLE
  5
18
102
{ACAD_REACTORS
330
17
102
}
330
17
100
AcDbMlineStyle
  2
Standard
 70
     0
  3

 62
   256
 51
90.0
 52
90.0
 71
     2
 49
0.5
 62
   256
  6
BYLAYER
 49
-0.5
 62
   256
  6
BYLAYER
  0
ACDBPLACEHOLDER
  5
F
102
{ACAD_REACTORS
330
E
102
}
330
E
  0
SCALE
  5
48
102
{ACAD_REACTORS
330
47
102
}
330
47
100
AcDbScale
 70
     0
300
1:1
140
1.0
141
1.0
290
     1
  0
SCALE
  5
49
102
{ACAD_REACTORS
330
47
102
}
330
47
100
AcDbScale
 70
     0
300
1:2
140
1.0
141
2.0
290
     0
  0
SCALE
  5
4A
102
{ACAD_REACTORS
330
47
102
}
330
47
100
AcDbScale
 70
     0
300
1:4
140
1.0
141
4.0
290
     0
  0
SCALE
  5
4B
102
{ACAD_REACTORS
330
47
102
}
330
47
100
AcDbScale
 70
     0
300
1:5
140
1.0
141
5.0
290
     0
  0
SCALE
  5
4C
102
{ACAD_REACTORS
330
47
102
}
330
47
100
AcDbScale
 70
     0
300
1:8
140
1.0
141
8.0
290
     0
  0
SCALE
  5
4D
102
{ACAD_REACTORS
330
47
102
}
330
47
100
AcDbScale
 70
     0
300
1:10
140
1.0
141
10.0
290
     0
  0
SCALE
  5
4E
102
{ACAD_REACTORS
330
47
102
}
330
47
100
AcDbScale
 70
     0
300
1:16
140
1.0
141
16.0
290
     0
  0
SCALE
  5
4F
102
{ACAD_REACTORS
330
47
102
}
330
47
100
AcDbScale
 70
     0
300
1:20
140
1.0
141
20.0
290
     0
  0
SCALE
  5
50
102
{ACAD_REACTORS
330
47
102
}
330
47
100
AcDbScale
 70
     0
300
1:30
140
1.0
141
30.0
290
     0
  0
SCALE
  5
51
102
{ACAD_REACTORS
330
47
102
}
330
47
100
AcDbScale
 70
     0
300
1:40
140
1.0
141
40.0
290
     0
  0
SCALE
  5
52
102
{ACAD_REACTORS
330
47
102
}
330
47
100
AcDbScale
 70
     0
300
1:50
140
1.0
141
50.0
290
     0
  0
SCALE
  5
53
102
{ACAD_REACTORS
330
47
102
}
330
47
100
AcDbScale
 70
     0
300
1:100
140
1.0
141
100.0
290
     0
  0
SCALE
  5
54
102
{ACAD_REACTORS
330
47
102
}
330
47
100
AcDbScale
 70
     0
300
2:1
140
2.0
141
1.0
290
     0
  0
SCALE
  5
55
102
{ACAD_REACTORS
330
47
102
}
330
47
100
AcDbScale
 70
     0
300
4:1
140
4.0
141
1.0
290
     0
  0
SCALE
  5
56
102
{ACAD_REACTORS
330
47
102
}
330
47
100
AcDbScale
 70
     0
300
8:1
140
8.0
141
1.0
290
     0
  0
SCALE
  5
57
102
{ACAD_REACTORS
330
47
102
}
330
47
100
AcDbScale
 70
     0
300
10:1
140
10.0
141
1.0
290
     0
  0
SCALE
  5
58
102
{ACAD_REACTORS
330
47
102
}
330
47
100
AcDbScale
 70
     0
300
100:1
140
100.0
141
1.0
290
     0
  0
SCALE
  5
59
102
{ACAD_REACTORS
330
47
102
}
330
47
100
AcDbScale
 70
     0
300
1/128" = 1'-0"
140
0.0078125
141
12.0
290
     0
  0
SCALE
  5
5A
102
{ACAD_REACTORS
330
47
102
}
330
47
100
AcDbScale
 70
     0
300
1/64" = 1'-0"
140
0.015625
141
12.0
290
     0
  0
SCALE
  5
5B
102
{ACAD_REACTORS
330
47
102
}
330
47
100
AcDbScale
 70
     0
300
1/32" = 1'-0"
140
0.03125
141
12.0
290
     0
  0
SCALE
  5
5C
102
{ACAD_REACTORS
330
47
102
}
330
47
100
AcDbScale
 70
     0
300
1/16" = 1'-0"
140
0.0625
141
12.0
290
     0
  0
SCALE
  5
5D
102
{ACAD_REACTORS
330
47
102
}
330
47
100
AcDbScale
 70
     0
300
3/32" = 1'-0"
140
0.09375
141
12.0
290
     0
  0
SCALE
  5
5E
102
{ACAD_REACTORS
330
47
102
}
330
47
100
AcDbScale
 70
     0
300
1/8" = 1'-0"
140
0.125
141
12.0
290
     0
  0
SCALE
  5
5F
102
{ACAD_REACTORS
330
47
102
}
330
47
100
AcDbScale
 70
     0
300
3/16" = 1'-0"
140
0.1875
141
12.0
290
     0
  0
SCALE
  5
60
102
{ACAD_REACTORS
330
47
102
}
330
47
100
AcDbScale
 70
     0
300
1/4" = 1'-0"
140
0.25
141
12.0
290
     0
  0
SCALE
  5
61
102
{ACAD_REACTORS
330
47
102
}
330
47
100
AcDbScale
 70
     0
300
3/8" = 1'-0"
140
0.375
141
12.0
290
     0
  0
SCALE
  5
62
102
{ACAD_REACTORS
330
47
102
}
330
47
100
AcDbScale
 70
     0
300
1/2" = 1'-0"
140
0.5
141
12.0
290
     0
  0
SCALE
  5
63
102
{ACAD_REACTORS
330
47
102
}
330
47
100
AcDbScale
 70
     0
300
3/4" = 1'-0"
140
0.75
141
12.0
290
     0
  0
SCALE
  5
64
102
{ACAD_REACTORS
330
47
102
}
330
47
100
AcDbScale
 70
     0
300
1" = 1'-0"
140
1.0
141
12.0
290
     0
  0
SCALE
  5
65
102
{ACAD_REACTORS
330
47
102
}
330
47
100
AcDbScale
 70
     0
300
1-1/2" = 1'-0"
140
1.5
141
12.0
290
     0
  0
SCALE
  5
66
102
{ACAD_REACTORS
330
47
102
}
330
47
100
AcDbScale
 70
     0
300
3" = 1'-0"
140
3.0
141
12.0
290
     0
  0
SCALE
  5
67
102
{ACAD_REACTORS
330
47
102
}
330
47
100
AcDbScale
 70
     0
300
6" = 1'-0"
140
6.0
141
12.0
290
     0
  0
SCALE
  5
68
102
{ACAD_REACTORS
330
47
102
}
330
47
100
AcDbScale
 70
     0
300
1'-0" = 1'-0"
140
12.0
141
12.0
290
     0
  0
ENDSEC
  0
EOF
