  0
SECTION
  2
HEADER
  9
$ACADVER
  1
AC1015
  9
$ACADMAINTVER
 70
    13
  9
$DWGCODEPAGE
  3
ANSI_1252
  9
$INSBASE
 10
0.0
 20
0.0
 30
0.0
  9
$EXTMIN
 10
-18.69177235263077
 20
-48.96067415599941
 30
-0.0000000349181948
  9
$EXTMAX
 10
80.17419039886386
 20
10.4255990206725
 30
0.0000000814935747
  9
$LIMMIN
 10
0.0
 20
0.0
  9
$LIMMAX
 10
420.0
 20
297.0
  9
$ORTHOMODE
 70
     0
  9
$REGENMODE
 70
     1
  9
$FILLMODE
 70
     1
  9
$QTEXTMODE
 70
     0
  9
$MIRRTEXT
 70
     1
  9
$LTSCALE
 40
1.0
  9
$ATTMODE
 70
     1
  9
$TEXTSIZE
 40
2.5
  9
$TRACEWID
 40
1.0
  9
$TEXTSTYLE
  7
STANDARD
  9
$CLAYER
  8
0
  9
$CELTYPE
  6
ByLayer
  9
$CECOLOR
 62
   256
  9
$CELTSCALE
 40
1.0
  9
$DISPSILH
 70
     0
  9
$DIMSCALE
 40
1.0
  9
$DIMASZ
 40
4.57
  9
$DIMEXO
 40
0.0
  9
$DIMDLI
 40
8.0
  9
$DIMRND
 40
0.0
  9
$DIMDLE
 40
0.0
  9
$DIMEXE
 40
2.0
  9
$DIMTP
 40
0.1
  9
$DIMTM
 40
0.1
  9
$DIMTXT
 40
4.57
  9
$DIMCEN
 40
2.0
  9
$DIMTSZ
 40
0.0
  9
$DIMTOL
 70
     0
  9
$DIMLIM
 70
     0
  9
$DIMTIH
 70
     0
  9
$DIMTOH
 70
     0
  9
$DIMSE1
 70
     0
  9
$DIMSE2
 70
     0
  9
$DIMTAD
 70
     1
  9
$DIMZIN
 70
     8
  9
$DIMBLK
  1

  9
$DIMASO
 70
     1
  9
$DIMSHO
 70
     1
  9
$DIMPOST
  1

  9
$DIMAPOST
  1

  9
$DIMALT
 70
     0
  9
$DIMALTD
 70
     2
  9
$DIMALTF
 40
25.4
  9
$DIMLFAC
 40
1.0
  9
$DIMTOFL
 70
     1
  9
$DIMTVP
 40
0.0
  9
$DIMTIX
 70
     0
  9
$DIMSOXD
 70
     0
  9
$DIMSAH
 70
     0
  9
$DIMBLK1
  1

  9
$DIMBLK2
  1

  9
$DIMSTYLE
  2
GEN-ISO_TDM
  9
$DIMCLRD
 70
     0
  9
$DIMCLRE
 70
     0
  9
$DIMCLRT
 70
     7
  9
$DIMTFAC
 40
0.7
  9
$DIMGAP
 40
1.5
  9
$DIMJUST
 70
     0
  9
$DIMSD1
 70
     0
  9
$DIMSD2
 70
     0
  9
$DIMTOLJ
 70
     1
  9
$DIMTZIN
 70
     8
  9
$DIMALTZ
 70
     8
  9
$DIMALTTZ
 70
     8
  9
$DIMUPT
 70
     0
  9
$DIMDEC
 70
     2
  9
$DIMTDEC
 70
     2
  9
$DIMALTU
 70
     2
  9
$DIMALTTD
 70
     2
  9
$DIMTXSTY
  7
GENPRESET
  9
$DIMAUNIT
 70
     0
  9
$DIMADEC
 70
     1
  9
$DIMALTRND
 40
0.0
  9
$DIMAZIN
 70
     0
  9
$DIMDSEP
 70
    46
  9
$DIMATFIT
 70
     3
  9
$DIMFRAC
 70
     0
  9
$DIMLDRBLK
  1

  9
$DIMLUNIT
 70
     2
  9
$DIMLWD
 70
    -2
  9
$DIMLWE
 70
    -2
  9
$DIMTMOVE
 70
     0
  9
$LUNITS
 70
     2
  9
$LUPREC
 70
     2
  9
$SKETCHINC
 40
1.0
  9
$FILLETRAD
 40
10.0
  9
$AUNITS
 70
     0
  9
$AUPREC
 70
     0
  9
$MENU
  1
.
  9
$ELEVATION
 40
0.0
  9
$PELEVATION
 40
0.0
  9
$THICKNESS
 40
0.0
  9
$LIMCHECK
 70
     0
  9
$CHAMFERA
 40
10.0
  9
$CHAMFERB
 40
10.0
  9
$CHAMFERC
 40
20.0
  9
$CHAMFERD
 40
0.0
  9
$SKPOLY
 70
     0
  9
$TDCREATE
 40
2453952.619472731
  9
$TDUCREATE
 40
2453952.577806064
  9
$TDUPDATE
 40
2454517.352200868
  9
$TDUUPDATE
 40
2454517.310534201
  9
$TDINDWG
 40
0.1267593403
  9
$TDUSRTIMER
 40
0.1267582523
  9
$USRTIMER
 70
     1
  9
$ANGBASE
 50
0.0
  9
$ANGDIR
 70
     0
  9
$PDMODE
 70
     0
  9
$PDSIZE
 40
-1.0
  9
$PLINEWID
 40
0.0
  9
$SPLFRAME
 70
     0
  9
$SPLINETYPE
 70
     6
  9
$SPLINESEGS
 70
     8
  9
$HANDSEED
  5
1255
  9
$SURFTAB1
 70
     6
  9
$SURFTAB2
 70
     6
  9
$SURFTYPE
 70
     6
  9
$SURFU
 70
     6
  9
$SURFV
 70
     6
  9
$UCSBASE
  2

  9
$UCSNAME
  2

  9
$UCSORG
 10
0.0
 20
0.0
 30
0.0
  9
$UCSXDIR
 10
1.0
 20
0.0
 30
0.0
  9
$UCSYDIR
 10
0.0
 20
1.0
 30
0.0
  9
$UCSORTHOREF
  2

  9
$UCSORTHOVIEW
 70
     0
  9
$UCSORGTOP
 10
0.0
 20
0.0
 30
0.0
  9
$UCSORGBOTTOM
 10
0.0
 20
0.0
 30
0.0
  9
$UCSORGLEFT
 10
0.0
 20
0.0
 30
0.0
  9
$UCSORGRIGHT
 10
0.0
 20
0.0
 30
0.0
  9
$UCSORGFRONT
 10
0.0
 20
0.0
 30
0.0
  9
$UCSORGBACK
 10
0.0
 20
0.0
 30
0.0
  9
$PUCSBASE
  2

  9
$PUCSNAME
  2

  9
$PUCSORG
 10
0.0
 20
0.0
 30
0.0
  9
$PUCSXDIR
 10
1.0
 20
0.0
 30
0.0
  9
$PUCSYDIR
 10
0.0
 20
1.0
 30
0.0
  9
$PUCSORTHOREF
  2

  9
$PUCSORTHOVIEW
 70
     0
  9
$PUCSORGTOP
 10
0.0
 20
0.0
 30
0.0
  9
$PUCSORGBOTTOM
 10
0.0
 20
0.0
 30
0.0
  9
$PUCSORGLEFT
 10
0.0
 20
0.0
 30
0.0
  9
$PUCSORGRIGHT
 10
0.0
 20
0.0
 30
0.0
  9
$PUCSORGFRONT
 10
0.0
 20
0.0
 30
0.0
  9
$PUCSORGBACK
 10
0.0
 20
0.0
 30
0.0
  9
$USERI1
 70
     0
  9
$USERI2
 70
     0
  9
$USERI3
 70
     0
  9
$USERI4
 70
     0
  9
$USERI5
 70
     0
  9
$USERR1
 40
0.0
  9
$USERR2
 40
0.0
  9
$USERR3
 40
0.0
  9
$USERR4
 40
0.0
  9
$USERR5
 40
0.0
  9
$WORLDVIEW
 70
     1
  9
$SHADEDGE
 70
     3
  9
$SHADEDIF
 70
    70
  9
$TILEMODE
 70
     1
  9
$MAXACTVP
 70
    64
  9
$PINSBASE
 10
0.0
 20
0.0
 30
0.0
  9
$PLIMCHECK
 70
     0
  9
$PEXTMIN
 10
1.000000000000000E+20
 20
1.000000000000000E+20
 30
1.000000000000000E+20
  9
$PEXTMAX
 10
-1.000000000000000E+20
 20
-1.000000000000000E+20
 30
-1.000000000000000E+20
  9
$PLIMMIN
 10
0.0
 20
0.0
  9
$PLIMMAX
 10
420.0
 20
297.0
  9
$UNITMODE
 70
     0
  9
$VISRETAIN
 70
     1
  9
$PLINEGEN
 70
     0
  9
$PSLTSCALE
 70
     1
  9
$TREEDEPTH
 70
  3020
  9
$CMLSTYLE
  2
Standard
  9
$CMLJUST
 70
     0
  9
$CMLSCALE
 40
20.0
  9
$PROXYGRAPHICS
 70
     1
  9
$MEASUREMENT
 70
     1
  9
$CELWEIGHT
370
    -1
  9
$ENDCAPS
280
     0
  9
$JOINSTYLE
280
     0
  9
$LWDISPLAY
290
     1
  9
$INSUNITS
 70
     4
  9
$HYPERLINKBASE
  1

  9
$STYLESHEET
  1

  9
$XEDIT
290
     1
  9
$CEPSNTYPE
380
     0
  9
$PSTYLEMODE
290
     1
  9
$FINGERPRINTGUID
  2
{BF97DD1B-E4B6-47F1-B0EE-18338F325273}
  9
$VERSIONGUID
  2
{23D821F4-B52A-41B6-930B-B109706A77A9}
  9
$EXTNAMES
290
     1
  9
$PSVPSCALE
 40
0.0
  9
$OLESTARTUP
290
     0
  0
ENDSEC
  0
SECTION
  2
CLASSES
  0
CLASS
  1
ACDBDICTIONARYWDFLT
  2
AcDbDictionaryWithDefault
  3
AutoCAD 2000
 90
        0
280
     0
281
     0
  0
CLASS
  1
ACDBPLACEHOLDER
  2
AcDbPlaceHolder
  3
AutoCAD 2000
 90
        0
280
     0
281
     0
  0
CLASS
  1
LAYOUT
  2
AcDbLayout
  3
AutoCAD 2000
 90
        0
280
     0
281
     0
  0
CLASS
  1
DICTIONARYVAR
  2
AcDbDictionaryVar
  3
AutoCAD 2000
 90
        0
280
     0
281
     0
  0
ENDSEC
  0
SECTION
  2
TABLES
  0
TABLE
  2
VPORT
  5
8
330
0
100
AcDbSymbolTable
 70
     2
  0
VPORT
  5
1254
330
8
100
AcDbSymbolTableRecord
100
AcDbViewportTableRecord
  2
*Active
 70
     0
 10
0.0
 20
0.0
 11
1.0
 21
1.0
 12
-116.3900342242833
 22
-121.0465369175634
 13
0.0
 23
0.0
 14
10.0
 24
10.0
 15
10.0
 25
10.0
 16
0.0
 26
0.0
 36
1.0
 17
147.1312432473999
 27
101.7789993499
 37
0.0
 40
63.75655195943278
 41
1.558227848101265
 42
50.0
 43
0.0
 44
0.0
 50
0.0
 51
0.0
 71
     0
 72
  2000
 73
     1
 74
     3
 75
     0
 76
     0
 77
     0
 78
     0
281
     0
 65
     1
110
0.0
120
0.0
130
0.0
111
1.0
121
0.0
131
0.0
112
0.0
122
1.0
132
0.0
 79
     0
146
0.0
  0
ENDTAB
  0
TABLE
  2
LTYPE
  5
5
330
0
100
AcDbSymbolTable
 70
    10
  0
LTYPE
  5
14
330
5
100
AcDbSymbolTableRecord
100
AcDbLinetypeTableRecord
  2
ByBlock
 70
     0
  3

 72
    65
 73
     0
 40
0.0
  0
LTYPE
  5
15
330
5
100
AcDbSymbolTableRecord
100
AcDbLinetypeTableRecord
  2
ByLayer
 70
     0
  3

 72
    65
 73
     0
 40
0.0
  0
LTYPE
  5
16
330
5
100
AcDbSymbolTableRecord
100
AcDbLinetypeTableRecord
  2
Continuous
 70
     0
  3
Solid line
 72
    65
 73
     0
 40
0.0
  0
LTYPE
  5
2A
330
5
100
AcDbSymbolTableRecord
100
AcDbLinetypeTableRecord
  2
SLD-Durchgehend
 70
     0
  3
SolidWorks Line Style
 72
    65
 73
     0
 40
0.0
  0
LTYPE
  5
2B
330
5
100
AcDbSymbolTableRecord
100
AcDbLinetypeTableRecord
  2
SLD-Gestrichelt
 70
     0
  3
SolidWorks Line Style
 72
    65
 73
     2
 40
1.905
 49
1.27
 74
     0
 49
-0.635
 74
     0
  0
LTYPE
  5
2C
330
5
100
AcDbSymbolTableRecord
100
AcDbLinetypeTableRecord
  2
SLD-Phantom
 70
     0
  3
SolidWorks Line Style
 72
    65
 73
     6
 40
12.7
 49
6.349999999999997
 74
     0
 49
-1.27
 74
     0
 49
1.27
 74
     0
 49
-1.27
 74
     0
 49
1.27
 74
     0
 49
-1.27
 74
     0
  0
LTYPE
  5
2D
330
5
100
AcDbSymbolTableRecord
100
AcDbLinetypeTableRecord
  2
SLD-Kette
 70
     0
  3
SolidWorks Line Style
 72
    65
 73
     4
 40
10.16
 49
6.349999999999997
 74
     0
 49
-1.27
 74
     0
 49
1.27
 74
     0
 49
-1.27
 74
     0
  0
LTYPE
  5
2E
330
5
100
AcDbSymbolTableRecord
100
AcDbLinetypeTableRecord
  2
SLD-Punktstrich
 70
     0
  3
SolidWorks Line Style
 72
    65
 73
     4
 40
19.05
 49
15.24
 74
     0
 49
-1.27
 74
     0
 49
1.27
 74
     0
 49
-1.27
 74
     0
  0
LTYPE
  5
2F
330
5
100
AcDbSymbolTableRecord
100
AcDbLinetypeTableRecord
  2
SLD-Naht
 70
     0
  3
SolidWorks Line Style
 72
    65
 73
     2
 40
0.635
 49
0.0
 74
     0
 49
-0.635
 74
     0
  0
LTYPE
  5
30
330
5
100
AcDbSymbolTableRecord
100
AcDbLinetypeTableRecord
  2
SLD-Dicke-Dünne-Kette
 70
     0
  3
SolidWorks Line Style
 72
    65
 73
     4
 40
10.16
 49
6.349999999999997
 74
     0
 49
-1.27
 74
     0
 49
1.27
 74
     0
 49
-1.27
 74
     0
  0
LTYPE
  5
281
330
5
100
AcDbSymbolTableRecord
100
AcDbLinetypeTableRecord
  2
GEN3A
 70
     0
  3
 - - - - -
 72
    65
 73
     2
 40
3.1
 49
2.5
 74
     0
 49
-0.6
 74
     0
  0
LTYPE
  5
283
330
5
100
AcDbSymbolTableRecord
100
AcDbLinetypeTableRecord
  2
GEN7A
 70
     0
  3
__ . __ . __
 72
    65
 73
     4
 40
7.5
 49
5.0
 74
     0
 49
-1.25
 74
     0
 49
0.0
 74
     0
 49
-1.25
 74
     0
  0
ENDTAB
  0
TABLE
  2
LAYER
  5
2
102
{ACAD_XDICTIONARY
360
287
102
}
330
0
100
AcDbSymbolTable
 70
    13
  0
LAYER
  5
10
330
2
100
AcDbSymbolTableRecord
100
AcDbLayerTableRecord
  2
0
 70
     0
 62
     7
  6
Continuous
370
    -3
390
F
  0
LAYER
  5
31
330
2
100
AcDbSymbolTableRecord
100
AcDbLayerTableRecord
  2
FORMAT
 70
     0
 62
     7
  6
SLD-Durchgehend
370
     0
390
F
  0
LAYER
  5
32
330
2
100
AcDbSymbolTableRecord
100
AcDbLayerTableRecord
  2
VERMASSUNG
 70
     0
 62
     7
  6
SLD-Durchgehend
370
     0
390
F
  0
LAYER
  5
33
330
2
100
AcDbSymbolTableRecord
100
AcDbLayerTableRecord
  2
KOPF__DÜNN
 70
     0
 62
     7
  6
SLD-Durchgehend
370
     0
390
F
  0
LAYER
  5
34
330
2
100
AcDbSymbolTableRecord
100
AcDbLayerTableRecord
  2
KOPF__DICK
 70
     0
 62
     7
  6
SLD-Durchgehend
370
    15
390
F
  0
LAYER
  5
147
330
2
100
AcDbSymbolTableRecord
100
AcDbLayerTableRecord
  2
Defpoints
 70
     0
 62
     7
  6
Continuous
290
     0
370
    -3
390
F
  0
LAYER
  5
27F
330
2
100
AcDbSymbolTableRecord
100
AcDbLayerTableRecord
  2
1
 70
     0
 62
     4
  6
Continuous
370
    -3
390
F
  0
LAYER
  5
280
330
2
100
AcDbSymbolTableRecord
100
AcDbLayerTableRecord
  2
3
 70
     0
 62
     1
  6
GEN3A
370
    -3
390
F
  0
LAYER
  5
282
330
2
100
AcDbSymbolTableRecord
100
AcDbLayerTableRecord
  2
4
 70
     0
 62
     2
  6
GEN7A
370
    -3
390
F
  0
LAYER
  5
284
330
2
100
AcDbSymbolTableRecord
100
AcDbLayerTableRecord
  2
5
 70
     0
 62
     7
  6
Continuous
370
    -3
390
F
  0
LAYER
  5
336
330
2
100
AcDbSymbolTableRecord
100
AcDbLayerTableRecord
  2
SK2
 70
     0
 62
     7
  6
Continuous
370
    -3
390
F
  0
LAYER
  5
363
330
2
100
AcDbSymbolTableRecord
100
AcDbLayerTableRecord
  2
2
 70
     0
 62
     7
  6
Continuous
370
    -3
390
F
  0
LAYER
  5
C76
330
2
100
AcDbSymbolTableRecord
100
AcDbLayerTableRecord
  2
SK1
 70
     0
 62
     4
  6
Continuous
370
    -3
390
F
  0
ENDTAB
  0
TABLE
  2
STYLE
  5
3
330
0
100
AcDbSymbolTable
 70
     3
  0
STYLE
  5
11
330
3
100
AcDbSymbolTableRecord
100
AcDbTextStyleTableRecord
  2
STANDARD
 70
     0
 40
0.0
 41
1.0
 50
0.0
 71
     0
 42
2.5
  3
ISOCPEUR.TTF
  4

1001
ACAD
1000
ISOCPEUR
1071
       34
  0
STYLE
  5
35
330
3
100
AcDbSymbolTableRecord
100
AcDbTextStyleTableRecord
  2
SLDTEXTSTYLE0
 70
     0
 40
0.0
 41
1.0
 50
0.0
 71
     0
 42
0.2
  3
ISOCPEUR.TTF
  4

1001
ACAD
1000
ISOCPEUR
1071
       34
  0
STYLE
  5
285
330
3
100
AcDbSymbolTableRecord
100
AcDbTextStyleTableRecord
  2
GENPRESET
 70
     0
 40
0.0
 41
1.0
 50
0.0
 71
     0
 42
3.5
  3
simplex.shx
  4

  0
ENDTAB
  0
TABLE
  2
VIEW
  5
6
330
0
100
AcDbSymbolTable
 70
     0
  0
ENDTAB
  0
TABLE
  2
UCS
  5
7
330
0
100
AcDbSymbolTable
 70
     0
  0
ENDTAB
  0
TABLE
  2
APPID
  5
9
330
0
100
AcDbSymbolTable
 70
     1
  0
APPID
  5
12
330
9
100
AcDbSymbolTableRecord
100
AcDbRegAppTableRecord
  2
ACAD
 70
     0
  0
ENDTAB
  0
TABLE
  2
DIMSTYLE
  5
A
330
0
100
AcDbSymbolTable
 70
     4
100
AcDbDimStyleTable
 71
     2
340
286
340
27
  0
DIMSTYLE
105
27
330
A
100
AcDbSymbolTableRecord
100
AcDbDimStyleTableRecord
  2
ISO-25
 70
     0
 41
2.5
 42
0.625
 43
3.75
 44
1.25
 73
     0
 74
     0
 77
     1
 78
     8
140
2.5
141
2.5
143
0.0393700787
147
0.625
171
     3
172
     1
271
     2
272
     2
274
     3
278
    44
283
     0
284
     8
340
11
  0
DIMSTYLE
105
155
102
{ACAD_REACTORS
330
E71
102
}
330
A
100
AcDbSymbolTableRecord
100
AcDbDimStyleTableRecord
  2
SLDDIMSTYLE0
 70
     0
 41
3.0
 44
0.0
 73
     0
 74
     0
 77
     2
 78
    12
140
2.0
147
0.5
173
     1
271
     2
272
     3
284
    12
340
35
  0
DIMSTYLE
105
1B2
102
{ACAD_REACTORS
330
E67
102
}
330
A
100
AcDbSymbolTableRecord
100
AcDbDimStyleTableRecord
  2
SLDDIMSTYLE1
 70
     0
 41
1.0
 44
0.0
140
3.0
147
0.75
173
     1
271
     0
272
     0
340
11
341
1B3
343
1B3
344
1B3
  0
DIMSTYLE
105
286
102
{ACAD_REACTORS
330
115E
330
115D
102
}
330
A
100
AcDbSymbolTableRecord
100
AcDbDimStyleTableRecord
  2
GEN-ISO_TDM
 70
     0
 41
4.57
 42
0.0
 43
8.0
 44
2.0
 47
0.1
 48
0.1
 73
     0
 74
     0
 77
     1
 78
     8
140
4.57
141
2.0
146
0.7
147
1.5
172
     1
178
     7
179
     1
271
     2
272
     2
284
     8
285
     8
286
     8
340
285
  0
ENDTAB
  0
TABLE
  2
BLOCK_RECORD
  5
1
330
0
100
AcDbSymbolTable
 70
    55
  0
BLOCK_RECORD
  5
1F
330
1
100
AcDbSymbolTableRecord
100
AcDbBlockTableRecord
  2
*Model_Space
340
22
  0
BLOCK_RECORD
  5
1B
330
1
100
AcDbSymbolTableRecord
100
AcDbBlockTableRecord
  2
*Paper_Space
340
1E
  0
BLOCK_RECORD
  5
23
330
1
100
AcDbSymbolTableRecord
100
AcDbBlockTableRecord
  2
*Paper_Space0
340
26
  0
BLOCK_RECORD
  5
3B
330
1
100
AcDbSymbolTableRecord
100
AcDbBlockTableRecord
  2
SW_TABLEANNOTATION_0
340
0
102
{BLKREFS
331
56
102
}
  0
BLOCK_RECORD
  5
148
330
1
100
AcDbSymbolTableRecord
100
AcDbBlockTableRecord
  2
*D2
340
0
  0
BLOCK_RECORD
  5
15E
330
1
100
AcDbSymbolTableRecord
100
AcDbBlockTableRecord
  2
*D3
340
0
  0
BLOCK_RECORD
  5
174
330
1
100
AcDbSymbolTableRecord
100
AcDbBlockTableRecord
  2
*D4
340
0
  0
BLOCK_RECORD
  5
187
330
1
100
AcDbSymbolTableRecord
100
AcDbBlockTableRecord
  2
*D5
340
0
  0
BLOCK_RECORD
  5
19A
330
1
100
AcDbSymbolTableRecord
100
AcDbBlockTableRecord
  2
*D6
340
0
  0
BLOCK_RECORD
  5
1AC
330
1
100
AcDbSymbolTableRecord
100
AcDbBlockTableRecord
  2
SW_NOTE_0
340
0
102
{BLKREFS
331
1B1
102
}
  0
BLOCK_RECORD
  5
1B3
330
1
100
AcDbSymbolTableRecord
100
AcDbBlockTableRecord
  2
_Dot
340
0
102
{BLKREFS
331
64A
331
67E
331
C30
331
C3F
331
C47
331
EBE
331
ED4
331
EF7
331
118D
331
11A2
102
}
  0
BLOCK_RECORD
  5
1B9
330
1
100
AcDbSymbolTableRecord
100
AcDbBlockTableRecord
  2
SW_NOTE_1
340
0
102
{BLKREFS
331
1BE
102
}
  0
BLOCK_RECORD
  5
2AE
330
1
100
AcDbSymbolTableRecord
100
AcDbBlockTableRecord
  2
*D10
340
0
  0
BLOCK_RECORD
  5
2B8
330
1
100
AcDbSymbolTableRecord
100
AcDbBlockTableRecord
  2
*D11
340
0
  0
BLOCK_RECORD
  5
2C3
330
1
100
AcDbSymbolTableRecord
100
AcDbBlockTableRecord
  2
*D12
340
0
  0
BLOCK_RECORD
  5
2CC
330
1
100
AcDbSymbolTableRecord
100
AcDbBlockTableRecord
  2
*D13
340
0
  0
BLOCK_RECORD
  5
2E1
330
1
100
AcDbSymbolTableRecord
100
AcDbBlockTableRecord
  2
*D14
340
0
  0
BLOCK_RECORD
  5
2ED
330
1
100
AcDbSymbolTableRecord
100
AcDbBlockTableRecord
  2
*D15
340
0
  0
BLOCK_RECORD
  5
2F9
330
1
100
AcDbSymbolTableRecord
100
AcDbBlockTableRecord
  2
*D16
340
0
  0
BLOCK_RECORD
  5
305
330
1
100
AcDbSymbolTableRecord
100
AcDbBlockTableRecord
  2
*D17
340
0
  0
BLOCK_RECORD
  5
47D
330
1
100
AcDbSymbolTableRecord
100
AcDbBlockTableRecord
  2
*D18
340
0
  0
BLOCK_RECORD
  5
488
330
1
100
AcDbSymbolTableRecord
100
AcDbBlockTableRecord
  2
*D19
340
0
  0
BLOCK_RECORD
  5
491
330
1
100
AcDbSymbolTableRecord
100
AcDbBlockTableRecord
  2
*D20
340
0
  0
BLOCK_RECORD
  5
49A
330
1
100
AcDbSymbolTableRecord
100
AcDbBlockTableRecord
  2
*D21
340
0
  0
BLOCK_RECORD
  5
4A5
330
1
100
AcDbSymbolTableRecord
100
AcDbBlockTableRecord
  2
*D22
340
0
  0
BLOCK_RECORD
  5
62E
330
1
100
AcDbSymbolTableRecord
100
AcDbBlockTableRecord
  2
*D23
340
0
  0
BLOCK_RECORD
  5
63A
330
1
100
AcDbSymbolTableRecord
100
AcDbBlockTableRecord
  2
*D24
340
0
  0
BLOCK_RECORD
  5
646
330
1
100
AcDbSymbolTableRecord
100
AcDbBlockTableRecord
  2
*D25
340
0
  0
BLOCK_RECORD
  5
651
330
1
100
AcDbSymbolTableRecord
100
AcDbBlockTableRecord
  2
*D26
340
0
  0
BLOCK_RECORD
  5
65D
330
1
100
AcDbSymbolTableRecord
100
AcDbBlockTableRecord
  2
*D27
340
0
  0
BLOCK_RECORD
  5
707
330
1
100
AcDbSymbolTableRecord
100
AcDbBlockTableRecord
  2
*D28
340
0
  0
BLOCK_RECORD
  5
85B
330
1
100
AcDbSymbolTableRecord
100
AcDbBlockTableRecord
  2
*D29
340
0
  0
BLOCK_RECORD
  5
866
330
1
100
AcDbSymbolTableRecord
100
AcDbBlockTableRecord
  2
*D30
340
0
  0
BLOCK_RECORD
  5
871
330
1
100
AcDbSymbolTableRecord
100
AcDbBlockTableRecord
  2
*D31
340
0
  0
BLOCK_RECORD
  5
87A
330
1
100
AcDbSymbolTableRecord
100
AcDbBlockTableRecord
  2
*D32
340
0
  0
BLOCK_RECORD
  5
883
330
1
100
AcDbSymbolTableRecord
100
AcDbBlockTableRecord
  2
*D33
340
0
  0
BLOCK_RECORD
  5
A08
330
1
100
AcDbSymbolTableRecord
100
AcDbBlockTableRecord
  2
*D34
340
0
  0
BLOCK_RECORD
  5
A14
330
1
100
AcDbSymbolTableRecord
100
AcDbBlockTableRecord
  2
*D35
340
0
  0
BLOCK_RECORD
  5
A20
330
1
100
AcDbSymbolTableRecord
100
AcDbBlockTableRecord
  2
*D36
340
0
  0
BLOCK_RECORD
  5
A2C
330
1
100
AcDbSymbolTableRecord
100
AcDbBlockTableRecord
  2
*D37
340
0
  0
BLOCK_RECORD
  5
A38
330
1
100
AcDbSymbolTableRecord
100
AcDbBlockTableRecord
  2
*D38
340
0
  0
BLOCK_RECORD
  5
B93
330
1
100
AcDbSymbolTableRecord
100
AcDbBlockTableRecord
  2
*D39
340
0
  0
BLOCK_RECORD
  5
B9D
330
1
100
AcDbSymbolTableRecord
100
AcDbBlockTableRecord
  2
*D40
340
0
  0
BLOCK_RECORD
  5
BA5
330
1
100
AcDbSymbolTableRecord
100
AcDbBlockTableRecord
  2
SW_CENTERMARKSYMBOL_0
340
0
102
{BLKREFS
331
BAD
331
BEA
331
E55
331
E89
331
1133
331
1163
102
}
  0
BLOCK_RECORD
  5
C24
330
1
100
AcDbSymbolTableRecord
100
AcDbBlockTableRecord
  2
*D42
340
0
  0
BLOCK_RECORD
  5
C2C
330
1
100
AcDbSymbolTableRecord
100
AcDbBlockTableRecord
  2
*D43
340
0
  0
BLOCK_RECORD
  5
C68
330
1
100
AcDbSymbolTableRecord
100
AcDbBlockTableRecord
  2
*D44
340
0
  0
BLOCK_RECORD
  5
E40
330
1
100
AcDbSymbolTableRecord
100
AcDbBlockTableRecord
  2
*D45
340
0
  0
BLOCK_RECORD
  5
E49
330
1
100
AcDbSymbolTableRecord
100
AcDbBlockTableRecord
  2
*D46
340
0
  0
BLOCK_RECORD
  5
E54
330
1
100
AcDbSymbolTableRecord
100
AcDbBlockTableRecord
  2
A$C7AE11558
340
0
102
{BLKREFS
331
E88
102
}
  0
BLOCK_RECORD
  5
EBA
330
1
100
AcDbSymbolTableRecord
100
AcDbBlockTableRecord
  2
*D48
340
0
  0
BLOCK_RECORD
  5
EC5
330
1
100
AcDbSymbolTableRecord
100
AcDbBlockTableRecord
  2
*D49
340
0
  0
BLOCK_RECORD
  5
1062
330
1
100
AcDbSymbolTableRecord
100
AcDbBlockTableRecord
  2
*D50
340
0
  0
BLOCK_RECORD
  5
1115
330
1
100
AcDbSymbolTableRecord
100
AcDbBlockTableRecord
  2
*D51
340
0
  0
BLOCK_RECORD
  5
1121
330
1
100
AcDbSymbolTableRecord
100
AcDbBlockTableRecord
  2
*D52
340
0
  0
BLOCK_RECORD
  5
118A
330
1
100
AcDbSymbolTableRecord
100
AcDbBlockTableRecord
  2
*D53
340
0
  0
BLOCK_RECORD
  5
1194
330
1
100
AcDbSymbolTableRecord
100
AcDbBlockTableRecord
  2
*D54
340
0
  0
ENDTAB
  0
ENDSEC
  0
SECTION
  2
BLOCKS
  0
BLOCK
  5
20
330
1F
100
AcDbEntity
  8
0
100
AcDbBlockBegin
  2
*Model_Space
 70
     0
 10
0.0
 20
0.0
 30
0.0
  3
*Model_Space
  1

  0
ENDBLK
  5
21
330
1F
100
AcDbEntity
  8
0
100
AcDbBlockEnd
  0
BLOCK
  5
1C
330
1B
100
AcDbEntity
 67
     1
  8
0
100
AcDbBlockBegin
  2
*Paper_Space
 70
     0
 10
0.0
 20
0.0
 30
0.0
  3
*Paper_Space
  1

  0
ENDBLK
  5
1D
330
1B
100
AcDbEntity
 67
     1
  8
0
100
AcDbBlockEnd
  0
BLOCK
  5
24
330
23
100
AcDbEntity
  8
0
100
AcDbBlockBegin
  2
*Paper_Space0
 70
     0
 10
0.0
 20
0.0
 30
0.0
  3
*Paper_Space0
  1

  0
ENDBLK
  5
25
330
23
100
AcDbEntity
  8
0
100
AcDbBlockEnd
  0
BLOCK
  5
3C
330
3B
100
AcDbEntity
  8
0
100
AcDbBlockBegin
  2
SW_TABLEANNOTATION_0
 70
     0
 10
0.0
 20
0.0
 30
0.0
  3
SW_TABLEANNOTATION_0
  1

  0
LINE
  5
3E
330
3B
100
AcDbEntity
  8
0
  6
SLD-Durchgehend
 62
     7
370
     0
100
AcDbLine
 10
0.0
 20
0.0
 30
0.0
 11
0.0
 21
-10.9613963039
 31
0.0
  0
LINE
  5
3F
330
3B
100
AcDbEntity
  8
0
  6
SLD-Durchgehend
 62
     7
370
     0
100
AcDbLine
 10
0.0
 20
-10.9613963039
 30
0.0
 11
125.0044361962
 21
-10.9613963039
 31
0.0
  0
LINE
  5
40
330
3B
100
AcDbEntity
  8
0
  6
SLD-Durchgehend
 62
     7
370
     0
100
AcDbLine
 10
125.0044361962
 20
-10.9613963039
 30
0.0
 11
125.0044361962
 21
0.0
 31
0.0
  0
LINE
  5
41
330
3B
100
AcDbEntity
  8
0
  6
SLD-Durchgehend
 62
     7
370
     0
100
AcDbLine
 10
125.0044361962
 20
0.0
 30
0.0
 11
0.0
 21
0.0
 31
0.0
  0
LINE
  5
42
330
3B
100
AcDbEntity
  8
0
  6
SLD-Durchgehend
 62
     7
370
     0
100
AcDbLine
 10
15.9651052694
 20
-7.3075975359
 30
0.0
 11
15.9651052694
 21
-10.9613963039
 31
0.0
  0
LINE
  5
43
330
3B
100
AcDbEntity
  8
0
  6
SLD-Durchgehend
 62
     7
370
     0
100
AcDbLine
 10
34.1012448998
 20
-7.3075975359
 30
0.0
 11
34.1012448998
 21
-10.9613963039
 31
0.0
  0
LINE
  5
44
330
3B
100
AcDbEntity
  8
0
  6
SLD-Durchgehend
 62
     7
370
     0
100
AcDbLine
 10
92.65864564180001
 20
-7.3075975359
 30
0.0
 11
92.65864564180001
 21
-10.9613963039
 31
0.0
  0
LINE
  5
45
330
3B
100
AcDbEntity
  8
0
  6
SLD-Durchgehend
 62
     7
370
     0
100
AcDbLine
 10
15.9651052694
 20
0.0
 30
0.0
 11
15.9651052694
 21
-7.3075975359
 31
0.0
  0
LINE
  5
46
330
3B
100
AcDbEntity
  8
0
  6
SLD-Durchgehend
 62
     7
370
     0
100
AcDbLine
 10
34.1012448998
 20
0.0
 30
0.0
 11
34.1012448998
 21
-7.3075975359
 31
0.0
  0
LINE
  5
47
330
3B
100
AcDbEntity
  8
0
  6
SLD-Durchgehend
 62
     7
370
     0
100
AcDbLine
 10
92.65864564180001
 20
0.0
 30
0.0
 11
92.65864564180001
 21
-7.3075975359
 31
0.0
  0
LINE
  5
48
330
3B
100
AcDbEntity
  8
0
  6
SLD-Durchgehend
 62
     7
370
     0
100
AcDbLine
 10
0.0
 20
-3.653798768
 30
0.0
 11
125.0044361962
 21
-3.653798768
 31
0.0
  0
LINE
  5
49
330
3B
100
AcDbEntity
  8
0
  6
SLD-Durchgehend
 62
     7
370
     0
100
AcDbLine
 10
0.0
 20
-7.3075975359
 30
0.0
 11
125.0044361962
 21
-7.3075975359
 31
0.0
  0
MTEXT
  5
4A
330
3B
100
AcDbEntity
  8
0
  6
SLD-Durchgehend
 62
     7
370
     0
100
AcDbMText
 10
5.2825527975
 20
-8.208932362899997
 30
0.0
 40
2.0
 41
0.0
 71
     1
 72
     1
  1
{POS.}
  7
SLDTEXTSTYLE0
 73
     1
 44
1.0
  0
MTEXT
  5
4B
330
3B
100
AcDbEntity
  8
0
  6
SLD-Durchgehend
 62
     7
370
     0
100
AcDbMText
 10
21.1331751904
 20
-8.208932362899997
 30
0.0
 40
2.0
 41
0.0
 71
     1
 72
     1
  1
{MENGE}
  7
SLDTEXTSTYLE0
 73
     1
 44
1.0
  0
MTEXT
  5
4C
330
3B
100
AcDbEntity
  8
0
  6
SLD-Durchgehend
 62
     7
370
     0
100
AcDbMText
 10
56.07994649560001
 20
-7.9344970446
 30
0.0
 40
2.0
 41
0.0
 71
     1
 72
     1
  1
{Bezeichnung}
  7
SLDTEXTSTYLE0
 73
     1
 44
1.0
  0
MTEXT
  5
4D
330
3B
100
AcDbEntity
  8
0
  6
SLD-Durchgehend
 62
     7
370
     0
100
AcDbMText
 10
97.73154207979999
 20
-7.9344970446
 30
0.0
 40
2.0
 41
0.0
 71
     1
 72
     1
  1
{Zeichnungsnummer}
  7
SLDTEXTSTYLE0
 73
     1
 44
1.0
  0
MTEXT
  5
4E
330
3B
100
AcDbEntity
  8
0
  6
SLD-Durchgehend
 62
     7
370
     0
100
AcDbMText
 10
7.2825526596
 20
-0.9013348269999999
 30
0.0
 40
2.0
 41
0.0
 71
     1
 72
     1
  1
{2}
  7
SLDTEXTSTYLE0
 73
     1
 44
1.0
  0
MTEXT
  5
4F
330
3B
100
AcDbEntity
  8
0
  6
SLD-Durchgehend
 62
     7
370
     0
100
AcDbMText
 10
24.53317506079999
 20
-0.9013348269999999
 30
0.0
 40
2.0
 41
0.0
 71
     1
 72
     1
  1
{1}
  7
SLDTEXTSTYLE0
 73
     1
 44
1.0
  0
MTEXT
  5
50
330
3B
100
AcDbEntity
  8
0
  6
SLD-Durchgehend
 62
     7
370
     0
100
AcDbMText
 10
54.27994675939999
 20
-0.9013348269999999
 30
0.0
 40
2.0
 41
0.0
 71
     1
 72
     1
  1
{Klemmschraube}
  7
SLDTEXTSTYLE0
 73
     1
 44
1.0
  0
MTEXT
  5
51
330
3B
100
AcDbEntity
  8
0
  6
SLD-Durchgehend
 62
     7
370
     0
100
AcDbMText
 10
99.33154122440001
 20
-0.9013348269999999
 30
0.0
 40
2.0
 41
0.0
 71
     1
 72
     1
  1
{MB1-ER1.001.006}
  7
SLDTEXTSTYLE0
 73
     1
 44
1.0
  0
MTEXT
  5
52
330
3B
100
AcDbEntity
  8
0
  6
SLD-Durchgehend
 62
     7
370
     0
100
AcDbMText
 10
7.4825526109
 20
-4.5551335949
 30
0.0
 40
2.0
 41
0.0
 71
     1
 72
     1
  1
{1}
  7
SLDTEXTSTYLE0
 73
     1
 44
1.0
  0
MTEXT
  5
53
330
3B
100
AcDbEntity
  8
0
  6
SLD-Durchgehend
 62
     7
370
     0
100
AcDbMText
 10
24.53317506079999
 20
-4.5551335949
 30
0.0
 40
2.0
 41
0.0
 71
     1
 72
     1
  1
{1}
  7
SLDTEXTSTYLE0
 73
     1
 44
1.0
  0
MTEXT
  5
54
330
3B
100
AcDbEntity
  8
0
  6
SLD-Durchgehend
 62
     7
370
     0
100
AcDbMText
 10
54.2799448967
 20
-4.5551335949
 30
0.0
 40
2.0
 41
0.0
 71
     1
 72
     1
  1
{Aufnahme MBM}
  7
SLDTEXTSTYLE0
 73
     1
 44
1.0
  0
MTEXT
  5
55
330
3B
100
AcDbEntity
  8
0
  6
SLD-Durchgehend
 62
     7
370
     0
100
AcDbMText
 10
98.73154131239999
 20
-4.5551335949
 30
0.0
 40
2.0
 41
0.0
 71
     1
 72
     1
  1
{SK4-MB1.K01.034}
  7
SLDTEXTSTYLE0
 73
     1
 44
1.0
  0
ENDBLK
  5
3D
330
3B
100
AcDbEntity
  8
0
100
AcDbBlockEnd
  0
BLOCK
  5
153
330
148
100
AcDbEntity
  8
0
100
AcDbBlockBegin
  2
*D2
 70
     1
 10
0.0
 20
0.0
 30
0.0
  3
*D2
  1

  0
SOLID
  5
156
330
148
100
AcDbEntity
  8
VERMASSUNG
100
AcDbTrace
 10
72.01254426199999
 20
173.2824455043
 30
0.0
 11
71.562544262
 21
170.2824455043
 31
0.0
 12
72.462544262
 22
170.2824455043
 32
0.0
 13
72.462544262
 23
170.2824455043
 33
0.0
  0
SOLID
  5
157
330
148
100
AcDbEntity
  8
VERMASSUNG
100
AcDbTrace
 10
72.01254426199999
 20
109.7824455043
 30
0.0
 11
72.462544262
 21
112.7824455043
 31
0.0
 12
71.562544262
 22
112.7824455043
 32
0.0
 13
71.562544262
 23
112.7824455043
 33
0.0
  0
LINE
  5
158
330
148
100
AcDbEntity
  8
VERMASSUNG
100
AcDbLine
 10
149.3125782285
 20
173.2824455043
 30
0.0
 11
71.01254426199999
 21
173.2824455043
 31
0.0
  0
LINE
  5
159
330
148
100
AcDbEntity
  8
VERMASSUNG
100
AcDbLine
 10
149.3125782285
 20
109.7824455043
 30
0.0
 11
71.01254426199999
 21
109.7824455043
 31
0.0
  0
LINE
  5
15A
330
148
100
AcDbEntity
  8
VERMASSUNG
100
AcDbLine
 10
72.01254426199999
 20
173.2824455043
 30
0.0
 11
72.01254426199999
 21
109.7824455043
 31
0.0
  0
MTEXT
  5
15B
330
148
100
AcDbEntity
  8
VERMASSUNG
100
AcDbMText
 10
69.41254420379999
 20
137.7535424923999
 30
0.0
 40
2.0
 41
0.0
 71
     1
 72
     1
  1
{%%c}
  7
SLDTEXTSTYLE0
 11
-0.000000000000007
 21
1.0
 31
0.0
 73
     1
 44
1.0
  0
MTEXT
  5
15C
330
148
100
AcDbEntity
  8
VERMASSUNG
100
AcDbMText
 10
69.41254414560001
 20
141.3614521432999
 30
0.0
 40
2.0
 41
0.0
 71
     1
 72
     1
  1
{63.5}
  7
SLDTEXTSTYLE0
 11
-0.000000000000007
 21
1.0
 31
0.0
 73
     1
 44
1.0
  0
ENDBLK
  5
154
330
148
100
AcDbEntity
  8
0
100
AcDbBlockEnd
  0
BLOCK
  5
169
330
15E
100
AcDbEntity
  8
0
100
AcDbBlockBegin
  2
*D3
 70
     1
 10
0.0
 20
0.0
 30
0.0
  3
*D3
  1

  0
SOLID
  5
16B
330
15E
100
AcDbEntity
  8
VERMASSUNG
100
AcDbTrace
 10
188.2649996716999
 20
151.5324455043
 30
0.0
 11
187.8149996716999
 21
148.5324455043
 31
0.0
 12
188.7149996716999
 22
148.5324455043
 32
0.0
 13
188.7149996716999
 23
148.5324455043
 33
0.0
  0
SOLID
  5
16C
330
15E
100
AcDbEntity
  8
VERMASSUNG
100
AcDbTrace
 10
188.2649996716999
 20
131.5324455043
 30
0.0
 11
188.7149996716999
 21
134.5324455043
 31
0.0
 12
187.8149996716999
 22
134.5324455043
 32
0.0
 13
187.8149996716999
 23
134.5324455043
 33
0.0
  0
LINE
  5
16D
330
15E
100
AcDbEntity
  8
VERMASSUNG
100
AcDbLine
 10
179.4125782285
 20
151.5324455043
 30
0.0
 11
189.2649996716999
 21
151.5324455043
 31
0.0
  0
LINE
  5
16E
330
15E
100
AcDbEntity
  8
VERMASSUNG
100
AcDbLine
 10
179.4125782285
 20
131.5324455043
 30
0.0
 11
189.2649996716999
 21
131.5324455043
 31
0.0
  0
LINE
  5
16F
330
15E
100
AcDbEntity
  8
VERMASSUNG
100
AcDbLine
 10
188.2649996716999
 20
151.5324455043
 30
0.0
 11
188.2649996716999
 21
131.5324455043
 31
0.0
  0
MTEXT
  5
170
330
15E
100
AcDbEntity
  8
VERMASSUNG
100
AcDbMText
 10
185.464999895
 20
134.9724920257
 30
0.0
 40
2.0
 41
0.0
 71
     1
 72
     1
  1
{MBM }
  7
SLDTEXTSTYLE0
 11
-0.000000000000007
 21
1.0
 31
0.0
 73
     1
 44
1.0
  0
MTEXT
  5
171
330
15E
100
AcDbEntity
  8
VERMASSUNG
100
AcDbMText
 10
185.6649998463
 20
141.3724918640999
 30
0.0
 40
2.0
 41
0.0
 71
     1
 72
     1
  1
{%%c}
  7
SLDTEXTSTYLE0
 11
-0.000000000000007
 21
1.0
 31
0.0
 73
     1
 44
1.0
  0
MTEXT
  5
172
330
15E
100
AcDbEntity
  8
VERMASSUNG
100
AcDbMText
 10
185.6649995553
 20
144.9813310400999
 30
0.0
 40
2.0
 41
0.0
 71
     1
 72
     1
  1
{20}
  7
SLDTEXTSTYLE0
 11
-0.000000000000007
 21
1.0
 31
0.0
 73
     1
 44
1.0
  0
ENDBLK
  5
16A
330
15E
100
AcDbEntity
  8
0
100
AcDbBlockEnd
  0
BLOCK
  5
17E
330
174
100
AcDbEntity
  8
0
100
AcDbBlockBegin
  2
*D4
 70
     1
 10
0.0
 20
0.0
 30
0.0
  3
*D4
  1

  0
SOLID
  5
180
330
174
100
AcDbEntity
  8
VERMASSUNG
100
AcDbTrace
 10
179.6125782284996
 20
183.6270366356
 30
0.0
 11
176.6125782284996
 21
184.0770366356
 31
0.0
 12
176.6125782284996
 22
183.1770366356
 32
0.0
 13
176.6125782284996
 23
183.1770366356
 33
0.0
  0
SOLID
  5
181
330
174
100
AcDbEntity
  8
VERMASSUNG
100
AcDbTrace
 10
145.5125782284999
 20
183.6270366356
 30
0.0
 11
148.5125782284999
 21
183.1770366356
 31
0.0
 12
148.5125782284999
 22
184.0770366356
 32
0.0
 13
148.5125782284999
 23
184.0770366356
 33
0.0
  0
LINE
  5
182
330
174
100
AcDbEntity
  8
VERMASSUNG
100
AcDbLine
 10
179.6125782284996
 20
151.3324455043
 30
0.0
 11
179.6125782284996
 21
184.6270366356
 31
0.0
  0
LINE
  5
183
330
174
100
AcDbEntity
  8
VERMASSUNG
100
AcDbLine
 10
145.5125782284999
 20
163.7574455043
 30
0.0
 11
145.5125782284999
 21
184.6270366356
 31
0.0
  0
LINE
  5
184
330
174
100
AcDbEntity
  8
VERMASSUNG
100
AcDbLine
 10
179.6125782284996
 20
183.6270366356
 30
0.0
 11
145.5125782284999
 21
183.6270366356
 31
0.0
  0
MTEXT
  5
185
330
174
100
AcDbEntity
  8
VERMASSUNG
100
AcDbMText
 10
160.3784382328
 20
186.227036752
 30
0.0
 40
2.0
 41
0.0
 71
     1
 72
     1
  1
{34.1}
  7
SLDTEXTSTYLE0
 73
     1
 44
1.0
  0
ENDBLK
  5
17F
330
174
100
AcDbEntity
  8
0
100
AcDbBlockEnd
  0
BLOCK
  5
191
330
187
100
AcDbEntity
  8
0
100
AcDbBlockBegin
  2
*D5
 70
     1
 10
0.0
 20
0.0
 30
0.0
  3
*D5
  1

  0
SOLID
  5
193
330
187
100
AcDbEntity
  8
VERMASSUNG
100
AcDbTrace
 10
179.6125782284996
 20
177.6270366355998
 30
0.0
 11
176.6125782284996
 21
178.0770366356
 31
0.0
 12
176.6125782284996
 22
177.1770366356
 32
0.0
 13
176.6125782284996
 23
177.1770366356
 33
0.0
  0
SOLID
  5
194
330
187
100
AcDbEntity
  8
VERMASSUNG
100
AcDbTrace
 10
164.5625782285
 20
177.6270366355998
 30
0.0
 11
167.5625782285
 21
177.1770366356
 31
0.0
 12
167.5625782285
 22
178.0770366356
 32
0.0
 13
167.5625782285
 23
178.0770366356
 33
0.0
  0
LINE
  5
195
330
187
100
AcDbEntity
  8
VERMASSUNG
100
AcDbLine
 10
179.6125782284996
 20
151.3324455043
 30
0.0
 11
179.6125782284996
 21
178.6270366355998
 31
0.0
  0
LINE
  5
196
330
187
100
AcDbEntity
  8
VERMASSUNG
100
AcDbLine
 10
164.5625782285
 20
172.6824455043
 30
0.0
 11
164.5625782285
 21
178.6270366355998
 31
0.0
  0
LINE
  5
197
330
187
100
AcDbEntity
  8
VERMASSUNG
100
AcDbLine
 10
179.6125782284996
 20
177.6270366355998
 30
0.0
 11
164.5625782285
 21
177.6270366355998
 31
0.0
  0
MTEXT
  5
198
330
187
100
AcDbEntity
  8
VERMASSUNG
100
AcDbMText
 10
168.8196487096
 20
180.227036752
 30
0.0
 40
2.0
 41
0.0
 71
     1
 72
     1
  1
{15.05}
  7
SLDTEXTSTYLE0
 73
     1
 44
1.0
  0
ENDBLK
  5
192
330
187
100
AcDbEntity
  8
0
100
AcDbBlockEnd
  0
BLOCK
  5
1A4
330
19A
100
AcDbEntity
  8
0
100
AcDbBlockBegin
  2
*D6
 70
     1
 10
0.0
 20
0.0
 30
0.0
  3
*D6
  1

  0
SOLID
  5
1A6
330
19A
100
AcDbEntity
  8
VERMASSUNG
100
AcDbTrace
 10
179.6125782284996
 20
189.6270366356
 30
0.0
 11
176.6125782284996
 21
190.0770366356
 31
0.0
 12
176.6125782284996
 22
189.1770366356
 32
0.0
 13
176.6125782284996
 23
189.1770366356
 33
0.0
  0
SOLID
  5
1A7
330
19A
100
AcDbEntity
  8
VERMASSUNG
100
AcDbTrace
 10
77.2625782285
 20
189.6270366356
 30
0.0
 11
80.2625782285
 21
189.1770366356
 31
0.0
 12
80.2625782285
 22
190.0770366356
 32
0.0
 13
80.2625782285
 23
190.0770366356
 33
0.0
  0
LINE
  5
1A8
330
19A
100
AcDbEntity
  8
VERMASSUNG
100
AcDbLine
 10
179.6125782284996
 20
151.3324455043
 30
0.0
 11
179.6125782284996
 21
190.6270366356
 31
0.0
  0
LINE
  5
1A9
330
19A
100
AcDbEntity
  8
VERMASSUNG
100
AcDbLine
 10
77.2625782285
 20
152.9395761013
 30
0.0
 11
77.2625782285
 21
190.6270366356
 31
0.0
  0
LINE
  5
1AA
330
19A
100
AcDbEntity
  8
VERMASSUNG
100
AcDbLine
 10
179.6125782284996
 20
189.6270366356
 30
0.0
 11
77.2625782285
 21
189.6270366356
 31
0.0
  0
MTEXT
  5
1AB
330
19A
100
AcDbEntity
  8
VERMASSUNG
100
AcDbMText
 10
128.8985361082
 20
192.227036752
 30
0.0
 40
2.0
 41
0.0
 71
     1
 72
     1
  1
{102.35}
  7
SLDTEXTSTYLE0
 73
     1
 44
1.0
  0
ENDBLK
  5
1A5
330
19A
100
AcDbEntity
  8
0
100
AcDbBlockEnd
  0
BLOCK
  5
1AD
330
1AC
100
AcDbEntity
  8
0
100
AcDbBlockBegin
  2
SW_NOTE_0
 70
     0
 10
0.0
 20
0.0
 30
0.0
  3
SW_NOTE_0
  1

  0
CIRCLE
  5
1AF
330
1AC
100
AcDbEntity
  8
VERMASSUNG
100
AcDbCircle
 10
0.0
 20
-2.5572144949
 30
0.0
 40
2.557214494894949
  0
MTEXT
  5
1B0
330
1AC
100
AcDbEntity
  8
VERMASSUNG
100
AcDbMText
 10
-0.5000000237
 20
-1.823974619799999
 30
0.0
 40
2.0
 41
0.0
 71
     1
 72
     1
  1
{1}
  7
SLDTEXTSTYLE0
 73
     1
 44
1.0
  0
ENDBLK
  5
1AE
330
1AC
100
AcDbEntity
  8
0
100
AcDbBlockEnd
  0
BLOCK
  5
1B4
330
1B3
100
AcDbEntity
  8
0
100
AcDbBlockBegin
  2
_Dot
 70
     0
 10
0.0
 20
0.0
 30
0.0
  3
_Dot
  1

  0
LWPOLYLINE
  5
1B6
330
1B3
100
AcDbEntity
  8
0
  6
ByBlock
 62
     0
100
AcDbPolyline
 90
        2
 70
     1
 43
0.5
 10
-0.25
 20
0.0
 42
1.0
 10
0.25
 20
0.0
 42
1.0
  0
LINE
  5
1B7
330
1B3
100
AcDbEntity
  8
0
  6
ByBlock
 62
     0
370
    -2
100
AcDbLine
 10
-0.5
 20
0.0
 30
0.0
 11
-1.0
 21
0.0
 31
0.0
  0
ENDBLK
  5
1B5
330
1B3
100
AcDbEntity
  8
0
100
AcDbBlockEnd
  0
BLOCK
  5
1BA
330
1B9
100
AcDbEntity
  8
0
100
AcDbBlockBegin
  2
SW_NOTE_1
 70
     0
 10
0.0
 20
0.0
 30
0.0
  3
SW_NOTE_1
  1

  0
CIRCLE
  5
1BC
330
1B9
100
AcDbEntity
  8
VERMASSUNG
100
AcDbCircle
 10
2.202068993799997
 20
1.3000915811
 30
0.0
 40
2.557214494894946
  0
MTEXT
  5
1BD
330
1B9
100
AcDbEntity
  8
VERMASSUNG
100
AcDbMText
 10
1.502069018799998
 20
2.033331456199999
 30
0.0
 40
2.0
 41
0.0
 71
     1
 72
     1
  1
{2}
  7
SLDTEXTSTYLE0
 73
     1
 44
1.0
  0
ENDBLK
  5
1BB
330
1B9
100
AcDbEntity
  8
0
100
AcDbBlockEnd
  0
BLOCK
  5
2B6
330
2AE
100
AcDbEntity
  8
0
100
AcDbBlockBegin
  2
*D10
 70
     1
 10
0.0
 20
0.0
 30
0.0
  3
*D10
  1

  0
SOLID
  5
2AF
330
2AE
100
AcDbEntity
  8
VERMASSUNG
100
AcDbTrace
 10
72.01254426199999
 20
173.2824455043
 30
0.0
 11
71.562544262
 21
170.2824455043
 31
0.0
 12
72.462544262
 22
170.2824455043
 32
0.0
 13
72.462544262
 23
170.2824455043
 33
0.0
  0
SOLID
  5
2B0
330
2AE
100
AcDbEntity
  8
VERMASSUNG
100
AcDbTrace
 10
72.01254426199999
 20
109.7824455043
 30
0.0
 11
72.462544262
 21
112.7824455043
 31
0.0
 12
71.562544262
 22
112.7824455043
 32
0.0
 13
71.562544262
 23
112.7824455043
 33
0.0
  0
LINE
  5
2B1
330
2AE
100
AcDbEntity
  8
VERMASSUNG
100
AcDbLine
 10
149.3125782285
 20
173.2824455043
 30
0.0
 11
71.01254426199999
 21
173.2824455043
 31
0.0
  0
LINE
  5
2B2
330
2AE
100
AcDbEntity
  8
VERMASSUNG
100
AcDbLine
 10
149.3125782285
 20
109.7824455043
 30
0.0
 11
71.01254426199999
 21
109.7824455043
 31
0.0
  0
LINE
  5
2B3
330
2AE
100
AcDbEntity
  8
VERMASSUNG
100
AcDbLine
 10
72.01254426199999
 20
173.2824455043
 30
0.0
 11
72.01254426199999
 21
109.7824455043
 31
0.0
  0
MTEXT
  5
2B4
330
2AE
100
AcDbEntity
  8
VERMASSUNG
100
AcDbMText
 10
69.41254420379999
 20
137.7535424923999
 30
0.0
 40
2.0
 41
0.0
 71
     1
 72
     1
  1
{%%c}
  7
SLDTEXTSTYLE0
 11
-0.000000000000007
 21
1.0
 31
0.0
 73
     1
 44
1.0
  0
MTEXT
  5
2B5
330
2AE
100
AcDbEntity
  8
VERMASSUNG
100
AcDbMText
 10
69.41254414560001
 20
141.3614521432999
 30
0.0
 40
2.0
 41
0.0
 71
     1
 72
     1
  1
{63.5}
  7
SLDTEXTSTYLE0
 11
-0.000000000000007
 21
1.0
 31
0.0
 73
     1
 44
1.0
  0
ENDBLK
  5
2B7
330
2AE
100
AcDbEntity
  8
0
100
AcDbBlockEnd
  0
BLOCK
  5
2C1
330
2B8
100
AcDbEntity
  8
0
100
AcDbBlockBegin
  2
*D11
 70
     1
 10
0.0
 20
0.0
 30
0.0
  3
*D11
  1

  0
SOLID
  5
2B9
330
2B8
100
AcDbEntity
  8
VERMASSUNG
100
AcDbTrace
 10
188.2649996716999
 20
151.5324455043
 30
0.0
 11
187.8149996716999
 21
148.5324455043
 31
0.0
 12
188.7149996716999
 22
148.5324455043
 32
0.0
 13
188.7149996716999
 23
148.5324455043
 33
0.0
  0
SOLID
  5
2BA
330
2B8
100
AcDbEntity
  8
VERMASSUNG
100
AcDbTrace
 10
188.2649996716999
 20
131.5324455043
 30
0.0
 11
188.7149996716999
 21
134.5324455043
 31
0.0
 12
187.8149996716999
 22
134.5324455043
 32
0.0
 13
187.8149996716999
 23
134.5324455043
 33
0.0
  0
LINE
  5
2BB
330
2B8
100
AcDbEntity
  8
VERMASSUNG
100
AcDbLine
 10
179.4125782285
 20
151.5324455043
 30
0.0
 11
189.2649996716999
 21
151.5324455043
 31
0.0
  0
LINE
  5
2BC
330
2B8
100
AcDbEntity
  8
VERMASSUNG
100
AcDbLine
 10
179.4125782285
 20
131.5324455043
 30
0.0
 11
189.2649996716999
 21
131.5324455043
 31
0.0
  0
LINE
  5
2BD
330
2B8
100
AcDbEntity
  8
VERMASSUNG
100
AcDbLine
 10
188.2649996716999
 20
151.5324455043
 30
0.0
 11
188.2649996716999
 21
131.5324455043
 31
0.0
  0
MTEXT
  5
2BE
330
2B8
100
AcDbEntity
  8
VERMASSUNG
100
AcDbMText
 10
185.464999895
 20
134.9724920257
 30
0.0
 40
2.0
 41
0.0
 71
     1
 72
     1
  1
{MBM }
  7
SLDTEXTSTYLE0
 11
-0.000000000000007
 21
1.0
 31
0.0
 73
     1
 44
1.0
  0
MTEXT
  5
2BF
330
2B8
100
AcDbEntity
  8
VERMASSUNG
100
AcDbMText
 10
185.6649998463
 20
141.3724918640999
 30
0.0
 40
2.0
 41
0.0
 71
     1
 72
     1
  1
{%%c}
  7
SLDTEXTSTYLE0
 11
-0.000000000000007
 21
1.0
 31
0.0
 73
     1
 44
1.0
  0
MTEXT
  5
2C0
330
2B8
100
AcDbEntity
  8
VERMASSUNG
100
AcDbMText
 10
185.6649995553
 20
144.9813310400999
 30
0.0
 40
2.0
 41
0.0
 71
     1
 72
     1
  1
{20}
  7
SLDTEXTSTYLE0
 11
-0.000000000000007
 21
1.0
 31
0.0
 73
     1
 44
1.0
  0
ENDBLK
  5
2C2
330
2B8
100
AcDbEntity
  8
0
100
AcDbBlockEnd
  0
BLOCK
  5
2CA
330
2C3
100
AcDbEntity
  8
0
100
AcDbBlockBegin
  2
*D12
 70
     1
 10
0.0
 20
0.0
 30
0.0
  3
*D12
  1

  0
SOLID
  5
2C4
330
2C3
100
AcDbEntity
  8
VERMASSUNG
100
AcDbTrace
 10
179.6125782284996
 20
183.6270366356
 30
0.0
 11
176.6125782284996
 21
184.0770366356
 31
0.0
 12
176.6125782284996
 22
183.1770366356
 32
0.0
 13
176.6125782284996
 23
183.1770366356
 33
0.0
  0
SOLID
  5
2C5
330
2C3
100
AcDbEntity
  8
VERMASSUNG
100
AcDbTrace
 10
145.5125782284999
 20
183.6270366356
 30
0.0
 11
148.5125782284999
 21
183.1770366356
 31
0.0
 12
148.5125782284999
 22
184.0770366356
 32
0.0
 13
148.5125782284999
 23
184.0770366356
 33
0.0
  0
LINE
  5
2C6
330
2C3
100
AcDbEntity
  8
VERMASSUNG
100
AcDbLine
 10
179.6125782284996
 20
151.3324455043
 30
0.0
 11
179.6125782284996
 21
184.6270366356
 31
0.0
  0
LINE
  5
2C7
330
2C3
100
AcDbEntity
  8
VERMASSUNG
100
AcDbLine
 10
145.5125782284999
 20
163.7574455043
 30
0.0
 11
145.5125782284999
 21
184.6270366356
 31
0.0
  0
LINE
  5
2C8
330
2C3
100
AcDbEntity
  8
VERMASSUNG
100
AcDbLine
 10
179.6125782284996
 20
183.6270366356
 30
0.0
 11
145.5125782284999
 21
183.6270366356
 31
0.0
  0
MTEXT
  5
2C9
330
2C3
100
AcDbEntity
  8
VERMASSUNG
100
AcDbMText
 10
160.3784382328
 20
186.227036752
 30
0.0
 40
2.0
 41
0.0
 71
     1
 72
     1
  1
{34.1}
  7
SLDTEXTSTYLE0
 73
     1
 44
1.0
  0
ENDBLK
  5
2CB
330
2C3
100
AcDbEntity
  8
0
100
AcDbBlockEnd
  0
BLOCK
  5
2D3
330
2CC
100
AcDbEntity
  8
0
100
AcDbBlockBegin
  2
*D13
 70
     1
 10
0.0
 20
0.0
 30
0.0
  3
*D13
  1

  0
SOLID
  5
2CD
330
2CC
100
AcDbEntity
  8
VERMASSUNG
100
AcDbTrace
 10
179.6125782284996
 20
177.6270366355998
 30
0.0
 11
176.6125782284996
 21
178.0770366356
 31
0.0
 12
176.6125782284996
 22
177.1770366356
 32
0.0
 13
176.6125782284996
 23
177.1770366356
 33
0.0
  0
SOLID
  5
2CE
330
2CC
100
AcDbEntity
  8
VERMASSUNG
100
AcDbTrace
 10
164.5625782285
 20
177.6270366355998
 30
0.0
 11
167.5625782285
 21
177.1770366356
 31
0.0
 12
167.5625782285
 22
178.0770366356
 32
0.0
 13
167.5625782285
 23
178.0770366356
 33
0.0
  0
LINE
  5
2CF
330
2CC
100
AcDbEntity
  8
VERMASSUNG
100
AcDbLine
 10
179.6125782284996
 20
151.3324455043
 30
0.0
 11
179.6125782284996
 21
178.6270366355998
 31
0.0
  0
LINE
  5
2D0
330
2CC
100
AcDbEntity
  8
VERMASSUNG
100
AcDbLine
 10
164.5625782285
 20
172.6824455043
 30
0.0
 11
164.5625782285
 21
178.6270366355998
 31
0.0
  0
LINE
  5
2D1
330
2CC
100
AcDbEntity
  8
VERMASSUNG
100
AcDbLine
 10
179.6125782284996
 20
177.6270366355998
 30
0.0
 11
164.5625782285
 21
177.6270366355998
 31
0.0
  0
MTEXT
  5
2D2
330
2CC
100
AcDbEntity
  8
VERMASSUNG
100
AcDbMText
 10
168.8196487096
 20
180.227036752
 30
0.0
 40
2.0
 41
0.0
 71
     1
 72
     1
  1
{15.05}
  7
SLDTEXTSTYLE0
 73
     1
 44
1.0
  0
ENDBLK
  5
2D4
330
2CC
100
AcDbEntity
  8
0
100
AcDbBlockEnd
  0
BLOCK
  5
2EB
330
2E1
100
AcDbEntity
  8
0
100
AcDbBlockBegin
  2
*D14
 70
     1
 10
0.0
 20
0.0
 30
0.0
  3
*D14
  1

  0
LINE
  5
3F8
330
2E1
100
AcDbEntity
  8
2
 62
     0
370
    -2
100
AcDbLine
 10
34.09999999999998
 20
9.800000000000011
 30
0.0
 11
34.09999999999998
 21
45.59459113129999
 31
0.0
  0
LINE
  5
3F9
330
2E1
100
AcDbEntity
  8
2
 62
     0
370
    -2
100
AcDbLine
 10
0.0
 20
22.22499999999999
 30
0.0
 11
0.0000000000000014
 21
45.59459113129999
 31
0.0
  0
LINE
  5
3FA
330
2E1
100
AcDbEntity
  8
2
 62
     0
370
    -2
100
AcDbLine
 10
29.52999999999999
 20
43.59459113129999
 30
0.0
 11
4.570000000000001
 21
43.59459113129999
 31
0.0
  0
SOLID
  5
3FB
330
2E1
100
AcDbEntity
  8
2
 62
     0
100
AcDbTrace
 10
29.52999999999999
 20
44.35625779796665
 30
0.0
 11
29.52999999999999
 21
42.83292446463334
 31
0.0
 12
34.09999999999998
 22
43.59459113129999
 32
0.0
 13
34.09999999999998
 23
43.59459113129999
 33
0.0
  0
SOLID
  5
3FC
330
2E1
100
AcDbEntity
  8
2
 62
     0
100
AcDbTrace
 10
4.570000000000001
 20
44.35625779796665
 30
0.0
 11
4.570000000000001
 21
42.83292446463334
 31
0.0
 12
0.0000000000000013
 22
43.59459113129999
 32
0.0
 13
0.0000000000000013
 23
43.59459113129999
 33
0.0
  0
MTEXT
  5
3FD
330
2E1
100
AcDbEntity
  8
2
 62
     7
100
AcDbMText
 10
11.17982346377621
 20
49.66459113129999
 30
0.0
 40
4.57
 41
0.0
 71
     1
 72
     1
  1
\A1;34.1
  7
GENPRESET
 73
     1
 44
1.0
  0
POINT
  5
3FE
330
2E1
100
AcDbEntity
  8
Defpoints
 62
     0
100
AcDbPoint
 10
34.09999999999998
 20
9.800000000000011
 30
0.0
  0
POINT
  5
3FF
330
2E1
100
AcDbEntity
  8
Defpoints
 62
     0
100
AcDbPoint
 10
0.0
 20
22.22499999999999
 30
0.0
  0
POINT
  5
400
330
2E1
100
AcDbEntity
  8
Defpoints
 62
     0
100
AcDbPoint
 10
0.0000000000000013
 20
43.59459113129999
 30
0.0
  0
ENDBLK
  5
2EC
330
2E1
100
AcDbEntity
  8
0
100
AcDbBlockEnd
  0
BLOCK
  5
2F7
330
2ED
100
AcDbEntity
  8
0
100
AcDbBlockBegin
  2
*D15
 70
     1
 10
0.0
 20
0.0
 30
0.0
  3
*D15
  1

  0
LINE
  5
431
330
2ED
100
AcDbEntity
  8
2
 62
     0
370
    -2
100
AcDbLine
 10
34.09999999999998
 20
9.800000000000011
 30
0.0
 11
34.09999999999998
 21
36.79622652502359
 31
0.0
  0
LINE
  5
432
330
2ED
100
AcDbEntity
  8
2
 62
     0
370
    -2
100
AcDbLine
 10
19.05000000000001
 20
31.15
 30
0.0
 11
19.05000000000001
 21
36.79622652502359
 31
0.0
  0
LINE
  5
433
330
2ED
100
AcDbEntity
  8
2
 62
     0
370
    -2
100
AcDbLine
 10
29.52999999999999
 20
34.7962265250236
 30
0.0
 11
23.62
 21
34.7962265250236
 31
0.0
  0
SOLID
  5
434
330
2ED
100
AcDbEntity
  8
2
 62
     0
100
AcDbTrace
 10
29.52999999999999
 20
35.55789319169027
 30
0.0
 11
29.52999999999999
 21
34.03455985835693
 31
0.0
 12
34.09999999999998
 22
34.7962265250236
 32
0.0
 13
34.09999999999998
 23
34.7962265250236
 33
0.0
  0
SOLID
  5
435
330
2ED
100
AcDbEntity
  8
2
 62
     0
100
AcDbTrace
 10
23.62
 20
35.55789319169027
 30
0.0
 11
23.62
 21
34.03455985835693
 31
0.0
 12
19.05000000000001
 22
34.7962265250236
 32
0.0
 13
19.05000000000001
 23
34.7962265250236
 33
0.0
  0
MTEXT
  5
436
330
2ED
100
AcDbEntity
  8
2
 62
     7
100
AcDbMText
 10
17.87023809523809
 20
40.86622652502359
 30
0.0
 40
4.57
 41
0.0
 71
     1
 72
     1
  1
\A1;15.05
  7
GENPRESET
 73
     1
 44
1.0
  0
POINT
  5
437
330
2ED
100
AcDbEntity
  8
Defpoints
 62
     0
100
AcDbPoint
 10
34.09999999999998
 20
9.800000000000011
 30
0.0
  0
POINT
  5
438
330
2ED
100
AcDbEntity
  8
Defpoints
 62
     0
100
AcDbPoint
 10
19.05000000000001
 20
31.15
 30
0.0
  0
POINT
  5
439
330
2ED
100
AcDbEntity
  8
Defpoints
 62
     0
100
AcDbPoint
 10
19.05000000000001
 20
34.7962265250236
 30
0.0
  0
ENDBLK
  5
2F8
330
2ED
100
AcDbEntity
  8
0
100
AcDbBlockEnd
  0
BLOCK
  5
303
330
2F9
100
AcDbEntity
  8
0
100
AcDbBlockBegin
  2
*D16
 70
     1
 10
0.0
 20
0.0
 30
0.0
  3
*D16
  1

  0
LINE
  5
44E
330
2F9
100
AcDbEntity
  8
SK2
 62
     0
370
    -2
100
AcDbLine
 10
33.9
 20
10.0
 30
0.0
 11
44.75242144319994
 21
9.999999999999996
 31
0.0
  0
LINE
  5
44F
330
2F9
100
AcDbEntity
  8
SK2
 62
     0
370
    -2
100
AcDbLine
 10
33.9
 20
-10.0
 30
0.0
 11
44.75242144319994
 21
-10.0
 31
0.0
  0
LINE
  5
450
330
2F9
100
AcDbEntity
  8
SK2
 62
     0
370
    -2
100
AcDbLine
 10
42.75242144319995
 20
5.429999999999997
 30
0.0
 11
42.75242144319995
 21
-5.430000000000002
 31
0.0
  0
SOLID
  5
451
330
2F9
100
AcDbEntity
  8
SK2
 62
     0
100
AcDbTrace
 10
41.99075477653329
 20
5.429999999999997
 30
0.0
 11
43.51408810986661
 21
5.429999999999997
 31
0.0
 12
42.75242144319995
 22
9.999999999999998
 32
0.0
 13
42.75242144319995
 23
9.999999999999998
 33
0.0
  0
SOLID
  5
452
330
2F9
100
AcDbEntity
  8
SK2
 62
     0
100
AcDbTrace
 10
41.99075477653329
 20
-5.430000000000001
 30
0.0
 11
43.51408810986661
 21
-5.430000000000002
 31
0.0
 12
42.75242144319995
 22
-10.0
 32
0.0
 13
42.75242144319995
 23
-10.0
 33
0.0
  0
MTEXT
  5
453
330
2F9
100
AcDbEntity
  8
SK2
 62
     7
100
AcDbMText
 10
36.68242144319995
 20
-15.34214285714283
 30
0.0
 40
4.57
 41
0.0
 71
     1
 72
     1
  1
\A1;MBM %%c20
  7
GENPRESET
 11
0.0000000000000001
 21
1.0
 31
0.0
 73
     1
 44
1.0
  0
POINT
  5
454
330
2F9
100
AcDbEntity
  8
Defpoints
 62
     0
100
AcDbPoint
 10
33.9
 20
10.0
 30
0.0
  0
POINT
  5
455
330
2F9
100
AcDbEntity
  8
Defpoints
 62
     0
100
AcDbPoint
 10
33.9
 20
-10.0
 30
0.0
  0
POINT
  5
456
330
2F9
100
AcDbEntity
  8
Defpoints
 62
     0
100
AcDbPoint
 10
42.75242144319995
 20
-10.0
 30
0.0
  0
ENDBLK
  5
304
330
2F9
100
AcDbEntity
  8
0
100
AcDbBlockEnd
  0
BLOCK
  5
30F
330
305
100
AcDbEntity
  8
0
100
AcDbBlockBegin
  2
*D17
 70
     1
 10
0.0
 20
0.0
 30
0.0
  3
*D17
  1

  0
LINE
  5
46E
330
305
100
AcDbEntity
  8
SK2
 62
     0
370
    -2
100
AcDbLine
 10
3.800000000000011
 20
31.75
 30
0.0
 11
-73.40113675174541
 21
31.75000000000002
 31
0.0
  0
LINE
  5
46F
330
305
100
AcDbEntity
  8
SK2
 62
     0
370
    -2
100
AcDbLine
 10
3.800000000000011
 20
-31.75
 30
0.0
 11
-73.40113675174544
 21
-31.74999999999998
 31
0.0
  0
LINE
  5
470
330
305
100
AcDbEntity
  8
SK2
 62
     0
370
    -2
100
AcDbLine
 10
-71.40113675174544
 20
27.18000000000001
 30
0.0
 11
-71.40113675174544
 21
-27.17999999999998
 31
0.0
  0
SOLID
  5
471
330
305
100
AcDbEntity
  8
SK2
 62
     0
100
AcDbTrace
 10
-72.16280341841209
 20
27.18000000000001
 30
0.0
 11
-70.63947008507875
 21
27.18000000000001
 31
0.0
 12
-71.40113675174544
 22
31.75000000000002
 32
0.0
 13
-71.40113675174544
 23
31.75000000000002
 33
0.0
  0
SOLID
  5
472
330
305
100
AcDbEntity
  8
SK2
 62
     0
100
AcDbTrace
 10
-72.16280341841209
 20
-27.17999999999998
 30
0.0
 11
-70.63947008507875
 21
-27.17999999999998
 31
0.0
 12
-71.40113675174544
 22
-31.74999999999998
 32
0.0
 13
-71.40113675174544
 23
-31.74999999999998
 33
0.0
  0
MTEXT
  5
473
330
305
100
AcDbEntity
  8
SK2
 62
     7
100
AcDbMText
 10
-75.18613675174542
 20
0.4246227580999863
 30
0.0
 40
4.57
 41
0.0
 71
     5
 72
     1
  1
\A1;ISO 40 %%c63.5
  7
GENPRESET
 11
0.0000000000000001
 21
1.0
 31
0.0
 73
     1
 44
1.0
  0
POINT
  5
474
330
305
100
AcDbEntity
  8
Defpoints
 62
     0
100
AcDbPoint
 10
3.800000000000011
 20
31.75
 30
0.0
  0
POINT
  5
475
330
305
100
AcDbEntity
  8
Defpoints
 62
     0
100
AcDbPoint
 10
3.800000000000011
 20
-31.75
 30
0.0
  0
POINT
  5
476
330
305
100
AcDbEntity
  8
Defpoints
 62
     0
100
AcDbPoint
 10
-71.40113675174544
 20
-31.74999999999998
 30
0.0
  0
ENDBLK
  5
310
330
305
100
AcDbEntity
  8
0
100
AcDbBlockEnd
  0
BLOCK
  5
486
330
47D
100
AcDbEntity
  8
0
100
AcDbBlockBegin
  2
*D18
 70
     1
 10
0.0
 20
0.0
 30
0.0
  3
*D18
  1

  0
SOLID
  5
47E
330
47D
100
AcDbEntity
  8
VERMASSUNG
100
AcDbTrace
 10
193.1364733831
 20
124.3065296301
 30
0.0
 11
192.6864733831
 21
121.3065296301
 31
0.0
 12
193.5864733831
 22
121.3065296301
 32
0.0
 13
193.5864733831
 23
121.3065296301
 33
0.0
  0
SOLID
  5
47F
330
47D
100
AcDbEntity
  8
VERMASSUNG
100
AcDbTrace
 10
193.1364733831
 20
104.3065296301
 30
0.0
 11
193.5864733831
 21
107.3065296301
 31
0.0
 12
192.6864733831
 22
107.3065296301
 32
0.0
 13
192.6864733831
 23
107.3065296301
 33
0.0
  0
LINE
  5
480
330
47D
100
AcDbEntity
  8
VERMASSUNG
100
AcDbLine
 10
186.3875462012
 20
124.3065296301
 30
0.0
 11
194.1364733831
 21
124.3065296301
 31
0.0
  0
LINE
  5
481
330
47D
100
AcDbEntity
  8
VERMASSUNG
100
AcDbLine
 10
186.3875462012
 20
104.3065296301
 30
0.0
 11
194.1364733831
 21
104.3065296301
 31
0.0
  0
LINE
  5
482
330
47D
100
AcDbEntity
  8
VERMASSUNG
100
AcDbLine
 10
193.1364733831
 20
124.3065296301
 30
0.0
 11
193.1364733831
 21
104.3065296301
 31
0.0
  0
MTEXT
  5
483
330
47D
100
AcDbEntity
  8
VERMASSUNG
100
AcDbMText
 10
190.3364736063999
 20
107.9024899997
 30
0.0
 40
2.0
 41
0.0
 71
     1
 72
     1
  1
{MBM }
  7
SLDTEXTSTYLE0
 11
-0.000000000000007
 21
1.0
 31
0.0
 73
     1
 44
1.0
  0
MTEXT
  5
484
330
47D
100
AcDbEntity
  8
VERMASSUNG
100
AcDbMText
 10
190.5364735576998
 20
114.3024898379999
 30
0.0
 40
2.0
 41
0.0
 71
     1
 72
     1
  1
{%%c}
  7
SLDTEXTSTYLE0
 11
-0.000000000000007
 21
1.0
 31
0.0
 73
     1
 44
1.0
  0
MTEXT
  5
485
330
47D
100
AcDbEntity
  8
VERMASSUNG
100
AcDbMText
 10
190.5364732666
 20
117.9113290140999
 30
0.0
 40
2.0
 41
0.0
 71
     1
 72
     1
  1
{20}
  7
SLDTEXTSTYLE0
 11
-0.000000000000007
 21
1.0
 31
0.0
 73
     1
 44
1.0
  0
ENDBLK
  5
487
330
47D
100
AcDbEntity
  8
0
100
AcDbBlockEnd
  0
BLOCK
  5
48F
330
488
100
AcDbEntity
  8
0
100
AcDbBlockBegin
  2
*D19
 70
     1
 10
0.0
 20
0.0
 30
0.0
  3
*D19
  1

  0
SOLID
  5
489
330
488
100
AcDbEntity
  8
VERMASSUNG
100
AcDbTrace
 10
166.5375462012
 20
142.2528971655999
 30
0.0
 11
169.5375462012
 21
141.8028971655994
 31
0.0
 12
169.5375462012
 22
142.7028971656
 32
0.0
 13
169.5375462012
 23
142.7028971656
 33
0.0
  0
SOLID
  5
48A
330
488
100
AcDbEntity
  8
VERMASSUNG
100
AcDbTrace
 10
186.5875462011999
 20
142.2528971655999
 30
0.0
 11
183.5875462011999
 21
142.7028971656
 31
0.0
 12
183.5875462011999
 22
141.8028971655994
 32
0.0
 13
183.5875462011999
 23
141.8028971655994
 33
0.0
  0
LINE
  5
48B
330
488
100
AcDbEntity
  8
VERMASSUNG
100
AcDbLine
 10
166.5375462012
 20
137.2178872439999
 30
0.0
 11
166.5375462012
 21
143.2528971655995
 31
0.0
  0
LINE
  5
48C
330
488
100
AcDbEntity
  8
VERMASSUNG
100
AcDbLine
 10
186.5875462011999
 20
124.1065296301
 30
0.0
 11
186.5875462011999
 21
143.2528971655995
 31
0.0
  0
LINE
  5
48D
330
488
100
AcDbEntity
  8
VERMASSUNG
100
AcDbLine
 10
166.5375462012
 20
142.2528971655999
 30
0.0
 11
186.5875462011999
 21
142.2528971655999
 31
0.0
  0
MTEXT
  5
48E
330
488
100
AcDbEntity
  8
VERMASSUNG
100
AcDbMText
 10
173.4631651950999
 20
144.852897282
 30
0.0
 40
2.0
 41
0.0
 71
     1
 72
     1
  1
{20.05}
  7
SLDTEXTSTYLE0
 73
     1
 44
1.0
  0
ENDBLK
  5
490
330
488
100
AcDbEntity
  8
0
100
AcDbBlockEnd
  0
BLOCK
  5
498
330
491
100
AcDbEntity
  8
0
100
AcDbBlockBegin
  2
*D20
 70
     1
 10
0.0
 20
0.0
 30
0.0
  3
*D20
  1

  0
SOLID
  5
492
330
491
100
AcDbEntity
  8
VERMASSUNG
100
AcDbTrace
 10
147.4875462012
 20
146.4825509266
 30
0.0
 11
150.4875462012
 21
146.0325509266
 31
0.0
 12
150.4875462012
 22
146.9325509265999
 32
0.0
 13
150.4875462012
 23
146.9325509265999
 33
0.0
  0
SOLID
  5
493
330
491
100
AcDbEntity
  8
VERMASSUNG
100
AcDbTrace
 10
186.5875462011999
 20
146.4825509266
 30
0.0
 11
183.5875462011999
 21
146.9325509265999
 31
0.0
 12
183.5875462011999
 22
146.0325509266
 32
0.0
 13
183.5875462011999
 23
146.0325509266
 33
0.0
  0
LINE
  5
494
330
491
100
AcDbEntity
  8
VERMASSUNG
100
AcDbLine
 10
147.4875462012
 20
130.1815296301
 30
0.0
 11
147.4875462012
 21
147.4825509266
 31
0.0
  0
LINE
  5
495
330
491
100
AcDbEntity
  8
VERMASSUNG
100
AcDbLine
 10
186.5875462011999
 20
124.1065296301
 30
0.0
 11
186.5875462011999
 21
147.4825509266
 31
0.0
  0
LINE
  5
496
330
491
100
AcDbEntity
  8
VERMASSUNG
100
AcDbLine
 10
147.4875462012
 20
146.4825509266
 30
0.0
 11
186.5875462011999
 21
146.4825509266
 31
0.0
  0
MTEXT
  5
497
330
491
100
AcDbEntity
  8
VERMASSUNG
100
AcDbMText
 10
164.8385874743
 20
149.0825510430999
 30
0.0
 40
2.0
 41
0.0
 71
     1
 72
     1
  1
{39.1}
  7
SLDTEXTSTYLE0
 73
     1
 44
1.0
  0
ENDBLK
  5
499
330
491
100
AcDbEntity
  8
0
100
AcDbBlockEnd
  0
BLOCK
  5
4A3
330
49A
100
AcDbEntity
  8
0
100
AcDbBlockBegin
  2
*D21
 70
     1
 10
0.0
 20
0.0
 30
0.0
  3
*D21
  1

  0
ARC
  5
49B
330
49A
100
AcDbEntity
  8
VERMASSUNG
100
AcDbCircle
 10
142.3233011293999
 20
152.3348314262999
 30
0.0
 40
4.245886051435893
100
AcDbArc
 50
153.4349488229
 51
206.5650511771
  0
ARC
  5
49C
330
49A
100
AcDbEntity
  8
VERMASSUNG
100
AcDbCircle
 10
144.1017912730995
 20
152.3348314262999
 30
0.0
 40
4.245886051435893
100
AcDbArc
 50
333.4349488229
 51
26.5650511771
  0
SOLID
  5
49D
330
49A
100
AcDbEntity
  8
VERMASSUNG
100
AcDbTrace
 10
99.83754620120002
 20
150.4360134592
 30
0.0
 11
102.8375462012
 21
149.9860134591999
 31
0.0
 12
102.8375462012
 22
150.8860134592
 32
0.0
 13
102.8375462012
 23
150.8860134592
 33
0.0
  0
SOLID
  5
49E
330
49A
100
AcDbEntity
  8
VERMASSUNG
100
AcDbTrace
 10
186.5875462011999
 20
150.4360134592
 30
0.0
 11
183.5875462011999
 21
150.8860134592
 31
0.0
 12
183.5875462011999
 22
149.9860134591999
 32
0.0
 13
183.5875462011999
 23
149.9860134591999
 33
0.0
  0
LINE
  5
49F
330
49A
100
AcDbEntity
  8
VERMASSUNG
100
AcDbLine
 10
99.83754620120002
 20
122.3678268937999
 30
0.0
 11
99.83754620120002
 21
151.4360134592
 31
0.0
  0
LINE
  5
4A0
330
49A
100
AcDbEntity
  8
VERMASSUNG
100
AcDbLine
 10
186.5875462011999
 20
124.1065296301
 30
0.0
 11
186.5875462011999
 21
151.4360134592
 31
0.0
  0
LINE
  5
4A1
330
49A
100
AcDbEntity
  8
VERMASSUNG
100
AcDbLine
 10
99.83754620120002
 20
150.4360134592
 30
0.0
 11
186.5875462011999
 21
150.4360134592
 31
0.0
  0
MTEXT
  5
4A2
330
49A
100
AcDbEntity
  8
VERMASSUNG
100
AcDbMText
 10
140.1131651951
 20
153.0360135755999
 30
0.0
 40
2.0
 41
0.0
 71
     1
 72
     1
  1
{86.75}
  7
SLDTEXTSTYLE0
 73
     1
 44
1.0
  0
ENDBLK
  5
4A4
330
49A
100
AcDbEntity
  8
0
100
AcDbBlockEnd
  0
BLOCK
  5
4AE
330
4A5
100
AcDbEntity
  8
0
100
AcDbBlockBegin
  2
*D22
 70
     1
 10
0.0
 20
0.0
 30
0.0
  3
*D22
  1

  0
SOLID
  5
4A6
330
4A5
100
AcDbEntity
  8
VERMASSUNG
100
AcDbTrace
 10
96.12292340639999
 20
89.3315296301
 30
0.0
 11
96.57292340639999
 21
92.33152963010001
 31
0.0
 12
95.67292340639999
 22
92.33152963010001
 32
0.0
 13
95.67292340639999
 23
92.33152963010001
 33
0.0
  0
SOLID
  5
4A7
330
4A5
100
AcDbEntity
  8
VERMASSUNG
100
AcDbTrace
 10
96.12292340639999
 20
139.2815296301
 30
0.0
 11
95.67292340639999
 21
136.2815296301
 31
0.0
 12
96.57292340639999
 22
136.2815296301
 32
0.0
 13
96.57292340639999
 23
136.2815296301
 33
0.0
  0
LINE
  5
4A8
330
4A5
100
AcDbEntity
  8
VERMASSUNG
100
AcDbLine
 10
151.2875462011999
 20
89.3315296301
 30
0.0
 11
95.1229234064
 21
89.3315296301
 31
0.0
  0
LINE
  5
4A9
330
4A5
100
AcDbEntity
  8
VERMASSUNG
100
AcDbLine
 10
151.2875462011999
 20
139.2815296301
 30
0.0
 11
95.1229234064
 21
139.2815296301
 31
0.0
  0
LINE
  5
4AA
330
4A5
100
AcDbEntity
  8
VERMASSUNG
100
AcDbLine
 10
96.12292340639999
 20
89.3315296301
 30
0.0
 11
96.12292340639999
 21
139.2815296301
 31
0.0
  0
MTEXT
  5
4AB
330
4A5
100
AcDbEntity
  8
VERMASSUNG
100
AcDbMText
 10
93.32292362969999
 20
104.8031089935
 30
0.0
 40
2.0
 41
0.0
 71
     1
 72
     1
  1
{ISO 30 }
  7
SLDTEXTSTYLE0
 11
0.0000000000000034
 21
1.0
 31
0.0
 73
     1
 44
1.0
  0
MTEXT
  5
4AC
330
4A5
100
AcDbEntity
  8
VERMASSUNG
100
AcDbMText
 10
93.52292358099999
 20
113.8031086061
 30
0.0
 40
2.0
 41
0.0
 71
     1
 72
     1
  1
{%%c}
  7
SLDTEXTSTYLE0
 11
0.0000000000000034
 21
1.0
 31
0.0
 73
     1
 44
1.0
  0
MTEXT
  5
4AD
330
4A5
100
AcDbEntity
  8
VERMASSUNG
100
AcDbMText
 10
93.52292328999999
 20
117.4121311701
 30
0.0
 40
2.0
 41
0.0
 71
     1
 72
     1
  1
{49.95}
  7
SLDTEXTSTYLE0
 11
0.0000000000000034
 21
1.0
 31
0.0
 73
     1
 44
1.0
  0
ENDBLK
  5
4AF
330
4A5
100
AcDbEntity
  8
0
100
AcDbBlockEnd
  0
BLOCK
  5
638
330
62E
100
AcDbEntity
  8
0
100
AcDbBlockBegin
  2
*D23
 70
     1
 10
0.0
 20
0.0
 30
0.0
  3
*D23
  1

  0
LINE
  5
7DF
330
62E
100
AcDbEntity
  8
2
 62
     0
370
    -2
100
AcDbLine
 10
-47.64999999999999
 20
8.061297263699984
 30
0.0
 11
-47.64999999999999
 21
38.12948382910001
 31
0.0
  0
LINE
  5
7E0
330
62E
100
AcDbEntity
  8
2
 62
     0
370
    -2
100
AcDbLine
 10
39.09999999999996
 20
9.799999999999997
 30
0.0
 11
39.09999999999996
 21
38.12948382910001
 31
0.0
  0
LINE
  5
7E1
330
62E
100
AcDbEntity
  8
2
 62
     0
370
    -2
100
AcDbLine
 10
-43.07999999999998
 20
36.12948382910001
 30
0.0
 11
34.52999999999994
 21
36.12948382910001
 31
0.0
  0
SOLID
  5
7E2
330
62E
100
AcDbEntity
  8
2
 62
     0
100
AcDbTrace
 10
-43.07999999999998
 20
36.89115049576668
 30
0.0
 11
-43.07999999999998
 21
35.36781716243334
 31
0.0
 12
-47.64999999999999
 22
36.12948382910001
 32
0.0
 13
-47.64999999999999
 23
36.12948382910001
 33
0.0
  0
SOLID
  5
7E3
330
62E
100
AcDbEntity
  8
2
 62
     0
100
AcDbTrace
 10
34.52999999999994
 20
36.89115049576668
 30
0.0
 11
34.52999999999994
 21
35.36781716243334
 31
0.0
 12
39.09999999999996
 22
36.12948382910001
 32
0.0
 13
39.09999999999996
 23
36.12948382910001
 33
0.0
  0
MTEXT
  5
7E4
330
62E
100
AcDbEntity
  8
2
 62
     7
100
AcDbMText
 10
-16.35285714285715
 20
44.59329335290952
 30
0.0
 40
4.57
 41
0.0
 71
     1
 72
     1
  1
\A1;(86.75)
  7
GENPRESET
 73
     1
 44
1.0
  0
POINT
  5
7E5
330
62E
100
AcDbEntity
  8
Defpoints
 62
     0
100
AcDbPoint
 10
-47.64999999999999
 20
8.061297263699984
 30
0.0
  0
POINT
  5
7E6
330
62E
100
AcDbEntity
  8
Defpoints
 62
     0
100
AcDbPoint
 10
39.09999999999996
 20
9.799999999999997
 30
0.0
  0
POINT
  5
7E7
330
62E
100
AcDbEntity
  8
Defpoints
 62
     0
100
AcDbPoint
 10
39.09999999999996
 20
36.12948382910001
 30
0.0
  0
ENDBLK
  5
639
330
62E
100
AcDbEntity
  8
0
100
AcDbBlockEnd
  0
BLOCK
  5
644
330
63A
100
AcDbEntity
  8
0
100
AcDbBlockBegin
  2
*D24
 70
     1
 10
0.0
 20
0.0
 30
0.0
  3
*D24
  1

  0
LINE
  5
840
330
63A
100
AcDbEntity
  8
2
 62
     0
370
    -2
100
AcDbLine
 10
-119.4197904468792
 20
-40.47030501096227
 30
0.0
 11
-119.4197904468792
 21
-18.50370236526337
 31
0.0
  0
LINE
  5
841
330
63A
100
AcDbEntity
  8
2
 62
     0
370
    -2
100
AcDbLine
 10
-80.31979044687929
 20
-46.54530501096227
 30
0.0
 11
-80.31979044687929
 21
-18.50370236526337
 31
0.0
  0
LINE
  5
842
330
63A
100
AcDbEntity
  8
2
 62
     0
370
    -2
100
AcDbLine
 10
-114.8497904468791
 20
-20.50370236526337
 30
0.0
 11
-84.88979044687928
 21
-20.50370236526337
 31
0.0
  0
SOLID
  5
843
330
63A
100
AcDbEntity
  8
2
 62
     0
100
AcDbTrace
 10
-114.8497904468791
 20
-19.74203569859669
 30
0.0
 11
-114.8497904468791
 21
-21.26536903193004
 31
0.0
 12
-119.4197904468792
 22
-20.50370236526337
 32
0.0
 13
-119.4197904468792
 23
-20.50370236526337
 33
0.0
  0
SOLID
  5
844
330
63A
100
AcDbEntity
  8
2
 62
     0
100
AcDbTrace
 10
-84.88979044687928
 20
-19.74203569859669
 30
0.0
 11
-84.88979044687928
 21
-21.26536903193004
 31
0.0
 12
-80.31979044687929
 22
-20.50370236526337
 32
0.0
 13
-80.31979044687929
 23
-20.50370236526337
 33
0.0
  0
MTEXT
  5
845
330
63A
100
AcDbEntity
  8
2
 62
     7
100
AcDbMText
 10
-99.86979044687927
 20
-16.71870236526336
 30
0.0
 40
4.57
 41
0.0
 71
     5
 72
     1
  1
\A1;39.1
  7
GENPRESET
 73
     1
 44
1.0
  0
POINT
  5
846
330
63A
100
AcDbEntity
  8
Defpoints
 62
     0
100
AcDbPoint
 10
-119.4197904468792
 20
-40.47030501096227
 30
0.0
  0
POINT
  5
847
330
63A
100
AcDbEntity
  8
Defpoints
 62
     0
100
AcDbPoint
 10
-80.31979044687929
 20
-46.54530501096227
 30
0.0
  0
POINT
  5
848
330
63A
100
AcDbEntity
  8
Defpoints
 62
     0
100
AcDbPoint
 10
-80.31979044687929
 20
-20.50370236526337
 30
0.0
  0
ENDBLK
  5
645
330
63A
100
AcDbEntity
  8
0
100
AcDbBlockEnd
  0
BLOCK
  5
64F
330
646
100
AcDbEntity
  8
0
100
AcDbBlockBegin
  2
*D25
 70
     1
 10
0.0
 20
0.0
 30
0.0
  3
*D25
  1

  0
LINE
  5
701
330
646
100
AcDbEntity
  8
SK2
 62
     0
370
    -2
100
AcDbLine
 10
-58.8884879856664
 20
17.03364445633251
 30
0.0
 11
-58.88848798566641
 21
-27.42885554366747
 31
0.0
  0
MTEXT
  5
702
330
646
100
AcDbEntity
  8
SK2
 62
     0
100
AcDbMText
 10
-62.51348798566641
 20
-4.716355543667481
 30
0.0
 40
2.5
 41
0.0
 71
     1
 72
     1
  1
ISO 30 \U+220549,95
 11
0.0000000000000001
 21
1.0
 31
0.0
 73
     1
 44
1.0
  0
SOLID
  5
703
330
646
100
AcDbEntity
  8
SK2
 62
     0
100
AcDbTrace
 10
-59.30515465233308
 20
-27.42885554366747
 30
0.0
 11
-58.47182131899975
 21
-27.42885554366747
 31
0.0
 12
-58.88848798566641
 22
-29.92885554366747
 32
0.0
 13
-58.88848798566641
 23
-29.92885554366747
 33
0.0
  0
POINT
  5
704
330
646
100
AcDbEntity
  8
Defpoints
 62
     0
100
AcDbPoint
 10
-58.88848798566641
 20
-29.92885554366747
 30
0.0
  0
POINT
  5
705
330
646
100
AcDbEntity
  8
Defpoints
 62
     0
100
AcDbPoint
 10
-58.88848798566641
 20
20.02114445633251
 30
0.0
  0
ENDBLK
  5
650
330
646
100
AcDbEntity
  8
0
100
AcDbBlockEnd
  0
BLOCK
  5
65B
330
651
100
AcDbEntity
  8
0
100
AcDbBlockBegin
  2
*D26
 70
     1
 10
0.0
 20
0.0
 30
0.0
  3
*D26
  1

  0
LINE
  5
837
330
651
100
AcDbEntity
  8
2
 62
     0
370
    -2
100
AcDbLine
 10
-100.3697904468791
 20
-33.43394739706229
 30
0.0
 11
-100.3697904468791
 21
-26.39893747546229
 31
0.0
  0
LINE
  5
838
330
651
100
AcDbEntity
  8
2
 62
     0
370
    -2
100
AcDbLine
 10
-80.31979044687929
 20
-46.54530501096227
 30
0.0
 11
-80.31979044687929
 21
-26.39893747546229
 31
0.0
  0
LINE
  5
839
330
651
100
AcDbEntity
  8
2
 62
     0
370
    -2
100
AcDbLine
 10
-95.79979044687927
 20
-28.39893747546229
 30
0.0
 11
-84.88979044687928
 21
-28.39893747546229
 31
0.0
  0
SOLID
  5
83A
330
651
100
AcDbEntity
  8
2
 62
     0
100
AcDbTrace
 10
-95.79979044687927
 20
-27.63727080879561
 30
0.0
 11
-95.79979044687927
 21
-29.16060414212896
 31
0.0
 12
-100.3697904468791
 22
-28.39893747546229
 32
0.0
 13
-100.3697904468791
 23
-28.39893747546229
 33
0.0
  0
SOLID
  5
83B
330
651
100
AcDbEntity
  8
2
 62
     0
100
AcDbTrace
 10
-84.88979044687928
 20
-27.63727080879561
 30
0.0
 11
-84.88979044687928
 21
-29.16060414212896
 31
0.0
 12
-80.31979044687929
 22
-28.39893747546229
 32
0.0
 13
-80.31979044687929
 23
-28.39893747546229
 33
0.0
  0
MTEXT
  5
83C
330
651
100
AcDbEntity
  8
2
 62
     7
100
AcDbMText
 10
-90.34479044687927
 20
-24.61393747546229
 30
0.0
 40
4.57
 41
0.0
 71
     5
 72
     1
  1
\A1;20.05
  7
GENPRESET
 73
     1
 44
1.0
  0
POINT
  5
83D
330
651
100
AcDbEntity
  8
Defpoints
 62
     0
100
AcDbPoint
 10
-100.3697904468791
 20
-33.43394739706229
 30
0.0
  0
POINT
  5
83E
330
651
100
AcDbEntity
  8
Defpoints
 62
     0
100
AcDbPoint
 10
-80.31979044687929
 20
-46.54530501096227
 30
0.0
  0
POINT
  5
83F
330
651
100
AcDbEntity
  8
Defpoints
 62
     0
100
AcDbPoint
 10
-80.31979044687929
 20
-28.39893747546229
 30
0.0
  0
ENDBLK
  5
65C
330
651
100
AcDbEntity
  8
0
100
AcDbBlockEnd
  0
BLOCK
  5
667
330
65D
100
AcDbEntity
  8
0
100
AcDbBlockBegin
  2
*D27
 70
     1
 10
0.0
 20
0.0
 30
0.0
  3
*D27
  1

  0
LINE
  5
852
330
65D
100
AcDbEntity
  8
SK2
 62
     0
370
    -2
100
AcDbLine
 10
-80.5197904468793
 20
-46.34530501096228
 30
0.0
 11
-68.26253631171791
 21
-46.34530501096228
 31
0.0
  0
LINE
  5
853
330
65D
100
AcDbEntity
  8
SK2
 62
     0
370
    -2
100
AcDbLine
 10
-80.5197904468793
 20
-66.34530501096229
 30
0.0
 11
-68.26253631171791
 21
-66.34530501096229
 31
0.0
  0
LINE
  5
854
330
65D
100
AcDbEntity
  8
SK2
 62
     0
370
    -2
100
AcDbLine
 10
-70.2625363117179
 20
-50.91530501096229
 30
0.0
 11
-70.2625363117179
 21
-61.77530501096228
 31
0.0
  0
SOLID
  5
855
330
65D
100
AcDbEntity
  8
SK2
 62
     0
100
AcDbTrace
 10
-71.02420297838458
 20
-50.91530501096229
 30
0.0
 11
-69.50086964505124
 21
-50.91530501096229
 31
0.0
 12
-70.2625363117179
 22
-46.34530501096228
 32
0.0
 13
-70.2625363117179
 23
-46.34530501096228
 33
0.0
  0
SOLID
  5
856
330
65D
100
AcDbEntity
  8
SK2
 62
     0
100
AcDbTrace
 10
-71.02420297838458
 20
-61.77530501096228
 30
0.0
 11
-69.50086964505124
 21
-61.77530501096228
 31
0.0
 12
-70.2625363117179
 22
-66.34530501096229
 32
0.0
 13
-70.2625363117179
 23
-66.34530501096229
 33
0.0
  0
MTEXT
  5
857
330
65D
100
AcDbEntity
  8
SK2
 62
     7
100
AcDbMText
 10
-74.04753631171789
 20
-56.34530501096229
 30
0.0
 40
4.57
 41
0.0
 71
     5
 72
     1
  1
\A1;MBM %%c20
  7
GENPRESET
 11
0.0000000000000001
 21
1.0
 31
0.0
 73
     1
 44
1.0
  0
POINT
  5
858
330
65D
100
AcDbEntity
  8
Defpoints
 62
     0
100
AcDbPoint
 10
-80.5197904468793
 20
-46.34530501096228
 30
0.0
  0
POINT
  5
859
330
65D
100
AcDbEntity
  8
Defpoints
 62
     0
100
AcDbPoint
 10
-80.5197904468793
 20
-66.34530501096229
 30
0.0
  0
POINT
  5
85A
330
65D
100
AcDbEntity
  8
Defpoints
 62
     0
100
AcDbPoint
 10
-70.2625363117179
 20
-66.34530501096229
 30
0.0
  0
ENDBLK
  5
668
330
65D
100
AcDbEntity
  8
0
100
AcDbBlockEnd
  0
BLOCK
  5
711
330
707
100
AcDbEntity
  8
0
100
AcDbBlockBegin
  2
*D28
 70
     1
 10
0.0
 20
0.0
 30
0.0
  3
*D28
  1

  0
LINE
  5
849
330
707
100
AcDbEntity
  8
SK2
 62
     0
370
    -2
100
AcDbLine
 10
-115.6197904468792
 20
-31.33443970255715
 30
0.0
 11
-175.0428304236963
 21
-31.33443970255713
 31
0.0
  0
LINE
  5
84A
330
707
100
AcDbEntity
  8
SK2
 62
     0
370
    -2
100
AcDbLine
 10
-115.6197904468792
 20
-81.28147096334798
 30
0.0
 11
-175.0428304236963
 21
-81.28147096334796
 31
0.0
  0
LINE
  5
84B
330
707
100
AcDbEntity
  8
SK2
 62
     0
370
    -2
100
AcDbLine
 10
-173.0428304236963
 20
-35.90443970255713
 30
0.0
 11
-173.0428304236963
 21
-76.71147096334795
 31
0.0
  0
SOLID
  5
84C
330
707
100
AcDbEntity
  8
SK2
 62
     0
100
AcDbTrace
 10
-173.8044970903628
 20
-35.90443970255713
 30
0.0
 11
-172.2811637570296
 21
-35.90443970255713
 31
0.0
 12
-173.0428304236963
 22
-31.33443970255713
 32
0.0
 13
-173.0428304236963
 23
-31.33443970255713
 33
0.0
  0
SOLID
  5
84D
330
707
100
AcDbEntity
  8
SK2
 62
     0
100
AcDbTrace
 10
-173.804497090363
 20
-76.71147096334795
 30
0.0
 11
-172.2811637570296
 21
-76.71147096334795
 31
0.0
 12
-173.0428304236963
 22
-81.28147096334796
 32
0.0
 13
-173.0428304236963
 23
-81.28147096334796
 33
0.0
  0
MTEXT
  5
84E
330
707
100
AcDbEntity
  8
SK2
 62
     7
100
AcDbMText
 10
-176.8278304236963
 20
-54.28646812848423
 30
0.0
 40
4.57
 41
0.0
 71
     5
 72
     1
  1
\A1;ISO 30 ø49.95
  7
GENPRESET
 11
0.0000000000000001
 21
1.0
 31
0.0
 73
     1
 44
1.0
  0
POINT
  5
84F
330
707
100
AcDbEntity
  8
Defpoints
 62
     0
100
AcDbPoint
 10
-115.6197904468792
 20
-31.33443970255715
 30
0.0
  0
POINT
  5
850
330
707
100
AcDbEntity
  8
Defpoints
 62
     0
100
AcDbPoint
 10
-115.6197904468792
 20
-81.28147096334798
 30
0.0
  0
POINT
  5
851
330
707
100
AcDbEntity
  8
Defpoints
 62
     0
100
AcDbPoint
 10
-173.0428304236963
 20
-81.28147096334796
 30
0.0
  0
ENDBLK
  5
712
330
707
100
AcDbEntity
  8
0
100
AcDbBlockEnd
  0
BLOCK
  5
864
330
85B
100
AcDbEntity
  8
0
100
AcDbBlockBegin
  2
*D29
 70
     1
 10
0.0
 20
0.0
 30
0.0
  3
*D29
  1

  0
SOLID
  5
85C
330
85B
100
AcDbEntity
  8
VERMASSUNG
100
AcDbTrace
 10
96.01153652120002
 20
134.2205338809
 30
0.0
 11
95.5615365212
 21
131.2205338809
 31
0.0
 12
96.4615365212
 22
131.2205338809
 32
0.0
 13
96.4615365212
 23
131.2205338809
 33
0.0
  0
SOLID
  5
85D
330
85B
100
AcDbEntity
  8
VERMASSUNG
100
AcDbTrace
 10
96.01153652120002
 20
88.22053388090003
 30
0.0
 11
96.4615365212
 21
91.2205338809
 31
0.0
 12
95.5615365212
 22
91.2205338809
 32
0.0
 13
95.5615365212
 23
91.2205338809
 33
0.0
  0
LINE
  5
85E
330
85B
100
AcDbEntity
  8
VERMASSUNG
100
AcDbLine
 10
168.9007583114999
 20
134.2205338809
 30
0.0
 11
95.01153652120001
 21
134.2205338809
 31
0.0
  0
LINE
  5
85F
330
85B
100
AcDbEntity
  8
VERMASSUNG
100
AcDbLine
 10
168.9007583563
 20
88.22053388090003
 30
0.0
 11
95.01153652120001
 21
88.22053388090003
 31
0.0
  0
LINE
  5
860
330
85B
100
AcDbEntity
  8
VERMASSUNG
100
AcDbLine
 10
96.01153652120002
 20
134.2205338809
 30
0.0
 11
96.01153652120002
 21
88.22053388090003
 31
0.0
  0
MTEXT
  5
861
330
85B
100
AcDbEntity
  8
VERMASSUNG
100
AcDbMText
 10
93.2115367445
 20
102.516451848
 30
0.0
 40
2.0
 41
0.0
 71
     1
 72
     1
  1
{MAS BT }
  7
SLDTEXTSTYLE0
 11
-0.000000000000007
 21
1.0
 31
0.0
 73
     1
 44
1.0
  0
MTEXT
  5
862
330
85B
100
AcDbEntity
  8
VERMASSUNG
100
AcDbMText
 10
93.4115366958
 20
113.3164521282
 30
0.0
 40
2.0
 41
0.0
 71
     1
 72
     1
  1
{%%c}
  7
SLDTEXTSTYLE0
 11
-0.000000000000007
 21
1.0
 31
0.0
 73
     1
 44
1.0
  0
MTEXT
  5
863
330
85B
100
AcDbEntity
  8
VERMASSUNG
100
AcDbMText
 10
93.41153640479999
 20
116.9263185831999
 30
0.0
 40
2.0
 41
0.0
 71
     1
 72
     1
  1
{46}
  7
SLDTEXTSTYLE0
 11
-0.000000000000007
 21
1.0
 31
0.0
 73
     1
 44
1.0
  0
ENDBLK
  5
865
330
85B
100
AcDbEntity
  8
0
100
AcDbBlockEnd
  0
BLOCK
  5
86F
330
866
100
AcDbEntity
  8
0
100
AcDbBlockBegin
  2
*D30
 70
     1
 10
0.0
 20
0.0
 30
0.0
  3
*D30
  1

  0
SOLID
  5
867
330
866
100
AcDbEntity
  8
VERMASSUNG
100
AcDbTrace
 10
199.0035364557
 20
121.2205338809
 30
0.0
 11
198.5535364557
 21
118.2205338809
 31
0.0
 12
199.4535364557
 22
118.2205338809
 32
0.0
 13
199.4535364557
 23
118.2205338809
 33
0.0
  0
SOLID
  5
868
330
866
100
AcDbEntity
  8
VERMASSUNG
100
AcDbTrace
 10
199.0035364557
 20
101.2205338808999
 30
0.0
 11
199.4535364557
 21
104.2205338809
 31
0.0
 12
198.5535364557
 22
104.2205338809
 32
0.0
 13
198.5535364557
 23
104.2205338809
 33
0.0
  0
LINE
  5
869
330
866
100
AcDbEntity
  8
VERMASSUNG
100
AcDbLine
 10
190.7007597536
 20
121.2205338809
 30
0.0
 11
200.0035364556999
 21
121.2205338809
 31
0.0
  0
LINE
  5
86A
330
866
100
AcDbEntity
  8
VERMASSUNG
100
AcDbLine
 10
190.7007597536
 20
101.2205338808999
 30
0.0
 11
200.0035364556999
 21
101.2205338808999
 31
0.0
  0
LINE
  5
86B
330
866
100
AcDbEntity
  8
VERMASSUNG
100
AcDbLine
 10
199.0035364557
 20
121.2205338809
 30
0.0
 11
199.0035364557
 21
101.2205338808999
 31
0.0
  0
MTEXT
  5
86C
330
866
100
AcDbEntity
  8
VERMASSUNG
100
AcDbMText
 10
196.203536679
 20
104.8164942504999
 30
0.0
 40
2.0
 41
0.0
 71
     1
 72
     1
  1
{MBM }
  7
SLDTEXTSTYLE0
 11
-0.000000000000007
 21
1.0
 31
0.0
 73
     1
 44
1.0
  0
MTEXT
  5
86D
330
866
100
AcDbEntity
  8
VERMASSUNG
100
AcDbMText
 10
196.4035366302999
 20
111.2164940887999
 30
0.0
 40
2.0
 41
0.0
 71
     1
 72
     1
  1
{%%c}
  7
SLDTEXTSTYLE0
 11
-0.000000000000007
 21
1.0
 31
0.0
 73
     1
 44
1.0
  0
MTEXT
  5
86E
330
866
100
AcDbEntity
  8
VERMASSUNG
100
AcDbMText
 10
196.4035363392998
 20
114.8253332649
 30
0.0
 40
2.0
 41
0.0
 71
     1
 72
     1
  1
{20}
  7
SLDTEXTSTYLE0
 11
-0.000000000000007
 21
1.0
 31
0.0
 73
     1
 44
1.0
  0
ENDBLK
  5
870
330
866
100
AcDbEntity
  8
0
100
AcDbBlockEnd
  0
BLOCK
  5
878
330
871
100
AcDbEntity
  8
0
100
AcDbBlockBegin
  2
*D31
 70
     1
 10
0.0
 20
0.0
 30
0.0
  3
*D31
  1

  0
SOLID
  5
872
330
871
100
AcDbEntity
  8
VERMASSUNG
100
AcDbTrace
 10
148.9007597536
 20
144.1212956694
 30
0.0
 11
151.9007597536
 21
143.6712956694
 31
0.0
 12
151.9007597536
 22
144.5712956694
 32
0.0
 13
151.9007597536
 23
144.5712956694
 33
0.0
  0
SOLID
  5
873
330
871
100
AcDbEntity
  8
VERMASSUNG
100
AcDbTrace
 10
190.9007597536
 20
144.1212956694
 30
0.0
 11
187.9007597536
 21
144.5712956694
 31
0.0
 12
187.9007597536
 22
143.6712956694
 32
0.0
 13
187.9007597536
 23
143.6712956694
 33
0.0
  0
LINE
  5
874
330
871
100
AcDbEntity
  8
VERMASSUNG
100
AcDbLine
 10
148.9007597536
 20
127.0955338809
 30
0.0
 11
148.9007597536
 21
145.1212956694
 31
0.0
  0
LINE
  5
875
330
871
100
AcDbEntity
  8
VERMASSUNG
100
AcDbLine
 10
190.9007597536
 20
121.0205338809
 30
0.0
 11
190.9007597536
 21
145.1212956694
 31
0.0
  0
LINE
  5
876
330
871
100
AcDbEntity
  8
VERMASSUNG
100
AcDbLine
 10
148.9007597536
 20
144.1212956694
 30
0.0
 11
190.9007597536
 21
144.1212956694
 31
0.0
  0
MTEXT
  5
877
330
871
100
AcDbEntity
  8
VERMASSUNG
100
AcDbMText
 10
168.4016110883
 20
146.7212957858
 30
0.0
 40
2.0
 41
0.0
 71
     1
 72
     1
  1
{42}
  7
SLDTEXTSTYLE0
 73
     1
 44
1.0
  0
ENDBLK
  5
879
330
871
100
AcDbEntity
  8
0
100
AcDbBlockEnd
  0
BLOCK
  5
881
330
87A
100
AcDbEntity
  8
0
100
AcDbBlockBegin
  2
*D32
 70
     1
 10
0.0
 20
0.0
 30
0.0
  3
*D32
  1

  0
SOLID
  5
87B
330
87A
100
AcDbEntity
  8
VERMASSUNG
100
AcDbTrace
 10
170.9007597535999
 20
138.1212956694
 30
0.0
 11
173.9007597536
 21
137.6712956693999
 31
0.0
 12
173.9007597536
 22
138.5712956694
 32
0.0
 13
173.9007597536
 23
138.5712956694
 33
0.0
  0
SOLID
  5
87C
330
87A
100
AcDbEntity
  8
VERMASSUNG
100
AcDbTrace
 10
190.9007597536
 20
138.1212956694
 30
0.0
 11
187.9007597536
 21
138.5712956694
 31
0.0
 12
187.9007597536
 22
137.6712956693999
 32
0.0
 13
187.9007597536
 23
137.6712956693999
 33
0.0
  0
LINE
  5
87D
330
87A
100
AcDbEntity
  8
VERMASSUNG
100
AcDbLine
 10
170.9007597535999
 20
134.2205338809
 30
0.0
 11
170.9007597535999
 21
139.1212956694
 31
0.0
  0
LINE
  5
87E
330
87A
100
AcDbEntity
  8
VERMASSUNG
100
AcDbLine
 10
190.9007597536
 20
121.0205338809
 30
0.0
 11
190.9007597536
 21
139.1212956694
 31
0.0
  0
LINE
  5
87F
330
87A
100
AcDbEntity
  8
VERMASSUNG
100
AcDbLine
 10
170.9007597535999
 20
138.1212956694
 30
0.0
 11
190.9007597536
 21
138.1212956694
 31
0.0
  0
MTEXT
  5
880
330
87A
100
AcDbEntity
  8
VERMASSUNG
100
AcDbMText
 10
179.5011396304
 20
140.7212957858
 30
0.0
 40
2.0
 41
0.0
 71
     1
 72
     1
  1
{20}
  7
SLDTEXTSTYLE0
 73
     1
 44
1.0
  0
ENDBLK
  5
882
330
87A
100
AcDbEntity
  8
0
100
AcDbBlockEnd
  0
BLOCK
  5
88A
330
883
100
AcDbEntity
  8
0
100
AcDbBlockBegin
  2
*D33
 70
     1
 10
0.0
 20
0.0
 30
0.0
  3
*D33
  1

  0
SOLID
  5
884
330
883
100
AcDbEntity
  8
VERMASSUNG
100
AcDbTrace
 10
100.5007597535999
 20
150.1212956694
 30
0.0
 11
103.5007597536
 21
149.6712956694
 31
0.0
 12
103.5007597536
 22
150.5712956693999
 32
0.0
 13
103.5007597536
 23
150.5712956693999
 33
0.0
  0
SOLID
  5
885
330
883
100
AcDbEntity
  8
VERMASSUNG
100
AcDbTrace
 10
190.9007597536
 20
150.1212956694
 30
0.0
 11
187.9007597536
 21
150.5712956693999
 31
0.0
 12
187.9007597536
 22
149.6712956694
 32
0.0
 13
187.9007597536
 23
149.6712956694
 33
0.0
  0
LINE
  5
886
330
883
100
AcDbEntity
  8
VERMASSUNG
100
AcDbLine
 10
100.5007597535999
 20
119.6048283460999
 30
0.0
 11
100.5007597535999
 21
151.1212956694
 31
0.0
  0
LINE
  5
887
330
883
100
AcDbEntity
  8
VERMASSUNG
100
AcDbLine
 10
190.9007597536
 20
121.0205338809
 30
0.0
 11
190.9007597536
 21
151.1212956694
 31
0.0
  0
LINE
  5
888
330
883
100
AcDbEntity
  8
VERMASSUNG
100
AcDbLine
 10
100.5007597535999
 20
150.1212956694
 30
0.0
 11
190.9007597536
 21
150.1212956694
 31
0.0
  0
MTEXT
  5
889
330
883
100
AcDbEntity
  8
VERMASSUNG
100
AcDbMText
 10
143.2016602668999
 20
152.7212957858
 30
0.0
 40
2.0
 41
0.0
 71
     1
 72
     1
  1
{90.4}
  7
SLDTEXTSTYLE0
 73
     1
 44
1.0
  0
ENDBLK
  5
88B
330
883
100
AcDbEntity
  8
0
100
AcDbBlockEnd
  0
BLOCK
  5
A12
330
A08
100
AcDbEntity
  8
0
100
AcDbBlockBegin
  2
*D34
 70
     1
 10
0.0
 20
0.0
 30
0.0
  3
*D34
  1

  0
LINE
  5
AD9
330
A08
100
AcDbEntity
  8
SK2
 62
     0
370
    -2
100
AcDbLine
 10
-114.852190784356
 20
-68.02872025934229
 30
0.0
 11
-102.8994466772137
 21
-68.02872025934229
 31
0.0
  0
LINE
  5
ADA
330
A08
100
AcDbEntity
  8
SK2
 62
     0
370
    -2
100
AcDbLine
 10
-114.852190784356
 20
-88.02872025934229
 30
0.0
 11
-102.8994466772137
 21
-88.02872025934229
 31
0.0
  0
LINE
  5
ADB
330
A08
100
AcDbEntity
  8
SK2
 62
     0
370
    -2
100
AcDbLine
 10
-104.8994466772137
 20
-72.59872025934228
 30
0.0
 11
-104.8994466772137
 21
-83.4587202593423
 31
0.0
  0
SOLID
  5
ADC
330
A08
100
AcDbEntity
  8
SK2
 62
     0
100
AcDbTrace
 10
-105.6611133438801
 20
-72.59872025934228
 30
0.0
 11
-104.137780010547
 21
-72.59872025934228
 31
0.0
 12
-104.8994466772137
 22
-68.02872025934229
 32
0.0
 13
-104.8994466772137
 23
-68.02872025934229
 33
0.0
  0
SOLID
  5
ADD
330
A08
100
AcDbEntity
  8
SK2
 62
     0
100
AcDbTrace
 10
-105.6611133438801
 20
-83.4587202593423
 30
0.0
 11
-104.137780010547
 21
-83.4587202593423
 31
0.0
 12
-104.8994466772137
 22
-88.02872025934229
 32
0.0
 13
-104.8994466772137
 23
-88.02872025934229
 33
0.0
  0
MTEXT
  5
ADE
330
A08
100
AcDbEntity
  8
SK2
 62
     7
100
AcDbMText
 10
-108.6844466772137
 20
-78.02872025934231
 30
0.0
 40
4.57
 41
0.0
 71
     5
 72
     1
  1
\A1;MBM %%c20
  7
GENPRESET
 11
0.0000000000000001
 21
1.0
 31
0.0
 73
     1
 44
1.0
  0
POINT
  5
ADF
330
A08
100
AcDbEntity
  8
Defpoints
 62
     0
100
AcDbPoint
 10
-114.852190784356
 20
-68.02872025934229
 30
0.0
  0
POINT
  5
AE0
330
A08
100
AcDbEntity
  8
Defpoints
 62
     0
100
AcDbPoint
 10
-114.852190784356
 20
-88.02872025934229
 30
0.0
  0
POINT
  5
AE1
330
A08
100
AcDbEntity
  8
Defpoints
 62
     0
100
AcDbPoint
 10
-104.8994466772137
 20
-88.02872025934229
 30
0.0
  0
ENDBLK
  5
A13
330
A08
100
AcDbEntity
  8
0
100
AcDbBlockEnd
  0
BLOCK
  5
A1E
330
A14
100
AcDbEntity
  8
0
100
AcDbBlockBegin
  2
*D35
 70
     1
 10
0.0
 20
0.0
 30
0.0
  3
*D35
  1

  0
LINE
  5
AC7
330
A14
100
AcDbEntity
  8
2
 62
     0
370
    -2
100
AcDbLine
 10
-134.652190784356
 20
-55.02872025934228
 30
0.0
 11
-134.652190784356
 21
-49.12795847084229
 31
0.0
  0
LINE
  5
AC8
330
A14
100
AcDbEntity
  8
2
 62
     0
370
    -2
100
AcDbLine
 10
-114.652190784356
 20
-68.2287202593423
 30
0.0
 11
-114.652190784356
 21
-49.12795847084229
 31
0.0
  0
LINE
  5
AC9
330
A14
100
AcDbEntity
  8
2
 62
     0
370
    -2
100
AcDbLine
 10
-130.082190784356
 20
-51.12795847084228
 30
0.0
 11
-119.222190784356
 21
-51.12795847084228
 31
0.0
  0
SOLID
  5
ACA
330
A14
100
AcDbEntity
  8
2
 62
     0
100
AcDbTrace
 10
-130.082190784356
 20
-50.36629180417563
 30
0.0
 11
-130.082190784356
 21
-51.88962513750897
 31
0.0
 12
-134.652190784356
 22
-51.12795847084228
 32
0.0
 13
-134.652190784356
 23
-51.12795847084228
 33
0.0
  0
SOLID
  5
ACB
330
A14
100
AcDbEntity
  8
2
 62
     0
100
AcDbTrace
 10
-119.222190784356
 20
-50.36629180417563
 30
0.0
 11
-119.222190784356
 21
-51.88962513750897
 31
0.0
 12
-114.652190784356
 22
-51.12795847084228
 32
0.0
 13
-114.652190784356
 23
-51.12795847084228
 33
0.0
  0
MTEXT
  5
ACC
330
A14
100
AcDbEntity
  8
2
 62
     7
100
AcDbMText
 10
-124.652190784356
 20
-47.34295847084228
 30
0.0
 40
4.57
 41
0.0
 71
     5
 72
     1
  1
\A1;20
  7
GENPRESET
 73
     1
 44
1.0
  0
POINT
  5
ACD
330
A14
100
AcDbEntity
  8
Defpoints
 62
     0
100
AcDbPoint
 10
-134.652190784356
 20
-55.02872025934228
 30
0.0
  0
POINT
  5
ACE
330
A14
100
AcDbEntity
  8
Defpoints
 62
     0
100
AcDbPoint
 10
-114.652190784356
 20
-68.2287202593423
 30
0.0
  0
POINT
  5
ACF
330
A14
100
AcDbEntity
  8
Defpoints
 62
     0
100
AcDbPoint
 10
-114.652190784356
 20
-51.12795847084228
 30
0.0
  0
ENDBLK
  5
A1F
330
A14
100
AcDbEntity
  8
0
100
AcDbBlockEnd
  0
BLOCK
  5
A2A
330
A20
100
AcDbEntity
  8
0
100
AcDbBlockBegin
  2
*D36
 70
     1
 10
0.0
 20
0.0
 30
0.0
  3
*D36
  1

  0
LINE
  5
ABE
330
A20
100
AcDbEntity
  8
2
 62
     0
370
    -2
100
AcDbLine
 10
-156.652190784356
 20
-62.15372025934229
 30
0.0
 11
-156.652190784356
 21
-41.62795847084228
 31
0.0
  0
LINE
  5
ABF
330
A20
100
AcDbEntity
  8
2
 62
     0
370
    -2
100
AcDbLine
 10
-114.652190784356
 20
-68.2287202593423
 30
0.0
 11
-114.652190784356
 21
-41.62795847084228
 31
0.0
  0
LINE
  5
AC0
330
A20
100
AcDbEntity
  8
2
 62
     0
370
    -2
100
AcDbLine
 10
-152.082190784356
 20
-43.62795847084228
 30
0.0
 11
-119.222190784356
 21
-43.62795847084228
 31
0.0
  0
SOLID
  5
AC1
330
A20
100
AcDbEntity
  8
2
 62
     0
100
AcDbTrace
 10
-152.082190784356
 20
-42.86629180417563
 30
0.0
 11
-152.082190784356
 21
-44.38962513750897
 31
0.0
 12
-156.652190784356
 22
-43.62795847084228
 32
0.0
 13
-156.652190784356
 23
-43.62795847084228
 33
0.0
  0
SOLID
  5
AC2
330
A20
100
AcDbEntity
  8
2
 62
     0
100
AcDbTrace
 10
-119.222190784356
 20
-42.86629180417563
 30
0.0
 11
-119.222190784356
 21
-44.38962513750897
 31
0.0
 12
-114.652190784356
 22
-43.62795847084228
 32
0.0
 13
-114.652190784356
 23
-43.62795847084228
 33
0.0
  0
MTEXT
  5
AC3
330
A20
100
AcDbEntity
  8
2
 62
     7
100
AcDbMText
 10
-135.652190784356
 20
-39.84295847084229
 30
0.0
 40
4.57
 41
0.0
 71
     5
 72
     1
  1
\A1;42
  7
GENPRESET
 73
     1
 44
1.0
  0
POINT
  5
AC4
330
A20
100
AcDbEntity
  8
Defpoints
 62
     0
100
AcDbPoint
 10
-156.652190784356
 20
-62.15372025934229
 30
0.0
  0
POINT
  5
AC5
330
A20
100
AcDbEntity
  8
Defpoints
 62
     0
100
AcDbPoint
 10
-114.652190784356
 20
-68.2287202593423
 30
0.0
  0
POINT
  5
AC6
330
A20
100
AcDbEntity
  8
Defpoints
 62
     0
100
AcDbPoint
 10
-114.652190784356
 20
-43.62795847084228
 30
0.0
  0
ENDBLK
  5
A2B
330
A20
100
AcDbEntity
  8
0
100
AcDbBlockEnd
  0
BLOCK
  5
A36
330
A2C
100
AcDbEntity
  8
0
100
AcDbBlockBegin
  2
*D37
 70
     1
 10
0.0
 20
0.0
 30
0.0
  3
*D37
  1

  0
LINE
  5
A5F
330
A2C
100
AcDbEntity
  8
VERMASSUNG
 62
     0
370
    -2
100
AcDbLine
 10
-48.39999999999999
 20
8.384294465199998
 30
0.0
 11
-48.39999999999999
 21
39.90076178849999
 31
0.0
  0
LINE
  5
A60
330
A2C
100
AcDbEntity
  8
VERMASSUNG
 62
     0
370
    -2
100
AcDbLine
 10
42.0
 20
9.799999999999997
 30
0.0
 11
42.0
 21
39.90076178849999
 31
0.0
  0
LINE
  5
A61
330
A2C
100
AcDbEntity
  8
VERMASSUNG
 62
     0
370
    -2
100
AcDbLine
 10
-45.39999999999999
 20
38.9007617885
 30
0.0
 11
39.0
 21
38.9007617885
 31
0.0
  0
SOLID
  5
A62
330
A2C
100
AcDbEntity
  8
VERMASSUNG
 62
     0
100
AcDbTrace
 10
-45.39999999999999
 20
39.4007617885
 30
0.0
 11
-45.39999999999999
 21
38.40076178849999
 31
0.0
 12
-48.39999999999999
 22
38.9007617885
 32
0.0
 13
-48.39999999999999
 23
38.9007617885
 33
0.0
  0
SOLID
  5
A63
330
A2C
100
AcDbEntity
  8
VERMASSUNG
 62
     0
100
AcDbTrace
 10
39.0
 20
39.4007617885
 30
0.0
 11
39.0
 21
38.40076178849999
 31
0.0
 12
42.0
 22
38.9007617885
 32
0.0
 13
42.0
 23
38.9007617885
 33
0.0
  0
MTEXT
  5
A64
330
A2C
100
AcDbEntity
  8
VERMASSUNG
 62
     0
100
AcDbMText
 10
-6.199999999999986
 20
42.4247617885
 30
0.0
 40
2.0
 41
0.0
 71
     1
 72
     1
  1
\A1;90.40
  7
SLDTEXTSTYLE0
 73
     1
 44
1.0
  0
POINT
  5
A65
330
A2C
100
AcDbEntity
  8
Defpoints
 62
     0
100
AcDbPoint
 10
-48.39999999999999
 20
8.384294465199998
 30
0.0
  0
POINT
  5
A66
330
A2C
100
AcDbEntity
  8
Defpoints
 62
     0
100
AcDbPoint
 10
42.0
 20
9.799999999999997
 30
0.0
  0
POINT
  5
A67
330
A2C
100
AcDbEntity
  8
Defpoints
 62
     0
100
AcDbPoint
 10
42.0
 20
38.9007617885
 30
0.0
  0
ENDBLK
  5
A37
330
A2C
100
AcDbEntity
  8
0
100
AcDbBlockEnd
  0
BLOCK
  5
A42
330
A38
100
AcDbEntity
  8
0
100
AcDbBlockBegin
  2
*D38
 70
     1
 10
0.0
 20
0.0
 30
0.0
  3
*D38
  1

  0
LINE
  5
AD0
330
A38
100
AcDbEntity
  8
SK2
 62
     0
370
    -2
100
AcDbLine
 10
-136.6521922264559
 20
-55.02872025934228
 30
0.0
 11
-211.541414016756
 21
-55.02872025934227
 31
0.0
  0
LINE
  5
AD1
330
A38
100
AcDbEntity
  8
SK2
 62
     0
370
    -2
100
AcDbLine
 10
-136.652192181656
 20
-101.028720259342
 30
0.0
 11
-211.541414016756
 21
-101.028720259342
 31
0.0
  0
LINE
  5
AD2
330
A38
100
AcDbEntity
  8
SK2
 62
     0
370
    -2
100
AcDbLine
 10
-209.541414016756
 20
-59.59872025934227
 30
0.0
 11
-209.541414016756
 21
-96.45872025934229
 31
0.0
  0
SOLID
  5
AD3
330
A38
100
AcDbEntity
  8
SK2
 62
     0
100
AcDbTrace
 10
-210.3030806834226
 20
-59.59872025934227
 30
0.0
 11
-208.7797473500893
 21
-59.59872025934227
 31
0.0
 12
-209.541414016756
 22
-55.02872025934227
 32
0.0
 13
-209.541414016756
 23
-55.02872025934227
 33
0.0
  0
SOLID
  5
AD4
330
A38
100
AcDbEntity
  8
SK2
 62
     0
100
AcDbTrace
 10
-210.3030806834226
 20
-96.45872025934229
 30
0.0
 11
-208.7797473500893
 21
-96.45872025934229
 31
0.0
 12
-209.541414016756
 22
-101.028720259342
 32
0.0
 13
-209.541414016756
 23
-101.028720259342
 33
0.0
  0
MTEXT
  5
AD5
330
A38
100
AcDbEntity
  8
SK2
 62
     7
100
AcDbMText
 10
-213.3264140167558
 20
-78.02872025934231
 30
0.0
 40
4.57
 41
0.0
 71
     5
 72
     1
  1
\A1;MAS BT 30 %%c46
  7
GENPRESET
 11
0.0000000000000001
 21
1.0
 31
0.0
 73
     1
 44
1.0
  0
POINT
  5
AD6
330
A38
100
AcDbEntity
  8
Defpoints
 62
     0
100
AcDbPoint
 10
-136.6521922264559
 20
-55.02872025934228
 30
0.0
  0
POINT
  5
AD7
330
A38
100
AcDbEntity
  8
Defpoints
 62
     0
100
AcDbPoint
 10
-136.652192181656
 20
-101.028720259342
 30
0.0
  0
POINT
  5
AD8
330
A38
100
AcDbEntity
  8
Defpoints
 62
     0
100
AcDbPoint
 10
-209.541414016756
 20
-101.028720259342
 30
0.0
  0
ENDBLK
  5
A43
330
A38
100
AcDbEntity
  8
0
100
AcDbBlockEnd
  0
BLOCK
  5
B9B
330
B93
100
AcDbEntity
  8
0
100
AcDbBlockBegin
  2
*D39
 70
     1
 10
0.0
 20
0.0
 30
0.0
  3
*D39
  1

  0
SOLID
  5
B94
330
B93
100
AcDbEntity
  8
VERMASSUNG
100
AcDbTrace
 10
130.9977346865
 20
137.9015346609
 30
0.0
 11
133.9977346865
 21
137.4515346608999
 31
0.0
 12
133.9977346865
 22
138.3515346609
 32
0.0
 13
133.9977346865
 23
138.3515346609
 33
0.0
  0
SOLID
  5
B95
330
B93
100
AcDbEntity
  8
VERMASSUNG
100
AcDbTrace
 10
170.6977346864999
 20
137.9015346609
 30
0.0
 11
167.6977346864999
 21
138.3515346609
 31
0.0
 12
167.6977346864999
 22
137.4515346608999
 32
0.0
 13
167.6977346864999
 23
137.4515346608999
 33
0.0
  0
LINE
  5
B96
330
B93
100
AcDbEntity
  8
VERMASSUNG
100
AcDbLine
 10
130.9977346865
 20
99.1697758081
 30
0.0
 11
130.9977346865
 21
138.9015346609
 31
0.0
  0
LINE
  5
B97
330
B93
100
AcDbEntity
  8
VERMASSUNG
100
AcDbLine
 10
170.6977346864999
 20
99.1697758081
 30
0.0
 11
170.6977346864999
 21
138.9015346609
 31
0.0
  0
LINE
  5
B98
330
B93
100
AcDbEntity
  8
VERMASSUNG
100
AcDbLine
 10
130.9977346865
 20
137.9015346609
 30
0.0
 11
170.6977346864999
 21
137.9015346609
 31
0.0
  0
MTEXT
  5
B99
330
B93
100
AcDbEntity
  8
VERMASSUNG
100
AcDbMText
 10
146.6442089164999
 20
140.5015347190999
 30
0.0
 40
2.0
 41
0.0
 71
     1
 72
     1
  1
{%%c}
  7
SLDTEXTSTYLE0
 73
     1
 44
1.0
  0
MTEXT
  5
B9A
330
B93
100
AcDbEntity
  8
VERMASSUNG
100
AcDbMText
 10
150.2521185674
 20
140.5015347773
 30
0.0
 40
2.0
 41
0.0
 71
     1
 72
     1
  1
{3.97}
  7
SLDTEXTSTYLE0
 73
     1
 44
1.0
  0
ENDBLK
  5
B9C
330
B93
100
AcDbEntity
  8
0
100
AcDbBlockEnd
  0
BLOCK
  5
BA3
330
B9D
100
AcDbEntity
  8
0
100
AcDbBlockBegin
  2
*D40
 70
     1
 10
0.0
 20
0.0
 30
0.0
  3
*D40
  1

  0
SOLID
  5
B9E
330
B9D
100
AcDbEntity
  8
VERMASSUNG
100
AcDbTrace
 10
173.8829226715999
 20
80.3742630754
 30
0.0
 11
176.3137618427
 21
78.559457046
 31
0.0
 12
176.7392425724
 22
79.35253090679998
 32
0.0
 13
176.7392425724
 23
79.35253090679998
 33
0.0
  0
LINE
  5
B9F
330
B9D
100
AcDbEntity
  8
VERMASSUNG
100
AcDbLine
 10
173.8829226715999
 20
80.3742630754
 30
0.0
 11
185.0078252834
 21
74.4058004703
 31
0.0
  0
LINE
  5
BA0
330
B9D
100
AcDbEntity
  8
VERMASSUNG
100
AcDbLine
 10
173.8829226715999
 20
80.3742630754
 30
0.0
 11
172.1205363143
 21
81.3197758081
 31
0.0
  0
MTEXT
  5
BA1
330
B9D
100
AcDbEntity
  8
VERMASSUNG
100
AcDbMText
 10
180.4199164065
 20
79.7846068658
 30
0.0
 40
2.0
 41
0.0
 71
     1
 72
     1
  1
{R}
  7
SLDTEXTSTYLE0
 11
0.881193178643015
 21
-0.4727563663379052
 31
0.0
 73
     1
 44
1.0
  0
MTEXT
  5
BA2
330
B9D
100
AcDbEntity
  8
VERMASSUNG
100
AcDbMText
 10
181.8286598565
 20
79.02882203819999
 30
0.0
 40
2.0
 41
0.0
 71
     1
 72
     1
  1
{0.2}
  7
SLDTEXTSTYLE0
 11
0.881193178643015
 21
-0.4727563663379052
 31
0.0
 73
     1
 44
1.0
  0
ENDBLK
  5
BA4
330
B9D
100
AcDbEntity
  8
0
100
AcDbBlockEnd
  0
BLOCK
  5
BAA
330
BA5
100
AcDbEntity
  8
0
100
AcDbBlockBegin
  2
SW_CENTERMARKSYMBOL_0
 70
     0
 10
0.0
 20
0.0
 30
0.0
  3
SW_CENTERMARKSYMBOL_0
  1

  0
LINE
  5
BA6
330
BA5
100
AcDbEntity
  8
VERMASSUNG
100
AcDbLine
 10
0.0
 20
0.0
 30
0.0
 11
0.0
 21
25.0
 31
0.0
  0
LINE
  5
BA7
330
BA5
100
AcDbEntity
  8
VERMASSUNG
100
AcDbLine
 10
0.0
 20
0.0
 30
0.0
 11
-25.0
 21
0.0
 31
0.0
  0
LINE
  5
BA8
330
BA5
100
AcDbEntity
  8
VERMASSUNG
100
AcDbLine
 10
0.0
 20
0.0
 30
0.0
 11
0.0
 21
-25.0
 31
0.0
  0
LINE
  5
BA9
330
BA5
100
AcDbEntity
  8
VERMASSUNG
100
AcDbLine
 10
0.0
 20
0.0
 30
0.0
 11
25.0
 21
0.0
 31
0.0
  0
ENDBLK
  5
BAB
330
BA5
100
AcDbEntity
  8
0
100
AcDbBlockEnd
  0
BLOCK
  5
C2A
330
C24
100
AcDbEntity
  8
0
100
AcDbBlockBegin
  2
*D42
 70
     1
 10
0.0
 20
0.0
 30
0.0
  3
*D42
  1

  0
LINE
  5
C5C
330
C24
100
AcDbEntity
  8
2
 62
     0
370
    -2
100
AcDbLine
 10
27.68113596652423
 20
0.8319794461027234
 30
0.0
 11
2.048755014143273
 21
0.8319794461027234
 31
0.0
  0
MTEXT
  5
C5D
330
C24
100
AcDbEntity
  8
2
 62
     7
100
AcDbMText
 10
8.118755014143276
 20
6.901979446102724
 30
0.0
 40
4.57
 41
0.0
 71
     1
 72
     1
  1
\A1;\U+22053.97
  7
GENPRESET
 73
     1
 44
1.0
  0
SOLID
  5
C5E
330
C24
100
AcDbEntity
  8
2
 62
     0
100
AcDbTrace
 10
2.048755014143273
 20
1.593646112769389
 30
0.0
 11
2.048755014143273
 21
0.0703127794360568
 31
0.0
 12
-2.521244985856723
 22
0.8319794461027234
 32
0.0
 13
-2.521244985856723
 23
0.8319794461027234
 33
0.0
  0
POINT
  5
C5F
330
C24
100
AcDbEntity
  8
Defpoints
 62
     0
100
AcDbPoint
 10
-2.521244985856723
 20
0.8319794461027234
 30
0.0
  0
POINT
  5
C60
330
C24
100
AcDbEntity
  8
Defpoints
 62
     0
100
AcDbPoint
 10
1.448755014143275
 20
0.8319794461027234
 30
0.0
  0
ENDBLK
  5
C2B
330
C24
100
AcDbEntity
  8
0
100
AcDbBlockEnd
  0
BLOCK
  5
C35
330
C2C
100
AcDbEntity
  8
0
100
AcDbBlockBegin
  2
*D43
 70
     1
 10
0.0
 20
0.0
 30
0.0
  3
*D43
  1

  0
LINE
  5
E3A
330
C2C
100
AcDbEntity
  8
2
 62
     0
370
    -2
100
AcDbLine
 10
-22.4319733716074
 20
-37.62241764545869
 30
0.0
 11
-18.40492054522472
 21
-39.78291423965254
 31
0.0
  0
MTEXT
  5
E3B
330
C2C
100
AcDbEntity
  8
2
 62
     7
100
AcDbMText
 10
-17.77030802899179
 20
-37.75472867414535
 30
0.0
 40
2.5
 41
0.0
 71
     5
 72
     1
  1
\A1;R0.2
  7
GENPRESET
 11
0.8811931786395359
 21
-0.4727563663443898
 31
0.0
 73
     1
 44
1.0
  0
LINE
  5
E3C
330
C2C
100
AcDbEntity
  8
2
 62
     0
370
    -2
100
AcDbLine
 10
-26.6352648337201
 20
-35.36736977799483
 30
0.0
 11
-26.45902619799008
 21
-35.46192105126483
 31
0.0
  0
SOLID
  5
E3D
330
C2C
100
AcDbEntity
  8
2
 62
     0
100
AcDbTrace
 10
-22.07189060590844
 20
-36.9512421743949
 30
0.0
 11
-22.7920561373064
 21
-38.29359311652247
 31
0.0
 12
-26.45902619799008
 22
-35.46192105126483
 32
0.0
 13
-26.45902619799008
 23
-35.46192105126483
 33
0.0
  0
POINT
  5
E3E
330
C2C
100
AcDbEntity
  8
Defpoints
 62
     0
100
AcDbPoint
 10
-26.45902619799008
 20
-35.46192105126483
 30
0.0
  0
POINT
  5
E3F
330
C2C
100
AcDbEntity
  8
Defpoints
 62
     0
100
AcDbPoint
 10
-26.6352648337201
 20
-35.36736977799483
 30
0.0
  0
ENDBLK
  5
C36
330
C2C
100
AcDbEntity
  8
0
100
AcDbBlockEnd
  0
BLOCK
  5
C74
330
C68
100
AcDbEntity
  8
0
100
AcDbBlockBegin
  2
*D44
 70
     1
 10
0.0
 20
0.0
 30
0.0
  3
*D44
  1

  0
LINE
  5
E2F
330
C68
100
AcDbEntity
  8
2
 62
     0
370
    -2
100
AcDbLine
 10
-30.7475449965001
 20
-33.58236977799482
 30
0.0
 11
-30.7475449965001
 21
-25.41928322630424
 31
0.0
  0
LINE
  5
E30
330
C68
100
AcDbEntity
  8
2
 62
     0
370
    -2
100
AcDbLine
 10
-26.7775449965001
 20
-33.58236977799482
 30
0.0
 11
-26.7775449965001
 21
-25.41928322630424
 31
0.0
  0
LINE
  5
E31
330
C68
100
AcDbEntity
  8
2
 62
     0
370
    -2
100
AcDbLine
 10
-35.3175449965001
 20
-27.41928322630423
 30
0.0
 11
-39.8875449965001
 21
-27.41928322630423
 31
0.0
  0
LINE
  5
E32
330
C68
100
AcDbEntity
  8
2
 62
     0
370
    -2
100
AcDbLine
 10
-22.20754499650009
 20
-27.41928322630423
 30
0.0
 11
-17.63754499650008
 21
-27.41928322630423
 31
0.0
  0
MTEXT
  5
E33
330
C68
100
AcDbEntity
  8
2
 62
     7
100
AcDbMText
 10
-17.65863834683201
 20
-25.71618996474729
 30
0.0
 40
2.5
 41
0.0
 71
     5
 72
     1
  1
\A1;3.97
  7
GENPRESET
 73
     1
 44
1.0
  0
LINE
  5
E34
330
C68
100
AcDbEntity
  8
2
 62
     0
370
    -2
100
AcDbLine
 10
-30.7475449965001
 20
-27.41928322630423
 30
0.0
 11
-26.7775449965001
 21
-27.41928322630423
 31
0.0
  0
SOLID
  5
E35
330
C68
100
AcDbEntity
  8
2
 62
     0
100
AcDbTrace
 10
-35.3175449965001
 20
-26.65761655963757
 30
0.0
 11
-35.3175449965001
 21
-28.1809498929709
 31
0.0
 12
-30.7475449965001
 22
-27.41928322630423
 32
0.0
 13
-30.7475449965001
 23
-27.41928322630423
 33
0.0
  0
SOLID
  5
E36
330
C68
100
AcDbEntity
  8
2
 62
     0
100
AcDbTrace
 10
-22.20754499650009
 20
-26.65761655963757
 30
0.0
 11
-22.20754499650009
 21
-28.1809498929709
 31
0.0
 12
-26.7775449965001
 22
-27.41928322630423
 32
0.0
 13
-26.7775449965001
 23
-27.41928322630423
 33
0.0
  0
POINT
  5
E37
330
C68
100
AcDbEntity
  8
Defpoints
 62
     0
100
AcDbPoint
 10
-30.7475449965001
 20
-33.58236977799482
 30
0.0
  0
POINT
  5
E38
330
C68
100
AcDbEntity
  8
Defpoints
 62
     0
100
AcDbPoint
 10
-26.7775449965001
 20
-33.58236977799482
 30
0.0
  0
POINT
  5
E39
330
C68
100
AcDbEntity
  8
Defpoints
 62
     0
100
AcDbPoint
 10
-26.7775449965001
 20
-27.41928322630423
 30
0.0
  0
ENDBLK
  5
C75
330
C68
100
AcDbEntity
  8
0
100
AcDbBlockEnd
  0
BLOCK
  5
E47
330
E40
100
AcDbEntity
  8
0
100
AcDbBlockBegin
  2
*D45
 70
     1
 10
0.0
 20
0.0
 30
0.0
  3
*D45
  1

  0
SOLID
  5
E41
330
E40
100
AcDbEntity
  8
VERMASSUNG
100
AcDbTrace
 10
172.5426780434994
 20
124.2962936345
 30
0.0
 11
172.0926780434999
 21
121.2962936345
 31
0.0
 12
172.9926780434999
 22
121.2962936345
 32
0.0
 13
172.9926780434999
 23
121.2962936345
 33
0.0
  0
SOLID
  5
E42
330
E40
100
AcDbEntity
  8
VERMASSUNG
100
AcDbTrace
 10
172.5426780434994
 20
92.5462936345
 30
0.0
 11
172.9926780434999
 21
95.54629363450001
 31
0.0
 12
172.0926780434999
 22
95.54629363450001
 32
0.0
 13
172.0926780434999
 23
95.54629363450001
 33
0.0
  0
LINE
  5
E43
330
E40
100
AcDbEntity
  8
VERMASSUNG
100
AcDbLine
 10
159.2094273004
 20
124.2962936345
 30
0.0
 11
173.5426780434994
 21
124.2962936345
 31
0.0
  0
LINE
  5
E44
330
E40
100
AcDbEntity
  8
VERMASSUNG
100
AcDbLine
 10
164.1025010150999
 20
92.5462936345
 30
0.0
 11
173.5426780434994
 21
92.5462936345
 31
0.0
  0
LINE
  5
E45
330
E40
100
AcDbEntity
  8
VERMASSUNG
100
AcDbLine
 10
172.5426780434994
 20
124.2962936345
 30
0.0
 11
172.5426780434994
 21
92.5462936345
 31
0.0
  0
MTEXT
  5
E46
330
E40
100
AcDbEntity
  8
VERMASSUNG
100
AcDbMText
 10
169.9426779271
 20
106.0217226898999
 30
0.0
 40
2.0
 41
0.0
 71
     1
 72
     1
  1
{6.35}
  7
SLDTEXTSTYLE0
 11
-0.0000000000000364
 21
1.0
 31
0.0
 73
     1
 44
1.0
  0
ENDBLK
  5
E48
330
E40
100
AcDbEntity
  8
0
100
AcDbBlockEnd
  0
BLOCK
  5
E52
330
E49
100
AcDbEntity
  8
0
100
AcDbBlockBegin
  2
*D46
 70
     1
 10
0.0
 20
0.0
 30
0.0
  3
*D46
  1

  0
LINE
  5
E4A
330
E49
100
AcDbEntity
  8
VERMASSUNG
 62
     0
370
    -2
100
AcDbLine
 10
121.4148460997882
 20
129.9895823071613
 30
0.0
 11
127.5388460997882
 21
129.9895823071613
 31
0.0
  0
LINE
  5
E4B
330
E49
100
AcDbEntity
  8
VERMASSUNG
 62
     0
370
    -2
100
AcDbLine
 10
127.5388460997882
 20
129.9895823071613
 30
0.0
 11
128.9645101482804
 21
126.8491190472303
 31
0.0
  0
MTEXT
  5
E4C
330
E49
100
AcDbEntity
  8
VERMASSUNG
 62
     0
100
AcDbMText
 10
121.4148460997882
 20
133.5135823071613
 30
0.0
 40
2.0
 41
0.0
 71
     1
 72
     1
  1
\A1;R0.2
  7
SLDTEXTSTYLE0
 73
     1
 44
1.0
  0
SOLID
  5
E4D
330
E49
100
AcDbEntity
  8
VERMASSUNG
 62
     0
100
AcDbTrace
 10
129.4197926895577
 20
127.0558019144643
 30
0.0
 11
128.509227607003
 21
126.6424361799964
 31
0.0
 12
130.2046073516837
 22
124.1174237995662
 32
0.0
 13
130.2046073516837
 23
124.1174237995662
 33
0.0
  0
LINE
  5
E4E
330
E49
100
AcDbEntity
  8
VERMASSUNG
 62
     0
370
    -2
100
AcDbLine
 10
130.9413388205999
 20
122.2962936344999
 30
0.0
 11
131.1213388205999
 21
122.2962936344999
 31
0.0
  0
LINE
  5
E4F
330
E49
100
AcDbEntity
  8
VERMASSUNG
 62
     0
370
    -2
100
AcDbLine
 10
131.0313388205998
 20
122.2062936344999
 30
0.0
 11
131.0313388205998
 21
122.3862936344999
 31
0.0
  0
POINT
  5
E50
330
E49
100
AcDbEntity
  8
Defpoints
 62
     0
100
AcDbPoint
 10
130.2046073516837
 20
124.1174237995662
 30
0.0
  0
POINT
  5
E51
330
E49
100
AcDbEntity
  8
Defpoints
 62
     0
100
AcDbPoint
 10
131.0313388205998
 20
122.2962936344999
 30
0.0
  0
ENDBLK
  5
E53
330
E49
100
AcDbEntity
  8
0
100
AcDbBlockEnd
  0
BLOCK
  5
E86
330
E54
100
AcDbEntity
  8
0
100
AcDbBlockBegin
  2
A$C7AE11558
 70
     0
 10
0.0
 20
0.0
 30
0.0
  3
A$C7AE11558
  1

  0
INSERT
  5
E55
330
E54
100
AcDbEntity
  8
VERMASSUNG
100
AcDbBlockReference
  2
SW_CENTERMARKSYMBOL_0
 10
18.91908828249194
 20
-15.87500000000008
 30
0.0
  0
CIRCLE
  5
E56
330
E54
100
AcDbEntity
  8
0
  6
SLD-Durchgehend
 62
     7
370
    15
100
AcDbCircle
 10
18.91908828249194
 20
-15.87500000000008
 30
0.0
 40
6.999999999999986
  0
CIRCLE
  5
E57
330
E54
100
AcDbEntity
  8
0
  6
SLD-Durchgehend
 62
     7
370
    15
100
AcDbCircle
 10
18.91908828249194
 20
-15.87500000000008
 30
0.0
 40
9.625
  0
LINE
  5
E58
330
E54
100
AcDbEntity
  8
0
  6
SLD-Durchgehend
 62
     7
370
    15
100
AcDbLine
 10
13.46494067979193
 20
-27.37500000000007
 30
0.0
 11
26.66548663429193
 21
-27.3750000015001
 31
0.0
  0
LINE
  5
E59
330
E54
100
AcDbEntity
  8
0
  6
SLD-Durchgehend
 62
     7
370
    15
100
AcDbLine
 10
24.37323588509193
 20
-4.375000000000085
 30
0.0
 11
11.17268993059193
 21
-4.375000000000085
 31
0.0
  0
LINE
  5
E5A
330
E54
100
AcDbEntity
  8
0
  6
SLD-Durchgehend
 62
     7
370
    15
100
AcDbLine
 10
7.276580899891937
 20
-31.75000000000007
 30
0.0
 11
35.45466937969192
 21
-31.75000000000007
 31
0.0
  0
LINE
  5
E5B
330
E54
100
AcDbEntity
  8
0
  6
SLD-Durchgehend
 62
     7
370
    15
100
AcDbLine
 10
30.56159566499195
 20
-0.0000000000000853
 30
0.0
 11
2.383507185191914
 21
-0.0000000000000853
 31
0.0
  0
LINE
  5
E5C
330
E54
100
AcDbEntity
  8
0
  6
SLD-Durchgehend
 62
     7
370
    15
100
AcDbLine
 10
7.276580899891937
 20
-31.65000000000008
 30
0.0
 11
35.45466937969192
 21
-31.65000000000008
 31
0.0
  0
LINE
  5
E5D
330
E54
100
AcDbEntity
  8
0
  6
SLD-Durchgehend
 62
     7
370
    15
100
AcDbLine
 10
30.56159566499195
 20
-0.1000000000000796
 30
0.0
 11
2.383507185191914
 21
-0.1000000000000796
 31
0.0
  0
LINE
  5
E5E
330
E54
100
AcDbEntity
  8
0
  6
SLD-Durchgehend
 62
     7
370
    15
100
AcDbLine
 10
6.248651165491935
 20
-10.24324088830008
 30
0.0
 11
8.540901914791929
 21
-23.24324088830008
 31
0.0
  0
LINE
  5
E5F
330
E54
100
AcDbEntity
  8
0
  6
SLD-Durchgehend
 62
     7
370
    15
100
AcDbLine
 10
0.4138916791919204
 20
-2.347296355300088
 30
0.0
 11
5.306965393891941
 21
-30.09729635530009
 31
0.0
  0
LINE
  5
E60
330
E54
100
AcDbEntity
  8
0
  6
SLD-Durchgehend
 62
     7
370
    15
100
AcDbLine
 10
0.5123724544919242
 20
-2.329931537600089
 30
0.0
 11
5.405446169191918
 21
-30.07993153760009
 31
0.0
  0
LINE
  5
E61
330
E54
100
AcDbEntity
  8
0
  6
SLD-Durchgehend
 62
     7
370
    15
100
AcDbLine
 10
9.394143902591935
 20
-27.22638668400009
 30
0.0
 11
7.259710173691927
 21
-29.77010574850007
 31
0.0
  0
ARC
  5
E62
330
E54
100
AcDbEntity
  8
0
  6
SLD-Durchgehend
 62
     7
370
    15
100
AcDbCircle
 10
7.276580899891937
 20
-29.75000000000007
 30
0.0
 40
1.900000000000104
100
AcDbArc
 50
190.0000000000002
 51
270.0
  0
ARC
  5
E63
330
E54
100
AcDbEntity
  8
0
  6
SLD-Durchgehend
 62
     7
370
    15
100
AcDbCircle
 10
7.276580899891937
 20
-29.75000000000007
 30
0.0
 40
2.000000000000135
100
AcDbArc
 50
190.0000000000002
 51
270.0
  0
ARC
  5
E64
330
E54
100
AcDbEntity
  8
0
  6
SLD-Durchgehend
 62
     7
370
    15
100
AcDbCircle
 10
7.542482399791937
 20
-29.81497985190009
 30
0.0
 40
0.2863107000877296
100
AcDbArc
 50
170.9827285013998
 51
201.7643679166003
  0
ARC
  5
E65
330
E54
100
AcDbEntity
  8
0
  6
SLD-Durchgehend
 62
     7
370
    15
100
AcDbCircle
 10
7.156917228191927
 20
-29.34956422130007
 30
0.0
 40
0.4329221243209871
100
AcDbArc
 50
263.5174187936007
 51
283.7354847886004
  0
ARC
  5
E66
330
E54
100
AcDbEntity
  8
0
  6
SLD-Durchgehend
 62
     7
370
    15
100
AcDbCircle
 10
13.46494067979193
 20
-22.37500000000007
 30
0.0
 40
5.000000000000266
100
AcDbArc
 50
190.0000000000002
 51
270.0
  0
DIMENSION
  5
E67
330
E54
100
AcDbEntity
  8
VERMASSUNG
100
AcDbDimension
  2
*D46
 10
2.383507185191888
 20
-2.000000000000099
 30
0.0
 11
-4.932985535619846
 21
5.693288672661237
 31
0.0
 12
-128.647831635408
 22
-124.2962936345
 32
0.0
 70
   132
  1
R0.2
 71
     5
 42
0.3999999999905257
  3
SLDDIMSTYLE1
100
AcDbRadialDimension
 15
1.556775716275808
 25
-0.1788698349338205
 35
0.0
 40
0.0
1001
ACAD
1000
DSTYLE
1002
{
1070
   143
1040
0.0394
1070
    41
1040
3.0
1070
    44
1040
1.0
1070
    42
1040
0.0
1070
   147
1040
1.524
1070
   144
1040
0.2
1070
    73
1070
     1
1070
    74
1070
     1
1070
   140
1040
2.0
1070
   284
1070
     0
1070
    78
1070
     0
1002
}
  0
ARC
  5
E68
330
E54
100
AcDbEntity
  8
0
  6
SLD-Durchgehend
 62
     7
370
    15
100
AcDbCircle
 10
11.17268993059193
 20
-9.375000000000083
 30
0.0
 40
5.000000000000011
100
AcDbArc
 50
90.0
 51
190.0000000000002
  0
LINE
  5
E69
330
E54
100
AcDbEntity
  8
0
  6
SLD-Durchgehend
 62
     7
370
    15
100
AcDbLine
 10
5.213515833891931
 20
-4.374659213400078
 30
0.0
 11
5.856725885891932
 21
-4.914376530700096
 31
0.0
  0
LWPOLYLINE
  5
E6A
330
E54
100
AcDbEntity
  8
0
  6
SLD-Durchgehend
 62
     7
370
    15
100
AcDbPolyline
 90
       10
 70
   128
 43
0.0
 10
5.213515833891931
 20
-4.374659213400078
 10
5.248973731191938
 20
-4.25839381850008
 10
5.309001913891933
 20
-3.890020544400087
 10
5.251839546291932
 20
-3.516924745200086
 10
5.079304685291925
 20
-3.238286479400087
 10
4.780313748091941
 20
-3.007222843000092
 10
4.484180499491941
 20
-2.875660963800086
 10
4.171130273691943
 20
-2.788707999500088
 10
3.702471621491923
 20
-2.718192646300095
 10
3.228386887891926
 20
-2.698076211400091
  0
LWPOLYLINE
  5
E6B
330
E54
100
AcDbEntity
  8
0
  6
SLD-Durchgehend
 62
     7
370
    15
100
AcDbPolyline
 90
       10
 70
   128
 43
0.0
 10
3.217689871091919
 20
-2.710824419600086
 10
3.336913285791951
 20
-3.236615916100091
 10
3.522083271491935
 20
-3.741757189800096
 10
3.753804099591943
 20
-4.137294081400098
 10
3.908432929491937
 20
-4.311710122100095
 10
4.092695742491939
 20
-4.453132741300088
 10
4.361923287791936
 20
-4.558688466500099
 10
4.650854558191952
 20
-4.569489553800096
 10
5.067781389991949
 20
-4.447080124700089
 10
5.213515833891931
 20
-4.374659213400078
  0
ARC
  5
E6C
330
E54
100
AcDbEntity
  8
0
  6
SLD-Durchgehend
 62
     7
370
    15
100
AcDbCircle
 10
2.383507185191914
 20
-2.000000000000083
 30
0.0
 40
2.00000000000008
100
AcDbArc
 50
90.0
 51
190.0000000000002
  0
ARC
  5
E6D
330
E54
100
AcDbEntity
  8
0
  6
SLD-Durchgehend
 62
     7
370
    15
100
AcDbCircle
 10
2.383507185191914
 20
-2.000000000000083
 30
0.0
 40
1.899999999999975
100
AcDbArc
 50
90.0
 51
190.0000000000002
  0
LINE
  5
E6E
330
E54
100
AcDbEntity
  8
0
  6
SLD-Durchgehend
 62
     7
370
    15
100
AcDbLine
 10
3.228386887891926
 20
-2.698076211400091
 30
0.0
 11
3.215442017991931
 21
-2.698076211400091
 31
0.0
  0
LINE
  5
E6F
330
E54
100
AcDbEntity
  8
0
  6
SLD-Durchgehend
 62
     7
370
    15
100
AcDbLine
 10
3.215442017991931
 20
-2.698076211400091
 30
0.0
 11
3.217689871091919
 21
-2.710824419600086
 31
0.0
  0
LINE
  5
E70
330
E54
100
AcDbEntity
  8
0
  6
SLD-Durchgehend
 62
     7
370
    15
100
AcDbLine
 10
3.215442017991931
 20
-2.698076211400091
 30
0.0
 11
2.383507185191914
 21
-2.000000000000083
 31
0.0
  0
DIMENSION
  5
E71
330
E54
100
AcDbEntity
  8
VERMASSUNG
100
AcDbDimension
  2
*D45
 10
43.89484640809192
 20
-31.75000000000007
 30
0.0
 11
43.89484640809192
 21
-15.87500000000008
 31
0.0
 12
-128.647831635408
 22
-124.2962936345
 32
0.0
 70
   128
 71
     5
 42
6.349999999999997
  3
SLDDIMSTYLE0
100
AcDbAlignedDimension
 13
30.56159566499195
 23
-0.0000000000000853
 33
0.0
 14
35.45466937969192
 24
-31.75000000000007
 34
0.0
 50
90.0
100
AcDbRotatedDimension
1001
ACAD
1000
DSTYLE
1002
{
1070
   143
1040
0.0394
1070
    41
1040
3.0
1070
    44
1040
1.0
1070
    42
1040
0.0
1070
   147
1040
1.524
1070
   144
1040
0.2
1070
    73
1070
     1
1070
    74
1070
     1
1070
   140
1040
2.0
1070
   284
1070
     0
1070
    78
1070
     0
1002
}
  0
LINE
  5
E72
330
E54
100
AcDbEntity
  8
0
  6
SLD-Durchgehend
 62
     7
370
    15
100
AcDbLine
 10
37.42428488569194
 20
-29.40270364470009
 30
0.0
 11
32.53121117109194
 21
-1.652703644700095
 31
0.0
  0
ARC
  5
E73
330
E54
100
AcDbEntity
  8
0
  6
SLD-Durchgehend
 62
     7
370
    15
100
AcDbCircle
 10
26.66548663429193
 20
-22.37500000000007
 30
0.0
 40
5.000000001476876
100
AcDbArc
 50
270.0
 51
10.00000009600044
  0
LINE
  5
E74
330
E54
100
AcDbEntity
  8
0
  6
SLD-Durchgehend
 62
     7
370
    15
100
AcDbLine
 10
37.32580411039192
 20
-29.42006846240007
 30
0.0
 11
32.43273039429192
 21
-1.670068462700085
 31
0.0
  0
LINE
  5
E75
330
E54
100
AcDbEntity
  8
0
  6
SLD-Durchgehend
 62
     7
370
    15
100
AcDbLine
 10
31.98145067899192
 20
-26.83562346930008
 30
0.0
 11
32.62466073099193
 21
-27.37534078660007
 31
0.0
  0
LWPOLYLINE
  5
E76
330
E54
100
AcDbEntity
  8
0
  6
SLD-Durchgehend
 62
     7
370
    15
100
AcDbPolyline
 90
       10
 70
   128
 43
0.0
 10
32.62466073099193
 20
-27.37534078660007
 10
32.58920283369192
 20
-27.4916061815001
 10
32.52917465099193
 20
-27.85997945560009
 10
32.58633701859192
 20
-28.23307525480009
 10
32.75887187959193
 20
-28.5117135206001
 10
33.05786281689194
 20
-28.74277715700008
 10
33.35399606539192
 20
-28.87433903620008
 10
33.66704629119192
 20
-28.96129200050006
 10
34.1357049433919
 20
-29.03180735370009
 10
34.60978967699193
 20
-29.05192378860009
  0
LWPOLYLINE
  5
E77
330
E54
100
AcDbEntity
  8
0
  6
SLD-Durchgehend
 62
     7
370
    15
100
AcDbPolyline
 90
       10
 70
   128
 43
0.0
 10
34.62048669389193
 20
-29.03917558040005
 10
34.50126327909194
 20
-28.51338408390009
 10
34.31609329339193
 20
-28.00824281020009
 10
34.08437246529192
 20
-27.61270591860006
 10
33.92974363539193
 20
-27.43828987790009
 10
33.74548082239192
 20
-27.29686725870009
 10
33.47625327709192
 20
-27.19131153350008
 10
33.1873220066919
 20
-27.18051044620009
 10
32.77039517489193
 20
-27.30291987530009
 10
32.62466073099193
 20
-27.37534078660007
  0
ARC
  5
E78
330
E54
100
AcDbEntity
  8
0
  6
SLD-Durchgehend
 62
     7
370
    15
100
AcDbCircle
 10
35.45466937969192
 20
-29.75000000000007
 30
0.0
 40
1.900000000000063
100
AcDbArc
 50
270.0
 51
10.00000000000021
  0
ARC
  5
E79
330
E54
100
AcDbEntity
  8
0
  6
SLD-Durchgehend
 62
     7
370
    15
100
AcDbCircle
 10
35.45466937969192
 20
-29.75000000000007
 30
0.0
 40
2.00000000000008
100
AcDbArc
 50
270.0
 51
10.00000000000021
  0
LINE
  5
E7A
330
E54
100
AcDbEntity
  8
0
  6
SLD-Durchgehend
 62
     7
370
    15
100
AcDbLine
 10
34.60978967699193
 20
-29.05192378860009
 30
0.0
 11
34.62273454689192
 21
-29.05192378860009
 31
0.0
  0
LINE
  5
E7B
330
E54
100
AcDbEntity
  8
0
  6
SLD-Durchgehend
 62
     7
370
    15
100
AcDbLine
 10
34.62273454689192
 20
-29.05192378860009
 30
0.0
 11
34.62048669389193
 21
-29.03917558040005
 31
0.0
  0
LINE
  5
E7C
330
E54
100
AcDbEntity
  8
0
  6
SLD-Durchgehend
 62
     7
370
    15
100
AcDbLine
 10
34.62273454689192
 20
-29.05192378860009
 30
0.0
 11
35.45466937969192
 21
-29.75000000000007
 31
0.0
  0
ARC
  5
E7D
330
E54
100
AcDbEntity
  8
0
  6
SLD-Durchgehend
 62
     7
370
    15
100
AcDbCircle
 10
30.56159566499195
 20
-2.000000000000083
 30
0.0
 40
1.899999999999949
100
AcDbArc
 50
10.00000025259974
 51
90.0
  0
ARC
  5
E7E
330
E54
100
AcDbEntity
  8
0
  6
SLD-Durchgehend
 62
     7
370
    15
100
AcDbCircle
 10
30.56159566499195
 20
-2.000000000000083
 30
0.0
 40
2.000000000000053
100
AcDbArc
 50
10.00000000000021
 51
90.0
  0
LINE
  5
E7F
330
E54
100
AcDbEntity
  8
0
  6
SLD-Durchgehend
 62
     7
370
    15
100
AcDbLine
 10
31.58952539939193
 20
-21.50675911170008
 30
0.0
 11
29.29727465019192
 21
-8.506759111700077
 31
0.0
  0
ARC
  5
E80
330
E54
100
AcDbEntity
  8
0
  6
SLD-Durchgehend
 62
     7
370
    15
100
AcDbCircle
 10
24.37323588509193
 20
-9.375000000000083
 30
0.0
 40
5.000000000000076
100
AcDbArc
 50
10.00000000000021
 51
90.0
  0
ARC
  5
E81
330
E54
100
AcDbEntity
  8
0
  6
SLD-Durchgehend
 62
     7
370
    15
100
AcDbCircle
 10
30.68125933669192
 20
-2.400435778900086
 30
0.0
 40
0.432922124510043
100
AcDbArc
 50
83.51741879759961
 51
103.7354847837004
  0
LINE
  5
E82
330
E54
100
AcDbEntity
  8
0
  6
SLD-Durchgehend
 62
     7
370
    15
100
AcDbLine
 10
30.57846639119194
 20
-1.979894251500098
 30
0.0
 11
28.44403266229193
 21
-4.523613316100082
 31
0.0
  0
ARC
  5
E83
330
E54
100
AcDbEntity
  8
0
  6
SLD-Durchgehend
 62
     7
370
    15
100
AcDbCircle
 10
30.29569416479194
 20
-1.935020148200095
 30
0.0
 40
0.286310700440269
100
AcDbArc
 50
350.9827285210003
 51
21.76436789720035
  0
XLINE
  5
E84
330
E54
100
AcDbEntity
  8
0
100
AcDbXline
 10
0.4138916791674208
 20
-2.347296355333964
 30
0.0
 11
0.1736481776683092
 21
-0.9848077530119649
 31
0.0
  0
XLINE
  5
E85
330
E54
100
AcDbEntity
  8
0
100
AcDbXline
 10
2.383507185191914
 20
0.0
 30
0.0
 11
-1.0
 21
0.0
 31
0.0
  0
ENDBLK
  5
E87
330
E54
100
AcDbEntity
  8
0
100
AcDbBlockEnd
  0
BLOCK
  5
EC3
330
EBA
100
AcDbEntity
  8
0
100
AcDbBlockBegin
  2
*D48
 70
     1
 10
0.0
 20
0.0
 30
0.0
  3
*D48
  1

  0
LINE
  5
1054
330
EBA
100
AcDbEntity
  8
2
 62
     0
370
    -2
100
AcDbLine
 10
16.77238969796258
 20
10.30801824157097
 30
0.0
 11
3.808816252051872
 21
2.166547653828704
 31
0.0
  0
MTEXT
  5
1055
330
EBA
100
AcDbEntity
  8
2
 62
     7
100
AcDbMText
 10
6.821797798634412
 20
8.782198959630205
 30
0.0
 40
2.5
 41
0.0
 71
     1
 72
     1
  1
\A1;R0.2
  7
GENPRESET
 11
0.8468443163098427
 21
0.5318408633545518
 31
0.0
 73
     1
 44
1.0
  0
LINE
  5
1056
330
EBA
100
AcDbEntity
  8
2
 62
     0
370
    -2
100
AcDbLine
 10
-0.4000000000000201
 20
-0.4767014370383775
 30
0.0
 11
-0.0612622734841081
 21
-0.2639650917015968
 31
0.0
  0
SOLID
  5
1057
330
EBA
100
AcDbEntity
  8
2
 62
     0
100
AcDbTrace
 10
3.403730794463489
 20
2.811560741418034
 30
0.0
 11
4.213901709640254
 21
1.521534566239373
 31
0.0
 12
-0.0612622734841081
 22
-0.2639650917015968
 32
0.0
 13
-0.0612622734841081
 23
-0.2639650917015968
 33
0.0
  0
POINT
  5
1058
330
EBA
100
AcDbEntity
  8
Defpoints
 62
     0
100
AcDbPoint
 10
-0.0612622734841081
 20
-0.2639650917015968
 30
0.0
  0
POINT
  5
1059
330
EBA
100
AcDbEntity
  8
Defpoints
 62
     0
100
AcDbPoint
 10
-0.4000000000000201
 20
-0.4767014370383775
 30
0.0
  0
ENDBLK
  5
EC4
330
EBA
100
AcDbEntity
  8
0
100
AcDbBlockEnd
  0
BLOCK
  5
ECF
330
EC5
100
AcDbEntity
  8
0
100
AcDbBlockBegin
  2
*D49
 70
     1
 10
0.0
 20
0.0
 30
0.0
  3
*D49
  1

  0
LINE
  5
1104
330
EC5
100
AcDbEntity
  8
2
 62
     0
370
    -2
100
AcDbLine
 10
-34.67634945279726
 20
-27.98975424854807
 30
0.0
 11
-34.67634945279726
 21
-33.92585758836081
 31
0.0
  0
LINE
  5
1105
330
EC5
100
AcDbEntity
  8
2
 62
     0
370
    -2
100
AcDbLine
 10
-41.02634945279727
 20
-28.96836899148807
 30
0.0
 11
-41.02634945279727
 21
-33.92585758836081
 31
0.0
  0
LINE
  5
1106
330
EC5
100
AcDbEntity
  8
2
 62
     0
370
    -2
100
AcDbLine
 10
-30.10634945279727
 20
-31.92585758836081
 30
0.0
 11
-25.53634945279727
 21
-31.92585758836081
 31
0.0
  0
LINE
  5
1107
330
EC5
100
AcDbEntity
  8
2
 62
     0
370
    -2
100
AcDbLine
 10
-45.59634945279728
 20
-31.92585758836081
 30
0.0
 11
-50.16634945279728
 21
-31.92585758836081
 31
0.0
  0
MTEXT
  5
1108
330
EC5
100
AcDbEntity
  8
2
 62
     7
100
AcDbMText
 10
-25.89594742732748
 20
-30.05366431154827
 30
0.0
 40
2.5
 41
0.0
 71
     5
 72
     1
  1
\A1;6.35
  7
GENPRESET
 73
     1
 44
1.0
  0
LINE
  5
1109
330
EC5
100
AcDbEntity
  8
2
 62
     0
370
    -2
100
AcDbLine
 10
-34.67634945279726
 20
-31.92585758836081
 30
0.0
 11
-41.02634945279727
 21
-31.92585758836081
 31
0.0
  0
SOLID
  5
110A
330
EC5
100
AcDbEntity
  8
2
 62
     0
100
AcDbTrace
 10
-30.10634945279727
 20
-31.16419092169413
 30
0.0
 11
-30.10634945279727
 21
-32.68752425502748
 31
0.0
 12
-34.67634945279726
 22
-31.92585758836081
 32
0.0
 13
-34.67634945279726
 23
-31.92585758836081
 33
0.0
  0
SOLID
  5
110B
330
EC5
100
AcDbEntity
  8
2
 62
     0
100
AcDbTrace
 10
-45.59634945279728
 20
-31.16419092169413
 30
0.0
 11
-45.59634945279728
 21
-32.68752425502748
 31
0.0
 12
-41.02634945279727
 22
-31.92585758836081
 32
0.0
 13
-41.02634945279727
 23
-31.92585758836081
 33
0.0
  0
POINT
  5
110C
330
EC5
100
AcDbEntity
  8
Defpoints
 62
     0
100
AcDbPoint
 10
-34.67634945279726
 20
-27.98975424854807
 30
0.0
  0
POINT
  5
110D
330
EC5
100
AcDbEntity
  8
Defpoints
 62
     0
100
AcDbPoint
 10
-41.02634945279727
 20
-28.96836899148807
 30
0.0
  0
POINT
  5
110E
330
EC5
100
AcDbEntity
  8
Defpoints
 62
     0
100
AcDbPoint
 10
-41.02634945279727
 20
-31.92585758836081
 30
0.0
  0
ENDBLK
  5
ED0
330
EC5
100
AcDbEntity
  8
0
100
AcDbBlockEnd
  0
BLOCK
  5
1069
330
1062
100
AcDbEntity
  8
0
100
AcDbBlockBegin
  2
*D50
 70
     1
 10
0.0
 20
0.0
 30
0.0
  3
*D50
  1

  0
LINE
  5
110F
330
1062
100
AcDbEntity
  8
2
 62
     0
370
    -2
100
AcDbLine
 10
-31.25911091339497
 20
-19.17143488053305
 30
0.0
 11
-27.74909479165079
 21
-16.24488626055491
 31
0.0
  0
MTEXT
  5
1110
330
1062
100
AcDbEntity
  8
2
 62
     7
100
AcDbMText
 10
-29.99399826306376
 20
-15.53472933273439
 30
0.0
 40
2.5
 41
0.0
 71
     5
 72
     1
  1
\A1;R0.4
  7
GENPRESET
 11
0.7680560441453337
 21
0.6403826301921543
 31
0.0
 73
     1
 44
1.0
  0
LINE
  5
1111
330
1062
100
AcDbEntity
  8
2
 62
     0
370
    -2
100
AcDbLine
 10
-35.07634945279729
 20
-22.35413655258807
 30
0.0
 11
-34.76912703513915
 21
-22.09798350051119
 31
0.0
  0
SOLID
  5
1112
330
1062
100
AcDbEntity
  8
2
 62
     0
100
AcDbTrace
 10
-31.74686901672465
 20
-18.58643219357569
 30
0.0
 11
-30.77135281006528
 21
-19.75643756749042
 31
0.0
 12
-34.76912703513915
 22
-22.09798350051119
 32
0.0
 13
-34.76912703513915
 23
-22.09798350051119
 33
0.0
  0
POINT
  5
1113
330
1062
100
AcDbEntity
  8
Defpoints
 62
     0
100
AcDbPoint
 10
-34.76912703513915
 20
-22.09798350051119
 30
0.0
  0
POINT
  5
1114
330
1062
100
AcDbEntity
  8
Defpoints
 62
     0
100
AcDbPoint
 10
-35.07634945279729
 20
-22.35413655258807
 30
0.0
  0
ENDBLK
  5
106A
330
1062
100
AcDbEntity
  8
0
100
AcDbBlockEnd
  0
BLOCK
  5
111F
330
1115
100
AcDbEntity
  8
0
100
AcDbBlockBegin
  2
*D51
 70
     1
 10
0.0
 20
0.0
 30
0.0
  3
*D51
  1

  0
LINE
  5
1116
330
1115
100
AcDbEntity
  8
VERMASSUNG
 62
     0
370
    -2
100
AcDbLine
 10
142.5132468212623
 20
106.9577619491622
 30
0.0
 11
142.5132468212623
 21
102.7772447621024
 31
0.0
  0
LINE
  5
1117
330
1115
100
AcDbEntity
  8
VERMASSUNG
 62
     0
370
    -2
100
AcDbLine
 10
132.9882468212624
 20
105.4193090424824
 30
0.0
 11
132.9882468212624
 21
102.7772447621024
 31
0.0
  0
LINE
  5
1118
330
1115
100
AcDbEntity
  8
VERMASSUNG
 62
     0
370
    -2
100
AcDbLine
 10
139.5132468212622
 20
103.7772447621024
 30
0.0
 11
135.9882468212624
 21
103.7772447621024
 31
0.0
  0
SOLID
  5
1119
330
1115
100
AcDbEntity
  8
VERMASSUNG
 62
     0
100
AcDbTrace
 10
139.5132468212622
 20
104.2772447621024
 30
0.0
 11
139.5132468212622
 21
103.2772447621024
 31
0.0
 12
142.5132468212623
 22
103.7772447621024
 32
0.0
 13
142.5132468212623
 23
103.7772447621024
 33
0.0
  0
SOLID
  5
111A
330
1115
100
AcDbEntity
  8
VERMASSUNG
 62
     0
100
AcDbTrace
 10
135.9882468212624
 20
104.2772447621024
 30
0.0
 11
135.9882468212624
 21
103.2772447621024
 31
0.0
 12
132.9882468212624
 22
103.7772447621024
 32
0.0
 13
132.9882468212624
 23
103.7772447621024
 33
0.0
  0
MTEXT
  5
111B
330
1115
100
AcDbEntity
  8
VERMASSUNG
 62
     0
100
AcDbMText
 10
135.9507468212622
 20
102.2532447621024
 30
0.0
 40
2.0
 41
0.0
 71
     1
 72
     1
  1
\A1;1.91
  7
SLDTEXTSTYLE0
 73
     1
 44
1.0
  0
POINT
  5
111C
330
1115
100
AcDbEntity
  8
Defpoints
 62
     0
100
AcDbPoint
 10
142.5132468212623
 20
106.9577619491622
 30
0.0
  0
POINT
  5
111D
330
1115
100
AcDbEntity
  8
Defpoints
 62
     0
100
AcDbPoint
 10
132.9882468212624
 20
105.4193090424824
 30
0.0
  0
POINT
  5
111E
330
1115
100
AcDbEntity
  8
Defpoints
 62
     0
100
AcDbPoint
 10
132.9882468212624
 20
103.7772447621024
 30
0.0
  0
ENDBLK
  5
1120
330
1115
100
AcDbEntity
  8
0
100
AcDbBlockEnd
  0
BLOCK
  5
112A
330
1121
100
AcDbEntity
  8
0
100
AcDbBlockBegin
  2
*D52
 70
     1
 10
0.0
 20
0.0
 30
0.0
  3
*D52
  1

  0
LINE
  5
1122
330
1121
100
AcDbEntity
  8
VERMASSUNG
 62
     0
370
    -2
100
AcDbLine
 10
156.6325838030859
 20
115.5375074593609
 30
0.0
 11
150.5085838030859
 21
115.5375074593609
 31
0.0
  0
LINE
  5
1123
330
1121
100
AcDbEntity
  8
VERMASSUNG
 62
     0
370
    -2
100
AcDbLine
 10
150.5085838030859
 20
115.5375074593609
 30
0.0
 11
145.511359409155
 21
115.7040858394209
 31
0.0
  0
MTEXT
  5
1124
330
1121
100
AcDbEntity
  8
VERMASSUNG
 62
     0
100
AcDbMText
 10
152.0325838030859
 20
119.0615074593609
 30
0.0
 40
2.0
 41
0.0
 71
     1
 72
     1
  1
\A1;R0.2
  7
SLDTEXTSTYLE0
 73
     1
 44
1.0
  0
SOLID
  5
1125
330
1121
100
AcDbEntity
  8
VERMASSUNG
 62
     0
100
AcDbTrace
 10
145.5280172471612
 20
116.203808278814
 30
0.0
 11
145.4947015711491
 21
115.2043634000275
 31
0.0
 12
142.5130247727963
 22
115.8040328674569
 32
0.0
 13
142.5130247727963
 23
115.8040328674569
 33
0.0
  0
LINE
  5
1126
330
1121
100
AcDbEntity
  8
VERMASSUNG
 62
     0
370
    -2
100
AcDbLine
 10
142.0232468212623
 20
115.8173591378623
 30
0.0
 11
142.2032468212624
 21
115.8173591378623
 31
0.0
  0
LINE
  5
1127
330
1121
100
AcDbEntity
  8
VERMASSUNG
 62
     0
370
    -2
100
AcDbLine
 10
142.1132468212623
 20
115.7273591378622
 30
0.0
 11
142.1132468212623
 21
115.9073591378622
 31
0.0
  0
POINT
  5
1128
330
1121
100
AcDbEntity
  8
Defpoints
 62
     0
100
AcDbPoint
 10
142.5130247727963
 20
115.8040328674569
 30
0.0
  0
POINT
  5
1129
330
1121
100
AcDbEntity
  8
Defpoints
 62
     0
100
AcDbPoint
 10
142.1132468212624
 20
115.8173591378623
 30
0.0
  0
ENDBLK
  5
112B
330
1121
100
AcDbEntity
  8
0
100
AcDbBlockEnd
  0
BLOCK
  5
1192
330
118A
100
AcDbEntity
  8
0
100
AcDbBlockBegin
  2
*D53
 70
     1
 10
0.0
 20
0.0
 30
0.0
  3
*D53
  1

  0
LINE
  5
124E
330
118A
100
AcDbEntity
  8
2
 62
     0
370
    -2
100
AcDbLine
 10
3.301001583039507
 20
2.840449039286484
 30
0.0
 11
6.704135835438437
 21
5.89062563419852
 31
0.0
  0
MTEXT
  5
124F
330
118A
100
AcDbEntity
  8
2
 62
     7
100
AcDbMText
 10
5.150890577120065
 20
7.142193470023983
 30
0.0
 40
2.5
 41
0.0
 71
     5
 72
     1
  1
\A1;R0.8
  7
GENPRESET
 11
0.7446683265643172
 21
0.6674347034818459
 31
0.0
 73
     1
 44
1.0
  0
LINE
  5
1250
330
118A
100
AcDbEntity
  8
2
 62
     0
370
    -2
100
AcDbLine
 10
-0.3999999999999769
 20
-0.4767014370315792
 30
0.0
 11
-0.1021326693594226
 21
-0.2097275556255513
 31
0.0
  0
SOLID
  5
1251
330
118A
100
AcDbEntity
  8
2
 62
     0
100
AcDbTrace
 10
2.792638817220834
 20
3.407638081352972
 30
0.0
 11
3.80936434885818
 21
2.273259997219996
 31
0.0
 12
-0.1021326693594226
 22
-0.2097275556255513
 32
0.0
 13
-0.1021326693594226
 23
-0.2097275556255513
 33
0.0
  0
POINT
  5
1252
330
118A
100
AcDbEntity
  8
Defpoints
 62
     0
100
AcDbPoint
 10
-0.1021326693594226
 20
-0.2097275556255513
 30
0.0
  0
POINT
  5
1253
330
118A
100
AcDbEntity
  8
Defpoints
 62
     0
100
AcDbPoint
 10
-0.3999999999999769
 20
-0.4767014370315792
 30
0.0
  0
ENDBLK
  5
1193
330
118A
100
AcDbEntity
  8
0
100
AcDbBlockEnd
  0
BLOCK
  5
119E
330
1194
100
AcDbEntity
  8
0
100
AcDbBlockBegin
  2
*D54
 70
     1
 10
0.0
 20
0.0
 30
0.0
  3
*D54
  1

  0
LINE
  5
11E2
330
1194
100
AcDbEntity
  8
2
 62
     0
370
    -2
100
AcDbLine
 10
0.0000000000000284
 20
-9.336298625731556
 30
0.0
 11
0.0000000000000279
 21
-17.53387479091411
 31
0.0
  0
LINE
  5
11E3
330
1194
100
AcDbEntity
  8
2
 62
     0
370
    -2
100
AcDbLine
 10
-9.524999999999975
 20
-10.87475153241155
 30
0.0
 11
-9.524999999999975
 21
-17.53387479091411
 31
0.0
  0
LINE
  5
11E4
330
1194
100
AcDbEntity
  8
2
 62
     0
370
    -2
100
AcDbLine
 10
4.570000000000028
 20
-15.53387479091409
 30
0.0
 11
9.140000000000027
 21
-15.53387479091409
 31
0.0
  0
LINE
  5
11E5
330
1194
100
AcDbEntity
  8
2
 62
     0
370
    -2
100
AcDbLine
 10
-14.09499999999997
 20
-15.53387479091409
 30
0.0
 11
-18.66499999999997
 21
-15.53387479091409
 31
0.0
  0
MTEXT
  5
11E6
330
1194
100
AcDbEntity
  8
2
 62
     7
100
AcDbMText
 10
-8.572023809523798
 20
-12.52679097037844
 30
0.0
 40
2.5
 41
0.0
 71
     1
 72
     1
  1
\A1;9.53
  7
GENPRESET
 73
     1
 44
1.0
  0
LINE
  5
11E7
330
1194
100
AcDbEntity
  8
2
 62
     0
370
    -2
100
AcDbLine
 10
0.000000000000028
 20
-15.53387479091409
 30
0.0
 11
-9.524999999999975
 21
-15.53387479091409
 31
0.0
  0
SOLID
  5
11E8
330
1194
100
AcDbEntity
  8
2
 62
     0
100
AcDbTrace
 10
4.570000000000028
 20
-14.77220812424746
 30
0.0
 11
4.570000000000028
 21
-16.29554145758079
 31
0.0
 12
0.000000000000028
 22
-15.53387479091409
 32
0.0
 13
0.000000000000028
 23
-15.53387479091409
 33
0.0
  0
SOLID
  5
11E9
330
1194
100
AcDbEntity
  8
2
 62
     0
100
AcDbTrace
 10
-14.09499999999997
 20
-14.77220812424746
 30
0.0
 11
-14.09499999999997
 21
-16.29554145758079
 31
0.0
 12
-9.524999999999975
 22
-15.53387479091409
 32
0.0
 13
-9.524999999999975
 23
-15.53387479091409
 33
0.0
  0
POINT
  5
11EA
330
1194
100
AcDbEntity
  8
Defpoints
 62
     0
100
AcDbPoint
 10
0.0000000000000284
 20
-9.336298625731556
 30
0.0
  0
POINT
  5
11EB
330
1194
100
AcDbEntity
  8
Defpoints
 62
     0
100
AcDbPoint
 10
-9.524999999999975
 20
-10.87475153241155
 30
0.0
  0
POINT
  5
11EC
330
1194
100
AcDbEntity
  8
Defpoints
 62
     0
100
AcDbPoint
 10
-9.524999999999975
 20
-15.53387479091409
 30
0.0
  0
ENDBLK
  5
119F
330
1194
100
AcDbEntity
  8
0
100
AcDbBlockEnd
  0
ENDSEC
  0
SECTION
  2
ENTITIES
  0
MTEXT
  5
36
330
1F
100
AcDbEntity
  8
5
100
AcDbMText
 10
-13.46365261876643
 20
-44.3695609695924
 30
0.0
 40
4.57
 41
0.0
 71
     1
 72
     1
  1
600.200.098
  7
GENPRESET
 73
     1
 44
1.0
  0
MTEXT
  5
37
330
1F
100
AcDbEntity
  8
5
100
AcDbMText
 10
-13.41986944596646
 20
-36.33042217669244
 30
0.0
 40
4.57
 41
0.0
 71
     1
 72
     1
  1
Wendeplatte_Cutting insert
  7
GENPRESET
 73
     1
 44
1.0
  0
REGION
  5
29C
330
1F
100
AcDbEntity
  8
5
100
AcDbModelerGeometry
 70
     1
  1
koo hn n o          
  1
h J1410(1 nl ^ \VL kqoqm QK mk H:; Y:= mo ogemheno moog 
  1
rn fqfffffffffffffffj:rooh n:rono 
  1
=0;& {rn {n {rn {rn |
  1
3*2/ {rn {rn {m {o |
  1
,7:33 {rn {rn {rn {l {rn {n |
  1
9><: {rn {rn {k {m {rn {j 90-(>-; ;0*=3: 0*+ |
  1
300/ {rn {rn {i {l |
  1
/3>1:r,*-9><: {rn rnqkgngmmolmiffojh rmhqlonholflnfnjfn o o o n n o o 90-(>-;@) V V V V |
  1
<0:;8: {rn {h {g {rn {f -:):-,:; {k {rn |
  1
<0:;8: {rn {no {i {rn {nn -:):-,:; {k {rn |
  1
<0:;8: {rn {i {nm {rn {nl -:):-,:; {k {rn |
  1
:;8: {rn {nk {nj {i {ni 90-(>-; |
  1
<0:;8: {rn {nh {h {rn {ng -:):-,:; {k {rn |
  1
:;8: {rn {nf {nk {h {mo 90-(>-; |
  1
<0:;8: {rn {g {mn {rn {mm -:):-,:; {k {rn |
  1
:;8: {rn {nj {ml {g {mk 90-(>-; |
  1
):-+:' {rn {f {mj |
  1
):-+:' {rn {f {mi |
  1
,+->687+r<*-): {rn oqjlhnjmgifkknlnklj rmgqghijhhlknfghjh o oqmiolomoihhijflglf oqfijjmhmlogjmomljm o V V |
  1
<0:;8: {rn {mh {no {rn {mg -:):-,:; {k {rn |
  1
:;8: {rn {mf {nf {no {lo 90-(>-; |
  1
):-+:' {rn {ng {ln |
  1
,+->687+r<*-): {rn roqifmjggflnlgofmjol rmkqnigoojlgoiomhhf o oqmjmifkglnjlkokkfl roqfihjkiolnooimihlj o V V |
  1
<0:;8: {rn {nm {lm {rn {ll -:):-,:; {k {rn |
  1
:;8: {rn {ml {lk {nm {lj 90-(>-; |
  1
):-+:' {rn {nl {li |
  1
,+->687+r<*-): {rn nqgoijikookmnhjoim rmkqnigoojlgoiomhhf o n o o V V |
  1
/061+ {rn oqjlhnjmgifkknlnklj rmgqghijhhlknfghjh o |
  1
/061+ {rn nqgoijikookmnhjoim rmkqnigoojlgoiomhhf o |
  1
<0:;8: {rn {lh {nh {rn {lg -:):-,:; {k {rn |
  1
:;8: {rn {lf {mf {nh {ko 90-(>-; |
  1
):-+:' {rn {mg {kn |
  1
,+->687+r<*-): {rn rmqmifklimhnjlhihok rmkqnigoojlgoiomhhf o n o o V V |
  1
/061+ {rn roqifmjggflnlgofmjol rmkqnigoojlgoiomhhf o |
  1
<0:;8: {rn {mn {km {rn {kl -:):-,:; {k {rn |
  1
:;8: {rn {lk {kk {mn {kj 90-(>-; |
  1
):-+:' {rn {mm {ki |
  1
,+->687+r<*-): {rn lqkilggggnjfmfmiim rmkqnigoojlgoiomhhf o roqmimioiiiomnmjnlhm roqfikfomfhomjhikigm o V V |
  1
/061+ {rn lqkilggggnjfmfmiim rmkqnigoojlgoiomhhf o |
  1
<0:;8: {rn {kh {mh {rn {kg -:):-,:; {k {rn |
  1
:;8: {rn {kf {lf {mh {jo 90-(>-; |
  1
):-+:' {rn {lg {jn |
  1
,+->687+r<*-): {rn rlqiogmihiohfhofmfl rmgqghijhhlknfghjh o oqmhlkfgomkgonoohjk oqfinghmjikjkhgfii o V V |
  1
/061+ {rn rmqmifklimhnjlhihok rmkqnigoojlgoiomhhf o |
  1
<0:;8: {rn {lm {jm {rn {jl -:):-,:; {k {rn |
  1
:;8: {rn {kk {jk {lm {jj 90-(>-; |
  1
):-+:' {rn {ll {ji |
  1
,+->687+r<*-): {rn nqkfhhmhhokifhjjl rlnqlfmlmjfkifkgmll o rn o o V V |
  1
/061+ {rn nqkfhhmhhokifhjjl rlnqlfmlmjfkifkgmll o |
  1
<0:;8: {rn {jm {lh {rn {jh -:):-,:; {k {rn |
  1
:;8: {rn {jg {kf {lh {jf 90-(>-; |
  1
):-+:' {rn {kg {io |
  1
,+->687+r<*-): {rn rkqhnfoomfnhmgnngih rmkqnigoojlgoiomhhf o oqmmfjfkhikgmiijolh roqfhlmgilnnkomgijmi o V V |
  1
/061+ {rn rlqiogmihiohfhofmfl rmgqghijhhlknfghjh o |
  1
<0:;8: {rn {km {kh {rn {in -:):-,:; {k {rn |
  1
:;8: {rn {jk {im {km {il 90-(>-; |
  1
):-+:' {rn {kl {ik |
  1
,+->687+r<*-): {rn roqnjjhofkiifhilllol rlnqlfmlmjfkifkgmll o roqmhoiilkmjjoimflmk oqfimihkoknkjjfgkf o V V |
  1
/061+ {rn roqnjjhofkiifhilllol rlnqlfmlmjfkifkgmll o |
  1
:;8: {rn {ij {jg {kh {ii 90-(>-; |
  1
):-+:' {rn {jh {ih |
  1
,+->687+r<*-): {rn riqklkifmnhnnonkghh rmkqnigoojlgoiomhhf o n o o V V |
  1
/061+ {rn rkqhnfoomfnhmgnngih rmkqnigoojlgoiomhhf o |
  1
:;8: {rn {im {ij {jm {ig 90-(>-; |
  1
):-+:' {rn {jl {if |
  1
,+->687+r<*-): {rn rnqjojkjkjfoogfinl rmiqjfniioljfjmnffj o roqmkfjhmmgonhfinini roqfigljinhmjhjfjmnf o V V |
  1
/061+ {rn rnqjojkjkjfoogfinl rmiqjfniioljfjmnffj o |
  1
):-+:' {rn {in {ho |
  1
,+->687+r<*-): {rn rkqkknnkgkmokknljol rlnqlfmlmjfkifkgmll o roqmiiooiglkhhmfmkkh oqfilfhnnkmikjfmkgh o V V |
  1
/061+ {rn riqklkifmnhnnonkghh rmkqnigoojlgoiomhhf o |
  1
,+->687+r<*-): {rn rmqhkmhnfkkmjflghff rlnqlfmlmjfkifkgmll o rn o o V V |
  1
/061+ {rn rmqhkmhnfkkmjflghff rlnqlfmlmjfkifkgmll o |
  1
/061+ {rn rkqkknnkgkmokknljol rlnqlfmlmjfkifkgmll o |
  0
REGION
  5
29D
330
1F
100
AcDbEntity
  8
5
100
AcDbModelerGeometry
 70
     1
  1
koo mi n o          
  1
h J1410(1 nl ^ \VL kqoqm QK mk H:; Y:= mo ogemheno moog 
  1
rn fqfffffffffffffffj:rooh n:rono 
  1
=0;& {rn {n {rn {rn |
  1
3*2/ {rn {rn {m {o |
  1
,7:33 {rn {rn {rn {l {rn {n |
  1
9><: {rn {rn {k {m {rn {j 90-(>-; ;0*=3: 0*+ |
  1
300/ {rn {rn {i {l |
  1
/3>1:r,*-9><: {rn miqjjiglgknnimmooh rmhqjhkomnkkggkginm o o o n n o o 90-(>-;@) V V V V |
  1
<0:;8: {rn {h {g {rn {f -:):-,:; {k {rn |
  1
<0:;8: {rn {no {i {rn {nn -:):-,:; {k {rn |
  1
<0:;8: {rn {i {no {rn {nm -:):-,:; {k {rn |
  1
:;8: {rn {nl {nk {i {nj 90-(>-; |
  1
<0:;8: {rn {g {h {rn {ni -:):-,:; {k {rn |
  1
:;8: {rn {nh {nl {h {ng 90-(>-; |
  1
:;8: {rn {nk {nf {g {mo 90-(>-; |
  1
):-+:' {rn {f {mn |
  1
):-+:' {rn {f {mm |
  1
,+->687+r<*-): {rn rnlqlkgnofllkgkfgjm rmnqjklnikffmmfhnli o n o o V V |
  1
:;8: {rn {nf {nh {no {ml 90-(>-; |
  1
):-+:' {rn {ni {mk |
  1
,+->687+r<*-): {rn rnlqlkgnofllkgkfgjm rllqiokghhfojkooogh o o n o V V |
  1
):-+:' {rn {nm {mj |
  1
,+->687+r<*-): {rn iiqkinhginjgoflgjg rmnqjklnikffmmfhnli o o rn o V V |
  1
/061+ {rn rnlqlkgnofllkgkfgjm rmnqjklnikffmmfhnli o |
  1
/061+ {rn iiqkinhginjgoflgjg rmnqjklnikffmmfhnli o |
  1
,+->687+r<*-): {rn iiqkinhginjgoflgjg rllqiokghhfojkooogh o rn o o V V |
  1
/061+ {rn rnlqlkgnofllkgkfgjm rllqiokghhfojkooogh o |
  1
/061+ {rn iiqkinhginjgoflgjg rllqiokghhfojkooogh o |
  0
REGION
  5
29E
330
1F
100
AcDbEntity
  8
5
100
AcDbModelerGeometry
 70
     1
  1
koo mi n o          
  1
h J1410(1 nl ^ \VL kqoqm QK mk H:; Y:= mo ogemheno moog 
  1
rn fqfffffffffffffffj:rooh n:rono 
  1
=0;& {rn {n {rn {rn |
  1
3*2/ {rn {rn {m {o |
  1
,7:33 {rn {rn {rn {l {rn {n |
  1
9><: {rn {rn {k {m {rn {j 90-(>-; ;0*=3: 0*+ |
  1
300/ {rn {rn {i {l |
  1
/3>1:r,*-9><: {rn rnoqokfkkfmhklfoilf rmhqhhfminhgjknfhkf o o o n n o o 90-(>-;@) V V V V |
  1
<0:;8: {rn {h {g {rn {f 90-(>-; {k {rn |
  1
<0:;8: {rn {no {i {rn {nn 90-(>-; {k {rn |
  1
<0:;8: {rn {i {no {rn {nm 90-(>-; {k {rn |
  1
:;8: {rn {nl {nk {i {nj 90-(>-; |
  1
<0:;8: {rn {g {h {rn {ni -:):-,:; {k {rn |
  1
:;8: {rn {nk {nh {h {ng 90-(>-; |
  1
:;8: {rn {nf {nl {g {mo 90-(>-; |
  1
):-+:' {rn {f {mn |
  1
):-+:' {rn {f {mm |
  1
61+<*-):r<*-): {rn 90-(>-; $ :'><+<*- 1*=, l 0/:1 mg 
  1
 o l oqlfigjomnhmmhnoggk n oqhmihgjfojjnjijimj n nqongknlhimogofofh n nqmhjijkomimihfkmn n 
  1
 nqjjhhfooifjkllfmm n nqginnnojigjoifhom n mqjkkgnlhjikjngfjl n mqgnmoofmlhlingolh n lqokfffiohonmmmllj n 
  1
 lqlloonlmhgjlffngk n lqjhjiljhgilhmngkg n lqflkijnjffnhfgkfk n kqklfnimomimokiofi n kqihhohhmgmkfjfon n 
  1
 kqfjglhmkoiilonmjg n jqlmoknigoglljkill n jqijoooimimfnhomng n iqnnmooijfhfmfnkjk n iqillkinjnnhkjhlfi n 
  1
 iqfknhinkfmmgkfnmf n hqmokikooliljffifi n hqkfmhhkhgfkhifngl n hqhnffflnfkkoglkjn n gqmmhonmnijoikjmjg n 
  1
 gqhgfgkommjlomnifh n fqnlnohigkhjkjhkmm n fqlggifigilfmffjgm l 
  1
 rhqnmiihgjokhnljofl rmiqkifiinhmkmmijif o 
  1
 rhqnnglolnknimnkgog rmiqnffmnjnhoklijln o 
  1
 rhqnomfikinfkihmjhn rmjqholfmlnjiohjgjf o 
  1
 rhqkjkjhmknmjfkjooj rmjqnonjnfkmgliknji o 
  1
 rhqgklmgoonofkfnffg rmkqikhfgjklkgjknkf o 
  1
 rgqlionmhfkojolghmk rmkqkmhnijolhklnjik o 
  1
 rgqgiigimlhmhfgnmkm rmkqnhffiifhkfggghm o 
  1
 rfqhnlomflijlgnjhmh rmkqoimmoomjnlnhhf o 
  1
 rnoqjjjlhoijjmoijgg rmkqokikhfgjnofnhlm o 
  1
 rnnqllkgmffjonmfmoj rmkqmnnfnnlnnnkgknl o 
  1
 rnnqgnhngfooilkhfnh rmkqkmhiiigjofjfkk o 
  1
 rnmqmmmkliklmkomjgg rmkqhlhnfnnkgmokoll o 
  1
 rnmqihiokfofngffkkk rmjqnmljoohikmhomll o 
  1
 rnlqoomhkgnkohmoojg rmjqgogggijohmlgknm o 
  1
 rnlqokjloffiggimomg rmiqjgjfgijffkhlmkk o 
  1
 rnmqhkfgomiogikilm rmhqmofoognmnhflkol o 
  1
 rnmqlgonlnlimjoofhj rmhqignilnmgofilfji o 
  1
 rnnqhgnihkjlholnjoi rmhqfigknonkgmhofm o 
  1
 rnnqoikgmkigglgifmn rmgqmlfolkifmngmhh o 
  1
 rnoqnffilhfjfgoniil rmgqknigmkgghlfjoml o 
  1
 rfqlimgjgnfhhjmghnn rmgqjkmmknjlljinghg o 
  1
 rgqikmfogghkmllnfff rmgqgmffmifhkkhgoff o 
  1
 rgqknjnhghmjfgmnkkh rmfqkoflkmkfhhnnkoh o 
  1
 rgqjgfklnmnihmmhnji rmfqfhngjilfgikfkog o 
  1
 rfqmjkmninolghloimi rloqmkhfmffmllfgggj o 
  1
 rnoqofijgjffofoifom rloqlmgnjhljnklfnol o 
  1
 rnnqnnglfnnmjkffmkk rloqngomjhhjhhflgnn o 
  1
 rnnqjhlgngmflkmlgfg rmfqkhgnfkmflmjjoon o 
  1
 rnnqinkoliollmjfghf rmfqohfjkloiookhfig o 
  1
 rnnqilnllhniolnfiki rmgqfogokgifhfkgigi o 
  1
 o 
  1
 1*33@,*-9><: 
  1
 1*33@,*-9><: 
  1
 1*33=, 
  1
 1*33=, 
  1
 V V 
  1
 o 
  1
 o 
  3
 mi oqlfigjomnhmmhnoggk oqhmihgjfojjnjijimj nqongknlhimogofofh nqmhjijkomimihfkmn nqjjhhfooifjkllfmm nqginnnojigjoifhom mqjkkgnlhjikjngfjl mqgnmoofmlhlingolh lqokfffiohonmmmllj lqlloonlmhgjlffngk lqjhjiljhgilhmngkg lqflkijnjffnhfgkfk kqklfnimomimokiofi kq
  1
ihhohhmgmkfjfon kqfjglhmkoiilonmjg jqlmoknigoglljkill jqijoooimimfnhomng iqnnmooijfhfmfnkjk iqillkinjnnhkjhlfi iqfknhinkfmmgkfnmf hqmokikooliljffifi hqkfmhhkhgfkhifngl hqhnffflnfkkoglkjn gqmmhonmnijoikjmjg gqhgfgkommjlomnifh fqnlnohigkhjkjhkmm 
  1
 Y n Y o " V V |
  1
:;8: {rn {nf {nh {no {ml 90-(>-; |
  1
):-+:' {rn {nn {mk |
  1
,+->687+r<*-): {rn rnnqilnllhniolnfiki rmgqfogokgifhfkgigi o roqffffffnohkimjmnfi roqoonllioiiihkhngjfkh o V V |
  1
):-+:' {rn {ni {mj |
  1
,+->687+r<*-): {rn rgqhohgkmkmkmnmfknj rmiqkihfigkomilnifg o oqffffffkmijjnoghjl roqoonohoflloomjjmgofg o V V |
  1
/061+ {rn rhqnmiihgjokhnljofl rmiqkifiinhmkmmijif o |
  1
/061+ {rn rnnqilnllhniolnfiki rmgqfogokgifhfkgigi o |
  1
61+<*-):r<*-): {rn 90-(>-; $ :'><+<*- 1*=, l 0/:1 mk 
  1
 o l oqligokiljfljmjmjj n oqikiffjgmifofigklg n nqoigjglohkoojklhk n nqiohihjljnioiinng n 
  1
 nqfhmmojknmiffgfof n mqnfkhjgmkmhhogjlf n mqioinmmijimmmlmmg n lqnlhnlfiiikkokmkj n lqifnmlfgjmonggmhk n 
  1
 kqokoilfionkiiffnk n kqlffkggihjloikjmk n kqgnjjkihfkomhonmj n jqljoknhiinlnnjjjf n jqgnogkngnofmjifjk n 
  1
 iqmmhnfffmkgnlkoni n iqinkmilhmmmoihgkk n hqkgfigmoofjhoomml n hqgihgfiogmnmng n gqmjlnglnofmnkimnl n 
  1
 gqjjhhkmomokmlmfin n gqhimgololoifolglj n fqnknnhijkkiknoojg n fqmjiilgghlkomkimn l 
  1
 rgqhohgkmkmkmnmfknj rmiqkihfigkomilnifg o 
  1
 rgqhlliggflnkhifllh rmiqmofhkhmnonlogff o 
  1
 rgqhhfnmjoohkljfflh rmjqhjjgnjnhmnimhmh o 
  1
 rfqkljjlhiiijgnonmh rmjqllmmjmgokikflgi o 
  1
 rnoqmmikmnjhlffgnjm rmjqmfnkijihjlnijkj o 
  1
 rnnqlnoognljhklifgj rmjqlmjlkjkognfgh o 
  1
 rnnqkmfijijhggjmkni rmiqmhilgofglhjniog o 
  1
 rnoqfmlgnhmgminnfik rmiqhhmjjoknohinnfg o 
  1
 rnoqnmojifiifigjofi rmiqgjgkhmgglkmmmg o 
  1
 rfqniljinlhjlkmijmi rmhqofnkonkomgohjm o 
  1
 rgqmnjjgkjhfmjokkij rmhqmggkohlfjmhngok o 
  1
 rhqkhhlfikifgnlkfg rmhqhnnjlmgjmookofg o 
  1
 riqfiokffjjhmloigfi rmgqmgfogflikfggol o 
  1
 riqhhlfimfjifonlgkg rmfqnigmogggoilnjlf o 
  1
 riqfnokimnnjgonlmmm rloqnkjljgngjjogkji o 
  1
 rhqjhglimklhhifjglj rloqgiihiokfkgjoiii o 
  1
 rgqlmkkliofgljinghi rlnqmikgljkgflnolhn o 
  1
 rfqlfhhjolmlnogligg rlnqimnknmimojngmff o 
  1
 rnoqjngjmjnlojhknkh rlnqjognhhnmjffogkn o 
  1
 rnnqjfmmfmniknngnoi rlnqlnlofkhkmmioofn o 
  1
 rnmqmkjijhkhniklojh rloqfgglnklgioknkjm o 
  1
 rnmqiiogfhifmhfolnk rloqjjollhfflmfmkgh o 
  1
 rnlqokmjijfhhjjfkoi rloqnogjllmihmnkjnn o 
  1
 rnlqnlgkilkhhfnjnfj rmfqjknmjhghofohmom o 
  1
 rnlqnfnlokghfooohfi rmfqlkkjjnjnlhhlknn o 
  1
 rnlqmnikglghnggjfnl rmgqfnoniijinjlkgmm o 
  1
 o 
  1
 1*33@,*-9><: 
  1
 1*33@,*-9><: 
  1
 1*33=, 
  1
 1*33=, 
  1
 V V 
  1
 o 
  1
 o 
  3
 mm oqligokiljfljmjmjj oqikiffjgmifofigklg nqoigjglohkoojklhk nqiohihjljnioiinng nqfhmmojknmiffgfof mqnfkhjgmkmhhogjlf mqioinmmijimmmlmmg lqnlhnlfiiikkokmkj lqifnmlfgjmonggmhk kqokoilfionkiiffnk kqlffkggihjloikjmk kqgnjjkihfkomhonmj jqljoknhiinlnnjjjf jqg
  1
nogkngnofmjifjk iqmmhnfffmkgnlkoni iqinkmilhmmmoihgkk hqkgfigmoofjhoomml hqgihgfiogmnmng gqmjlnglnofmnkimnl gqjjhhkmomokmlmfin gqhimgololoifolglj fqnknnhijkkiknoojg 
  1
 Y n Y o " V V |
  1
/061+ {rn rnlqmnikglghnggjfnl rmgqfnoniijinjlkgmm o |
  1
/061+ {rn rgqhohgkmkmkmnmfknj rmiqkihfigkomilnifg o |
  0
REGION
  5
29F
330
1F
100
AcDbEntity
  8
5
100
AcDbModelerGeometry
 70
     1
  1
koo ki n o          
  1
h J1410(1 nl ^ \VL kqoqm QK mk H:; Y:= mo ogemheno moog 
  1
rn fqfffffffffffffffj:rooh n:rono 
  1
=0;& {rn {n {rn {rn |
  1
3*2/ {rn {rn {m {o |
  1
,7:33 {rn {rn {rn {l {rn {n |
  1
9><: {rn {rn {k {m {rn {j 90-(>-; ;0*=3: 0*+ |
  1
300/ {rn {rn {i {l |
  1
/3>1:r,*-9><: {rn llqmnmgkkolggljnmf rmiqilnjfigifjkiimh o o o n n o o 90-(>-;@) V V V V |
  1
<0:;8: {rn {h {g {rn {f -:):-,:; {k {rn |
  1
<0:;8: {rn {no {i {rn {nn -:):-,:; {k {rn |
  1
<0:;8: {rn {i {nm {rn {nl -:):-,:; {k {rn |
  1
:;8: {rn {nk {nj {i {ni 90-(>-; |
  1
<0:;8: {rn {nh {h {rn {ng -:):-,:; {k {rn |
  1
:;8: {rn {nf {nk {h {mo 90-(>-; |
  1
<0:;8: {rn {g {mn {rn {mm -:):-,:; {k {rn |
  1
:;8: {rn {nj {ml {g {mk 90-(>-; |
  1
):-+:' {rn {f {mj |
  1
):-+:' {rn {f {mi |
  1
,+->687+r<*-): {rn loqnkjjmgnklgoinoh rmkqngkhojoonjmfolf o n o o V V |
  1
<0:;8: {rn {mh {no {rn {mg -:):-,:; {k {rn |
  1
:;8: {rn {mf {nf {no {lo 90-(>-; |
  1
):-+:' {rn {ng {ln |
  1
,+->687+r<*-): {rn loqnkjjmgnklgoinoh rmjqkhnjnifhhgjggnm o o n o V V |
  1
<0:;8: {rn {nm {mh {rn {lm -:):-,:; {k {rn |
  1
:;8: {rn {ml {ll {nm {lk 90-(>-; |
  1
):-+:' {rn {nl {lj |
  1
,+->687+r<*-): {rn liqlkgkloookmjnnhn rmkqngkhojoonjmfolf o o rn o V V |
  1
/061+ {rn loqnkjjmgnklgoinoh rmkqngkhojoonjmfolf o |
  1
/061+ {rn liqlkgkloookmjnnhn rmkqngkhojoonjmfolf o |
  1
<0:;8: {rn {mn {nh {rn {li -:):-,:; {k {rn |
  1
:;8: {rn {lh {mf {nh {lg 90-(>-; |
  1
):-+:' {rn {mg {lf |
  1
,+->687+r<*-): {rn lmqllonffofmgliilh rmjqkhnjnifhhgjggnm o rn o o V V |
  1
/061+ {rn loqnkjjmgnklgoinoh rmjqkhnjnifhhgjggnm o |
  1
:;8: {rn {ll {ko {mn {kn 90-(>-; |
  1
):-+:' {rn {mm {km |
  1
,+->687+r<*-): {rn liqlkgkloookmjnnhn rmjqkhnjnifhhgjggnm o rn o o V V |
  1
/061+ {rn liqlkgkloookmjnnhn rmjqkhnjnifhhgjggnm o |
  1
:;8: {rn {ko {lh {mh {kl 90-(>-; |
  1
):-+:' {rn {li {kk |
  1
,+->687+r<*-): {rn lmqllonffofmgliilh rlnqlfgikgjmoflfgkk o o n o V V |
  1
/061+ {rn lmqllonffofmgliilh rmjqkhnjnifhhgjggnm o |
  1
):-+:' {rn {lm {kj |
  1
,+->687+r<*-): {rn lkqomhmngfnkkkijfl rmjqkhnjnifhhgjggnm o o rn o V V |
  1
/061+ {rn lkqomhmngfnkkkijfl rmjqkhnjnifhhgjggnm o |
  1
,+->687+r<*-): {rn lkqomhmngfnkkkijfl rlnqlfgikgjmoflfgkk o rn o o V V |
  1
/061+ {rn lmqllonffofmgliilh rlnqlfgikgjmoflfgkk o |
  1
/061+ {rn lkqomhmngfnkkkijfl rlnqlfgikgjmoflfgkk o |
  0
REGION
  5
2A0
330
1F
100
AcDbEntity
  8
5
100
AcDbModelerGeometry
 70
     1
  1
koo mi n o          
  1
h J1410(1 nl ^ \VL kqoqm QK mk H:; Y:= mo ogemheno moog 
  1
rn fqfffffffffffffffj:rooh n:rono 
  1
=0;& {rn {n {rn {rn |
  1
3*2/ {rn {rn {m {o |
  1
,7:33 {rn {rn {rn {l {rn {n |
  1
9><: {rn {rn {k {m {rn {j 90-(>-; ;0*=3: 0*+ |
  1
300/ {rn {rn {i {l |
  1
/3>1:r,*-9><: {rn nhqnkhkfhnflimkkjl rmhqhhfminhgjknfhkf o o o n n o o 90-(>-;@) V V V V |
  1
<0:;8: {rn {h {g {rn {f 90-(>-; {k {rn |
  1
<0:;8: {rn {no {i {rn {nn 90-(>-; {k {rn |
  1
<0:;8: {rn {i {no {rn {nm 90-(>-; {k {rn |
  1
:;8: {rn {nl {nk {i {nj 90-(>-; |
  1
<0:;8: {rn {g {h {rn {ni -:):-,:; {k {rn |
  1
:;8: {rn {nk {nh {h {ng 90-(>-; |
  1
:;8: {rn {nf {nl {g {mo 90-(>-; |
  1
):-+:' {rn {f {mn |
  1
):-+:' {rn {f {mm |
  1
61+<*-):r<*-): {rn 90-(>-; $ :'><+<*- 1*=, l 0/:1 mg 
  1
 o l oqlfigjomnhmmhnoggk n oqhmihgjfojjnjijimj n nqongknlhimogofofh n nqmhjijkomimihfkmn n 
  1
 nqjjhhfooifjkllfmm n nqginnnojigjoifhom n mqjkkgnlhjikjngfjl n mqgnmoofmlhlingolh n lqokfffiohonmmmllj n 
  1
 lqlloonlmhgjlffngk n lqjhjiljhgilhmngkg n lqflkijnjffnhfgkfk n kqklfnimomimokiofi n kqihhohhmgmkfjfon n 
  1
 kqfjglhmkoiilonmjg n jqlmoknigoglljkill n jqijoooimimfnhomng n iqnnmooijfhfmfnkjk n iqillkinjnnhkjhlfi n 
  1
 iqfknhinkfmmgkfnmf n hqmokikooliljffifi n hqkfmhhkhgfkhifngl n hqhnffflnfkkoglkjn n gqmmhonmnijoikjmjg n 
  1
 gqhgfgkommjlomnifh n fqnlnohigkhjkjhkmm n fqlggifigilfmffjgm l 
  1
 moqohomihfillonjhj rmiqkifiinhmkmmijif o 
  1
 moqohgikllmilfljhj rmiqnffmnjnhoklijln o 
  1
 moqoflfgngkgjkhgmh rmjqholfmlnjiohjgjf o 
  1
 nfqhkmlhkojjkmojgk rmjqnonjnfkmgliknji o 
  1
 nfqljliiikjhoijggk rmkqikhfgjklkgjknkf o 
  1
 ngqgligngjmhjnnmnl rmkqkmhnijolhklnjik o 
  1
 ngqlloogkofjmnifin rmkqnhffiifhkfggghm o 
  1
 nhqkglfnhnomilljnm rmkqoimmoomjnlnhhf o 
  1
 niqiknjhjgnmgogkfh rmkqokikhfgjnofnhlm o 
  1
 njqgimnnijnhggjgg rmkqmnnfnnlnnnkgknl o 
  1
 njqlhfhjhkiniihnig rmkqkmhiiigjofjfkk o 
  1
 nkqfhkjnooljinmkfi rmkqhlhnfnnkgmokoll o 
  1
 nkqjmogfhlhinnjikn rmjqnmljoohikmhomll o 
  1
 nkqnfknfglmhmfjomh rmjqgogggijohmlgknm o 
  1
 nkqnjnilikffnjlojh rmiqjgjfgijffkhlmkk o 
  1
 nkqkkhnklgjflighij rmhqmofoognmnhflkol o 
  1
 nkqgnignjnojjnknn rmhqignilnmgofilfji o 
  1
 njqknjmhnflofgljhf rmhqfigknonkgmhofm o 
  1
 niqnlmnmnhhfimgnik rmgqmlfolkifmngmhh o 
  1
 niqffhlogjogmnlkmm rmgqknigmkgghlfjoml o 
  1
 nhqglkoggmhomimmnk rmgqjkmmknjlljinghg o 
  1
 ngqjjkolhjflhgnggj rmgqgmffmifhkkhgoff o 
  1
 ngqhgnhihhkmolmfk rmfqkoflkmkfhhnnkoh o 
  1
 ngqiohjnjmjnmfmlif rmfqfhngjilfgikfkog o 
  1
 nhqfkmhloliknkmomm rloqmkhfmffmllfgggj o 
  1
 nhqnooliokhhnogngl rloqlmgnjhljnklfnol o 
  1
 niqohgjjjlkmjnjgkn rloqngomjhhjhhflgnn o 
  1
 njqimlnmgnhkjfnngh rmfqkhgnfkmflmjjoon o 
  1
 njqjgmfnoklkhjjmoi rmfqohfjkloiookhfig o 
  1
 njqjijioflohifjklf rmgqfogokgifhfkgigi o 
  1
 o 
  1
 1*33@,*-9><: 
  1
 1*33@,*-9><: 
  1
 1*33=, 
  1
 1*33=, 
  1
 V V 
  1
 o 
  1
 o 
  3
 mi oqlfigjomnhmmhnoggk oqhmihgjfojjnjijimj nqongknlhimogofofh nqmhjijkomimihfkmn nqjjhhfooifjkllfmm nqginnnojigjoifhom mqjkkgnlhjikjngfjl mqgnmoofmlhlingolh lqokfffiohonmmmllj lqlloonlmhgjlffngk lqjhjiljhgilhmngkg lqflkijnjffnhfgkfk kqklfnimomimokiofi kq
  1
ihhohhmgmkfjfon kqfjglhmkoiilonmjg jqlmoknigoglljkill jqijoooimimfnhomng iqnnmooijfhfmfnkjk iqillkinjnnhkjhlfi iqfknhinkfmmgkfnmf hqmokikooliljffifi hqkfmhhkhgfkhifngl hqhnffflnfkkoglkjn gqmmhonmnijoikjmjg gqhgfgkommjlomnifh fqnlnohigkhjkjhkmm 
  1
 Y n Y o " V V |
  1
:;8: {rn {nf {nh {no {ml 90-(>-; |
  1
):-+:' {rn {nn {mk |
  1
,+->687+r<*-): {rn njqjijioflohifjklf rmgqfogokgifhfkgigi o roqffffffnohkimjmnfi roqoonllioiiihkhngjfkh o V V |
  1
):-+:' {rn {ni {mj |
  1
,+->687+r<*-): {rn ngqkgfnokoklgomnkl rmiqkihfigkomilnifg o oqffffffkmijjnoghjl roqoonohoflloomjjmgofg o V V |
  1
/061+ {rn moqohomihfillonjhj rmiqkifiinhmkmmijif o |
  1
/061+ {rn njqjijioflohifjklf rmgqfogokgifhfkgigi o |
  1
61+<*-):r<*-): {rn 90-(>-; $ :'><+<*- 1*=, l 0/:1 mk 
  1
 o l oqligokiljfljmjmjj n oqikiffjgmifofigklg n nqoigjglohkoojklhk n nqiohihjljnioiinng n 
  1
 nqfhmmojknmiffgfof n mqnfkhjgmkmhhogjlf n mqioinmmijimmmlmmg n lqnlhnlfiiikkokmkj n lqifnmlfgjmonggmhk n 
  1
 kqokoilfionkiiffnk n kqlffkggihjloikjmk n kqgnjjkihfkomhonmj n jqljoknhiinlnnjjjf n jqgnogkngnofmjifjk n 
  1
 iqmmhnfffmkgnlkoni n iqinkmilhmmmoihgkk n hqkgfigmoofjhoomml n hqgihgfiogmnmng n gqmjlnglnofmnkimnl n 
  1
 gqjjhhkmomokmlmfin n gqhimgololoifolglj n fqnknnhijkkiknoojg n fqmjiilgghlkomkimn l 
  1
 ngqkgfnokoklgomnkl rmiqkihfigkomilnifg o 
  1
 ngqkilmjhjlijlgnjn rmiqmofhkhmnonlogff o 
  1
 ngqknhgmnkiojhfofn rmjqhjjgnjnhmnimhmh o 
  1
 nhqhinkoggonklkohm rmjqllmmjmgokikflgi o 
  1
 niqfhojmkgfkonifll rmjqmfnkijihjlnijkj o 
  1
 njqggigijnnojhgn rmjqlmjlkjkognfgh o 
  1
 njqhihmgfggfnimiif rmiqmhilgofglhjniog o 
  1
 niqmhlnmfngjkolnmn rmiqhhmjjoknohinnfg o 
  1
 nhqohilhihfglmffgf rmiqgjgkhmgglkmmmg o 
  1
 ngqolllgjofmihmklm rmhqofnkonkomgohjm o 
  1
 ngqfgnlinggghikilg rmhqmggkohlfjmhngok o 
  1
 nfqhnfjkfffgmonjgi rmhqhnnjlmgjmookofg o 
  1
 moqmlikkifnohgklfj rmgqmgfogflikfggol o 
  1
 moqkmmfgljnnnnliff rmfqnigmogggoilnjlf o 
  1
 moqmgikgkljmmnlhim rloqnkjljgngjjogkji o 
  1
 nfqingjgkolomkjjon rloqgiihiokfkgjoiii o 
  1
 ngqghmjnolifijggfh rlnqmikgljkgflnolhn o 
  1
 nhqhffnfinkkfoihni rlnqimnknmimojngmff o 
  1
 niqihgkmnllhkkoflg rlnqjognhhnmjffogkn o 
  1
 njqiokijklolgfifhf rlnqlnlofkhkmmioofn o 
  1
 nkqfjnmggffilhmomg rloqfgglnklgioknkjm o 
  1
 nkqjliokghhjmmkhhn rloqjjollhfflmfmkgh o 
  1
 nkqnjklgokfokjjihf rloqnogjllmihmnkjnn o 
  1
 nkqojgkgmffooffgf rmfqjknmjhghofohmom o 
  1
 nkqoojiknjgfonkmgf rmfqlkkjjnjnlhhlknn o 
  1
 nlqfgokimjfinmfnhm rmgqfnoniijinjlkgmm o 
  1
 o 
  1
 1*33@,*-9><: 
  1
 1*33@,*-9><: 
  1
 1*33=, 
  1
 1*33=, 
  1
 V V 
  1
 o 
  1
 o 
  3
 mm oqligokiljfljmjmjj oqikiffjgmifofigklg nqoigjglohkoojklhk nqiohihjljnioiinng nqfhmmojknmiffgfof mqnfkhjgmkmhhogjlf mqioinmmijimmmlmmg lqnlhnlfiiikkokmkj lqifnmlfgjmonggmhk kqokoilfionkiiffnk kqlffkggihjloikjmk kqgnjjkihfkomhonmj jqljoknhiinlnnjjjf jqg
  1
nogkngnofmjifjk iqmmhnfffmkgnlkoni iqinkmilhmmmoihgkk hqkgfigmoofjhoomml hqgihgfiogmnmng gqmjlnglnofmnkimnl gqjjhhkmomokmlmfin gqhimgololoifolglj fqnknnhijkkiknoojg 
  1
 Y n Y o " V V |
  1
/061+ {rn nlqfgokimjfinmfnhm rmgqfnoniijinjlkgmm o |
  1
/061+ {rn ngqkgfnokoklgomnkl rmiqkihfigkomilnifg o |
  0
REGION
  5
2A1
330
1F
100
AcDbEntity
  8
5
100
AcDbModelerGeometry
 70
     1
  1
koo mi n o          
  1
h J1410(1 nl ^ \VL kqoqm QK mk H:; Y:= mo ogemheno moog 
  1
rn fqfffffffffffffffj:rooh n:rono 
  1
=0;& {rn {n {rn {rn |
  1
3*2/ {rn {rn {m {o |
  1
,7:33 {rn {rn {rn {l {rn {n |
  1
9><: {rn {rn {k {m {rn {j 90-(>-; ;0*=3: 0*+ |
  1
300/ {rn {rn {i {l |
  1
/3>1:r,*-9><: {rn jqmnohhjgjmklnfikf rmhqhgkoknlojihkmli o o o n n o o 90-(>-;@) V V V V |
  1
<0:;8: {rn {h {g {rn {f -:):-,:; {k {rn |
  1
<0:;8: {rn {no {i {rn {nn -:):-,:; {k {rn |
  1
<0:;8: {rn {i {no {rn {nm -:):-,:; {k {rn |
  1
:;8: {rn {nl {nk {i {nj 90-(>-; |
  1
<0:;8: {rn {g {h {rn {ni -:):-,:; {k {rn |
  1
:;8: {rn {nh {nl {h {ng 90-(>-; |
  1
:;8: {rn {nk {nf {g {mo 90-(>-; |
  1
):-+:' {rn {f {mn |
  1
):-+:' {rn {f {mm |
  1
,+->687+r<*-): {rn iqnohloggknnggjkog rmkqnfljmojkgnmimgh o o rn o V V |
  1
:;8: {rn {nf {nh {no {ml 90-(>-; |
  1
):-+:' {rn {ni {mk |
  1
,+->687+r<*-): {rn kqlnkmkmgilihjlgfn rmkqnfljmojkgnmimgh o n o o V V |
  1
):-+:' {rn {nm {mj |
  1
,+->687+r<*-): {rn iqnohloggknnggjkog rlnqlhkjimoilmmmngi o rn o o V V |
  1
/061+ {rn iqnohloggknnggjkog rmkqnfljmojkgnmimgh o |
  1
/061+ {rn iqnohloggknnggjkog rlnqlhkjimoilmmmngi o |
  1
,+->687+r<*-): {rn kqlnkmkmgilihjlgfn rlnqlhkjimoilmmmngi o o n o V V |
  1
/061+ {rn kqlnkmkmgilihjlgfn rmkqnfljmojkgnmimgh o |
  1
/061+ {rn kqlnkmkmgilihjlgfn rlnqlhkjimoilmmmngi o |
  0
REGION
  5
2A2
330
1F
100
AcDbEntity
  8
5
100
AcDbModelerGeometry
 70
     1
  1
koo mi n o          
  1
h J1410(1 nl ^ \VL kqoqm QK mk H:; Y:= mo ogemheno moog 
  1
rn fqfffffffffffffffj:rooh n:rono 
  1
=0;& {rn {n {rn {rn |
  1
3*2/ {rn {rn {m {o |
  1
,7:33 {rn {rn {rn {l {rn {n |
  1
9><: {rn {rn {k {m {rn {j 90-(>-; ;0*=3: 0*+ |
  1
300/ {rn {rn {i {l |
  1
/3>1:r,*-9><: {rn noqnlfjjomijolihgm rmhqhhfminhgjknfhkf o o o n n o o 90-(>-;@) V V V V |
  1
<0:;8: {rn {h {g {rn {f 90-(>-; {k {rn |
  1
<0:;8: {rn {no {i {rn {nn 90-(>-; {k {rn |
  1
<0:;8: {rn {i {no {rn {nm 90-(>-; {k {rn |
  1
:;8: {rn {nl {nk {i {nj 90-(>-; |
  1
<0:;8: {rn {g {h {rn {ni -:):-,:; {k {rn |
  1
:;8: {rn {nk {nh {h {ng 90-(>-; |
  1
:;8: {rn {nf {nl {g {mo 90-(>-; |
  1
):-+:' {rn {f {mn |
  1
):-+:' {rn {f {mm |
  1
61+<*-):r<*-): {rn 90-(>-; $ :'><+<*- 1*=, l 0/:1 mg 
  1
 o l oqlfigjomnhmmhnoggk n oqhmihgjfojjnjijimj n nqongknlhimogofofh n nqmhjijkomimihfkmn n 
  1
 nqjjhhfooifjkllfmm n nqginnnojigjoifhom n mqjkkgnlhjikjngfjl n mqgnmoofmlhlingolh n lqokfffiohonmmmllj n 
  1
 lqlloonlmhgjlffngk n lqjhjiljhgilhmngkg n lqflkijnjffnhfgkfk n kqklfnimomimokiofi n kqihhohhmgmkfjfon n 
  1
 kqfjglhmkoiilonmjg n jqlmoknigoglljkill n jqijoooimimfnhomng n iqnnmooijfhfmfnkjk n iqillkinjnnhkjhlfi n 
  1
 iqfknhinkfmmgkfnmf n hqmokikooliljffifi n hqkfmhhkhgfkhifngl n hqhnffflnfkkoglkjn n gqmmhonmnijoikjmjg n 
  1
 gqhgfgkommjlomnifh n fqnlnohigkhjkjhkmm n fqlggifigilfmffjgm l 
  1
 nlqoimlmnolkhnlfok rmiqkifiinhmkmmijif o 
  1
 nlqohoifilfhgojflm rmiqnffmnjnhoklijln o 
  1
 nlqogiolkfnffionji rmjqholfmlnjiohjgjf o 
  1
 nmqhlkkmhnmiglmfnm rmjqnonjnfkmgliknji o 
  1
 nmqlkjhnfjmgkhgmnl rmkqikhfgjklkgjknkf o 
  1
 nnqgmgghnjfgfmljkn rmkqkmhnijolhklnjik o 
  1
 nnqlmmnlhniiimfmf rmkqnhffiifhkfggghm o 
  1
 noqkhjfhonhkokjgkn rmkqoimmoomjnlnhhf o 
  1
 fqillimgggkmmogmim rmkqokikhfgjnofnhlm o 
  1
 gqgjknifjgfmfgmofn rmkqmnnfnnlnnnkgknl o 
  1
 gqlhngnojllohfkfh rmkqkmhiiigjofjfkk o 
  1
 hqfiijilnohomkgmjl rmkqhlhnfnnkgmokoll o 
  1
 hqjnmfjokkhjmhfhol rmjqnmljoohikmhomll o 
  1
 hqngimjnlfghohljjj rmjqgogggijohmlgknm o 
  1
 hqnkligfjhojijlgjl rmiqjgjfgijffkhlmkk o 
  1
 hqklfnfiflohgnoflf rmhqmofoognmnhflkol o 
  1
 hqgoggignhifmiklgl rmhqignilnmgofilfji o 
  1
 gqkohlmjoomlfjfohi rmhqfigknonkgmhofm o 
  1
 fqnmknhkgjnokokflm rmgqmlfolkifmngmhh o 
  1
 fqfgflinjhfimjhjoh rmgqknigmkgghlfjoml o 
  1
 noqgminknlknihkjkl rmgqjkmmknjlljinghg o 
  1
 nnqjkiofoiijnfkmnk rmgqgmffmifhkkhgoff o 
  1
 nnqhhlgmognlkkjmif rmfqkoflkmkfhhnnkoh o 
  1
 nnqjffjiglmmhokifg rmfqfhngjilfgikfkog o 
  1
 noqflkhglkljjjkljn rloqmkhfmffmllfgggj o 
  1
 noqofmknljkgjmojnn rloqlmgnjhljnklfnol o 
  1
 fqohoiogknlfmgnh rloqngomjhhjhhflgnn o 
  1
 gqinjngnmkiooljni rmfqkhgnfkmflmjjoon o 
  1
 gqjhkfiljoinihjlkf rmfqohfjkloiookhfig o 
  1
 gqjjhiimlhfnohhihf rmgqfogokgifhfkgigi o 
  1
 o 
  1
 1*33@,*-9><: 
  1
 1*33@,*-9><: 
  1
 1*33=, 
  1
 1*33=, 
  1
 V V 
  1
 o 
  1
 o 
  3
 mi oqlfigjomnhmmhnoggk oqhmihgjfojjnjijimj nqongknlhimogofofh nqmhjijkomimihfkmn nqjjhhfooifjkllfmm nqginnnojigjoifhom mqjkkgnlhjikjngfjl mqgnmoofmlhlingolh lqokfffiohonmmmllj lqlloonlmhgjlffngk lqjhjiljhgilhmngkg lqflkijnjffnhfgkfk kqklfnimomimokiofi kq
  1
ihhohhmgmkfjfon kqfjglhmkoiilonmjg jqlmoknigoglljkill jqijoooimimfnhomng iqnnmooijfhfmfnkjk iqillkinjnnhkjhlfi iqfknhinkfmmgkfnmf hqmokikooliljffifi hqkfmhhkhgfkhifngl hqhnffflnfkkoglkjn gqmmhonmnijoikjmjg gqhgfgkommjlomnifh fqnlnohigkhjkjhkmm 
  1
 Y n Y o " V V |
  1
:;8: {rn {nf {nh {no {ml 90-(>-; |
  1
):-+:' {rn {nn {mk |
  1
,+->687+r<*-): {rn gqjjhiimlhfnohhihf rmgqfogokgifhfkgigi o roqffffffnohkimjmnfi roqoonllioiiihkhngjfkh o V V |
  1
):-+:' {rn {ni {mj |
  1
,+->687+r<*-): {rn nnqkgnnjhnnjmnkkhm rmiqkihfigkomilnifg o oqffffffkmijjnoghjl roqoonohoflloomjjmgofg o V V |
  1
/061+ {rn nlqoimlmnolkhnlfok rmiqkifiinhmkmmijif o |
  1
/061+ {rn gqjjhiimlhfnohhihf rmgqfogokgifhfkgigi o |
  1
61+<*-):r<*-): {rn 90-(>-; $ :'><+<*- 1*=, l 0/:1 mk 
  1
 o l oqligokiljfljmjmjj n oqikiffjgmifofigklg n nqoigjglohkoojklhk n nqiohihjljnioiinng n 
  1
 nqfhmmojknmiffgfof n mqnfkhjgmkmhhogjlf n mqioinmmijimmmlmmg n lqnlhnlfiiikkokmkj n lqifnmlfgjmonggmhk n 
  1
 kqokoilfionkiiffnk n kqlffkggihjloikjmk n kqgnjjkihfkomhonmj n jqljoknhiinlnnjjjf n jqgnogkngnofmjifjk n 
  1
 iqmmhnfffmkgnlkoni n iqinkmilhmmmoihgkk n hqkgfigmoofjhoomml n hqgihgfiogmnmng n gqmjlnglnofmnkimnl n 
  1
 gqjjhhkmomokmlmfin n gqhimgololoifolglj n fqnknnhijkkiknoojg n fqmjiilgghlkomkimn l 
  1
 nnqkgnnjhnnjmnkkhm rmiqkihfigkomilnifg o 
  1
 nnqkjjlnoiohfjokg rmiqmofhkhmnonlogff o 
  1
 nnqkofghkjlnffnkm rmjqhjjgnjnhmnimhmh o 
  1
 noqhjlkinghmgkikon rmjqllmmjmgokikflgi o 
  1
 fqfimjhhfijkmfmink rmjqmfnkijihjlnijkj o 
  1
 gqghgfngngnffokmgi rmjqlmjlkjkognfgh o 
  1
 gqhjflkmfiojhkffhj rmiqmhilgofglhjniog o 
  1
 fqmijngmmjignjkj rmiqhhmjjoknohinnfg o 
  1
 noqoigkmfgifhkmlnh rmiqgjgkhmgglkmmmg o 
  1
 nnqomjklgnikogkhin rmhqofnkonkomgohjm o 
  1
 nnqfhlknkfionhifih rmhqmggkohlfjmhngok o 
  1
 nmqhnnioloifinlfnj rmhqhnnjlmgjmookofg o 
  1
 nlqmmgkfffgmnfihml rmgqmgfogflikfggol o 
  1
 nlqknjolijgmjmiomg rmfqnigmogggoilnjlf o 
  1
 nlqmhgjlhkmlimiofn rloqnkjljgngjjogkji o 
  1
 nmqinoilhnonijhgmf rloqgiihiokfkgjoiii o 
  1
 nnqgikjilkknohnmmi rlnqmikgljkgflnolhn o 
  1
 noqhfnmkfmnilnfokj rlnqimnknmimojngmff o 
  1
 fqihokhkkoggjlmiik rlnqjognhhnmjffogkn o 
  1
 gqjfihohlhjloflohj rlnqlnlofkhkmmioofn o 
  1
 hqfkllkmoihhgkljhn rloqfgglnklgioknkjm o 
  1
 hqjmgnongkiilhoffj rloqjjollhfflmfmkgh o 
  1
 hqnkiklljingigoogm rloqnogjllmihmnkjnn o 
  1
 hqojojlioinjnmmngi rmfqjknmjhghofohmom o 
  1
 iqffhifkiiokmiinhj rmfqlkkjjnjnlhhlknn o 
  1
 iqfhmjnjiihjknjoog rmgqfnoniijinjlkgmm o 
  1
 o 
  1
 1*33@,*-9><: 
  1
 1*33@,*-9><: 
  1
 1*33=, 
  1
 1*33=, 
  1
 V V 
  1
 o 
  1
 o 
  3
 mm oqligokiljfljmjmjj oqikiffjgmifofigklg nqoigjglohkoojklhk nqiohihjljnioiinng nqfhmmojknmiffgfof mqnfkhjgmkmhhogjlf mqioinmmijimmmlmmg lqnlhnlfiiikkokmkj lqifnmlfgjmonggmhk kqokoilfionkiiffnk kqlffkggihjloikjmk kqgnjjkihfkomhonmj jqljoknhiinlnnjjjf jqg
  1
nogkngnofmjifjk iqmmhnfffmkgnlkoni iqinkmilhmmmoihgkk hqkgfigmoofjhoomml hqgihgfiogmnmng gqmjlnglnofmnkimnl gqjjhhkmomokmlmfin gqhimgololoifolglj fqnknnhijkkiknoojg 
  1
 Y n Y o " V V |
  1
/061+ {rn iqfhmjnjiihjknjoog rmgqfnoniijinjlkgmm o |
  1
/061+ {rn nnqkgnnjhnnjmnkkhm rmiqkihfigkomilnifg o |
  0
REGION
  5
2A3
330
1F
100
AcDbEntity
  8
5
100
AcDbModelerGeometry
 70
     1
  1
koo mi n o          
  1
h J1410(1 nl ^ \VL kqoqm QK mk H:; Y:= mo ogemheno moog 
  1
rn fqfffffffffffffffj:rooh n:rono 
  1
=0;& {rn {n {rn {rn |
  1
3*2/ {rn {rn {m {o |
  1
,7:33 {rn {rn {rn {l {rn {n |
  1
9><: {rn {rn {k {m {rn {j -:):-,:; ;0*=3: 0*+ |
  1
300/ {rn {rn {i {l |
  1
/3>1:r,*-9><: {rn mjqmhfnllfkiglkhhf rmhqhgokjonkjigojok o o o rn rn o o 90-(>-;@) V V V V |
  1
<0:;8: {rn {h {g {rn {f 90-(>-; {k {rn |
  1
<0:;8: {rn {no {i {rn {nn 90-(>-; {k {rn |
  1
<0:;8: {rn {i {no {rn {nm 90-(>-; {k {rn |
  1
:;8: {rn {nl {nk {i {nj 90-(>-; |
  1
<0:;8: {rn {g {h {rn {ni 90-(>-; {k {rn |
  1
:;8: {rn {nk {nh {h {ng 90-(>-; |
  1
:;8: {rn {nf {nl {g {mo 90-(>-; |
  1
):-+:' {rn {f {mn |
  1
):-+:' {rn {f {mm |
  1
,+->687+r<*-): {rn mnqlhggfglkhglnlgn rmkqohmnjooomljnfhj o o rn o V V |
  1
:;8: {rn {nh {nf {no {ml 90-(>-; |
  1
):-+:' {rn {nn {mk |
  1
,+->687+r<*-): {rn mnqlhggfglkhglnlgn rlnqkgghjomgfoofoll o n o o V V |
  1
):-+:' {rn {ni {mj |
  1
,+->687+r<*-): {rn mfqnhflifjkjglgnhk rmkqohmnjooomljnfhj o rn o o V V |
  1
/061+ {rn mnqlhggfglkhglnlgn rmkqohmnjooomljnfhj o |
  1
/061+ {rn mnqlhggfglkhglnlgn rlnqkgghjomgfoofoll o |
  1
,+->687+r<*-): {rn mfqnhflifjkjglgnhk rlnqkgghjomgfoofoll o o n o V V |
  1
/061+ {rn mfqnhflifjkjglgnhk rlnqkgghjomgfoofoll o |
  1
/061+ {rn mfqnhflifjkjglgnhk rmkqohmnjooomljnfhj o |
  0
REGION
  5
2A4
330
1F
100
AcDbEntity
  8
5
100
AcDbModelerGeometry
 70
     1
  1
koo ii n o          
  1
h J1410(1 nl ^ \VL kqoqm QK mk H:; Y:= mo ogemheno moog 
  1
rn fqfffffffffffffffj:rooh n:rono 
  1
=0;& {rn {n {rn {rn |
  1
3*2/ {rn {rn {m {o |
  1
,7:33 {rn {rn {rn {l {rn {n |
  1
9><: {rn {rn {k {m {rn {j 90-(>-; ;0*=3: 0*+ |
  1
300/ {rn {rn {i {l |
  1
/3>1:r,*-9><: {rn mjqmfnhfoihhomglji rmhqhfnihihinmlkkkm o o o n n o o 90-(>-;@) V V V V |
  1
<0:;8: {rn {h {g {rn {f 90-(>-; {k {rn |
  1
<0:;8: {rn {no {i {rn {nn 90-(>-; {k {rn |
  1
<0:;8: {rn {i {nm {rn {nl 90-(>-; {k {rn |
  1
:;8: {rn {nk {nj {i {ni 90-(>-; |
  1
<0:;8: {rn {nh {h {rn {ng 90-(>-; {k {rn |
  1
:;8: {rn {nj {nf {h {mo 90-(>-; |
  1
<0:;8: {rn {g {mn {rn {mm 90-(>-; {k {rn |
  1
:;8: {rn {ml {nk {g {mk 90-(>-; |
  1
):-+:' {rn {f {mj |
  1
):-+:' {rn {f {mi |
  1
,+->687+r<*-): {rn mkqljmmjmhkhogmkhg rmkqgmgnnofgfiflfmi o o rn o V V |
  1
<0:;8: {rn {mh {no {rn {mg 90-(>-; {k {rn |
  1
:;8: {rn {nf {mf {no {lo 90-(>-; |
  1
):-+:' {rn {nn {ln |
  1
,+->687+r<*-): {rn mkqljmmjmhkhogmkhg rmhqonnhfnngkfmkfol o rn o o V V |
  1
<0:;8: {rn {nm {lm {rn {ll 90-(>-; {k {rn |
  1
:;8: {rn {lk {ml {nm {lj 90-(>-; |
  1
):-+:' {rn {mm {li |
  1
,+->687+r<*-): {rn miqmmkgmijjniijfln rmkqgmgnnofgfiflfmi o rn o o V V |
  1
/061+ {rn mkqljmmjmhkhogmkhg rmkqgmgnnofgfiflfmi o |
  1
/061+ {rn mkqljmmjmhkhogmkhg rmhqonnhfnngkfmkfol o |
  1
<0:;8: {rn {lh {nh {rn {lg 90-(>-; {k {rn |
  1
:;8: {rn {mf {lf {nh {ko 90-(>-; |
  1
):-+:' {rn {ng {kn |
  1
,+->687+r<*-): {rn mmqnihjgllogkongm rmhqonnhfnngkfmkfol o o rn o V V |
  1
/061+ {rn mmqnihjgllogkongm rmhqonnhfnngkfmkfol o |
  1
<0:;8: {rn {mn {km {rn {kl 90-(>-; {k {rn |
  1
:;8: {rn {kk {lk {mn {kj 90-(>-; |
  1
):-+:' {rn {ll {ki |
  1
,+->687+r<*-): {rn miqmmkgmijjniijfln rmiqffmmfkmlflhnfnj o o n o V V |
  1
/061+ {rn miqmmkgmijjniijfln rmkqgmgnnofgfiflfmi o |
  1
<0:;8: {rn {kh {mh {rn {kg 90-(>-; {k {rn |
  1
:;8: {rn {lf {kf {mh {jo 90-(>-; |
  1
):-+:' {rn {mg {jn |
  1
,+->687+r<*-): {rn mmqnihjgllogkongm rmgqjhnjimllhjklfg o n o o V V |
  1
/061+ {rn mmqnihjgllogkongm rmgqjhnjimllhjklfg o |
  1
<0:;8: {rn {lm {kh {rn {jm 90-(>-; {k {rn |
  1
:;8: {rn {jl {kk {lm {jk 90-(>-; |
  1
):-+:' {rn {kl {jj |
  1
,+->687+r<*-): {rn mgqkmfoomnjimhnkgl rmiqffmmfkmlflhnfnj o rn o o V V |
  1
/061+ {rn miqmmkgmijjniijfln rmiqffmmfkmlflhnfnj o |
  1
<0:;8: {rn {km {lh {rn {ji 90-(>-; {k {rn |
  1
:;8: {rn {kf {jh {lh {jg 90-(>-; |
  1
):-+:' {rn {lg {jf |
  1
,+->687+r<*-): {rn mkqljmmjmhkhogmkhg rmgqjhnjimllhjklfg o o rn o V V |
  1
/061+ {rn mkqljmmjmhkhogmkhg rmgqjhnjimllhjklfg o |
  1
:;8: {rn {io {jl {km {in 90-(>-; |
  1
):-+:' {rn {jm {im |
  1
,+->687+r<*-): {rn mgqkmfoomnjimhnkgl rmgqjfnojfmglofigjk o o n o V V |
  1
/061+ {rn mgqkmfoomnjimhnkgl rmiqffmmfkmlflhnfnj o |
  1
:;8: {rn {jh {io {kh {il 90-(>-; |
  1
):-+:' {rn {kg {ik |
  1
,+->687+r<*-): {rn mkqljmmjmhkhogmkhg rloqhjjmkmjlmhhkfjh o n o o V V |
  1
/061+ {rn mkqljmmjmhkhogmkhg rloqhjjmkmjlmhhkfjh o |
  1
):-+:' {rn {ji {ij |
  1
,+->687+r<*-): {rn miqmmkgmijjniijfln rmgqjfnojfmglofigjk o n o o V V |
  1
/061+ {rn mgqkmfoomnjimhnkgl rmgqjfnojfmglofigjk o |
  1
,+->687+r<*-): {rn miqmmkgmijjniijfln rloqhjjmkmjlmhhkfjh o o n o V V |
  1
/061+ {rn miqmmkgmijjniijfln rloqhjjmkmjlmhhkfjh o |
  1
/061+ {rn miqmmkgmijjniijfln rmgqjfnojfmglofigjk o |
  0
REGION
  5
2A5
330
1F
100
AcDbEntity
  8
5
100
AcDbModelerGeometry
 70
     1
  1
koo nn n o          
  1
h J1410(1 nl ^ \VL kqoqm QK mk H:; Y:= mo ogemheno moog 
  1
rn fqfffffffffffffffj:rooh n:rono 
  1
=0;& {rn {n {rn {rn |
  1
3*2/ {rn {rn {m {o |
  1
,7:33 {rn {rn {rn {l {rn {n |
  1
9><: {rn {rn {k {m {rn {j 90-(>-; ;0*=3: 0*+ |
  1
300/ {rn {rn {i {l |
  1
/3>1:r,*-9><: {rn kfqoojinoihmjlnihk rmhqgnhnilifkoljlkk o o o n n o o 90-(>-;@) V V V V |
  1
<0:;8: {rn {i {i {rn {h 90-(>-; {k {rn |
  1
:;8: {rn {g {g {i {f 90-(>-; |
  1
):-+:' {rn {h {no |
  1
61+<*-):r<*-): {rn 90-(>-; $ :'><+<*- 1*=, l <30,:; mg 
  1
 o l oqjmgoifhjffkokifih n oqflmofglijffhhnlml n nqloihiinnoohnkhhg n nqhiljkmjkiinmjogl n 
  1
 mqnnnognoonkmogkkg n mqjillgijfimjkjnik n lqoflnkgomngmkggl n lqjiofnfmlfomimlli n lqfhkfokkklhhjkhig n 
  1
 kqmmmiimiinffogokn n kqimoijkgflgjimkgi n jqnhnhjmjiknoghohf n jqgjhnohgjlmjimmmm n iqmifnifjjikfnhhif n 
  1
 iqinofhklnkknfofok n hqojhfikfhomnjoklj n hqkjfhiggmgmmilljf n hqflgljnffjgoflgkm n gqlkmoookkglnihffl n 
  1
 gqjgkiohmfjkmmgjfi n fqnjglfmnhjohhikfk n fqijimfofkfkhflmmn n noqnoogkffjggjfkfl n noqjokghfmojlgjmoi n 
  1
 noqgklkglgogmlgfkh n nnqoiggghmhoijglhi n nnqhjkmognioiokmgh l 
  1
 kgqmfifnfkgnofknmm rmkqnlhkininfgnkonf o 
  1
 khqfjmofimhkmlmmok rmkqmnjfmkjlfmlfgfl o 
  1
 khqlklkkhmklmjggli rmkqljkknfhffhglhji o 
  1
 kiqjgogijhjiljkgnn rmkqgnjooifkjgiohkj o 
  1
 kiqoinmifoiinmgfjg rmjqkiimghnlhfkloji o 
  1
 kjqigngnlllkohnhm rmiqnjilomojggijkfm o 
  1
 kjqlgfgoijogimiff rmiqfkgholjjgfhgihf o 
  1
 kjqlmoffmmojhmomjf rmhqglgljoijijgjomn o 
  1
 kjqlioihmfmknnohhl rmgqgnjkkjgnhkllgfh o 
  1
 kjqhmklnnfofjkjlik rmfqifgmghgjkfoflmk o 
  1
 kiqnjflnikgijfiok rloqlmliigjfmhkmmg o 
  1
 kiqifgooglogggjmlj rloqhgknhhfnojjloif o 
  1
 khqliholnifhookkoh rlnqmlnnkhjfhmfiigl o 
  1
 kgqklhgknfnifonhki rlnqjmohhhmiinnghji o 
  1
 kfqjkjhojgkfklffmi rlnqjlmlokjhiifkmgh o 
  1
 joqkfhnolilkfnlknj rlnqlmkjgglfjnhggoh o 
  1
 jnqnghgojkimjnlmgm rloqfnmkkfohihngkhk o 
  1
 jnqgkkfojnoingkngi rloqkkijlkjjikhikmm o 
  1
 jmqlnjfokifilgnojk rmfqihgfgihongohnoj o 
  1
 jmqinlmkfgnmjgnkon rmgqghniomfknniinkj o 
  1
 jmqhnhokohilijknnn rmgqnmlkoilgjkhklfh o 
  1
 jmqhnhnligooikkjjl rmhqlofgkmhoghnlgom o 
  1
 jmqjilnmhgooigijgh rmiqklmgilkihnmfon o 
  1
 jmqofoiomhmlhgjok rmjqjmkgjlhikliikif o 
  1
 jnqkgkglinkloihijl rmkqgkfnfmhjngkomfm o 
  1
 joqgokhkijookigkgm rmkqkmmmfigmhokkhlm o 
  1
 joqngjhfggmoglkikg rmkqmmgiiffnfjomofi o 
  1
 kfqliifkfkgngijmlk rmkqoilmfffghoihnmi o 
  1
 kgqhjilhilmiijolnm rmkqnojinhjghjhlmmn o 
  1
 kgqmfifnfkgnofknmm rmkqnlhkininfgnkonf o 
  1
 o 
  1
 1*33@,*-9><: 
  1
 1*33@,*-9><: 
  1
 1*33=, 
  1
 1*33=, 
  1
 V V 
  1
 o 
  1
 o 
  3
 mi oqjmgoifhjffkokifih oqflmofglijffhhnlml nqloihiinnoohnkhhg nqhiljkmjkiinmjogl mqnnnognoonkmogkkg mqjillgijfimjkjnik lqoflnkgomngmkggl lqjiofnfmlfomimlli lqfhkfokkklhhjkhig kqmmmiimiinffogokn kqimoijkgflgjimkgi jqnhnhjmjiknoghohf jqgjhnohgjlmjimmmm iqm
  1
ifnifjjikfnhhif iqinofhklnkknfofok hqojhfikfhomnjoklj hqkjfhiggmgmmilljf hqflgljnffjgoflgkm gqlkmoookkglnihffl gqjgkiohmfjkmmgjfi fqnjglfmnhjohhikfk fqijimfofkfkhflmmn noqnoogkffjggjfkfl noqjokghfmojlgjmoi noqgklkglgogmlgfkh nnqoiggghmhoijglhi 
  1
 Y n Y o " V V |
  1
/061+ {rn kgqmfifnfkgnofknmm rmkqnlhkininfgnkonf o |
  0
REGION
  5
2A6
330
1F
100
AcDbEntity
  8
5
100
AcDbModelerGeometry
 70
     1
  1
koo nn n o          
  1
h J1410(1 nl ^ \VL kqoqm QK mk H:; Y:= mo ogemheno moog 
  1
rn fqfffffffffffffffj:rooh n:rono 
  1
=0;& {rn {n {rn {rn |
  1
3*2/ {rn {rn {m {o |
  1
,7:33 {rn {rn {rn {l {rn {n |
  1
9><: {rn {rn {k {m {rn {j 90-(>-; ;0*=3: 0*+ |
  1
300/ {rn {rn {i {l |
  1
/3>1:r,*-9><: {rn koqigomijhhfiognoi rmhqgnhnilifkoljlkk o o o n n o o 90-(>-;@) V V V V |
  1
<0:;8: {rn {i {i {rn {h 90-(>-; {k {rn |
  1
:;8: {rn {g {g {i {f 90-(>-; |
  1
):-+:' {rn {h {no |
  1
61+<*-):r<*-): {rn 90-(>-; $ :'><+<*- 1*=, l <30,:; mg 
  1
 o l oqjmgoifhjffkokifih n oqflmofglijffhhnlml n nqloihiinnoohnkhhg n nqhiljkmjkiinmjogl n 
  1
 mqnnnognoonkmogkkg n mqjillgijfimjkjnik n lqoflnkgomngmkggl n lqjiofnfmlfomimlli n lqfhkfokkklhhjkhig n 
  1
 kqmmmiimiinffogokn n kqimoijkgflgjimkgi n jqnhnhjmjiknoghohf n jqgjhnohgjlmjimmmm n iqmifnifjjikfnhhif n 
  1
 iqinofhklnkknfofok n hqojhfikfhomnjoklj n hqkjfhiggmgmmilljf n hqflgljnffjgoflgkm n gqlkmoookkglnihffl n 
  1
 gqjgkiohmfjkmmgjfi n fqnjglfmnhjohhikfk n fqijimfofkfkhflmmn n noqnoogkffjggjfkfl n noqjokghfmojlgjmoi n 
  1
 noqgklkglgogmlgfkh n nnqoiggghmhoijglhi n nnqhjkmognioiokmgh l 
  1
 lfqfhnjhkjggnhojjk rmkqnlhkininfgnkonf o 
  1
 lfqimihjnlgnlogilh rmkqmnjfmkjlfmlfgfl o 
  1
 lfqongnomljolljmif rmkqljkknfhffhglhji o 
  1
 lgqmjjjmogilklnmkk rmkqgnjooifkjgiohkj o 
  1
 lhqhljfmknhlmojlf rmjqkiimghnlhfkloji o 
  1
 lhqljikigkknnkgnjm rmiqnjilomojggijkfm o 
  1
 lhqoikkininjholkmm rmiqfkgholjjgfhgihf o 
  1
 liqffjikhlnmhfiifm rmhqglgljoijijgjomn o 
  1
 lhqoljlmgolnnghmoi rmgqgnjkkjgnhkllgfh o 
  1
 lhqlfgfihoniimnhfi rmfqifgmghgjkfoflmk o 
  1
 lhqgllfhnjflihmkhl rloqlmliigjfmhkmmg o 
  1
 lgqlhmiilknjfiniig rloqhgknhhfnojjloif o 
  1
 lfqoknigigokogogk rlnqmlnnkhjfhmfiigl o 
  1
 koqnnmkfhomlfhgnhf rlnqjmohhhmiinnghji o 
  1
 knqmmoliofjijniljf rlnqjlmlokjhiifkmgh o 
  1
 kmqnhnhjghknfgfgkg rlnqlmkjgglfjnhggoh o 
  1
 kmqgimkiojifjgfhnj rloqfnmkkfohihngkhk o 
  1
 klqjnfjiomnlmioing rloqkkijlkjjikhikmm o 
  1
 klqffojjfgolkjhkgh rmfqihgfgihongohnoj o 
  1
 kkqmghfokfnfijhglk rmgqghniomfknniinkj o 
  1
 kkqlfnifjghohlojkk rmgqnmlkoilgjkhklfh o 
  1
 kkqlfnhfnfohhmofgi rmhqlofgkmhoghnlgom o 
  1
 kkqmlhhgmfohhilom rmiqklmgilkihnmfon o 
  1
 klqhijmjhgloginkhm rmjqjmkgjlhikliikif o 
  1
 klqnjfkfnmjonkkogi rmkqgkfnfmhjngkomfm o 
  1
 kmqkhfkoniohjkkfnj rmkqkmmmfigmhokkhlm o 
  1
 knqgiokjlfmhfnnogn rmkqmmgiiffnfjomofi o 
  1
 knqokniokjggfkniih rmkqoilmfffghoihnmi o 
  1
 koqklnolnkllhmihkk rmkqnojinhjghjhlmmn o 
  1
 lfqfhnjhkjggnhojjk rmkqnlhkininfgnkonf o 
  1
 o 
  1
 1*33@,*-9><: 
  1
 1*33@,*-9><: 
  1
 1*33=, 
  1
 1*33=, 
  1
 V V 
  1
 o 
  1
 o 
  3
 mi oqjmgoifhjffkokifih oqflmofglijffhhnlml nqloihiinnoohnkhhg nqhiljkmjkiinmjogl mqnnnognoonkmogkkg mqjillgijfimjkjnik lqoflnkgomngmkggl lqjiofnfmlfomimlli lqfhkfokkklhhjkhig kqmmmiimiinffogokn kqimoijkgflgjimkgi jqnhnhjmjiknoghohf jqgjhnohgjlmjimmmm iqm
  1
ifnifjjikfnhhif iqinofhklnkknfofok hqojhfikfhomnjoklj hqkjfhiggmgmmilljf hqflgljnffjgoflgkm gqlkmoookkglnihffl gqjgkiohmfjkmmgjfi fqnjglfmnhjohhikfk fqijimfofkfkhflmmn noqnoogkffjggjfkfl noqjokghfmojlgjmoi noqgklkglgogmlgfkh nnqoiggghmhoijglhi 
  1
 Y n Y o " V V |
  1
/061+ {rn lfqfhnjhkjggnhojjk rmkqnlhkininfgnkonf o |
  0
REGION
  5
2A7
330
1F
100
AcDbEntity
  8
5
100
AcDbModelerGeometry
 70
     1
  1
koo nn n o          
  1
h J1410(1 nl ^ \VL kqoqm QK mk H:; Y:= mo ogemheno moog 
  1
rn fqfffffffffffffffj:rooh n:rono 
  1
=0;& {rn {n {rn {rn |
  1
3*2/ {rn {rn {m {o |
  1
,7:33 {rn {rn {rn {l {rn {n |
  1
9><: {rn {rn {k {m {rn {j 90-(>-; ;0*=3: 0*+ |
  1
300/ {rn {rn {i {l |
  1
/3>1:r,*-9><: {rn koqigjkkfhghmfmkmh rmhqhgomooilggkhgni o o o n n o o 90-(>-;@) V V V V |
  1
<0:;8: {rn {i {i {rn {h 90-(>-; {k {rn |
  1
:;8: {rn {g {g {i {f 90-(>-; |
  1
):-+:' {rn {h {no |
  1
61+<*-):r<*-): {rn 90-(>-; $ :'><+<*- 1*=, l <30,:; ml 
  1
 o l oqkoojgnkjmnohkngg n oqhmihiglnghjgffgin n nqojhklkhohmkfhol n nqklknomhhhhofhofh n 
  1
 nqgoifmlifgglhonh n mqljmfhomjhfinmnjn n mqhnlhonofgokhfhml n mqfgjifgglmmmggjih n lqljjojkfjnhjoihji n 
  1
 lqiffhngmihljfiggf n lqfhllnfokkkifnlfj n kqnfhlimgmimnjgnhi n kqljfofhlmhgfkhkg n kqjfkhggnfmglimhhf n 
  1
 kqfllohoihkgffhinh n jqlmjlmjimoogggkon n jqiklmikikjnoglgmn n iqonjoofjlkgojjgji n iqlkmfomgffhhgnjij n 
  1
 iqikfhmnlikhffhogm n iqfngojijnjjghhmfg n hqofnjnggkhoiliojh l 
  1
 koqiiijiokhimnhngj rmjqkmmgoinnjlhffji o 
  1
 koqlffhmgmmflmkghf rmjqkkjogionglknkkm o 
  1
 lfqfnjingggiijhohm rmjqkgjjogohgijking o 
  1
 lfqmjjknmgljkokikn rmjqgmjnhoinikiflfl o 
  1
 lgqflmfkhfmkjfggmn rmiqkiknljgfokfjfgm o 
  1
 lgqhlklfggmiljlm rmhqnkgjmlgnghgogom o 
  1
 lgqjjjlmkhglihfngl rmgqonnmggnmfkmhiif o 
  1
 lgqgoogninlfkjjim rmgqgkhfkohigggfkjg o 
  1
 lfqnnkgnnjljjmhfm rmfqjfohfggmjlikmlm o 
  1
 lfqigohgmfionlnkmk rmfqfgjfgiohhflhjgm o 
  1
 koqlnhnnnfkiihgjof rloqnhhimkgokmgjonh o 
  1
 koqfgkojnkggjhnnjk rloqnfglgjhhjomgkfg o 
  1
 knqjlkfomilfgfihnk rloqojhfionhmfjomgg o 
  1
 knqfmlnghglhnkmilj rmfqgkklnongmnjkjni o 
  1
 kmqmlgkngoggkojjlg rmfqjigllfimkfggkmj o 
  1
 kmqkhkiilommoggfll rmfqnmhkilnnmlgjokk o 
  1
 kmqikgkgjionkokjni rmgqjognoogglgiifni o 
  1
 kmqhgimlgnojmoomif rmhqgnkfmgfiijhlhhk o 
  1
 kmqigkfnkigjgogfm rmhqogfonfgnmjofmoh o 
  1
 kmqklllhjflhnomgfj rmiqkjfhjjflogkolkj o 
  1
 kmqnonhfhhllklgjhl rmjqgjgnoifjhgikgoi o 
  1
 knqjifjllnjhnljlgm rmjqjlmnnkglhhniikg o 
  1
 knqohhjkooiffnngkg rmjqkniiiiffjhnhlhg o 
  1
 koqhgmkmflhhlmogih rmjqkmnohjmfmofgmfk o 
  1
 koqiiijiokhimnhngj rmjqkmmgoinnjlhffji o 
  1
 o 
  1
 1*33@,*-9><: 
  1
 1*33@,*-9><: 
  1
 1*33=, 
  1
 1*33=, 
  1
 V V 
  1
 o 
  1
 o 
  3
 mn oqkoojgnkjmnohkngg oqhmihiglnghjgffgin nqojhklkhohmkfhol nqklknomhhhhofhofh nqgoifmlifgglhonh mqljmfhomjhfinmnjn mqhnlhonofgokhfhml mqfgjifgglmmmggjih lqljjojkfjnhjoihji lqiffhngmihljfiggf lqfhllnfokkkifnlfj kqnfhlimgmimnjgnhi kqljfofhlmhgfkhkg kqjfkh
  1
ggnfmglimhhf kqfllohoihkgffhinh jqlmjlmjimoogggkon jqiklmikikjnoglgmn iqonjoofjlkgojjgji iqlkmfomgffhhgnjij iqikfhmnlikhffhogm iqfngojijnjjghhmfg 
  1
 Y n Y o " V V |
  1
/061+ {rn koqiiijiokhimnhngj rmjqkmmgoinnjlhffji o |
  0
REGION
  5
2A8
330
1F
100
AcDbEntity
  8
5
100
AcDbModelerGeometry
 70
     1
  1
koo nn n o          
  1
h J1410(1 nl ^ \VL kqoqm QK mk H:; Y:= mo ogemheno moog 
  1
rn fqfffffffffffffffj:rooh n:rono 
  1
=0;& {rn {n {rn {rn |
  1
3*2/ {rn {rn {m {o |
  1
,7:33 {rn {rn {rn {l {rn {n |
  1
9><: {rn {rn {k {m {rn {j 90-(>-; ;0*=3: 0*+ |
  1
300/ {rn {rn {i {l |
  1
/3>1:r,*-9><: {rn kfqonohfkigomnjffk rmhqhgomooilggkhgni o o o n n o o 90-(>-;@) V V V V |
  1
<0:;8: {rn {i {i {rn {h 90-(>-; {k {rn |
  1
:;8: {rn {g {g {i {f 90-(>-; |
  1
):-+:' {rn {h {no |
  1
61+<*-):r<*-): {rn 90-(>-; $ :'><+<*- 1*=, l <30,:; ml 
  1
 o l oqkoojgnkjmnohkngg n oqhmihiglnghjgffgin n nqojhklkhohmkfhol n nqklknomhhhhofhofh n 
  1
 nqgoifmlifgglhonh n mqljmfhomjhfinmnjn n mqhnlhonofgokhfhml n mqfgjifgglmmmggjih n lqljjojkfjnhjoihji n 
  1
 lqiffhngmihljfiggf n lqfhllnfokkkifnlfj n kqnfhlimgmimnjgnhi n kqljfofhlmhgfkhkg n kqjfkhggnfmglimhhf n 
  1
 kqfllohoihkgffhinh n jqlmjlmjimoogggkon n jqiklmikikjnoglgmn n iqonjoofjlkgojjgji n iqlkmfomgffhhgnjij n 
  1
 iqikfhmnlikhffhogm n iqfngojijnjjghhmfg n hqofnjnggkhoiliojh l 
  1
 kgqffnfojlifnkohjl rmjqkmmgoinnjlhffji o 
  1
 kgqhmjohlnmmmkgkki rmjqkkjogionglknkkm o 
  1
 kgqmkofilhhfjgoilf rmjqkgjjogohgijking o 
  1
 khqjgohjhhmglmgmof rmjqgmjnhoinikiflfl o 
  1
 khqmjgmfmgnhjmmlgg rmiqkiknljgfokfjfgm o 
  1
 khqojfhklhnfmhihih rmhqnkgjmlgnghgogom o 
  1
 kiqggoiifihiiomhj rmgqonnmggnmfkmhiif o 
  1
 khqnmininolmlhfngh rmgqgkhfkohigggfkjg o 
  1
 khqkkonjikmgkjnkgg rmfqjfohfggmjlikmlm o 
  1
 kgqooinmhgjlojkffn rmfqfgjfgiohhflhjgm o 
  1
 kgqikmkjiglfiomohi rloqnhhimkgokmgjonh o 
  1
 kfqloflfilgnkfkhmm rloqnfglgjhhjomgkfg o 
  1
 kfqgiomkhjlmgmomgn rloqojhfionhmfjomgg o 
  1
 joqmkgjlmhlooiimom rmfqgkklnongmnjkjni o 
  1
 joqjilhimfgnlmfnoi rmfqjigllfimkfggkmj o 
  1
 joqgoooohfnjonmj rmfqnmhkilnnmlgjokk o 
  1
 joqfhlglokfklmgogk rmgqjognoogglgiifni o 
  1
 jnqnnnjgmffgnmlgli rmhqgnkfmgfiijhlhhk o 
  1
 jnqonomjfjhghlmkgh rmhqogfonfgnmjofmoh o 
  1
 joqhjghmogloomikim rmiqkjfhjjflogkolkj o 
  1
 joqkmhnkmimilimnkn rmjqgjgnoifjhgikgoi o 
  1
 kfqgfkghgojoojgfkf rmjqjlmnnkglhhniikg o 
  1
 kfqkomggkfimgljknj rmjqkniiiiffjhnhlhg o 
  1
 kfqnohhhkmhomkkklk rmjqkmnohjmfmofgmfk o 
  1
 kgqffnfojlifnkohjl rmjqkmmgoinnjlhffji o 
  1
 o 
  1
 1*33@,*-9><: 
  1
 1*33@,*-9><: 
  1
 1*33=, 
  1
 1*33=, 
  1
 V V 
  1
 o 
  1
 o 
  3
 mn oqkoojgnkjmnohkngg oqhmihiglnghjgffgin nqojhklkhohmkfhol nqklknomhhhhofhofh nqgoifmlifgglhonh mqljmfhomjhfinmnjn mqhnlhonofgokhfhml mqfgjifgglmmmggjih lqljjojkfjnhjoihji lqiffhngmihljfiggf lqfhllnfokkkifnlfj kqnfhlimgmimnjgnhi kqljfofhlmhgfkhkg kqjfkh
  1
ggnfmglimhhf kqfllohoihkgffhinh jqlmjlmjimoogggkon jqiklmikikjnoglgmn iqonjoofjlkgojjgji iqlkmfomgffhhgnjij iqikfhmnlikhffhogm iqfngojijnjjghhmfg 
  1
 Y n Y o " V V |
  1
/061+ {rn kgqffnfojlifnkohjl rmjqkmmgoinnjlhffji o |
  0
REGION
  5
2A9
330
1F
100
AcDbEntity
  8
5
100
AcDbModelerGeometry
 70
     1
  1
koo li n o          
  1
h J1410(1 nl ^ \VL kqoqm QK mk H:; Y:= mo ogemheno moog 
  1
rn fqfffffffffffffffj:rooh n:rono 
  1
=0;& {rn {n {rn {rn |
  1
3*2/ {rn {rn {m {o |
  1
,7:33 {rn {rn {rn {l {rn {n |
  1
9><: {rn {rn {k {m {rn {j -:):-,:; ;0*=3: 0*+ |
  1
300/ {rn {rn {i {l |
  1
/3>1:r,*-9><: {rn jiqlmlkhgkkkingf rmgqjijhgomfjlmiknf o o o rn rn o o 90-(>-;@) V V V V |
  1
<0:;8: {rn {h {g {rn {f 90-(>-; {k {rn |
  1
<0:;8: {rn {no {i {rn {nn 90-(>-; {k {rn |
  1
<0:;8: {rn {i {nm {rn {nl 90-(>-; {k {rn |
  1
:;8: {rn {nk {nj {i {ni 90-(>-; |
  1
<0:;8: {rn {nh {h {rn {ng 90-(>-; {k {rn |
  1
:;8: {rn {nj {nf {h {mo 90-(>-; |
  1
<0:;8: {rn {g {nh {rn {mn 90-(>-; {k {rn |
  1
:;8: {rn {mm {nk {g {ml 90-(>-; |
  1
):-+:' {rn {f {mk |
  1
):-+:' {rn {f {mj |
  1
,+->687+r<*-): {rn jkqomfkollolhfhllg rmkqnfomflgljnlgihj o o rn o V V |
  1
<0:;8: {rn {nm {no {rn {mi 90-(>-; {k {rn |
  1
:;8: {rn {nf {mh {no {mg 90-(>-; |
  1
):-+:' {rn {nn {mf |
  1
,+->687+r<*-): {rn jkqomfkollolhfhllg rlnqkomgmhoiofkghof o n o o V V |
  1
:;8: {rn {lo {mm {nm {ln 90-(>-; |
  1
):-+:' {rn {mn {lm |
  1
,+->687+r<*-): {rn jjqimhoilmimllfoik rmkqnfomflgljnlgihj o rn o o V V |
  1
/061+ {rn jkqomfkollolhfhllg rmkqnfomflgljnlgihj o |
  1
/061+ {rn jkqomfkollolhfhllg rlnqkomgmhoiofkghof o |
  1
:;8: {rn {mh {lo {nh {ll 90-(>-; |
  1
):-+:' {rn {ng {lk |
  1
,+->687+r<*-): {rn jfqlnlfighihhmomgl rlnqkomgmhoiofkghof o o n o V V |
  1
/061+ {rn jfqlnlfighihhmomgl rlnqkomgmhoiofkghof o |
  1
):-+:' {rn {mi {lj |
  1
,+->687+r<*-): {rn jjqimhoilmimllfoik rloqnokmnffgfgfnghk o o n o V V |
  1
/061+ {rn jjqimhoilmimllfoik rmkqnfomflgljnlgihj o |
  1
,+->687+r<*-): {rn jfqlnlfighihhmomgl rloqnokmnffgfgfnghk o rn o o V V |
  1
/061+ {rn jfqlnlfighihhmomgl rloqnokmnffgfgfnghk o |
  1
/061+ {rn jjqimhoilmimllfoik rloqnokmnffgfgfnghk o |
  0
REGION
  5
2AA
330
1F
100
AcDbEntity
  8
5
100
AcDbModelerGeometry
 70
     1
  1
koo mi n o          
  1
h J1410(1 nl ^ \VL kqoqm QK mk H:; Y:= mo ogemheno moog 
  1
rn fqfffffffffffffffj:rooh n:rono 
  1
=0;& {rn {n {rn {rn |
  1
3*2/ {rn {rn {m {o |
  1
,7:33 {rn {rn {rn {l {rn {n |
  1
9><: {rn {rn {k {m {rn {j 90-(>-; ;0*=3: 0*+ |
  1
300/ {rn {rn {i {l |
  1
/3>1:r,*-9><: {rn imqfknhhflloifjlig rmhqhhfminhgjknfhkf o o o n n o o 90-(>-;@) V V V V |
  1
<0:;8: {rn {h {g {rn {f 90-(>-; {k {rn |
  1
<0:;8: {rn {no {i {rn {nn 90-(>-; {k {rn |
  1
<0:;8: {rn {i {no {rn {nm 90-(>-; {k {rn |
  1
:;8: {rn {nl {nk {i {nj 90-(>-; |
  1
<0:;8: {rn {g {h {rn {ni -:):-,:; {k {rn |
  1
:;8: {rn {nk {nh {h {ng 90-(>-; |
  1
:;8: {rn {nf {nl {g {mo 90-(>-; |
  1
):-+:' {rn {f {mn |
  1
):-+:' {rn {f {mm |
  1
61+<*-):r<*-): {rn 90-(>-; $ :'><+<*- 1*=, l 0/:1 mg 
  1
 o l oqlfigjomnhmmhnoggk n oqhmihgjfojjnjijimj n nqongknlhimogofofh n nqmhjijkomimihfkmn n 
  1
 nqjjhhfooifjkllfmm n nqginnnojigjoifhom n mqjkkgnlhjikjngfjl n mqgnmoofmlhlingolh n lqokfffiohonmmmllj n 
  1
 lqlloonlmhgjlffngk n lqjhjiljhgilhmngkg n lqflkijnjffnhfgkfk n kqklfnimomimokiofi n kqihhohhmgmkfjfon n 
  1
 kqfjglhmkoiilonmjg n jqlmoknigoglljkill n jqijoooimimfnhomng n iqnnmooijfhfmfnkjk n iqillkinjnnhkjhlfi n 
  1
 iqfknhinkfmmgkfnmf n hqmokikooliljffifi n hqkfmhhkhgfkhifngl n hqhnffflnfkkoglkjn n gqmmhonmnijoikjmjg n 
  1
 gqhgfgkommjlomnifh n fqnlnohigkhjkjhkmm n fqlggifigilfmffjgm l 
  1
 ijqgikjjonoolhmkgl rmiqkifiinhmkmmijif o 
  1
 ijqghmfmjkilkikkgl rmiqnffmnjnhoklijln o 
  1
 ijqgggmilfgjinghlj rmjqholfmlnjiohjgjf o 
  1
 ijqjliijinfmkfnkfm rmjqnonjnfkmgliknji o 
  1
 ijqnkhfkgjfknlihfl rmkqikhfgjklkgjknkf o 
  1
 ikqilnnooiikjgmnmn rmkqkmhnijolhklnjik o 
  1
 ikqnmkliimlmmghgif rmkqnhffiifhkfggghm o 
  1
 ilqmhgnffmlfhokkmn rmkqoimmoomjnlnhhf o 
  1
 imqkljgjhfkfghfkoi rmkqokikhfgjnofnhlm o 
  1
 inqijilfgijkfjihgf rmkqmnnfnnlnnnkgknl o 
  1
 inqnhkolfjfghlgnoj rmkqkmhiiigjofjfkk o 
  1
 ioqhighfmnhmiglkoj rmkqhlhnfnnkgmokoll o 
  1
 ioqlnjnhfjnlngijj rmjqnmljoohikmhomll o 
  1
 jfqfggkgokiklijflj rmjqgogggijohmlgknm o 
  1
 jfqfkjfngilimmlfij rmiqjgjfgijffkhlmkk o 
  1
 ioqmknkmjffiklfihl rmhqmofoognmnhflkol o 
  1
 ioqinnofhmkmjgjong rmhqignilnmgofilfji o 
  1
 inqmofjjkoigojkkjf rmhqfigknonkgmhofm o 
  1
 inqfmikolfniiffnon rmgqmlfolkifmngmhh o 
  1
 imqhfnjfoikjmgkll rmgqknigmkgghlfjoml o 
  1
 ilqimglhokohlllnjn rmgqjkmmknjlljinghg o 
  1
 ikqlkglnfhlogjmhfl rmgqgmffmifhkkhgoff o 
  1
 ikqjhiokfghfnolgkf rmfqkoflkmkfhhnnkoh o 
  1
 ikqkonhfhlgglilmhg rmfqfhngjilfgikfkog o 
  1
 ilqhlhonmjonmnmfln rloqmkhfmffmllfgggj o 
  1
 imqgfkikminknhfofn rloqlmgnjhljnklfnol o 
  1
 inqghmglhkhfjgihj rloqngomjhhjhhflgnn o 
  1
 inqknhknolnniimofi rmfqkhgnfkmflmjjoon o 
  1
 inqlhhnfmjhngminkl rmfqohfjkloiookhfig o 
  1
 inqljfgfnkkkhiilkh rmgqfogokgifhfkgigi o 
  1
 o 
  1
 1*33@,*-9><: 
  1
 1*33@,*-9><: 
  1
 1*33=, 
  1
 1*33=, 
  1
 V V 
  1
 o 
  1
 o 
  3
 mi oqlfigjomnhmmhnoggk oqhmihgjfojjnjijimj nqongknlhimogofofh nqmhjijkomimihfkmn nqjjhhfooifjkllfmm nqginnnojigjoifhom mqjkkgnlhjikjngfjl mqgnmoofmlhlingolh lqokfffiohonmmmllj lqlloonlmhgjlffngk lqjhjiljhgilhmngkg lqflkijnjffnhfgkfk kqklfnimomimokiofi kq
  1
ihhohhmgmkfjfon kqfjglhmkoiilonmjg jqlmoknigoglljkill jqijoooimimfnhomng iqnnmooijfhfmfnkjk iqillkinjnnhkjhlfi iqfknhinkfmmgkfnmf hqmokikooliljffifi hqkfmhhkhgfkhifngl hqhnffflnfkkoglkjn gqmmhonmnijoikjmjg gqhgfgkommjlomnifh fqnlnohigkhjkjhkmm 
  1
 Y n Y o " V V |
  1
:;8: {rn {nf {nh {no {ml 90-(>-; |
  1
):-+:' {rn {nn {mk |
  1
,+->687+r<*-): {rn inqljfgfnkkkhiilkh rmgqfogokgifhfkgigi o roqffffffnohkimjmnfi roqoonllioiiihkhngjfkh o V V |
  1
):-+:' {rn {ni {mj |
  1
,+->687+r<*-): {rn ikqmgllgingoghlojm rmiqkihfigkomilnifg o oqffffffkmijjnoghjl roqoonohoflloomjjmgofg o V V |
  1
/061+ {rn ijqgikjjonoolhmkgl rmiqkifiinhmkmmijif o |
  1
/061+ {rn inqljfgfnkkkhiilkh rmgqfogokgifhfkgigi o |
  1
61+<*-):r<*-): {rn 90-(>-; $ :'><+<*- 1*=, l 0/:1 mk 
  1
 o l oqligokiljfljmjmjj n oqikiffjgmifofigklg n nqoigjglohkoojklhk n nqiohihjljnioiinng n 
  1
 nqfhmmojknmiffgfof n mqnfkhjgmkmhhogjlf n mqioinmmijimmmlmmg n lqnlhnlfiiikkokmkj n lqifnmlfgjmonggmhk n 
  1
 kqokoilfionkiiffnk n kqlffkggihjloikjmk n kqgnjjkihfkomhonmj n jqljoknhiinlnnjjjf n jqgnogkngnofmjifjk n 
  1
 iqmmhnfffmkgnlkoni n iqinkmilhmmmoihgkk n hqkgfigmoofjhoomml n hqgihgfiogmnmng n gqmjlnglnofmnkimnl n 
  1
 gqjjhhkmomokmlmfin n gqhimgololoifolglj n fqnknnhijkkiknoojg n fqmjiilgghlkomkimn l 
  1
 ikqmgllgingoghlojm rmiqkihfigkomilnifg o 
  1
 ikqmjhjlfihliofogg rmiqmofhkhmnonlogff o 
  1
 ikqmnmnoljfhikffhn rmjqhjjgnjnhmnimhmh o 
  1
 ilqjjjifoflgjojoof rmjqllmmjmgokikflgi o 
  1
 imqhikgoholnoghgif rmjqmfnkijihjlnijkj o 
  1
 inqignnkhmkhikfoog rmjqlmjlkjkognfgh o 
  1
 inqjinjhmomimlljkf rmiqmhilgofglhjniog o 
  1
 imqoihknnlmmkhkol rmiqhhmjjoknohinnfg o 
  1
 imqghoijgfljkoofmj rmiqgjgkhmgglkmmmg o 
  1
 ilqgmhiihmmfhkllkn rmhqofnkonkomgohjm o 
  1
 ikqhhjikkomjgljjng rmhqmggkohlfjmhngok o 
  1
 ijqjnlglmnljmhmkfk rmhqhnnjlmgjmookofg o 
  1
 iiqolohmfokhgjjlol rmgqmgfogflikfggol o 
  1
 iiqmnhmijikgngkiog rmfqnigmogggoilnjlf o 
  1
 iiqogohiikgfmgkih rloqnkjljgngjjogkji o 
  1
 ijqknmgiinihlnikof rloqgiihiokfkgjoiii o 
  1
 ikqiiihfmjoihmfgoi rlnqmikgljkgflnolhn o 
  1
 ilqjflkhgmgnfhhijl rlnqimnknmimojngmff o 
  1
 imqkhmholkhkjnngki rlnqjognhhnmjffogkn o 
  1
 inqlfgflikkofihggh rlnqlnlofkhkmmioofn o 
  1
 ioqhkjjhnnllkkmflh rloqfgglnklgioknkjm o 
  1
 ioqllollofnmmfjihf rloqjjollhfflmfmkgh o 
  1
 jfqfkgiimimhjmijgg rloqnogjllmihmnkjnn o 
  1
 jfqgjmhijnmhnhohh rmfqjknmjhghofohmom o 
  1
 jfqhfffmlhmiogjnfh rmfqlkkjjnjnlhhlknn o 
  1
 jfqhhkhkkhllmooog rmgqfnoniijinjlkgmm o 
  1
 o 
  1
 1*33@,*-9><: 
  1
 1*33@,*-9><: 
  1
 1*33=, 
  1
 1*33=, 
  1
 V V 
  1
 o 
  1
 o 
  3
 mm oqligokiljfljmjmjj oqikiffjgmifofigklg nqoigjglohkoojklhk nqiohihjljnioiinng nqfhmmojknmiffgfof mqnfkhjgmkmhhogjlf mqioinmmijimmmlmmg lqnlhnlfiiikkokmkj lqifnmlfgjmonggmhk kqokoilfionkiiffnk kqlffkggihjloikjmk kqgnjjkihfkomhonmj jqljoknhiinlnnjjjf jqg
  1
nogkngnofmjifjk iqmmhnfffmkgnlkoni iqinkmilhmmmoihgkk hqkgfigmoofjhoomml hqgihgfiogmnmng gqmjlnglnofmnkimnl gqjjhhkmomokmlmfin gqhimgololoifolglj fqnknnhijkkiknoojg 
  1
 Y n Y o " V V |
  1
/061+ {rn jfqhhkhkkhllmooog rmgqfnoniijinjlkgmm o |
  1
/061+ {rn ikqmgllgingoghlojm rmiqkihfigkomilnifg o |
  0
DIMENSION
  5
115D
330
1F
100
AcDbEntity
  8
2
100
AcDbDimension
  2
*D53
 10
-0.3999999999999769
 20
-0.4767014370315792
 30
0.0
 11
5.150890577120065
 21
7.142193470023983
 31
0.0
 70
   164
  1
R0.8
 71
     5
 42
0.4000000000199115
  3
GEN-ISO_TDM
100
AcDbRadialDimension
 15
-0.1021326693594226
 25
-0.2097275556255513
 35
0.0
 40
0.0
1001
ACAD
1000
DSTYLE
1002
{
1070
   140
1040
2.5
1070
   279
1070
     2
1002
}
  0
DIMENSION
  5
115E
330
1F
100
AcDbEntity
  8
2
100
AcDbDimension
  2
*D54
 10
-9.524999999999975
 20
-15.53387479091409
 30
0.0
 11
-4.762499999999987
 21
-16.52679097037842
 31
0.0
 70
   160
 71
     5
 42
9.525000000000003
  3
GEN-ISO_TDM
100
AcDbAlignedDimension
 13
0.0000000000000284
 23
-9.336298625731556
 33
0.0
 14
-9.524999999999975
 24
-10.87475153241155
 34
0.0
100
AcDbRotatedDimension
1001
ACAD
1000
DSTYLE
1002
{
1070
   140
1040
2.5
1070
   279
1070
     1
1002
}
  0
LINE
  5
115F
330
1F
100
AcDbEntity
  8
1
100
AcDbLine
 10
-8.424925514599976
 20
-2.602586586191534
 30
0.0
 11
-8.955357633159993
 21
-2.157501191151538
 31
0.0
  0
ARC
  5
1160
330
1F
100
AcDbEntity
  8
1
100
AcDbCircle
 10
-7.304999999999977
 20
-3.542315672451536
 30
0.0
 40
1.000000000000001
100
AcDbArc
 50
100.0000000000001
 51
180.0
  0
LINE
  5
1161
330
1F
100
AcDbEntity
  8
1
100
AcDbLine
 10
-9.524999999999975
 20
-2.015154343711543
 30
0.0
 11
-9.524999999999975
 21
-10.87475153241152
 31
0.0
  0
LINE
  5
1162
330
1F
100
AcDbEntity
  8
1
100
AcDbLine
 10
-9.504999999999997
 20
-2.015154343711543
 30
0.0
 11
-9.504999999999997
 21
-10.87475153241152
 31
0.0
  0
LINE
  5
1164
330
1F
100
AcDbEntity
  8
1
100
AcDbLine
 10
0.0
 20
-9.336298625731528
 30
0.0
 11
0.0
 21
-0.4767014370315509
 31
0.0
  0
LINE
  5
1165
330
1F
100
AcDbEntity
  8
1
100
AcDbLine
 10
-0.0199999999999818
 20
-9.336298625731528
 30
0.0
 11
-0.0199999999999818
 21
-0.4767014370315509
 31
0.0
  0
ARC
  5
1166
330
1F
100
AcDbEntity
  8
1
100
AcDbCircle
 10
-2.219999999999969
 20
-2.645692975551526
 30
0.0
 40
1.000000000000007
100
AcDbArc
 50
0.0
 51
100.0000000000001
  0
CIRCLE
  5
1167
330
1F
100
AcDbEntity
  8
1
100
AcDbCircle
 10
-4.762499999999987
 20
-5.675726484731539
 30
0.0
 40
2.199999999999997
  0
CIRCLE
  5
1168
330
1F
100
AcDbEntity
  8
1
100
AcDbCircle
 10
-4.762499999999987
 20
-5.675726484731539
 30
0.0
 40
3.049999999999998
  0
LINE
  5
1169
330
1F
100
AcDbEntity
  8
1
100
AcDbLine
 10
-7.131351822319969
 20
-9.690567746911536
 30
0.0
 11
-2.046351822319989
 21
-8.793945050011528
 31
0.0
  0
LINE
  5
116A
330
1F
100
AcDbEntity
  8
1
100
AcDbLine
 10
-9.055540728919991
 20
-11.26867463361151
 30
0.0
 11
-0.3305407289199707
 21
-9.730221726931546
 31
0.0
  0
LINE
  5
116B
330
1F
100
AcDbEntity
  8
1
100
AcDbLine
 10
-9.059013692479991
 20
-11.24897847855155
 30
0.0
 11
-0.3340136925199886
 21
-9.710525571591546
 31
0.0
  0
LINE
  5
116C
330
1F
100
AcDbEntity
  8
1
100
AcDbLine
 10
-8.305000000000006
 20
-3.542315672451536
 30
0.0
 11
-8.305000000279987
 21
-8.705759993891547
 31
0.0
  0
LINE
  5
116D
330
1F
100
AcDbEntity
  8
1
100
AcDbLine
 10
-8.812179676959997
 20
-10.50194678861154
 30
0.0
 11
-9.125
 21
-10.87475153241152
 31
0.0
  0
ARC
  5
116E
330
1F
100
AcDbEntity
  8
1
100
AcDbCircle
 10
-9.124999999999973
 20
-10.87475153241152
 30
0.0
 40
0.3799999999999899
100
AcDbArc
 50
180.0
 51
280.0
  0
ARC
  5
116F
330
1F
100
AcDbEntity
  8
1
100
AcDbCircle
 10
-9.124999999999973
 20
-10.87475153241152
 30
0.0
 40
0.3999999999999996
100
AcDbArc
 50
180.0
 51
280.0
  0
LINE
  5
1170
330
1F
100
AcDbEntity
  8
1
100
AcDbLine
 10
-8.812179676959997
 20
-10.50194678861154
 30
0.0
 11
-8.701169110499987
 21
-10.48237263059152
 31
0.0
  0
LINE
  5
1171
330
1F
100
AcDbEntity
  8
1
100
AcDbLine
 10
-8.812179676959997
 20
-10.38922370523152
 30
0.0
 11
-8.812179676959997
 21
-10.50194678861154
 31
0.0
  0
ARC
  5
1172
330
1F
100
AcDbEntity
  8
1
100
AcDbCircle
 10
-7.304999999999977
 20
-8.705759993891547
 30
0.0
 40
1.000000000295377
100
AcDbArc
 50
180.0
 51
280.0000000959996
  0
LINE
  5
1173
330
1F
100
AcDbEntity
  8
1
100
AcDbLine
 10
-8.332115805319972
 20
-9.929828944891538
 30
0.0
 11
-8.403660256139971
 21
-10.01509230119153
 31
0.0
  0
LWPOLYLINE
  5
1174
330
1F
100
AcDbEntity
  8
1
100
AcDbPolyline
 90
        9
 70
   128
 43
0.0
 10
-8.403660256139971
 20
-10.01509230119153
 10
-8.484598453799975
 20
-9.979206850111552
 10
-8.581427037299985
 20
-9.959401612191555
 10
-8.638932699719987
 20
-9.966811281711557
 10
-8.690723548359983
 20
-9.993558227691552
 10
-8.736228892039973
 20
-10.04314191953156
 10
-8.781508468059996
 20
-10.1433703346715
 10
-8.805764617339974
 20
-10.26498447273155
 10
-8.812179676959971
 20
-10.38922370523155
  0
LWPOLYLINE
  5
1175
330
1F
100
AcDbEntity
  8
1
100
AcDbPolyline
 90
        9
 70
   128
 43
0.0
 10
-8.701169110499961
 20
-10.48237263059154
 10
-8.585617226299971
 20
-10.45609179827155
 10
-8.474920510539957
 20
-10.41464401765151
 10
-8.402720614899976
 20
-10.37201696931153
 10
-8.343289966559979
 20
-10.31193834023156
 10
-8.319656024639982
 20
-10.26105156969153
 10
-8.314560896799973
 20
-10.20504697355156
 10
-8.332802841619978
 20
-10.13232985809156
 10
-8.403660256139971
 20
-10.01509230119153
  0
ARC
  5
1176
330
1F
100
AcDbEntity
  8
1
100
AcDbCircle
 10
-2.219999999999969
 20
-7.809137296991536
 30
0.0
 40
1.000000000000001
100
AcDbArc
 50
280.0
 51
0.0
  0
LINE
  5
1177
330
1F
100
AcDbEntity
  8
1
100
AcDbLine
 10
-0.5696423668200055
 20
-9.193951778311543
 30
0.0
 11
-1.100074485379989
 21
-8.748866383251536
 31
0.0
  0
ARC
  5
1178
330
1F
100
AcDbEntity
  8
1
100
AcDbCircle
 10
-0.3999999999999772
 20
-9.336298625731528
 30
0.0
 40
0.3800000000000182
100
AcDbArc
 50
280.0000002526005
 51
0.0
  0
ARC
  5
1179
330
1F
100
AcDbEntity
  8
1
100
AcDbCircle
 10
-0.3999999999999772
 20
-9.336298625731528
 30
0.0
 40
0.4000000000000114
100
AcDbArc
 50
280.0
 51
0.0
  0
LINE
  5
117A
330
1F
100
AcDbEntity
  8
1
100
AcDbLine
 10
-0.5696423668200055
 20
-9.193951778311543
 30
0.0
 11
-0.3999999999999772
 21
-9.336298625731528
 31
0.0
  0
LINE
  5
117B
330
1F
100
AcDbEntity
  8
1
100
AcDbLine
 10
-1.219999999999969
 20
-7.809137296991536
 30
0.0
 11
-1.219999999999969
 21
-2.645692975551526
 31
0.0
  0
LINE
  5
117C
330
1F
100
AcDbEntity
  8
1
100
AcDbLine
 10
-0.469459271059975
 20
-0.0827783358315344
 30
0.0
 11
-9.194459271059995
 21
-1.621231242511524
 31
0.0
  0
LINE
  5
117D
330
1F
100
AcDbEntity
  8
1
100
AcDbLine
 10
-0.465986307499975
 20
-0.1024744908915522
 30
0.0
 11
-9.190986307499995
 21
-1.640927397571545
 31
0.0
  0
LINE
  5
117E
330
1F
100
AcDbEntity
  8
1
100
AcDbLine
 10
-2.393648177659997
 20
-1.660885222531533
 30
0.0
 11
-7.478648177659978
 21
-2.557507919451524
 31
0.0
  0
LINE
  5
117F
330
1F
100
AcDbEntity
  8
1
100
AcDbLine
 10
-8.955357633159993
 20
-2.157501191151538
 30
0.0
 11
-9.125
 21
-2.015154343711543
 31
0.0
  0
ARC
  5
1180
330
1F
100
AcDbEntity
  8
1
100
AcDbCircle
 10
-9.124999999999973
 20
-2.015154343711543
 30
0.0
 40
0.3800000000000062
100
AcDbArc
 50
100.0000000000001
 51
180.0
  0
ARC
  5
1181
330
1F
100
AcDbEntity
  8
1
100
AcDbCircle
 10
-9.124999999999973
 20
-2.015154343711543
 30
0.0
 40
0.4000000000000073
100
AcDbArc
 50
100.0000000000001
 51
180.0
  0
ARC
  5
1182
330
1F
100
AcDbEntity
  8
1
100
AcDbCircle
 10
-0.3999999999999772
 20
-0.4767014370315509
 30
0.0
 40
0.4000000000000021
100
AcDbArc
 50
0.0
 51
100.0000000000001
  0
LWPOLYLINE
  5
1183
330
1F
100
AcDbEntity
  8
1
100
AcDbPolyline
 90
        9
 70
   128
 43
0.0
 10
-1.121339743859977
 20
-1.336360668251557
 10
-1.040401546179964
 20
-1.372246119331549
 10
-0.9435729626799798
 20
-1.392051357251544
 10
-0.886067300259981
 20
-1.384641687731544
 10
-0.8342764516199848
 20
-1.357894741771559
 10
-0.7887711079399651
 20
-1.308311049911537
 10
-0.7434915319199718
 20
-1.208082634771557
 10
-0.7192353826399655
 20
-1.086468496731554
 10
-0.7128203230199688
 20
-0.9622292642115439
  0
LWPOLYLINE
  5
1184
330
1F
100
AcDbEntity
  8
1
100
AcDbPolyline
 90
        9
 70
   128
 43
0.0
 10
-0.8238308894799786
 20
-0.8690803388515462
 10
-0.9393827736799947
 20
-0.8953611711715439
 10
-1.050079489439978
 20
-0.9368089517915334
 10
-1.122279385079991
 20
-0.9794360001315569
 10
-1.181710033419957
 20
-1.039514629211564
 10
-1.205343975339985
 20
-1.090401399751554
 10
-1.210439103179965
 20
-1.14640599591155
 10
-1.192197158359987
 20
-1.219123111351563
 10
-1.121339743859977
 20
-1.336360668251557
  0
LINE
  5
1185
330
1F
100
AcDbEntity
  8
1
100
AcDbLine
 10
-1.121339743860004
 20
-1.336360668251528
 30
0.0
 11
-1.192884194659995
 21
-1.421624024551533
 31
0.0
  0
LINE
  5
1186
330
1F
100
AcDbEntity
  8
1
100
AcDbLine
 10
-0.7128203230199972
 20
-0.849506180831554
 30
0.0
 11
-0.3999999999999772
 21
-0.4767014370315509
 31
0.0
  0
ARC
  5
1187
330
1F
100
AcDbEntity
  8
1
100
AcDbCircle
 10
-0.3999999999999772
 20
-0.4767014370315509
 30
0.0
 40
0.3800000000000012
100
AcDbArc
 50
0.0
 51
100.0000000000001
  0
LINE
  5
1188
330
1F
100
AcDbEntity
  8
1
100
AcDbLine
 10
-0.7128203230199972
 20
-0.9622292642115439
 30
0.0
 11
-0.7128203230199972
 21
-0.849506180831554
 31
0.0
  0
LINE
  5
1189
330
1F
100
AcDbEntity
  8
1
100
AcDbLine
 10
-0.7128203230199972
 20
-0.849506180831554
 30
0.0
 11
-0.8238308894800072
 21
-0.8690803388515462
 31
0.0
  0
LINE
  5
1211
330
1F
100
AcDbEntity
  8
4
100
AcDbLine
 10
-9.973479228839863
 20
-5.675726484731539
 30
0.0
 11
0.3487779645289208
 21
-5.675726484731539
 31
0.0
  0
LINE
  5
1212
330
1F
100
AcDbEntity
  8
4
100
AcDbLine
 10
-4.762499999999987
 20
-10.93338015333813
 30
0.0
 11
-4.762499999999987
 21
-0.4611446868246958
 31
0.0
  0
ENDSEC
  0
SECTION
  2
OBJECTS
  0
DICTIONARY
  5
C
330
0
100
AcDbDictionary
281
     1
  3
ACAD_GROUP
350
D
  3
ACAD_LAYOUT
350
1A
  3
ACAD_MLINESTYLE
350
17
  3
ACAD_PLOTSETTINGS
350
19
  3
ACAD_PLOTSTYLENAME
350
E
  3
AcadDim
350
106B
  3
AcDbVariableDictionary
350
2AB
  0
DICTIONARY
  5
287
330
2
100
AcDbDictionary
280
     1
281
     1
  3
ACAD_LAYERSTATES
360
288
  0
DICTIONARY
  5
D
102
{ACAD_REACTORS
330
C
102
}
330
C
100
AcDbDictionary
281
     1
  0
DICTIONARY
  5
1A
102
{ACAD_REACTORS
330
C
102
}
330
C
100
AcDbDictionary
281
     1
  3
Layout1
350
1E
  3
Layout2
350
26
  3
Model
350
22
  0
DICTIONARY
  5
17
102
{ACAD_REACTORS
330
C
102
}
330
C
100
AcDbDictionary
281
     1
  3
Standard
350
18
  0
DICTIONARY
  5
19
102
{ACAD_REACTORS
330
C
102
}
330
C
100
AcDbDictionary
281
     1
  0
ACDBDICTIONARYWDFLT
  5
E
102
{ACAD_REACTORS
330
C
102
}
330
C
100
AcDbDictionary
281
     1
  3
Normal
350
F
100
AcDbDictionaryWithDefault
340
F
  0
XRECORD
  5
106B
102
{ACAD_REACTORS
330
C
102
}
330
C
100
AcDbXrecord
280
     1
 90
   990106
  3

 60
     0
 61
     0
 62
     1
 63
     3
 64
     0
 65
     0
 66
     0
 67
     3
 68
     1
 69
     0
 70
     0
 71
     0
 72
     0
 40
0.0
170
     0
  0
DICTIONARY
  5
2AB
102
{ACAD_REACTORS
330
C
102
}
330
C
100
AcDbDictionary
281
     1
  3
DIMASSOC
350
2AC
  0
DICTIONARY
  5
288
102
{ACAD_REACTORS
330
287
102
}
330
287
100
AcDbDictionary
281
     1
  0
LAYOUT
  5
1E
102
{ACAD_REACTORS
330
1A
102
}
330
1A
100
AcDbPlotSettings
  1

  2

  4

  6

 40
0.0
 41
0.0
 42
0.0
 43
0.0
 44
0.0
 45
0.0
 46
0.0
 47
0.0
 48
0.0
 49
0.0
140
0.0
141
0.0
142
1.0
143
1.0
 70
   688
 72
     0
 73
     0
 74
     5
  7

 75
    16
147
1.0
148
0.0
149
0.0
100
AcDbLayout
  1
Layout1
 70
     1
 71
     1
 10
0.0
 20
0.0
 11
420.0
 21
297.0
 12
0.0
 22
0.0
 32
0.0
 14
1.000000000000000E+20
 24
1.000000000000000E+20
 34
1.000000000000000E+20
 15
-1.000000000000000E+20
 25
-1.000000000000000E+20
 35
-1.000000000000000E+20
146
0.0
 13
0.0
 23
0.0
 33
0.0
 16
1.0
 26
0.0
 36
0.0
 17
0.0
 27
1.0
 37
0.0
 76
     0
330
1B
  0
LAYOUT
  5
26
102
{ACAD_REACTORS
330
1A
102
}
330
1A
100
AcDbPlotSettings
  1

  2

  4

  6

 40
0.0
 41
0.0
 42
0.0
 43
0.0
 44
0.0
 45
0.0
 46
0.0
 47
0.0
 48
0.0
 49
0.0
140
0.0
141
0.0
142
1.0
143
1.0
 70
   688
 72
     0
 73
     0
 74
     5
  7

 75
    16
147
1.0
148
0.0
149
0.0
100
AcDbLayout
  1
Layout2
 70
     1
 71
     2
 10
0.0
 20
0.0
 11
0.0
 21
0.0
 12
0.0
 22
0.0
 32
0.0
 14
0.0
 24
0.0
 34
0.0
 15
0.0
 25
0.0
 35
0.0
146
0.0
 13
0.0
 23
0.0
 33
0.0
 16
1.0
 26
0.0
 36
0.0
 17
0.0
 27
1.0
 37
0.0
 76
     0
330
23
  0
LAYOUT
  5
22
102
{ACAD_REACTORS
330
1A
102
}
330
1A
100
AcDbPlotSettings
  1

  2

  4

  6

 40
0.0
 41
0.0
 42
0.0
 43
0.0
 44
0.0
 45
0.0
 46
0.0
 47
0.0
 48
0.0
 49
0.0
140
0.0
141
0.0
142
1.0
143
1.0
 70
  1712
 72
     0
 73
     0
 74
     0
  7

 75
     0
147
1.0
148
0.0
149
0.0
100
AcDbLayout
  1
Model
 70
     1
 71
     0
 10
0.0
 20
0.0
 11
0.0
 21
0.0
 12
0.0
 22
0.0
 32
0.0
 14
0.0
 24
0.0
 34
0.0
 15
297.0
 25
210.0
 35
0.0
146
0.0
 13
0.0
 23
0.0
 33
0.0
 16
1.0
 26
0.0
 36
0.0
 17
0.0
 27
1.0
 37
0.0
 76
     0
330
1F
  0
MLINESTYLE
  5
18
102
{ACAD_REACTORS
330
17
102
}
330
17
100
AcDbMlineStyle
  2
STANDARD
 70
     0
  3

 62
   256
 51
90.0
 52
90.0
 71
     2
 49
0.5
 62
   256
  6
BYLAYER
 49
-0.5
 62
   256
  6
BYLAYER
  0
ACDBPLACEHOLDER
  5
F
102
{ACAD_REACTORS
330
E
102
}
330
E
  0
DICTIONARYVAR
  5
2AC
102
{ACAD_REACTORS
330
2AB
102
}
330
2AB
100
DictionaryVariables
280
     0
  1
1
  0
ENDSEC
  0
EOF
