  0
SECTION
  2
HEADER
  9
$ACADVER
  1
AC1015
  9
$ACADMAINTVER
 70
     6
  9
$DWGCODEPAGE
  3
ANSI_1252
  9
$INSBASE
 10
0.0
 20
0.0
 30
0.0
  9
$EXTMIN
 10
0.0
 20
0.0
 30
0.0
  9
$EXTMAX
 10
297.0
 20
210.0
 30
0.0
  9
$LIMMIN
 10
0.0
 20
0.0
  9
$LIMMAX
 10
297.0
 20
210.0
  9
$ORTHOMODE
 70
     0
  9
$REGENMODE
 70
     1
  9
$FILLMODE
 70
     1
  9
$QTEXTMODE
 70
     0
  9
$MIRRTEXT
 70
     1
  9
$LTSCALE
 40
1.0
  9
$ATTMODE
 70
     1
  9
$TEXTSIZE
 40
2.0
  9
$TRACEWID
 40
1.0
  9
$TEXTSTYLE
  7
Standard
  9
$CLAYER
  8
0
  9
$CELTYPE
  6
ByLayer
  9
$CECOLOR
 62
   256
  9
$CELTSCALE
 40
1.0
  9
$DISPSILH
 70
     0
  9
$DIMSCALE
 40
1.0
  9
$DIMASZ
 40
3.0
  9
$DIMEXO
 40
0.0
  9
$DIMDLI
 40
3.75
  9
$DIMRND
 40
0.0
  9
$DIMDLE
 40
0.0
  9
$DIMEXE
 40
1.0
  9
$DIMTP
 40
0.0
  9
$DIMTM
 40
0.0
  9
$DIMTXT
 40
2.0
  9
$DIMCEN
 40
2.5
  9
$DIMTSZ
 40
0.0
  9
$DIMTOL
 70
     0
  9
$DIMLIM
 70
     0
  9
$DIMTIH
 70
     1
  9
$DIMTOH
 70
     1
  9
$DIMSE1
 70
     0
  9
$DIMSE2
 70
     0
  9
$DIMTAD
 70
     1
  9
$DIMZIN
 70
     0
  9
$DIMBLK
  1

  9
$DIMASO
 70
     1
  9
$DIMSHO
 70
     1
  9
$DIMPOST
  1

  9
$DIMAPOST
  1

  9
$DIMALT
 70
     0
  9
$DIMALTD
 70
     3
  9
$DIMALTF
 40
0.0393700787
  9
$DIMLFAC
 40
1.0
  9
$DIMTOFL
 70
     1
  9
$DIMTVP
 40
0.0
  9
$DIMTIX
 70
     0
  9
$DIMSOXD
 70
     0
  9
$DIMSAH
 70
     0
  9
$DIMBLK1
  1

  9
$DIMBLK2
  1

  9
$DIMSTYLE
  2
ISO-25
  9
$DIMCLRD
 70
     0
  9
$DIMCLRE
 70
     0
  9
$DIMCLRT
 70
     0
  9
$DIMTFAC
 40
1.0
  9
$DIMGAP
 40
1.524
  9
$DIMJUST
 70
     0
  9
$DIMSD1
 70
     0
  9
$DIMSD2
 70
     0
  9
$DIMTOLJ
 70
     0
  9
$DIMTZIN
 70
     0
  9
$DIMALTZ
 70
     0
  9
$DIMALTTZ
 70
     0
  9
$DIMUPT
 70
     0
  9
$DIMDEC
 70
     2
  9
$DIMTDEC
 70
     3
  9
$DIMALTU
 70
     2
  9
$DIMALTTD
 70
     3
  9
$DIMTXSTY
  7
Standard
  9
$DIMAUNIT
 70
     0
  9
$DIMADEC
 70
     2
  9
$DIMALTRND
 40
0.0
  9
$DIMAZIN
 70
     0
  9
$DIMDSEP
 70
    44
  9
$DIMATFIT
 70
     3
  9
$DIMFRAC
 70
     0
  9
$DIMLDRBLK
  1

  9
$DIMLUNIT
 70
     2
  9
$DIMLWD
 70
    -2
  9
$DIMLWE
 70
    -2
  9
$DIMTMOVE
 70
     0
  9
$LUNITS
 70
     2
  9
$LUPREC
 70
     2
  9
$SKETCHINC
 40
1.0
  9
$FILLETRAD
 40
10.0
  9
$AUNITS
 70
     0
  9
$AUPREC
 70
     2
  9
$MENU
  1
.
  9
$ELEVATION
 40
0.0
  9
$PELEVATION
 40
0.0
  9
$THICKNESS
 40
0.0
  9
$LIMCHECK
 70
     0
  9
$CHAMFERA
 40
0.0
  9
$CHAMFERB
 40
0.0
  9
$CHAMFERC
 40
0.0
  9
$CHAMFERD
 40
0.0
  9
$SKPOLY
 70
     0
  9
$TDCREATE
 40
2457637.439482303
  9
$TDUCREATE
 40
2457637.35614897
  9
$TDUPDATE
 40
2457637.439483495
  9
$TDUUPDATE
 40
2457637.356150162
  9
$TDINDWG
 40
0.0000000116
  9
$TDUSRTIMER
 40
0.0000000116
  9
$USRTIMER
 70
     1
  9
$ANGBASE
 50
0.0
  9
$ANGDIR
 70
     0
  9
$PDMODE
 70
     0
  9
$PDSIZE
 40
-1.0
  9
$PLINEWID
 40
0.0
  9
$SPLFRAME
 70
     0
  9
$SPLINETYPE
 70
     6
  9
$SPLINESEGS
 70
     8
  9
$HANDSEED
  5
371
  9
$SURFTAB1
 70
     6
  9
$SURFTAB2
 70
     6
  9
$SURFTYPE
 70
     6
  9
$SURFU
 70
     6
  9
$SURFV
 70
     6
  9
$UCSBASE
  2

  9
$UCSNAME
  2

  9
$UCSORG
 10
0.0
 20
0.0
 30
0.0
  9
$UCSXDIR
 10
1.0
 20
0.0
 30
0.0
  9
$UCSYDIR
 10
0.0
 20
1.0
 30
0.0
  9
$UCSORTHOREF
  2

  9
$UCSORTHOVIEW
 70
     0
  9
$UCSORGTOP
 10
0.0
 20
0.0
 30
0.0
  9
$UCSORGBOTTOM
 10
0.0
 20
0.0
 30
0.0
  9
$UCSORGLEFT
 10
0.0
 20
0.0
 30
0.0
  9
$UCSORGRIGHT
 10
0.0
 20
0.0
 30
0.0
  9
$UCSORGFRONT
 10
0.0
 20
0.0
 30
0.0
  9
$UCSORGBACK
 10
0.0
 20
0.0
 30
0.0
  9
$PUCSBASE
  2

  9
$PUCSNAME
  2

  9
$PUCSORG
 10
0.0
 20
0.0
 30
0.0
  9
$PUCSXDIR
 10
1.0
 20
0.0
 30
0.0
  9
$PUCSYDIR
 10
0.0
 20
1.0
 30
0.0
  9
$PUCSORTHOREF
  2

  9
$PUCSORTHOVIEW
 70
     0
  9
$PUCSORGTOP
 10
0.0
 20
0.0
 30
0.0
  9
$PUCSORGBOTTOM
 10
0.0
 20
0.0
 30
0.0
  9
$PUCSORGLEFT
 10
0.0
 20
0.0
 30
0.0
  9
$PUCSORGRIGHT
 10
0.0
 20
0.0
 30
0.0
  9
$PUCSORGFRONT
 10
0.0
 20
0.0
 30
0.0
  9
$PUCSORGBACK
 10
0.0
 20
0.0
 30
0.0
  9
$USERI1
 70
     0
  9
$USERI2
 70
     0
  9
$USERI3
 70
     0
  9
$USERI4
 70
     0
  9
$USERI5
 70
     0
  9
$USERR1
 40
0.0
  9
$USERR2
 40
0.0
  9
$USERR3
 40
0.0
  9
$USERR4
 40
0.0
  9
$USERR5
 40
0.0
  9
$WORLDVIEW
 70
     1
  9
$SHADEDGE
 70
     3
  9
$SHADEDIF
 70
    70
  9
$TILEMODE
 70
     1
  9
$MAXACTVP
 70
    64
  9
$PINSBASE
 10
0.0
 20
0.0
 30
0.0
  9
$PLIMCHECK
 70
     0
  9
$PEXTMIN
 10
1.0000000000E+20
 20
1.0000000000E+20
 30
1.0000000000E+20
  9
$PEXTMAX
 10
-1.0000000000E+20
 20
-1.0000000000E+20
 30
-1.0000000000E+20
  9
$PLIMMIN
 10
0.0
 20
0.0
  9
$PLIMMAX
 10
420.0
 20
297.0
  9
$UNITMODE
 70
     0
  9
$VISRETAIN
 70
     1
  9
$PLINEGEN
 70
     0
  9
$PSLTSCALE
 70
     1
  9
$TREEDEPTH
 70
  3020
  9
$CMLSTYLE
  2
Standard
  9
$CMLJUST
 70
     0
  9
$CMLSCALE
 40
20.0
  9
$PROXYGRAPHICS
 70
     1
  9
$MEASUREMENT
 70
     1
  9
$CELWEIGHT
370
    -1
  9
$ENDCAPS
280
     0
  9
$JOINSTYLE
280
     0
  9
$LWDISPLAY
290
     1
  9
$INSUNITS
 70
     4
  9
$HYPERLINKBASE
  1

  9
$STYLESHEET
  1

  9
$XEDIT
290
     1
  9
$CEPSNTYPE
380
     0
  9
$PSTYLEMODE
290
     1
  9
$FINGERPRINTGUID
  2
{DDAA941C-4A46-46F7-83B5-0E7CAD223420}
  9
$VERSIONGUID
  2
{FAEB1C32-E019-11D5-929B-00C0DF256EC4}
  9
$EXTNAMES
290
     1
  9
$PSVPSCALE
 40
0.0
  9
$OLESTARTUP
290
     0
  0
ENDSEC
  0
SECTION
  2
CLASSES
  0
CLASS
  1
ACDBDICTIONARYWDFLT
  2
AcDbDictionaryWithDefault
  3
ObjectDBX Classes
 90
        0
280
     0
281
     0
  0
CLASS
  1
VISUALSTYLE
  2
AcDbVisualStyle
  3
ObjectDBX Classes
 90
     4095
280
     0
281
     0
  0
CLASS
  1
MATERIAL
  2
AcDbMaterial
  3
ObjectDBX Classes
 90
     1153
280
     0
281
     0
  0
CLASS
  1
SCALE
  2
AcDbScale
  3
ObjectDBX Classes
 90
     1153
280
     0
281
     0
  0
CLASS
  1
TABLESTYLE
  2
AcDbTableStyle
  3
ObjectDBX Classes
 90
     4095
280
     0
281
     0
  0
CLASS
  1
MLEADERSTYLE
  2
AcDbMLeaderStyle
  3
ACDB_MLEADERSTYLE_CLASS
 90
     4095
280
     0
281
     0
  0
CLASS
  1
SUN
  2
AcDbSun
  3
SCENEOE
 90
     1153
280
     0
281
     0
  0
CLASS
  1
ACDBPLACEHOLDER
  2
AcDbPlaceHolder
  3
ObjectDBX Classes
 90
        0
280
     0
281
     0
  0
CLASS
  1
LAYOUT
  2
AcDbLayout
  3
ObjectDBX Classes
 90
        0
280
     0
281
     0
  0
ENDSEC
  0
SECTION
  2
TABLES
  0
TABLE
  2
VPORT
  5
8
330
0
100
AcDbSymbolTable
 70
     1
  0
VPORT
  5
29
330
8
100
AcDbSymbolTableRecord
100
AcDbViewportTableRecord
  2
*Active
 70
     0
 10
0.0
 20
0.0
 11
1.0
 21
1.0
 12
148.5
 22
105.0
 13
0.0
 23
0.0
 14
10.0
 24
10.0
 15
10.0
 25
10.0
 16
0.0
 26
0.0
 36
1.0
 17
0.0
 27
0.0
 37
0.0
 40
210.0
 41
1.4142857143
 42
50.0
 43
0.0
 44
0.0
 50
0.0
 51
0.0
 71
     0
 72
  2000
 73
     1
 74
     3
 75
     0
 76
     0
 77
     0
 78
     0
281
     0
 65
     1
110
0.0
120
0.0
130
0.0
111
1.0
121
0.0
131
0.0
112
0.0
122
1.0
132
0.0
 79
     0
146
0.0
  0
ENDTAB
  0
TABLE
  2
LTYPE
  5
5
330
0
100
AcDbSymbolTable
 70
     6
  0
LTYPE
  5
14
330
5
100
AcDbSymbolTableRecord
100
AcDbLinetypeTableRecord
  2
ByBlock
 70
     0
  3

 72
    65
 73
     0
 40
0.0
  0
LTYPE
  5
15
330
5
100
AcDbSymbolTableRecord
100
AcDbLinetypeTableRecord
  2
ByLayer
 70
     0
  3

 72
    65
 73
     0
 40
0.0
  0
LTYPE
  5
16
330
5
100
AcDbSymbolTableRecord
100
AcDbLinetypeTableRecord
  2
Continuous
 70
     0
  3
Solid line
 72
    65
 73
     0
 40
0.0
  0
LTYPE
  5
6E
330
5
100
AcDbSymbolTableRecord
100
AcDbLinetypeTableRecord
  2
HIDDEN
 70
     0
  3
Hidden __ __ __ __ __ __ __ __ __ __ __ __ __ __
 72
    65
 73
     2
 40
1.905
 49
1.27
 74
     0
 49
-0.635
 74
     0
  0
LTYPE
  5
6F
330
5
100
AcDbSymbolTableRecord
100
AcDbLinetypeTableRecord
  2
PHANTOM
 70
     0
  3
Phantom ______  __  __  ______  __  __  ______
 72
    65
 73
     6
 40
12.7
 49
6.35
 74
     0
 49
-1.27
 74
     0
 49
1.27
 74
     0
 49
-1.27
 74
     0
 49
1.27
 74
     0
 49
-1.27
 74
     0
  0
LTYPE
  5
70
330
5
100
AcDbSymbolTableRecord
100
AcDbLinetypeTableRecord
  2
CENTER
 70
     0
  3
Center ____ _ ____ _ ____ _ ____ _ ____ _ ____
 72
    65
 73
     4
 40
10.16
 49
6.35
 74
     0
 49
-1.27
 74
     0
 49
1.27
 74
     0
 49
-1.27
 74
     0
  0
LTYPE
  5
71
330
5
100
AcDbSymbolTableRecord
100
AcDbLinetypeTableRecord
  2
CENTERX2
 70
     0
  3
Center (2x) ________  __  ________  __  _____
 72
    65
 73
     4
 40
20.32
 49
12.7
 74
     0
 49
-2.54
 74
     0
 49
2.54
 74
     0
 49
-2.54
 74
     0
  0
LTYPE
  5
72
330
5
100
AcDbSymbolTableRecord
100
AcDbLinetypeTableRecord
  2
DOT2
 70
     0
  3
Dot (.5x) ........................................
 72
    65
 73
     2
 40
0.635
 49
0.0
 74
     0
 49
-0.635
 74
     0
  0
ENDTAB
  0
TABLE
  2
LAYER
  5
2
330
0
100
AcDbSymbolTable
 70
     5
  0
LAYER
  5
10
330
2
100
AcDbSymbolTableRecord
100
AcDbLayerTableRecord
  2
0
 70
     0
 62
     7
  6
Continuous
370
    -3
390
F
  0
LAYER
  5
73
330
2
100
AcDbSymbolTableRecord
100
AcDbLayerTableRecord
  2
FORMAT
 70
     0
 62
     7
  6
Continuous
370
    -3
390
F
  0
LAYER
  5
74
330
2
100
AcDbSymbolTableRecord
100
AcDbLayerTableRecord
  2
VERMASSUNG
 70
     0
 62
     7
  6
Continuous
370
    -3
390
F
  0
LAYER
  5
75
330
2
100
AcDbSymbolTableRecord
100
AcDbLayerTableRecord
  2
KOPF_DÜNN
 70
     0
 62
     7
  6
Continuous
370
    -3
390
F
  0
LAYER
  5
76
330
2
100
AcDbSymbolTableRecord
100
AcDbLayerTableRecord
  2
KOPF_DICK
 70
     0
 62
     7
  6
Continuous
370
    15
390
F
  0
ENDTAB
  0
TABLE
  2
STYLE
  5
3
330
0
100
AcDbSymbolTable
 70
     2
  0
STYLE
  5
11
330
3
100
AcDbSymbolTableRecord
100
AcDbTextStyleTableRecord
  2
Standard
 70
     0
 40
0.0
 41
1.0
 50
0.0
 71
     0
 42
2.0
  3
txt
  4

  0
STYLE
  5
77
330
3
100
AcDbSymbolTableRecord
100
AcDbTextStyleTableRecord
  2
SLDTEXTSTYLE0
 70
     0
 40
0.0
 41
0.7
 50
0.0
 71
     0
 42
2.0
  3
TXT
  4

  0
ENDTAB
  0
TABLE
  2
VIEW
  5
6
330
0
100
AcDbSymbolTable
 70
     0
  0
ENDTAB
  0
TABLE
  2
UCS
  5
7
330
0
100
AcDbSymbolTable
 70
     0
  0
ENDTAB
  0
TABLE
  2
APPID
  5
9
330
0
100
AcDbSymbolTable
 70
     1
  0
APPID
  5
12
330
9
100
AcDbSymbolTableRecord
100
AcDbRegAppTableRecord
  2
ACAD
 70
     0
  0
ENDTAB
  0
TABLE
  2
DIMSTYLE
  5
A
330
0
100
AcDbSymbolTable
 70
     3
100
AcDbDimStyleTable
  0
DIMSTYLE
105
27
330
A
100
AcDbSymbolTableRecord
100
AcDbDimStyleTableRecord
  2
ISO-25
 70
     0
 41
2.5
 42
0.625
 43
3.75
 44
1.25
 73
     0
 74
     0
 77
     1
 78
     8
140
2.5
141
2.5
143
0.0393700787
147
0.625
171
     3
172
     1
178
     0
271
     2
272
     2
274
     3
278
    44
283
     0
284
     8
340
11
  0
DIMSTYLE
105
32E
102
{ACAD_REACTORS
330
32D
330
33A
330
351
102
}
330
A
100
AcDbSymbolTableRecord
100
AcDbDimStyleTableRecord
  2
SLDDIMSTYLE0
 70
     0
 41
3.0
 44
0.0
 45
0.000000001
 73
     0
 74
     0
 77
     1
 78
    12
 79
     3
140
2.0
147
0.5
173
     1
178
     0
271
     2
272
     3
276
     2
284
    12
340
77
  0
DIMSTYLE
105
345
102
{ACAD_REACTORS
330
344
102
}
330
A
100
AcDbSymbolTableRecord
100
AcDbDimStyleTableRecord
  2
SLDDIMSTYLE1
 70
     0
 41
3.0
 44
0.0
 45
0.000000001
 73
     0
 74
     0
 77
     1
 78
    12
 79
     3
140
2.0
147
0.5
173
     1
178
     0
271
     2
272
     3
276
     2
284
    12
340
77
  0
ENDTAB
  0
TABLE
  2
BLOCK_RECORD
  5
1
330
0
100
AcDbSymbolTable
 70
     6
  0
BLOCK_RECORD
  5
1F
330
1
100
AcDbSymbolTableRecord
100
AcDbBlockTableRecord
  2
*Model_Space
340
22
  0
BLOCK_RECORD
  5
1B
330
1
100
AcDbSymbolTableRecord
100
AcDbBlockTableRecord
  2
*Paper_Space
340
1E
  0
BLOCK_RECORD
  5
23
330
1
100
AcDbSymbolTableRecord
100
AcDbBlockTableRecord
  2
*Paper_Space0
340
26
  0
BLOCK_RECORD
  5
32F
330
1
100
AcDbSymbolTableRecord
100
AcDbBlockTableRecord
  2
_D
340
0
  0
BLOCK_RECORD
  5
33B
330
1
100
AcDbSymbolTableRecord
100
AcDbBlockTableRecord
  2
_D_1
340
0
  0
BLOCK_RECORD
  5
346
330
1
100
AcDbSymbolTableRecord
100
AcDbBlockTableRecord
  2
_D_2
340
0
  0
BLOCK_RECORD
  5
352
330
1
100
AcDbSymbolTableRecord
100
AcDbBlockTableRecord
  2
_D_3
340
0
  0
BLOCK_RECORD
  5
35D
330
1
100
AcDbSymbolTableRecord
100
AcDbBlockTableRecord
  2
SW_CENTERMARKSYMBOL_0
340
0
102
{BLKREFS
331
368
102
}
  0
ENDTAB
  0
ENDSEC
  0
SECTION
  2
BLOCKS
  0
BLOCK
  5
20
330
1F
100
AcDbEntity
  8
0
100
AcDbBlockBegin
  2
*Model_Space
 70
     0
 10
0.0
 20
0.0
 30
0.0
  3
*Model_Space
  1

  0
ENDBLK
  5
21
330
1F
100
AcDbEntity
  8
0
100
AcDbBlockEnd
  0
BLOCK
  5
1C
330
1B
100
AcDbEntity
 67
     1
  8
0
100
AcDbBlockBegin
  2
*Paper_Space
 70
     0
 10
0.0
 20
0.0
 30
0.0
  3
*Paper_Space
  1

  0
ENDBLK
  5
1D
330
1B
100
AcDbEntity
 67
     1
  8
0
100
AcDbBlockEnd
  0
BLOCK
  5
24
330
23
100
AcDbEntity
  8
0
100
AcDbBlockBegin
  2
*Paper_Space0
 70
     0
 10
0.0
 20
0.0
 30
0.0
  3
*Paper_Space0
  1

  0
ENDBLK
  5
25
330
23
100
AcDbEntity
  8
0
100
AcDbBlockEnd
  0
BLOCK
  5
330
330
32F
100
AcDbEntity
  8
0
100
AcDbBlockBegin
  2
_D
 70
     0
 10
0.0
 20
0.0
 30
0.0
  3
_D
  1

  0
ARC
  5
332
330
32F
100
AcDbEntity
  8
VERMASSUNG
100
AcDbCircle
 10
149.6520845098
 20
146.5533818083
 30
0.0
 40
4.248262374909279
100
AcDbArc
 50
153.4349488229
 51
206.5650511771
  0
ARC
  5
333
330
32F
100
AcDbEntity
  8
VERMASSUNG
100
AcDbCircle
 10
148.6260514296
 20
146.5533818083
 30
0.0
 40
4.248262374909254
100
AcDbArc
 50
333.4349488229
 51
26.5650511771
  0
SOLID
  5
334
330
32F
100
AcDbEntity
  8
VERMASSUNG
100
AcDbTrace
 10
204.1390679697
 20
144.653501117
 30
0.0
 11
201.1390679697
 21
145.103501117
 31
0.0
 12
201.1390679697
 22
144.203501117
 32
0.0
 13
201.1390679697
 23
144.203501117
 33
0.0
  0
SOLID
  5
335
330
32F
100
AcDbEntity
  8
VERMASSUNG
100
AcDbTrace
 10
94.1390679697
 20
144.653501117
 30
0.0
 11
97.1390679697
 21
144.203501117
 31
0.0
 12
97.1390679697
 22
145.103501117
 32
0.0
 13
97.1390679697
 23
145.103501117
 33
0.0
  0
LINE
  5
336
330
32F
100
AcDbEntity
  8
VERMASSUNG
100
AcDbLine
 10
204.1390679697
 20
134.6499507571
 30
0.0
 11
204.1390679697
 21
145.653501117
 31
0.0
  0
LINE
  5
337
330
32F
100
AcDbEntity
  8
VERMASSUNG
100
AcDbLine
 10
94.1390679697
 20
111.3117629168
 30
0.0
 11
94.1390679697
 21
145.653501117
 31
0.0
  0
LINE
  5
338
330
32F
100
AcDbEntity
  8
VERMASSUNG
100
AcDbLine
 10
204.1390679697
 20
144.653501117
 30
0.0
 11
94.1390679697
 21
144.653501117
 31
0.0
  0
MTEXT
  5
339
330
32F
100
AcDbEntity
  8
VERMASSUNG
100
AcDbMText
 10
147.4398231272
 20
147.2316367129
 30
0.0
 40
2.0
 41
0.0
 71
     1
 72
     1
  1
110
  7
SLDTEXTSTYLE0
 73
     1
 44
1.0
  0
ENDBLK
  5
331
330
32F
100
AcDbEntity
  8
0
100
AcDbBlockEnd
  0
BLOCK
  5
33C
330
33B
100
AcDbEntity
  8
0
100
AcDbBlockBegin
  2
_D_1
 70
     0
 10
0.0
 20
0.0
 30
0.0
  3
_D_1
  1

  0
SOLID
  5
33E
330
33B
100
AcDbEntity
  8
VERMASSUNG
100
AcDbTrace
 10
204.1390679697
 20
138.653501117
 30
0.0
 11
201.1390679697
 21
139.103501117
 31
0.0
 12
201.1390679697
 22
138.203501117
 32
0.0
 13
201.1390679697
 23
138.203501117
 33
0.0
  0
SOLID
  5
33F
330
33B
100
AcDbEntity
  8
VERMASSUNG
100
AcDbTrace
 10
124.1390679697
 20
138.653501117
 30
0.0
 11
127.1390679697
 21
138.203501117
 31
0.0
 12
127.1390679697
 22
139.103501117
 32
0.0
 13
127.1390679697
 23
139.103501117
 33
0.0
  0
LINE
  5
340
330
33B
100
AcDbEntity
  8
VERMASSUNG
100
AcDbLine
 10
204.1390679697
 20
134.6499507571
 30
0.0
 11
204.1390679697
 21
139.653501117
 31
0.0
  0
LINE
  5
341
330
33B
100
AcDbEntity
  8
VERMASSUNG
100
AcDbLine
 10
124.1390679697
 20
124.4117629168
 30
0.0
 11
124.1390679697
 21
139.653501117
 31
0.0
  0
LINE
  5
342
330
33B
100
AcDbEntity
  8
VERMASSUNG
100
AcDbLine
 10
204.1390679697
 20
138.653501117
 30
0.0
 11
124.1390679697
 21
138.653501117
 31
0.0
  0
MTEXT
  5
343
330
33B
100
AcDbEntity
  8
VERMASSUNG
100
AcDbMText
 10
162.7398969187
 20
141.2316367129
 30
0.0
 40
2.0
 41
0.0
 71
     1
 72
     1
  1
80
  7
SLDTEXTSTYLE0
 73
     1
 44
1.0
  0
ENDBLK
  5
33D
330
33B
100
AcDbEntity
  8
0
100
AcDbBlockEnd
  0
BLOCK
  5
347
330
346
100
AcDbEntity
  8
0
100
AcDbBlockBegin
  2
_D_2
 70
     0
 10
0.0
 20
0.0
 30
0.0
  3
_D_2
  1

  0
SOLID
  5
349
330
346
100
AcDbEntity
  8
VERMASSUNG
100
AcDbTrace
 10
216.3510984251
 20
134.6499507571
 30
0.0
 11
215.9010984251
 21
131.6499507571
 31
0.0
 12
216.8010984251
 22
131.6499507571
 32
0.0
 13
216.8010984251
 23
131.6499507571
 33
0.0
  0
LINE
  5
34A
330
346
100
AcDbEntity
  8
VERMASSUNG
100
AcDbLine
 10
204.1390679697
 20
134.6499507571
 30
0.0
 11
217.3510984251
 21
134.6499507571
 31
0.0
  0
LINE
  5
34B
330
346
100
AcDbEntity
  8
VERMASSUNG
100
AcDbLine
 10
216.3510984251
 20
134.6499507571
 30
0.0
 11
216.3510984251
 21
105.278101574
 31
0.0
  0
MTEXT
  5
34C
330
346
100
AcDbEntity
  8
VERMASSUNG
100
AcDbMText
 10
209.7743256195
 20
107.4657491569
 30
0.0
 40
2.0
 41
0.0
 71
     1
 72
     1
  1
%%c
  7
SLDTEXTSTYLE0
 11
-7.044195017643634E-15
 21
1.0
 31
0.0
 73
     1
 44
1.0
  0
MTEXT
  5
34D
330
346
100
AcDbEntity
  8
VERMASSUNG
100
AcDbMText
 10
209.7743255613
 20
111.0754344722
 30
0.0
 40
2.0
 41
0.0
 71
     1
 72
     1
  1
66.9
  7
SLDTEXTSTYLE0
 11
-7.044195017643634E-15
 21
1.0
 31
0.0
 73
     1
 44
1.0
  0
MTEXT
  5
34E
330
346
100
AcDbEntity
  8
VERMASSUNG
100
AcDbMText
 10
209.7743255613
 20
115.8748551718
 30
0.0
 40
2.0
 41
0.0
 71
     1
 72
     1
  1
-87.1
  7
SLDTEXTSTYLE0
 11
-7.044195017643634E-15
 21
1.0
 31
0.0
 73
     1
 44
1.0
  0
MTEXT
  5
34F
330
346
100
AcDbEntity
  8
VERMASSUNG
100
AcDbMText
 10
213.7729631202
 20
107.262476574
 30
0.0
 40
2.0
 41
0.0
 71
     1
 72
     1
  1
%%c
  7
SLDTEXTSTYLE0
 11
-7.044195017643634E-15
 21
1.0
 31
0.0
 73
     1
 44
1.0
  0
MTEXT
  5
350
330
346
100
AcDbEntity
  8
VERMASSUNG
100
AcDbMText
 10
213.5729631689
 20
110.8724765883
 30
0.0
 40
2.0
 41
0.0
 71
     1
 72
     1
  1
84.9-105.1
  7
SLDTEXTSTYLE0
 11
-7.044195017643634E-15
 21
1.0
 31
0.0
 73
     1
 44
1.0
  0
ENDBLK
  5
348
330
346
100
AcDbEntity
  8
0
100
AcDbBlockEnd
  0
BLOCK
  5
353
330
352
100
AcDbEntity
  8
0
100
AcDbBlockBegin
  2
_D_3
 70
     0
 10
0.0
 20
0.0
 30
0.0
  3
_D_3
  1

  0
SOLID
  5
355
330
352
100
AcDbEntity
  8
VERMASSUNG
100
AcDbTrace
 10
87.4444757765
 20
126.9117629168
 30
0.0
 11
86.9944757765
 21
123.9117629168
 31
0.0
 12
87.8944757765
 22
123.9117629168
 32
0.0
 13
87.8944757765
 23
123.9117629168
 33
0.0
  0
SOLID
  5
356
330
352
100
AcDbEntity
  8
VERMASSUNG
100
AcDbTrace
 10
87.4444757765
 20
71.9117629168
 30
0.0
 11
87.8944757765
 21
74.9117629168
 31
0.0
 12
86.9944757765
 22
74.9117629168
 32
0.0
 13
86.9944757765
 23
74.9117629168
 33
0.0
  0
LINE
  5
357
330
352
100
AcDbEntity
  8
VERMASSUNG
100
AcDbLine
 10
126.1597939119
 20
126.9117629168
 30
0.0
 11
86.4444757765
 21
126.9117629168
 31
0.0
  0
LINE
  5
358
330
352
100
AcDbEntity
  8
VERMASSUNG
100
AcDbLine
 10
126.1597939119
 20
71.9117629168
 30
0.0
 11
86.4444757765
 21
71.9117629168
 31
0.0
  0
LINE
  5
359
330
352
100
AcDbEntity
  8
VERMASSUNG
100
AcDbLine
 10
87.4444757765
 20
126.9117629168
 30
0.0
 11
87.4444757765
 21
71.9117629168
 31
0.0
  0
MTEXT
  5
35A
330
352
100
AcDbEntity
  8
VERMASSUNG
100
AcDbMText
 10
84.6663405203
 20
93.3082091999
 30
0.0
 40
2.0
 41
0.0
 71
     1
 72
     1
  1
ST5
  7
SLDTEXTSTYLE0
 11
-7.044195017643634E-15
 21
1.0
 31
0.0
 73
     1
 44
1.0
  0
MTEXT
  5
35B
330
352
100
AcDbEntity
  8
VERMASSUNG
100
AcDbMText
 10
84.8663404715
 20
99.1082091261
 30
0.0
 40
2.0
 41
0.0
 71
     1
 72
     1
  1
%%c
  7
SLDTEXTSTYLE0
 11
-7.044195017643634E-15
 21
1.0
 31
0.0
 73
     1
 44
1.0
  0
MTEXT
  5
35C
330
352
100
AcDbEntity
  8
VERMASSUNG
100
AcDbMText
 10
84.8663401805
 20
102.7169745317
 30
0.0
 40
2.0
 41
0.0
 71
     1
 72
     1
  1
55
  7
SLDTEXTSTYLE0
 11
-7.044195017643634E-15
 21
1.0
 31
0.0
 73
     1
 44
1.0
  0
ENDBLK
  5
354
330
352
100
AcDbEntity
  8
0
100
AcDbBlockEnd
  0
BLOCK
  5
35E
330
35D
100
AcDbEntity
  8
0
100
AcDbBlockBegin
  2
SW_CENTERMARKSYMBOL_0
 70
     0
 10
0.0
 20
0.0
 30
0.0
  3
SW_CENTERMARKSYMBOL_0
  1

  0
LINE
  5
360
330
35D
100
AcDbEntity
  8
VERMASSUNG
 62
     0
100
AcDbLine
 10
0.0
 20
0.0
 30
0.0
 11
0.0
 21
2.5
 31
0.0
  0
LINE
  5
361
330
35D
100
AcDbEntity
  8
VERMASSUNG
 62
     0
100
AcDbLine
 10
0.0
 20
0.0
 30
0.0
 11
-2.5
 21
0.0
 31
0.0
  0
LINE
  5
362
330
35D
100
AcDbEntity
  8
VERMASSUNG
 62
     0
100
AcDbLine
 10
0.0
 20
0.0
 30
0.0
 11
0.0
 21
-2.5
 31
0.0
  0
LINE
  5
363
330
35D
100
AcDbEntity
  8
VERMASSUNG
 62
     0
100
AcDbLine
 10
0.0
 20
0.0
 30
0.0
 11
2.5
 21
0.0
 31
0.0
  0
LINE
  5
364
330
35D
100
AcDbEntity
  8
VERMASSUNG
 62
     0
100
AcDbLine
 10
0.0
 20
5.0
 30
0.0
 11
0.0
 21
33.4657365247
 31
0.0
  0
LINE
  5
365
330
35D
100
AcDbEntity
  8
VERMASSUNG
 62
     0
100
AcDbLine
 10
-5.0
 20
0.0
 30
0.0
 11
-84.3543565247
 21
0.0
 31
0.0
  0
LINE
  5
366
330
35D
100
AcDbEntity
  8
VERMASSUNG
 62
     0
100
AcDbLine
 10
0.0
 20
-5.0
 30
0.0
 11
0.0
 21
-26.5309911552
 31
0.0
  0
LINE
  5
367
330
35D
100
AcDbEntity
  8
VERMASSUNG
 62
     0
100
AcDbLine
 10
5.0
 20
0.0
 30
0.0
 11
22.970467094
 21
0.0
 31
0.0
  0
ENDBLK
  5
35F
330
35D
100
AcDbEntity
  8
0
100
AcDbBlockEnd
  0
ENDSEC
  0
SECTION
  2
ENTITIES
  0
MTEXT
  5
78
330
1F
100
AcDbEntity
  8
KOPF_DÜNN
100
AcDbMText
 10
13.8892156294
 20
23.8442973028
 30
0.0
 40
3.0
 41
0.0
 71
     1
 72
     1
  1
304.050.067.080 + 314.030.067.009
  7
SLDTEXTSTYLE0
 73
     1
 44
1.0
  0
MTEXT
  5
79
330
1F
100
AcDbEntity
  8
VERMASSUNG
100
AcDbMText
 10
13.9329988022
 20
28.8834360957
 30
0.0
 40
3.0
 41
0.0
 71
     1
 72
     1
  1
Feinbohrkopf_Fine boring head
  7
SLDTEXTSTYLE0
 73
     1
 44
1.0
  0
MTEXT
  5
7A
330
1F
100
AcDbEntity
  8
VERMASSUNG
100
AcDbMText
 10
98.8601118557
 20
13.8365368761
 30
0.0
 40
2.0
 41
0.0
 71
     1
 72
     1
  1
Datum: 30.06.2008
  7
SLDTEXTSTYLE0
 73
     1
 44
1.0
  0
MTEXT
  5
7B
330
1F
100
AcDbEntity
  8
VERMASSUNG
100
AcDbMText
 10
13.933048693
 20
18.0482802738
 30
0.0
 40
2.0
 41
0.0
 71
     1
 72
     1
  1
ST5
  7
SLDTEXTSTYLE0
 73
     1
 44
1.0
  0
MTEXT
  5
7C
330
1F
100
AcDbEntity
  8
VERMASSUNG
100
AcDbMText
 10
13.9808475933
 20
13.9090974274
 30
0.0
 40
2.0
 41
0.0
 71
     1
 72
     1
  1
Gewicht: 1425g
  7
SLDTEXTSTYLE0
 73
     1
 44
1.0
  0
LINE
  5
7D
330
1F
100
AcDbEntity
  8
0
  6
Continuous
 62
     7
370
    15
100
AcDbLine
 10
162.6390679697
 20
121.3665582385
 30
0.0
 11
162.6390679697
 21
119.1969315984
 31
0.0
  0
LINE
  5
7E
330
1F
100
AcDbEntity
  8
0
  6
Continuous
 62
     7
370
    15
100
AcDbLine
 10
192.6390679697
 20
114.4453983887
 30
0.0
 11
192.6390679697
 21
115.2695291462
 31
0.0
  0
LINE
  5
7F
330
1F
100
AcDbEntity
  8
0
  6
Continuous
 62
     7
370
    15
100
AcDbLine
 10
169.6390679697
 20
131.5265582385
 30
0.0
 11
169.6390679697
 21
129.8665582385
 31
0.0
  0
LINE
  5
80
330
1F
100
AcDbEntity
  8
0
  6
Continuous
 62
     7
370
    15
100
AcDbLine
 10
185.6390679697
 20
129.8665582385
 30
0.0
 11
185.6390679697
 21
131.5265582385
 31
0.0
  0
ARC
  5
81
330
1F
100
AcDbEntity
  8
0
  6
Continuous
 62
     7
370
    15
100
AcDbCircle
 10
173.426290861
 20
130.2393353472
 30
0.0
 40
4.000000000000025
100
AcDbArc
 50
108.7721625519
 51
161.2278374481
  0
ARC
  5
82
330
1F
100
AcDbEntity
  8
0
  6
Continuous
 62
     7
370
    15
100
AcDbCircle
 10
181.8518450784
 20
130.2393353472
 30
0.0
 40
4.000000000000007
100
AcDbArc
 50
18.7721625519
 51
71.2278374481
  0
LINE
  5
83
330
1F
100
AcDbEntity
  8
0
  6
Continuous
 62
     7
370
    15
100
AcDbLine
 10
201.4383363009
 20
128.5018551571
 30
0.0
 11
201.4383363009
 21
128.471798581
 31
0.0
  0
LINE
  5
84
330
1F
100
AcDbEntity
  8
0
  6
Continuous
 62
     7
370
    15
100
AcDbLine
 10
200.2541378198
 20
128.590435902
 30
0.0
 11
200.2541378198
 21
128.6203055367
 31
0.0
  0
LINE
  5
85
330
1F
100
AcDbEntity
  8
0
  6
Continuous
 62
     7
370
    15
100
AcDbLine
 10
201.5068733411
 20
129.6009650015
 30
0.0
 11
201.5068733411
 21
129.5710953668
 31
0.0
  0
LINE
  5
86
330
1F
100
AcDbEntity
  8
0
  6
Continuous
 62
     7
370
    15
100
AcDbLine
 10
200.32267486
 20
129.6897326878
 30
0.0
 11
200.32267486
 21
129.719789264
 31
0.0
  0
LINE
  5
87
330
1F
100
AcDbEntity
  8
0
  6
Continuous
 62
     7
370
    15
100
AcDbLine
 10
199.1805055804
 20
129.1043226723
 30
0.0
 11
199.1805055804
 21
129.0807656344
 31
0.0
  0
LINE
  5
88
330
1F
100
AcDbEntity
  8
0
  6
Continuous
 62
     7
370
    15
100
AcDbLine
 10
202.5805055804
 20
129.0807656344
 30
0.0
 11
202.5805055804
 21
129.1043226723
 31
0.0
  0
LINE
  5
89
330
1F
100
AcDbEntity
  8
0
  6
Continuous
 62
     7
370
    15
100
AcDbLine
 10
166.7390679697
 20
129.8665582385
 30
0.0
 11
162.2390679697
 21
125.3665582385
 31
0.0
  0
LINE
  5
8A
330
1F
100
AcDbEntity
  8
0
  6
Continuous
 62
     7
370
    15
100
AcDbLine
 10
162.2390679697
 20
125.3665582385
 30
0.0
 11
162.2390679697
 21
121.3665582385
 31
0.0
  0
LINE
  5
8B
330
1F
100
AcDbEntity
  8
0
  6
Continuous
 62
     7
370
    15
100
AcDbLine
 10
124.1390679697
 20
118.8117629168
 30
0.0
 11
120.4390679697
 21
118.8117629168
 31
0.0
  0
LINE
  5
8C
330
1F
100
AcDbEntity
  8
0
  6
Continuous
 62
     7
370
    15
100
AcDbLine
 10
120.4390679697
 20
118.8117629168
 30
0.0
 11
120.1390679697
 21
118.5117629168
 31
0.0
  0
LINE
  5
8D
330
1F
100
AcDbEntity
  8
0
  6
Continuous
 62
     7
370
    15
100
AcDbLine
 10
120.1390679697
 20
113.2841998916
 30
0.0
 11
120.4390679697
 21
112.9841998916
 31
0.0
  0
LINE
  5
8E
330
1F
100
AcDbEntity
  8
0
  6
Continuous
 62
     7
370
    15
100
AcDbLine
 10
120.4390679697
 20
112.9841998916
 30
0.0
 11
124.1390679697
 21
112.9841998916
 31
0.0
  0
LINE
  5
8F
330
1F
100
AcDbEntity
  8
0
  6
Continuous
 62
     7
370
    15
100
AcDbLine
 10
120.4390679697
 20
80.0117629168
 30
0.0
 11
124.1390679697
 21
80.0117629168
 31
0.0
  0
LINE
  5
90
330
1F
100
AcDbEntity
  8
0
  6
Continuous
 62
     7
370
    15
100
AcDbLine
 10
120.1390679697
 20
80.3117629168
 30
0.0
 11
120.4390679697
 21
80.0117629168
 31
0.0
  0
LINE
  5
91
330
1F
100
AcDbEntity
  8
0
  6
Continuous
 62
     7
370
    15
100
AcDbLine
 10
124.1390679697
 20
85.839325942
 30
0.0
 11
120.4390679697
 21
85.839325942
 31
0.0
  0
LINE
  5
92
330
1F
100
AcDbEntity
  8
0
  6
Continuous
 62
     7
370
    15
100
AcDbLine
 10
120.4390679697
 20
85.839325942
 30
0.0
 11
120.1390679697
 21
85.539325942
 31
0.0
  0
LINE
  5
93
330
1F
100
AcDbEntity
  8
0
  6
Continuous
 62
     7
370
    15
100
AcDbLine
 10
162.6890679697
 20
76.7617629168
 30
0.0
 11
162.6890679697
 21
76.7361060956
 31
0.0
  0
LINE
  5
94
330
1F
100
AcDbEntity
  8
0
  6
Continuous
 62
     7
370
    15
100
AcDbLine
 10
192.5890679697
 20
76.7361060956
 30
0.0
 11
192.5890679697
 21
76.7617629168
 31
0.0
  0
LINE
  5
95
330
1F
100
AcDbEntity
  8
0
  6
Continuous
 62
     7
370
    15
100
AcDbLine
 10
167.6890885064
 20
75.2260841571
 30
0.0
 11
171.2390679697
 21
74.1465582385
 31
0.0
  0
LINE
  5
96
330
1F
100
AcDbEntity
  8
0
  6
Continuous
 62
     7
370
    15
100
AcDbLine
 10
187.1806220261
 20
75.1018846182
 30
0.0
 11
187.5890690184
 21
75.2260907211
 31
0.0
  0
LINE
  5
97
330
1F
100
AcDbEntity
  8
0
  6
Continuous
 62
     7
370
    15
100
AcDbLine
 10
184.0390679697
 20
74.1465582385
 30
0.0
 11
184.616519515
 21
74.3221575388
 31
0.0
  0
LINE
  5
98
330
1F
100
AcDbEntity
  8
0
  6
Continuous
 62
     7
370
    15
100
AcDbLine
 10
172.6768779423
 20
74.4360143832
 30
0.0
 11
172.6768779423
 21
74.4453282275
 31
0.0
  0
LINE
  5
99
330
1F
100
AcDbEntity
  8
0
  6
Continuous
 62
     7
370
    15
100
AcDbLine
 10
186.6685806409
 20
74.9361761268
 30
0.0
 11
187.1792286344
 21
75.0914608967
 31
0.0
  0
LINE
  5
9A
330
1F
100
AcDbEntity
  8
0
  6
Continuous
 62
     7
370
    15
100
AcDbLine
 10
184.6190701891
 20
74.3129331824
 30
0.0
 11
185.1302841807
 21
74.4683900687
 31
0.0
  0
LINE
  5
9B
330
1F
100
AcDbEntity
  8
0
  6
Continuous
 62
     7
370
    15
100
AcDbLine
 10
185.1731514094
 20
74.4914257172
 30
0.0
 11
186.617250427
 21
74.9305669389
 31
0.0
  0
LINE
  5
9C
330
1F
100
AcDbEntity
  8
0
  6
Continuous
 62
     7
370
    15
100
AcDbLine
 10
162.6890679697
 20
76.7361060956
 30
0.0
 11
167.6890677641
 21
75.2156383219
 31
0.0
  0
LINE
  5
9D
330
1F
100
AcDbEntity
  8
0
  6
Continuous
 62
     7
370
    15
100
AcDbLine
 10
187.5890681753
 20
75.2156383219
 30
0.0
 11
192.5890679697
 21
76.7361060956
 31
0.0
  0
ARC
  5
9E
330
1F
100
AcDbEntity
  8
0
  6
Continuous
 62
     7
370
    15
100
AcDbCircle
 10
126.1597939119
 20
125.9117629168
 30
0.0
 40
1.000000000000008
100
AcDbArc
 50
90.0
 51
150.0
  0
ARC
  5
9F
330
1F
100
AcDbEntity
  8
0
  6
Continuous
 62
     7
370
    15
100
AcDbCircle
 10
126.1597939119
 20
72.9117629168
 30
0.0
 40
1.000000000000014
100
AcDbArc
 50
210.0
 51
270.0
  0
LINE
  5
A0
330
1F
100
AcDbEntity
  8
0
  6
Continuous
 62
     7
370
    15
100
AcDbLine
 10
126.1597939119
 20
71.9117629168
 30
0.0
 11
150.2948336069
 21
71.9117629168
 31
0.0
  0
LINE
  5
A1
330
1F
100
AcDbEntity
  8
0
  6
Continuous
 62
     7
370
    15
100
AcDbLine
 10
150.4011438675
 20
126.9117629168
 30
0.0
 11
126.1597939119
 21
126.9117629168
 31
0.0
  0
LINE
  5
A2
330
1F
100
AcDbEntity
  8
0
  6
Continuous
 62
     7
370
    15
100
AcDbLine
 10
125.2937685081
 20
126.4117629168
 30
0.0
 11
124.1390679697
 21
124.4117629168
 31
0.0
  0
LINE
  5
A3
330
1F
100
AcDbEntity
  8
0
  6
Continuous
 62
     7
370
    15
100
AcDbLine
 10
124.1390679697
 20
74.4117629168
 30
0.0
 11
125.2937685081
 21
72.4117629168
 31
0.0
  0
LINE
  5
A4
330
1F
100
AcDbEntity
  8
0
  6
Continuous
 62
     7
370
    15
100
AcDbLine
 10
199.1864400255
 20
76.7617629168
 30
0.0
 11
200.1390679697
 21
78.4117629168
 31
0.0
  0
LINE
  5
A5
330
1F
100
AcDbEntity
  8
0
  6
Continuous
 62
     7
370
    15
100
AcDbLine
 10
98.9390679697
 20
113.4117629168
 30
0.0
 11
97.5936263178
 21
113.1468350749
 31
0.0
  0
LINE
  5
A6
330
1F
100
AcDbEntity
  8
0
  6
Continuous
 62
     7
370
    15
100
AcDbLine
 10
97.5936263178
 20
85.6766907587
 30
0.0
 11
98.9390679697
 21
85.4117629168
 31
0.0
  0
LINE
  5
A7
330
1F
100
AcDbEntity
  8
0
  6
Continuous
 62
     7
370
    15
100
AcDbLine
 10
98.9390679697
 20
85.4117629168
 30
0.0
 11
120.1390679697
 21
85.4117629168
 31
0.0
  0
LINE
  5
A8
330
1F
100
AcDbEntity
  8
0
  6
Continuous
 62
     7
370
    15
100
AcDbLine
 10
120.1390679697
 20
113.4117629168
 30
0.0
 11
98.9390679697
 21
113.4117629168
 31
0.0
  0
ARC
  5
A9
330
1F
100
AcDbEntity
  8
0
  6
Continuous
 62
     7
370
    15
100
AcDbCircle
 10
96.3875961071
 20
86.1117629168
 30
0.0
 40
0.6000000000000085
100
AcDbArc
 50
225.0
 51
270.0
  0
ARC
  5
AA
330
1F
100
AcDbEntity
  8
0
  6
Continuous
 62
     7
370
    15
100
AcDbCircle
 10
96.3875961071
 20
112.7117629168
 30
0.0
 40
0.6000000000000085
100
AcDbArc
 50
90.0
 51
135.0
  0
LINE
  5
AB
330
1F
100
AcDbEntity
  8
0
  6
Continuous
 62
     7
370
    15
100
AcDbLine
 10
96.3875961071
 20
85.5117629168
 30
0.0
 11
96.4733977241
 21
85.5117629168
 31
0.0
  0
LINE
  5
AC
330
1F
100
AcDbEntity
  8
0
  6
Continuous
 62
     7
370
    15
100
AcDbLine
 10
96.4733977241
 20
113.3117629168
 30
0.0
 11
96.3875961071
 21
113.3117629168
 31
0.0
  0
ARC
  5
AD
330
1F
100
AcDbEntity
  8
0
  6
Continuous
 62
     7
370
    15
100
AcDbCircle
 10
96.4733977241
 20
86.1117629168
 30
0.0
 40
0.6000000000000085
100
AcDbArc
 50
270.0
 51
282.4923677447
  0
ARC
  5
AE
330
1F
100
AcDbEntity
  8
0
  6
Continuous
 62
     7
370
    15
100
AcDbCircle
 10
96.4733977241
 20
112.7117629168
 30
0.0
 40
0.6000000000000085
100
AcDbArc
 50
77.5076322553
 51
90.0
  0
LINE
  5
AF
330
1F
100
AcDbEntity
  8
0
  6
Continuous
 62
     7
370
    15
100
AcDbLine
 10
96.6031834611
 20
85.5259680189
 30
0.0
 11
97.2660203204
 21
85.6728227808
 31
0.0
  0
LINE
  5
B0
330
1F
100
AcDbEntity
  8
0
  6
Continuous
 62
     7
370
    15
100
AcDbLine
 10
97.2660203204
 20
113.1507030529
 30
0.0
 11
96.6031834611
 21
113.2975578148
 31
0.0
  0
ARC
  5
B1
330
1F
100
AcDbEntity
  8
0
  6
Continuous
 62
     7
370
    15
100
AcDbCircle
 10
97.4390679697
 20
84.8917629168
 30
0.0
 40
0.7999999999999896
100
AcDbArc
 50
78.8605288287
 51
102.4923677447
  0
ARC
  5
B2
330
1F
100
AcDbEntity
  8
0
  6
Continuous
 62
     7
370
    15
100
AcDbCircle
 10
97.4390679697
 20
113.9317629168
 30
0.0
 40
0.8000000000000036
100
AcDbArc
 50
257.5076322553
 51
281.1394711713
  0
LINE
  5
B3
330
1F
100
AcDbEntity
  8
0
  6
Continuous
 62
     7
370
    15
100
AcDbLine
 10
95.9633320384
 20
113.1360269855
 30
0.0
 11
94.1390679697
 21
111.3117629168
 31
0.0
  0
LINE
  5
B4
330
1F
100
AcDbEntity
  8
0
  6
Continuous
 62
     7
370
    15
100
AcDbLine
 10
94.1390679697
 20
87.5117629168
 30
0.0
 11
95.9633320384
 21
85.6874988481
 31
0.0
  0
LINE
  5
B5
330
1F
100
AcDbEntity
  8
0
  6
Continuous
 62
     7
370
    15
100
AcDbLine
 10
191.9269520119
 20
123.1265582385
 30
0.0
 11
192.6390679697
 21
123.1265582385
 31
0.0
  0
LINE
  5
B6
330
1F
100
AcDbEntity
  8
0
  6
Continuous
 62
     7
370
    15
100
AcDbLine
 10
192.2390679697
 20
123.5265582385
 30
0.0
 11
191.7120239297
 21
123.5265582385
 31
0.0
  0
LINE
  5
B7
330
1F
100
AcDbEntity
  8
0
  6
Continuous
 62
     7
370
    15
100
AcDbLine
 10
169.6390679697
 20
131.5265582385
 30
0.0
 11
185.6390679697
 21
131.5265582385
 31
0.0
  0
LINE
  5
B8
330
1F
100
AcDbEntity
  8
0
  6
Continuous
 62
     7
370
    15
100
AcDbLine
 10
172.1390679697
 20
134.0265582385
 30
0.0
 11
183.1390679697
 21
134.0265582385
 31
0.0
  0
CIRCLE
  5
B9
330
1F
100
AcDbEntity
  8
0
  6
Continuous
 62
     7
370
    15
100
AcDbCircle
 10
200.880229144
 20
129.1050377413
 30
0.0
 40
1.699664977098419
  0
CIRCLE
  5
BA
330
1F
100
AcDbEntity
  8
0
  6
Continuous
 62
     7
370
    15
100
AcDbCircle
 10
200.8803002087
 20
129.1126371954
 30
0.0
 40
1.09978090753102
  0
CIRCLE
  5
BB
330
1F
100
AcDbEntity
  8
0
  6
Continuous
 62
     7
370
    15
100
AcDbCircle
 10
200.8803095438
 20
129.1126161947
 30
0.0
 40
1.04979086627964
  0
SPLINE
  5
BC
330
1F
100
AcDbEntity
  8
0
  6
Continuous
 62
     7
370
    15
100
AcDbSpline
210
0.0
220
0.0
230
1.0
 70
     8
 71
     3
 72
    16
 73
    12
 74
     0
 42
0.000000001
 43
0.00000001
 40
0.0
 40
0.0
 40
0.0
 40
0.0
 40
0.1242194589697349
 40
0.2489993218720128
 40
0.3727377574601722
 40
0.4952944629267923
 40
0.6171957750166429
 40
0.7391031181772932
 40
0.8616668233223302
 40
0.9853929371716479
 40
1.0
 40
1.0
 40
1.0
 40
1.0
 10
200.671864834089
 20
129.9801479248142
 30
0.0
 10
200.6553333167562
 20
129.9965961195749
 30
0.0
 10
200.6221957017679
 20
130.0295667135174
 30
0.0
 10
200.5551540181099
 20
130.054618445933
 30
0.0
 10
200.4847086110346
 20
130.0571943004031
 30
0.0
 10
200.4175805648772
 20
130.0359578089645
 30
0.0
 10
200.3615795542683
 20
129.9940301464472
 30
0.0
 10
200.3224719564253
 20
129.9360374502741
 30
0.0
 10
200.3045404784647
 20
129.8683569231779
 30
0.0
 10
200.3080538959121
 20
129.8187792790447
 30
0.0
 10
200.3148429248369
 20
129.793969719646
 30
0.0
 10
200.3155598011093
 20
129.791349995285
 30
0.0
  0
SPLINE
  5
BD
330
1F
100
AcDbEntity
  8
0
  6
Continuous
 62
     7
370
    15
100
AcDbSpline
210
0.0
220
0.0
230
1.0
 70
     8
 71
     3
 72
    12
 73
     8
 74
     0
 42
0.000000001
 43
0.00000001
 40
0.0
 40
0.0
 40
0.0
 40
0.0
 40
0.2093653562127444
 40
0.4192620302417061
 40
0.6249526976742635
 40
0.8281707878026133
 40
1.0
 40
1.0
 40
1.0
 40
1.0
 10
200.3155598011093
 20
129.791349995285
 30
0.0
 10
200.3196809181307
 20
129.7511646644337
 30
0.0
 10
200.3279336105557
 20
129.6706920222382
 30
0.0
 10
200.2893448090025
 20
129.5530576398319
 30
0.0
 10
200.2176610064118
 20
129.4562678990277
 30
0.0
 10
200.1245838688188
 20
129.3903953219571
 30
0.0
 10
200.0550614202
 20
129.3730504867684
 30
0.0
 10
200.0232094711202
 20
129.3651038908385
 30
0.0
  0
SPLINE
  5
BE
330
1F
100
AcDbEntity
  8
0
  6
Continuous
 62
     7
370
    15
100
AcDbSpline
210
0.0
220
0.0
230
1.0
 70
     8
 71
     3
 72
    16
 73
    12
 74
     0
 42
0.000000001
 43
0.00000001
 40
0.0
 40
0.0
 40
0.0
 40
0.0
 40
0.123189667297946
 40
0.2479795154961738
 40
0.3717274745391064
 40
0.4942903479747889
 40
0.6161927293767872
 40
0.7380955470920558
 40
0.8606497678263704
 40
0.9843631542991579
 40
1.0
 40
1.0
 40
1.0
 40
1.0
 10
200.0232094711202
 20
129.3651038908385
 30
0.0
 10
200.0009810226511
 20
129.3591493336866
 30
0.0
 10
199.9562353877085
 20
129.3471628722415
 30
0.0
 10
199.9012609615064
 20
129.3020830393277
 30
0.0
 10
199.8637820523012
 20
129.2425846831856
 30
0.0
 10
199.8484749411657
 20
129.1739335412889
 30
0.0
 10
199.8565623965951
 20
129.1044464646045
 30
0.0
 10
199.8869403941219
 20
129.0414323191075
 30
0.0
 10
199.936252349627
 20
128.9918068121006
 30
0.0
 10
199.9808638691665
 20
128.9697135744651
 30
0.0
 10
200.0058098867219
 20
128.9630426612298
 30
0.0
 10
200.0086091431084
 20
128.9622941010063
 30
0.0
  0
SPLINE
  5
BF
330
1F
100
AcDbEntity
  8
0
  6
Continuous
 62
     7
370
    15
100
AcDbSpline
210
0.0
220
0.0
230
1.0
 70
     8
 71
     3
 72
    12
 73
     8
 74
     0
 42
0.000000001
 43
0.00000001
 40
0.0
 40
0.0
 40
0.0
 40
0.0
 40
0.2093652529605121
 40
0.4192619297278986
 40
0.6249525996332802
 40
0.8281706892237487
 40
1.0
 40
1.0
 40
1.0
 40
1.0
 10
200.0086091431084
 20
128.9622941010063
 30
0.0
 10
200.0453157980584
 20
128.9456663561951
 30
0.0
 10
200.1188222790555
 20
128.9123686610046
 30
0.0
 10
200.201199274773
 20
128.8200000311694
 30
0.0
 10
200.2492812986617
 20
128.7095920939943
 30
0.0
 10
200.26014493159
 20
128.5962824123247
 30
0.0
 10
200.2407404501808
 20
128.5276268481736
 30
0.0
 10
200.2318502174708
 20
128.4961720553728
 30
0.0
  0
SPLINE
  5
C0
330
1F
100
AcDbEntity
  8
0
  6
Continuous
 62
     7
370
    15
100
AcDbSpline
210
0.0
220
0.0
230
1.0
 70
     8
 71
     3
 72
    16
 73
    12
 74
     0
 42
0.000000001
 43
0.00000001
 40
0.0
 40
0.0
 40
0.0
 40
0.0
 40
0.1243654221088515
 40
0.2491438717989217
 40
0.3728809614207892
 40
0.4954367981748816
 40
0.6173379650704376
 40
0.73924595610982
 40
0.8618110113605665
 40
0.9855389335649474
 40
1.0
 40
1.0
 40
1.0
 40
1.0
 10
200.2318502174708
 20
128.4961720553728
 30
0.0
 10
200.2259639804058
 20
128.4737956643984
 30
0.0
 10
200.2141719576086
 20
128.4289685686535
 30
0.0
 10
200.2262494071459
 20
128.358796595089
 30
0.0
 10
200.2594094823749
 20
128.2968034905007
 30
0.0
 10
200.3114402327431
 20
128.2494225757941
 30
0.0
 10
200.3757304357716
 20
128.221850406396
 30
0.0
 10
200.4453909046631
 20
128.2167687216443
 30
0.0
 10
200.5127635258808
 20
128.2347075382778
 30
0.0
 10
200.5537167987614
 20
128.2621637635553
 30
0.0
 10
200.5716755885313
 20
128.2802122958059
 30
0.0
 10
200.5735549224386
 20
128.2821010209967
 30
0.0
  0
SPLINE
  5
C1
330
1F
100
AcDbEntity
  8
0
  6
Continuous
 62
     7
370
    15
100
AcDbSpline
210
0.0
220
0.0
230
1.0
 70
     8
 71
     3
 72
    12
 73
     8
 74
     0
 42
0.000000001
 43
0.00000001
 40
0.0
 40
0.0
 40
0.0
 40
0.0
 40
0.2092378396813173
 40
0.4191378956981922
 40
0.6248316181528735
 40
0.8280490456279
 40
1.0
 40
1.0
 40
1.0
 40
1.0
 10
200.5735549224386
 20
128.2821010209967
 30
0.0
 10
200.6061188761026
 20
128.3054420807635
 30
0.0
 10
200.6713498450094
 20
128.3521980723609
 30
0.0
 10
200.7922861211681
 20
128.3771778194503
 30
0.0
 10
200.9120559871684
 20
128.3636410970205
 30
0.0
 10
201.016029355335
 20
128.3165835970179
 30
0.0
 10
201.066166819048
 20
128.2656353623441
 30
0.0
 10
201.0891463267902
 20
128.2422842538828
 30
0.0
  0
SPLINE
  5
C2
330
1F
100
AcDbEntity
  8
0
  6
Continuous
 62
     7
370
    15
100
AcDbSpline
210
0.0
220
0.0
230
1.0
 70
     8
 71
     3
 72
    16
 73
    12
 74
     0
 42
0.000000001
 43
0.00000001
 40
0.0
 40
0.0
 40
0.0
 40
0.0
 40
0.1242194589696941
 40
0.2489993218719653
 40
0.3727377574601007
 40
0.4952944629267961
 40
0.6171957750166209
 40
0.739103118177293
 40
0.8616668233223241
 40
0.9853929371716363
 40
1.0
 40
1.0
 40
1.0
 40
1.0
 10
201.0891463267902
 20
128.2422842538828
 30
0.0
 10
201.105677844123
 20
128.2260802532056
 30
0.0
 10
201.1388154591113
 20
128.1935991490878
 30
0.0
 10
201.2058571427692
 20
128.1690825068268
 30
0.0
 10
201.2763025498446
 20
128.1668420095819
 30
0.0
 10
201.343430596002
 20
128.1881843482219
 30
0.0
 10
201.3994316066109
 20
128.2299888892854
 30
0.0
 10
201.4385392044539
 20
128.2876380469138
 30
0.0
 10
201.4564706824144
 20
128.354775158656
 30
0.0
 10
201.4529572649671
 20
128.4038521307529
 30
0.0
 10
201.4461682360423
 20
128.4283744423602
 30
0.0
 10
201.4454513597699
 20
128.4309638352661
 30
0.0
  0
SPLINE
  5
C3
330
1F
100
AcDbEntity
  8
0
  6
Continuous
 62
     7
370
    15
100
AcDbSpline
210
0.0
220
0.0
230
1.0
 70
     8
 71
     3
 72
    12
 73
     8
 74
     0
 42
0.000000001
 43
0.00000001
 40
0.0
 40
0.0
 40
0.0
 40
0.0
 40
0.2093653562126606
 40
0.4192620302416752
 40
0.6249526976742019
 40
0.8281707878025956
 40
1.0
 40
1.0
 40
1.0
 40
1.0
 10
201.4454513597699
 20
128.4309638352661
 30
0.0
 10
201.4413302427484
 20
128.470741536797
 30
0.0
 10
201.4330775503234
 20
128.550397885889
 30
0.0
 10
201.4716663518767
 20
128.6674204972783
 30
0.0
 10
201.5433501544673
 20
128.7643266515588
 30
0.0
 10
201.6364272920604
 20
128.8309379789784
 30
0.0
 10
201.7059497406792
 20
128.8490364233076
 30
0.0
 10
201.737801689759
 20
128.8573282878586
 30
0.0
  0
SPLINE
  5
C4
330
1F
100
AcDbEntity
  8
0
  6
Continuous
 62
     7
370
    15
100
AcDbSpline
210
0.0
220
0.0
230
1.0
 70
     8
 71
     3
 72
    16
 73
    12
 74
     0
 42
0.000000001
 43
0.00000001
 40
0.0
 40
0.0
 40
0.0
 40
0.0
 40
0.1231896672979641
 40
0.2479795154961856
 40
0.3717274745392228
 40
0.4942903479748183
 40
0.6161927293767799
 40
0.7380955470921612
 40
0.8606497678264583
 40
0.984363154299168
 40
0.9999999999999999
 40
0.9999999999999999
 40
0.9999999999999999
 40
0.9999999999999999
 10
201.7378016897589
 20
128.8573282878586
 30
0.0
 10
201.7600301382281
 20
128.86352508154
 30
0.0
 10
201.8047757731706
 20
128.8759991625931
 30
0.0
 10
201.8597501993729
 20
128.9216142595236
 30
0.0
 10
201.8972291085781
 20
128.9814497903029
 30
0.0
 10
201.9125362197135
 20
129.0502086848122
 30
0.0
 10
201.9044487642842
 20
129.1195745052818
 30
0.0
 10
201.8740707667573
 20
129.1822468679839
 30
0.0
 10
201.8247588112523
 20
129.2313304711773
 30
0.0
 10
201.7801472917126
 20
129.2529219800927
 30
0.0
 10
201.7552012741573
 20
129.2593036284703
 30
0.0
 10
201.7524020177709
 20
129.2600197295449
 30
0.0
  0
SPLINE
  5
C5
330
1F
100
AcDbEntity
  8
0
  6
Continuous
 62
     7
370
    15
100
AcDbSpline
210
0.0
220
0.0
230
1.0
 70
     8
 71
     3
 72
    12
 73
     8
 74
     0
 42
0.000000001
 43
0.00000001
 40
0.0
 40
0.0
 40
0.0
 40
0.0
 40
0.2093652529605366
 40
0.4192619297278165
 40
0.6249525996332099
 40
0.8281706892236985
 40
1.0
 40
1.0
 40
1.0
 40
1.0
 10
201.7524020177709
 20
129.2600197295449
 30
0.0
 10
201.7156953628209
 20
129.2762398452272
 30
0.0
 10
201.6421888818237
 20
129.3087212474906
 30
0.0
 10
201.5598118861062
 20
129.4004781060692
 30
0.0
 10
201.5117298622175
 20
129.5110024563567
 30
0.0
 10
201.5008662292891
 20
129.6250508882372
 30
0.0
 10
201.5202707106984
 20
129.694460061711
 30
0.0
 10
201.5291609434084
 20
129.7262601233242
 30
0.0
  0
SPLINE
  5
C6
330
1F
100
AcDbEntity
  8
0
  6
Continuous
 62
     7
370
    15
100
AcDbSpline
210
0.0
220
0.0
230
1.0
 70
     8
 71
     3
 72
    16
 73
    12
 74
     0
 42
0.000000001
 43
0.00000001
 40
0.0
 40
0.0
 40
0.0
 40
0.0
 40
0.124365422108841
 40
0.2491438717989552
 40
0.3728809614208233
 40
0.4954367981749698
 40
0.6173379650704541
 40
0.7392459561098423
 40
0.8618110113606106
 40
0.9855389335650105
 40
1.0
 40
1.0
 40
1.0
 40
1.0
 10
201.5291609434084
 20
129.7262601233242
 30
0.0
 10
201.5350471804734
 20
129.7488809857647
 30
0.0
 10
201.5468392032707
 20
129.7941978363514
 30
0.0
 10
201.5347617537332
 20
129.8649048744877
 30
0.0
 10
201.5016016785043
 20
129.9272330785709
 30
0.0
 10
201.4495709281362
 20
129.9747195703553
 30
0.0
 10
201.3852807251075
 20
130.0021683539331
 30
0.0
 10
201.3156202562161
 20
130.0069062513419
 30
0.0
 10
201.2482476349984
 20
129.9884238052801
 30
0.0
 10
201.2072943621179
 20
129.9604670584529
 30
0.0
 10
201.1893355723478
 20
129.9421315644396
 30
0.0
 10
201.1874562384406
 20
129.9402128095544
 30
0.0
  0
SPLINE
  5
C7
330
1F
100
AcDbEntity
  8
0
  6
Continuous
 62
     7
370
    15
100
AcDbSpline
210
0.0
220
0.0
230
1.0
 70
     8
 71
     3
 72
    12
 73
     8
 74
     0
 42
0.000000001
 43
0.00000001
 40
0.0
 40
0.0
 40
0.0
 40
0.0
 40
0.2092378396812685
 40
0.4191378956981858
 40
0.6248316181529141
 40
0.8280490456279074
 40
1.0
 40
1.0
 40
1.0
 40
1.0
 10
201.1874562384406
 20
129.9402128095544
 30
0.0
 10
201.1548922847766
 20
129.9164643569405
 30
0.0
 10
201.0896613158698
 20
129.8688922902923
 30
0.0
 10
200.9687250397111
 20
129.8433004763478
 30
0.0
 10
200.8489551737108
 20
129.8569531628375
 30
0.0
 10
200.7449818055442
 20
129.9047492425024
 30
0.0
 10
200.6948443418312
 20
129.9564513114364
 30
0.0
 10
200.671864834089
 20
129.9801479248142
 30
0.0
  0
LINE
  5
C8
330
1F
100
AcDbEntity
  8
0
  6
Continuous
 62
     7
370
    15
100
AcDbLine
 10
201.4454513598
 20
128.4005725544
 30
0.0
 11
201.4535336334
 21
128.3434709134
 31
0.0
  0
LINE
  5
C9
330
1F
100
AcDbEntity
  8
0
  6
Continuous
 62
     7
370
    15
100
AcDbLine
 10
201.4454513598
 20
128.4005725544
 30
0.0
 11
201.4454513598
 21
128.4309638353
 31
0.0
  0
LINE
  5
CA
330
1F
100
AcDbEntity
  8
0
  6
Continuous
 62
     7
370
    15
100
AcDbLine
 10
200.2199539238
 20
128.4130234678
 30
0.0
 11
200.2318502175
 21
128.4657216004
 31
0.0
  0
LINE
  5
CB
330
1F
100
AcDbEntity
  8
0
  6
Continuous
 62
     7
370
    15
100
AcDbLine
 10
201.4383363009
 20
128.471798581
 30
0.0
 11
201.4454513598
 21
128.4005725544
 31
0.0
  0
LWPOLYLINE
  5
CC
330
1F
100
AcDbEntity
  8
0
  6
Continuous
 62
     7
370
    15
100
AcDbPolyline
 90
        3
 70
   128
 43
0.0
 10
200.2318502175
 20
128.4657216004
 10
200.2498982814
 20
128.5353447737
 10
200.2541378198
 20
128.590435902
  0
ARC
  5
CD
330
1F
100
AcDbEntity
  8
0
  6
Continuous
 62
     7
370
    15
100
AcDbCircle
 10
201.7030270417
 20
129.0297385099
 30
0.0
 40
0.2058977316442852
100
AcDbArc
 50
0.0116186523
 51
76.1250628368
  0
LINE
  5
CE
330
1F
100
AcDbEntity
  8
0
  6
Continuous
 62
     7
370
    15
100
AcDbLine
 10
201.7524020178
 20
129.2296284486
 30
0.0
 11
201.7524020178
 21
129.2600197295
 31
0.0
  0
ARC
  5
CF
330
1F
100
AcDbEntity
  8
0
  6
Continuous
 62
     7
370
    15
100
AcDbCircle
 10
200.0579905282
 20
129.1317081396
 30
0.0
 40
0.2059041408502866
100
AcDbArc
 50
99.7249551748
 51
179.988071747
  0
ARC
  5
D0
330
1F
100
AcDbEntity
  8
0
  6
Continuous
 62
     7
370
    15
100
AcDbCircle
 10
201.8671784277
 20
129.5711634188
 30
0.0
 40
0.3603050931117759
100
AcDbArc
 50
180.0108216419
 51
251.4245372271
  0
ARC
  5
D1
330
1F
100
AcDbEntity
  8
0
  6
Continuous
 62
     7
370
    15
100
AcDbCircle
 10
199.9623455774
 20
129.6898052113
 30
0.0
 40
0.3603292898910068
100
AcDbArc
 50
279.7245588472
 51
359.9884680746
  0
ARC
  5
D2
330
1F
100
AcDbEntity
  8
0
  6
Continuous
 62
     7
370
    15
100
AcDbCircle
 10
201.3358908071
 20
129.7669732744
 30
0.0
 40
0.2060059341926721
100
AcDbArc
 50
0.0282880462
 51
136.0987019442
  0
LINE
  5
D3
330
1F
100
AcDbEntity
  8
0
  6
Continuous
 62
     7
370
    15
100
AcDbLine
 10
201.1874562384
 20
129.9098215287
 30
0.0
 11
201.1874562384
 21
129.9402128096
 31
0.0
  0
ARC
  5
D4
330
1F
100
AcDbEntity
  8
0
  6
Continuous
 62
     7
370
    15
100
AcDbCircle
 10
200.5134903596
 20
129.8179181428
 30
0.0
 40
0.2060297677874767
100
AcDbArc
 50
39.7629712636
 51
172.1501907205
  0
ARC
  5
D5
330
1F
100
AcDbEntity
  8
0
  6
Continuous
 62
     7
370
    15
100
AcDbCircle
 10
200.9490466739
 20
130.1804200643
 30
0.0
 40
0.360642049611047
100
AcDbArc
 50
219.7735611666
 51
311.3815122801
  0
ARC
  5
D6
330
1F
100
AcDbEntity
  8
0
  6
Continuous
 62
     7
370
    15
100
AcDbCircle
 10
200.8810032509
 20
129.0812697353
 30
0.0
 40
1.699502404282925
100
AcDbArc
 50
266.4325154505
 51
359.9830051103
  0
ARC
  5
D7
330
1F
100
AcDbEntity
  8
0
  6
Continuous
 62
     7
370
    15
100
AcDbCircle
 10
200.8798200316
 20
129.0811548235
 30
0.0
 40
1.699314495766815
100
AcDbArc
 50
180.0131222886
 51
266.4720916592
  0
LINE
  5
D8
330
1F
100
AcDbEntity
  8
0
  6
PHANTOM
 62
     7
370
     0
100
AcDbLine
 10
198.2585272408
 20
125.5129155466
 30
0.0
 11
203.8085272408
 21
126.4909341438
 31
0.0
  0
LINE
  5
D9
330
1F
100
AcDbEntity
  8
0
  6
PHANTOM
 62
     7
370
     0
100
AcDbLine
 10
198.1890679697
 20
125.8985389869
 30
0.0
 11
198.2585272408
 21
125.5129155466
 31
0.0
  0
LINE
  5
DA
330
1F
100
AcDbEntity
  8
0
  6
PHANTOM
 62
     7
370
     0
100
AcDbLine
 10
198.2762086933
 20
126.0005701758
 30
0.0
 11
198.1890679697
 21
125.8985389869
 31
0.0
  0
SPLINE
  5
DB
330
1F
100
AcDbEntity
  8
0
  6
PHANTOM
 62
     7
370
     0
100
AcDbSpline
210
0.0
220
0.0
230
1.0
 70
     8
 71
     3
 72
    11
 73
     7
 74
     0
 42
0.000000001
 43
0.00000001
 40
0.0
 40
0.0
 40
0.0
 40
0.0
 40
0.0074552814711536
 40
0.3066092506034673
 40
0.6526506519390406
 40
1.0
 40
1.0
 40
1.0
 40
1.0
 10
198.7184635979647
 20
126.5299821987993
 30
0.0
 10
198.7174771843965
 20
126.528776560957
 30
0.0
 10
198.6769094974333
 20
126.4791929581443
 30
0.0
 10
198.5847336483561
 20
126.3672827455743
 30
0.0
 10
198.431622543588
 20
126.1835255200515
 30
0.0
 10
198.3280784153749
 20
126.061631933393
 30
0.0
 10
198.2762086933434
 20
126.0005701757974
 30
0.0
  0
LINE
  5
DC
330
1F
100
AcDbEntity
  8
0
  6
PHANTOM
 62
     7
370
     0
100
AcDbLine
 10
198.1890679697
 20
125.8985389869
 30
0.0
 11
197.7890679697
 21
125.9065986805
 31
0.0
  0
LINE
  5
DD
330
1F
100
AcDbEntity
  8
0
  6
PHANTOM
 62
     7
370
     0
100
AcDbLine
 10
197.7890679697
 20
131.5387833104
 30
0.0
 11
197.7890679697
 21
125.9065986805
 31
0.0
  0
SPLINE
  5
DE
330
1F
100
AcDbEntity
  8
0
  6
PHANTOM
 62
     7
370
     0
100
AcDbSpline
210
0.0
220
0.0
230
1.0
 70
     8
 71
     3
 72
    12
 73
     8
 74
     0
 42
0.000000001
 43
0.00000001
 40
0.0
 40
0.0
 40
0.0
 40
0.0
 40
0.0481906270125644
 40
0.4227687915308513
 40
0.5661203835287598
 40
0.9912408780624034
 40
1.0
 40
1.0
 40
1.0
 40
1.0
 10
203.7630567956815
 20
126.8570718082679
 30
0.0
 10
203.7554755519169
 20
126.8633239922204
 30
0.0
 10
203.6889664927205
 20
126.9181734187139
 30
0.0
 10
203.5938005060802
 20
126.9976007481943
 30
0.0
 10
203.439932531042
 20
127.1275232794178
 30
0.0
 10
203.3486210246745
 20
127.2056448329776
 30
0.0
 10
203.286737646569
 20
127.2591591557758
 30
0.0
 10
203.2854883506027
 20
127.2602394980205
 30
0.0
  0
SPLINE
  5
DF
330
1F
100
AcDbEntity
  8
0
  6
PHANTOM
 62
     7
370
     0
100
AcDbSpline
210
0.0
220
0.0
230
1.0
 70
     8
 71
     3
 72
    10
 73
     6
 74
     0
 42
0.000000001
 43
0.00000001
 40
0.0
 40
0.0
 40
0.0
 40
0.0
 40
0.3658097627759822
 40
0.9379269162050764
 40
1.0
 40
1.0
 40
1.0
 40
1.0
 10
203.7630567956807
 20
126.8570718082686
 30
0.0
 10
203.7642235321553
 20
126.8470979629165
 30
0.0
 10
203.7672150147646
 20
126.8215252774231
 30
0.0
 10
203.7617219829434
 20
126.7947853973045
 30
0.0
 10
203.757468848009
 20
126.7783222460426
 30
0.0
 10
203.7570525609304
 20
126.7767108706101
 30
0.0
  0
SPLINE
  5
E0
330
1F
100
AcDbEntity
  8
0
  6
PHANTOM
 62
     7
370
     0
100
AcDbSpline
210
0.0
220
0.0
230
1.0
 70
     8
 71
     3
 72
    10
 73
     6
 74
     0
 42
0.000000001
 43
0.00000001
 40
0.0
 40
0.0
 40
0.0
 40
0.0
 40
0.0620730837954344
 40
0.634190237212174
 40
1.0
 40
1.0
 40
1.0
 40
1.0
 10
203.8426371028342
 20
126.8786444228789
 30
0.0
 10
203.8410909344779
 20
126.8779184597079
 30
0.0
 10
203.8252939929264
 20
126.8705014163217
 30
0.0
 10
203.7994049340817
 20
126.8598643600453
 30
0.0
 10
203.7732555605857
 20
126.8578553581363
 30
0.0
 10
203.7630567956815
 20
126.8570718082679
 30
0.0
  0
LINE
  5
E1
330
1F
100
AcDbEntity
  8
0
  6
PHANTOM
 62
     7
370
     0
100
AcDbLine
 10
203.7390679697
 20
132.5087422141
 30
0.0
 11
204.1390679697
 21
132.5168019077
 31
0.0
  0
LINE
  5
E2
330
1F
100
AcDbEntity
  8
0
  6
PHANTOM
 62
     7
370
     0
100
AcDbLine
 10
204.1390679697
 20
126.8846172777
 30
0.0
 11
204.1390679697
 21
132.5168019077
 31
0.0
  0
LINE
  5
E3
330
1F
100
AcDbEntity
  8
0
  6
PHANTOM
 62
     7
370
     0
100
AcDbLine
 10
203.6519272461
 20
132.4031993876
 30
0.0
 11
203.7390679697
 21
132.5087422141
 31
0.0
  0
ARC
  5
E4
330
1F
100
AcDbEntity
  8
0
  6
PHANTOM
 62
     7
370
     0
100
AcDbCircle
 10
199.588880079
 20
127.5744133779
 30
0.0
 40
0.9998121803123386
100
AcDbArc
 50
180.0215498687
 51
280.0128315836
  0
ARC
  5
E5
330
1F
100
AcDbEntity
  8
0
  6
PHANTOM
 62
     7
370
     0
100
AcDbCircle
 10
202.3395030901
 20
128.058875911
 30
0.0
 40
0.9995649071668734
100
AcDbArc
 50
279.9790720631
 51
359.9865428609
  0
ARC
  5
E6
330
1F
100
AcDbEntity
  8
0
  6
PHANTOM
 62
     7
370
     0
100
AcDbCircle
 10
198.1889928136
 20
125.9067490988
 30
0.0
 40
0.3999248721946548
100
AcDbArc
 50
180.0215498833
 51
280.0128315545
  0
ARC
  5
E7
330
1F
100
AcDbEntity
  8
0
  6
PHANTOM
 62
     7
370
     0
100
AcDbCircle
 10
203.7392420179
 20
126.8847111854
 30
0.0
 40
0.3998259628666845
100
AcDbArc
 50
279.9790720631
 51
359.9865428617
  0
LINE
  5
E8
330
1F
100
AcDbEntity
  8
0
  6
PHANTOM
 62
     7
370
     0
100
AcDbLine
 10
199.7627161474
 20
126.5898294976
 30
0.0
 11
202.5127161474
 21
127.0744333071
 31
0.0
  0
LINE
  5
E9
330
1F
100
AcDbEntity
  8
0
  6
PHANTOM
 62
     7
370
     0
100
AcDbLine
 10
202.165419792
 20
131.8335710905
 30
0.0
 11
199.415419792
 21
131.348967281
 31
0.0
  0
ARC
  5
EA
330
1F
100
AcDbEntity
  8
0
  6
PHANTOM
 62
     7
370
     0
100
AcDbCircle
 10
202.3392558599
 20
130.84898721
 30
0.0
 40
0.9998121804981105
100
AcDbArc
 50
0.0215498841
 51
100.0128315538
  0
LINE
  5
EB
330
1F
100
AcDbEntity
  8
0
  6
PHANTOM
 62
     7
370
     0
100
AcDbLine
 10
203.3390679697
 20
128.0586411418
 30
0.0
 11
203.3390679697
 21
130.8493632558
 31
0.0
  0
LINE
  5
EC
330
1F
100
AcDbEntity
  8
0
  6
PHANTOM
 62
     7
370
     0
100
AcDbLine
 10
198.5890679697
 20
130.3647594463
 30
0.0
 11
198.5890679694
 21
127.5740373324
 31
0.0
  0
ARC
  5
ED
330
1F
100
AcDbEntity
  8
0
  6
PHANTOM
 62
     7
370
     0
100
AcDbCircle
 10
199.5886328493
 20
130.3645246771
 30
0.0
 40
0.9995649071668331
100
AcDbArc
 50
99.9790720631
 51
179.9865428609
  0
CIRCLE
  5
EE
330
1F
100
AcDbEntity
  8
0
  6
PHANTOM
 62
     7
370
     0
100
AcDbCircle
 10
200.9632516952
 20
129.211496081
 30
0.0
 40
1.924183736379934
  0
ARC
  5
EF
330
1F
100
AcDbEntity
  8
0
  6
PHANTOM
 62
     7
370
     0
100
AcDbCircle
 10
200.9640679697
 20
129.184692926
 30
0.0
 40
1.925000180120832
100
AcDbArc
 50
0.0247858702
 51
179.9752141298
  0
SPLINE
  5
F0
330
1F
100
AcDbEntity
  8
0
  6
PHANTOM
 62
     7
370
     0
100
AcDbSpline
210
0.0
220
0.0
230
1.0
 70
     8
 71
     3
 72
    12
 73
     8
 74
     0
 42
0.000000001
 43
0.00000001
 40
0.0
 40
0.0
 40
0.0
 40
0.0
 40
0.0087591219375913
 40
0.433879616471248
 40
0.5772312084691598
 40
0.9518093729874573
 40
1.0
 40
1.0
 40
1.0
 40
1.0
 10
198.642647588795
 20
131.1536722491319
 30
0.0
 10
198.6413982928287
 20
131.154687197284
 30
0.0
 10
198.5795149147228
 20
131.2049622497517
 30
0.0
 10
198.4882034083557
 20
131.2799862498242
 30
0.0
 10
198.3343354333175
 20
131.4081275394787
 30
0.0
 10
198.2391694466771
 20
131.4883104090926
 30
0.0
 10
198.1726603874808
 20
131.5450084435633
 30
0.0
 10
198.1650791437162
 20
131.5514713468955
 30
0.0
  0
SPLINE
  5
F1
330
1F
100
AcDbEntity
  8
0
  6
PHANTOM
 62
     7
370
     0
100
AcDbSpline
210
0.0
220
0.0
230
1.0
 70
     8
 71
     3
 72
    10
 73
     6
 74
     0
 42
0.000000001
 43
0.00000001
 40
0.0
 40
0.0
 40
0.0
 40
0.0
 40
0.0620730837953157
 40
0.6341902372119201
 40
1.0
 40
1.0
 40
1.0
 40
1.0
 10
198.0854988365635
 20
131.5328104555418
 30
0.0
 10
198.0870450049198
 20
131.5334743255575
 30
0.0
 10
198.1028419464714
 20
131.5402569736397
 30
0.0
 10
198.1287310053159
 20
131.5498929805731
 30
0.0
 10
198.154880378812
 20
131.5510284800043
 30
0.0
 10
198.1650791437162
 20
131.5514713468955
 30
0.0
  0
SPLINE
  5
F2
330
1F
100
AcDbEntity
  8
0
  6
PHANTOM
 62
     7
370
     0
100
AcDbSpline
210
0.0
220
0.0
230
1.0
 70
     8
 71
     3
 72
    11
 73
     7
 74
     0
 42
0.000000001
 43
0.00000001
 40
0.0
 40
0.0
 40
0.0
 40
0.0
 40
0.3473493480609681
 40
0.6933907493965229
 40
0.9925447185288381
 40
1.0
 40
1.0
 40
1.0
 40
1.0
 10
203.6519272460544
 20
132.4031993876326
 30
0.0
 10
203.6000575240229
 20
132.3407046032581
 30
0.0
 10
203.4965133958096
 20
132.2159503591155
 30
0.0
 10
203.3434022910416
 20
132.034988478743
 30
0.0
 10
203.2512264419643
 20
131.9273307291366
 30
0.0
 10
203.2106587550012
 20
131.8802798615763
 30
0.0
 10
203.2096723414329
 20
131.8791358078322
 30
0.0
  0
SPLINE
  5
F3
330
1F
100
AcDbEntity
  8
0
  6
PHANTOM
 62
     7
370
     0
100
AcDbSpline
210
0.0
220
0.0
230
1.0
 70
     8
 71
     3
 72
    10
 73
     6
 74
     0
 42
0.000000001
 43
0.00000001
 40
0.0
 40
0.0
 40
0.0
 40
0.0
 40
0.3658097627760302
 40
0.9379269162050647
 40
1.0
 40
1.0
 40
1.0
 40
1.0
 10
198.165079143717
 20
131.5514713468948
 30
0.0
 10
198.1639124072424
 20
131.5617858752241
 30
0.0
 10
198.1609209246331
 20
131.5882320631953
 30
0.0
 10
198.1664139564541
 20
131.6159729926569
 30
0.0
 10
198.1706670913887
 20
131.6330705392228
 30
0.0
 10
198.1710833784673
 20
131.6347440078106
 30
0.0
  0
LINE
  5
F4
330
1F
100
AcDbEntity
  8
0
  6
PHANTOM
 62
     7
370
     0
100
AcDbLine
 10
203.6696086986
 20
132.9104850416
 30
0.0
 11
198.1196086986
 21
131.9324664443
 31
0.0
  0
LINE
  5
F5
330
1F
100
AcDbEntity
  8
0
  6
PHANTOM
 62
     7
370
     0
100
AcDbLine
 10
203.7390679697
 20
132.5087422141
 30
0.0
 11
203.6696086986
 21
132.9104850416
 31
0.0
  0
ARC
  5
F6
330
1F
100
AcDbEntity
  8
0
  6
PHANTOM
 62
     7
370
     0
100
AcDbCircle
 10
198.1888939215
 20
131.5386894027
 30
0.0
 40
0.3998259628696551
100
AcDbArc
 50
99.9790720634
 51
179.9865428605
  0
ARC
  5
F7
330
1F
100
AcDbEntity
  8
0
  6
PHANTOM
 62
     7
370
     0
100
AcDbCircle
 10
203.7391431258
 20
132.5166514893
 30
0.0
 40
0.3999248722038895
100
AcDbArc
 50
0.0215498848
 51
100.012831553
  0
LINE
  5
F8
330
1F
100
AcDbEntity
  8
0
  6
Continuous
 62
     7
370
    15
100
AcDbLine
 10
167.1514673451
 20
125.3665582385
 30
0.0
 11
190.8081650885
 21
125.3665582385
 31
0.0
  0
ELLIPSE
  5
F9
330
1F
100
AcDbEntity
  8
0
  6
Continuous
 62
     7
370
    15
100
AcDbEllipse
 10
177.6390679697
 20
1353.162677432
 30
0.0
 11
-15.36206475077026
 21
1273.723570984437
 31
0.0
210
0.0
220
0.0
230
1.0
 40
0.004833911
 41
2.872177969533681
 42
2.902975286991353
  0
LINE
  5
FA
330
1F
100
AcDbEntity
  8
0
  6
Continuous
 62
     7
370
    15
100
AcDbLine
 10
167.1514673451
 20
119.3063685064
 30
0.0
 11
191.1105789083
 21
115.5116180308
 31
0.0
  0
LINE
  5
FB
330
1F
100
AcDbEntity
  8
0
  6
Continuous
 62
     7
370
    15
100
AcDbLine
 10
170.003080808
 20
129.8665582385
 30
0.0
 11
187.2295716569
 21
129.8665582385
 31
0.0
  0
LINE
  5
FC
330
1F
100
AcDbEntity
  8
0
  6
Continuous
 62
     7
370
    15
100
AcDbLine
 10
190.8081650885
 20
125.3665582385
 30
0.0
 11
190.8100133395
 21
125.36790794
 31
0.0
  0
LINE
  5
FD
330
1F
100
AcDbEntity
  8
0
  6
Continuous
 62
     7
370
    15
100
AcDbLine
 10
164.6345496211
 20
125.3665582385
 30
0.0
 11
167.1514673451
 21
125.3665582385
 31
0.0
  0
LINE
  5
FE
330
1F
100
AcDbEntity
  8
0
  6
Continuous
 62
     7
370
    15
100
AcDbLine
 10
164.6345496211
 20
119.7050091114
 30
0.0
 11
167.1514673451
 21
119.3063685064
 31
0.0
  0
LINE
  5
FF
330
1F
100
AcDbEntity
  8
0
  6
Continuous
 62
     7
370
    15
100
AcDbLine
 10
168.6187760598
 20
129.8665582385
 30
0.0
 11
170.003080808
 21
129.8665582385
 31
0.0
  0
ELLIPSE
  5
100
330
1F
100
AcDbEntity
  8
0
  6
Continuous
 62
     7
370
    15
100
AcDbEllipse
 10
217.9567934762
 20
135.76734885
 30
0.0
 11
-21.7419234193491
 21
22.55008370900913
 31
0.0
210
0.0
220
0.0
230
1.0
 40
0.9166690727
 41
1.199821565641621
 42
1.438599773868679
  0
SPLINE
  5
101
330
1F
100
AcDbEntity
  8
0
  6
Continuous
 62
     7
370
    15
100
AcDbSpline
210
0.0
220
0.0
230
1.0
 70
     8
 71
     3
 72
     9
 73
     5
 74
     0
 42
0.000000001
 43
0.00000001
 40
0.0
 40
0.0
 40
0.0
 40
0.0
 40
0.4500949102656271
 40
1.0
 40
1.0
 40
1.0
 40
1.0
 10
194.6003453417974
 20
118.9834636973153
 30
0.0
 10
194.6110829763477
 20
118.9706974407985
 30
0.0
 10
194.6349393548701
 20
118.9423339640614
 30
0.0
 10
194.6607912052453
 20
118.94197659998
 30
0.0
 10
194.6750072693457
 20
118.9417800836527
 30
0.0
  0
LINE
  5
102
330
1F
100
AcDbEntity
  8
0
  6
Continuous
 62
     7
370
    15
100
AcDbLine
 10
194.6750072693
 20
114.9470680397
 30
0.0
 11
191.1105789083
 21
115.5116180308
 31
0.0
  0
SPLINE
  5
103
330
1F
100
AcDbEntity
  8
0
  6
Continuous
 62
     7
370
    15
100
AcDbSpline
210
0.0
220
0.0
230
1.0
 70
     8
 71
     3
 72
     9
 73
     5
 74
     0
 42
0.000000001
 43
0.00000001
 40
0.0
 40
0.0
 40
0.0
 40
0.0
 40
0.4986755202356136
 40
0.9999999999999999
 40
0.9999999999999999
 40
0.9999999999999999
 40
0.9999999999999999
 10
190.8100133394767
 20
125.3679079399801
 30
0.0
 10
190.4655958002203
 20
126.1181345934227
 30
0.0
 10
189.7749311790781
 20
127.6225730970174
 30
0.0
 10
189.3072494054078
 20
129.1172434175845
 30
0.0
 10
189.0727890835273
 20
129.866558238462
 30
0.0
  0
LINE
  5
104
330
1F
100
AcDbEntity
  8
0
  6
Continuous
 62
     7
370
    15
100
AcDbLine
 10
187.2295716569
 20
129.8665582385
 30
0.0
 11
189.0727890835
 21
129.8665582385
 31
0.0
  0
LINE
  5
105
330
1F
100
AcDbEntity
  8
0
  6
Continuous
 62
     7
370
    15
100
AcDbLine
 10
162.2390679697
 20
125.3665582385
 30
0.0
 11
164.6345496211
 21
125.3665582385
 31
0.0
  0
LINE
  5
106
330
1F
100
AcDbEntity
  8
0
  6
Continuous
 62
     7
370
    15
100
AcDbLine
 10
166.7390679697
 20
129.8665582385
 30
0.0
 11
168.6187760598
 21
129.8665582385
 31
0.0
  0
LINE
  5
107
330
1F
100
AcDbEntity
  8
0
  6
Continuous
 62
     7
370
    15
100
AcDbLine
 10
162.8459656933
 20
121.3665582385
 30
0.0
 11
162.8459656933
 21
119.9882929758
 31
0.0
  0
LINE
  5
108
330
1F
100
AcDbEntity
  8
0
  6
Continuous
 62
     7
370
    15
100
AcDbLine
 10
162.8459656933
 20
121.3665582385
 30
0.0
 11
162.2390679697
 21
121.3665582385
 31
0.0
  0
LINE
  5
109
330
1F
100
AcDbEntity
  8
0
  6
Continuous
 62
     7
370
    15
100
AcDbLine
 10
162.8459656933
 20
119.9882929758
 30
0.0
 11
164.6345496211
 21
119.7050091114
 31
0.0
  0
LINE
  5
10A
330
1F
100
AcDbEntity
  8
0
  6
Continuous
 62
     7
370
    15
100
AcDbLine
 10
189.1390679697
 20
129.8665582385
 30
0.0
 11
189.2455004368
 21
129.8780174214
 31
0.0
  0
SPLINE
  5
10B
330
1F
100
AcDbEntity
  8
0
  6
Continuous
 62
     7
370
    15
100
AcDbSpline
210
0.0
220
0.0
230
1.0
 70
    24
 71
     3
 72
     9
 73
     5
 74
     0
 42
0.000000001
 43
0.00000001
 40
0.0
 40
0.0
 40
0.0
 40
0.0
 40
0.5634223158186996
 40
1.0
 40
1.0
 40
1.0
 40
1.0
 10
189.2455004367856
 20
129.8780174213855
 30
0.0
 10
189.2937646992354
 20
129.8885321713206
 30
0.0
 10
189.3794273737421
 20
129.9071944600512
 30
0.0
 10
189.477381263138
 20
129.92853448681
 30
0.0
 10
189.5201457453271
 20
129.9378510662727
 30
0.0
  0
SPLINE
  5
10C
330
1F
100
AcDbEntity
  8
0
  6
Continuous
 62
     7
370
    15
100
AcDbSpline
210
0.0
220
0.0
230
1.0
 70
     8
 71
     3
 72
    12
 73
     8
 74
     0
 42
0.000000001
 43
0.00000001
 40
0.0
 40
0.0
 40
0.0
 40
0.0
 40
0.2129306224148186
 40
0.4799428473166482
 40
0.7615382554800507
 40
0.9908839127975372
 40
1.0
 40
1.0
 40
1.0
 40
1.0
 10
194.6750072693457
 20
118.9417800836527
 30
0.0
 10
194.6942426507847
 20
118.9472317212195
 30
0.0
 10
194.7375989498099
 20
118.9595196412316
 30
0.0
 10
194.8509793623547
 20
118.9960401259314
 30
0.0
 10
194.9901850145242
 20
119.043236107452
 30
0.0
 10
195.0911836988828
 20
119.0787493173132
 30
0.0
 10
195.1373048183482
 20
119.0952161738371
 30
0.0
 10
195.1390679696988
 20
119.0958456806803
 30
0.0
  0
LINE
  5
10D
330
1F
100
AcDbEntity
  8
0
  6
Continuous
 62
     7
370
    15
100
AcDbLine
 10
195.1390679697
 20
114.8735680454
 30
0.0
 11
194.6750072693
 21
114.9470680397
 31
0.0
  0
LINE
  5
10E
330
1F
100
AcDbEntity
  8
0
  6
Continuous
 62
     7
370
    15
100
AcDbLine
 10
204.013760075
 20
126.5450408376
 30
0.0
 11
203.9212740312
 21
126.528742987
 31
0.0
  0
LINE
  5
10F
330
1F
100
AcDbEntity
  8
0
  6
Continuous
 62
     7
370
    15
100
AcDbLine
 10
204.013760075
 20
126.5450408376
 30
0.0
 11
204.013760075
 21
120.9168884149
 31
0.0
  0
LINE
  5
110
330
1F
100
AcDbEntity
  8
0
  6
Continuous
 62
     7
370
    15
100
AcDbLine
 10
204.013760075
 20
120.9168884149
 30
0.0
 11
197.9142773349
 21
114.8665582385
 31
0.0
  0
LINE
  5
111
330
1F
100
AcDbEntity
  8
0
  6
Continuous
 62
     7
370
    15
100
AcDbLine
 10
195.1833261489
 20
114.8665582385
 30
0.0
 11
197.9142773349
 21
114.8665582385
 31
0.0
  0
LINE
  5
112
330
1F
100
AcDbEntity
  8
0
  6
Continuous
 62
     7
370
    15
100
AcDbLine
 10
197.8076662993
 20
131.7433527312
 30
0.0
 11
189.5201457453
 21
129.9378510663
 31
0.0
  0
LINE
  5
113
330
1F
100
AcDbEntity
  8
0
  6
Continuous
 62
     7
370
    15
100
AcDbLine
 10
197.8076662993
 20
131.7433527312
 30
0.0
 11
197.8136248819
 21
131.74440275
 31
0.0
  0
LINE
  5
114
330
1F
100
AcDbEntity
  8
0
  6
Continuous
 62
     7
370
    15
100
AcDbLine
 10
197.8136248819
 20
131.6766937688
 30
0.0
 11
197.8136248819
 21
131.74440275
 31
0.0
  0
ARC
  5
115
330
1F
100
AcDbEntity
  8
0
  6
Continuous
 62
     7
370
    15
100
AcDbCircle
 10
198.3678309817
 20
126.1122436125
 30
0.0
 40
1.049681454714006
100
AcDbArc
 50
123.4610612547
 51
338.1644549024
  0
LINE
  5
116
330
1F
100
AcDbEntity
  8
0
  6
Continuous
 62
     7
370
    15
100
AcDbLine
 10
195.1390679697
 20
114.8735680454
 30
0.0
 11
195.1833261489
 21
114.8665582385
 31
0.0
  0
ARC
  5
117
330
1F
100
AcDbEntity
  8
0
  6
Continuous
 62
     7
370
    15
100
AcDbCircle
 10
198.3667742602
 20
126.0283624613
 30
0.0
 40
1.049201318627032
100
AcDbArc
 50
123.4092348212
 51
177.7065823328
  0
LINE
  5
118
330
1F
100
AcDbEntity
  8
0
  6
Continuous
 62
     7
370
    15
100
AcDbLine
 10
204.013760075
 20
126.5450408376
 30
0.0
 11
203.9786537842
 21
126.5645021813
 31
0.0
  0
LINE
  5
119
330
1F
100
AcDbEntity
  8
0
  6
Continuous
 62
     7
370
    15
100
AcDbLine
 10
197.8335619918
 20
131.7220169231
 30
0.0
 11
197.8136248819
 21
131.74440275
 31
0.0
  0
LINE
  5
11A
330
1F
100
AcDbEntity
  8
0
  6
Continuous
 62
     7
370
    15
100
AcDbLine
 10
120.4390679697
 20
118.8117629168
 30
0.0
 11
120.4390679697
 21
113.3769592595
 31
0.0
  0
LINE
  5
11B
330
1F
100
AcDbEntity
  8
0
  6
Continuous
 62
     7
370
    15
100
AcDbLine
 10
120.1390679697
 20
113.4413036388
 30
0.0
 11
120.1390679697
 21
118.5117629168
 31
0.0
  0
LINE
  5
11C
330
1F
100
AcDbEntity
  8
0
  6
Continuous
 62
     7
370
    15
100
AcDbLine
 10
120.1390679697
 20
113.2841998916
 30
0.0
 11
120.1390679697
 21
113.4413036388
 31
0.0
  0
LINE
  5
11D
330
1F
100
AcDbEntity
  8
0
  6
Continuous
 62
     7
370
    15
100
AcDbLine
 10
120.4390679697
 20
113.3769592595
 30
0.0
 11
120.4390679697
 21
112.9841998916
 31
0.0
  0
LINE
  5
11E
330
1F
100
AcDbEntity
  8
0
  6
Continuous
 62
     7
370
    15
100
AcDbLine
 10
120.4390679697
 20
85.4465665741
 30
0.0
 11
120.4390679697
 21
80.0117629168
 31
0.0
  0
LINE
  5
11F
330
1F
100
AcDbEntity
  8
0
  6
Continuous
 62
     7
370
    15
100
AcDbLine
 10
120.1390679697
 20
80.3117629168
 30
0.0
 11
120.1390679697
 21
85.3822221949
 31
0.0
  0
LINE
  5
120
330
1F
100
AcDbEntity
  8
0
  6
Continuous
 62
     7
370
    15
100
AcDbLine
 10
120.4390679697
 20
85.839325942
 30
0.0
 11
120.4390679697
 21
85.4465665741
 31
0.0
  0
LINE
  5
121
330
1F
100
AcDbEntity
  8
0
  6
Continuous
 62
     7
370
    15
100
AcDbLine
 10
120.1390679697
 20
85.3822221949
 30
0.0
 11
120.1390679697
 21
85.539325942
 31
0.0
  0
LINE
  5
122
330
1F
100
AcDbEntity
  8
0
  6
Continuous
 62
     7
370
    15
100
AcDbLine
 10
180.1390679697
 20
100.8551385898
 30
0.0
 11
177.6390679697
 21
102.2985142628
 31
0.0
  0
LINE
  5
123
330
1F
100
AcDbEntity
  8
0
  6
Continuous
 62
     7
370
    15
100
AcDbLine
 10
175.1390679697
 20
100.8551385898
 30
0.0
 11
177.6390679697
 21
102.2985142628
 31
0.0
  0
LINE
  5
124
330
1F
100
AcDbEntity
  8
0
  6
Continuous
 62
     7
370
    15
100
AcDbLine
 10
175.1390679697
 20
97.9683872439
 30
0.0
 11
175.1390679697
 21
100.8551385898
 31
0.0
  0
LINE
  5
125
330
1F
100
AcDbEntity
  8
0
  6
Continuous
 62
     7
370
    15
100
AcDbLine
 10
175.1390679697
 20
97.9683872439
 30
0.0
 11
177.6390679697
 21
96.5250115709
 31
0.0
  0
LINE
  5
126
330
1F
100
AcDbEntity
  8
0
  6
Continuous
 62
     7
370
    15
100
AcDbLine
 10
180.1390679697
 20
97.9683872439
 30
0.0
 11
177.6390679697
 21
96.5250115709
 31
0.0
  0
LINE
  5
127
330
1F
100
AcDbEntity
  8
0
  6
Continuous
 62
     7
370
    15
100
AcDbLine
 10
180.1390679697
 20
97.9683872439
 30
0.0
 11
180.1390679697
 21
100.8551385898
 31
0.0
  0
CIRCLE
  5
128
330
1F
100
AcDbEntity
  8
0
  6
Continuous
 62
     7
370
    15
100
AcDbCircle
 10
177.6390679697
 20
99.4117629168
 30
0.0
 40
4.171999999999997
  0
LINE
  5
129
330
1F
100
AcDbEntity
  8
0
  6
Continuous
 62
     7
370
    15
100
AcDbLine
 10
192.5890679697
 20
76.7361060956
 30
0.0
 11
192.5887535399
 21
76.7361060956
 31
0.0
  0
LINE
  5
12A
330
1F
100
AcDbEntity
  8
0
  6
Continuous
 62
     7
370
    15
100
AcDbLine
 10
192.5887535399
 20
76.7361060956
 30
0.0
 11
192.5887535399
 21
76.7465582385
 31
0.0
  0
LINE
  5
12B
330
1F
100
AcDbEntity
  8
0
  6
Continuous
 62
     7
370
    15
100
AcDbLine
 10
192.4837447271
 20
76.7465582385
 30
0.0
 11
192.5887535399
 21
76.7465582385
 31
0.0
  0
LINE
  5
12C
330
1F
100
AcDbEntity
  8
0
  6
Continuous
 62
     7
370
    15
100
AcDbLine
 10
192.4837447271
 20
76.7361060956
 30
0.0
 11
192.4837447271
 21
76.7465582385
 31
0.0
  0
LINE
  5
12D
330
1F
100
AcDbEntity
  8
0
  6
Continuous
 62
     7
370
    15
100
AcDbLine
 10
192.4837447271
 20
76.7361060956
 30
0.0
 11
192.4587184225
 21
76.7361060956
 31
0.0
  0
LINE
  5
12E
330
1F
100
AcDbEntity
  8
0
  6
Continuous
 62
     7
370
    15
100
AcDbLine
 10
192.4587184225
 20
76.7361060956
 30
0.0
 11
192.4587184225
 21
76.7465582385
 31
0.0
  0
LINE
  5
12F
330
1F
100
AcDbEntity
  8
0
  6
Continuous
 62
     7
370
    15
100
AcDbLine
 10
192.1446671563
 20
76.7465582385
 30
0.0
 11
192.4587184225
 21
76.7465582385
 31
0.0
  0
LINE
  5
130
330
1F
100
AcDbEntity
  8
0
  6
Continuous
 62
     7
370
    15
100
AcDbLine
 10
192.1446671563
 20
76.7361060956
 30
0.0
 11
192.1446671563
 21
76.7465582385
 31
0.0
  0
LINE
  5
131
330
1F
100
AcDbEntity
  8
0
  6
Continuous
 62
     7
370
    15
100
AcDbLine
 10
192.1446671563
 20
76.7361060956
 30
0.0
 11
192.0949685646
 21
76.7361060956
 31
0.0
  0
LINE
  5
132
330
1F
100
AcDbEntity
  8
0
  6
Continuous
 62
     7
370
    15
100
AcDbLine
 10
192.0949685646
 20
76.7361060956
 30
0.0
 11
192.0949685646
 21
76.7465582385
 31
0.0
  0
LINE
  5
133
330
1F
100
AcDbEntity
  8
0
  6
Continuous
 62
     7
370
    15
100
AcDbLine
 10
191.576827621
 20
76.7465582385
 30
0.0
 11
192.0949685646
 21
76.7465582385
 31
0.0
  0
LINE
  5
134
330
1F
100
AcDbEntity
  8
0
  6
Continuous
 62
     7
370
    15
100
AcDbLine
 10
191.576827621
 20
76.7361060956
 30
0.0
 11
191.576827621
 21
76.7465582385
 31
0.0
  0
LINE
  5
135
330
1F
100
AcDbEntity
  8
0
  6
Continuous
 62
     7
370
    15
100
AcDbLine
 10
191.576827621
 20
76.7361060956
 30
0.0
 11
191.5032405188
 21
76.7361060956
 31
0.0
  0
LINE
  5
136
330
1F
100
AcDbEntity
  8
0
  6
Continuous
 62
     7
370
    15
100
AcDbLine
 10
191.5032405188
 20
76.7361060956
 30
0.0
 11
191.5032405188
 21
76.7465582385
 31
0.0
  0
LINE
  5
137
330
1F
100
AcDbEntity
  8
0
  6
Continuous
 62
     7
370
    15
100
AcDbLine
 10
190.7891812901
 20
76.7465582385
 30
0.0
 11
191.5032405188
 21
76.7465582385
 31
0.0
  0
LINE
  5
138
330
1F
100
AcDbEntity
  8
0
  6
Continuous
 62
     7
370
    15
100
AcDbLine
 10
190.7891812901
 20
76.7361060956
 30
0.0
 11
190.7891812901
 21
76.7465582385
 31
0.0
  0
LINE
  5
139
330
1F
100
AcDbEntity
  8
0
  6
Continuous
 62
     7
370
    15
100
AcDbLine
 10
190.7891812901
 20
76.7361060956
 30
0.0
 11
190.6928661898
 21
76.7361060956
 31
0.0
  0
LINE
  5
13A
330
1F
100
AcDbEntity
  8
0
  6
Continuous
 62
     7
370
    15
100
AcDbLine
 10
190.6928661898
 20
76.7361060956
 30
0.0
 11
190.6928661898
 21
76.7465582385
 31
0.0
  0
LINE
  5
13B
330
1F
100
AcDbEntity
  8
0
  6
Continuous
 62
     7
370
    15
100
AcDbLine
 10
189.7941498166
 20
76.7465582385
 30
0.0
 11
190.6928661898
 21
76.7465582385
 31
0.0
  0
LINE
  5
13C
330
1F
100
AcDbEntity
  8
0
  6
Continuous
 62
     7
370
    15
100
AcDbLine
 10
189.7941498166
 20
76.7361060956
 30
0.0
 11
189.7941498166
 21
76.7465582385
 31
0.0
  0
LINE
  5
13D
330
1F
100
AcDbEntity
  8
0
  6
Continuous
 62
     7
370
    15
100
AcDbLine
 10
189.7941498166
 20
76.7361060956
 30
0.0
 11
189.6766256649
 21
76.7361060956
 31
0.0
  0
LINE
  5
13E
330
1F
100
AcDbEntity
  8
0
  6
Continuous
 62
     7
370
    15
100
AcDbLine
 10
189.6766256649
 20
76.7361060956
 30
0.0
 11
189.6766256649
 21
76.7465582385
 31
0.0
  0
LINE
  5
13F
330
1F
100
AcDbEntity
  8
0
  6
Continuous
 62
     7
370
    15
100
AcDbLine
 10
188.6074254412
 20
76.7465582385
 30
0.0
 11
189.6766256649
 21
76.7465582385
 31
0.0
  0
LINE
  5
140
330
1F
100
AcDbEntity
  8
0
  6
Continuous
 62
     7
370
    15
100
AcDbLine
 10
188.6074254412
 20
76.7361060956
 30
0.0
 11
188.6074254412
 21
76.7465582385
 31
0.0
  0
LINE
  5
141
330
1F
100
AcDbEntity
  8
0
  6
Continuous
 62
     7
370
    15
100
AcDbLine
 10
188.6074254412
 20
76.7361060956
 30
0.0
 11
188.4705456643
 21
76.7361060956
 31
0.0
  0
LINE
  5
142
330
1F
100
AcDbEntity
  8
0
  6
Continuous
 62
     7
370
    15
100
AcDbLine
 10
188.4705456643
 20
76.7361060956
 30
0.0
 11
188.4705456643
 21
76.7465582385
 31
0.0
  0
LINE
  5
143
330
1F
100
AcDbEntity
  8
0
  6
Continuous
 62
     7
370
    15
100
AcDbLine
 10
187.2477235164
 20
76.7465582385
 30
0.0
 11
188.4705456643
 21
76.7465582385
 31
0.0
  0
LINE
  5
144
330
1F
100
AcDbEntity
  8
0
  6
Continuous
 62
     7
370
    15
100
AcDbLine
 10
187.2477235164
 20
76.7361060956
 30
0.0
 11
187.2477235164
 21
76.7465582385
 31
0.0
  0
LINE
  5
145
330
1F
100
AcDbEntity
  8
0
  6
Continuous
 62
     7
370
    15
100
AcDbLine
 10
187.2477235164
 20
76.7361060956
 30
0.0
 11
187.0936467901
 21
76.7361060956
 31
0.0
  0
LINE
  5
146
330
1F
100
AcDbEntity
  8
0
  6
Continuous
 62
     7
370
    15
100
AcDbLine
 10
187.0936467901
 20
76.7361060956
 30
0.0
 11
187.0936467901
 21
76.7465582385
 31
0.0
  0
LINE
  5
147
330
1F
100
AcDbEntity
  8
0
  6
Continuous
 62
     7
370
    15
100
AcDbLine
 10
185.7364873536
 20
76.7465582385
 30
0.0
 11
187.0936467901
 21
76.7465582385
 31
0.0
  0
LINE
  5
148
330
1F
100
AcDbEntity
  8
0
  6
Continuous
 62
     7
370
    15
100
AcDbLine
 10
185.7364873536
 20
76.7361060956
 30
0.0
 11
185.7364873536
 21
76.7465582385
 31
0.0
  0
LINE
  5
149
330
1F
100
AcDbEntity
  8
0
  6
Continuous
 62
     7
370
    15
100
AcDbLine
 10
185.7364873536
 20
76.7361060956
 30
0.0
 11
185.5676435599
 21
76.7361060956
 31
0.0
  0
LINE
  5
14A
330
1F
100
AcDbEntity
  8
0
  6
Continuous
 62
     7
370
    15
100
AcDbLine
 10
185.5676435599
 20
76.7361060956
 30
0.0
 11
185.5676435599
 21
76.7465582385
 31
0.0
  0
LINE
  5
14B
330
1F
100
AcDbEntity
  8
0
  6
Continuous
 62
     7
370
    15
100
AcDbLine
 10
184.09755005
 20
76.7465582385
 30
0.0
 11
185.5676435599
 21
76.7465582385
 31
0.0
  0
LINE
  5
14C
330
1F
100
AcDbEntity
  8
0
  6
Continuous
 62
     7
370
    15
100
AcDbLine
 10
184.09755005
 20
76.7361060956
 30
0.0
 11
184.09755005
 21
76.7465582385
 31
0.0
  0
LINE
  5
14D
330
1F
100
AcDbEntity
  8
0
  6
Continuous
 62
     7
370
    15
100
AcDbLine
 10
184.09755005
 20
76.7361060956
 30
0.0
 11
183.9166019564
 21
76.7361060956
 31
0.0
  0
LINE
  5
14E
330
1F
100
AcDbEntity
  8
0
  6
Continuous
 62
     7
370
    15
100
AcDbLine
 10
183.9166019564
 20
76.7361060956
 30
0.0
 11
183.9166019564
 21
76.7465582385
 31
0.0
  0
LINE
  5
14F
330
1F
100
AcDbEntity
  8
0
  6
Continuous
 62
     7
370
    15
100
AcDbLine
 10
182.3567586259
 20
76.7465582385
 30
0.0
 11
183.9166019564
 21
76.7465582385
 31
0.0
  0
LINE
  5
150
330
1F
100
AcDbEntity
  8
0
  6
Continuous
 62
     7
370
    15
100
AcDbLine
 10
182.3567586259
 20
76.7361060956
 30
0.0
 11
182.3567586259
 21
76.7465582385
 31
0.0
  0
LINE
  5
151
330
1F
100
AcDbEntity
  8
0
  6
Continuous
 62
     7
370
    15
100
AcDbLine
 10
182.3567586259
 20
76.7361060956
 30
0.0
 11
182.1665598919
 21
76.7361060956
 31
0.0
  0
LINE
  5
152
330
1F
100
AcDbEntity
  8
0
  6
Continuous
 62
     7
370
    15
100
AcDbLine
 10
182.1665598919
 20
76.7361060956
 30
0.0
 11
182.1665598919
 21
76.7465582385
 31
0.0
  0
LINE
  5
153
330
1F
100
AcDbEntity
  8
0
  6
Continuous
 62
     7
370
    15
100
AcDbLine
 10
180.5415664019
 20
76.7465582385
 30
0.0
 11
182.1665598919
 21
76.7465582385
 31
0.0
  0
LINE
  5
154
330
1F
100
AcDbEntity
  8
0
  6
Continuous
 62
     7
370
    15
100
AcDbLine
 10
180.5415664019
 20
76.7361060956
 30
0.0
 11
180.5415664019
 21
76.7465582385
 31
0.0
  0
LINE
  5
155
330
1F
100
AcDbEntity
  8
0
  6
Continuous
 62
     7
370
    15
100
AcDbLine
 10
180.5415664019
 20
76.7361060956
 30
0.0
 11
180.3451165752
 21
76.7361060956
 31
0.0
  0
LINE
  5
156
330
1F
100
AcDbEntity
  8
0
  6
Continuous
 62
     7
370
    15
100
AcDbLine
 10
180.3451165752
 20
76.7361060956
 30
0.0
 11
180.3451165752
 21
76.7465582385
 31
0.0
  0
LINE
  5
157
330
1F
100
AcDbEntity
  8
0
  6
Continuous
 62
     7
370
    15
100
AcDbLine
 10
178.6806000438
 20
76.7465582385
 30
0.0
 11
180.3451165752
 21
76.7465582385
 31
0.0
  0
LINE
  5
158
330
1F
100
AcDbEntity
  8
0
  6
Continuous
 62
     7
370
    15
100
AcDbLine
 10
178.6806000438
 20
76.7361060956
 30
0.0
 11
178.6806000438
 21
76.7465582385
 31
0.0
  0
LINE
  5
159
330
1F
100
AcDbEntity
  8
0
  6
Continuous
 62
     7
370
    15
100
AcDbLine
 10
178.6806000438
 20
76.7361060956
 30
0.0
 11
178.4809972555
 21
76.7361060956
 31
0.0
  0
LINE
  5
15A
330
1F
100
AcDbEntity
  8
0
  6
Continuous
 62
     7
370
    15
100
AcDbLine
 10
178.4809972555
 20
76.7361060956
 30
0.0
 11
178.4809972555
 21
76.7465582385
 31
0.0
  0
LINE
  5
15B
330
1F
100
AcDbEntity
  8
0
  6
Continuous
 62
     7
370
    15
100
AcDbLine
 10
176.8032081027
 20
76.7465582385
 30
0.0
 11
178.4809972555
 21
76.7465582385
 31
0.0
  0
LINE
  5
15C
330
1F
100
AcDbEntity
  8
0
  6
Continuous
 62
     7
370
    15
100
AcDbLine
 10
176.8032081027
 20
76.7361060956
 30
0.0
 11
176.8032081027
 21
76.7465582385
 31
0.0
  0
LINE
  5
15D
330
1F
100
AcDbEntity
  8
0
  6
Continuous
 62
     7
370
    15
100
AcDbLine
 10
176.8032081027
 20
76.7361060956
 30
0.0
 11
176.603600208
 21
76.7361060956
 31
0.0
  0
LINE
  5
15E
330
1F
100
AcDbEntity
  8
0
  6
Continuous
 62
     7
370
    15
100
AcDbLine
 10
176.603600208
 20
76.7361060956
 30
0.0
 11
176.603600208
 21
76.7465582385
 31
0.0
  0
LINE
  5
15F
330
1F
100
AcDbEntity
  8
0
  6
Continuous
 62
     7
370
    15
100
AcDbLine
 10
174.938998171
 20
76.7465582385
 30
0.0
 11
176.603600208
 21
76.7465582385
 31
0.0
  0
LINE
  5
160
330
1F
100
AcDbEntity
  8
0
  6
Continuous
 62
     7
370
    15
100
AcDbLine
 10
174.938998171
 20
76.7361060956
 30
0.0
 11
174.938998171
 21
76.7465582385
 31
0.0
  0
LINE
  5
161
330
1F
100
AcDbEntity
  8
0
  6
Continuous
 62
     7
370
    15
100
AcDbLine
 10
174.938998171
 20
76.7361060956
 30
0.0
 11
174.7425331056
 21
76.7361060956
 31
0.0
  0
LINE
  5
162
330
1F
100
AcDbEntity
  8
0
  6
Continuous
 62
     7
370
    15
100
AcDbLine
 10
174.7425331056
 20
76.7361060956
 30
0.0
 11
174.7425331056
 21
76.7465582385
 31
0.0
  0
LINE
  5
163
330
1F
100
AcDbEntity
  8
0
  6
Continuous
 62
     7
370
    15
100
AcDbLine
 10
173.117369953
 20
76.7465582385
 30
0.0
 11
174.7425331056
 21
76.7465582385
 31
0.0
  0
LINE
  5
164
330
1F
100
AcDbEntity
  8
0
  6
Continuous
 62
     7
370
    15
100
AcDbLine
 10
173.117369953
 20
76.7361060956
 30
0.0
 11
173.117369953
 21
76.7465582385
 31
0.0
  0
LINE
  5
165
330
1F
100
AcDbEntity
  8
0
  6
Continuous
 62
     7
370
    15
100
AcDbLine
 10
173.117369953
 20
76.7361060956
 30
0.0
 11
172.9271460884
 21
76.7361060956
 31
0.0
  0
LINE
  5
166
330
1F
100
AcDbEntity
  8
0
  6
Continuous
 62
     7
370
    15
100
AcDbLine
 10
172.9271460884
 20
76.7361060956
 30
0.0
 11
172.9271460884
 21
76.7465582385
 31
0.0
  0
LINE
  5
167
330
1F
100
AcDbEntity
  8
0
  6
Continuous
 62
     7
370
    15
100
AcDbLine
 10
171.3670516138
 20
76.7465582385
 30
0.0
 11
172.9271460884
 21
76.7465582385
 31
0.0
  0
LINE
  5
168
330
1F
100
AcDbEntity
  8
0
  6
Continuous
 62
     7
370
    15
100
AcDbLine
 10
171.3670516138
 20
76.7361060956
 30
0.0
 11
171.3670516138
 21
76.7465582385
 31
0.0
  0
LINE
  5
169
330
1F
100
AcDbEntity
  8
0
  6
Continuous
 62
     7
370
    15
100
AcDbLine
 10
171.3670516138
 20
76.7361060956
 30
0.0
 11
171.186068894
 21
76.7361060956
 31
0.0
  0
LINE
  5
16A
330
1F
100
AcDbEntity
  8
0
  6
Continuous
 62
     7
370
    15
100
AcDbLine
 10
171.186068894
 20
76.7361060956
 30
0.0
 11
171.186068894
 21
76.7465582385
 31
0.0
  0
LINE
  5
16B
330
1F
100
AcDbEntity
  8
0
  6
Continuous
 62
     7
370
    15
100
AcDbLine
 10
169.7156467193
 20
76.7465582385
 30
0.0
 11
171.186068894
 21
76.7465582385
 31
0.0
  0
LINE
  5
16C
330
1F
100
AcDbEntity
  8
0
  6
Continuous
 62
     7
370
    15
100
AcDbLine
 10
169.7156467193
 20
76.7361060956
 30
0.0
 11
169.7156467193
 21
76.7465582385
 31
0.0
  0
LINE
  5
16D
330
1F
100
AcDbEntity
  8
0
  6
Continuous
 62
     7
370
    15
100
AcDbLine
 10
169.7156467193
 20
76.7361060956
 30
0.0
 11
169.5467593498
 21
76.7361060956
 31
0.0
  0
LINE
  5
16E
330
1F
100
AcDbEntity
  8
0
  6
Continuous
 62
     7
370
    15
100
AcDbLine
 10
169.5467593498
 20
76.7361060956
 30
0.0
 11
169.5467593498
 21
76.7465582385
 31
0.0
  0
LINE
  5
16F
330
1F
100
AcDbEntity
  8
0
  6
Continuous
 62
     7
370
    15
100
AcDbLine
 10
168.1891989112
 20
76.7465582385
 30
0.0
 11
169.5467593498
 21
76.7465582385
 31
0.0
  0
LINE
  5
170
330
1F
100
AcDbEntity
  8
0
  6
Continuous
 62
     7
370
    15
100
AcDbLine
 10
168.1891989112
 20
76.7361060956
 30
0.0
 11
168.1891989112
 21
76.7465582385
 31
0.0
  0
LINE
  5
171
330
1F
100
AcDbEntity
  8
0
  6
Continuous
 62
     7
370
    15
100
AcDbLine
 10
168.1891989112
 20
76.7361060956
 30
0.0
 11
168.0350703467
 21
76.7361060956
 31
0.0
  0
LINE
  5
172
330
1F
100
AcDbEntity
  8
0
  6
Continuous
 62
     7
370
    15
100
AcDbLine
 10
168.0350703467
 20
76.7361060956
 30
0.0
 11
168.0350703467
 21
76.7465582385
 31
0.0
  0
LINE
  5
173
330
1F
100
AcDbEntity
  8
0
  6
Continuous
 62
     7
370
    15
100
AcDbLine
 10
166.8117811831
 20
76.7465582385
 30
0.0
 11
168.0350703467
 21
76.7465582385
 31
0.0
  0
LINE
  5
174
330
1F
100
AcDbEntity
  8
0
  6
Continuous
 62
     7
370
    15
100
AcDbLine
 10
166.8117811831
 20
76.7361060956
 30
0.0
 11
166.8117811831
 21
76.7465582385
 31
0.0
  0
LINE
  5
175
330
1F
100
AcDbEntity
  8
0
  6
Continuous
 62
     7
370
    15
100
AcDbLine
 10
166.8117811831
 20
76.7361060956
 30
0.0
 11
166.6748421233
 21
76.7361060956
 31
0.0
  0
LINE
  5
176
330
1F
100
AcDbEntity
  8
0
  6
Continuous
 62
     7
370
    15
100
AcDbLine
 10
166.6748421233
 20
76.7361060956
 30
0.0
 11
166.6748421233
 21
76.7465582385
 31
0.0
  0
LINE
  5
177
330
1F
100
AcDbEntity
  8
0
  6
Continuous
 62
     7
370
    15
100
AcDbLine
 10
165.6051162356
 20
76.7465582385
 30
0.0
 11
166.6748421233
 21
76.7465582385
 31
0.0
  0
LINE
  5
178
330
1F
100
AcDbEntity
  8
0
  6
Continuous
 62
     7
370
    15
100
AcDbLine
 10
165.6051162356
 20
76.7361060956
 30
0.0
 11
165.6051162356
 21
76.7465582385
 31
0.0
  0
LINE
  5
179
330
1F
100
AcDbEntity
  8
0
  6
Continuous
 62
     7
370
    15
100
AcDbLine
 10
165.6051162356
 20
76.7361060956
 30
0.0
 11
165.4875262912
 21
76.7361060956
 31
0.0
  0
LINE
  5
17A
330
1F
100
AcDbEntity
  8
0
  6
Continuous
 62
     7
370
    15
100
AcDbLine
 10
165.4875262912
 20
76.7361060956
 30
0.0
 11
165.4875262912
 21
76.7465582385
 31
0.0
  0
LINE
  5
17B
330
1F
100
AcDbEntity
  8
0
  6
Continuous
 62
     7
370
    15
100
AcDbLine
 10
164.5882338957
 20
76.7465582385
 30
0.0
 11
165.4875262912
 21
76.7465582385
 31
0.0
  0
LINE
  5
17C
330
1F
100
AcDbEntity
  8
0
  6
Continuous
 62
     7
370
    15
100
AcDbLine
 10
164.5882338957
 20
76.7361060956
 30
0.0
 11
164.5882338957
 21
76.7465582385
 31
0.0
  0
LINE
  5
17D
330
1F
100
AcDbEntity
  8
0
  6
Continuous
 62
     7
370
    15
100
AcDbLine
 10
164.5882338957
 20
76.7361060956
 30
0.0
 11
164.4918475303
 21
76.7361060956
 31
0.0
  0
LINE
  5
17E
330
1F
100
AcDbEntity
  8
0
  6
Continuous
 62
     7
370
    15
100
AcDbLine
 10
164.4918475303
 20
76.7361060956
 30
0.0
 11
164.4918475303
 21
76.7465582385
 31
0.0
  0
LINE
  5
17F
330
1F
100
AcDbEntity
  8
0
  6
Continuous
 62
     7
370
    15
100
AcDbLine
 10
163.7771710053
 20
76.7465582385
 30
0.0
 11
164.4918475303
 21
76.7465582385
 31
0.0
  0
LINE
  5
180
330
1F
100
AcDbEntity
  8
0
  6
Continuous
 62
     7
370
    15
100
AcDbLine
 10
163.7771710053
 20
76.7361060956
 30
0.0
 11
163.7771710053
 21
76.7465582385
 31
0.0
  0
LINE
  5
181
330
1F
100
AcDbEntity
  8
0
  6
Continuous
 62
     7
370
    15
100
AcDbLine
 10
163.7771710053
 20
76.7361060956
 30
0.0
 11
163.7035082895
 21
76.7361060956
 31
0.0
  0
LINE
  5
182
330
1F
100
AcDbEntity
  8
0
  6
Continuous
 62
     7
370
    15
100
AcDbLine
 10
163.7035082895
 20
76.7361060956
 30
0.0
 11
163.7035082895
 21
76.7465582385
 31
0.0
  0
LINE
  5
183
330
1F
100
AcDbEntity
  8
0
  6
Continuous
 62
     7
370
    15
100
AcDbLine
 10
163.1847185107
 20
76.7465582385
 30
0.0
 11
163.7035082895
 21
76.7465582385
 31
0.0
  0
LINE
  5
184
330
1F
100
AcDbEntity
  8
0
  6
Continuous
 62
     7
370
    15
100
AcDbLine
 10
163.1847185107
 20
76.7361060956
 30
0.0
 11
163.1847185107
 21
76.7465582385
 31
0.0
  0
LINE
  5
185
330
1F
100
AcDbEntity
  8
0
  6
Continuous
 62
     7
370
    15
100
AcDbLine
 10
163.1847185107
 20
76.7361060956
 30
0.0
 11
163.1349411496
 21
76.7361060956
 31
0.0
  0
LINE
  5
186
330
1F
100
AcDbEntity
  8
0
  6
Continuous
 62
     7
370
    15
100
AcDbLine
 10
163.1349411496
 20
76.7361060956
 30
0.0
 11
163.1349411496
 21
76.7465582385
 31
0.0
  0
LINE
  5
187
330
1F
100
AcDbEntity
  8
0
  6
Continuous
 62
     7
370
    15
100
AcDbLine
 10
162.8202197417
 20
76.7465582385
 30
0.0
 11
163.1349411496
 21
76.7465582385
 31
0.0
  0
LINE
  5
188
330
1F
100
AcDbEntity
  8
0
  6
Continuous
 62
     7
370
    15
100
AcDbLine
 10
162.8202197417
 20
76.7361060956
 30
0.0
 11
162.8202197417
 21
76.7465582385
 31
0.0
  0
LINE
  5
189
330
1F
100
AcDbEntity
  8
0
  6
Continuous
 62
     7
370
    15
100
AcDbLine
 10
162.8202197417
 20
76.7361060956
 30
0.0
 11
162.795112754
 21
76.7361060956
 31
0.0
  0
LINE
  5
18A
330
1F
100
AcDbEntity
  8
0
  6
Continuous
 62
     7
370
    15
100
AcDbLine
 10
162.795112754
 20
76.7361060956
 30
0.0
 11
162.795112754
 21
76.7465582385
 31
0.0
  0
LINE
  5
18B
330
1F
100
AcDbEntity
  8
0
  6
Continuous
 62
     7
370
    15
100
AcDbLine
 10
162.6894230617
 20
76.7465582385
 30
0.0
 11
162.795112754
 21
76.7465582385
 31
0.0
  0
LINE
  5
18C
330
1F
100
AcDbEntity
  8
0
  6
Continuous
 62
     7
370
    15
100
AcDbLine
 10
162.6894230617
 20
76.7361060956
 30
0.0
 11
162.6894230617
 21
76.7465582385
 31
0.0
  0
LINE
  5
18D
330
1F
100
AcDbEntity
  8
0
  6
Continuous
 62
     7
370
    15
100
AcDbLine
 10
162.6894230617
 20
76.7361060956
 30
0.0
 11
162.6890679697
 21
76.7361060956
 31
0.0
  0
LINE
  5
18E
330
1F
100
AcDbEntity
  8
0
  6
Continuous
 62
     7
370
    15
100
AcDbLine
 10
171.2390679697
 20
74.1465582385
 30
0.0
 11
184.0390678374
 21
74.1465582385
 31
0.0
  0
LWPOLYLINE
  5
18F
330
1F
100
AcDbEntity
  8
0
  6
Continuous
 62
     7
370
    15
100
AcDbPolyline
 90
        3
 70
   128
 43
0.0
 10
162.6894230617
 20
76.7465582385
 10
163.474526486
 20
76.5078189696
 10
167.6890885064
 20
75.2262432092
  0
LINE
  5
190
330
1F
100
AcDbEntity
  8
0
  6
Continuous
 62
     7
370
    15
100
AcDbLine
 10
162.8202197417
 20
76.7465582385
 30
0.0
 11
165.7961555332
 21
75.8344047703
 31
0.0
  0
LINE
  5
191
330
1F
100
AcDbEntity
  8
0
  6
Continuous
 62
     7
370
    15
100
AcDbLine
 10
163.1847185107
 20
76.7465582385
 30
0.0
 11
166.0899923224
 21
75.8344047703
 31
0.0
  0
LINE
  5
192
330
1F
100
AcDbEntity
  8
0
  6
Continuous
 62
     7
370
    15
100
AcDbLine
 10
163.7771710053
 20
76.7465582385
 30
0.0
 11
166.5659649336
 21
75.8344047703
 31
0.0
  0
LINE
  5
193
330
1F
100
AcDbEntity
  8
0
  6
Continuous
 62
     7
370
    15
100
AcDbLine
 10
164.5882338957
 20
76.7465582385
 30
0.0
 11
167.2165669945
 21
75.8344047703
 31
0.0
  0
LWPOLYLINE
  5
194
330
1F
100
AcDbEntity
  8
0
  6
Continuous
 62
     7
370
    15
100
AcDbPolyline
 90
        3
 70
   128
 43
0.0
 10
165.6051162356
 20
76.7465582385
 10
166.2401844259
 20
76.5078189696
 10
169.6493330708
 20
75.2262432092
  0
LINE
  5
195
330
1F
100
AcDbEntity
  8
0
  6
Continuous
 62
     7
370
    15
100
AcDbLine
 10
166.8117811831
 20
76.7465582385
 30
0.0
 11
168.9980257341
 21
75.8344047703
 31
0.0
  0
LINE
  5
196
330
1F
100
AcDbEntity
  8
0
  6
Continuous
 62
     7
370
    15
100
AcDbLine
 10
168.1891989112
 20
76.7465582385
 30
0.0
 11
170.1007877443
 21
75.8344047703
 31
0.0
  0
LINE
  5
197
330
1F
100
AcDbEntity
  8
0
  6
Continuous
 62
     7
370
    15
100
AcDbLine
 10
169.7156467193
 20
76.7465582385
 30
0.0
 11
171.3224329369
 21
75.8344047703
 31
0.0
  0
LINE
  5
198
330
1F
100
AcDbEntity
  8
0
  6
Continuous
 62
     7
370
    15
100
AcDbLine
 10
171.3670516138
 20
76.7465582385
 30
0.0
 11
172.6436952373
 21
75.8344047703
 31
0.0
  0
LWPOLYLINE
  5
199
330
1F
100
AcDbEntity
  8
0
  6
Continuous
 62
     7
370
    15
100
AcDbPolyline
 90
        3
 70
   128
 43
0.0
 10
173.117369953
 20
76.7465582385
 10
173.3598284457
 20
76.5078189696
 10
174.6613848054
 20
75.2262432092
  0
LINE
  5
19A
330
1F
100
AcDbEntity
  8
0
  6
Continuous
 62
     7
370
    15
100
AcDbLine
 10
174.938998171
 20
76.7465582385
 30
0.0
 11
175.5004803707
 21
75.8344047703
 31
0.0
  0
LINE
  5
19B
330
1F
100
AcDbEntity
  8
0
  6
Continuous
 62
     7
370
    15
100
AcDbLine
 10
176.8032081027
 20
76.7465582385
 30
0.0
 11
176.9909499956
 21
75.8344047703
 31
0.0
  0
LINE
  5
19C
330
1F
100
AcDbEntity
  8
0
  6
Continuous
 62
     7
370
    15
100
AcDbLine
 10
178.2920380398
 20
75.8344047703
 30
0.0
 11
178.4809972555
 21
76.7465582385
 31
0.0
  0
LINE
  5
19D
330
1F
100
AcDbEntity
  8
0
  6
Continuous
 62
     7
370
    15
100
AcDbLine
 10
179.7824362507
 20
75.8344047703
 30
0.0
 11
180.3451165752
 21
76.7465582385
 31
0.0
  0
LWPOLYLINE
  5
19E
330
1F
100
AcDbEntity
  8
0
  6
Continuous
 62
     7
370
    15
100
AcDbPolyline
 90
        3
 70
   128
 43
0.0
 10
180.620611567
 20
75.2262432092
 10
181.9237977837
 20
76.5078189696
 10
182.1665598919
 20
76.7465582385
  0
LINE
  5
19F
330
1F
100
AcDbEntity
  8
0
  6
Continuous
 62
     7
370
    15
100
AcDbLine
 10
182.6388546886
 20
75.8344047703
 30
0.0
 11
183.9166019564
 21
76.7465582385
 31
0.0
  0
LINE
  5
1A0
330
1F
100
AcDbEntity
  8
0
  6
Continuous
 62
     7
370
    15
100
AcDbLine
 10
183.9598274906
 20
75.8344047703
 30
0.0
 11
185.5676435599
 21
76.7465582385
 31
0.0
  0
LINE
  5
1A1
330
1F
100
AcDbEntity
  8
0
  6
Continuous
 62
     7
370
    15
100
AcDbLine
 10
185.1811181391
 20
75.8344047703
 30
0.0
 11
187.0936467901
 21
76.7465582385
 31
0.0
  0
LINE
  5
1A2
330
1F
100
AcDbEntity
  8
0
  6
Continuous
 62
     7
370
    15
100
AcDbLine
 10
186.283466151
 20
75.8344047703
 30
0.0
 11
188.4705456643
 21
76.7465582385
 31
0.0
  0
LWPOLYLINE
  5
1A3
330
1F
100
AcDbEntity
  8
0
  6
Continuous
 62
     7
370
    15
100
AcDbPolyline
 90
        3
 70
   128
 43
0.0
 10
185.6312138781
 20
75.2262432092
 10
189.04136983
 20
76.5078189696
 10
189.6766256649
 20
76.7465582385
  0
LINE
  5
1A4
330
1F
100
AcDbEntity
  8
0
  6
Continuous
 62
     7
370
    15
100
AcDbLine
 10
188.0639454818
 20
75.8344047703
 30
0.0
 11
190.6928661898
 21
76.7465582385
 31
0.0
  0
LINE
  5
1A5
330
1F
100
AcDbEntity
  8
0
  6
Continuous
 62
     7
370
    15
100
AcDbLine
 10
188.7139975781
 20
75.8344047703
 30
0.0
 11
191.5032405188
 21
76.7465582385
 31
0.0
  0
LINE
  5
1A6
330
1F
100
AcDbEntity
  8
0
  6
Continuous
 62
     7
370
    15
100
AcDbLine
 10
189.1893914185
 20
75.8344047703
 30
0.0
 11
192.0949685646
 21
76.7465582385
 31
0.0
  0
LINE
  5
1A7
330
1F
100
AcDbEntity
  8
0
  6
Continuous
 62
     7
370
    15
100
AcDbLine
 10
189.4826297584
 20
75.8344047703
 30
0.0
 11
192.4587184225
 21
76.7465582385
 31
0.0
  0
LWPOLYLINE
  5
1A8
330
1F
100
AcDbEntity
  8
0
  6
Continuous
 62
     7
370
    15
100
AcDbPolyline
 90
        3
 70
   128
 43
0.0
 10
187.5890880951
 20
75.2262432092
 10
191.8036501156
 20
76.5078189696
 10
192.5887535399
 20
76.7465582385
  0
LINE
  5
1A9
330
1F
100
AcDbEntity
  8
0
  6
Continuous
 62
     7
370
    15
100
AcDbLine
 10
187.5890681753
 20
75.2260934934
 30
0.0
 11
187.5890880951
 21
75.2262432092
 31
0.0
  0
SPLINE
  5
1AA
330
1F
100
AcDbEntity
  8
0
  6
Continuous
 62
     7
370
    15
100
AcDbSpline
210
0.0
220
0.0
230
1.0
 70
     8
 71
     3
 72
    11
 73
     7
 74
     0
 42
0.000000001
 43
0.00000001
 40
0.0
 40
0.0
 40
0.0
 40
0.0
 40
0.2509280867448647
 40
0.5021888913103137
 40
0.8980666468446634
 40
1.0
 40
1.0
 40
1.0
 40
1.0
 10
187.1806220261393
 20
75.1018948211307
 30
0.0
 10
187.1780522559389
 20
75.10180057993192
 30
0.0
 10
187.172909308154
 20
75.10161197257538
 30
0.0
 10
187.1061035649471
 20
75.09249738168933
 30
0.0
 10
186.9842083450074
 20
75.07204114613612
 30
0.0
 10
186.8249447074986
 20
75.03667193406991
 30
0.0
 10
186.7923333890213
 20
75.02942962404221
 30
0.0
  0
SPLINE
  5
1AB
330
1F
100
AcDbEntity
  8
0
  6
Continuous
 62
     7
370
    15
100
AcDbSpline
210
0.0
220
0.0
230
1.0
 70
     8
 71
     3
 72
    10
 73
     6
 74
     0
 42
0.000000001
 43
0.00000001
 40
0.0
 40
0.0
 40
0.0
 40
0.0
 40
0.4355816290621601
 40
0.8121027856900148
 40
1.0
 40
1.0
 40
1.0
 40
1.0
 10
186.7923333890213
 20
75.02942962404221
 30
0.0
 10
186.6831375584225
 20
75.0028148483261
 30
0.0
 10
186.4795517497051
 20
74.9531939918494
 30
0.0
 10
186.1464969634773
 20
74.86077735393069
 30
0.0
 10
185.960801176597
 20
74.80641679688618
 30
0.0
 10
185.8989822797281
 20
74.78831994220722
 30
0.0
  0
SPLINE
  5
1AC
330
1F
100
AcDbEntity
  8
0
  6
Continuous
 62
     7
370
    15
100
AcDbSpline
210
0.0
220
0.0
230
1.0
 70
     8
 71
     3
 72
    12
 73
     8
 74
     0
 42
0.000000001
 43
0.00000001
 40
0.0
 40
0.0
 40
0.0
 40
0.0
 40
0.1768571278804408
 40
0.3070042126728278
 40
0.4371751486712616
 40
0.6346858293561801
 40
1.0
 40
1.0
 40
1.0
 40
1.0
 10
185.8989822797281
 20
74.78831994220722
 30
0.0
 10
185.7417199524047
 20
74.74102885066009
 30
0.0
 10
185.4687301240521
 20
74.6589367998569
 30
0.0
 10
185.1291997535053
 20
74.54343066242873
 30
0.0
 10
184.8689984213408
 20
74.44434420488801
 30
0.0
 10
184.6446967114237
 20
74.34270773738437
 30
0.0
 10
184.6276100185951
 20
74.33025488002394
 30
0.0
 10
184.6165195150308
 20
74.32217207193892
 30
0.0
  0
SPLINE
  5
1AD
330
1F
100
AcDbEntity
  8
0
  6
Continuous
 62
     7
370
    15
100
AcDbSpline
210
0.0
220
0.0
230
1.0
 70
     8
 71
     3
 72
    10
 73
     6
 74
     0
 42
0.000000001
 43
0.00000001
 40
0.0
 40
0.0
 40
0.0
 40
0.0
 40
0.4623759790331676
 40
0.7284271035963166
 40
0.9999999999999999
 40
0.9999999999999999
 40
0.9999999999999999
 40
0.9999999999999999
 10
182.0201270530632
 20
74.7199336920315
 30
0.0
 10
181.8776002981932
 20
74.74934060416196
 30
0.0
 10
181.6530636528163
 20
74.79566825265634
 30
0.0
 10
181.4934010973448
 20
74.90841952737308
 30
0.0
 10
181.4495926394168
 20
74.97735846992904
 30
0.0
 10
181.4274634388184
 20
75.01218196660106
 30
0.0
  0
LINE
  5
1AE
330
1F
100
AcDbEntity
  8
0
  6
Continuous
 62
     7
370
    15
100
AcDbLine
 10
181.4274634388
 20
75.0121819666
 30
0.0
 11
180.9779738669
 21
75.0003069861
 31
0.0
  0
LINE
  5
1AF
330
1F
100
AcDbEntity
  8
0
  6
Continuous
 62
     7
370
    15
100
AcDbLine
 10
181.2357608896
 20
74.7215802852
 30
0.0
 11
178.2776231087
 21
74.7719126959
 31
0.0
  0
LINE
  5
1B0
330
1F
100
AcDbEntity
  8
0
  6
Continuous
 62
     7
370
    15
100
AcDbLine
 10
178.2776231087
 20
74.7719126959
 30
0.0
 11
178.1268877616
 21
74.6280347564
 31
0.0
  0
LINE
  5
1B1
330
1F
100
AcDbEntity
  8
0
  6
Continuous
 62
     7
370
    15
100
AcDbLine
 10
171.0576495293
 20
74.3858547982
 30
0.0
 11
169.5626150342
 21
74.9377321642
 31
0.0
  0
SPLINE
  5
1B2
330
1F
100
AcDbEntity
  8
0
  6
Continuous
 62
     7
370
    15
100
AcDbSpline
210
0.0
220
0.0
230
1.0
 70
     8
 71
     3
 72
    11
 73
     7
 74
     0
 42
0.000000001
 43
0.00000001
 40
0.0
 40
0.0
 40
0.0
 40
0.0
 40
0.0514728209319208
 40
0.3269979284961337
 40
0.6414159529961657
 40
1.0
 40
1.0
 40
1.0
 40
1.0
 10
172.667656012298
 20
74.44532822754418
 30
0.0
 10
172.6705807867172
 20
74.44927163148112
 30
0.0
 10
172.6891613727252
 20
74.47432339463028
 30
0.0
 10
172.6135274400604
 20
74.54793826876472
 30
0.0
 10
172.4307784937835
 20
74.65942851350698
 30
0.0
 10
172.2244153229334
 20
74.73907606748453
 30
0.0
 10
172.1144624058635
 20
74.78151329531565
 30
0.0
  0
SPLINE
  5
1B3
330
1F
100
AcDbEntity
  8
0
  6
Continuous
 62
     7
370
    15
100
AcDbSpline
210
0.0
220
0.0
230
1.0
 70
     8
 71
     3
 72
    12
 73
     8
 74
     0
 42
0.000000001
 43
0.00000001
 40
0.0
 40
0.0
 40
0.0
 40
0.0
 40
0.2808116079531768
 40
0.4712335317383993
 40
0.6626183215571031
 40
0.8411771594512185
 40
1.0
 40
1.0
 40
1.0
 40
1.0
 10
172.1144624058635
 20
74.78151329531565
 30
0.0
 10
171.9645290894383
 20
74.83300194770916
 30
0.0
 10
171.712924083722
 20
74.91940571031961
 30
0.0
 10
171.2886021862416
 20
75.02050967961874
 30
0.0
 10
170.9288974883433
 20
75.08066274276872
 30
0.0
 10
170.629653512202
 20
75.10809101649038
 30
0.0
 10
170.4776501690755
 20
75.11072636757044
 30
0.0
 10
170.4060944081354
 20
75.11196696233633
 30
0.0
  0
SPLINE
  5
1B4
330
1F
100
AcDbEntity
  8
0
  6
Continuous
 62
     7
370
    15
100
AcDbSpline
210
0.0
220
0.0
230
1.0
 70
     8
 71
     3
 72
     9
 73
     5
 74
     0
 42
0.000000001
 43
0.00000001
 40
0.0
 40
0.0
 40
0.0
 40
0.0
 40
0.7281658347929428
 40
1.0
 40
1.0
 40
1.0
 40
1.0
 10
172.1857756812036
 20
74.53610644448581
 30
0.0
 10
172.1672237890269
 20
74.52498863328563
 30
0.0
 10
172.1417462243153
 20
74.50972039263365
 30
0.0
 10
172.0848034181413
 20
74.50522701958312
 30
0.0
 10
172.0693244179604
 20
74.50400556727097
 30
0.0
  0
SPLINE
  5
1B5
330
1F
100
AcDbEntity
  8
0
  6
Continuous
 62
     7
370
    15
100
AcDbSpline
210
0.0
220
0.0
230
1.0
 70
     8
 71
     3
 72
    11
 73
     7
 74
     0
 42
0.000000001
 43
0.00000001
 40
0.0
 40
0.0
 40
0.0
 40
0.0
 40
0.1612415584191162
 40
0.3770619507320411
 40
0.686392211311908
 40
1.0
 40
1.0
 40
1.0
 40
1.0
 10
172.0693244179604
 20
74.50400556727097
 30
0.0
 10
171.9984342300579
 20
74.50514714551737
 30
0.0
 10
171.8326581559468
 20
74.50781671609658
 30
0.0
 10
171.4202935355306
 20
74.57863345504472
 30
0.0
 10
170.9159949633844
 20
74.68872533247104
 30
0.0
 10
170.5382419353706
 20
74.78083949435883
 30
0.0
 10
170.3480684631853
 20
74.82721283541649
 30
0.0
  0
SPLINE
  5
1B6
330
1F
100
AcDbEntity
  8
0
  6
Continuous
 62
     7
370
    15
100
AcDbSpline
210
0.0
220
0.0
230
1.0
 70
     8
 71
     3
 72
    10
 73
     6
 74
     0
 42
0.000000001
 43
0.00000001
 40
0.0
 40
0.0
 40
0.0
 40
0.0
 40
0.48836097781067
 40
0.7397290295169728
 40
1.0
 40
1.0
 40
1.0
 40
1.0
 10
170.3480684631853
 20
74.82721283541649
 30
0.0
 10
170.1077829410977
 20
74.88644615677609
 30
0.0
 10
169.7438182016181
 20
74.97616791857783
 30
0.0
 10
169.2570789293555
 20
75.08873609428083
 30
0.0
 10
169.0316060336969
 20
75.13293990248266
 30
0.0
 10
168.9169078835841
 20
75.15542639698519
 30
0.0
  0
SPLINE
  5
1B7
330
1F
100
AcDbEntity
  8
0
  6
Continuous
 62
     7
370
    15
100
AcDbSpline
210
0.0
220
0.0
230
1.0
 70
     8
 71
     3
 72
    10
 73
     6
 74
     0
 42
0.000000001
 43
0.00000001
 40
0.0
 40
0.0
 40
0.0
 40
0.0
 40
0.4904246181683299
 40
0.7437455899569215
 40
1.0
 40
1.0
 40
1.0
 40
1.0
 10
168.9169078835841
 20
75.15542639698519
 30
0.0
 10
168.8713563210957
 20
75.16351846396567
 30
0.0
 10
168.8022758294945
 20
75.17579035837599
 30
0.0
 10
168.7247152353982
 20
75.18617655173279
 30
0.0
 10
168.690483721295
 20
75.1896643288365
 30
0.0
 10
168.6732694351184
 20
75.19141825631404
 30
0.0
  0
LINE
  5
1B8
330
1F
100
AcDbEntity
  8
0
  6
Continuous
 62
     7
370
    15
100
AcDbLine
 10
176.7913421009
 20
75.8239526275
 30
0.0
 11
176.9909499956
 21
75.8239526275
 31
0.0
  0
LINE
  5
1B9
330
1F
100
AcDbEntity
  8
0
  6
Continuous
 62
     7
370
    15
100
AcDbLine
 10
176.603600208
 20
76.7361060956
 30
0.0
 11
176.7913421009
 21
75.8239526275
 31
0.0
  0
LINE
  5
1BA
330
1F
100
AcDbEntity
  8
0
  6
Continuous
 62
     7
370
    15
100
AcDbLine
 10
176.9909499956
 20
75.8239526275
 30
0.0
 11
176.8032081027
 21
76.7361060956
 31
0.0
  0
LINE
  5
1BB
330
1F
100
AcDbEntity
  8
0
  6
Continuous
 62
     7
370
    15
100
AcDbLine
 10
176.9909499956
 20
75.8239526275
 30
0.0
 11
176.9909499956
 21
75.8344047703
 31
0.0
  0
LINE
  5
1BC
330
1F
100
AcDbEntity
  8
0
  6
Continuous
 62
     7
370
    15
100
AcDbLine
 10
178.4809972555
 20
76.7361060956
 30
0.0
 11
178.2920380398
 21
75.8239526275
 31
0.0
  0
LINE
  5
1BD
330
1F
100
AcDbEntity
  8
0
  6
Continuous
 62
     7
370
    15
100
AcDbLine
 10
178.2920380398
 20
75.8239526275
 30
0.0
 11
178.2920380398
 21
75.8344047703
 31
0.0
  0
LINE
  5
1BE
330
1F
100
AcDbEntity
  8
0
  6
Continuous
 62
     7
370
    15
100
AcDbLine
 10
178.2920380398
 20
75.8239526275
 30
0.0
 11
178.4916408282
 21
75.8239526275
 31
0.0
  0
LINE
  5
1BF
330
1F
100
AcDbEntity
  8
0
  6
Continuous
 62
     7
370
    15
100
AcDbLine
 10
178.4916408282
 20
75.8239526275
 30
0.0
 11
178.6806000438
 21
76.7361060956
 31
0.0
  0
LINE
  5
1C0
330
1F
100
AcDbEntity
  8
0
  6
Continuous
 62
     7
370
    15
100
AcDbLine
 10
175.3040153053
 20
75.8239526275
 30
0.0
 11
175.5004803707
 21
75.8239526275
 31
0.0
  0
LINE
  5
1C1
330
1F
100
AcDbEntity
  8
0
  6
Continuous
 62
     7
370
    15
100
AcDbLine
 10
174.7425331056
 20
76.7361060956
 30
0.0
 11
175.3040153053
 21
75.8239526275
 31
0.0
  0
LINE
  5
1C2
330
1F
100
AcDbEntity
  8
0
  6
Continuous
 62
     7
370
    15
100
AcDbLine
 10
175.5004803707
 20
75.8239526275
 30
0.0
 11
174.938998171
 21
76.7361060956
 31
0.0
  0
LINE
  5
1C3
330
1F
100
AcDbEntity
  8
0
  6
Continuous
 62
     7
370
    15
100
AcDbLine
 10
175.5004803707
 20
75.8239526275
 30
0.0
 11
175.5004803707
 21
75.8344047703
 31
0.0
  0
LINE
  5
1C4
330
1F
100
AcDbEntity
  8
0
  6
Continuous
 62
     7
370
    15
100
AcDbLine
 10
180.3451165752
 20
76.7361060956
 30
0.0
 11
179.7824362507
 21
75.8239526275
 31
0.0
  0
LINE
  5
1C5
330
1F
100
AcDbEntity
  8
0
  6
Continuous
 62
     7
370
    15
100
AcDbLine
 10
179.7824362507
 20
75.8239526275
 30
0.0
 11
179.7824362507
 21
75.8344047703
 31
0.0
  0
LINE
  5
1C6
330
1F
100
AcDbEntity
  8
0
  6
Continuous
 62
     7
370
    15
100
AcDbLine
 10
179.7824362507
 20
75.8239526275
 30
0.0
 11
179.9788860774
 21
75.8239526275
 31
0.0
  0
LINE
  5
1C7
330
1F
100
AcDbEntity
  8
0
  6
Continuous
 62
     7
370
    15
100
AcDbLine
 10
179.9788860774
 20
75.8239526275
 30
0.0
 11
180.5415664019
 21
76.7361060956
 31
0.0
  0
SPLINE
  5
1C8
330
1F
100
AcDbEntity
  8
0
  6
Continuous
 62
     7
370
    15
100
AcDbSpline
210
0.0
220
0.0
230
1.0
 70
     8
 71
     3
 72
     9
 73
     5
 74
     0
 42
0.000000001
 43
0.00000001
 40
0.0
 40
0.0
 40
0.0
 40
0.0
 40
0.4999999999999808
 40
1.0
 40
1.0
 40
1.0
 40
1.0
 10
174.471160940742
 20
75.21579106635274
 30
0.0
 10
174.5028649181811
 20
75.21571466286312
 30
0.0
 10
174.5662728730592
 20
75.21556185588386
 30
0.0
 10
174.6296808279373
 20
75.21571466286312
 30
0.0
 10
174.6613848053764
 20
75.21579106635274
 30
0.0
  0
LWPOLYLINE
  5
1C9
330
1F
100
AcDbEntity
  8
0
  6
Continuous
 62
     7
370
    15
100
AcDbPolyline
 90
        3
 70
   128
 43
0.0
 10
172.9271460884
 20
76.7361060956
 10
173.1141097899
 20
76.5520102939
 10
174.4711609407
 20
75.2157910664
  0
LWPOLYLINE
  5
1CA
330
1F
100
AcDbEntity
  8
0
  6
Continuous
 62
     7
370
    15
100
AcDbPolyline
 90
        3
 70
   128
 43
0.0
 10
174.6613848054
 20
75.2157910664
 10
173.3043336545
 20
76.5520102939
 10
173.117369953
 20
76.7361060956
  0
LINE
  5
1CB
330
1F
100
AcDbEntity
  8
0
  6
Continuous
 62
     7
370
    15
100
AcDbLine
 10
174.6613848054
 20
75.2157910664
 30
0.0
 11
174.6613848054
 21
75.2262432092
 31
0.0
  0
SPLINE
  5
1CC
330
1F
100
AcDbEntity
  8
0
  6
Continuous
 62
     7
370
    15
100
AcDbSpline
210
0.0
220
0.0
230
1.0
 70
     8
 71
     3
 72
     9
 73
     5
 74
     0
 42
0.000000001
 43
0.00000001
 40
0.0
 40
0.0
 40
0.0
 40
0.0
 40
0.4999999999999795
 40
1.0
 40
1.0
 40
1.0
 40
1.0
 10
180.6206115670155
 20
75.21579106635274
 30
0.0
 10
180.6523113560191
 20
75.21571466286312
 30
0.0
 10
180.7157109340261
 20
75.21556185588388
 30
0.0
 10
180.7791105120332
 20
75.21571466286312
 30
0.0
 10
180.8108103010368
 20
75.21579106635274
 30
0.0
  0
LWPOLYLINE
  5
1CD
330
1F
100
AcDbEntity
  8
0
  6
Continuous
 62
     7
370
    15
100
AcDbPolyline
 90
        3
 70
   128
 43
0.0
 10
182.1665598919
 20
76.7361060956
 10
181.9793620675
 20
76.5520102939
 10
180.620611567
 20
75.2157910664
  0
LWPOLYLINE
  5
1CE
330
1F
100
AcDbEntity
  8
0
  6
Continuous
 62
     7
370
    15
100
AcDbPolyline
 90
        3
 70
   128
 43
0.0
 10
180.810810301
 20
75.2157910664
 10
182.1695608016
 20
76.5520102939
 10
182.3567586259
 20
76.7361060956
  0
LINE
  5
1CF
330
1F
100
AcDbEntity
  8
0
  6
Continuous
 62
     7
370
    15
100
AcDbLine
 10
180.620611567
 20
75.2157910664
 30
0.0
 11
180.620611567
 21
75.2262432092
 31
0.0
  0
LINE
  5
1D0
330
1F
100
AcDbEntity
  8
0
  6
Continuous
 62
     7
370
    15
100
AcDbLine
 10
172.4627125174
 20
75.8239526275
 30
0.0
 11
172.6436952373
 21
75.8239526275
 31
0.0
  0
LINE
  5
1D1
330
1F
100
AcDbEntity
  8
0
  6
Continuous
 62
     7
370
    15
100
AcDbLine
 10
171.186068894
 20
76.7361060956
 30
0.0
 11
172.4627125174
 21
75.8239526275
 31
0.0
  0
LINE
  5
1D2
330
1F
100
AcDbEntity
  8
0
  6
Continuous
 62
     7
370
    15
100
AcDbLine
 10
172.6436952373
 20
75.8239526275
 30
0.0
 11
171.3670516138
 21
76.7361060956
 31
0.0
  0
LINE
  5
1D3
330
1F
100
AcDbEntity
  8
0
  6
Continuous
 62
     7
370
    15
100
AcDbLine
 10
172.6436952373
 20
75.8239526275
 30
0.0
 11
172.6436952373
 21
75.8344047703
 31
0.0
  0
LINE
  5
1D4
330
1F
100
AcDbEntity
  8
0
  6
Continuous
 62
     7
370
    15
100
AcDbLine
 10
183.9166019564
 20
76.7361060956
 30
0.0
 11
182.6388546886
 21
75.8239526275
 31
0.0
  0
LINE
  5
1D5
330
1F
100
AcDbEntity
  8
0
  6
Continuous
 62
     7
370
    15
100
AcDbLine
 10
182.6388546886
 20
75.8239526275
 30
0.0
 11
182.6388546886
 21
75.8344047703
 31
0.0
  0
LINE
  5
1D6
330
1F
100
AcDbEntity
  8
0
  6
Continuous
 62
     7
370
    15
100
AcDbLine
 10
182.6388546886
 20
75.8239526275
 30
0.0
 11
182.8198027823
 21
75.8239526275
 31
0.0
  0
LINE
  5
1D7
330
1F
100
AcDbEntity
  8
0
  6
Continuous
 62
     7
370
    15
100
AcDbLine
 10
182.8198027823
 20
75.8239526275
 30
0.0
 11
184.09755005
 21
76.7361060956
 31
0.0
  0
LINE
  5
1D8
330
1F
100
AcDbEntity
  8
0
  6
Continuous
 62
     7
370
    15
100
AcDbLine
 10
171.1535455674
 20
75.8239526275
 30
0.0
 11
171.3224329369
 21
75.8239526275
 31
0.0
  0
LINE
  5
1D9
330
1F
100
AcDbEntity
  8
0
  6
Continuous
 62
     7
370
    15
100
AcDbLine
 10
169.5467593498
 20
76.7361060956
 30
0.0
 11
171.1535455674
 21
75.8239526275
 31
0.0
  0
LINE
  5
1DA
330
1F
100
AcDbEntity
  8
0
  6
Continuous
 62
     7
370
    15
100
AcDbLine
 10
171.3224329369
 20
75.8239526275
 30
0.0
 11
169.7156467193
 21
76.7361060956
 31
0.0
  0
LINE
  5
1DB
330
1F
100
AcDbEntity
  8
0
  6
Continuous
 62
     7
370
    15
100
AcDbLine
 10
171.3224329369
 20
75.8239526275
 30
0.0
 11
171.3224329369
 21
75.8344047703
 31
0.0
  0
LINE
  5
1DC
330
1F
100
AcDbEntity
  8
0
  6
Continuous
 62
     7
370
    15
100
AcDbLine
 10
185.5676435599
 20
76.7361060956
 30
0.0
 11
183.9598274906
 21
75.8239526275
 31
0.0
  0
LINE
  5
1DD
330
1F
100
AcDbEntity
  8
0
  6
Continuous
 62
     7
370
    15
100
AcDbLine
 10
183.9598274906
 20
75.8239526275
 30
0.0
 11
183.9598274906
 21
75.8344047703
 31
0.0
  0
LINE
  5
1DE
330
1F
100
AcDbEntity
  8
0
  6
Continuous
 62
     7
370
    15
100
AcDbLine
 10
183.9598274906
 20
75.8239526275
 30
0.0
 11
184.1286712843
 21
75.8239526275
 31
0.0
  0
LINE
  5
1DF
330
1F
100
AcDbEntity
  8
0
  6
Continuous
 62
     7
370
    15
100
AcDbLine
 10
184.1286712843
 20
75.8239526275
 30
0.0
 11
185.7364873536
 21
76.7361060956
 31
0.0
  0
LINE
  5
1E0
330
1F
100
AcDbEntity
  8
0
  6
Continuous
 62
     7
370
    15
100
AcDbLine
 10
169.9466591799
 20
75.8239526275
 30
0.0
 11
170.1007877443
 21
75.8239526275
 31
0.0
  0
LINE
  5
1E1
330
1F
100
AcDbEntity
  8
0
  6
Continuous
 62
     7
370
    15
100
AcDbLine
 10
168.0350703467
 20
76.7361060956
 30
0.0
 11
169.9466591799
 21
75.8239526275
 31
0.0
  0
LINE
  5
1E2
330
1F
100
AcDbEntity
  8
0
  6
Continuous
 62
     7
370
    15
100
AcDbLine
 10
170.1007877443
 20
75.8239526275
 30
0.0
 11
168.1891989112
 21
76.7361060956
 31
0.0
  0
LINE
  5
1E3
330
1F
100
AcDbEntity
  8
0
  6
Continuous
 62
     7
370
    15
100
AcDbLine
 10
170.1007877443
 20
75.8239526275
 30
0.0
 11
170.1007877443
 21
75.8344047703
 31
0.0
  0
LINE
  5
1E4
330
1F
100
AcDbEntity
  8
0
  6
Continuous
 62
     7
370
    15
100
AcDbLine
 10
185.1811181391
 20
75.8239526275
 30
0.0
 11
185.3351948654
 21
75.8239526275
 31
0.0
  0
LINE
  5
1E5
330
1F
100
AcDbEntity
  8
0
  6
Continuous
 62
     7
370
    15
100
AcDbLine
 10
187.0936467901
 20
76.7361060956
 30
0.0
 11
185.1811181391
 21
75.8239526275
 31
0.0
  0
LINE
  5
1E6
330
1F
100
AcDbEntity
  8
0
  6
Continuous
 62
     7
370
    15
100
AcDbLine
 10
185.3351948654
 20
75.8239526275
 30
0.0
 11
187.2477235164
 21
76.7361060956
 31
0.0
  0
LINE
  5
1E7
330
1F
100
AcDbEntity
  8
0
  6
Continuous
 62
     7
370
    15
100
AcDbLine
 10
185.1811181391
 20
75.8239526275
 30
0.0
 11
185.1811181391
 21
75.8344047703
 31
0.0
  0
LINE
  5
1E8
330
1F
100
AcDbEntity
  8
0
  6
Continuous
 62
     7
370
    15
100
AcDbLine
 10
168.8610866743
 20
75.8239526275
 30
0.0
 11
168.9980257341
 21
75.8239526275
 31
0.0
  0
LINE
  5
1E9
330
1F
100
AcDbEntity
  8
0
  6
Continuous
 62
     7
370
    15
100
AcDbLine
 10
166.6748421233
 20
76.7361060956
 30
0.0
 11
168.8610866743
 21
75.8239526275
 31
0.0
  0
LINE
  5
1EA
330
1F
100
AcDbEntity
  8
0
  6
Continuous
 62
     7
370
    15
100
AcDbLine
 10
168.9980257341
 20
75.8239526275
 30
0.0
 11
166.8117811831
 21
76.7361060956
 31
0.0
  0
LINE
  5
1EB
330
1F
100
AcDbEntity
  8
0
  6
Continuous
 62
     7
370
    15
100
AcDbLine
 10
168.9980257341
 20
75.8239526275
 30
0.0
 11
168.9980257341
 21
75.8344047703
 31
0.0
  0
LINE
  5
1EC
330
1F
100
AcDbEntity
  8
0
  6
Continuous
 62
     7
370
    15
100
AcDbLine
 10
188.4705456643
 20
76.7361060956
 30
0.0
 11
186.283466151
 21
75.8239526275
 31
0.0
  0
LINE
  5
1ED
330
1F
100
AcDbEntity
  8
0
  6
Continuous
 62
     7
370
    15
100
AcDbLine
 10
186.283466151
 20
75.8239526275
 30
0.0
 11
186.283466151
 21
75.8344047703
 31
0.0
  0
LINE
  5
1EE
330
1F
100
AcDbEntity
  8
0
  6
Continuous
 62
     7
370
    15
100
AcDbLine
 10
186.283466151
 20
75.8239526275
 30
0.0
 11
186.4203459279
 21
75.8239526275
 31
0.0
  0
LINE
  5
1EF
330
1F
100
AcDbEntity
  8
0
  6
Continuous
 62
     7
370
    15
100
AcDbLine
 10
186.4203459279
 20
75.8239526275
 30
0.0
 11
188.6074254412
 21
76.7361060956
 31
0.0
  0
SPLINE
  5
1F0
330
1F
100
AcDbEntity
  8
0
  6
Continuous
 62
     7
370
    15
100
AcDbSpline
210
0.0
220
0.0
230
1.0
 70
     8
 71
     3
 72
     9
 73
     5
 74
     0
 42
0.000000001
 43
0.00000001
 40
0.0
 40
0.0
 40
0.0
 40
0.0
 40
0.4999999999999796
 40
1.0
 40
1.0
 40
1.0
 40
1.0
 10
169.5317431263304
 20
75.21579106635274
 30
0.0
 10
169.5513414504018
 20
75.21571466286312
 30
0.0
 10
169.5905380985446
 20
75.21556185588388
 30
0.0
 10
169.6297347466874
 20
75.21571466286312
 30
0.0
 10
169.6493330707588
 20
75.21579106635274
 30
0.0
  0
LWPOLYLINE
  5
1F1
330
1F
100
AcDbEntity
  8
0
  6
Continuous
 62
     7
370
    15
100
AcDbPolyline
 90
        3
 70
   128
 43
0.0
 10
165.4875262912
 20
76.7361060956
 10
165.9772377392
 20
76.5520102939
 10
169.5317431263
 20
75.2157910664
  0
LWPOLYLINE
  5
1F2
330
1F
100
AcDbEntity
  8
0
  6
Continuous
 62
     7
370
    15
100
AcDbPolyline
 90
        3
 70
   128
 43
0.0
 10
169.6493330708
 20
75.2157910664
 10
166.0948276836
 20
76.5520102939
 10
165.6051162356
 20
76.7361060956
  0
LINE
  5
1F3
330
1F
100
AcDbEntity
  8
0
  6
Continuous
 62
     7
370
    15
100
AcDbLine
 10
169.6493330708
 20
75.2157910664
 30
0.0
 11
169.6493330708
 21
75.2262432092
 31
0.0
  0
LWPOLYLINE
  5
1F4
330
1F
100
AcDbEntity
  8
0
  6
Continuous
 62
     7
370
    15
100
AcDbPolyline
 90
        3
 70
   128
 43
0.0
 10
189.6766256649
 20
76.7361060956
 10
189.186769521
 20
76.5520102939
 10
185.6312138781
 20
75.2157910664
  0
LINE
  5
1F5
330
1F
100
AcDbEntity
  8
0
  6
Continuous
 62
     7
370
    15
100
AcDbLine
 10
185.6312138781
 20
75.2157910664
 30
0.0
 11
185.6312138781
 21
75.2262432092
 31
0.0
  0
SPLINE
  5
1F6
330
1F
100
AcDbEntity
  8
0
  6
Continuous
 62
     7
370
    15
100
AcDbSpline
210
0.0
220
0.0
230
1.0
 70
     8
 71
     3
 72
     9
 73
     5
 74
     0
 42
0.000000001
 43
0.00000001
 40
0.0
 40
0.0
 40
0.0
 40
0.0
 40
0.4999999999999588
 40
0.9999999999999999
 40
0.9999999999999999
 40
0.9999999999999999
 40
0.9999999999999999
 10
185.6312138780536
 20
75.21579106635274
 30
0.0
 10
185.6508012366585
 20
75.21571466286312
 30
0.0
 10
185.6899759538682
 20
75.21556185588388
 30
0.0
 10
185.729150671078
 20
75.21571466286312
 30
0.0
 10
185.7487380296829
 20
75.21579106635274
 30
0.0
  0
LWPOLYLINE
  5
1F7
330
1F
100
AcDbEntity
  8
0
  6
Continuous
 62
     7
370
    15
100
AcDbPolyline
 90
        3
 70
   128
 43
0.0
 10
185.7487380297
 20
75.2157910664
 10
189.3042936726
 20
76.5520102939
 10
189.7941498166
 20
76.7361060956
  0
LINE
  5
1F8
330
1F
100
AcDbEntity
  8
0
  6
Continuous
 62
     7
370
    15
100
AcDbLine
 10
178.1268877616
 20
74.6180347564
 30
0.0
 11
178.2776231087
 21
74.7619126959
 31
0.0
  0
LINE
  5
1F9
330
1F
100
AcDbEntity
  8
0
  6
Continuous
 62
     7
370
    15
100
AcDbLine
 10
178.2776231087
 20
74.7619126959
 30
0.0
 11
181.2357608896
 21
74.7115802852
 31
0.0
  0
SPLINE
  5
1FA
330
1F
100
AcDbEntity
  8
0
  6
Continuous
 62
     7
370
    15
100
AcDbSpline
210
0.0
220
0.0
230
1.0
 70
     8
 71
     3
 72
    10
 73
     6
 74
     0
 42
0.000000001
 43
0.00000001
 40
0.0
 40
0.0
 40
0.0
 40
0.0
 40
0.40475623073645
 40
0.7011301893778429
 40
1.0
 40
1.0
 40
1.0
 40
1.0
 10
181.2357608896031
 20
74.71158028519795
 30
0.0
 10
181.1801258269636
 20
74.74457293351932
 30
0.0
 10
181.0837531981014
 20
74.80172373197291
 30
0.0
 10
181.0079972477021
 20
74.898111748285
 30
0.0
 10
180.9880095964839
 20
74.959489454734
 30
0.0
 10
180.9779738668504
 20
74.99030698605489
 30
0.0
  0
LINE
  5
1FB
330
1F
100
AcDbEntity
  8
0
  6
Continuous
 62
     7
370
    15
100
AcDbLine
 10
180.9779738669
 20
74.9903069861
 30
0.0
 11
181.4274634388
 21
75.0021819666
 31
0.0
  0
SPLINE
  5
1FC
330
1F
100
AcDbEntity
  8
0
  6
Continuous
 62
     7
370
    15
100
AcDbSpline
210
0.0
220
0.0
230
1.0
 70
     8
 71
     3
 72
    10
 73
     6
 74
     0
 42
0.000000001
 43
0.00000001
 40
0.0
 40
0.0
 40
0.0
 40
0.0
 40
0.3514627194286922
 40
0.6677271013951703
 40
1.0
 40
1.0
 40
1.0
 40
1.0
 10
181.4274634388184
 20
75.00218196660107
 30
0.0
 10
181.4581716697325
 20
74.95740826456196
 30
0.0
 10
181.5165127593667
 20
74.87234486344246
 30
0.0
 10
181.7041182611294
 20
74.76640966536198
 30
0.0
 10
181.9130715192711
 20
74.7290662782938
 30
0.0
 10
182.0201270530632
 20
74.70993369203147
 30
0.0
  0
LINE
  5
1FD
330
1F
100
AcDbEntity
  8
0
  6
Continuous
 62
     7
370
    15
100
AcDbLine
 10
182.0201270531
 20
74.709933692
 30
0.0
 11
181.9231111617
 21
74.617306257
 31
0.0
  0
SPLINE
  5
1FE
330
1F
100
AcDbEntity
  8
0
  6
Continuous
 62
     7
370
    15
100
AcDbSpline
210
0.0
220
0.0
230
1.0
 70
     8
 71
     3
 72
     9
 73
     5
 74
     0
 42
0.000000001
 43
0.00000001
 40
0.0
 40
0.0
 40
0.0
 40
0.0
 40
0.4985330733076304
 40
1.0
 40
1.0
 40
1.0
 40
1.0
 10
181.9231111616559
 20
74.61730625699617
 30
0.0
 10
181.2922609918713
 20
74.57894614268994
 30
0.0
 10
180.0268481164544
 20
74.50200016586295
 30
0.0
 10
178.7614453819307
 20
74.5792809826908
 30
0.0
 10
178.126887761621
 20
74.61803475639775
 30
0.0
  0
LINE
  5
1FF
330
1F
100
AcDbEntity
  8
0
  6
Continuous
 62
     7
370
    15
100
AcDbLine
 10
181.4274634388
 20
75.0021819666
 30
0.0
 11
181.4274634388
 21
75.0121819666
 31
0.0
  0
LINE
  5
200
330
1F
100
AcDbEntity
  8
0
  6
Continuous
 62
     7
370
    15
100
AcDbLine
 10
180.9779738669
 20
74.9903069861
 30
0.0
 11
180.9779738669
 21
75.0003069861
 31
0.0
  0
LINE
  5
201
330
1F
100
AcDbEntity
  8
0
  6
Continuous
 62
     7
370
    15
100
AcDbLine
 10
182.0201270531
 20
74.709933692
 30
0.0
 11
182.0201270531
 21
74.719933692
 31
0.0
  0
LINE
  5
202
330
1F
100
AcDbEntity
  8
0
  6
Continuous
 62
     7
370
    15
100
AcDbLine
 10
178.1268877616
 20
74.6180347564
 30
0.0
 11
178.1268877616
 21
74.6280347564
 31
0.0
  0
LINE
  5
203
330
1F
100
AcDbEntity
  8
0
  6
Continuous
 62
     7
370
    15
100
AcDbLine
 10
178.2776231087
 20
74.7619126959
 30
0.0
 11
178.2776231087
 21
74.7719126959
 31
0.0
  0
LINE
  5
204
330
1F
100
AcDbEntity
  8
0
  6
Continuous
 62
     7
370
    15
100
AcDbLine
 10
167.1201806291
 20
75.8239526275
 30
0.0
 11
167.2165669945
 21
75.8239526275
 31
0.0
  0
LINE
  5
205
330
1F
100
AcDbEntity
  8
0
  6
Continuous
 62
     7
370
    15
100
AcDbLine
 10
164.4918475303
 20
76.7361060956
 30
0.0
 11
167.1201806291
 21
75.8239526275
 31
0.0
  0
LINE
  5
206
330
1F
100
AcDbEntity
  8
0
  6
Continuous
 62
     7
370
    15
100
AcDbLine
 10
167.2165669945
 20
75.8239526275
 30
0.0
 11
164.5882338957
 21
76.7361060956
 31
0.0
  0
LINE
  5
207
330
1F
100
AcDbEntity
  8
0
  6
Continuous
 62
     7
370
    15
100
AcDbLine
 10
167.2165669945
 20
75.8239526275
 30
0.0
 11
167.2165669945
 21
75.8344047703
 31
0.0
  0
LINE
  5
208
330
1F
100
AcDbEntity
  8
0
  6
Continuous
 62
     7
370
    15
100
AcDbLine
 10
190.6928661898
 20
76.7361060956
 30
0.0
 11
188.0639454818
 21
75.8239526275
 31
0.0
  0
LINE
  5
209
330
1F
100
AcDbEntity
  8
0
  6
Continuous
 62
     7
370
    15
100
AcDbLine
 10
188.0639454818
 20
75.8239526275
 30
0.0
 11
188.0639454818
 21
75.8344047703
 31
0.0
  0
LINE
  5
20A
330
1F
100
AcDbEntity
  8
0
  6
Continuous
 62
     7
370
    15
100
AcDbLine
 10
188.0639454818
 20
75.8239526275
 30
0.0
 11
188.1602605821
 21
75.8239526275
 31
0.0
  0
LINE
  5
20B
330
1F
100
AcDbEntity
  8
0
  6
Continuous
 62
     7
370
    15
100
AcDbLine
 10
188.1602605821
 20
75.8239526275
 30
0.0
 11
190.7891812901
 21
76.7361060956
 31
0.0
  0
SPLINE
  5
20C
330
1F
100
AcDbEntity
  8
0
  6
Continuous
 62
     7
370
    15
100
AcDbSpline
210
0.0
220
0.0
230
1.0
 70
     8
 71
     3
 72
    12
 73
     8
 74
     0
 42
0.000000001
 43
0.00000001
 40
0.0
 40
0.0
 40
0.0
 40
0.0
 40
0.2724817471014611
 40
0.4514039744596235
 40
0.6302376402358356
 40
0.8642336471129198
 40
1.0
 40
1.0
 40
1.0
 40
1.0
 10
170.4060944081354
 20
75.10196696233632
 30
0.0
 10
170.5339506956098
 20
75.09863931084193
 30
0.0
 10
170.7457624479182
 20
75.09312659255473
 30
0.0
 10
171.1403151302659
 20
75.0382568048196
 30
0.0
 10
171.5224683193574
 20
74.95821918965866
 30
0.0
 10
171.8534693494252
 20
74.86410343413257
 30
0.0
 10
172.0443693042953
 20
74.79637958905109
 30
0.0
 10
172.1144624058635
 20
74.77151329531564
 30
0.0
  0
LINE
  5
20D
330
1F
100
AcDbEntity
  8
0
  6
Continuous
 62
     7
370
    15
100
AcDbLine
 10
170.4060944081
 20
75.1019669623
 30
0.0
 11
170.4060944081
 21
75.1119669623
 31
0.0
  0
LINE
  5
20E
330
1F
100
AcDbEntity
  8
0
  6
Continuous
 62
     7
370
    15
100
AcDbLine
 10
172.1144624059
 20
74.7715132953
 30
0.0
 11
172.1144624059
 21
74.7815132953
 31
0.0
  0
LINE
  5
20F
330
1F
100
AcDbEntity
  8
0
  6
Continuous
 62
     7
370
    15
100
AcDbLine
 10
171.0576495293
 20
74.3758547982
 30
0.0
 11
170.783534506
 21
74.410500836
 31
0.0
  0
LINE
  5
210
330
1F
100
AcDbEntity
  8
0
  6
Continuous
 62
     7
370
    15
100
AcDbLine
 10
170.783534506
 20
74.410500836
 30
0.0
 11
168.6732694351
 21
75.1814182563
 31
0.0
  0
SPLINE
  5
211
330
1F
100
AcDbEntity
  8
0
  6
Continuous
 62
     7
370
    15
100
AcDbSpline
210
0.0
220
0.0
230
1.0
 70
     8
 71
     3
 72
    10
 73
     6
 74
     0
 42
0.000000001
 43
0.00000001
 40
0.0
 40
0.0
 40
0.0
 40
0.0
 40
0.2493621587600265
 40
0.4991237536853703
 40
0.9999999999999999
 40
0.9999999999999999
 40
0.9999999999999999
 40
0.9999999999999999
 10
168.6732694351184
 20
75.18141825631403
 30
0.0
 10
168.6900126141304
 20
75.1797134076755
 30
0.0
 10
168.7235257919062
 20
75.17630097951817
 30
0.0
 10
168.8007053180467
 20
75.16605343807505
 30
0.0
 10
168.8704017312225
 20
75.15368167354694
 30
0.0
 10
168.9169078835841
 20
75.14542639698521
 30
0.0
  0
SPLINE
  5
212
330
1F
100
AcDbEntity
  8
0
  6
Continuous
 62
     7
370
    15
100
AcDbSpline
210
0.0
220
0.0
230
1.0
 70
     8
 71
     3
 72
    10
 73
     6
 74
     0
 42
0.000000001
 43
0.00000001
 40
0.0
 40
0.0
 40
0.0
 40
0.0
 40
0.445102619155083
 40
0.7215802072398583
 40
0.9999999999999999
 40
0.9999999999999999
 40
0.9999999999999999
 40
0.9999999999999999
 10
168.9169078835841
 20
75.14542639698521
 30
0.0
 10
169.1188150351115
 20
75.10428250088819
 30
0.0
 10
169.4461377646856
 20
75.03758187996462
 30
0.0
 10
169.9391019077937
 20
74.9178445811068
 30
0.0
 10
170.2114285531912
 20
74.85083493114142
 30
0.0
 10
170.3480684631853
 20
74.81721283541648
 30
0.0
  0
SPLINE
  5
213
330
1F
100
AcDbEntity
  8
0
  6
Continuous
 62
     7
370
    15
100
AcDbSpline
210
0.0
220
0.0
230
1.0
 70
     8
 71
     3
 72
    11
 73
     7
 74
     0
 42
0.000000001
 43
0.00000001
 40
0.0
 40
0.0
 40
0.0
 40
0.0
 40
0.473725571122439
 40
0.7206682458961254
 40
0.8900289418373613
 40
1.0
 40
1.0
 40
1.0
 40
1.0
 10
170.3480684631853
 20
74.81721283541648
 30
0.0
 10
170.6357063745944
 20
74.74723801816951
 30
0.0
 10
171.0732835747807
 20
74.64078687456167
 30
0.0
 10
171.6071005117919
 20
74.53416018820201
 30
0.0
 10
171.9066895111996
 20
74.49324410871986
 30
0.0
 10
172.023382975394
 20
74.49379046889517
 30
0.0
 10
172.0693244179604
 20
74.49400556727099
 30
0.0
  0
SPLINE
  5
214
330
1F
100
AcDbEntity
  8
0
  6
Continuous
 62
     7
370
    15
100
AcDbSpline
210
0.0
220
0.0
230
1.0
 70
     8
 71
     3
 72
    12
 73
     8
 74
     0
 42
0.000000001
 43
0.00000001
 40
0.0
 40
0.0
 40
0.0
 40
0.0
 40
0.2018644632607576
 40
0.4057551388779872
 40
0.590045472875901
 40
0.8014435422941434
 40
1.0
 40
1.0
 40
1.0
 40
1.0
 10
172.0693244179604
 20
74.49400556727099
 30
0.0
 10
172.1100165026079
 20
74.49905091221804
 30
0.0
 10
172.1918091182604
 20
74.50919224470722
 30
0.0
 10
172.2093582607168
 20
74.55539546480317
 30
0.0
 10
172.1609522941907
 20
74.6140528064761
 30
0.0
 10
172.0454958562717
 20
74.68109902811764
 30
0.0
 10
171.9272686234533
 20
74.72701602802218
 30
0.0
 10
171.8700067102419
 20
74.74925536493957
 30
0.0
  0
SPLINE
  5
215
330
1F
100
AcDbEntity
  8
0
  6
Continuous
 62
     7
370
    15
100
AcDbSpline
210
0.0
220
0.0
230
1.0
 70
     8
 71
     3
 72
    12
 73
     8
 74
     0
 42
0.000000001
 43
0.00000001
 40
0.0
 40
0.0
 40
0.0
 40
0.0
 40
0.2667815659415441
 40
0.4518832426286027
 40
0.637181232223456
 40
0.8190662991060915
 40
1.0
 40
1.0
 40
1.0
 40
1.0
 10
171.8700067102419
 20
74.74925536493957
 30
0.0
 10
171.7765985355599
 20
74.78140848282247
 30
0.0
 10
171.6183807489811
 20
74.83587047354614
 30
0.0
 10
171.3503757535981
 20
74.89835193290773
 30
0.0
 10
171.1229180404625
 20
74.9353832138972
 30
0.0
 10
170.9259159683385
 20
74.95206938462384
 30
0.0
 10
170.828169264542
 20
74.95053770670827
 30
0.0
 10
170.7794240660054
 20
74.94977387589671
 30
0.0
  0
LINE
  5
216
330
1F
100
AcDbEntity
  8
0
  6
Continuous
 62
     7
370
    15
100
AcDbLine
 10
170.779424066
 20
74.9497738759
 30
0.0
 11
170.4060944081
 21
75.1019669623
 31
0.0
  0
SPLINE
  5
217
330
1F
100
AcDbEntity
  8
0
  6
Continuous
 62
     7
370
    15
100
AcDbSpline
210
0.0
220
0.0
230
1.0
 70
     8
 71
     3
 72
    12
 73
     8
 74
     0
 42
0.000000001
 43
0.00000001
 40
0.0
 40
0.0
 40
0.0
 40
0.0
 40
0.2961109645964998
 40
0.5031333860931281
 40
0.7103028553862695
 40
0.9109538465087673
 40
1.0
 40
1.0
 40
1.0
 40
1.0
 10
172.1144624058635
 20
74.77151329531564
 30
0.0
 10
172.2532400149965
 20
74.71700781627825
 30
0.0
 10
172.4890423213789
 20
74.62439548675485
 30
0.0
 10
172.6669293632211
 20
74.4954647379436
 30
0.0
 10
172.6941619871945
 20
74.40264679332594
 30
0.0
 10
172.5996350181902
 20
74.35534300275046
 30
0.0
 10
172.4973406706161
 20
74.34610932766657
 30
0.0
 10
172.4658977712133
 20
74.3432711110528
 30
0.0
  0
SPLINE
  5
218
330
1F
100
AcDbEntity
  8
0
  6
Continuous
 62
     7
370
    15
100
AcDbSpline
210
0.0
220
0.0
230
1.0
 70
     8
 71
     3
 72
    11
 73
     7
 74
     0
 42
0.000000001
 43
0.00000001
 40
0.0
 40
0.0
 40
0.0
 40
0.0
 40
0.1940562404875499
 40
0.3880955329069093
 40
0.6911763970765079
 40
1.0
 40
1.0
 40
1.0
 40
1.0
 10
172.4658977712133
 20
74.3432711110528
 30
0.0
 10
172.3729795934164
 20
74.34335613747106
 30
0.0
 10
172.1871513529114
 20
74.34352618288176
 30
0.0
 10
171.7324519027411
 20
74.41684008631954
 30
0.0
 10
171.1843946057662
 20
74.53778336575729
 30
0.0
 10
170.7669787075653
 20
74.64094746326516
 30
0.0
 10
170.5563120291338
 20
74.69301361083893
 30
0.0
  0
SPLINE
  5
219
330
1F
100
AcDbEntity
  8
0
  6
Continuous
 62
     7
370
    15
100
AcDbSpline
210
0.0
220
0.0
230
1.0
 70
     8
 71
     3
 72
    10
 73
     6
 74
     0
 42
0.000000001
 43
0.00000001
 40
0.0
 40
0.0
 40
0.0
 40
0.0
 40
0.4964543902185297
 40
0.7459703600789704
 40
1.0
 40
1.0
 40
1.0
 40
1.0
 10
170.5563120291338
 20
74.69301361083893
 30
0.0
 10
170.3783903273222
 20
74.7378151385574
 30
0.0
 10
170.1110458973378
 20
74.80513373301984
 30
0.0
 10
169.7517963803247
 20
74.8957431496484
 30
0.0
 10
169.5786990923164
 20
74.9344851962606
 30
0.0
 10
169.4913746456527
 20
74.95402985708085
 30
0.0
  0
LINE
  5
21A
330
1F
100
AcDbEntity
  8
0
  6
Continuous
 62
     7
370
    15
100
AcDbLine
 10
169.4913746457
 20
74.9540298571
 30
0.0
 11
171.0576495293
 21
74.3758547982
 31
0.0
  0
LINE
  5
21B
330
1F
100
AcDbEntity
  8
0
  6
Continuous
 62
     7
370
    15
100
AcDbLine
 10
172.069324418
 20
74.4940055673
 30
0.0
 11
172.069324418
 21
74.5040055673
 31
0.0
  0
LINE
  5
21C
330
1F
100
AcDbEntity
  8
0
  6
Continuous
 62
     7
370
    15
100
AcDbLine
 10
166.4923022178
 20
75.8239526275
 30
0.0
 11
166.5659649336
 21
75.8239526275
 31
0.0
  0
LINE
  5
21D
330
1F
100
AcDbEntity
  8
0
  6
Continuous
 62
     7
370
    15
100
AcDbLine
 10
163.7035082895
 20
76.7361060956
 30
0.0
 11
166.4923022178
 21
75.8239526275
 31
0.0
  0
LINE
  5
21E
330
1F
100
AcDbEntity
  8
0
  6
Continuous
 62
     7
370
    15
100
AcDbLine
 10
166.5659649336
 20
75.8239526275
 30
0.0
 11
163.7771710053
 21
76.7361060956
 31
0.0
  0
LINE
  5
21F
330
1F
100
AcDbEntity
  8
0
  6
Continuous
 62
     7
370
    15
100
AcDbLine
 10
166.5659649336
 20
75.8239526275
 30
0.0
 11
166.5659649336
 21
75.8344047703
 31
0.0
  0
LINE
  5
220
330
1F
100
AcDbEntity
  8
0
  6
Continuous
 62
     7
370
    15
100
AcDbLine
 10
188.7139975781
 20
75.8239526275
 30
0.0
 11
188.7875846803
 21
75.8239526275
 31
0.0
  0
LINE
  5
221
330
1F
100
AcDbEntity
  8
0
  6
Continuous
 62
     7
370
    15
100
AcDbLine
 10
191.5032405188
 20
76.7361060956
 30
0.0
 11
188.7139975781
 21
75.8239526275
 31
0.0
  0
LINE
  5
222
330
1F
100
AcDbEntity
  8
0
  6
Continuous
 62
     7
370
    15
100
AcDbLine
 10
188.7875846803
 20
75.8239526275
 30
0.0
 11
191.576827621
 21
76.7361060956
 31
0.0
  0
LINE
  5
223
330
1F
100
AcDbEntity
  8
0
  6
Continuous
 62
     7
370
    15
100
AcDbLine
 10
188.7139975781
 20
75.8239526275
 30
0.0
 11
188.7139975781
 21
75.8344047703
 31
0.0
  0
LINE
  5
224
330
1F
100
AcDbEntity
  8
0
  6
Continuous
 62
     7
370
    15
100
AcDbLine
 10
168.9169078836
 20
75.145426397
 30
0.0
 11
168.9169078836
 21
75.155426397
 31
0.0
  0
LINE
  5
225
330
1F
100
AcDbEntity
  8
0
  6
Continuous
 62
     7
370
    15
100
AcDbLine
 10
168.6732694351
 20
75.1814182563
 30
0.0
 11
168.6732694351
 21
75.1914182563
 31
0.0
  0
LINE
  5
226
330
1F
100
AcDbEntity
  8
0
  6
Continuous
 62
     7
370
    15
100
AcDbLine
 10
171.0576495293
 20
74.3758547982
 30
0.0
 11
171.0576495293
 21
74.3858547982
 31
0.0
  0
LINE
  5
227
330
1F
100
AcDbEntity
  8
0
  6
Continuous
 62
     7
370
    15
100
AcDbLine
 10
166.0402149613
 20
75.8239526275
 30
0.0
 11
166.0899923224
 21
75.8239526275
 31
0.0
  0
LINE
  5
228
330
1F
100
AcDbEntity
  8
0
  6
Continuous
 62
     7
370
    15
100
AcDbLine
 10
163.1349411496
 20
76.7361060956
 30
0.0
 11
166.0402149613
 21
75.8239526275
 31
0.0
  0
LINE
  5
229
330
1F
100
AcDbEntity
  8
0
  6
Continuous
 62
     7
370
    15
100
AcDbLine
 10
166.0899923224
 20
75.8239526275
 30
0.0
 11
163.1847185107
 21
76.7361060956
 31
0.0
  0
LINE
  5
22A
330
1F
100
AcDbEntity
  8
0
  6
Continuous
 62
     7
370
    15
100
AcDbLine
 10
166.0899923224
 20
75.8239526275
 30
0.0
 11
166.0899923224
 21
75.8344047703
 31
0.0
  0
LINE
  5
22B
330
1F
100
AcDbEntity
  8
0
  6
Continuous
 62
     7
370
    15
100
AcDbLine
 10
192.0949685646
 20
76.7361060956
 30
0.0
 11
189.1893914185
 21
75.8239526275
 31
0.0
  0
LINE
  5
22C
330
1F
100
AcDbEntity
  8
0
  6
Continuous
 62
     7
370
    15
100
AcDbLine
 10
189.1893914185
 20
75.8239526275
 30
0.0
 11
189.1893914185
 21
75.8344047703
 31
0.0
  0
LINE
  5
22D
330
1F
100
AcDbEntity
  8
0
  6
Continuous
 62
     7
370
    15
100
AcDbLine
 10
189.1893914185
 20
75.8239526275
 30
0.0
 11
189.2390900102
 21
75.8239526275
 31
0.0
  0
LINE
  5
22E
330
1F
100
AcDbEntity
  8
0
  6
Continuous
 62
     7
370
    15
100
AcDbLine
 10
189.2390900102
 20
75.8239526275
 30
0.0
 11
192.1446671563
 21
76.7361060956
 31
0.0
  0
SPLINE
  5
22F
330
1F
100
AcDbEntity
  8
0
  6
Continuous
 62
     7
370
    15
100
AcDbSpline
210
0.0
220
0.0
230
1.0
 70
     8
 71
     3
 72
    13
 73
     9
 74
     0
 42
0.000000001
 43
0.00000001
 40
0.0
 40
0.0
 40
0.0
 40
0.0
 40
0.2494174670574341
 40
0.4860039037828132
 40
0.6371286280042222
 40
0.7900921333569452
 40
0.8993868950946715
 40
1.0
 40
1.0
 40
1.0
 40
1.0
 10
186.6678011980988
 20
74.93594864657247
 30
0.0
 10
186.6651516717355
 20
74.93604985856881
 30
0.0
 10
186.6599889212235
 20
74.9362470758123
 30
0.0
 10
186.6071411813377
 20
74.93100963176374
 30
0.0
 10
186.4911458863602
 20
74.90891423213951
 30
0.0
 10
186.3026187392533
 20
74.86182458818745
 30
0.0
 10
186.095193562173
 20
74.80588390095203
 30
0.0
 10
185.9624940270035
 20
74.76683660148382
 30
0.0
 10
185.898888443914
 20
74.74812043757584
 30
0.0
  0
SPLINE
  5
230
330
1F
100
AcDbEntity
  8
0
  6
Continuous
 62
     7
370
    15
100
AcDbSpline
210
0.0
220
0.0
230
1.0
 70
     8
 71
     3
 72
    12
 73
     8
 74
     0
 42
0.000000001
 43
0.00000001
 40
0.0
 40
0.0
 40
0.0
 40
0.0
 40
0.1270086923803555
 40
0.2547618527955632
 40
0.3772326155920526
 40
0.5485861032912037
 40
1.0
 40
1.0
 40
1.0
 40
1.0
 10
185.898888443914
 20
74.74812043757584
 30
0.0
 10
185.8183104902433
 20
74.72356841469194
 30
0.0
 10
185.6566822710492
 20
74.67432045596914
 30
0.0
 10
185.454502152887
 20
74.60585561697967
 30
0.0
 10
185.2809575979451
 20
74.54286245777482
 30
0.0
 10
185.1415059729669
 20
74.47961865208713
 30
0.0
 10
185.1344524490771
 20
74.47294909909772
 30
0.0
 10
185.1293396914337
 20
74.4681146633523
 30
0.0
  0
SPLINE
  5
231
330
1F
100
AcDbEntity
  8
0
  6
Continuous
 62
     7
370
    15
100
AcDbSpline
210
0.0
220
0.0
230
1.0
 70
     8
 71
     3
 72
    13
 73
     9
 74
     0
 42
0.000000001
 43
0.00000001
 40
0.0
 40
0.0
 40
0.0
 40
0.0
 40
0.2189050560206502
 40
0.443495171141286
 40
0.6140157615396246
 40
0.7427494028078248
 40
0.8716461566301459
 40
1.0
 40
1.0
 40
1.0
 40
1.0
 10
184.6165195150308
 20
74.3121720719389
 30
0.0
 10
184.621300109286
 20
74.3153971413298
 30
0.0
 10
184.6309854518994
 20
74.32193103656026
 30
0.0
 10
184.7429329131393
 20
74.37936651700555
 30
0.0
 10
184.9572752366013
 20
74.46949429072664
 30
0.0
 10
185.2378552464663
 20
74.57165056357847
 30
0.0
 10
185.5578688510818
 20
74.67626613704509
 30
0.0
 10
185.7854378933408
 20
74.74434990258844
 30
0.0
 10
185.8989822797281
 20
74.77831994220723
 30
0.0
  0
SPLINE
  5
232
330
1F
100
AcDbEntity
  8
0
  6
Continuous
 62
     7
370
    15
100
AcDbSpline
210
0.0
220
0.0
230
1.0
 70
     8
 71
     3
 72
    10
 73
     6
 74
     0
 42
0.000000001
 43
0.00000001
 40
0.0
 40
0.0
 40
0.0
 40
0.0
 40
0.4943085439184877
 40
0.7394214120838609
 40
1.0
 40
1.0
 40
1.0
 40
1.0
 10
185.8989822797281
 20
74.77831994220723
 30
0.0
 10
186.0639657877969
 20
74.8260472729926
 30
0.0
 10
186.3107596982153
 20
74.89744116403187
 30
0.0
 10
186.6103927572031
 20
74.9756510303848
 30
0.0
 10
186.7304624685865
 20
75.00454222996287
 30
0.0
 10
186.7923333890213
 20
75.01942962404223
 30
0.0
  0
SPLINE
  5
233
330
1F
100
AcDbEntity
  8
0
  6
Continuous
 62
     7
370
    15
100
AcDbSpline
210
0.0
220
0.0
230
1.0
 70
     8
 71
     3
 72
    10
 73
     6
 74
     0
 42
0.000000001
 43
0.00000001
 40
0.0
 40
0.0
 40
0.0
 40
0.0
 40
0.4246800202052239
 40
0.7100538985112789
 40
1.0
 40
1.0
 40
1.0
 40
1.0
 10
186.7923333890213
 20
75.01942962404223
 30
0.0
 10
186.9051145341195
 20
75.0429213705314
 30
0.0
 10
187.0936816621818
 20
75.0821989569114
 30
0.0
 10
187.1680928226677
 20
75.09078196161344
 30
0.0
 10
187.1764235561196
 20
75.09152190777431
 30
0.0
 10
187.1806220261393
 20
75.09189482113068
 30
0.0
  0
LINE
  5
234
330
1F
100
AcDbEntity
  8
0
  6
Continuous
 62
     7
370
    15
100
AcDbLine
 10
184.616519515
 20
74.3121720719
 30
0.0
 11
184.616519515
 21
74.3221720719
 31
0.0
  0
LINE
  5
235
330
1F
100
AcDbEntity
  8
0
  6
Continuous
 62
     7
370
    15
100
AcDbLine
 10
185.8989822797
 20
74.7783199422
 30
0.0
 11
185.8989822797
 21
74.7883199422
 31
0.0
  0
LINE
  5
236
330
1F
100
AcDbEntity
  8
0
  6
Continuous
 62
     7
370
    15
100
AcDbLine
 10
186.792333389
 20
75.019429624
 30
0.0
 11
186.792333389
 21
75.029429624
 31
0.0
  0
LINE
  5
237
330
1F
100
AcDbEntity
  8
0
  6
Continuous
 62
     7
370
    15
100
AcDbLine
 10
165.7710485455
 20
75.8239526275
 30
0.0
 11
165.7961555332
 21
75.8239526275
 31
0.0
  0
LINE
  5
238
330
1F
100
AcDbEntity
  8
0
  6
Continuous
 62
     7
370
    15
100
AcDbLine
 10
162.795112754
 20
76.7361060956
 30
0.0
 11
165.7710485455
 21
75.8239526275
 31
0.0
  0
LINE
  5
239
330
1F
100
AcDbEntity
  8
0
  6
Continuous
 62
     7
370
    15
100
AcDbLine
 10
165.7961555332
 20
75.8239526275
 30
0.0
 11
162.8202197417
 21
76.7361060956
 31
0.0
  0
LINE
  5
23A
330
1F
100
AcDbEntity
  8
0
  6
Continuous
 62
     7
370
    15
100
AcDbLine
 10
165.7961555332
 20
75.8239526275
 30
0.0
 11
165.7961555332
 21
75.8344047703
 31
0.0
  0
LINE
  5
23B
330
1F
100
AcDbEntity
  8
0
  6
Continuous
 62
     7
370
    15
100
AcDbLine
 10
192.4587184225
 20
76.7361060956
 30
0.0
 11
189.4826297584
 21
75.8239526275
 31
0.0
  0
LINE
  5
23C
330
1F
100
AcDbEntity
  8
0
  6
Continuous
 62
     7
370
    15
100
AcDbLine
 10
189.4826297584
 20
75.8239526275
 30
0.0
 11
189.4826297584
 21
75.8344047703
 31
0.0
  0
LINE
  5
23D
330
1F
100
AcDbEntity
  8
0
  6
Continuous
 62
     7
370
    15
100
AcDbLine
 10
189.4826297584
 20
75.8239526275
 30
0.0
 11
189.507656063
 21
75.8239526275
 31
0.0
  0
LINE
  5
23E
330
1F
100
AcDbEntity
  8
0
  6
Continuous
 62
     7
370
    15
100
AcDbLine
 10
189.507656063
 20
75.8239526275
 30
0.0
 11
192.4837447271
 21
76.7361060956
 31
0.0
  0
SPLINE
  5
23F
330
1F
100
AcDbEntity
  8
0
  6
Continuous
 62
     7
370
    15
100
AcDbSpline
210
0.0
220
0.0
230
1.0
 70
     8
 71
     3
 72
     9
 73
     5
 74
     0
 42
0.000000001
 43
0.00000001
 40
0.0
 40
0.0
 40
0.0
 40
0.0
 40
0.0198282831378576
 40
0.9999999999999999
 40
0.9999999999999999
 40
0.9999999999999999
 40
0.9999999999999999
 10
167.6890677640563
 20
75.21564135056659
 30
0.0
 10
167.6890679011516
 20
75.21564029973787
 30
0.0
 10
167.6890748152775
 20
75.21558730328285
 30
0.0
 10
167.689081729404
 20
75.21569020499997
 30
0.0
 10
167.6890885064352
 20
75.21579106635274
 30
0.0
  0
LWPOLYLINE
  5
240
330
1F
100
AcDbEntity
  8
0
  6
Continuous
 62
     7
370
    15
100
AcDbPolyline
 90
        3
 70
   128
 43
0.0
 10
167.6890885064
 20
75.2157910664
 10
163.2948291278
 20
76.5520102939
 10
162.6894230617
 20
76.7361060956
  0
LINE
  5
241
330
1F
100
AcDbEntity
  8
0
  6
Continuous
 62
     7
370
    15
100
AcDbLine
 10
167.6890885064
 20
75.2157910664
 30
0.0
 11
167.6890885064
 21
75.2262432092
 31
0.0
  0
LWPOLYLINE
  5
242
330
1F
100
AcDbEntity
  8
0
  6
Continuous
 62
     7
370
    15
100
AcDbPolyline
 90
        3
 70
   128
 43
0.0
 10
192.5887535399
 20
76.7361060956
 10
191.9833474738
 20
76.5520102939
 10
187.5890880951
 20
75.2157910664
  0
LINE
  5
243
330
1F
100
AcDbEntity
  8
0
  6
Continuous
 62
     7
370
    15
100
AcDbLine
 10
187.5890880951
 20
75.2157910664
 30
0.0
 11
187.5890880951
 21
75.2262432092
 31
0.0
  0
SPLINE
  5
244
330
1F
100
AcDbEntity
  8
0
  6
Continuous
 62
     7
370
    15
100
AcDbSpline
210
0.0
220
0.0
230
1.0
 70
     8
 71
     3
 72
     9
 73
     5
 74
     0
 42
0.000000001
 43
0.00000001
 40
0.0
 40
0.0
 40
0.0
 40
0.0
 40
0.5000000000000098
 40
1.0
 40
1.0
 40
1.0
 40
1.0
 10
187.5890880951486
 20
75.21579106635274
 30
0.0
 10
187.5890813181176
 20
75.21571466286312
 30
0.0
 10
187.5890677640555
 20
75.21556185588388
 30
0.0
 10
187.5890542099935
 20
75.21571466286312
 30
0.0
 10
187.5890474329625
 20
75.21579106635274
 30
0.0
  0
LINE
  5
245
330
1F
100
AcDbEntity
  8
0
  6
Continuous
 62
     7
370
    15
100
AcDbLine
 10
187.589047433
 20
75.2157910664
 30
0.0
 11
187.589047433
 21
75.2262432092
 31
0.0
  0
SPLINE
  5
246
330
1F
100
AcDbEntity
  8
0
  6
Continuous
 62
     7
370
    15
100
AcDbSpline
210
0.0
220
0.0
230
1.0
 70
    11
 71
     3
 72
    87
 73
    83
 74
     0
 42
0.000000001
 43
0.00000001
 40
0.0
 40
0.0
 40
0.0
 40
0.0
 40
0.0312499999999995
 40
0.0312499999999995
 40
0.0624999999999989
 40
0.0624999999999989
 40
0.0937499999999984
 40
0.0937499999999984
 40
0.1093749999999982
 40
0.1093749999999982
 40
0.124999999999998
 40
0.1406249999999978
 40
0.1406249999999978
 40
0.1562499999999976
 40
0.1562499999999976
 40
0.1874999999999972
 40
0.1874999999999972
 40
0.2031249999999969
 40
0.2031249999999969
 40
0.2187499999999967
 40
0.2187499999999967
 40
0.2343749999999965
 40
0.2343749999999965
 40
0.2499999999999962
 40
0.2499999999999962
 40
0.2812499999999962
 40
0.2812499999999962
 40
0.3124999999999961
 40
0.3124999999999961
 40
0.3437499999999961
 40
0.3437499999999961
 40
0.3749999999999961
 40
0.3749999999999961
 40
0.406249999999996
 40
0.406249999999996
 40
0.4374999999999959
 40
0.4374999999999959
 40
0.4687499999999959
 40
0.4687499999999959
 40
0.4999999999999959
 40
0.4999999999999959
 40
0.5156249999999961
 40
0.5156249999999961
 40
0.5312499999999962
 40
0.5312499999999962
 40
0.5624999999999967
 40
0.5624999999999967
 40
0.5781249999999969
 40
0.5781249999999969
 40
0.593749999999997
 40
0.593749999999997
 40
0.6249999999999972
 40
0.6249999999999972
 40
0.6406249999999974
 40
0.6406249999999974
 40
0.6562499999999977
 40
0.6562499999999977
 40
0.6718749999999978
 40
0.6718749999999978
 40
0.687499999999998
 40
0.687499999999998
 40
0.7187499999999986
 40
0.7187499999999986
 40
0.7343749999999988
 40
0.7343749999999988
 40
0.7499999999999991
 40
0.7499999999999991
 40
0.7812499999999992
 40
0.7812499999999992
 40
0.8124999999999993
 40
0.8124999999999993
 40
0.8437499999999994
 40
0.8437499999999994
 40
0.8749999999999996
 40
0.8749999999999996
 40
0.9062499999999998
 40
0.9062499999999998
 40
0.9374999999999999
 40
0.9374999999999999
 40
0.96875
 40
0.96875
 40
1.0
 40
1.0
 40
1.0
 40
1.0
 10
173.7556599561364
 20
103.2744894902222
 30
0.0
 10
173.4778958615893
 20
103.0420070159814
 30
0.0
 10
173.2263573374755
 20
102.7862926188133
 30
0.0
 10
172.7768890655792
 20
102.2269213523262
 30
0.0
 10
172.5779133172541
 20
101.9199342011815
 30
0.0
 10
172.2547901070053
 20
101.2808839043922
 30
0.0
 10
172.1280806945034
 20
100.9467088431787
 30
0.0
 10
171.9938804648154
 20
100.4218393358156
 30
0.0
 10
171.9585995826888
 20
100.242327946314
 30
0.0
 10
171.9092431520145
 20
99.88502279987397
 30
0.0
 10
171.8803523435017
 20
99.52711709737305
 30
0.0
 10
171.8918920690176
 20
99.16802425150505
 30
0.0
 10
171.9240336733457
 20
98.80832663084513
 30
0.0
 10
171.9506912500543
 20
98.6272661114441
 30
0.0
 10
172.0598406276762
 20
98.09637408536884
 30
0.0
 10
172.1711117695685
 20
97.75512816743179
 30
0.0
 10
172.3935392780825
 20
97.261460484282
 30
0.0
 10
172.477380139235
 20
97.09954038608086
 30
0.0
 10
172.6597246357106
 20
96.78882235326348
 30
0.0
 10
172.7585707104708
 20
96.63911748821806
 30
0.0
 10
172.9709806171348
 20
96.3505080300013
 30
0.0
 10
173.0845464138334
 20
96.2116049575143
 30
0.0
 10
173.326250026316
 20
95.94444463973778
 30
0.0
 10
173.4548467606396
 20
95.8158802383369
 30
0.0
 10
173.8546762546358
 20
95.45326415053547
 30
0.0
 10
174.1418397241692
 20
95.2395013478024
 30
0.0
 10
174.755542132846
 20
94.86491447766923
 30
0.0
 10
175.0830661320774
 20
94.70452963213646
 30
0.0
 10
175.7526847234443
 20
94.44748378598166
 30
0.0
 10
176.0976850108503
 20
94.34881642318663
 30
0.0
 10
176.808250887102
 20
94.21137506941446
 30
0.0
 10
177.1692693681497
 20
94.17396469192477
 30
0.0
 10
177.8863892728337
 20
94.16122803213868
 30
0.0
 10
178.2449697872383
 20
94.18538809099752
 30
0.0
 10
178.9621736290189
 20
94.29737158824258
 30
0.0
 10
179.3118519289934
 20
94.3839553304208
 30
0.0
 10
179.9886624575865
 20
94.61562725678709
 30
0.0
 10
180.3174103167171
 20
94.76122216315649
 30
0.0
 10
180.9496724105388
 20
95.11433810876079
 30
0.0
 10
181.2445121553974
 20
95.31685422153771
 30
0.0
 10
181.6550022253378
 20
95.65972952502489
 30
0.0
 10
181.7865001878678
 20
95.78058389067887
 30
0.0
 10
182.0383716022554
 20
96.03605100095761
 30
0.0
 10
182.159428749609
 20
96.17154915175321
 30
0.0
 10
182.4989493689173
 20
96.59307588229413
 30
0.0
 10
182.6935595973756
 20
96.89256748162288
 30
0.0
 10
182.9367615997057
 20
97.37038469302487
 30
0.0
 10
183.0096507777922
 20
97.53445454991865
 30
0.0
 10
183.1380672307235
 20
97.87281023028501
 30
0.0
 10
183.1932743526986
 20
98.04673985418272
 30
0.0
 10
183.3276765410529
 20
98.56977491152081
 30
0.0
 10
183.3778492134935
 20
98.92468827452984
 30
0.0
 10
183.3921836723764
 20
99.46669472477522
 30
0.0
 10
183.3865382331727
 20
99.64986680072278
 30
0.0
 10
183.354764975998
 20
100.0100543376354
 30
0.0
 10
183.3287619522766
 20
100.1880822593828
 30
0.0
 10
183.2570924793134
 20
100.5401270798995
 30
0.0
 10
183.2114248780285
 20
100.714143735808
 30
0.0
 10
183.1003660106047
 20
101.0581614335725
 30
0.0
 10
183.034629388349
 20
101.2286553249708
 30
0.0
 10
182.8127498628045
 20
101.7223483438993
 30
0.0
 10
182.6312089369073
 20
102.0318627870384
 30
0.0
 10
182.3109002285666
 20
102.4683422098485
 30
0.0
 10
182.1957651789293
 20
102.6093402996379
 30
0.0
 10
181.9544178668061
 20
102.8764549545375
 30
0.0
 10
181.8276820553113
 20
103.0033560042865
 30
0.0
 10
181.4299799092663
 20
103.3649421668117
 30
0.0
 10
181.1389997181474
 20
103.5822279400952
 30
0.0
 10
180.523334498304
 20
103.9583048445259
 30
0.0
 10
180.2014346968693
 20
104.1161564378225
 30
0.0
 10
179.530646122609
 20
104.3744375907757
 30
0.0
 10
179.178804955955
 20
104.4750090293743
 30
0.0
 10
178.4721544848432
 20
104.6117305359118
 30
0.0
 10
178.1152119768047
 20
104.6491966026825
 30
0.0
 10
177.3940946794573
 20
104.6625049202113
 30
0.0
 10
177.0288861357601
 20
104.6375009588171
 30
0.0
 10
176.3191753727171
 20
104.5266243887095
 30
0.0
 10
175.9711084806557
 20
104.4410807124318
 30
0.0
 10
175.2889148840081
 20
104.2078476935073
 30
0.0
 10
174.9557329128518
 20
104.0596584616351
 30
0.0
 10
174.3298574934323
 20
103.7098222226983
 30
0.0
 10
174.0334240506834
 20
103.5069719644631
 30
0.0
 10
173.7556599561363
 20
103.2744894902222
 30
0.0
  0
SPLINE
  5
247
330
1F
100
AcDbEntity
  8
0
  6
Continuous
 62
     7
370
    15
100
AcDbSpline
210
0.0
220
0.0
230
1.0
 70
    24
 71
     3
 72
    14
 73
    10
 74
     0
 42
0.000000001
 43
0.00000001
 40
0.0
 40
0.0
 40
0.0
 40
0.0
 40
0.25
 40
0.25
 40
0.5
 40
0.5
 40
0.75
 40
0.75
 40
1.0
 40
1.0
 40
1.0
 40
1.0
 10
196.8193039218584
 20
113.7833140569886
 30
0.0
 10
196.7576914906588
 20
113.7930725074212
 30
0.0
 10
196.6828843212271
 20
113.8049207990839
 30
0.0
 10
196.5037019425598
 20
113.8333004998452
 30
0.0
 10
196.4000538748234
 20
113.8497167410443
 30
0.0
 10
196.1731380081716
 20
113.8856566835847
 30
0.0
 10
196.0468218564668
 20
113.9056631965764
 30
0.0
 10
195.7889285660411
 20
113.9465094810439
 30
0.0
 10
195.653820885348
 20
113.9679084354341
 30
0.0
 10
195.5202658161818
 20
113.9890614803165
 30
0.0
  0
SPLINE
  5
248
330
1F
100
AcDbEntity
  8
0
  6
Continuous
 62
     7
370
    15
100
AcDbSpline
210
0.0
220
0.0
230
1.0
 70
    24
 71
     3
 72
    14
 73
    10
 74
     0
 42
0.000000001
 43
0.00000001
 40
0.0
 40
0.0
 40
0.0
 40
0.0
 40
0.25
 40
0.25
 40
0.5
 40
0.5
 40
0.75
 40
0.75
 40
1.0
 40
1.0
 40
1.0
 40
1.0
 10
195.5202658161817
 20
76.76176291682458
 30
0.0
 10
195.6880348939507
 20
76.76176291682458
 30
0.0
 10
195.8561009848167
 20
76.76176291682458
 30
0.0
 10
196.1439088306985
 20
76.76176291682458
 30
0.0
 10
196.2682749490968
 20
76.76176291682458
 30
0.0
 10
196.4774585005073
 20
76.76176291682458
 30
0.0
 10
196.5647765602617
 20
76.76176291682458
 30
0.0
 10
196.7114317835736
 20
76.76176291682458
 30
0.0
 10
196.7704864358352
 20
76.76176291682458
 30
0.0
 10
196.8193039218584
 20
76.76176291682458
 30
0.0
  0
SPLINE
  5
249
330
1F
100
AcDbEntity
  8
0
  6
Continuous
 62
     7
370
    15
100
AcDbSpline
210
0.0
220
0.0
230
1.0
 70
     8
 71
     3
 72
    16
 73
    12
 74
     0
 42
0.000000001
 43
0.00000001
 40
0.0
 40
0.0
 40
0.0
 40
0.0
 40
0.1910513502251418
 40
0.2881100292757909
 40
0.3851520894913999
 40
0.5492661312138414
 40
0.6334173621208815
 40
0.7175524018679256
 40
0.8546317613100893
 40
0.9955655714554686
 40
0.9999999999999999
 40
0.9999999999999999
 40
0.9999999999999999
 40
0.9999999999999999
 10
157.928020837461
 20
76.76176291682458
 30
0.0
 10
157.1458019650964
 20
76.271956122752
 30
0.0
 10
155.9661970999568
 20
75.53331570166397
 30
0.0
 10
154.5605187347124
 20
74.64350015241493
 30
0.0
 10
153.3477883749298
 20
73.87299985866106
 30
0.0
 10
152.330041980532
 20
73.22275590451943
 30
0.0
 10
151.5343903276466
 20
72.71273100813431
 30
0.0
 10
150.9238681623983
 20
72.32055768555925
 30
0.0
 10
150.4586467571777
 20
72.02107496819495
 30
0.0
 10
150.2301927312251
 20
71.87383030228901
 30
0.0
 10
150.2929201206937
 20
71.91424482201045
 30
0.0
 10
150.2948336069469
 20
71.91547765871178
 30
0.0
  0
SPLINE
  5
24A
330
1F
100
AcDbEntity
  8
0
  6
Continuous
 62
     7
370
    15
100
AcDbSpline
210
0.0
220
0.0
230
1.0
 70
     8
 71
     3
 72
    19
 73
    15
 74
     0
 42
0.000000001
 43
0.00000001
 40
0.0
 40
0.0
 40
0.0
 40
0.0
 40
0.004239887141052
 40
0.0720465987794853
 40
0.1852393414587504
 40
0.3014626616507282
 40
0.3749599105942635
 40
0.4484712911330881
 40
0.5240661101112256
 40
0.5996733098093368
 40
0.6985271218437586
 40
0.7974044300106194
 40
0.8986949090209191
 40
1.0
 40
1.0
 40
1.0
 40
1.0
 10
150.4011438674927
 20
126.9087042378154
 30
0.0
 10
150.3998530384772
 20
126.9096441289249
 30
0.0
 10
150.3779185300636
 20
126.9256152987729
 30
0.0
 10
150.4829217823133
 20
126.8491485344081
 30
0.0
 10
150.8325345023962
 20
126.5946654935039
 30
0.0
 10
151.5255826552158
 20
126.0928744347282
 30
0.0
 10
152.3131384223345
 20
125.527051010186
 30
0.0
 10
153.0922313186904
 20
124.9712347457064
 30
0.0
 10
153.9807148752927
 20
124.3427715087955
 30
0.0
 10
155.0702550802804
 20
123.5800701244098
 30
0.0
 10
156.3731828005751
 20
122.6802665558173
 30
0.0
 10
157.9172905241511
 20
121.6349328114399
 30
0.0
 10
159.5712119679875
 20
120.5378978496992
 30
0.0
 10
160.7578411618639
 20
119.7799242229108
 30
0.0
 10
161.3511985509242
 20
119.4009100755355
 30
0.0
  0
LINE
  5
24B
330
1F
100
AcDbEntity
  8
0
  6
Continuous
 62
     7
370
    15
100
AcDbLine
 10
161.3511985509
 20
119.4009100755
 30
0.0
 11
195.5202658162
 21
113.9890614803
 31
0.0
  0
LINE
  5
24C
330
1F
100
AcDbEntity
  8
0
  6
Continuous
 62
     7
370
    15
100
AcDbLine
 10
195.5202658162
 20
76.7617629168
 30
0.0
 11
157.9280208375
 21
76.7617629168
 31
0.0
  0
LINE
  5
24D
330
1F
100
AcDbEntity
  8
0
  6
Continuous
 62
     7
370
    15
100
AcDbLine
 10
124.1390679697
 20
74.4117629168
 30
0.0
 11
124.1390679697
 21
124.4117629168
 31
0.0
  0
SPLINE
  5
24E
330
1F
100
AcDbEntity
  8
0
  6
Continuous
 62
     7
370
    15
100
AcDbSpline
210
0.0
220
0.0
230
1.0
 70
    24
 71
     3
 72
     8
 73
     4
 74
     0
 42
0.000000001
 43
0.00000001
 40
0.0
 40
0.0
 40
0.0
 40
0.0
 40
1.0
 40
1.0
 40
1.0
 40
1.0
 10
200.1390679696988
 20
113.2575150862619
 30
0.0
 10
199.0842424149253
 20
113.4245830413948
 30
0.0
 10
197.9652456648638
 20
113.6018147153782
 30
0.0
 10
196.8193039218584
 20
113.7833140569886
 30
0.0
  0
LINE
  5
24F
330
1F
100
AcDbEntity
  8
0
  6
Continuous
 62
     7
370
    15
100
AcDbLine
 10
200.1390679697
 20
113.2575150863
 30
0.0
 11
200.1390679697
 21
78.4117629168
 31
0.0
  0
SPLINE
  5
250
330
1F
100
AcDbEntity
  8
0
  6
Continuous
 62
     7
370
    15
100
AcDbSpline
210
0.0
220
0.0
230
1.0
 70
    24
 71
     3
 72
    12
 73
     8
 74
     0
 42
0.000000001
 43
0.00000001
 40
0.0
 40
0.0
 40
0.0
 40
0.0
 40
0.2349748829379215
 40
0.4698944725726162
 40
0.7091353051199295
 40
0.9483205904055434
 40
1.0
 40
1.0
 40
1.0
 40
1.0
 10
196.8193039218584
 20
76.76176291682458
 30
0.0
 10
197.1375647210298
 20
76.76176291682458
 30
0.0
 10
197.7740114275772
 20
76.76176291682458
 30
0.0
 10
198.5108570949685
 20
76.76176291682458
 30
0.0
 10
198.9913741015171
 20
76.76176291682458
 30
0.0
 10
199.2177821550298
 20
76.76176291682458
 30
0.0
 10
199.1666586668859
 20
76.76176291682458
 30
0.0
 10
199.1575752967478
 20
76.76176291682458
 30
0.0
  0
LINE
  5
251
330
1F
100
AcDbEntity
  8
0
  6
Continuous
 62
     7
370
    15
100
AcDbLine
 10
192.6383179509
 20
76.7517629168
 30
0.0
 11
192.6383179509
 21
76.7617629168
 31
0.0
  0
LINE
  5
252
330
1F
100
AcDbEntity
  8
0
  6
Continuous
 62
     7
370
    15
100
AcDbLine
 10
98.9390679697
 20
85.4117629168
 30
0.0
 11
98.9390679697
 21
113.4117629168
 31
0.0
  0
LINE
  5
253
330
1F
100
AcDbEntity
  8
0
  6
Continuous
 62
     7
370
    15
100
AcDbLine
 10
121.6390679697
 20
85.839325942
 30
0.0
 11
121.6390679697
 21
112.9841998916
 31
0.0
  0
SPLINE
  5
254
330
1F
100
AcDbEntity
  8
0
  6
Continuous
 62
     7
370
    15
100
AcDbSpline
210
0.0
220
0.0
230
1.0
 70
    11
 71
     3
 72
    82
 73
    78
 74
     0
 42
0.000000001
 43
0.00000001
 40
0.0
 40
0.0
 40
0.0
 40
0.0
 40
0.0312499999999999
 40
0.0312499999999999
 40
0.0625
 40
0.0625
 40
0.0937500000000001
 40
0.0937500000000001
 40
0.1250000000000002
 40
0.1250000000000002
 40
0.1562500000000002
 40
0.1562500000000002
 40
0.1875000000000003
 40
0.1875000000000003
 40
0.2187500000000004
 40
0.2187500000000004
 40
0.2500000000000005
 40
0.2500000000000005
 40
0.2812500000000006
 40
0.2812500000000006
 40
0.2968750000000006
 40
0.2968750000000006
 40
0.3125000000000006
 40
0.3125000000000006
 40
0.3437500000000007
 40
0.3437500000000007
 40
0.3593750000000007
 40
0.3593750000000007
 40
0.3750000000000007
 40
0.3750000000000007
 40
0.4062500000000007
 40
0.4062500000000007
 40
0.4218750000000008
 40
0.4218750000000008
 40
0.4375000000000008
 40
0.4375000000000008
 40
0.4687500000000008
 40
0.4687500000000008
 40
0.5000000000000009
 40
0.5000000000000009
 40
0.5312500000000009
 40
0.5312500000000009
 40
0.562500000000001
 40
0.562500000000001
 40
0.593750000000001
 40
0.593750000000001
 40
0.6250000000000011
 40
0.6250000000000011
 40
0.6562500000000011
 40
0.6562500000000011
 40
0.6875000000000012
 40
0.6875000000000012
 40
0.7187500000000012
 40
0.7187500000000012
 40
0.7500000000000012
 40
0.7500000000000012
 40
0.7812500000000013
 40
0.7812500000000013
 40
0.8125000000000013
 40
0.8125000000000013
 40
0.8281250000000013
 40
0.8281250000000013
 40
0.8437500000000013
 40
0.8437500000000013
 40
0.8593750000000012
 40
0.8593750000000012
 40
0.875000000000001
 40
0.875000000000001
 40
0.9062500000000009
 40
0.9062500000000009
 40
0.9375000000000007
 40
0.9375000000000007
 40
0.9531250000000006
 40
0.9531250000000006
 40
0.9687500000000004
 40
0.9687500000000004
 40
1.0
 40
1.0
 40
1.0
 40
1.0
 10
107.7579664980178
 20
103.0349589837885
 30
0.0
 10
108.0351884628248
 20
103.2458541314775
 30
0.0
 10
108.3277048166719
 20
103.4281434336916
 30
0.0
 10
108.9407114442739
 20
103.7420550294179
 30
0.0
 10
109.262301950782
 20
103.8739427501296
 30
0.0
 10
109.9298025573658
 20
104.0855026550224
 30
0.0
 10
110.2686259315352
 20
104.1631085583075
 30
0.0
 10
110.9560594175254
 20
104.2649666838601
 30
0.0
 10
111.3065445077378
 20
104.2891666235243
 30
0.0
 10
112.0095549772988
 20
104.2819111033778
 30
0.0
 10
112.3563106302032
 20
104.2508236210198
 30
0.0
 10
113.0406429723531
 20
104.1351744660289
 30
0.0
 10
113.3797905101608
 20
104.0500932539268
 30
0.0
 10
114.0416241757164
 20
103.824818155136
 30
0.0
 10
114.3582321345802
 20
103.6870021648096
 30
0.0
 10
114.9632472036471
 20
103.3603307791765
 30
0.0
 10
115.252922407661
 20
103.1705605826766
 30
0.0
 10
115.7958122113381
 20
102.7369004543222
 30
0.0
 10
116.0425152379816
 20
102.498555862635
 30
0.0
 10
116.3739164629107
 20
102.1064642754667
 30
0.0
 10
116.4778915823904
 20
101.9699612761551
 30
0.0
 10
116.6718710886678
 20
101.68430787663
 30
0.0
 10
116.7623837361834
 20
101.5341736333423
 30
0.0
 10
117.0067392817699
 20
101.0696254352189
 30
0.0
 10
117.1321248230141
 20
100.7454228733946
 30
0.0
 10
117.2590657542711
 20
100.2351672669704
 30
0.0
 10
117.2910712193961
 20
100.0600820729597
 30
0.0
 10
117.3317751531404
 20
99.71179536360856
 30
0.0
 10
117.3408587141901
 20
99.53752580566317
 30
0.0
 10
117.3346160905294
 20
99.01434167042342
 30
0.0
 10
117.2841709402446
 20
98.66023385292905
 30
0.0
 10
117.1458043642395
 20
98.1547411368601
 30
0.0
 10
117.0894607849744
 20
97.98988111070977
 30
0.0
 10
116.9571522901091
 20
97.66710232430388
 30
0.0
 10
116.8806519967246
 20
97.50829288682064
 30
0.0
 10
116.6263831495081
 20
97.04979834996223
 30
0.0
 10
116.4250027994287
 20
96.76803375765797
 30
0.0
 10
115.9651847804966
 20
96.24630812542834
 30
0.0
 10
115.7087596953395
 20
96.00954678753459
 30
0.0
 10
115.1603506188215
 20
95.58954795347476
 30
0.0
 10
114.8639253591223
 20
95.40308772904518
 30
0.0
 10
114.2455465295792
 20
95.08486214672556
 30
0.0
 10
113.9251078544996
 20
94.95323118753134
 30
0.0
 10
113.2624115815658
 20
94.74180089272627
 30
0.0
 10
112.9171817235393
 20
94.66186966653828
 30
0.0
 10
112.2260151051761
 20
94.55883233317162
 30
0.0
 10
111.8785709088588
 20
94.53477367002243
 30
0.0
 10
111.1799760078418
 20
94.54102326327653
 30
0.0
 10
110.8258830829532
 20
94.57212094572841
 30
0.0
 10
110.1372673900788
 20
94.68828558996204
 30
0.0
 10
109.8007890614913
 20
94.77288754458343
 30
0.0
 10
109.1434534501027
 20
94.99606220219853
 30
0.0
 10
108.8198445881164
 20
95.1364115106051
 30
0.0
 10
108.2110509769362
 20
95.46541226821797
 30
0.0
 10
107.923959261986
 20
95.65408821185797
 30
0.0
 10
107.3859562975765
 20
96.08360316767788
 30
0.0
 10
107.1326882597995
 20
96.32761715257388
 30
0.0
 10
106.6866315680052
 20
96.85702465380348
 30
0.0
 10
106.4919917368252
 20
97.142780933971
 30
0.0
 10
106.2484977280637
 20
97.60817325011249
 30
0.0
 10
106.1760008137762
 20
97.7688896739795
 30
0.0
 10
106.0522480346644
 20
98.09411235436664
 30
0.0
 10
106.0004217839718
 20
98.25965098216462
 30
0.0
 10
105.9174255202905
 20
98.59677732964178
 30
0.0
 10
105.8862505734881
 20
98.76836359058795
 30
0.0
 10
105.8458759544246
 20
99.11799197511664
 30
0.0
 10
105.8369325964305
 20
99.29615156176968
 30
0.0
 10
105.8446551420052
 20
99.82240954288223
 30
0.0
 10
105.894568914082
 20
100.1685198703221
 30
0.0
 10
106.0829638148694
 20
100.8506536402829
 30
0.0
 10
106.2173689204938
 20
101.1724037409854
 30
0.0
 10
106.4723770824984
 20
101.6297438937593
 30
0.0
 10
106.5668789610901
 20
101.7785065406424
 30
0.0
 10
106.7693878390434
 20
102.062056637218
 30
0.0
 10
106.8776721379908
 20
102.1975069711328
 30
0.0
 10
107.2222884997524
 20
102.5863031226902
 30
0.0
 10
107.4807445332109
 20
102.8240638360996
 30
0.0
 10
107.7579664980178
 20
103.0349589837885
 30
0.0
  0
CIRCLE
  5
255
330
1F
100
AcDbEntity
  8
0
  6
Continuous
 62
     7
370
    15
100
AcDbCircle
 10
111.5890679697
 20
99.4117629168
 30
0.0
 40
4.735147983838175
  0
LINE
  5
256
330
1F
100
AcDbEntity
  8
0
  6
Continuous
 62
     7
370
    15
100
AcDbLine
 10
94.1390679697
 20
87.5117629168
 30
0.0
 11
94.1390679697
 21
111.3117629168
 31
0.0
  0
CIRCLE
  5
257
330
1F
100
AcDbEntity
  8
0
  6
Continuous
 62
     7
370
    15
100
AcDbCircle
 10
111.5890679697
 20
99.4117629168
 30
0.0
 40
3.399999999999991
  0
LINE
  5
258
330
1F
100
AcDbEntity
  8
0
  6
Continuous
 62
     7
370
    15
100
AcDbLine
 10
195.4519762832
 20
76.7517629168
 30
0.0
 11
192.6383179509
 21
76.7517629168
 31
0.0
  0
LINE
  5
259
330
1F
100
AcDbEntity
  8
0
  6
Continuous
 62
     7
370
    15
100
AcDbLine
 10
192.6383179509
 20
76.7517629168
 30
0.0
 11
192.5890679697
 21
76.7517629168
 31
0.0
  0
CIRCLE
  5
25A
330
1F
100
AcDbEntity
  8
0
  6
HIDDEN
 62
     7
370
     0
100
AcDbCircle
 10
177.6390679697
 20
99.4117629168
 30
0.0
 40
4.250000000000014
  0
SPLINE
  5
25B
330
1F
100
AcDbEntity
  8
0
  6
HIDDEN
 62
     7
370
     0
100
AcDbSpline
210
0.0
220
0.0
230
1.0
 70
     8
 71
     3
 72
    15
 73
    11
 74
     0
 42
0.000000001
 43
0.00000001
 40
0.0
 40
0.0
 40
0.0
 40
0.0
 40
0.1327269219940864
 40
0.2739437999363458
 40
0.3575846407135231
 40
0.4412413285254691
 40
0.6132031300948677
 40
0.7090733308253514
 40
0.8049594617167539
 40
1.0
 40
1.0
 40
1.0
 40
1.0
 10
150.2948336069469
 20
71.91547765871178
 30
0.0
 10
150.3261277123023
 20
71.93565265770638
 30
0.0
 10
150.3907176689431
 20
71.97729316142075
 30
0.0
 10
150.8804319553583
 20
72.29263009043552
 30
0.0
 10
151.4744213882955
 20
72.67423687132228
 30
0.0
 10
152.2739770708468
 20
73.18689547793126
 30
0.0
 10
153.3022565510874
 20
73.84402317339114
 30
0.0
 10
154.5311287734298
 20
74.6248521893893
 30
0.0
 10
155.9391728107171
 20
75.51630876786726
 30
0.0
 10
157.1298065058216
 20
76.26190604604841
 30
0.0
 10
157.928020837461
 20
76.76176291682458
 30
0.0
  0
LINE
  5
25C
330
1F
100
AcDbEntity
  8
0
  6
HIDDEN
 62
     7
370
     0
100
AcDbLine
 10
157.9280208375
 20
76.7617629168
 30
0.0
 11
195.5202658162
 21
76.7617629168
 31
0.0
  0
LINE
  5
25D
330
1F
100
AcDbEntity
  8
0
  6
HIDDEN
 62
     7
370
     0
100
AcDbLine
 10
195.5202658162
 20
113.9890614803
 30
0.0
 11
161.3511985509
 21
119.4009100755
 31
0.0
  0
SPLINE
  5
25E
330
1F
100
AcDbEntity
  8
0
  6
HIDDEN
 62
     7
370
     0
100
AcDbSpline
210
0.0
220
0.0
230
1.0
 70
     8
 71
     3
 72
    18
 73
    14
 74
     0
 42
0.000000001
 43
0.00000001
 40
0.0
 40
0.0
 40
0.0
 40
0.0
 40
0.1105319822214433
 40
0.2216931293000459
 40
0.380195340912826
 40
0.4611338641942433
 40
0.5420566503395963
 40
0.6722123173401046
 40
0.7390727138790754
 40
0.8059232857669134
 40
0.8711811059248284
 40
0.9364329528499895
 40
0.9999999999999999
 40
0.9999999999999999
 40
0.9999999999999999
 40
0.9999999999999999
 10
161.3511985509242
 20
119.4009100755355
 30
0.0
 10
160.7045484664744
 20
119.8143591631123
 30
0.0
 10
159.4075674669243
 20
120.643610753367
 30
0.0
 10
157.3391256155937
 20
122.0208289734208
 30
0.0
 10
155.5875068378473
 20
123.2195859800147
 30
0.0
 10
154.164265951559
 20
124.2135513696351
 30
0.0
 10
152.9896541601632
 20
125.0431312758403
 30
0.0
 10
152.045831467106
 20
125.7184436345561
 30
0.0
 10
151.3439934449045
 20
126.2243942408689
 30
0.0
 10
150.9211226977208
 20
126.5306245183494
 30
0.0
 10
150.6200231982237
 20
126.7493267474332
 30
0.0
 10
150.4302815907083
 20
126.887489711707
 30
0.0
 10
150.4107713850426
 20
126.901694657111
 30
0.0
 10
150.4011438674927
 20
126.9087042378154
 30
0.0
  0
LINE
  5
25F
330
1F
100
AcDbEntity
  8
0
  6
HIDDEN
 62
     7
370
     0
100
AcDbLine
 10
124.1390679697
 20
124.4117629168
 30
0.0
 11
124.1390679697
 21
74.4117629168
 31
0.0
  0
LINE
  5
260
330
1F
100
AcDbEntity
  8
0
  6
HIDDEN
 62
     7
370
     0
100
AcDbLine
 10
200.1390679697
 20
78.4117629168
 30
0.0
 11
200.1390679697
 21
113.2575150863
 31
0.0
  0
SPLINE
  5
261
330
1F
100
AcDbEntity
  8
0
  6
HIDDEN
 62
     7
370
     0
100
AcDbSpline
210
0.0
220
0.0
230
1.0
 70
    24
 71
     3
 72
     8
 73
     4
 74
     0
 42
0.000000001
 43
0.00000001
 40
0.0
 40
0.0
 40
0.0
 40
0.0
 40
1.0
 40
1.0
 40
1.0
 40
1.0
 10
196.8193039218584
 20
113.7833140569886
 30
0.0
 10
197.9652456648638
 20
113.6018147153782
 30
0.0
 10
199.0842424149253
 20
113.4245830413948
 30
0.0
 10
200.1390679696988
 20
113.2575150862619
 30
0.0
  0
SPLINE
  5
262
330
1F
100
AcDbEntity
  8
0
  6
HIDDEN
 62
     7
370
     0
100
AcDbSpline
210
0.0
220
0.0
230
1.0
 70
    24
 71
     3
 72
    11
 73
     7
 74
     0
 42
0.000000001
 43
0.00000001
 40
0.0
 40
0.0
 40
0.0
 40
0.0
 40
0.2075339984901245
 40
0.4668042194178963
 40
0.7333548731283074
 40
1.0
 40
1.0
 40
1.0
 40
1.0
 10
199.1575752967478
 20
76.76176291682458
 30
0.0
 10
199.146169525688
 20
76.7617629168246
 30
0.0
 10
199.1205146349465
 20
76.76176291682458
 30
0.0
 10
198.6590547333782
 20
76.76176291682458
 30
0.0
 10
197.8991257595405
 20
76.76176291682457
 30
0.0
 10
197.1792870487832
 20
76.76176291682458
 30
0.0
 10
196.8193039218584
 20
76.76176291682458
 30
0.0
  0
SPLINE
  5
263
330
1F
100
AcDbEntity
  8
0
  6
HIDDEN
 62
     7
370
     0
100
AcDbSpline
210
0.0
220
0.0
230
1.0
 70
    11
 71
     3
 72
    60
 73
    56
 74
     0
 42
0.000000001
 43
0.00000001
 40
0.0
 40
0.0
 40
0.0
 40
0.0
 40
0.0312499999999995
 40
0.0312499999999995
 40
0.062499999999999
 40
0.062499999999999
 40
0.0937499999999985
 40
0.0937499999999985
 40
0.124999999999998
 40
0.124999999999998
 40
0.187499999999997
 40
0.187499999999997
 40
0.2187499999999965
 40
0.2187499999999965
 40
0.249999999999996
 40
0.249999999999996
 40
0.2812499999999955
 40
0.2812499999999955
 40
0.312499999999995
 40
0.312499999999995
 40
0.3749999999999936
 40
0.3749999999999936
 40
0.4062499999999931
 40
0.4062499999999931
 40
0.4374999999999927
 40
0.4374999999999927
 40
0.4687499999999922
 40
0.4687499999999922
 40
0.4999999999999918
 40
0.4999999999999918
 40
0.5624999999999919
 40
0.5624999999999919
 40
0.5937499999999919
 40
0.5937499999999919
 40
0.624999999999992
 40
0.624999999999992
 40
0.6874999999999929
 40
0.6874999999999929
 40
0.7187499999999934
 40
0.7187499999999934
 40
0.749999999999994
 40
0.749999999999994
 40
0.7812499999999947
 40
0.7812499999999947
 40
0.8124999999999952
 40
0.8124999999999952
 40
0.8749999999999963
 40
0.8749999999999963
 40
0.9062499999999973
 40
0.9062499999999973
 40
0.9374999999999982
 40
0.9374999999999982
 40
0.9687499999999992
 40
0.9687499999999992
 40
1.0
 40
1.0
 40
1.0
 40
1.0
 10
145.1390679696988
 20
99.8672069666801
 30
0.0
 10
145.2488764282622
 20
99.86720696668011
 30
0.0
 10
145.3566906446793
 20
99.8786442566691
 30
0.0
 10
145.5685466071622
 20
99.92311166056844
 30
0.0
 10
145.6737129707559
 20
99.95672273081003
 30
0.0
 10
145.8731213497581
 20
100.0431596539962
 30
0.0
 10
145.9675798546692
 20
100.0957102144763
 30
0.0
 10
146.1463502226144
 20
100.2186285955137
 30
0.0
 10
146.2303578850547
 20
100.289114329515
 30
0.0
 10
146.4569634289838
 20
100.5178254769805
 30
0.0
 10
146.5796524361106
 20
100.6992091001256
 30
0.0
 10
146.7035286647547
 20
100.9860852513327
 30
0.0
 10
146.7356367470522
 20
101.0859213858907
 30
0.0
 10
146.7783348739013
 20
101.2863492686198
 30
0.0
 10
146.788995853267
 20
101.3860330146944
 30
0.0
 10
146.7891393638931
 20
101.5842119461234
 30
0.0
 10
146.7782442181969
 20
101.6834004979681
 30
0.0
 10
146.7357822849648
 20
101.8718249083327
 30
0.0
 10
146.7043723841229
 20
101.9621337491125
 30
0.0
 10
146.5791593064827
 20
102.2219299219978
 30
0.0
 10
146.4575012627952
 20
102.3729538270955
 30
0.0
 10
146.2294227054272
 20
102.5593961472791
 30
0.0
 10
146.1469088392813
 20
102.6140870669836
 30
0.0
 10
145.9687491276635
 20
102.7096406906058
 30
0.0
 10
145.8722384511469
 20
102.7506152677577
 30
0.0
 10
145.673617076577
 20
102.8155926899964
 30
0.0
 10
145.5707181145962
 20
102.8401657089991
 30
0.0
 10
145.3573651430523
 20
102.8734897882369
 30
0.0
 10
145.2479240335898
 20
102.8818716469215
 30
0.0
 10
144.923436854095
 20
102.8819772980763
 30
0.0
 10
144.70502776778
 20
102.8483743856719
 30
0.0
 10
144.4064973208964
 20
102.7508607021193
 30
0.0
 10
144.3099917090282
 20
102.709920900986
 30
0.0
 10
144.1317388869747
 20
102.6144054993092
 30
0.0
 10
144.0490875951023
 20
102.559681104707
 30
0.0
 10
143.8204429052138
 20
102.3728391136463
 30
0.0
 10
143.69941770517
 20
102.2225841529374
 30
0.0
 10
143.5740250279718
 20
101.9628059700066
 30
0.0
 10
143.5426101452689
 20
101.8726050584509
 30
0.0
 10
143.5000948171649
 20
101.6846559035551
 30
0.0
 10
143.4890819626345
 20
101.585649350731
 30
0.0
 10
143.4890540040333
 20
101.3869778049859
 30
0.0
 10
143.49968502761
 20
101.28723083593
 30
0.0
 10
143.542187208624
 20
101.087052350827
 30
0.0
 10
143.5742997471946
 20
100.9868992605321
 30
0.0
 10
143.6983491296027
 20
100.6993175496622
 30
0.0
 10
143.8209870189019
 20
100.5180197013797
 30
0.0
 10
144.0478285106389
 20
100.2890599007061
 30
0.0
 10
144.1320487923208
 20
100.2184379570272
 30
0.0
 10
144.3105024038769
 20
100.095756889459
 30
0.0
 10
144.404830382757
 20
100.0432606832626
 30
0.0
 10
144.6040668720485
 20
99.9568559625551
 30
0.0
 10
144.7093427084708
 20
99.92317546951928
 30
0.0
 10
144.9213535111896
 20
99.8786514967609
 30
0.0
 10
145.0292595111354
 20
99.86720696668011
 30
0.0
 10
145.1390679696988
 20
99.86720696668011
 30
0.0
  0
LWPOLYLINE
  5
264
330
1F
100
AcDbEntity
  8
0
  6
HIDDEN
 62
     7
370
     0
100
AcDbPolyline
 90
       22
 70
   128
 43
0.0
 10
145.1390679697
 20
108.2761973101
 10
145.6254140075
 20
108.3431646416
 10
146.0685460655
 20
108.5381162946
 10
146.4290899158
 20
108.8437299592
 10
146.675009655
 20
109.2328505203
 10
146.784454235
 20
109.6709029083
 10
146.7476990248
 20
110.1189642462
 10
146.5680098859
 20
110.5372223178
 10
146.261352987
 20
110.888513058
 10
145.8549761392
 20
111.1416227429
 10
145.3849877089
 20
111.2740614662
 10
144.8931482305
 20
111.2740614662
 10
144.4231598002
 20
111.1416227429
 10
144.0167829524
 20
110.888513058
 10
143.7101260535
 20
110.5372223178
 10
143.5304369146
 20
110.1189642462
 10
143.4936817043
 20
109.6709029083
 10
143.6031262844
 20
109.2328505203
 10
143.8490460236
 20
108.8437299592
 10
144.2095898739
 20
108.5381162946
 10
144.6527219319
 20
108.3431646416
 10
145.1390679697
 20
108.2761973101
  0
ELLIPSE
  5
265
330
1F
100
AcDbEntity
  8
0
  6
HIDDEN
 62
     7
370
     0
100
AcDbEllipse
 10
145.1390679697
 20
107.9532324214
 30
0.0
 11
1.383806437109939
 21
-1.383806437109968
 31
0.0
210
0.0
220
0.0
230
1.0
 40
0.6494075932
 41
5.288347633542839
 42
8.429940287132618
  0
ELLIPSE
  5
266
330
1F
100
AcDbEntity
  8
0
  6
HIDDEN
 62
     7
370
     0
100
AcDbEllipse
 10
145.1390679697
 20
107.9532324214
 30
0.0
 11
1.383806437109939
 21
1.383806437109953
 31
0.0
210
0.0
220
0.0
230
1.0
 40
0.6494075932
 41
4.136430327226568
 42
7.278022980816349
  0
ELLIPSE
  5
267
330
1F
100
AcDbEntity
  8
0
  6
HIDDEN
 62
     7
370
     0
100
AcDbEllipse
 10
188.5641828279
 20
107.9532324214
 30
0.0
 11
2.562355746355735
 21
1.523029872047701
 31
0.0
210
0.0
220
0.0
230
1.0
 40
0.2477127917
 41
4.744324899119455
 42
7.529672087244117
  0
SPLINE
  5
268
330
1F
100
AcDbEntity
  8
0
  6
HIDDEN
 62
     7
370
     0
100
AcDbSpline
210
0.0
220
0.0
230
1.0
 70
     8
 71
     3
 72
    10
 73
     6
 74
     0
 42
0.000000001
 43
0.00000001
 40
0.0
 40
0.0
 40
0.0
 40
0.0
 40
0.5
 40
0.5
 40
1.0
 40
1.0
 40
1.0
 40
1.0
 10
189.0230817099615
 20
109.0401931172628
 30
0.0
 10
188.8589785903708
 20
109.0788713707483
 30
0.0
 10
188.7004898821004
 20
109.1250725814296
 30
0.0
 10
188.3947326345109
 20
109.2263763776603
 30
0.0
 10
188.2467240184149
 20
109.2816077829336
 30
0.0
 10
188.1052839459136
 20
109.3352278706737
 30
0.0
  0
ELLIPSE
  5
269
330
1F
100
AcDbEntity
  8
0
  6
HIDDEN
 62
     7
370
     0
100
AcDbEllipse
 10
188.5641828279
 20
107.9532324214
 30
0.0
 11
-0.9702770378030151
 21
1.632400643612414
 31
0.0
210
0.0
220
0.0
230
1.0
 40
0.2477127917
 41
5.559027734102628
 42
7.797073388497756
  0
SPLINE
  5
26A
330
1F
100
AcDbEntity
  8
0
  6
HIDDEN
 62
     7
370
     0
100
AcDbSpline
210
0.0
220
0.0
230
1.0
 70
     8
 71
     3
 72
     8
 73
     4
 74
     0
 42
0.000000001
 43
0.00000001
 40
0.0
 40
0.0
 40
0.0
 40
0.0
 40
1.0
 40
1.0
 40
1.0
 40
1.0
 10
188.1052839459138
 20
107.8061183979569
 30
0.0
 10
188.3851794144973
 20
107.6126694406284
 30
0.0
 10
188.6973075700492
 20
107.4628688751619
 30
0.0
 10
189.0230817099613
 20
107.3674588699689
 30
0.0
  0
LINE
  5
26B
330
1F
100
AcDbEntity
  8
0
  6
HIDDEN
 62
     7
370
     0
100
AcDbLine
 10
198.1390679697
 20
106.3032324214
 30
0.0
 11
198.1390679697
 21
109.6032324214
 31
0.0
  0
ARC
  5
26C
330
1F
100
AcDbEntity
  8
0
  6
HIDDEN
 62
     7
370
     0
100
AcDbCircle
 10
190.0160627907
 20
110.6245254172
 30
0.0
 40
3.405068856840131
100
AcDbArc
 50
235.8641375687
 51
253.0451217266
  0
ARC
  5
26D
330
1F
100
AcDbEntity
  8
0
  6
HIDDEN
 62
     7
370
     0
100
AcDbCircle
 10
187.6897068378
 20
106.4673797561
 30
0.0
 40
2.897802122454672
100
AcDbArc
 50
62.6042990478
 51
81.7547173204
  0
LINE
  5
26E
330
1F
100
AcDbEntity
  8
0
  6
HIDDEN
 62
     7
370
     0
100
AcDbLine
 10
190.4117009097
 20
114.7981786739
 30
0.0
 11
193.8664350297
 21
114.2510025438
 31
0.0
  0
SPLINE
  5
26F
330
1F
100
AcDbEntity
  8
0
  6
HIDDEN
 62
     7
370
     0
100
AcDbSpline
210
0.0
220
0.0
230
1.0
 70
    11
 71
     3
 72
   110
 73
   106
 74
     0
 42
0.000000001
 43
0.00000001
 40
0.0
 40
0.0
 40
0.0
 40
0.0
 40
0.03125
 40
0.03125
 40
0.0624999999999999
 40
0.0624999999999999
 40
0.0937499999999999
 40
0.0937499999999999
 40
0.1249999999999999
 40
0.1249999999999999
 40
0.1562499999999999
 40
0.1562499999999999
 40
0.1718749999999998
 40
0.1718749999999998
 40
0.1874999999999998
 40
0.1874999999999998
 40
0.2031249999999998
 40
0.2031249999999998
 40
0.2187499999999998
 40
0.2187499999999998
 40
0.2343749999999998
 40
0.2343749999999998
 40
0.2499999999999998
 40
0.2499999999999998
 40
0.2656249999999998
 40
0.2656249999999998
 40
0.2734374999999998
 40
0.2734374999999998
 40
0.2812499999999998
 40
0.2812499999999998
 40
0.2890624999999997
 40
0.2890624999999997
 40
0.2968749999999997
 40
0.2968749999999997
 40
0.3124999999999996
 40
0.3124999999999996
 40
0.3203124999999996
 40
0.3203124999999996
 40
0.3281249999999995
 40
0.3281249999999995
 40
0.3437499999999993
 40
0.3437499999999993
 40
0.359374999999999
 40
0.359374999999999
 40
0.3749999999999988
 40
0.3749999999999988
 40
0.3906249999999986
 40
0.3906249999999986
 40
0.4062499999999983
 40
0.4062499999999983
 40
0.4218749999999983
 40
0.4218749999999983
 40
0.4374999999999983
 40
0.4374999999999983
 40
0.4687499999999983
 40
0.4687499999999983
 40
0.4999999999999983
 40
0.4999999999999983
 40
0.5312499999999983
 40
0.5312499999999983
 40
0.5624999999999983
 40
0.5624999999999983
 40
0.5937499999999982
 40
0.5937499999999982
 40
0.6249999999999982
 40
0.6249999999999982
 40
0.6562499999999982
 40
0.6562499999999982
 40
0.6874999999999982
 40
0.6874999999999982
 40
0.7187499999999981
 40
0.7187499999999981
 40
0.7343749999999981
 40
0.7343749999999981
 40
0.7499999999999981
 40
0.7499999999999981
 40
0.7656249999999981
 40
0.7656249999999981
 40
0.7734374999999981
 40
0.7734374999999981
 40
0.7812499999999981
 40
0.7812499999999981
 40
0.7968749999999982
 40
0.7968749999999982
 40
0.8124999999999983
 40
0.8124999999999983
 40
0.8203124999999982
 40
0.8203124999999982
 40
0.8281249999999982
 40
0.8281249999999982
 40
0.8437499999999983
 40
0.8437499999999983
 40
0.8593749999999984
 40
0.8593749999999984
 40
0.8749999999999986
 40
0.8749999999999986
 40
0.8906249999999987
 40
0.8906249999999987
 40
0.9062499999999988
 40
0.9062499999999988
 40
0.9374999999999991
 40
0.9374999999999991
 40
0.9687499999999996
 40
0.9687499999999996
 40
1.0
 40
1.0
 40
1.0
 40
1.0
 10
173.7984950957646
 20
104.4117629168246
 30
0.0
 10
174.4358609075161
 20
104.4117629168246
 30
0.0
 10
175.0771659333889
 20
104.4038131525962
 30
0.0
 10
176.3674157151167
 20
104.3912421133015
 30
0.0
 10
177.0163613569747
 20
104.386571424722
 30
0.0
 10
178.3220038961449
 20
104.3868348562227
 30
0.0
 10
178.9832258616864
 20
104.3918737686392
 30
0.0
 10
180.2800533366082
 20
104.4046681348737
 30
0.0
 10
180.918022226974
 20
104.4123294266814
 30
0.0
 10
182.1733182275195
 20
104.4111341016104
 30
0.0
 10
182.7906472325054
 20
104.4024558655731
 30
0.0
 10
183.7004931866658
 20
104.3529224347141
 30
0.0
 10
184.0009452900132
 20
104.3301190809055
 30
0.0
 10
184.5866646835656
 20
104.2674067094174
 30
0.0
 10
184.8731180027424
 20
104.2274670152664
 30
0.0
 10
185.4327188549013
 20
104.124293337933
 30
0.0
 10
185.7058694079041
 20
104.0610968633853
 30
0.0
 10
186.2381180368239
 20
103.903347123406
 30
0.0
 10
186.4967001816827
 20
103.808649230437
 30
0.0
 10
186.986566683942
 20
103.583635931391
 30
0.0
 10
187.2194061432758
 20
103.4529778497078
 30
0.0
 10
187.6596388141749
 20
103.1456743214021
 30
0.0
 10
187.8680331301624
 20
102.9674007852192
 30
0.0
 10
188.2432836458047
 20
102.5673518492883
 30
0.0
 10
188.4120765394296
 20
102.3447535312279
 30
0.0
 10
188.6362258568486
 20
101.9703513322681
 30
0.0
 10
188.7057152042628
 20
101.8391340316435
 30
0.0
 10
188.8314819567977
 20
101.5693520452263
 30
0.0
 10
188.8882427246277
 20
101.4300214562368
 30
0.0
 10
188.9898358739002
 20
101.1422186960554
 30
0.0
 10
189.034671644829
 20
100.9937496934565
 30
0.0
 10
189.1122962030083
 20
100.6871266244044
 30
0.0
 10
189.1452523737591
 20
100.5276599966758
 30
0.0
 10
189.2231550110702
 20
100.0466171544192
 30
0.0
 10
189.2483496576328
 20
99.72115027203247
 30
0.0
 10
189.2466535782041
 20
99.225697484066
 30
0.0
 10
189.2392630576968
 20
99.0584315587202
 30
0.0
 10
189.2112563055139
 20
98.73086256617276
 30
0.0
 10
189.1907056743712
 20
98.56954575046585
 30
0.0
 10
189.1095322841346
 20
98.0927833838857
 30
0.0
 10
189.028019251529
 20
97.78112164880736
 30
0.0
 10
188.8179060014058
 20
97.2040054955619
 30
0.0
 10
188.6886430713549
 20
96.93464859485248
 30
0.0
 10
188.3843276817497
 20
96.4396018739606
 30
0.0
 10
188.2126946623551
 20
96.2188995454904
 30
0.0
 10
187.8313250291652
 20
95.82256435713013
 30
0.0
 10
187.621007701684
 20
95.64738925442913
 30
0.0
 10
187.1780326606869
 20
95.34586146516351
 30
0.0
 10
186.9436109736738
 20
95.21753177730504
 30
0.0
 10
186.4500308992945
 20
94.99659417138287
 30
0.0
 10
186.1893124562005
 20
94.903729152954
 30
0.0
 10
185.6558915517693
 20
94.75000772432394
 30
0.0
 10
185.3822976300245
 20
94.6885304412435
 30
0.0
 10
184.5419677048887
 20
94.53823826570604
 30
0.0
 10
183.9544368232851
 20
94.48303655571931
 30
0.0
 10
182.7360444148866
 20
94.4196138488376
 30
0.0
 10
182.1165808779925
 20
94.41183092741666
 30
0.0
 10
180.8579641652426
 20
94.41169572516725
 30
0.0
 10
180.2188088691826
 20
94.41952267530519
 30
0.0
 10
178.9205782732654
 20
94.43220352792811
 30
0.0
 10
178.2589722667276
 20
94.43696822723732
 30
0.0
 10
176.9523445880794
 20
94.4366757568127
 30
0.0
 10
176.3030109830343
 20
94.4317215167847
 30
0.0
 10
175.0121950512719
 20
94.41900722422324
 30
0.0
 10
174.3696624393162
 20
94.4111956404635
 30
0.0
 10
173.0970348559811
 20
94.41239082858179
 30
0.0
 10
172.4779438844136
 20
94.421463009017
 30
0.0
 10
171.2748397548924
 20
94.48721601699334
 30
0.0
 10
170.6908106319103
 20
94.54340002391814
 30
0.0
 10
169.5606787341383
 20
94.75169693110806
 30
0.0
 10
169.0291581100757
 20
94.90122045460599
 30
0.0
 10
168.2916881604294
 20
95.23976966965053
 30
0.0
 10
168.0546345883412
 20
95.37303643032648
 30
0.0
 10
167.6149049641927
 20
95.68073574364479
 30
0.0
 10
167.4105856746899
 20
95.85559725345186
 30
0.0
 10
167.0341994079924
 20
96.25688304114402
 30
0.0
 10
166.8623695798237
 20
96.48436503280016
 30
0.0
 10
166.640498956357
 20
96.85582309535769
 30
0.0
 10
166.5719936827564
 20
96.98519957798956
 30
0.0
 10
166.445919926133
 20
97.2558577061684
 30
0.0
 10
166.3880118435947
 20
97.3981521598151
 30
0.0
 10
166.2339700139176
 20
97.83663190840795
 30
0.0
 10
166.1575455783401
 20
98.14196561193542
 30
0.0
 10
166.0548154219856
 20
98.779568071048
 30
0.0
 10
166.0292981855771
 20
99.11415260268707
 30
0.0
 10
166.0317898708068
 20
99.6069073096093
 30
0.0
 10
166.0392129408804
 20
99.77084351157286
 30
0.0
 10
166.0674993765888
 20
100.0980784485634
 30
0.0
 10
166.0885961836568
 20
100.2623785094523
 30
0.0
 10
166.1710314223386
 20
100.7417616376377
 30
0.0
 10
166.2511567754376
 20
101.0464395929636
 30
0.0
 10
166.4635478892502
 20
101.6274306416764
 30
0.0
 10
166.5935913994311
 20
101.8963899083097
 30
0.0
 10
166.8963835372354
 20
102.387249087428
 30
0.0
 10
167.0714164566314
 20
102.6116289646432
 30
0.0
 10
167.4516928574813
 20
103.0052189840094
 30
0.0
 10
167.6582333236269
 20
103.1770918210843
 30
0.0
 10
168.1032973946372
 20
103.4796335704207
 30
0.0
 10
168.3420326373958
 20
103.6098112791369
 30
0.0
 10
169.0818166715655
 20
103.9395648568758
 30
0.0
 10
169.6138404562768
 20
104.0848648719169
 30
0.0
 10
170.7481052997712
 20
104.2871152727348
 30
0.0
 10
171.3339574811401
 20
104.3411389637179
 30
0.0
 10
172.5403364011918
 20
104.4037041116653
 30
0.0
 10
173.1611292840131
 20
104.4117629168246
 30
0.0
 10
173.7984950957646
 20
104.4117629168246
 30
0.0
  0
LINE
  5
270
330
1F
100
AcDbEntity
  8
0
  6
HIDDEN
 62
     7
370
     0
100
AcDbLine
 10
159.1390679697
 20
94.4117629168
 30
0.0
 11
159.1390679697
 21
104.4117629168
 31
0.0
  0
LINE
  5
271
330
1F
100
AcDbEntity
  8
0
  6
HIDDEN
 62
     7
370
     0
100
AcDbLine
 10
200.1390679697
 20
104.4117629168
 30
0.0
 11
200.1390679697
 21
94.4297754741
 31
0.0
  0
SPLINE
  5
272
330
1F
100
AcDbEntity
  8
0
  6
HIDDEN
 62
     7
370
     0
100
AcDbSpline
210
0.0
220
0.0
230
1.0
 70
    11
 71
     3
 72
    85
 73
    81
 74
     0
 42
0.000000001
 43
0.00000001
 40
0.0
 40
0.0
 40
0.0
 40
0.0
 40
0.0312499999999999
 40
0.0312499999999999
 40
0.0624999999999998
 40
0.0624999999999998
 40
0.0937499999999997
 40
0.0937499999999997
 40
0.1249999999999996
 40
0.1249999999999996
 40
0.1562499999999995
 40
0.1562499999999995
 40
0.1874999999999994
 40
0.1874999999999994
 40
0.2187499999999993
 40
0.2187499999999993
 40
0.2343749999999993
 40
0.2343749999999993
 40
0.2499999999999992
 40
0.2656249999999992
 40
0.2656249999999992
 40
0.2812499999999991
 40
0.2812499999999991
 40
0.3124999999999991
 40
0.3124999999999991
 40
0.3437499999999991
 40
0.3437499999999991
 40
0.374999999999999
 40
0.374999999999999
 40
0.406249999999999
 40
0.406249999999999
 40
0.4374999999999989
 40
0.4374999999999989
 40
0.4531249999999986
 40
0.4531249999999986
 40
0.4687499999999983
 40
0.4687499999999983
 40
0.484374999999998
 40
0.484374999999998
 40
0.4999999999999977
 40
0.4999999999999977
 40
0.5156249999999974
 40
0.5156249999999974
 40
0.5312499999999971
 40
0.5312499999999971
 40
0.5624999999999972
 40
0.5624999999999972
 40
0.5937499999999974
 40
0.5937499999999974
 40
0.6249999999999976
 40
0.6249999999999976
 40
0.6562499999999977
 40
0.6562499999999977
 40
0.6718749999999978
 40
0.6718749999999978
 40
0.6874999999999978
 40
0.6874999999999978
 40
0.718749999999998
 40
0.718749999999998
 40
0.7499999999999982
 40
0.7499999999999982
 40
0.7812499999999986
 40
0.7812499999999986
 40
0.8124999999999988
 40
0.8124999999999988
 40
0.843749999999999
 40
0.843749999999999
 40
0.8749999999999992
 40
0.8749999999999992
 40
0.9062499999999994
 40
0.9062499999999994
 40
0.9374999999999998
 40
0.9374999999999998
 40
0.9531249999999998
 40
0.9531249999999998
 40
0.9687499999999999
 40
0.9687499999999999
 40
0.9843749999999999
 40
0.9843749999999999
 40
1.0
 40
1.0
 40
1.0
 40
1.0
 10
177.6390679696989
 20
103.6617629168246
 30
0.0
 10
177.9418604191678
 20
103.6617629168246
 30
0.0
 10
178.2338938824114
 20
103.6297767096093
 30
0.0
 10
178.7975551293957
 20
103.5109537788575
 30
0.0
 10
179.0570648698493
 20
103.4271714408953
 30
0.0
 10
179.549897099847
 20
103.2174104122442
 30
0.0
 10
179.7826683148654
 20
103.0907320053292
 30
0.0
 10
180.2143295117845
 20
102.8026129553584
 30
0.0
 10
180.4154497052554
 20
102.6402396716922
 30
0.0
 10
180.7915191693405
 20
102.2741760826918
 30
0.0
 10
180.9669100396441
 20
102.069034065856
 30
0.0
 10
181.276856226561
 20
101.6258359508972
 30
0.0
 10
181.4132853060538
 20
101.3864279470409
 30
0.0
 10
181.6434946965441
 20
100.8638597017976
 30
0.0
 10
181.7331767079397
 20
100.5894957637837
 30
0.0
 10
181.825498069408
 20
100.1586720646367
 30
0.0
 10
181.8493309224355
 20
100.0104782029832
 30
0.0
 10
181.8809575726678
 20
99.71366806962982
 30
0.0
 10
181.896815451629
 20
99.41686772086965
 30
0.0
 10
181.8816711657511
 20
99.12008664708003
 30
0.0
 10
181.8507762197616
 20
98.82331534750482
 30
0.0
 10
181.8272917118517
 20
98.67492910854028
 30
0.0
 10
181.7358305154239
 20
98.24317173707095
 30
0.0
 10
181.6460266964584
 20
97.96675339364958
 30
0.0
 10
181.417142706311
 20
97.44455117311398
 30
0.0
 10
181.2807909535932
 20
97.20390875087854
 30
0.0
 10
180.9689821587136
 20
96.75687350230885
 30
0.0
 10
180.7945165312615
 20
96.55272705340766
 30
0.0
 10
180.4200400120231
 20
96.18730386253617
 30
0.0
 10
180.2187574396187
 20
96.02412604213465
 30
0.0
 10
179.7839950133676
 20
95.7334250675627
 30
0.0
 10
179.5519278401279
 20
95.60718707079936
 30
0.0
 10
179.1834230001079
 20
95.45003348347551
 30
0.0
 10
179.0567572799011
 20
95.4028078789298
 30
0.0
 10
178.7935632022533
 20
95.31924483694607
 30
0.0
 10
178.656275179648
 20
95.2828141016038
 30
0.0
 10
178.3765737062946
 20
95.22380230154009
 30
0.0
 10
178.2334918851504
 20
95.20093904929627
 30
0.0
 10
177.9393146511343
 20
95.16980236008976
 30
0.0
 10
177.7877988699994
 20
95.16175636726594
 30
0.0
 10
177.4899629960512
 20
95.16176947461446
 30
0.0
 10
177.3419712975724
 20
95.16957984439239
 30
0.0
 10
177.0477293701734
 20
95.20050392296895
 30
0.0
 10
176.9022181944631
 20
95.22370187611351
 30
0.0
 10
176.4839384607319
 20
95.31183763635157
 30
0.0
 10
176.2205311742087
 20
95.39650451193467
 30
0.0
 10
175.7266381477919
 20
95.60687673265568
 30
0.0
 10
175.4978116474887
 20
95.731416692765
 30
0.0
 10
175.0656867941826
 20
96.01947220229948
 30
0.0
 10
174.8609136692514
 20
96.18478203472147
 30
0.0
 10
174.4845585041907
 20
96.55158513169074
 30
0.0
 10
174.3131127457791
 20
96.75225174109494
 30
0.0
 10
174.0813604432585
 20
97.08295708171347
 30
0.0
 10
174.0083916285928
 20
97.19817798517555
 30
0.0
 10
173.8716845194513
 20
97.43981188236869
 30
0.0
 10
173.807883389888
 20
97.56660675075244
 30
0.0
 10
173.6363009173045
 20
97.95551356614358
 30
0.0
 10
173.5462381841284
 20
98.22888873593789
 30
0.0
 10
173.4216228825505
 20
98.80876713048
 30
0.0
 10
173.3897623979472
 20
99.10451737961901
 30
0.0
 10
173.3883959585022
 20
99.69948694342388
 30
0.0
 10
173.4200346664019
 20
100.0020372978375
 30
0.0
 10
173.5412480973054
 20
100.5764680952393
 30
0.0
 10
173.6319824195839
 20
100.8561727408314
 30
0.0
 10
173.8596278625118
 20
101.3761678704461
 30
0.0
 10
173.9965153900088
 20
101.6183664751096
 30
0.0
 10
174.3093611969917
 20
102.0670108086477
 30
0.0
 10
174.4816562371228
 20
102.2686464904728
 30
0.0
 10
174.8561460196194
 20
102.6345533261058
 30
0.0
 10
175.0596489044416
 20
102.7996359515007
 30
0.0
 10
175.4951139326334
 20
103.0906958463911
 30
0.0
 10
175.7241465013374
 20
103.2152200893875
 30
0.0
 10
176.0909185793457
 20
103.3719915893291
 30
0.0
 10
176.2171076506994
 20
103.4191948513062
 30
0.0
 10
176.4796428217477
 20
103.5028770908131
 30
0.0
 10
176.6172190968379
 20
103.5395856696177
 30
0.0
 10
176.8980027143036
 20
103.5991150735806
 30
0.0
 10
177.0413871178793
 20
103.6221248615487
 30
0.0
 10
177.3354907247662
 20
103.6534855577538
 30
0.0
 10
177.4876717449644
 20
103.6617629168246
 30
0.0
 10
177.6390679696988
 20
103.6617629168246
 30
0.0
  0
LINE
  5
273
330
1F
100
AcDbEntity
  8
0
  6
HIDDEN
 62
     7
370
     0
100
AcDbLine
 10
161.3511985509
 20
119.4009100755
 30
0.0
 11
155.1390679697
 21
120.3848149009
 31
0.0
  0
SPLINE
  5
274
330
1F
100
AcDbEntity
  8
0
  6
HIDDEN
 62
     7
370
     0
100
AcDbSpline
210
0.0
220
0.0
230
1.0
 70
    11
 71
     3
 72
    22
 73
    18
 74
     0
 42
0.000000001
 43
0.00000001
 40
0.0
 40
0.0
 40
0.0
 40
0.0
 40
0.125
 40
0.125
 40
0.25
 40
0.25
 40
0.375
 40
0.375
 40
0.5
 40
0.5
 40
0.625
 40
0.625
 40
0.75
 40
0.75
 40
0.875
 40
0.875
 40
1.0
 40
1.0
 40
1.0
 40
1.0
 10
124.1390679696988
 20
83.84010111518437
 30
0.0
 10
124.1634632159589
 20
83.99790263009518
 30
0.0
 10
124.1856469308269
 20
84.13879169251595
 30
0.0
 10
124.2253467164531
 20
84.38784673644604
 30
0.0
 10
124.2429671834692
 20
84.4966219678823
 30
0.0
 10
124.27133785054
 20
84.67030063040575
 30
0.0
 10
124.2823275468385
 20
84.73672911870622
 30
0.0
 10
124.2973365026155
 20
84.82717011731889
 30
0.0
 10
124.3010844910584
 20
84.84956884222316
 30
0.0
 10
124.301135017543
 20
84.84987163148116
 30
0.0
 10
124.2973167205798
 20
84.82704897757168
 30
0.0
 10
124.2825246442253
 20
84.7379187026026
 30
0.0
 10
124.2716319618515
 20
84.67209454460234
 30
0.0
 10
124.2429836362313
 20
84.49672918431142
 30
0.0
 10
124.2256849728191
 20
84.38994718502511
 30
0.0
 10
124.1860436984077
 20
84.14130199113056
 30
0.0
 10
124.1634657426259
 20
83.99791897392971
 30
0.0
 10
124.1390679696988
 20
83.84010111518437
 30
0.0
  0
SPLINE
  5
275
330
1F
100
AcDbEntity
  8
0
  6
HIDDEN
 62
     7
370
     0
100
AcDbSpline
210
0.0
220
0.0
230
1.0
 70
    11
 71
     3
 72
    22
 73
    18
 74
     0
 42
0.000000001
 43
0.00000001
 40
0.0
 40
0.0
 40
0.0
 40
0.0
 40
0.125
 40
0.125
 40
0.25
 40
0.25
 40
0.375
 40
0.375
 40
0.5
 40
0.5
 40
0.625
 40
0.625
 40
0.75
 40
0.75
 40
0.875
 40
0.875
 40
1.0
 40
1.0
 40
1.0
 40
1.0
 10
124.1390679696988
 20
114.9834247184648
 30
0.0
 10
124.1634632159589
 20
114.825623203554
 30
0.0
 10
124.1856469308269
 20
114.6847341411332
 30
0.0
 10
124.2253467164531
 20
114.4356790972031
 30
0.0
 10
124.2429671834692
 20
114.3269038657669
 30
0.0
 10
124.27133785054
 20
114.1532252032434
 30
0.0
 10
124.2823275468385
 20
114.086796714943
 30
0.0
 10
124.2973365026155
 20
113.9963557163303
 30
0.0
 10
124.3010844910584
 20
113.973956991426
 30
0.0
 10
124.301135017543
 20
113.973654202168
 30
0.0
 10
124.2973167205798
 20
113.9964768560775
 30
0.0
 10
124.2825246442253
 20
114.0856071310466
 30
0.0
 10
124.2716319618515
 20
114.1514312890468
 30
0.0
 10
124.2429836362313
 20
114.3267966493378
 30
0.0
 10
124.2256849728191
 20
114.4335786486241
 30
0.0
 10
124.1860436984077
 20
114.6822238425186
 30
0.0
 10
124.1634657426259
 20
114.8256068597195
 30
0.0
 10
124.1390679696988
 20
114.9834247184648
 30
0.0
  0
LINE
  5
276
330
1F
100
AcDbEntity
  8
0
  6
HIDDEN
 62
     7
370
     0
100
AcDbLine
 10
124.1390679697
 20
83.8401011152
 30
0.0
 11
124.1390679697
 21
114.9834247185
 31
0.0
  0
LINE
  5
277
330
1F
100
AcDbEntity
  8
0
  6
HIDDEN
 62
     7
370
     0
100
AcDbLine
 10
124.1390679697
 20
114.9834247185
 30
0.0
 11
124.1390679697
 21
83.8401011152
 31
0.0
  0
SPLINE
  5
278
330
1F
100
AcDbEntity
  8
0
  6
HIDDEN
 62
     7
370
     0
100
AcDbSpline
210
0.0
220
0.0
230
1.0
 70
    11
 71
     3
 72
    52
 73
    48
 74
     0
 42
0.000000001
 43
0.00000001
 40
0.0
 40
0.0
 40
0.0
 40
0.0
 40
0.0312499999999996
 40
0.0312499999999996
 40
0.0624999999999993
 40
0.0624999999999993
 40
0.1249999999999986
 40
0.1249999999999986
 40
0.1562499999999981
 40
0.1562499999999981
 40
0.1874999999999977
 40
0.1874999999999977
 40
0.2499999999999963
 40
0.2499999999999963
 40
0.2812499999999962
 40
0.2812499999999962
 40
0.3124999999999961
 40
0.3124999999999961
 40
0.3437499999999961
 40
0.3437499999999961
 40
0.3749999999999959
 40
0.3749999999999959
 40
0.4062499999999959
 40
0.4062499999999959
 40
0.4374999999999958
 40
0.4374999999999958
 40
0.4687499999999957
 40
0.4687499999999957
 40
0.4999999999999957
 40
0.4999999999999957
 40
0.562499999999996
 40
0.562499999999996
 40
0.5937499999999961
 40
0.5937499999999961
 40
0.6249999999999963
 40
0.6249999999999963
 40
0.687499999999997
 40
0.687499999999997
 40
0.7499999999999976
 40
0.7499999999999976
 40
0.8124999999999982
 40
0.8124999999999982
 40
0.8749999999999989
 40
0.8749999999999989
 40
0.9374999999999994
 40
0.9374999999999994
 40
1.0
 40
1.0
 40
1.0
 40
1.0
 10
153.967296594147
 20
75.5833378258065
 30
0.0
 10
154.0076903287386
 20
75.62540293124405
 30
0.0
 10
154.0400671166301
 20
75.65921549840728
 30
0.0
 10
154.0888564089596
 20
75.7102184107848
 30
0.0
 10
154.1052142574889
 20
75.72735179412135
 30
0.0
 10
154.1269880813198
 20
75.75015697148982
 30
0.0
 10
154.1054917745673
 20
75.72758211392426
 30
0.0
 10
154.0238684816437
 20
75.64230068905037
 30
0.0
 10
153.9880062616027
 20
75.60487640426777
 30
0.0
 10
153.9030686212351
 20
75.51649958177076
 30
0.0
 10
153.8539403961142
 20
75.46549013892658
 30
0.0
 10
153.6869466179632
 20
75.29272359911118
 30
0.0
 10
153.5537869629928
 20
75.15573318660782
 30
0.0
 10
153.3350899045031
 20
74.93277356109007
 30
0.0
 10
153.2598336546566
 20
74.85634986540998
 30
0.0
 10
153.1047515557589
 20
74.69953750806945
 30
0.0
 10
153.0244424374159
 20
74.61866921329822
 30
0.0
 10
152.864767545861
 20
74.4585684469911
 30
0.0
 10
152.784787317208
 20
74.37871067630527
 30
0.0
 10
152.6245490634379
 20
74.21937294936811
 30
0.0
 10
152.544152939286
 20
74.13976392431712
 30
0.0
 10
152.389152603259
 20
73.98686749990213
 30
0.0
 10
152.3137685314983
 20
73.91280268767102
 30
0.0
 10
152.1675063961308
 20
73.76959626087529
 30
0.0
 10
152.0966010978158
 20
73.70043454061276
 30
0.0
 10
151.9658394914379
 20
73.57326607499701
 30
0.0
 10
151.905144780293
 20
73.5144374541772
 30
0.0
 10
151.7940080531452
 20
73.40697339622828
 30
0.0
 10
151.7438985212762
 20
73.3586619831141
 30
0.0
 10
151.6180567769994
 20
73.23753624155228
 30
0.0
 10
151.5633767453682
 20
73.18518532677126
 30
0.0
 10
151.5394359604725
 20
73.16225060775753
 30
0.0
 10
151.5408528315386
 20
73.16360684276097
 30
0.0
 10
151.5625968251875
 20
73.18443981701218
 30
0.0
 10
151.5825951952868
 20
73.20360191154224
 30
0.0
 10
151.6694728567882
 20
73.28699172804534
 30
0.0
 10
151.7617787021918
 20
73.37572561796243
 30
0.0
 10
151.9916563362096
 20
73.5981959454567
 30
0.0
 10
152.1297328189721
 20
73.73245877916146
 30
0.0
 10
152.4255332154455
 20
74.02242917476873
 30
0.0
 10
152.5860301152291
 20
74.18087450203846
 30
0.0
 10
152.9059042528381
 20
74.49940095931754
 30
0.0
 10
153.0690475942359
 20
74.6632417767131
 30
0.0
 10
153.3752587477947
 20
74.97331400947883
 30
0.0
 10
153.52234760461
 20
75.12361650798725
 30
0.0
 10
153.7762118135595
 20
75.38476896476433
 30
0.0
 10
153.8865091249639
 20
75.49920761493136
 30
0.0
 10
153.967296594147
 20
75.5833378258065
 30
0.0
  0
LINE
  5
279
330
1F
100
AcDbEntity
  8
0
  6
HIDDEN
 62
     7
370
     0
100
AcDbLine
 10
157.9280208375
 20
76.7617629168
 30
0.0
 11
155.1390679697
 21
76.7617629168
 31
0.0
  0
LINE
  5
27A
330
1F
100
AcDbEntity
  8
0
  6
HIDDEN
 62
     7
370
     0
100
AcDbLine
 10
192.4906364718
 20
76.7517629168
 30
0.0
 11
192.4906364718
 21
76.7617629168
 31
0.0
  0
LINE
  5
27B
330
1F
100
AcDbEntity
  8
0
  6
HIDDEN
 62
     7
370
     0
100
AcDbLine
 10
192.4906364718
 20
76.7517629168
 30
0.0
 11
192.4455687951
 21
76.7517629168
 31
0.0
  0
LINE
  5
27C
330
1F
100
AcDbEntity
  8
0
  6
HIDDEN
 62
     7
370
     0
100
AcDbLine
 10
192.4455687951
 20
76.7517629168
 30
0.0
 11
192.4455687951
 21
76.7617629168
 31
0.0
  0
LINE
  5
27D
330
1F
100
AcDbEntity
  8
0
  6
HIDDEN
 62
     7
370
     0
100
AcDbLine
 10
192.0058762118
 20
76.7517629168
 30
0.0
 11
192.0058762118
 21
76.7617629168
 31
0.0
  0
LINE
  5
27E
330
1F
100
AcDbEntity
  8
0
  6
HIDDEN
 62
     7
370
     0
100
AcDbLine
 10
192.0058762118
 20
76.7517629168
 30
0.0
 11
191.9167637373
 21
76.7517629168
 31
0.0
  0
LINE
  5
27F
330
1F
100
AcDbEntity
  8
0
  6
HIDDEN
 62
     7
370
     0
100
AcDbLine
 10
191.9167637373
 20
76.7517629168
 30
0.0
 11
191.9167637373
 21
76.7617629168
 31
0.0
  0
LINE
  5
280
330
1F
100
AcDbEntity
  8
0
  6
HIDDEN
 62
     7
370
     0
100
AcDbLine
 10
191.1950395374
 20
76.7517629168
 30
0.0
 11
191.1950395374
 21
76.7617629168
 31
0.0
  0
LINE
  5
281
330
1F
100
AcDbEntity
  8
0
  6
HIDDEN
 62
     7
370
     0
100
AcDbLine
 10
191.1950395374
 20
76.7517629168
 30
0.0
 11
191.0639048074
 21
76.7517629168
 31
0.0
  0
LINE
  5
282
330
1F
100
AcDbEntity
  8
0
  6
HIDDEN
 62
     7
370
     0
100
AcDbLine
 10
191.0639048074
 20
76.7517629168
 30
0.0
 11
191.0639048074
 21
76.7617629168
 31
0.0
  0
LINE
  5
283
330
1F
100
AcDbEntity
  8
0
  6
HIDDEN
 62
     7
370
     0
100
AcDbLine
 10
190.0765296116
 20
76.7517629168
 30
0.0
 11
190.0765296116
 21
76.7617629168
 31
0.0
  0
LINE
  5
284
330
1F
100
AcDbEntity
  8
0
  6
HIDDEN
 62
     7
370
     0
100
AcDbLine
 10
190.0765296116
 20
76.7517629168
 30
0.0
 11
189.9063489269
 21
76.7517629168
 31
0.0
  0
LINE
  5
285
330
1F
100
AcDbEntity
  8
0
  6
HIDDEN
 62
     7
370
     0
100
AcDbLine
 10
189.9063489269
 20
76.7517629168
 30
0.0
 11
189.9063489269
 21
76.7617629168
 31
0.0
  0
LINE
  5
286
330
1F
100
AcDbEntity
  8
0
  6
HIDDEN
 62
     7
370
     0
100
AcDbLine
 10
188.6757327068
 20
76.7517629168
 30
0.0
 11
188.6757327068
 21
76.7617629168
 31
0.0
  0
LINE
  5
287
330
1F
100
AcDbEntity
  8
0
  6
HIDDEN
 62
     7
370
     0
100
AcDbLine
 10
188.6757327068
 20
76.7517629168
 30
0.0
 11
188.470368575
 21
76.7517629168
 31
0.0
  0
LINE
  5
288
330
1F
100
AcDbEntity
  8
0
  6
HIDDEN
 62
     7
370
     0
100
AcDbLine
 10
188.470368575
 20
76.7517629168
 30
0.0
 11
188.470368575
 21
76.7617629168
 31
0.0
  0
LINE
  5
289
330
1F
100
AcDbEntity
  8
0
  6
HIDDEN
 62
     7
370
     0
100
AcDbLine
 10
192.6383179509
 20
76.7517629168
 30
0.0
 11
192.6390679697
 21
76.7517629168
 31
0.0
  0
LINE
  5
28A
330
1F
100
AcDbEntity
  8
0
  6
HIDDEN
 62
     7
370
     0
100
AcDbLine
 10
192.6383179509
 20
76.7517629168
 30
0.0
 11
192.6383179509
 21
76.7617629168
 31
0.0
  0
SPLINE
  5
28B
330
1F
100
AcDbEntity
  8
0
  6
HIDDEN
 62
     7
370
     0
100
AcDbSpline
210
0.0
220
0.0
230
1.0
 70
    11
 71
     3
 72
    58
 73
    54
 74
     0
 42
0.000000001
 43
0.00000001
 40
0.0
 40
0.0
 40
0.0
 40
0.0
 40
0.0312499999999999
 40
0.0312499999999999
 40
0.0624999999999998
 40
0.0624999999999998
 40
0.0937499999999996
 40
0.0937499999999996
 40
0.1249999999999995
 40
0.1249999999999995
 40
0.1874999999999995
 40
0.1874999999999995
 40
0.2499999999999995
 40
0.2499999999999995
 40
0.2812499999999995
 40
0.2812499999999995
 40
0.3124999999999995
 40
0.3124999999999995
 40
0.3437499999999995
 40
0.3437499999999995
 40
0.3749999999999994
 40
0.3749999999999994
 40
0.4062499999999994
 40
0.4062499999999994
 40
0.4374999999999994
 40
0.4374999999999994
 40
0.4687499999999994
 40
0.4687499999999994
 40
0.4999999999999994
 40
0.4999999999999994
 40
0.5624999999999996
 40
0.5624999999999996
 40
0.6249999999999997
 40
0.6249999999999997
 40
0.6562499999999997
 40
0.6562499999999997
 40
0.6874999999999997
 40
0.6874999999999997
 40
0.7187499999999997
 40
0.7187499999999997
 40
0.7499999999999996
 40
0.7499999999999996
 40
0.7812499999999996
 40
0.7812499999999996
 40
0.8124999999999996
 40
0.8124999999999996
 40
0.8437499999999996
 40
0.8437499999999996
 40
0.8749999999999996
 40
0.8749999999999996
 40
0.9374999999999998
 40
0.9374999999999998
 40
1.0
 40
1.0
 40
1.0
 40
1.0
 10
192.6390679696988
 20
101.0617629168246
 30
0.0
 10
192.6390679696988
 20
101.0617629168246
 30
0.0
 10
192.6378788004857
 20
101.0510497709051
 30
0.0
 10
192.6333507245166
 20
101.009088927274
 30
0.0
 10
192.6299581852946
 20
100.9773259595767
 30
0.0
 10
192.6215326139926
 20
100.8944783319671
 30
0.0
 10
192.6165395504346
 20
100.8437925781671
 30
0.0
 10
192.6055660197292
 20
100.724057807762
 30
0.0
 10
192.599547474544
 20
100.6544197311789
 30
0.0
 10
192.5817486753174
 20
100.4262590693796
 30
0.0
 10
192.5698406435977
 20
100.2423079475563
 30
0.0
 10
192.5530253649094
 20
99.84530368144324
 30
0.0
 10
192.5480549164012
 20
99.62806172637262
 30
0.0
 10
192.5480352493968
 20
99.30497482468687
 30
0.0
 10
192.5492337023182
 20
99.19557143828825
 30
0.0
 10
192.5538048091553
 20
98.98389427874052
 30
0.0
 10
192.5571522474003
 20
98.88100198582781
 30
0.0
 10
192.5655995617226
 20
98.68113714602761
 30
0.0
 10
192.5707024758073
 20
98.58462127737157
 30
0.0
 10
192.5816675922858
 20
98.40591116400562
 30
0.0
 10
192.5875781715878
 20
98.32256308714278
 30
0.0
 10
192.5995941644836
 20
98.16848376963328
 30
0.0
 10
192.6054964942464
 20
98.10026616445147
 30
0.0
 10
192.6164426104471
 20
97.98075205717832
 30
0.0
 10
192.6215333589572
 20
97.92903997976046
 30
0.0
 10
192.6299589284961
 20
97.846192763072
 30
0.0
 10
192.6332965687276
 20
97.8149431188069
 30
0.0
 10
192.6378606808248
 20
97.7726396820625
 30
0.0
 10
192.6390635685201
 20
97.76180292754267
 30
0.0
 10
192.6390767347065
 20
97.76168323493087
 30
0.0
 10
192.6341618362882
 20
97.8048961852391
 30
0.0
 10
192.6174441289512
 20
97.96921898566998
 30
0.0
 10
192.6055783930915
 20
98.09195763189433
 30
0.0
 10
192.5877777492856
 20
98.31990120009279
 30
0.0
 10
192.5817491474143
 20
98.4046805895981
 30
0.0
 10
192.570744575737
 20
98.58383761689207
 30
0.0
 10
192.5657288042386
 20
98.67851469929815
 30
0.0
 10
192.5572533213649
 20
98.8781868062428
 30
0.0
 10
192.5538329215771
 20
98.98300686260825
 30
0.0
 10
192.549260045961
 20
99.19394203793334
 30
0.0
 10
192.5480531440648
 20
99.30116522679722
 30
0.0
 10
192.5480305705189
 20
99.51927455446287
 30
0.0
 10
192.5492170114485
 20
99.62663979264647
 30
0.0
 10
192.5537507950191
 20
99.83766361472972
 30
0.0
 10
192.5571510794072
 20
99.94249368077703
 30
0.0
 10
192.5655993767535
 20
100.1423868429522
 30
0.0
 10
192.5706047617807
 20
100.2371754848467
 30
0.0
 10
192.5815949265556
 20
100.4165647831388
 30
0.0
 10
192.5876192343104
 20
100.5014612722926
 30
0.0
 10
192.6054192914212
 20
100.729792607678
 30
0.0
 10
192.6173025869808
 20
100.8528552068691
 30
0.0
 10
192.6340755321985
 20
101.0178409153996
 30
0.0
 10
192.6390679696988
 20
101.0617629168246
 30
0.0
 10
192.6390679696988
 20
101.0617629168246
 30
0.0
  0
SPLINE
  5
28C
330
1F
100
AcDbEntity
  8
0
  6
HIDDEN
 62
     7
370
     0
100
AcDbSpline
210
0.0
220
0.0
230
1.0
 70
    11
 71
     3
 72
    58
 73
    54
 74
     0
 42
0.000000001
 43
0.00000001
 40
0.0
 40
0.0
 40
0.0
 40
0.0
 40
0.0312499999999999
 40
0.0312499999999999
 40
0.0624999999999998
 40
0.0624999999999998
 40
0.0937499999999996
 40
0.0937499999999996
 40
0.1249999999999995
 40
0.1249999999999995
 40
0.1874999999999995
 40
0.1874999999999995
 40
0.2499999999999995
 40
0.2499999999999995
 40
0.2812499999999995
 40
0.2812499999999995
 40
0.3124999999999995
 40
0.3124999999999995
 40
0.3437499999999995
 40
0.3437499999999995
 40
0.3749999999999994
 40
0.3749999999999994
 40
0.4062499999999994
 40
0.4062499999999994
 40
0.4374999999999994
 40
0.4374999999999994
 40
0.4687499999999994
 40
0.4687499999999994
 40
0.4999999999999994
 40
0.4999999999999994
 40
0.5624999999999996
 40
0.5624999999999996
 40
0.6249999999999997
 40
0.6249999999999997
 40
0.6562499999999997
 40
0.6562499999999997
 40
0.6874999999999997
 40
0.6874999999999997
 40
0.7187499999999997
 40
0.7187499999999997
 40
0.7499999999999996
 40
0.7499999999999996
 40
0.7812499999999996
 40
0.7812499999999996
 40
0.8124999999999996
 40
0.8124999999999996
 40
0.8437499999999996
 40
0.8437499999999996
 40
0.8749999999999996
 40
0.8749999999999996
 40
0.9374999999999998
 40
0.9374999999999998
 40
1.0
 40
1.0
 40
1.0
 40
1.0
 10
192.6390679696988
 20
101.0617629168246
 30
0.0
 10
192.6390679696988
 20
101.0617629168246
 30
0.0
 10
192.6378788004857
 20
101.0510497709051
 30
0.0
 10
192.6333507245166
 20
101.009088927274
 30
0.0
 10
192.6299581852946
 20
100.9773259595767
 30
0.0
 10
192.6215326139926
 20
100.8944783319671
 30
0.0
 10
192.6165395504346
 20
100.8437925781671
 30
0.0
 10
192.6055660197292
 20
100.724057807762
 30
0.0
 10
192.599547474544
 20
100.6544197311789
 30
0.0
 10
192.5817486753174
 20
100.4262590693796
 30
0.0
 10
192.5698406435977
 20
100.2423079475563
 30
0.0
 10
192.5530253649094
 20
99.84530368144324
 30
0.0
 10
192.5480549164012
 20
99.62806172637262
 30
0.0
 10
192.5480352493968
 20
99.30497482468687
 30
0.0
 10
192.5492337023182
 20
99.19557143828825
 30
0.0
 10
192.5538048091553
 20
98.98389427874052
 30
0.0
 10
192.5571522474003
 20
98.88100198582781
 30
0.0
 10
192.5655995617226
 20
98.68113714602761
 30
0.0
 10
192.5707024758073
 20
98.58462127737157
 30
0.0
 10
192.5816675922858
 20
98.40591116400562
 30
0.0
 10
192.5875781715878
 20
98.32256308714278
 30
0.0
 10
192.5995941644836
 20
98.16848376963328
 30
0.0
 10
192.6054964942464
 20
98.10026616445147
 30
0.0
 10
192.6164426104471
 20
97.98075205717832
 30
0.0
 10
192.6215333589572
 20
97.92903997976046
 30
0.0
 10
192.6299589284961
 20
97.846192763072
 30
0.0
 10
192.6332965687276
 20
97.8149431188069
 30
0.0
 10
192.6378606808248
 20
97.7726396820625
 30
0.0
 10
192.6390635685201
 20
97.76180292754267
 30
0.0
 10
192.6390767347065
 20
97.76168323493087
 30
0.0
 10
192.6341618362882
 20
97.8048961852391
 30
0.0
 10
192.6174441289512
 20
97.96921898566998
 30
0.0
 10
192.6055783930915
 20
98.09195763189433
 30
0.0
 10
192.5877777492856
 20
98.31990120009279
 30
0.0
 10
192.5817491474143
 20
98.4046805895981
 30
0.0
 10
192.570744575737
 20
98.58383761689207
 30
0.0
 10
192.5657288042386
 20
98.67851469929815
 30
0.0
 10
192.5572533213649
 20
98.8781868062428
 30
0.0
 10
192.5538329215771
 20
98.98300686260825
 30
0.0
 10
192.549260045961
 20
99.19394203793334
 30
0.0
 10
192.5480531440648
 20
99.30116522679722
 30
0.0
 10
192.5480305705189
 20
99.51927455446287
 30
0.0
 10
192.5492170114485
 20
99.62663979264647
 30
0.0
 10
192.5537507950191
 20
99.83766361472972
 30
0.0
 10
192.5571510794072
 20
99.94249368077703
 30
0.0
 10
192.5655993767535
 20
100.1423868429522
 30
0.0
 10
192.5706047617807
 20
100.2371754848467
 30
0.0
 10
192.5815949265556
 20
100.4165647831388
 30
0.0
 10
192.5876192343104
 20
100.5014612722926
 30
0.0
 10
192.6054192914212
 20
100.729792607678
 30
0.0
 10
192.6173025869808
 20
100.8528552068691
 30
0.0
 10
192.6340755321985
 20
101.0178409153996
 30
0.0
 10
192.6390679696988
 20
101.0617629168246
 30
0.0
 10
192.6390679696988
 20
101.0617629168246
 30
0.0
  0
LINE
  5
28D
330
1F
100
AcDbEntity
  8
0
  6
HIDDEN
 62
     7
370
     0
100
AcDbLine
 10
189.9063489269
 20
76.7617629168
 30
0.0
 11
188.6757327068
 21
76.7617629168
 31
0.0
  0
LINE
  5
28E
330
1F
100
AcDbEntity
  8
0
  6
HIDDEN
 62
     7
370
     0
100
AcDbLine
 10
191.0639048074
 20
76.7617629168
 30
0.0
 11
190.0765296116
 21
76.7617629168
 31
0.0
  0
LINE
  5
28F
330
1F
100
AcDbEntity
  8
0
  6
HIDDEN
 62
     7
370
     0
100
AcDbLine
 10
191.9167637373
 20
76.7617629168
 30
0.0
 11
191.1950395374
 21
76.7617629168
 31
0.0
  0
LINE
  5
290
330
1F
100
AcDbEntity
  8
0
  6
HIDDEN
 62
     7
370
     0
100
AcDbLine
 10
192.4455687951
 20
76.7617629168
 30
0.0
 11
192.0058762118
 21
76.7617629168
 31
0.0
  0
LINE
  5
291
330
1F
100
AcDbEntity
  8
0
  6
HIDDEN
 62
     7
370
     0
100
AcDbLine
 10
192.6383179509
 20
76.7617629168
 30
0.0
 11
192.4906364718
 21
76.7617629168
 31
0.0
  0
LINE
  5
292
330
1F
100
AcDbEntity
  8
0
  6
HIDDEN
 62
     7
370
     0
100
AcDbLine
 10
192.6383179509
 20
76.7617629168
 30
0.0
 11
162.6503031547
 21
76.7617629168
 31
0.0
  0
LINE
  5
293
330
1F
100
AcDbEntity
  8
0
  6
HIDDEN
 62
     7
370
     0
100
AcDbLine
 10
192.6390679697
 20
114.4453983887
 30
0.0
 11
162.6565845672
 21
119.1941572419
 31
0.0
  0
LINE
  5
294
330
1F
100
AcDbEntity
  8
0
  6
HIDDEN
 62
     7
370
     0
100
AcDbLine
 10
98.9390679697
 20
113.4117629168
 30
0.0
 11
98.9390679697
 21
85.4117629168
 31
0.0
  0
LINE
  5
295
330
1F
100
AcDbEntity
  8
0
  6
HIDDEN
 62
     7
370
     0
100
AcDbLine
 10
121.6390679697
 20
85.4117629168
 30
0.0
 11
121.6390679697
 21
85.839325942
 31
0.0
  0
LINE
  5
296
330
1F
100
AcDbEntity
  8
0
  6
HIDDEN
 62
     7
370
     0
100
AcDbLine
 10
121.6390679697
 20
85.4117629168
 30
0.0
 11
121.6390679697
 21
113.4117629168
 31
0.0
  0
LINE
  5
297
330
1F
100
AcDbEntity
  8
0
  6
HIDDEN
 62
     7
370
     0
100
AcDbLine
 10
94.1390679697
 20
111.3117629168
 30
0.0
 11
94.1390679697
 21
87.5117629168
 31
0.0
  0
LINE
  5
298
330
1F
100
AcDbEntity
  8
0
  6
HIDDEN
 62
     7
370
     0
100
AcDbLine
 10
94.1390679697
 20
91.9117629168
 30
0.0
 11
94.1390679697
 21
106.9117629168
 31
0.0
  0
LINE
  5
299
330
1F
100
AcDbEntity
  8
0
  6
HIDDEN
 62
     7
370
     0
100
AcDbLine
 10
97.1390679697
 20
105.9117629168
 30
0.0
 11
97.1390679697
 21
92.9117629168
 31
0.0
  0
LINE
  5
29A
330
1F
100
AcDbEntity
  8
0
  6
HIDDEN
 62
     7
370
     0
100
AcDbLine
 10
97.9802728363
 20
104.5117629168
 30
0.0
 11
97.9802728363
 21
94.3117629168
 31
0.0
  0
SPLINE
  5
29B
330
1F
100
AcDbEntity
  8
0
  6
HIDDEN
 62
     7
370
     0
100
AcDbSpline
210
0.0
220
0.0
230
1.0
 70
    11
 71
     3
 72
    60
 73
    56
 74
     0
 42
0.000000001
 43
0.00000001
 40
0.0
 40
0.0
 40
0.0
 40
0.0
 40
0.0312499999999999
 40
0.0312499999999999
 40
0.0624999999999998
 40
0.0624999999999998
 40
0.0937499999999998
 40
0.0937499999999998
 40
0.1249999999999998
 40
0.1249999999999998
 40
0.1874999999999998
 40
0.1874999999999998
 40
0.2187499999999993
 40
0.2187499999999993
 40
0.2499999999999989
 40
0.2499999999999989
 40
0.2812499999999984
 40
0.2812499999999984
 40
0.3124999999999979
 40
0.3124999999999979
 40
0.3749999999999979
 40
0.3749999999999979
 40
0.406249999999998
 40
0.406249999999998
 40
0.437499999999998
 40
0.437499999999998
 40
0.468749999999998
 40
0.468749999999998
 40
0.4999999999999979
 40
0.4999999999999979
 40
0.562499999999998
 40
0.562499999999998
 40
0.593749999999998
 40
0.593749999999998
 40
0.624999999999998
 40
0.624999999999998
 40
0.6874999999999981
 40
0.6874999999999981
 40
0.7187499999999986
 40
0.7187499999999986
 40
0.749999999999999
 40
0.749999999999999
 40
0.7812499999999994
 40
0.7812499999999994
 40
0.8124999999999999
 40
0.8124999999999999
 40
0.875
 40
0.875
 40
0.90625
 40
0.90625
 40
0.9375
 40
0.9375
 40
0.9687500000000001
 40
0.9687500000000001
 40
1.0
 40
1.0
 40
1.0
 40
1.0
 10
146.7890679696988
 20
94.31176291682459
 30
0.0
 10
146.7890679696988
 20
94.31176291682459
 30
0.0
 10
146.7782180819247
 20
94.31530243128094
 30
0.0
 10
146.7358397699353
 20
94.32877397602135
 30
0.0
 10
146.7037529246953
 20
94.33887727835426
 30
0.0
 10
146.6206447247024
 20
94.363892140589
 30
0.0
 10
146.569896024819
 20
94.3787268894008
 30
0.0
 10
146.4501462229933
 20
94.41145203486052
 30
0.0
 10
146.3809883666373
 20
94.42934679801184
 30
0.0
 10
146.1542729220664
 20
94.4826090817323
 30
0.0
 10
145.971515133765
 20
94.51872111520585
 30
0.0
 10
145.6742380078989
 20
94.5574602462401
 30
0.0
 10
145.5695056576181
 20
94.56806064311927
 30
0.0
 10
145.3561902274164
 20
94.58234088226256
 30
0.0
 10
145.2486420598612
 20
94.58602483221787
 30
0.0
 10
145.0317695566268
 20
94.58607596785696
 30
0.0
 10
144.9216027899029
 20
94.58231376419855
 30
0.0
 10
144.7093538760072
 20
94.56811323753378
 30
0.0
 10
144.6061250872258
 20
94.55773068155906
 30
0.0
 10
144.3050820243372
 20
94.51855989046929
 30
0.0
 10
144.1242472524871
 20
94.4827122436575
 30
0.0
 10
143.8962857389449
 20
94.42913785209021
 30
0.0
 10
143.8284785016575
 20
94.41157893847088
 30
0.0
 10
143.7089554420807
 20
94.37892903268988
 30
0.0
 10
143.6570906921934
 20
94.36377306920848
 30
0.0
 10
143.5743835977779
 20
94.33887596417856
 30
0.0
 10
143.5428263496615
 20
94.32894144159351
 30
0.0
 10
143.4999503157431
 20
94.31531380758781
 30
0.0
 10
143.4891124698825
 20
94.31177731394177
 30
0.0
 10
143.4889793855775
 20
94.31173425725808
 30
0.0
 10
143.5326645190971
 20
94.32631238219454
 30
0.0
 10
143.656770589901
 20
94.36367919171944
 30
0.0
 10
143.7085908843988
 20
94.37882519234071
 30
0.0
 10
143.828073344063
 20
94.4114724897183
 30
0.0
 10
143.8959280283702
 20
94.42905100871847
 30
0.0
 10
144.1243887102674
 20
94.48275102991015
 30
0.0
 10
144.3043189470987
 20
94.51842903784004
 30
0.0
 10
144.6053408195166
 20
94.55764432526101
 30
0.0
 10
144.7084343186497
 20
94.56802529454266
 30
0.0
 10
144.9201105117478
 20
94.58224004386025
 30
0.0
 10
145.0300749771044
 20
94.58604500201456
 30
0.0
 10
145.2475705324316
 20
94.58605605388696
 30
0.0
 10
145.3552016584585
 20
94.58238235919153
 30
0.0
 10
145.5682528842613
 20
94.56816895263691
 30
0.0
 10
145.673351590849
 20
94.55756322083833
 30
0.0
 10
145.9714195325272
 20
94.51875853026638
 30
0.0
 10
146.1540786020756
 20
94.48265369884764
 30
0.0
 10
146.3810316412538
 20
94.42933714856781
 30
0.0
 10
146.450317331795
 20
94.41140592554875
 30
0.0
 10
146.569843123628
 20
94.37874069437171
 30
0.0
 10
146.6205423191236
 20
94.36392209533152
 30
0.0
 10
146.7036229881593
 20
94.33891725418925
 30
0.0
 10
146.7357775788554
 20
94.3287936158533
 30
0.0
 10
146.7782109740218
 20
94.31530482053219
 30
0.0
 10
146.7890679696988
 20
94.31176291682459
 30
0.0
 10
146.7890679696988
 20
94.31176291682459
 30
0.0
  0
SPLINE
  5
29C
330
1F
100
AcDbEntity
  8
0
  6
HIDDEN
 62
     7
370
     0
100
AcDbSpline
210
0.0
220
0.0
230
1.0
 70
    11
 71
     3
 72
    60
 73
    56
 74
     0
 42
0.000000001
 43
0.00000001
 40
0.0
 40
0.0
 40
0.0
 40
0.0
 40
0.0312499999999999
 40
0.0312499999999999
 40
0.0624999999999998
 40
0.0624999999999998
 40
0.0937499999999998
 40
0.0937499999999998
 40
0.1249999999999998
 40
0.1249999999999998
 40
0.1874999999999998
 40
0.1874999999999998
 40
0.2187499999999993
 40
0.2187499999999993
 40
0.2499999999999989
 40
0.2499999999999989
 40
0.2812499999999984
 40
0.2812499999999984
 40
0.3124999999999979
 40
0.3124999999999979
 40
0.3749999999999979
 40
0.3749999999999979
 40
0.406249999999998
 40
0.406249999999998
 40
0.437499999999998
 40
0.437499999999998
 40
0.468749999999998
 40
0.468749999999998
 40
0.4999999999999979
 40
0.4999999999999979
 40
0.562499999999998
 40
0.562499999999998
 40
0.593749999999998
 40
0.593749999999998
 40
0.624999999999998
 40
0.624999999999998
 40
0.6874999999999981
 40
0.6874999999999981
 40
0.7187499999999986
 40
0.7187499999999986
 40
0.749999999999999
 40
0.749999999999999
 40
0.7812499999999994
 40
0.7812499999999994
 40
0.8124999999999999
 40
0.8124999999999999
 40
0.875
 40
0.875
 40
0.90625
 40
0.90625
 40
0.9375
 40
0.9375
 40
0.9687500000000001
 40
0.9687500000000001
 40
1.0
 40
1.0
 40
1.0
 40
1.0
 10
146.7890679696988
 20
94.31176291682459
 30
0.0
 10
146.7890679696988
 20
94.31176291682459
 30
0.0
 10
146.7782180819247
 20
94.31530243128094
 30
0.0
 10
146.7358397699353
 20
94.32877397602135
 30
0.0
 10
146.7037529246953
 20
94.33887727835426
 30
0.0
 10
146.6206447247024
 20
94.363892140589
 30
0.0
 10
146.569896024819
 20
94.3787268894008
 30
0.0
 10
146.4501462229933
 20
94.41145203486052
 30
0.0
 10
146.3809883666373
 20
94.42934679801184
 30
0.0
 10
146.1542729220664
 20
94.4826090817323
 30
0.0
 10
145.971515133765
 20
94.51872111520585
 30
0.0
 10
145.6742380078989
 20
94.5574602462401
 30
0.0
 10
145.5695056576181
 20
94.56806064311927
 30
0.0
 10
145.3561902274164
 20
94.58234088226256
 30
0.0
 10
145.2486420598612
 20
94.58602483221787
 30
0.0
 10
145.0317695566268
 20
94.58607596785696
 30
0.0
 10
144.9216027899029
 20
94.58231376419855
 30
0.0
 10
144.7093538760072
 20
94.56811323753378
 30
0.0
 10
144.6061250872258
 20
94.55773068155906
 30
0.0
 10
144.3050820243372
 20
94.51855989046929
 30
0.0
 10
144.1242472524871
 20
94.4827122436575
 30
0.0
 10
143.8962857389449
 20
94.42913785209021
 30
0.0
 10
143.8284785016575
 20
94.41157893847088
 30
0.0
 10
143.7089554420807
 20
94.37892903268988
 30
0.0
 10
143.6570906921934
 20
94.36377306920848
 30
0.0
 10
143.5743835977779
 20
94.33887596417856
 30
0.0
 10
143.5428263496615
 20
94.32894144159351
 30
0.0
 10
143.4999503157431
 20
94.31531380758781
 30
0.0
 10
143.4891124698825
 20
94.31177731394177
 30
0.0
 10
143.4889793855775
 20
94.31173425725808
 30
0.0
 10
143.5326645190971
 20
94.32631238219454
 30
0.0
 10
143.656770589901
 20
94.36367919171944
 30
0.0
 10
143.7085908843988
 20
94.37882519234071
 30
0.0
 10
143.828073344063
 20
94.4114724897183
 30
0.0
 10
143.8959280283702
 20
94.42905100871847
 30
0.0
 10
144.1243887102674
 20
94.48275102991015
 30
0.0
 10
144.3043189470987
 20
94.51842903784004
 30
0.0
 10
144.6053408195166
 20
94.55764432526101
 30
0.0
 10
144.7084343186497
 20
94.56802529454266
 30
0.0
 10
144.9201105117478
 20
94.58224004386025
 30
0.0
 10
145.0300749771044
 20
94.58604500201456
 30
0.0
 10
145.2475705324316
 20
94.58605605388696
 30
0.0
 10
145.3552016584585
 20
94.58238235919153
 30
0.0
 10
145.5682528842613
 20
94.56816895263691
 30
0.0
 10
145.673351590849
 20
94.55756322083833
 30
0.0
 10
145.9714195325272
 20
94.51875853026638
 30
0.0
 10
146.1540786020756
 20
94.48265369884764
 30
0.0
 10
146.3810316412538
 20
94.42933714856781
 30
0.0
 10
146.450317331795
 20
94.41140592554875
 30
0.0
 10
146.569843123628
 20
94.37874069437171
 30
0.0
 10
146.6205423191236
 20
94.36392209533152
 30
0.0
 10
146.7036229881593
 20
94.33891725418925
 30
0.0
 10
146.7357775788554
 20
94.3287936158533
 30
0.0
 10
146.7782109740218
 20
94.31530482053219
 30
0.0
 10
146.7890679696988
 20
94.31176291682459
 30
0.0
 10
146.7890679696988
 20
94.31176291682459
 30
0.0
  0
LINE
  5
29D
330
1F
100
AcDbEntity
  8
0
  6
HIDDEN
 62
     7
370
     0
100
AcDbLine
 10
147.1390679697
 20
104.5117629168
 30
0.0
 11
147.1390679697
 21
94.3117629168
 31
0.0
  0
SPLINE
  5
29E
330
1F
100
AcDbEntity
  8
0
  6
HIDDEN
 62
     7
370
     0
100
AcDbSpline
210
0.0
220
0.0
230
1.0
 70
    11
 71
     3
 72
    72
 73
    68
 74
     0
 42
0.000000001
 43
0.00000001
 40
0.0
 40
0.0
 40
0.0
 40
0.0
 40
0.0312499999999998
 40
0.0312499999999998
 40
0.0624999999999997
 40
0.0624999999999997
 40
0.0937499999999995
 40
0.0937499999999995
 40
0.1249999999999993
 40
0.1249999999999993
 40
0.1562499999999992
 40
0.1562499999999992
 40
0.187499999999999
 40
0.187499999999999
 40
0.2187499999999989
 40
0.2187499999999989
 40
0.2499999999999988
 40
0.2499999999999988
 40
0.2812499999999987
 40
0.2812499999999987
 40
0.3124999999999986
 40
0.3124999999999986
 40
0.3437499999999984
 40
0.3437499999999984
 40
0.3749999999999983
 40
0.3749999999999983
 40
0.4062499999999982
 40
0.4062499999999982
 40
0.4374999999999981
 40
0.4374999999999981
 40
0.468749999999998
 40
0.468749999999998
 40
0.4843749999999979
 40
0.4843749999999979
 40
0.4999999999999979
 40
0.4999999999999979
 40
0.531249999999998
 40
0.531249999999998
 40
0.5624999999999981
 40
0.5624999999999981
 40
0.5937499999999981
 40
0.5937499999999981
 40
0.6249999999999982
 40
0.6249999999999982
 40
0.6562499999999982
 40
0.6562499999999982
 40
0.6874999999999983
 40
0.6874999999999983
 40
0.7187499999999983
 40
0.7187499999999983
 40
0.7499999999999986
 40
0.7499999999999986
 40
0.7812499999999987
 40
0.7812499999999987
 40
0.8124999999999989
 40
0.8124999999999989
 40
0.843749999999999
 40
0.843749999999999
 40
0.8749999999999992
 40
0.8749999999999992
 40
0.9062499999999993
 40
0.9062499999999993
 40
0.9374999999999996
 40
0.9374999999999996
 40
0.9687499999999997
 40
0.9687499999999997
 40
1.0
 40
1.0
 40
1.0
 40
1.0
 10
111.5890679696988
 20
96.0117629168246
 30
0.0
 10
111.8217204263704
 20
96.0117629168246
 30
0.0
 10
112.048223801637
 20
96.03535653929308
 30
0.0
 10
112.4905112391217
 20
96.12567951309751
 30
0.0
 10
112.7074455736085
 20
96.19344801952938
 30
0.0
 10
113.1125431882997
 20
96.36424876568631
 30
0.0
 10
113.3045118569796
 20
96.46826075957041
 30
0.0
 10
113.664300595503
 20
96.70984466695711
 30
0.0
 10
113.8297398673965
 20
96.8455407143847
 30
0.0
 10
114.1347863257266
 20
97.14782276805494
 30
0.0
 10
114.2752860229283
 20
97.31620729827041
 30
0.0
 10
114.5199713173163
 20
97.67483276656671
 30
0.0
 10
114.6254296319222
 20
97.86583859497134
 30
0.0
 10
114.800807328417
 20
98.27417580175235
 30
0.0
 10
114.870579125753
 20
98.49365077048704
 30
0.0
 10
114.9633312582773
 20
98.93679698129594
 30
0.0
 10
114.9878483811158
 20
99.16309273943881
 30
0.0
 10
114.9901997861702
 20
99.62588323145815
 30
0.0
 10
114.9675597038267
 20
99.85627016889492
 30
0.0
 10
114.8781796642458
 20
100.3025700539243
 30
0.0
 10
114.8102574569429
 20
100.5225524677083
 30
0.0
 10
114.6372051164038
 20
100.9345153832357
 30
0.0
 10
114.5317979856174
 20
101.1289586793873
 30
0.0
 10
114.2859015383308
 20
101.4939516538633
 30
0.0
 10
114.1483612673536
 20
101.6603790446966
 30
0.0
 10
113.8446137468235
 20
101.9649511044132
 30
0.0
 10
113.6767587517137
 20
102.103953633131
 30
0.0
 10
113.3205282487332
 20
102.3457685331114
 30
0.0
 10
113.1315762487045
 20
102.4496810561383
 30
0.0
 10
112.7277305649533
 20
102.6229505329786
 30
0.0
 10
112.5110732552219
 20
102.6921727718664
 30
0.0
 10
112.1790029856816
 20
102.7621020515712
 30
0.0
 10
112.0665573385036
 20
102.7800313629572
 30
0.0
 10
111.837843318814
 20
102.8045993773995
 30
0.0
 10
111.7209617971844
 20
102.8111605626965
 30
0.0
 10
111.3749846506236
 20
102.8128465203909
 30
0.0
 10
111.1474578011223
 20
102.7907332456584
 30
0.0
 10
110.6982546914224
 20
102.7009743310356
 30
0.0
 10
110.4836078130532
 20
102.6346332354492
 30
0.0
 10
110.0753181363005
 20
102.4642204006381
 30
0.0
 10
109.8812386487118
 20
102.3596343667918
 30
0.0
 10
109.5220275689539
 20
102.1198934633166
 30
0.0
 10
109.3538915488432
 20
101.9829029061944
 30
0.0
 10
109.0461243964171
 20
101.6789665822219
 30
0.0
 10
108.9079688625274
 20
101.5138893557418
 30
0.0
 10
108.6621542420516
 20
101.1554383506654
 30
0.0
 10
108.5535001356475
 20
100.9594730129144
 30
0.0
 10
108.3768304362356
 20
100.5482525319445
 30
0.0
 10
108.3083873017603
 20
100.3336237286461
 30
0.0
 10
108.2142464468141
 20
99.88428031336315
 30
0.0
 10
108.1899145427832
 20
99.65326385125789
 30
0.0
 10
108.188265374985
 20
99.19471814533235
 30
0.0
 10
108.2112350451379
 20
98.96162934331237
 30
0.0
 10
108.3020296886574
 20
98.51301109389539
 30
0.0
 10
108.3690214426273
 20
98.29721362562769
 30
0.0
 10
108.5445584020893
 20
97.88144227991646
 30
0.0
 10
108.6508665484084
 20
97.68700834814557
 30
0.0
 10
108.8959839495566
 20
97.32487423395074
 30
0.0
 10
109.0363589168536
 20
97.1556355743593
 30
0.0
 10
109.3416185087146
 20
96.85141039925614
 30
0.0
 10
109.5071157370588
 20
96.71499946485041
 30
0.0
 10
109.8667235717569
 20
96.47227520809426
 30
0.0
 10
110.0597443659776
 20
96.36717624865742
 30
0.0
 10
110.4645969306325
 20
96.19556896322331
 30
0.0
 10
110.6805769630734
 20
96.12745318778929
 30
0.0
 10
111.1274931616128
 20
96.03552314425279
 30
0.0
 10
111.3564155130272
 20
96.0117629168246
 30
0.0
 10
111.5890679696988
 20
96.0117629168246
 30
0.0
  0
LINE
  5
29F
330
1F
100
AcDbEntity
  8
0
  6
HIDDEN
 62
     7
370
     0
100
AcDbLine
 10
197.6390679697
 20
101.5117629168
 30
0.0
 11
197.6390679697
 21
97.3117629168
 31
0.0
  0
LINE
  5
2A0
330
1F
100
AcDbEntity
  8
0
  6
HIDDEN
 62
     7
370
     0
100
AcDbLine
 10
200.1390679697
 20
95.8683872439
 30
0.0
 11
200.1390679697
 21
102.9369586751
 31
0.0
  0
LINE
  5
2A1
330
1F
100
AcDbEntity
  8
0
  6
HIDDEN
 62
     7
370
     0
100
AcDbLine
 10
124.6390679697
 20
84.5117629168
 30
0.0
 11
124.6390679697
 21
80.5117629168
 31
0.0
  0
LINE
  5
2A2
330
1F
100
AcDbEntity
  8
0
  6
HIDDEN
 62
     7
370
     0
100
AcDbLine
 10
124.1390679697
 20
83.8401011152
 30
0.0
 11
124.1390679697
 21
80.0117629168
 31
0.0
  0
LINE
  5
2A3
330
1F
100
AcDbEntity
  8
0
  6
HIDDEN
 62
     7
370
     0
100
AcDbLine
 10
124.6390679697
 20
118.3117629168
 30
0.0
 11
124.6390679697
 21
114.3117629168
 31
0.0
  0
LINE
  5
2A4
330
1F
100
AcDbEntity
  8
0
  6
HIDDEN
 62
     7
370
     0
100
AcDbLine
 10
124.1390679697
 20
114.9834247185
 30
0.0
 11
124.1390679697
 21
118.8117629168
 31
0.0
  0
LINE
  5
2A5
330
1F
100
AcDbEntity
  8
0
  6
HIDDEN
 62
     7
370
     0
100
AcDbLine
 10
196.6390679697
 20
101.5117629168
 30
0.0
 11
196.6390679697
 21
97.3117629168
 31
0.0
  0
LINE
  5
2A6
330
1F
100
AcDbEntity
  8
0
  6
HIDDEN
 62
     7
370
     0
100
AcDbLine
 10
196.3686806911
 20
101.0617629168
 30
0.0
 11
196.3686806911
 21
97.7617629168
 31
0.0
  0
LINE
  5
2A7
330
1F
100
AcDbEntity
  8
0
  6
HIDDEN
 62
     7
370
     0
100
AcDbLine
 10
131.1390679697
 20
84.5117629168
 30
0.0
 11
131.1390679697
 21
80.5117629168
 31
0.0
  0
LINE
  5
2A8
330
1F
100
AcDbEntity
  8
0
  6
HIDDEN
 62
     7
370
     0
100
AcDbLine
 10
131.1390679697
 20
118.3117629168
 30
0.0
 11
131.1390679697
 21
114.3117629168
 31
0.0
  0
LINE
  5
2A9
330
1F
100
AcDbEntity
  8
0
  6
HIDDEN
 62
     7
370
     0
100
AcDbLine
 10
145.1390679697
 20
77.2514652595
 30
0.0
 11
146.7890679697
 21
78.4068076975
 31
0.0
  0
LINE
  5
2AA
330
1F
100
AcDbEntity
  8
0
  6
HIDDEN
 62
     7
370
     0
100
AcDbLine
 10
145.1390679697
 20
77.2514652595
 30
0.0
 11
146.7890679697
 21
74.8950210484
 31
0.0
  0
LINE
  5
2AB
330
1F
100
AcDbEntity
  8
0
  6
HIDDEN
 62
     7
370
     0
100
AcDbLine
 10
143.4890679697
 20
73.9117629168
 30
0.0
 11
146.7890679697
 21
73.9117629168
 31
0.0
  0
SPLINE
  5
2AC
330
1F
100
AcDbEntity
  8
0
  6
HIDDEN
 62
     7
370
     0
100
AcDbSpline
210
0.0
220
0.0
230
1.0
 70
     8
 71
     3
 72
    10
 73
     6
 74
     0
 42
0.000000001
 43
0.00000001
 40
0.0
 40
0.0
 40
0.0
 40
0.0
 40
0.5
 40
0.5
 40
1.0
 40
1.0
 40
1.0
 40
1.0
 10
144.6274735413429
 20
76.89324298424573
 30
0.0
 10
144.6532000226894
 20
77.01915390843808
 30
0.0
 10
144.6888871050596
 20
77.14398816080822
 30
0.0
 10
144.7770047718167
 20
77.38249464191892
 30
0.0
 10
144.8295214959649
 20
77.49755124217982
 30
0.0
 10
144.8882380322205
 20
77.60968753472748
 30
0.0
  0
LINE
  5
2AD
330
1F
100
AcDbEntity
  8
0
  6
HIDDEN
 62
     7
370
     0
100
AcDbLine
 10
145.1390679697
 20
77.2514652595
 30
0.0
 11
144.6274735413
 21
76.8932429842
 31
0.0
  0
LINE
  5
2AE
330
1F
100
AcDbEntity
  8
0
  6
HIDDEN
 62
     7
370
     0
100
AcDbLine
 10
144.6274735413
 20
76.8932429842
 30
0.0
 11
145.1390679697
 21
77.2514652595
 31
0.0
  0
SPLINE
  5
2AF
330
1F
100
AcDbEntity
  8
0
  6
HIDDEN
 62
     7
370
     0
100
AcDbSpline
210
0.0
220
0.0
230
1.0
 70
     8
 71
     3
 72
    10
 73
     6
 74
     0
 42
0.000000001
 43
0.00000001
 40
0.0
 40
0.0
 40
0.0
 40
0.0
 40
0.5
 40
0.5
 40
1.0
 40
1.0
 40
1.0
 40
1.0
 10
144.8882380322205
 20
77.60968753472748
 30
0.0
 10
144.8288261984691
 20
77.49622336951624
 30
0.0
 10
144.7752367594376
 20
77.37836677942343
 30
0.0
 10
144.6873802292706
 20
77.13922703789576
 30
0.0
 10
144.652841630044
 20
77.01739985787037
 30
0.0
 10
144.6274735413429
 20
76.89324298424573
 30
0.0
  0
LINE
  5
2B0
330
1F
100
AcDbEntity
  8
0
  6
HIDDEN
 62
     7
370
     0
100
AcDbLine
 10
145.1390679697
 20
77.2514652595
 30
0.0
 11
144.8882380322
 21
77.6096875347
 31
0.0
  0
LINE
  5
2B1
330
1F
100
AcDbEntity
  8
0
  6
HIDDEN
 62
     7
370
     0
100
AcDbLine
 10
144.8882380322
 20
77.6096875347
 30
0.0
 11
145.1390679697
 21
77.2514652595
 31
0.0
  0
LINE
  5
2B2
330
1F
100
AcDbEntity
  8
0
  6
HIDDEN
 62
     7
370
     0
100
AcDbLine
 10
144.6274735413
 20
76.8932429842
 30
0.0
 11
144.8882380322
 21
77.6096875347
 31
0.0
  0
LINE
  5
2B3
330
1F
100
AcDbEntity
  8
0
  6
HIDDEN
 62
     7
370
     0
100
AcDbLine
 10
197.6390679697
 20
76.7517629168
 30
0.0
 11
197.6390679697
 21
76.7617629168
 31
0.0
  0
LINE
  5
2B4
330
1F
100
AcDbEntity
  8
0
  6
HIDDEN
 62
     7
370
     0
100
AcDbLine
 10
197.6390679697
 20
76.7517629168
 30
0.0
 11
195.4519762832
 21
76.7517629168
 31
0.0
  0
LINE
  5
2B5
330
1F
100
AcDbEntity
  8
0
  6
HIDDEN
 62
     7
370
     0
100
AcDbLine
 10
197.6390679697
 20
76.7617629168
 30
0.0
 11
192.6383179509
 21
76.7617629168
 31
0.0
  0
LINE
  5
2B6
330
1F
100
AcDbEntity
  8
0
  6
HIDDEN
 62
     7
370
     0
100
AcDbLine
 10
192.6383179509
 20
76.7517629168
 30
0.0
 11
197.6390679697
 21
76.7517629168
 31
0.0
  0
LINE
  5
2B7
330
1F
100
AcDbEntity
  8
0
  6
HIDDEN
 62
     7
370
     0
100
AcDbLine
 10
144.8882380322
 20
77.6096875347
 30
0.0
 11
144.6274735413
 21
76.8932429842
 31
0.0
  0
LINE
  5
2B8
330
1F
100
AcDbEntity
  8
0
  6
HIDDEN
 62
     7
370
     0
100
AcDbLine
 10
196.4459849581
 20
76.7517629168
 30
0.0
 11
196.4459849581
 21
76.7617629168
 31
0.0
  0
LINE
  5
2B9
330
1F
100
AcDbEntity
  8
0
  6
HIDDEN
 62
     7
370
     0
100
AcDbLine
 10
196.4459849581
 20
76.7517629168
 30
0.0
 11
192.6383179509
 21
76.7517629168
 31
0.0
  0
LINE
  5
2BA
330
1F
100
AcDbEntity
  8
0
  6
HIDDEN
 62
     7
370
     0
100
AcDbLine
 10
192.5890679697
 20
76.7517629168
 30
0.0
 11
192.4906364718
 21
76.7517629168
 31
0.0
  0
LINE
  5
2BB
330
1F
100
AcDbEntity
  8
0
  6
HIDDEN
 62
     7
370
     0
100
AcDbLine
 10
196.4459849581
 20
76.7617629168
 30
0.0
 11
192.4906364718
 21
76.7617629168
 31
0.0
  0
LINE
  5
2BC
330
1F
100
AcDbEntity
  8
0
  6
HIDDEN
 62
     7
370
     0
100
AcDbLine
 10
192.4455687951
 20
76.7517629168
 30
0.0
 11
196.4009172814
 21
76.7517629168
 31
0.0
  0
LINE
  5
2BD
330
1F
100
AcDbEntity
  8
0
  6
HIDDEN
 62
     7
370
     0
100
AcDbLine
 10
192.4455687951
 20
76.7617629168
 30
0.0
 11
196.4009172814
 21
76.7617629168
 31
0.0
  0
LINE
  5
2BE
330
1F
100
AcDbEntity
  8
0
  6
HIDDEN
 62
     7
370
     0
100
AcDbLine
 10
196.4009172814
 20
76.7517629168
 30
0.0
 11
196.4009172814
 21
76.7617629168
 31
0.0
  0
LINE
  5
2BF
330
1F
100
AcDbEntity
  8
0
  6
HIDDEN
 62
     7
370
     0
100
AcDbLine
 10
196.4009172814
 20
76.7517629168
 30
0.0
 11
196.4459849581
 21
76.7517629168
 31
0.0
  0
LINE
  5
2C0
330
1F
100
AcDbEntity
  8
0
  6
HIDDEN
 62
     7
370
     0
100
AcDbLine
 10
196.4009172814
 20
76.7617629168
 30
0.0
 11
196.4459849581
 21
76.7617629168
 31
0.0
  0
LINE
  5
2C1
330
1F
100
AcDbEntity
  8
0
  6
HIDDEN
 62
     7
370
     0
100
AcDbLine
 10
195.8260505571
 20
76.7517629168
 30
0.0
 11
195.8260505571
 21
76.7617629168
 31
0.0
  0
LINE
  5
2C2
330
1F
100
AcDbEntity
  8
0
  6
HIDDEN
 62
     7
370
     0
100
AcDbLine
 10
195.8260505571
 20
76.7517629168
 30
0.0
 11
192.0058762118
 21
76.7517629168
 31
0.0
  0
LINE
  5
2C3
330
1F
100
AcDbEntity
  8
0
  6
HIDDEN
 62
     7
370
     0
100
AcDbLine
 10
195.8260505571
 20
76.7617629168
 30
0.0
 11
192.0058762118
 21
76.7617629168
 31
0.0
  0
LINE
  5
2C4
330
1F
100
AcDbEntity
  8
0
  6
HIDDEN
 62
     7
370
     0
100
AcDbLine
 10
191.9167637373
 20
76.7517629168
 30
0.0
 11
195.7369380826
 21
76.7517629168
 31
0.0
  0
LINE
  5
2C5
330
1F
100
AcDbEntity
  8
0
  6
HIDDEN
 62
     7
370
     0
100
AcDbLine
 10
191.9167637373
 20
76.7617629168
 30
0.0
 11
195.7369380826
 21
76.7617629168
 31
0.0
  0
LINE
  5
2C6
330
1F
100
AcDbEntity
  8
0
  6
HIDDEN
 62
     7
370
     0
100
AcDbLine
 10
195.7369380826
 20
76.7517629168
 30
0.0
 11
195.7369380826
 21
76.7617629168
 31
0.0
  0
LINE
  5
2C7
330
1F
100
AcDbEntity
  8
0
  6
HIDDEN
 62
     7
370
     0
100
AcDbLine
 10
195.7369380826
 20
76.7517629168
 30
0.0
 11
195.8260505571
 21
76.7517629168
 31
0.0
  0
LINE
  5
2C8
330
1F
100
AcDbEntity
  8
0
  6
HIDDEN
 62
     7
370
     0
100
AcDbLine
 10
195.7369380826
 20
76.7617629168
 30
0.0
 11
195.8260505571
 21
76.7617629168
 31
0.0
  0
LINE
  5
2C9
330
1F
100
AcDbEntity
  8
0
  6
HIDDEN
 62
     7
370
     0
100
AcDbLine
 10
194.7933351145
 20
76.7517629168
 30
0.0
 11
194.7933351145
 21
76.7617629168
 31
0.0
  0
LINE
  5
2CA
330
1F
100
AcDbEntity
  8
0
  6
HIDDEN
 62
     7
370
     0
100
AcDbLine
 10
194.7933351145
 20
76.7517629168
 30
0.0
 11
191.1950395374
 21
76.7517629168
 31
0.0
  0
LINE
  5
2CB
330
1F
100
AcDbEntity
  8
0
  6
HIDDEN
 62
     7
370
     0
100
AcDbLine
 10
194.7933351145
 20
76.7617629168
 30
0.0
 11
191.1950395374
 21
76.7617629168
 31
0.0
  0
LINE
  5
2CC
330
1F
100
AcDbEntity
  8
0
  6
HIDDEN
 62
     7
370
     0
100
AcDbLine
 10
191.0639048074
 20
76.7517629168
 30
0.0
 11
194.6622003845
 21
76.7517629168
 31
0.0
  0
LINE
  5
2CD
330
1F
100
AcDbEntity
  8
0
  6
HIDDEN
 62
     7
370
     0
100
AcDbLine
 10
191.0639048074
 20
76.7617629168
 30
0.0
 11
194.6622003845
 21
76.7617629168
 31
0.0
  0
LINE
  5
2CE
330
1F
100
AcDbEntity
  8
0
  6
HIDDEN
 62
     7
370
     0
100
AcDbLine
 10
194.6622003845
 20
76.7517629168
 30
0.0
 11
194.6622003845
 21
76.7617629168
 31
0.0
  0
LINE
  5
2CF
330
1F
100
AcDbEntity
  8
0
  6
HIDDEN
 62
     7
370
     0
100
AcDbLine
 10
194.6622003845
 20
76.7517629168
 30
0.0
 11
194.7933351145
 21
76.7517629168
 31
0.0
  0
LINE
  5
2D0
330
1F
100
AcDbEntity
  8
0
  6
HIDDEN
 62
     7
370
     0
100
AcDbLine
 10
194.6622003845
 20
76.7617629168
 30
0.0
 11
194.7933351145
 21
76.7617629168
 31
0.0
  0
LINE
  5
2D1
330
1F
100
AcDbEntity
  8
0
  6
HIDDEN
 62
     7
370
     0
100
AcDbLine
 10
193.371277667
 20
76.7517629168
 30
0.0
 11
193.371277667
 21
76.7617629168
 31
0.0
  0
LINE
  5
2D2
330
1F
100
AcDbEntity
  8
0
  6
HIDDEN
 62
     7
370
     0
100
AcDbLine
 10
193.371277667
 20
76.7517629168
 30
0.0
 11
190.0765296116
 21
76.7517629168
 31
0.0
  0
LINE
  5
2D3
330
1F
100
AcDbEntity
  8
0
  6
HIDDEN
 62
     7
370
     0
100
AcDbLine
 10
193.371277667
 20
76.7617629168
 30
0.0
 11
190.0765296116
 21
76.7617629168
 31
0.0
  0
LINE
  5
2D4
330
1F
100
AcDbEntity
  8
0
  6
HIDDEN
 62
     7
370
     0
100
AcDbLine
 10
189.9063489269
 20
76.7517629168
 30
0.0
 11
193.2010969823
 21
76.7517629168
 31
0.0
  0
LINE
  5
2D5
330
1F
100
AcDbEntity
  8
0
  6
HIDDEN
 62
     7
370
     0
100
AcDbLine
 10
189.9063489269
 20
76.7617629168
 30
0.0
 11
193.2010969823
 21
76.7617629168
 31
0.0
  0
LINE
  5
2D6
330
1F
100
AcDbEntity
  8
0
  6
HIDDEN
 62
     7
370
     0
100
AcDbLine
 10
192.321122584
 20
76.7517629168
 30
0.0
 11
192.321122584
 21
76.7617629168
 31
0.0
  0
LINE
  5
2D7
330
1F
100
AcDbEntity
  8
0
  6
HIDDEN
 62
     7
370
     0
100
AcDbLine
 10
192.321122584
 20
76.7517629168
 30
0.0
 11
188.6757327068
 21
76.7517629168
 31
0.0
  0
LINE
  5
2D8
330
1F
100
AcDbEntity
  8
0
  6
HIDDEN
 62
     7
370
     0
100
AcDbLine
 10
192.321122584
 20
76.7617629168
 30
0.0
 11
188.6757327068
 21
76.7617629168
 31
0.0
  0
LINE
  5
2D9
330
1F
100
AcDbEntity
  8
0
  6
HIDDEN
 62
     7
370
     0
100
AcDbLine
 10
188.470368575
 20
76.7517629168
 30
0.0
 11
192.1157584522
 21
76.7517629168
 31
0.0
  0
LINE
  5
2DA
330
1F
100
AcDbEntity
  8
0
  6
HIDDEN
 62
     7
370
     0
100
AcDbLine
 10
188.470368575
 20
76.7617629168
 30
0.0
 11
192.1157584522
 21
76.7617629168
 31
0.0
  0
LINE
  5
2DB
330
1F
100
AcDbEntity
  8
0
  6
HIDDEN
 62
     7
370
     0
100
AcDbLine
 10
193.2010969823
 20
76.7517629168
 30
0.0
 11
193.2010969823
 21
76.7617629168
 31
0.0
  0
LINE
  5
2DC
330
1F
100
AcDbEntity
  8
0
  6
HIDDEN
 62
     7
370
     0
100
AcDbLine
 10
193.2010969823
 20
76.7517629168
 30
0.0
 11
193.371277667
 21
76.7517629168
 31
0.0
  0
LINE
  5
2DD
330
1F
100
AcDbEntity
  8
0
  6
HIDDEN
 62
     7
370
     0
100
AcDbLine
 10
193.2010969823
 20
76.7617629168
 30
0.0
 11
193.371277667
 21
76.7617629168
 31
0.0
  0
LINE
  5
2DE
330
1F
100
AcDbEntity
  8
0
  6
HIDDEN
 62
     7
370
     0
100
AcDbLine
 10
192.1157584522
 20
76.7517629168
 30
0.0
 11
192.1157584522
 21
76.7617629168
 31
0.0
  0
LINE
  5
2DF
330
1F
100
AcDbEntity
  8
0
  6
HIDDEN
 62
     7
370
     0
100
AcDbLine
 10
192.1157584522
 20
76.7517629168
 30
0.0
 11
192.321122584
 21
76.7517629168
 31
0.0
  0
LINE
  5
2E0
330
1F
100
AcDbEntity
  8
0
  6
HIDDEN
 62
     7
370
     0
100
AcDbLine
 10
192.1157584522
 20
76.7617629168
 30
0.0
 11
192.321122584
 21
76.7617629168
 31
0.0
  0
SPLINE
  5
2E1
330
1F
100
AcDbEntity
  8
0
  6
HIDDEN
 62
     7
370
     0
100
AcDbSpline
210
0.0
220
0.0
230
1.0
 70
    24
 71
     3
 72
    16
 73
    12
 74
     0
 42
0.000000001
 43
0.00000001
 40
0.0
 40
0.0
 40
0.0
 40
0.0
 40
0.2500000000000044
 40
0.2500000000000044
 40
0.5000000000000088
 40
0.5000000000000088
 40
0.7500000000000131
 40
0.7500000000000131
 40
0.8750000000000066
 40
0.8750000000000066
 40
1.0
 40
1.0
 40
1.0
 40
1.0
 10
196.8193039218584
 20
76.76176291682458
 30
0.0
 10
196.7701145362864
 20
76.76176291682457
 30
0.0
 10
196.710374602441
 20
76.76176291682458
 30
0.0
 10
196.5653609586555
 20
76.76176291682458
 30
0.0
 10
196.4802255368395
 20
76.76176291682458
 30
0.0
 10
196.2698839578748
 20
76.76176291682458
 30
0.0
 10
196.1455122865539
 20
76.76176291682458
 30
0.0
 10
195.9282665390952
 20
76.76176291682458
 30
0.0
 10
195.8519244986899
 20
76.76176291682458
 30
0.0
 10
195.6895397022948
 20
76.76176291682458
 30
0.0
 10
195.6040183067397
 20
76.76176291682458
 30
0.0
 10
195.5202658161818
 20
76.76176291682458
 30
0.0
  0
SPLINE
  5
2E2
330
1F
100
AcDbEntity
  8
0
  6
HIDDEN
 62
     7
370
     0
100
AcDbSpline
210
0.0
220
0.0
230
1.0
 70
    24
 71
     3
 72
    14
 73
    10
 74
     0
 42
0.000000001
 43
0.00000001
 40
0.0
 40
0.0
 40
0.0
 40
0.0
 40
0.25
 40
0.25
 40
0.5
 40
0.5
 40
0.75
 40
0.75
 40
1.0
 40
1.0
 40
1.0
 40
1.0
 10
195.5202658161818
 20
113.9890614803165
 30
0.0
 10
195.6526628894138
 20
113.968091843972
 30
0.0
 10
195.7866671742044
 20
113.9468676503244
 30
0.0
 10
196.0453433651491
 20
113.9058973665963
 30
0.0
 10
196.171056033595
 20
113.8859864359628
 30
0.0
 10
196.3989376883516
 20
113.8498935276139
 30
0.0
 10
196.5033032002776
 20
113.8333636544184
 30
0.0
 10
196.68199640428
 20
113.8050614313126
 30
0.0
 10
196.7583515493042
 20
113.7929679644021
 30
0.0
 10
196.8193039218585
 20
113.7833140569886
 30
0.0
  0
LINE
  5
2E3
330
1F
100
AcDbEntity
  8
0
  6
HIDDEN
 62
     7
370
     0
100
AcDbLine
 10
143.4890679697
 20
109.7835473153
 30
0.0
 11
143.4890679697
 21
101.4842031235
 31
0.0
  0
LINE
  5
2E4
330
1F
100
AcDbEntity
  8
0
  6
HIDDEN
 62
     7
370
     0
100
AcDbLine
 10
146.7890679697
 20
108.6243478825
 30
0.0
 11
146.7890679697
 21
109.7835473153
 31
0.0
  0
LINE
  5
2E5
330
1F
100
AcDbEntity
  8
0
  6
HIDDEN
 62
     7
370
     0
100
AcDbLine
 10
146.7890679697
 20
101.4837467377
 30
0.0
 11
146.7890679697
 21
107.2821169603
 31
0.0
  0
LINE
  5
2E6
330
1F
100
AcDbEntity
  8
0
  6
HIDDEN
 62
     7
370
     0
100
AcDbLine
 10
187.6631577648
 20
109.6032324214
 30
0.0
 11
145.8101834308
 21
109.6032324214
 31
0.0
  0
LINE
  5
2E7
330
1F
100
AcDbEntity
  8
0
  6
HIDDEN
 62
     7
370
     0
100
AcDbLine
 10
198.1390679697
 20
109.6032324214
 30
0.0
 11
190.7842300239
 21
109.6032324214
 31
0.0
  0
LINE
  5
2E8
330
1F
100
AcDbEntity
  8
0
  6
HIDDEN
 62
     7
370
     0
100
AcDbLine
 10
145.8101834308
 20
106.3032324214
 30
0.0
 11
198.1390679697
 21
106.3032324214
 31
0.0
  0
LINE
  5
2E9
330
1F
100
AcDbEntity
  8
0
  6
HIDDEN
 62
     7
370
     0
100
AcDbLine
 10
190.4097189083
 20
114.7984925921
 30
0.0
 11
187.5453523019
 21
109.5332104351
 31
0.0
  0
LINE
  5
2EA
330
1F
100
AcDbEntity
  8
0
  6
HIDDEN
 62
     7
370
     0
100
AcDbLine
 10
191.0744924132
 20
109.1148930167
 30
0.0
 11
193.8684170311
 21
114.2506886256
 31
0.0
  0
LINE
  5
2EB
330
1F
100
AcDbEntity
  8
0
  6
HIDDEN
 62
     7
370
     0
100
AcDbLine
 10
173.7984950958
 20
104.4117629168
 30
0.0
 11
159.1390679697
 21
104.4117629168
 31
0.0
  0
LINE
  5
2EC
330
1F
100
AcDbEntity
  8
0
  6
HIDDEN
 62
     7
370
     0
100
AcDbLine
 10
200.1390679697
 20
104.4117629168
 30
0.0
 11
181.4241116404
 21
104.4117629168
 31
0.0
  0
LINE
  5
2ED
330
1F
100
AcDbEntity
  8
0
  6
HIDDEN
 62
     7
370
     0
100
AcDbLine
 10
181.4050352742
 20
94.4117629168
 30
0.0
 11
200.1390679697
 21
94.4117629168
 31
0.0
  0
LINE
  5
2EE
330
1F
100
AcDbEntity
  8
0
  6
HIDDEN
 62
     7
370
     0
100
AcDbLine
 10
159.1390679697
 20
94.4117629168
 30
0.0
 11
173.8019089044
 21
94.4117629168
 31
0.0
  0
LINE
  5
2EF
330
1F
100
AcDbEntity
  8
0
  6
HIDDEN
 62
     7
370
     0
100
AcDbLine
 10
159.1390679697
 20
104.4117629168
 30
0.0
 11
156.1347648746
 21
99.4117629168
 31
0.0
  0
LINE
  5
2F0
330
1F
100
AcDbEntity
  8
0
  6
HIDDEN
 62
     7
370
     0
100
AcDbLine
 10
156.1347648746
 20
99.4117629168
 30
0.0
 11
159.1390679697
 21
94.4117629168
 31
0.0
  0
LINE
  5
2F1
330
1F
100
AcDbEntity
  8
0
  6
HIDDEN
 62
     7
370
     0
100
AcDbLine
 10
150.396962658
 20
126.9117629168
 30
0.0
 11
155.1390679697
 21
120.3848149009
 31
0.0
  0
LINE
  5
2F2
330
1F
100
AcDbEntity
  8
0
  6
HIDDEN
 62
     7
370
     0
100
AcDbLine
 10
124.2961558081
 20
84.8144709345
 30
0.0
 11
124.3332288109
 21
85.0782590562
 31
0.0
  0
LINE
  5
2F3
330
1F
100
AcDbEntity
  8
0
  6
HIDDEN
 62
     7
370
     0
100
AcDbLine
 10
124.3332288109
 20
113.7452667774
 30
0.0
 11
124.2961558081
 21
114.0090548991
 31
0.0
  0
LINE
  5
2F4
330
1F
100
AcDbEntity
  8
0
  6
HIDDEN
 62
     7
370
     0
100
AcDbLine
 10
151.5508557631
 20
73.1735507102
 30
0.0
 11
150.2890679697
 21
71.9117629168
 31
0.0
  0
LINE
  5
2F5
330
1F
100
AcDbEntity
  8
0
  6
HIDDEN
 62
     7
370
     0
100
AcDbLine
 10
155.1390679697
 20
76.7617629168
 30
0.0
 11
154.1015800888
 21
75.724275036
 31
0.0
  0
LINE
  5
2F6
330
1F
100
AcDbEntity
  8
0
  6
HIDDEN
 62
     7
370
     0
100
AcDbLine
 10
192.6390679697
 20
101.0617629168
 30
0.0
 11
192.6390679697
 21
114.4453983887
 31
0.0
  0
LINE
  5
2F7
330
1F
100
AcDbEntity
  8
0
  6
HIDDEN
 62
     7
370
     0
100
AcDbLine
 10
192.6390679697
 20
76.7517629168
 30
0.0
 11
192.6390679697
 21
97.782386458
 31
0.0
  0
LINE
  5
2F8
330
1F
100
AcDbEntity
  8
0
  6
HIDDEN
 62
     7
370
     0
100
AcDbLine
 10
162.6390679697
 20
119.1969315984
 30
0.0
 11
162.6390679697
 21
76.7617629168
 31
0.0
  0
ARC
  5
2F9
330
1F
100
AcDbEntity
  8
0
  6
HIDDEN
 62
     7
370
     0
100
AcDbCircle
 10
123.7390679697
 20
85.1617629168
 30
0.0
 40
0.6000000000000085
100
AcDbArc
 50
352.0
 51
0.0
  0
ARC
  5
2FA
330
1F
100
AcDbEntity
  8
0
  6
HIDDEN
 62
     7
370
     0
100
AcDbCircle
 10
123.7390679697
 20
85.1617629168
 30
0.0
 40
0.6000000000000085
100
AcDbArc
 50
0.0
 51
90.0
  0
ARC
  5
2FB
330
1F
100
AcDbEntity
  8
0
  6
HIDDEN
 62
     7
370
     0
100
AcDbCircle
 10
123.7390679697
 20
113.6617629168
 30
0.0
 40
0.6000000000000085
100
AcDbArc
 50
0.0
 51
8.0
  0
ARC
  5
2FC
330
1F
100
AcDbEntity
  8
0
  6
HIDDEN
 62
     7
370
     0
100
AcDbCircle
 10
123.7390679697
 20
113.6617629168
 30
0.0
 40
0.6000000000000085
100
AcDbArc
 50
270.0
 51
0.0
  0
LINE
  5
2FD
330
1F
100
AcDbEntity
  8
0
  6
HIDDEN
 62
     7
370
     0
100
AcDbLine
 10
124.3390679697
 20
85.1617629168
 30
0.0
 11
124.3390679697
 21
113.6617629168
 31
0.0
  0
LINE
  5
2FE
330
1F
100
AcDbEntity
  8
0
  6
HIDDEN
 62
     7
370
     0
100
AcDbLine
 10
124.3390679697
 20
85.1617629168
 30
0.0
 11
124.3390679697
 21
113.6617629168
 31
0.0
  0
LINE
  5
2FF
330
1F
100
AcDbEntity
  8
0
  6
HIDDEN
 62
     7
370
     0
100
AcDbLine
 10
121.6390679697
 20
85.4117629168
 30
0.0
 11
122.8689858238
 21
85.7413184126
 31
0.0
  0
LINE
  5
300
330
1F
100
AcDbEntity
  8
0
  6
HIDDEN
 62
     7
370
     0
100
AcDbLine
 10
122.8689858238
 20
113.0822074211
 30
0.0
 11
121.6390679697
 21
113.4117629168
 31
0.0
  0
LINE
  5
301
330
1F
100
AcDbEntity
  8
0
  6
HIDDEN
 62
     7
370
     0
100
AcDbLine
 10
120.1390679697
 20
85.4117629168
 30
0.0
 11
121.6390679697
 21
85.4117629168
 31
0.0
  0
LINE
  5
302
330
1F
100
AcDbEntity
  8
0
  6
HIDDEN
 62
     7
370
     0
100
AcDbLine
 10
121.6390679697
 20
113.4117629168
 30
0.0
 11
120.1390679697
 21
113.4117629168
 31
0.0
  0
ARC
  5
303
330
1F
100
AcDbEntity
  8
0
  6
HIDDEN
 62
     7
370
     0
100
AcDbCircle
 10
123.0242772509
 20
85.1617629168
 30
0.0
 40
0.6000000000000085
100
AcDbArc
 50
90.0
 51
105.0
  0
ARC
  5
304
330
1F
100
AcDbEntity
  8
0
  6
HIDDEN
 62
     7
370
     0
100
AcDbCircle
 10
123.0242772509
 20
113.6617629168
 30
0.0
 40
0.5999999999999898
100
AcDbArc
 50
255.0
 51
270.0
  0
LINE
  5
305
330
1F
100
AcDbEntity
  8
0
  6
HIDDEN
 62
     7
370
     0
100
AcDbLine
 10
123.0242772509
 20
85.7617629168
 30
0.0
 11
123.7390679697
 21
85.7617629168
 31
0.0
  0
LINE
  5
306
330
1F
100
AcDbEntity
  8
0
  6
HIDDEN
 62
     7
370
     0
100
AcDbLine
 10
123.7390679697
 20
113.0617629168
 30
0.0
 11
123.0242772509
 21
113.0617629168
 31
0.0
  0
ARC
  5
307
330
1F
100
AcDbEntity
  8
0
  6
HIDDEN
 62
     7
370
     0
100
AcDbCircle
 10
95.1390679697
 20
91.9117629168
 30
0.0
 40
1.0
100
AcDbArc
 50
90.0
 51
180.0
  0
ARC
  5
308
330
1F
100
AcDbEntity
  8
0
  6
HIDDEN
 62
     7
370
     0
100
AcDbCircle
 10
95.1390679697
 20
106.9117629168
 30
0.0
 40
1.0
100
AcDbArc
 50
180.0
 51
270.0
  0
LINE
  5
309
330
1F
100
AcDbEntity
  8
0
  6
HIDDEN
 62
     7
370
     0
100
AcDbLine
 10
97.1390679697
 20
92.9117629168
 30
0.0
 11
97.9802728363
 21
94.3117629168
 31
0.0
  0
LINE
  5
30A
330
1F
100
AcDbEntity
  8
0
  6
HIDDEN
 62
     7
370
     0
100
AcDbLine
 10
97.9802728363
 20
104.5117629168
 30
0.0
 11
97.1390679697
 21
105.9117629168
 31
0.0
  0
LINE
  5
30B
330
1F
100
AcDbEntity
  8
0
  6
HIDDEN
 62
     7
370
     0
100
AcDbLine
 10
95.1390679697
 20
92.9117629168
 30
0.0
 11
97.1390679697
 21
92.9117629168
 31
0.0
  0
LINE
  5
30C
330
1F
100
AcDbEntity
  8
0
  6
HIDDEN
 62
     7
370
     0
100
AcDbLine
 10
97.1390679697
 20
105.9117629168
 30
0.0
 11
95.1390679697
 21
105.9117629168
 31
0.0
  0
LINE
  5
30D
330
1F
100
AcDbEntity
  8
0
  6
HIDDEN
 62
     7
370
     0
100
AcDbLine
 10
146.7890679697
 20
94.3117629168
 30
0.0
 11
147.1390679697
 21
94.3117629168
 31
0.0
  0
LINE
  5
30E
330
1F
100
AcDbEntity
  8
0
  6
HIDDEN
 62
     7
370
     0
100
AcDbLine
 10
97.9802728363
 20
94.3117629168
 30
0.0
 11
143.511460427
 21
94.3117629168
 31
0.0
  0
LINE
  5
30F
330
1F
100
AcDbEntity
  8
0
  6
HIDDEN
 62
     7
370
     0
100
AcDbLine
 10
147.1390679697
 20
104.5117629168
 30
0.0
 11
97.9802728363
 21
104.5117629168
 31
0.0
  0
LINE
  5
310
330
1F
100
AcDbEntity
  8
0
  6
HIDDEN
 62
     7
370
     0
100
AcDbLine
 10
147.1390679697
 20
94.3117629168
 30
0.0
 11
150.2034571267
 21
99.4117629168
 31
0.0
  0
LINE
  5
311
330
1F
100
AcDbEntity
  8
0
  6
HIDDEN
 62
     7
370
     0
100
AcDbLine
 10
150.2034571267
 20
99.4117629168
 30
0.0
 11
147.1390679697
 21
104.5117629168
 31
0.0
  0
LINE
  5
312
330
1F
100
AcDbEntity
  8
0
  6
HIDDEN
 62
     7
370
     0
100
AcDbLine
 10
200.1390679697
 20
102.9551385898
 30
0.0
 11
197.6390679697
 21
101.5117629168
 31
0.0
  0
LINE
  5
313
330
1F
100
AcDbEntity
  8
0
  6
HIDDEN
 62
     7
370
     0
100
AcDbLine
 10
197.6390679697
 20
97.3117629168
 30
0.0
 11
200.1390679697
 21
95.8683872439
 31
0.0
  0
LINE
  5
314
330
1F
100
AcDbEntity
  8
0
  6
HIDDEN
 62
     7
370
     0
100
AcDbLine
 10
124.1390679697
 20
80.0117629168
 30
0.0
 11
124.6390679697
 21
80.5117629168
 31
0.0
  0
LINE
  5
315
330
1F
100
AcDbEntity
  8
0
  6
HIDDEN
 62
     7
370
     0
100
AcDbLine
 10
124.6390679697
 20
84.5117629168
 30
0.0
 11
124.3157246246
 21
84.8351062619
 31
0.0
  0
LINE
  5
316
330
1F
100
AcDbEntity
  8
0
  6
HIDDEN
 62
     7
370
     0
100
AcDbLine
 10
124.3157246246
 20
113.9884195718
 30
0.0
 11
124.6390679697
 21
114.3117629168
 31
0.0
  0
LINE
  5
317
330
1F
100
AcDbEntity
  8
0
  6
HIDDEN
 62
     7
370
     0
100
AcDbLine
 10
124.6390679697
 20
118.3117629168
 30
0.0
 11
124.1390679697
 21
118.8117629168
 31
0.0
  0
LINE
  5
318
330
1F
100
AcDbEntity
  8
0
  6
HIDDEN
 62
     7
370
     0
100
AcDbLine
 10
196.6390679697
 20
97.3117629168
 30
0.0
 11
197.6390679697
 21
97.3117629168
 31
0.0
  0
LINE
  5
319
330
1F
100
AcDbEntity
  8
0
  6
HIDDEN
 62
     7
370
     0
100
AcDbLine
 10
197.6390679697
 20
101.5117629168
 30
0.0
 11
196.6390679697
 21
101.5117629168
 31
0.0
  0
LINE
  5
31A
330
1F
100
AcDbEntity
  8
0
  6
HIDDEN
 62
     7
370
     0
100
AcDbLine
 10
196.6390679697
 20
101.5117629168
 30
0.0
 11
196.3686806911
 21
101.0617629168
 31
0.0
  0
LINE
  5
31B
330
1F
100
AcDbEntity
  8
0
  6
HIDDEN
 62
     7
370
     0
100
AcDbLine
 10
196.3686806911
 20
97.7617629168
 30
0.0
 11
196.6390679697
 21
97.3117629168
 31
0.0
  0
LINE
  5
31C
330
1F
100
AcDbEntity
  8
0
  6
HIDDEN
 62
     7
370
     0
100
AcDbLine
 10
124.6390679697
 20
80.5117629168
 30
0.0
 11
131.1390679697
 21
80.5117629168
 31
0.0
  0
LINE
  5
31D
330
1F
100
AcDbEntity
  8
0
  6
HIDDEN
 62
     7
370
     0
100
AcDbLine
 10
131.1390679697
 20
84.5117629168
 30
0.0
 11
124.6390679697
 21
84.5117629168
 31
0.0
  0
LINE
  5
31E
330
1F
100
AcDbEntity
  8
0
  6
HIDDEN
 62
     7
370
     0
100
AcDbLine
 10
131.1390679697
 20
80.5117629168
 30
0.0
 11
132.3407892078
 21
82.5117629168
 31
0.0
  0
LINE
  5
31F
330
1F
100
AcDbEntity
  8
0
  6
HIDDEN
 62
     7
370
     0
100
AcDbLine
 10
132.3407892078
 20
82.5117629168
 30
0.0
 11
131.1390679697
 21
84.5117629168
 31
0.0
  0
LINE
  5
320
330
1F
100
AcDbEntity
  8
0
  6
HIDDEN
 62
     7
370
     0
100
AcDbLine
 10
124.6390679697
 20
114.3117629168
 30
0.0
 11
131.1390679697
 21
114.3117629168
 31
0.0
  0
LINE
  5
321
330
1F
100
AcDbEntity
  8
0
  6
HIDDEN
 62
     7
370
     0
100
AcDbLine
 10
131.1390679697
 20
118.3117629168
 30
0.0
 11
124.6390679697
 21
118.3117629168
 31
0.0
  0
LINE
  5
322
330
1F
100
AcDbEntity
  8
0
  6
HIDDEN
 62
     7
370
     0
100
AcDbLine
 10
131.1390679697
 20
114.3117629168
 30
0.0
 11
132.3407892078
 21
116.3117629168
 31
0.0
  0
LINE
  5
323
330
1F
100
AcDbEntity
  8
0
  6
HIDDEN
 62
     7
370
     0
100
AcDbLine
 10
132.3407892078
 20
116.3117629168
 30
0.0
 11
131.1390679697
 21
118.3117629168
 31
0.0
  0
LINE
  5
324
330
1F
100
AcDbEntity
  8
0
  6
HIDDEN
 62
     7
370
     0
100
AcDbLine
 10
146.7890679697
 20
74.8950210484
 30
0.0
 11
151.5472539275
 21
73.1631829906
 31
0.0
  0
LINE
  5
325
330
1F
100
AcDbEntity
  8
0
  6
HIDDEN
 62
     7
370
     0
100
AcDbLine
 10
154.1087609516
 20
75.7426573282
 30
0.0
 11
146.7890679697
 21
78.4068076975
 31
0.0
  0
LINE
  5
326
330
1F
100
AcDbEntity
  8
0
  6
HIDDEN
 62
     7
370
     0
100
AcDbLine
 10
192.6368277676
 20
97.7617629168
 30
0.0
 11
196.3686806911
 21
97.7617629168
 31
0.0
  0
LINE
  5
327
330
1F
100
AcDbEntity
  8
0
  6
HIDDEN
 62
     7
370
     0
100
AcDbLine
 10
196.3686806911
 20
101.0617629168
 30
0.0
 11
192.6390679697
 21
101.0617629168
 31
0.0
  0
LINE
  5
328
330
1F
100
AcDbEntity
  8
0
  6
HIDDEN
 62
     7
370
     0
100
AcDbLine
 10
146.7890679697
 20
78.4068076975
 30
0.0
 11
146.7890679697
 21
94.3117629168
 31
0.0
  0
LINE
  5
329
330
1F
100
AcDbEntity
  8
0
  6
HIDDEN
 62
     7
370
     0
100
AcDbLine
 10
146.7890679697
 20
73.9117629168
 30
0.0
 11
146.7890679697
 21
74.8950210484
 31
0.0
  0
LINE
  5
32A
330
1F
100
AcDbEntity
  8
0
  6
HIDDEN
 62
     7
370
     0
100
AcDbLine
 10
143.4890679697
 20
94.3189624194
 30
0.0
 11
143.4890679697
 21
73.9117629168
 31
0.0
  0
POINT
  5
32B
330
1F
100
AcDbEntity
  8
VERMASSUNG
100
AcDbPoint
 10
204.1390679697
 20
134.6499507571
 30
0.0
  0
POINT
  5
32C
330
1F
100
AcDbEntity
  8
0
  6
Continuous
 62
     7
370
     0
100
AcDbPoint
 10
204.1390679697
 20
67.7499507571
 30
0.0
  0
DIMENSION
  5
32D
330
1F
100
AcDbEntity
  8
VERMASSUNG
100
AcDbDimension
  2
_D
 10
94.1390679697
 20
144.653501117
 30
0.0
 11
149.1390679697
 21
144.653501117
 31
0.0
 70
   160
  1
(<>)
 71
     2
 42
-1.0
  3
SLDDIMSTYLE0
100
AcDbAlignedDimension
 13
204.1390679697
 23
134.6499507571
 33
0.0
 14
94.1390679697
 24
111.3117629168
 34
0.0
100
AcDbRotatedDimension
  0
DIMENSION
  5
33A
330
1F
100
AcDbEntity
  8
VERMASSUNG
100
AcDbDimension
  2
_D_1
 10
124.1390679697
 20
138.653501117
 30
0.0
 11
164.1390679697
 21
138.653501117
 31
0.0
 70
   160
  1
<>
 71
     2
 42
-1.0
  3
SLDDIMSTYLE0
100
AcDbAlignedDimension
 13
204.1390679697
 23
134.6499507571
 33
0.0
 14
124.1390679697
 24
124.4117629168
 34
0.0
100
AcDbRotatedDimension
  0
DIMENSION
  5
344
330
1F
100
AcDbEntity
  8
VERMASSUNG
100
AcDbDimension
  2
_D_2
 10
216.3510984251
 20
67.7499507571
 30
0.0
 11
216.3510984251
 21
114.5698421726
 31
0.0
 70
   160
  1
%%c<>-87.1\P%%c84.9-105.1
 71
     2
 42
-1.0
  3
SLDDIMSTYLE1
100
AcDbAlignedDimension
 13
204.1390679697
 23
134.6499507571
 33
0.0
 14
204.1390679697
 24
67.7499507571
 34
0.0
 50
90.0
100
AcDbRotatedDimension
  0
DIMENSION
  5
351
330
1F
100
AcDbEntity
  8
VERMASSUNG
100
AcDbDimension
  2
_D_3
 10
87.4444757765
 20
71.9117629168
 30
0.0
 11
87.4444757765
 21
99.4117629168
 31
0.0
 70
   160
  1
ST5 %%c<>
 71
     2
 42
-1.0
  3
SLDDIMSTYLE0
100
AcDbAlignedDimension
 13
126.1597939119
 23
126.9117629168
 33
0.0
 14
126.1597939119
 24
71.9117629168
 34
0.0
 50
90.0
100
AcDbRotatedDimension
  0
INSERT
  5
368
330
1F
100
AcDbEntity
  8
VERMASSUNG
100
AcDbBlockReference
  2
SW_CENTERMARKSYMBOL_0
 10
177.6390679697
 20
99.4117629168
 30
0.0
  0
LINE
  5
369
330
1F
100
AcDbEntity
  8
VERMASSUNG
  6
CENTERX2
370
     0
100
AcDbLine
 10
119.5532970846
 20
116.3117629168
 30
0.0
 11
133.1390679697
 21
116.3117629168
 31
0.0
  0
LINE
  5
36A
330
1F
100
AcDbEntity
  8
VERMASSUNG
  6
CENTERX2
370
     0
100
AcDbLine
 10
92.1390679697
 20
99.4117629168
 30
0.0
 11
197.5202658162
 21
99.4117629168
 31
0.0
  0
LINE
  5
36B
330
1F
100
AcDbEntity
  8
VERMASSUNG
  6
CENTERX2
370
     0
100
AcDbLine
 10
133.1390679697
 20
82.5117629168
 30
0.0
 11
119.1929615018
 21
82.5117629168
 31
0.0
  0
LINE
  5
36C
330
1F
100
AcDbEntity
  8
VERMASSUNG
  6
CENTERX2
370
     0
100
AcDbLine
 10
145.1390679697
 20
74.1592853072
 30
0.0
 11
145.1390679697
 21
111.5154123539
 31
0.0
  0
LINE
  5
36D
330
1F
100
AcDbEntity
  8
VERMASSUNG
  6
CENTERX2
370
     0
100
AcDbLine
 10
144.9096827281
 20
77.3349546596
 30
0.0
 11
154.7090186497
 21
73.7682880686
 31
0.0
  0
LINE
  5
36E
330
1F
100
AcDbEntity
  8
VERMASSUNG
  6
CENTERX2
370
     0
100
AcDbLine
 10
145.7376827641
 20
107.9532324214
 30
0.0
 11
198.5869015668
 21
107.9532324214
 31
0.0
  0
LINE
  5
36F
330
1F
100
AcDbEntity
  8
VERMASSUNG
  6
CENTERX2
370
     0
100
AcDbLine
 10
188.3541745021
 20
107.567194863
 30
0.0
 11
192.4390619433
 21
115.0760398936
 31
0.0
  0
OLE2FRAME
  5
370
330
1F
100
AcDbEntity
  8
0
100
AcDbOle2Frame
 70
     2
  3
Paintbrush-Bild
 10
13.8511154363
 20
38.264191557
 30
0.0
 11
51.6290888628
 21
31.9806341108
 31
0.0
 71
     2
 72
     0
 73
     1
 90
    12928
310
80552BED0767C5B32B40DDAF6807D121434000000000000000006FFBDDFB85D0
310
4940DDAF6807D121434000000000000000006FFBDDFB85D04940416F4BD60AFB
310
3F4000000000000000002BED0767C5B32B40416F4BD60AFB3F40000000000000
310
0000000000000100000000010000010000000100000000000100000000320000
310
D0CF11E0A1B11AE1000000000000000000000000000000003E000300FEFF0900
310
0600000000000000000000000100000001000000000000000010000002000000
310
01000000FEFFFFFF0000000000000000FFFFFFFFFFFFFFFFFFFFFFFFFFFFFFFF
310
FFFFFFFFFFFFFFFFFFFFFFFFFFFFFFFFFFFFFFFFFFFFFFFFFFFFFFFFFFFFFFFF
310
FFFFFFFFFFFFFFFFFFFFFFFFFFFFFFFFFFFFFFFFFFFFFFFFFFFFFFFFFFFFFFFF
310
FFFFFFFFFFFFFFFFFFFFFFFFFFFFFFFFFFFFFFFFFFFFFFFFFFFFFFFFFFFFFFFF
310
FFFFFFFFFFFFFFFFFFFFFFFFFFFFFFFFFFFFFFFFFFFFFFFFFFFFFFFFFFFFFFFF
310
FFFFFFFFFFFFFFFFFFFFFFFFFFFFFFFFFFFFFFFFFFFFFFFFFFFFFFFFFFFFFFFF
310
FFFFFFFFFFFFFFFFFFFFFFFFFFFFFFFFFFFFFFFFFFFFFFFFFFFFFFFFFFFFFFFF
310
FFFFFFFFFFFFFFFFFFFFFFFFFFFFFFFFFFFFFFFFFFFFFFFFFFFFFFFFFFFFFFFF
310
FFFFFFFFFFFFFFFFFFFFFFFFFFFFFFFFFFFFFFFFFFFFFFFFFFFFFFFFFFFFFFFF
310
FFFFFFFFFFFFFFFFFFFFFFFFFFFFFFFFFFFFFFFFFFFFFFFFFFFFFFFFFFFFFFFF
310
FFFFFFFFFFFFFFFFFFFFFFFFFFFFFFFFFFFFFFFFFFFFFFFFFFFFFFFFFFFFFFFF
310
FFFFFFFFFFFFFFFFFFFFFFFFFFFFFFFFFFFFFFFFFFFFFFFFFFFFFFFFFFFFFFFF
310
FFFFFFFFFFFFFFFFFFFFFFFFFFFFFFFFFFFFFFFFFFFFFFFFFFFFFFFFFFFFFFFF
310
FFFFFFFFFFFFFFFFFFFFFFFFFFFFFFFFFFFFFFFFFFFFFFFFFFFFFFFFFFFFFFFF
310
FDFFFFFFFEFFFFFFFEFFFFFFFEFFFFFF05000000060000000700000008000000
310
090000000A0000000B0000000C0000000D0000000E0000000F00000010000000
310
11000000120000001300000014000000150000001600000017000000FEFFFFFF
310
FFFFFFFFFFFFFFFFFFFFFFFFFFFFFFFFFFFFFFFFFFFFFFFFFFFFFFFFFFFFFFFF
310
FFFFFFFFFFFFFFFFFFFFFFFFFFFFFFFFFFFFFFFFFFFFFFFFFFFFFFFFFFFFFFFF
310
FFFFFFFFFFFFFFFFFFFFFFFFFFFFFFFFFFFFFFFFFFFFFFFFFFFFFFFFFFFFFFFF
310
FFFFFFFFFFFFFFFFFFFFFFFFFFFFFFFFFFFFFFFFFFFFFFFFFFFFFFFFFFFFFFFF
310
FFFFFFFFFFFFFFFFFFFFFFFFFFFFFFFFFFFFFFFFFFFFFFFFFFFFFFFFFFFFFFFF
310
FFFFFFFFFFFFFFFFFFFFFFFFFFFFFFFFFFFFFFFFFFFFFFFFFFFFFFFFFFFFFFFF
310
FFFFFFFFFFFFFFFFFFFFFFFFFFFFFFFFFFFFFFFFFFFFFFFFFFFFFFFFFFFFFFFF
310
FFFFFFFFFFFFFFFFFFFFFFFFFFFFFFFFFFFFFFFFFFFFFFFFFFFFFFFFFFFFFFFF
310
FFFFFFFFFFFFFFFFFFFFFFFFFFFFFFFFFFFFFFFFFFFFFFFFFFFFFFFFFFFFFFFF
310
FFFFFFFFFFFFFFFFFFFFFFFFFFFFFFFFFFFFFFFFFFFFFFFFFFFFFFFFFFFFFFFF
310
FFFFFFFFFFFFFFFFFFFFFFFFFFFFFFFFFFFFFFFFFFFFFFFFFFFFFFFFFFFFFFFF
310
FFFFFFFFFFFFFFFFFFFFFFFFFFFFFFFFFFFFFFFFFFFFFFFFFFFFFFFFFFFFFFFF
310
FFFFFFFFFFFFFFFFFFFFFFFFFFFFFFFFFFFFFFFFFFFFFFFFFFFFFFFFFFFFFFFF
310
52006F006F007400200045006E00740072007900000000000000000000000000
310
0000000000000000000000000000000000000000000000000000000000000000
310
16000500FFFFFFFFFFFFFFFF020000000A00030000000000C000000000000046
310
000000000000000000000000D0251D175007D20103000000C000000000000000
310
01004F006C006500000000000000000000000000000000000000000000000000
310
0000000000000000000000000000000000000000000000000000000000000000
310
0A000200FFFFFFFFFFFFFFFFFFFFFFFF00000000000000000000000000000000
310
0000000000000000000000000000000000000000000000001400000000000000
310
010043006F006D0070004F0062006A0000000000000000000000000000000000
310
0000000000000000000000000000000000000000000000000000000000000000
310
120002010100000003000000FFFFFFFF00000000000000000000000000000000
310
0000000000000000000000000000000000000000010000004D00000000000000
310
01004F006C006500310030004E00610074006900760065000000000000000000
310
0000000000000000000000000000000000000000000000000000000000000000
310
1A000200FFFFFFFFFFFFFFFFFFFFFFFF00000000000000000000000000000000
310
0000000000000000000000000000000000000000040000002426000000000000
310
FEFFFFFF02000000FEFFFFFFFFFFFFFFFFFFFFFFFFFFFFFFFFFFFFFFFFFFFFFF
310
FFFFFFFFFFFFFFFFFFFFFFFFFFFFFFFFFFFFFFFFFFFFFFFFFFFFFFFFFFFFFFFF
310
FFFFFFFFFFFFFFFFFFFFFFFFFFFFFFFFFFFFFFFFFFFFFFFFFFFFFFFFFFFFFFFF
310
FFFFFFFFFFFFFFFFFFFFFFFFFFFFFFFFFFFFFFFFFFFFFFFFFFFFFFFFFFFFFFFF
310
FFFFFFFFFFFFFFFFFFFFFFFFFFFFFFFFFFFFFFFFFFFFFFFFFFFFFFFFFFFFFFFF
310
FFFFFFFFFFFFFFFFFFFFFFFFFFFFFFFFFFFFFFFFFFFFFFFFFFFFFFFFFFFFFFFF
310
FFFFFFFFFFFFFFFFFFFFFFFFFFFFFFFFFFFFFFFFFFFFFFFFFFFFFFFFFFFFFFFF
310
FFFFFFFFFFFFFFFFFFFFFFFFFFFFFFFFFFFFFFFFFFFFFFFFFFFFFFFFFFFFFFFF
310
FFFFFFFFFFFFFFFFFFFFFFFFFFFFFFFFFFFFFFFFFFFFFFFFFFFFFFFFFFFFFFFF
310
FFFFFFFFFFFFFFFFFFFFFFFFFFFFFFFFFFFFFFFFFFFFFFFFFFFFFFFFFFFFFFFF
310
FFFFFFFFFFFFFFFFFFFFFFFFFFFFFFFFFFFFFFFFFFFFFFFFFFFFFFFFFFFFFFFF
310
FFFFFFFFFFFFFFFFFFFFFFFFFFFFFFFFFFFFFFFFFFFFFFFFFFFFFFFFFFFFFFFF
310
FFFFFFFFFFFFFFFFFFFFFFFFFFFFFFFFFFFFFFFFFFFFFFFFFFFFFFFFFFFFFFFF
310
FFFFFFFFFFFFFFFFFFFFFFFFFFFFFFFFFFFFFFFFFFFFFFFFFFFFFFFFFFFFFFFF
310
FFFFFFFFFFFFFFFFFFFFFFFFFFFFFFFFFFFFFFFFFFFFFFFFFFFFFFFFFFFFFFFF
310
FFFFFFFFFFFFFFFFFFFFFFFFFFFFFFFFFFFFFFFFFFFFFFFFFFFFFFFFFFFFFFFF
310
0100000200000000000000000000000000000000000000000000000000000000
310
0000000000000000000000000000000000000000000000000000000000000000
310
0100FEFF030A0000FFFFFFFF0A00030000000000C00000000000004607000000
310
5042727573680007000000504272757368000700000050427275736800F439B2
310
7100000000000000000000000000000000000000000000000000000000000000
310
0000000000000000000000000000000000000000000000000000000000000000
310
0000000000000000000000000000000000000000000000000000000000000000
310
0000000000000000000000000000000000000000000000000000000000000000
310
0000000000000000000000000000000000000000000000000000000000000000
310
0000000000000000000000000000000000000000000000000000000000000000
310
0000000000000000000000000000000000000000000000000000000000000000
310
0000000000000000000000000000000000000000000000000000000000000000
310
0000000000000000000000000000000000000000000000000000000000000000
310
0000000000000000000000000000000000000000000000000000000000000000
310
0000000000000000000000000000000000000000000000000000000000000000
310
0000000000000000000000000000000000000000000000000000000000000000
310
20260000424D0E260000000000003E00000028000000B40200006E0000000100
310
01000000000000000000130B0000130B00000200000002000000000000FFFFFF
310
FFFFFFFFFFFFFFFFFFFFFFFFFFFFFFFFFFFFFFFFFFFFFFFFFFFFFFFFFFFFFFFF
310
FFFFFFFFFFFFFFFFFFFFFFFFFFFFFFFFFFFFFFFFFFFFFFFFFFFFFFFFFFFFFFFF
310
FFFFFFFFFFFFFFFFFFFFFFFFFFFFFFFFFFFFFFFFFFFFFFFFF000FFFFFFFFFFFF
310
FFFFFFFFFFFFFFFFFFFFFFFFFFFFFFFFFFFFFFFFFFFFFFFFFFFFFFFFFFFFFFFF
310
FFFFFFFFFFFFFFFFFFFFFFFFFFFFFFFFFFFFFFFFFFFFFFFFFFFFFFFFFFFFFFFF
310
FFFFFFFFFFFFFFFFFFFFFFFFFFFFFFFFF000FFFFFFFFFFFFFFFFFFFFFFFFFFFF
310
FFFFFFFFFFFFFFFFFFFFFFFFFFFFFFFFFFFFFFFFFFFFFFFFFFFFFFFFFFFFFFFF
310
FFFFFFFFFFFFFFFFFFFFFFFFFFFFFFFFFFFFFFFFFFFFFFFFFFFFFFFFFFFFFFFF
310
FFFFFFFFFFFFFFFFF000FFFFFFFFFFFFFFFFFFFFFFFFFFFFFFFFFFFFFFFFFFFF
310
FFFFFFFFFFFFFFFFFFFFFFFFFFFFFFFFFFFFFFFFFFFFFFFFFFFFFFFFFFFFFFFF
310
FFFFFFFFFFFFFFFFFFFFFFFFFFFFFFFFFFFFFFFFFFFFFFFFFFFFFFFFFFFFFFFF
310
F000FFFFFFFFFFFFFFFFFFFFFFFFFFFFFFFFFFFFFFFFFFFFFFFFFFFFFFFFFFFF
310
FFFFFFFFFFFFFFFFFFFFFFFFFFFFFFFFFFFFFFFFFFFFFFFFFFFFFFFFFFFFFFFF
310
FFFFFFFFFFFFFFFFFFFFFFFFFFFFFFFFFFFFFFFFFFFFFFFFF000FFFFFFFFFFFF
310
FFFFFFFFFFFFFFFFFFFFFFFFFFFFFFFFFFFFFFFFFFFFFFFFFFFFFFFFFFFFFFFF
310
FFFFFFFFFFFFFFFFFFFFFFFFFFFFFFFFFFFFFFFFFFFFFFFFFFFFFFFFFFFFFFFF
310
FFFFFFFFFFFFFFFFFFFFFFFFFFFFFFFFF000FFFFFFFFFFFFFFFFFFFFFFFFFFFF
310
FFFFFFFFFFFFFFFFFFFFFFFFFFFFFFFFFFFFFFFFFFFFFFFFFFFFFFFFFFFFFFFF
310
FFFFFFFFFFFFFFFFFFFFFFFFFFFFFFFFFFFFFFFFFFFFFFFFFFFFFFFFFFFFFFFF
310
FFFFFFFFFFFFFFFFF000FFFFFFFFFFFFFFFFFFFFFFFFFFFFFFFFFFFFFFFFFFFF
310
FFFFFFFFFFFFFFFFFFFFFFFFFFFFFFFFFFFFFFFFFFFFFFFFFFFFFFFFFFFFFFFF
310
FFFFFFFFFFFFFFFFFFFFFFFFFFFFFFFFFFFFFFFFFFFFFFFFFFFFFFFFFFFFFFFF
310
F000FFFFFFFFFFFFFFFFFFFFFFFFFFFFFFFFFFFFFFFFFFFFFFFFFFFFFFFFFFFF
310
FFFFFFFFFFFFFFFFFFFFFFFFFFFFFFFFFFFFFFFFFFFFFFFFFFFFFFFFFFFFFFFF
310
FFFFFFFFFFFFFFFFFFFFFFFFFFFFFFFFFFFFFFFFFFFFFFFFF000FFFFFFFFFFFF
310
FFFFFFFFFFFFFFFFFFFFFFFFFFFFFFFFFFFFFFFFFFFFFFFFFFFFFFFFFFFFFFFF
310
FFFFFFFFFFFFFFFFFFFFFFFFFFFFFFFFFFFFFFFFFFFFFFFFFFFFFFFFFFFFFFFF
310
FFFFFFFFFFFFFFFFFFFFFFFFFFFFFFFFF000FFFFFFFFFFFFFFFFFFFFFFFFFFFF
310
FFFFFFFFFFFFFFFFFFFFFFFFFFFFFFFFFFFFFFFFFFFFFFFFFFFFFFFFFFFFFFFF
310
FFFFFFFFFFFFFFFFFFFFFFFFFFFFFFFFFFFFFFFFFFFFFFFFFFFFFFFFFFFFFFFF
310
FFFFFFFFFFFFFFFFF000FFFFFFFFFFFFFFFFFFFFFFFFFFFFFFFFFFFFFFFFFFFF
310
FFFFFFFFFFFFFFFFFFFFFFFFFFFFFFFFFFFFFFFFFFFFFFFFFFFFFFFFFFFFFFFF
310
FFFFFFFFFFFFFFFFFFFFFFFFFFFFFFFFFFFFFFFFFFFFFFFFFFFFFFFFFFFFFFFF
310
F000FFFFFFFFFFFFFFFFFFFFFFFFFFFFFFFFFFFFFFFFFFFFFFFFFFFFFFFFFFFF
310
FFFFFFFFFFFFFFFFFFFFFFFFFFFFFFFFFFFFFFFFFFFFFFFFFFFFFFFFFFFFFFFF
310
FFFFFFFFFFFFFFFFFFFFFFFFFFFFFFFFFFFFFFFFFFFFFFFFF000FFFFFFFFFFFF
310
FFFFFFFFFFFFFFFFFFFFFFFFFFFFFFFFFFFFFFFFFFFFFFFFFFFFFFFFFFFFFFFF
310
FFFFFFFFFFFFFFFFFFFFFFFFFFFFFFFFFFFFFFFFFFFFFFFFFFFFFFFFFFFFFFFF
310
FFFFFFFFFFFFFFFFFFFFFFFFFFFFFFFFF000FFFFFFFFFFFFFFFFFFFFFFFFFFFF
310
FFFFFFFFFFFFFFFFFFFFFFFFFFFFFFFFFFFFFFFFFFFFFFFFFFFFFFFFFFFFFFFF
310
FFFFFFFFFFFFFFFFFFFFFFFFFFFFFFFFFFFFFFFFFFFFFFFFFFFFFFFFFFFFFFFF
310
FFFFFFFFFFFFFFFFF000FFFFFFFFFFFFFFFFFFFFFFFFFFFFFFFFFFFFFFFFFFFF
310
FFFFFFFFFFFFFFFFFFFFFFFFFFFFFFFFFFFFFFFFFFFFFFFFFFFFFFFFFFFFFFFF
310
FFFFFFFFFFFFFFFFFFFFFFFFFFFFFFFFFFFFFFFFFFFFFFFFFFFFFFFFFFFFFFFF
310
F000FFFFFFFFFFFFFFFFFFFFFFFFFFFFFFFFFFFFFFFFFFFFFFFFFFFFFFFFFFFF
310
FFFFFFFFFFFFFFFFFFFFFFFFFFFFFFFFFFFFFFFFFFFFFFFFFFFFFFFFFFFFFFFF
310
FFFFFFFFFFFFFFFFFFFFFFFFFFFFFFFFFFFFFFFFFFFFFFFFF000FFFFFFFFFFFF
310
FFFFFFFFFFFFFFFFFFFFFFFFFFFFFFFFFFFFFFFFFFFFFFFFFFFFFFFFFFFFFFFF
310
FFFFFFFFFFFFFFFFFFFFFFFFFFFFFFFFFFFFFFFFFFFFFFFFFFFFFFFFFFFFFFFF
310
FFFFFFFFFFFFFFFFFFFFFFFFFFFFFFFFF000FFFFFFFFFFFFFFFFFFFFFFFFFFFF
310
FFFFFFFFFFFFFFFFFFFFFFFFFFFFFFFFFFFFFFFFFFFFFFFFFFFFFFFFFFFFFFFF
310
FFFFFFFFFFFFFFFFFFFFFFFFFFFFFFFFFFFFFFFFFFFFFFFFFFFFFFFFFFFFFFFF
310
FFFFFFFFFFFFFFFFF000FFFFF80003FFFFFFFFFFFFFFFFFFFFFFFFFFFFFFFFFF
310
FFFFF00007FFFFFFFFFF00007FFFFFF800000000000000007FFFFFFFFFFFFFFF
310
FFFFFFFC001FFFFFFFFFFFFFFC001FFFFFFFFFFFFFFFFFFFFFFFFFFE0007FFFF
310
F000FFFF8000007FFFFFFFF8000FFFFFC0007FFFFF80007FFFFF0000007FFFFF
310
FFF8000007FFFFF800000000000000007FFFFFF0001FFFFFFFFFFFC00001FFFF
310
FFFFFFFFC00001FFFFFFFF000000000003FFFFE000007FFFF000FFFE0000000F
310
FFFFFFF0000FFFFF80007FFFFF80007FFFFC0000001FFFFFFFC0000001FFFFF8
310
00000000000000007FFFFFF0001FFFFFFFFFFE0000003FFFFFFFFFFE0000003F
310
FFFFFF000000000003FFFF0000000FFFF000FFF800000003FFFFFFF00007FFFF
310
80007FFFFF80007FFFF000000007FFFFFF000000003FFFF80000000000000000
310
7FFFFFF0001FFFFFFFFFF80000000FFFFFFFFFF80000000FFFFFFF0000000000
310
03FFFC00000003FFF000FFE000000000FFFFFFF00007FFFF80003FFFFF80007F
310
FFC000000001FFFFFC000000001FFFF800000000000000007FFFFFF0001FFFFF
310
FFFFE000000003FFFFFFFFE000000003FFFFFF000000000003FFF000000000FF
310
F000FF80000000007FFFFFF00007FFFF80003FFFFF80007FFF8000000000FFFF
310
F80000000007FFF800000000000000007FFFFFF0001FFFFFFFFFC000000001FF
310
FFFFFFC000000001FFFFFF000000000003FFC0000000007FF000FF0000000000
310
3FFFFFE00007FFFF00003FFFFF80007FFE00000000003FFFF00000000003FFF8
310
00000000000000007FFFFFF0001FFFFFFFFF8000000000FFFFFFFF8000000000
310
FFFFFF000000000003FF80000000003FF000FE00000000001FFFFFE00003FFFF
310
00003FFFFF80007FFC00000000001FFFE00000000001FFF8000001FFFE000000
310
7FFFFFF0001FFFFFFFFE00000000003FFFFFFE00000000003FFFFF0000000000
310
03FF00000000001FF000FC00000000000FFFFFE00003FFFF00001FFFFF80007F
310
F800000000001FFFC00000000000FFF8000001FFFE0000007FFFFFF0001FFFFF
310
FFFC00000000001FFFFFFC00000000001FFFFF000000000003FE00000000000F
310
F000F8000000000007FFFFE00003FFFF00001FFFFF80007FF800000000000FFF
310
800000000000FFF8000001FFFE0000007FFFFFF0001FFFFFFFF800000000000F
310
FFFFF800000000000FFFFF000000000003FC000000000007F000F80000000000
310
03FFFFC00003FFFE00001FFFFF80007FF0000000000007FF0000000000007FF8
310
000001FFFE0000007FFFFFF0001FFFFFFFF0000000000007FFFFF00000000000
310
07FFFF000000000003F8000000000003F000F0000000000003FFFFC00001FFFE
310
00001FFFFF80007FE0000000000007FE0000000000003FF8000001FFFE000000
310
7FFFFFF0001FFFFFFFF0000000000007FFFFF0000000000007FFFF0000000000
310
03F800001F800003F000E00001FFF00001FFFFC00001FFFE00000FFFFF80007F
310
E00001FFE00003FE00001FFF00003FF8000001FFFE0000007FFFFFF0001FFFFF
310
FFE000003E000003FFFFE000003E000003FFFF000000000003F00001FFF80001
310
F000E00007FFFC0001FFFFC00001FFFE00000FFFFF80007FC0000FFFFC0003FC
310
0000FFFFC0001FF8000001FFFE0000007FFFFFF0001FFFFFFFC00003FFE00001
310
FFFFC00003FFE00001FFFF0001FFFFFFFFF00007FFFE0001F000E0000FFFFF00
310
00FFFF800001FFFC00000FFFFF80007FC0001FFFFE0001FC0001FFFFE0001FF8
310
000001FFFE0000007FFFFFF0001FFFFFFF80000FFFF80000FFFF80000FFFF800
310
00FFFF0003FFFFFFFFE0000FFFFF8000F000C0003FFFFF8000FFFF800000FFFC
310
000007FFFF80007F80003FFFFF0001FC0003FFFFF0001FF8000001FFFE000000
310
7FFFFFF0001FFFFFFF80003FFFFE0000FFFF80003FFFFE0000FFFF0003FFFFFF
310
FFE0003FFFFF8000F000C0003FFFFF8000FFFF800000FFFC000007FFFF80007F
310
80007FFFFF8001F80007FFFFF8000FF8000001FFFE0000007FFFFFF0001FFFFF
310
FF00007FFFFF00007FFF00007FFFFF00007FFF0003FFFFFFFFE0003FFFFFC000
310
F000C0007FFFFFC000FFFF000000FFFC000007FFFF80007F8000FFFFFF8000F8
310
000FFFFFF8000FF8000001FFFE0000007FFFFFF0001FFFFFFF0000FFFFFF8000
310
7FFF0000FFFFFF80007FFF0003FFFFFFFFC0007FFFFFC00070008000FFFFFFC0
310
00FFFF000000FFF8000007FFFF80007F8000FFFFFF8000F8000FFFFFF8000FF8
310
000001FFFE0000007FFFFFF0001FFFFFFE0001FFFFFFC0003FFE0001FFFFFFC0
310
003FFF0003FFFFFFFFC0007FFFFFE00070008000FFFFFFC0007FFF0000007FF8
310
000003FFFF80007F0001FFFFFF8000F8000FFFFFF8000FF8000001FFFE000000
310
7FFFFFF0001FFFFFFE0001FFFFFFC0003FFE0001FFFFFFC0003FFF0003FFFFFF
310
FFC000FFFFFFE00070008000FFFFFFC0007FFF0000007FF8000003FFFF80007F
310
0001FFFFFF8000F8001FFFFFF8000FF8000001FFFE0000007FFFFFF0001FFFFF
310
FE0003FFFFFFE0003FFE0003FFFFFFE0003FFF0003FFFFFFFFC000FFFFFFE000
310
70008000FFFFFFC0007FFE0000007FF8000003FFFF80007F0001FFFFFF8000F0
310
001FFFFFF8000FF8000001FFFE0000007FFFFFF0001FFFFFFC0003FFFFFFE000
310
1FFC0003FFFFFFE0001FFF0003FFFFFFFFC000FFFFFFC00070008000FFFFFF80
310
007FFE0000007FF0000003FFFF80007F0001FFFFFF0000F0001FFFFFF8000FF8
310
000001FFFE0000007FFFFFF0001FFFFFFC0007FFFFFFF0001FFC0007FFFFFFF0
310
001FFF0003FFFFFFFFC000FFFFFFC00070008001FFFFFF0000FFFE0000003FF0
310
000001FFFF80007F0001FFFFFF0000F8001FFFFFF0000FF8000001FFFE000000
310
7FFFFFF0001FFFFFFC0007FFFFFFF0001FFC0007FFFFFFF0001FFF0003FFFFFF
310
FFC001FFFFFF80007000FFFFFFFFFE0000FFFE0008003FF0008001FFFF80007F
310
FFFFFFFFFC0000FFFFFFFFFFE0000FF8000001FFFE0000007FFFFFF0001FFFFF
310
F8000FFFFFFFF8000FF8000FFFFFFFF8000FFF0003FFFFFFFFFFFFFFFFFF0000
310
7000FFFFFFFFFC0000FFFC0008003FF0008001FFFF80007FFFFFFFFFF80001FF
310
FFFFFFFF80000FF8000001FFFE0000007FFFFFF0001FFFFFF8000FFFFFFFF800
310
0FF8000FFFFFFFF8000FFF0003FFFFFFFFFFFFFFFFFE0000F000FFFFFFFFE000
310
00FFFC000C003FE000C001FFFF80007FFFFFFFFFC00001FFFFFFFFFE00001FF8
310
000001FFFE0000007FFFFFF0001FFFFFF8000FFFFFFFF8000FF8000FFFFFFFF8
310
000FFF0003FFFFFFFFFFFFFFFFF00000F000FFFFFFFE000001FFFC000C001FE0
310
00C000FFFF80007FFFFFFFFE000001FFFFFFFFE000001FF80FFFFFFFFFFFFFC0
310
7FFFFFF0001FFFFFF8000FFFFFFFF8000FF8000FFFFFFFF8000FFF0003FFFFFF
310
FFFFFFFFFF800000F000FFFFFFC0000001FFFC001C001FE001C000FFFF80007F
310
FFFFFF80000003FFFFFFF80000001FF80FFFFFFFFFFFFFC07FFFFFF0001FFFFF
310
F8001FFFFFFFFC000FF8001FFFFFFFFC000FFF0003FFFFFFFFFFFFFFF0000001
310
F000FFFFF800000001FFF8001C001FE001C000FFFF80007FFFFFF800000003FF
310
FFFF800000003FF80FFFFFFFFFFFFFC07FFFFFF0001FFFFFF8001FFFFFFFFC00
310
0FF8001FFFFFFFFC000FFF0003FFFFFFFFFFFFFE00000001F000FFFFC0000000
310
03FFF8001E001FC001E000FFFF80007FFFFF8000000007FFFFFC000000003FF8
310
0FFFFFFFFFFFFFC07FFFFFF0001FFFFFF8001FFFFFFFFC000FF8001FFFFFFFFC
310
000FFF0003FFFFFFFFFFFFE000000003F000FFFE0000000007FFF8001E000FC0
310
01E0007FFF80007FFFFE0000000007FFFFE0000000007FF80FFFFFFFFFFFFFC0
310
7FFFFFF0001FFFFFF0001FFFFFFFFC0007F0001FFFFFFFFC0007FF0003FFFFFF
310
FFFFFF0000000003F000FFF80000000007FFF8001E000FC003E0007FFF80007F
310
FFF0000000000FFFFF8000000000FFF80FFFFFFFFFFFFFC07FFFFFF0001FFFFF
310
F0001FFFFFFFFC0007F0001FFFFFFFFC0007FF0003FFFFFFFFFFFC0000000007
310
F000FFE0000000000FFFF0003E000FC003E0007FFF80007FFFC0000000001FFF
310
FE0000000001FFF80FFFFFFFFFFFFFC07FFFFFF0001FFFFFF0001FFFFFFFFC00
310
07F0001FFFFFFFFC0007FF0003FFFFFFFFFFF0000000000FF000FFC000000000
310
1FFFF0003F000F8003F0003FFF80007FFF80000000003FFFF80000000003FFF8
310
0FFFFFFFFFFFFFC07FFFFFF0001FFFFFF0001FFFFFFFFC0007F0001FFFFFFFFC
310
0007FF0003FFFFFFFFFFE0000000001FF000FF00000000007FFFF0003F000780
310
03F0003FFF80007FFF00000000007FFFF00000000007FFF80FFFFFFFFFFFFFC0
310
7FFFFFF0001FFFFFF0001FFFFFFFFC0007F0001FFFFFFFFC0007FF0003FFFFFF
310
FFFF80000000007FF000FE0000000000FFFFE0003F00078007F0003FFF80007F
310
FE0000000001FFFFE0000000001FFFF80FFFFFFFFFFFFFC07FFFFFF0001FFFFF
310
F0001FFFFFFFFC0007F0001FFFFFFFFC0007FF0003FFFFFFFFFF0000000000FF
310
F000FC0000000003FFFFE0007F00078007F0003FFF80007FFC0000000007FFFF
310
C0000000007FFFF80FFFFFFFFFFFFFC07FFFFFF0001FFFFFF8001FFFFFFFFC00
310
0FF8001FFFFFFFFC000FFF0003FFFFFFFFFE0000000003FFF000FC000000000F
310
FFFFE0007F80070007F8001FFF80007FF8000000001FFFFF8000000001FFFFF8
310
0FFFFFFFFFFFFFC07FFFFFF0001FFFFFF8001FFFFFFFFC000FF8001FFFFFFFFC
310
000FFF0003FFFFFFFFFC000000000FFFF000F8000000007FFFFFE0007F800700
310
07F8001FFF80007FF000000000FFFFFF800000000FFFFFF80FFFFFFFFFFFFFC0
310
7FFFFFF0001FFFFFF8000FFFFFFFF8000FF8000FFFFFFFF8000FFF0003FFFFFF
310
FFFC000000007FFFF000F800000007FFFFFFC0007F8003000FF8001FFF80007F
310
F000000007FFFFFF000000007FFFFFF80FFFFFFFFFFFFFC07FFFFFF0001FFFFF
310
F8000FFFFFFFF8000FF8000FFFFFFFF8000FFF0003FFFFFFFFF80000000FFFFF
310
F000F0000000FFFFFFFFC000FF8003000FF8001FFF80007FE0000000FFFFFFFF
310
0000000FFFFFFFF8000001FFFE0000007FFFFFF0001FFFFFF8000FFFFFFFF800
310
0FF8000FFFFFFFF8000FFF0003FFFFFFFFF8000000FFFFFFF000F000000FFFFF
310
FFFFC000FFC002000FF8000FFF80007FE000001FFFFFFFFE000001FFFFFFFFF8
310
000001FFFE0000007FFFFFF0001FFFFFF8000FFFFFFFF8000FF8000FFFFFFFF8
310
000FFF0003FFFFFFFFF000001FFFFFFFF000E00000FFFFFFFFFFC000FFC00200
310
0FFC000FFF80007FE00001FFFFFFFFFE00001FFFFFFFFFF8000001FFFE000000
310
7FFFFFF0001FFFFFFC000FFFFFFFF8001FFC000FFFFFFFF8001FFF0003FFFFFF
310
FFF00001FFFFFFFFF000E00007FFFFFFFFFF8000FFC000001FFC000FFF80007F
310
C0000FFFFFFFFFFE0000FFFFFFFFFFF8000001FFFE0000007FFFFFF0001FFFFF
310
FC0007FFFFFFF0001FFC0007FFFFFFF0001FFF0003FFFFFFFFF00007FFFFFFFF
310
F000E0001FFFFFFFFFFF8000FFC000001FFC000FFF80007FC0003FFFFFFFFFFE
310
0001FFFFFFFFFFF8000001FFFE0000007FFFFFF0001FFFFFFC0007FFFFFFF000
310
1FFC0007FFFFFFF0001FFF0003FFFFFFFFF0001FFFFFFFFFF000E0003FFFFF00
310
03FF8001FFE000001FFC0007FF80007FC0007FFFFF0007FC0003FFFFF0003FF8
310
000001FFFE0000007FFFFFF0001FFFFFFC0003FFFFFFE0001FFC0003FFFFFFE0
310
001FFF0003FFFFFFFFF0003FFFFFFFFFF000E0003FFFFF0001FF8001FFE00000
310
1FFE0007FF80007FC0007FFFFE0003FC0007FFFFE0003FF8000001FFFE000000
310
7FFFFFF0001FFFFFFE0003FFFFFFE0003FFE0003FFFFFFE0003FFF0003FFFFFF
310
FFF0003FFFFF8001F000E0003FFFFF0001FF0001FFE000001FFE0007FF80007F
310
C0007FFFFE0003FC0007FFFFE0003FF8000001FFFE0000007FFFFFF0001FFFFF
310
FE0001FFFFFFC0003FFE0001FFFFFFC0003FFF0003FFFFFFFFF0003FFFFF0001
310
F000E0003FFFFF0003FF0001FFE000003FFE0007FF80007FC0007FFFFE0003FC
310
0007FFFFE0003FF8000001FFFE0000007FFFFFF0001FFFFFFF0001FFFFFFC000
310
7FFF0001FFFFFFC0007FFF0003FFFFFFFFF0003FFFFF0001F000E0003FFFFE00
310
03FF0003FFF000003FFE0003FF80007FC0007FFFFC0003FE0007FFFFE0003FF8
310
000001FFFE0000007FFFFFF0001FFFFFFF0000FFFFFF80007FFF0000FFFFFF80
310
007FFF0003FFFFFFFFF0003FFFFF0001F000E0003FFFFE0003FF0003FFF00000
310
3FFF0003FF80007FC0007FFFFC0007FE0007FFFFC0003FF8000001FFFE000000
310
7FFFFFF0001FFFFFFF80007FFFFF0000FFFF80007FFFFF0000FFFF0003FFFFFF
310
FFF0003FFFFF0003F000E0003FFFFC0003FE0003FFF000003FFF0003FF80007F
310
E0003FFFF80007FE0003FFFFC0007FF8000001FFFE0000007FFFFFF0001FFFFF
310
FF80003FFFFE0000FFFF80003FFFFE0000FFFF0003FFFFFFFFF0001FFFFE0003
310
F000F0001FFFF80003FE0003FFF000007FFF0001FF80007FE0003FFFF00007FE
310
0001FFFF80007FF8000001FFFE0000007FFFFFF0001FFFFFFFC0000FFFF80001
310
FFFFC0000FFFF80001FFFF0003FFFFFFFFF0001FFFFC0003F000F0000FFFF000
310
07FE0007FFF800007FFF0001FF80007FE0001FFFE00007FF0000FFFE00007FF8
310
000001FFFE0000007FFFFFF0001FFFFFFFC00003FFE00001FFFFC00003FFE000
310
01FFFF0003FFFFFFFFF8000FFFF80003F000F00003FFC00007FC0007FFF80000
310
7FFF8001FF80007FF00007FF80000FFF00007FF80000FFF8000001FFFE000000
310
7F80000000000001FFE000003E000003FFFFE000003E000003FFFF0003FFFFFF
310
FFF80003FFE00007F000F800000000000FFC0007FFF800007FFF8001FF80007F
310
F000000000000FFF000000000000FFF8000001FFFE0000007F80000000000001
310
FFF0000000000007FFFFF0000000000007FFFF0003FFFFFFFFFC00007E000007
310
F000F800000000000FFC0007FFF80000FFFF8000FF80007FF800000000001FFF
310
800000000001FFF8000001FFFE0000007F80000000000001FFF800000000000F
310
FFFFF800000000000FFFFF0003FFFFFFFFFC00000000000FF000FC0000000000
310
1FFC0007FFFC0000FFFF8000FF80007FF800000000003FFFC00000000001FFF8
310
000001FFFE0000007F80000000000001FFF800000000000FFFFFF80000000000
310
0FFFFF0003FFFFFFFFFE00000000001FF000FE00000000003FF8000FFFFC0000
310
FFFF8000FF80007FFC00000000003FFFC00000000003FFF8000001FFFE000000
310
7F80000000000001FFFC00000000001FFFFFFC00000000001FFFFF0003FFFFFF
310
FFFF00000000001FF000FF00000000003FF8000FFFFC0000FFFFC000FF80007F
310
FE00000000007FFFE00000000007FFF8000001FFFE0000007F80000000000001
310
FFFE00000000003FFFFFFE00000000003FFFFF0003FFFFFFFFFF80000000003F
310
F000FF80000000007FF8000FFFFC0001FFFFC0007F80007FFF0000000000FFFF
310
F0000000000FFFF800000000000000007F80000000000001FFFF8000000000FF
310
FFFFFF8000000000FFFFFF0003FFFFFFFFFFC0000000007FF000FFC000000000
310
FFF8000FFFFE0001FFFFC0007F80007FFF8000000001FFFFF8000000001FFFF8
310
00000000000000007F80000000000001FFFFC000000001FFFFFFFFC000000001
310
FFFFFF0003FFFFFFFFFFE000000000FFF000FFE000000003FFF0001FFFFE0001
310
FFFFC0007F80007FFFC000000007FFFFFE000000003FFFF80000000000000000
310
7F80000000000001FFFFE000000003FFFFFFFFE000000003FFFFFF0003FFFFFF
310
FFFFF000000003FFF000FFF80000000FFFF0001FFFFE0001FFFFE0007F80007F
310
FFF00000000FFFFFFF00000000FFFFF800000000000000007F80000000000001
310
FFFFF80000000FFFFFFFFFF80000000FFFFFFF0003FFFFFFFFFFFC0000000FFF
310
F000FFFE0000003FFFF0001FFFFE0003FFFFE0003F80007FFFFC0000003FFFFF
310
FFC0000003FFFFF800000000000000007F80000000000001FFFFFE0000003FFF
310
FFFFFFFE0000003FFFFFFF0003FFFFFFFFFFFF0000003FFFF000FFFF800000FF
310
FFF0001FFFFF0003FFFFE0003F80007FFFFF000001FFFFFFFFF800001FFFFFF8
310
00000000000000007F80000000000001FFFFFFC00001FFFFFFFFFFFFC00001FF
310
FFFFFF0003FFFFFFFFFFFFC00000FFFFF000FFFFF8000FFFFFFFFFFFFFFFFFFF
310
FFFFFFFFFFFFFFFFFFFFF0001FFFFFFFFFFF0000FFFFFFF80000000000000000
310
7FFFFFFFFFFFFFFFFFFFFFFC001FFFFFFFFFFFFFFC001FFFFFFFFFFFFFFFFFFF
310
FFFFFFFC001FFFFFF000FFFFFFFFFFFFFFFFFFFFFFFFFFFFFFFFFFFFFFFFFFFF
310
FFFFFFFFFFFFFFFFFFFFFFFFFFFFFFFFFFFFFFFFFFFFFFFFFFFFFFFFFFFFFFFF
310
FFFFFFFFFFFFFFFFFFFFFFFFFFFFFFFFFFFFFFFFFFFFFFFFFFFFFFFFFFFFFFFF
310
F000FFFFFFFFFFFFFFFFFFFFFFFFFFFFFFFFFFFFFFFFFFFFFFFFFFFFFFFFFFFF
310
FFFFFFFFFFFFFFFFFFFFFFFFFFFFFFFFFFFFFFFFFFFFFFFFFFFFFFFFFFFFFFFF
310
FFFFFFFFFFFFFFFFFFFFFFFFFFFFFFFFFFFFFFFFFFFFFFFFF000FFFFFFFFFFFF
310
FFFFFFFFFFFFFFFFFFFFFFFFFFFFFFFFFFFFFFFFFFFFFFFFFFFFFFFFFFFFFFFF
310
FFFFFFFFFFFFFFFFFFFFFFFFFFFFFFFFFFFFFFFFFFFFFFFFFFFFFFFFFFFFFFFF
310
FFFFFFFFFFFFFFFFFFFFFFFFFFFFFFFFF000FFFFFFFFFFFFFFFFFFFFFFFFFFFF
310
FFFFFFFFFFFFFFFFFFFFFFFFFFFFFFFFFFFFFFFFFFFFFFFFFFFFFFFFFFFFFFFF
310
FFFFFFFFFFFFFFFFFFFFFFFFFFFFFFFFFFFFFFFFFFFFFFFFFFFFFFFFFFFFFFFF
310
FFFFFFFFFFFFFFFFF000FFFFFFFFFFFFFFFFFFFFFFFFFFFFFFFFFFFFFFFFFFFF
310
FFFFFFFFFFFFFFFFFFFFFFFFFFFFFFFFFFFFFFFFFFFFFFFFFFFFFFFFFFFFFFFF
310
FFFFFFFFFFFFFFFFFFFFFFFFFFFFFFFFFFFFFFFFFFFFFFFFFFFFFFFFFFFFFFFF
310
F000FFFFFFFFFFFFFFFFFFFFFFFFFFFFFFFFFFFFFFFFFFFFFFFFFFFFFFFFFFFF
310
FFFFFFFFFFFFFFFFFFFFFFFFFFFFFFFFFFFFFFFFFFFFFFFFFFFFFFFFFFFFFFFF
310
FFFFFFFFFFFFFFFFFFFFFFFFFFFFFFFFFFFFFFFFFFFFFFFFF000FFFFFFFFFFFF
310
FFFFFFFFFFFFFFFFFFFFFFFFFFFFFFFFFFFFFFFFFFFFFFFFFFFFFFFFFFFFFFFF
310
FFFFFFFFFFFFFFFFFFFFFFFFFFFFFFFFFFFFFFFFFFFFFFFFFFFFFFFFFFFFFFFF
310
FFFFFFFFFFFFFFFFFFFFFFFFFFFFFFFFF000FFFFFFFFFFFFFFFFFFFFFFFFFFFF
310
FFFFFFFFFFFFFFFFFFFFFFFFFFFFFFFFFFFFFFFFFFFFFFFFFFFFFFFFFFFFFFFF
310
FFFFFFFFFFFFFFFFFFFFFFFFFFFFFFFFFFFFFFFFFFFFFFFFFFFFFFFFFFFFFFFF
310
FFFFFFFFFFFFFFFFF000FFFFFFFFFFFFFFFFFFFFFFFFFFFFFFFFFFFFFFFFFFFF
310
FFFFFFFFFFFFFFFFFFFFFFFFFFFFFFFFFFFFFFFFFFFFFFFFFFFFFFFFFFFFFFFF
310
FFFFFFFFFFFFFFFFFFFFFFFFFFFFFFFFFFFFFFFFFFFFFFFFFFFFFFFFFFFFFFFF
310
F000FFFFFFFFFFFFFFFFFFFFFFFFFFFFFFFFFFFFFFFFFFFFFFFFFFFFFFFFFFFF
310
FFFFFFFFFFFFFFFFFFFFFFFFFFFFFFFFFFFFFFFFFFFFFFFFFFFFFFFFFFFFFFFF
310
FFFFFFFFFFFFFFFFFFFFFFFFFFFFFFFFFFFFFFFFFFFFFFFFF000FFFFFFFFFFFF
310
FFFFFFFFFFFFFFFFFFFFFFFFFFFFFFFFFFFFFFFFFFFFFFFFFFFFFFFFFFFFFFFF
310
FFFFFFFFFFFFFFFFFFFFFFFFFFFFFFFFFFFFFFFFFFFFFFFFFFFFFFFFFFFFFFFF
310
FFFFFFFFFFFFFFFFFFFFFFFFFFFFFFFFF000FFFFFFFFFFFFFFFFFFFFFFFFFFFF
310
FFFFFFFFFFFFFFFFFFFFFFFFFFFFFFFFFFFFFFFFFFFFFFFFFFFFFFFFFFFFFFFF
310
FFFFFFFFFFFFFFFFFFFFFFFFFFFFFFFFFFFFFFFFFFFFFFFFFFFFFFFFFFFFFFFF
310
FFFFFFFFFFFFFFFFF000FFFFFFFFFFFFFFFFFFFFFFFFFFFFFFFFFFFFFFFFFFFF
310
FFFFFFFFFFFFFFFFFFFFFFFFFFFFFFFFFFFFFFFFFFFFFFFFFFFFFFFFFFFFFFFF
310
FFFFFFFFFFFFFFFFFFFFFFFFFFFFFFFFFFFFFFFFFFFFFFFFFFFFFFFFFFFFFFFF
310
F000FFFFFFFFFFFFFFFFFFFFFFFFFFFFFFFFFFFFFFFFFFFFFFFFFFFFFFFFFFFF
310
FFFFFFFFFFFFFFFFFFFFFFFFFFFFFFFFFFFFFFFFFFFFFFFFFFFFFFFFFFFFFFFF
310
FFFFFFFFFFFFFFFFFFFFFFFFFFFFFFFFFFFFFFFFFFFFFFFFF000FFFFFFFFFFFF
310
FFFFFFFFFFFFFFFFFFFFFFFFFFFFFFFFFFFFFFFFFFFFFFFFFFFFFFFFFFFFFFFF
310
FFFFFFFFFFFFFFFFFFFFFFFFFFFFFFFFFFFFFFFFFFFFFFFFFFFFFFFFFFFFFFFF
310
FFFFFFFFFFFFFFFFFFFFFFFFFFFFFFFFF000FFFFFFFFFFFFFFFFFFFFFFFFFFFF
310
FFFFFFFFFFFFFFFFFFFFFFFFFFFFFFFFFFFFFFFFFFFFFFFFFFFFFFFFFFFFFFFF
310
FFFFFFFFFFFFFFFFFFFFFFFFFFFFFFFFFFFFFFFFFFFFFFFFFFFFFFFFFFFFFFFF
310
FFFFFFFFFFFFFFFFF000FFFFFFFFFFFFFFFFFFFFFFFFFFFFFFFFFFFFFFFFFFFF
310
FFFFFFFFFFFFFFFFFFFFFFFFFFFFFFFFFFFFFFFFFFFFFFFFFFFFFFFFFFFFFFFF
310
FFFFFFFFFFFFFFFFFFFFFFFFFFFFFFFFFFFFFFFFFFFFFFFFFFFFFFFFFFFFFFFF
310
F000FFFFFFFFFFFFFFFFFFFFFFFFFFFFFFFFFFFFFFFFFFFFFFFFFFFFFFFFFFFF
310
FFFFFFFFFFFFFFFFFFFFFFFFFFFFFFFFFFFFFFFFFFFFFFFFFFFFFFFFFFFFFFFF
310
FFFFFFFFFFFFFFFFFFFFFFFFFFFFFFFFFFFFFFFFFFFFFFFFF000FFFFFFFFFFFF
310
FFFFFFFFFFFFFFFFFFFFFFFFFFFFFFFFFFFFFFFFFFFFFFFFFFFFFFFFFFFFFFFF
310
FFFFFFFFFFFFFFFFFFFFFFFFFFFFFFFFFFFFFFFFFFFFFFFFFFFFFFFFFFFFFFFF
310
FFFFFFFFFFFFFFFFFFFFFFFFFFFFFFFFF000FFFFFFFFFFFFFFFFFFFFFFFFFFFF
310
FFFFFFFFFFFFFFFFFFFFFFFFFFFFFFFFFFFFFFFFFFFFFFFFFFFFFFFFFFFFFFFF
310
FFFFFFFFFFFFFFFFFFFFFFFFFFFFFFFFFFFFFFFFFFFFFFFFFFFFFFFFFFFFFFFF
310
FFFFFFFFFFFFFFFFF000FFFFFFFFFFFFFFFFFFFFFFFFFFFFFFFFFFFFFFFFFFFF
310
FFFFFFFFFFFFFFFFFFFFFFFFFFFFFFFFFFFFFFFFFFFFFFFFFFFFFFFFFFFFFFFF
310
FFFFFFFFFFFFFFFFFFFFFFFFFFFFFFFFFFFFFFFFFFFFFFFFFFFFFFFFFFFFFFFF
310
F000FFFFFFFFFFFFFFFFFFFFFFFFFFFFFFFFFFFFFFFFFFFFFFFFFFFFFFFFFFFF
310
FFFFFFFFFFFFFFFFFFFFFFFFFFFFFFFFFFFFFFFFFFFFFFFFFFFFFFFFFFFFFFFF
310
FFFFFFFFFFFFFFFFFFFFFFFFFFFFFFFFFFFFFFFFFFFFFFFFF000FFFFFFFFFFFF
310
FFFFFFFFFFFFFFFFFFFFFFFFFFFFFFFFFFFFFFFFFFFFFFFFFFFFFFFFFFFFFFFF
310
FFFFFFFFFFFFFFFFFFFFFFFFFFFFFFFFFFFFFFFFFFFFFFFFFFFFFFFFFFFFFFFF
310
FFFFFFFFFFFFFFFFFFFFFFFFFFFFFFFFF0000000000000000000000000000000
310
0000000000000000000000000000000000000000000000000000000000000000
310
0000000000000000000000000000000000000000000000000000000000000000
310
0000000000000000000000000000000000000000000000000000000000000000
310
0000000000000000000000000000000000000000000000000000000000000000
310
0000000000000000000000000000000000000000000000000000000000000000
310
0000000000000000000000000000000000000000000000000000000000000000
310
0000000000000000000000000000000000000000000000000000000000000000
310
0000000000000000000000000000000000000000000000000000000000000000
310
0000000000000000000000000000000000000000000000000000000000000000
310
0000000000000000000000000000000000000000000000000000000000000000
310
0000000000000000000000000000000000000000000000000000000000000000
310
0000000000000000000000000000000000000000000000000000000000000000
310
0000000000000000000000000000000000000000000000000000000000000000
310
0000000000000000000000000000000000000000000000000000000000000000
310
0000000000000000000000000000000000000000000000000000000000000000
  1
OLE
  0
ENDSEC
  0
SECTION
  2
OBJECTS
  0
DICTIONARY
  5
C
330
0
100
AcDbDictionary
281
     1
  3
ACAD_GROUP
350
D
  3
ACAD_LAYOUT
350
1A
  3
ACAD_MLINESTYLE
350
17
  3
ACAD_PLOTSETTINGS
350
19
  3
ACAD_PLOTSTYLENAME
350
E
  3
ACAD_SCALELIST
350
47
  0
DICTIONARY
  5
D
102
{ACAD_REACTORS
330
C
102
}
330
C
100
AcDbDictionary
281
     1
  0
DICTIONARY
  5
1A
102
{ACAD_REACTORS
330
C
102
}
330
C
100
AcDbDictionary
281
     1
  3
Layout1
350
1E
  3
Layout2
350
26
  3
Model
350
22
  0
DICTIONARY
  5
17
102
{ACAD_REACTORS
330
C
102
}
330
C
100
AcDbDictionary
281
     1
  3
Standard
350
18
  0
DICTIONARY
  5
19
102
{ACAD_REACTORS
330
C
102
}
330
C
100
AcDbDictionary
281
     1
  0
ACDBDICTIONARYWDFLT
  5
E
102
{ACAD_REACTORS
330
C
102
}
330
C
100
AcDbDictionary
281
     1
  3
Normal
350
F
100
AcDbDictionaryWithDefault
340
F
  0
DICTIONARY
  5
47
102
{ACAD_REACTORS
330
C
102
}
330
C
100
AcDbDictionary
281
     1
  3
A0
350
48
  3
A1
350
49
  3
A2
350
4A
  3
A3
350
4B
  3
A4
350
4C
  3
A5
350
4D
  3
A6
350
4E
  3
A7
350
4F
  3
A8
350
50
  3
A9
350
51
  3
B0
350
52
  3
B1
350
53
  3
B2
350
54
  3
B3
350
55
  3
B4
350
56
  3
B5
350
57
  3
B6
350
58
  3
B7
350
59
  3
B8
350
5A
  3
B9
350
5B
  3
C0
350
5C
  3
C1
350
5D
  3
C2
350
5E
  3
C3
350
5F
  3
C4
350
60
  3
C5
350
61
  3
C6
350
62
  3
C7
350
63
  3
C8
350
64
  3
C9
350
65
  3
D0
350
66
  3
D1
350
67
  3
D2
350
68
  0
LAYOUT
  5
1E
102
{ACAD_REACTORS
330
1A
102
}
330
1A
100
AcDbPlotSettings
  1

  2
none_device
  4

  6

 40
0.0
 41
0.0
 42
0.0
 43
0.0
 44
0.0
 45
0.0
 46
0.0
 47
0.0
 48
0.0
 49
0.0
140
0.0
141
0.0
142
1.0
143
1.0
 70
   688
 72
     1
 73
     0
 74
     5
  7

 75
    16
147
1.0
148
0.0
149
0.0
100
AcDbLayout
  1
Layout1
 70
     1
 71
     1
 10
0.0
 20
0.0
 11
420.0
 21
297.0
 12
0.0
 22
0.0
 32
0.0
 14
1.0000000000E+20
 24
1.0000000000E+20
 34
1.0000000000E+20
 15
-1.0000000000E+20
 25
-1.0000000000E+20
 35
-1.0000000000E+20
146
0.0
 13
0.0
 23
0.0
 33
0.0
 16
1.0
 26
0.0
 36
0.0
 17
0.0
 27
1.0
 37
0.0
 76
     0
330
1B
  0
LAYOUT
  5
26
102
{ACAD_REACTORS
330
1A
102
}
330
1A
100
AcDbPlotSettings
  1

  2
none_device
  4

  6

 40
0.0
 41
0.0
 42
0.0
 43
0.0
 44
0.0
 45
0.0
 46
0.0
 47
0.0
 48
0.0
 49
0.0
140
0.0
141
0.0
142
1.0
143
1.0
 70
   688
 72
     1
 73
     0
 74
     5
  7

 75
    16
147
1.0
148
0.0
149
0.0
100
AcDbLayout
  1
Layout2
 70
     1
 71
     2
 10
0.0
 20
0.0
 11
0.0
 21
0.0
 12
0.0
 22
0.0
 32
0.0
 14
0.0
 24
0.0
 34
0.0
 15
0.0
 25
0.0
 35
0.0
146
0.0
 13
0.0
 23
0.0
 33
0.0
 16
1.0
 26
0.0
 36
0.0
 17
0.0
 27
1.0
 37
0.0
 76
     0
330
23
  0
LAYOUT
  5
22
102
{ACAD_REACTORS
330
1A
102
}
330
1A
100
AcDbPlotSettings
  1

  2
none_device
  4
Letter_(8.50_x_11.00_Inches)
  6

 40
6.35
 41
6.35
 42
6.35000508
 43
6.35000508
 44
215.9
 45
279.4
 46
0.0
 47
0.0
 48
0.0
 49
0.0
140
0.0
141
0.0
142
1.0
143
1.0
 70
  1712
 72
     1
 73
     0
 74
     0
  7

 75
     0
147
1.0
148
0.0
149
0.0
100
AcDbLayout
  1
Model
 70
     1
 71
     0
 10
0.0
 20
0.0
 11
297.0
 21
210.0
 12
0.0
 22
0.0
 32
0.0
 14
0.0
 24
0.0
 34
0.0
 15
297.0
 25
210.0
 35
0.0
146
0.0
 13
0.0
 23
0.0
 33
0.0
 16
1.0
 26
0.0
 36
0.0
 17
0.0
 27
1.0
 37
0.0
 76
     0
330
1F
331
29
  0
MLINESTYLE
  5
18
102
{ACAD_REACTORS
330
17
102
}
330
17
100
AcDbMlineStyle
  2
Standard
 70
     0
  3

 62
   256
 51
90.0
 52
90.0
 71
     2
 49
0.5
 62
   256
  6
BYLAYER
 49
-0.5
 62
   256
  6
BYLAYER
  0
ACDBPLACEHOLDER
  5
F
102
{ACAD_REACTORS
330
E
102
}
330
E
  0
SCALE
  5
48
102
{ACAD_REACTORS
330
47
102
}
330
47
100
AcDbScale
 70
     0
300
1:1
140
1.0
141
1.0
290
     1
  0
SCALE
  5
49
102
{ACAD_REACTORS
330
47
102
}
330
47
100
AcDbScale
 70
     0
300
1:2
140
1.0
141
2.0
290
     0
  0
SCALE
  5
4A
102
{ACAD_REACTORS
330
47
102
}
330
47
100
AcDbScale
 70
     0
300
1:4
140
1.0
141
4.0
290
     0
  0
SCALE
  5
4B
102
{ACAD_REACTORS
330
47
102
}
330
47
100
AcDbScale
 70
     0
300
1:5
140
1.0
141
5.0
290
     0
  0
SCALE
  5
4C
102
{ACAD_REACTORS
330
47
102
}
330
47
100
AcDbScale
 70
     0
300
1:8
140
1.0
141
8.0
290
     0
  0
SCALE
  5
4D
102
{ACAD_REACTORS
330
47
102
}
330
47
100
AcDbScale
 70
     0
300
1:10
140
1.0
141
10.0
290
     0
  0
SCALE
  5
4E
102
{ACAD_REACTORS
330
47
102
}
330
47
100
AcDbScale
 70
     0
300
1:16
140
1.0
141
16.0
290
     0
  0
SCALE
  5
4F
102
{ACAD_REACTORS
330
47
102
}
330
47
100
AcDbScale
 70
     0
300
1:20
140
1.0
141
20.0
290
     0
  0
SCALE
  5
50
102
{ACAD_REACTORS
330
47
102
}
330
47
100
AcDbScale
 70
     0
300
1:30
140
1.0
141
30.0
290
     0
  0
SCALE
  5
51
102
{ACAD_REACTORS
330
47
102
}
330
47
100
AcDbScale
 70
     0
300
1:40
140
1.0
141
40.0
290
     0
  0
SCALE
  5
52
102
{ACAD_REACTORS
330
47
102
}
330
47
100
AcDbScale
 70
     0
300
1:50
140
1.0
141
50.0
290
     0
  0
SCALE
  5
53
102
{ACAD_REACTORS
330
47
102
}
330
47
100
AcDbScale
 70
     0
300
1:100
140
1.0
141
100.0
290
     0
  0
SCALE
  5
54
102
{ACAD_REACTORS
330
47
102
}
330
47
100
AcDbScale
 70
     0
300
2:1
140
2.0
141
1.0
290
     0
  0
SCALE
  5
55
102
{ACAD_REACTORS
330
47
102
}
330
47
100
AcDbScale
 70
     0
300
4:1
140
4.0
141
1.0
290
     0
  0
SCALE
  5
56
102
{ACAD_REACTORS
330
47
102
}
330
47
100
AcDbScale
 70
     0
300
8:1
140
8.0
141
1.0
290
     0
  0
SCALE
  5
57
102
{ACAD_REACTORS
330
47
102
}
330
47
100
AcDbScale
 70
     0
300
10:1
140
10.0
141
1.0
290
     0
  0
SCALE
  5
58
102
{ACAD_REACTORS
330
47
102
}
330
47
100
AcDbScale
 70
     0
300
100:1
140
100.0
141
1.0
290
     0
  0
SCALE
  5
59
102
{ACAD_REACTORS
330
47
102
}
330
47
100
AcDbScale
 70
     0
300
1/128" = 1'-0"
140
0.0078125
141
12.0
290
     0
  0
SCALE
  5
5A
102
{ACAD_REACTORS
330
47
102
}
330
47
100
AcDbScale
 70
     0
300
1/64" = 1'-0"
140
0.015625
141
12.0
290
     0
  0
SCALE
  5
5B
102
{ACAD_REACTORS
330
47
102
}
330
47
100
AcDbScale
 70
     0
300
1/32" = 1'-0"
140
0.03125
141
12.0
290
     0
  0
SCALE
  5
5C
102
{ACAD_REACTORS
330
47
102
}
330
47
100
AcDbScale
 70
     0
300
1/16" = 1'-0"
140
0.0625
141
12.0
290
     0
  0
SCALE
  5
5D
102
{ACAD_REACTORS
330
47
102
}
330
47
100
AcDbScale
 70
     0
300
3/32" = 1'-0"
140
0.09375
141
12.0
290
     0
  0
SCALE
  5
5E
102
{ACAD_REACTORS
330
47
102
}
330
47
100
AcDbScale
 70
     0
300
1/8" = 1'-0"
140
0.125
141
12.0
290
     0
  0
SCALE
  5
5F
102
{ACAD_REACTORS
330
47
102
}
330
47
100
AcDbScale
 70
     0
300
3/16" = 1'-0"
140
0.1875
141
12.0
290
     0
  0
SCALE
  5
60
102
{ACAD_REACTORS
330
47
102
}
330
47
100
AcDbScale
 70
     0
300
1/4" = 1'-0"
140
0.25
141
12.0
290
     0
  0
SCALE
  5
61
102
{ACAD_REACTORS
330
47
102
}
330
47
100
AcDbScale
 70
     0
300
3/8" = 1'-0"
140
0.375
141
12.0
290
     0
  0
SCALE
  5
62
102
{ACAD_REACTORS
330
47
102
}
330
47
100
AcDbScale
 70
     0
300
1/2" = 1'-0"
140
0.5
141
12.0
290
     0
  0
SCALE
  5
63
102
{ACAD_REACTORS
330
47
102
}
330
47
100
AcDbScale
 70
     0
300
3/4" = 1'-0"
140
0.75
141
12.0
290
     0
  0
SCALE
  5
64
102
{ACAD_REACTORS
330
47
102
}
330
47
100
AcDbScale
 70
     0
300
1" = 1'-0"
140
1.0
141
12.0
290
     0
  0
SCALE
  5
65
102
{ACAD_REACTORS
330
47
102
}
330
47
100
AcDbScale
 70
     0
300
1-1/2" = 1'-0"
140
1.5
141
12.0
290
     0
  0
SCALE
  5
66
102
{ACAD_REACTORS
330
47
102
}
330
47
100
AcDbScale
 70
     0
300
3" = 1'-0"
140
3.0
141
12.0
290
     0
  0
SCALE
  5
67
102
{ACAD_REACTORS
330
47
102
}
330
47
100
AcDbScale
 70
     0
300
6" = 1'-0"
140
6.0
141
12.0
290
     0
  0
SCALE
  5
68
102
{ACAD_REACTORS
330
47
102
}
330
47
100
AcDbScale
 70
     0
300
1'-0" = 1'-0"
140
12.0
141
12.0
290
     0
  0
ENDSEC
  0
EOF
