  0
SECTION
  2
HEADER
  9
$ACADVER
  1
AC1015
  9
$ACADMAINTVER
 70
     6
  9
$DWGCODEPAGE
  3
ANSI_1252
  9
$INSBASE
 10
0.0
 20
0.0
 30
0.0
  9
$EXTMIN
 10
0.0
 20
0.0
 30
0.0
  9
$EXTMAX
 10
297.0
 20
210.0
 30
0.0
  9
$LIMMIN
 10
0.0
 20
0.0
  9
$LIMMAX
 10
297.0
 20
210.0
  9
$ORTHOMODE
 70
     0
  9
$REGENMODE
 70
     1
  9
$FILLMODE
 70
     1
  9
$QTEXTMODE
 70
     0
  9
$MIRRTEXT
 70
     1
  9
$LTSCALE
 40
1.0
  9
$ATTMODE
 70
     1
  9
$TEXTSIZE
 40
2.0
  9
$TRACEWID
 40
1.0
  9
$TEXTSTYLE
  7
Standard
  9
$CLAYER
  8
0
  9
$CELTYPE
  6
ByLayer
  9
$CECOLOR
 62
   256
  9
$CELTSCALE
 40
1.0
  9
$DISPSILH
 70
     0
  9
$DIMSCALE
 40
1.0
  9
$DIMASZ
 40
3.0
  9
$DIMEXO
 40
0.0
  9
$DIMDLI
 40
3.75
  9
$DIMRND
 40
0.0
  9
$DIMDLE
 40
0.0
  9
$DIMEXE
 40
1.0
  9
$DIMTP
 40
0.0
  9
$DIMTM
 40
0.0
  9
$DIMTXT
 40
2.0
  9
$DIMCEN
 40
2.5
  9
$DIMTSZ
 40
0.0
  9
$DIMTOL
 70
     0
  9
$DIMLIM
 70
     0
  9
$DIMTIH
 70
     1
  9
$DIMTOH
 70
     1
  9
$DIMSE1
 70
     0
  9
$DIMSE2
 70
     0
  9
$DIMTAD
 70
     1
  9
$DIMZIN
 70
     0
  9
$DIMBLK
  1

  9
$DIMASO
 70
     1
  9
$DIMSHO
 70
     1
  9
$DIMPOST
  1

  9
$DIMAPOST
  1

  9
$DIMALT
 70
     0
  9
$DIMALTD
 70
     3
  9
$DIMALTF
 40
0.0393700787
  9
$DIMLFAC
 40
2.0
  9
$DIMTOFL
 70
     1
  9
$DIMTVP
 40
0.0
  9
$DIMTIX
 70
     0
  9
$DIMSOXD
 70
     0
  9
$DIMSAH
 70
     0
  9
$DIMBLK1
  1

  9
$DIMBLK2
  1

  9
$DIMSTYLE
  2
ISO-25
  9
$DIMCLRD
 70
     0
  9
$DIMCLRE
 70
     0
  9
$DIMCLRT
 70
     0
  9
$DIMTFAC
 40
1.0
  9
$DIMGAP
 40
1.524
  9
$DIMJUST
 70
     0
  9
$DIMSD1
 70
     0
  9
$DIMSD2
 70
     0
  9
$DIMTOLJ
 70
     0
  9
$DIMTZIN
 70
     0
  9
$DIMALTZ
 70
     0
  9
$DIMALTTZ
 70
     0
  9
$DIMUPT
 70
     0
  9
$DIMDEC
 70
     2
  9
$DIMTDEC
 70
     3
  9
$DIMALTU
 70
     2
  9
$DIMALTTD
 70
     3
  9
$DIMTXSTY
  7
Standard
  9
$DIMAUNIT
 70
     0
  9
$DIMADEC
 70
     2
  9
$DIMALTRND
 40
0.0
  9
$DIMAZIN
 70
     0
  9
$DIMDSEP
 70
    44
  9
$DIMATFIT
 70
     3
  9
$DIMFRAC
 70
     0
  9
$DIMLDRBLK
  1

  9
$DIMLUNIT
 70
     2
  9
$DIMLWD
 70
    -2
  9
$DIMLWE
 70
    -2
  9
$DIMTMOVE
 70
     0
  9
$LUNITS
 70
     2
  9
$LUPREC
 70
     2
  9
$SKETCHINC
 40
1.0
  9
$FILLETRAD
 40
10.0
  9
$AUNITS
 70
     0
  9
$AUPREC
 70
     2
  9
$MENU
  1
.
  9
$ELEVATION
 40
0.0
  9
$PELEVATION
 40
0.0
  9
$THICKNESS
 40
0.0
  9
$LIMCHECK
 70
     0
  9
$CHAMFERA
 40
0.0
  9
$CHAMFERB
 40
0.0
  9
$CHAMFERC
 40
0.0
  9
$CHAMFERD
 40
0.0
  9
$SKPOLY
 70
     0
  9
$TDCREATE
 40
2458184.509661991
  9
$TDUCREATE
 40
2458184.467995324
  9
$TDUPDATE
 40
2458184.509663495
  9
$TDUUPDATE
 40
2458184.467996829
  9
$TDINDWG
 40
0.0000000116
  9
$TDUSRTIMER
 40
0.0000000116
  9
$USRTIMER
 70
     1
  9
$ANGBASE
 50
0.0
  9
$ANGDIR
 70
     0
  9
$PDMODE
 70
     0
  9
$PDSIZE
 40
-1.0
  9
$PLINEWID
 40
0.0
  9
$SPLFRAME
 70
     0
  9
$SPLINETYPE
 70
     6
  9
$SPLINESEGS
 70
     8
  9
$HANDSEED
  5
28D
  9
$SURFTAB1
 70
     6
  9
$SURFTAB2
 70
     6
  9
$SURFTYPE
 70
     6
  9
$SURFU
 70
     6
  9
$SURFV
 70
     6
  9
$UCSBASE
  2

  9
$UCSNAME
  2

  9
$UCSORG
 10
0.0
 20
0.0
 30
0.0
  9
$UCSXDIR
 10
1.0
 20
0.0
 30
0.0
  9
$UCSYDIR
 10
0.0
 20
1.0
 30
0.0
  9
$UCSORTHOREF
  2

  9
$UCSORTHOVIEW
 70
     0
  9
$UCSORGTOP
 10
0.0
 20
0.0
 30
0.0
  9
$UCSORGBOTTOM
 10
0.0
 20
0.0
 30
0.0
  9
$UCSORGLEFT
 10
0.0
 20
0.0
 30
0.0
  9
$UCSORGRIGHT
 10
0.0
 20
0.0
 30
0.0
  9
$UCSORGFRONT
 10
0.0
 20
0.0
 30
0.0
  9
$UCSORGBACK
 10
0.0
 20
0.0
 30
0.0
  9
$PUCSBASE
  2

  9
$PUCSNAME
  2

  9
$PUCSORG
 10
0.0
 20
0.0
 30
0.0
  9
$PUCSXDIR
 10
1.0
 20
0.0
 30
0.0
  9
$PUCSYDIR
 10
0.0
 20
1.0
 30
0.0
  9
$PUCSORTHOREF
  2

  9
$PUCSORTHOVIEW
 70
     0
  9
$PUCSORGTOP
 10
0.0
 20
0.0
 30
0.0
  9
$PUCSORGBOTTOM
 10
0.0
 20
0.0
 30
0.0
  9
$PUCSORGLEFT
 10
0.0
 20
0.0
 30
0.0
  9
$PUCSORGRIGHT
 10
0.0
 20
0.0
 30
0.0
  9
$PUCSORGFRONT
 10
0.0
 20
0.0
 30
0.0
  9
$PUCSORGBACK
 10
0.0
 20
0.0
 30
0.0
  9
$USERI1
 70
     0
  9
$USERI2
 70
     0
  9
$USERI3
 70
     0
  9
$USERI4
 70
     0
  9
$USERI5
 70
     0
  9
$USERR1
 40
0.0
  9
$USERR2
 40
0.0
  9
$USERR3
 40
0.0
  9
$USERR4
 40
0.0
  9
$USERR5
 40
0.0
  9
$WORLDVIEW
 70
     1
  9
$SHADEDGE
 70
     3
  9
$SHADEDIF
 70
    70
  9
$TILEMODE
 70
     1
  9
$MAXACTVP
 70
    64
  9
$PINSBASE
 10
0.0
 20
0.0
 30
0.0
  9
$PLIMCHECK
 70
     0
  9
$PEXTMIN
 10
1.0000000000E+20
 20
1.0000000000E+20
 30
1.0000000000E+20
  9
$PEXTMAX
 10
-1.0000000000E+20
 20
-1.0000000000E+20
 30
-1.0000000000E+20
  9
$PLIMMIN
 10
0.0
 20
0.0
  9
$PLIMMAX
 10
420.0
 20
297.0
  9
$UNITMODE
 70
     0
  9
$VISRETAIN
 70
     1
  9
$PLINEGEN
 70
     0
  9
$PSLTSCALE
 70
     1
  9
$TREEDEPTH
 70
  3020
  9
$CMLSTYLE
  2
Standard
  9
$CMLJUST
 70
     0
  9
$CMLSCALE
 40
20.0
  9
$PROXYGRAPHICS
 70
     1
  9
$MEASUREMENT
 70
     1
  9
$CELWEIGHT
370
    -1
  9
$ENDCAPS
280
     0
  9
$JOINSTYLE
280
     0
  9
$LWDISPLAY
290
     1
  9
$INSUNITS
 70
     4
  9
$HYPERLINKBASE
  1

  9
$STYLESHEET
  1

  9
$XEDIT
290
     1
  9
$CEPSNTYPE
380
     0
  9
$PSTYLEMODE
290
     1
  9
$FINGERPRINTGUID
  2
{E1D20A51-69D5-4226-B022-BC4853358B90}
  9
$VERSIONGUID
  2
{FAEB1C32-E019-11D5-929B-00C0DF256EC4}
  9
$EXTNAMES
290
     1
  9
$PSVPSCALE
 40
0.0
  9
$OLESTARTUP
290
     0
  0
ENDSEC
  0
SECTION
  2
CLASSES
  0
CLASS
  1
ACDBDICTIONARYWDFLT
  2
AcDbDictionaryWithDefault
  3
ObjectDBX Classes
 90
        0
280
     0
281
     0
  0
CLASS
  1
VISUALSTYLE
  2
AcDbVisualStyle
  3
ObjectDBX Classes
 90
     4095
280
     0
281
     0
  0
CLASS
  1
MATERIAL
  2
AcDbMaterial
  3
ObjectDBX Classes
 90
     1153
280
     0
281
     0
  0
CLASS
  1
SCALE
  2
AcDbScale
  3
ObjectDBX Classes
 90
     1153
280
     0
281
     0
  0
CLASS
  1
TABLESTYLE
  2
AcDbTableStyle
  3
ObjectDBX Classes
 90
     4095
280
     0
281
     0
  0
CLASS
  1
MLEADERSTYLE
  2
AcDbMLeaderStyle
  3
ACDB_MLEADERSTYLE_CLASS
 90
     4095
280
     0
281
     0
  0
CLASS
  1
SUN
  2
AcDbSun
  3
SCENEOE
 90
     1153
280
     0
281
     0
  0
CLASS
  1
ACDBPLACEHOLDER
  2
AcDbPlaceHolder
  3
ObjectDBX Classes
 90
        0
280
     0
281
     0
  0
CLASS
  1
LAYOUT
  2
AcDbLayout
  3
ObjectDBX Classes
 90
        0
280
     0
281
     0
  0
ENDSEC
  0
SECTION
  2
TABLES
  0
TABLE
  2
VPORT
  5
8
330
0
100
AcDbSymbolTable
 70
     1
  0
VPORT
  5
29
330
8
100
AcDbSymbolTableRecord
100
AcDbViewportTableRecord
  2
*Active
 70
     0
 10
0.0
 20
0.0
 11
1.0
 21
1.0
 12
148.5
 22
105.0
 13
0.0
 23
0.0
 14
10.0
 24
10.0
 15
10.0
 25
10.0
 16
0.0
 26
0.0
 36
1.0
 17
0.0
 27
0.0
 37
0.0
 40
210.0
 41
1.4142857143
 42
50.0
 43
0.0
 44
0.0
 50
0.0
 51
0.0
 71
     0
 72
  2000
 73
     1
 74
     3
 75
     0
 76
     0
 77
     0
 78
     0
281
     0
 65
     1
110
0.0
120
0.0
130
0.0
111
1.0
121
0.0
131
0.0
112
0.0
122
1.0
132
0.0
 79
     0
146
0.0
  0
ENDTAB
  0
TABLE
  2
LTYPE
  5
5
330
0
100
AcDbSymbolTable
 70
     6
  0
LTYPE
  5
14
330
5
100
AcDbSymbolTableRecord
100
AcDbLinetypeTableRecord
  2
ByBlock
 70
     0
  3

 72
    65
 73
     0
 40
0.0
  0
LTYPE
  5
15
330
5
100
AcDbSymbolTableRecord
100
AcDbLinetypeTableRecord
  2
ByLayer
 70
     0
  3

 72
    65
 73
     0
 40
0.0
  0
LTYPE
  5
16
330
5
100
AcDbSymbolTableRecord
100
AcDbLinetypeTableRecord
  2
Continuous
 70
     0
  3
Solid line
 72
    65
 73
     0
 40
0.0
  0
LTYPE
  5
6E
330
5
100
AcDbSymbolTableRecord
100
AcDbLinetypeTableRecord
  2
HIDDEN
 70
     0
  3
Hidden __ __ __ __ __ __ __ __ __ __ __ __ __ __
 72
    65
 73
     2
 40
1.905
 49
1.27
 74
     0
 49
-0.635
 74
     0
  0
LTYPE
  5
6F
330
5
100
AcDbSymbolTableRecord
100
AcDbLinetypeTableRecord
  2
PHANTOM
 70
     0
  3
Phantom ______  __  __  ______  __  __  ______
 72
    65
 73
     6
 40
12.7
 49
6.35
 74
     0
 49
-1.27
 74
     0
 49
1.27
 74
     0
 49
-1.27
 74
     0
 49
1.27
 74
     0
 49
-1.27
 74
     0
  0
LTYPE
  5
70
330
5
100
AcDbSymbolTableRecord
100
AcDbLinetypeTableRecord
  2
CENTER
 70
     0
  3
Center ____ _ ____ _ ____ _ ____ _ ____ _ ____
 72
    65
 73
     4
 40
10.16
 49
6.35
 74
     0
 49
-1.27
 74
     0
 49
1.27
 74
     0
 49
-1.27
 74
     0
  0
LTYPE
  5
71
330
5
100
AcDbSymbolTableRecord
100
AcDbLinetypeTableRecord
  2
CENTERX2
 70
     0
  3
Center (2x) ________  __  ________  __  _____
 72
    65
 73
     4
 40
20.32
 49
12.7
 74
     0
 49
-2.54
 74
     0
 49
2.54
 74
     0
 49
-2.54
 74
     0
  0
LTYPE
  5
72
330
5
100
AcDbSymbolTableRecord
100
AcDbLinetypeTableRecord
  2
DOT2
 70
     0
  3
Dot (.5x) ........................................
 72
    65
 73
     2
 40
0.635
 49
0.0
 74
     0
 49
-0.635
 74
     0
  0
ENDTAB
  0
TABLE
  2
LAYER
  5
2
330
0
100
AcDbSymbolTable
 70
     5
  0
LAYER
  5
10
330
2
100
AcDbSymbolTableRecord
100
AcDbLayerTableRecord
  2
0
 70
     0
 62
     7
  6
Continuous
370
    -3
390
F
  0
LAYER
  5
73
330
2
100
AcDbSymbolTableRecord
100
AcDbLayerTableRecord
  2
FORMAT
 70
     0
 62
     7
  6
Continuous
370
    -3
390
F
  0
LAYER
  5
74
330
2
100
AcDbSymbolTableRecord
100
AcDbLayerTableRecord
  2
VERMASSUNG
 70
     0
 62
     7
  6
Continuous
370
    -3
390
F
  0
LAYER
  5
75
330
2
100
AcDbSymbolTableRecord
100
AcDbLayerTableRecord
  2
KOPF_DÜNN
 70
     0
 62
     7
  6
Continuous
370
    -3
390
F
  0
LAYER
  5
76
330
2
100
AcDbSymbolTableRecord
100
AcDbLayerTableRecord
  2
KOPF_DICK
 70
     0
 62
     7
  6
Continuous
370
    25
390
F
  0
ENDTAB
  0
TABLE
  2
STYLE
  5
3
330
0
100
AcDbSymbolTable
 70
     2
  0
STYLE
  5
11
330
3
100
AcDbSymbolTableRecord
100
AcDbTextStyleTableRecord
  2
Standard
 70
     0
 40
0.0
 41
1.0
 50
0.0
 71
     0
 42
2.0
  3
txt
  4

  0
STYLE
  5
77
330
3
100
AcDbSymbolTableRecord
100
AcDbTextStyleTableRecord
  2
SLDTEXTSTYLE0
 70
     0
 40
0.0
 41
0.7
 50
0.0
 71
     0
 42
2.0
  3
TXT
  4

  0
ENDTAB
  0
TABLE
  2
VIEW
  5
6
330
0
100
AcDbSymbolTable
 70
     0
  0
ENDTAB
  0
TABLE
  2
UCS
  5
7
330
0
100
AcDbSymbolTable
 70
     0
  0
ENDTAB
  0
TABLE
  2
APPID
  5
9
330
0
100
AcDbSymbolTable
 70
     1
  0
APPID
  5
12
330
9
100
AcDbSymbolTableRecord
100
AcDbRegAppTableRecord
  2
ACAD
 70
     0
  0
ENDTAB
  0
TABLE
  2
DIMSTYLE
  5
A
330
0
100
AcDbSymbolTable
 70
     6
100
AcDbDimStyleTable
  0
DIMSTYLE
105
27
330
A
100
AcDbSymbolTableRecord
100
AcDbDimStyleTableRecord
  2
ISO-25
 70
     0
 41
2.5
 42
0.625
 43
3.75
 44
1.25
 73
     0
 74
     0
 77
     1
 78
     8
140
2.5
141
2.5
143
0.0393700787
147
0.625
171
     3
172
     1
178
     0
271
     2
272
     2
274
     3
278
    44
283
     0
284
     8
340
11
  0
DIMSTYLE
105
218
102
{ACAD_REACTORS
330
217
102
}
330
A
100
AcDbSymbolTableRecord
100
AcDbDimStyleTableRecord
  2
SLDDIMSTYLE0
 70
     0
 41
3.0
 44
0.0
 45
0.000000001
 73
     0
 74
     0
 77
     1
 78
    12
 79
     3
140
2.0
147
0.5
172
     1
173
     1
178
     0
271
     2
272
     3
276
     2
284
    12
289
     0
340
77
  0
DIMSTYLE
105
226
102
{ACAD_REACTORS
330
225
330
24A
330
254
102
}
330
A
100
AcDbSymbolTableRecord
100
AcDbDimStyleTableRecord
  2
SLDDIMSTYLE1
 70
     0
 41
3.0
 44
0.0
 45
0.000000001
 73
     0
 74
     0
 77
     1
 78
    12
 79
     3
140
2.0
147
0.5
173
     1
178
     0
271
     2
272
     3
276
     2
284
    12
340
77
  0
DIMSTYLE
105
231
102
{ACAD_REACTORS
330
230
102
}
330
A
100
AcDbSymbolTableRecord
100
AcDbDimStyleTableRecord
  2
SLDDIMSTYLE2
 70
     0
 41
3.0
 44
0.0
 45
0.000000001
 73
     0
 74
     0
 77
     1
 78
    12
 79
     3
140
2.0
147
0.5
173
     1
178
     0
271
     2
272
     3
276
     2
284
     8
340
77
  0
DIMSTYLE
105
240
102
{ACAD_REACTORS
330
23F
330
269
102
}
330
A
100
AcDbSymbolTableRecord
100
AcDbDimStyleTableRecord
  2
SLDDIMSTYLE3
 70
     0
 41
3.0
 44
0.0
 45
0.000000001
 73
     0
 74
     0
 77
     1
 78
    12
 79
     3
140
2.0
147
0.5
173
     1
178
     0
271
     1
272
     3
276
     2
284
    12
340
77
  0
DIMSTYLE
105
25F
102
{ACAD_REACTORS
330
25E
102
}
330
A
100
AcDbSymbolTableRecord
100
AcDbDimStyleTableRecord
  2
SLDDIMSTYLE4
 70
     0
 41
3.0
 44
0.0
 45
0.000000001
 73
     0
 74
     0
 77
     1
 78
    12
 79
     3
140
2.0
147
0.5
173
     1
178
     0
271
     0
272
     3
276
     2
284
    12
340
77
  0
ENDTAB
  0
TABLE
  2
BLOCK_RECORD
  5
1
330
0
100
AcDbSymbolTable
 70
     9
  0
BLOCK_RECORD
  5
1F
330
1
100
AcDbSymbolTableRecord
100
AcDbBlockTableRecord
  2
*Model_Space
340
22
  0
BLOCK_RECORD
  5
1B
330
1
100
AcDbSymbolTableRecord
100
AcDbBlockTableRecord
  2
*Paper_Space
340
1E
  0
BLOCK_RECORD
  5
23
330
1
100
AcDbSymbolTableRecord
100
AcDbBlockTableRecord
  2
*Paper_Space0
340
26
  0
BLOCK_RECORD
  5
219
330
1
100
AcDbSymbolTableRecord
100
AcDbBlockTableRecord
  2
_D
340
0
  0
BLOCK_RECORD
  5
227
330
1
100
AcDbSymbolTableRecord
100
AcDbBlockTableRecord
  2
_D_1
340
0
  0
BLOCK_RECORD
  5
232
330
1
100
AcDbSymbolTableRecord
100
AcDbBlockTableRecord
  2
_D_2
340
0
  0
BLOCK_RECORD
  5
241
330
1
100
AcDbSymbolTableRecord
100
AcDbBlockTableRecord
  2
_D_3
340
0
  0
BLOCK_RECORD
  5
24B
330
1
100
AcDbSymbolTableRecord
100
AcDbBlockTableRecord
  2
_D_4
340
0
  0
BLOCK_RECORD
  5
255
330
1
100
AcDbSymbolTableRecord
100
AcDbBlockTableRecord
  2
_D_5
340
0
  0
BLOCK_RECORD
  5
260
330
1
100
AcDbSymbolTableRecord
100
AcDbBlockTableRecord
  2
_D_6
340
0
  0
BLOCK_RECORD
  5
26A
330
1
100
AcDbSymbolTableRecord
100
AcDbBlockTableRecord
  2
_D_7
340
0
  0
ENDTAB
  0
ENDSEC
  0
SECTION
  2
BLOCKS
  0
BLOCK
  5
20
330
1F
100
AcDbEntity
  8
0
100
AcDbBlockBegin
  2
*Model_Space
 70
     0
 10
0.0
 20
0.0
 30
0.0
  3
*Model_Space
  1

  0
ENDBLK
  5
21
330
1F
100
AcDbEntity
  8
0
100
AcDbBlockEnd
  0
BLOCK
  5
1C
330
1B
100
AcDbEntity
 67
     1
  8
0
100
AcDbBlockBegin
  2
*Paper_Space
 70
     0
 10
0.0
 20
0.0
 30
0.0
  3
*Paper_Space
  1

  0
ENDBLK
  5
1D
330
1B
100
AcDbEntity
 67
     1
  8
0
100
AcDbBlockEnd
  0
BLOCK
  5
24
330
23
100
AcDbEntity
  8
0
100
AcDbBlockBegin
  2
*Paper_Space0
 70
     0
 10
0.0
 20
0.0
 30
0.0
  3
*Paper_Space0
  1

  0
ENDBLK
  5
25
330
23
100
AcDbEntity
  8
0
100
AcDbBlockEnd
  0
BLOCK
  5
21A
330
219
100
AcDbEntity
  8
0
100
AcDbBlockBegin
  2
_D
 70
     0
 10
0.0
 20
0.0
 30
0.0
  3
_D
  1

  0
SOLID
  5
21C
330
219
100
AcDbEntity
  8
VERMASSUNG
100
AcDbTrace
 10
256.1168184531
 20
105.5458163758
 30
0.0
 11
255.6668184531
 21
102.5458163758
 31
0.0
 12
256.5668184531
 22
102.5458163758
 32
0.0
 13
256.5668184531
 23
102.5458163758
 33
0.0
  0
SOLID
  5
21D
330
219
100
AcDbEntity
  8
VERMASSUNG
100
AcDbTrace
 10
256.1168184531
 20
125.5458163758
 30
0.0
 11
256.5668184531
 21
128.5458163758
 31
0.0
 12
255.6668184531
 22
128.5458163758
 32
0.0
 13
255.6668184531
 23
128.5458163758
 33
0.0
  0
LINE
  5
21E
330
219
100
AcDbEntity
  8
VERMASSUNG
100
AcDbLine
 10
249.4643523694
 20
105.5458163758
 30
0.0
 11
257.1168184531
 21
105.5458163758
 31
0.0
  0
LINE
  5
21F
330
219
100
AcDbEntity
  8
VERMASSUNG
100
AcDbLine
 10
249.4643523694
 20
125.5458163758
 30
0.0
 11
257.1168184531
 21
125.5458163758
 31
0.0
  0
LINE
  5
220
330
219
100
AcDbEntity
  8
VERMASSUNG
100
AcDbLine
 10
256.1168184531
 20
105.5458163758
 30
0.0
 11
256.1168184531
 21
99.5458163758
 31
0.0
  0
LINE
  5
221
330
219
100
AcDbEntity
  8
VERMASSUNG
100
AcDbLine
 10
256.1168184531
 20
105.5458163758
 30
0.0
 11
256.1168184531
 21
125.5458163758
 31
0.0
  0
LINE
  5
222
330
219
100
AcDbEntity
  8
VERMASSUNG
100
AcDbLine
 10
256.1168184531
 20
125.5458163758
 30
0.0
 11
256.1168184531
 21
140.2542436161
 31
0.0
  0
MTEXT
  5
223
330
219
100
AcDbEntity
  8
VERMASSUNG
100
AcDbMText
 10
253.5386831482
 20
133.8442437016
 30
0.0
 40
2.0
 41
0.0
 71
     1
 72
     1
  1
%%c
  7
SLDTEXTSTYLE0
 11
6.123233995736766E-17
 21
1.0
 31
0.0
 73
     1
 44
1.0
  0
MTEXT
  5
224
330
219
100
AcDbEntity
  8
VERMASSUNG
100
AcDbMText
 10
253.3386831969
 20
137.4542437159
 30
0.0
 40
2.0
 41
0.0
 71
     1
 72
     1
  1
20
  7
SLDTEXTSTYLE0
 11
6.123233995736766E-17
 21
1.0
 31
0.0
 73
     1
 44
1.0
  0
ENDBLK
  5
21B
330
219
100
AcDbEntity
  8
0
100
AcDbBlockEnd
  0
BLOCK
  5
228
330
227
100
AcDbEntity
  8
0
100
AcDbBlockBegin
  2
_D_1
 70
     0
 10
0.0
 20
0.0
 30
0.0
  3
_D_1
  1

  0
SOLID
  5
22A
330
227
100
AcDbEntity
  8
VERMASSUNG
100
AcDbTrace
 10
154.94425618
 20
127.0458163758
 30
0.0
 11
154.49425618
 21
124.0458163758
 31
0.0
 12
155.39425618
 22
124.0458163758
 32
0.0
 13
155.39425618
 23
124.0458163758
 33
0.0
  0
SOLID
  5
22B
330
227
100
AcDbEntity
  8
VERMASSUNG
100
AcDbTrace
 10
154.94425618
 20
104.0458163758
 30
0.0
 11
155.39425618
 21
107.0458163758
 31
0.0
 12
154.49425618
 22
107.0458163758
 32
0.0
 13
154.49425618
 23
107.0458163758
 33
0.0
  0
LINE
  5
22C
330
227
100
AcDbEntity
  8
VERMASSUNG
100
AcDbLine
 10
154.94425618
 20
127.0458163758
 30
0.0
 11
154.94425618
 21
140.2542436161
 31
0.0
  0
LINE
  5
22D
330
227
100
AcDbEntity
  8
VERMASSUNG
100
AcDbLine
 10
154.94425618
 20
127.0458163758
 30
0.0
 11
154.94425618
 21
104.0458163758
 31
0.0
  0
MTEXT
  5
22E
330
227
100
AcDbEntity
  8
VERMASSUNG
100
AcDbMText
 10
152.366120875
 20
133.8442437016
 30
0.0
 40
2.0
 41
0.0
 71
     1
 72
     1
  1
%%c
  7
SLDTEXTSTYLE0
 11
-7.044195017643634E-15
 21
1.0
 31
0.0
 73
     1
 44
1.0
  0
MTEXT
  5
22F
330
227
100
AcDbEntity
  8
VERMASSUNG
100
AcDbMText
 10
152.1661209237
 20
137.4542437159
 30
0.0
 40
2.0
 41
0.0
 71
     1
 72
     1
  1
23
  7
SLDTEXTSTYLE0
 11
-7.044195017643634E-15
 21
1.0
 31
0.0
 73
     1
 44
1.0
  0
ENDBLK
  5
229
330
227
100
AcDbEntity
  8
0
100
AcDbBlockEnd
  0
BLOCK
  5
233
330
232
100
AcDbEntity
  8
0
100
AcDbBlockBegin
  2
_D_2
 70
     0
 10
0.0
 20
0.0
 30
0.0
  3
_D_2
  1

  0
SOLID
  5
235
330
232
100
AcDbEntity
  8
VERMASSUNG
100
AcDbTrace
 10
16.2116298233
 20
128.0458163758
 30
0.0
 11
15.7616298233
 21
125.0458163758
 31
0.0
 12
16.6616298233
 22
125.0458163758
 32
0.0
 13
16.6616298233
 23
125.0458163758
 33
0.0
  0
SOLID
  5
236
330
232
100
AcDbEntity
  8
VERMASSUNG
100
AcDbTrace
 10
16.2116298233
 20
103.0458163758
 30
0.0
 11
16.6616298233
 21
106.0458163758
 31
0.0
 12
15.7616298233
 22
106.0458163758
 32
0.0
 13
15.7616298233
 23
106.0458163758
 33
0.0
  0
LINE
  5
237
330
232
100
AcDbEntity
  8
VERMASSUNG
100
AcDbLine
 10
25.4643523694
 20
128.0458163758
 30
0.0
 11
15.2116298233
 21
128.0458163758
 31
0.0
  0
LINE
  5
238
330
232
100
AcDbEntity
  8
VERMASSUNG
100
AcDbLine
 10
25.4643523694
 20
103.0458163758
 30
0.0
 11
15.2116298233
 21
103.0458163758
 31
0.0
  0
LINE
  5
239
330
232
100
AcDbEntity
  8
VERMASSUNG
100
AcDbLine
 10
16.2116298233
 20
128.0458163758
 30
0.0
 11
16.2116298233
 21
103.0458163758
 31
0.0
  0
MTEXT
  5
23A
330
232
100
AcDbEntity
  8
VERMASSUNG
100
AcDbMText
 10
13.6334947512
 20
110.3408165564
 30
0.0
 40
2.0
 41
0.0
 71
     1
 72
     1
  1
%%c
  7
SLDTEXTSTYLE0
 11
-7.044195017643634E-15
 21
1.0
 31
0.0
 73
     1
 44
1.0
  0
MTEXT
  5
23B
330
232
100
AcDbEntity
  8
VERMASSUNG
100
AcDbMText
 10
13.4334947999
 20
113.9508165707
 30
0.0
 40
2.0
 41
0.0
 71
     1
 72
     1
  1
25
  7
SLDTEXTSTYLE0
 11
-7.044195017643634E-15
 21
1.0
 31
0.0
 73
     1
 44
1.0
  0
MTEXT
  5
23C
330
232
100
AcDbEntity
  8
VERMASSUNG
100
AcDbMText
 10
13.4334947999
 20
117.9383164709
 30
0.0
 40
2.0
 41
0.0
 71
     1
 72
     1
  1

  7
SLDTEXTSTYLE0
 11
-7.044195017643634E-15
 21
1.0
 31
0.0
 73
     1
 44
1.0
  0
MTEXT
  5
23D
330
232
100
AcDbEntity
  8
VERMASSUNG
100
AcDbMText
 10
10.8334946182
 20
119.138316295
 30
0.0
 40
2.0
 41
0.0
 71
     1
 72
     1
  1

  7
SLDTEXTSTYLE0
 11
-7.044195017643634E-15
 21
1.0
 31
0.0
 73
     1
 44
1.0
  0
MTEXT
  5
23E
330
232
100
AcDbEntity
  8
VERMASSUNG
100
AcDbMText
 10
13.6334945184
 20
117.950816295
 30
0.0
 40
2.0
 41
0.0
 71
     1
 72
     1
  1
h6
  7
SLDTEXTSTYLE0
 11
-7.044195017643634E-15
 21
1.0
 31
0.0
 73
     1
 44
1.0
  0
ENDBLK
  5
234
330
232
100
AcDbEntity
  8
0
100
AcDbBlockEnd
  0
BLOCK
  5
242
330
241
100
AcDbEntity
  8
0
100
AcDbBlockBegin
  2
_D_3
 70
     0
 10
0.0
 20
0.0
 30
0.0
  3
_D_3
  1

  0
SOLID
  5
244
330
241
100
AcDbEntity
  8
VERMASSUNG
100
AcDbTrace
 10
24.4643523694
 20
160.6851286663
 30
0.0
 11
27.4643523694
 21
160.2351286663
 31
0.0
 12
27.4643523694
 22
161.1351286663
 32
0.0
 13
27.4643523694
 23
161.1351286663
 33
0.0
  0
SOLID
  5
245
330
241
100
AcDbEntity
  8
VERMASSUNG
100
AcDbTrace
 10
285.4241599905
 20
160.6851286663
 30
0.0
 11
282.4241599905
 21
161.1351286663
 31
0.0
 12
282.4241599905
 22
160.2351286663
 32
0.0
 13
282.4241599905
 23
160.2351286663
 33
0.0
  0
LINE
  5
246
330
241
100
AcDbEntity
  8
VERMASSUNG
100
AcDbLine
 10
24.4643523694
 20
127.0458163758
 30
0.0
 11
24.4643523694
 21
161.6851286663
 31
0.0
  0
LINE
  5
247
330
241
100
AcDbEntity
  8
VERMASSUNG
100
AcDbLine
 10
285.4241599905
 20
126.8944495903
 30
0.0
 11
285.4241599905
 21
161.6851286663
 31
0.0
  0
LINE
  5
248
330
241
100
AcDbEntity
  8
VERMASSUNG
100
AcDbLine
 10
24.4643523694
 20
160.6851286663
 30
0.0
 11
285.4241599905
 21
160.6851286663
 31
0.0
  0
MTEXT
  5
249
330
241
100
AcDbEntity
  8
VERMASSUNG
100
AcDbMText
 10
153.0442561479
 20
163.2632642622
 30
0.0
 40
2.0
 41
0.0
 71
     1
 72
     1
  1
261
  7
SLDTEXTSTYLE0
 73
     1
 44
1.0
  0
ENDBLK
  5
243
330
241
100
AcDbEntity
  8
0
100
AcDbBlockEnd
  0
BLOCK
  5
24C
330
24B
100
AcDbEntity
  8
0
100
AcDbBlockBegin
  2
_D_4
 70
     0
 10
0.0
 20
0.0
 30
0.0
  3
_D_4
  1

  0
SOLID
  5
24E
330
24B
100
AcDbEntity
  8
VERMASSUNG
100
AcDbTrace
 10
24.4643523694
 20
81.877443609
 30
0.0
 11
27.4643523694
 21
81.427443609
 31
0.0
 12
27.4643523694
 22
82.327443609
 32
0.0
 13
27.4643523694
 23
82.327443609
 33
0.0
  0
SOLID
  5
24F
330
24B
100
AcDbEntity
  8
VERMASSUNG
100
AcDbTrace
 10
244.4643523694
 20
81.877443609
 30
0.0
 11
241.4643523694
 21
82.327443609
 31
0.0
 12
241.4643523694
 22
81.427443609
 32
0.0
 13
241.4643523694
 23
81.427443609
 33
0.0
  0
LINE
  5
250
330
24B
100
AcDbEntity
  8
VERMASSUNG
100
AcDbLine
 10
24.4643523694
 20
104.0458163758
 30
0.0
 11
24.4643523694
 21
80.877443609
 31
0.0
  0
LINE
  5
251
330
24B
100
AcDbEntity
  8
VERMASSUNG
100
AcDbLine
 10
244.4643523694
 20
104.0458163758
 30
0.0
 11
244.4643523694
 21
80.877443609
 31
0.0
  0
LINE
  5
252
330
24B
100
AcDbEntity
  8
VERMASSUNG
100
AcDbLine
 10
24.4643523694
 20
81.877443609
 30
0.0
 11
244.4643523694
 21
81.877443609
 31
0.0
  0
MTEXT
  5
253
330
24B
100
AcDbEntity
  8
VERMASSUNG
100
AcDbMText
 10
132.3643524443
 20
84.455579205
 30
0.0
 40
2.0
 41
0.0
 71
     1
 72
     1
  1
220
  7
SLDTEXTSTYLE0
 73
     1
 44
1.0
  0
ENDBLK
  5
24D
330
24B
100
AcDbEntity
  8
0
100
AcDbBlockEnd
  0
BLOCK
  5
256
330
255
100
AcDbEntity
  8
0
100
AcDbBlockBegin
  2
_D_5
 70
     0
 10
0.0
 20
0.0
 30
0.0
  3
_D_5
  1

  0
SOLID
  5
258
330
255
100
AcDbEntity
  8
VERMASSUNG
100
AcDbTrace
 10
89.4643523694
 20
93.1170622942
 30
0.0
 11
92.4643523694
 21
92.6670622942
 31
0.0
 12
92.4643523694
 22
93.5670622942
 32
0.0
 13
92.4643523694
 23
93.5670622942
 33
0.0
  0
SOLID
  5
259
330
255
100
AcDbEntity
  8
VERMASSUNG
100
AcDbTrace
 10
244.4643523694
 20
93.1170622942
 30
0.0
 11
241.4643523694
 21
93.5670622942
 31
0.0
 12
241.4643523694
 22
92.6670622942
 32
0.0
 13
241.4643523694
 23
92.6670622942
 33
0.0
  0
LINE
  5
25A
330
255
100
AcDbEntity
  8
VERMASSUNG
100
AcDbLine
 10
89.4643523694
 20
103.0458163758
 30
0.0
 11
89.4643523694
 21
92.1170622942
 31
0.0
  0
LINE
  5
25B
330
255
100
AcDbEntity
  8
VERMASSUNG
100
AcDbLine
 10
244.4643523694
 20
104.0458163758
 30
0.0
 11
244.4643523694
 21
92.1170622942
 31
0.0
  0
LINE
  5
25C
330
255
100
AcDbEntity
  8
VERMASSUNG
100
AcDbLine
 10
89.4643523694
 20
93.1170622942
 30
0.0
 11
244.4643523694
 21
93.1170622942
 31
0.0
  0
MTEXT
  5
25D
330
255
100
AcDbEntity
  8
VERMASSUNG
100
AcDbMText
 10
165.0643523374
 20
95.6951978901
 30
0.0
 40
2.0
 41
0.0
 71
     1
 72
     1
  1
155
  7
SLDTEXTSTYLE0
 73
     1
 44
1.0
  0
ENDBLK
  5
257
330
255
100
AcDbEntity
  8
0
100
AcDbBlockEnd
  0
BLOCK
  5
261
330
260
100
AcDbEntity
  8
0
100
AcDbBlockBegin
  2
_D_6
 70
     0
 10
0.0
 20
0.0
 30
0.0
  3
_D_6
  1

  0
SOLID
  5
263
330
260
100
AcDbEntity
  8
VERMASSUNG
100
AcDbTrace
 10
244.4643523694
 20
93.1170622942
 30
0.0
 11
247.4643523694
 21
92.6670622942
 31
0.0
 12
247.4643523694
 22
93.5670622942
 32
0.0
 13
247.4643523694
 23
93.5670622942
 33
0.0
  0
SOLID
  5
264
330
260
100
AcDbEntity
  8
VERMASSUNG
100
AcDbTrace
 10
285.4241599905
 20
93.1170622942
 30
0.0
 11
282.4241599905
 21
93.5670622942
 31
0.0
 12
282.4241599905
 22
92.6670622942
 32
0.0
 13
282.4241599905
 23
92.6670622942
 33
0.0
  0
LINE
  5
265
330
260
100
AcDbEntity
  8
VERMASSUNG
100
AcDbLine
 10
244.4643523694
 20
104.0458163758
 30
0.0
 11
244.4643523694
 21
92.1170622942
 31
0.0
  0
LINE
  5
266
330
260
100
AcDbEntity
  8
VERMASSUNG
100
AcDbLine
 10
285.4241599905
 20
121.2665553125
 30
0.0
 11
285.4241599905
 21
92.1170622942
 31
0.0
  0
LINE
  5
267
330
260
100
AcDbEntity
  8
VERMASSUNG
100
AcDbLine
 10
244.4643523694
 20
93.1170622942
 30
0.0
 11
285.4241599905
 21
93.1170622942
 31
0.0
  0
MTEXT
  5
268
330
260
100
AcDbEntity
  8
VERMASSUNG
100
AcDbMText
 10
263.6442561764
 20
95.6951978901
 30
0.0
 40
2.0
 41
0.0
 71
     1
 72
     1
  1
41
  7
SLDTEXTSTYLE0
 73
     1
 44
1.0
  0
ENDBLK
  5
262
330
260
100
AcDbEntity
  8
0
100
AcDbBlockEnd
  0
BLOCK
  5
26B
330
26A
100
AcDbEntity
  8
0
100
AcDbBlockBegin
  2
_D_7
 70
     0
 10
0.0
 20
0.0
 30
0.0
  3
_D_7
  1

  0
SOLID
  5
26D
330
26A
100
AcDbEntity
  8
VERMASSUNG
100
AcDbTrace
 10
89.4643523694
 20
150.4398496241
 30
0.0
 11
92.4643523694
 21
149.9898496241
 31
0.0
 12
92.4643523694
 22
150.8898496241
 32
0.0
 13
92.4643523694
 23
150.8898496241
 33
0.0
  0
SOLID
  5
26E
330
26A
100
AcDbEntity
  8
VERMASSUNG
100
AcDbTrace
 10
285.4241599905
 20
150.4398496241
 30
0.0
 11
282.4241599905
 21
150.8898496241
 31
0.0
 12
282.4241599905
 22
149.9898496241
 32
0.0
 13
282.4241599905
 23
149.9898496241
 33
0.0
  0
LINE
  5
26F
330
26A
100
AcDbEntity
  8
VERMASSUNG
100
AcDbLine
 10
89.4643523694
 20
128.0458163758
 30
0.0
 11
89.4643523694
 21
151.4398496241
 31
0.0
  0
LINE
  5
270
330
26A
100
AcDbEntity
  8
VERMASSUNG
100
AcDbLine
 10
285.4241599905
 20
126.8944495903
 30
0.0
 11
285.4241599905
 21
151.4398496241
 31
0.0
  0
LINE
  5
271
330
26A
100
AcDbEntity
  8
VERMASSUNG
100
AcDbLine
 10
89.4643523694
 20
150.4398496241
 30
0.0
 11
285.4241599905
 21
150.4398496241
 31
0.0
  0
MTEXT
  5
272
330
26A
100
AcDbEntity
  8
VERMASSUNG
100
AcDbMText
 10
185.5442561479
 20
153.01798522
 30
0.0
 40
2.0
 41
0.0
 71
     1
 72
     1
  1
196
  7
SLDTEXTSTYLE0
 73
     1
 44
1.0
  0
ENDBLK
  5
26C
330
26A
100
AcDbEntity
  8
0
100
AcDbBlockEnd
  0
ENDSEC
  0
SECTION
  2
ENTITIES
  0
MTEXT
  5
78
330
1F
100
AcDbEntity
  8
KOPF_DÜNN
100
AcDbMText
 10
13.8892156294
 20
23.8442973028
 30
0.0
 40
3.0
 41
0.0
 71
     1
 72
     1
  1
276.025.220
  7
SLDTEXTSTYLE0
 73
     1
 44
1.0
  0
MTEXT
  5
79
330
1F
100
AcDbEntity
  8
VERMASSUNG
100
AcDbMText
 10
13.9329988022
 20
28.8834360957
 30
0.0
 40
3.0
 41
0.0
 71
     1
 72
     1
  1
Schwingungsgedämpfter Vollhartmetallschaft_Damped solid carbide shank
  7
SLDTEXTSTYLE0
 73
     1
 44
1.0
  0
MTEXT
  5
7A
330
1F
100
AcDbEntity
  8
VERMASSUNG
100
AcDbMText
 10
98.8601118557
 20
13.8365368761
 30
0.0
 40
2.0
 41
0.0
 71
     1
 72
     1
  1
Datum: 06.03.2018
  7
SLDTEXTSTYLE0
 73
     1
 44
1.0
  0
MTEXT
  5
7B
330
1F
100
AcDbEntity
  8
VERMASSUNG
100
AcDbMText
 10
13.933048693
 20
18.0482802738
 30
0.0
 40
2.0
 41
0.0
 71
     1
 72
     1
  1
Schaft/Shank ø25 / Lmax 196
  7
SLDTEXTSTYLE0
 73
     1
 44
1.0
  0
MTEXT
  5
7C
330
1F
100
AcDbEntity
  8
VERMASSUNG
100
AcDbMText
 10
13.9808475933
 20
13.9090974274
 30
0.0
 40
2.0
 41
0.0
 71
     1
 72
     1
  1
Gewicht: 1384g
  7
SLDTEXTSTYLE0
 73
     1
 44
1.0
  0
LINE
  5
7D
330
1F
100
AcDbEntity
  8
0
  6
PHANTOM
 62
     7
370
    25
100
AcDbLine
 10
272.1741631032
 20
113.5458162808
 30
0.0
 11
272.6241632701
 21
113.5458162808
 31
0.0
  0
LINE
  5
7E
330
1F
100
AcDbEntity
  8
0
  6
PHANTOM
 62
     7
370
    25
100
AcDbLine
 10
276.1241629124
 20
113.5458162808
 30
0.0
 11
276.1643662453
 21
113.5458162808
 31
0.0
  0
LINE
  5
7F
330
1F
100
AcDbEntity
  8
0
  6
PHANTOM
 62
     7
370
    25
100
AcDbLine
 10
276.1643662453
 20
117.5458164708
 30
0.0
 11
276.1241629124
 21
117.5458164708
 31
0.0
  0
LINE
  5
80
330
1F
100
AcDbEntity
  8
0
  6
PHANTOM
 62
     7
370
    25
100
AcDbLine
 10
272.6241632701
 20
117.5458164708
 30
0.0
 11
272.1934601069
 21
117.5458164708
 31
0.0
  0
LINE
  5
81
330
1F
100
AcDbEntity
  8
0
  6
PHANTOM
 62
     7
370
    25
100
AcDbLine
 10
276.1643662453
 20
113.5458162808
 30
0.0
 11
276.3643398286
 21
113.7458164067
 31
0.0
  0
LINE
  5
82
330
1F
100
AcDbEntity
  8
0
  6
PHANTOM
 62
     7
370
    25
100
AcDbLine
 10
276.3643398286
 20
117.3458163449
 30
0.0
 11
276.1643662453
 21
117.5458164708
 31
0.0
  0
LINE
  5
83
330
1F
100
AcDbEntity
  8
0
  6
PHANTOM
 62
     7
370
    25
100
AcDbLine
 10
266.9328584672
 20
122.8458165479
 30
0.0
 11
266.8345108033
 21
122.8458165479
 31
0.0
  0
LINE
  5
84
330
1F
100
AcDbEntity
  8
0
  6
PHANTOM
 62
     7
370
    25
100
AcDbLine
 10
266.8345108033
 20
115.2458163616
 30
0.0
 11
266.9328584672
 21
115.2458163616
 31
0.0
  0
LINE
  5
85
330
1F
100
AcDbEntity
  8
0
  6
PHANTOM
 62
     7
370
    25
100
AcDbLine
 10
272.3741664887
 20
117.7958162789
 30
0.0
 11
272.6241632701
 21
117.5458164708
 31
0.0
  0
LINE
  5
86
330
1F
100
AcDbEntity
  8
0
  6
PHANTOM
 62
     7
370
    25
100
AcDbLine
 10
276.1241629124
 20
117.5458164708
 30
0.0
 11
276.374174595
 21
117.7958162789
 31
0.0
  0
LINE
  5
87
330
1F
100
AcDbEntity
  8
0
  6
PHANTOM
 62
     7
370
    25
100
AcDbLine
 10
272.3741664887
 20
117.823958286
 30
0.0
 11
272.3741664887
 21
117.7958162789
 31
0.0
  0
LINE
  5
88
330
1F
100
AcDbEntity
  8
0
  6
PHANTOM
 62
     7
370
    25
100
AcDbLine
 10
276.374174595
 20
117.7958162789
 30
0.0
 11
276.374174595
 21
118.0439012879
 31
0.0
  0
LINE
  5
89
330
1F
100
AcDbEntity
  8
0
  6
PHANTOM
 62
     7
370
    25
100
AcDbLine
 10
276.374174595
 20
113.2958164727
 30
0.0
 11
276.1241629124
 21
113.5458162808
 31
0.0
  0
LINE
  5
8A
330
1F
100
AcDbEntity
  8
0
  6
PHANTOM
 62
     7
370
    25
100
AcDbLine
 10
272.6241632701
 20
113.5458162808
 30
0.0
 11
272.3741664887
 21
113.2958164727
 31
0.0
  0
LINE
  5
8B
330
1F
100
AcDbEntity
  8
0
  6
PHANTOM
 62
     7
370
    25
100
AcDbLine
 10
276.374174595
 20
113.1958164097
 30
0.0
 11
276.374174595
 21
113.2958164727
 31
0.0
  0
LINE
  5
8C
330
1F
100
AcDbEntity
  8
0
  6
PHANTOM
 62
     7
370
    25
100
AcDbLine
 10
272.3741664887
 20
113.2958164727
 30
0.0
 11
272.3741664887
 21
113.1958164097
 31
0.0
  0
LINE
  5
8D
330
1F
100
AcDbEntity
  8
0
  6
PHANTOM
 62
     7
370
    25
100
AcDbLine
 10
282.9264237882
 20
123.502715147
 30
0.0
 11
282.9264237882
 21
123.4584009563
 31
0.0
  0
LINE
  5
8E
330
1F
100
AcDbEntity
  8
0
  6
PHANTOM
 62
     7
370
    25
100
AcDbLine
 10
281.4433112145
 20
123.4781272997
 30
0.0
 11
281.4433112145
 21
123.5224414905
 31
0.0
  0
LINE
  5
8F
330
1F
100
AcDbEntity
  8
0
  6
PHANTOM
 62
     7
370
    25
100
AcDbLine
 10
280.4848685265
 20
123.5035905902
 30
0.0
 11
280.4848685265
 21
123.4682636623
 31
0.0
  0
LINE
  5
90
330
1F
100
AcDbEntity
  8
0
  6
PHANTOM
 62
     7
370
    25
100
AcDbLine
 10
283.8848664761
 20
123.4682636623
 30
0.0
 11
283.8848664761
 21
123.5035905902
 31
0.0
  0
LINE
  5
91
330
1F
100
AcDbEntity
  8
0
  6
PHANTOM
 62
     7
370
    25
100
AcDbLine
 10
283.4348812104
 20
107.8519263593
 30
0.0
 11
283.4348812104
 21
107.8635078212
 31
0.0
  0
LINE
  5
92
330
1F
100
AcDbEntity
  8
0
  6
PHANTOM
 62
     7
370
    25
100
AcDbLine
 10
272.1566095353
 20
126.043901435
 30
0.0
 11
270.8241626025
 21
126.043901435
 31
0.0
  0
LINE
  5
93
330
1F
100
AcDbEntity
  8
0
  6
PHANTOM
 62
     7
370
    25
100
AcDbLine
 10
277.6670589448
 20
126.043901435
 30
0.0
 11
276.5948011876
 21
126.043901435
 31
0.0
  0
LINE
  5
94
330
1F
100
AcDbEntity
  8
0
  6
PHANTOM
 62
     7
370
    25
100
AcDbLine
 10
276.5948011876
 20
105.0458165174
 30
0.0
 11
277.6670589448
 21
105.0458165174
 31
0.0
  0
LINE
  5
95
330
1F
100
AcDbEntity
  8
0
  6
PHANTOM
 62
     7
370
    25
100
AcDbLine
 10
270.8241626025
 20
105.0458165174
 30
0.0
 11
272.1566095353
 21
105.0458165174
 31
0.0
  0
LINE
  5
96
330
1F
100
AcDbEntity
  8
0
  6
PHANTOM
 62
     7
370
    25
100
AcDbLine
 10
249.4643464089
 20
125.5458161523
 30
0.0
 11
247.6643457414
 21
125.5458161523
 31
0.0
  0
LINE
  5
97
330
1F
100
AcDbEntity
  8
0
  6
PHANTOM
 62
     7
370
    25
100
AcDbLine
 10
268.3715655804
 20
125.5458161523
 30
0.0
 11
268.1771054269
 21
125.5458161523
 31
0.0
  0
LINE
  5
98
330
1F
100
AcDbEntity
  8
0
  6
PHANTOM
 62
     7
370
    25
100
AcDbLine
 10
266.9021322728
 20
125.5458161523
 30
0.0
 11
266.1562695504
 21
125.5458161523
 31
0.0
  0
LINE
  5
99
330
1F
100
AcDbEntity
  8
0
  6
PHANTOM
 62
     7
370
    25
100
AcDbLine
 10
265.4227747918
 20
125.5458161523
 30
0.0
 11
261.4643558265
 21
125.5458161523
 31
0.0
  0
LINE
  5
9A
330
1F
100
AcDbEntity
  8
0
  6
PHANTOM
 62
     7
370
    25
100
AcDbLine
 10
261.4643558265
 20
105.5458165993
 30
0.0
 11
270.5643459559
 21
105.5458165993
 31
0.0
  0
LINE
  5
9B
330
1F
100
AcDbEntity
  8
0
  6
PHANTOM
 62
     7
370
    25
100
AcDbLine
 10
247.6643457414
 20
105.5458165993
 30
0.0
 11
249.4643464089
 21
105.5458165993
 31
0.0
  0
LINE
  5
9C
330
1F
100
AcDbEntity
  8
0
  6
PHANTOM
 62
     7
370
    25
100
AcDbLine
 10
247.6643457414
 20
125.5458161523
 30
0.0
 11
247.464357257
 21
125.345816492
 31
0.0
  0
LINE
  5
9D
330
1F
100
AcDbEntity
  8
0
  6
PHANTOM
 62
     7
370
    25
100
AcDbLine
 10
247.464357257
 20
105.7458162596
 30
0.0
 11
247.6643457414
 21
105.5458165993
 31
0.0
  0
LINE
  5
9E
330
1F
100
AcDbEntity
  8
0
  6
PHANTOM
 62
     7
370
    25
100
AcDbLine
 10
270.5643459559
 20
105.5458165993
 30
0.0
 11
270.8241626025
 21
105.8056239327
 31
0.0
  0
LINE
  5
9F
330
1F
100
AcDbEntity
  8
0
  6
Continuous
 62
     7
370
    25
100
AcDbLine
 10
244.6643545628
 20
104.0458163535
 30
0.0
 11
247.464357257
 21
105.5458165993
 31
0.0
  0
LINE
  5
A0
330
1F
100
AcDbEntity
  8
0
  6
Continuous
 62
     7
370
    25
100
AcDbLine
 10
247.464357257
 20
125.5458161523
 30
0.0
 11
244.6643545628
 21
127.0458163982
 31
0.0
  0
LINE
  5
A1
330
1F
100
AcDbEntity
  8
0
  6
Continuous
 62
     7
370
    25
100
AcDbLine
 10
244.4643511773
 20
104.0458163535
 30
0.0
 11
244.6643545628
 21
104.0458163535
 31
0.0
  0
LINE
  5
A2
330
1F
100
AcDbEntity
  8
0
  6
Continuous
 62
     7
370
    25
100
AcDbLine
 10
244.6643545628
 20
127.0458163982
 30
0.0
 11
244.4643511773
 21
127.0458163982
 31
0.0
  0
LINE
  5
A3
330
1F
100
AcDbEntity
  8
0
  6
Continuous
 62
     7
370
    25
100
AcDbLine
 10
25.4643524169
 20
103.0458161895
 30
0.0
 11
89.4643499852
 21
103.0458161895
 31
0.0
  0
LINE
  5
A4
330
1F
100
AcDbEntity
  8
0
  6
Continuous
 62
     7
370
    25
100
AcDbLine
 10
89.4643499852
 20
128.0458165621
 30
0.0
 11
25.4643524169
 21
128.0458165621
 31
0.0
  0
LINE
  5
A5
330
1F
100
AcDbEntity
  8
0
  6
Continuous
 62
     7
370
    25
100
AcDbLine
 10
89.4643499852
 20
103.0458161895
 30
0.0
 11
90.8924996258
 21
104.0458163535
 31
0.0
  0
LINE
  5
A6
330
1F
100
AcDbEntity
  8
0
  6
Continuous
 62
     7
370
    25
100
AcDbLine
 10
90.8924996258
 20
127.0458163982
 30
0.0
 11
89.4643499852
 21
128.0458165621
 31
0.0
  0
LINE
  5
A7
330
1F
100
AcDbEntity
  8
0
  6
Continuous
 62
     7
370
    25
100
AcDbLine
 10
25.4643524169
 20
128.0458165621
 30
0.0
 11
24.4643523694
 21
127.0458163982
 31
0.0
  0
LINE
  5
A8
330
1F
100
AcDbEntity
  8
0
  6
Continuous
 62
     7
370
    25
100
AcDbLine
 10
24.4643523694
 20
104.0458163535
 30
0.0
 11
25.4643524169
 21
103.0458161895
 31
0.0
  0
LINE
  5
A9
330
1F
100
AcDbEntity
  8
0
  6
Continuous
 62
     7
370
    25
100
AcDbLine
 10
90.8924996258
 20
104.0458163535
 30
0.0
 11
244.4643511773
 21
104.0458163535
 31
0.0
  0
LINE
  5
AA
330
1F
100
AcDbEntity
  8
0
  6
Continuous
 62
     7
370
    25
100
AcDbLine
 10
244.4643511773
 20
127.0458163982
 30
0.0
 11
90.8924996258
 21
127.0458163982
 31
0.0
  0
LINE
  5
AB
330
1F
100
AcDbEntity
  8
0
  6
PHANTOM
 62
     7
370
    25
100
AcDbLine
 10
276.1643662453
 20
117.3804539777
 30
0.0
 11
276.1643662453
 21
117.5458164708
 31
0.0
  0
LINE
  5
AC
330
1F
100
AcDbEntity
  8
0
  6
PHANTOM
 62
     7
370
    25
100
AcDbLine
 10
276.1643662453
 20
113.5458162808
 30
0.0
 11
276.1643662453
 21
117.3804539777
 31
0.0
  0
LINE
  5
AD
330
1F
100
AcDbEntity
  8
0
  6
PHANTOM
 62
     7
370
    25
100
AcDbLine
 10
276.3643398286
 20
117.196990299
 30
0.0
 11
276.3643398286
 21
117.3458163449
 31
0.0
  0
LINE
  5
AE
330
1F
100
AcDbEntity
  8
0
  6
PHANTOM
 62
     7
370
    25
100
AcDbLine
 10
276.3643398286
 20
113.7458164067
 30
0.0
 11
276.3643398286
 21
117.196990299
 31
0.0
  0
LWPOLYLINE
  5
AF
330
1F
100
AcDbEntity
  8
0
  6
PHANTOM
 62
     7
370
    25
100
AcDbPolyline
 90
       17
 70
   128
 43
0.0
 10
269.2342534066
 20
118.9069432494
 10
269.1462620498
 20
119.64266806
 10
268.7930151225
 20
120.2875274522
 10
268.2282909156
 20
120.7433479195
 10
267.5380542279
 20
120.9407342886
 10
266.8273880483
 20
120.8496369709
 10
266.2045046092
 20
120.4839238254
 10
265.7642199994
 20
119.8992721093
 10
265.5735596419
 20
119.1846894854
 10
265.6615509988
 20
118.4489646749
 10
266.014797926
 20
117.8041050499
 10
266.5795370341
 20
117.3482848154
 10
267.2697737218
 20
117.1508983298
 10
267.9804250003
 20
117.2419959967
 10
268.6033084393
 20
117.6077089095
 10
269.0435930491
 20
118.1923606255
 10
269.2342534066
 20
118.9069432494
  0
LWPOLYLINE
  5
B0
330
1F
100
AcDbEntity
  8
0
  6
PHANTOM
 62
     7
370
    25
100
AcDbPolyline
 90
       24
 70
   128
 43
0.0
 10
270.593567133
 20
118.7680702479
 10
270.5301924945
 20
119.8008555276
 10
270.2000274659
 20
120.7776424763
 10
269.6275546552
 20
121.6259884005
 10
268.8552274705
 20
122.2829745439
 10
267.9403259755
 20
122.6998755065
 10
266.9506951571
 20
122.8457713788
 10
265.9597530366
 20
122.709842055
 10
265.0409772397
 20
122.3021691022
 10
264.2625256778
 20
121.6529869762
 10
263.6821105481
 20
120.8104431917
 10
263.3427813054
 20
119.8370248367
 10
263.2697209121
 20
118.8049261746
 10
263.4683384896
 20
117.7906933063
 10
263.9238967896
 20
116.8695472934
 10
264.6026297808
 20
116.1098051289
 10
265.4541715384
 20
115.5678134856
 10
266.4153858424
 20
115.2837693863
 10
267.4149855376
 20
115.2787391093
 10
268.3788224459
 20
115.5530957254
 10
269.2354156972
 20
116.0864914473
 10
269.9212416411
 20
116.8393667377
 10
270.3854277135
 20
117.7558844266
 10
270.593567133
 20
118.7680702479
  0
LINE
  5
B1
330
1F
100
AcDbEntity
  8
0
  6
PHANTOM
 62
     7
370
    25
100
AcDbLine
 10
267.5058081151
 20
120.4853315194
 30
0.0
 11
268.6590387822
 21
119.6742100929
 31
0.0
  0
LINE
  5
B2
330
1F
100
AcDbEntity
  8
0
  6
PHANTOM
 62
     7
370
    25
100
AcDbLine
 10
266.2506833077
 20
119.8569379104
 30
0.0
 11
267.5058081151
 21
120.4853315194
 31
0.0
  0
LINE
  5
B3
330
1F
100
AcDbEntity
  8
0
  6
PHANTOM
 62
     7
370
    25
100
AcDbLine
 10
266.1487742663
 20
118.4174226419
 30
0.0
 11
266.2506833077
 21
119.8569379104
 31
0.0
  0
LINE
  5
B4
330
1F
100
AcDbEntity
  8
0
  6
PHANTOM
 62
     7
370
    25
100
AcDbLine
 10
267.3020049334
 20
117.6063014482
 30
0.0
 11
266.1487742663
 21
118.4174226419
 31
0.0
  0
LINE
  5
B5
330
1F
100
AcDbEntity
  8
0
  6
PHANTOM
 62
     7
370
    25
100
AcDbLine
 10
268.5571297408
 20
118.2346950573
 30
0.0
 11
267.3020049334
 21
117.6063014482
 31
0.0
  0
LINE
  5
B6
330
1F
100
AcDbEntity
  8
0
  6
PHANTOM
 62
     7
370
    25
100
AcDbLine
 10
268.6590387822
 20
119.6742100929
 30
0.0
 11
268.5571297408
 21
118.2346950573
 31
0.0
  0
LINE
  5
B7
330
1F
100
AcDbEntity
  8
0
  6
PHANTOM
 62
     7
370
    25
100
AcDbLine
 10
268.2206764222
 20
118.2346950573
 30
0.0
 11
268.5571297408
 21
118.2346950573
 31
0.0
  0
LINE
  5
B8
330
1F
100
AcDbEntity
  8
0
  6
PHANTOM
 62
     7
370
    25
100
AcDbLine
 10
267.5931140185
 20
117.9204982528
 30
0.0
 11
267.162097931
 21
117.7047080183
 31
0.0
  0
LINE
  5
B9
330
1F
100
AcDbEntity
  8
0
  6
PHANTOM
 62
     7
370
    25
100
AcDbLine
 10
268.2206764222
 20
118.2346950573
 30
0.0
 11
267.5931140185
 21
117.9204982528
 31
0.0
  0
LINE
  5
BA
330
1F
100
AcDbEntity
  8
0
  6
PHANTOM
 62
     7
370
    25
100
AcDbLine
 10
268.3225705624
 20
119.6742100929
 30
0.0
 11
268.6590387822
 21
119.6742100929
 31
0.0
  0
LINE
  5
BB
330
1F
100
AcDbEntity
  8
0
  6
PHANTOM
 62
     7
370
    25
100
AcDbLine
 10
267.7459552289
 20
120.0797708062
 30
0.0
 11
268.3225705624
 21
119.6742100929
 31
0.0
  0
LINE
  5
BC
330
1F
100
AcDbEntity
  8
0
  6
PHANTOM
 62
     7
370
    25
100
AcDbLine
 10
267.3092617989
 20
120.3869247166
 30
0.0
 11
267.7459552289
 21
120.0797708062
 31
0.0
  0
LINE
  5
BD
330
1F
100
AcDbEntity
  8
0
  6
PHANTOM
 62
     7
370
    25
100
AcDbLine
 10
268.2716234923
 20
118.9544525751
 30
0.0
 11
268.2206764222
 21
118.2346950573
 31
0.0
  0
LINE
  5
BE
330
1F
100
AcDbEntity
  8
0
  6
PHANTOM
 62
     7
370
    25
100
AcDbLine
 10
268.3225705624
 20
119.6742100929
 30
0.0
 11
268.2716234923
 21
118.9544525751
 31
0.0
  0
ARC
  5
BF
330
1F
100
AcDbEntity
  8
0
  6
PHANTOM
 62
     7
370
    25
100
AcDbCircle
 10
266.9381840022
 20
119.0458164547
 30
0.0
 40
3.801414057996374
100
AcDbArc
 50
91.5627798619
 51
268.4372201381
  0
ARC
  5
C0
330
1F
100
AcDbEntity
  8
0
  6
PHANTOM
 62
     7
370
    25
100
AcDbCircle
 10
267.0234800121
 20
119.0339133897
 30
0.0
 40
1.250670287635624
100
AcDbArc
 50
297.0947266312
 51
356.3572830369
  0
ARC
  5
C1
330
1F
100
AcDbEntity
  8
0
  6
PHANTOM
 62
     7
370
    25
100
AcDbCircle
 10
267.0669345764
 20
118.9686153234
 30
0.0
 40
1.17278054174875
100
AcDbArc
 50
268.2826339162
 51
296.6577283212
  0
ARC
  5
C2
330
1F
100
AcDbEntity
  8
0
  6
PHANTOM
 62
     7
370
    25
100
AcDbCircle
 10
267.0656654529
 20
119.1171315515
 30
0.0
 40
1.178757190372819
100
AcDbArc
 50
54.7514443518
 51
87.139657201
  0
ARC
  5
C3
330
1F
100
AcDbEntity
  8
0
  6
PHANTOM
 62
     7
370
    25
100
AcDbCircle
 10
267.0100019959
 20
119.0505496062
 30
0.0
 40
1.265276032940039
100
AcDbArc
 50
355.6442220499
 51
54.4330190833
  0
LINE
  5
C4
330
1F
100
AcDbEntity
  8
0
  6
PHANTOM
 62
     7
370
    25
100
AcDbLine
 10
272.6241632701
 20
117.5458164708
 30
0.0
 11
276.1241629124
 21
117.5458164708
 31
0.0
  0
LINE
  5
C5
330
1F
100
AcDbEntity
  8
0
  6
PHANTOM
 62
     7
370
    25
100
AcDbLine
 10
272.3741664887
 20
117.7958162789
 30
0.0
 11
276.374174595
 21
117.7958162789
 31
0.0
  0
LINE
  5
C6
330
1F
100
AcDbEntity
  8
0
  6
PHANTOM
 62
     7
370
    25
100
AcDbLine
 10
272.8440597058
 20
113.5458162808
 30
0.0
 11
272.6241632701
 21
113.5458162808
 31
0.0
  0
LINE
  5
C7
330
1F
100
AcDbEntity
  8
0
  6
PHANTOM
 62
     7
370
    25
100
AcDbLine
 10
276.1241629124
 20
113.5458162808
 30
0.0
 11
272.8440597058
 21
113.5458162808
 31
0.0
  0
LINE
  5
C8
330
1F
100
AcDbEntity
  8
0
  6
PHANTOM
 62
     7
370
    25
100
AcDbLine
 10
272.6254745723
 20
113.2958164727
 30
0.0
 11
272.3741664887
 21
113.2958164727
 31
0.0
  0
LINE
  5
C9
330
1F
100
AcDbEntity
  8
0
  6
PHANTOM
 62
     7
370
    25
100
AcDbLine
 10
276.374174595
 20
113.2958164727
 30
0.0
 11
272.6254745723
 21
113.2958164727
 31
0.0
  0
ARC
  5
CA
330
1F
100
AcDbEntity
  8
0
  6
PHANTOM
 62
     7
370
    25
100
AcDbCircle
 10
285.0242001652
 20
104.3199357675
 30
0.0
 40
0.1077445449137062
100
AcDbArc
 50
259.9693691684
 51
359.9428083324
  0
ARC
  5
CB
330
1F
100
AcDbEntity
  8
0
  6
PHANTOM
 62
     7
370
    25
100
AcDbCircle
 10
285.0243458611
 20
104.1955849968
 30
0.0
 40
0.3998106916074928
100
AcDbArc
 50
259.969553595
 51
359.9546409778
  0
LINE
  5
CC
330
1F
100
AcDbEntity
  8
0
  6
PHANTOM
 62
     7
370
    25
100
AcDbLine
 10
285.0054337979
 20
104.2138381218
 30
0.0
 11
279.4554367066
 21
105.1911112209
 31
0.0
  0
LINE
  5
CD
330
1F
100
AcDbEntity
  8
0
  6
PHANTOM
 62
     7
370
    25
100
AcDbLine
 10
284.9547102452
 20
103.801885276
 30
0.0
 11
279.4047131539
 21
104.7791583752
 31
0.0
  0
LINE
  5
CE
330
1F
100
AcDbEntity
  8
0
  6
PHANTOM
 62
     7
370
    25
100
AcDbLine
 10
279.3663873673
 20
105.2971013178
 30
0.0
 11
279.3663873673
 21
105.3147759577
 31
0.0
  0
LINE
  5
CF
330
1F
100
AcDbEntity
  8
0
  6
PHANTOM
 62
     7
370
    25
100
AcDbLine
 10
284.9859132768
 20
110.0637415712
 30
0.0
 11
285.0428655148
 21
110.0537121584
 31
0.0
  0
ARC
  5
D0
330
1F
100
AcDbEntity
  8
0
  6
PHANTOM
 62
     7
370
    25
100
AcDbCircle
 10
285.0242714986
 20
109.9476566269
 30
0.0
 40
0.1076731777251066
100
AcDbArc
 50
0.0348194905
 51
80.055776705
  0
LINE
  5
D1
330
1F
100
AcDbEntity
  8
0
  6
PHANTOM
 62
     7
370
    25
100
AcDbLine
 10
285.1319446565
 20
109.9477220615
 30
0.0
 11
285.1319446565
 21
104.3198282187
 31
0.0
  0
ARC
  5
D2
330
1F
100
AcDbEntity
  8
0
  6
PHANTOM
 62
     7
370
    25
100
AcDbCircle
 10
279.4740521491
 20
105.2971544827
 30
0.0
 40
0.1076647949424261
100
AcDbArc
 50
180.0282926471
 51
260.0434180327
  0
LINE
  5
D3
330
1F
100
AcDbEntity
  8
0
  6
PHANTOM
 62
     7
370
    25
100
AcDbLine
 10
285.4241564275
 20
109.8231623237
 30
0.0
 11
285.4241564275
 21
104.195268481
 31
0.0
  0
ARC
  5
D4
330
1F
100
AcDbEntity
  8
0
  6
PHANTOM
 62
     7
370
    25
100
AcDbCircle
 10
279.4739000936
 20
105.1729576989
 30
0.0
 40
0.3998308892640615
100
AcDbArc
 50
198.4632884116
 51
260.0353521648
  0
ARC
  5
D5
330
1F
100
AcDbEntity
  8
0
  6
PHANTOM
 62
     7
370
    25
100
AcDbCircle
 10
285.0247977768
 20
109.8230633569
 30
0.0
 40
0.3993586628842262
100
AcDbArc
 50
0.0141987119
 51
58.7472005642
  0
LINE
  5
D6
330
1F
100
AcDbEntity
  8
0
  6
PHANTOM
 62
     7
370
    25
100
AcDbLine
 10
279.5436217786
 20
119.8958983933
 30
0.0
 11
285.0936188699
 21
120.8731719581
 31
0.0
  0
LINE
  5
D7
330
1F
100
AcDbEntity
  8
0
  6
PHANTOM
 62
     7
370
    25
100
AcDbLine
 10
279.4741525651
 20
120.2771953595
 30
0.0
 11
279.5436217786
 21
119.8958983933
 31
0.0
  0
LINE
  5
D8
330
1F
100
AcDbEntity
  8
0
  6
PHANTOM
 62
     7
370
    25
100
AcDbLine
 10
279.5612945557
 20
120.3782699359
 30
0.0
 11
279.4741525651
 21
120.2771953595
 31
0.0
  0
SPLINE
  5
D9
330
1F
100
AcDbEntity
  8
0
  6
PHANTOM
 62
     7
370
    25
100
AcDbSpline
210
0.0
220
0.0
230
1.0
 70
     8
 71
     3
 72
    11
 73
     7
 74
     0
 42
0.000000001
 43
0.00000001
 40
0.0
 40
0.0
 40
0.0
 40
0.0
 40
0.3473418347380375
 40
0.6933861979523614
 40
0.9925292431403305
 40
1.0
 40
1.0
 40
1.0
 40
1.0
 10
279.5612945557438
 20
120.378269935886
 30
0.0
 10
279.6131534195819
 20
120.4389319790063
 30
0.0
 10
279.7166774320406
 20
120.5600294663591
 30
0.0
 10
279.8699158847309
 20
120.744272004593
 30
0.0
 10
279.961816331816
 20
120.8573172822877
 30
0.0
 10
280.0025680885942
 20
120.9073969544994
 30
0.0
 10
280.0035610199772
 20
120.9086171639362
 30
0.0
  0
LINE
  5
DA
330
1F
100
AcDbEntity
  8
0
  6
PHANTOM
 62
     7
370
    25
100
AcDbLine
 10
279.4741525651
 20
120.2771953595
 30
0.0
 11
279.074145794
 21
120.2892815982
 31
0.0
  0
LINE
  5
DB
330
1F
100
AcDbEntity
  8
0
  6
PHANTOM
 62
     7
370
    25
100
AcDbLine
 10
279.074145794
 20
125.9171763723
 30
0.0
 11
279.074145794
 21
120.2892815982
 31
0.0
  0
SPLINE
  5
DC
330
1F
100
AcDbEntity
  8
0
  6
PHANTOM
 62
     7
370
    25
100
AcDbSpline
210
0.0
220
0.0
230
1.0
 70
     8
 71
     3
 72
    12
 73
     8
 74
     0
 42
0.000000001
 43
0.00000001
 40
0.0
 40
0.0
 40
0.0
 40
0.0
 40
0.0087636767466157
 40
0.4338901122373506
 40
0.5772446995561745
 40
0.9518130200409368
 40
1.0
 40
1.0
 40
1.0
 40
1.0
 10
284.5705881119571
 20
121.6395172578493
 30
0.0
 10
284.5718389022391
 20
121.6384214651824
 30
0.0
 10
284.6337655971103
 20
121.5841687106668
 30
0.0
 10
284.7250285249168
 20
121.5052950151465
 30
0.0
 10
284.8789030991055
 20
121.3750363093111
 30
0.0
 10
284.9740610637456
 20
121.2958565337198
 30
0.0
 10
285.0405606892454
 20
121.2415082679926
 30
0.0
 10
285.0481405258976
 20
121.2353134815791
 30
0.0
  0
SPLINE
  5
DD
330
1F
100
AcDbEntity
  8
0
  6
PHANTOM
 62
     7
370
    25
100
AcDbSpline
210
0.0
220
0.0
230
1.0
 70
     8
 71
     3
 72
    10
 73
     6
 74
     0
 42
0.000000001
 43
0.00000001
 40
0.0
 40
0.0
 40
0.0
 40
0.0
 40
0.3658196347256648
 40
0.9379679196411869
 40
1.0
 40
1.0
 40
1.0
 40
1.0
 10
285.0481405258976
 20
121.2353134815791
 30
0.0
 10
285.0493130782926
 20
121.2254318250845
 30
0.0
 10
285.0523195230708
 20
121.200095085596
 30
0.0
 10
285.0467448012188
 20
121.1736411075619
 30
0.0
 10
285.0425596298406
 20
121.1573369921781
 30
0.0
 10
285.0421502590977
 20
121.1557422121265
 30
0.0
  0
SPLINE
  5
DE
330
1F
100
AcDbEntity
  8
0
  6
PHANTOM
 62
     7
370
    25
100
AcDbSpline
210
0.0
220
0.0
230
1.0
 70
     8
 71
     3
 72
    10
 73
     6
 74
     0
 42
0.000000001
 43
0.00000001
 40
0.0
 40
0.0
 40
0.0
 40
0.0
 40
0.0621007595502518
 40
0.634292367900737
 40
0.9999999999999999
 40
0.9999999999999999
 40
0.9999999999999999
 40
0.9999999999999999
 10
285.1277425289951
 20
121.2575981681445
 30
0.0
 10
285.1261947785011
 20
121.2568573505871
 30
0.0
 10
285.1103861743426
 20
121.2492906971992
 30
0.0
 10
285.084490789628
 20
121.2384092090171
 30
0.0
 10
285.0583380548881
 20
121.2361819421364
 30
0.0
 10
285.0481405258976
 20
121.2353134815791
 30
0.0
  0
LINE
  5
DF
330
1F
100
AcDbEntity
  8
0
  6
PHANTOM
 62
     7
370
    25
100
AcDbLine
 10
285.0241496564
 20
126.8823627671
 30
0.0
 11
285.4241564275
 21
126.8944494714
 31
0.0
  0
LINE
  5
E0
330
1F
100
AcDbEntity
  8
0
  6
PHANTOM
 62
     7
370
    25
100
AcDbLine
 10
285.4241564275
 20
121.266555163
 30
0.0
 11
285.4241564275
 21
126.8944494714
 31
0.0
  0
LINE
  5
E1
330
1F
100
AcDbEntity
  8
0
  6
PHANTOM
 62
     7
370
    25
100
AcDbLine
 10
284.9370076657
 20
126.7760224928
 30
0.0
 11
285.0241496564
 21
126.8823627671
 31
0.0
  0
ARC
  5
E2
330
1F
100
AcDbEntity
  8
0
  6
PHANTOM
 62
     7
370
    25
100
AcDbCircle
 10
280.8737403002
 20
121.9563013912
 30
0.0
 40
0.9995813264127807
100
AcDbArc
 50
180.0487854822
 51
280.0284524304
  0
ARC
  5
E3
330
1F
100
AcDbEntity
  8
0
  6
PHANTOM
 62
     7
370
    25
100
AcDbCircle
 10
279.4739988878
 20
120.289643591
 30
0.0
 40
0.3998532576176926
100
AcDbArc
 50
180.0518706782
 51
280.0275158823
  0
ARC
  5
E4
330
1F
100
AcDbEntity
  8
0
  6
PHANTOM
 62
     7
370
    25
100
AcDbCircle
 10
283.6251014312
 20
122.4402564474
 30
0.0
 40
0.9990714198932693
100
AcDbArc
 50
279.9549028354
 51
359.9672242506
  0
ARC
  5
E5
330
1F
100
AcDbEntity
  8
0
  6
PHANTOM
 62
     7
370
    25
100
AcDbCircle
 10
285.0245635734
 20
121.2667527682
 30
0.0
 40
0.3995929029117735
100
AcDbArc
 50
279.9514785098
 51
359.9716663059
  0
LINE
  5
E6
330
1F
100
AcDbEntity
  8
0
  6
PHANTOM
 62
     7
370
    25
100
AcDbLine
 10
281.0478045941
 20
120.9719922682
 30
0.0
 11
283.7978138924
 21
121.4562269216
 31
0.0
  0
LINE
  5
E7
330
1F
100
AcDbEntity
  8
0
  6
PHANTOM
 62
     7
370
    25
100
AcDbLine
 10
279.8741593362
 20
124.7440461357
 30
0.0
 11
279.8741593362
 21
121.9554502805
 31
0.0
  0
ARC
  5
E8
330
1F
100
AcDbEntity
  8
0
  6
PHANTOM
 62
     7
370
    25
100
AcDbCircle
 10
280.8731832288
 20
124.7435144201
 30
0.0
 40
0.9990240341074421
100
AcDbArc
 50
99.9526219136
 51
179.9695051724
  0
LINE
  5
E9
330
1F
100
AcDbEntity
  8
0
  6
PHANTOM
 62
     7
370
    25
100
AcDbLine
 10
283.4504976273
 20
126.2117388015
 30
0.0
 11
280.7005181313
 21
125.7275041481
 31
0.0
  0
ARC
  5
EA
330
1F
100
AcDbEntity
  8
0
  6
PHANTOM
 62
     7
370
    25
100
AcDbCircle
 10
283.6245837263
 20
125.2274254096
 30
0.0
 40
0.9995893273280652
100
AcDbArc
 50
0.0490297795
 51
100.0296405757
  0
LINE
  5
EB
330
1F
100
AcDbEntity
  8
0
  6
PHANTOM
 62
     7
370
    25
100
AcDbLine
 10
284.6241726876
 20
122.4396849339
 30
0.0
 11
284.6241726876
 21
125.2282807891
 31
0.0
  0
CIRCLE
  5
EC
330
1F
100
AcDbEntity
  8
0
  6
PHANTOM
 62
     7
370
    25
100
AcDbCircle
 10
282.2508491105
 20
123.5925538011
 30
0.0
 40
1.923308632016085
  0
ARC
  5
ED
330
1F
100
AcDbEntity
  8
0
  6
PHANTOM
 62
     7
370
    25
100
AcDbCircle
 10
282.2491660119
 20
123.550864723
 30
0.0
 40
1.92499240205602
100
AcDbArc
 50
0.0520523116
 51
179.9479476884
  0
SPLINE
  5
EE
330
1F
100
AcDbEntity
  8
0
  6
PHANTOM
 62
     7
370
    25
100
AcDbSpline
210
0.0
220
0.0
230
1.0
 70
     8
 71
     3
 72
    10
 73
     6
 74
     0
 42
0.000000001
 43
0.00000001
 40
0.0
 40
0.0
 40
0.0
 40
0.0
 40
0.062119196349948
 40
0.6341941470017718
 40
1.0
 40
1.0
 40
1.0
 40
1.0
 10
279.3705894947849
 20
125.9082189117768
 30
0.0
 10
279.3721372649726
 20
125.9088667463315
 30
0.0
 10
279.3879389309895
 20
125.9154806902807
 30
0.0
 10
279.4138167980869
 20
125.9248655151439
 30
0.0
 10
279.4399635577219
 20
125.925780631269
 30
0.0
 10
279.45016169556
 20
125.9261375581124
 30
0.0
  0
SPLINE
  5
EF
330
1F
100
AcDbEntity
  8
0
  6
PHANTOM
 62
     7
370
    25
100
AcDbSpline
210
0.0
220
0.0
230
1.0
 70
     8
 71
     3
 72
    12
 73
     8
 74
     0
 42
0.000000001
 43
0.00000001
 40
0.0
 40
0.0
 40
0.0
 40
0.0
 40
0.0481857142120259
 40
0.4227758059811164
 40
0.5661252749547674
 40
0.9912363863476723
 40
1.0
 40
1.0
 40
1.0
 40
1.0
 10
279.45016169556
 20
125.9261375581124
 30
0.0
 10
279.4577414779162
 20
125.9196265601957
 30
0.0
 10
279.5242455994641
 20
125.8624998279894
 30
0.0
 10
279.6194252600595
 20
125.7822008198574
 30
0.0
 10
279.7733021260672
 20
125.6546038300567
 30
0.0
 10
279.8645682081022
 20
125.5803831228255
 30
0.0
 10
279.9264931221574
 20
125.5309824193799
 30
0.0
 10
279.9277439118229
 20
125.5299845998385
 30
0.0
  0
SPLINE
  5
F0
330
1F
100
AcDbEntity
  8
0
  6
PHANTOM
 62
     7
370
    25
100
AcDbSpline
210
0.0
220
0.0
230
1.0
 70
     8
 71
     3
 72
    11
 73
     7
 74
     0
 42
0.000000001
 43
0.00000001
 40
0.0
 40
0.0
 40
0.0
 40
0.0
 40
0.0074471183766087
 40
0.3065976460905759
 40
0.6526494965336698
 40
1.0
 40
1.0
 40
1.0
 40
1.0
 10
284.4947710038028
 20
126.2536958147981
 30
0.0
 10
284.4957539105994
 20
126.2548235641924
 30
0.0
 10
284.5362201547102
 20
126.3012529738203
 30
0.0
 10
284.6285280544017
 20
126.4076972440177
 30
0.0
 10
284.7815873418499
 20
126.5878438057501
 30
0.0
 10
284.8851362465192
 20
126.7132179939218
 30
0.0
 10
284.9370076657138
 20
126.7760224928358
 30
0.0
  0
SPLINE
  5
F1
330
1F
100
AcDbEntity
  8
0
  6
PHANTOM
 62
     7
370
    25
100
AcDbSpline
210
0.0
220
0.0
230
1.0
 70
     8
 71
     3
 72
    10
 73
     6
 74
     0
 42
0.000000001
 43
0.00000001
 40
0.0
 40
0.0
 40
0.0
 40
0.0
 40
0.3657935817050035
 40
0.9379020859551978
 40
0.9999999999999999
 40
0.9999999999999999
 40
0.9999999999999999
 40
0.9999999999999999
 10
279.4501616955601
 20
125.9261375581124
 30
0.0
 10
279.4489948324236
 20
125.9365289511039
 30
0.0
 10
279.4460029719198
 20
125.9631726913175
 30
0.0
 10
279.4514740169602
 20
125.9911495145091
 30
0.0
 10
279.4557619176416
 20
126.0083870641908
 30
0.0
 10
279.4561817646824
 20
126.0100748677948
 30
0.0
  0
LINE
  5
F2
330
1F
100
AcDbEntity
  8
0
  6
PHANTOM
 62
     7
370
    25
100
AcDbLine
 10
284.9547102452
 20
127.2878326764
 30
0.0
 11
279.4047131539
 21
126.3105595772
 31
0.0
  0
LINE
  5
F3
330
1F
100
AcDbEntity
  8
0
  6
PHANTOM
 62
     7
370
    25
100
AcDbLine
 10
285.0241496564
 20
126.8823627671
 30
0.0
 11
284.9547102452
 21
127.2878326764
 31
0.0
  0
ARC
  5
F4
330
1F
100
AcDbEntity
  8
0
  6
PHANTOM
 62
     7
370
    25
100
AcDbCircle
 10
279.4737920289
 20
125.9169286797
 30
0.0
 40
0.3996463117049103
100
AcDbArc
 50
99.9535670701
 51
179.9644892489
  0
ARC
  5
F5
330
1F
100
AcDbEntity
  8
0
  6
PHANTOM
 62
     7
370
    25
100
AcDbCircle
 10
285.0243458611
 20
126.8941329556
 30
0.0
 40
0.3998106916074928
100
AcDbArc
 50
0.0453590222
 51
100.030446405
  0
CIRCLE
  5
F6
330
1F
100
AcDbEntity
  8
0
  6
PHANTOM
 62
     7
370
    25
100
AcDbCircle
 10
282.1831891614
 20
123.5051358256
 30
0.0
 40
1.698738246436969
  0
CIRCLE
  5
F7
330
1F
100
AcDbEntity
  8
0
  6
PHANTOM
 62
     7
370
    25
100
AcDbCircle
 10
282.1837744133
 20
123.516357384
 30
0.0
 40
1.099174006144057
  0
CIRCLE
  5
F8
330
1F
100
AcDbEntity
  8
0
  6
PHANTOM
 62
     7
370
    25
100
AcDbCircle
 10
282.1838520683
 20
123.516304118
 30
0.0
 40
1.049225208372478
  0
SPLINE
  5
F9
330
1F
100
AcDbEntity
  8
0
  6
PHANTOM
 62
     7
370
    25
100
AcDbSpline
210
0.0
220
0.0
230
1.0
 70
     8
 71
     3
 72
    16
 73
    12
 74
     0
 42
0.000000001
 43
0.00000001
 40
0.0
 40
0.0
 40
0.0
 40
0.0
 40
0.1242364335652959
 40
0.248987767884347
 40
0.3727515367520648
 40
0.4952996768926303
 40
0.617171234105698
 40
0.7391061504140324
 40
0.861665862853411
 40
0.9853878808333706
 40
1.0
 40
1.0
 40
1.0
 40
1.0
 10
282.3929324150882
 20
124.382341868172
 30
0.0
 10
282.3855874110973
 20
124.4045467395754
 30
0.0
 10
282.3708669615776
 20
124.4490485109821
 30
0.0
 10
282.3223738636696
 20
124.5018948806751
 30
0.0
 10
282.2606555643721
 20
124.5361510937854
 30
0.0
 10
282.1911689867969
 20
124.547656115177
 30
0.0
 10
282.1222659973253
 20
124.5356065155386
 30
0.0
 10
282.0611855809772
 20
124.5015568532276
 30
0.0
 10
282.0146085727376
 20
124.4492195095555
 30
0.0
 10
281.9954401164529
 20
124.4033017663146
 30
0.0
 10
281.9902547220545
 20
124.3780536849002
 30
0.0
 10
281.9897069931827
 20
124.3753867511847
 30
0.0
  0
SPLINE
  5
FA
330
1F
100
AcDbEntity
  8
0
  6
PHANTOM
 62
     7
370
    25
100
AcDbSpline
210
0.0
220
0.0
230
1.0
 70
     8
 71
     3
 72
    12
 73
     8
 74
     0
 42
0.000000001
 43
0.00000001
 40
0.0
 40
0.0
 40
0.0
 40
0.0
 40
0.2093453438385571
 40
0.419233129353305
 40
0.6249212815680005
 40
0.8281613449044197
 40
1.0
 40
1.0
 40
1.0
 40
1.0
 10
281.9897069931827
 20
124.3753867511847
 30
0.0
 10
281.9752592639197
 20
124.3376021979686
 30
0.0
 10
281.9463263694022
 20
124.2619351867249
 30
0.0
 10
281.8587221696757
 20
124.1744340999947
 30
0.0
 10
281.7509011788145
 20
124.1206945388702
 30
0.0
 10
281.6378831025615
 20
124.1043713329575
 30
0.0
 10
281.5678656387568
 20
124.1206139969983
 30
0.0
 10
281.5357878208957
 20
124.1280554150441
 30
0.0
  0
SPLINE
  5
FB
330
1F
100
AcDbEntity
  8
0
  6
PHANTOM
 62
     7
370
    25
100
AcDbSpline
210
0.0
220
0.0
230
1.0
 70
     8
 71
     3
 72
    16
 73
    12
 74
     0
 42
0.000000001
 43
0.00000001
 40
0.0
 40
0.0
 40
0.0
 40
0.0
 40
0.1231882601649038
 40
0.2479417898969965
 40
0.3717065745234045
 40
0.4942609327538069
 40
0.6161741569423059
 40
0.7380771559961942
 40
0.8606222197938842
 40
0.9843369680476792
 40
1.0
 40
1.0
 40
1.0
 40
1.0
 10
281.5357878208957
 20
124.1280554150441
 30
0.0
 10
281.5132180329836
 20
124.1328855983307
 30
0.0
 10
281.467791678191
 20
124.1426073387629
 30
0.0
 10
281.3982327784137
 20
124.1274871079796
 30
0.0
 10
281.3377613883534
 20
124.0915684994969
 30
0.0
 10
281.2929794539921
 20
124.037363997969
 30
0.0
 10
281.2686684855271
 20
123.9717846314601
 30
0.0
 10
281.2672950646311
 20
123.9017988074354
 30
0.0
 10
281.2888442706972
 20
123.8351208096996
 30
0.0
 10
281.318684103967
 20
123.795062900135
 30
0.0
 10
281.3379952264632
 20
123.7777714671009
 30
0.0
 10
281.3401653767429
 20
123.775828286002
 30
0.0
  0
SPLINE
  5
FC
330
1F
100
AcDbEntity
  8
0
  6
PHANTOM
 62
     7
370
    25
100
AcDbSpline
210
0.0
220
0.0
230
1.0
 70
     8
 71
     3
 72
    12
 73
     8
 74
     0
 42
0.000000001
 43
0.00000001
 40
0.0
 40
0.0
 40
0.0
 40
0.0
 40
0.2093558925044028
 40
0.419255027591901
 40
0.624950039769999
 40
0.8281841482353187
 40
1.0
 40
1.0
 40
1.0
 40
1.0
 10
281.3401653767429
 20
123.775828286002
 30
0.0
 10
281.3654340989031
 20
123.744280675167
 30
0.0
 10
281.4160371112176
 20
123.6811035928656
 30
0.0
 10
281.4477057314369
 20
123.5613648192672
 30
0.0
 10
281.4405122349021
 20
123.4412892057524
 30
0.0
 10
281.3986128748039
 20
123.3356827438138
 30
0.0
 10
281.3500259766503
 20
123.2835322521648
 30
0.0
 10
281.3277676106296
 20
123.2596413520375
 30
0.0
  0
SPLINE
  5
FD
330
1F
100
AcDbEntity
  8
0
  6
PHANTOM
 62
     7
370
    25
100
AcDbSpline
210
0.0
220
0.0
230
1.0
 70
     8
 71
     3
 72
    16
 73
    12
 74
     0
 42
0.000000001
 43
0.00000001
 40
0.0
 40
0.0
 40
0.0
 40
0.0
 40
0.1243756811856558
 40
0.2491458532930927
 40
0.3728838157853673
 40
0.495426288776638
 40
0.617335671843581
 40
0.7392654822371306
 40
0.8618352131871737
 40
0.9855478460994899
 40
1.0
 40
1.0
 40
1.0
 40
1.0
 10
281.3277676106296
 20
123.2596413520375
 30
0.0
 10
281.3123129457191
 20
123.2424492476721
 30
0.0
 10
281.2813545972722
 20
123.2080105095588
 30
0.0
 10
281.260206552904
 20
123.1401925620028
 30
0.0
 10
281.2615698748276
 20
123.0700780369041
 30
0.0
 10
281.2864113751295
 20
123.0043464003453
 30
0.0
 10
281.3312611135648
 20
122.9506590529394
 30
0.0
 10
281.3911389471089
 20
122.9145059900862
 30
0.0
 10
281.4594542515159
 20
122.8998285271491
 30
0.0
 10
281.5085225228741
 20
122.9055938073719
 30
0.0
 10
281.5327742341648
 20
122.9134586597672
 30
0.0
 10
281.5353109837376
 20
122.9142813299993
 30
0.0
  0
SPLINE
  5
FE
330
1F
100
AcDbEntity
  8
0
  6
PHANTOM
 62
     7
370
    25
100
AcDbSpline
210
0.0
220
0.0
230
1.0
 70
     8
 71
     3
 72
    12
 73
     8
 74
     0
 42
0.000000001
 43
0.00000001
 40
0.0
 40
0.0
 40
0.0
 40
0.0
 40
0.2092500439053556
 40
0.4191717582624516
 40
0.6248264974105632
 40
0.828055371909416
 40
1.0
 40
1.0
 40
1.0
 40
1.0
 10
281.5353109837375
 20
122.9142813299993
 30
0.0
 10
281.5750176878387
 20
122.920210142926
 30
0.0
 10
281.6545585503509
 20
122.9320867996402
 30
0.0
 10
281.7738355750305
 20
122.8994325775639
 30
0.0
 10
281.8744169499067
 20
122.833182977554
 30
0.0
 10
281.945607862447
 20
122.7444565957367
 30
0.0
 10
281.9670193541863
 20
122.6766091599679
 30
0.0
 10
281.9768323899112
 20
122.64551420782
 30
0.0
  0
SPLINE
  5
FF
330
1F
100
AcDbEntity
  8
0
  6
PHANTOM
 62
     7
370
    25
100
AcDbSpline
210
0.0
220
0.0
230
1.0
 70
     8
 71
     3
 72
    16
 73
    12
 74
     0
 42
0.000000001
 43
0.00000001
 40
0.0
 40
0.0
 40
0.0
 40
0.0
 40
0.1242146887852197
 40
0.2489992229240814
 40
0.3727612199300823
 40
0.4953073975044885
 40
0.6171771116575759
 40
0.7391099214833904
 40
0.8616683884922439
 40
0.985387897829736
 40
1.0
 40
1.0
 40
1.0
 40
1.0
 10
281.9768323899112
 20
122.64551420782
 30
0.0
 10
281.9841638560504
 20
122.6236732014778
 30
0.0
 10
281.9988604220475
 20
122.579890991336
 30
0.0
 10
282.047393529102
 20
122.5278735553589
 30
0.0
 10
282.1091069438601
 20
122.4941082742444
 30
0.0
 10
282.1785964714448
 20
122.4827641411258
 30
0.0
 10
282.2474985235178
 20
122.4946290723366
 30
0.0
 10
282.308579549509
 20
122.5281634898279
 30
0.0
 10
282.3551559045695
 20
122.5796863969021
 30
0.0
 10
282.3743247953689
 20
122.6248529860122
 30
0.0
 10
282.379510084682
 20
122.6496704184225
 30
0.0
 10
282.3800578118168
 20
122.6522919078567
 30
0.0
  0
SPLINE
  5
100
330
1F
100
AcDbEntity
  8
0
  6
PHANTOM
 62
     7
370
    25
100
AcDbSpline
210
0.0
220
0.0
230
1.0
 70
     8
 71
     3
 72
    12
 73
     8
 74
     0
 42
0.000000001
 43
0.00000001
 40
0.0
 40
0.0
 40
0.0
 40
0.0
 40
0.2093442540258292
 40
0.4192323804296351
 40
0.62492056485495
 40
0.8281610854399855
 40
1.0
 40
1.0
 40
1.0
 40
1.0
 10
282.3800578118168
 20
122.6522919078567
 30
0.0
 10
282.3945056026155
 20
122.6894648489203
 30
0.0
 10
282.4234387192977
 20
122.7639073056391
 30
0.0
 10
282.5110425067945
 20
122.8504911972791
 30
0.0
 10
282.6188637940223
 20
122.9044045229976
 30
0.0
 10
282.7318816390326
 20
122.9218376361562
 30
0.0
 10
282.8018991551406
 20
122.9067245644922
 30
0.0
 10
282.8339769841037
 20
122.8998006609478
 30
0.0
  0
SPLINE
  5
101
330
1F
100
AcDbEntity
  8
0
  6
PHANTOM
 62
     7
370
    25
100
AcDbSpline
210
0.0
220
0.0
230
1.0
 70
     8
 71
     3
 72
    16
 73
    12
 74
     0
 42
0.000000001
 43
0.00000001
 40
0.0
 40
0.0
 40
0.0
 40
0.0
 40
0.12318841907067
 40
0.2479420616804802
 40
0.3717071112096926
 40
0.4942614100010816
 40
0.6161753015758127
 40
0.7380783617053803
 40
0.8606228484645821
 40
0.9843365929316921
 40
0.9999999999999999
 40
0.9999999999999999
 40
0.9999999999999999
 40
0.9999999999999999
 10
282.8339769841038
 20
122.8998006609478
 30
0.0
 10
282.8565467669293
 20
122.8953333795107
 30
0.0
 10
282.901973102681
 20
122.8863420556672
 30
0.0
 10
282.9715320902074
 20
122.9022660769259
 30
0.0
 10
283.0320033138716
 20
122.9386902522035
 30
0.0
 10
283.0767854900643
 20
122.9930564559305
 30
0.0
 10
283.1010962643967
 20
123.0584542576466
 30
0.0
 10
283.1024697191839
 20
123.1279273975872
 30
0.0
 10
283.080920821094
 20
123.1937930529052
 30
0.0
 10
283.0510801159738
 20
123.2330964516721
 30
0.0
 10
283.0317695749515
 20
123.2499552869427
 30
0.0
 10
283.0295994282566
 20
123.2518499073782
 30
0.0
  0
SPLINE
  5
102
330
1F
100
AcDbEntity
  8
0
  6
PHANTOM
 62
     7
370
    25
100
AcDbSpline
210
0.0
220
0.0
230
1.0
 70
     8
 71
     3
 72
    12
 73
     8
 74
     0
 42
0.000000001
 43
0.00000001
 40
0.0
 40
0.0
 40
0.0
 40
0.0
 40
0.2093559655934514
 40
0.419255973940675
 40
0.6249505466942611
 40
0.8281834836441185
 40
1.0
 40
1.0
 40
1.0
 40
1.0
 10
283.0295994282566
 20
123.2518499073782
 30
0.0
 10
283.0043306953604
 20
123.2827862663502
 30
0.0
 10
282.9537275649905
 20
123.3447393770447
 30
0.0
 10
282.9220591741297
 20
123.4635609801055
 30
0.0
 10
282.9292524253315
 20
123.5838111968654
 30
0.0
 10
282.9711522767485
 20
123.6905249322065
 30
0.0
 10
283.0197388575514
 20
123.7438058374721
 30
0.0
 10
283.0419971943699
 20
123.7682147239545
 30
0.0
  0
SPLINE
  5
103
330
1F
100
AcDbEntity
  8
0
  6
PHANTOM
 62
     7
370
    25
100
AcDbSpline
210
0.0
220
0.0
230
1.0
 70
     8
 71
     3
 72
    16
 73
    12
 74
     0
 42
0.000000001
 43
0.00000001
 40
0.0
 40
0.0
 40
0.0
 40
0.0
 40
0.1243771138611414
 40
0.2491497420320472
 40
0.372889054094059
 40
0.4954527686979294
 40
0.6173298785964275
 40
0.7392613495162056
 40
0.8618331378573196
 40
0.9855477170300128
 40
1.0
 40
1.0
 40
1.0
 40
1.0
 10
283.0419971943699
 20
123.7682147239545
 30
0.0
 10
283.057452115186
 20
123.785773412539
 30
0.0
 10
283.088411102856
 20
123.8209466256443
 30
0.0
 10
283.1095552543069
 20
123.8895654509807
 30
0.0
 10
283.1082056639258
 20
123.9601922426396
 30
0.0
 10
283.0833126260924
 20
124.0260563228503
 30
0.0
 10
283.0385076786131
 20
124.0795863042698
 30
0.0
 10
282.9786231672654
 20
124.1152113478381
 30
0.0
 10
282.9103112893758
 20
124.1290768902787
 30
0.0
 10
282.8612424248763
 20
124.1225598332054
 30
0.0
 10
282.8369905703671
 20
124.1142649731558
 30
0.0
 10
282.8344538212619
 20
124.1133973290422
 30
0.0
  0
SPLINE
  5
104
330
1F
100
AcDbEntity
  8
0
  6
PHANTOM
 62
     7
370
    25
100
AcDbSpline
210
0.0
220
0.0
230
1.0
 70
     8
 71
     3
 72
    12
 73
     8
 74
     0
 42
0.000000001
 43
0.00000001
 40
0.0
 40
0.0
 40
0.0
 40
0.0
 40
0.2092499755841108
 40
0.4191714907196595
 40
0.6248260955373198
 40
0.8280552734628028
 40
1.0
 40
1.0
 40
1.0
 40
1.0
 10
282.8344538212619
 20
124.1133973290422
 30
0.0
 10
282.7947471234443
 20
124.1068574988059
 30
0.0
 10
282.7152062983171
 20
124.0937568502559
 30
0.0
 10
282.5959292176352
 20
124.1254930433027
 30
0.0
 10
282.4953477404119
 20
124.1919166192879
 30
0.0
 10
282.4241569811277
 20
124.2817506782514
 30
0.0
 10
282.4027454595811
 20
124.3507287523632
 30
0.0
 10
282.3929324150882
 20
124.382341868172
 30
0.0
  0
ARC
  5
105
330
1F
100
AcDbEntity
  8
0
  6
PHANTOM
 62
     7
370
    25
100
AcDbCircle
 10
282.8950676962
 20
123.0504988668
 30
0.0
 40
0.2058269998663438
100
AcDbArc
 50
6.5639447342
 51
49.185241618
  0
LINE
  5
106
330
1F
100
AcDbEntity
  8
0
  6
PHANTOM
 62
     7
370
    25
100
AcDbLine
 10
283.0295994283
 20
123.2062742402
 30
0.0
 11
283.0295994283
 21
123.2518499074
 31
0.0
  0
ARC
  5
107
330
1F
100
AcDbEntity
  8
0
  6
PHANTOM
 62
     7
370
    25
100
AcDbCircle
 10
281.4649042683
 20
123.0642614256
 30
0.0
 40
0.2030302409482639
100
AcDbArc
 50
132.4890596513
 51
172.3887487043
  0
ARC
  5
108
330
1F
100
AcDbEntity
  8
0
  6
PHANTOM
 62
     7
370
    25
100
AcDbCircle
 10
283.2863065378
 20
123.4584984716
 30
0.0
 40
0.3598827628338523
100
AcDbArc
 50
180.0155251028
 51
224.4953280874
  0
ARC
  5
109
330
1F
100
AcDbEntity
  8
0
  6
PHANTOM
 62
     7
370
    25
100
AcDbCircle
 10
281.0839917743
 20
123.4779541623
 30
0.0
 40
0.3593194819728721
100
AcDbArc
 50
312.7216696056
 51
0.0276078757
  0
ARC
  5
10A
330
1F
100
AcDbEntity
  8
0
  6
PHANTOM
 62
     7
370
    25
100
AcDbCircle
 10
282.9021027145
 20
123.873312915
 30
0.0
 40
0.205936505302328
100
AcDbArc
 50
0.0501841727
 51
109.1773890141
  0
LINE
  5
10B
330
1F
100
AcDbEntity
  8
0
  6
PHANTOM
 62
     7
370
    25
100
AcDbLine
 10
282.8344538213
 20
124.0678211962
 30
0.0
 11
282.8344538213
 21
124.113397329
 31
0.0
  0
ARC
  5
10C
330
1F
100
AcDbEntity
  8
0
  6
PHANTOM
 62
     7
370
    25
100
AcDbCircle
 10
281.4748330225
 20
123.8856627269
 30
0.0
 40
0.2059549095991918
100
AcDbArc
 50
72.7847762628
 51
179.9411432624
  0
LINE
  5
10D
330
1F
100
AcDbEntity
  8
0
  6
PHANTOM
 62
     7
370
    25
100
AcDbLine
 10
281.9897069932
 20
124.3298106184
 30
0.0
 11
281.9897069932
 21
124.3753867512
 31
0.0
  0
ARC
  5
10E
330
1F
100
AcDbEntity
  8
0
  6
PHANTOM
 62
     7
370
    25
100
AcDbCircle
 10
281.6424561866
 20
124.4267883398
 30
0.0
 40
0.3605382103331345
100
AcDbArc
 50
252.7909641631
 51
344.3963947283
  0
ARC
  5
10F
330
1F
100
AcDbEntity
  8
0
  6
PHANTOM
 62
     7
370
    25
100
AcDbCircle
 10
282.7443997937
 20
124.4168986371
 30
0.0
 40
0.3605062934275515
100
AcDbArc
 50
192.8573352622
 51
284.4656045757
  0
ARC
  5
110
330
1F
100
AcDbEntity
  8
0
  6
PHANTOM
 62
     7
370
    25
100
AcDbCircle
 10
282.192042777
 20
124.2907833875
 30
0.0
 40
0.2060652667842938
100
AcDbArc
 50
12.868561425
 51
169.0826624936
  0
ARC
  5
111
330
1F
100
AcDbEntity
  8
0
  6
PHANTOM
 62
     7
370
    25
100
AcDbCircle
 10
282.1851264175
 20
123.4698323018
 30
0.0
 40
1.699740782497037
100
AcDbArc
 50
239.4879578746
 51
359.9471234486
  0
ARC
  5
112
330
1F
100
AcDbEntity
  8
0
  6
PHANTOM
 62
     7
370
    25
100
AcDbCircle
 10
282.182034547
 20
123.4686643981
 30
0.0
 40
1.697166067740869
100
AcDbArc
 50
180.0135287092
 51
239.5578656939
  0
CIRCLE
  5
113
330
1F
100
AcDbEntity
  8
0
  6
PHANTOM
 62
     7
370
    25
100
AcDbCircle
 10
282.184148421
 20
107.8876655498
 30
0.0
 40
0.7744461519228819
  0
ARC
  5
114
330
1F
100
AcDbEntity
  8
0
  6
PHANTOM
 62
     7
370
    25
100
AcDbCircle
 10
282.1866425673
 20
107.8633828866
 30
0.0
 40
1.247942170190043
100
AcDbArc
 50
278.385974355
 51
59.4804939197
  0
SPLINE
  5
115
330
1F
100
AcDbEntity
  8
0
  6
PHANTOM
 62
     7
370
    25
100
AcDbSpline
210
0.0
220
0.0
230
1.0
 70
     8
 71
     3
 72
     9
 73
     5
 74
     0
 42
0.000000001
 43
0.00000001
 40
0.0
 40
0.0
 40
0.0
 40
0.0
 40
0.4057362727330984
 40
1.0
 40
1.0
 40
1.0
 40
1.0
 10
267.3848106861911
 20
123.6920837600925
 30
0.0
 10
267.8896773115391
 20
123.5719619021603
 30
0.0
 10
269.1339994470659
 20
123.275902944643
 30
0.0
 10
270.0070119118237
 20
122.5031313645498
 30
0.0
 10
270.5258115530811
 20
122.0439012450376
 30
0.0
  0
ELLIPSE
  5
116
330
1F
100
AcDbEntity
  8
0
  6
PHANTOM
 62
     7
370
    25
100
AcDbEllipse
 10
267.13775353
 20
119.7439014042
 30
0.0
 11
-4.141104721640318
 21
0.0
 31
0.0
210
0.0
220
0.0
230
1.0
 40
0.9659258263
 41
3.141592653589793
 42
3.754196801638436
  0
ARC
  5
117
330
1F
100
AcDbEntity
  8
0
  6
PHANTOM
 62
     7
370
    25
100
AcDbCircle
 10
266.6682047821
 20
119.7966879105
 30
0.0
 40
3.96076164987048
100
AcDbArc
 50
359.2363760975
 51
79.5762818812
  0
SPLINE
  5
118
330
1F
100
AcDbEntity
  8
0
  6
PHANTOM
 62
     7
370
    25
100
AcDbSpline
210
0.0
220
0.0
230
1.0
 70
     8
 71
     3
 72
    17
 73
    13
 74
     0
 42
0.000000001
 43
0.00000001
 40
0.0
 40
0.0
 40
0.0
 40
0.0
 40
0.0287921030116395
 40
0.1228906832856087
 40
0.2202856718054907
 40
0.326803954879867
 40
0.4436267723649214
 40
0.567249416372364
 40
0.6928708379633792
 40
0.816219351445794
 40
0.9311261385293016
 40
0.9999999999999999
 40
0.9999999999999999
 40
0.9999999999999999
 40
0.9999999999999999
 10
276.594801187595
 20
126.0396443595388
 30
0.0
 10
276.5974427659767
 20
126.0408857012524
 30
0.0
 10
276.608717571855
 20
126.0461840058363
 30
0.0
 10
276.413935251579
 20
126.016490002124
 30
0.0
 10
276.0330770275374
 20
125.9632436761537
 30
0.0
 10
275.4571709525884
 20
125.8995501252165
 30
0.0
 10
274.7339658413833
 20
125.8560833315439
 30
0.0
 10
273.9309038778169
 20
125.8580139069547
 30
0.0
 10
273.1587879820043
 20
125.9107062594279
 30
0.0
 10
272.5529002342134
 20
125.983975085289
 30
0.0
 10
272.1954189028762
 20
126.0385804196868
 30
0.0
 10
272.1671890060776
 20
126.038994606204
 30
0.0
 10
272.156609535297
 20
126.0391498272517
 30
0.0
  0
LINE
  5
119
330
1F
100
AcDbEntity
  8
0
  6
PHANTOM
 62
     7
370
    25
100
AcDbLine
 10
279.0864243508
 20
126.0438418304
 30
0.0
 11
277.8440251351
 21
126.0438418304
 31
0.0
  0
SPLINE
  5
11A
330
1F
100
AcDbEntity
  8
0
  6
PHANTOM
 62
     7
370
    25
100
AcDbSpline
210
0.0
220
0.0
230
1.0
 70
     8
 71
     3
 72
    12
 73
     8
 74
     0
 42
0.000000001
 43
0.00000001
 40
0.0
 40
0.0
 40
0.0
 40
0.0
 40
0.2141136993466946
 40
0.4282048255036704
 40
0.6423448744708524
 40
0.8566752149765406
 40
0.9999999999999999
 40
0.9999999999999999
 40
0.9999999999999999
 40
0.9999999999999999
 10
277.84402513512
 20
126.0438418303826
 30
0.0
 10
277.787876670973
 20
126.0438683533958
 30
0.0
 10
277.6755856621971
 20
126.0439213966258
 30
0.0
 10
277.5259298602926
 20
126.0438700100278
 30
0.0
 10
277.4129232273986
 20
126.0423243233423
 30
0.0
 10
277.3526874010219
 20
126.0386794849536
 30
0.0
 10
277.346507908792
 20
126.0346310387001
 30
0.0
 10
277.3440315724216
 20
126.0330086861947
 30
0.0
  0
LINE
  5
11B
330
1F
100
AcDbEntity
  8
0
  6
PHANTOM
 62
     7
370
    25
100
AcDbLine
 10
277.3440315724
 20
126.0330086862
 30
0.0
 11
277.3440315724
 21
126.0193713297
 31
0.0
  0
ELLIPSE
  5
11C
330
1F
100
AcDbEntity
  8
0
  6
PHANTOM
 62
     7
370
    25
100
AcDbEllipse
 10
277.5315974063
 20
116.0439014042
 30
0.0
 11
0.0
 21
10.0
 31
0.0
210
0.0
220
0.0
230
1.0
 40
0.2679491924
 41
0.0700572930880592
 42
0.3257294872946292
  0
ARC
  5
11D
330
1F
100
AcDbEntity
  8
0
  6
PHANTOM
 62
     7
370
    25
100
AcDbCircle
 10
279.8741599905
 20
116.0439014042
 30
0.0
 40
9.999999999999991
100
AcDbArc
 50
108.6629248849
 51
143.1301023542
  0
LINE
  5
11E
330
1F
100
AcDbEntity
  8
0
  6
PHANTOM
 62
     7
370
    25
100
AcDbLine
 10
271.8741580249
 20
122.043901245
 30
0.0
 11
270.5258115531
 21
122.043901245
 31
0.0
  0
ELLIPSE
  5
11F
330
1F
100
AcDbEntity
  8
0
  6
PHANTOM
 62
     7
370
    25
100
AcDbEllipse
 10
291.4284052176
 20
116.0439014042
 30
0.0
 11
37.32050807569692
 21
0.0
 31
0.0
210
0.0
220
0.0
230
1.0
 40
0.2679491924
 41
2.270833524047466
 42
2.378200496369473
  0
LINE
  5
120
330
1F
100
AcDbEntity
  8
0
  6
PHANTOM
 62
     7
370
    25
100
AcDbLine
 10
263.7496873141
 20
122.043901245
 30
0.0
 11
264.4645258189
 21
122.9576637325
 31
0.0
  0
LINE
  5
121
330
1F
100
AcDbEntity
  8
0
  6
PHANTOM
 62
     7
370
    25
100
AcDbLine
 10
263.7496873141
 20
122.043901245
 30
0.0
 11
260.8741655351
 21
122.043901245
 31
0.0
  0
ARC
  5
122
330
1F
100
AcDbEntity
  8
0
  6
PHANTOM
 62
     7
370
    25
100
AcDbCircle
 10
252.8741599905
 20
116.0439014042
 30
0.0
 40
9.9999999999999
100
AcDbArc
 50
36.8698976458
 51
40.5358021113
  0
LINE
  5
123
330
1F
100
AcDbEntity
  8
0
  6
PHANTOM
 62
     7
370
    25
100
AcDbLine
 10
260.474158764
 20
124.6913323467
 30
0.0
 11
260.474158764
 21
122.5431320545
 31
0.0
  0
ELLIPSE
  5
124
330
1F
100
AcDbEntity
  8
0
  6
PHANTOM
 62
     7
370
    25
100
AcDbEllipse
 10
261.8198396149
 20
116.0439014042
 30
0.0
 11
0.0
 21
10.0
 31
0.0
210
0.0
220
0.0
230
1.0
 40
0.2679491924
 41
0.4209017196269597
 42
0.5261577217194514
  0
ELLIPSE
  5
125
330
1F
100
AcDbEntity
  8
0
  6
PHANTOM
 62
     7
370
    25
100
AcDbEllipse
 10
275.973591997
 20
116.0439014042
 30
0.0
 11
37.32050807568919
 21
0.0
 31
0.0
210
0.0
220
0.0
230
1.0
 40
0.2679491924
 41
1.983887780589859
 42
1.991698046421841
  0
ARC
  5
126
330
1F
100
AcDbEntity
  8
0
  6
PHANTOM
 62
     7
370
    25
100
AcDbCircle
 10
256.9771215827
 20
116.0439014042
 30
0.0
 40
9.999999999999979
100
AcDbArc
 50
61.0589946787
 51
66.3316031446
  0
SPLINE
  5
127
330
1F
100
AcDbEntity
  8
0
  6
PHANTOM
 62
     7
370
    25
100
AcDbSpline
210
0.0
220
0.0
230
1.0
 70
     8
 71
     3
 72
    14
 73
    10
 74
     0
 42
0.000000001
 43
0.00000001
 40
0.0
 40
0.0
 40
0.0
 40
0.0
 40
0.1516103162309937
 40
0.3037560105002043
 40
0.4445358004195969
 40
0.5792266227502297
 40
0.7196348258223006
 40
0.8746318568670945
 40
1.0
 40
1.0
 40
1.0
 40
1.0
 10
261.8162169457279
 20
124.7950854067901
 30
0.0
 10
261.8258686698747
 20
124.7906068372812
 30
0.0
 10
261.8452062010809
 20
124.7816338831936
 30
0.0
 10
261.8830345400721
 20
124.7751851382848
 30
0.0
 10
261.9210389535076
 20
124.7754465353267
 30
0.0
 10
261.955691570029
 20
124.7818060386811
 30
0.0
 10
261.9853076951343
 20
124.7934030848239
 30
0.0
 10
262.0066650594638
 20
124.8082998603003
 30
0.0
 10
262.013792971865
 20
124.8195749452412
 30
0.0
 10
262.0169802904926
 20
124.8246167143085
 30
0.0
  0
ELLIPSE
  5
128
330
1F
100
AcDbEntity
  8
0
  6
PHANTOM
 62
     7
370
    25
100
AcDbEllipse
 10
263.299189144
 20
116.0439014042
 30
0.0
 11
0.0
 21
10.0
 31
0.0
210
0.0
220
0.0
230
1.0
 40
0.2679491924
 41
0.374576573792576
 42
0.4989790912328114
  0
ELLIPSE
  5
129
330
1F
100
AcDbEntity
  8
0
  6
PHANTOM
 62
     7
370
    25
100
AcDbEllipse
 10
275.973591997
 20
116.0439014042
 30
0.0
 11
37.32050807568919
 21
0.0
 31
0.0
210
0.0
220
0.0
230
1.0
 40
0.2679491924
 41
1.937711355746383
 42
1.945372900587484
  0
ARC
  5
12A
330
1F
100
AcDbEntity
  8
0
  6
PHANTOM
 62
     7
370
    25
100
AcDbCircle
 10
258.9979506205
 20
116.0439014042
 30
0.0
 40
9.999999999999996
100
AcDbArc
 50
63.819294892
 51
68.9773174012
  0
SPLINE
  5
12B
330
1F
100
AcDbEntity
  8
0
  6
PHANTOM
 62
     7
370
    25
100
AcDbSpline
210
0.0
220
0.0
230
1.0
 70
     8
 71
     3
 72
    14
 73
    10
 74
     0
 42
0.000000001
 43
0.00000001
 40
0.0
 40
0.0
 40
0.0
 40
0.0
 40
0.1531362900879607
 40
0.3066799581344667
 40
0.4509002798292908
 40
0.5902208746806821
 40
0.7346914480659847
 40
0.8916320229325887
 40
1.0
 40
1.0
 40
1.0
 40
1.0
 10
263.4099855423771
 20
125.0179713879922
 30
0.0
 10
263.4197793420568
 20
125.0139456182289
 30
0.0
 10
263.4393929951892
 20
125.0058833692234
 30
0.0
 10
263.4775659800314
 20
125.0002074628277
 30
0.0
 10
263.5160322585139
 20
125.0005711166694
 30
0.0
 10
263.5512993104651
 20
125.0065786842859
 30
0.0
 10
263.5811879292878
 20
125.0174304034503
 30
0.0
 10
263.6013546426886
 20
125.0306699974864
 30
0.0
 10
263.6080245114091
 20
125.0402902808333
 30
0.0
 10
263.6107488871418
 20
125.0442197834351
 30
0.0
  0
ELLIPSE
  5
12C
330
1F
100
AcDbEntity
  8
0
  6
PHANTOM
 62
     7
370
    25
100
AcDbEllipse
 10
264.778538673
 20
116.0439014042
 30
0.0
 11
0.0
 21
10.0
 31
0.0
210
0.0
220
0.0
230
1.0
 40
0.2679491924
 41
0.3290808665824016
 42
0.4509538357422281
  0
ELLIPSE
  5
12D
330
1F
100
AcDbEntity
  8
0
  6
PHANTOM
 62
     7
370
    25
100
AcDbEllipse
 10
275.973591997
 20
116.0439014042
 30
0.0
 11
37.32050807568965
 21
0.0
 31
0.0
210
0.0
220
0.0
230
1.0
 40
0.2679491924
 41
1.892340923260772
 42
1.899877193377311
  0
ARC
  5
12E
330
1F
100
AcDbEntity
  8
0
  6
PHANTOM
 62
     7
370
    25
100
AcDbCircle
 10
261.0187796583
 20
116.0439014042
 30
0.0
 40
10.00000000000001
100
AcDbArc
 50
66.5156524635
 51
71.5768516973
  0
SPLINE
  5
12F
330
1F
100
AcDbEntity
  8
0
  6
PHANTOM
 62
     7
370
    25
100
AcDbSpline
210
0.0
220
0.0
230
1.0
 70
     8
 71
     3
 72
    14
 73
    10
 74
     0
 42
0.000000001
 43
0.00000001
 40
0.0
 40
0.0
 40
0.0
 40
0.0
 40
0.1545292984556025
 40
0.3093767621578067
 40
0.4567161571960259
 40
0.6002258768556337
 40
0.7481314919850958
 40
0.9065488444390316
 40
1.0
 40
1.0
 40
1.0
 40
1.0
 10
265.0037690401874
 20
125.2155915190676
 30
0.0
 10
265.0136875903759
 20
125.2119979944659
 30
0.0
 10
265.0335451123689
 20
125.2048035464415
 30
0.0
 10
265.0720412699354
 20
125.199834362279
 30
0.0
 10
265.1109359606255
 20
125.2002677729562
 30
0.0
 10
265.1467478506883
 20
125.2058665469653
 30
0.0
 10
265.1768183511531
 20
125.215900498125
 30
0.0
 10
265.1959529225651
 20
125.2275757653589
 30
0.0
 10
265.2022105922518
 20
125.2357455477703
 30
0.0
 10
265.2045323849521
 20
125.2387767945626
 30
0.0
  0
ELLIPSE
  5
130
330
1F
100
AcDbEntity
  8
0
  6
PHANTOM
 62
     7
370
    25
100
AcDbEllipse
 10
266.2578882021
 20
116.0439014042
 30
0.0
 11
0.0
 21
10.0
 31
0.0
210
0.0
220
0.0
230
1.0
 40
0.2679491924
 41
0.2842818627408902
 42
0.4040213282883188
  0
ELLIPSE
  5
131
330
1F
100
AcDbEntity
  8
0
  6
PHANTOM
 62
     7
370
    25
100
AcDbEllipse
 10
275.973591997
 20
116.0439014042
 30
0.0
 11
37.32050807568965
 21
0.0
 31
0.0
210
0.0
220
0.0
230
1.0
 40
0.2679491924
 41
1.847646607637833
 42
1.855078189535804
  0
ARC
  5
132
330
1F
100
AcDbEntity
  8
0
  6
PHANTOM
 62
     7
370
    25
100
AcDbCircle
 10
263.0396086961
 20
116.0439014042
 30
0.0
 40
9.999999999999982
100
AcDbArc
 50
69.1579231975
 51
74.1376473507
  0
SPLINE
  5
133
330
1F
100
AcDbEntity
  8
0
  6
PHANTOM
 62
     7
370
    25
100
AcDbSpline
210
0.0
220
0.0
230
1.0
 70
     8
 71
     3
 72
    14
 73
    10
 74
     0
 42
0.000000001
 43
0.00000001
 40
0.0
 40
0.0
 40
0.0
 40
0.0
 40
0.1558148655278854
 40
0.3119335843459031
 40
0.4620212522964703
 40
0.6092178400729266
 40
0.7600712330574203
 40
0.9195186656482469
 40
1.0
 40
1.0
 40
1.0
 40
1.0
 10
266.5975376368366
 20
125.3895476748445
 30
0.0
 10
266.6075693172259
 20
125.3863704719671
 30
0.0
 10
266.6276522407022
 20
125.380009870375
 30
0.0
 10
266.6664520977749
 20
125.375694335243
 30
0.0
 10
266.7057368718074
 20
125.3761669807949
 30
0.0
 10
266.7420151711144
 20
125.3813058792753
 30
0.0
 10
266.7722187804669
 20
125.3904473442472
 30
0.0
 10
266.7904289289428
 20
125.4006495505618
 30
0.0
 10
266.7963236615996
 20
125.4075393899179
 30
0.0
 10
266.7983009816013
 20
125.4098505069712
 30
0.0
  0
ELLIPSE
  5
134
330
1F
100
AcDbEntity
  8
0
  6
PHANTOM
 62
     7
370
    25
100
AcDbEllipse
 10
267.7372377312
 20
116.0439014042
 30
0.0
 11
0.0
 21
10.0
 31
0.0
210
0.0
220
0.0
230
1.0
 40
0.2679491924
 41
0.2400622251563825
 42
0.3580130189727089
  0
ELLIPSE
  5
135
330
1F
100
AcDbEntity
  8
0
  6
PHANTOM
 62
     7
370
    25
100
AcDbEllipse
 10
275.973591997
 20
116.0439014042
 30
0.0
 11
37.32050807568965
 21
0.0
 31
0.0
210
0.0
220
0.0
230
1.0
 40
0.2679491924
 41
1.803513280730622
 42
1.81085855195129
  0
ARC
  5
136
330
1F
100
AcDbEntity
  8
0
  6
PHANTOM
 62
     7
370
    25
100
AcDbCircle
 10
265.0604377339
 20
116.0439014042
 30
0.0
 40
9.999999999999993
100
AcDbArc
 50
71.7545588853
 51
76.6663007183
  0
SPLINE
  5
137
330
1F
100
AcDbEntity
  8
0
  6
PHANTOM
 62
     7
370
    25
100
AcDbSpline
210
0.0
220
0.0
230
1.0
 70
     8
 71
     3
 72
    14
 73
    10
 74
     0
 42
0.000000001
 43
0.00000001
 40
0.0
 40
0.0
 40
0.0
 40
0.0
 40
0.1569866948407379
 40
0.3141869614032458
 40
0.4667783317133166
 40
0.6171603476949068
 40
0.7705259597677129
 40
0.9306733033127608
 40
1.0
 40
1.0
 40
1.0
 40
1.0
 10
268.191321134647
 20
125.5411418442824
 30
0.0
 10
268.2014547996355
 20
125.5383686634094
 30
0.0
 10
268.2217359159037
 20
125.5328185289042
 30
0.0
 10
268.2608073580465
 20
125.5291065103116
 30
0.0
 10
268.3004407850372
 20
125.5295903480025
 30
0.0
 10
268.3371190882668
 20
125.5342278441981
 30
0.0
 10
268.3674188344053
 20
125.54240878917
 30
0.0
 10
268.3848212053455
 20
125.5512135674461
 30
0.0
 10
268.3903992800934
 20
125.5569687989801
 30
0.0
 10
268.3920844794117
 20
125.5587075193622
 30
0.0
  0
ELLIPSE
  5
138
330
1F
100
AcDbEntity
  8
0
  6
PHANTOM
 62
     7
370
    25
100
AcDbEllipse
 10
269.2165872603
 20
116.0439014042
 30
0.0
 11
0.0
 21
10.0
 31
0.0
210
0.0
220
0.0
230
1.0
 40
0.2679491924
 41
0.1963165094326477
 42
0.3127840419803343
  0
ELLIPSE
  5
139
330
1F
100
AcDbEntity
  8
0
  6
PHANTOM
 62
     7
370
    25
100
AcDbEllipse
 10
275.973591997
 20
116.0439014042
 30
0.0
 11
37.32050807568965
 21
0.0
 31
0.0
210
0.0
220
0.0
230
1.0
 40
0.2679491924
 41
1.759837201484545
 42
1.767112836227532
  0
ARC
  5
13A
330
1F
100
AcDbEntity
  8
0
  6
PHANTOM
 62
     7
370
    25
100
AcDbCircle
 10
267.0812667717
 20
116.0439014042
 30
0.0
 40
9.999999999999998
100
AcDbArc
 50
74.3129353322
 51
79.1687557248
  0
SPLINE
  5
13B
330
1F
100
AcDbEntity
  8
0
  6
PHANTOM
 62
     7
370
    25
100
AcDbSpline
210
0.0
220
0.0
230
1.0
 70
     8
 71
     3
 72
    14
 73
    10
 74
     0
 42
0.000000001
 43
0.00000001
 40
0.0
 40
0.0
 40
0.0
 40
0.0
 40
0.1579946138511673
 40
0.3162056649592683
 40
0.4708906634282662
 40
0.6240672036646276
 40
0.7795228817251296
 40
0.9401226328409056
 40
1.0
 40
1.0
 40
1.0
 40
1.0
 10
269.7851046324573
 20
125.6714292158583
 30
0.0
 10
269.795323901291
 20
125.6690501755233
 30
0.0
 10
269.8157764383629
 20
125.6642888357995
 30
0.0
 10
269.8550861161231
 20
125.6611448966344
 30
0.0
 10
269.8950239558407
 20
125.661614189229
 30
0.0
 10
269.9320398877394
 20
125.6657070289278
 30
0.0
 10
269.9624060632121
 20
125.6728744341158
 30
0.0
 10
269.9791036176603
 20
125.6803501821038
 30
0.0
 10
269.9844232632541
 20
125.6850882987139
 30
0.0
 10
269.985867977222
 20
125.6863750805357
 30
0.0
  0
ELLIPSE
  5
13C
330
1F
100
AcDbEntity
  8
0
  6
PHANTOM
 62
     7
370
    25
100
AcDbEllipse
 10
270.6959367893
 20
116.0439014042
 30
0.0
 11
0.0
 21
10.0
 31
0.0
210
0.0
220
0.0
230
1.0
 40
0.2679491924
 41
0.1529484115159797
 42
0.2682077024442878
  0
ELLIPSE
  5
13D
330
1F
100
AcDbEntity
  8
0
  6
PHANTOM
 62
     7
370
    25
100
AcDbEllipse
 10
275.973591997
 20
116.0439014042
 30
0.0
 11
37.32050807569561
 21
0.0
 31
0.0
210
0.0
220
0.0
230
1.0
 40
0.2679491924
 41
1.709216543787203
 42
1.723744738310867
  0
LINE
  5
13E
330
1F
100
AcDbEntity
  8
0
  6
PHANTOM
 62
     7
370
    25
100
AcDbLine
 10
270.8241626025
 20
125.9482536753
 30
0.0
 11
270.8241626025
 21
126.043901435
 31
0.0
  0
ELLIPSE
  5
13F
330
1F
100
AcDbEntity
  8
0
  6
PHANTOM
 62
     7
370
    25
100
AcDbEllipse
 10
267.13775353
 20
115.3439014042
 30
0.0
 11
-4.141104721640318
 21
0.0
 31
0.0
210
0.0
220
0.0
230
1.0
 40
0.9659258263
 41
0.0
 42
3.141592653589793
  0
ARC
  5
140
330
1F
100
AcDbEntity
  8
0
  6
PHANTOM
 62
     7
370
    25
100
AcDbCircle
 10
266.6902191402
 20
115.2789338622
 30
0.0
 40
3.938931337969647
100
AcDbArc
 50
273.706724582
 51
0.9450621502
  0
LINE
  5
141
330
1F
100
AcDbEntity
  8
0
  6
PHANTOM
 62
     7
370
    25
100
AcDbLine
 10
271.2788566352
 20
119.7439014268
 30
0.0
 11
271.2788566352
 21
115.343901407
 31
0.0
  0
LINE
  5
142
330
1F
100
AcDbEntity
  8
0
  6
PHANTOM
 62
     7
370
    25
100
AcDbLine
 10
271.8741580249
 20
110.0439016064
 30
0.0
 11
271.8741580249
 21
122.043901245
 31
0.0
  0
LINE
  5
143
330
1F
100
AcDbEntity
  8
0
  6
PHANTOM
 62
     7
370
    25
100
AcDbLine
 10
260.8741655351
 20
110.0439016064
 30
0.0
 11
271.8741580249
 21
110.0439016064
 31
0.0
  0
LINE
  5
144
330
1F
100
AcDbEntity
  8
0
  6
PHANTOM
 62
     7
370
    25
100
AcDbLine
 10
260.8741655351
 20
110.0439016064
 30
0.0
 11
260.8741655351
 21
122.043901245
 31
0.0
  0
ELLIPSE
  5
145
330
1F
100
AcDbEntity
  8
0
  6
PHANTOM
 62
     7
370
    25
100
AcDbEllipse
 10
267.13775353
 20
119.7439014042
 30
0.0
 11
-4.141104721640318
 21
0.0
 31
0.0
210
0.0
220
0.0
230
1.0
 40
0.9659258263
 41
5.670581159130971
 42
6.283185307179586
  0
LINE
  5
146
330
1F
100
AcDbEntity
  8
0
  6
PHANTOM
 62
     7
370
    25
100
AcDbLine
 10
262.996642232
 20
115.343901407
 30
0.0
 11
262.996642232
 21
119.7439014268
 31
0.0
  0
LINE
  5
147
330
1F
100
AcDbEntity
  8
0
  6
PHANTOM
 62
     7
370
    25
100
AcDbLine
 10
270.6286146642
 20
119.7439014268
 30
0.0
 11
270.6286146642
 21
115.343901407
 31
0.0
  0
ELLIPSE
  5
148
330
1F
100
AcDbEntity
  8
0
  6
PHANTOM
 62
     7
370
    25
100
AcDbEllipse
 10
272.582408281
 20
117.3939014042
 30
0.0
 11
0.0
 21
0.5
 31
0.0
210
0.0
220
0.0
230
1.0
 40
0.8164965809
 41
0.0
 42
1.570796326794897
  0
LINE
  5
149
330
1F
100
AcDbEntity
  8
0
  6
PHANTOM
 62
     7
370
    25
100
AcDbLine
 10
272.1741631032
 20
117.3939014607
 30
0.0
 11
272.1741631032
 21
109.6634623883
 31
0.0
  0
ARC
  5
14A
330
1F
100
AcDbEntity
  8
0
  6
PHANTOM
 62
     7
370
    25
100
AcDbCircle
 10
279.8741599905
 20
116.0439014042
 30
0.0
 40
10.0
100
AcDbArc
 50
216.8698976458
 51
219.646111147
  0
LINE
  5
14B
330
1F
100
AcDbEntity
  8
0
  6
PHANTOM
 62
     7
370
    25
100
AcDbLine
 10
276.6741647721
 20
118.0439012879
 30
0.0
 11
276.6741647721
 21
125.5180767094
 31
0.0
  0
LINE
  5
14C
330
1F
100
AcDbEntity
  8
0
  6
PHANTOM
 62
     7
370
    25
100
AcDbLine
 10
276.6741647721
 20
118.0439012879
 30
0.0
 11
275.6594851018
 21
118.0439012879
 31
0.0
  0
LINE
  5
14D
330
1F
100
AcDbEntity
  8
0
  6
PHANTOM
 62
     7
370
    25
100
AcDbLine
 10
275.6594851018
 20
117.8939013099
 30
0.0
 11
275.6594851018
 21
118.0439012879
 31
0.0
  0
LINE
  5
14E
330
1F
100
AcDbEntity
  8
0
  6
PHANTOM
 62
     7
370
    25
100
AcDbLine
 10
275.6594851018
 20
117.8939013099
 30
0.0
 11
272.5824102164
 21
117.8939013099
 31
0.0
  0
ARC
  5
14F
330
1F
100
AcDbEntity
  8
0
  6
PHANTOM
 62
     7
370
    25
100
AcDbCircle
 10
252.8741599905
 20
116.0439014042
 30
0.0
 40
9.99999999999991
100
AcDbArc
 50
319.4641978887
 51
323.1301023542
  0
LINE
  5
150
330
1F
100
AcDbEntity
  8
0
  6
PHANTOM
 62
     7
370
    25
100
AcDbLine
 10
260.474158764
 20
109.5446707969
 30
0.0
 11
260.474158764
 21
122.5431320545
 31
0.0
  0
SPLINE
  5
151
330
1F
100
AcDbEntity
  8
0
  6
PHANTOM
 62
     7
370
    25
100
AcDbSpline
210
0.0
220
0.0
230
1.0
 70
     8
 71
     3
 72
    14
 73
    10
 74
     0
 42
0.000000001
 43
0.00000001
 40
0.0
 40
0.0
 40
0.0
 40
0.0
 40
0.1669175585355435
 40
0.3339805226639895
 40
0.4967875783182626
 40
0.6535978896792771
 40
0.8070007469913525
 40
0.9609710926916538
 40
1.0
 40
1.0
 40
1.0
 40
1.0
 10
269.985867977222
 20
106.4014273052314
 30
0.0
 10
269.9810049042483
 20
106.4049855366878
 30
0.0
 10
269.97127452197
 20
106.4121050992551
 30
0.0
 10
269.9411001086375
 20
106.4204775714311
 30
0.0
 10
269.9037970164692
 20
106.4256150241326
 30
0.0
 10
269.8632517478412
 20
106.4268880468741
 30
0.0
 10
269.8244444344245
 20
106.4243953681629
 30
0.0
 10
269.7990416641785
 20
106.4200993930502
 30
0.0
 10
269.7874489475545
 20
106.4169999490782
 30
0.0
 10
269.7851046324573
 20
106.4163731699088
 30
0.0
  0
ARC
  5
152
330
1F
100
AcDbEntity
  8
0
  6
PHANTOM
 62
     7
370
    25
100
AcDbCircle
 10
267.0812667717
 20
116.0439014042
 30
0.0
 40
9.999999999999998
100
AcDbArc
 50
280.8312442752
 51
285.6870646678
  0
ELLIPSE
  5
153
330
1F
100
AcDbEntity
  8
0
  6
PHANTOM
 62
     7
370
    25
100
AcDbEllipse
 10
275.973591997
 20
116.0439014042
 30
0.0
 11
37.32050807568965
 21
0.0
 31
0.0
210
0.0
220
0.0
230
1.0
 40
0.2679491924
 41
4.51607247095206
 42
4.523348105695048
  0
ELLIPSE
  5
154
330
1F
100
AcDbEntity
  8
0
  6
PHANTOM
 62
     7
370
    25
100
AcDbEllipse
 10
269.2165872603
 20
116.0439014042
 30
0.0
 11
0.0
 21
10.0
 31
0.0
210
0.0
220
0.0
230
1.0
 40
0.2679491924
 41
2.82880861160946
 42
2.945276144157146
  0
SPLINE
  5
155
330
1F
100
AcDbEntity
  8
0
  6
PHANTOM
 62
     7
370
    25
100
AcDbSpline
210
0.0
220
0.0
230
1.0
 70
     8
 71
     3
 72
    14
 73
    10
 74
     0
 42
0.000000001
 43
0.00000001
 40
0.0
 40
0.0
 40
0.0
 40
0.0
 40
0.1691430890874241
 40
0.338517060454675
 40
0.5018603129585822
 40
0.6570838374093845
 40
0.8078180134878032
 40
0.9593887104613357
 40
1.0
 40
1.0
 40
1.0
 40
1.0
 10
268.3920844794117
 20
106.5290957977274
 30
0.0
 10
268.3871916875293
 20
106.5333053408952
 30
0.0
 10
268.3773994250469
 20
106.5417301733061
 30
0.0
 10
268.3468705056918
 20
106.5516049567533
 30
0.0
 10
268.3092512476433
 20
106.5575774612002
 30
0.0
 10
268.2687986579064
 20
106.5589660473964
 30
0.0
 10
268.2304465159048
 20
106.5560225178994
 30
0.0
 10
268.2052801850461
 20
106.5510368298072
 30
0.0
 10
268.1937563211225
 20
106.5474239944296
 30
0.0
 10
268.191321134647
 20
106.5466605414846
 30
0.0
  0
ARC
  5
156
330
1F
100
AcDbEntity
  8
0
  6
PHANTOM
 62
     7
370
    25
100
AcDbCircle
 10
265.0604377339
 20
116.0439014042
 30
0.0
 40
10.00000000000001
100
AcDbArc
 50
283.3336992817
 51
288.2454411147
  0
ELLIPSE
  5
157
330
1F
100
AcDbEntity
  8
0
  6
PHANTOM
 62
     7
370
    25
100
AcDbEllipse
 10
275.973591997
 20
116.0439014042
 30
0.0
 11
37.32050807568965
 21
0.0
 31
0.0
210
0.0
220
0.0
230
1.0
 40
0.2679491924
 41
4.472326755228303
 42
4.47967202644897
  0
ELLIPSE
  5
158
330
1F
100
AcDbEntity
  8
0
  6
PHANTOM
 62
     7
370
    25
100
AcDbEllipse
 10
267.7372377312
 20
116.0439014042
 30
0.0
 11
0.0
 21
10.0
 31
0.0
210
0.0
220
0.0
230
1.0
 40
0.2679491924
 41
2.783579634617085
 42
2.90153042843341
  0
SPLINE
  5
159
330
1F
100
AcDbEntity
  8
0
  6
PHANTOM
 62
     7
370
    25
100
AcDbSpline
210
0.0
220
0.0
230
1.0
 70
     8
 71
     3
 72
    14
 73
    10
 74
     0
 42
0.000000001
 43
0.00000001
 40
0.0
 40
0.0
 40
0.0
 40
0.0
 40
0.1719197268099399
 40
0.3441083564118173
 40
0.5080808320573342
 40
0.6613427950924093
 40
0.8088943414064352
 40
0.9576830365146769
 40
1.0
 40
1.0
 40
1.0
 40
1.0
 10
266.7983009816013
 20
106.6779518787959
 30
0.0
 10
266.7933615771052
 20
106.6828559617578
 30
0.0
 10
266.7834750423
 20
106.6926717982475
 30
0.0
 10
266.7525207093358
 20
106.7041451947812
 30
0.0
 10
266.7145049003871
 20
106.710959104017
 30
0.0
 10
266.6741772021813
 20
106.7124179588151
 30
0.0
 10
266.6363729469323
 20
106.7089873762037
 30
0.0
 10
266.611525868323
 20
106.7032984125881
 30
0.0
 10
266.6000735499189
 20
106.6991690787645
 30
0.0
 10
266.5975376368366
 20
106.6982547109225
 30
0.0
  0
ARC
  5
15A
330
1F
100
AcDbEntity
  8
0
  6
PHANTOM
 62
     7
370
    25
100
AcDbCircle
 10
263.0396086961
 20
116.0439014042
 30
0.0
 40
10.00000000000001
100
AcDbArc
 50
285.8623526493
 51
290.8420768025
  0
ELLIPSE
  5
15B
330
1F
100
AcDbEntity
  8
0
  6
PHANTOM
 62
     7
370
    25
100
AcDbEllipse
 10
275.973591997
 20
116.0439014042
 30
0.0
 11
37.32050807568965
 21
0.0
 31
0.0
210
0.0
220
0.0
230
1.0
 40
0.2679491924
 41
4.428107117643791
 42
4.435538699541761
  0
ELLIPSE
  5
15C
330
1F
100
AcDbEntity
  8
0
  6
PHANTOM
 62
     7
370
    25
100
AcDbEllipse
 10
266.2578882021
 20
116.0439014042
 30
0.0
 11
0.0
 21
10.0
 31
0.0
210
0.0
220
0.0
230
1.0
 40
0.2679491924
 41
2.737571325301475
 42
2.857310790848905
  0
SPLINE
  5
15D
330
1F
100
AcDbEntity
  8
0
  6
PHANTOM
 62
     7
370
    25
100
AcDbSpline
210
0.0
220
0.0
230
1.0
 70
     8
 71
     3
 72
    14
 73
    10
 74
     0
 42
0.000000001
 43
0.00000001
 40
0.0
 40
0.0
 40
0.0
 40
0.0
 40
0.1752940411317606
 40
0.350977408474784
 40
0.5156094932680494
 40
0.6665141864802672
 40
0.8104254511820235
 40
0.9561065844611696
 40
1.0
 40
1.0
 40
1.0
 40
1.0
 10
265.2045323849521
 20
106.8490255912045
 30
0.0
 10
265.1995387966086
 20
106.8546798031773
 30
0.0
 10
265.1895405292148
 20
106.8660007850681
 30
0.0
 10
265.1580329205129
 20
106.8791848799395
 30
0.0
 10
265.1195289089908
 20
106.8868488457586
 30
0.0
 10
265.0793465836567
 20
106.8883114436955
 30
0.0
 10
265.0421917497198
 20
106.8843453752716
 30
0.0
 10
265.0177094717361
 20
106.877953461357
 30
0.0
 10
265.0063899271962
 20
106.8732912660996
 30
0.0
 10
265.0037690401874
 20
106.8722117980221
 30
0.0
  0
ARC
  5
15E
330
1F
100
AcDbEntity
  8
0
  6
PHANTOM
 62
     7
370
    25
100
AcDbCircle
 10
261.0187796583
 20
116.0439014042
 30
0.0
 40
10.00000000000001
100
AcDbArc
 50
288.4231483027
 51
293.4843475365
  0
ELLIPSE
  5
15F
330
1F
100
AcDbEntity
  8
0
  6
PHANTOM
 62
     7
370
    25
100
AcDbEllipse
 10
275.973591997
 20
116.0439014042
 30
0.0
 11
37.32050807568965
 21
0.0
 31
0.0
210
0.0
220
0.0
230
1.0
 40
0.2679491924
 41
4.383308113802284
 42
4.390844383918822
  0
ELLIPSE
  5
160
330
1F
100
AcDbEntity
  8
0
  6
PHANTOM
 62
     7
370
    25
100
AcDbEllipse
 10
264.778538673
 20
116.0439014042
 30
0.0
 11
0.0
 21
10.0
 31
0.0
210
0.0
220
0.0
230
1.0
 40
0.2679491924
 41
2.690638817847566
 42
2.812511787007392
  0
SPLINE
  5
161
330
1F
100
AcDbEntity
  8
0
  6
PHANTOM
 62
     7
370
    25
100
AcDbSpline
210
0.0
220
0.0
230
1.0
 70
     8
 71
     3
 72
    14
 73
    10
 74
     0
 42
0.000000001
 43
0.00000001
 40
0.0
 40
0.0
 40
0.0
 40
0.0
 40
0.1794056371647536
 40
0.359342628051187
 40
0.5246521406381812
 40
0.6726297389415298
 40
0.8124080199795825
 40
0.9545902910146746
 40
1.0
 40
1.0
 40
1.0
 40
1.0
 10
263.6107488871418
 20
107.0435835336545
 30
0.0
 10
263.6056886954429
 20
107.0500596310847
 30
0.0
 10
263.5955533250483
 20
107.0630310064932
 30
0.0
 10
263.5633643725214
 20
107.0780748178089
 30
0.0
 10
263.5242592769522
 20
107.0865792437381
 30
0.0
 10
263.4842699311275
 20
107.0879567029356
 30
0.0
 10
263.4478731666422
 20
107.0834069133345
 30
0.0
 10
263.4238727314176
 20
107.0762802625397
 30
0.0
 10
263.4126920172342
 20
107.0710878952566
 30
0.0
 10
263.4099855423771
 20
107.0698309977749
 30
0.0
  0
ARC
  5
162
330
1F
100
AcDbEntity
  8
0
  6
PHANTOM
 62
     7
370
    25
100
AcDbCircle
 10
258.9979506205
 20
116.0439014042
 30
0.0
 40
9.999999999999996
100
AcDbArc
 50
291.0226825988
 51
296.180705108
  0
ELLIPSE
  5
163
330
1F
100
AcDbEntity
  8
0
  6
PHANTOM
 62
     7
370
    25
100
AcDbEllipse
 10
275.973591997
 20
116.0439014042
 30
0.0
 11
37.32050807568919
 21
0.0
 31
0.0
210
0.0
220
0.0
230
1.0
 40
0.2679491924
 41
4.337812406592112
 42
4.345473951433213
  0
ELLIPSE
  5
164
330
1F
100
AcDbEntity
  8
0
  6
PHANTOM
 62
     7
370
    25
100
AcDbEllipse
 10
263.299189144
 20
116.0439014042
 30
0.0
 11
0.0
 21
10.0
 31
0.0
210
0.0
220
0.0
230
1.0
 40
0.2679491924
 41
2.642613562356984
 42
2.767016079797217
  0
SPLINE
  5
165
330
1F
100
AcDbEntity
  8
0
  6
PHANTOM
 62
     7
370
    25
100
AcDbSpline
210
0.0
220
0.0
230
1.0
 70
     8
 71
     3
 72
    14
 73
    10
 74
     0
 42
0.000000001
 43
0.00000001
 40
0.0
 40
0.0
 40
0.0
 40
0.0
 40
0.1844748777632088
 40
0.3696232177558958
 40
0.5355365232911093
 40
0.6799627017032203
 40
0.8150314964251586
 40
0.9534573010807282
 40
1.0
 40
1.0
 40
1.0
 40
1.0
 10
262.0169802904926
 20
107.2631856714585
 30
0.0
 10
262.01182709769
 20
107.2705772422868
 30
0.0
 10
262.0015018993297
 20
107.2853873683427
 30
0.0
 10
261.9684680820855
 20
107.3024741190823
 30
0.0
 10
261.9286210618377
 20
107.3118010774659
 30
0.0
 10
261.8888843496615
 20
107.3129707578384
 30
0.0
 10
261.8533853067586
 20
107.3077592720855
 30
0.0
 10
261.8299567024644
 20
107.2998922246094
 30
0.0
 10
261.8189791678325
 20
107.294159480651
 30
0.0
 10
261.8162169457279
 20
107.292716978977
 30
0.0
  0
ARC
  5
166
330
1F
100
AcDbEntity
  8
0
  6
PHANTOM
 62
     7
370
    25
100
AcDbCircle
 10
256.9771215827
 20
116.0439014042
 30
0.0
 40
9.999999999999991
100
AcDbArc
 50
293.6683968554
 51
298.9410053213
  0
ELLIPSE
  5
167
330
1F
100
AcDbEntity
  8
0
  6
PHANTOM
 62
     7
370
    25
100
AcDbEllipse
 10
275.973591997
 20
116.0439014042
 30
0.0
 11
37.32050807568919
 21
0.0
 31
0.0
210
0.0
220
0.0
230
1.0
 40
0.2679491924
 41
4.291487260757757
 42
4.299297526589739
  0
ELLIPSE
  5
168
330
1F
100
AcDbEntity
  8
0
  6
PHANTOM
 62
     7
370
    25
100
AcDbEllipse
 10
261.8198396149
 20
116.0439014042
 30
0.0
 11
0.0
 21
10.0
 31
0.0
210
0.0
220
0.0
230
1.0
 40
0.2679491924
 41
2.615434931870342
 42
2.720690933962834
  0
LINE
  5
169
330
1F
100
AcDbEntity
  8
0
  6
PHANTOM
 62
     7
370
    25
100
AcDbLine
 10
260.474158764
 20
109.5446707969
 30
0.0
 11
260.474158764
 21
107.3964700391
 31
0.0
  0
ELLIPSE
  5
16A
330
1F
100
AcDbEntity
  8
0
  6
PHANTOM
 62
     7
370
    25
100
AcDbEllipse
 10
270.1109512088
 20
116.0439014042
 30
0.0
 11
0.0
 21
10.0
 31
0.0
210
0.0
220
0.0
230
1.0
 40
0.2679491924
 41
3.416351750975609
 42
4.02043380525841
  0
LINE
  5
16B
330
1F
100
AcDbEntity
  8
0
  6
PHANTOM
 62
     7
370
    25
100
AcDbLine
 10
270.2317669392
 20
106.1950881322
 30
0.0
 11
270.8379312754
 21
106.4189957743
 31
0.0
  0
ELLIPSE
  5
16C
330
1F
100
AcDbEntity
  8
0
  6
PHANTOM
 62
     7
370
    25
100
AcDbEllipse
 10
270.6959367893
 20
116.0439014042
 30
0.0
 11
0.0
 21
10.0
 31
0.0
210
0.0
220
0.0
230
1.0
 40
0.2679491924
 41
2.873384951145507
 42
2.967483685524494
  0
LINE
  5
16D
330
1F
100
AcDbEntity
  8
0
  6
PHANTOM
 62
     7
370
    25
100
AcDbLine
 10
264.543293357
 20
116.077078279
 30
0.0
 11
264.543293357
 21
115.343901407
 31
0.0
  0
ARC
  5
16E
330
1F
100
AcDbEntity
  8
0
  6
PHANTOM
 62
     7
370
    25
100
AcDbCircle
 10
266.7649223805
 20
115.2855995083
 30
0.0
 40
2.222393896158535
100
AcDbArc
 50
178.496739927
 51
1.503260073
  0
LINE
  5
16F
330
1F
100
AcDbEntity
  8
0
  6
PHANTOM
 62
     7
370
    25
100
AcDbLine
 10
268.9865514041
 20
115.343901407
 30
0.0
 11
268.9865514041
 21
115.8962846731
 31
0.0
  0
ELLIPSE
  5
170
330
1F
100
AcDbEntity
  8
0
  6
PHANTOM
 62
     7
370
    25
100
AcDbEllipse
 10
265.7095754173
 20
115.3439014042
 30
0.0
 11
3.252691193457792
 21
0.0
 31
0.0
210
0.0
220
0.0
230
1.0
 40
0.7071067812
 41
4.906384178244991
 42
4.988893474529118
  0
SPLINE
  5
171
330
1F
100
AcDbEntity
  8
0
  6
PHANTOM
 62
     7
370
    25
100
AcDbSpline
210
0.0
220
0.0
230
1.0
 70
     8
 71
     3
 72
    13
 73
     9
 74
     0
 42
0.000000001
 43
0.00000001
 40
0.0
 40
0.0
 40
0.0
 40
0.0
 40
0.1575207684554723
 40
0.3148374493819632
 40
0.4770796664638587
 40
0.6460815576981821
 40
0.8188496813592976
 40
1.0
 40
1.0
 40
1.0
 40
1.0
 10
266.5975376368366
 20
113.1312655107328
 30
0.0
 10
266.6080550728148
 20
113.133534627156
 30
0.0
 10
266.6290763181393
 20
113.1380699200828
 30
0.0
 10
266.6687382708062
 20
113.1488445562648
 30
0.0
 10
266.7096636286734
 20
113.1617678700945
 30
0.0
 10
266.7483251385884
 20
113.1760573092792
 30
0.0
 10
266.7815567655915
 20
113.1905875041202
 30
0.0
 10
266.7926321399739
 20
113.1975485094185
 30
0.0
 10
266.7983009816013
 20
113.2011114442
 30
0.0
  0
ELLIPSE
  5
172
330
1F
100
AcDbEntity
  8
0
  6
PHANTOM
 62
     7
370
    25
100
AcDbEllipse
 10
266.3656988609
 20
115.3439014042
 30
0.0
 11
0.0
 21
2.300000000000011
 31
0.0
210
0.0
220
0.0
230
1.0
 40
0.5176380902
 41
3.513467171991276
 42
3.806383502986542
  0
ARC
  5
173
330
1F
100
AcDbEntity
  8
0
  6
PHANTOM
 62
     7
370
    25
100
AcDbCircle
 10
265.6789411731
 20
115.2841356806
 30
0.0
 40
2.254747047171575
100
AcDbArc
 50
309.0737509553
 51
318.4622090584
  0
ELLIPSE
  5
174
330
1F
100
AcDbEntity
  8
0
  6
PHANTOM
 62
     7
370
    25
100
AcDbEllipse
 10
264.9699006527
 20
115.3439014042
 30
0.0
 11
3.252691193457849
 21
0.0
 31
0.0
210
0.0
220
0.0
230
1.0
 40
0.7071067812
 41
5.540793707781364
 42
6.144408160116156
  0
SPLINE
  5
175
330
1F
100
AcDbEntity
  8
0
  6
PHANTOM
 62
     7
370
    25
100
AcDbSpline
210
0.0
220
0.0
230
1.0
 70
     8
 71
     3
 72
     9
 73
     5
 74
     0
 42
0.000000001
 43
0.00000001
 40
0.0
 40
0.0
 40
0.0
 40
0.0
 40
0.7556726064969773
 40
1.0
 40
1.0
 40
1.0
 40
1.0
 10
268.191321134647
 20
115.0257375030057
 30
0.0
 10
268.203067816547
 20
115.1054052444273
 30
0.0
 10
268.2186124873465
 20
115.2108315106921
 30
0.0
 10
268.2196244976539
 20
115.317772736145
 30
0.0
 10
268.2198717594944
 20
115.3439014070179
 30
0.0
  0
LINE
  5
176
330
1F
100
AcDbEntity
  8
0
  6
PHANTOM
 62
     7
370
    25
100
AcDbLine
 10
268.2198717595
 20
115.343901407
 30
0.0
 11
268.2198717595
 21
115.4870700685
 31
0.0
  0
LINE
  5
177
330
1F
100
AcDbEntity
  8
0
  6
PHANTOM
 62
     7
370
    25
100
AcDbLine
 10
277.3440315724
 20
126.0193713297
 30
0.0
 11
277.3440315724
 21
121.5800346163
 31
0.0
  0
LINE
  5
178
330
1F
100
AcDbEntity
  8
0
  6
PHANTOM
 62
     7
370
    25
100
AcDbLine
 10
277.3440315724
 20
118.0439012879
 30
0.0
 11
277.3440315724
 21
121.5800346163
 31
0.0
  0
LINE
  5
179
330
1F
100
AcDbEntity
  8
0
  6
PHANTOM
 62
     7
370
    25
100
AcDbLine
 10
277.3440315724
 20
118.0439012879
 30
0.0
 11
276.6741647721
 21
118.0439012879
 31
0.0
  0
ELLIPSE
  5
17A
330
1F
100
AcDbEntity
  8
0
  6
PHANTOM
 62
     7
370
    25
100
AcDbEllipse
 10
277.8440329716
 20
121.5800347665
 30
0.0
 11
0.0
 21
9.553661304648699
 31
0.0
210
2.220446049250313E-16
220
0.0
230
1.0
 40
0.0523359562
 41
1.570796326794897
 42
1.949949417570086
  0
LINE
  5
17B
330
1F
100
AcDbEntity
  8
0
  6
PHANTOM
 62
     7
370
    25
100
AcDbLine
 10
277.8440251351
 20
118.0439012879
 30
0.0
 11
277.3795559407
 21
118.0439012879
 31
0.0
  0
LINE
  5
17C
330
1F
100
AcDbEntity
  8
0
  6
PHANTOM
 62
     7
370
    25
100
AcDbLine
 10
277.3795559407
 20
118.0439012879
 30
0.0
 11
277.3440315724
 21
118.0439012879
 31
0.0
  0
LINE
  5
17D
330
1F
100
AcDbEntity
  8
0
  6
PHANTOM
 62
     7
370
    25
100
AcDbLine
 10
285.1663663388
 20
120.8931981874
 30
0.0
 11
285.2669789792
 21
120.910917065
 31
0.0
  0
LINE
  5
17E
330
1F
100
AcDbEntity
  8
0
  6
PHANTOM
 62
     7
370
    25
100
AcDbLine
 10
285.2670981885
 20
120.8939013359
 30
0.0
 11
285.2669789792
 21
120.910917065
 31
0.0
  0
ELLIPSE
  5
17F
330
1F
100
AcDbEntity
  8
0
  6
PHANTOM
 62
     7
370
    25
100
AcDbEllipse
 10
282.2445691586
 20
120.8939014042
 30
0.0
 11
2.839911965307749
 21
-1.045117224620952
 31
0.0
210
0.0
220
0.0
230
1.0
 40
0.9901957052
 41
5.068223158304752
 42
6.639019485099615
  0
LINE
  5
180
330
1F
100
AcDbEntity
  8
0
  6
PHANTOM
 62
     7
370
    25
100
AcDbLine
 10
278.8916959763
 20
117.8939013099
 30
0.0
 11
282.2638883591
 21
117.8939013099
 31
0.0
  0
ELLIPSE
  5
181
330
1F
100
AcDbEntity
  8
0
  6
PHANTOM
 62
     7
370
    25
100
AcDbEllipse
 10
274.3741599905
 20
128.2453396464
 30
0.0
 11
0.0
 21
86.81917192916313
 31
0.0
210
0.0
220
0.0
230
1.0
 40
0.0524077793
 41
4.592874801200338
 42
4.594614762281072
  0
LINE
  5
182
330
1F
100
AcDbEntity
  8
0
  6
PHANTOM
 62
     7
370
    25
100
AcDbLine
 10
279.0864243508
 20
126.0438418304
 30
0.0
 11
279.0864243508
 21
126.0153871318
 31
0.0
  0
ARC
  5
183
330
1F
100
AcDbEntity
  8
0
  6
PHANTOM
 62
     7
370
    25
100
AcDbCircle
 10
279.6207061505
 20
120.4578159497
 30
0.0
 40
0.9993645718595701
100
AcDbArc
 50
122.3182470129
 51
337.7600451822
  0
LINE
  5
184
330
1F
100
AcDbEntity
  8
0
  6
PHANTOM
 62
     7
370
    25
100
AcDbLine
 10
278.8926496507
 20
118.0439012879
 30
0.0
 11
277.8440251351
 21
118.0439012879
 31
0.0
  0
LINE
  5
185
330
1F
100
AcDbEntity
  8
0
  6
PHANTOM
 62
     7
370
    25
100
AcDbLine
 10
278.8916959763
 20
117.8939013099
 30
0.0
 11
276.4270737172
 21
117.8939013099
 31
0.0
  0
ARC
  5
186
330
1F
100
AcDbEntity
  8
0
  6
PHANTOM
 62
     7
370
    25
100
AcDbCircle
 10
279.6187336402
 20
120.3320089611
 30
0.0
 40
0.9984781076409409
100
AcDbArc
 50
123.0532270092
 51
176.375065441
  0
LINE
  5
187
330
1F
100
AcDbEntity
  8
0
  6
PHANTOM
 62
     7
370
    25
100
AcDbLine
 10
285.2319910527
 20
120.9252482568
 30
0.0
 11
285.2669789792
 21
120.910917065
 31
0.0
  0
ELLIPSE
  5
188
330
1F
100
AcDbEntity
  8
0
  6
PHANTOM
 62
     7
370
    25
100
AcDbEllipse
 10
363.4187746586
 20
115.0458163758
 30
0.0
 11
92.63020122885744
 21
0.0
 31
0.0
210
0.0
220
0.0
230
1.0
 40
0.2017562034
 41
3.575415148017744
 42
3.695771182040007
  0
ELLIPSE
  5
189
330
1F
100
AcDbEntity
  8
0
  6
PHANTOM
 62
     7
370
    25
100
AcDbEllipse
 10
302.4624285807
 20
115.0458163758
 30
0.0
 11
37.32050807568851
 21
0.0
 31
0.0
210
0.0
220
0.0
230
1.0
 40
0.2679491924
 41
3.785093762383112
 42
4.045202622669934
  0
LINE
  5
18A
330
1F
100
AcDbEntity
  8
0
  6
PHANTOM
 62
     7
370
    25
100
AcDbLine
 10
272.6060285569
 20
113.1958164097
 30
0.0
 11
272.6060285569
 21
109.0458162417
 31
0.0
  0
LINE
  5
18B
330
1F
100
AcDbEntity
  8
0
  6
PHANTOM
 62
     7
370
    25
100
AcDbLine
 10
272.6060285569
 20
113.1958164097
 30
0.0
 11
281.5269067288
 21
113.1958164097
 31
0.0
  0
ELLIPSE
  5
18C
330
1F
100
AcDbEntity
  8
0
  6
PHANTOM
 62
     7
370
    25
100
AcDbEllipse
 10
281.5269019957
 20
110.1958163758
 30
0.0
 11
3.125353687506902
 21
0.0
 31
0.0
210
0.0
220
0.0
230
1.0
 40
0.9598913595
 41
0.0
 42
1.570796326794897
  0
LINE
  5
18D
330
1F
100
AcDbEntity
  8
0
  6
PHANTOM
 62
     7
370
    25
100
AcDbLine
 10
284.6522464753
 20
110.1958161508
 30
0.0
 11
284.6522464753
 21
105.2109726061
 31
0.0
  0
ELLIPSE
  5
18E
330
1F
100
AcDbEntity
  8
0
  6
PHANTOM
 62
     7
370
    25
100
AcDbEllipse
 10
282.1848812296
 20
107.8694795488
 30
0.0
 11
-0.6912945388073695
 21
0.7675399741753921
 31
0.0
210
0.0
220
0.0
230
1.0
 40
0.9859992036
 41
5.756968368143654
 42
8.084816098283003
  0
SPLINE
  5
18F
330
1F
100
AcDbEntity
  8
0
  6
PHANTOM
 62
     7
370
    25
100
AcDbSpline
210
0.0
220
0.0
230
1.0
 70
     8
 71
     3
 72
    14
 73
    10
 74
     0
 42
0.000000001
 43
0.00000001
 40
0.0
 40
0.0
 40
0.0
 40
0.0
 40
0.1507125827741556
 40
0.3020252841445398
 40
0.4589285005497493
 40
0.6163207278508659
 40
0.7695143073264011
 40
0.9104905132382711
 40
0.9999999999999999
 40
0.9999999999999999
 40
0.9999999999999999
 40
0.9999999999999999
 10
272.8658004999958
 20
105.179952113817
 30
0.0
 10
273.0802924584967
 20
105.2059329024362
 30
0.0
 10
273.5101304555672
 20
105.2579979319153
 30
0.0
 10
274.3000361614532
 20
105.2917310692787
 30
0.0
 10
275.0976860795152
 20
105.2681261820013
 30
0.0
 10
275.8245577933096
 20
105.1939683207077
 30
0.0
 10
276.3517012242087
 20
105.1084822170412
 30
0.0
 10
276.6240955694523
 20
105.0514954333997
 30
0.0
 10
276.6029954519263
 20
105.0504713120232
 30
0.0
 10
276.594801187595
 20
105.0500735928514
 30
0.0
  0
SPLINE
  5
190
330
1F
100
AcDbEntity
  8
0
  6
PHANTOM
 62
     7
370
    25
100
AcDbSpline
210
0.0
220
0.0
230
1.0
 70
     8
 71
     3
 72
    14
 73
    10
 74
     0
 42
0.000000001
 43
0.00000001
 40
0.0
 40
0.0
 40
0.0
 40
0.0
 40
0.1353089101596658
 40
0.2753578855349511
 40
0.4285256884168795
 40
0.5965108808572066
 40
0.7742738740068741
 40
0.954910993455367
 40
1.0
 40
1.0
 40
1.0
 40
1.0
 10
276.5961422921024
 20
105.0475497086742
 30
0.0
 10
276.5425470539487
 20
105.0548375659818
 30
0.0
 10
276.4334790595696
 20
105.0696685846926
 30
0.0
 10
276.0271192198492
 20
105.1275460223793
 30
0.0
 10
275.4594619317446
 20
105.1898118869047
 30
0.0
 10
274.7313433212523
 20
105.2338519592346
 30
0.0
 10
273.9393900682217
 20
105.2311969769582
 30
0.0
 10
273.3278645611001
 20
105.1932570878863
 30
0.0
 10
273.0754784704607
 20
105.1632559823738
 30
0.0
 10
273.0250641108356
 20
105.1572632332542
 30
0.0
  0
SPLINE
  5
191
330
1F
100
AcDbEntity
  8
0
  6
PHANTOM
 62
     7
370
    25
100
AcDbSpline
210
0.0
220
0.0
230
1.0
 70
     8
 71
     3
 72
    11
 73
     7
 74
     0
 42
0.000000001
 43
0.00000001
 40
0.0
 40
0.0
 40
0.0
 40
0.0
 40
0.1165772199841177
 40
0.4453138417222954
 40
0.7779181021517393
 40
1.0
 40
1.0
 40
1.0
 40
1.0
 10
272.156609535297
 20
105.0505681251386
 30
0.0
 10
272.1442632167056
 20
105.0492199365518
 30
0.0
 10
272.0971014593415
 20
105.0440699849661
 30
0.0
 10
272.2401996222545
 20
105.0760912287229
 30
0.0
 10
272.5107447427221
 20
105.1282687966059
 30
0.0
 10
272.7642882714799
 20
105.1651755932292
 30
0.0
 10
272.8658004999958
 20
105.179952113817
 30
0.0
  0
LINE
  5
192
330
1F
100
AcDbEntity
  8
0
  6
PHANTOM
 62
     7
370
    25
100
AcDbLine
 10
279.0864243508
 20
105.045876122
 30
0.0
 11
277.8440251351
 21
105.045876122
 31
0.0
  0
SPLINE
  5
193
330
1F
100
AcDbEntity
  8
0
  6
PHANTOM
 62
     7
370
    25
100
AcDbSpline
210
0.0
220
0.0
230
1.0
 70
     8
 71
     3
 72
     9
 73
     5
 74
     0
 42
0.000000001
 43
0.00000001
 40
0.0
 40
0.0
 40
0.0
 40
0.0
 40
0.9263696502056153
 40
1.0
 40
1.0
 40
1.0
 40
1.0
 10
277.84402513512
 20
105.0458761220077
 30
0.0
 10
277.7860324346349
 20
105.0458045413938
 30
0.0
 10
277.7234303184363
 20
105.0457272713604
 30
0.0
 10
277.6709249345625
 20
105.0458329505538
 30
0.0
 10
277.6670589447818
 20
105.0458407317498
 30
0.0
  0
ELLIPSE
  5
194
330
1F
100
AcDbEntity
  8
0
  6
PHANTOM
 62
     7
370
    25
100
AcDbEllipse
 10
261.8198396149
 20
115.0458163758
 30
0.0
 11
0.0
 21
9.999999999999986
 31
0.0
210
0.0
220
0.0
230
1.0
 40
0.2679491924
 41
2.690565841793525
 42
2.720690933962843
  0
ELLIPSE
  5
195
330
1F
100
AcDbEntity
  8
0
  6
PHANTOM
 62
     7
370
    25
100
AcDbEllipse
 10
275.973591997
 20
115.0458163758
 30
0.0
 11
37.32050807568919
 21
0.0
 31
0.0
210
0.0
220
0.0
230
1.0
 40
0.2679491924
 41
4.291487260757758
 42
4.299297526589739
  0
ARC
  5
196
330
1F
100
AcDbEntity
  8
0
  6
PHANTOM
 62
     7
370
    25
100
AcDbCircle
 10
256.9771215827
 20
115.0458163758
 30
0.0
 40
9.999999999999991
100
AcDbArc
 50
293.6683968554
 51
295.8419327632
  0
ELLIPSE
  5
197
330
1F
100
AcDbEntity
  8
0
  6
PHANTOM
 62
     7
370
    25
100
AcDbEllipse
 10
266.2578882021
 20
115.0458163758
 30
0.0
 11
0.0
 21
9.999999999999986
 31
0.0
210
0.0
220
0.0
230
1.0
 40
0.2679491924
 41
2.824032224298261
 42
2.857310790848899
  0
ELLIPSE
  5
198
330
1F
100
AcDbEntity
  8
0
  6
PHANTOM
 62
     7
370
    25
100
AcDbEllipse
 10
275.973591997
 20
115.0458163758
 30
0.0
 11
37.32050807568965
 21
0.0
 31
0.0
210
0.0
220
0.0
230
1.0
 40
0.2679491924
 41
4.428107117643791
 42
4.435538699541762
  0
ARC
  5
199
330
1F
100
AcDbEntity
  8
0
  6
PHANTOM
 62
     7
370
    25
100
AcDbCircle
 10
263.0396086961
 20
115.0458163758
 30
0.0
 40
10.00000000000001
100
AcDbArc
 50
285.8623526493
 51
288.1948723388
  0
ELLIPSE
  5
19A
330
1F
100
AcDbEntity
  8
0
  6
PHANTOM
 62
     7
370
    25
100
AcDbEllipse
 10
267.7372377312
 20
115.0458163758
 30
0.0
 11
0.0
 21
9.999999999999986
 31
0.0
210
0.0
220
0.0
230
1.0
 40
0.2679491924
 41
2.824032224298261
 42
2.90153042843341
  0
ELLIPSE
  5
19B
330
1F
100
AcDbEntity
  8
0
  6
PHANTOM
 62
     7
370
    25
100
AcDbEllipse
 10
275.973591997
 20
115.0458163758
 30
0.0
 11
37.32050807568965
 21
0.0
 31
0.0
210
0.0
220
0.0
230
1.0
 40
0.2679491924
 41
4.472326755228304
 42
4.479672026448971
  0
ARC
  5
19C
330
1F
100
AcDbEntity
  8
0
  6
PHANTOM
 62
     7
370
    25
100
AcDbCircle
 10
265.0604377339
 20
115.0458163758
 30
0.0
 40
10.00000000000001
100
AcDbArc
 50
283.3336992817
 51
288.2454411147
  0
SPLINE
  5
19D
330
1F
100
AcDbEntity
  8
0
  6
PHANTOM
 62
     7
370
    25
100
AcDbSpline
210
0.0
220
0.0
230
1.0
 70
     8
 71
     3
 72
     9
 73
     5
 74
     0
 42
0.000000001
 43
0.00000001
 40
0.0
 40
0.0
 40
0.0
 40
0.0
 40
0.6723733651414845
 40
1.0
 40
1.0
 40
1.0
 40
1.0
 10
268.3678402901493
 20
105.5458165993193
 30
0.0
 10
268.3749249712649
 20
105.542715424278
 30
0.0
 10
268.3854617972054
 20
105.5381031430635
 30
0.0
 10
268.3904501591683
 20
105.5327607449455
 30
0.0
 10
268.3920844794117
 20
105.531010433028
 30
0.0
  0
ELLIPSE
  5
19E
330
1F
100
AcDbEntity
  8
0
  6
PHANTOM
 62
     7
370
    25
100
AcDbEllipse
 10
269.2165872603
 20
115.0458163758
 30
0.0
 11
0.0
 21
9.999999999999986
 31
0.0
210
0.0
220
0.0
230
1.0
 40
0.2679491924
 41
2.828808611609466
 42
2.94527614415715
  0
ELLIPSE
  5
19F
330
1F
100
AcDbEntity
  8
0
  6
PHANTOM
 62
     7
370
    25
100
AcDbEllipse
 10
275.973591997
 20
115.0458163758
 30
0.0
 11
37.32050807568965
 21
0.0
 31
0.0
210
0.0
220
0.0
230
1.0
 40
0.2679491924
 41
4.51607247095206
 42
4.523348105695048
  0
ARC
  5
1A0
330
1F
100
AcDbEntity
  8
0
  6
PHANTOM
 62
     7
370
    25
100
AcDbCircle
 10
267.0812667717
 20
115.0458163758
 30
0.0
 40
9.999999999999998
100
AcDbArc
 50
280.8312442752
 51
285.6870646678
  0
SPLINE
  5
1A1
330
1F
100
AcDbEntity
  8
0
  6
PHANTOM
 62
     7
370
    25
100
AcDbSpline
210
0.0
220
0.0
230
1.0
 70
     8
 71
     3
 72
    14
 73
    10
 74
     0
 42
0.000000001
 43
0.00000001
 40
0.0
 40
0.0
 40
0.0
 40
0.0
 40
0.1579950197813958
 40
0.3162058817267302
 40
0.470890741077037
 40
0.6240667237422921
 40
0.7795222159344497
 40
0.9401217750314443
 40
1.0
 40
1.0
 40
1.0
 40
1.0
 10
269.7851046324573
 20
105.4182878052094
 30
0.0
 10
269.7953238866355
 20
105.4206672008173
 30
0.0
 10
269.8157763558494
 20
105.425429242603
 30
0.0
 10
269.855086140996
 20
105.4285734382483
 30
0.0
 10
269.8950238810843
 20
105.4281021574135
 30
0.0
 10
269.9320399524839
 20
105.4240114111312
 30
0.0
 10
269.9624060354677
 20
105.416843150795
 30
0.0
 10
269.9791037092385
 20
105.4093684549599
 30
0.0
 10
269.9844232699676
 20
105.4046290789384
 30
0.0
 10
269.985867977222
 20
105.403341940532
 30
0.0
  0
ELLIPSE
  5
1A2
330
1F
100
AcDbEntity
  8
0
  6
PHANTOM
 62
     7
370
    25
100
AcDbEllipse
 10
270.6959367893
 20
115.0458163758
 30
0.0
 11
0.0
 21
9.999999999999986
 31
0.0
210
0.0
220
0.0
230
1.0
 40
0.2679491924
 41
2.873384951145505
 42
2.988644242073815
  0
ELLIPSE
  5
1A3
330
1F
100
AcDbEntity
  8
0
  6
PHANTOM
 62
     7
370
    25
100
AcDbEllipse
 10
275.973591997
 20
115.0458163758
 30
0.0
 11
37.32050807569561
 21
0.0
 31
0.0
210
0.0
220
0.0
230
1.0
 40
0.2679491924
 41
4.559440568868725
 42
4.573968763392388
  0
LINE
  5
1A4
330
1F
100
AcDbEntity
  8
0
  6
PHANTOM
 62
     7
370
    25
100
AcDbLine
 10
270.8241626025
 20
105.0458165174
 30
0.0
 11
270.8241626025
 21
105.1373599385
 31
0.0
  0
ELLIPSE
  5
1A5
330
1F
100
AcDbEntity
  8
0
  6
PHANTOM
 62
     7
370
    25
100
AcDbEllipse
 10
270.4624285807
 20
115.0458163758
 30
0.0
 11
0.0
 21
9.999999999999986
 31
0.0
210
0.0
220
0.0
230
1.0
 40
0.2679491924
 41
3.27700611605642
 42
4.068887871591434
  0
LINE
  5
1A6
330
1F
100
AcDbEntity
  8
0
  6
PHANTOM
 62
     7
370
    25
100
AcDbLine
 10
279.3693079949
 20
107.1901588057
 30
0.0
 11
279.3693079949
 21
105.3147759577
 31
0.0
  0
LINE
  5
1A7
330
1F
100
AcDbEntity
  8
0
  6
PHANTOM
 62
     7
370
    25
100
AcDbLine
 10
279.2202665807
 20
105.3147759577
 30
0.0
 11
279.3693079949
 21
105.3147759577
 31
0.0
  0
LINE
  5
1A8
330
1F
100
AcDbEntity
  8
0
  6
PHANTOM
 62
     7
370
    25
100
AcDbLine
 10
279.2202665807
 20
105.1090514575
 30
0.0
 11
279.2202665807
 21
105.3147759577
 31
0.0
  0
ELLIPSE
  5
1A9
330
1F
100
AcDbEntity
  8
0
  6
PHANTOM
 62
     7
370
    25
100
AcDbEllipse
 10
279.1464530238
 20
115.0458163758
 30
0.0
 11
0.06524129929186982
 21
9.999996800550944
 31
0.0
210
0.0
220
0.0
230
1.0
 40
0.1226111485
 41
3.145855028561386
 42
3.254910790703978
  0
LINE
  5
1AA
330
1F
100
AcDbEntity
  8
0
  6
PHANTOM
 62
     7
370
    25
100
AcDbLine
 10
270.8241626025
 20
105.8798270588
 30
0.0
 11
270.8241626025
 21
105.1373599385
 31
0.0
  0
LINE
  5
1AB
330
1F
100
AcDbEntity
  8
0
  6
PHANTOM
 62
     7
370
    25
100
AcDbLine
 10
272.1741631032
 20
113.1958164097
 30
0.0
 11
272.6060285569
 21
113.1958164097
 31
0.0
  0
ELLIPSE
  5
1AC
330
1F
100
AcDbEntity
  8
0
  6
PHANTOM
 62
     7
370
    25
100
AcDbEllipse
 10
285.2675586377
 20
115.0458163758
 30
0.0
 11
0.0
 21
11.03743194309301
 31
0.0
210
0.0
220
0.0
230
1.0
 40
0.1228133476
 41
2.670437482853998
 42
2.90432428973165
  0
LINE
  5
1AD
330
1F
100
AcDbEntity
  8
0
  6
PHANTOM
 62
     7
370
    25
100
AcDbLine
 10
279.3693079949
 20
105.3147759577
 30
0.0
 11
284.9489285947
 21
104.3176126023
 31
0.0
  0
ELLIPSE
  5
1AE
330
1F
100
AcDbEntity
  8
0
  6
PHANTOM
 62
     7
370
    25
100
AcDbEllipse
 10
281.9642361731
 20
110.1958163758
 30
0.0
 11
2.839911965307749
 21
1.04511722462091
 31
0.0
210
0.0
220
0.0
230
1.0
 40
0.9901957052
 41
5.927351129259581
 42
5.932660949177783
  0
ELLIPSE
  5
1AF
330
1F
100
AcDbEntity
  8
0
  6
PHANTOM
 62
     7
370
    25
100
AcDbEllipse
 10
282.2445691586
 20
110.1958163758
 30
0.0
 11
2.83991196530775
 21
1.045117224620924
 31
0.0
210
0.0
220
0.0
230
1.0
 40
0.9901957052
 41
5.92735112925958
 42
7.498147456054439
  0
ELLIPSE
  5
1B0
330
1F
100
AcDbEntity
  8
0
  6
PHANTOM
 62
     7
370
    25
100
AcDbEllipse
 10
282.8751943815
 20
110.1958163758
 30
0.0
 11
5.38967570125891
 21
-2.852306042214551
 31
0.0
210
0.0
220
0.0
230
1.0
 40
0.1724972773
 41
1.25570693717295
 42
1.261016757091152
  0
LINE
  5
1B1
330
1F
100
AcDbEntity
  8
0
  6
PHANTOM
 62
     7
370
    25
100
AcDbLine
 10
281.5269067288
 20
113.1958164097
 30
0.0
 11
282.2638883591
 21
113.1958164097
 31
0.0
  0
LINE
  5
1B2
330
1F
100
AcDbEntity
  8
0
  6
PHANTOM
 62
     7
370
    25
100
AcDbLine
 10
284.9489285947
 20
104.3176126023
 30
0.0
 11
284.9867775441
 21
110.1958161508
 31
0.0
  0
LINE
  5
1B3
330
1F
100
AcDbEntity
  8
0
  6
PHANTOM
 62
     7
370
    25
100
AcDbLine
 10
285.0132420064
 20
110.1958161508
 30
0.0
 11
285.1326301099
 21
110.1237941821
 31
0.0
  0
LINE
  5
1B4
330
1F
100
AcDbEntity
  8
0
  6
PHANTOM
 62
     7
370
    25
100
AcDbLine
 10
284.9864795209
 20
110.1495289532
 30
0.0
 11
285.1326301099
 21
110.1237941821
 31
0.0
  0
LINE
  5
1B5
330
1F
100
AcDbEntity
  8
0
  6
PHANTOM
 62
     7
370
    25
100
AcDbLine
 10
285.2670981885
 20
110.1958161508
 30
0.0
 11
285.2669789792
 21
110.1788004217
 31
0.0
  0
LINE
  5
1B6
330
1F
100
AcDbEntity
  8
0
  6
PHANTOM
 62
     7
370
    25
100
AcDbLine
 10
285.1326301099
 20
110.1237941821
 30
0.0
 11
285.2669789792
 21
110.1788004217
 31
0.0
  0
LINE
  5
1B7
330
1F
100
AcDbEntity
  8
0
  6
PHANTOM
 62
     7
370
    25
100
AcDbLine
 10
270.2877058984
 20
105.5458165993
 30
0.0
 11
270.2877058984
 21
105.1625550081
 31
0.0
  0
LINE
  5
1B8
330
1F
100
AcDbEntity
  8
0
  6
PHANTOM
 62
     7
370
    25
100
AcDbLine
 10
268.9604296685
 20
105.5458165993
 30
0.0
 11
268.9604296685
 21
105.22396735
 31
0.0
  0
LINE
  5
1B9
330
1F
100
AcDbEntity
  8
0
  6
PHANTOM
 62
     7
370
    25
100
AcDbLine
 10
268.6939373017
 20
105.5458165993
 30
0.0
 11
268.6939373017
 21
105.2378990044
 31
0.0
  0
LINE
  5
1BA
330
1F
100
AcDbEntity
  8
0
  6
PHANTOM
 62
     7
370
    25
100
AcDbLine
 10
267.3666610719
 20
105.5458165993
 30
0.0
 11
267.3666610719
 21
105.3153822486
 31
0.0
  0
LINE
  5
1BB
330
1F
100
AcDbEntity
  8
0
  6
PHANTOM
 62
     7
370
    25
100
AcDbLine
 10
267.1001538039
 20
105.5458165993
 30
0.0
 11
267.1001538039
 21
105.3325847079
 31
0.0
  0
ELLIPSE
  5
1BC
330
1F
100
AcDbEntity
  8
0
  6
PHANTOM
 62
     7
370
    25
100
AcDbEllipse
 10
272.582408281
 20
113.6958163758
 30
0.0
 11
0.0
 21
0.5
 31
0.0
210
0.0
220
0.0
230
1.0
 40
0.8164965809
 41
1.875488980810228
 42
2.606289218731087
  0
LINE
  5
1BD
330
1F
100
AcDbEntity
  8
0
  6
PHANTOM
 62
     7
370
    25
100
AcDbLine
 10
265.772877574
 20
105.5458165993
 30
0.0
 11
265.772877574
 21
105.4266054471
 31
0.0
  0
LINE
  5
1BE
330
1F
100
AcDbEntity
  8
0
  6
PHANTOM
 62
     7
370
    25
100
AcDbLine
 10
265.5063703061
 20
105.5458165993
 30
0.0
 11
265.5063703061
 21
105.4471830194
 31
0.0
  0
LINE
  5
1BF
330
1F
100
AcDbEntity
  8
0
  6
PHANTOM
 62
     7
370
    25
100
AcDbLine
 10
260.9915419818
 20
106.0458166813
 30
0.0
 11
260.9915419818
 21
105.8869749596
 31
0.0
  0
LINE
  5
1C0
330
1F
100
AcDbEntity
  8
0
  6
PHANTOM
 62
     7
370
    25
100
AcDbLine
 10
260.725049615
 20
106.0458166813
 30
0.0
 11
260.725049615
 21
105.9186073308
 31
0.0
  0
LINE
  5
1C1
330
1F
100
AcDbEntity
  8
0
  6
PHANTOM
 62
     7
370
    25
100
AcDbLine
 10
259.4643517733
 20
117.430346325
 30
0.0
 11
259.4643517733
 21
108.4184913253
 31
0.0
  0
ELLIPSE
  5
1C2
330
1F
100
AcDbEntity
  8
0
  6
PHANTOM
 62
     7
370
    25
100
AcDbEllipse
 10
261.3438442937
 20
115.5458163758
 30
0.0
 11
0.0
 21
9.999999999999986
 31
0.0
210
0.0
220
0.0
230
1.0
 40
0.2679491924
 41
1.381209649085635
 42
2.364182458520866
  0
LINE
  5
1C3
330
1F
100
AcDbEntity
  8
0
  6
PHANTOM
 62
     7
370
    25
100
AcDbLine
 10
258.7123646737
 20
117.430346325
 30
0.0
 11
259.4643517733
 21
117.430346325
 31
0.0
  0
LWPOLYLINE
  5
1C4
330
1F
100
AcDbEntity
  8
0
  6
PHANTOM
 62
     7
370
    25
100
AcDbPolyline
 90
       17
 70
   128
 43
0.0
 10
258.7404682637
 20
115.5458163758
 10
258.7601675988
 20
115.1631329322
 10
258.8162704707
 20
114.8387095946
 10
258.900238514
 20
114.6219368148
 10
258.9992865325
 20
114.5458163283
 10
259.0983345509
 20
114.6219368148
 10
259.1823025943
 20
114.8387095946
 10
259.2384054662
 20
115.1631329322
 10
259.2581048013
 20
115.5458163758
 10
259.2384054662
 20
115.9284998194
 10
259.1823025943
 20
116.252923157
 10
259.0983345509
 20
116.4696959368
 10
258.9992865325
 20
116.5458164233
 10
258.900238514
 20
116.4696959368
 10
258.8162704707
 20
116.252923157
 10
258.7601675988
 20
115.9284998194
 10
258.7404682637
 20
115.5458163758
  0
LINE
  5
1C5
330
1F
100
AcDbEntity
  8
0
  6
PHANTOM
 62
     7
370
    25
100
AcDbLine
 10
249.4643464089
 20
106.0458166813
 30
0.0
 11
261.4643558265
 21
106.0458166813
 31
0.0
  0
LINE
  5
1C6
330
1F
100
AcDbEntity
  8
0
  6
PHANTOM
 62
     7
370
    25
100
AcDbLine
 10
249.4643464089
 20
106.0458166813
 30
0.0
 11
249.4643464089
 21
105.5458165993
 31
0.0
  0
LINE
  5
1C7
330
1F
100
AcDbEntity
  8
0
  6
PHANTOM
 62
     7
370
    25
100
AcDbLine
 10
261.4643558265
 20
106.0458166813
 30
0.0
 11
261.4643558265
 21
105.5458165993
 31
0.0
  0
LINE
  5
1C8
330
1F
100
AcDbEntity
  8
0
  6
PHANTOM
 62
     7
370
    25
100
AcDbLine
 10
259.4643517733
 20
108.4184913253
 30
0.0
 11
259.4643517733
 21
107.1413956871
 31
0.0
  0
ELLIPSE
  5
1C9
330
1F
100
AcDbEntity
  8
0
  6
PHANTOM
 62
     7
370
    25
100
AcDbEllipse
 10
279.6883906374
 20
115.5458163758
 30
0.0
 11
37.32050807568862
 21
0.0
 31
0.0
210
0.0
220
0.0
230
1.0
 40
0.2679491924
 41
4.139691050113342
 42
4.171777481837943
  0
ELLIPSE
  5
1CA
330
1F
100
AcDbEntity
  8
0
  6
PHANTOM
 62
     7
370
    25
100
AcDbEllipse
 10
261.8600319937
 20
115.5458163758
 30
0.0
 11
0.0
 21
9.999999999999986
 31
0.0
210
0.0
220
0.0
230
1.0
 40
0.2679491924
 41
2.600981155043024
 42
2.727882188683313
  0
SPLINE
  5
1CB
330
1F
100
AcDbEntity
  8
0
  6
PHANTOM
 62
     7
370
    25
100
AcDbSpline
210
0.0
220
0.0
230
1.0
 70
     8
 71
     3
 72
    14
 73
    10
 74
     0
 42
0.000000001
 43
0.00000001
 40
0.0
 40
0.0
 40
0.0
 40
0.0
 40
0.1751045950155291
 40
0.3506143525529222
 40
0.5146058447798526
 40
0.6654860716741829
 40
0.8099422982093721
 40
0.9559311200231756
 40
1.0
 40
1.0
 40
1.0
 40
1.0
 10
260.7828512192569
 20
106.3894616727927
 30
0.0
 10
260.7878192548599
 20
106.3837185778333
 30
0.0
 10
260.797766821263
 20
106.3722190993607
 30
0.0
 10
260.8291854708108
 20
106.3591597530843
 30
0.0
 10
260.867611087412
 20
106.3516495156659
 30
0.0
 10
260.9077637281323
 20
106.3501849109848
 30
0.0
 10
260.9450268766368
 20
106.354019831849
 30
0.0
 10
260.9696124184641
 20
106.3603161313109
 30
0.0
 10
260.9809789860051
 20
106.3649556819544
 30
0.0
 10
260.9836145640217
 20
106.3660314594605
 30
0.0
  0
ARC
  5
1CC
330
1F
100
AcDbEntity
  8
0
  6
PHANTOM
 62
     7
370
    25
100
AcDbCircle
 10
257.0173139616
 20
115.5458163758
 30
0.0
 40
10.00000000000007
100
AcDbArc
 50
293.3676760771
 51
298.6263915199
  0
ELLIPSE
  5
1CD
330
1F
100
AcDbEntity
  8
0
  6
PHANTOM
 62
     7
370
    25
100
AcDbEllipse
 10
279.6883906374
 20
115.5458163758
 30
0.0
 11
37.32050807568839
 21
0.0
 31
0.0
210
0.0
220
0.0
230
1.0
 40
0.2679491924
 41
4.21276419539795
 42
4.220881740161169
  0
ELLIPSE
  5
1CE
330
1F
100
AcDbEntity
  8
0
  6
PHANTOM
 62
     7
370
    25
100
AcDbEllipse
 10
263.3393815228
 20
115.5458163758
 30
0.0
 11
0.0
 21
9.999999999999986
 31
0.0
210
0.0
220
0.0
230
1.0
 40
0.2679491924
 41
2.650085413366267
 42
2.774070266213153
  0
SPLINE
  5
1CF
330
1F
100
AcDbEntity
  8
0
  6
PHANTOM
 62
     7
370
    25
100
AcDbSpline
210
0.0
220
0.0
230
1.0
 70
     8
 71
     3
 72
    14
 73
    10
 74
     0
 42
0.000000001
 43
0.00000001
 40
0.0
 40
0.0
 40
0.0
 40
0.0
 40
0.1717267436635171
 40
0.34377557678233
 40
0.5071621570489279
 40
0.6603938485346523
 40
0.8084426714311927
 40
0.9575419041900682
 40
1.0
 40
1.0
 40
1.0
 40
1.0
 10
262.3766347170673
 20
106.2136121382215
 30
0.0
 10
262.3815476875433
 20
106.2086207405578
 30
0.0
 10
262.3913828432277
 20
106.1986285834005
 30
0.0
 10
262.4222687617732
 20
106.1872760081665
 30
0.0
 10
262.4602097602256
 20
106.180604565355
 30
0.0
 10
262.5005135903553
 20
106.1791597938149
 30
0.0
 10
262.5384122827559
 20
106.1824700128051
 30
0.0
 10
262.5633687825494
 20
106.1880571346284
 30
0.0
 10
262.5748526890836
 20
106.1921673266172
 30
0.0
 10
262.577398061832
 20
106.1930783380964
 30
0.0
  0
ARC
  5
1D0
330
1F
100
AcDbEntity
  8
0
  6
PHANTOM
 62
     7
370
    25
100
AcDbCircle
 10
259.0381429994
 20
115.5458163758
 30
0.0
 40
10.00000000000002
100
AcDbArc
 50
290.7275699382
 51
295.873843555
  0
ELLIPSE
  5
1D1
330
1F
100
AcDbEntity
  8
0
  6
PHANTOM
 62
     7
370
    25
100
AcDbEllipse
 10
279.6883906374
 20
115.5458163758
 30
0.0
 11
37.32050807568816
 21
0.0
 31
0.0
210
0.0
220
0.0
230
1.0
 40
0.2679491924
 41
4.260805220204362
 42
4.268726652717277
  0
ELLIPSE
  5
1D2
330
1F
100
AcDbEntity
  8
0
  6
PHANTOM
 62
     7
370
    25
100
AcDbEllipse
 10
264.8187310519
 20
115.5458163758
 30
0.0
 11
0.0
 21
9.999999999999986
 31
0.0
210
0.0
220
0.0
230
1.0
 40
0.2679491924
 41
2.697930325922374
 42
2.81945050989723
  0
SPLINE
  5
1D3
330
1F
100
AcDbEntity
  8
0
  6
PHANTOM
 62
     7
370
    25
100
AcDbSpline
210
0.0
220
0.0
230
1.0
 70
     8
 71
     3
 72
    14
 73
    10
 74
     0
 42
0.000000001
 43
0.00000001
 40
0.0
 40
0.0
 40
0.0
 40
0.0
 40
0.1690060956898432
 40
0.338203237235505
 40
0.5010758968871771
 40
0.6562702080605891
 40
0.8074037992406794
 40
0.9592454863896208
 40
1.0
 40
1.0
 40
1.0
 40
1.0
 10
263.9704033137165
 20
106.0602223788598
 30
0.0
 10
263.9752822053017
 20
106.0559271824224
 30
0.0
 10
263.9850455036105
 20
106.0473319342227
 30
0.0
 10
264.0154905111729
 20
106.0375634694219
 30
0.0
 10
264.0530520964519
 20
106.0317342923418
 30
0.0
 10
264.0934808421882
 20
106.0303676345326
 30
0.0
 10
264.1319106876434
 20
106.0332009906644
 30
0.0
 10
264.1571686972028
 20
106.0380853964435
 30
0.0
 10
264.1687219258607
 20
106.0416769230392
 30
0.0
 10
264.1711666584812
 20
106.0424369116524
 30
0.0
  0
ARC
  5
1D4
330
1F
100
AcDbEntity
  8
0
  6
PHANTOM
 62
     7
370
    25
100
AcDbCircle
 10
261.0589720372
 20
115.5458163758
 30
0.0
 40
10.00000000000004
100
AcDbArc
 50
288.1327556643
 51
293.1840445404
  0
ELLIPSE
  5
1D5
330
1F
100
AcDbEntity
  8
0
  6
PHANTOM
 62
     7
370
    25
100
AcDbEllipse
 10
279.6883906374
 20
115.5458163758
 30
0.0
 11
37.32050807568902
 21
0.0
 31
0.0
210
0.0
220
0.0
230
1.0
 40
0.2679491924
 41
4.307751069225149
 42
4.315506579260734
  0
ELLIPSE
  5
1D6
330
1F
100
AcDbEntity
  8
0
  6
PHANTOM
 62
     7
370
    25
100
AcDbEllipse
 10
266.298080581
 20
115.5458163758
 30
0.0
 11
0.0
 21
9.999999999999986
 31
0.0
210
0.0
220
0.0
230
1.0
 40
0.2679491924
 41
2.744710252465844
 42
2.864153017737912
  0
SPLINE
  5
1D7
330
1F
100
AcDbEntity
  8
0
  6
PHANTOM
 62
     7
370
    25
100
AcDbSpline
210
0.0
220
0.0
230
1.0
 70
     8
 71
     3
 72
    14
 73
    10
 74
     0
 42
0.000000001
 43
0.00000001
 40
0.0
 40
0.0
 40
0.0
 40
0.0
 40
0.1667570525591031
 40
0.3336777586568941
 40
0.4960673847392045
 40
0.6528392758384776
 40
0.8065890983513997
 40
0.9608310270871575
 40
1.0
 40
1.0
 40
1.0
 40
1.0
 10
265.5641868115268
 20
105.9282176484564
 30
0.0
 10
265.5690291998426
 20
105.9245745282458
 30
0.0
 10
265.5787187287407
 20
105.9172847125065
 30
0.0
 10
265.6088323113101
 20
105.9090156513416
 30
0.0
 10
265.6460814956566
 20
105.9040167921552
 30
0.0
 10
265.6866072190664
 20
105.9027755298099
 30
0.0
 10
265.7254832669598
 20
105.9051638444087
 30
0.0
 10
265.7509729387558
 20
105.9093596902149
 30
0.0
 10
265.7625962412931
 20
105.9124371383509
 30
0.0
 10
265.7649501562915
 20
105.9130603735545
 30
0.0
  0
ARC
  5
1D8
330
1F
100
AcDbEntity
  8
0
  6
PHANTOM
 62
     7
370
    25
100
AcDbCircle
 10
263.079801075
 20
115.5458163758
 30
0.0
 40
10.00000000000002
100
AcDbArc
 50
285.5758984239
 51
290.5473166739
  0
ELLIPSE
  5
1D9
330
1F
100
AcDbEntity
  8
0
  6
PHANTOM
 62
     7
370
    25
100
AcDbEllipse
 10
279.6883906374
 20
115.5458163758
 30
0.0
 11
37.32050807568902
 21
0.0
 31
0.0
210
0.0
220
0.0
230
1.0
 40
0.2679491924
 41
4.353770651974866
 42
4.361385993493919
  0
ELLIPSE
  5
1DA
330
1F
100
AcDbEntity
  8
0
  6
PHANTOM
 62
     7
370
    25
100
AcDbEllipse
 10
267.77743011
 20
115.5458163758
 30
0.0
 11
0.0
 21
9.999999999999986
 31
0.0
210
0.0
220
0.0
230
1.0
 40
0.2679491924
 41
2.790589666699011
 42
2.908293089774283
  0
SPLINE
  5
1DB
330
1F
100
AcDbEntity
  8
0
  6
PHANTOM
 62
     7
370
    25
100
AcDbSpline
210
0.0
220
0.0
230
1.0
 70
     8
 71
     3
 72
    14
 73
    10
 74
     0
 42
0.000000001
 43
0.00000001
 40
0.0
 40
0.0
 40
0.0
 40
0.0
 40
0.1649932039256699
 40
0.3300776828614866
 40
0.4920569141795421
 40
0.6501536378404834
 40
0.8061067863770622
 40
0.9623505122812532
 40
1.0
 40
1.0
 40
1.0
 40
1.0
 10
267.157955408176
 20
105.8167280917266
 30
0.0
 10
267.1627791881402
 20
105.8137034738008
 30
0.0
 10
267.1724294166063
 20
105.8076525647166
 30
0.0
 10
267.2022707435812
 20
105.8008047400051
 30
0.0
 10
267.2392776336606
 20
105.7966284530983
 30
0.0
 10
267.2798873436968
 20
105.7955470715988
 30
0.0
 10
267.3191284980193
 20
105.7975175004262
 30
0.0
 10
267.3448053572374
 20
105.8010264413418
 30
0.0
 10
267.3564563960725
 20
105.8036012526495
 30
0.0
 10
267.3587187529407
 20
105.80410122026
 30
0.0
  0
ARC
  5
1DC
330
1F
100
AcDbEntity
  8
0
  6
PHANTOM
 62
     7
370
    25
100
AcDbCircle
 10
265.1006301128
 20
115.5458163758
 30
0.0
 40
10.00000000000002
100
AcDbArc
 50
283.0504841284
 51
287.9553440188
  0
ELLIPSE
  5
1DD
330
1F
100
AcDbEntity
  8
0
  6
PHANTOM
 62
     7
370
    25
100
AcDbEllipse
 10
279.6883906374
 20
115.5458163758
 30
0.0
 11
37.32050807568896
 21
0.0
 31
0.0
210
0.0
220
0.0
230
1.0
 40
0.2679491924
 41
4.399009108928134
 42
4.406506645240076
  0
ELLIPSE
  5
1DE
330
1F
100
AcDbEntity
  8
0
  6
PHANTOM
 62
     7
370
    25
100
AcDbEllipse
 10
269.2567796391
 20
115.5458163758
 30
0.0
 11
0.0
 21
9.999999999999986
 31
0.0
210
0.0
220
0.0
230
1.0
 40
0.2679491924
 41
2.835710318445174
 42
2.951974599548652
  0
SPLINE
  5
1DF
330
1F
100
AcDbEntity
  8
0
  6
PHANTOM
 62
     7
370
    25
100
AcDbSpline
210
0.0
220
0.0
230
1.0
 70
     8
 71
     3
 72
    14
 73
    10
 74
     0
 42
0.000000001
 43
0.00000001
 40
0.0
 40
0.0
 40
0.0
 40
0.0
 40
0.1635598834254565
 40
0.3272194608180594
 40
0.4888286968253178
 40
0.6479985845441968
 40
0.8057293537574298
 40
0.9636107643596509
 40
1.0
 40
1.0
 40
1.0
 40
1.0
 10
268.7517389059864
 20
105.7250533540943
 30
0.0
 10
268.7565384921359
 20
105.7226212312881
 30
0.0
 10
268.7661405899063
 20
105.7177555032343
 30
0.0
 10
268.795784358843
 20
105.7122764800395
 30
0.0
 10
268.8325971290862
 20
105.7089108068943
 30
0.0
 10
268.873273067651
 20
105.7080117694378
 30
0.0
 10
268.9128153930432
 20
105.7095819011477
 30
0.0
 10
268.9386173678595
 20
105.7124173230107
 30
0.0
 10
268.9503117516003
 20
105.7144927048747
 30
0.0
 10
268.9525022507511
 20
105.7148814489344
 30
0.0
  0
ARC
  5
1E0
330
1F
100
AcDbEntity
  8
0
  6
PHANTOM
 62
     7
370
    25
100
AcDbCircle
 10
267.1214591506
 20
115.5458163758
 30
0.0
 40
10.00000000000003
100
AcDbArc
 50
280.5506322362
 51
285.4008553725
  0
ELLIPSE
  5
1E1
330
1F
100
AcDbEntity
  8
0
  6
PHANTOM
 62
     7
370
    25
100
AcDbEllipse
 10
279.6883906374
 20
115.5458163758
 30
0.0
 11
37.32050807568902
 21
0.0
 31
0.0
210
0.0
220
0.0
230
1.0
 40
0.2679491924
 41
4.4435933465112
 42
4.45099282811881
  0
ELLIPSE
  5
1E2
330
1F
100
AcDbEntity
  8
0
  6
PHANTOM
 62
     7
370
    25
100
AcDbEllipse
 10
270.7361291682
 20
115.5458163758
 30
0.0
 11
0.0
 21
9.999999999999986
 31
0.0
210
0.0
220
0.0
230
1.0
 40
0.2679491924
 41
2.880196501323916
 42
2.995292652286721
  0
SPLINE
  5
1E3
330
1F
100
AcDbEntity
  8
0
  6
PHANTOM
 62
     7
370
    25
100
AcDbSpline
210
0.0
220
0.0
230
1.0
 70
     8
 71
     3
 72
    10
 73
     6
 74
     0
 42
0.000000001
 43
0.00000001
 40
0.0
 40
0.0
 40
0.0
 40
0.0
 40
0.3245166836137199
 40
0.6491954843666522
 40
1.0
 40
1.0
 40
1.0
 40
1.0
 10
270.3455224037967
 20
105.6526439552405
 30
0.0
 10
270.3503226158548
 20
105.6507919425863
 30
0.0
 10
270.3599254379884
 20
105.6470869920773
 30
0.0
 10
270.3900200728021
 20
105.6426933026481
 30
0.0
 10
270.4165773817332
 20
105.6412579706171
 30
0.0
 10
270.4303696156345
 20
105.6405125473836
 30
0.0
  0
ELLIPSE
  5
1E4
330
1F
100
AcDbEntity
  8
0
  6
PHANTOM
 62
     7
370
    25
100
AcDbEllipse
 10
275.5542281009
 20
115.5458163758
 30
0.0
 11
37.32050807568845
 21
0.0
 31
0.0
210
0.0
220
0.0
230
1.0
 40
0.2679491924
 41
4.574660577400854
 42
4.578284064409092
  0
LINE
  5
1E5
330
1F
100
AcDbEntity
  8
0
  6
PHANTOM
 62
     7
370
    25
100
AcDbLine
 10
270.5643459559
 20
105.6356026148
 30
0.0
 11
270.5643459559
 21
105.5458165993
 31
0.0
  0
ELLIPSE
  5
1E6
330
1F
100
AcDbEntity
  8
0
  6
PHANTOM
 62
     7
370
    25
100
AcDbEllipse
 10
279.6883906374
 20
115.5458163758
 30
0.0
 11
37.32050807568862
 21
0.0
 31
0.0
210
0.0
220
0.0
230
1.0
 40
0.2679491924
 41
2.11140782534166
 42
2.143494257066264
  0
LINE
  5
1E7
330
1F
100
AcDbEntity
  8
0
  6
PHANTOM
 62
     7
370
    25
100
AcDbLine
 10
259.4643517733
 20
123.9502370646
 30
0.0
 11
259.4643517733
 21
122.6731414263
 31
0.0
  0
ELLIPSE
  5
1E8
330
1F
100
AcDbEntity
  8
0
  6
PHANTOM
 62
     7
370
    25
100
AcDbEllipse
 10
261.3438442937
 20
115.5458163758
 30
0.0
 11
0.0
 21
9.999999999999986
 31
0.0
210
0.0
220
0.0
230
1.0
 40
0.2679491924
 41
0.7774101950689277
 42
1.357638809189111
  0
ELLIPSE
  5
1E9
330
1F
100
AcDbEntity
  8
0
  6
PHANTOM
 62
     7
370
    25
100
AcDbEllipse
 10
257.5504871689
 20
115.5458163758
 30
0.0
 11
18.11988107809191
 21
9.93515685898933
 31
0.0
210
0.0
220
0.0
230
1.0
 40
0.0627460668
 41
1.471580320196704
 42
1.483379917012171
  0
ELLIPSE
  5
1EA
330
1F
100
AcDbEntity
  8
0
  6
PHANTOM
 62
     7
370
    25
100
AcDbEllipse
 10
264.7230909463
 20
115.5458163758
 30
0.0
 11
18.11988107809213
 21
-9.935156858989416
 31
0.0
210
0.0
220
0.0
230
1.0
 40
0.0627460668
 41
4.397089548586782
 42
4.40886079166784
  0
LINE
  5
1EB
330
1F
100
AcDbEntity
  8
0
  6
PHANTOM
 62
     7
370
    25
100
AcDbLine
 10
247.6643457414
 20
115.5458163758
 30
0.0
 11
247.6643457414
 21
105.5458165993
 31
0.0
  0
LINE
  5
1EC
330
1F
100
AcDbEntity
  8
0
  6
PHANTOM
 62
     7
370
    25
100
AcDbLine
 10
247.6643457414
 20
125.5458161523
 30
0.0
 11
247.6643457414
 21
115.5458163758
 31
0.0
  0
LINE
  5
1ED
330
1F
100
AcDbEntity
  8
0
  6
PHANTOM
 62
     7
370
    25
100
AcDbLine
 10
249.4643464089
 20
125.5458161523
 30
0.0
 11
249.4643464089
 21
125.0458160703
 31
0.0
  0
LINE
  5
1EE
330
1F
100
AcDbEntity
  8
0
  6
PHANTOM
 62
     7
370
    25
100
AcDbLine
 10
249.4643464089
 20
125.0458160703
 30
0.0
 11
260.652942896
 21
125.0458160703
 31
0.0
  0
LINE
  5
1EF
330
1F
100
AcDbEntity
  8
0
  6
PHANTOM
 62
     7
370
    25
100
AcDbLine
 10
261.3320633174
 20
125.0458160703
 30
0.0
 11
261.4643558265
 21
125.0458160703
 31
0.0
  0
LINE
  5
1F0
330
1F
100
AcDbEntity
  8
0
  6
PHANTOM
 62
     7
370
    25
100
AcDbLine
 10
261.4643558265
 20
125.5458161523
 30
0.0
 11
261.4643558265
 21
125.0458160703
 31
0.0
  0
LINE
  5
1F1
330
1F
100
AcDbEntity
  8
0
  6
PHANTOM
 62
     7
370
    25
100
AcDbLine
 10
259.4643517733
 20
117.5458164708
 30
0.0
 11
258.5114374162
 21
117.5458164708
 31
0.0
  0
LINE
  5
1F2
330
1F
100
AcDbEntity
  8
0
  6
PHANTOM
 62
     7
370
    25
100
AcDbLine
 10
259.4643517733
 20
117.430346325
 30
0.0
 11
259.4643517733
 21
117.5458164708
 31
0.0
  0
LINE
  5
1F3
330
1F
100
AcDbEntity
  8
0
  6
PHANTOM
 62
     7
370
    25
100
AcDbLine
 10
259.4643517733
 20
117.6612865002
 30
0.0
 11
258.7250008584
 21
117.6612865002
 31
0.0
  0
LINE
  5
1F4
330
1F
100
AcDbEntity
  8
0
  6
PHANTOM
 62
     7
370
    25
100
AcDbLine
 10
259.4643517733
 20
117.5458164708
 30
0.0
 11
259.4643517733
 21
117.6612865002
 31
0.0
  0
LINE
  5
1F5
330
1F
100
AcDbEntity
  8
0
  6
PHANTOM
 62
     7
370
    25
100
AcDbLine
 10
259.4643517733
 20
122.6731414263
 30
0.0
 11
259.4643517733
 21
117.6612865002
 31
0.0
  0
LINE
  5
1F6
330
1F
100
AcDbEntity
  8
0
  6
PHANTOM
 62
     7
370
    25
100
AcDbLine
 10
260.480998397
 20
107.3816871559
 30
0.0
 11
260.480998397
 21
106.9718754207
 31
0.0
  0
LINE
  5
1F7
330
1F
100
AcDbEntity
  8
0
  6
PHANTOM
 62
     7
370
    25
100
AcDbLine
 10
261.8082746268
 20
107.2883351063
 30
0.0
 11
261.8082746268
 21
106.7681923797
 31
0.0
  0
LINE
  5
1F8
330
1F
100
AcDbEntity
  8
0
  6
PHANTOM
 62
     7
370
    25
100
AcDbLine
 10
262.0747818948
 20
107.1490045925
 30
0.0
 11
262.0747818948
 21
106.7295909216
 31
0.0
  0
LINE
  5
1F9
330
1F
100
AcDbEntity
  8
0
  6
PHANTOM
 62
     7
370
    25
100
AcDbLine
 10
262.3766347171
 20
106.731200247
 30
0.0
 11
262.3766347171
 21
106.2136121382
 31
0.0
  0
LINE
  5
1FA
330
1F
100
AcDbEntity
  8
0
  6
PHANTOM
 62
     7
370
    25
100
AcDbLine
 10
263.4020581246
 20
107.0659352754
 30
0.0
 11
263.4020581246
 21
106.5482456525
 31
0.0
  0
LINE
  5
1FB
330
1F
100
AcDbEntity
  8
0
  6
PHANTOM
 62
     7
370
    25
100
AcDbLine
 10
263.6685653926
 20
106.9422705387
 30
0.0
 11
263.6685653926
 21
106.5139599432
 31
0.0
  0
LINE
  5
1FC
330
1F
100
AcDbEntity
  8
0
  6
PHANTOM
 62
     7
370
    25
100
AcDbLine
 10
264.9958267213
 20
115.7569651605
 30
0.0
 11
264.9958267213
 21
113.9526321841
 31
0.0
  0
LINE
  5
1FD
330
1F
100
AcDbEntity
  8
0
  6
PHANTOM
 62
     7
370
    25
100
AcDbLine
 10
265.2623339892
 20
115.6120408178
 30
0.0
 11
265.2623339892
 21
113.6497504832
 31
0.0
  0
LINE
  5
1FE
330
1F
100
AcDbEntity
  8
0
  6
PHANTOM
 62
     7
370
    25
100
AcDbLine
 10
264.9958267213
 20
106.8687686985
 30
0.0
 11
264.9958267213
 21
106.3533664038
 31
0.0
  0
LINE
  5
1FF
330
1F
100
AcDbEntity
  8
0
  6
PHANTOM
 62
     7
370
    25
100
AcDbLine
 10
265.2623339892
 20
106.7597518032
 30
0.0
 11
265.2623339892
 21
106.3231105273
 31
0.0
  0
LINE
  5
200
330
1F
100
AcDbEntity
  8
0
  6
PHANTOM
 62
     7
370
    25
100
AcDbLine
 10
266.5896102191
 20
115.2542839173
 30
0.0
 11
266.5896102191
 21
113.129681331
 31
0.0
  0
LINE
  5
201
330
1F
100
AcDbEntity
  8
0
  6
PHANTOM
 62
     7
370
    25
100
AcDbLine
 10
266.5896102191
 20
106.6952381571
 30
0.0
 11
266.5896102191
 21
106.1819900115
 31
0.0
  0
LINE
  5
202
330
1F
100
AcDbEntity
  8
0
  6
PHANTOM
 62
     7
370
    25
100
AcDbLine
 10
266.856117487
 20
115.2458163616
 30
0.0
 11
266.856117487
 21
113.2480924771
 31
0.0
  0
LINE
  5
203
330
1F
100
AcDbEntity
  8
0
  6
PHANTOM
 62
     7
370
    25
100
AcDbLine
 10
266.856117487
 20
106.6000439515
 30
0.0
 11
266.856117487
 21
106.1555329998
 31
0.0
  0
LINE
  5
204
330
1F
100
AcDbEntity
  8
0
  6
PHANTOM
 62
     7
370
    25
100
AcDbLine
 10
268.1833937169
 20
115.4731556872
 30
0.0
 11
268.1833937169
 21
114.9878762718
 31
0.0
  0
LINE
  5
205
330
1F
100
AcDbEntity
  8
0
  6
PHANTOM
 62
     7
370
    25
100
AcDbLine
 10
268.1833937169
 20
106.544049113
 30
0.0
 11
268.1833937169
 21
106.0328452205
 31
0.0
  0
LINE
  5
206
330
1F
100
AcDbEntity
  8
0
  6
PHANTOM
 62
     7
370
    25
100
AcDbLine
 10
268.4498860837
 20
106.4620070447
 30
0.0
 11
268.4498860837
 21
106.0099998777
 31
0.0
  0
LINE
  5
207
330
1F
100
AcDbEntity
  8
0
  6
PHANTOM
 62
     7
370
    25
100
AcDbLine
 10
269.7771623135
 20
106.4141491716
 30
0.0
 11
269.7771623135
 21
105.9049019878
 31
0.0
  0
LINE
  5
208
330
1F
100
AcDbEntity
  8
0
  6
PHANTOM
 62
     7
370
    25
100
AcDbLine
 10
270.0436695815
 20
106.3447153484
 30
0.0
 11
270.0436695815
 21
105.8855155771
 31
0.0
  0
LINE
  5
209
330
1F
100
AcDbEntity
  8
0
  6
PHANTOM
 62
     7
370
    25
100
AcDbLine
 10
270.5643459559
 20
105.6356026148
 30
0.0
 11
270.7869693042
 21
105.8522356962
 31
0.0
  0
LINE
  5
20A
330
1F
100
AcDbEntity
  8
0
  6
PHANTOM
 62
     7
370
    25
100
AcDbLine
 10
270.7869693042
 20
106.4001690884
 30
0.0
 11
270.7869693042
 21
105.8522356962
 31
0.0
  0
LINE
  5
20B
330
1F
100
AcDbEntity
  8
0
  6
PHANTOM
 62
     7
370
    25
100
AcDbLine
 10
270.7869693042
 20
105.8522356962
 30
0.0
 11
270.8326413632
 21
105.8924194713
 31
0.0
  0
LINE
  5
20C
330
1F
100
AcDbEntity
  8
0
  6
Continuous
 62
     7
370
    25
100
AcDbLine
 10
247.464357257
 20
124.4758690064
 30
0.0
 11
247.464357257
 21
125.5458161523
 31
0.0
  0
LINE
  5
20D
330
1F
100
AcDbEntity
  8
0
  6
Continuous
 62
     7
370
    25
100
AcDbLine
 10
247.464357257
 20
105.5458165993
 30
0.0
 11
247.464357257
 21
124.4758690064
 31
0.0
  0
LINE
  5
20E
330
1F
100
AcDbEntity
  8
0
  6
Continuous
 62
     7
370
    25
100
AcDbLine
 10
244.6643545628
 20
125.815377227
 30
0.0
 11
244.6643545628
 21
127.0458163982
 31
0.0
  0
LINE
  5
20F
330
1F
100
AcDbEntity
  8
0
  6
Continuous
 62
     7
370
    25
100
AcDbLine
 10
244.6643545628
 20
104.0458163535
 30
0.0
 11
244.6643545628
 21
125.815377227
 31
0.0
  0
LINE
  5
210
330
1F
100
AcDbEntity
  8
0
  6
Continuous
 62
     7
370
    25
100
AcDbLine
 10
244.4643511773
 20
125.815377227
 30
0.0
 11
244.4643511773
 21
127.0458163982
 31
0.0
  0
LINE
  5
211
330
1F
100
AcDbEntity
  8
0
  6
Continuous
 62
     7
370
    25
100
AcDbLine
 10
244.4643511773
 20
104.0458163535
 30
0.0
 11
244.4643511773
 21
125.815377227
 31
0.0
  0
LINE
  5
212
330
1F
100
AcDbEntity
  8
0
  6
Continuous
 62
     7
370
    25
100
AcDbLine
 10
89.4643499852
 20
103.0458161895
 30
0.0
 11
89.4643499852
 21
128.0458165621
 31
0.0
  0
LINE
  5
213
330
1F
100
AcDbEntity
  8
0
  6
Continuous
 62
     7
370
    25
100
AcDbLine
 10
25.4643524169
 20
103.0458161895
 30
0.0
 11
25.4643524169
 21
128.0458165621
 31
0.0
  0
LINE
  5
214
330
1F
100
AcDbEntity
  8
0
  6
Continuous
 62
     7
370
    25
100
AcDbLine
 10
90.8924996258
 20
104.0458163535
 30
0.0
 11
90.8924996258
 21
127.0458163982
 31
0.0
  0
LINE
  5
215
330
1F
100
AcDbEntity
  8
0
  6
Continuous
 62
     7
370
    25
100
AcDbLine
 10
24.4643523694
 20
104.0458163535
 30
0.0
 11
24.4643523694
 21
127.0458163982
 31
0.0
  0
LINE
  5
216
330
1F
100
AcDbEntity
  8
0
  6
Continuous
 62
     7
370
    25
100
AcDbLine
 10
244.4643511773
 20
104.0458163535
 30
0.0
 11
244.4643511773
 21
127.0458163982
 31
0.0
  0
DIMENSION
  5
217
330
1F
100
AcDbEntity
  8
VERMASSUNG
100
AcDbDimension
  2
_D
 10
256.1168184531
 20
125.5458163758
 30
0.0
 11
256.1168184531
 21
137.0492436588
 31
0.0
 70
   160
  1
%%c<>
 71
     2
 42
-1.0
  3
SLDDIMSTYLE0
100
AcDbAlignedDimension
 13
249.4643523694
 23
105.5458163758
 33
0.0
 14
249.4643523694
 24
125.5458163758
 34
0.0
 50
90.0
100
AcDbRotatedDimension
  0
DIMENSION
  5
225
330
1F
100
AcDbEntity
  8
VERMASSUNG
100
AcDbDimension
  2
_D_1
 10
154.94425618
 20
104.0458163758
 30
0.0
 11
154.94425618
 21
137.0492436588
 31
0.0
 70
   160
  1
%%c<>
 71
     2
 42
-1.0
  3
SLDDIMSTYLE1
100
AcDbAlignedDimension
 13
90.8925003761
 23
127.0458163758
 33
0.0
 14
90.8925003761
 24
104.0458163758
 34
0.0
 50
90.0
100
AcDbRotatedDimension
  0
DIMENSION
  5
230
330
1F
100
AcDbEntity
  8
VERMASSUNG
100
AcDbDimension
  2
_D_2
 10
16.2116298233
 20
103.0458163758
 30
0.0
 11
16.2116298233
 21
115.5458163758
 31
0.0
 70
   160
  1
%%c<>h6
 71
     2
 42
-1.0
  3
SLDDIMSTYLE2
100
AcDbAlignedDimension
 13
25.4643523694
 23
128.0458163758
 33
0.0
 14
25.4643523694
 24
103.0458163758
 34
0.0
 50
90.0
100
AcDbRotatedDimension
  0
DIMENSION
  5
23F
330
1F
100
AcDbEntity
  8
VERMASSUNG
100
AcDbDimension
  2
_D_3
 10
285.4241599905
 20
160.6851286663
 30
0.0
 11
154.94425618
 21
160.6851286663
 31
0.0
 70
   160
  1
<>
 71
     2
 42
-1.0
  3
SLDDIMSTYLE3
100
AcDbAlignedDimension
 13
24.4643523694
 23
127.0458163758
 33
0.0
 14
285.4241599905
 24
126.8944495903
 34
0.0
100
AcDbRotatedDimension
  0
DIMENSION
  5
24A
330
1F
100
AcDbEntity
  8
VERMASSUNG
100
AcDbDimension
  2
_D_4
 10
244.4643523694
 20
81.877443609
 30
0.0
 11
134.4643523694
 21
81.877443609
 31
0.0
 70
   160
  1
<>
 71
     2
 42
-1.0
  3
SLDDIMSTYLE1
100
AcDbAlignedDimension
 13
24.4643523694
 23
104.0458163758
 33
0.0
 14
244.4643523694
 24
104.0458163758
 34
0.0
100
AcDbRotatedDimension
  0
DIMENSION
  5
254
330
1F
100
AcDbEntity
  8
VERMASSUNG
100
AcDbDimension
  2
_D_5
 10
244.4643523694
 20
93.1170622942
 30
0.0
 11
166.9643523694
 21
93.1170622942
 31
0.0
 70
   160
  1
<>
 71
     2
 42
-1.0
  3
SLDDIMSTYLE1
100
AcDbAlignedDimension
 13
89.4643523694
 23
103.0458163758
 33
0.0
 14
244.4643523694
 24
104.0458163758
 34
0.0
100
AcDbRotatedDimension
  0
DIMENSION
  5
25E
330
1F
100
AcDbEntity
  8
VERMASSUNG
100
AcDbDimension
  2
_D_6
 10
285.4241599905
 20
93.1170622942
 30
0.0
 11
264.94425618
 21
93.1170622942
 31
0.0
 70
   160
  1
<>
 71
     2
 42
-1.0
  3
SLDDIMSTYLE4
100
AcDbAlignedDimension
 13
244.4643523694
 23
104.0458163758
 33
0.0
 14
285.4241599905
 24
121.2665553125
 34
0.0
100
AcDbRotatedDimension
  0
DIMENSION
  5
269
330
1F
100
AcDbEntity
  8
VERMASSUNG
100
AcDbDimension
  2
_D_7
 10
285.4241599905
 20
150.4398496241
 30
0.0
 11
187.44425618
 21
150.4398496241
 31
0.0
 70
   160
  1
<>
 71
     2
 42
-1.0
  3
SLDDIMSTYLE3
100
AcDbAlignedDimension
 13
89.4643523694
 23
128.0458163758
 33
0.0
 14
285.4241599905
 24
126.8944495903
 34
0.0
100
AcDbRotatedDimension
  0
LINE
  5
273
330
1F
100
AcDbEntity
  8
VERMASSUNG
  6
CENTERX2
370
    18
100
AcDbLine
 10
286.5412222149
 20
115.5458163758
 30
0.0
 11
22.4747343174
 21
115.5458163758
 31
0.0
  0
SPLINE
  5
274
330
1F
100
AcDbEntity
  8
0
  6
Continuous
 62
     7
370
    25
100
AcDbSpline
210
0.0
220
0.0
230
1.0
 70
     8
 71
     3
 72
    11
 73
     7
 74
     0
 42
0.000000001
 43
0.00000001
 40
0.0
 40
0.0
 40
0.0
 40
0.0
 40
0.2103643288140119
 40
0.5368172470295892
 40
0.8678460113609932
 40
1.0
 40
1.0
 40
1.0
 40
1.0
 10
281.1192028491129
 20
20.49737574329122
 30
0.0
 10
281.2054267338625
 20
20.52825034925481
 30
0.0
 10
281.4254567584414
 20
20.60703757078587
 30
0.0
 10
281.7403102971961
 20
20.61513939683374
 30
0.0
 10
281.9992024545207
 20
20.57640238222912
 30
0.0
 10
282.1177337330254
 20
20.4960078715887
 30
0.0
 10
282.1515527410355
 20
20.47306993795952
 30
0.0
  0
SPLINE
  5
275
330
1F
100
AcDbEntity
  8
0
  6
Continuous
 62
     7
370
    25
100
AcDbSpline
210
0.0
220
0.0
230
1.0
 70
     8
 71
     3
 72
    11
 73
     7
 74
     0
 42
0.000000001
 43
0.00000001
 40
0.0
 40
0.0
 40
0.0
 40
0.0
 40
0.0215780872959061
 40
0.3633491870552837
 40
0.7092979853741793
 40
1.0
 40
1.0
 40
1.0
 40
1.0
 10
279.099666812404
 20
15.0397579456266
 30
0.0
 10
279.0930249291371
 20
15.04179916828123
 30
0.0
 10
278.9811835572668
 20
15.07617091689778
 30
0.0
 10
278.8170364071044
 20
15.23539289729662
 30
0.0
 10
278.6157690417065
 20
15.50689481372313
 30
0.0
 10
278.5464456484204
 20
15.76514286964472
 30
0.0
 10
278.5147917972367
 20
15.88306187422804
 30
0.0
  0
LINE
  5
276
330
1F
100
AcDbEntity
  8
0
  6
Continuous
 62
     7
370
    25
100
AcDbLine
 10
223.5760748788
 20
44.0555560772
 30
0.0
 11
277.8719238507
 21
12.7112296485
 31
0.0
  0
LINE
  5
277
330
1F
100
AcDbEntity
  8
0
  6
Continuous
 62
     7
370
    25
100
AcDbLine
 10
283.6214565634
 20
22.6707915659
 30
0.0
 11
229.3256075915
 21
54.0151179946
 31
0.0
  0
LINE
  5
278
330
1F
100
AcDbEntity
  8
0
  6
Continuous
 62
     7
370
    25
100
AcDbLine
 10
200.1937516276
 20
56.9765493396
 30
0.0
 11
222.8211686256
 21
43.9140195504
 31
0.0
  0
LINE
  5
279
330
1F
100
AcDbEntity
  8
0
  6
Continuous
 62
     7
370
    25
100
AcDbLine
 10
229.0706607046
 20
54.7396303302
 30
0.0
 11
206.4432437066
 21
67.8021601194
 31
0.0
  0
LINE
  5
27A
330
1F
100
AcDbEntity
  8
0
  6
Continuous
 62
     7
370
    25
100
AcDbLine
 10
203.3177793875
 20
67.4923200824
 30
0.0
 11
202.9642834593
 21
67.2881848821
 31
0.0
  0
LINE
  5
27B
330
1F
100
AcDbEntity
  8
0
  6
Continuous
 62
     7
370
    25
100
AcDbLine
 10
198.8990802847
 20
60.2462834359
 30
0.0
 11
198.8990802847
 21
59.83807938
 31
0.0
  0
ARC
  5
27C
330
1F
100
AcDbEntity
  8
0
  6
Continuous
 62
     7
370
    25
100
AcDbCircle
 10
283.111087301
 20
16.3332493316
 30
0.0
 40
4.69050351772067
100
AcDbArc
 50
114.0460023935
 51
187.0712973697
  0
LWPOLYLINE
  5
27D
330
1F
100
AcDbEntity
  8
0
  6
Continuous
 62
     7
370
    25
100
AcDbPolyline
 90
       34
 70
   128
 43
0.0
 10
279.5653549978
 20
14.2676762354
 10
280.0359785882
 20
14.330732059
 10
280.5322891482
 20
14.5152371044
 10
281.0363487211
 20
14.8145228787
 10
281.5299392807
 20
15.217772414
 10
281.9952211779
 20
15.7104112216
 10
282.4153779129
 20
16.2746340514
 10
282.7752239264
 20
16.8900484203
 10
283.0617534461
 20
17.5344116494
 10
283.2646105484
 20
18.184434773
 10
283.3764634492
 20
18.8166242615
 10
283.3932694933
 20
19.4081311399
 10
283.3144212663
 20
19.9375768083
 10
283.1427685487
 20
20.3858257208
 10
282.8845153169
 20
20.7366769938
 10
282.5489955156
 20
20.9774499482
 10
282.1483357046
 20
21.0994424221
 10
281.6970167734
 20
21.0982452896
 10
281.2113505639
 20
20.9739018182
 10
280.7088903186
 20
20.730906105
 10
280.2077962597
 20
20.3780406481
 10
279.7261792321
 20
19.9280589246
 10
279.2814461301
 20
19.3972244462
 10
278.8896707666
 20
18.8047229543
 10
278.5650129242
 20
18.1719689963
 10
278.3192065831
 20
17.5218319491
 10
278.1611358248
 20
16.8778094593
 10
278.0965137386
 20
16.2631781779
 10
278.1276759349
 20
15.7001524805
 10
278.2534961308
 20
15.2090815831
 10
278.4694268565
 20
14.8077140671
 10
278.7676638131
 20
14.5105564005
 10
279.1374279398
 20
14.3283486354
 10
279.5653549978
 20
14.2676762354
  0
LINE
  5
27E
330
1F
100
AcDbEntity
  8
0
  6
Continuous
 62
     7
370
    25
100
AcDbLine
 10
279.0428958311
 20
15.0662487234
 30
0.0
 11
279.1059179074
 21
15.0326898497
 31
0.0
  0
ARC
  5
27F
330
1F
100
AcDbEntity
  8
0
  6
Continuous
 62
     7
370
    25
100
AcDbCircle
 10
275.4118348078
 20
20.7707570749
 30
0.0
 40
4.951032632064121
100
AcDbArc
 50
307.6294565901
 51
352.3759199425
  0
ARC
  5
280
330
1F
100
AcDbEntity
  8
0
  6
Continuous
 62
     7
370
    25
100
AcDbCircle
 10
274.8122695205
 20
21.1168787479
 30
0.0
 40
5.330768642949705
100
AcDbArc
 50
314.1178947779
 51
345.8874817547
  0
ARC
  5
281
330
1F
100
AcDbEntity
  8
0
  6
Continuous
 62
     7
370
    25
100
AcDbCircle
 10
274.3275591886
 20
21.3966960664
 30
0.0
 40
5.573609475115778
100
AcDbArc
 50
323.0283302266
 51
336.9770463061
  0
LWPOLYLINE
  5
282
330
1F
100
AcDbEntity
  8
0
  6
Continuous
 62
     7
370
    25
100
AcDbPolyline
 90
       34
 70
   128
 43
0.0
 10
280.746690207
 20
14.6289825626
 10
280.2448620637
 20
14.3946181776
 10
279.7611712969
 20
14.2793940037
 10
279.3130997513
 20
14.2874745428
 10
278.9168418999
 20
14.418567743
 10
278.586719534
 20
14.6679355546
 10
278.3346641359
 20
15.0265651751
 10
278.1697856446
 20
15.4814947958
 10
278.0980431981
 20
16.0162820746
 10
278.1220297556
 20
16.6115984061
 10
278.2408783803
 20
17.2459275069
 10
278.4502935732
 20
17.8963430707
 10
278.7427065237
 20
18.5393373842
 10
279.1075486658
 20
19.1516709577
 10
279.5316336539
 20
19.7112124604
 10
279.9996339517
 20
20.1977386045
 10
280.494634809
 20
20.5936650676
 10
280.9987456051
 20
20.8846820357
 10
281.4937464624
 20
21.0602713974
 10
281.9617467602
 20
21.1140868956
 10
282.3858317483
 20
21.044183498
 10
282.7506738904
 20
20.8530876955
 10
283.0430868409
 20
20.5477061883
 10
283.2525020338
 20
20.1390762597
 10
283.3713506585
 20
19.6419668602
 10
283.395337216
 20
19.0743448184
 10
283.3235947695
 20
18.456725474
 10
283.1587162782
 20
17.8114311993
 10
282.9066608801
 20
17.1617846107
 10
282.5765385142
 20
16.5312656284
 10
282.1802806628
 20
15.9426628513
 10
281.7322091172
 20
15.4172499175
 10
281.2485183504
 20
14.9740166191
 10
280.746690207
 20
14.6289825626
  0
LWPOLYLINE
  5
283
330
1F
100
AcDbEntity
  8
0
  6
Continuous
 62
     7
370
    25
100
AcDbPolyline
 90
       42
 70
   128
 43
0.0
 10
280.746690207
 20
12.9959009388
 10
280.126038979
 20
12.692631307
 10
279.5199352896
 20
12.5065194495
 10
278.9425856958
 20
12.4419276706
 10
278.4075227826
 20
12.5003699468
 10
277.9272879713
 20
12.6804764407
 10
277.5131375588
 20
12.9780256087
 10
277.1747788797
 20
13.3860431506
 10
276.9201427747
 20
13.8949654809
 10
276.7551976983
 20
14.4928638916
 10
276.6838098233
 20
15.1657241507
 10
276.7076524209
 20
15.897774984
 10
276.8261666409
 20
16.6718577404
 10
277.0365746104
 20
17.4698285762
 10
277.333944545
 20
18.2729837314
 10
277.7113063453
 20
19.0624979298
 10
278.1598149707
 20
19.8198656278
 10
278.6689577591
 20
20.5273347684
 10
279.2268008351
 20
21.1683228746
 10
279.8202688298
 20
21.7278057285
 10
280.4354513563
 20
22.1926695263
 10
281.0579290578
 20
22.5520182543
 10
281.6731115843
 20
22.7974290832
 10
282.266579579
 20
22.9231497909
 10
282.824422655
 20
22.9262335907
 10
283.3335654434
 20
22.806608201
 10
283.7820740688
 20
22.5670775395
 10
284.1594358691
 20
22.2132560018
 10
284.4568058037
 20
21.7534368649
 10
284.6672137732
 20
21.1983978998
 10
284.7857279932
 20
20.5611487492
 10
284.8095705908
 20
19.8566259931
 10
284.7381827158
 20
19.101343048
 10
284.5732376394
 20
18.3130031057
 10
284.3186015344
 20
17.5100841865
 10
283.9802428553
 20
16.7114060292
 10
283.5660924428
 20
15.9356889729
 10
283.0858576315
 20
15.201115168
 10
282.5507947183
 20
14.5249024019
 10
281.9734451245
 20
13.9229005287
 10
281.3673414351
 20
13.4092199619
 10
280.746690207
 20
12.9959009388
  0
LWPOLYLINE
  5
284
330
1F
100
AcDbEntity
  8
0
  6
Continuous
 62
     7
370
    25
100
AcDbPolyline
 90
       22
 70
   128
 43
0.0
 10
223.5760748788
 20
44.0555560772
 10
223.2172885869
 20
44.3223520375
 10
222.8789299078
 20
44.7303695793
 10
222.6242938028
 20
45.2392919096
 10
222.4593487264
 20
45.8371903203
 10
222.3879608514
 20
46.5100505794
 10
222.411803449
 20
47.2421014127
 10
222.530317669
 20
48.0161841691
 10
222.7407256385
 20
48.814155005
 10
223.038095573
 20
49.6173101601
 10
223.4154573734
 20
50.4068243585
 10
223.8639659988
 20
51.1641920565
 10
224.3731087872
 20
51.8716611971
 10
224.9309518632
 20
52.5126493034
 10
225.5244198579
 20
53.0721321573
 10
226.1396023844
 20
53.536995955
 10
226.7620800858
 20
53.8963446831
 10
227.3772626124
 20
54.1417555119
 10
227.9707306071
 20
54.2674762196
 10
228.5285736831
 20
54.2705600195
 10
229.0377164715
 20
54.1509346298
 10
229.3256075915
 20
54.0151179946
  0
LWPOLYLINE
  5
285
330
1F
100
AcDbEntity
  8
0
  6
Continuous
 62
     7
370
    25
100
AcDbPolyline
 90
       29
 70
   128
 43
0.0
 10
224.2959927038
 20
43.6399563631
 10
224.070063352
 20
43.623072534
 10
223.5074227205
 20
43.6629056589
 10
222.9967543112
 20
43.8234553897
 10
222.5489421346
 20
44.1012998879
 10
222.1735305299
 20
44.4905173803
 10
221.8785207436
 20
44.9828123717
 10
221.6702003971
 20
45.5676924492
 10
221.553009477
 20
46.2326919093
 10
221.5294457042
 20
46.9636374431
 10
221.6000112996
 20
47.7449502156
 10
221.7632022802
 20
48.5599779014
 10
222.0155405134
 20
49.3913496005
 10
222.3516478479
 20
50.2213460685
 10
222.7643607395
 20
51.0322773717
 10
223.2448829293
 20
51.8068599172
 10
223.7829729212
 20
52.5285848229
 10
224.3671622612
 20
53.1820697755
 10
224.9849999677
 20
53.7533868776
 10
225.6233179026
 20
54.2303594973
 10
226.2685114275
 20
54.6028217911
 10
226.9068293625
 20
54.862835372
 10
227.524667069
 20
55.0048585019
 10
228.108856409
 20
55.0258642043
 10
228.6469464008
 20
54.9254047792
 10
229.1274685907
 20
54.7056213449
 10
229.5401814822
 20
54.3711982035
 10
229.8762888168
 20
53.9292630039
 10
230.0455254165
 20
53.5995182805
  0
LWPOLYLINE
  5
286
330
1F
100
AcDbEntity
  8
0
  6
Continuous
 62
     7
370
    25
100
AcDbPolyline
 90
       23
 70
   128
 43
0.0
 10
200.1937516276
 20
56.9765493396
 10
199.9215251366
 20
57.1638296771
 10
199.5461135319
 20
57.5530471694
 10
199.2511037456
 20
58.0453421609
 10
199.0427833991
 20
58.6302222384
 10
198.925592479
 20
59.2952216985
 10
198.9020287062
 20
60.0261672323
 10
198.9725943017
 20
60.8074800047
 10
199.1357852822
 20
61.6225076906
 10
199.3881235154
 20
62.4538793897
 10
199.72423085
 20
63.2838758577
 10
200.1369437415
 20
64.0948071609
 10
200.6174659314
 20
64.8693897064
 10
201.1555559232
 20
65.5911146121
 10
201.7397452632
 20
66.2445995646
 10
202.3575829697
 20
66.8159166668
 10
202.9959009047
 20
67.2928892864
 10
203.6410944296
 20
67.6653515803
 10
204.2794123645
 20
67.9253651612
 10
204.897250071
 20
68.0673882911
 10
205.481439411
 20
68.0883939935
 10
206.0195294029
 20
67.9879345684
 10
206.4432437066
 20
67.8021601194
  0
ARC
  5
287
330
1F
100
AcDbEntity
  8
0
  6
Continuous
 62
     7
370
    25
100
AcDbCircle
 10
207.6613578457
 20
59.8822749131
 30
0.0
 40
8.769835247056042
100
AcDbArc
 50
122.384229122
 51
177.6211474107
  0
LWPOLYLINE
  5
288
330
1F
100
AcDbEntity
  8
0
  6
Continuous
 62
     7
370
    18
100
AcDbPolyline
 90
       18
 70
   128
 43
0.0
 10
279.6992396549
 20
14.6556541309
 10
280.1443969538
 20
14.7189119712
 10
280.6142122092
 20
14.9038478789
 10
281.0894511295
 20
15.2028905562
 10
281.5506573773
 20
15.6037971607
 10
281.9789491147
 20
16.090154529
 10
282.3567920276
 20
16.6420511332
 10
282.6687171829
 20
17.2368922615
 10
282.9019543279
 20
17.8503250482
 10
283.0469547065
 20
18.457235483
 10
283.0977819863
 20
19.0327765813
 10
283.0523552924
 20
19.553385623
 10
282.912534399
 20
19.9977488128
 10
282.68404359
 20
20.3476738694
 10
282.3762373057
 20
20.5888348198
 10
282.0017171718
 20
20.7113585066
 10
281.5758160865
 20
20.7102287954
 10
281.1998478731
 20
20.6167043738
  0
ARC
  5
289
330
1F
100
AcDbEntity
  8
0
  6
Continuous
 62
     7
370
    18
100
AcDbCircle
 10
279.7289500159
 20
15.9414677826
 30
0.0
 40
1.286156853774033
100
AcDbArc
 50
188.2988793456
 51
268.6763436177
  0
LWPOLYLINE
  5
28A
330
1F
100
AcDbEntity
  8
0
  6
Continuous
 62
     7
370
    18
100
AcDbPolyline
 90
       15
 70
   128
 43
0.0
 10
279.6208228431
 20
14.9198727752
 10
280.0536474512
 20
14.9833038467
 10
280.5105805614
 20
15.1686427919
 10
280.9716520043
 20
15.4677894094
 10
281.4167107452
 20
15.8676695567
 10
281.8263055816
 20
16.3508065525
 10
282.1825352537
 20
16.8960849917
 10
282.4698308155
 20
17.4796735899
 10
282.6756360722
 20
18.0760667251
 10
282.7909563466
 20
18.6591991555
 10
282.8107515893
 20
19.2035851956
 10
282.7341566533
 20
19.6854325633
 10
282.5645191048
 20
20.0836822164
 10
282.3092529187
 20
20.3809287341
 10
282.1558059481
 20
20.4857841136
  0
LWPOLYLINE
  5
28B
330
1F
100
AcDbEntity
  8
0
  6
Continuous
 62
     7
370
    18
100
AcDbPolyline
 90
        3
 70
   128
 43
0.0
 10
279.1059179074
 20
15.0326898497
 10
279.2310232495
 20
14.9811218196
 10
279.6208228431
 20
14.9198727752
  0
OLE2FRAME
  5
28C
330
1F
100
AcDbEntity
  8
0
100
AcDbOle2Frame
 70
     2
  3
Paintbrush-Bild
 10
13.8511154363
 20
38.264191557
 30
0.0
 11
51.6290888628
 21
31.9806341108
 31
0.0
 71
     2
 72
     0
 73
     1
 90
    12928
310
80552BED0767C5B32B40DDAF6807D121434000000000000000006FFBDDFB85D0
310
4940DDAF6807D121434000000000000000006FFBDDFB85D04940416F4BD60AFB
310
3F4000000000000000002BED0767C5B32B40416F4BD60AFB3F40000000000000
310
0000000000000100000000010000010000000100000000000100000000320000
310
D0CF11E0A1B11AE1000000000000000000000000000000003E000300FEFF0900
310
0600000000000000000000000100000001000000000000000010000002000000
310
01000000FEFFFFFF0000000000000000FFFFFFFFFFFFFFFFFFFFFFFFFFFFFFFF
310
FFFFFFFFFFFFFFFFFFFFFFFFFFFFFFFFFFFFFFFFFFFFFFFFFFFFFFFFFFFFFFFF
310
FFFFFFFFFFFFFFFFFFFFFFFFFFFFFFFFFFFFFFFFFFFFFFFFFFFFFFFFFFFFFFFF
310
FFFFFFFFFFFFFFFFFFFFFFFFFFFFFFFFFFFFFFFFFFFFFFFFFFFFFFFFFFFFFFFF
310
FFFFFFFFFFFFFFFFFFFFFFFFFFFFFFFFFFFFFFFFFFFFFFFFFFFFFFFFFFFFFFFF
310
FFFFFFFFFFFFFFFFFFFFFFFFFFFFFFFFFFFFFFFFFFFFFFFFFFFFFFFFFFFFFFFF
310
FFFFFFFFFFFFFFFFFFFFFFFFFFFFFFFFFFFFFFFFFFFFFFFFFFFFFFFFFFFFFFFF
310
FFFFFFFFFFFFFFFFFFFFFFFFFFFFFFFFFFFFFFFFFFFFFFFFFFFFFFFFFFFFFFFF
310
FFFFFFFFFFFFFFFFFFFFFFFFFFFFFFFFFFFFFFFFFFFFFFFFFFFFFFFFFFFFFFFF
310
FFFFFFFFFFFFFFFFFFFFFFFFFFFFFFFFFFFFFFFFFFFFFFFFFFFFFFFFFFFFFFFF
310
FFFFFFFFFFFFFFFFFFFFFFFFFFFFFFFFFFFFFFFFFFFFFFFFFFFFFFFFFFFFFFFF
310
FFFFFFFFFFFFFFFFFFFFFFFFFFFFFFFFFFFFFFFFFFFFFFFFFFFFFFFFFFFFFFFF
310
FFFFFFFFFFFFFFFFFFFFFFFFFFFFFFFFFFFFFFFFFFFFFFFFFFFFFFFFFFFFFFFF
310
FFFFFFFFFFFFFFFFFFFFFFFFFFFFFFFFFFFFFFFFFFFFFFFFFFFFFFFFFFFFFFFF
310
FDFFFFFFFEFFFFFFFEFFFFFFFEFFFFFF05000000060000000700000008000000
310
090000000A0000000B0000000C0000000D0000000E0000000F00000010000000
310
11000000120000001300000014000000150000001600000017000000FEFFFFFF
310
FFFFFFFFFFFFFFFFFFFFFFFFFFFFFFFFFFFFFFFFFFFFFFFFFFFFFFFFFFFFFFFF
310
FFFFFFFFFFFFFFFFFFFFFFFFFFFFFFFFFFFFFFFFFFFFFFFFFFFFFFFFFFFFFFFF
310
FFFFFFFFFFFFFFFFFFFFFFFFFFFFFFFFFFFFFFFFFFFFFFFFFFFFFFFFFFFFFFFF
310
FFFFFFFFFFFFFFFFFFFFFFFFFFFFFFFFFFFFFFFFFFFFFFFFFFFFFFFFFFFFFFFF
310
FFFFFFFFFFFFFFFFFFFFFFFFFFFFFFFFFFFFFFFFFFFFFFFFFFFFFFFFFFFFFFFF
310
FFFFFFFFFFFFFFFFFFFFFFFFFFFFFFFFFFFFFFFFFFFFFFFFFFFFFFFFFFFFFFFF
310
FFFFFFFFFFFFFFFFFFFFFFFFFFFFFFFFFFFFFFFFFFFFFFFFFFFFFFFFFFFFFFFF
310
FFFFFFFFFFFFFFFFFFFFFFFFFFFFFFFFFFFFFFFFFFFFFFFFFFFFFFFFFFFFFFFF
310
FFFFFFFFFFFFFFFFFFFFFFFFFFFFFFFFFFFFFFFFFFFFFFFFFFFFFFFFFFFFFFFF
310
FFFFFFFFFFFFFFFFFFFFFFFFFFFFFFFFFFFFFFFFFFFFFFFFFFFFFFFFFFFFFFFF
310
FFFFFFFFFFFFFFFFFFFFFFFFFFFFFFFFFFFFFFFFFFFFFFFFFFFFFFFFFFFFFFFF
310
FFFFFFFFFFFFFFFFFFFFFFFFFFFFFFFFFFFFFFFFFFFFFFFFFFFFFFFFFFFFFFFF
310
FFFFFFFFFFFFFFFFFFFFFFFFFFFFFFFFFFFFFFFFFFFFFFFFFFFFFFFFFFFFFFFF
310
52006F006F007400200045006E00740072007900000000000000000000000000
310
0000000000000000000000000000000000000000000000000000000000000000
310
16000500FFFFFFFFFFFFFFFF020000000A00030000000000C000000000000046
310
000000000000000000000000D069FF363CB5D30103000000C000000000000000
310
01004F006C006500000000000000000000000000000000000000000000000000
310
0000000000000000000000000000000000000000000000000000000000000000
310
0A000200FFFFFFFFFFFFFFFFFFFFFFFF00000000000000000000000000000000
310
0000000000000000000000000000000000000000000000001400000000000000
310
010043006F006D0070004F0062006A0000000000000000000000000000000000
310
0000000000000000000000000000000000000000000000000000000000000000
310
120002010100000003000000FFFFFFFF00000000000000000000000000000000
310
0000000000000000000000000000000000000000010000004D00000000000000
310
01004F006C006500310030004E00610074006900760065000000000000000000
310
0000000000000000000000000000000000000000000000000000000000000000
310
1A000200FFFFFFFFFFFFFFFFFFFFFFFF00000000000000000000000000000000
310
0000000000000000000000000000000000000000040000002426000000000000
310
FEFFFFFF02000000FEFFFFFFFFFFFFFFFFFFFFFFFFFFFFFFFFFFFFFFFFFFFFFF
310
FFFFFFFFFFFFFFFFFFFFFFFFFFFFFFFFFFFFFFFFFFFFFFFFFFFFFFFFFFFFFFFF
310
FFFFFFFFFFFFFFFFFFFFFFFFFFFFFFFFFFFFFFFFFFFFFFFFFFFFFFFFFFFFFFFF
310
FFFFFFFFFFFFFFFFFFFFFFFFFFFFFFFFFFFFFFFFFFFFFFFFFFFFFFFFFFFFFFFF
310
FFFFFFFFFFFFFFFFFFFFFFFFFFFFFFFFFFFFFFFFFFFFFFFFFFFFFFFFFFFFFFFF
310
FFFFFFFFFFFFFFFFFFFFFFFFFFFFFFFFFFFFFFFFFFFFFFFFFFFFFFFFFFFFFFFF
310
FFFFFFFFFFFFFFFFFFFFFFFFFFFFFFFFFFFFFFFFFFFFFFFFFFFFFFFFFFFFFFFF
310
FFFFFFFFFFFFFFFFFFFFFFFFFFFFFFFFFFFFFFFFFFFFFFFFFFFFFFFFFFFFFFFF
310
FFFFFFFFFFFFFFFFFFFFFFFFFFFFFFFFFFFFFFFFFFFFFFFFFFFFFFFFFFFFFFFF
310
FFFFFFFFFFFFFFFFFFFFFFFFFFFFFFFFFFFFFFFFFFFFFFFFFFFFFFFFFFFFFFFF
310
FFFFFFFFFFFFFFFFFFFFFFFFFFFFFFFFFFFFFFFFFFFFFFFFFFFFFFFFFFFFFFFF
310
FFFFFFFFFFFFFFFFFFFFFFFFFFFFFFFFFFFFFFFFFFFFFFFFFFFFFFFFFFFFFFFF
310
FFFFFFFFFFFFFFFFFFFFFFFFFFFFFFFFFFFFFFFFFFFFFFFFFFFFFFFFFFFFFFFF
310
FFFFFFFFFFFFFFFFFFFFFFFFFFFFFFFFFFFFFFFFFFFFFFFFFFFFFFFFFFFFFFFF
310
FFFFFFFFFFFFFFFFFFFFFFFFFFFFFFFFFFFFFFFFFFFFFFFFFFFFFFFFFFFFFFFF
310
FFFFFFFFFFFFFFFFFFFFFFFFFFFFFFFFFFFFFFFFFFFFFFFFFFFFFFFFFFFFFFFF
310
0100000200000000000000000000000000000000000000000000000000000000
310
0000000000000000000000000000000000000000000000000000000000000000
310
0100FEFF030A0000FFFFFFFF0A00030000000000C00000000000004607000000
310
5042727573680007000000504272757368000700000050427275736800F439B2
310
7100000000000000000000000000000000000000000000000000000000000000
310
0000000000000000000000000000000000000000000000000000000000000000
310
0000000000000000000000000000000000000000000000000000000000000000
310
0000000000000000000000000000000000000000000000000000000000000000
310
0000000000000000000000000000000000000000000000000000000000000000
310
0000000000000000000000000000000000000000000000000000000000000000
310
0000000000000000000000000000000000000000000000000000000000000000
310
0000000000000000000000000000000000000000000000000000000000000000
310
0000000000000000000000000000000000000000000000000000000000000000
310
0000000000000000000000000000000000000000000000000000000000000000
310
0000000000000000000000000000000000000000000000000000000000000000
310
0000000000000000000000000000000000000000000000000000000000000000
310
20260000424D0E260000000000003E00000028000000B40200006E0000000100
310
01000000000000000000130B0000130B00000200000002000000000000FFFFFF
310
FFFFFFFFFFFFFFFFFFFFFFFFFFFFFFFFFFFFFFFFFFFFFFFFFFFFFFFFFFFFFFFF
310
FFFFFFFFFFFFFFFFFFFFFFFFFFFFFFFFFFFFFFFFFFFFFFFFFFFFFFFFFFFFFFFF
310
FFFFFFFFFFFFFFFFFFFFFFFFFFFFFFFFFFFFFFFFFFFFFFFFF000FFFFFFFFFFFF
310
FFFFFFFFFFFFFFFFFFFFFFFFFFFFFFFFFFFFFFFFFFFFFFFFFFFFFFFFFFFFFFFF
310
FFFFFFFFFFFFFFFFFFFFFFFFFFFFFFFFFFFFFFFFFFFFFFFFFFFFFFFFFFFFFFFF
310
FFFFFFFFFFFFFFFFFFFFFFFFFFFFFFFFF000FFFFFFFFFFFFFFFFFFFFFFFFFFFF
310
FFFFFFFFFFFFFFFFFFFFFFFFFFFFFFFFFFFFFFFFFFFFFFFFFFFFFFFFFFFFFFFF
310
FFFFFFFFFFFFFFFFFFFFFFFFFFFFFFFFFFFFFFFFFFFFFFFFFFFFFFFFFFFFFFFF
310
FFFFFFFFFFFFFFFFF000FFFFFFFFFFFFFFFFFFFFFFFFFFFFFFFFFFFFFFFFFFFF
310
FFFFFFFFFFFFFFFFFFFFFFFFFFFFFFFFFFFFFFFFFFFFFFFFFFFFFFFFFFFFFFFF
310
FFFFFFFFFFFFFFFFFFFFFFFFFFFFFFFFFFFFFFFFFFFFFFFFFFFFFFFFFFFFFFFF
310
F000FFFFFFFFFFFFFFFFFFFFFFFFFFFFFFFFFFFFFFFFFFFFFFFFFFFFFFFFFFFF
310
FFFFFFFFFFFFFFFFFFFFFFFFFFFFFFFFFFFFFFFFFFFFFFFFFFFFFFFFFFFFFFFF
310
FFFFFFFFFFFFFFFFFFFFFFFFFFFFFFFFFFFFFFFFFFFFFFFFF000FFFFFFFFFFFF
310
FFFFFFFFFFFFFFFFFFFFFFFFFFFFFFFFFFFFFFFFFFFFFFFFFFFFFFFFFFFFFFFF
310
FFFFFFFFFFFFFFFFFFFFFFFFFFFFFFFFFFFFFFFFFFFFFFFFFFFFFFFFFFFFFFFF
310
FFFFFFFFFFFFFFFFFFFFFFFFFFFFFFFFF000FFFFFFFFFFFFFFFFFFFFFFFFFFFF
310
FFFFFFFFFFFFFFFFFFFFFFFFFFFFFFFFFFFFFFFFFFFFFFFFFFFFFFFFFFFFFFFF
310
FFFFFFFFFFFFFFFFFFFFFFFFFFFFFFFFFFFFFFFFFFFFFFFFFFFFFFFFFFFFFFFF
310
FFFFFFFFFFFFFFFFF000FFFFFFFFFFFFFFFFFFFFFFFFFFFFFFFFFFFFFFFFFFFF
310
FFFFFFFFFFFFFFFFFFFFFFFFFFFFFFFFFFFFFFFFFFFFFFFFFFFFFFFFFFFFFFFF
310
FFFFFFFFFFFFFFFFFFFFFFFFFFFFFFFFFFFFFFFFFFFFFFFFFFFFFFFFFFFFFFFF
310
F000FFFFFFFFFFFFFFFFFFFFFFFFFFFFFFFFFFFFFFFFFFFFFFFFFFFFFFFFFFFF
310
FFFFFFFFFFFFFFFFFFFFFFFFFFFFFFFFFFFFFFFFFFFFFFFFFFFFFFFFFFFFFFFF
310
FFFFFFFFFFFFFFFFFFFFFFFFFFFFFFFFFFFFFFFFFFFFFFFFF000FFFFFFFFFFFF
310
FFFFFFFFFFFFFFFFFFFFFFFFFFFFFFFFFFFFFFFFFFFFFFFFFFFFFFFFFFFFFFFF
310
FFFFFFFFFFFFFFFFFFFFFFFFFFFFFFFFFFFFFFFFFFFFFFFFFFFFFFFFFFFFFFFF
310
FFFFFFFFFFFFFFFFFFFFFFFFFFFFFFFFF000FFFFFFFFFFFFFFFFFFFFFFFFFFFF
310
FFFFFFFFFFFFFFFFFFFFFFFFFFFFFFFFFFFFFFFFFFFFFFFFFFFFFFFFFFFFFFFF
310
FFFFFFFFFFFFFFFFFFFFFFFFFFFFFFFFFFFFFFFFFFFFFFFFFFFFFFFFFFFFFFFF
310
FFFFFFFFFFFFFFFFF000FFFFFFFFFFFFFFFFFFFFFFFFFFFFFFFFFFFFFFFFFFFF
310
FFFFFFFFFFFFFFFFFFFFFFFFFFFFFFFFFFFFFFFFFFFFFFFFFFFFFFFFFFFFFFFF
310
FFFFFFFFFFFFFFFFFFFFFFFFFFFFFFFFFFFFFFFFFFFFFFFFFFFFFFFFFFFFFFFF
310
F000FFFFFFFFFFFFFFFFFFFFFFFFFFFFFFFFFFFFFFFFFFFFFFFFFFFFFFFFFFFF
310
FFFFFFFFFFFFFFFFFFFFFFFFFFFFFFFFFFFFFFFFFFFFFFFFFFFFFFFFFFFFFFFF
310
FFFFFFFFFFFFFFFFFFFFFFFFFFFFFFFFFFFFFFFFFFFFFFFFF000FFFFFFFFFFFF
310
FFFFFFFFFFFFFFFFFFFFFFFFFFFFFFFFFFFFFFFFFFFFFFFFFFFFFFFFFFFFFFFF
310
FFFFFFFFFFFFFFFFFFFFFFFFFFFFFFFFFFFFFFFFFFFFFFFFFFFFFFFFFFFFFFFF
310
FFFFFFFFFFFFFFFFFFFFFFFFFFFFFFFFF000FFFFFFFFFFFFFFFFFFFFFFFFFFFF
310
FFFFFFFFFFFFFFFFFFFFFFFFFFFFFFFFFFFFFFFFFFFFFFFFFFFFFFFFFFFFFFFF
310
FFFFFFFFFFFFFFFFFFFFFFFFFFFFFFFFFFFFFFFFFFFFFFFFFFFFFFFFFFFFFFFF
310
FFFFFFFFFFFFFFFFF000FFFFFFFFFFFFFFFFFFFFFFFFFFFFFFFFFFFFFFFFFFFF
310
FFFFFFFFFFFFFFFFFFFFFFFFFFFFFFFFFFFFFFFFFFFFFFFFFFFFFFFFFFFFFFFF
310
FFFFFFFFFFFFFFFFFFFFFFFFFFFFFFFFFFFFFFFFFFFFFFFFFFFFFFFFFFFFFFFF
310
F000FFFFFFFFFFFFFFFFFFFFFFFFFFFFFFFFFFFFFFFFFFFFFFFFFFFFFFFFFFFF
310
FFFFFFFFFFFFFFFFFFFFFFFFFFFFFFFFFFFFFFFFFFFFFFFFFFFFFFFFFFFFFFFF
310
FFFFFFFFFFFFFFFFFFFFFFFFFFFFFFFFFFFFFFFFFFFFFFFFF000FFFFFFFFFFFF
310
FFFFFFFFFFFFFFFFFFFFFFFFFFFFFFFFFFFFFFFFFFFFFFFFFFFFFFFFFFFFFFFF
310
FFFFFFFFFFFFFFFFFFFFFFFFFFFFFFFFFFFFFFFFFFFFFFFFFFFFFFFFFFFFFFFF
310
FFFFFFFFFFFFFFFFFFFFFFFFFFFFFFFFF000FFFFFFFFFFFFFFFFFFFFFFFFFFFF
310
FFFFFFFFFFFFFFFFFFFFFFFFFFFFFFFFFFFFFFFFFFFFFFFFFFFFFFFFFFFFFFFF
310
FFFFFFFFFFFFFFFFFFFFFFFFFFFFFFFFFFFFFFFFFFFFFFFFFFFFFFFFFFFFFFFF
310
FFFFFFFFFFFFFFFFF000FFFFF80003FFFFFFFFFFFFFFFFFFFFFFFFFFFFFFFFFF
310
FFFFF00007FFFFFFFFFF00007FFFFFF800000000000000007FFFFFFFFFFFFFFF
310
FFFFFFFC001FFFFFFFFFFFFFFC001FFFFFFFFFFFFFFFFFFFFFFFFFFE0007FFFF
310
F000FFFF8000007FFFFFFFF8000FFFFFC0007FFFFF80007FFFFF0000007FFFFF
310
FFF8000007FFFFF800000000000000007FFFFFF0001FFFFFFFFFFFC00001FFFF
310
FFFFFFFFC00001FFFFFFFF000000000003FFFFE000007FFFF000FFFE0000000F
310
FFFFFFF0000FFFFF80007FFFFF80007FFFFC0000001FFFFFFFC0000001FFFFF8
310
00000000000000007FFFFFF0001FFFFFFFFFFE0000003FFFFFFFFFFE0000003F
310
FFFFFF000000000003FFFF0000000FFFF000FFF800000003FFFFFFF00007FFFF
310
80007FFFFF80007FFFF000000007FFFFFF000000003FFFF80000000000000000
310
7FFFFFF0001FFFFFFFFFF80000000FFFFFFFFFF80000000FFFFFFF0000000000
310
03FFFC00000003FFF000FFE000000000FFFFFFF00007FFFF80003FFFFF80007F
310
FFC000000001FFFFFC000000001FFFF800000000000000007FFFFFF0001FFFFF
310
FFFFE000000003FFFFFFFFE000000003FFFFFF000000000003FFF000000000FF
310
F000FF80000000007FFFFFF00007FFFF80003FFFFF80007FFF8000000000FFFF
310
F80000000007FFF800000000000000007FFFFFF0001FFFFFFFFFC000000001FF
310
FFFFFFC000000001FFFFFF000000000003FFC0000000007FF000FF0000000000
310
3FFFFFE00007FFFF00003FFFFF80007FFE00000000003FFFF00000000003FFF8
310
00000000000000007FFFFFF0001FFFFFFFFF8000000000FFFFFFFF8000000000
310
FFFFFF000000000003FF80000000003FF000FE00000000001FFFFFE00003FFFF
310
00003FFFFF80007FFC00000000001FFFE00000000001FFF8000001FFFE000000
310
7FFFFFF0001FFFFFFFFE00000000003FFFFFFE00000000003FFFFF0000000000
310
03FF00000000001FF000FC00000000000FFFFFE00003FFFF00001FFFFF80007F
310
F800000000001FFFC00000000000FFF8000001FFFE0000007FFFFFF0001FFFFF
310
FFFC00000000001FFFFFFC00000000001FFFFF000000000003FE00000000000F
310
F000F8000000000007FFFFE00003FFFF00001FFFFF80007FF800000000000FFF
310
800000000000FFF8000001FFFE0000007FFFFFF0001FFFFFFFF800000000000F
310
FFFFF800000000000FFFFF000000000003FC000000000007F000F80000000000
310
03FFFFC00003FFFE00001FFFFF80007FF0000000000007FF0000000000007FF8
310
000001FFFE0000007FFFFFF0001FFFFFFFF0000000000007FFFFF00000000000
310
07FFFF000000000003F8000000000003F000F0000000000003FFFFC00001FFFE
310
00001FFFFF80007FE0000000000007FE0000000000003FF8000001FFFE000000
310
7FFFFFF0001FFFFFFFF0000000000007FFFFF0000000000007FFFF0000000000
310
03F800001F800003F000E00001FFF00001FFFFC00001FFFE00000FFFFF80007F
310
E00001FFE00003FE00001FFF00003FF8000001FFFE0000007FFFFFF0001FFFFF
310
FFE000003E000003FFFFE000003E000003FFFF000000000003F00001FFF80001
310
F000E00007FFFC0001FFFFC00001FFFE00000FFFFF80007FC0000FFFFC0003FC
310
0000FFFFC0001FF8000001FFFE0000007FFFFFF0001FFFFFFFC00003FFE00001
310
FFFFC00003FFE00001FFFF0001FFFFFFFFF00007FFFE0001F000E0000FFFFF00
310
00FFFF800001FFFC00000FFFFF80007FC0001FFFFE0001FC0001FFFFE0001FF8
310
000001FFFE0000007FFFFFF0001FFFFFFF80000FFFF80000FFFF80000FFFF800
310
00FFFF0003FFFFFFFFE0000FFFFF8000F000C0003FFFFF8000FFFF800000FFFC
310
000007FFFF80007F80003FFFFF0001FC0003FFFFF0001FF8000001FFFE000000
310
7FFFFFF0001FFFFFFF80003FFFFE0000FFFF80003FFFFE0000FFFF0003FFFFFF
310
FFE0003FFFFF8000F000C0003FFFFF8000FFFF800000FFFC000007FFFF80007F
310
80007FFFFF8001F80007FFFFF8000FF8000001FFFE0000007FFFFFF0001FFFFF
310
FF00007FFFFF00007FFF00007FFFFF00007FFF0003FFFFFFFFE0003FFFFFC000
310
F000C0007FFFFFC000FFFF000000FFFC000007FFFF80007F8000FFFFFF8000F8
310
000FFFFFF8000FF8000001FFFE0000007FFFFFF0001FFFFFFF0000FFFFFF8000
310
7FFF0000FFFFFF80007FFF0003FFFFFFFFC0007FFFFFC00070008000FFFFFFC0
310
00FFFF000000FFF8000007FFFF80007F8000FFFFFF8000F8000FFFFFF8000FF8
310
000001FFFE0000007FFFFFF0001FFFFFFE0001FFFFFFC0003FFE0001FFFFFFC0
310
003FFF0003FFFFFFFFC0007FFFFFE00070008000FFFFFFC0007FFF0000007FF8
310
000003FFFF80007F0001FFFFFF8000F8000FFFFFF8000FF8000001FFFE000000
310
7FFFFFF0001FFFFFFE0001FFFFFFC0003FFE0001FFFFFFC0003FFF0003FFFFFF
310
FFC000FFFFFFE00070008000FFFFFFC0007FFF0000007FF8000003FFFF80007F
310
0001FFFFFF8000F8001FFFFFF8000FF8000001FFFE0000007FFFFFF0001FFFFF
310
FE0003FFFFFFE0003FFE0003FFFFFFE0003FFF0003FFFFFFFFC000FFFFFFE000
310
70008000FFFFFFC0007FFE0000007FF8000003FFFF80007F0001FFFFFF8000F0
310
001FFFFFF8000FF8000001FFFE0000007FFFFFF0001FFFFFFC0003FFFFFFE000
310
1FFC0003FFFFFFE0001FFF0003FFFFFFFFC000FFFFFFC00070008000FFFFFF80
310
007FFE0000007FF0000003FFFF80007F0001FFFFFF0000F0001FFFFFF8000FF8
310
000001FFFE0000007FFFFFF0001FFFFFFC0007FFFFFFF0001FFC0007FFFFFFF0
310
001FFF0003FFFFFFFFC000FFFFFFC00070008001FFFFFF0000FFFE0000003FF0
310
000001FFFF80007F0001FFFFFF0000F8001FFFFFF0000FF8000001FFFE000000
310
7FFFFFF0001FFFFFFC0007FFFFFFF0001FFC0007FFFFFFF0001FFF0003FFFFFF
310
FFC001FFFFFF80007000FFFFFFFFFE0000FFFE0008003FF0008001FFFF80007F
310
FFFFFFFFFC0000FFFFFFFFFFE0000FF8000001FFFE0000007FFFFFF0001FFFFF
310
F8000FFFFFFFF8000FF8000FFFFFFFF8000FFF0003FFFFFFFFFFFFFFFFFF0000
310
7000FFFFFFFFFC0000FFFC0008003FF0008001FFFF80007FFFFFFFFFF80001FF
310
FFFFFFFF80000FF8000001FFFE0000007FFFFFF0001FFFFFF8000FFFFFFFF800
310
0FF8000FFFFFFFF8000FFF0003FFFFFFFFFFFFFFFFFE0000F000FFFFFFFFE000
310
00FFFC000C003FE000C001FFFF80007FFFFFFFFFC00001FFFFFFFFFE00001FF8
310
000001FFFE0000007FFFFFF0001FFFFFF8000FFFFFFFF8000FF8000FFFFFFFF8
310
000FFF0003FFFFFFFFFFFFFFFFF00000F000FFFFFFFE000001FFFC000C001FE0
310
00C000FFFF80007FFFFFFFFE000001FFFFFFFFE000001FF80FFFFFFFFFFFFFC0
310
7FFFFFF0001FFFFFF8000FFFFFFFF8000FF8000FFFFFFFF8000FFF0003FFFFFF
310
FFFFFFFFFF800000F000FFFFFFC0000001FFFC001C001FE001C000FFFF80007F
310
FFFFFF80000003FFFFFFF80000001FF80FFFFFFFFFFFFFC07FFFFFF0001FFFFF
310
F8001FFFFFFFFC000FF8001FFFFFFFFC000FFF0003FFFFFFFFFFFFFFF0000001
310
F000FFFFF800000001FFF8001C001FE001C000FFFF80007FFFFFF800000003FF
310
FFFF800000003FF80FFFFFFFFFFFFFC07FFFFFF0001FFFFFF8001FFFFFFFFC00
310
0FF8001FFFFFFFFC000FFF0003FFFFFFFFFFFFFE00000001F000FFFFC0000000
310
03FFF8001E001FC001E000FFFF80007FFFFF8000000007FFFFFC000000003FF8
310
0FFFFFFFFFFFFFC07FFFFFF0001FFFFFF8001FFFFFFFFC000FF8001FFFFFFFFC
310
000FFF0003FFFFFFFFFFFFE000000003F000FFFE0000000007FFF8001E000FC0
310
01E0007FFF80007FFFFE0000000007FFFFE0000000007FF80FFFFFFFFFFFFFC0
310
7FFFFFF0001FFFFFF0001FFFFFFFFC0007F0001FFFFFFFFC0007FF0003FFFFFF
310
FFFFFF0000000003F000FFF80000000007FFF8001E000FC003E0007FFF80007F
310
FFF0000000000FFFFF8000000000FFF80FFFFFFFFFFFFFC07FFFFFF0001FFFFF
310
F0001FFFFFFFFC0007F0001FFFFFFFFC0007FF0003FFFFFFFFFFFC0000000007
310
F000FFE0000000000FFFF0003E000FC003E0007FFF80007FFFC0000000001FFF
310
FE0000000001FFF80FFFFFFFFFFFFFC07FFFFFF0001FFFFFF0001FFFFFFFFC00
310
07F0001FFFFFFFFC0007FF0003FFFFFFFFFFF0000000000FF000FFC000000000
310
1FFFF0003F000F8003F0003FFF80007FFF80000000003FFFF80000000003FFF8
310
0FFFFFFFFFFFFFC07FFFFFF0001FFFFFF0001FFFFFFFFC0007F0001FFFFFFFFC
310
0007FF0003FFFFFFFFFFE0000000001FF000FF00000000007FFFF0003F000780
310
03F0003FFF80007FFF00000000007FFFF00000000007FFF80FFFFFFFFFFFFFC0
310
7FFFFFF0001FFFFFF0001FFFFFFFFC0007F0001FFFFFFFFC0007FF0003FFFFFF
310
FFFF80000000007FF000FE0000000000FFFFE0003F00078007F0003FFF80007F
310
FE0000000001FFFFE0000000001FFFF80FFFFFFFFFFFFFC07FFFFFF0001FFFFF
310
F0001FFFFFFFFC0007F0001FFFFFFFFC0007FF0003FFFFFFFFFF0000000000FF
310
F000FC0000000003FFFFE0007F00078007F0003FFF80007FFC0000000007FFFF
310
C0000000007FFFF80FFFFFFFFFFFFFC07FFFFFF0001FFFFFF8001FFFFFFFFC00
310
0FF8001FFFFFFFFC000FFF0003FFFFFFFFFE0000000003FFF000FC000000000F
310
FFFFE0007F80070007F8001FFF80007FF8000000001FFFFF8000000001FFFFF8
310
0FFFFFFFFFFFFFC07FFFFFF0001FFFFFF8001FFFFFFFFC000FF8001FFFFFFFFC
310
000FFF0003FFFFFFFFFC000000000FFFF000F8000000007FFFFFE0007F800700
310
07F8001FFF80007FF000000000FFFFFF800000000FFFFFF80FFFFFFFFFFFFFC0
310
7FFFFFF0001FFFFFF8000FFFFFFFF8000FF8000FFFFFFFF8000FFF0003FFFFFF
310
FFFC000000007FFFF000F800000007FFFFFFC0007F8003000FF8001FFF80007F
310
F000000007FFFFFF000000007FFFFFF80FFFFFFFFFFFFFC07FFFFFF0001FFFFF
310
F8000FFFFFFFF8000FF8000FFFFFFFF8000FFF0003FFFFFFFFF80000000FFFFF
310
F000F0000000FFFFFFFFC000FF8003000FF8001FFF80007FE0000000FFFFFFFF
310
0000000FFFFFFFF8000001FFFE0000007FFFFFF0001FFFFFF8000FFFFFFFF800
310
0FF8000FFFFFFFF8000FFF0003FFFFFFFFF8000000FFFFFFF000F000000FFFFF
310
FFFFC000FFC002000FF8000FFF80007FE000001FFFFFFFFE000001FFFFFFFFF8
310
000001FFFE0000007FFFFFF0001FFFFFF8000FFFFFFFF8000FF8000FFFFFFFF8
310
000FFF0003FFFFFFFFF000001FFFFFFFF000E00000FFFFFFFFFFC000FFC00200
310
0FFC000FFF80007FE00001FFFFFFFFFE00001FFFFFFFFFF8000001FFFE000000
310
7FFFFFF0001FFFFFFC000FFFFFFFF8001FFC000FFFFFFFF8001FFF0003FFFFFF
310
FFF00001FFFFFFFFF000E00007FFFFFFFFFF8000FFC000001FFC000FFF80007F
310
C0000FFFFFFFFFFE0000FFFFFFFFFFF8000001FFFE0000007FFFFFF0001FFFFF
310
FC0007FFFFFFF0001FFC0007FFFFFFF0001FFF0003FFFFFFFFF00007FFFFFFFF
310
F000E0001FFFFFFFFFFF8000FFC000001FFC000FFF80007FC0003FFFFFFFFFFE
310
0001FFFFFFFFFFF8000001FFFE0000007FFFFFF0001FFFFFFC0007FFFFFFF000
310
1FFC0007FFFFFFF0001FFF0003FFFFFFFFF0001FFFFFFFFFF000E0003FFFFF00
310
03FF8001FFE000001FFC0007FF80007FC0007FFFFF0007FC0003FFFFF0003FF8
310
000001FFFE0000007FFFFFF0001FFFFFFC0003FFFFFFE0001FFC0003FFFFFFE0
310
001FFF0003FFFFFFFFF0003FFFFFFFFFF000E0003FFFFF0001FF8001FFE00000
310
1FFE0007FF80007FC0007FFFFE0003FC0007FFFFE0003FF8000001FFFE000000
310
7FFFFFF0001FFFFFFE0003FFFFFFE0003FFE0003FFFFFFE0003FFF0003FFFFFF
310
FFF0003FFFFF8001F000E0003FFFFF0001FF0001FFE000001FFE0007FF80007F
310
C0007FFFFE0003FC0007FFFFE0003FF8000001FFFE0000007FFFFFF0001FFFFF
310
FE0001FFFFFFC0003FFE0001FFFFFFC0003FFF0003FFFFFFFFF0003FFFFF0001
310
F000E0003FFFFF0003FF0001FFE000003FFE0007FF80007FC0007FFFFE0003FC
310
0007FFFFE0003FF8000001FFFE0000007FFFFFF0001FFFFFFF0001FFFFFFC000
310
7FFF0001FFFFFFC0007FFF0003FFFFFFFFF0003FFFFF0001F000E0003FFFFE00
310
03FF0003FFF000003FFE0003FF80007FC0007FFFFC0003FE0007FFFFE0003FF8
310
000001FFFE0000007FFFFFF0001FFFFFFF0000FFFFFF80007FFF0000FFFFFF80
310
007FFF0003FFFFFFFFF0003FFFFF0001F000E0003FFFFE0003FF0003FFF00000
310
3FFF0003FF80007FC0007FFFFC0007FE0007FFFFC0003FF8000001FFFE000000
310
7FFFFFF0001FFFFFFF80007FFFFF0000FFFF80007FFFFF0000FFFF0003FFFFFF
310
FFF0003FFFFF0003F000E0003FFFFC0003FE0003FFF000003FFF0003FF80007F
310
E0003FFFF80007FE0003FFFFC0007FF8000001FFFE0000007FFFFFF0001FFFFF
310
FF80003FFFFE0000FFFF80003FFFFE0000FFFF0003FFFFFFFFF0001FFFFE0003
310
F000F0001FFFF80003FE0003FFF000007FFF0001FF80007FE0003FFFF00007FE
310
0001FFFF80007FF8000001FFFE0000007FFFFFF0001FFFFFFFC0000FFFF80001
310
FFFFC0000FFFF80001FFFF0003FFFFFFFFF0001FFFFC0003F000F0000FFFF000
310
07FE0007FFF800007FFF0001FF80007FE0001FFFE00007FF0000FFFE00007FF8
310
000001FFFE0000007FFFFFF0001FFFFFFFC00003FFE00001FFFFC00003FFE000
310
01FFFF0003FFFFFFFFF8000FFFF80003F000F00003FFC00007FC0007FFF80000
310
7FFF8001FF80007FF00007FF80000FFF00007FF80000FFF8000001FFFE000000
310
7F80000000000001FFE000003E000003FFFFE000003E000003FFFF0003FFFFFF
310
FFF80003FFE00007F000F800000000000FFC0007FFF800007FFF8001FF80007F
310
F000000000000FFF000000000000FFF8000001FFFE0000007F80000000000001
310
FFF0000000000007FFFFF0000000000007FFFF0003FFFFFFFFFC00007E000007
310
F000F800000000000FFC0007FFF80000FFFF8000FF80007FF800000000001FFF
310
800000000001FFF8000001FFFE0000007F80000000000001FFF800000000000F
310
FFFFF800000000000FFFFF0003FFFFFFFFFC00000000000FF000FC0000000000
310
1FFC0007FFFC0000FFFF8000FF80007FF800000000003FFFC00000000001FFF8
310
000001FFFE0000007F80000000000001FFF800000000000FFFFFF80000000000
310
0FFFFF0003FFFFFFFFFE00000000001FF000FE00000000003FF8000FFFFC0000
310
FFFF8000FF80007FFC00000000003FFFC00000000003FFF8000001FFFE000000
310
7F80000000000001FFFC00000000001FFFFFFC00000000001FFFFF0003FFFFFF
310
FFFF00000000001FF000FF00000000003FF8000FFFFC0000FFFFC000FF80007F
310
FE00000000007FFFE00000000007FFF8000001FFFE0000007F80000000000001
310
FFFE00000000003FFFFFFE00000000003FFFFF0003FFFFFFFFFF80000000003F
310
F000FF80000000007FF8000FFFFC0001FFFFC0007F80007FFF0000000000FFFF
310
F0000000000FFFF800000000000000007F80000000000001FFFF8000000000FF
310
FFFFFF8000000000FFFFFF0003FFFFFFFFFFC0000000007FF000FFC000000000
310
FFF8000FFFFE0001FFFFC0007F80007FFF8000000001FFFFF8000000001FFFF8
310
00000000000000007F80000000000001FFFFC000000001FFFFFFFFC000000001
310
FFFFFF0003FFFFFFFFFFE000000000FFF000FFE000000003FFF0001FFFFE0001
310
FFFFC0007F80007FFFC000000007FFFFFE000000003FFFF80000000000000000
310
7F80000000000001FFFFE000000003FFFFFFFFE000000003FFFFFF0003FFFFFF
310
FFFFF000000003FFF000FFF80000000FFFF0001FFFFE0001FFFFE0007F80007F
310
FFF00000000FFFFFFF00000000FFFFF800000000000000007F80000000000001
310
FFFFF80000000FFFFFFFFFF80000000FFFFFFF0003FFFFFFFFFFFC0000000FFF
310
F000FFFE0000003FFFF0001FFFFE0003FFFFE0003F80007FFFFC0000003FFFFF
310
FFC0000003FFFFF800000000000000007F80000000000001FFFFFE0000003FFF
310
FFFFFFFE0000003FFFFFFF0003FFFFFFFFFFFF0000003FFFF000FFFF800000FF
310
FFF0001FFFFF0003FFFFE0003F80007FFFFF000001FFFFFFFFF800001FFFFFF8
310
00000000000000007F80000000000001FFFFFFC00001FFFFFFFFFFFFC00001FF
310
FFFFFF0003FFFFFFFFFFFFC00000FFFFF000FFFFF8000FFFFFFFFFFFFFFFFFFF
310
FFFFFFFFFFFFFFFFFFFFF0001FFFFFFFFFFF0000FFFFFFF80000000000000000
310
7FFFFFFFFFFFFFFFFFFFFFFC001FFFFFFFFFFFFFFC001FFFFFFFFFFFFFFFFFFF
310
FFFFFFFC001FFFFFF000FFFFFFFFFFFFFFFFFFFFFFFFFFFFFFFFFFFFFFFFFFFF
310
FFFFFFFFFFFFFFFFFFFFFFFFFFFFFFFFFFFFFFFFFFFFFFFFFFFFFFFFFFFFFFFF
310
FFFFFFFFFFFFFFFFFFFFFFFFFFFFFFFFFFFFFFFFFFFFFFFFFFFFFFFFFFFFFFFF
310
F000FFFFFFFFFFFFFFFFFFFFFFFFFFFFFFFFFFFFFFFFFFFFFFFFFFFFFFFFFFFF
310
FFFFFFFFFFFFFFFFFFFFFFFFFFFFFFFFFFFFFFFFFFFFFFFFFFFFFFFFFFFFFFFF
310
FFFFFFFFFFFFFFFFFFFFFFFFFFFFFFFFFFFFFFFFFFFFFFFFF000FFFFFFFFFFFF
310
FFFFFFFFFFFFFFFFFFFFFFFFFFFFFFFFFFFFFFFFFFFFFFFFFFFFFFFFFFFFFFFF
310
FFFFFFFFFFFFFFFFFFFFFFFFFFFFFFFFFFFFFFFFFFFFFFFFFFFFFFFFFFFFFFFF
310
FFFFFFFFFFFFFFFFFFFFFFFFFFFFFFFFF000FFFFFFFFFFFFFFFFFFFFFFFFFFFF
310
FFFFFFFFFFFFFFFFFFFFFFFFFFFFFFFFFFFFFFFFFFFFFFFFFFFFFFFFFFFFFFFF
310
FFFFFFFFFFFFFFFFFFFFFFFFFFFFFFFFFFFFFFFFFFFFFFFFFFFFFFFFFFFFFFFF
310
FFFFFFFFFFFFFFFFF000FFFFFFFFFFFFFFFFFFFFFFFFFFFFFFFFFFFFFFFFFFFF
310
FFFFFFFFFFFFFFFFFFFFFFFFFFFFFFFFFFFFFFFFFFFFFFFFFFFFFFFFFFFFFFFF
310
FFFFFFFFFFFFFFFFFFFFFFFFFFFFFFFFFFFFFFFFFFFFFFFFFFFFFFFFFFFFFFFF
310
F000FFFFFFFFFFFFFFFFFFFFFFFFFFFFFFFFFFFFFFFFFFFFFFFFFFFFFFFFFFFF
310
FFFFFFFFFFFFFFFFFFFFFFFFFFFFFFFFFFFFFFFFFFFFFFFFFFFFFFFFFFFFFFFF
310
FFFFFFFFFFFFFFFFFFFFFFFFFFFFFFFFFFFFFFFFFFFFFFFFF000FFFFFFFFFFFF
310
FFFFFFFFFFFFFFFFFFFFFFFFFFFFFFFFFFFFFFFFFFFFFFFFFFFFFFFFFFFFFFFF
310
FFFFFFFFFFFFFFFFFFFFFFFFFFFFFFFFFFFFFFFFFFFFFFFFFFFFFFFFFFFFFFFF
310
FFFFFFFFFFFFFFFFFFFFFFFFFFFFFFFFF000FFFFFFFFFFFFFFFFFFFFFFFFFFFF
310
FFFFFFFFFFFFFFFFFFFFFFFFFFFFFFFFFFFFFFFFFFFFFFFFFFFFFFFFFFFFFFFF
310
FFFFFFFFFFFFFFFFFFFFFFFFFFFFFFFFFFFFFFFFFFFFFFFFFFFFFFFFFFFFFFFF
310
FFFFFFFFFFFFFFFFF000FFFFFFFFFFFFFFFFFFFFFFFFFFFFFFFFFFFFFFFFFFFF
310
FFFFFFFFFFFFFFFFFFFFFFFFFFFFFFFFFFFFFFFFFFFFFFFFFFFFFFFFFFFFFFFF
310
FFFFFFFFFFFFFFFFFFFFFFFFFFFFFFFFFFFFFFFFFFFFFFFFFFFFFFFFFFFFFFFF
310
F000FFFFFFFFFFFFFFFFFFFFFFFFFFFFFFFFFFFFFFFFFFFFFFFFFFFFFFFFFFFF
310
FFFFFFFFFFFFFFFFFFFFFFFFFFFFFFFFFFFFFFFFFFFFFFFFFFFFFFFFFFFFFFFF
310
FFFFFFFFFFFFFFFFFFFFFFFFFFFFFFFFFFFFFFFFFFFFFFFFF000FFFFFFFFFFFF
310
FFFFFFFFFFFFFFFFFFFFFFFFFFFFFFFFFFFFFFFFFFFFFFFFFFFFFFFFFFFFFFFF
310
FFFFFFFFFFFFFFFFFFFFFFFFFFFFFFFFFFFFFFFFFFFFFFFFFFFFFFFFFFFFFFFF
310
FFFFFFFFFFFFFFFFFFFFFFFFFFFFFFFFF000FFFFFFFFFFFFFFFFFFFFFFFFFFFF
310
FFFFFFFFFFFFFFFFFFFFFFFFFFFFFFFFFFFFFFFFFFFFFFFFFFFFFFFFFFFFFFFF
310
FFFFFFFFFFFFFFFFFFFFFFFFFFFFFFFFFFFFFFFFFFFFFFFFFFFFFFFFFFFFFFFF
310
FFFFFFFFFFFFFFFFF000FFFFFFFFFFFFFFFFFFFFFFFFFFFFFFFFFFFFFFFFFFFF
310
FFFFFFFFFFFFFFFFFFFFFFFFFFFFFFFFFFFFFFFFFFFFFFFFFFFFFFFFFFFFFFFF
310
FFFFFFFFFFFFFFFFFFFFFFFFFFFFFFFFFFFFFFFFFFFFFFFFFFFFFFFFFFFFFFFF
310
F000FFFFFFFFFFFFFFFFFFFFFFFFFFFFFFFFFFFFFFFFFFFFFFFFFFFFFFFFFFFF
310
FFFFFFFFFFFFFFFFFFFFFFFFFFFFFFFFFFFFFFFFFFFFFFFFFFFFFFFFFFFFFFFF
310
FFFFFFFFFFFFFFFFFFFFFFFFFFFFFFFFFFFFFFFFFFFFFFFFF000FFFFFFFFFFFF
310
FFFFFFFFFFFFFFFFFFFFFFFFFFFFFFFFFFFFFFFFFFFFFFFFFFFFFFFFFFFFFFFF
310
FFFFFFFFFFFFFFFFFFFFFFFFFFFFFFFFFFFFFFFFFFFFFFFFFFFFFFFFFFFFFFFF
310
FFFFFFFFFFFFFFFFFFFFFFFFFFFFFFFFF000FFFFFFFFFFFFFFFFFFFFFFFFFFFF
310
FFFFFFFFFFFFFFFFFFFFFFFFFFFFFFFFFFFFFFFFFFFFFFFFFFFFFFFFFFFFFFFF
310
FFFFFFFFFFFFFFFFFFFFFFFFFFFFFFFFFFFFFFFFFFFFFFFFFFFFFFFFFFFFFFFF
310
FFFFFFFFFFFFFFFFF000FFFFFFFFFFFFFFFFFFFFFFFFFFFFFFFFFFFFFFFFFFFF
310
FFFFFFFFFFFFFFFFFFFFFFFFFFFFFFFFFFFFFFFFFFFFFFFFFFFFFFFFFFFFFFFF
310
FFFFFFFFFFFFFFFFFFFFFFFFFFFFFFFFFFFFFFFFFFFFFFFFFFFFFFFFFFFFFFFF
310
F000FFFFFFFFFFFFFFFFFFFFFFFFFFFFFFFFFFFFFFFFFFFFFFFFFFFFFFFFFFFF
310
FFFFFFFFFFFFFFFFFFFFFFFFFFFFFFFFFFFFFFFFFFFFFFFFFFFFFFFFFFFFFFFF
310
FFFFFFFFFFFFFFFFFFFFFFFFFFFFFFFFFFFFFFFFFFFFFFFFF000FFFFFFFFFFFF
310
FFFFFFFFFFFFFFFFFFFFFFFFFFFFFFFFFFFFFFFFFFFFFFFFFFFFFFFFFFFFFFFF
310
FFFFFFFFFFFFFFFFFFFFFFFFFFFFFFFFFFFFFFFFFFFFFFFFFFFFFFFFFFFFFFFF
310
FFFFFFFFFFFFFFFFFFFFFFFFFFFFFFFFF000FFFFFFFFFFFFFFFFFFFFFFFFFFFF
310
FFFFFFFFFFFFFFFFFFFFFFFFFFFFFFFFFFFFFFFFFFFFFFFFFFFFFFFFFFFFFFFF
310
FFFFFFFFFFFFFFFFFFFFFFFFFFFFFFFFFFFFFFFFFFFFFFFFFFFFFFFFFFFFFFFF
310
FFFFFFFFFFFFFFFFF000FFFFFFFFFFFFFFFFFFFFFFFFFFFFFFFFFFFFFFFFFFFF
310
FFFFFFFFFFFFFFFFFFFFFFFFFFFFFFFFFFFFFFFFFFFFFFFFFFFFFFFFFFFFFFFF
310
FFFFFFFFFFFFFFFFFFFFFFFFFFFFFFFFFFFFFFFFFFFFFFFFFFFFFFFFFFFFFFFF
310
F000FFFFFFFFFFFFFFFFFFFFFFFFFFFFFFFFFFFFFFFFFFFFFFFFFFFFFFFFFFFF
310
FFFFFFFFFFFFFFFFFFFFFFFFFFFFFFFFFFFFFFFFFFFFFFFFFFFFFFFFFFFFFFFF
310
FFFFFFFFFFFFFFFFFFFFFFFFFFFFFFFFFFFFFFFFFFFFFFFFF000FFFFFFFFFFFF
310
FFFFFFFFFFFFFFFFFFFFFFFFFFFFFFFFFFFFFFFFFFFFFFFFFFFFFFFFFFFFFFFF
310
FFFFFFFFFFFFFFFFFFFFFFFFFFFFFFFFFFFFFFFFFFFFFFFFFFFFFFFFFFFFFFFF
310
FFFFFFFFFFFFFFFFFFFFFFFFFFFFFFFFF0000000000000000000000000000000
310
0000000000000000000000000000000000000000000000000000000000000000
310
0000000000000000000000000000000000000000000000000000000000000000
310
0000000000000000000000000000000000000000000000000000000000000000
310
0000000000000000000000000000000000000000000000000000000000000000
310
0000000000000000000000000000000000000000000000000000000000000000
310
0000000000000000000000000000000000000000000000000000000000000000
310
0000000000000000000000000000000000000000000000000000000000000000
310
0000000000000000000000000000000000000000000000000000000000000000
310
0000000000000000000000000000000000000000000000000000000000000000
310
0000000000000000000000000000000000000000000000000000000000000000
310
0000000000000000000000000000000000000000000000000000000000000000
310
0000000000000000000000000000000000000000000000000000000000000000
310
0000000000000000000000000000000000000000000000000000000000000000
310
0000000000000000000000000000000000000000000000000000000000000000
310
0000000000000000000000000000000000000000000000000000000000000000
  1
OLE
  0
ENDSEC
  0
SECTION
  2
OBJECTS
  0
DICTIONARY
  5
C
330
0
100
AcDbDictionary
281
     1
  3
ACAD_GROUP
350
D
  3
ACAD_LAYOUT
350
1A
  3
ACAD_MLINESTYLE
350
17
  3
ACAD_PLOTSETTINGS
350
19
  3
ACAD_PLOTSTYLENAME
350
E
  3
ACAD_SCALELIST
350
47
  0
DICTIONARY
  5
D
102
{ACAD_REACTORS
330
C
102
}
330
C
100
AcDbDictionary
281
     1
  0
DICTIONARY
  5
1A
102
{ACAD_REACTORS
330
C
102
}
330
C
100
AcDbDictionary
281
     1
  3
Layout1
350
1E
  3
Layout2
350
26
  3
Model
350
22
  0
DICTIONARY
  5
17
102
{ACAD_REACTORS
330
C
102
}
330
C
100
AcDbDictionary
281
     1
  3
Standard
350
18
  0
DICTIONARY
  5
19
102
{ACAD_REACTORS
330
C
102
}
330
C
100
AcDbDictionary
281
     1
  0
ACDBDICTIONARYWDFLT
  5
E
102
{ACAD_REACTORS
330
C
102
}
330
C
100
AcDbDictionary
281
     1
  3
Normal
350
F
100
AcDbDictionaryWithDefault
340
F
  0
DICTIONARY
  5
47
102
{ACAD_REACTORS
330
C
102
}
330
C
100
AcDbDictionary
281
     1
  3
A0
350
48
  3
A1
350
49
  3
A2
350
4A
  3
A3
350
4B
  3
A4
350
4C
  3
A5
350
4D
  3
A6
350
4E
  3
A7
350
4F
  3
A8
350
50
  3
A9
350
51
  3
B0
350
52
  3
B1
350
53
  3
B2
350
54
  3
B3
350
55
  3
B4
350
56
  3
B5
350
57
  3
B6
350
58
  3
B7
350
59
  3
B8
350
5A
  3
B9
350
5B
  3
C0
350
5C
  3
C1
350
5D
  3
C2
350
5E
  3
C3
350
5F
  3
C4
350
60
  3
C5
350
61
  3
C6
350
62
  3
C7
350
63
  3
C8
350
64
  3
C9
350
65
  3
D0
350
66
  3
D1
350
67
  3
D2
350
68
  0
LAYOUT
  5
1E
102
{ACAD_REACTORS
330
1A
102
}
330
1A
100
AcDbPlotSettings
  1

  2
none_device
  4

  6

 40
0.0
 41
0.0
 42
0.0
 43
0.0
 44
0.0
 45
0.0
 46
0.0
 47
0.0
 48
0.0
 49
0.0
140
0.0
141
0.0
142
1.0
143
1.0
 70
   688
 72
     1
 73
     0
 74
     5
  7

 75
    16
147
1.0
148
0.0
149
0.0
100
AcDbLayout
  1
Layout1
 70
     1
 71
     1
 10
0.0
 20
0.0
 11
420.0
 21
297.0
 12
0.0
 22
0.0
 32
0.0
 14
1.0000000000E+20
 24
1.0000000000E+20
 34
1.0000000000E+20
 15
-1.0000000000E+20
 25
-1.0000000000E+20
 35
-1.0000000000E+20
146
0.0
 13
0.0
 23
0.0
 33
0.0
 16
1.0
 26
0.0
 36
0.0
 17
0.0
 27
1.0
 37
0.0
 76
     0
330
1B
  0
LAYOUT
  5
26
102
{ACAD_REACTORS
330
1A
102
}
330
1A
100
AcDbPlotSettings
  1

  2
none_device
  4

  6

 40
0.0
 41
0.0
 42
0.0
 43
0.0
 44
0.0
 45
0.0
 46
0.0
 47
0.0
 48
0.0
 49
0.0
140
0.0
141
0.0
142
1.0
143
1.0
 70
   688
 72
     1
 73
     0
 74
     5
  7

 75
    16
147
1.0
148
0.0
149
0.0
100
AcDbLayout
  1
Layout2
 70
     1
 71
     2
 10
0.0
 20
0.0
 11
0.0
 21
0.0
 12
0.0
 22
0.0
 32
0.0
 14
0.0
 24
0.0
 34
0.0
 15
0.0
 25
0.0
 35
0.0
146
0.0
 13
0.0
 23
0.0
 33
0.0
 16
1.0
 26
0.0
 36
0.0
 17
0.0
 27
1.0
 37
0.0
 76
     0
330
23
  0
LAYOUT
  5
22
102
{ACAD_REACTORS
330
1A
102
}
330
1A
100
AcDbPlotSettings
  1

  2
none_device
  4
Letter_(8.50_x_11.00_Inches)
  6

 40
6.35
 41
6.35
 42
6.35000508
 43
6.35000508
 44
215.9
 45
279.4
 46
0.0
 47
0.0
 48
0.0
 49
0.0
140
0.0
141
0.0
142
1.0
143
1.0
 70
  1712
 72
     1
 73
     0
 74
     0
  7

 75
     0
147
1.0
148
0.0
149
0.0
100
AcDbLayout
  1
Model
 70
     1
 71
     0
 10
0.0
 20
0.0
 11
297.0
 21
210.0
 12
0.0
 22
0.0
 32
0.0
 14
0.0
 24
0.0
 34
0.0
 15
297.0
 25
210.0
 35
0.0
146
0.0
 13
0.0
 23
0.0
 33
0.0
 16
1.0
 26
0.0
 36
0.0
 17
0.0
 27
1.0
 37
0.0
 76
     0
330
1F
331
29
  0
MLINESTYLE
  5
18
102
{ACAD_REACTORS
330
17
102
}
330
17
100
AcDbMlineStyle
  2
Standard
 70
     0
  3

 62
   256
 51
90.0
 52
90.0
 71
     2
 49
0.5
 62
   256
  6
BYLAYER
 49
-0.5
 62
   256
  6
BYLAYER
  0
ACDBPLACEHOLDER
  5
F
102
{ACAD_REACTORS
330
E
102
}
330
E
  0
SCALE
  5
48
102
{ACAD_REACTORS
330
47
102
}
330
47
100
AcDbScale
 70
     0
300
1:1
140
1.0
141
1.0
290
     1
  0
SCALE
  5
49
102
{ACAD_REACTORS
330
47
102
}
330
47
100
AcDbScale
 70
     0
300
1:2
140
1.0
141
2.0
290
     0
  0
SCALE
  5
4A
102
{ACAD_REACTORS
330
47
102
}
330
47
100
AcDbScale
 70
     0
300
1:4
140
1.0
141
4.0
290
     0
  0
SCALE
  5
4B
102
{ACAD_REACTORS
330
47
102
}
330
47
100
AcDbScale
 70
     0
300
1:5
140
1.0
141
5.0
290
     0
  0
SCALE
  5
4C
102
{ACAD_REACTORS
330
47
102
}
330
47
100
AcDbScale
 70
     0
300
1:8
140
1.0
141
8.0
290
     0
  0
SCALE
  5
4D
102
{ACAD_REACTORS
330
47
102
}
330
47
100
AcDbScale
 70
     0
300
1:10
140
1.0
141
10.0
290
     0
  0
SCALE
  5
4E
102
{ACAD_REACTORS
330
47
102
}
330
47
100
AcDbScale
 70
     0
300
1:16
140
1.0
141
16.0
290
     0
  0
SCALE
  5
4F
102
{ACAD_REACTORS
330
47
102
}
330
47
100
AcDbScale
 70
     0
300
1:20
140
1.0
141
20.0
290
     0
  0
SCALE
  5
50
102
{ACAD_REACTORS
330
47
102
}
330
47
100
AcDbScale
 70
     0
300
1:30
140
1.0
141
30.0
290
     0
  0
SCALE
  5
51
102
{ACAD_REACTORS
330
47
102
}
330
47
100
AcDbScale
 70
     0
300
1:40
140
1.0
141
40.0
290
     0
  0
SCALE
  5
52
102
{ACAD_REACTORS
330
47
102
}
330
47
100
AcDbScale
 70
     0
300
1:50
140
1.0
141
50.0
290
     0
  0
SCALE
  5
53
102
{ACAD_REACTORS
330
47
102
}
330
47
100
AcDbScale
 70
     0
300
1:100
140
1.0
141
100.0
290
     0
  0
SCALE
  5
54
102
{ACAD_REACTORS
330
47
102
}
330
47
100
AcDbScale
 70
     0
300
2:1
140
2.0
141
1.0
290
     0
  0
SCALE
  5
55
102
{ACAD_REACTORS
330
47
102
}
330
47
100
AcDbScale
 70
     0
300
4:1
140
4.0
141
1.0
290
     0
  0
SCALE
  5
56
102
{ACAD_REACTORS
330
47
102
}
330
47
100
AcDbScale
 70
     0
300
8:1
140
8.0
141
1.0
290
     0
  0
SCALE
  5
57
102
{ACAD_REACTORS
330
47
102
}
330
47
100
AcDbScale
 70
     0
300
10:1
140
10.0
141
1.0
290
     0
  0
SCALE
  5
58
102
{ACAD_REACTORS
330
47
102
}
330
47
100
AcDbScale
 70
     0
300
100:1
140
100.0
141
1.0
290
     0
  0
SCALE
  5
59
102
{ACAD_REACTORS
330
47
102
}
330
47
100
AcDbScale
 70
     0
300
1/128" = 1'-0"
140
0.0078125
141
12.0
290
     0
  0
SCALE
  5
5A
102
{ACAD_REACTORS
330
47
102
}
330
47
100
AcDbScale
 70
     0
300
1/64" = 1'-0"
140
0.015625
141
12.0
290
     0
  0
SCALE
  5
5B
102
{ACAD_REACTORS
330
47
102
}
330
47
100
AcDbScale
 70
     0
300
1/32" = 1'-0"
140
0.03125
141
12.0
290
     0
  0
SCALE
  5
5C
102
{ACAD_REACTORS
330
47
102
}
330
47
100
AcDbScale
 70
     0
300
1/16" = 1'-0"
140
0.0625
141
12.0
290
     0
  0
SCALE
  5
5D
102
{ACAD_REACTORS
330
47
102
}
330
47
100
AcDbScale
 70
     0
300
3/32" = 1'-0"
140
0.09375
141
12.0
290
     0
  0
SCALE
  5
5E
102
{ACAD_REACTORS
330
47
102
}
330
47
100
AcDbScale
 70
     0
300
1/8" = 1'-0"
140
0.125
141
12.0
290
     0
  0
SCALE
  5
5F
102
{ACAD_REACTORS
330
47
102
}
330
47
100
AcDbScale
 70
     0
300
3/16" = 1'-0"
140
0.1875
141
12.0
290
     0
  0
SCALE
  5
60
102
{ACAD_REACTORS
330
47
102
}
330
47
100
AcDbScale
 70
     0
300
1/4" = 1'-0"
140
0.25
141
12.0
290
     0
  0
SCALE
  5
61
102
{ACAD_REACTORS
330
47
102
}
330
47
100
AcDbScale
 70
     0
300
3/8" = 1'-0"
140
0.375
141
12.0
290
     0
  0
SCALE
  5
62
102
{ACAD_REACTORS
330
47
102
}
330
47
100
AcDbScale
 70
     0
300
1/2" = 1'-0"
140
0.5
141
12.0
290
     0
  0
SCALE
  5
63
102
{ACAD_REACTORS
330
47
102
}
330
47
100
AcDbScale
 70
     0
300
3/4" = 1'-0"
140
0.75
141
12.0
290
     0
  0
SCALE
  5
64
102
{ACAD_REACTORS
330
47
102
}
330
47
100
AcDbScale
 70
     0
300
1" = 1'-0"
140
1.0
141
12.0
290
     0
  0
SCALE
  5
65
102
{ACAD_REACTORS
330
47
102
}
330
47
100
AcDbScale
 70
     0
300
1-1/2" = 1'-0"
140
1.5
141
12.0
290
     0
  0
SCALE
  5
66
102
{ACAD_REACTORS
330
47
102
}
330
47
100
AcDbScale
 70
     0
300
3" = 1'-0"
140
3.0
141
12.0
290
     0
  0
SCALE
  5
67
102
{ACAD_REACTORS
330
47
102
}
330
47
100
AcDbScale
 70
     0
300
6" = 1'-0"
140
6.0
141
12.0
290
     0
  0
SCALE
  5
68
102
{ACAD_REACTORS
330
47
102
}
330
47
100
AcDbScale
 70
     0
300
1'-0" = 1'-0"
140
12.0
141
12.0
290
     0
  0
ENDSEC
  0
EOF
