  0
SECTION
  2
HEADER
  9
$ACADVER
  1
AC1015
  9
$ACADMAINTVER
 70
     6
  9
$DWGCODEPAGE
  3
ANSI_1252
  9
$INSBASE
 10
0.0
 20
0.0
 30
0.0
  9
$EXTMIN
 10
0.0
 20
0.0
 30
0.0
  9
$EXTMAX
 10
297.0
 20
210.0
 30
0.0
  9
$LIMMIN
 10
0.0
 20
0.0
  9
$LIMMAX
 10
297.0
 20
210.0
  9
$ORTHOMODE
 70
     0
  9
$REGENMODE
 70
     1
  9
$FILLMODE
 70
     1
  9
$QTEXTMODE
 70
     0
  9
$MIRRTEXT
 70
     1
  9
$LTSCALE
 40
1.0
  9
$ATTMODE
 70
     1
  9
$TEXTSIZE
 40
2.0
  9
$TRACEWID
 40
1.0
  9
$TEXTSTYLE
  7
Standard
  9
$CLAYER
  8
0
  9
$CELTYPE
  6
ByLayer
  9
$CECOLOR
 62
   256
  9
$CELTSCALE
 40
1.0
  9
$DISPSILH
 70
     0
  9
$DIMSCALE
 40
1.0
  9
$DIMASZ
 40
3.0
  9
$DIMEXO
 40
0.0
  9
$DIMDLI
 40
3.75
  9
$DIMRND
 40
0.0
  9
$DIMDLE
 40
0.0
  9
$DIMEXE
 40
1.0
  9
$DIMTP
 40
0.0
  9
$DIMTM
 40
0.0
  9
$DIMTXT
 40
2.0
  9
$DIMCEN
 40
2.5
  9
$DIMTSZ
 40
0.0
  9
$DIMTOL
 70
     0
  9
$DIMLIM
 70
     0
  9
$DIMTIH
 70
     1
  9
$DIMTOH
 70
     1
  9
$DIMSE1
 70
     0
  9
$DIMSE2
 70
     0
  9
$DIMTAD
 70
     1
  9
$DIMZIN
 70
     0
  9
$DIMBLK
  1

  9
$DIMASO
 70
     1
  9
$DIMSHO
 70
     1
  9
$DIMPOST
  1

  9
$DIMAPOST
  1

  9
$DIMALT
 70
     0
  9
$DIMALTD
 70
     3
  9
$DIMALTF
 40
0.0393700787
  9
$DIMLFAC
 40
1.0
  9
$DIMTOFL
 70
     1
  9
$DIMTVP
 40
0.0
  9
$DIMTIX
 70
     0
  9
$DIMSOXD
 70
     0
  9
$DIMSAH
 70
     0
  9
$DIMBLK1
  1

  9
$DIMBLK2
  1

  9
$DIMSTYLE
  2
ISO-25
  9
$DIMCLRD
 70
     0
  9
$DIMCLRE
 70
     0
  9
$DIMCLRT
 70
     0
  9
$DIMTFAC
 40
1.0
  9
$DIMGAP
 40
1.524
  9
$DIMJUST
 70
     0
  9
$DIMSD1
 70
     0
  9
$DIMSD2
 70
     0
  9
$DIMTOLJ
 70
     0
  9
$DIMTZIN
 70
     0
  9
$DIMALTZ
 70
     0
  9
$DIMALTTZ
 70
     0
  9
$DIMUPT
 70
     0
  9
$DIMDEC
 70
     2
  9
$DIMTDEC
 70
     3
  9
$DIMALTU
 70
     2
  9
$DIMALTTD
 70
     3
  9
$DIMTXSTY
  7
Standard
  9
$DIMAUNIT
 70
     0
  9
$DIMADEC
 70
     2
  9
$DIMALTRND
 40
0.0
  9
$DIMAZIN
 70
     0
  9
$DIMDSEP
 70
    44
  9
$DIMATFIT
 70
     3
  9
$DIMFRAC
 70
     0
  9
$DIMLDRBLK
  1

  9
$DIMLUNIT
 70
     2
  9
$DIMLWD
 70
    -2
  9
$DIMLWE
 70
    -2
  9
$DIMTMOVE
 70
     0
  9
$LUNITS
 70
     2
  9
$LUPREC
 70
     2
  9
$SKETCHINC
 40
1.0
  9
$FILLETRAD
 40
10.0
  9
$AUNITS
 70
     0
  9
$AUPREC
 70
     2
  9
$MENU
  1
.
  9
$ELEVATION
 40
0.0
  9
$PELEVATION
 40
0.0
  9
$THICKNESS
 40
0.0
  9
$LIMCHECK
 70
     0
  9
$CHAMFERA
 40
10.0
  9
$CHAMFERB
 40
10.0
  9
$CHAMFERC
 40
20.0
  9
$CHAMFERD
 40
0.0
  9
$SKPOLY
 70
     0
  9
$TDCREATE
 40
2455989.304467338
  9
$TDUCREATE
 40
2455989.262800671
  9
$TDUPDATE
 40
2455989.304467349
  9
$TDUUPDATE
 40
2455989.262800683
  9
$TDINDWG
 40
0.0000000116
  9
$TDUSRTIMER
 40
0.0000000116
  9
$USRTIMER
 70
     1
  9
$ANGBASE
 50
0.0
  9
$ANGDIR
 70
     0
  9
$PDMODE
 70
     0
  9
$PDSIZE
 40
-1.0
  9
$PLINEWID
 40
0.0
  9
$SPLFRAME
 70
     0
  9
$SPLINETYPE
 70
     6
  9
$SPLINESEGS
 70
     8
  9
$HANDSEED
  5
11D
  9
$SURFTAB1
 70
     6
  9
$SURFTAB2
 70
     6
  9
$SURFTYPE
 70
     6
  9
$SURFU
 70
     6
  9
$SURFV
 70
     6
  9
$UCSBASE
  2

  9
$UCSNAME
  2

  9
$UCSORG
 10
0.0
 20
0.0
 30
0.0
  9
$UCSXDIR
 10
1.0
 20
0.0
 30
0.0
  9
$UCSYDIR
 10
0.0
 20
1.0
 30
0.0
  9
$UCSORTHOREF
  2

  9
$UCSORTHOVIEW
 70
     0
  9
$UCSORGTOP
 10
0.0
 20
0.0
 30
0.0
  9
$UCSORGBOTTOM
 10
0.0
 20
0.0
 30
0.0
  9
$UCSORGLEFT
 10
0.0
 20
0.0
 30
0.0
  9
$UCSORGRIGHT
 10
0.0
 20
0.0
 30
0.0
  9
$UCSORGFRONT
 10
0.0
 20
0.0
 30
0.0
  9
$UCSORGBACK
 10
0.0
 20
0.0
 30
0.0
  9
$PUCSBASE
  2

  9
$PUCSNAME
  2

  9
$PUCSORG
 10
0.0
 20
0.0
 30
0.0
  9
$PUCSXDIR
 10
1.0
 20
0.0
 30
0.0
  9
$PUCSYDIR
 10
0.0
 20
1.0
 30
0.0
  9
$PUCSORTHOREF
  2

  9
$PUCSORTHOVIEW
 70
     0
  9
$PUCSORGTOP
 10
0.0
 20
0.0
 30
0.0
  9
$PUCSORGBOTTOM
 10
0.0
 20
0.0
 30
0.0
  9
$PUCSORGLEFT
 10
0.0
 20
0.0
 30
0.0
  9
$PUCSORGRIGHT
 10
0.0
 20
0.0
 30
0.0
  9
$PUCSORGFRONT
 10
0.0
 20
0.0
 30
0.0
  9
$PUCSORGBACK
 10
0.0
 20
0.0
 30
0.0
  9
$USERI1
 70
     0
  9
$USERI2
 70
     0
  9
$USERI3
 70
     0
  9
$USERI4
 70
     0
  9
$USERI5
 70
     0
  9
$USERR1
 40
0.0
  9
$USERR2
 40
0.0
  9
$USERR3
 40
0.0
  9
$USERR4
 40
0.0
  9
$USERR5
 40
0.0
  9
$WORLDVIEW
 70
     1
  9
$SHADEDGE
 70
     3
  9
$SHADEDIF
 70
    70
  9
$TILEMODE
 70
     1
  9
$MAXACTVP
 70
    64
  9
$PINSBASE
 10
0.0
 20
0.0
 30
0.0
  9
$PLIMCHECK
 70
     0
  9
$PEXTMIN
 10
1.0000000000E+20
 20
1.0000000000E+20
 30
1.0000000000E+20
  9
$PEXTMAX
 10
-1.0000000000E+20
 20
-1.0000000000E+20
 30
-1.0000000000E+20
  9
$PLIMMIN
 10
0.0
 20
0.0
  9
$PLIMMAX
 10
420.0
 20
297.0
  9
$UNITMODE
 70
     0
  9
$VISRETAIN
 70
     1
  9
$PLINEGEN
 70
     0
  9
$PSLTSCALE
 70
     1
  9
$TREEDEPTH
 70
  3020
  9
$CMLSTYLE
  2
Standard
  9
$CMLJUST
 70
     0
  9
$CMLSCALE
 40
20.0
  9
$PROXYGRAPHICS
 70
     1
  9
$MEASUREMENT
 70
     1
  9
$CELWEIGHT
370
    -1
  9
$ENDCAPS
280
     0
  9
$JOINSTYLE
280
     0
  9
$LWDISPLAY
290
     1
  9
$INSUNITS
 70
     4
  9
$HYPERLINKBASE
  1

  9
$STYLESHEET
  1

  9
$XEDIT
290
     1
  9
$CEPSNTYPE
380
     0
  9
$PSTYLEMODE
290
     1
  9
$FINGERPRINTGUID
  2
{0DF5B843-A93C-4DCF-B61D-C71AF5927D5C}
  9
$VERSIONGUID
  2
{FAEB1C32-E019-11D5-929B-00C0DF256EC4}
  9
$EXTNAMES
290
     1
  9
$PSVPSCALE
 40
0.0
  9
$OLESTARTUP
290
     0
  0
ENDSEC
  0
SECTION
  2
CLASSES
  0
CLASS
  1
ACDBDICTIONARYWDFLT
  2
AcDbDictionaryWithDefault
  3
ObjectDBX Classes
 90
        0
280
     0
281
     0
  0
CLASS
  1
VISUALSTYLE
  2
AcDbVisualStyle
  3
ObjectDBX Classes
 90
     4095
280
     0
281
     0
  0
CLASS
  1
MATERIAL
  2
AcDbMaterial
  3
ObjectDBX Classes
 90
     1153
280
     0
281
     0
  0
CLASS
  1
ACDBPLACEHOLDER
  2
AcDbPlaceHolder
  3
ObjectDBX Classes
 90
        0
280
     0
281
     0
  0
CLASS
  1
LAYOUT
  2
AcDbLayout
  3
ObjectDBX Classes
 90
        0
280
     0
281
     0
  0
ENDSEC
  0
SECTION
  2
TABLES
  0
TABLE
  2
VPORT
  5
8
330
0
100
AcDbSymbolTable
 70
     1
  0
VPORT
  5
29
330
8
100
AcDbSymbolTableRecord
100
AcDbViewportTableRecord
  2
*Active
 70
     0
 10
0.0
 20
0.0
 11
1.0
 21
1.0
 12
148.5
 22
105.0
 13
0.0
 23
0.0
 14
10.0
 24
10.0
 15
10.0
 25
10.0
 16
0.0
 26
0.0
 36
1.0
 17
0.0
 27
0.0
 37
0.0
 40
210.0
 41
1.4142857143
 42
50.0
 43
0.0
 44
0.0
 50
0.0
 51
0.0
 71
     0
 72
  2000
 73
     1
 74
     3
 75
     0
 76
     0
 77
     0
 78
     0
281
     0
 65
     1
110
0.0
120
0.0
130
0.0
111
1.0
121
0.0
131
0.0
112
0.0
122
1.0
132
0.0
 79
     0
146
0.0
  0
ENDTAB
  0
TABLE
  2
LTYPE
  5
5
330
0
100
AcDbSymbolTable
 70
     6
  0
LTYPE
  5
14
330
5
100
AcDbSymbolTableRecord
100
AcDbLinetypeTableRecord
  2
ByBlock
 70
     0
  3

 72
    65
 73
     0
 40
0.0
  0
LTYPE
  5
15
330
5
100
AcDbSymbolTableRecord
100
AcDbLinetypeTableRecord
  2
ByLayer
 70
     0
  3

 72
    65
 73
     0
 40
0.0
  0
LTYPE
  5
16
330
5
100
AcDbSymbolTableRecord
100
AcDbLinetypeTableRecord
  2
Continuous
 70
     0
  3
Solid line
 72
    65
 73
     0
 40
0.0
  0
LTYPE
  5
3F
330
5
100
AcDbSymbolTableRecord
100
AcDbLinetypeTableRecord
  2
HIDDEN
 70
     0
  3
Hidden __ __ __ __ __ __ __ __ __ __ __ __ __ __
 72
    65
 73
     2
 40
1.905
 49
1.27
 74
     0
 49
-0.635
 74
     0
  0
LTYPE
  5
40
330
5
100
AcDbSymbolTableRecord
100
AcDbLinetypeTableRecord
  2
PHANTOM
 70
     0
  3
Phantom ______  __  __  ______  __  __  ______
 72
    65
 73
     6
 40
12.7
 49
6.35
 74
     0
 49
-1.27
 74
     0
 49
1.27
 74
     0
 49
-1.27
 74
     0
 49
1.27
 74
     0
 49
-1.27
 74
     0
  0
LTYPE
  5
41
330
5
100
AcDbSymbolTableRecord
100
AcDbLinetypeTableRecord
  2
CENTER
 70
     0
  3
Center ____ _ ____ _ ____ _ ____ _ ____ _ ____
 72
    65
 73
     4
 40
10.16
 49
6.35
 74
     0
 49
-1.27
 74
     0
 49
1.27
 74
     0
 49
-1.27
 74
     0
  0
LTYPE
  5
42
330
5
100
AcDbSymbolTableRecord
100
AcDbLinetypeTableRecord
  2
CENTERX2
 70
     0
  3
Center (2x) ________  __  ________  __  _____
 72
    65
 73
     4
 40
20.32
 49
12.7
 74
     0
 49
-2.54
 74
     0
 49
2.54
 74
     0
 49
-2.54
 74
     0
  0
LTYPE
  5
43
330
5
100
AcDbSymbolTableRecord
100
AcDbLinetypeTableRecord
  2
DOT2
 70
     0
  3
Dot (.5x) ........................................
 72
    65
 73
     2
 40
0.635
 49
0.0
 74
     0
 49
-0.635
 74
     0
  0
ENDTAB
  0
TABLE
  2
LAYER
  5
2
330
0
100
AcDbSymbolTable
 70
     5
  0
LAYER
  5
10
330
2
100
AcDbSymbolTableRecord
100
AcDbLayerTableRecord
  2
0
 70
     0
 62
     7
  6
Continuous
370
    -3
390
F
  0
LAYER
  5
44
330
2
100
AcDbSymbolTableRecord
100
AcDbLayerTableRecord
  2
FORMAT
 70
     0
 62
     7
  6
Continuous
370
    -3
390
F
  0
LAYER
  5
45
330
2
100
AcDbSymbolTableRecord
100
AcDbLayerTableRecord
  2
VERMASSUNG
 70
     0
 62
     7
  6
Continuous
370
    -3
390
F
  0
LAYER
  5
46
330
2
100
AcDbSymbolTableRecord
100
AcDbLayerTableRecord
  2
KOPF_DÜNN
 70
     0
 62
     7
  6
Continuous
370
    -3
390
F
  0
LAYER
  5
47
330
2
100
AcDbSymbolTableRecord
100
AcDbLayerTableRecord
  2
KOPF_DICK
 70
     0
 62
     7
  6
Continuous
370
    15
390
F
  0
ENDTAB
  0
TABLE
  2
STYLE
  5
3
330
0
100
AcDbSymbolTable
 70
     2
  0
STYLE
  5
11
330
3
100
AcDbSymbolTableRecord
100
AcDbTextStyleTableRecord
  2
Standard
 70
     0
 40
0.0
 41
1.0
 50
0.0
 71
     0
 42
2.5
  3
txt
  4

  0
STYLE
  5
48
330
3
100
AcDbSymbolTableRecord
100
AcDbTextStyleTableRecord
  2
SLDTEXTSTYLE0
 70
     0
 40
0.0
 41
0.7
 50
0.0
 71
     0
 42
0.2
  3
TXT
  4

  0
ENDTAB
  0
TABLE
  2
VIEW
  5
6
330
0
100
AcDbSymbolTable
 70
     0
  0
ENDTAB
  0
TABLE
  2
UCS
  5
7
330
0
100
AcDbSymbolTable
 70
     0
  0
ENDTAB
  0
TABLE
  2
APPID
  5
9
330
0
100
AcDbSymbolTable
 70
     1
  0
APPID
  5
12
330
9
100
AcDbSymbolTableRecord
100
AcDbRegAppTableRecord
  2
ACAD
 70
     0
  0
ENDTAB
  0
TABLE
  2
DIMSTYLE
  5
A
330
0
100
AcDbSymbolTable
 70
     3
100
AcDbDimStyleTable
  0
DIMSTYLE
105
27
330
A
100
AcDbSymbolTableRecord
100
AcDbDimStyleTableRecord
  2
ISO-25
 70
     0
 41
2.5
 42
0.625
 43
3.75
 44
1.25
 73
     0
 74
     0
 77
     1
 78
     8
140
2.5
141
2.5
143
0.0393700787
147
0.625
171
     3
172
     1
178
     0
271
     2
272
     2
274
     3
278
    44
283
     0
284
     8
340
11
  0
DIMSTYLE
105
FC
102
{ACAD_REACTORS
330
FB
102
}
330
A
100
AcDbSymbolTableRecord
100
AcDbDimStyleTableRecord
  2
SLDDIMSTYLE0
 70
     0
 41
3.0
 44
0.0
 45
0.000000001
 73
     0
 74
     0
 77
     1
 78
    12
 79
     3
140
2.0
147
0.5
173
     1
178
     0
271
     2
272
     3
276
     2
284
    12
340
48
  0
DIMSTYLE
105
107
102
{ACAD_REACTORS
330
106
330
111
102
}
330
A
100
AcDbSymbolTableRecord
100
AcDbDimStyleTableRecord
  2
SLDDIMSTYLE1
 70
     0
 41
3.0
 44
0.0
 45
0.000000001
 73
     0
 74
     0
 77
     1
 78
    12
 79
     3
140
2.0
147
0.5
173
     1
178
     0
271
     2
272
     3
276
     2
284
    12
340
48
  0
ENDTAB
  0
TABLE
  2
BLOCK_RECORD
  5
1
330
0
100
AcDbSymbolTable
 70
     4
  0
BLOCK_RECORD
  5
1F
330
1
100
AcDbSymbolTableRecord
100
AcDbBlockTableRecord
  2
*Model_Space
340
22
  0
BLOCK_RECORD
  5
1B
330
1
100
AcDbSymbolTableRecord
100
AcDbBlockTableRecord
  2
*Paper_Space
340
1E
  0
BLOCK_RECORD
  5
23
330
1
100
AcDbSymbolTableRecord
100
AcDbBlockTableRecord
  2
*Paper_Space0
340
26
  0
BLOCK_RECORD
  5
FD
330
1
100
AcDbSymbolTableRecord
100
AcDbBlockTableRecord
  2
*D1
340
0
  0
BLOCK_RECORD
  5
108
330
1
100
AcDbSymbolTableRecord
100
AcDbBlockTableRecord
  2
*D2
340
0
  0
BLOCK_RECORD
  5
112
330
1
100
AcDbSymbolTableRecord
100
AcDbBlockTableRecord
  2
*D3
340
0
  0
ENDTAB
  0
ENDSEC
  0
SECTION
  2
BLOCKS
  0
BLOCK
  5
20
330
1F
100
AcDbEntity
  8
0
100
AcDbBlockBegin
  2
*Model_Space
 70
     0
 10
0.0
 20
0.0
 30
0.0
  3
*Model_Space
  1

  0
ENDBLK
  5
21
330
1F
100
AcDbEntity
  8
0
100
AcDbBlockEnd
  0
BLOCK
  5
1C
330
1B
100
AcDbEntity
 67
     1
  8
0
100
AcDbBlockBegin
  2
*Paper_Space
 70
     0
 10
0.0
 20
0.0
 30
0.0
  3
*Paper_Space
  1

  0
ENDBLK
  5
1D
330
1B
100
AcDbEntity
 67
     1
  8
0
100
AcDbBlockEnd
  0
BLOCK
  5
24
330
23
100
AcDbEntity
  8
0
100
AcDbBlockBegin
  2
*Paper_Space0
 70
     0
 10
0.0
 20
0.0
 30
0.0
  3
*Paper_Space0
  1

  0
ENDBLK
  5
25
330
23
100
AcDbEntity
  8
0
100
AcDbBlockEnd
  0
BLOCK
  5
FE
330
FD
100
AcDbEntity
  8
0
100
AcDbBlockBegin
  2
*D1
 70
     1
 10
0.0
 20
0.0
 30
0.0
  3
*D1
  1

  0
SOLID
  5
100
330
FD
100
AcDbEntity
  8
VERMASSUNG
100
AcDbTrace
 10
200.8304557622
 20
115.7992035837
 30
0.0
 11
200.3804557622
 21
112.7992035837
 31
0.0
 12
201.2804557622
 22
112.7992035837
 32
0.0
 13
201.2804557622
 23
112.7992035837
 33
0.0
  0
LINE
  5
101
330
FD
100
AcDbEntity
  8
VERMASSUNG
100
AcDbLine
 10
193.447881503
 20
115.7992035837
 30
0.0
 11
201.8304557622
 21
115.7992035837
 31
0.0
  0
LINE
  5
102
330
FD
100
AcDbEntity
  8
VERMASSUNG
100
AcDbLine
 10
200.8304557622
 20
115.7992035837
 30
0.0
 11
200.8304557622
 21
94.137285269
 31
0.0
  0
MTEXT
  5
103
330
FD
100
AcDbEntity
  8
VERMASSUNG
100
AcDbMText
 10
198.2523202827
 20
95.724785269
 30
0.0
 40
2.0
 41
0.0
 71
     1
 72
     1
  1
%%c
  7
SLDTEXTSTYLE0
 11
-7.044195017643634E-15
 21
1.0
 31
0.0
 73
     1
 44
1.0
  0
MTEXT
  5
104
330
FD
100
AcDbEntity
  8
VERMASSUNG
100
AcDbMText
 10
198.2523203991
 20
99.3329091372
 30
0.0
 40
2.0
 41
0.0
 71
     1
 72
     1
  1
17.75
  7
SLDTEXTSTYLE0
 11
-7.044195017643634E-15
 21
1.0
 31
0.0
 73
     1
 44
1.0
  0
MTEXT
  5
105
330
FD
100
AcDbEntity
  8
VERMASSUNG
100
AcDbMText
 10
198.2523203991
 20
105.1300233214
 30
0.0
 40
2.0
 41
0.0
 71
     1
 72
     1
  1
-23.1
  7
SLDTEXTSTYLE0
 11
-7.044195017643634E-15
 21
1.0
 31
0.0
 73
     1
 44
1.0
  0
ENDBLK
  5
FF
330
FD
100
AcDbEntity
  8
0
100
AcDbBlockEnd
  0
BLOCK
  5
109
330
108
100
AcDbEntity
  8
0
100
AcDbBlockBegin
  2
*D2
 70
     1
 10
0.0
 20
0.0
 30
0.0
  3
*D2
  1

  0
SOLID
  5
10B
330
108
100
AcDbEntity
  8
VERMASSUNG
100
AcDbTrace
 10
193.447881503
 20
123.4011439442
 30
0.0
 11
190.447881503
 21
123.8511439442
 31
0.0
 12
190.447881503
 22
122.9511439442
 32
0.0
 13
190.447881503
 23
122.9511439442
 33
0.0
  0
SOLID
  5
10C
330
108
100
AcDbEntity
  8
VERMASSUNG
100
AcDbTrace
 10
93.447881503
 20
123.4011439442
 30
0.0
 11
96.447881503
 21
122.9511439442
 31
0.0
 12
96.447881503
 22
123.8511439442
 32
0.0
 13
96.447881503
 23
123.8511439442
 33
0.0
  0
LINE
  5
10D
330
108
100
AcDbEntity
  8
VERMASSUNG
100
AcDbLine
 10
193.447881503
 20
115.7992035837
 30
0.0
 11
193.447881503
 21
124.4011439442
 31
0.0
  0
LINE
  5
10E
330
108
100
AcDbEntity
  8
VERMASSUNG
100
AcDbLine
 10
93.447881503
 20
113.1242035837
 30
0.0
 11
93.447881503
 21
124.4011439442
 31
0.0
  0
LINE
  5
10F
330
108
100
AcDbEntity
  8
VERMASSUNG
100
AcDbLine
 10
193.447881503
 20
123.4011439442
 30
0.0
 11
93.447881503
 21
123.4011439442
 31
0.0
  0
MTEXT
  5
110
330
108
100
AcDbEntity
  8
VERMASSUNG
100
AcDbMText
 10
138.3242000636
 20
125.9792793074
 30
0.0
 40
2.0
 41
0.0
 71
     1
 72
     1
  1
100
  7
SLDTEXTSTYLE0
 73
     1
 44
1.0
  0
ENDBLK
  5
10A
330
108
100
AcDbEntity
  8
0
100
AcDbBlockEnd
  0
BLOCK
  5
113
330
112
100
AcDbEntity
  8
0
100
AcDbBlockBegin
  2
*D3
 70
     1
 10
0.0
 20
0.0
 30
0.0
  3
*D3
  1

  0
SOLID
  5
115
330
112
100
AcDbEntity
  8
VERMASSUNG
100
AcDbTrace
 10
87.1398245243
 20
114.9242035837
 30
0.0
 11
86.6898245243
 21
111.9242035837
 31
0.0
 12
87.5898245243
 22
111.9242035837
 32
0.0
 13
87.5898245243
 23
111.9242035837
 33
0.0
  0
SOLID
  5
116
330
112
100
AcDbEntity
  8
VERMASSUNG
100
AcDbTrace
 10
87.1398245243
 20
98.9242035837
 30
0.0
 11
87.5898245243
 21
101.9242035837
 31
0.0
 12
86.6898245243
 22
101.9242035837
 32
0.0
 13
86.6898245243
 23
101.9242035837
 33
0.0
  0
LINE
  5
117
330
112
100
AcDbEntity
  8
VERMASSUNG
100
AcDbLine
 10
104.747881503
 20
114.9242035837
 30
0.0
 11
86.1398245243
 21
114.9242035837
 31
0.0
  0
LINE
  5
118
330
112
100
AcDbEntity
  8
VERMASSUNG
100
AcDbLine
 10
94.822881503
 20
98.9242035837
 30
0.0
 11
86.1398245243
 21
98.9242035837
 31
0.0
  0
LINE
  5
119
330
112
100
AcDbEntity
  8
VERMASSUNG
100
AcDbLine
 10
87.1398245243
 20
114.9242035837
 30
0.0
 11
87.1398245243
 21
98.9242035837
 31
0.0
  0
MTEXT
  5
11A
330
112
100
AcDbEntity
  8
VERMASSUNG
100
AcDbMText
 10
84.5616890447
 20
103.4058088599
 30
0.0
 40
2.0
 41
0.0
 71
     1
 72
     1
  1
%%c
  7
SLDTEXTSTYLE0
 11
-7.044195017643634E-15
 21
1.0
 31
0.0
 73
     1
 44
1.0
  0
MTEXT
  5
11B
330
112
100
AcDbEntity
  8
VERMASSUNG
100
AcDbMText
 10
84.5616891612
 20
107.0139327281
 30
0.0
 40
2.0
 41
0.0
 71
     1
 72
     1
  1
16
  7
SLDTEXTSTYLE0
 11
-7.044195017643634E-15
 21
1.0
 31
0.0
 73
     1
 44
1.0
  0
ENDBLK
  5
114
330
112
100
AcDbEntity
  8
0
100
AcDbBlockEnd
  0
ENDSEC
  0
SECTION
  2
ENTITIES
  0
MTEXT
  5
49
330
1F
100
AcDbEntity
  8
KOPF_DÜNN
100
AcDbMText
 10
13.8892156294
 20
23.8442973028
 30
0.0
 40
3.0
 41
0.0
 71
     1
 72
     1
  1
272.018.006
  7
SLDTEXTSTYLE0
 73
     1
 44
1.0
  0
MTEXT
  5
4A
330
1F
100
AcDbEntity
  8
VERMASSUNG
100
AcDbMText
 10
13.9329988022
 20
28.8834360957
 30
0.0
 40
3.0
 41
0.0
 71
     1
 72
     1
  1
Ausdrehstahl_Boring bar ø17.75-23.1
  7
SLDTEXTSTYLE0
 73
     1
 44
1.0
  0
MTEXT
  5
4B
330
1F
100
AcDbEntity
  8
VERMASSUNG
100
AcDbMText
 10
98.8601118557
 20
13.8365368179
 30
0.0
 40
2.0
 41
0.0
 71
     1
 72
     1
  1
Datum: 04.08.2006
  7
SLDTEXTSTYLE0
 73
     1
 44
1.0
  0
MTEXT
  5
4C
330
1F
100
AcDbEntity
  8
VERMASSUNG
100
AcDbMText
 10
13.933048693
 20
18.0482802738
 30
0.0
 40
2.0
 41
0.0
 71
     1
 72
     1
  1
mit Innenkühlung_with spindel coolant feed
  7
SLDTEXTSTYLE0
 73
     1
 44
1.0
  0
MTEXT
  5
4D
330
1F
100
AcDbEntity
  8
VERMASSUNG
100
AcDbMText
 10
13.9808475933
 20
13.9090973692
 30
0.0
 40
2.0
 41
0.0
 71
     1
 72
     1
  1
Gewicht: 120g
  7
SLDTEXTSTYLE0
 73
     1
 44
1.0
  0
LINE
  5
4E
330
1F
100
AcDbEntity
  8
0
  6
Continuous
 62
     7
370
    15
100
AcDbLine
 10
190.6894917916
 20
111.3330995531
 30
0.0
 11
190.6894917916
 21
111.2274782599
 31
0.0
  0
LINE
  5
4F
330
1F
100
AcDbEntity
  8
0
  6
Continuous
 62
     7
370
    15
100
AcDbLine
 10
189.5306955408
 20
111.5569964849
 30
0.0
 11
189.5306955408
 21
111.6608487309
 31
0.0
  0
LINE
  5
50
330
1F
100
AcDbEntity
  8
0
  6
Continuous
 62
     7
370
    15
100
AcDbLine
 10
188.5059352349
 20
112.0131061279
 30
0.0
 11
188.5059352349
 21
111.9308447332
 31
0.0
  0
LINE
  5
51
330
1F
100
AcDbEntity
  8
0
  6
Continuous
 62
     7
370
    15
100
AcDbLine
 10
191.9059331845
 20
111.9308447332
 30
0.0
 11
191.9059331845
 21
112.0131061279
 31
0.0
  0
LINE
  5
52
330
1F
100
AcDbEntity
  8
0
  6
Continuous
 62
     7
370
    15
100
AcDbLine
 10
190.8811728786
 20
112.4085447618
 30
0.0
 11
190.8811728786
 21
112.3046925158
 31
0.0
  0
LINE
  5
53
330
1F
100
AcDbEntity
  8
0
  6
Continuous
 62
     7
370
    15
100
AcDbLine
 10
189.7223691772
 20
112.6342107409
 30
0.0
 11
189.7223691772
 21
112.739832034
 31
0.0
  0
LINE
  5
54
330
1F
100
AcDbEntity
  8
0
  6
Continuous
 62
     7
370
    15
100
AcDbLine
 10
94.8228814955
 20
98.9242032037
 30
0.0
 11
130.3617495428
 21
98.9242032037
 31
0.0
  0
LINE
  5
55
330
1F
100
AcDbEntity
  8
0
  6
Continuous
 62
     7
370
    15
100
AcDbLine
 10
107.6478815953
 20
114.9242039637
 30
0.0
 11
104.7478818651
 21
114.9242039637
 31
0.0
  0
LINE
  5
56
330
1F
100
AcDbEntity
  8
0
  6
Continuous
 62
     7
370
    15
100
AcDbLine
 10
130.3617495428
 20
114.9242039637
 30
0.0
 11
119.2478823791
 21
114.9242039637
 31
0.0
  0
LINE
  5
57
330
1F
100
AcDbEntity
  8
0
  6
Continuous
 62
     7
370
    15
100
AcDbLine
 10
93.447881503
 20
100.2992036619
 30
0.0
 11
94.8228814955
 21
98.9242032037
 31
0.0
  0
ARC
  5
58
330
1F
100
AcDbEntity
  8
0
  6
Continuous
 62
     7
370
    15
100
AcDbCircle
 10
137.947881503
 20
69.8992035837
 30
0.0
 40
30.0
100
AcDbArc
 50
90.0
 51
104.6474693084
  0
ARC
  5
59
330
1F
100
AcDbEntity
  8
0
  6
Continuous
 62
     7
370
    15
100
AcDbCircle
 10
137.947881503
 20
143.9492035837
 30
0.0
 40
29.99999999999998
100
AcDbArc
 50
255.3525306916
 51
270.0
  0
LINE
  5
5A
330
1F
100
AcDbEntity
  8
0
  6
Continuous
 62
     7
370
    15
100
AcDbLine
 10
137.9478822778
 20
99.8992034101
 30
0.0
 11
181.8428512047
 21
99.8992034101
 31
0.0
  0
LINE
  5
5B
330
1F
100
AcDbEntity
  8
0
  6
Continuous
 62
     7
370
    15
100
AcDbLine
 10
181.0217897724
 20
113.9492037573
 30
0.0
 11
137.9478822778
 21
113.9492037573
 31
0.0
  0
LINE
  5
5C
330
1F
100
AcDbEntity
  8
0
  6
Continuous
 62
     7
370
    15
100
AcDbLine
 10
181.739064617
 20
113.9492037573
 30
0.0
 11
181.0217897724
 21
113.9492037573
 31
0.0
  0
ARC
  5
5D
330
1F
100
AcDbEntity
  8
0
  6
Continuous
 62
     7
370
    15
100
AcDbCircle
 10
181.8428518731
 20
96.8992035837
 30
0.0
 40
2.999999999999986
100
AcDbArc
 50
88.8279340942
 51
90.0
  0
CIRCLE
  5
5E
330
1F
100
AcDbEntity
  8
0
  6
Continuous
 62
     7
370
    15
100
AcDbCircle
 10
190.2012043422
 20
112.0218043369
 30
0.0
 40
1.695461086622991
  0
CIRCLE
  5
5F
330
1F
100
AcDbEntity
  8
0
  6
Continuous
 62
     7
370
    15
100
AcDbCircle
 10
190.202528494
 20
112.0459440302
 30
0.0
 40
1.096795867359195
  0
CIRCLE
  5
60
330
1F
100
AcDbEntity
  8
0
  6
Continuous
 62
     7
370
    15
100
AcDbCircle
 10
190.2026834132
 20
112.045896836
 30
0.0
 40
1.047137150976219
  0
SPLINE
  5
61
330
1F
100
AcDbEntity
  8
0
  6
Continuous
 62
     7
370
    15
100
AcDbSpline
210
0.0
220
0.0
230
1.0
 70
     8
 71
     3
 72
    16
 73
    12
 74
     0
 42
0.00000001
 43
0.00000001
 40
0.0
 40
0.0
 40
0.0
 40
0.0
 40
0.1242212348559788
 40
0.2490028632153536
 40
0.3727338956661064
 40
0.4952948226946886
 40
0.6171949187144147
 40
0.7391047585905565
 40
0.8616679833173941
 40
0.9853941780225197
 40
1.0
 40
1.0
 40
1.0
 40
1.0
 10
190.0962914656132
 20
112.9179600492894
 30
0.0
 10
190.0816990398573
 20
112.936341273255
 30
0.0
 10
190.0524483582109
 20
112.9731866435503
 30
0.0
 10
189.9886174930448
 20
113.0060543831711
 30
0.0
 10
189.9188890293534
 20
113.0168722880543
 30
0.0
 10
189.8497930799344
 20
113.0035328754807
 30
0.0
 10
189.7894393729754
 20
112.9682450990373
 30
0.0
 10
189.7440790434805
 20
112.9149459727081
 30
0.0
 10
189.7186771795152
 20
112.8494723216845
 30
0.0
 10
189.7166374596884
 20
112.7995284411713
 30
0.0
 10
189.7206020226911
 20
112.7739268129757
 30
0.0
 10
189.7210206221074
 20
112.7712236584007
 30
0.0
  0
SPLINE
  5
62
330
1F
100
AcDbEntity
  8
0
  6
Continuous
 62
     7
370
    15
100
AcDbSpline
210
0.0
220
0.0
230
1.0
 70
     8
 71
     3
 72
    12
 73
     8
 74
     0
 42
0.00000001
 43
0.00000001
 40
0.0
 40
0.0
 40
0.0
 40
0.0
 40
0.2093648455305308
 40
0.4192618999069577
 40
0.6249525545635615
 40
0.8281641907386346
 40
0.9999999999999999
 40
0.9999999999999999
 40
0.9999999999999999
 40
0.9999999999999999
 10
189.7210206221074
 20
112.7712236584007
 30
0.0
 10
189.7206217800686
 20
112.7305961200614
 30
0.0
 10
189.7198230821282
 20
112.6492377675188
 30
0.0
 10
189.668288380936
 20
112.5366854258288
 30
0.0
 10
189.5861725364921
 20
112.449307219715
 30
0.0
 10
189.4862397513733
 20
112.3956011048788
 30
0.0
 10
189.415164814794
 20
112.3871813166879
 30
0.0
 10
189.3826003502339
 20
112.3833236151218
 30
0.0
  0
SPLINE
  5
63
330
1F
100
AcDbEntity
  8
0
  6
Continuous
 62
     7
370
    15
100
AcDbSpline
210
0.0
220
0.0
230
1.0
 70
     8
 71
     3
 72
    16
 73
    12
 74
     0
 42
0.00000001
 43
0.00000001
 40
0.0
 40
0.0
 40
0.0
 40
0.0
 40
0.1231878330907007
 40
0.2479711964508464
 40
0.3717205339208027
 40
0.4942860128223182
 40
0.616188062257091
 40
0.7380913038682546
 40
0.8606468341485475
 40
0.9843614390712514
 40
1.0
 40
1.0
 40
1.0
 40
1.0
 10
189.3826003502339
 20
112.3833236151218
 30
0.0
 10
189.3598297880158
 20
112.3802295002793
 30
0.0
 10
189.3139937389887
 20
112.3740011955822
 30
0.0
 10
189.2542728800713
 20
112.3363111463384
 30
0.0
 10
189.2103239453202
 20
112.2821973663188
 30
0.0
 10
189.1873835282595
 20
112.2162908978318
 30
0.0
 10
189.187617723299
 20
112.1466614679315
 30
0.0
 10
189.210742008414
 20
112.0806603041874
 30
0.0
 10
189.2541950107711
 20
112.0255099506723
 30
0.0
 10
189.2960689739461
 20
111.9981020022041
 30
0.0
 10
189.3201247434629
 20
111.9883761979503
 30
0.0
 10
189.3228243421048
 20
111.9872847438633
 30
0.0
  0
SPLINE
  5
64
330
1F
100
AcDbEntity
  8
0
  6
Continuous
 62
     7
370
    15
100
AcDbSpline
210
0.0
220
0.0
230
1.0
 70
     8
 71
     3
 72
    12
 73
     8
 74
     0
 42
0.00000001
 43
0.00000001
 40
0.0
 40
0.0
 40
0.0
 40
0.0
 40
0.2093573887521556
 40
0.4192607343816121
 40
0.624950322511326
 40
0.8281693407156077
 40
1.0
 40
1.0
 40
1.0
 40
1.0
 10
189.3228243421048
 20
111.9872847438633
 30
0.0
 10
189.3574496853362
 20
111.9662711625195
 30
0.0
 10
189.4267906668893
 20
111.9241892011487
 30
0.0
 10
189.4983045825118
 20
111.8230883345231
 30
0.0
 10
189.5336605870182
 20
111.708911831967
 30
0.0
 10
189.531675442908
 20
111.5968050476326
 30
0.0
 10
189.5046328000586
 20
111.5321589956877
 30
0.0
 10
189.4922430942982
 20
111.502541122663
 30
0.0
  0
SPLINE
  5
65
330
1F
100
AcDbEntity
  8
0
  6
Continuous
 62
     7
370
    15
100
AcDbSpline
210
0.0
220
0.0
230
1.0
 70
     8
 71
     3
 72
    16
 73
    12
 74
     0
 42
0.00000001
 43
0.00000001
 40
0.0
 40
0.0
 40
0.0
 40
0.0
 40
0.1243649791450352
 40
0.2491442383281154
 40
0.3728808264378083
 40
0.4954334936883951
 40
0.6173343421822257
 40
0.7392446644054435
 40
0.8618072694070608
 40
0.9855385454744605
 40
1.0
 40
1.0
 40
1.0
 40
1.0
 10
189.4922430942982
 20
111.502541122663
 30
0.0
 10
189.4838643752136
 20
111.4814213786877
 30
0.0
 10
189.467079026164
 20
111.439111537424
 30
0.0
 10
189.4711678853668
 20
111.3691846738791
 30
0.0
 10
189.4971301506688
 20
111.3047294727707
 30
0.0
 10
189.543496572208
 20
111.2522996187489
 30
0.0
 10
189.6042878096199
 20
111.217767225811
 30
0.0
 10
189.672955367769
 20
111.2045536726691
 30
0.0
 10
189.7419487503755
 20
111.2140646814133
 30
0.0
 10
189.7857586550612
 20
111.2359651238279
 30
0.0
 10
189.8056490128454
 20
111.2514155170595
 30
0.0
 10
189.8077304790944
 20
111.2530323543429
 30
0.0
  0
SPLINE
  5
66
330
1F
100
AcDbEntity
  8
0
  6
Continuous
 62
     7
370
    15
100
AcDbSpline
210
0.0
220
0.0
230
1.0
 70
     8
 71
     3
 72
    12
 73
     8
 74
     0
 42
0.00000001
 43
0.00000001
 40
0.0
 40
0.0
 40
0.0
 40
0.0
 40
0.2092334809401442
 40
0.4191335263198418
 40
0.624823762129463
 40
0.8280471083228904
 40
1.0
 40
1.0
 40
1.0
 40
1.0
 10
189.8077304790944
 20
111.2530323543429
 30
0.0
 10
189.8427340731238
 20
111.2719254207814
 30
0.0
 10
189.9128527736944
 20
111.3097717421435
 30
0.0
 10
190.035864889223
 20
111.3201713644057
 30
0.0
 10
190.1533481153855
 20
111.2936011505109
 30
0.0
 10
190.2513347206897
 20
111.2364959642552
 30
0.0
 10
190.2953867698446
 20
111.1815696626925
 30
0.0
 10
190.3155769537419
 20
111.1563955300331
 30
0.0
  0
SPLINE
  5
67
330
1F
100
AcDbEntity
  8
0
  6
Continuous
 62
     7
370
    15
100
AcDbSpline
210
0.0
220
0.0
230
1.0
 70
     8
 71
     3
 72
    16
 73
    12
 74
     0
 42
0.00000001
 43
0.00000001
 40
0.0
 40
0.0
 40
0.0
 40
0.0
 40
0.1242134886624672
 40
0.2489960448833044
 40
0.3727412168786474
 40
0.4952901418198188
 40
0.617191400995379
 40
0.7391022299237822
 40
0.8616666229484792
 40
0.9853935999091954
 40
1.0
 40
1.0
 40
1.0
 40
1.0
 10
190.3155769537419
 20
111.1563955300331
 30
0.0
 10
190.3301666401856
 20
111.1388667804388
 30
0.0
 10
190.3594128537787
 20
111.103728975618
 30
0.0
 10
190.4232460503704
 20
111.0727310910971
 30
0.0
 10
190.4929745793081
 20
111.0630845070231
 30
0.0
 10
190.5620700695231
 20
111.0767951405407
 30
0.0
 10
190.622421548001
 20
111.1116518066561
 30
0.0
 10
190.6677819513133
 20
111.1637513566783
 30
0.0
 10
190.6931838016801
 20
111.2273273436233
 30
0.0
 10
190.6952233958269
 20
111.2755230082256
 30
0.0
 10
190.6912589465294
 20
111.3001215578388
 30
0.0
 10
190.6908403466672
 20
111.3027188793599
 30
0.0
  0
SPLINE
  5
68
330
1F
100
AcDbEntity
  8
0
  6
Continuous
 62
     7
370
    15
100
AcDbSpline
210
0.0
220
0.0
230
1.0
 70
     8
 71
     3
 72
    12
 73
     8
 74
     0
 42
0.00000001
 43
0.00000001
 40
0.0
 40
0.0
 40
0.0
 40
0.0
 40
0.2093655353495864
 40
0.4192625598231635
 40
0.6249531348190072
 40
0.828176537277768
 40
1.0
 40
1.0
 40
1.0
 40
1.0
 10
190.6908403466672
 20
111.3027188793599
 30
0.0
 10
190.6912391619507
 20
111.3419230708018
 30
0.0
 10
190.6920378049385
 20
111.4204309762805
 30
0.0
 10
190.743572697477
 20
111.5308466447475
 30
0.0
 10
190.8256895619633
 20
111.6186338421454
 30
0.0
 10
190.9256249047366
 20
111.6749146885652
 30
0.0
 10
190.9966988826063
 20
111.6859680103381
 30
0.0
 10
191.0292606185406
 20
111.6910319642007
 30
0.0
  0
SPLINE
  5
69
330
1F
100
AcDbEntity
  8
0
  6
Continuous
 62
     7
370
    15
100
AcDbSpline
210
0.0
220
0.0
230
1.0
 70
     8
 71
     3
 72
    16
 73
    12
 74
     0
 42
0.00000001
 43
0.00000001
 40
0.0
 40
0.0
 40
0.0
 40
0.0
 40
0.1231879709629527
 40
0.2479827511357597
 40
0.3717323677775062
 40
0.4942934915142219
 40
0.6161953076688818
 40
0.7380995049107484
 40
0.8606468635043896
 40
0.9843610896997137
 40
1.0
 40
1.0
 40
1.0
 40
1.0
 10
191.0292606185406
 20
111.6910319642007
 30
0.0
 10
191.0520309701418
 20
111.6949723805964
 30
0.0
 10
191.0978686797025
 20
111.7029046104302
 30
0.0
 10
191.157594166839
 20
111.7424599835775
 30
0.0
 10
191.201546308621
 20
111.7977523635926
 30
0.0
 10
191.2244750520523
 20
111.8640377052043
 30
0.0
 10
191.2242441993129
 20
111.9332424232769
 30
0.0
 10
191.201117831162
 20
111.9980473021839
 30
0.0
 10
191.1576743733878
 20
112.0513110378574
 30
0.0
 10
191.115798816344
 20
112.0769622246611
 30
0.0
 10
191.0917436671547
 20
112.085679497651
 30
0.0
 10
191.0890440772503
 20
112.0866577938974
 30
0.0
  0
SPLINE
  5
6A
330
1F
100
AcDbEntity
  8
0
  6
Continuous
 62
     7
370
    15
100
AcDbSpline
210
0.0
220
0.0
230
1.0
 70
     8
 71
     3
 72
    12
 73
     8
 74
     0
 42
0.00000001
 43
0.00000001
 40
0.0
 40
0.0
 40
0.0
 40
0.0
 40
0.2093672027660981
 40
0.4192621475397134
 40
0.6249522956264397
 40
0.8281699643678927
 40
1.0
 40
1.0
 40
1.0
 40
1.0
 10
191.0890440772503
 20
112.0866577938974
 30
0.0
 10
191.0544153781207
 20
112.1062469377639
 30
0.0
 10
190.9850706929371
 20
112.1454746029256
 30
0.0
 10
190.913564144789
 20
112.2444464772524
 30
0.0
 10
190.8782102718297
 20
112.3590263787101
 30
0.0
 10
190.8801835433294
 20
112.4737136291971
 30
0.0
 10
190.9072275319364
 20
112.540990988368
 30
0.0
 10
190.9196178744763
 20
112.5718144566595
 30
0.0
  0
SPLINE
  5
6B
330
1F
100
AcDbEntity
  8
0
  6
Continuous
 62
     7
370
    15
100
AcDbSpline
210
0.0
220
0.0
230
1.0
 70
     8
 71
     3
 72
    16
 73
    12
 74
     0
 42
0.00000001
 43
0.00000001
 40
0.0
 40
0.0
 40
0.0
 40
0.0
 40
0.1243655726242657
 40
0.2491439249454462
 40
0.3728822586431804
 40
0.495443982660428
 40
0.617344983382961
 40
0.7392557040647264
 40
0.8618187755440495
 40
0.9855388958655836
 40
1.0
 40
1.0
 40
1.0
 40
1.0
 10
190.9196178744763
 20
112.5718144566595
 30
0.0
 10
190.9279958090179
 20
112.593787929613
 30
0.0
 10
190.944779485164
 20
112.6378078073074
 30
0.0
 10
190.9407025907069
 20
112.7096031232548
 30
0.0
 10
190.9147386112509
 20
112.7752316730998
 30
0.0
 10
190.8683644342879
 20
112.8280252885689
 30
0.0
 10
190.8075734016188
 20
112.8621292067941
 30
0.0
 10
190.738905750804
 20
112.8741412112521
 30
0.0
 10
190.6699134114637
 20
112.8627343387695
 30
0.0
 10
190.6261086748188
 20
112.8390819364143
 30
0.0
 10
190.6062194145365
 20
112.8226317479066
 30
0.0
 10
190.6041379402608
 20
112.8209101834178
 30
0.0
  0
SPLINE
  5
6C
330
1F
100
AcDbEntity
  8
0
  6
Continuous
 62
     7
370
    15
100
AcDbSpline
210
0.0
220
0.0
230
1.0
 70
     8
 71
     3
 72
    12
 73
     8
 74
     0
 42
0.00000001
 43
0.00000001
 40
0.0
 40
0.0
 40
0.0
 40
0.0
 40
0.2092450518996345
 40
0.4191449070941781
 40
0.624835022017805
 40
0.8280471636320328
 40
1.0
 40
1.0
 40
1.0
 40
1.0
 10
190.6041379402608
 20
112.8209101834178
 30
0.0
 10
190.5691318061414
 20
112.8005944078235
 30
0.0
 10
190.4990099910737
 20
112.7598992812401
 30
0.0
 10
190.3759964114395
 20
112.7473609431716
 30
0.0
 10
190.2585140751097
 20
112.7743346670035
 30
0.0
 10
190.1605328303106
 20
112.8340230285572
 30
0.0
 10
190.1164817876648
 20
112.891579609076
 30
0.0
 10
190.0962914656132
 20
112.9179600492894
 30
0.0
  0
LINE
  5
6D
330
1F
100
AcDbEntity
  8
0
  6
Continuous
 62
     7
370
    15
100
AcDbLine
 10
190.6908403467
 20
111.2647232466
 30
0.0
 11
190.6908403467
 21
111.3027188794
 31
0.0
  0
ARC
  5
6E
330
1F
100
AcDbEntity
  8
0
  6
Continuous
 62
     7
370
    15
100
AcDbCircle
 10
189.1751121493
 20
111.5570421079
 30
0.0
 40
0.3555833943978666
100
AcDbArc
 50
333.1080329755
 51
359.9926486831
  0
ARC
  5
6F
330
1F
100
AcDbEntity
  8
0
  6
Continuous
 62
     7
370
    15
100
AcDbCircle
 10
191.0185373944
 20
111.7880094816
 30
0.0
 40
0.2050259678930346
100
AcDbArc
 50
15.3044150849
 51
69.8858579429
  0
LINE
  5
70
330
1F
100
AcDbEntity
  8
0
  6
Continuous
 62
     7
370
    15
100
AcDbLine
 10
191.0890440773
 20
111.9805307926
 30
0.0
 11
191.0890440773
 21
112.0866577939
 31
0.0
  0
ARC
  5
71
330
1F
100
AcDbEntity
  8
0
  6
Continuous
 62
     7
370
    15
100
AcDbCircle
 10
190.210831502
 20
111.9374882492
 30
0.0
 40
1.695114701191553
100
AcDbArc
 50
259.8025671493
 51
359.775445046
  0
ARC
  5
72
330
1F
100
AcDbEntity
  8
0
  6
Continuous
 62
     7
370
    15
100
AcDbCircle
 10
190.1964901135
 20
111.9353844418
 30
0.0
 40
1.69056097391176
100
AcDbArc
 50
180.1538580736
 51
260.2683234279
  0
ARC
  5
73
330
1F
100
AcDbEntity
  8
0
  6
Continuous
 62
     7
370
    15
100
AcDbCircle
 10
189.3938135522
 20
112.0717119545
 30
0.0
 40
0.2055844002502927
100
AcDbArc
 50
93.126638615
 51
164.6051415181
  0
ARC
  5
74
330
1F
100
AcDbEntity
  8
0
  6
Continuous
 62
     7
370
    15
100
AcDbCircle
 10
191.2387747712
 20
112.3052771161
 30
0.0
 40
0.3576023704319347
100
AcDbArc
 50
180.0936658841
 51
245.2470043223
  0
ARC
  5
75
330
1F
100
AcDbEntity
  8
0
  6
Continuous
 62
     7
370
    15
100
AcDbCircle
 10
189.3634703663
 20
112.6353808522
 30
0.0
 40
0.3589007183713563
100
AcDbArc
 50
273.0554048825
 51
359.8132002684
  0
ARC
  5
76
330
1F
100
AcDbEntity
  8
0
  6
Continuous
 62
     7
370
    15
100
AcDbCircle
 10
190.7355274247
 20
112.5555415783
 30
0.0
 40
0.2064491058168994
100
AcDbArc
 50
16.6295251478
 51
129.5257947622
  0
LINE
  5
77
330
1F
100
AcDbEntity
  8
0
  6
Continuous
 62
     7
370
    15
100
AcDbLine
 10
190.6041379403
 20
112.7147836477
 30
0.0
 11
190.6041379403
 21
112.8209101834
 31
0.0
  0
ARC
  5
78
330
1F
100
AcDbEntity
  8
0
  6
Continuous
 62
     7
370
    15
100
AcDbCircle
 10
189.9241700694
 20
112.6973771003
 30
0.0
 40
0.2065883824823163
100
AcDbArc
 50
33.5751617847
 51
158.4032509684
  0
ARC
  5
79
330
1F
100
AcDbEntity
  8
0
  6
Continuous
 62
     7
370
    15
100
AcDbCircle
 10
190.3977033626
 20
113.0122363208
 30
0.0
 40
0.3620681255369991
100
AcDbArc
 50
213.6463925618
 51
304.7609629485
  0
LINE
  5
7A
330
1F
100
AcDbEntity
  8
0
  6
Continuous
 62
     7
370
    15
100
AcDbLine
 10
187.5673408936
 20
108.446267327
 30
0.0
 11
193.1173379849
 21
109.4175876451
 31
0.0
  0
LINE
  5
7B
330
1F
100
AcDbEntity
  8
0
  6
Continuous
 62
     7
370
    15
100
AcDbLine
 10
187.4978791307
 20
108.8091096707
 30
0.0
 11
187.5673408936
 21
108.446267327
 31
0.0
  0
LINE
  5
7C
330
1F
100
AcDbEntity
  8
0
  6
Continuous
 62
     7
370
    15
100
AcDbLine
 10
187.5850211214
 20
108.90605453
 30
0.0
 11
187.4978791307
 21
108.8091096707
 31
0.0
  0
SPLINE
  5
7D
330
1F
100
AcDbEntity
  8
0
  6
Continuous
 62
     7
370
    15
100
AcDbSpline
210
0.0
220
0.0
230
1.0
 70
     8
 71
     3
 72
    11
 73
     7
 74
     0
 42
0.00000001
 43
0.00000001
 40
0.0
 40
0.0
 40
0.0
 40
0.0
 40
0.0074586773515893
 40
0.3066099025137721
 40
0.6526496961293546
 40
0.9999999999999999
 40
0.9999999999999999
 40
0.9999999999999999
 40
0.9999999999999999
 10
188.0272801350087
 20
109.4385230780422
 30
0.0
 10
188.026292216415
 20
109.437248792967
 30
0.0
 10
187.9856810451003
 20
109.3848657223126
 30
0.0
 10
187.8935697541387
 20
109.2683701344353
 30
0.0
 10
187.7404316719783
 20
109.0823946828788
 30
0.0
 10
187.6368898697133
 20
108.9649085973597
 30
0.0
 10
187.5850211213559
 20
108.9060545299977
 30
0.0
  0
LINE
  5
7E
330
1F
100
AcDbEntity
  8
0
  6
Continuous
 62
     7
370
    15
100
AcDbLine
 10
187.4978791307
 20
108.8091096707
 30
0.0
 11
187.0978798102
 21
108.8372541225
 31
0.0
  0
LINE
  5
7F
330
1F
100
AcDbEntity
  8
0
  6
Continuous
 62
     7
370
    15
100
AcDbLine
 10
187.0978798102
 20
114.4308647008
 30
0.0
 11
187.0978798102
 21
108.8372541225
 31
0.0
  0
SPLINE
  5
80
330
1F
100
AcDbEntity
  8
0
  6
Continuous
 62
     7
370
    15
100
AcDbSpline
210
0.0
220
0.0
230
1.0
 70
     8
 71
     3
 72
    12
 73
     8
 74
     0
 42
0.00000001
 43
0.00000001
 40
0.0
 40
0.0
 40
0.0
 40
0.0
 40
0.0481859950801592
 40
0.4227653822781883
 40
0.566117575572374
 40
0.9912361841449935
 40
1.0
 40
1.0
 40
1.0
 40
1.0
 10
193.0718670915097
 20
109.762654300484
 30
0.0
 10
193.064287278125
 20
109.768600442858
 30
0.0
 10
192.9977849116624
 20
109.8207696083929
 30
0.0
 10
192.90261651753
 20
109.8987052153536
 30
0.0
 10
192.7487411501289
 20
110.029957650676
 30
0.0
 10
192.657475148031
 20
110.1114478206432
 30
0.0
 10
192.5955505660298
 20
110.168613787523
 30
0.0
 10
192.5942997764081
 20
110.1697684597999
 30
0.0
  0
SPLINE
  5
81
330
1F
100
AcDbEntity
  8
0
  6
Continuous
 62
     7
370
    15
100
AcDbSpline
210
0.0
220
0.0
230
1.0
 70
     8
 71
     3
 72
    10
 73
     6
 74
     0
 42
0.00000001
 43
0.00000001
 40
0.0
 40
0.0
 40
0.0
 40
0.0
 40
0.3658142478809069
 40
0.9379391077668062
 40
1.0
 40
1.0
 40
1.0
 40
1.0
 10
193.0718670915097
 20
109.762654300484
 30
0.0
 10
193.0730362741693
 20
109.7531742954009
 30
0.0
 10
193.0760340309458
 20
109.7288677858518
 30
0.0
 10
193.0705210108075
 20
109.7035648374314
 30
0.0
 10
193.0662840040954
 20
109.6880046042899
 30
0.0
 10
193.0658693741292
 20
109.6864818927675
 30
0.0
  0
ARC
  5
82
330
1F
100
AcDbEntity
  8
0
  6
Continuous
 62
     7
370
    15
100
AcDbCircle
 10
187.4969645986
 20
108.8391022299
 30
0.0
 40
0.3990890675493772
100
AcDbArc
 50
180.2653270641
 51
280.156782732
  0
ARC
  5
83
330
1F
100
AcDbEntity
  8
0
  6
Continuous
 62
     7
370
    15
100
AcDbCircle
 10
188.8955960707
 20
110.4978996604
 30
0.0
 40
0.9977283474055726
100
AcDbArc
 50
180.2656982431
 51
280.1563947747
  0
SPLINE
  5
84
330
1F
100
AcDbEntity
  8
0
  6
Continuous
 62
     7
370
    15
100
AcDbSpline
210
0.0
220
0.0
230
1.0
 70
     8
 71
     3
 72
    10
 73
     6
 74
     0
 42
0.00000001
 43
0.00000001
 40
0.0
 40
0.0
 40
0.0
 40
0.0
 40
0.0621101862770664
 40
0.6341726396523604
 40
1.0
 40
1.0
 40
1.0
 40
1.0
 10
193.151454193446
 20
109.7877171222895
 30
0.0
 10
193.1499064270824
 20
109.7869185888353
 30
0.0
 10
193.1341030437856
 20
109.7787652069367
 30
0.0
 10
193.1082194913788
 20
109.7669428901618
 30
0.0
 10
193.0820676954067
 20
109.7638576929626
 30
0.0
 10
193.0718670915097
 20
109.762654300484
 30
0.0
  0
LINE
  5
85
330
1F
100
AcDbEntity
  8
0
  6
Continuous
 62
     7
370
    15
100
AcDbLine
 10
193.0478836726
 20
115.3740402178
 30
0.0
 11
193.4478829931
 21
115.402184786
 31
0.0
  0
LINE
  5
86
330
1F
100
AcDbEntity
  8
0
  6
Continuous
 62
     7
370
    15
100
AcDbLine
 10
193.4478829931
 20
109.808574557
 30
0.0
 11
193.4478829931
 21
115.402184786
 31
0.0
  0
LINE
  5
87
330
1F
100
AcDbEntity
  8
0
  6
Continuous
 62
     7
370
    15
100
AcDbLine
 10
192.9607416819
 20
115.2648333327
 30
0.0
 11
193.0478836726
 21
115.3740402178
 31
0.0
  0
ARC
  5
88
330
1F
100
AcDbEntity
  8
0
  6
Continuous
 62
     7
370
    15
100
AcDbCircle
 10
191.6531824868
 20
110.9774467296
 30
0.0
 40
0.9947060610833302
100
AcDbArc
 50
279.7440119539
 51
359.8335833373
  0
ARC
  5
89
330
1F
100
AcDbEntity
  8
0
  6
Continuous
 62
     7
370
    15
100
AcDbCircle
 10
193.0499984072
 20
109.809734135
 30
0.0
 40
0.3978862755495564
100
AcDbArc
 50
279.7438245824
 51
359.8330200831
  0
LINE
  5
8A
330
1F
100
AcDbEntity
  8
0
  6
Continuous
 62
     7
370
    15
100
AcDbLine
 10
189.0715311597
 20
109.5158056223
 30
0.0
 11
191.8215330075
 21
109.9970905443
 31
0.0
  0
LINE
  5
8B
330
1F
100
AcDbEntity
  8
0
  6
Continuous
 62
     7
370
    15
100
AcDbLine
 10
191.4742316435
 20
114.7236338683
 30
0.0
 11
188.7242297958
 21
114.2423487135
 31
0.0
  0
ARC
  5
8C
330
1F
100
AcDbEntity
  8
0
  6
Continuous
 62
     7
370
    15
100
AcDbCircle
 10
191.6501665497
 20
113.7415396107
 30
0.0
 40
0.9977285312373803
100
AcDbArc
 50
0.2657107998
 51
100.156382218
  0
LINE
  5
8D
330
1F
100
AcDbEntity
  8
0
  6
Continuous
 62
     7
370
    15
100
AcDbLine
 10
192.6478843521
 20
110.9745575913
 30
0.0
 11
192.6478843521
 21
113.7461665884
 31
0.0
  0
LINE
  5
8E
330
1F
100
AcDbEntity
  8
0
  6
Continuous
 62
     7
370
    15
100
AcDbLine
 10
187.8978784512
 20
113.2648818993
 30
0.0
 11
187.8978784512
 21
110.4932729021
 31
0.0
  0
ARC
  5
8F
330
1F
100
AcDbEntity
  8
0
  6
Continuous
 62
     7
370
    15
100
AcDbCircle
 10
188.8925807298
 20
113.2619921781
 30
0.0
 40
0.9947064760217496
100
AcDbArc
 50
99.7440320013
 51
179.8335498324
  0
CIRCLE
  5
90
330
1F
100
AcDbEntity
  8
0
  6
Continuous
 62
     7
370
    15
100
AcDbCircle
 10
190.262963242
 20
112.1175460723
 30
0.0
 40
1.915085857510919
  0
ARC
  5
91
330
1F
100
AcDbEntity
  8
0
  6
Continuous
 62
     7
370
    15
100
AcDbCircle
 10
190.2728814016
 20
112.0174548985
 30
0.0
 40
1.925282530902806
100
AcDbArc
 50
1.6835659504
 51
178.3164340496
  0
SPLINE
  5
92
330
1F
100
AcDbEntity
  8
0
  6
Continuous
 62
     7
370
    15
100
AcDbSpline
210
0.0
220
0.0
230
1.0
 70
     8
 71
     3
 72
    12
 73
     8
 74
     0
 42
0.00000001
 43
0.00000001
 40
0.0
 40
0.0
 40
0.0
 40
0.0
 40
0.0087637669579802
 40
0.4338822969828992
 40
0.5772344720945161
 40
0.9518137587130631
 40
1.0
 40
1.0
 40
1.0
 40
1.0
 10
187.9514630268544
 20
114.036535737741
 30
0.0
 10
187.9502122371422
 20
114.0374620376085
 30
0.0
 10
187.8882873233474
 20
114.0833218962919
 30
0.0
 10
187.7970216669515
 20
114.1539889861677
 30
0.0
 10
187.6431463214363
 20
114.2790226575316
 30
0.0
 10
187.5479775459565
 20
114.359595123542
 30
0.0
 10
187.481475522195
 20
114.4182207678883
 30
0.0
 10
187.4738957117528
 20
114.4249028392911
 30
0.0
  0
SPLINE
  5
93
330
1F
100
AcDbEntity
  8
0
  6
Continuous
 62
     7
370
    15
100
AcDbSpline
210
0.0
220
0.0
230
1.0
 70
     8
 71
     3
 72
    10
 73
     6
 74
     0
 42
0.00000001
 43
0.00000001
 40
0.0
 40
0.0
 40
0.0
 40
0.0
 40
0.0620491119821667
 40
0.6341486623232793
 40
1.0
 40
1.0
 40
1.0
 40
1.0
 10
187.394316060397
 20
114.410007731694
 30
0.0
 10
187.395861298332
 20
114.4105894668599
 30
0.0
 10
187.4116537978242
 20
114.4165348634256
 30
0.0
 10
187.4375451787453
 20
114.4248517944382
 30
0.0
 10
187.4636956285929
 20
114.4248885159318
 30
0.0
 10
187.4738957117528
 20
114.4249028392911
 30
0.0
  0
SPLINE
  5
94
330
1F
100
AcDbEntity
  8
0
  6
Continuous
 62
     7
370
    15
100
AcDbSpline
210
0.0
220
0.0
230
1.0
 70
     8
 71
     3
 72
    11
 73
     7
 74
     0
 42
0.00000001
 43
0.00000001
 40
0.0
 40
0.0
 40
0.0
 40
0.0
 40
0.3473505635455925
 40
0.6933902714865762
 40
0.9925410886585676
 40
0.9999999999999999
 40
0.9999999999999999
 40
0.9999999999999999
 40
0.9999999999999999
 10
192.9607416819066
 20
115.2648333326757
 30
0.0
 10
192.9088728833977
 20
115.2009752948937
 30
0.0
 10
192.8053310324427
 20
115.0735002112138
 30
0.0
 10
192.6521938182215
 20
114.8972817065567
 30
0.0
 10
192.5600804406899
 20
114.795645824409
 30
0.0
 10
192.5194705863622
 20
114.7521006212099
 30
0.0
 10
192.5184826682538
 20
114.7510412947118
 30
0.0
  0
SPLINE
  5
95
330
1F
100
AcDbEntity
  8
0
  6
Continuous
 62
     7
370
    15
100
AcDbSpline
210
0.0
220
0.0
230
1.0
 70
     8
 71
     3
 72
    10
 73
     6
 74
     0
 42
0.00000001
 43
0.00000001
 40
0.0
 40
0.0
 40
0.0
 40
0.0
 40
0.3658147031189279
 40
0.9379389423996197
 40
1.0
 40
1.0
 40
1.0
 40
1.0
 10
187.4738957117528
 20
114.4249028392911
 30
0.0
 10
187.4727265270577
 20
114.4355725426488
 30
0.0
 10
187.4697287693213
 20
114.4629293716603
 30
0.0
 10
187.475241807461
 20
114.4917273926414
 30
0.0
 10
187.4794787992272
 20
114.509503409091
 30
0.0
 10
187.4798934291333
 20
114.5112429612159
 30
0.0
  0
LINE
  5
96
330
1F
100
AcDbEntity
  8
0
  6
Continuous
 62
     7
370
    15
100
AcDbLine
 10
192.9784219097
 20
115.7931716979
 30
0.0
 11
187.4284248184
 21
114.8218516127
 31
0.0
  0
LINE
  5
97
330
1F
100
AcDbEntity
  8
0
  6
Continuous
 62
     7
370
    15
100
AcDbLine
 10
193.0478836726
 20
115.3740402178
 30
0.0
 11
192.9784219097
 21
115.7931716979
 31
0.0
  0
ARC
  5
98
330
1F
100
AcDbEntity
  8
0
  6
Continuous
 62
     7
370
    15
100
AcDbCircle
 10
187.4957642169
 20
114.4297052743
 30
0.0
 40
0.3978860959352805
100
AcDbArc
 50
99.7438028452
 51
179.8330418203
  0
ARC
  5
99
330
1F
100
AcDbEntity
  8
0
  6
Continuous
 62
     7
370
    15
100
AcDbCircle
 10
193.0487989477
 20
115.4003376877
 30
0.0
 40
0.3990883198722169
100
AcDbArc
 50
0.2651826854
 51
100.1569103325
  0
LINE
  5
9A
330
1F
100
AcDbEntity
  8
0
  6
Continuous
 62
     7
370
    15
100
AcDbLine
 10
130.3617495428
 20
98.9242032037
 30
0.0
 11
130.3617495428
 21
114.9242039637
 31
0.0
  0
LINE
  5
9B
330
1F
100
AcDbEntity
  8
0
  6
Continuous
 62
     7
370
    15
100
AcDbLine
 10
94.8228814955
 20
98.9242032037
 30
0.0
 11
94.8228814955
 21
113.1242037617
 31
0.0
  0
LINE
  5
9C
330
1F
100
AcDbEntity
  8
0
  6
Continuous
 62
     7
370
    15
100
AcDbLine
 10
102.9478811975
 20
113.1242037617
 30
0.0
 11
94.8228814955
 21
113.1242037617
 31
0.0
  0
LWPOLYLINE
  5
9D
330
1F
100
AcDbEntity
  8
0
  6
Continuous
 62
     7
370
    15
100
AcDbPolyline
 90
        8
 70
   128
 43
0.0
 10
104.7478818651
 20
114.9242039637
 10
104.709710678
 20
114.8860327766
 10
104.5955621953
 20
114.7718833626
 10
104.4065242018
 20
114.582846766
 10
104.1444025318
 20
114.3207246304
 10
103.8116977866
 20
113.9880198852
 10
103.4115848447
 20
113.5879069433
 10
102.9478811975
 20
113.1242037617
  0
LWPOLYLINE
  5
9E
330
1F
100
AcDbEntity
  8
0
  6
Continuous
 62
     7
370
    15
100
AcDbPolyline
 90
        8
 70
   128
 43
0.0
 10
109.4478822629
 20
113.1242037617
 10
108.9841786157
 20
113.5879069433
 10
108.5840647425
 20
113.9880198852
 10
108.2513599972
 20
114.3207246304
 10
107.9892383273
 20
114.582846766
 10
107.8002012651
 20
114.7718833626
 10
107.6860527824
 20
114.8860327766
 10
107.6478815953
 20
114.9242039637
  0
LINE
  5
9F
330
1F
100
AcDbEntity
  8
0
  6
Continuous
 62
     7
370
    15
100
AcDbLine
 10
117.4478817116
 20
113.1242037617
 30
0.0
 11
109.4478822629
 21
113.1242037617
 31
0.0
  0
LWPOLYLINE
  5
A0
330
1F
100
AcDbEntity
  8
0
  6
Continuous
 62
     7
370
    15
100
AcDbPolyline
 90
        8
 70
   128
 43
0.0
 10
119.2478823791
 20
114.9242039637
 10
119.2097111921
 20
114.8860327766
 10
119.0955608468
 20
114.7718833626
 10
118.9065247159
 20
114.582846766
 10
118.6444021146
 20
114.3207246304
 10
118.3116983007
 20
113.9880198852
 10
117.9115853588
 20
113.5879069433
 10
117.4478817116
 20
113.1242037617
  0
LINE
  5
A1
330
1F
100
AcDbEntity
  8
0
  6
Continuous
 62
     7
370
    15
100
AcDbLine
 10
93.447881503
 20
100.2992036619
 30
0.0
 11
93.447881503
 21
113.1242037617
 31
0.0
  0
SPLINE
  5
A2
330
1F
100
AcDbEntity
  8
0
  6
Continuous
 62
     7
370
    15
100
AcDbSpline
210
0.0
220
0.0
230
1.0
 70
    24
 71
     3
 72
    10
 73
     6
 74
     0
 42
0.00000001
 43
0.00000001
 40
0.0
 40
0.0
 40
0.0
 40
0.0
 40
0.4999999999999998
 40
0.4999999999999998
 40
1.0
 40
1.0
 40
1.0
 40
1.0
 10
94.82288150295913
 20
113.1242035836756
 30
0.0
 10
94.55064131564193
 20
113.1242035836756
 30
0.0
 10
94.29227720745392
 20
113.1242035836756
 30
0.0
 10
93.82621118963854
 20
113.1242035836756
 30
0.0
 10
93.61762068651086
 20
113.1242035836756
 30
0.0
 10
93.44788150295912
 20
113.1242035836756
 30
0.0
  0
SPLINE
  5
A3
330
1F
100
AcDbEntity
  8
0
  6
Continuous
 62
     7
370
    15
100
AcDbSpline
210
0.0
220
0.0
230
1.0
 70
     8
 71
     3
 72
    46
 73
    42
 74
     0
 42
0.00000001
 43
0.00000001
 40
0.0
 40
0.0
 40
0.0
 40
0.0
 40
0.1250000000000004
 40
0.1250000000000004
 40
0.1874999999999999
 40
0.1874999999999999
 40
0.2499999999999995
 40
0.2499999999999995
 40
0.312499999999999
 40
0.312499999999999
 40
0.3749999999999986
 40
0.3749999999999986
 40
0.4374999999999982
 40
0.4374999999999982
 40
0.4999999999999977
 40
0.4999999999999977
 40
0.5312499999999976
 40
0.5312499999999976
 40
0.5624999999999973
 40
0.5624999999999973
 40
0.593749999999997
 40
0.593749999999997
 40
0.6093749999999971
 40
0.6093749999999971
 40
0.6249999999999971
 40
0.6249999999999971
 40
0.6406249999999972
 40
0.6406249999999972
 40
0.6562499999999972
 40
0.6562499999999972
 40
0.6874999999999976
 40
0.6874999999999976
 40
0.749999999999998
 40
0.749999999999998
 40
0.8124999999999986
 40
0.8124999999999986
 40
0.8749999999999991
 40
0.8749999999999991
 40
0.9374999999999996
 40
0.9374999999999996
 40
1.0
 40
1.0
 40
1.0
 40
1.0
 10
181.842851873146
 20
102.5056243767168
 30
0.0
 10
180.9234660722891
 20
102.9987296701125
 30
0.0
 10
180.0456278852627
 20
103.5707847809736
 30
0.0
 10
178.7588032074769
 20
104.5259145263826
 30
0.0
 10
178.3348769386575
 20
104.860409967815
 30
0.0
 10
177.4925027479153
 20
105.558795926726
 30
0.0
 10
177.0715655405071
 20
105.9249436878388
 30
0.0
 10
176.2471896409984
 20
106.6714088071644
 30
0.0
 10
175.8433632046471
 20
107.0517387992668
 30
0.0
 10
175.0517716720973
 20
107.8255674991294
 30
0.0
 10
174.6639000863752
 20
108.218969296644
 30
0.0
 10
173.9083136995095
 20
109.0224586529995
 30
0.0
 10
173.5467212300051
 20
109.4256930991834
 30
0.0
 10
172.8761877629371
 20
110.2368247535162
 30
0.0
 10
172.5637107254559
 20
110.6484572975419
 30
0.0
 10
172.1889252880743
 20
111.2537457440269
 30
0.0
 10
172.0783235062378
 20
111.4563095860843
 30
0.0
 10
171.9070578522425
 20
111.8513879168772
 30
0.0
 10
171.8465212160052
 20
112.0424967208828
 30
0.0
 10
171.7960456935585
 20
112.4115984863347
 30
0.0
 10
171.8077845552815
 20
112.5823073509754
 30
0.0
 10
171.8898568773696
 20
112.8150390705086
 30
0.0
 10
171.9280434037417
 20
112.8883847347149
 30
0.0
 10
172.0230862438036
 20
113.0232526666783
 30
0.0
 10
172.0801506715941
 20
113.0854688204657
 30
0.0
 10
172.2122471835049
 20
113.2007675862869
 30
0.0
 10
172.2876013480059
 20
113.253890648834
 30
0.0
 10
172.4501045410376
 20
113.3495218280547
 30
0.0
 10
172.5377207088468
 20
113.3925103227215
 30
0.0
 10
172.8169453456699
 20
113.5098808487091
 30
0.0
 10
173.0268056680039
 20
113.5731735798689
 30
0.0
 10
173.6879385686686
 20
113.7281606082883
 30
0.0
 10
174.1711639303703
 20
113.7885534324373
 30
0.0
 10
175.188507087541
 20
113.8746409903062
 30
0.0
 10
175.7104632515029
 20
113.898235201758
 30
0.0
 10
176.7714402332449
 20
113.9298532013175
 30
0.0
 10
177.3108705760188
 20
113.9374356937146
 30
0.0
 10
178.4044577508779
 20
113.9464980923382
 30
0.0
 10
178.9593783845418
 20
113.9478563711477
 30
0.0
 10
180.0691802318642
 20
113.9491966874071
 30
0.0
 10
180.6257872284116
 20
113.949156737217
 30
0.0
 10
181.1840269402618
 20
113.949156737217
 30
0.0
  0
LINE
  5
A4
330
1F
100
AcDbEntity
  8
0
  6
Continuous
 62
     7
370
    15
100
AcDbLine
 10
181.1840261649
 20
113.9491567255
 30
0.0
 11
181.7398245762
 21
113.9491567255
 31
0.0
  0
SPLINE
  5
A5
330
1F
100
AcDbEntity
  8
0
  6
Continuous
 62
     7
370
    15
100
AcDbSpline
210
0.0
220
0.0
230
1.0
 70
     8
 71
     3
 72
     8
 73
     4
 74
     0
 42
0.00000001
 43
0.00000001
 40
0.0
 40
0.0
 40
0.0
 40
0.0
 40
1.0
 40
1.0
 40
1.0
 40
1.0
 10
182.3637964061468
 20
102.2067283344662
 30
0.0
 10
182.190222863382
 20
102.313324664835
 30
0.0
 10
182.0163756332024
 20
102.4125562821977
 30
0.0
 10
181.842851873146
 20
102.5056243767168
 30
0.0
  0
SPLINE
  5
A6
330
1F
100
AcDbEntity
  8
0
  6
Continuous
 62
     7
370
    15
100
AcDbSpline
210
0.0
220
0.0
230
1.0
 70
     8
 71
     3
 72
    44
 73
    40
 74
     0
 42
0.00000001
 43
0.00000001
 40
0.0
 40
0.0
 40
0.0
 40
0.0
 40
0.0625
 40
0.0625
 40
0.125
 40
0.125
 40
0.1875
 40
0.1875
 40
0.25
 40
0.25
 40
0.3125
 40
0.3125
 40
0.375
 40
0.375
 40
0.40625
 40
0.40625
 40
0.4375
 40
0.4375
 40
0.46875
 40
0.46875
 40
0.5
 40
0.5
 40
0.53125
 40
0.53125
 40
0.5625
 40
0.5625
 40
0.625
 40
0.625
 40
0.6875
 40
0.6875
 40
0.75
 40
0.75
 40
0.8125
 40
0.8125
 40
0.875
 40
0.875
 40
0.9375
 40
0.9375
 40
1.0
 40
1.0
 40
1.0
 40
1.0
 10
183.9488500848336
 20
111.1843335926453
 30
0.0
 10
183.6910297384985
 20
111.1563310253704
 30
0.0
 10
183.4374972541659
 20
111.1149813945355
 30
0.0
 10
182.9367214124806
 20
111.0153308785039
 30
0.0
 10
182.6895656338259
 20
110.9566745669748
 30
0.0
 10
182.20193923769
 20
110.8218785301614
 30
0.0
 10
181.9614629297955
 20
110.7457418126584
 30
0.0
 10
181.4889216548092
 20
110.5709273832494
 30
0.0
 10
181.2578254028836
 20
110.4725364292295
 30
0.0
 10
180.820440812007
 20
110.2481786346582
 30
0.0
 10
180.6121105357198
 20
110.1212575222001
 30
0.0
 10
180.2443341892345
 20
109.8297504287365
 30
0.0
 10
180.0801021443249
 20
109.6615073114622
 30
0.0
 10
179.9092873015289
 20
109.3693954445632
 30
0.0
 10
179.864752313214
 20
109.2640281345725
 30
0.0
 10
179.8133294157273
 20
109.0447862433714
 30
0.0
 10
179.8061206478724
 20
108.927740485291
 30
0.0
 10
179.8370855839025
 20
108.6950025369293
 30
0.0
 10
179.8758690333065
 20
108.5765936000926
 30
0.0
 10
179.9931891822973
 20
108.3567002968401
 30
0.0
 10
180.0728206819719
 20
108.2525838862596
 30
0.0
 10
180.2567626748179
 20
108.0703478419575
 30
0.0
 10
180.3622737178848
 20
107.9905265945532
 30
0.0
 10
180.5848042325948
 20
107.8577972814608
 30
0.0
 10
180.7033605788018
 20
107.8038919646074
 30
0.0
 10
181.0615337248734
 20
107.6796775116111
 30
0.0
 10
181.3118435261847
 20
107.6435813867833
 30
0.0
 10
181.7970238720484
 20
107.6444667977837
 30
0.0
 10
182.0390006207497
 20
107.6813034622563
 30
0.0
 10
182.5008159196414
 20
107.80744853601
 30
0.0
 10
182.7229396594989
 20
107.8964654455919
 30
0.0
 10
183.1555799276361
 20
108.1167934223724
 30
0.0
 10
183.3631779074357
 20
108.2469722418382
 30
0.0
 10
183.7582914699385
 20
108.5349394914741
 30
0.0
 10
183.947179423634
 20
108.6934859567922
 30
0.0
 10
184.3101139944399
 20
109.0370276495467
 30
0.0
 10
184.4846752083821
 20
109.2226658225306
 30
0.0
 10
184.809134219832
 20
109.6131117860319
 30
0.0
 10
184.9610619667241
 20
109.8181129916735
 30
0.0
 10
185.0931613523138
 20
110.0400223251652
 30
0.0
  0
ELLIPSE
  5
A7
330
1F
100
AcDbEntity
  8
0
  6
Continuous
 62
     7
370
    15
100
AcDbEllipse
 10
191.2890982814
 20
105.0627788301
 30
0.0
 11
9.001040478562231
 21
5.140965028759851
 31
0.0
210
0.0
220
0.0
230
1.0
 40
0.0157159897
 41
1.661367650193631
 42
2.43263071478558
  0
SPLINE
  5
A8
330
1F
100
AcDbEntity
  8
0
  6
Continuous
 62
     7
370
    15
100
AcDbSpline
210
0.0
220
0.0
230
1.0
 70
     8
 71
     3
 72
     8
 73
     4
 74
     0
 42
0.00000001
 43
0.00000001
 40
0.0
 40
0.0
 40
0.0
 40
0.0
 40
1.0
 40
1.0
 40
1.0
 40
1.0
 10
183.0977921821569
 20
101.7728549832354
 30
0.0
 10
183.5274372994699
 20
101.5809778915767
 30
0.0
 10
183.9624309774341
 20
101.4079408743162
 30
0.0
 10
184.404364015615
 20
101.2526876114297
 30
0.0
  0
SPLINE
  5
A9
330
1F
100
AcDbEntity
  8
0
  6
Continuous
 62
     7
370
    15
100
AcDbSpline
210
0.0
220
0.0
230
1.0
 70
     8
 71
     3
 72
     8
 73
     4
 74
     0
 42
0.00000001
 43
0.00000001
 40
0.0
 40
0.0
 40
0.0
 40
0.0
 40
1.0
 40
1.0
 40
1.0
 40
1.0
 10
183.0977921821569
 20
101.7728549832354
 30
0.0
 10
182.8513263353609
 20
101.9129411836207
 30
0.0
 10
182.6067300488767
 20
102.0575360415299
 30
0.0
 10
182.3637964061468
 20
102.2067283344661
 30
0.0
  0
SPLINE
  5
AA
330
1F
100
AcDbEntity
  8
0
  6
Continuous
 62
     7
370
    15
100
AcDbSpline
210
0.0
220
0.0
230
1.0
 70
     8
 71
     3
 72
    10
 73
     6
 74
     0
 42
0.00000001
 43
0.00000001
 40
0.0
 40
0.0
 40
0.0
 40
0.0
 40
0.1654766730492465
 40
0.5191232061284126
 40
1.0
 40
1.0
 40
1.0
 40
1.0
 10
181.9061587880581
 20
99.90719369210598
 30
0.0
 10
181.906911956376
 20
99.90551338498116
 30
0.0
 10
181.9092747495403
 20
99.90024202917104
 30
0.0
 10
182.0564507593938
 20
99.97187377541336
 30
0.0
 10
182.2514382782491
 20
100.0735585722384
 30
0.0
 10
182.363795800063
 20
100.1321523316979
 30
0.0
  0
LINE
  5
AB
330
1F
100
AcDbEntity
  8
0
  6
Continuous
 62
     7
370
    15
100
AcDbLine
 10
183.0977897476
 20
100.5268109829
 30
0.0
 11
183.0977897476
 21
101.7728549295
 31
0.0
  0
ELLIPSE
  5
AC
330
1F
100
AcDbEntity
  8
0
  6
Continuous
 62
     7
370
    15
100
AcDbEllipse
 10
199.6384278405
 20
110.0442299921
 30
0.0
 11
17.69746338920731
 21
10.11548649767361
 31
0.0
210
0.0
220
0.0
230
1.0
 40
0.0076507844
 41
3.356296786203607
 42
3.500815097620303
  0
ELLIPSE
  5
AD
330
1F
100
AcDbEntity
  8
0
  6
Continuous
 62
     7
370
    15
100
AcDbEllipse
 10
194.1793882385
 20
106.9242035837
 30
0.0
 11
12.59534900518869
 21
7.19928729089497
 31
0.0
210
0.0
220
0.0
230
1.0
 40
0.0080429699
 41
3.632335316270951
 42
3.819375692155019
  0
ELLIPSE
  5
AE
330
1F
100
AcDbEntity
  8
0
  6
Continuous
 62
     7
370
    15
100
AcDbEllipse
 10
180.8218513192
 20
108.5095616583
 30
0.0
 11
4.415852159129855
 21
2.35439606843218
 31
0.0
210
0.0
220
0.0
230
1.0
 40
0.2980050585
 41
5.82543938002145
 42
6.921913255304887
  0
SPLINE
  5
AF
330
1F
100
AcDbEntity
  8
0
  6
Continuous
 62
     7
370
    15
100
AcDbSpline
210
0.0
220
0.0
230
1.0
 70
     8
 71
     3
 72
    12
 73
     8
 74
     0
 42
0.00000001
 43
0.00000001
 40
0.0
 40
0.0
 40
0.0
 40
0.0
 40
0.5000000000000002
 40
0.5000000000000002
 40
0.7500000000000001
 40
0.7500000000000001
 40
1.0
 40
1.0
 40
1.0
 40
1.0
 10
183.1596636137286
 20
113.6709226879993
 30
0.0
 10
182.9143931473909
 20
113.6279972497619
 30
0.0
 10
182.666518693461
 20
113.6306925033809
 30
0.0
 10
182.3018157590768
 20
113.7021367565265
 30
0.0
 10
182.1839939326493
 20
113.7367511184275
 30
0.0
 10
181.9556688959955
 20
113.8270802264984
 30
0.0
 10
181.8440813612965
 20
113.8835697449969
 30
0.0
 10
181.7398271036619
 20
113.9491567372169
 30
0.0
  0
LINE
  5
B0
330
1F
100
AcDbEntity
  8
0
  6
Continuous
 62
     7
370
    15
100
AcDbLine
 10
187.0978798102
 20
114.3601605535
 30
0.0
 11
183.1596668194
 21
113.6709227093
 31
0.0
  0
ARC
  5
B1
330
1F
100
AcDbEntity
  8
0
  6
Continuous
 62
     7
370
    15
100
AcDbCircle
 10
187.6081847075
 20
108.9394527279
 30
0.0
 40
0.9966916151889904
100
AcDbArc
 50
120.7970598452
 51
341.2429446984
  0
LINE
  5
B2
330
1F
100
AcDbEntity
  8
0
  6
Continuous
 62
     7
370
    15
100
AcDbLine
 10
193.2233224939
 20
109.4365121198
 30
0.0
 11
193.1342880558
 21
109.4209292305
 31
0.0
  0
LINE
  5
B3
330
1F
100
AcDbEntity
  8
0
  6
Continuous
 62
     7
370
    15
100
AcDbLine
 10
193.2233224939
 20
107.4972642918
 30
0.0
 11
193.2233224939
 21
109.4365121198
 31
0.0
  0
ELLIPSE
  5
B4
330
1F
100
AcDbEntity
  8
0
  6
Continuous
 62
     7
370
    15
100
AcDbEllipse
 10
191.2083049399
 20
107.5144140724
 30
0.0
 11
1.926027131246656
 21
-0.6012583205015289
 31
0.0
210
0.0
220
0.0
230
0.9999999999999999
 40
0.9849664716
 41
5.542891170773156
 42
6.581492398852395
  0
LINE
  5
B5
330
1F
100
AcDbEntity
  8
0
  6
Continuous
 62
     7
370
    15
100
AcDbLine
 10
190.3945084046
 20
104.7386716918
 30
0.0
 11
192.2307784985
 21
105.7909381443
 31
0.0
  0
ARC
  5
B6
330
1F
100
AcDbEntity
  8
0
  6
Continuous
 62
     7
370
    15
100
AcDbCircle
 10
187.5979587922
 20
108.6704665453
 30
0.0
 40
0.992249265059278
100
AcDbArc
 50
120.2640133417
 51
172.1123681301
  0
LINE
  5
B7
330
1F
100
AcDbEntity
  8
0
  6
Continuous
 62
     7
370
    15
100
AcDbLine
 10
193.1508730482
 20
109.4249409024
 30
0.0
 11
193.2233224939
 21
109.4365121198
 31
0.0
  0
LINE
  5
B8
330
1F
100
AcDbEntity
  8
0
  6
HIDDEN
 62
     7
370
     0
100
AcDbLine
 10
130.3617495428
 20
114.9242039637
 30
0.0
 11
130.3617495428
 21
98.9242032037
 31
0.0
  0
LINE
  5
B9
330
1F
100
AcDbEntity
  8
0
  6
HIDDEN
 62
     7
370
     0
100
AcDbLine
 10
94.8228814955
 20
113.1242037617
 30
0.0
 11
102.9478811975
 21
113.1242037617
 31
0.0
  0
LINE
  5
BA
330
1F
100
AcDbEntity
  8
0
  6
HIDDEN
 62
     7
370
     0
100
AcDbLine
 10
94.8228814955
 20
113.1242037617
 30
0.0
 11
94.8228814955
 21
98.9242032037
 31
0.0
  0
LWPOLYLINE
  5
BB
330
1F
100
AcDbEntity
  8
0
  6
HIDDEN
 62
     7
370
     0
100
AcDbPolyline
 90
        8
 70
   128
 43
0.0
 10
102.9478811975
 20
113.1242037617
 10
103.4115848447
 20
113.5879069433
 10
103.8116977866
 20
113.9880198852
 10
104.1444025318
 20
114.3207246304
 10
104.4065242018
 20
114.582846766
 10
104.5955621953
 20
114.7718833626
 10
104.709710678
 20
114.8860327766
 10
104.7478818651
 20
114.9242039637
  0
LWPOLYLINE
  5
BC
330
1F
100
AcDbEntity
  8
0
  6
HIDDEN
 62
     7
370
     0
100
AcDbPolyline
 90
        8
 70
   128
 43
0.0
 10
107.6478815953
 20
114.9242039637
 10
107.6860527824
 20
114.8860327766
 10
107.8002012651
 20
114.7718833626
 10
107.9892383273
 20
114.582846766
 10
108.2513599972
 20
114.3207246304
 10
108.5840647425
 20
113.9880198852
 10
108.9841786157
 20
113.5879069433
 10
109.4478822629
 20
113.1242037617
  0
LWPOLYLINE
  5
BD
330
1F
100
AcDbEntity
  8
0
  6
HIDDEN
 62
     7
370
     0
100
AcDbPolyline
 90
        8
 70
   128
 43
0.0
 10
117.4478817116
 20
113.1242037617
 10
117.9115853588
 20
113.5879069433
 10
118.3116983007
 20
113.9880198852
 10
118.6444021146
 20
114.3207246304
 10
118.9065247159
 20
114.582846766
 10
119.0955608468
 20
114.7718833626
 10
119.2097111921
 20
114.8860327766
 10
119.2478823791
 20
114.9242039637
  0
LINE
  5
BE
330
1F
100
AcDbEntity
  8
0
  6
HIDDEN
 62
     7
370
     0
100
AcDbLine
 10
109.4478822629
 20
113.1242037617
 30
0.0
 11
117.4478817116
 21
113.1242037617
 31
0.0
  0
SPLINE
  5
BF
330
1F
100
AcDbEntity
  8
0
  6
HIDDEN
 62
     7
370
     0
100
AcDbSpline
210
0.0
220
0.0
230
1.0
 70
    24
 71
     3
 72
    10
 73
     6
 74
     0
 42
0.00000001
 43
0.00000001
 40
0.0
 40
0.0
 40
0.0
 40
0.0
 40
0.5
 40
0.5
 40
1.0
 40
1.0
 40
1.0
 40
1.0
 10
93.44788150295912
 20
113.1242035836756
 30
0.0
 10
93.61931302524033
 20
113.1242035836756
 30
0.0
 10
93.82942866903197
 20
113.1242035836756
 30
0.0
 10
94.29541486153373
 20
113.1242035836756
 30
0.0
 10
94.551764536209
 20
113.1242035836756
 30
0.0
 10
94.82288150295912
 20
113.1242035836756
 30
0.0
  0
LINE
  5
C0
330
1F
100
AcDbEntity
  8
0
  6
HIDDEN
 62
     7
370
     0
100
AcDbLine
 10
93.447881503
 20
113.1242037617
 30
0.0
 11
93.447881503
 21
100.2992036619
 31
0.0
  0
SPLINE
  5
C1
330
1F
100
AcDbEntity
  8
0
  6
HIDDEN
 62
     7
370
     0
100
AcDbSpline
210
0.0
220
0.0
230
1.0
 70
     8
 71
     3
 72
    12
 73
     8
 74
     0
 42
0.00000001
 43
0.00000001
 40
0.0
 40
0.0
 40
0.0
 40
0.0
 40
0.4999999999999994
 40
0.4999999999999994
 40
0.7499999999999996
 40
0.7499999999999996
 40
1.0
 40
1.0
 40
1.0
 40
1.0
 10
181.7398271036615
 20
113.9491567372173
 30
0.0
 10
181.7114429871017
 20
113.950828433052
 30
0.0
 10
181.7058982941078
 20
113.9081641634455
 30
0.0
 10
181.7304654198969
 20
113.7782384106052
 30
0.0
 10
181.7443650239528
 20
113.7235415107105
 30
0.0
 10
181.7842035902723
 20
113.5931015282268
 30
0.0
 10
181.8100699264165
 20
113.517445415036
 30
0.0
 10
181.842851873146
 20
113.4315201010926
 30
0.0
  0
SPLINE
  5
C2
330
1F
100
AcDbEntity
  8
0
  6
HIDDEN
 62
     7
370
     0
100
AcDbSpline
210
0.0
220
0.0
230
1.0
 70
     8
 71
     3
 72
    10
 73
     6
 74
     0
 42
0.00000001
 43
0.00000001
 40
0.0
 40
0.0
 40
0.0
 40
0.0
 40
0.4156416671154124
 40
0.8439421165878856
 40
1.0
 40
1.0
 40
1.0
 40
1.0
 10
182.363795800063
 20
100.2102311567247
 30
0.0
 10
182.2540368740899
 20
100.1420257660396
 30
0.0
 10
182.0311762043619
 20
100.0035377213327
 30
0.0
 10
181.8769430986025
 20
99.90112679462094
 30
0.0
 10
181.9000009830851
 20
99.90591496919372
 30
0.0
 10
181.9061587880581
 20
99.90719369210598
 30
0.0
  0
SPLINE
  5
C3
330
1F
100
AcDbEntity
  8
0
  6
HIDDEN
 62
     7
370
     0
100
AcDbSpline
210
0.0
220
0.0
230
1.0
 70
     8
 71
     3
 72
     8
 73
     4
 74
     0
 42
0.00000001
 43
0.00000001
 40
0.0
 40
0.0
 40
0.0
 40
0.0
 40
1.0
 40
1.0
 40
1.0
 40
1.0
 10
181.842851873146
 20
113.4315201010928
 30
0.0
 10
181.9548132367777
 20
113.1380562809302
 30
0.0
 10
182.1349531221546
 20
112.7447044747537
 30
0.0
 10
182.3637964061468
 20
112.2869912998907
 30
0.0
  0
SPLINE
  5
C4
330
1F
100
AcDbEntity
  8
0
  6
HIDDEN
 62
     7
370
     0
100
AcDbSpline
210
0.0
220
0.0
230
1.0
 70
     8
 71
     3
 72
    14
 73
    10
 74
     0
 42
0.00000001
 43
0.00000001
 40
0.0
 40
0.0
 40
0.0
 40
0.0
 40
0.25
 40
0.25
 40
0.5
 40
0.5
 40
0.75
 40
0.75
 40
1.0
 40
1.0
 40
1.0
 40
1.0
 10
178.4478815029591
 20
105.4242762771835
 30
0.0
 10
178.4707532845802
 20
105.464078100201
 30
0.0
 10
178.4913090546183
 20
105.5302369830409
 30
0.0
 10
178.5194613004715
 20
105.7047456543957
 30
0.0
 10
178.5266119885917
 20
105.8121986129275
 30
0.0
 10
178.5253253842873
 20
106.0599688745185
 30
0.0
 10
178.5169063631918
 20
106.2020712893053
 30
0.0
 10
178.48929708508
 20
106.5073010642795
 30
0.0
 10
178.4699048744099
 20
106.6744214876611
 30
0.0
 10
178.4478815029591
 20
106.8492872252161
 30
0.0
  0
SPLINE
  5
C5
330
1F
100
AcDbEntity
  8
0
  6
HIDDEN
 62
     7
370
     0
100
AcDbSpline
210
0.0
220
0.0
230
1.0
 70
     8
 71
     3
 72
    16
 73
    12
 74
     0
 42
0.00000001
 43
0.00000001
 40
0.0
 40
0.0
 40
0.0
 40
0.0
 40
0.125
 40
0.125
 40
0.25
 40
0.25
 40
0.5
 40
0.5
 40
0.75
 40
0.75
 40
1.0
 40
1.0
 40
1.0
 40
1.0
 10
177.4779558981182
 20
105.8406162971287
 30
0.0
 10
177.5449373366751
 20
105.8370069333749
 30
0.0
 10
177.6107180647232
 20
105.829804657833
 30
0.0
 10
177.7386336625419
 20
105.8052065718149
 30
0.0
 10
177.8014551697418
 20
105.7872615920168
 30
0.0
 10
177.9715988214707
 20
105.7209932719417
 30
0.0
 10
178.0631596309483
 20
105.6603976584086
 30
0.0
 10
178.2108088280752
 20
105.5541041492388
 30
0.0
 10
178.2694833267949
 20
105.5076651098117
 30
0.0
 10
178.3699036136878
 20
105.4438602020415
 30
0.0
 10
178.41216598227
 20
105.4255498437821
 30
0.0
 10
178.4478815029591
 20
105.4242762771835
 30
0.0
  0
LWPOLYLINE
  5
C6
330
1F
100
AcDbEntity
  8
0
  6
HIDDEN
 62
     7
370
     0
100
AcDbPolyline
 90
       14
 70
   128
 43
0.0
 10
177.4779583643
 20
105.8406162874
 10
177.6892195772
 20
105.5784724985
 10
177.8833146523
 20
105.3845689266
 10
178.0467133354
 20
105.2724068385
 10
178.1680385898
 20
105.2497964219
 10
178.2388489078
 20
105.3183118447
 10
178.254212005
 20
105.4731824069
 10
178.2130549978
 20
105.703624441
 10
178.1182463597
 20
105.9935921321
 10
177.9763873051
 20
106.3228949888
 10
177.7973498534
 20
106.6686035874
 10
177.5936137269
 20
107.006646026
 10
177.3793573807
 20
107.3134843127
 10
177.169496877
 20
107.5677532453
  0
SPLINE
  5
C7
330
1F
100
AcDbEntity
  8
0
  6
HIDDEN
 62
     7
370
     0
100
AcDbSpline
210
0.0
220
0.0
230
1.0
 70
     8
 71
     3
 72
    32
 73
    28
 74
     0
 42
0.00000001
 43
0.00000001
 40
0.0
 40
0.0
 40
0.0
 40
0.0
 40
0.0625
 40
0.0625
 40
0.1249999999999999
 40
0.1249999999999999
 40
0.2499999999999998
 40
0.2499999999999998
 40
0.3124999999999998
 40
0.3124999999999998
 40
0.3749999999999998
 40
0.3749999999999998
 40
0.4374999999999998
 40
0.4374999999999998
 40
0.4999999999999997
 40
0.4999999999999997
 40
0.6249999999999997
 40
0.6249999999999997
 40
0.7499999999999996
 40
0.7499999999999996
 40
0.8124999999999997
 40
0.8124999999999997
 40
0.8749999999999997
 40
0.8749999999999997
 40
0.9374999999999998
 40
0.9374999999999998
 40
1.0
 40
1.0
 40
1.0
 40
1.0
 10
178.4478815029591
 20
106.8492872252161
 30
0.0
 10
178.3647052341938
 20
106.8965741266088
 30
0.0
 10
178.2945323107432
 20
106.9591719704898
 30
0.0
 10
178.1711944585862
 20
107.1042763840695
 30
0.0
 10
178.1206192046955
 20
107.1827932901015
 30
0.0
 10
177.9853420879669
 20
107.4245598099673
 30
0.0
 10
177.9179700717671
 20
107.5917902096512
 30
0.0
 10
177.8359559683842
 20
107.8193296080248
 30
0.0
 10
177.812384836943
 20
107.8905885670242
 30
0.0
 10
177.7710372484688
 20
108.0232651388221
 30
0.0
 10
177.7531439122631
 20
108.0852549164962
 30
0.0
 10
177.7235165936317
 20
108.1941591216191
 30
0.0
 10
177.7116636086683
 20
108.2414129284681
 30
0.0
 10
177.6929207075406
 20
108.3211464322727
 30
0.0
 10
177.6860783188812
 20
108.3535410363266
 30
0.0
 10
177.6725507131081
 20
108.4235958240871
 30
0.0
 10
177.672768039198
 20
108.4358676330784
 30
0.0
 10
177.6798095208357
 20
108.3893316863325
 30
0.0
 10
177.6877771102311
 20
108.3299980538077
 30
0.0
 10
177.6796441639817
 20
108.1951974000215
 30
0.0
 10
177.673244110507
 20
108.1415600979037
 30
0.0
 10
177.6407498545954
 20
108.023275136364
 30
0.0
 10
177.6134019485938
 20
107.9573635115356
 30
0.0
 10
177.5266424821563
 20
107.8301881989184
 30
0.0
 10
177.4661336053326
 20
107.7684027189772
 30
0.0
 10
177.327659634083
 20
107.6599074058959
 30
0.0
 10
177.2505380630874
 20
107.6121521353703
 30
0.0
 10
177.1694936958086
 20
107.5677532292618
 30
0.0
  0
LINE
  5
C8
330
1F
100
AcDbEntity
  8
0
  6
HIDDEN
 62
     7
370
     0
100
AcDbLine
 10
94.7469195667
 20
108.4242035967
 30
0.0
 11
94.7469195667
 21
105.4242035706
 31
0.0
  0
LINE
  5
C9
330
1F
100
AcDbEntity
  8
0
  6
HIDDEN
 62
     7
370
     0
100
AcDbLine
 10
93.447881503
 20
104.6742036805
 30
0.0
 11
93.447881503
 21
109.1610140965
 31
0.0
  0
ELLIPSE
  5
CA
330
1F
100
AcDbEntity
  8
0
  6
HIDDEN
 62
     7
370
     0
100
AcDbEllipse
 10
177.1509631139
 20
106.9242035837
 30
0.0
 11
-0.914675518811265
 21
1.487357984465689
 31
0.0
210
0.0
220
0.0
230
0.9999999999999999
 40
0.2124636992
 41
2.248128868019243
 42
5.025888963177943
  0
LINE
  5
CB
330
1F
100
AcDbEntity
  8
0
  6
HIDDEN
 62
     7
370
     0
100
AcDbLine
 10
178.447882397
 20
105.4242763302
 30
0.0
 11
178.447882397
 21
106.8492872245
 31
0.0
  0
LINE
  5
CC
330
1F
100
AcDbEntity
  8
0
  6
HIDDEN
 62
     7
370
     0
100
AcDbLine
 10
187.1224369238
 20
114.3644586072
 30
0.0
 11
187.0978798102
 21
114.3601605535
 31
0.0
  0
LINE
  5
CD
330
1F
100
AcDbEntity
  8
0
  6
HIDDEN
 62
     7
370
     0
100
AcDbLine
 10
187.1224369238
 20
109.8095130973
 30
0.0
 11
187.1224369238
 21
114.3644586072
 31
0.0
  0
LINE
  5
CE
330
1F
100
AcDbEntity
  8
0
  6
HIDDEN
 62
     7
370
     0
100
AcDbLine
 10
187.0978798102
 20
109.7955970426
 30
0.0
 11
187.1224369238
 21
109.8095130973
 31
0.0
  0
LINE
  5
CF
330
1F
100
AcDbEntity
  8
0
  6
HIDDEN
 62
     7
370
     0
100
AcDbLine
 10
193.1342880558
 20
109.4209292305
 30
0.0
 11
188.5519425701
 21
108.6189604929
 31
0.0
  0
ELLIPSE
  5
D0
330
1F
100
AcDbEntity
  8
0
  6
HIDDEN
 62
     7
370
     0
100
AcDbEllipse
 10
187.6059319166
 20
108.4608003274
 30
0.0
 11
0.9999968134907249
 21
0.1723913479526402
 31
0.0
210
0.0
220
0.0
230
1.0
 40
0.0146439008
 41
5.950552428147043
 42
6.04367690183403
  0
ELLIPSE
  5
D1
330
1F
100
AcDbEntity
  8
0
  6
HIDDEN
 62
     7
370
     0
100
AcDbEllipse
 10
187.6059319166
 20
108.4608003274
 30
0.0
 11
-0.8522273676245788
 21
1.365146943584079
 31
0.0
210
0.0
220
0.0
230
1.0
 40
0.3832346354
 41
5.674474076050008
 42
5.767598549736963
  0
LINE
  5
D2
330
1F
100
AcDbEntity
  8
0
  6
HIDDEN
 62
     7
370
     0
100
AcDbLine
 10
187.2059355806
 20
109.7675023001
 30
0.0
 11
187.2059355806
 21
109.5846983471
 31
0.0
  0
ARC
  5
D3
330
1F
100
AcDbEntity
  8
0
  6
HIDDEN
 62
     7
370
     0
100
AcDbCircle
 10
187.6073124619
 20
108.6715704609
 30
0.0
 40
0.9974497167522198
100
AcDbArc
 50
346.6932340322
 51
113.7284955295
  0
LINE
  5
D4
330
1F
100
AcDbEntity
  8
0
  6
HIDDEN
 62
     7
370
     0
100
AcDbLine
 10
188.5779823492
 20
108.4419927892
 30
0.0
 11
188.5779823492
 21
108.6247968587
 31
0.0
  0
ARC
  5
D5
330
1F
100
AcDbEntity
  8
0
  6
HIDDEN
 62
     7
370
     0
100
AcDbCircle
 10
187.6079336498
 20
108.6741658044
 30
0.0
 40
0.9941365889143488
100
AcDbArc
 50
269.8848046192
 51
120.8680130621
  0
ARC
  5
D6
330
1F
100
AcDbEntity
  8
0
  6
HIDDEN
 62
     7
370
     0
100
AcDbCircle
 10
187.6009214787
 20
108.6746401318
 30
0.0
 40
0.9946215422775756
100
AcDbArc
 50
172.3739372292
 51
270.2888024734
  0
LINE
  5
D7
330
1F
100
AcDbEntity
  8
0
  6
HIDDEN
 62
     7
370
     0
100
AcDbLine
 10
188.5779823492
 20
108.6247968587
 30
0.0
 11
193.1398312877
 21
109.4231781416
 31
0.0
  0
LINE
  5
D8
330
1F
100
AcDbEntity
  8
0
  6
HIDDEN
 62
     7
370
     0
100
AcDbLine
 10
193.1398312877
 20
109.4231781416
 30
0.0
 11
193.1508730482
 21
109.4249409024
 31
0.0
  0
ELLIPSE
  5
D9
330
1F
100
AcDbEntity
  8
0
  6
HIDDEN
 62
     7
370
     0
100
AcDbEllipse
 10
187.231894674
 20
105.7554268397
 30
0.0
 11
-0.1049624810678438
 21
8.609167087331173
 31
0.0
210
0.0
220
0.0
230
1.0
 40
0.1206129779
 41
6.207323311903975
 42
6.287513960460581
  0
LINE
  5
DA
330
1F
100
AcDbEntity
  8
0
  6
HIDDEN
 62
     7
370
     0
100
AcDbLine
 10
187.2059355806
 20
114.3407923036
 30
0.0
 11
187.2059355806
 21
109.7675023001
 31
0.0
  0
ELLIPSE
  5
DB
330
1F
100
AcDbEntity
  8
0
  6
HIDDEN
 62
     7
370
     0
100
AcDbEllipse
 10
193.1138683319
 20
106.7848467317
 30
0.0
 11
0.1490976734347101
 21
8.653002021960205
 31
0.0
210
0.0
220
0.0
230
1.0
 40
0.1193763597
 41
0.2955305033464111
 42
1.151597981257582
  0
LINE
  5
DC
330
1F
100
AcDbEntity
  8
0
  6
HIDDEN
 62
     7
370
     0
100
AcDbLine
 10
192.9556529354
 20
109.2081408814
 30
0.0
 11
193.1398312877
 21
109.4231781416
 31
0.0
  0
LINE
  5
DD
330
1F
100
AcDbEntity
  8
0
  6
HIDDEN
 62
     7
370
     0
100
AcDbLine
 10
187.2059355806
 20
114.0616316215
 30
0.0
 11
187.2059355806
 21
114.3407923036
 31
0.0
  0
CIRCLE
  5
DE
330
1F
100
AcDbEntity
  8
0
  6
HIDDEN
 62
     7
370
     0
100
AcDbCircle
 10
190.2041790567
 20
111.758013087
 30
0.0
 40
1.347473506197359
  0
LINE
  5
DF
330
1F
100
AcDbEntity
  8
0
  6
HIDDEN
 62
     7
370
     0
100
AcDbLine
 10
187.2059355806
 20
114.0616316215
 30
0.0
 11
187.2059355806
 21
109.5846983471
 31
0.0
  0
LINE
  5
E0
330
1F
100
AcDbEntity
  8
0
  6
HIDDEN
 62
     7
370
     0
100
AcDbLine
 10
188.5779823492
 20
108.4419927892
 30
0.0
 11
192.9556529354
 21
109.2081408814
 31
0.0
  0
LINE
  5
E1
330
1F
100
AcDbEntity
  8
0
  6
HIDDEN
 62
     7
370
     0
100
AcDbLine
 10
187.2059355806
 20
114.0616316215
 30
0.0
 11
192.9556529354
 21
115.0679061056
 31
0.0
  0
LINE
  5
E2
330
1F
100
AcDbEntity
  8
0
  6
HIDDEN
 62
     7
370
     0
100
AcDbLine
 10
192.9556529354
 20
109.2081408814
 30
0.0
 11
192.9556529354
 21
115.0679061056
 31
0.0
  0
CIRCLE
  5
E3
330
1F
100
AcDbEntity
  8
0
  6
HIDDEN
 62
     7
370
     0
100
AcDbCircle
 10
190.2010864298
 20
111.7151440293
 30
0.0
 40
1.020639988180679
  0
SPLINE
  5
E4
330
1F
100
AcDbEntity
  8
0
  6
HIDDEN
 62
     7
370
     0
100
AcDbSpline
210
0.0
220
0.0
230
1.0
 70
     8
 71
     3
 72
    46
 73
    42
 74
     0
 42
0.00000001
 43
0.00000001
 40
-0.0624999999999944
 40
-0.0624999999999944
 40
0.0
 40
0.0
 40
0.0312500000000033
 40
0.0312500000000033
 40
0.0625000000000066
 40
0.0625000000000066
 40
0.1250000000000087
 40
0.1250000000000087
 40
0.1875000000000107
 40
0.1875000000000107
 40
0.2500000000000128
 40
0.2500000000000128
 40
0.3125000000000148
 40
0.3125000000000148
 40
0.3750000000000168
 40
0.3750000000000168
 40
0.4375000000000189
 40
0.4375000000000189
 40
0.4687500000000199
 40
0.4687500000000199
 40
0.5000000000000209
 40
0.5000000000000209
 40
0.5312500000000219
 40
0.5312500000000219
 40
0.5625000000000229
 40
0.5625000000000229
 40
0.6250000000000205
 40
0.6250000000000205
 40
0.6875000000000182
 40
0.6875000000000182
 40
0.7500000000000158
 40
0.7500000000000158
 40
0.8125000000000134
 40
0.8125000000000134
 40
0.8750000000000111
 40
0.8750000000000111
 40
0.9062500000000083
 40
0.9062500000000083
 40
0.9375000000000056
 40
0.9375000000000056
 40
1.0
 40
1.0
 40
1.031250000000003
 40
1.031250000000003
 10
190.3648568419452
 20
110.0152144647631
 30
0.0
 10
190.1264694538579
 20
110.0184394938777
 30
0.0
 10
190.0495652722279
 20
110.0292268882217
 30
0.0
 10
189.9004529480773
 20
110.0682082275039
 30
0.0
 10
189.8283212607556
 20
110.0967339941431
 30
0.0
 10
189.629831588511
 20
110.2019141358312
 30
0.0
 10
189.5175817050872
 20
110.2995672425241
 30
0.0
 10
189.3424668852298
 20
110.5217218269399
 30
0.0
 10
189.2798246437944
 20
110.6446256598896
 30
0.0
 10
189.1982380066481
 20
110.8992575115824
 30
0.0
 10
189.1797768354812
 20
111.0284648449918
 30
0.0
 10
189.18219576823
 20
111.2875779330344
 30
0.0
 10
189.2028898095581
 20
111.4134342058917
 30
0.0
 10
189.2839200088651
 20
111.6587466660641
 30
0.0
 10
189.3440291330816
 20
111.7768288533392
 30
0.0
 10
189.5108906804262
 20
111.992730632135
 30
0.0
 10
189.6197409322369
 20
112.0921513318902
 30
0.0
 10
189.8217058767011
 20
112.199812017669
 30
0.0
 10
189.8961917377811
 20
112.2287203081745
 30
0.0
 10
190.0497570076105
 20
112.2655939981038
 30
0.0
 10
190.1297279844326
 20
112.2737736820967
 30
0.0
 10
190.2849201288705
 20
112.2694913542074
 30
0.0
 10
190.3605404070742
 20
112.257181962168
 30
0.0
 10
190.5006301375674
 20
112.2178464252684
 30
0.0
 10
190.5655026743443
 20
112.1910721746919
 30
0.0
 10
190.7483799854225
 20
112.093485363765
 30
0.0
 10
190.8479062570326
 20
112.0101589815
 30
0.0
 10
191.0173943300847
 20
111.8156361335417
 30
0.0
 10
191.0833158629046
 20
111.7082641077641
 30
0.0
 10
191.1823261362071
 20
111.474186819219
 30
0.0
 10
191.2145782037956
 20
111.3471970060143
 30
0.0
 10
191.2376668859843
 20
111.0867952891274
 30
0.0
 10
191.2287084825801
 20
110.948983579484
 30
0.0
 10
191.1599719786186
 20
110.6787834614842
 30
0.0
 10
191.0991396777902
 20
110.5435497939109
 30
0.0
 10
190.9658959694934
 20
110.3640939153087
 30
0.0
 10
190.9135800223458
 20
110.3071088560401
 30
0.0
 10
190.7973339392358
 20
110.2066558558112
 30
0.0
 10
190.7336513231844
 20
110.1629699646878
 30
0.0
 10
190.5241938207367
 20
110.0539280032107
 30
0.0
 10
190.3648568419452
 20
110.0152144647631
 30
0.0
 10
190.1264694538579
 20
110.0184394938777
 30
0.0
  0
SPLINE
  5
E5
330
1F
100
AcDbEntity
  8
0
  6
HIDDEN
 62
     7
370
     0
100
AcDbSpline
210
0.0
220
0.0
230
1.0
 70
     8
 71
     3
 72
    12
 73
     8
 74
     0
 42
0.00000001
 43
0.00000001
 40
0.0
 40
0.0
 40
0.0
 40
0.0
 40
0.5
 40
0.5
 40
0.75
 40
0.75
 40
1.0
 40
1.0
 40
1.0
 40
1.0
 10
183.5011804206481
 20
110.9704144012506
 30
0.0
 10
184.2517224899985
 20
110.8722045432263
 30
0.0
 10
184.9824487150709
 20
110.7271610560482
 30
0.0
 10
186.0352670472016
 20
110.3879104259237
 30
0.0
 10
186.3789475663518
 20
110.2542500589825
 30
0.0
 10
187.0492799984395
 20
109.9324425315818
 30
0.0
 10
187.3772508791643
 20
109.7425039364762
 30
0.0
 10
187.6829357555999
 20
109.5271473165339
 30
0.0
  0
SPLINE
  5
E6
330
1F
100
AcDbEntity
  8
0
  6
HIDDEN
 62
     7
370
     0
100
AcDbSpline
210
0.0
220
0.0
230
1.0
 70
     8
 71
     3
 72
    14
 73
    10
 74
     0
 42
0.00000001
 43
0.00000001
 40
0.0
 40
0.0
 40
0.0
 40
0.0
 40
0.5000000000000001
 40
0.5000000000000001
 40
0.7499999999999997
 40
0.7499999999999997
 40
0.8749999999999999
 40
0.8749999999999999
 40
1.0
 40
1.0
 40
1.0
 40
1.0
 10
182.3637964061468
 20
112.2869912998907
 30
0.0
 10
182.4762631796928
 20
112.0620446766457
 30
0.0
 10
182.6083478587954
 20
111.820705550551
 30
0.0
 10
182.8633597740111
 20
111.4585259898044
 30
0.0
 10
182.9580908550819
 20
111.3370319991804
 30
0.0
 10
183.1270854143163
 20
111.1701424115317
 30
0.0
 10
183.1878340448679
 20
111.1169185115417
 30
0.0
 10
183.3283695690589
 20
111.0237093447643
 30
0.0
 10
183.4079535002957
 20
110.9826133211856
 30
0.0
 10
183.5011804206481
 20
110.9704144012506
 30
0.0
  0
ELLIPSE
  5
E7
330
1F
100
AcDbEntity
  8
0
  6
HIDDEN
 62
     7
370
     0
100
AcDbEllipse
 10
199.6384278405
 20
110.0442299921
 30
0.0
 11
17.69746338920731
 21
10.11548649767361
 31
0.0
210
0.0
220
0.0
230
1.0
 40
0.0076507844
 41
2.77362422022777
 42
2.91814253164447
  0
LINE
  5
E8
330
1F
100
AcDbEntity
  8
0
  6
HIDDEN
 62
     7
370
     0
100
AcDbLine
 10
183.0977897476
 20
106.046744283
 30
0.0
 11
183.0977897476
 21
100.6545795926
 31
0.0
  0
SPLINE
  5
E9
330
1F
100
AcDbEntity
  8
0
  6
HIDDEN
 62
     7
370
     0
100
AcDbSpline
210
0.0
220
0.0
230
1.0
 70
     8
 71
     3
 72
    10
 73
     6
 74
     0
 42
0.00000001
 43
0.00000001
 40
0.0
 40
0.0
 40
0.0
 40
0.0
 40
0.5
 40
0.5
 40
1.0
 40
1.0
 40
1.0
 40
1.0
 10
191.9359597214896
 20
106.0467443111585
 30
0.0
 10
191.8495022699945
 20
105.9075904915184
 30
0.0
 10
191.748095489483
 20
105.7820607638922
 30
0.0
 10
191.5159171979857
 20
105.5571407629164
 30
0.0
 10
191.3844281502526
 20
105.4578469253984
 30
0.0
 10
191.2424284744255
 20
105.3763259686556
 30
0.0
  0
ELLIPSE
  5
EA
330
1F
100
AcDbEntity
  8
0
  6
HIDDEN
 62
     7
370
     0
100
AcDbEllipse
 10
194.1793882385
 20
106.9242035837
 30
0.0
 11
12.59534900518869
 21
7.19928729089497
 31
0.0
210
0.0
220
0.0
230
1.0
 40
0.0080429699
 41
1.801541217855227
 42
2.641655606012402
  0
SPLINE
  5
EB
330
1F
100
AcDbEntity
  8
0
  6
HIDDEN
 62
     7
370
     0
100
AcDbSpline
210
0.0
220
0.0
230
1.0
 70
     8
 71
     3
 72
    20
 73
    16
 74
     0
 42
0.00000001
 43
0.00000001
 40
0.0
 40
0.0
 40
0.0
 40
0.0
 40
0.0624999999999985
 40
0.0624999999999985
 40
0.1249999999999971
 40
0.1249999999999971
 40
0.2499999999999975
 40
0.2499999999999975
 40
0.3749999999999979
 40
0.3749999999999979
 40
0.4999999999999984
 40
0.4999999999999984
 40
0.7499999999999992
 40
0.7499999999999992
 40
1.0
 40
1.0
 40
1.0
 40
1.0
 10
183.0977921821569
 20
106.0467443111585
 30
0.0
 10
183.0977921821569
 20
106.1739691227012
 30
0.0
 10
183.1171516526992
 20
106.2977134544232
 30
0.0
 10
183.1888539045362
 20
106.5392723199813
 30
0.0
 10
183.2410861136636
 20
106.6556702031331
 30
0.0
 10
183.4275254192619
 20
106.9821752569371
 30
0.0
 10
183.5938314290624
 20
107.1771883238203
 30
0.0
 10
183.9527906379807
 20
107.5268313193093
 30
0.0
 10
184.1482935914775
 20
107.6844491243663
 30
0.0
 10
184.5576342614691
 20
107.9799993598831
 30
0.0
 10
184.7685235033093
 20
108.115462207951
 30
0.0
 10
185.4123882071333
 20
108.4989986786996
 30
0.0
 10
185.856485565664
 20
108.7247849773678
 30
0.0
 10
186.7595225898658
 20
109.1464768813025
 30
0.0
 10
187.2188303392057
 20
109.3416414565423
 30
0.0
 10
187.6829357555999
 20
109.5271473165339
 30
0.0
  0
LINE
  5
EC
330
1F
100
AcDbEntity
  8
0
  6
HIDDEN
 62
     7
370
     0
100
AcDbLine
 10
187.6829366516
 20
109.5271472686
 30
0.0
 11
192.2310318182
 21
110.3231214319
 31
0.0
  0
LINE
  5
ED
330
1F
100
AcDbEntity
  8
0
  6
HIDDEN
 62
     7
370
     0
100
AcDbLine
 10
192.2310318182
 20
110.3231214319
 30
0.0
 11
192.2310318182
 21
107.0809973707
 31
0.0
  0
ELLIPSE
  5
EE
330
1F
100
AcDbEntity
  8
0
  6
HIDDEN
 62
     7
370
     0
100
AcDbEllipse
 10
190.2160104084
 20
107.0981471478
 30
0.0
 11
1.926027131246627
 21
-0.6012583205015432
 31
0.0
210
0.0
220
0.0
230
1.0
 40
0.9849664716
 41
6.033485383448106
 42
6.581492398852403
  0
LINE
  5
EF
330
1F
100
AcDbEntity
  8
0
  6
HIDDEN
 62
     7
370
     0
100
AcDbLine
 10
180.8437283467
 20
110.2542419785
 30
0.0
 11
177.6714126895
 21
108.4227059136
 31
0.0
  0
LINE
  5
F0
330
1F
100
AcDbEntity
  8
0
  6
HIDDEN
 62
     7
370
     0
100
AcDbLine
 10
178.1925211976
 20
105.259467974
 30
0.0
 11
183.1373821329
 21
108.1143848232
 31
0.0
  0
LINE
  5
F1
330
1F
100
AcDbEntity
  8
0
  6
HIDDEN
 62
     7
370
     0
100
AcDbLine
 10
93.447881503
 20
104.6742036805
 30
0.0
 11
94.7469195667
 21
105.4242035706
 31
0.0
  0
LINE
  5
F2
330
1F
100
AcDbEntity
  8
0
  6
HIDDEN
 62
     7
370
     0
100
AcDbLine
 10
94.7469195667
 20
108.4242035967
 30
0.0
 11
93.447881503
 21
109.1742034868
 31
0.0
  0
LINE
  5
F3
330
1F
100
AcDbEntity
  8
0
  6
HIDDEN
 62
     7
370
     0
100
AcDbLine
 10
94.7469195667
 20
105.4242035706
 30
0.0
 11
178.0169855188
 21
105.4242035706
 31
0.0
  0
LINE
  5
F4
330
1F
100
AcDbEntity
  8
0
  6
HIDDEN
 62
     7
370
     0
100
AcDbLine
 10
177.674832506
 20
108.4242035967
 30
0.0
 11
94.7469195667
 21
108.4242035967
 31
0.0
  0
LINE
  5
F5
330
1F
100
AcDbEntity
  8
0
  6
HIDDEN
 62
     7
370
     0
100
AcDbLine
 10
186.6059328745
 20
108.9406899509
 30
0.0
 11
186.6059328745
 21
108.6725774321
 31
0.0
  0
LINE
  5
F6
330
1F
100
AcDbEntity
  8
0
  6
HIDDEN
 62
     7
370
     0
100
AcDbLine
 10
188.6059294771
 20
108.6725774321
 30
0.0
 11
188.6059294771
 21
108.6750148197
 31
0.0
  0
LINE
  5
F7
330
1F
100
AcDbEntity
  8
0
  6
HIDDEN
 62
     7
370
     0
100
AcDbLine
 10
189.1809354852
 20
111.710870532
 30
0.0
 11
189.1809354852
 21
111.1463661172
 31
0.0
  0
LINE
  5
F8
330
1F
100
AcDbEntity
  8
0
  6
HIDDEN
 62
     7
370
     0
100
AcDbLine
 10
191.2309329341
 20
111.1094009929
 30
0.0
 11
191.2309329341
 21
111.710870532
 31
0.0
  0
LINE
  5
F9
330
1F
100
AcDbEntity
  8
VERMASSUNG
100
AcDbLine
 10
195.2190949786
 20
106.9242035837
 30
0.0
 11
90.6925236851
 21
106.9242035837
 31
0.0
  0
POINT
  5
FA
330
1F
100
AcDbEntity
  8
VERMASSUNG
100
AcDbPoint
 10
193.447881503
 20
115.7992035837
 30
0.0
  0
DIMENSION
  5
FB
330
1F
100
AcDbEntity
  8
VERMASSUNG
100
AcDbDimension
  2
*D1
 10
200.8304557622
 20
98.0492035837
 30
0.0
 11
200.8304557622
 21
103.3259613873
 31
0.0
 70
   160
  1
%%c<>-23.1
 71
     2
 42
-1.0
  3
SLDDIMSTYLE0
100
AcDbAlignedDimension
 13
193.447881503
 23
115.7992035837
 33
0.0
 14
193.447881503
 24
98.0492035837
 34
0.0
 50
90.0
100
AcDbRotatedDimension
  0
DIMENSION
  5
106
330
1F
100
AcDbEntity
  8
VERMASSUNG
100
AcDbDimension
  2
*D2
 10
93.447881503
 20
123.4011439442
 30
0.0
 11
140.2241076189
 21
123.4011439442
 31
0.0
 70
   160
 71
     2
 42
-1.0
  3
SLDDIMSTYLE1
100
AcDbAlignedDimension
 13
193.447881503
 23
115.7992035837
 33
0.0
 14
93.447881503
 24
113.1242035837
 34
0.0
100
AcDbRotatedDimension
  0
DIMENSION
  5
111
330
1F
100
AcDbEntity
  8
VERMASSUNG
100
AcDbDimension
  2
*D3
 10
87.1398245243
 20
98.9242035837
 30
0.0
 11
87.1398245243
 21
106.4094869558
 31
0.0
 70
   160
  1
%%c<>
 71
     2
 42
-1.0
  3
SLDDIMSTYLE1
100
AcDbAlignedDimension
 13
104.747881503
 23
114.9242035837
 33
0.0
 14
94.822881503
 24
98.9242035837
 34
0.0
 50
90.0
100
AcDbRotatedDimension
  0
OLE2FRAME
  5
11C
330
1F
100
AcDbEntity
  8
0
100
AcDbOle2Frame
 70
     2
  3
Paintbrush-Bild
 10
13.8511154363
 20
38.264191557
 30
0.0
 11
51.6290888628
 21
31.9806341108
 31
0.0
 71
     2
 72
     0
 73
     1
 90
    12928
310
80552BED0767C5B32B40DDAF6807D121434000000000000000006FFBDDFB85D0
310
4940DDAF6807D121434000000000000000006FFBDDFB85D04940416F4BD60AFB
310
3F4000000000000000002BED0767C5B32B40416F4BD60AFB3F40000000000000
310
0000000000000100000000010000010000000100000000000100000000320000
310
D0CF11E0A1B11AE1000000000000000000000000000000003E000300FEFF0900
310
0600000000000000000000000100000001000000000000000010000002000000
310
01000000FEFFFFFF0000000000000000FFFFFFFFFFFFFFFFFFFFFFFFFFFFFFFF
310
FFFFFFFFFFFFFFFFFFFFFFFFFFFFFFFFFFFFFFFFFFFFFFFFFFFFFFFFFFFFFFFF
310
FFFFFFFFFFFFFFFFFFFFFFFFFFFFFFFFFFFFFFFFFFFFFFFFFFFFFFFFFFFFFFFF
310
FFFFFFFFFFFFFFFFFFFFFFFFFFFFFFFFFFFFFFFFFFFFFFFFFFFFFFFFFFFFFFFF
310
FFFFFFFFFFFFFFFFFFFFFFFFFFFFFFFFFFFFFFFFFFFFFFFFFFFFFFFFFFFFFFFF
310
FFFFFFFFFFFFFFFFFFFFFFFFFFFFFFFFFFFFFFFFFFFFFFFFFFFFFFFFFFFFFFFF
310
FFFFFFFFFFFFFFFFFFFFFFFFFFFFFFFFFFFFFFFFFFFFFFFFFFFFFFFFFFFFFFFF
310
FFFFFFFFFFFFFFFFFFFFFFFFFFFFFFFFFFFFFFFFFFFFFFFFFFFFFFFFFFFFFFFF
310
FFFFFFFFFFFFFFFFFFFFFFFFFFFFFFFFFFFFFFFFFFFFFFFFFFFFFFFFFFFFFFFF
310
FFFFFFFFFFFFFFFFFFFFFFFFFFFFFFFFFFFFFFFFFFFFFFFFFFFFFFFFFFFFFFFF
310
FFFFFFFFFFFFFFFFFFFFFFFFFFFFFFFFFFFFFFFFFFFFFFFFFFFFFFFFFFFFFFFF
310
FFFFFFFFFFFFFFFFFFFFFFFFFFFFFFFFFFFFFFFFFFFFFFFFFFFFFFFFFFFFFFFF
310
FFFFFFFFFFFFFFFFFFFFFFFFFFFFFFFFFFFFFFFFFFFFFFFFFFFFFFFFFFFFFFFF
310
FFFFFFFFFFFFFFFFFFFFFFFFFFFFFFFFFFFFFFFFFFFFFFFFFFFFFFFFFFFFFFFF
310
FDFFFFFFFEFFFFFFFEFFFFFFFEFFFFFF05000000060000000700000008000000
310
090000000A0000000B0000000C0000000D0000000E0000000F00000010000000
310
11000000120000001300000014000000150000001600000017000000FEFFFFFF
310
FFFFFFFFFFFFFFFFFFFFFFFFFFFFFFFFFFFFFFFFFFFFFFFFFFFFFFFFFFFFFFFF
310
FFFFFFFFFFFFFFFFFFFFFFFFFFFFFFFFFFFFFFFFFFFFFFFFFFFFFFFFFFFFFFFF
310
FFFFFFFFFFFFFFFFFFFFFFFFFFFFFFFFFFFFFFFFFFFFFFFFFFFFFFFFFFFFFFFF
310
FFFFFFFFFFFFFFFFFFFFFFFFFFFFFFFFFFFFFFFFFFFFFFFFFFFFFFFFFFFFFFFF
310
FFFFFFFFFFFFFFFFFFFFFFFFFFFFFFFFFFFFFFFFFFFFFFFFFFFFFFFFFFFFFFFF
310
FFFFFFFFFFFFFFFFFFFFFFFFFFFFFFFFFFFFFFFFFFFFFFFFFFFFFFFFFFFFFFFF
310
FFFFFFFFFFFFFFFFFFFFFFFFFFFFFFFFFFFFFFFFFFFFFFFFFFFFFFFFFFFFFFFF
310
FFFFFFFFFFFFFFFFFFFFFFFFFFFFFFFFFFFFFFFFFFFFFFFFFFFFFFFFFFFFFFFF
310
FFFFFFFFFFFFFFFFFFFFFFFFFFFFFFFFFFFFFFFFFFFFFFFFFFFFFFFFFFFFFFFF
310
FFFFFFFFFFFFFFFFFFFFFFFFFFFFFFFFFFFFFFFFFFFFFFFFFFFFFFFFFFFFFFFF
310
FFFFFFFFFFFFFFFFFFFFFFFFFFFFFFFFFFFFFFFFFFFFFFFFFFFFFFFFFFFFFFFF
310
FFFFFFFFFFFFFFFFFFFFFFFFFFFFFFFFFFFFFFFFFFFFFFFFFFFFFFFFFFFFFFFF
310
FFFFFFFFFFFFFFFFFFFFFFFFFFFFFFFFFFFFFFFFFFFFFFFFFFFFFFFFFFFFFFFF
310
52006F006F007400200045006E00740072007900000000000000000000000000
310
0000000000000000000000000000000000000000000000000000000000000000
310
16000500FFFFFFFFFFFFFFFF020000000A00030000000000C000000000000046
310
00000000000000000000000080FF08473CF8CC0103000000C000000000000000
310
01004F006C006500000000000000000000000000000000000000000000000000
310
0000000000000000000000000000000000000000000000000000000000000000
310
0A000200FFFFFFFFFFFFFFFFFFFFFFFF00000000000000000000000000000000
310
0000000000000000000000000000000000000000000000001400000000000000
310
010043006F006D0070004F0062006A0000000000000000000000000000000000
310
0000000000000000000000000000000000000000000000000000000000000000
310
120002010100000003000000FFFFFFFF00000000000000000000000000000000
310
0000000000000000000000000000000000000000010000004D00000000000000
310
01004F006C006500310030004E00610074006900760065000000000000000000
310
0000000000000000000000000000000000000000000000000000000000000000
310
1A000200FFFFFFFFFFFFFFFFFFFFFFFF00000000000000000000000000000000
310
0000000000000000000000000000000000000000040000002426000000000000
310
FEFFFFFF02000000FEFFFFFFFFFFFFFFFFFFFFFFFFFFFFFFFFFFFFFFFFFFFFFF
310
FFFFFFFFFFFFFFFFFFFFFFFFFFFFFFFFFFFFFFFFFFFFFFFFFFFFFFFFFFFFFFFF
310
FFFFFFFFFFFFFFFFFFFFFFFFFFFFFFFFFFFFFFFFFFFFFFFFFFFFFFFFFFFFFFFF
310
FFFFFFFFFFFFFFFFFFFFFFFFFFFFFFFFFFFFFFFFFFFFFFFFFFFFFFFFFFFFFFFF
310
FFFFFFFFFFFFFFFFFFFFFFFFFFFFFFFFFFFFFFFFFFFFFFFFFFFFFFFFFFFFFFFF
310
FFFFFFFFFFFFFFFFFFFFFFFFFFFFFFFFFFFFFFFFFFFFFFFFFFFFFFFFFFFFFFFF
310
FFFFFFFFFFFFFFFFFFFFFFFFFFFFFFFFFFFFFFFFFFFFFFFFFFFFFFFFFFFFFFFF
310
FFFFFFFFFFFFFFFFFFFFFFFFFFFFFFFFFFFFFFFFFFFFFFFFFFFFFFFFFFFFFFFF
310
FFFFFFFFFFFFFFFFFFFFFFFFFFFFFFFFFFFFFFFFFFFFFFFFFFFFFFFFFFFFFFFF
310
FFFFFFFFFFFFFFFFFFFFFFFFFFFFFFFFFFFFFFFFFFFFFFFFFFFFFFFFFFFFFFFF
310
FFFFFFFFFFFFFFFFFFFFFFFFFFFFFFFFFFFFFFFFFFFFFFFFFFFFFFFFFFFFFFFF
310
FFFFFFFFFFFFFFFFFFFFFFFFFFFFFFFFFFFFFFFFFFFFFFFFFFFFFFFFFFFFFFFF
310
FFFFFFFFFFFFFFFFFFFFFFFFFFFFFFFFFFFFFFFFFFFFFFFFFFFFFFFFFFFFFFFF
310
FFFFFFFFFFFFFFFFFFFFFFFFFFFFFFFFFFFFFFFFFFFFFFFFFFFFFFFFFFFFFFFF
310
FFFFFFFFFFFFFFFFFFFFFFFFFFFFFFFFFFFFFFFFFFFFFFFFFFFFFFFFFFFFFFFF
310
FFFFFFFFFFFFFFFFFFFFFFFFFFFFFFFFFFFFFFFFFFFFFFFFFFFFFFFFFFFFFFFF
310
0100000200000000000000000000000000000000000000000000000000000000
310
0000000000000000000000000000000000000000000000000000000000000000
310
0100FEFF030A0000FFFFFFFF0A00030000000000C00000000000004607000000
310
5042727573680007000000504272757368000700000050427275736800F439B2
310
7100000000000000000000000000000000000000000000000000000000000000
310
0000000000000000000000000000000000000000000000000000000000000000
310
0000000000000000000000000000000000000000000000000000000000000000
310
0000000000000000000000000000000000000000000000000000000000000000
310
0000000000000000000000000000000000000000000000000000000000000000
310
0000000000000000000000000000000000000000000000000000000000000000
310
0000000000000000000000000000000000000000000000000000000000000000
310
0000000000000000000000000000000000000000000000000000000000000000
310
0000000000000000000000000000000000000000000000000000000000000000
310
0000000000000000000000000000000000000000000000000000000000000000
310
0000000000000000000000000000000000000000000000000000000000000000
310
0000000000000000000000000000000000000000000000000000000000000000
310
20260000424D0E260000000000003E00000028000000B40200006E0000000100
310
01000000000000000000130B0000130B00000200000002000000000000FFFFFF
310
FFFFFFFFFFFFFFFFFFFFFFFFFFFFFFFFFFFFFFFFFFFFFFFFFFFFFFFFFFFFFFFF
310
FFFFFFFFFFFFFFFFFFFFFFFFFFFFFFFFFFFFFFFFFFFFFFFFFFFFFFFFFFFFFFFF
310
FFFFFFFFFFFFFFFFFFFFFFFFFFFFFFFFFFFFFFFFFFFFFFFFF000FFFFFFFFFFFF
310
FFFFFFFFFFFFFFFFFFFFFFFFFFFFFFFFFFFFFFFFFFFFFFFFFFFFFFFFFFFFFFFF
310
FFFFFFFFFFFFFFFFFFFFFFFFFFFFFFFFFFFFFFFFFFFFFFFFFFFFFFFFFFFFFFFF
310
FFFFFFFFFFFFFFFFFFFFFFFFFFFFFFFFF000FFFFFFFFFFFFFFFFFFFFFFFFFFFF
310
FFFFFFFFFFFFFFFFFFFFFFFFFFFFFFFFFFFFFFFFFFFFFFFFFFFFFFFFFFFFFFFF
310
FFFFFFFFFFFFFFFFFFFFFFFFFFFFFFFFFFFFFFFFFFFFFFFFFFFFFFFFFFFFFFFF
310
FFFFFFFFFFFFFFFFF000FFFFFFFFFFFFFFFFFFFFFFFFFFFFFFFFFFFFFFFFFFFF
310
FFFFFFFFFFFFFFFFFFFFFFFFFFFFFFFFFFFFFFFFFFFFFFFFFFFFFFFFFFFFFFFF
310
FFFFFFFFFFFFFFFFFFFFFFFFFFFFFFFFFFFFFFFFFFFFFFFFFFFFFFFFFFFFFFFF
310
F000FFFFFFFFFFFFFFFFFFFFFFFFFFFFFFFFFFFFFFFFFFFFFFFFFFFFFFFFFFFF
310
FFFFFFFFFFFFFFFFFFFFFFFFFFFFFFFFFFFFFFFFFFFFFFFFFFFFFFFFFFFFFFFF
310
FFFFFFFFFFFFFFFFFFFFFFFFFFFFFFFFFFFFFFFFFFFFFFFFF000FFFFFFFFFFFF
310
FFFFFFFFFFFFFFFFFFFFFFFFFFFFFFFFFFFFFFFFFFFFFFFFFFFFFFFFFFFFFFFF
310
FFFFFFFFFFFFFFFFFFFFFFFFFFFFFFFFFFFFFFFFFFFFFFFFFFFFFFFFFFFFFFFF
310
FFFFFFFFFFFFFFFFFFFFFFFFFFFFFFFFF000FFFFFFFFFFFFFFFFFFFFFFFFFFFF
310
FFFFFFFFFFFFFFFFFFFFFFFFFFFFFFFFFFFFFFFFFFFFFFFFFFFFFFFFFFFFFFFF
310
FFFFFFFFFFFFFFFFFFFFFFFFFFFFFFFFFFFFFFFFFFFFFFFFFFFFFFFFFFFFFFFF
310
FFFFFFFFFFFFFFFFF000FFFFFFFFFFFFFFFFFFFFFFFFFFFFFFFFFFFFFFFFFFFF
310
FFFFFFFFFFFFFFFFFFFFFFFFFFFFFFFFFFFFFFFFFFFFFFFFFFFFFFFFFFFFFFFF
310
FFFFFFFFFFFFFFFFFFFFFFFFFFFFFFFFFFFFFFFFFFFFFFFFFFFFFFFFFFFFFFFF
310
F000FFFFFFFFFFFFFFFFFFFFFFFFFFFFFFFFFFFFFFFFFFFFFFFFFFFFFFFFFFFF
310
FFFFFFFFFFFFFFFFFFFFFFFFFFFFFFFFFFFFFFFFFFFFFFFFFFFFFFFFFFFFFFFF
310
FFFFFFFFFFFFFFFFFFFFFFFFFFFFFFFFFFFFFFFFFFFFFFFFF000FFFFFFFFFFFF
310
FFFFFFFFFFFFFFFFFFFFFFFFFFFFFFFFFFFFFFFFFFFFFFFFFFFFFFFFFFFFFFFF
310
FFFFFFFFFFFFFFFFFFFFFFFFFFFFFFFFFFFFFFFFFFFFFFFFFFFFFFFFFFFFFFFF
310
FFFFFFFFFFFFFFFFFFFFFFFFFFFFFFFFF000FFFFFFFFFFFFFFFFFFFFFFFFFFFF
310
FFFFFFFFFFFFFFFFFFFFFFFFFFFFFFFFFFFFFFFFFFFFFFFFFFFFFFFFFFFFFFFF
310
FFFFFFFFFFFFFFFFFFFFFFFFFFFFFFFFFFFFFFFFFFFFFFFFFFFFFFFFFFFFFFFF
310
FFFFFFFFFFFFFFFFF000FFFFFFFFFFFFFFFFFFFFFFFFFFFFFFFFFFFFFFFFFFFF
310
FFFFFFFFFFFFFFFFFFFFFFFFFFFFFFFFFFFFFFFFFFFFFFFFFFFFFFFFFFFFFFFF
310
FFFFFFFFFFFFFFFFFFFFFFFFFFFFFFFFFFFFFFFFFFFFFFFFFFFFFFFFFFFFFFFF
310
F000FFFFFFFFFFFFFFFFFFFFFFFFFFFFFFFFFFFFFFFFFFFFFFFFFFFFFFFFFFFF
310
FFFFFFFFFFFFFFFFFFFFFFFFFFFFFFFFFFFFFFFFFFFFFFFFFFFFFFFFFFFFFFFF
310
FFFFFFFFFFFFFFFFFFFFFFFFFFFFFFFFFFFFFFFFFFFFFFFFF000FFFFFFFFFFFF
310
FFFFFFFFFFFFFFFFFFFFFFFFFFFFFFFFFFFFFFFFFFFFFFFFFFFFFFFFFFFFFFFF
310
FFFFFFFFFFFFFFFFFFFFFFFFFFFFFFFFFFFFFFFFFFFFFFFFFFFFFFFFFFFFFFFF
310
FFFFFFFFFFFFFFFFFFFFFFFFFFFFFFFFF000FFFFFFFFFFFFFFFFFFFFFFFFFFFF
310
FFFFFFFFFFFFFFFFFFFFFFFFFFFFFFFFFFFFFFFFFFFFFFFFFFFFFFFFFFFFFFFF
310
FFFFFFFFFFFFFFFFFFFFFFFFFFFFFFFFFFFFFFFFFFFFFFFFFFFFFFFFFFFFFFFF
310
FFFFFFFFFFFFFFFFF000FFFFFFFFFFFFFFFFFFFFFFFFFFFFFFFFFFFFFFFFFFFF
310
FFFFFFFFFFFFFFFFFFFFFFFFFFFFFFFFFFFFFFFFFFFFFFFFFFFFFFFFFFFFFFFF
310
FFFFFFFFFFFFFFFFFFFFFFFFFFFFFFFFFFFFFFFFFFFFFFFFFFFFFFFFFFFFFFFF
310
F000FFFFFFFFFFFFFFFFFFFFFFFFFFFFFFFFFFFFFFFFFFFFFFFFFFFFFFFFFFFF
310
FFFFFFFFFFFFFFFFFFFFFFFFFFFFFFFFFFFFFFFFFFFFFFFFFFFFFFFFFFFFFFFF
310
FFFFFFFFFFFFFFFFFFFFFFFFFFFFFFFFFFFFFFFFFFFFFFFFF000FFFFFFFFFFFF
310
FFFFFFFFFFFFFFFFFFFFFFFFFFFFFFFFFFFFFFFFFFFFFFFFFFFFFFFFFFFFFFFF
310
FFFFFFFFFFFFFFFFFFFFFFFFFFFFFFFFFFFFFFFFFFFFFFFFFFFFFFFFFFFFFFFF
310
FFFFFFFFFFFFFFFFFFFFFFFFFFFFFFFFF000FFFFFFFFFFFFFFFFFFFFFFFFFFFF
310
FFFFFFFFFFFFFFFFFFFFFFFFFFFFFFFFFFFFFFFFFFFFFFFFFFFFFFFFFFFFFFFF
310
FFFFFFFFFFFFFFFFFFFFFFFFFFFFFFFFFFFFFFFFFFFFFFFFFFFFFFFFFFFFFFFF
310
FFFFFFFFFFFFFFFFF000FFFFF80003FFFFFFFFFFFFFFFFFFFFFFFFFFFFFFFFFF
310
FFFFF00007FFFFFFFFFF00007FFFFFF800000000000000007FFFFFFFFFFFFFFF
310
FFFFFFFC001FFFFFFFFFFFFFFC001FFFFFFFFFFFFFFFFFFFFFFFFFFE0007FFFF
310
F000FFFF8000007FFFFFFFF8000FFFFFC0007FFFFF80007FFFFF0000007FFFFF
310
FFF8000007FFFFF800000000000000007FFFFFF0001FFFFFFFFFFFC00001FFFF
310
FFFFFFFFC00001FFFFFFFF000000000003FFFFE000007FFFF000FFFE0000000F
310
FFFFFFF0000FFFFF80007FFFFF80007FFFFC0000001FFFFFFFC0000001FFFFF8
310
00000000000000007FFFFFF0001FFFFFFFFFFE0000003FFFFFFFFFFE0000003F
310
FFFFFF000000000003FFFF0000000FFFF000FFF800000003FFFFFFF00007FFFF
310
80007FFFFF80007FFFF000000007FFFFFF000000003FFFF80000000000000000
310
7FFFFFF0001FFFFFFFFFF80000000FFFFFFFFFF80000000FFFFFFF0000000000
310
03FFFC00000003FFF000FFE000000000FFFFFFF00007FFFF80003FFFFF80007F
310
FFC000000001FFFFFC000000001FFFF800000000000000007FFFFFF0001FFFFF
310
FFFFE000000003FFFFFFFFE000000003FFFFFF000000000003FFF000000000FF
310
F000FF80000000007FFFFFF00007FFFF80003FFFFF80007FFF8000000000FFFF
310
F80000000007FFF800000000000000007FFFFFF0001FFFFFFFFFC000000001FF
310
FFFFFFC000000001FFFFFF000000000003FFC0000000007FF000FF0000000000
310
3FFFFFE00007FFFF00003FFFFF80007FFE00000000003FFFF00000000003FFF8
310
00000000000000007FFFFFF0001FFFFFFFFF8000000000FFFFFFFF8000000000
310
FFFFFF000000000003FF80000000003FF000FE00000000001FFFFFE00003FFFF
310
00003FFFFF80007FFC00000000001FFFE00000000001FFF8000001FFFE000000
310
7FFFFFF0001FFFFFFFFE00000000003FFFFFFE00000000003FFFFF0000000000
310
03FF00000000001FF000FC00000000000FFFFFE00003FFFF00001FFFFF80007F
310
F800000000001FFFC00000000000FFF8000001FFFE0000007FFFFFF0001FFFFF
310
FFFC00000000001FFFFFFC00000000001FFFFF000000000003FE00000000000F
310
F000F8000000000007FFFFE00003FFFF00001FFFFF80007FF800000000000FFF
310
800000000000FFF8000001FFFE0000007FFFFFF0001FFFFFFFF800000000000F
310
FFFFF800000000000FFFFF000000000003FC000000000007F000F80000000000
310
03FFFFC00003FFFE00001FFFFF80007FF0000000000007FF0000000000007FF8
310
000001FFFE0000007FFFFFF0001FFFFFFFF0000000000007FFFFF00000000000
310
07FFFF000000000003F8000000000003F000F0000000000003FFFFC00001FFFE
310
00001FFFFF80007FE0000000000007FE0000000000003FF8000001FFFE000000
310
7FFFFFF0001FFFFFFFF0000000000007FFFFF0000000000007FFFF0000000000
310
03F800001F800003F000E00001FFF00001FFFFC00001FFFE00000FFFFF80007F
310
E00001FFE00003FE00001FFF00003FF8000001FFFE0000007FFFFFF0001FFFFF
310
FFE000003E000003FFFFE000003E000003FFFF000000000003F00001FFF80001
310
F000E00007FFFC0001FFFFC00001FFFE00000FFFFF80007FC0000FFFFC0003FC
310
0000FFFFC0001FF8000001FFFE0000007FFFFFF0001FFFFFFFC00003FFE00001
310
FFFFC00003FFE00001FFFF0001FFFFFFFFF00007FFFE0001F000E0000FFFFF00
310
00FFFF800001FFFC00000FFFFF80007FC0001FFFFE0001FC0001FFFFE0001FF8
310
000001FFFE0000007FFFFFF0001FFFFFFF80000FFFF80000FFFF80000FFFF800
310
00FFFF0003FFFFFFFFE0000FFFFF8000F000C0003FFFFF8000FFFF800000FFFC
310
000007FFFF80007F80003FFFFF0001FC0003FFFFF0001FF8000001FFFE000000
310
7FFFFFF0001FFFFFFF80003FFFFE0000FFFF80003FFFFE0000FFFF0003FFFFFF
310
FFE0003FFFFF8000F000C0003FFFFF8000FFFF800000FFFC000007FFFF80007F
310
80007FFFFF8001F80007FFFFF8000FF8000001FFFE0000007FFFFFF0001FFFFF
310
FF00007FFFFF00007FFF00007FFFFF00007FFF0003FFFFFFFFE0003FFFFFC000
310
F000C0007FFFFFC000FFFF000000FFFC000007FFFF80007F8000FFFFFF8000F8
310
000FFFFFF8000FF8000001FFFE0000007FFFFFF0001FFFFFFF0000FFFFFF8000
310
7FFF0000FFFFFF80007FFF0003FFFFFFFFC0007FFFFFC00070008000FFFFFFC0
310
00FFFF000000FFF8000007FFFF80007F8000FFFFFF8000F8000FFFFFF8000FF8
310
000001FFFE0000007FFFFFF0001FFFFFFE0001FFFFFFC0003FFE0001FFFFFFC0
310
003FFF0003FFFFFFFFC0007FFFFFE00070008000FFFFFFC0007FFF0000007FF8
310
000003FFFF80007F0001FFFFFF8000F8000FFFFFF8000FF8000001FFFE000000
310
7FFFFFF0001FFFFFFE0001FFFFFFC0003FFE0001FFFFFFC0003FFF0003FFFFFF
310
FFC000FFFFFFE00070008000FFFFFFC0007FFF0000007FF8000003FFFF80007F
310
0001FFFFFF8000F8001FFFFFF8000FF8000001FFFE0000007FFFFFF0001FFFFF
310
FE0003FFFFFFE0003FFE0003FFFFFFE0003FFF0003FFFFFFFFC000FFFFFFE000
310
70008000FFFFFFC0007FFE0000007FF8000003FFFF80007F0001FFFFFF8000F0
310
001FFFFFF8000FF8000001FFFE0000007FFFFFF0001FFFFFFC0003FFFFFFE000
310
1FFC0003FFFFFFE0001FFF0003FFFFFFFFC000FFFFFFC00070008000FFFFFF80
310
007FFE0000007FF0000003FFFF80007F0001FFFFFF0000F0001FFFFFF8000FF8
310
000001FFFE0000007FFFFFF0001FFFFFFC0007FFFFFFF0001FFC0007FFFFFFF0
310
001FFF0003FFFFFFFFC000FFFFFFC00070008001FFFFFF0000FFFE0000003FF0
310
000001FFFF80007F0001FFFFFF0000F8001FFFFFF0000FF8000001FFFE000000
310
7FFFFFF0001FFFFFFC0007FFFFFFF0001FFC0007FFFFFFF0001FFF0003FFFFFF
310
FFC001FFFFFF80007000FFFFFFFFFE0000FFFE0008003FF0008001FFFF80007F
310
FFFFFFFFFC0000FFFFFFFFFFE0000FF8000001FFFE0000007FFFFFF0001FFFFF
310
F8000FFFFFFFF8000FF8000FFFFFFFF8000FFF0003FFFFFFFFFFFFFFFFFF0000
310
7000FFFFFFFFFC0000FFFC0008003FF0008001FFFF80007FFFFFFFFFF80001FF
310
FFFFFFFF80000FF8000001FFFE0000007FFFFFF0001FFFFFF8000FFFFFFFF800
310
0FF8000FFFFFFFF8000FFF0003FFFFFFFFFFFFFFFFFE0000F000FFFFFFFFE000
310
00FFFC000C003FE000C001FFFF80007FFFFFFFFFC00001FFFFFFFFFE00001FF8
310
000001FFFE0000007FFFFFF0001FFFFFF8000FFFFFFFF8000FF8000FFFFFFFF8
310
000FFF0003FFFFFFFFFFFFFFFFF00000F000FFFFFFFE000001FFFC000C001FE0
310
00C000FFFF80007FFFFFFFFE000001FFFFFFFFE000001FF80FFFFFFFFFFFFFC0
310
7FFFFFF0001FFFFFF8000FFFFFFFF8000FF8000FFFFFFFF8000FFF0003FFFFFF
310
FFFFFFFFFF800000F000FFFFFFC0000001FFFC001C001FE001C000FFFF80007F
310
FFFFFF80000003FFFFFFF80000001FF80FFFFFFFFFFFFFC07FFFFFF0001FFFFF
310
F8001FFFFFFFFC000FF8001FFFFFFFFC000FFF0003FFFFFFFFFFFFFFF0000001
310
F000FFFFF800000001FFF8001C001FE001C000FFFF80007FFFFFF800000003FF
310
FFFF800000003FF80FFFFFFFFFFFFFC07FFFFFF0001FFFFFF8001FFFFFFFFC00
310
0FF8001FFFFFFFFC000FFF0003FFFFFFFFFFFFFE00000001F000FFFFC0000000
310
03FFF8001E001FC001E000FFFF80007FFFFF8000000007FFFFFC000000003FF8
310
0FFFFFFFFFFFFFC07FFFFFF0001FFFFFF8001FFFFFFFFC000FF8001FFFFFFFFC
310
000FFF0003FFFFFFFFFFFFE000000003F000FFFE0000000007FFF8001E000FC0
310
01E0007FFF80007FFFFE0000000007FFFFE0000000007FF80FFFFFFFFFFFFFC0
310
7FFFFFF0001FFFFFF0001FFFFFFFFC0007F0001FFFFFFFFC0007FF0003FFFFFF
310
FFFFFF0000000003F000FFF80000000007FFF8001E000FC003E0007FFF80007F
310
FFF0000000000FFFFF8000000000FFF80FFFFFFFFFFFFFC07FFFFFF0001FFFFF
310
F0001FFFFFFFFC0007F0001FFFFFFFFC0007FF0003FFFFFFFFFFFC0000000007
310
F000FFE0000000000FFFF0003E000FC003E0007FFF80007FFFC0000000001FFF
310
FE0000000001FFF80FFFFFFFFFFFFFC07FFFFFF0001FFFFFF0001FFFFFFFFC00
310
07F0001FFFFFFFFC0007FF0003FFFFFFFFFFF0000000000FF000FFC000000000
310
1FFFF0003F000F8003F0003FFF80007FFF80000000003FFFF80000000003FFF8
310
0FFFFFFFFFFFFFC07FFFFFF0001FFFFFF0001FFFFFFFFC0007F0001FFFFFFFFC
310
0007FF0003FFFFFFFFFFE0000000001FF000FF00000000007FFFF0003F000780
310
03F0003FFF80007FFF00000000007FFFF00000000007FFF80FFFFFFFFFFFFFC0
310
7FFFFFF0001FFFFFF0001FFFFFFFFC0007F0001FFFFFFFFC0007FF0003FFFFFF
310
FFFF80000000007FF000FE0000000000FFFFE0003F00078007F0003FFF80007F
310
FE0000000001FFFFE0000000001FFFF80FFFFFFFFFFFFFC07FFFFFF0001FFFFF
310
F0001FFFFFFFFC0007F0001FFFFFFFFC0007FF0003FFFFFFFFFF0000000000FF
310
F000FC0000000003FFFFE0007F00078007F0003FFF80007FFC0000000007FFFF
310
C0000000007FFFF80FFFFFFFFFFFFFC07FFFFFF0001FFFFFF8001FFFFFFFFC00
310
0FF8001FFFFFFFFC000FFF0003FFFFFFFFFE0000000003FFF000FC000000000F
310
FFFFE0007F80070007F8001FFF80007FF8000000001FFFFF8000000001FFFFF8
310
0FFFFFFFFFFFFFC07FFFFFF0001FFFFFF8001FFFFFFFFC000FF8001FFFFFFFFC
310
000FFF0003FFFFFFFFFC000000000FFFF000F8000000007FFFFFE0007F800700
310
07F8001FFF80007FF000000000FFFFFF800000000FFFFFF80FFFFFFFFFFFFFC0
310
7FFFFFF0001FFFFFF8000FFFFFFFF8000FF8000FFFFFFFF8000FFF0003FFFFFF
310
FFFC000000007FFFF000F800000007FFFFFFC0007F8003000FF8001FFF80007F
310
F000000007FFFFFF000000007FFFFFF80FFFFFFFFFFFFFC07FFFFFF0001FFFFF
310
F8000FFFFFFFF8000FF8000FFFFFFFF8000FFF0003FFFFFFFFF80000000FFFFF
310
F000F0000000FFFFFFFFC000FF8003000FF8001FFF80007FE0000000FFFFFFFF
310
0000000FFFFFFFF8000001FFFE0000007FFFFFF0001FFFFFF8000FFFFFFFF800
310
0FF8000FFFFFFFF8000FFF0003FFFFFFFFF8000000FFFFFFF000F000000FFFFF
310
FFFFC000FFC002000FF8000FFF80007FE000001FFFFFFFFE000001FFFFFFFFF8
310
000001FFFE0000007FFFFFF0001FFFFFF8000FFFFFFFF8000FF8000FFFFFFFF8
310
000FFF0003FFFFFFFFF000001FFFFFFFF000E00000FFFFFFFFFFC000FFC00200
310
0FFC000FFF80007FE00001FFFFFFFFFE00001FFFFFFFFFF8000001FFFE000000
310
7FFFFFF0001FFFFFFC000FFFFFFFF8001FFC000FFFFFFFF8001FFF0003FFFFFF
310
FFF00001FFFFFFFFF000E00007FFFFFFFFFF8000FFC000001FFC000FFF80007F
310
C0000FFFFFFFFFFE0000FFFFFFFFFFF8000001FFFE0000007FFFFFF0001FFFFF
310
FC0007FFFFFFF0001FFC0007FFFFFFF0001FFF0003FFFFFFFFF00007FFFFFFFF
310
F000E0001FFFFFFFFFFF8000FFC000001FFC000FFF80007FC0003FFFFFFFFFFE
310
0001FFFFFFFFFFF8000001FFFE0000007FFFFFF0001FFFFFFC0007FFFFFFF000
310
1FFC0007FFFFFFF0001FFF0003FFFFFFFFF0001FFFFFFFFFF000E0003FFFFF00
310
03FF8001FFE000001FFC0007FF80007FC0007FFFFF0007FC0003FFFFF0003FF8
310
000001FFFE0000007FFFFFF0001FFFFFFC0003FFFFFFE0001FFC0003FFFFFFE0
310
001FFF0003FFFFFFFFF0003FFFFFFFFFF000E0003FFFFF0001FF8001FFE00000
310
1FFE0007FF80007FC0007FFFFE0003FC0007FFFFE0003FF8000001FFFE000000
310
7FFFFFF0001FFFFFFE0003FFFFFFE0003FFE0003FFFFFFE0003FFF0003FFFFFF
310
FFF0003FFFFF8001F000E0003FFFFF0001FF0001FFE000001FFE0007FF80007F
310
C0007FFFFE0003FC0007FFFFE0003FF8000001FFFE0000007FFFFFF0001FFFFF
310
FE0001FFFFFFC0003FFE0001FFFFFFC0003FFF0003FFFFFFFFF0003FFFFF0001
310
F000E0003FFFFF0003FF0001FFE000003FFE0007FF80007FC0007FFFFE0003FC
310
0007FFFFE0003FF8000001FFFE0000007FFFFFF0001FFFFFFF0001FFFFFFC000
310
7FFF0001FFFFFFC0007FFF0003FFFFFFFFF0003FFFFF0001F000E0003FFFFE00
310
03FF0003FFF000003FFE0003FF80007FC0007FFFFC0003FE0007FFFFE0003FF8
310
000001FFFE0000007FFFFFF0001FFFFFFF0000FFFFFF80007FFF0000FFFFFF80
310
007FFF0003FFFFFFFFF0003FFFFF0001F000E0003FFFFE0003FF0003FFF00000
310
3FFF0003FF80007FC0007FFFFC0007FE0007FFFFC0003FF8000001FFFE000000
310
7FFFFFF0001FFFFFFF80007FFFFF0000FFFF80007FFFFF0000FFFF0003FFFFFF
310
FFF0003FFFFF0003F000E0003FFFFC0003FE0003FFF000003FFF0003FF80007F
310
E0003FFFF80007FE0003FFFFC0007FF8000001FFFE0000007FFFFFF0001FFFFF
310
FF80003FFFFE0000FFFF80003FFFFE0000FFFF0003FFFFFFFFF0001FFFFE0003
310
F000F0001FFFF80003FE0003FFF000007FFF0001FF80007FE0003FFFF00007FE
310
0001FFFF80007FF8000001FFFE0000007FFFFFF0001FFFFFFFC0000FFFF80001
310
FFFFC0000FFFF80001FFFF0003FFFFFFFFF0001FFFFC0003F000F0000FFFF000
310
07FE0007FFF800007FFF0001FF80007FE0001FFFE00007FF0000FFFE00007FF8
310
000001FFFE0000007FFFFFF0001FFFFFFFC00003FFE00001FFFFC00003FFE000
310
01FFFF0003FFFFFFFFF8000FFFF80003F000F00003FFC00007FC0007FFF80000
310
7FFF8001FF80007FF00007FF80000FFF00007FF80000FFF8000001FFFE000000
310
7F80000000000001FFE000003E000003FFFFE000003E000003FFFF0003FFFFFF
310
FFF80003FFE00007F000F800000000000FFC0007FFF800007FFF8001FF80007F
310
F000000000000FFF000000000000FFF8000001FFFE0000007F80000000000001
310
FFF0000000000007FFFFF0000000000007FFFF0003FFFFFFFFFC00007E000007
310
F000F800000000000FFC0007FFF80000FFFF8000FF80007FF800000000001FFF
310
800000000001FFF8000001FFFE0000007F80000000000001FFF800000000000F
310
FFFFF800000000000FFFFF0003FFFFFFFFFC00000000000FF000FC0000000000
310
1FFC0007FFFC0000FFFF8000FF80007FF800000000003FFFC00000000001FFF8
310
000001FFFE0000007F80000000000001FFF800000000000FFFFFF80000000000
310
0FFFFF0003FFFFFFFFFE00000000001FF000FE00000000003FF8000FFFFC0000
310
FFFF8000FF80007FFC00000000003FFFC00000000003FFF8000001FFFE000000
310
7F80000000000001FFFC00000000001FFFFFFC00000000001FFFFF0003FFFFFF
310
FFFF00000000001FF000FF00000000003FF8000FFFFC0000FFFFC000FF80007F
310
FE00000000007FFFE00000000007FFF8000001FFFE0000007F80000000000001
310
FFFE00000000003FFFFFFE00000000003FFFFF0003FFFFFFFFFF80000000003F
310
F000FF80000000007FF8000FFFFC0001FFFFC0007F80007FFF0000000000FFFF
310
F0000000000FFFF800000000000000007F80000000000001FFFF8000000000FF
310
FFFFFF8000000000FFFFFF0003FFFFFFFFFFC0000000007FF000FFC000000000
310
FFF8000FFFFE0001FFFFC0007F80007FFF8000000001FFFFF8000000001FFFF8
310
00000000000000007F80000000000001FFFFC000000001FFFFFFFFC000000001
310
FFFFFF0003FFFFFFFFFFE000000000FFF000FFE000000003FFF0001FFFFE0001
310
FFFFC0007F80007FFFC000000007FFFFFE000000003FFFF80000000000000000
310
7F80000000000001FFFFE000000003FFFFFFFFE000000003FFFFFF0003FFFFFF
310
FFFFF000000003FFF000FFF80000000FFFF0001FFFFE0001FFFFE0007F80007F
310
FFF00000000FFFFFFF00000000FFFFF800000000000000007F80000000000001
310
FFFFF80000000FFFFFFFFFF80000000FFFFFFF0003FFFFFFFFFFFC0000000FFF
310
F000FFFE0000003FFFF0001FFFFE0003FFFFE0003F80007FFFFC0000003FFFFF
310
FFC0000003FFFFF800000000000000007F80000000000001FFFFFE0000003FFF
310
FFFFFFFE0000003FFFFFFF0003FFFFFFFFFFFF0000003FFFF000FFFF800000FF
310
FFF0001FFFFF0003FFFFE0003F80007FFFFF000001FFFFFFFFF800001FFFFFF8
310
00000000000000007F80000000000001FFFFFFC00001FFFFFFFFFFFFC00001FF
310
FFFFFF0003FFFFFFFFFFFFC00000FFFFF000FFFFF8000FFFFFFFFFFFFFFFFFFF
310
FFFFFFFFFFFFFFFFFFFFF0001FFFFFFFFFFF0000FFFFFFF80000000000000000
310
7FFFFFFFFFFFFFFFFFFFFFFC001FFFFFFFFFFFFFFC001FFFFFFFFFFFFFFFFFFF
310
FFFFFFFC001FFFFFF000FFFFFFFFFFFFFFFFFFFFFFFFFFFFFFFFFFFFFFFFFFFF
310
FFFFFFFFFFFFFFFFFFFFFFFFFFFFFFFFFFFFFFFFFFFFFFFFFFFFFFFFFFFFFFFF
310
FFFFFFFFFFFFFFFFFFFFFFFFFFFFFFFFFFFFFFFFFFFFFFFFFFFFFFFFFFFFFFFF
310
F000FFFFFFFFFFFFFFFFFFFFFFFFFFFFFFFFFFFFFFFFFFFFFFFFFFFFFFFFFFFF
310
FFFFFFFFFFFFFFFFFFFFFFFFFFFFFFFFFFFFFFFFFFFFFFFFFFFFFFFFFFFFFFFF
310
FFFFFFFFFFFFFFFFFFFFFFFFFFFFFFFFFFFFFFFFFFFFFFFFF000FFFFFFFFFFFF
310
FFFFFFFFFFFFFFFFFFFFFFFFFFFFFFFFFFFFFFFFFFFFFFFFFFFFFFFFFFFFFFFF
310
FFFFFFFFFFFFFFFFFFFFFFFFFFFFFFFFFFFFFFFFFFFFFFFFFFFFFFFFFFFFFFFF
310
FFFFFFFFFFFFFFFFFFFFFFFFFFFFFFFFF000FFFFFFFFFFFFFFFFFFFFFFFFFFFF
310
FFFFFFFFFFFFFFFFFFFFFFFFFFFFFFFFFFFFFFFFFFFFFFFFFFFFFFFFFFFFFFFF
310
FFFFFFFFFFFFFFFFFFFFFFFFFFFFFFFFFFFFFFFFFFFFFFFFFFFFFFFFFFFFFFFF
310
FFFFFFFFFFFFFFFFF000FFFFFFFFFFFFFFFFFFFFFFFFFFFFFFFFFFFFFFFFFFFF
310
FFFFFFFFFFFFFFFFFFFFFFFFFFFFFFFFFFFFFFFFFFFFFFFFFFFFFFFFFFFFFFFF
310
FFFFFFFFFFFFFFFFFFFFFFFFFFFFFFFFFFFFFFFFFFFFFFFFFFFFFFFFFFFFFFFF
310
F000FFFFFFFFFFFFFFFFFFFFFFFFFFFFFFFFFFFFFFFFFFFFFFFFFFFFFFFFFFFF
310
FFFFFFFFFFFFFFFFFFFFFFFFFFFFFFFFFFFFFFFFFFFFFFFFFFFFFFFFFFFFFFFF
310
FFFFFFFFFFFFFFFFFFFFFFFFFFFFFFFFFFFFFFFFFFFFFFFFF000FFFFFFFFFFFF
310
FFFFFFFFFFFFFFFFFFFFFFFFFFFFFFFFFFFFFFFFFFFFFFFFFFFFFFFFFFFFFFFF
310
FFFFFFFFFFFFFFFFFFFFFFFFFFFFFFFFFFFFFFFFFFFFFFFFFFFFFFFFFFFFFFFF
310
FFFFFFFFFFFFFFFFFFFFFFFFFFFFFFFFF000FFFFFFFFFFFFFFFFFFFFFFFFFFFF
310
FFFFFFFFFFFFFFFFFFFFFFFFFFFFFFFFFFFFFFFFFFFFFFFFFFFFFFFFFFFFFFFF
310
FFFFFFFFFFFFFFFFFFFFFFFFFFFFFFFFFFFFFFFFFFFFFFFFFFFFFFFFFFFFFFFF
310
FFFFFFFFFFFFFFFFF000FFFFFFFFFFFFFFFFFFFFFFFFFFFFFFFFFFFFFFFFFFFF
310
FFFFFFFFFFFFFFFFFFFFFFFFFFFFFFFFFFFFFFFFFFFFFFFFFFFFFFFFFFFFFFFF
310
FFFFFFFFFFFFFFFFFFFFFFFFFFFFFFFFFFFFFFFFFFFFFFFFFFFFFFFFFFFFFFFF
310
F000FFFFFFFFFFFFFFFFFFFFFFFFFFFFFFFFFFFFFFFFFFFFFFFFFFFFFFFFFFFF
310
FFFFFFFFFFFFFFFFFFFFFFFFFFFFFFFFFFFFFFFFFFFFFFFFFFFFFFFFFFFFFFFF
310
FFFFFFFFFFFFFFFFFFFFFFFFFFFFFFFFFFFFFFFFFFFFFFFFF000FFFFFFFFFFFF
310
FFFFFFFFFFFFFFFFFFFFFFFFFFFFFFFFFFFFFFFFFFFFFFFFFFFFFFFFFFFFFFFF
310
FFFFFFFFFFFFFFFFFFFFFFFFFFFFFFFFFFFFFFFFFFFFFFFFFFFFFFFFFFFFFFFF
310
FFFFFFFFFFFFFFFFFFFFFFFFFFFFFFFFF000FFFFFFFFFFFFFFFFFFFFFFFFFFFF
310
FFFFFFFFFFFFFFFFFFFFFFFFFFFFFFFFFFFFFFFFFFFFFFFFFFFFFFFFFFFFFFFF
310
FFFFFFFFFFFFFFFFFFFFFFFFFFFFFFFFFFFFFFFFFFFFFFFFFFFFFFFFFFFFFFFF
310
FFFFFFFFFFFFFFFFF000FFFFFFFFFFFFFFFFFFFFFFFFFFFFFFFFFFFFFFFFFFFF
310
FFFFFFFFFFFFFFFFFFFFFFFFFFFFFFFFFFFFFFFFFFFFFFFFFFFFFFFFFFFFFFFF
310
FFFFFFFFFFFFFFFFFFFFFFFFFFFFFFFFFFFFFFFFFFFFFFFFFFFFFFFFFFFFFFFF
310
F000FFFFFFFFFFFFFFFFFFFFFFFFFFFFFFFFFFFFFFFFFFFFFFFFFFFFFFFFFFFF
310
FFFFFFFFFFFFFFFFFFFFFFFFFFFFFFFFFFFFFFFFFFFFFFFFFFFFFFFFFFFFFFFF
310
FFFFFFFFFFFFFFFFFFFFFFFFFFFFFFFFFFFFFFFFFFFFFFFFF000FFFFFFFFFFFF
310
FFFFFFFFFFFFFFFFFFFFFFFFFFFFFFFFFFFFFFFFFFFFFFFFFFFFFFFFFFFFFFFF
310
FFFFFFFFFFFFFFFFFFFFFFFFFFFFFFFFFFFFFFFFFFFFFFFFFFFFFFFFFFFFFFFF
310
FFFFFFFFFFFFFFFFFFFFFFFFFFFFFFFFF000FFFFFFFFFFFFFFFFFFFFFFFFFFFF
310
FFFFFFFFFFFFFFFFFFFFFFFFFFFFFFFFFFFFFFFFFFFFFFFFFFFFFFFFFFFFFFFF
310
FFFFFFFFFFFFFFFFFFFFFFFFFFFFFFFFFFFFFFFFFFFFFFFFFFFFFFFFFFFFFFFF
310
FFFFFFFFFFFFFFFFF000FFFFFFFFFFFFFFFFFFFFFFFFFFFFFFFFFFFFFFFFFFFF
310
FFFFFFFFFFFFFFFFFFFFFFFFFFFFFFFFFFFFFFFFFFFFFFFFFFFFFFFFFFFFFFFF
310
FFFFFFFFFFFFFFFFFFFFFFFFFFFFFFFFFFFFFFFFFFFFFFFFFFFFFFFFFFFFFFFF
310
F000FFFFFFFFFFFFFFFFFFFFFFFFFFFFFFFFFFFFFFFFFFFFFFFFFFFFFFFFFFFF
310
FFFFFFFFFFFFFFFFFFFFFFFFFFFFFFFFFFFFFFFFFFFFFFFFFFFFFFFFFFFFFFFF
310
FFFFFFFFFFFFFFFFFFFFFFFFFFFFFFFFFFFFFFFFFFFFFFFFF000FFFFFFFFFFFF
310
FFFFFFFFFFFFFFFFFFFFFFFFFFFFFFFFFFFFFFFFFFFFFFFFFFFFFFFFFFFFFFFF
310
FFFFFFFFFFFFFFFFFFFFFFFFFFFFFFFFFFFFFFFFFFFFFFFFFFFFFFFFFFFFFFFF
310
FFFFFFFFFFFFFFFFFFFFFFFFFFFFFFFFF000FFFFFFFFFFFFFFFFFFFFFFFFFFFF
310
FFFFFFFFFFFFFFFFFFFFFFFFFFFFFFFFFFFFFFFFFFFFFFFFFFFFFFFFFFFFFFFF
310
FFFFFFFFFFFFFFFFFFFFFFFFFFFFFFFFFFFFFFFFFFFFFFFFFFFFFFFFFFFFFFFF
310
FFFFFFFFFFFFFFFFF000FFFFFFFFFFFFFFFFFFFFFFFFFFFFFFFFFFFFFFFFFFFF
310
FFFFFFFFFFFFFFFFFFFFFFFFFFFFFFFFFFFFFFFFFFFFFFFFFFFFFFFFFFFFFFFF
310
FFFFFFFFFFFFFFFFFFFFFFFFFFFFFFFFFFFFFFFFFFFFFFFFFFFFFFFFFFFFFFFF
310
F000FFFFFFFFFFFFFFFFFFFFFFFFFFFFFFFFFFFFFFFFFFFFFFFFFFFFFFFFFFFF
310
FFFFFFFFFFFFFFFFFFFFFFFFFFFFFFFFFFFFFFFFFFFFFFFFFFFFFFFFFFFFFFFF
310
FFFFFFFFFFFFFFFFFFFFFFFFFFFFFFFFFFFFFFFFFFFFFFFFF000FFFFFFFFFFFF
310
FFFFFFFFFFFFFFFFFFFFFFFFFFFFFFFFFFFFFFFFFFFFFFFFFFFFFFFFFFFFFFFF
310
FFFFFFFFFFFFFFFFFFFFFFFFFFFFFFFFFFFFFFFFFFFFFFFFFFFFFFFFFFFFFFFF
310
FFFFFFFFFFFFFFFFFFFFFFFFFFFFFFFFF0000000000000000000000000000000
310
0000000000000000000000000000000000000000000000000000000000000000
310
0000000000000000000000000000000000000000000000000000000000000000
310
0000000000000000000000000000000000000000000000000000000000000000
310
0000000000000000000000000000000000000000000000000000000000000000
310
0000000000000000000000000000000000000000000000000000000000000000
310
0000000000000000000000000000000000000000000000000000000000000000
310
0000000000000000000000000000000000000000000000000000000000000000
310
0000000000000000000000000000000000000000000000000000000000000000
310
0000000000000000000000000000000000000000000000000000000000000000
310
0000000000000000000000000000000000000000000000000000000000000000
310
0000000000000000000000000000000000000000000000000000000000000000
310
0000000000000000000000000000000000000000000000000000000000000000
310
0000000000000000000000000000000000000000000000000000000000000000
310
0000000000000000000000000000000000000000000000000000000000000000
310
0000000000000000000000000000000000000000000000000000000000000000
  1
OLE
  0
ENDSEC
  0
SECTION
  2
OBJECTS
  0
DICTIONARY
  5
C
330
0
100
AcDbDictionary
281
     1
  3
ACAD_GROUP
350
D
  3
ACAD_LAYOUT
350
1A
  3
ACAD_MLINESTYLE
350
17
  3
ACAD_PLOTSETTINGS
350
19
  3
ACAD_PLOTSTYLENAME
350
E
  0
DICTIONARY
  5
D
102
{ACAD_REACTORS
330
C
102
}
330
C
100
AcDbDictionary
281
     1
  0
DICTIONARY
  5
1A
102
{ACAD_REACTORS
330
C
102
}
330
C
100
AcDbDictionary
281
     1
  3
Layout1
350
1E
  3
Layout2
350
26
  3
Model
350
22
  0
DICTIONARY
  5
17
102
{ACAD_REACTORS
330
C
102
}
330
C
100
AcDbDictionary
281
     1
  3
Standard
350
18
  0
DICTIONARY
  5
19
102
{ACAD_REACTORS
330
C
102
}
330
C
100
AcDbDictionary
281
     1
  0
ACDBDICTIONARYWDFLT
  5
E
102
{ACAD_REACTORS
330
C
102
}
330
C
100
AcDbDictionary
281
     1
  3
Normal
350
F
100
AcDbDictionaryWithDefault
340
F
  0
LAYOUT
  5
1E
102
{ACAD_REACTORS
330
1A
102
}
330
1A
100
AcDbPlotSettings
  1

  2
none_device
  4

  6

 40
0.0
 41
0.0
 42
0.0
 43
0.0
 44
0.0
 45
0.0
 46
0.0
 47
0.0
 48
0.0
 49
0.0
140
0.0
141
0.0
142
1.0
143
1.0
 70
   688
 72
     0
 73
     0
 74
     5
  7

 75
    16
147
1.0
148
0.0
149
0.0
100
AcDbLayout
  1
Layout1
 70
     1
 71
     1
 10
0.0
 20
0.0
 11
420.0
 21
297.0
 12
0.0
 22
0.0
 32
0.0
 14
1.0000000000E+20
 24
1.0000000000E+20
 34
1.0000000000E+20
 15
-1.0000000000E+20
 25
-1.0000000000E+20
 35
-1.0000000000E+20
146
0.0
 13
0.0
 23
0.0
 33
0.0
 16
1.0
 26
0.0
 36
0.0
 17
0.0
 27
1.0
 37
0.0
 76
     0
330
1B
  0
LAYOUT
  5
26
102
{ACAD_REACTORS
330
1A
102
}
330
1A
100
AcDbPlotSettings
  1

  2
none_device
  4

  6

 40
0.0
 41
0.0
 42
0.0
 43
0.0
 44
0.0
 45
0.0
 46
0.0
 47
0.0
 48
0.0
 49
0.0
140
0.0
141
0.0
142
1.0
143
1.0
 70
   688
 72
     0
 73
     0
 74
     5
  7

 75
    16
147
1.0
148
0.0
149
0.0
100
AcDbLayout
  1
Layout2
 70
     1
 71
     2
 10
0.0
 20
0.0
 11
0.0
 21
0.0
 12
0.0
 22
0.0
 32
0.0
 14
0.0
 24
0.0
 34
0.0
 15
0.0
 25
0.0
 35
0.0
146
0.0
 13
0.0
 23
0.0
 33
0.0
 16
1.0
 26
0.0
 36
0.0
 17
0.0
 27
1.0
 37
0.0
 76
     0
330
23
  0
LAYOUT
  5
22
102
{ACAD_REACTORS
330
1A
102
}
330
1A
100
AcDbPlotSettings
  1

  2
none_device
  4

  6

 40
0.0
 41
0.0
 42
0.0
 43
0.0
 44
0.0
 45
0.0
 46
0.0
 47
0.0
 48
0.0
 49
0.0
140
0.0
141
0.0
142
1.0
143
1.0
 70
  1712
 72
     0
 73
     0
 74
     0
  7

 75
     0
147
1.0
148
0.0
149
0.0
100
AcDbLayout
  1
Model
 70
     1
 71
     0
 10
0.0
 20
0.0
 11
297.0
 21
210.0
 12
0.0
 22
0.0
 32
0.0
 14
0.0
 24
0.0
 34
0.0
 15
297.0
 25
210.0
 35
0.0
146
0.0
 13
0.0
 23
0.0
 33
0.0
 16
1.0
 26
0.0
 36
0.0
 17
0.0
 27
1.0
 37
0.0
 76
     0
330
1F
331
29
  0
MLINESTYLE
  5
18
102
{ACAD_REACTORS
330
17
102
}
330
17
100
AcDbMlineStyle
  2
Standard
 70
     0
  3

 62
   256
 51
90.0
 52
90.0
 71
     2
 49
0.5
 62
   256
  6
BYLAYER
 49
-0.5
 62
   256
  6
BYLAYER
  0
ACDBPLACEHOLDER
  5
F
102
{ACAD_REACTORS
330
E
102
}
330
E
  0
ENDSEC
  0
EOF
