  0
SECTION
  2
HEADER
  9
$ACADVER
  1
AC1015
  9
$ACADMAINTVER
 70
     6
  9
$DWGCODEPAGE
  3
ANSI_1252
  9
$INSBASE
 10
0.0
 20
0.0
 30
0.0
  9
$EXTMIN
 10
0.0
 20
0.0
 30
0.0
  9
$EXTMAX
 10
297.0
 20
210.0
 30
0.0
  9
$LIMMIN
 10
0.0
 20
0.0
  9
$LIMMAX
 10
297.0
 20
210.0
  9
$ORTHOMODE
 70
     0
  9
$REGENMODE
 70
     1
  9
$FILLMODE
 70
     1
  9
$QTEXTMODE
 70
     0
  9
$MIRRTEXT
 70
     1
  9
$LTSCALE
 40
1.0
  9
$ATTMODE
 70
     1
  9
$TEXTSIZE
 40
2.0
  9
$TRACEWID
 40
1.0
  9
$TEXTSTYLE
  7
Standard
  9
$CLAYER
  8
0
  9
$CELTYPE
  6
ByLayer
  9
$CECOLOR
 62
   256
  9
$CELTSCALE
 40
1.0
  9
$DISPSILH
 70
     0
  9
$DIMSCALE
 40
1.0
  9
$DIMASZ
 40
3.0
  9
$DIMEXO
 40
0.0
  9
$DIMDLI
 40
3.75
  9
$DIMRND
 40
0.0
  9
$DIMDLE
 40
0.0
  9
$DIMEXE
 40
1.0
  9
$DIMTP
 40
0.0
  9
$DIMTM
 40
0.0
  9
$DIMTXT
 40
2.0
  9
$DIMCEN
 40
2.5
  9
$DIMTSZ
 40
0.0
  9
$DIMTOL
 70
     0
  9
$DIMLIM
 70
     0
  9
$DIMTIH
 70
     1
  9
$DIMTOH
 70
     1
  9
$DIMSE1
 70
     0
  9
$DIMSE2
 70
     0
  9
$DIMTAD
 70
     1
  9
$DIMZIN
 70
     0
  9
$DIMBLK
  1

  9
$DIMASO
 70
     1
  9
$DIMSHO
 70
     1
  9
$DIMPOST
  1

  9
$DIMAPOST
  1

  9
$DIMALT
 70
     0
  9
$DIMALTD
 70
     3
  9
$DIMALTF
 40
0.0393700787
  9
$DIMLFAC
 40
1.0
  9
$DIMTOFL
 70
     1
  9
$DIMTVP
 40
0.0
  9
$DIMTIX
 70
     0
  9
$DIMSOXD
 70
     0
  9
$DIMSAH
 70
     0
  9
$DIMBLK1
  1

  9
$DIMBLK2
  1

  9
$DIMSTYLE
  2
ISO-25
  9
$DIMCLRD
 70
     0
  9
$DIMCLRE
 70
     0
  9
$DIMCLRT
 70
     0
  9
$DIMTFAC
 40
1.0
  9
$DIMGAP
 40
1.524
  9
$DIMJUST
 70
     0
  9
$DIMSD1
 70
     0
  9
$DIMSD2
 70
     0
  9
$DIMTOLJ
 70
     0
  9
$DIMTZIN
 70
     0
  9
$DIMALTZ
 70
     0
  9
$DIMALTTZ
 70
     0
  9
$DIMUPT
 70
     0
  9
$DIMDEC
 70
     2
  9
$DIMTDEC
 70
     3
  9
$DIMALTU
 70
     2
  9
$DIMALTTD
 70
     3
  9
$DIMTXSTY
  7
Standard
  9
$DIMAUNIT
 70
     0
  9
$DIMADEC
 70
     2
  9
$DIMALTRND
 40
0.0
  9
$DIMAZIN
 70
     0
  9
$DIMDSEP
 70
    44
  9
$DIMATFIT
 70
     3
  9
$DIMFRAC
 70
     0
  9
$DIMLDRBLK
  1

  9
$DIMLUNIT
 70
     2
  9
$DIMLWD
 70
    -2
  9
$DIMLWE
 70
    -2
  9
$DIMTMOVE
 70
     0
  9
$LUNITS
 70
     2
  9
$LUPREC
 70
     2
  9
$SKETCHINC
 40
1.0
  9
$FILLETRAD
 40
10.0
  9
$AUNITS
 70
     0
  9
$AUPREC
 70
     2
  9
$MENU
  1
.
  9
$ELEVATION
 40
0.0
  9
$PELEVATION
 40
0.0
  9
$THICKNESS
 40
0.0
  9
$LIMCHECK
 70
     0
  9
$CHAMFERA
 40
10.0
  9
$CHAMFERB
 40
10.0
  9
$CHAMFERC
 40
20.0
  9
$CHAMFERD
 40
0.0
  9
$SKPOLY
 70
     0
  9
$TDCREATE
 40
2455989.303594641
  9
$TDUCREATE
 40
2455989.261927974
  9
$TDUPDATE
 40
2455989.303594653
  9
$TDUUPDATE
 40
2455989.261927986
  9
$TDINDWG
 40
0.0000000116
  9
$TDUSRTIMER
 40
0.0000000116
  9
$USRTIMER
 70
     1
  9
$ANGBASE
 50
0.0
  9
$ANGDIR
 70
     0
  9
$PDMODE
 70
     0
  9
$PDSIZE
 40
-1.0
  9
$PLINEWID
 40
0.0
  9
$SPLFRAME
 70
     0
  9
$SPLINETYPE
 70
     6
  9
$SPLINESEGS
 70
     8
  9
$HANDSEED
  5
14C
  9
$SURFTAB1
 70
     6
  9
$SURFTAB2
 70
     6
  9
$SURFTYPE
 70
     6
  9
$SURFU
 70
     6
  9
$SURFV
 70
     6
  9
$UCSBASE
  2

  9
$UCSNAME
  2

  9
$UCSORG
 10
0.0
 20
0.0
 30
0.0
  9
$UCSXDIR
 10
1.0
 20
0.0
 30
0.0
  9
$UCSYDIR
 10
0.0
 20
1.0
 30
0.0
  9
$UCSORTHOREF
  2

  9
$UCSORTHOVIEW
 70
     0
  9
$UCSORGTOP
 10
0.0
 20
0.0
 30
0.0
  9
$UCSORGBOTTOM
 10
0.0
 20
0.0
 30
0.0
  9
$UCSORGLEFT
 10
0.0
 20
0.0
 30
0.0
  9
$UCSORGRIGHT
 10
0.0
 20
0.0
 30
0.0
  9
$UCSORGFRONT
 10
0.0
 20
0.0
 30
0.0
  9
$UCSORGBACK
 10
0.0
 20
0.0
 30
0.0
  9
$PUCSBASE
  2

  9
$PUCSNAME
  2

  9
$PUCSORG
 10
0.0
 20
0.0
 30
0.0
  9
$PUCSXDIR
 10
1.0
 20
0.0
 30
0.0
  9
$PUCSYDIR
 10
0.0
 20
1.0
 30
0.0
  9
$PUCSORTHOREF
  2

  9
$PUCSORTHOVIEW
 70
     0
  9
$PUCSORGTOP
 10
0.0
 20
0.0
 30
0.0
  9
$PUCSORGBOTTOM
 10
0.0
 20
0.0
 30
0.0
  9
$PUCSORGLEFT
 10
0.0
 20
0.0
 30
0.0
  9
$PUCSORGRIGHT
 10
0.0
 20
0.0
 30
0.0
  9
$PUCSORGFRONT
 10
0.0
 20
0.0
 30
0.0
  9
$PUCSORGBACK
 10
0.0
 20
0.0
 30
0.0
  9
$USERI1
 70
     0
  9
$USERI2
 70
     0
  9
$USERI3
 70
     0
  9
$USERI4
 70
     0
  9
$USERI5
 70
     0
  9
$USERR1
 40
0.0
  9
$USERR2
 40
0.0
  9
$USERR3
 40
0.0
  9
$USERR4
 40
0.0
  9
$USERR5
 40
0.0
  9
$WORLDVIEW
 70
     1
  9
$SHADEDGE
 70
     3
  9
$SHADEDIF
 70
    70
  9
$TILEMODE
 70
     1
  9
$MAXACTVP
 70
    64
  9
$PINSBASE
 10
0.0
 20
0.0
 30
0.0
  9
$PLIMCHECK
 70
     0
  9
$PEXTMIN
 10
1.0000000000E+20
 20
1.0000000000E+20
 30
1.0000000000E+20
  9
$PEXTMAX
 10
-1.0000000000E+20
 20
-1.0000000000E+20
 30
-1.0000000000E+20
  9
$PLIMMIN
 10
0.0
 20
0.0
  9
$PLIMMAX
 10
420.0
 20
297.0
  9
$UNITMODE
 70
     0
  9
$VISRETAIN
 70
     1
  9
$PLINEGEN
 70
     0
  9
$PSLTSCALE
 70
     1
  9
$TREEDEPTH
 70
  3020
  9
$CMLSTYLE
  2
Standard
  9
$CMLJUST
 70
     0
  9
$CMLSCALE
 40
20.0
  9
$PROXYGRAPHICS
 70
     1
  9
$MEASUREMENT
 70
     1
  9
$CELWEIGHT
370
    -1
  9
$ENDCAPS
280
     0
  9
$JOINSTYLE
280
     0
  9
$LWDISPLAY
290
     1
  9
$INSUNITS
 70
     4
  9
$HYPERLINKBASE
  1

  9
$STYLESHEET
  1

  9
$XEDIT
290
     1
  9
$CEPSNTYPE
380
     0
  9
$PSTYLEMODE
290
     1
  9
$FINGERPRINTGUID
  2
{EF17B308-7250-458A-8C63-CB478754DF2F}
  9
$VERSIONGUID
  2
{FAEB1C32-E019-11D5-929B-00C0DF256EC4}
  9
$EXTNAMES
290
     1
  9
$PSVPSCALE
 40
0.0
  9
$OLESTARTUP
290
     0
  0
ENDSEC
  0
SECTION
  2
CLASSES
  0
CLASS
  1
ACDBDICTIONARYWDFLT
  2
AcDbDictionaryWithDefault
  3
ObjectDBX Classes
 90
        0
280
     0
281
     0
  0
CLASS
  1
VISUALSTYLE
  2
AcDbVisualStyle
  3
ObjectDBX Classes
 90
     4095
280
     0
281
     0
  0
CLASS
  1
MATERIAL
  2
AcDbMaterial
  3
ObjectDBX Classes
 90
     1153
280
     0
281
     0
  0
CLASS
  1
ACDBPLACEHOLDER
  2
AcDbPlaceHolder
  3
ObjectDBX Classes
 90
        0
280
     0
281
     0
  0
CLASS
  1
LAYOUT
  2
AcDbLayout
  3
ObjectDBX Classes
 90
        0
280
     0
281
     0
  0
ENDSEC
  0
SECTION
  2
TABLES
  0
TABLE
  2
VPORT
  5
8
330
0
100
AcDbSymbolTable
 70
     1
  0
VPORT
  5
29
330
8
100
AcDbSymbolTableRecord
100
AcDbViewportTableRecord
  2
*Active
 70
     0
 10
0.0
 20
0.0
 11
1.0
 21
1.0
 12
148.5
 22
105.0
 13
0.0
 23
0.0
 14
10.0
 24
10.0
 15
10.0
 25
10.0
 16
0.0
 26
0.0
 36
1.0
 17
0.0
 27
0.0
 37
0.0
 40
210.0
 41
1.4142857143
 42
50.0
 43
0.0
 44
0.0
 50
0.0
 51
0.0
 71
     0
 72
  2000
 73
     1
 74
     3
 75
     0
 76
     0
 77
     0
 78
     0
281
     0
 65
     1
110
0.0
120
0.0
130
0.0
111
1.0
121
0.0
131
0.0
112
0.0
122
1.0
132
0.0
 79
     0
146
0.0
  0
ENDTAB
  0
TABLE
  2
LTYPE
  5
5
330
0
100
AcDbSymbolTable
 70
     6
  0
LTYPE
  5
14
330
5
100
AcDbSymbolTableRecord
100
AcDbLinetypeTableRecord
  2
ByBlock
 70
     0
  3

 72
    65
 73
     0
 40
0.0
  0
LTYPE
  5
15
330
5
100
AcDbSymbolTableRecord
100
AcDbLinetypeTableRecord
  2
ByLayer
 70
     0
  3

 72
    65
 73
     0
 40
0.0
  0
LTYPE
  5
16
330
5
100
AcDbSymbolTableRecord
100
AcDbLinetypeTableRecord
  2
Continuous
 70
     0
  3
Solid line
 72
    65
 73
     0
 40
0.0
  0
LTYPE
  5
3F
330
5
100
AcDbSymbolTableRecord
100
AcDbLinetypeTableRecord
  2
HIDDEN
 70
     0
  3
Hidden __ __ __ __ __ __ __ __ __ __ __ __ __ __
 72
    65
 73
     2
 40
1.905
 49
1.27
 74
     0
 49
-0.635
 74
     0
  0
LTYPE
  5
40
330
5
100
AcDbSymbolTableRecord
100
AcDbLinetypeTableRecord
  2
PHANTOM
 70
     0
  3
Phantom ______  __  __  ______  __  __  ______
 72
    65
 73
     6
 40
12.7
 49
6.35
 74
     0
 49
-1.27
 74
     0
 49
1.27
 74
     0
 49
-1.27
 74
     0
 49
1.27
 74
     0
 49
-1.27
 74
     0
  0
LTYPE
  5
41
330
5
100
AcDbSymbolTableRecord
100
AcDbLinetypeTableRecord
  2
CENTER
 70
     0
  3
Center ____ _ ____ _ ____ _ ____ _ ____ _ ____
 72
    65
 73
     4
 40
10.16
 49
6.35
 74
     0
 49
-1.27
 74
     0
 49
1.27
 74
     0
 49
-1.27
 74
     0
  0
LTYPE
  5
42
330
5
100
AcDbSymbolTableRecord
100
AcDbLinetypeTableRecord
  2
CENTERX2
 70
     0
  3
Center (2x) ________  __  ________  __  _____
 72
    65
 73
     4
 40
20.32
 49
12.7
 74
     0
 49
-2.54
 74
     0
 49
2.54
 74
     0
 49
-2.54
 74
     0
  0
LTYPE
  5
43
330
5
100
AcDbSymbolTableRecord
100
AcDbLinetypeTableRecord
  2
DOT2
 70
     0
  3
Dot (.5x) ........................................
 72
    65
 73
     2
 40
0.635
 49
0.0
 74
     0
 49
-0.635
 74
     0
  0
ENDTAB
  0
TABLE
  2
LAYER
  5
2
330
0
100
AcDbSymbolTable
 70
     5
  0
LAYER
  5
10
330
2
100
AcDbSymbolTableRecord
100
AcDbLayerTableRecord
  2
0
 70
     0
 62
     7
  6
Continuous
370
    -3
390
F
  0
LAYER
  5
44
330
2
100
AcDbSymbolTableRecord
100
AcDbLayerTableRecord
  2
FORMAT
 70
     0
 62
     7
  6
Continuous
370
    -3
390
F
  0
LAYER
  5
45
330
2
100
AcDbSymbolTableRecord
100
AcDbLayerTableRecord
  2
VERMASSUNG
 70
     0
 62
     7
  6
Continuous
370
    -3
390
F
  0
LAYER
  5
46
330
2
100
AcDbSymbolTableRecord
100
AcDbLayerTableRecord
  2
KOPF_DÜNN
 70
     0
 62
     7
  6
Continuous
370
    -3
390
F
  0
LAYER
  5
47
330
2
100
AcDbSymbolTableRecord
100
AcDbLayerTableRecord
  2
KOPF_DICK
 70
     0
 62
     7
  6
Continuous
370
    15
390
F
  0
ENDTAB
  0
TABLE
  2
STYLE
  5
3
330
0
100
AcDbSymbolTable
 70
     2
  0
STYLE
  5
11
330
3
100
AcDbSymbolTableRecord
100
AcDbTextStyleTableRecord
  2
Standard
 70
     0
 40
0.0
 41
1.0
 50
0.0
 71
     0
 42
2.5
  3
txt
  4

  0
STYLE
  5
48
330
3
100
AcDbSymbolTableRecord
100
AcDbTextStyleTableRecord
  2
SLDTEXTSTYLE0
 70
     0
 40
0.0
 41
0.7
 50
0.0
 71
     0
 42
0.2
  3
TXT
  4

  0
ENDTAB
  0
TABLE
  2
VIEW
  5
6
330
0
100
AcDbSymbolTable
 70
     0
  0
ENDTAB
  0
TABLE
  2
UCS
  5
7
330
0
100
AcDbSymbolTable
 70
     0
  0
ENDTAB
  0
TABLE
  2
APPID
  5
9
330
0
100
AcDbSymbolTable
 70
     1
  0
APPID
  5
12
330
9
100
AcDbSymbolTableRecord
100
AcDbRegAppTableRecord
  2
ACAD
 70
     0
  0
ENDTAB
  0
TABLE
  2
DIMSTYLE
  5
A
330
0
100
AcDbSymbolTable
 70
     3
100
AcDbDimStyleTable
  0
DIMSTYLE
105
27
330
A
100
AcDbSymbolTableRecord
100
AcDbDimStyleTableRecord
  2
ISO-25
 70
     0
 41
2.5
 42
0.625
 43
3.75
 44
1.25
 73
     0
 74
     0
 77
     1
 78
     8
140
2.5
141
2.5
143
0.0393700787
147
0.625
171
     3
172
     1
178
     0
271
     2
272
     2
274
     3
278
    44
283
     0
284
     8
340
11
  0
DIMSTYLE
105
11F
102
{ACAD_REACTORS
330
11E
330
135
330
140
102
}
330
A
100
AcDbSymbolTableRecord
100
AcDbDimStyleTableRecord
  2
SLDDIMSTYLE0
 70
     0
 41
3.0
 44
0.0
 45
0.000000001
 73
     0
 74
     0
 77
     1
 78
    12
 79
     3
140
2.0
147
0.5
173
     1
178
     0
271
     2
272
     3
276
     2
284
    12
340
48
  0
DIMSTYLE
105
12A
102
{ACAD_REACTORS
330
129
102
}
330
A
100
AcDbSymbolTableRecord
100
AcDbDimStyleTableRecord
  2
SLDDIMSTYLE1
 70
     0
 41
3.0
 44
0.0
 45
0.000000001
 73
     0
 74
     0
 77
     1
 78
    12
 79
     3
140
2.0
147
0.5
173
     1
178
     0
271
     2
272
     3
276
     2
284
    12
340
48
  0
ENDTAB
  0
TABLE
  2
BLOCK_RECORD
  5
1
330
0
100
AcDbSymbolTable
 70
     5
  0
BLOCK_RECORD
  5
1F
330
1
100
AcDbSymbolTableRecord
100
AcDbBlockTableRecord
  2
*Model_Space
340
22
  0
BLOCK_RECORD
  5
1B
330
1
100
AcDbSymbolTableRecord
100
AcDbBlockTableRecord
  2
*Paper_Space
340
1E
  0
BLOCK_RECORD
  5
23
330
1
100
AcDbSymbolTableRecord
100
AcDbBlockTableRecord
  2
*Paper_Space0
340
26
  0
BLOCK_RECORD
  5
120
330
1
100
AcDbSymbolTableRecord
100
AcDbBlockTableRecord
  2
*D1
340
0
  0
BLOCK_RECORD
  5
12B
330
1
100
AcDbSymbolTableRecord
100
AcDbBlockTableRecord
  2
*D2
340
0
  0
BLOCK_RECORD
  5
136
330
1
100
AcDbSymbolTableRecord
100
AcDbBlockTableRecord
  2
*D3
340
0
  0
BLOCK_RECORD
  5
141
330
1
100
AcDbSymbolTableRecord
100
AcDbBlockTableRecord
  2
*D4
340
0
  0
ENDTAB
  0
ENDSEC
  0
SECTION
  2
BLOCKS
  0
BLOCK
  5
20
330
1F
100
AcDbEntity
  8
0
100
AcDbBlockBegin
  2
*Model_Space
 70
     0
 10
0.0
 20
0.0
 30
0.0
  3
*Model_Space
  1

  0
ENDBLK
  5
21
330
1F
100
AcDbEntity
  8
0
100
AcDbBlockEnd
  0
BLOCK
  5
1C
330
1B
100
AcDbEntity
 67
     1
  8
0
100
AcDbBlockBegin
  2
*Paper_Space
 70
     0
 10
0.0
 20
0.0
 30
0.0
  3
*Paper_Space
  1

  0
ENDBLK
  5
1D
330
1B
100
AcDbEntity
 67
     1
  8
0
100
AcDbBlockEnd
  0
BLOCK
  5
24
330
23
100
AcDbEntity
  8
0
100
AcDbBlockBegin
  2
*Paper_Space0
 70
     0
 10
0.0
 20
0.0
 30
0.0
  3
*Paper_Space0
  1

  0
ENDBLK
  5
25
330
23
100
AcDbEntity
  8
0
100
AcDbBlockEnd
  0
BLOCK
  5
121
330
120
100
AcDbEntity
  8
0
100
AcDbBlockBegin
  2
*D1
 70
     1
 10
0.0
 20
0.0
 30
0.0
  3
*D1
  1

  0
SOLID
  5
123
330
120
100
AcDbEntity
  8
VERMASSUNG
100
AcDbTrace
 10
185.7825040815
 20
124.3928002532
 30
0.0
 11
182.7825040815
 21
124.8428002532
 31
0.0
 12
182.7825040815
 22
123.9428002532
 32
0.0
 13
182.7825040815
 23
123.9428002532
 33
0.0
  0
SOLID
  5
124
330
120
100
AcDbEntity
  8
VERMASSUNG
100
AcDbTrace
 10
128.7825040815
 20
124.3928002532
 30
0.0
 11
131.7825040815
 21
123.9428002532
 31
0.0
 12
131.7825040815
 22
124.8428002532
 32
0.0
 13
131.7825040815
 23
124.8428002532
 33
0.0
  0
LINE
  5
125
330
120
100
AcDbEntity
  8
VERMASSUNG
100
AcDbLine
 10
185.7825040815
 20
120.0200912332
 30
0.0
 11
185.7825040815
 21
125.3928002532
 31
0.0
  0
LINE
  5
126
330
120
100
AcDbEntity
  8
VERMASSUNG
100
AcDbLine
 10
128.7825040815
 20
120.2964649322
 30
0.0
 11
128.7825040815
 21
125.3928002532
 31
0.0
  0
LINE
  5
127
330
120
100
AcDbEntity
  8
VERMASSUNG
100
AcDbLine
 10
185.7825040815
 20
124.3928002532
 30
0.0
 11
128.7825040815
 21
124.3928002532
 31
0.0
  0
MTEXT
  5
128
330
120
100
AcDbEntity
  8
VERMASSUNG
100
AcDbMText
 10
155.8832147867
 20
126.9709356163
 30
0.0
 40
2.0
 41
0.0
 71
     1
 72
     1
  1
57
  7
SLDTEXTSTYLE0
 73
     1
 44
1.0
  0
ENDBLK
  5
122
330
120
100
AcDbEntity
  8
0
100
AcDbBlockEnd
  0
BLOCK
  5
12C
330
12B
100
AcDbEntity
  8
0
100
AcDbBlockBegin
  2
*D2
 70
     1
 10
0.0
 20
0.0
 30
0.0
  3
*D2
  1

  0
SOLID
  5
12E
330
12B
100
AcDbEntity
  8
VERMASSUNG
100
AcDbTrace
 10
193.8875942028
 20
120.4171096939
 30
0.0
 11
193.4375942028
 21
117.4171096939
 31
0.0
 12
194.3375942028
 22
117.4171096939
 32
0.0
 13
194.3375942028
 23
117.4171096939
 33
0.0
  0
LINE
  5
12F
330
12B
100
AcDbEntity
  8
VERMASSUNG
100
AcDbLine
 10
185.3825040815
 20
120.4171096939
 30
0.0
 11
194.8875942028
 21
120.4171096939
 31
0.0
  0
LINE
  5
130
330
12B
100
AcDbEntity
  8
VERMASSUNG
100
AcDbLine
 10
193.8875942028
 20
104.6671096939
 30
0.0
 11
193.8875942028
 21
120.4171096939
 31
0.0
  0
LINE
  5
131
330
12B
100
AcDbEntity
  8
VERMASSUNG
100
AcDbLine
 10
193.8875942028
 20
120.4171096939
 30
0.0
 11
193.8875942028
 21
95.0988574625
 31
0.0
  0
MTEXT
  5
132
330
12B
100
AcDbEntity
  8
VERMASSUNG
100
AcDbMText
 10
191.3094587233
 20
96.6863574625
 30
0.0
 40
2.0
 41
0.0
 71
     1
 72
     1
  1
%%c
  7
SLDTEXTSTYLE0
 11
-7.044195017643634E-15
 21
1.0
 31
0.0
 73
     1
 44
1.0
  0
MTEXT
  5
133
330
12B
100
AcDbEntity
  8
VERMASSUNG
100
AcDbMText
 10
191.3094588397
 20
100.2945877195
 30
0.0
 40
2.0
 41
0.0
 71
     1
 72
     1
  1
15.75
  7
SLDTEXTSTYLE0
 11
-7.044195017643634E-15
 21
1.0
 31
0.0
 73
     1
 44
1.0
  0
MTEXT
  5
134
330
12B
100
AcDbEntity
  8
VERMASSUNG
100
AcDbMText
 10
191.3094588397
 20
106.0931799754
 30
0.0
 40
2.0
 41
0.0
 71
     1
 72
     1
  1
-21.1
  7
SLDTEXTSTYLE0
 11
-7.044195017643634E-15
 21
1.0
 31
0.0
 73
     1
 44
1.0
  0
ENDBLK
  5
12D
330
12B
100
AcDbEntity
  8
0
100
AcDbBlockEnd
  0
BLOCK
  5
137
330
136
100
AcDbEntity
  8
0
100
AcDbBlockBegin
  2
*D3
 70
     1
 10
0.0
 20
0.0
 30
0.0
  3
*D3
  1

  0
SOLID
  5
139
330
136
100
AcDbEntity
  8
VERMASSUNG
100
AcDbTrace
 10
80.7825040815
 20
120.5421096939
 30
0.0
 11
80.3325040815
 21
117.5421096939
 31
0.0
 12
81.2325040815
 22
117.5421096939
 32
0.0
 13
81.2325040815
 23
117.5421096939
 33
0.0
  0
SOLID
  5
13A
330
136
100
AcDbEntity
  8
VERMASSUNG
100
AcDbTrace
 10
80.7825040815
 20
104.5421096939
 30
0.0
 11
81.2325040815
 21
107.5421096939
 31
0.0
 12
80.3325040815
 22
107.5421096939
 32
0.0
 13
80.3325040815
 23
107.5421096939
 33
0.0
  0
LINE
  5
13B
330
136
100
AcDbEntity
  8
VERMASSUNG
100
AcDbLine
 10
102.0825040815
 20
120.5421096939
 30
0.0
 11
79.7825040815
 21
120.5421096939
 31
0.0
  0
LINE
  5
13C
330
136
100
AcDbEntity
  8
VERMASSUNG
100
AcDbLine
 10
92.1575040815
 20
104.5421096939
 30
0.0
 11
79.7825040815
 21
104.5421096939
 31
0.0
  0
LINE
  5
13D
330
136
100
AcDbEntity
  8
VERMASSUNG
100
AcDbLine
 10
80.7825040815
 20
120.5421096939
 30
0.0
 11
80.7825040815
 21
104.5421096939
 31
0.0
  0
MTEXT
  5
13E
330
136
100
AcDbEntity
  8
VERMASSUNG
100
AcDbMText
 10
78.204368602
 20
109.5381846669
 30
0.0
 40
2.0
 41
0.0
 71
     1
 72
     1
  1
%%c
  7
SLDTEXTSTYLE0
 11
-7.044195017643634E-15
 21
1.0
 31
0.0
 73
     1
 44
1.0
  0
MTEXT
  5
13F
330
136
100
AcDbEntity
  8
VERMASSUNG
100
AcDbMText
 10
78.2043687184
 20
113.1464149239
 30
0.0
 40
2.0
 41
0.0
 71
     1
 72
     1
  1
16
  7
SLDTEXTSTYLE0
 11
-7.044195017643634E-15
 21
1.0
 31
0.0
 73
     1
 44
1.0
  0
ENDBLK
  5
138
330
136
100
AcDbEntity
  8
0
100
AcDbBlockEnd
  0
BLOCK
  5
142
330
141
100
AcDbEntity
  8
0
100
AcDbBlockBegin
  2
*D4
 70
     1
 10
0.0
 20
0.0
 30
0.0
  3
*D4
  1

  0
SOLID
  5
144
330
141
100
AcDbEntity
  8
VERMASSUNG
100
AcDbTrace
 10
90.7825040815
 20
130.5421096939
 30
0.0
 11
93.7825040815
 21
130.0921096939
 31
0.0
 12
93.7825040815
 22
130.9921096939
 32
0.0
 13
93.7825040815
 23
130.9921096939
 33
0.0
  0
SOLID
  5
145
330
141
100
AcDbEntity
  8
VERMASSUNG
100
AcDbTrace
 10
185.7825040815
 20
130.5421096939
 30
0.0
 11
182.7825040815
 21
130.9921096939
 31
0.0
 12
182.7825040815
 22
130.0921096939
 32
0.0
 13
182.7825040815
 23
130.0921096939
 33
0.0
  0
LINE
  5
146
330
141
100
AcDbEntity
  8
VERMASSUNG
100
AcDbLine
 10
90.7825040815
 20
118.7421096939
 30
0.0
 11
90.7825040815
 21
131.5421096939
 31
0.0
  0
LINE
  5
147
330
141
100
AcDbEntity
  8
VERMASSUNG
100
AcDbLine
 10
185.7825040815
 20
120.0200912332
 30
0.0
 11
185.7825040815
 21
131.5421096939
 31
0.0
  0
LINE
  5
148
330
141
100
AcDbEntity
  8
VERMASSUNG
100
AcDbLine
 10
90.7825040815
 20
130.5421096939
 30
0.0
 11
185.7825040815
 21
130.5421096939
 31
0.0
  0
MTEXT
  5
149
330
141
100
AcDbEntity
  8
VERMASSUNG
100
AcDbMText
 10
136.8832147867
 20
133.120245057
 30
0.0
 40
2.0
 41
0.0
 71
     1
 72
     1
  1
95
  7
SLDTEXTSTYLE0
 73
     1
 44
1.0
  0
ENDBLK
  5
143
330
141
100
AcDbEntity
  8
0
100
AcDbBlockEnd
  0
ENDSEC
  0
SECTION
  2
ENTITIES
  0
MTEXT
  5
49
330
1F
100
AcDbEntity
  8
KOPF_DÜNN
100
AcDbMText
 10
13.8892156294
 20
23.8442973028
 30
0.0
 40
3.0
 41
0.0
 71
     1
 72
     1
  1
272.016.006
  7
SLDTEXTSTYLE0
 73
     1
 44
1.0
  0
MTEXT
  5
4A
330
1F
100
AcDbEntity
  8
VERMASSUNG
100
AcDbMText
 10
13.9329988022
 20
28.8834360957
 30
0.0
 40
3.0
 41
0.0
 71
     1
 72
     1
  1
Ausdrehstahl_Boring bar ø15.75-21.1
  7
SLDTEXTSTYLE0
 73
     1
 44
1.0
  0
MTEXT
  5
4B
330
1F
100
AcDbEntity
  8
VERMASSUNG
100
AcDbMText
 10
98.8601118557
 20
13.8365368179
 30
0.0
 40
2.0
 41
0.0
 71
     1
 72
     1
  1
Datum: 29.03.2010
  7
SLDTEXTSTYLE0
 73
     1
 44
1.0
  0
MTEXT
  5
4C
330
1F
100
AcDbEntity
  8
VERMASSUNG
100
AcDbMText
 10
13.933048693
 20
18.0482802738
 30
0.0
 40
2.0
 41
0.0
 71
     1
 72
     1
  1
mit Innenkühlung_with spindel coolant feed
  7
SLDTEXTSTYLE0
 73
     1
 44
1.0
  0
MTEXT
  5
4D
330
1F
100
AcDbEntity
  8
VERMASSUNG
100
AcDbMText
 10
13.9808475933
 20
13.9090973692
 30
0.0
 40
2.0
 41
0.0
 71
     1
 72
     1
  1
Gewicht: 107g
  7
SLDTEXTSTYLE0
 73
     1
 44
1.0
  0
LINE
  5
4E
330
1F
100
AcDbEntity
  8
0
  6
Continuous
 62
     7
370
    15
100
AcDbLine
 10
183.0241191385
 20
115.9510054993
 30
0.0
 11
183.0241191385
 21
115.845384439
 31
0.0
  0
LINE
  5
4F
330
1F
100
AcDbEntity
  8
0
  6
Continuous
 62
     7
370
    15
100
AcDbLine
 10
181.8653154371
 20
116.174902664
 30
0.0
 11
181.8653154371
 21
116.2787546772
 31
0.0
  0
LINE
  5
50
330
1F
100
AcDbEntity
  8
0
  6
Continuous
 62
     7
370
    15
100
AcDbLine
 10
180.8405551312
 20
116.6310120742
 30
0.0
 11
180.8405551312
 21
116.5487506795
 31
0.0
  0
LINE
  5
51
330
1F
100
AcDbEntity
  8
0
  6
Continuous
 62
     7
370
    15
100
AcDbLine
 10
184.2405530808
 20
116.5487506795
 30
0.0
 11
184.2405530808
 21
116.6310120742
 31
0.0
  0
LINE
  5
52
330
1F
100
AcDbEntity
  8
0
  6
Continuous
 62
     7
370
    15
100
AcDbLine
 10
183.2157927749
 20
117.026450708
 30
0.0
 11
183.2157927749
 21
116.9225984621
 31
0.0
  0
LINE
  5
53
330
1F
100
AcDbEntity
  8
0
  6
Continuous
 62
     7
370
    15
100
AcDbLine
 10
182.0569890735
 20
117.2521166871
 30
0.0
 11
182.0569890735
 21
117.3577379803
 31
0.0
  0
LINE
  5
54
330
1F
100
AcDbEntity
  8
0
  6
Continuous
 62
     7
370
    15
100
AcDbLine
 10
92.1575040741
 20
104.5421093139
 30
0.0
 11
127.9914113877
 21
104.5421093139
 31
0.0
  0
LINE
  5
55
330
1F
100
AcDbEntity
  8
0
  6
Continuous
 62
     7
370
    15
100
AcDbLine
 10
104.9825041739
 20
120.5421100738
 30
0.0
 11
102.0825044436
 21
120.5421100738
 31
0.0
  0
LINE
  5
56
330
1F
100
AcDbEntity
  8
0
  6
Continuous
 62
     7
370
    15
100
AcDbLine
 10
127.9914113877
 20
120.5421100738
 30
0.0
 11
116.5825049577
 21
120.5421100738
 31
0.0
  0
LINE
  5
57
330
1F
100
AcDbEntity
  8
0
  6
Continuous
 62
     7
370
    15
100
AcDbLine
 10
90.7825040815
 20
105.9171097721
 30
0.0
 11
92.1575040741
 21
104.5421093139
 31
0.0
  0
ARC
  5
58
330
1F
100
AcDbEntity
  8
0
  6
Continuous
 62
     7
370
    15
100
AcDbCircle
 10
137.2825040815
 20
76.0171096939
 30
0.0
 40
30.00000000000002
100
AcDbArc
 50
90.0
 51
108.0413351452
  0
ARC
  5
59
330
1F
100
AcDbEntity
  8
0
  6
Continuous
 62
     7
370
    15
100
AcDbCircle
 10
137.2825040815
 20
149.0671096939
 30
0.0
 40
29.99999999999999
100
AcDbArc
 50
251.9586648548
 51
270.0
  0
LINE
  5
5A
330
1F
100
AcDbEntity
  8
0
  6
Continuous
 62
     7
370
    15
100
AcDbLine
 10
137.2825051842
 20
106.0171096022
 30
0.0
 11
175.1183602212
 21
106.0171096022
 31
0.0
  0
LINE
  5
5B
330
1F
100
AcDbEntity
  8
0
  6
Continuous
 62
     7
370
    15
100
AcDbLine
 10
172.2374516723
 20
119.0671097855
 30
0.0
 11
137.2825051842
 21
119.0671097855
 31
0.0
  0
CIRCLE
  5
5C
330
1F
100
AcDbEntity
  8
0
  6
Continuous
 62
     7
370
    15
100
AcDbCircle
 10
182.5360768673
 20
116.640347813
 30
0.0
 40
1.696130971371361
  0
CIRCLE
  5
5D
330
1F
100
AcDbEntity
  8
0
  6
Continuous
 62
     7
370
    15
100
AcDbCircle
 10
182.5372756706
 20
116.6640459429
 30
0.0
 40
1.097009446201203
  0
CIRCLE
  5
5E
330
1F
100
AcDbEntity
  8
0
  6
Continuous
 62
     7
370
    15
100
AcDbCircle
 10
182.5373075613
 20
116.6636059288
 30
0.0
 40
1.046943695910521
  0
SPLINE
  5
5F
330
1F
100
AcDbEntity
  8
0
  6
Continuous
 62
     7
370
    15
100
AcDbSpline
210
0.0
220
0.0
230
1.0
 70
     8
 71
     3
 72
    16
 73
    12
 74
     0
 42
0.00000001
 43
0.00000001
 40
0.0
 40
0.0
 40
0.0
 40
0.0
 40
0.1242223202211157
 40
0.2489923695807095
 40
0.3727370833648447
 40
0.4952984796218733
 40
0.6171994599209903
 40
0.7391005472640559
 40
0.8616650128975074
 40
0.9853913626847218
 40
1.0
 40
1.0
 40
1.0
 40
1.0
 10
182.4309113619569
 20
117.535865995571
 30
0.0
 10
182.4163188521946
 20
117.5542471685313
 30
0.0
 10
182.3870694904263
 20
117.5910905619159
 30
0.0
 10
182.3232409206422
 20
117.6239629972699
 30
0.0
 10
182.2535111481809
 20
117.6347784406607
 30
0.0
 10
182.1844130998956
 20
117.6214392093497
 30
0.0
 10
182.1240601038095
 20
117.5861532826519
 30
0.0
 10
182.0787039117639
 20
117.5328492309827
 30
0.0
 10
182.0533157227109
 20
117.4673798569257
 30
0.0
 10
182.051237673491
 20
117.4174313948799
 30
0.0
 10
182.0552267131065
 20
117.3918328921841
 30
0.0
 10
182.0556479690317
 20
117.3891296046823
 30
0.0
  0
SPLINE
  5
60
330
1F
100
AcDbEntity
  8
0
  6
Continuous
 62
     7
370
    15
100
AcDbSpline
210
0.0
220
0.0
230
1.0
 70
     8
 71
     3
 72
    12
 73
     8
 74
     0
 42
0.00000001
 43
0.00000001
 40
0.0
 40
0.0
 40
0.0
 40
0.0
 40
0.2093651004772472
 40
0.4192624104484692
 40
0.624953315577672
 40
0.8281765233012243
 40
1.0
 40
1.0
 40
1.0
 40
1.0
 10
182.0556479690317
 20
117.3891296046823
 30
0.0
 10
182.0552491392303
 20
117.3485020444245
 30
0.0
 10
182.0544504657959
 20
117.2671436479894
 30
0.0
 10
182.0029155816821
 20
117.1545916339299
 30
0.0
 10
181.920798913852
 20
117.0672106120213
 30
0.0
 10
181.8208633347681
 20
117.0135096387522
 30
0.0
 10
181.749789421732
 20
117.0050878914682
 30
0.0
 10
181.7172276971582
 20
117.0012295614034
 30
0.0
  0
SPLINE
  5
61
330
1F
100
AcDbEntity
  8
0
  6
Continuous
 62
     7
370
    15
100
AcDbSpline
210
0.0
220
0.0
230
1.0
 70
     8
 71
     3
 72
    16
 73
    12
 74
     0
 42
0.00000001
 43
0.00000001
 40
0.0
 40
0.0
 40
0.0
 40
0.0
 40
0.1231875465350672
 40
0.2479817627892711
 40
0.3717308123974402
 40
0.4942909141025948
 40
0.6161926799726835
 40
0.7380920491376429
 40
0.8606472943331452
 40
0.9843611613540372
 40
1.0
 40
1.0
 40
1.0
 40
1.0
 10
181.7172276971582
 20
117.0012295614034
 30
0.0
 10
181.6944573560131
 20
116.9981350349203
 30
0.0
 10
181.6486196922614
 20
116.9919056216893
 30
0.0
 10
181.5888940853988
 20
116.954219427863
 30
0.0
 10
181.5449422849013
 20
116.9001047254273
 30
0.0
 10
181.5220124574165
 20
116.8341954121622
 30
0.0
 10
181.5222468684449
 20
116.7645695624814
 30
0.0
 10
181.5453599893924
 20
116.6985649083635
 30
0.0
 10
181.58881527118
 20
116.6434156645033
 30
0.0
 10
181.6306893989237
 20
116.61600936223
 30
0.0
 10
181.6547446420274
 20
116.606282307548
 30
0.0
 10
181.6574442384485
 20
116.6051906901449
 30
0.0
  0
SPLINE
  5
62
330
1F
100
AcDbEntity
  8
0
  6
Continuous
 62
     7
370
    15
100
AcDbSpline
210
0.0
220
0.0
230
1.0
 70
     8
 71
     3
 72
    12
 73
     8
 74
     0
 42
0.00000001
 43
0.00000001
 40
0.0
 40
0.0
 40
0.0
 40
0.0
 40
0.2093683216314689
 40
0.4192641388222053
 40
0.624954502648576
 40
0.8281735155289099
 40
1.0
 40
1.0
 40
1.0
 40
1.0
 10
181.6574442384485
 20
116.6051906901449
 30
0.0
 10
181.6920730096002
 20
116.5841780064447
 30
0.0
 10
181.7614177977815
 20
116.5420996983835
 30
0.0
 10
181.8329231587262
 20
116.4409917096539
 30
0.0
 10
181.8682814732723
 20
116.326818069952
 30
0.0
 10
181.866293203027
 20
116.2147126227119
 30
0.0
 10
181.8392570230811
 20
116.1500655059702
 30
0.0
 10
181.8268704412225
 20
116.1204475346058
 30
0.0
  0
SPLINE
  5
63
330
1F
100
AcDbEntity
  8
0
  6
Continuous
 62
     7
370
    15
100
AcDbSpline
210
0.0
220
0.0
230
1.0
 70
     8
 71
     3
 72
    16
 73
    12
 74
     0
 42
0.00000001
 43
0.00000001
 40
0.0
 40
0.0
 40
0.0
 40
0.0
 40
0.1243661171775917
 40
0.2491443992213263
 40
0.3728821145776094
 40
0.4954438692970352
 40
0.617345085144637
 40
0.7392427020862924
 40
0.8618186947249965
 40
0.9855387467093681
 40
1.0
 40
1.0
 40
1.0
 40
1.0
 10
181.8268704412225
 20
116.1204475346058
 30
0.0
 10
181.8184925083379
 20
116.0993276337473
 30
0.0
 10
181.8017088770513
 20
116.0570178380374
 30
0.0
 10
181.8057856549309
 20
115.9870909885581
 30
0.0
 10
181.8317498192619
 20
115.9226327551664
 30
0.0
 10
181.8781239198502
 20
115.8702078609341
 30
0.0
 10
181.9389127067514
 20
115.8356739210033
 30
0.0
 10
182.0075797914333
 20
115.8224601742471
 30
0.0
 10
182.0765727139074
 20
115.8319679127864
 30
0.0
 10
182.1203798497886
 20
115.8538730603921
 30
0.0
 10
182.1402689026212
 20
115.8693215512475
 30
0.0
 10
182.1423503754381
 20
115.8709383006245
 30
0.0
  0
SPLINE
  5
64
330
1F
100
AcDbEntity
  8
0
  6
Continuous
 62
     7
370
    15
100
AcDbSpline
210
0.0
220
0.0
230
1.0
 70
     8
 71
     3
 72
    12
 73
     8
 74
     0
 42
0.00000001
 43
0.00000001
 40
0.0
 40
0.0
 40
0.0
 40
0.0
 40
0.2092450067059381
 40
0.4191448933796355
 40
0.6248349347995577
 40
0.828047562508731
 40
1.0
 40
1.0
 40
1.0
 40
1.0
 10
182.1423503754381
 20
115.8709383006245
 30
0.0
 10
182.1773565175459
 20
115.8898314392771
 30
0.0
 10
182.2474783614666
 20
115.9276768469685
 30
0.0
 10
182.3704918343869
 20
115.9380776816532
 30
0.0
 10
182.4879744588165
 20
115.9115094441732
 30
0.0
 10
182.5859552427784
 20
115.8543995213075
 30
0.0
 10
182.6300064871188
 20
115.7994754862064
 30
0.0
 10
182.6501968500856
 20
115.7743017091453
 30
0.0
  0
SPLINE
  5
65
330
1F
100
AcDbEntity
  8
0
  6
Continuous
 62
     7
370
    15
100
AcDbSpline
210
0.0
220
0.0
230
1.0
 70
     8
 71
     3
 72
    16
 73
    12
 74
     0
 42
0.00000001
 43
0.00000001
 40
0.0
 40
0.0
 40
0.0
 40
0.0
 40
0.1242221126218869
 40
0.2490045402080738
 40
0.3727362632655428
 40
0.4952978780688765
 40
0.6171988318783117
 40
0.7391004584189299
 40
0.8616649189943322
 40
0.9853916956292905
 40
1.0
 40
1.0
 40
1.0
 40
1.0
 10
182.6501968500856
 20
115.7743017091453
 30
0.0
 10
182.6647892745918
 20
115.7567731822118
 30
0.0
 10
182.6940399440417
 20
115.7216370643543
 30
0.0
 10
182.757870775782
 20
115.6906376314893
 30
0.0
 10
182.8275993443759
 20
115.6809910784863
 30
0.0
 10
182.8966950708152
 20
115.6947003209423
 30
0.0
 10
182.9570482616938
 20
115.7295557107308
 30
0.0
 10
183.0024041905697
 20
115.7816603401485
 30
0.0
 10
183.0277925055982
 20
115.845232101497
 30
0.0
 10
183.0298706278903
 20
115.8934320823547
 30
0.0
 10
183.0258814985268
 20
115.9180275255384
 30
0.0
 10
183.0254602430109
 20
115.9206248256415
 30
0.0
  0
SPLINE
  5
66
330
1F
100
AcDbEntity
  8
0
  6
Continuous
 62
     7
370
    15
100
AcDbSpline
210
0.0
220
0.0
230
1.0
 70
     8
 71
     3
 72
    12
 73
     8
 74
     0
 42
0.00000001
 43
0.00000001
 40
0.0
 40
0.0
 40
0.0
 40
0.0
 40
0.2093654420910089
 40
0.4192627350790616
 40
0.6249532184532809
 40
0.8281765303893805
 40
1.0
 40
1.0
 40
1.0
 40
1.0
 10
183.0254602430109
 20
115.9206248256415
 30
0.0
 10
183.0258590703348
 20
115.9598290118817
 30
0.0
 10
183.0266577381235
 20
116.0383369747309
 30
0.0
 10
183.0781925240079
 20
116.148752779205
 30
0.0
 10
183.1603094598366
 20
116.236540039328
 30
0.0
 10
183.2602448297287
 20
116.2928208028211
 30
0.0
 10
183.3313187820762
 20
116.3038743278357
 30
0.0
 10
183.3638805148843
 20
116.3089383761435
 30
0.0
  0
SPLINE
  5
67
330
1F
100
AcDbEntity
  8
0
  6
Continuous
 62
     7
370
    15
100
AcDbSpline
210
0.0
220
0.0
230
1.0
 70
     8
 71
     3
 72
    16
 73
    12
 74
     0
 42
0.00000001
 43
0.00000001
 40
0.0
 40
0.0
 40
0.0
 40
0.0
 40
0.1232001192088549
 40
0.2479826676679889
 40
0.3717316475515567
 40
0.4942921406455276
 40
0.616193329549934
 40
0.7380925298140224
 40
0.8606474417420489
 40
0.9843614523440627
 40
1.0
 40
1.0
 40
1.0
 40
1.0
 10
183.3638805148843
 20
116.3089383761435
 30
0.0
 10
183.3866537168756
 20
116.3128779935518
 30
0.0
 10
183.4324926285372
 20
116.3208078303147
 30
0.0
 10
183.4922149159433
 20
116.3603686363183
 30
0.0
 10
183.5361661534524
 20
116.4156579714431
 30
0.0
 10
183.5590956577914
 20
116.4819440344908
 30
0.0
 10
183.5588613270894
 20
116.5511463536368
 30
0.0
 10
183.5357483053961
 20
116.6159575683127
 30
0.0
 10
183.4922926447293
 20
116.6692139172007
 30
0.0
 10
183.4504192673343
 20
116.6948696747834
 30
0.0
 10
183.42636357325
 20
116.7035856124162
 30
0.0
 10
183.423663973594
 20
116.7045637401789
 30
0.0
  0
SPLINE
  5
68
330
1F
100
AcDbEntity
  8
0
  6
Continuous
 62
     7
370
    15
100
AcDbSpline
210
0.0
220
0.0
230
1.0
 70
     8
 71
     3
 72
    12
 73
     8
 74
     0
 42
0.00000001
 43
0.00000001
 40
0.0
 40
0.0
 40
0.0
 40
0.0
 40
0.2093684939450867
 40
0.4192642942729883
 40
0.6249545138492818
 40
0.8281733993488531
 40
1.0
 40
1.0
 40
1.0
 40
1.0
 10
183.423663973594
 20
116.7045637401789
 30
0.0
 10
183.3890352074262
 20
116.7241530674059
 30
0.0
 10
183.3196904605862
 20
116.7633810586875
 30
0.0
 10
183.2481850683056
 20
116.8623526742585
 30
0.0
 10
183.2128267312034
 20
116.9769328242248
 30
0.0
 10
183.2148150281808
 20
117.0916179205203
 30
0.0
 10
183.2418511889857
 20
117.1588967122159
 30
0.0
 10
183.25423777082
 20
117.1897204029411
 30
0.0
  0
SPLINE
  5
69
330
1F
100
AcDbEntity
  8
0
  6
Continuous
 62
     7
370
    15
100
AcDbSpline
210
0.0
220
0.0
230
1.0
 70
     8
 71
     3
 72
    16
 73
    12
 74
     0
 42
0.00000001
 43
0.00000001
 40
0.0
 40
0.0
 40
0.0
 40
0.0
 40
0.1243659713085421
 40
0.2491439287936955
 40
0.3728811028860035
 40
0.4954337209468175
 40
0.6173347397096834
 40
0.7392449322157841
 40
0.8618076158688912
 40
0.9855389416248422
 40
1.0
 40
1.0
 40
1.0
 40
1.0
 10
183.25423777082
 20
117.1897204029411
 30
0.0
 10
183.2626156716296
 20
117.2116940018656
 30
0.0
 10
183.2793992266552
 20
117.2557139914832
 30
0.0
 10
183.2753229577386
 20
117.3275097406284
 30
0.0
 10
183.2493575840688
 20
117.3931349574845
 30
0.0
 10
183.2029918502141
 20
117.4459334192785
 30
0.0
 10
183.1422005587009
 20
117.4800353819023
 30
0.0
 10
183.0735329262528
 20
117.4920474670363
 30
0.0
 10
183.0045393859156
 20
117.4806384254523
 30
0.0
 10
182.9607301985773
 20
117.4569893426646
 30
0.0
 10
182.9408393069199
 20
117.4405377017074
 30
0.0
 10
182.9387578366045
 20
117.4388161296993
 30
0.0
  0
SPLINE
  5
6A
330
1F
100
AcDbEntity
  8
0
  6
Continuous
 62
     7
370
    15
100
AcDbSpline
210
0.0
220
0.0
230
1.0
 70
     8
 71
     3
 72
    12
 73
     8
 74
     0
 42
0.00000001
 43
0.00000001
 40
0.0
 40
0.0
 40
0.0
 40
0.0
 40
0.2092330744008269
 40
0.4191328652550167
 40
0.624835319813112
 40
0.8280478274844344
 40
1.0
 40
1.0
 40
1.0
 40
1.0
 10
182.9387578366045
 20
117.4388161296993
 30
0.0
 10
182.9037541954791
 20
117.4185004174478
 30
0.0
 10
182.8336353749186
 20
117.3778042573877
 30
0.0
 10
182.710621442756
 20
117.36526840599
 30
0.0
 10
182.5931358199369
 20
117.3922386521552
 30
0.0
 10
182.4951530228811
 20
117.4519295838057
 30
0.0
 10
182.4511017346486
 20
117.5094858022267
 30
0.0
 10
182.4309113619569
 20
117.535865995571
 30
0.0
  0
LINE
  5
6B
330
1F
100
AcDbEntity
  8
0
  6
Continuous
 62
     7
370
    15
100
AcDbLine
 10
183.025460243
 20
115.8826291929
 30
0.0
 11
183.025460243
 21
115.9206248256
 31
0.0
  0
ARC
  5
6C
330
1F
100
AcDbEntity
  8
0
  6
Continuous
 62
     7
370
    15
100
AcDbCircle
 10
181.5096236104
 20
116.174959286
 30
0.0
 40
0.3556918312581924
100
AcDbArc
 50
333.1148627309
 51
359.9908791786
  0
ARC
  5
6D
330
1F
100
AcDbEntity
  8
0
  6
Continuous
 62
     7
370
    15
100
AcDbCircle
 10
183.3531996289
 20
116.4059548188
 30
0.0
 40
0.2049748586784583
100
AcDbArc
 50
15.2970440356
 51
69.8932289922
  0
LINE
  5
6E
330
1F
100
AcDbEntity
  8
0
  6
Continuous
 62
     7
370
    15
100
AcDbLine
 10
183.4236639736
 20
116.5984372045
 30
0.0
 11
183.4236639736
 21
116.7045637402
 31
0.0
  0
ARC
  5
6F
330
1F
100
AcDbEntity
  8
0
  6
Continuous
 62
     7
370
    15
100
AcDbCircle
 10
182.5451718175
 20
116.5557314679
 30
0.0
 40
1.695395635066661
100
AcDbArc
 50
259.8141306618
 51
359.7640840648
  0
ARC
  5
70
330
1F
100
AcDbEntity
  8
0
  6
Continuous
 62
     7
370
    15
100
AcDbCircle
 10
182.5313662174
 20
116.5535085012
 30
0.0
 40
1.69081778029317
100
AcDbArc
 50
180.1612258096
 51
260.2612632505
  0
ARC
  5
71
330
1F
100
AcDbEntity
  8
0
  6
Continuous
 62
     7
370
    15
100
AcDbCircle
 10
181.7284314206
 20
116.689619863
 30
0.0
 40
0.2055819241809905
100
AcDbArc
 50
93.1240307103
 51
164.6055187273
  0
ARC
  5
72
330
1F
100
AcDbEntity
  8
0
  6
Continuous
 62
     7
370
    15
100
AcDbCircle
 10
183.5734264604
 20
116.9232039163
 30
0.0
 40
0.3576341979623031
100
AcDbArc
 50
180.096998519
 51
245.2437464874
  0
ARC
  5
73
330
1F
100
AcDbEntity
  8
0
  6
Continuous
 62
     7
370
    15
100
AcDbCircle
 10
181.6980977481
 20
117.2532792797
 30
0.0
 40
0.3588932084391943
100
AcDbArc
 50
273.0554632897
 51
359.8143967036
  0
ARC
  5
74
330
1F
100
AcDbEntity
  8
0
  6
Continuous
 62
     7
370
    15
100
AcDbCircle
 10
183.0701501827
 20
117.1734419405
 30
0.0
 40
0.2064552342332871
100
AcDbArc
 50
16.6307693956
 51
129.5254210565
  0
LINE
  5
75
330
1F
100
AcDbEntity
  8
0
  6
Continuous
 62
     7
370
    15
100
AcDbLine
 10
182.9387578366
 20
117.332689594
 30
0.0
 11
182.9387578366
 21
117.4388161297
 31
0.0
  0
ARC
  5
76
330
1F
100
AcDbEntity
  8
0
  6
Continuous
 62
     7
370
    15
100
AcDbCircle
 10
182.2587923
 20
117.3152973244
 30
0.0
 40
0.2065785418209534
100
AcDbArc
 50
33.5722204878
 51
158.4062906112
  0
ARC
  5
77
330
1F
100
AcDbEntity
  8
0
  6
Continuous
 62
     7
370
    15
100
AcDbCircle
 10
182.7323229525
 20
117.6301406599
 30
0.0
 40
0.3620669799762835
100
AcDbArc
 50
213.6462077195
 51
304.7611477908
  0
LINE
  5
78
330
1F
100
AcDbEntity
  8
0
  6
Continuous
 62
     7
370
    15
100
AcDbLine
 10
179.9019607899
 20
113.0641734479
 30
0.0
 11
185.4519653318
 21
114.0354937078
 31
0.0
  0
LINE
  5
79
330
1F
100
AcDbEntity
  8
0
  6
Continuous
 62
     7
370
    15
100
AcDbLine
 10
179.8325064776
 20
113.4270157334
 30
0.0
 11
179.9019607899
 21
113.0641734479
 31
0.0
  0
LINE
  5
7A
330
1F
100
AcDbEntity
  8
0
  6
Continuous
 62
     7
370
    15
100
AcDbLine
 10
179.9196484683
 20
113.5239605927
 30
0.0
 11
179.8325064776
 21
113.4270157334
 31
0.0
  0
SPLINE
  5
7B
330
1F
100
AcDbEntity
  8
0
  6
Continuous
 62
     7
370
    15
100
AcDbSpline
210
0.0
220
0.0
230
1.0
 70
     8
 71
     3
 72
    11
 73
     7
 74
     0
 42
0.00000001
 43
0.00000001
 40
0.0
 40
0.0
 40
0.0
 40
0.0
 40
0.0074530078304119
 40
0.306612257041269
 40
0.6526540545599494
 40
1.0
 40
1.0
 40
1.0
 40
1.0
 10
180.3619000313524
 20
114.0564292571544
 30
0.0
 10
180.3609146200172
 20
114.0551549180685
 30
0.0
 10
180.3203753906918
 20
114.0027293749509
 30
0.0
 10
180.2281521333541
 20
113.8863001570154
 30
0.0
 10
180.0750616314366
 20
113.7002968546269
 30
0.0
 10
179.9715177723031
 20
113.5828130025848
 30
0.0
 10
179.9196484682802
 20
113.5239605926946
 30
0.0
  0
LINE
  5
7C
330
1F
100
AcDbEntity
  8
0
  6
Continuous
 62
     7
370
    15
100
AcDbLine
 10
179.8325064776
 20
113.4270157334
 30
0.0
 11
179.4325071571
 21
113.4551603016
 31
0.0
  0
LINE
  5
7D
330
1F
100
AcDbEntity
  8
0
  6
Continuous
 62
     7
370
    15
100
AcDbLine
 10
179.4325071571
 20
119.0487711127
 30
0.0
 11
179.4325071571
 21
113.4551603016
 31
0.0
  0
SPLINE
  5
7E
330
1F
100
AcDbEntity
  8
0
  6
Continuous
 62
     7
370
    15
100
AcDbSpline
210
0.0
220
0.0
230
1.0
 70
     8
 71
     3
 72
    12
 73
     8
 74
     0
 42
0.00000001
 43
0.00000001
 40
0.0
 40
0.0
 40
0.0
 40
0.0
 40
0.0481943459980227
 40
0.4227735405064916
 40
0.566125616962918
 40
0.9912438790469035
 40
1.0
 40
1.0
 40
1.0
 40
1.0
 10
185.406494438434
 20
114.3805604795962
 30
0.0
 10
185.3989120831774
 20
114.3865065115048
 30
0.0
 10
185.3323976589062
 20
114.4386666748999
 30
0.0
 10
185.2372335230946
 20
114.5166094960052
 30
0.0
 10
185.0833696522346
 20
114.6478699757366
 30
0.0
 10
184.9920294348757
 20
114.7293041414775
 30
0.0
 10
184.9301754138756
 20
114.7865199531617
 30
0.0
 10
184.9289271233324
 20
114.7876746389121
 30
0.0
  0
SPLINE
  5
7F
330
1F
100
AcDbEntity
  8
0
  6
Continuous
 62
     7
370
    15
100
AcDbSpline
210
0.0
220
0.0
230
1.0
 70
     8
 71
     3
 72
    10
 73
     6
 74
     0
 42
0.00000001
 43
0.00000001
 40
0.0
 40
0.0
 40
0.0
 40
0.0
 40
0.3658086978754811
 40
0.9379199379423804
 40
0.9999999999999999
 40
0.9999999999999999
 40
0.9999999999999999
 40
0.9999999999999999
 10
185.406494438434
 20
114.3805604795962
 30
0.0
 10
185.4076586498449
 20
114.3710806943661
 30
0.0
 10
185.410643644736
 20
114.3467748765265
 30
0.0
 10
185.4051693065994
 20
114.3214667031704
 30
0.0
 10
185.4009065459033
 20
114.3059106030159
 30
0.0
 10
185.4004892704729
 20
114.3043878390491
 30
0.0
  0
ARC
  5
80
330
1F
100
AcDbEntity
  8
0
  6
Continuous
 62
     7
370
    15
100
AcDbCircle
 10
179.8315854091
 20
113.4570018434
 30
0.0
 40
0.3990825008833371
100
AcDbArc
 50
180.2643887989
 51
280.1568182893
  0
ARC
  5
81
330
1F
100
AcDbEntity
  8
0
  6
Continuous
 62
     7
370
    15
100
AcDbCircle
 10
181.2302111928
 20
115.1157925032
 30
0.0
 40
0.9977160620212364
100
AcDbArc
 50
180.264949017
 51
280.1567996979
  0
SPLINE
  5
82
330
1F
100
AcDbEntity
  8
0
  6
Continuous
 62
     7
370
    15
100
AcDbSpline
210
0.0
220
0.0
230
1.0
 70
     8
 71
     3
 72
    10
 73
     6
 74
     0
 42
0.00000001
 43
0.00000001
 40
0.0
 40
0.0
 40
0.0
 40
0.0
 40
0.0620494157729998
 40
0.6342196059287561
 40
1.0
 40
1.0
 40
1.0
 40
1.0
 10
185.4860740897897
 20
114.4056233014017
 30
0.0
 10
185.4845288586391
 20
114.4048247195458
 30
0.0
 10
185.4687347390783
 20
114.396662253169
 30
0.0
 10
185.4428401358485
 20
114.384852587695
 30
0.0
 10
185.4166917442773
 20
114.381764691982
 30
0.0
 10
185.406494438434
 20
114.3805604795962
 30
0.0
  0
LINE
  5
83
330
1F
100
AcDbEntity
  8
0
  6
Continuous
 62
     7
370
    15
100
AcDbLine
 10
185.3825035689
 20
119.9919466297
 30
0.0
 11
185.7825028894
 21
120.0200911979
 31
0.0
  0
LINE
  5
84
330
1F
100
AcDbEntity
  8
0
  6
Continuous
 62
     7
370
    15
100
AcDbLine
 10
185.7825028894
 20
114.4264806197
 30
0.0
 11
185.7825028894
 21
120.0200911979
 31
0.0
  0
LINE
  5
85
330
1F
100
AcDbEntity
  8
0
  6
Continuous
 62
     7
370
    15
100
AcDbLine
 10
185.2953615783
 20
119.882739279
 30
0.0
 11
185.3825035689
 21
119.9919466297
 31
0.0
  0
ARC
  5
86
330
1F
100
AcDbEntity
  8
0
  6
Continuous
 62
     7
370
    15
100
AcDbCircle
 10
183.9878121878
 20
115.5953443863
 30
0.0
 40
0.994696231701142
100
AcDbArc
 50
279.7435361514
 51
359.8340725974
  0
ARC
  5
87
330
1F
100
AcDbEntity
  8
0
  6
Continuous
 62
     7
370
    15
100
AcDbCircle
 10
185.3846264756
 20
114.4276320058
 30
0.0
 40
0.3978780797610977
100
AcDbArc
 50
279.7439218383
 51
359.834196304
  0
LINE
  5
88
330
1F
100
AcDbEntity
  8
0
  6
Continuous
 62
     7
370
    15
100
AcDbLine
 10
181.4061510561
 20
114.1337118014
 30
0.0
 11
184.1561529038
 21
114.6149964905
 31
0.0
  0
LINE
  5
89
330
1F
100
AcDbEntity
  8
0
  6
Continuous
 62
     7
370
    15
100
AcDbLine
 10
183.8088589905
 20
119.3415398146
 30
0.0
 11
181.0588571427
 21
118.8602551254
 31
0.0
  0
ARC
  5
8A
330
1F
100
AcDbEntity
  8
0
  6
Continuous
 62
     7
370
    15
100
AcDbCircle
 10
183.9847968807
 20
118.3594567449
 30
0.0
 40
0.997718044840647
100
AcDbArc
 50
0.2650710986
 51
100.1566641937
  0
LINE
  5
8B
330
1F
100
AcDbEntity
  8
0
  6
Continuous
 62
     7
370
    15
100
AcDbLine
 10
184.9825042484
 20
115.5924637704
 30
0.0
 11
184.9825042484
 21
118.3640725347
 31
0.0
  0
LINE
  5
8C
330
1F
100
AcDbEntity
  8
0
  6
Continuous
 62
     7
370
    15
100
AcDbLine
 10
180.2325057981
 20
117.8827878456
 30
0.0
 11
180.2325057981
 21
115.1111788484
 31
0.0
  0
ARC
  5
8D
330
1F
100
AcDbEntity
  8
0
  6
Continuous
 62
     7
370
    15
100
AcDbCircle
 10
181.2271978587
 20
117.8799072297
 30
0.0
 40
0.994696231701128
100
AcDbArc
 50
99.7435361514
 51
179.8340725974
  0
CIRCLE
  5
8E
330
1F
100
AcDbEntity
  8
0
  6
Continuous
 62
     7
370
    15
100
AcDbCircle
 10
182.5975831027
 20
116.735484405
 30
0.0
 40
1.915078334778106
  0
ARC
  5
8F
330
1F
100
AcDbEntity
  8
0
  6
Continuous
 62
     7
370
    15
100
AcDbCircle
 10
182.6075050233
 20
116.6353632266
 30
0.0
 40
1.925278737245306
100
AcDbArc
 50
1.6834983559
 51
178.3165016441
  0
SPLINE
  5
90
330
1F
100
AcDbEntity
  8
0
  6
Continuous
 62
     7
370
    15
100
AcDbSpline
210
0.0
220
0.0
230
1.0
 70
     8
 71
     3
 72
    12
 73
     8
 74
     0
 42
0.00000001
 43
0.00000001
 40
0.0
 40
0.0
 40
0.0
 40
0.0
 40
0.0087560766925869
 40
0.433882799794909
 40
0.5772353810782225
 40
0.951805744967581
 40
1.0
 40
1.0
 40
1.0
 40
1.0
 10
180.2860829231981
 20
118.6544416840225
 30
0.0
 10
180.2848346329646
 20
118.6553679959867
 30
0.0
 10
180.2229791147381
 20
118.7012687849609
 30
0.0
 10
180.1316337869052
 20
118.7718888002515
 30
0.0
 10
179.9777705516853
 20
118.8969288010869
 30
0.0
 10
179.8826112230731
 20
118.977513372723
 30
0.0
 10
179.8160979749706
 20
119.0361269626931
 30
0.0
 10
179.8085156080965
 20
119.0428087855726
 30
0.0
  0
SPLINE
  5
91
330
1F
100
AcDbEntity
  8
0
  6
Continuous
 62
     7
370
    15
100
AcDbSpline
210
0.0
220
0.0
230
1.0
 70
     8
 71
     3
 72
    10
 73
     6
 74
     0
 42
0.00000001
 43
0.00000001
 40
0.0
 40
0.0
 40
0.0
 40
0.0
 40
0.0620493154279273
 40
0.6342196899753176
 40
0.9999999999999999
 40
0.9999999999999999
 40
0.9999999999999999
 40
0.9999999999999999
 10
179.7289359567407
 20
119.0279136779755
 30
0.0
 10
179.7304811880855
 20
119.0284954145608
 30
0.0
 10
179.7462753372666
 20
119.0344414720507
 30
0.0
 10
179.7721698912553
 20
119.0427575821727
 30
0.0
 10
179.7983182992733
 20
119.0427944197291
 30
0.0
 10
179.8085156080965
 20
119.0428087855726
 30
0.0
  0
SPLINE
  5
92
330
1F
100
AcDbEntity
  8
0
  6
Continuous
 62
     7
370
    15
100
AcDbSpline
210
0.0
220
0.0
230
1.0
 70
     8
 71
     3
 72
    11
 73
     7
 74
     0
 42
0.00000001
 43
0.00000001
 40
0.0
 40
0.0
 40
0.0
 40
0.0
 40
0.3473459791872924
 40
0.693393886276249
 40
0.9925468780302695
 40
1.0
 40
1.0
 40
1.0
 40
1.0
 10
185.2953615782503
 20
119.8827392789572
 30
0.0
 10
185.2434930283476
 20
119.8188820209883
 30
0.0
 10
185.1399497673123
 20
119.6914061470092
 30
0.0
 10
184.9868485047773
 20
119.5151732871785
 30
0.0
 10
184.8946332478268
 20
119.4135856111465
 30
0.0
 10
184.8540954271078
 20
119.3700065800589
 30
0.0
 10
184.8531100151781
 20
119.3689472409934
 30
0.0
  0
SPLINE
  5
93
330
1F
100
AcDbEntity
  8
0
  6
Continuous
 62
     7
370
    15
100
AcDbSpline
210
0.0
220
0.0
230
1.0
 70
     8
 71
     3
 72
    10
 73
     6
 74
     0
 42
0.00000001
 43
0.00000001
 40
0.0
 40
0.0
 40
0.0
 40
0.0
 40
0.3658083465283354
 40
0.9379226442743481
 40
1.0
 40
1.0
 40
1.0
 40
1.0
 10
179.8085156080965
 20
119.0428087855726
 30
0.0
 10
179.807347845863
 20
119.0534781964581
 30
0.0
 10
179.8043537352794
 20
119.0808342755786
 30
0.0
 10
179.809840847404
 20
119.1096381473224
 30
0.0
 10
179.8141035269887
 20
119.1274093838595
 30
0.0
 10
179.8145207760576
 20
119.1291489074975
 30
0.0
  0
LINE
  5
94
330
1F
100
AcDbEntity
  8
0
  6
Continuous
 62
     7
370
    15
100
AcDbLine
 10
185.313041806
 20
120.4110776442
 30
0.0
 11
179.7630447147
 21
119.4397580246
 31
0.0
  0
LINE
  5
95
330
1F
100
AcDbEntity
  8
0
  6
Continuous
 62
     7
370
    15
100
AcDbLine
 10
185.3825035689
 20
119.9919466297
 30
0.0
 11
185.313041806
 21
120.4110776442
 31
0.0
  0
ARC
  5
96
330
1F
100
AcDbEntity
  8
0
  6
Continuous
 62
     7
370
    15
100
AcDbCircle
 10
179.8303738052
 20
119.0476279824
 30
0.0
 40
0.3978682903167262
100
AcDbArc
 50
99.7427370156
 51
179.8353811267
  0
ARC
  5
97
330
1F
100
AcDbEntity
  8
0
  6
Continuous
 62
     7
370
    15
100
AcDbCircle
 10
185.3834184699
 20
120.0182431826
 30
0.0
 40
0.3990886982591945
100
AcDbArc
 50
0.2653141004
 51
100.1568460303
  0
LINE
  5
98
330
1F
100
AcDbEntity
  8
0
  6
Continuous
 62
     7
370
    15
100
AcDbLine
 10
127.9914113877
 20
104.5421093139
 30
0.0
 11
127.9914113877
 21
120.5421100738
 31
0.0
  0
LINE
  5
99
330
1F
100
AcDbEntity
  8
0
  6
Continuous
 62
     7
370
    15
100
AcDbLine
 10
92.1575040741
 20
104.5421093139
 30
0.0
 11
92.1575040741
 21
118.7421098719
 31
0.0
  0
LINE
  5
9A
330
1F
100
AcDbEntity
  8
0
  6
Continuous
 62
     7
370
    15
100
AcDbLine
 10
100.282503776
 20
118.7421098719
 30
0.0
 11
92.1575040741
 21
118.7421098719
 31
0.0
  0
LWPOLYLINE
  5
9B
330
1F
100
AcDbEntity
  8
0
  6
Continuous
 62
     7
370
    15
100
AcDbPolyline
 90
        8
 70
   128
 43
0.0
 10
102.0825044436
 20
120.5421100738
 10
102.0443332566
 20
120.5039388868
 10
101.9301847739
 20
120.3897894728
 10
101.7411467803
 20
120.2007528762
 10
101.4790251104
 20
119.9386307406
 10
101.1463203652
 20
119.6059259954
 10
100.7462074233
 20
119.2058130535
 10
100.282503776
 20
118.7421098719
  0
LWPOLYLINE
  5
9C
330
1F
100
AcDbEntity
  8
0
  6
Continuous
 62
     7
370
    15
100
AcDbPolyline
 90
        8
 70
   128
 43
0.0
 10
106.7825048415
 20
118.7421098719
 10
106.3188011942
 20
119.2058130535
 10
105.918687321
 20
119.6059259954
 10
105.5859825758
 20
119.9386307406
 10
105.3238609059
 20
120.2007528762
 10
105.1348238436
 20
120.3897894728
 10
105.0206753609
 20
120.5039388868
 10
104.9825041739
 20
120.5421100738
  0
LINE
  5
9D
330
1F
100
AcDbEntity
  8
0
  6
Continuous
 62
     7
370
    15
100
AcDbLine
 10
114.7825042901
 20
118.7421098719
 30
0.0
 11
106.7825048415
 21
118.7421098719
 31
0.0
  0
LWPOLYLINE
  5
9E
330
1F
100
AcDbEntity
  8
0
  6
Continuous
 62
     7
370
    15
100
AcDbPolyline
 90
        8
 70
   128
 43
0.0
 10
116.5825049577
 20
120.5421100738
 10
116.5443337707
 20
120.5039388868
 10
116.4301834253
 20
120.3897894728
 10
116.2411472944
 20
120.2007528762
 10
115.9790246932
 20
119.9386307406
 10
115.6463208792
 20
119.6059259954
 10
115.2462079374
 20
119.2058130535
 10
114.7825042901
 20
118.7421098719
  0
LINE
  5
9F
330
1F
100
AcDbEntity
  8
0
  6
Continuous
 62
     7
370
    15
100
AcDbLine
 10
90.7825040815
 20
105.9171097721
 30
0.0
 11
90.7825040815
 21
118.7421098719
 31
0.0
  0
SPLINE
  5
A0
330
1F
100
AcDbEntity
  8
0
  6
Continuous
 62
     7
370
    15
100
AcDbSpline
210
0.0
220
0.0
230
1.0
 70
    24
 71
     3
 72
    10
 73
     6
 74
     0
 42
0.00000001
 43
0.00000001
 40
0.0
 40
0.0
 40
0.0
 40
0.0
 40
0.4999999999999998
 40
0.4999999999999998
 40
1.0
 40
1.0
 40
1.0
 40
1.0
 10
92.15750408151183
 20
118.7421096938699
 30
0.0
 10
91.88526389419462
 20
118.7421096938699
 30
0.0
 10
91.62689978600662
 20
118.7421096938699
 30
0.0
 10
91.16083376819124
 20
118.7421096938699
 30
0.0
 10
90.95224326506354
 20
118.7421096938699
 30
0.0
 10
90.78250408151182
 20
118.7421096938699
 30
0.0
  0
ELLIPSE
  5
A1
330
1F
100
AcDbEntity
  8
0
  6
Continuous
 62
     7
370
    15
100
AcDbEllipse
 10
182.8138330967
 20
110.2468340168
 30
0.0
 11
7.200832382850393
 21
4.112772023008233
 31
0.0
210
0.0
220
0.0
230
1.0
 40
0.0157159897
 41
1.661367650193624
 42
2.438974592252891
  0
SPLINE
  5
A2
330
1F
100
AcDbEntity
  8
0
  6
Continuous
 62
     7
370
    15
100
AcDbSpline
210
0.0
220
0.0
230
1.0
 70
     8
 71
     3
 72
     8
 73
     4
 74
     0
 42
0.00000001
 43
0.00000001
 40
0.0
 40
0.0
 40
0.0
 40
0.0
 40
1.0
 40
1.0
 40
1.0
 40
1.0
 10
177.2767273805327
 20
107.1812911660087
 30
0.0
 10
177.1885627687847
 20
107.2163091037707
 30
0.0
 10
177.1006598919681
 20
107.2491206780408
 30
0.0
 10
177.0131153615075
 20
107.2799687434774
 30
0.0
  0
SPLINE
  5
A3
330
1F
100
AcDbEntity
  8
0
  6
Continuous
 62
     7
370
    15
100
AcDbSpline
210
0.0
220
0.0
230
1.0
 70
     8
 71
     3
 72
    50
 73
    46
 74
     0
 42
0.00000001
 43
0.00000001
 40
0.0
 40
0.0
 40
0.0
 40
0.0
 40
0.1250000000000006
 40
0.1250000000000006
 40
0.1875000000000009
 40
0.1875000000000009
 40
0.2500000000000012
 40
0.2500000000000012
 40
0.3750000000000007
 40
0.3750000000000007
 40
0.4374999999999998
 40
0.4374999999999998
 40
0.4999999999999991
 40
0.4999999999999991
 40
0.5624999999999982
 40
0.5624999999999982
 40
0.5937499999999974
 40
0.5937499999999974
 40
0.6093749999999974
 40
0.6093749999999974
 40
0.6249999999999973
 40
0.6249999999999973
 40
0.6406249999999973
 40
0.6406249999999973
 40
0.6562499999999973
 40
0.6562499999999973
 40
0.6718749999999973
 40
0.6718749999999973
 40
0.6874999999999972
 40
0.6874999999999972
 40
0.7031249999999972
 40
0.7031249999999972
 40
0.7187499999999972
 40
0.7187499999999972
 40
0.749999999999997
 40
0.749999999999997
 40
0.7812499999999968
 40
0.7812499999999968
 40
0.8124999999999967
 40
0.8124999999999967
 40
0.8749999999999978
 40
0.8749999999999978
 40
0.9374999999999989
 40
0.9374999999999989
 40
1.0
 40
1.0
 40
1.0
 40
1.0
 10
177.0131153615075
 20
107.2799687434773
 30
0.0
 10
176.0411615813456
 20
107.6224560885356
 30
0.0
 10
175.1294301004144
 20
108.0672853144235
 30
0.0
 10
173.8049256244936
 20
108.8857749142352
 30
0.0
 10
173.3704574349602
 20
109.1833929239178
 30
0.0
 10
172.5068629463517
 20
109.824343381798
 30
0.0
 10
172.0783467294327
 20
110.1674338936392
 30
0.0
 10
170.8199502910911
 20
111.229668580161
 30
0.0
 10
170.0049113010918
 20
111.9873924200603
 30
0.0
 10
168.7890201448774
 20
113.1734323958614
 30
0.0
 10
168.3912501138705
 20
113.571544426561
 30
0.0
 10
167.6188099693193
 20
114.3675661056204
 30
0.0
 10
167.2428529832526
 20
114.76628829479
 30
0.0
 10
166.5242045073066
 20
115.5721719033906
 30
0.0
 10
166.1884252585751
 20
115.9701905057634
 30
0.0
 10
165.7555906855028
 20
116.5659016546314
 30
0.0
 10
165.6251634367804
 20
116.7622026566477
 30
0.0
 10
165.4625259819344
 20
117.0502574639291
 30
0.0
 10
165.4137293091004
 20
117.1454016152892
 30
0.0
 10
165.3297193257351
 20
117.3341036263863
 30
0.0
 10
165.2946803121476
 20
117.4275609864745
 30
0.0
 10
165.2432142294663
 20
117.6078245667814
 30
0.0
 10
165.2264706464939
 20
117.6952590627591
 30
0.0
 10
165.2142808509938
 20
117.8646033844042
 30
0.0
 10
165.2191651536834
 20
117.946808308295
 30
0.0
 10
165.2524210471246
 20
118.0991920569289
 30
0.0
 10
165.2806146615006
 20
118.1702354244002
 30
0.0
 10
165.3607171700635
 20
118.3027345503239
 30
0.0
 10
165.4133219826406
 20
118.364621728511
 30
0.0
 10
165.5380245752588
 20
118.4755898975985
 30
0.0
 10
165.6101684249948
 20
118.5251954301257
 30
0.0
 10
165.7718249388557
 20
118.6148273727533
 30
0.0
 10
165.8617184470289
 20
118.654890037011
 30
0.0
 10
166.1466990028848
 20
118.760660213716
 30
0.0
 10
166.358953354276
 20
118.8136623190193
 30
0.0
 10
166.815350193323
 20
118.8989406167966
 30
0.0
 10
167.057553092932
 20
118.9305751235381
 30
0.0
 10
167.5530079479217
 20
118.9799890905865
 30
0.0
 10
167.807952678962
 20
118.9979445827261
 30
0.0
 10
168.5898237029817
 20
119.0396677630141
 30
0.0
 10
169.1351544528387
 20
119.0515992360361
 30
0.0
 10
170.227614508046
 20
119.0650190270444
 30
0.0
 10
170.7793489183236
 20
119.0663449196825
 30
0.0
 10
171.8920992742045
 20
119.0673963660209
 30
0.0
 10
172.4531478864449
 20
119.0670118625035
 30
0.0
 10
173.0187005037223
 20
119.0670118625035
 30
0.0
  0
SPLINE
  5
A4
330
1F
100
AcDbEntity
  8
0
  6
Continuous
 62
     7
370
    15
100
AcDbSpline
210
0.0
220
0.0
230
1.0
 70
     8
 71
     3
 72
    44
 73
    40
 74
     0
 42
0.00000001
 43
0.00000001
 40
0.0
 40
0.0
 40
0.0
 40
0.0
 40
0.1249999999999978
 40
0.1249999999999978
 40
0.1874999999999985
 40
0.1874999999999985
 40
0.2499999999999991
 40
0.2499999999999991
 40
0.3124999999999997
 40
0.3124999999999997
 40
0.3437500000000001
 40
0.3437500000000001
 40
0.3750000000000003
 40
0.3750000000000003
 40
0.4062500000000006
 40
0.4062500000000006
 40
0.4375000000000009
 40
0.4375000000000009
 40
0.5000000000000009
 40
0.5000000000000009
 40
0.5625000000000008
 40
0.5625000000000008
 40
0.5937500000000008
 40
0.5937500000000008
 40
0.6250000000000007
 40
0.6250000000000007
 40
0.6562500000000007
 40
0.6562500000000007
 40
0.6875000000000006
 40
0.6875000000000006
 40
0.7500000000000004
 40
0.7500000000000004
 40
0.8125000000000003
 40
0.8125000000000003
 40
0.8750000000000002
 40
0.8750000000000002
 40
0.9375000000000002
 40
0.9375000000000002
 40
1.0
 40
1.0
 40
1.0
 40
1.0
 10
176.011798438805
 20
116.0739139274208
 30
0.0
 10
175.5165874819292
 20
116.0349816499315
 30
0.0
 10
175.0335274894394
 20
115.9575450518592
 30
0.0
 10
174.325663065292
 20
115.798838203895
 30
0.0
 10
174.0926799590715
 20
115.7380011586218
 30
0.0
 10
173.6344744085066
 20
115.5946914983072
 30
0.0
 10
173.4094147787982
 20
115.512087878385
 30
0.0
 10
172.9882015681443
 20
115.3204210879502
 30
0.0
 10
172.7887974218333
 20
115.2107053275042
 30
0.0
 10
172.5227003657843
 20
115.0109724963874
 30
0.0
 10
172.441096175165
 20
114.9395175362426
 30
0.0
 10
172.2959512999824
 20
114.7830425694044
 30
0.0
 10
172.2324829782381
 20
114.6975669591989
 30
0.0
 10
172.134920071573
 20
114.5160407334238
 30
0.0
 10
172.0996208213485
 20
114.4181317875213
 30
0.0
 10
172.0660316761989
 20
114.2094649191057
 30
0.0
 10
172.0682081287258
 20
114.1011905828886
 30
0.0
 10
172.1362517489753
 20
113.7712275050059
 30
0.0
 10
172.2638952720864
 20
113.555546055963
 30
0.0
 10
172.6122522401421
 20
113.1956727202862
 30
0.0
 10
172.826024941264
 20
113.0547099965761
 30
0.0
 10
173.1603785481931
 20
112.9064666690516
 30
0.0
 10
173.2762826661581
 20
112.8667761251791
 30
0.0
 10
173.5063833273777
 20
112.8081695607631
 30
0.0
 10
173.621511340096
 20
112.7887244164818
 30
0.0
 10
173.8525151451275
 20
112.7675615246911
 30
0.0
 10
173.9690228759984
 20
112.7660064950327
 30
0.0
 10
174.1967761791922
 20
112.779262677551
 30
0.0
 10
174.3087712673954
 20
112.7939260174515
 30
0.0
 10
174.6406108628651
 20
112.8593772048795
 30
0.0
 10
174.8584400500051
 20
112.9326893906462
 30
0.0
 10
175.2726355414568
 20
113.121593398428
 30
0.0
 10
175.4704657582231
 20
113.237032511321
 30
0.0
 10
175.8532498268488
 20
113.5028319031887
 30
0.0
 10
176.0385786049047
 20
113.653938165643
 30
0.0
 10
176.3887330813415
 20
113.9785297783874
 30
0.0
 10
176.5551439409408
 20
114.1528642953525
 30
0.0
 10
176.8705428501255
 20
114.5256629183143
 30
0.0
 10
177.0200413336138
 20
114.7235626976171
 30
0.0
 10
177.1511436986552
 20
114.9345686675706
 30
0.0
  0
ELLIPSE
  5
A5
330
1F
100
AcDbEntity
  8
0
  6
Continuous
 62
     7
370
    15
100
AcDbEllipse
 10
186.5310277207
 20
112.5421096939
 30
0.0
 11
11.41453503595696
 21
6.524354107376255
 31
0.0
210
0.0
220
0.0
230
1.0
 40
0.0080429699
 41
3.155663119721539
 42
3.721777124853871
  0
LINE
  5
A6
330
1F
100
AcDbEntity
  8
0
  6
Continuous
 62
     7
370
    15
100
AcDbLine
 10
173.018697202
 20
119.0670119966
 30
0.0
 11
176.4334324
 21
119.0670119966
 31
0.0
  0
SPLINE
  5
A7
330
1F
100
AcDbEntity
  8
0
  6
Continuous
 62
     7
370
    15
100
AcDbSpline
210
0.0
220
0.0
230
1.0
 70
     8
 71
     3
 72
     8
 73
     4
 74
     0
 42
0.00000001
 43
0.00000001
 40
0.0
 40
0.0
 40
0.0
 40
0.0
 40
1.0
 40
1.0
 40
1.0
 40
1.0
 10
177.0131153615075
 20
107.0350643700479
 30
0.0
 10
177.1024366885446
 20
107.0846748676125
 30
0.0
 10
177.190190777285
 20
107.1333473559836
 30
0.0
 10
177.2767273805195
 20
107.1812911660167
 30
0.0
  0
ELLIPSE
  5
A8
330
1F
100
AcDbEntity
  8
0
  6
Continuous
 62
     7
370
    15
100
AcDbEllipse
 10
172.7525719586
 20
113.4889718902
 30
0.0
 11
4.551523630361914
 21
2.225501992944416
 31
0.0
210
0.0
220
0.0
230
1.0
 40
0.2942842698
 41
5.844385568917315
 42
6.923311697450114
  0
SPLINE
  5
A9
330
1F
100
AcDbEntity
  8
0
  6
Continuous
 62
     7
370
    15
100
AcDbSpline
210
0.0
220
0.0
230
1.0
 70
     8
 71
     3
 72
    14
 73
    10
 74
     0
 42
0.00000001
 43
0.00000001
 40
0.0
 40
0.0
 40
0.0
 40
0.0
 40
0.25
 40
0.25
 40
0.5
 40
0.5
 40
0.75
 40
0.75
 40
1.0
 40
1.0
 40
1.0
 40
1.0
 10
177.9563389611481
 20
118.7195254424151
 30
0.0
 10
177.8233667739969
 20
118.6962536254203
 30
0.0
 10
177.6903128626249
 20
118.6865645090391
 30
0.0
 10
177.4240481401882
 20
118.6932632646644
 30
0.0
 10
177.289338016329
 20
118.7100782610636
 30
0.0
 10
177.028446478932
 20
118.7696135510817
 30
0.0
 10
176.9023490838732
 20
118.8119178554864
 30
0.0
 10
176.6588361713364
 20
118.9215569127255
 30
0.0
 10
176.5413000408698
 20
118.989408870584
 30
0.0
 10
176.4334323826006
 20
119.0670118625029
 30
0.0
  0
LINE
  5
AA
330
1F
100
AcDbEntity
  8
0
  6
Continuous
 62
     7
370
    15
100
AcDbLine
 10
179.4325071571
 20
118.9778732504
 30
0.0
 11
177.9563385246
 21
118.7195252995
 31
0.0
  0
ARC
  5
AB
330
1F
100
AcDbEntity
  8
0
  6
Continuous
 62
     7
370
    15
100
AcDbCircle
 10
180.0417231174
 20
113.6756316086
 30
0.0
 40
0.9970113943557908
100
AcDbArc
 50
127.6648935306
 51
334.5064855144
  0
LINE
  5
AC
330
1F
100
AcDbEntity
  8
0
  6
Continuous
 62
     7
370
    15
100
AcDbLine
 10
185.5579498408
 20
114.0544181825
 30
0.0
 11
185.4689079521
 21
114.0388352932
 31
0.0
  0
LINE
  5
AD
330
1F
100
AcDbEntity
  8
0
  6
Continuous
 62
     7
370
    15
100
AcDbLine
 10
185.5579498408
 20
113.1077165618
 30
0.0
 11
185.5579498408
 21
114.0544181825
 31
0.0
  0
ELLIPSE
  5
AE
330
1F
100
AcDbEntity
  8
0
  6
Continuous
 62
     7
370
    15
100
AcDbEllipse
 10
183.5429275184
 20
113.1248663343
 30
0.0
 11
1.926027131246655
 21
-0.6012583205015147
 31
0.0
210
0.0
220
0.0
230
0.9999999999999998
 40
0.9849664716
 41
5.542891170773162
 42
6.581492398852382
  0
LINE
  5
AF
330
1F
100
AcDbEntity
  8
0
  6
Continuous
 62
     7
370
    15
100
AcDbLine
 10
182.0981609819
 20
109.9875482167
 30
0.0
 11
184.5653983948
 21
111.4013904142
 31
0.0
  0
ARC
  5
B0
330
1F
100
AcDbEntity
  8
0
  6
Continuous
 62
     7
370
    15
100
AcDbCircle
 10
180.0311616261
 20
113.3951248077
 30
0.0
 40
0.9907583639507166
100
AcDbArc
 50
127.1740736067
 51
171.7826048064
  0
LINE
  5
B1
330
1F
100
AcDbEntity
  8
0
  6
Continuous
 62
     7
370
    15
100
AcDbLine
 10
185.4854929445
 20
114.0428470816
 30
0.0
 11
185.5579498408
 21
114.0544181825
 31
0.0
  0
ARC
  5
B2
330
1F
100
AcDbEntity
  8
0
  6
HIDDEN
 62
     7
370
     0
100
AcDbCircle
 10
182.8221442425
 20
115.7814010802
 30
0.0
 40
0.2059922847253205
100
AcDbArc
 50
213.4125421084
 51
9.2459085397
  0
LINE
  5
B3
330
1F
100
AcDbEntity
  8
0
  6
HIDDEN
 62
     7
370
     0
100
AcDbLine
 10
183.025460243
 20
115.81449829
 30
0.0
 11
183.025460243
 21
115.8826291929
 31
0.0
  0
ARC
  5
B4
330
1F
100
AcDbEntity
  8
0
  6
HIDDEN
 62
     7
370
     0
100
AcDbCircle
 10
182.0108813847
 20
115.9227076238
 30
0.0
 40
0.2054633733042403
100
AcDbArc
 50
153.5843148714
 51
309.7818150998
  0
LINE
  5
B5
330
1F
100
AcDbEntity
  8
0
  6
HIDDEN
 62
     7
370
     0
100
AcDbLine
 10
182.1423503754
 20
115.7648117649
 30
0.0
 11
182.1423503754
 21
115.8709383006
 31
0.0
  0
ARC
  5
B6
330
1F
100
AcDbEntity
  8
0
  6
HIDDEN
 62
     7
370
     0
100
AcDbCircle
 10
183.382935004
 20
115.8443892308
 30
0.0
 40
0.3587222785317473
100
AcDbArc
 50
93.0448508966
 51
184.7797779395
  0
LINE
  5
B7
330
1F
100
AcDbEntity
  8
0
  6
HIDDEN
 62
     7
370
     0
100
AcDbLine
 10
181.6574442384
 20
116.4990641545
 30
0.0
 11
181.6574442384
 21
116.6051906901
 31
0.0
  0
ARC
  5
B8
330
1F
100
AcDbEntity
  8
0
  6
HIDDEN
 62
     7
370
     0
100
AcDbCircle
 10
181.5076817525
 20
116.1742974437
 30
0.0
 40
0.3576341966911818
100
AcDbArc
 50
0.0969610584
 51
65.2437465479
  0
ARC
  5
B9
330
1F
100
AcDbEntity
  8
0
  6
HIDDEN
 62
     7
370
     0
100
AcDbCircle
 10
183.353275224
 20
116.4069671849
 30
0.0
 40
0.204637091775136
100
AcDbArc
 50
272.9706771898
 51
15.029219746
  0
ARC
  5
BA
330
1F
100
AcDbEntity
  8
0
  6
HIDDEN
 62
     7
370
     0
100
AcDbCircle
 10
182.540554106
 20
116.5397168763
 30
0.0
 40
1.700022977468625
100
AcDbArc
 50
0.304467197
 51
179.695532803
  0
ARC
  5
BB
330
1F
100
AcDbEntity
  8
0
  6
HIDDEN
 62
     7
370
     0
100
AcDbCircle
 10
181.7271845433
 20
116.6908355791
 30
0.0
 40
0.2040587891212768
100
AcDbArc
 50
164.841683313
 51
250.0155104146
  0
ARC
  5
BC
330
1F
100
AcDbEntity
  8
0
  6
HIDDEN
 62
     7
370
     0
100
AcDbCircle
 10
183.5714846005
 20
116.9225420733
 30
0.0
 40
0.3556918300315276
100
AcDbArc
 50
153.1148626969
 51
179.9909167426
  0
LINE
  5
BD
330
1F
100
AcDbEntity
  8
0
  6
HIDDEN
 62
     7
370
     0
100
AcDbLine
 10
182.055647969
 20
117.283003069
 30
0.0
 11
182.055647969
 21
117.3891296047
 31
0.0
  0
LINE
  5
BE
330
1F
100
AcDbEntity
  8
0
  6
HIDDEN
 62
     7
370
     0
100
AcDbLine
 10
182.0569890735
 20
117.2521166871
 30
0.0
 11
182.055647969
 21
117.283003069
 31
0.0
  0
ARC
  5
BF
330
1F
100
AcDbEntity
  8
0
  6
HIDDEN
 62
     7
370
     0
100
AcDbCircle
 10
183.0731629253
 20
117.1752620514
 30
0.0
 40
0.2030495108462132
100
AcDbArc
 50
333.0973764936
 51
16.3819686348
  0
LWPOLYLINE
  5
C0
330
1F
100
AcDbEntity
  8
0
  6
HIDDEN
 62
     7
370
     0
100
AcDbPolyline
 90
        3
 70
   128
 43
0.0
 10
182.055647969
 20
117.283003069
 10
182.0557895301
 20
117.3524112809
 10
182.0667120812
 20
117.3913228693
  0
ARC
  5
C1
330
1F
100
AcDbEntity
  8
0
  6
HIDDEN
 62
     7
370
     0
100
AcDbCircle
 10
182.3487852215
 20
115.4673604998
 30
0.0
 40
0.3620671219957754
100
AcDbArc
 50
33.6462306352
 51
124.7611248751
  0
ARC
  5
C2
330
1F
100
AcDbEntity
  8
0
  6
HIDDEN
 62
     7
370
     0
100
AcDbCircle
 10
182.5453558154
 20
116.4024353829
 30
0.0
 40
1.24174227209172
100
AcDbArc
 50
259.7078221149
 51
99.234850054
  0
ARC
  5
C3
330
1F
100
AcDbEntity
  8
0
  6
HIDDEN
 62
     7
370
     0
100
AcDbCircle
 10
182.5309639296
 20
116.4020478362
 30
0.0
 40
1.238869732742976
100
AcDbArc
 50
111.0660902589
 51
260.359526032
  0
CIRCLE
  5
C4
330
1F
100
AcDbEntity
  8
0
  6
HIDDEN
 62
     7
370
     0
100
AcDbCircle
 10
182.5370782996
 20
115.9920347441
 30
0.0
 40
1.247187912236145
  0
CIRCLE
  5
C5
330
1F
100
AcDbEntity
  8
0
  6
HIDDEN
 62
     7
370
     0
100
AcDbCircle
 10
182.5380391647
 20
115.9311393865
 30
0.0
 40
0.7728270977253007
  0
ARC
  5
C6
330
1F
100
AcDbEntity
  8
0
  6
HIDDEN
 62
     7
370
     0
100
AcDbCircle
 10
182.6075050233
 20
116.6563954025
 30
0.0
 40
1.924775660747551
100
AcDbArc
 50
178.9423193662
 51
1.0576806338
  0
ARC
  5
C7
330
1F
100
AcDbEntity
  8
0
  6
HIDDEN
 62
     7
370
     0
100
AcDbCircle
 10
182.6075050233
 20
116.4393364612
 30
0.0
 40
1.400025597288123
100
AcDbArc
 50
0.3372315033
 51
179.6627684967
  0
ARC
  5
C8
330
1F
100
AcDbEntity
  8
0
  6
HIDDEN
 62
     7
370
     0
100
AcDbCircle
 10
185.3827515471
 20
119.7295463266
 30
0.0
 40
0.1075258145804955
100
AcDbArc
 50
0.264349216
 51
100.1581275602
  0
LINE
  5
C9
330
1F
100
AcDbEntity
  8
0
  6
HIDDEN
 62
     7
370
     0
100
AcDbLine
 10
185.3637877105
 20
119.8353866483
 30
0.0
 11
179.8137906192
 21
118.8640660974
 31
0.0
  0
ARC
  5
CA
330
1F
100
AcDbEntity
  8
0
  6
HIDDEN
 62
     7
370
     0
100
AcDbCircle
 10
179.8319278682
 20
118.758417174
 30
0.0
 40
0.1071944719417226
100
AcDbArc
 50
99.741278461
 51
179.8371373932
  0
LINE
  5
CB
330
1F
100
AcDbEntity
  8
0
  6
HIDDEN
 62
     7
370
     0
100
AcDbLine
 10
185.4902762172
 20
114.1364314961
 30
0.0
 11
185.4902762172
 21
119.7300424236
 31
0.0
  0
ARC
  5
CC
330
1F
100
AcDbEntity
  8
0
  6
HIDDEN
 62
     7
370
     0
100
AcDbCircle
 10
185.3830821784
 20
114.1367361948
 30
0.0
 40
0.1071944719417379
100
AcDbArc
 50
279.7412784611
 51
359.8371373932
  0
LINE
  5
CD
330
1F
100
AcDbEntity
  8
0
  6
HIDDEN
 62
     7
370
     0
100
AcDbLine
 10
179.7247338293
 20
118.7587218727
 30
0.0
 11
179.7247338293
 21
113.1651112363
 31
0.0
  0
LINE
  5
CE
330
1F
100
AcDbEntity
  8
0
  6
HIDDEN
 62
     7
370
     0
100
AcDbLine
 10
179.8512223361
 20
113.0597669533
 30
0.0
 11
185.4012194274
 21
114.0310872714
 31
0.0
  0
ARC
  5
CF
330
1F
100
AcDbEntity
  8
0
  6
HIDDEN
 62
     7
370
     0
100
AcDbCircle
 10
179.8322579841
 20
113.165606656
 30
0.0
 40
0.1075252961283038
100
AcDbArc
 50
180.2639896069
 51
280.158456033
  0
ELLIPSE
  5
D0
330
1F
100
AcDbEntity
  8
0
  6
HIDDEN
 62
     7
370
     0
100
AcDbEllipse
 10
186.5310277207
 20
112.5421096939
 30
0.0
 11
11.41453503595696
 21
6.524354107376255
 31
0.0
210
0.0
220
0.0
230
1.0
 40
0.0080429699
 41
2.552213797429178
 42
3.155663119721539
  0
SPLINE
  5
D1
330
1F
100
AcDbEntity
  8
0
  6
HIDDEN
 62
     7
370
     0
100
AcDbSpline
210
0.0
220
0.0
230
1.0
 70
     8
 71
     3
 72
    16
 73
    12
 74
     0
 42
0.00000001
 43
0.00000001
 40
0.0
 40
0.0
 40
0.0
 40
0.0
 40
0.2500000000000002
 40
0.2500000000000002
 40
0.5000000000000004
 40
0.5000000000000004
 40
0.7500000000000009
 40
0.7500000000000009
 40
0.8750000000000003
 40
0.8750000000000003
 40
1.0
 40
1.0
 40
1.0
 40
1.0
 10
176.4334323825995
 20
119.0670118625038
 30
0.0
 10
176.4139410040082
 20
119.0648185105957
 30
0.0
 10
176.4103193648358
 20
119.0260798405222
 30
0.0
 10
176.4337189912081
 20
118.8768527245985
 30
0.0
 10
176.4613541440893
 20
118.7644728844924
 30
0.0
 10
176.5496786697918
 20
118.4766169457907
 30
0.0
 10
176.6099891075326
 20
118.3010622716763
 30
0.0
 10
176.7331556056218
 20
117.9922304196059
 30
0.0
 10
176.7799145565307
 20
117.8813581627623
 30
0.0
 10
176.885817469012
 20
117.6490159934674
 30
0.0
 10
176.9450269166424
 20
117.5271116691835
 30
0.0
 10
177.0131153615074
 20
117.4003721604994
 30
0.0
  0
SPLINE
  5
D2
330
1F
100
AcDbEntity
  8
0
  6
HIDDEN
 62
     7
370
     0
100
AcDbSpline
210
0.0
220
0.0
230
1.0
 70
     8
 71
     3
 72
    14
 73
    10
 74
     0
 42
0.00000001
 43
0.00000001
 40
0.0
 40
0.0
 40
0.0
 40
0.0
 40
0.25
 40
0.25
 40
0.5
 40
0.5
 40
0.75
 40
0.75
 40
1.0
 40
1.0
 40
1.0
 40
1.0
 10
170.7825040815118
 20
114.0062968295662
 30
0.0
 10
170.8004968020428
 20
113.936823185846
 30
0.0
 10
170.817882041533
 20
113.8379758709381
 30
0.0
 10
170.8460006898119
 20
113.5897952345565
 30
0.0
 10
170.8560964805534
 20
113.445204011549
 30
0.0
 10
170.8622474411573
 20
113.1239681199239
 30
0.0
 10
170.8581043793114
 20
112.9529004728306
 30
0.0
 10
170.8322308450685
 20
112.5927260229265
 30
0.0
 10
170.8108287477977
 20
112.4093203462159
 30
0.0
 10
170.7825040815119
 20
112.2236348613626
 30
0.0
  0
SPLINE
  5
D3
330
1F
100
AcDbEntity
  8
0
  6
HIDDEN
 62
     7
370
     0
100
AcDbSpline
210
0.0
220
0.0
230
1.0
 70
     8
 71
     3
 72
    24
 73
    20
 74
     0
 42
0.00000001
 43
0.00000001
 40
0.0
 40
0.0
 40
0.0
 40
0.0
 40
0.0625000000000021
 40
0.0625000000000021
 40
0.1250000000000042
 40
0.1250000000000042
 40
0.2500000000000037
 40
0.2500000000000037
 40
0.3750000000000032
 40
0.3750000000000032
 40
0.5000000000000027
 40
0.5000000000000027
 40
0.625000000000002
 40
0.625000000000002
 40
0.7500000000000013
 40
0.7500000000000013
 40
0.8750000000000007
 40
0.8750000000000007
 40
1.0
 40
1.0
 40
1.0
 40
1.0
 10
169.9867730516321
 20
112.0521564068792
 30
0.0
 10
170.0367520371813
 20
112.098716554875
 30
0.0
 10
170.0813907212702
 20
112.1495028692759
 30
0.0
 10
170.1587347761656
 20
112.2609946356325
 30
0.0
 10
170.1917509788099
 20
112.3226610550893
 30
0.0
 10
170.2710267948684
 20
112.5149251080753
 30
0.0
 10
170.2993734797832
 20
112.6537705005299
 30
0.0
 10
170.3371479191293
 20
112.9245798757383
 30
0.0
 10
170.3470719495009
 20
113.0581859549529
 30
0.0
 10
170.3657670718615
 20
113.3089734893793
 30
0.0
 10
170.3741537053878
 20
113.4249388322779
 30
0.0
 10
170.3974253220076
 20
113.6345222251203
 30
0.0
 10
170.411727870867
 20
113.7242882746532
 30
0.0
 10
170.4509241761898
 20
113.8743967454809
 30
0.0
 10
170.4755291552008
 20
113.9328992607267
 30
0.0
 10
170.5371925535269
 20
114.0136415670638
 30
0.0
 10
170.5747990203765
 20
114.0362313210284
 30
0.0
 10
170.6646260835305
 20
114.0459217288452
 30
0.0
 10
170.7176763024316
 20
114.0332512673389
 30
0.0
 10
170.782504081512
 20
114.0062968295663
 30
0.0
  0
LWPOLYLINE
  5
D4
330
1F
100
AcDbEntity
  8
0
  6
HIDDEN
 62
     7
370
     0
100
AcDbPolyline
 90
       13
 70
   128
 43
0.0
 10
169.986772835
 20
112.0521564288
 10
170.1812776921
 20
111.7093218626
 10
170.3855577109
 20
111.4005086846
 10
170.5853301285
 20
111.1472977926
 10
170.7666400073
 20
110.9673846648
 10
170.9168139098
 20
110.8733425052
 10
171.0253614185
 20
110.8717431915
 10
171.0846903918
 20
110.9626984824
 10
171.0906657574
 20
111.1398521015
 10
171.0428553818
 20
111.3908238611
 10
170.9446045754
 20
111.6980748619
 10
170.8027902243
 20
112.0401331126
 10
170.6273066995
 20
112.3930941675
  0
SPLINE
  5
D5
330
1F
100
AcDbEntity
  8
0
  6
HIDDEN
 62
     7
370
     0
100
AcDbSpline
210
0.0
220
0.0
230
1.0
 70
     8
 71
     3
 72
     8
 73
     4
 74
     0
 42
0.00000001
 43
0.00000001
 40
0.0
 40
0.0
 40
0.0
 40
0.0
 40
1.0
 40
1.0
 40
1.0
 40
1.0
 10
170.7825040815118
 20
112.2236348613626
 30
0.0
 10
170.7360330275113
 20
112.2842677730783
 30
0.0
 10
170.6850053180854
 20
112.3414738922439
 30
0.0
 10
170.6273094042176
 20
112.3930941743746
 30
0.0
  0
LINE
  5
D6
330
1F
100
AcDbEntity
  8
0
  6
HIDDEN
 62
     7
370
     0
100
AcDbLine
 10
92.0815421452
 20
111.0421096808
 30
0.0
 11
92.0815421452
 21
114.0421097069
 31
0.0
  0
ELLIPSE
  5
D7
330
1F
100
AcDbEntity
  8
0
  6
HIDDEN
 62
     7
370
     0
100
AcDbEllipse
 10
170.1265996385
 20
112.5421096939
 30
0.0
 11
-0.843284474339356
 21
1.488793876297891
 31
0.0
210
0.0
220
0.0
230
1.0
 40
0.2170209118
 41
4.265340356121584
 42
4.490569515281256
  0
LINE
  5
D8
330
1F
100
AcDbEntity
  8
0
  6
HIDDEN
 62
     7
370
     0
100
AcDbLine
 10
170.7825022934
 20
112.0635204269
 30
0.0
 11
170.7825022934
 21
111.0963146337
 31
0.0
  0
LINE
  5
D9
330
1F
100
AcDbEntity
  8
0
  6
HIDDEN
 62
     7
370
     0
100
AcDbLine
 10
170.7825022934
 20
111.0421096808
 30
0.0
 11
170.7825022934
 21
111.0963146337
 31
0.0
  0
ELLIPSE
  5
DA
330
1F
100
AcDbEntity
  8
0
  6
HIDDEN
 62
     7
370
     0
100
AcDbEllipse
 10
170.1265996385
 20
112.5421096939
 30
0.0
 11
-0.843284474339356
 21
1.488793876297891
 31
0.0
210
0.0
220
0.0
230
1.0
 40
0.2170209118
 41
1.781226328314952
 42
2.749627846333512
  0
LINE
  5
DB
330
1F
100
AcDbEntity
  8
0
  6
HIDDEN
 62
     7
370
     0
100
AcDbLine
 10
170.7825022934
 20
114.0062968615
 30
0.0
 11
170.7825022934
 21
112.2236348591
 31
0.0
  0
SPLINE
  5
DC
330
1F
100
AcDbEntity
  8
0
  6
HIDDEN
 62
     7
370
     0
100
AcDbSpline
210
0.0
220
0.0
230
1.0
 70
     8
 71
     3
 72
    14
 73
    10
 74
     0
 42
0.00000001
 43
0.00000001
 40
0.0
 40
0.0
 40
0.0
 40
0.0
 40
0.2499999999999998
 40
0.2499999999999998
 40
0.4999999999999999
 40
0.4999999999999999
 40
0.7499999999999999
 40
0.7499999999999999
 40
1.0
 40
1.0
 40
1.0
 40
1.0
 10
170.7825040815118
 20
112.0635204148564
 30
0.0
 10
170.8214017880957
 20
111.930262629223
 30
0.0
 10
170.8522318694775
 20
111.8067286636355
 30
0.0
 10
170.8946087903268
 20
111.5829026121431
 30
0.0
 10
170.9059583582559
 20
111.4818074653217
 30
0.0
 10
170.9059652168222
 20
111.3158884075149
 30
0.0
 10
170.8950734707295
 20
111.2497129932365
 30
0.0
 10
170.8527097078546
 20
111.1490662548256
 30
0.0
 10
170.8214390618678
 20
111.1154672482207
 30
0.0
 10
170.7825040815118
 20
111.0963146659313
 30
0.0
  0
LINE
  5
DD
330
1F
100
AcDbEntity
  8
0
  6
HIDDEN
 62
     7
370
     0
100
AcDbLine
 10
179.4570642708
 20
118.9821708384
 30
0.0
 11
179.4325071571
 21
118.9778732504
 31
0.0
  0
LINE
  5
DE
330
1F
100
AcDbEntity
  8
0
  6
HIDDEN
 62
     7
370
     0
100
AcDbLine
 10
179.4570642708
 20
114.4829475223
 30
0.0
 11
179.4570642708
 21
118.9821708384
 31
0.0
  0
LINE
  5
DF
330
1F
100
AcDbEntity
  8
0
  6
HIDDEN
 62
     7
370
     0
100
AcDbLine
 10
179.4325071571
 20
114.4648639155
 30
0.0
 11
179.4570642708
 21
114.4829475223
 31
0.0
  0
LINE
  5
E0
330
1F
100
AcDbEntity
  8
0
  6
HIDDEN
 62
     7
370
     0
100
AcDbLine
 10
185.4689079521
 20
114.0388352932
 30
0.0
 11
180.9416595099
 21
113.2465090039
 31
0.0
  0
ELLIPSE
  5
E1
330
1F
100
AcDbEntity
  8
0
  6
HIDDEN
 62
     7
370
     0
100
AcDbEllipse
 10
180.0405544951
 20
113.0977388666
 30
0.0
 11
0.9999968134907815
 21
0.172391347952626
 31
0.0
210
0.0
220
0.0
230
1.0
 40
0.0146439008
 41
5.832169953744129
 42
5.931594972305272
  0
ELLIPSE
  5
E2
330
1F
100
AcDbEntity
  8
0
  6
HIDDEN
 62
     7
370
     0
100
AcDbEllipse
 10
180.0405544951
 20
113.0977388666
 30
0.0
 11
-0.8522273676245504
 21
1.365146943584079
 31
0.0
210
0.0
220
0.0
230
1.0
 40
0.3832346354
 41
5.786556005580747
 42
5.885981024141535
  0
LINE
  5
E3
330
1F
100
AcDbEntity
  8
0
  6
HIDDEN
 62
     7
370
     0
100
AcDbLine
 10
179.5405554769
 20
114.4535821066
 30
0.0
 11
179.5405554769
 21
114.2707781536
 31
0.0
  0
ARC
  5
E4
330
1F
100
AcDbEntity
  8
0
  6
HIDDEN
 62
     7
370
     0
100
AcDbCircle
 10
180.0414582413
 20
113.408372973
 30
0.0
 40
0.9973195449902172
100
AcDbArc
 50
340.2728946419
 51
120.1489058678
  0
LINE
  5
E5
330
1F
100
AcDbEntity
  8
0
  6
HIDDEN
 62
     7
370
     0
100
AcDbLine
 10
180.9802460668
 20
113.071737126
 30
0.0
 11
180.9802460668
 21
113.2545411373
 31
0.0
  0
ARC
  5
E6
330
1F
100
AcDbEntity
  8
0
  6
HIDDEN
 62
     7
370
     0
100
AcDbCircle
 10
180.0411377113
 20
113.3983237583
 30
0.0
 40
0.9942864730499446
100
AcDbArc
 50
269.9665071188
 51
127.7435281581
  0
ARC
  5
E7
330
1F
100
AcDbEntity
  8
0
  6
HIDDEN
 62
     7
370
     0
100
AcDbCircle
 10
180.0357662495
 20
113.3988224953
 30
0.0
 40
0.9947965735254225
100
AcDbArc
 50
172.0312947311
 51
270.2758972459
  0
LINE
  5
E8
330
1F
100
AcDbEntity
  8
0
  6
HIDDEN
 62
     7
370
     0
100
AcDbLine
 10
180.9802460668
 20
113.2545411373
 30
0.0
 11
185.4744511841
 21
114.0410842043
 31
0.0
  0
LINE
  5
E9
330
1F
100
AcDbEntity
  8
0
  6
HIDDEN
 62
     7
370
     0
100
AcDbLine
 10
185.4744511841
 20
114.0410842043
 30
0.0
 11
185.4854929445
 21
114.0428470816
 31
0.0
  0
ELLIPSE
  5
EA
330
1F
100
AcDbEntity
  8
0
  6
HIDDEN
 62
     7
370
     0
100
AcDbEllipse
 10
179.551326055
 20
111.3858793749
 30
0.0
 11
-0.09261395388338656
 21
7.596323900586328
 31
0.0
210
0.0
220
0.0
230
1.0
 40
0.1206129779
 41
6.194141553271426
 42
6.2849875678328
  0
LINE
  5
EB
330
1F
100
AcDbEntity
  8
0
  6
HIDDEN
 62
     7
370
     0
100
AcDbLine
 10
179.5405554769
 20
118.9531014669
 30
0.0
 11
179.5405554769
 21
114.4535821066
 31
0.0
  0
ELLIPSE
  5
EC
330
1F
100
AcDbEntity
  8
0
  6
HIDDEN
 62
     7
370
     0
100
AcDbEllipse
 10
185.4636821081
 20
112.4206165709
 30
0.0
 11
0.1315567706776619
 21
7.635001784082533
 31
0.0
210
0.0
220
0.0
230
1.0
 40
0.1193763597
 41
0.3327836098019275
 42
1.245688531159478
  0
LINE
  5
ED
330
1F
100
AcDbEntity
  8
0
  6
HIDDEN
 62
     7
370
     0
100
AcDbLine
 10
185.2902802823
 20
113.8260469441
 30
0.0
 11
185.4744511841
 21
114.0410842043
 31
0.0
  0
CIRCLE
  5
EE
330
1F
100
AcDbEntity
  8
0
  6
HIDDEN
 62
     7
370
     0
100
AcDbCircle
 10
182.5388134225
 20
116.3754187343
 30
0.0
 40
1.346973188859208
  0
LINE
  5
EF
330
1F
100
AcDbEntity
  8
0
  6
HIDDEN
 62
     7
370
     0
100
AcDbLine
 10
180.9802460668
 20
113.071737126
 30
0.0
 11
185.2902802823
 21
113.8260469441
 31
0.0
  0
LINE
  5
F0
330
1F
100
AcDbEntity
  8
0
  6
HIDDEN
 62
     7
370
     0
100
AcDbLine
 10
179.5405554769
 20
118.6355926464
 30
0.0
 11
185.2902802823
 21
119.6418671305
 31
0.0
  0
LINE
  5
F1
330
1F
100
AcDbEntity
  8
0
  6
HIDDEN
 62
     7
370
     0
100
AcDbLine
 10
185.2902802823
 20
113.8260469441
 30
0.0
 11
185.2902802823
 21
119.6418671305
 31
0.0
  0
ARC
  5
F2
330
1F
100
AcDbEntity
  8
0
  6
HIDDEN
 62
     7
370
     0
100
AcDbCircle
 10
182.542944202
 20
116.3306249635
 30
0.0
 40
1.019211071469826
100
AcDbArc
 50
269.8656386877
 51
122.2774198875
  0
ARC
  5
F3
330
1F
100
AcDbEntity
  8
0
  6
HIDDEN
 62
     7
370
     0
100
AcDbCircle
 10
182.533206458
 20
116.3279977579
 30
0.0
 40
1.016607616790914
100
AcDbArc
 50
137.052341904
 51
270.4141154145
  0
SPLINE
  5
F4
330
1F
100
AcDbEntity
  8
0
  6
HIDDEN
 62
     7
370
     0
100
AcDbSpline
210
0.0
220
0.0
230
1.0
 70
     8
 71
     3
 72
    42
 73
    38
 74
     0
 42
0.00000001
 43
0.00000001
 40
-0.0625000000000036
 40
-0.0625000000000036
 40
0.0
 40
0.0
 40
0.0312499999999986
 40
0.0312499999999986
 40
0.0624999999999972
 40
0.0624999999999972
 40
0.1249999999999992
 40
0.1249999999999992
 40
0.1875000000000012
 40
0.1875000000000012
 40
0.2500000000000032
 40
0.2500000000000032
 40
0.3125000000000052
 40
0.3125000000000052
 40
0.3750000000000072
 40
0.3750000000000072
 40
0.4375000000000093
 40
0.4375000000000093
 40
0.4687500000000104
 40
0.4687500000000104
 40
0.5000000000000114
 40
0.5000000000000114
 40
0.5625000000000081
 40
0.5625000000000081
 40
0.6250000000000049
 40
0.6250000000000049
 40
0.7500000000000011
 40
0.7500000000000011
 40
0.8124999999999996
 40
0.8124999999999996
 40
0.8749999999999979
 40
0.8749999999999979
 40
0.9062499999999971
 40
0.9062499999999971
 40
0.9374999999999964
 40
0.9374999999999964
 40
1.0
 40
1.0
 40
1.031249999999999
 40
1.031249999999999
 10
182.6951631114556
 20
114.7185788158697
 30
0.0
 10
182.4632501869317
 20
114.7212505342875
 30
0.0
 10
182.3881104973882
 20
114.7312524275046
 30
0.0
 10
182.2418798925618
 20
114.7679236976944
 30
0.0
 10
182.1705439638808
 20
114.7950002443532
 30
0.0
 10
181.9731865287172
 20
114.8958739736704
 30
0.0
 10
181.8595355934138
 20
114.9911268250634
 30
0.0
 10
181.6815747640759
 20
115.2102503213497
 30
0.0
 10
181.616927827949
 20
115.3330757444437
 30
0.0
 10
181.5327888820555
 20
115.5898308922159
 30
0.0
 10
181.5140355990648
 20
115.7197359527627
 30
0.0
 10
181.5172588364531
 20
115.9813530655772
 30
0.0
 10
181.5391216013509
 20
116.1079607250163
 30
0.0
 10
181.6235589836115
 20
116.3539128504027
 30
0.0
 10
181.6856374911759
 20
116.4711488580873
 30
0.0
 10
181.8561824684632
 20
116.6839641622104
 30
0.0
 10
181.9662972557238
 20
116.7801435843143
 30
0.0
 10
182.1658574655805
 20
116.8826303234147
 30
0.0
 10
182.2386260134693
 20
116.9098091670981
 30
0.0
 10
182.3884365266204
 20
116.9446147865985
 30
0.0
 10
182.4655469337932
 20
116.9523650083954
 30
0.0
 10
182.693210877784
 20
116.9467264277233
 30
0.0
 10
182.8340370664078
 20
116.9052414922867
 30
0.0
 10
183.0765945696108
 20
116.7796838222468
 30
0.0
 10
183.178980517255
 20
116.696438202327
 30
0.0
 10
183.4357292532657
 20
116.4075388322411
 30
0.0
 10
183.5405198993644
 20
116.1613152333288
 30
0.0
 10
183.572262161376
 20
115.7665836889525
 30
0.0
 10
183.5612176650506
 20
115.6273823638403
 30
0.0
 10
183.4873246386512
 20
115.3578159554852
 30
0.0
 10
183.4231866066401
 20
115.2242378091441
 30
0.0
 10
183.287855939443
 20
115.050514801266
 30
0.0
 10
183.2350779993573
 20
114.995593985701
 30
0.0
 10
183.1186249033543
 20
114.8992036937387
 30
0.0
 10
183.0554185265524
 20
114.8577189597534
 30
0.0
 10
182.849944561315
 20
114.754896168822
 30
0.0
 10
182.6951631114556
 20
114.7185788158697
 30
0.0
 10
182.4632501869317
 20
114.7212505342875
 30
0.0
  0
SPLINE
  5
F5
330
1F
100
AcDbEntity
  8
0
  6
HIDDEN
 62
     7
370
     0
100
AcDbSpline
210
0.0
220
0.0
230
1.0
 70
     8
 71
     3
 72
     8
 73
     4
 74
     0
 42
0.00000001
 43
0.00000001
 40
0.0
 40
0.0
 40
0.0
 40
0.0
 40
1.0
 40
1.0
 40
1.0
 40
1.0
 10
177.0131153615075
 20
117.4003721604994
 30
0.0
 10
177.1711880261394
 20
117.1061364514661
 30
0.0
 10
177.3504155930802
 20
116.7959000845629
 30
0.0
 10
177.5340598945083
 20
116.4713129396502
 30
0.0
  0
SPLINE
  5
F6
330
1F
100
AcDbEntity
  8
0
  6
HIDDEN
 62
     7
370
     0
100
AcDbSpline
210
0.0
220
0.0
230
1.0
 70
     8
 71
     3
 72
     8
 73
     4
 74
     0
 42
0.00000001
 43
0.00000001
 40
0.0
 40
0.0
 40
0.0
 40
0.0
 40
1.0
 40
1.0
 40
1.0
 40
1.0
 10
177.5340598945083
 20
107.4763704046368
 30
0.0
 10
177.3651944526557
 20
107.3766988688183
 30
0.0
 10
177.1922520785807
 20
107.274805150629
 30
0.0
 10
177.0131153615075
 20
107.1695351291169
 30
0.0
  0
SPLINE
  5
F7
330
1F
100
AcDbEntity
  8
0
  6
HIDDEN
 62
     7
370
     0
100
AcDbSpline
210
0.0
220
0.0
230
1.0
 70
     8
 71
     3
 72
    12
 73
     8
 74
     0
 42
0.00000001
 43
0.00000001
 40
0.0
 40
0.0
 40
0.0
 40
0.0
 40
0.499999999999994
 40
0.499999999999994
 40
0.749999999999997
 40
0.749999999999997
 40
1.0
 40
1.0
 40
1.0
 40
1.0
 10
178.3896425946672
 20
115.5018644488376
 30
0.0
 10
178.832613535658
 20
115.3656418117432
 30
0.0
 10
179.2596083241796
 20
115.197167948213
 30
0.0
 10
179.871438457218
 20
114.8785808799996
 30
0.0
 10
180.0706110696996
 20
114.7613607284903
 30
0.0
 10
180.4588263795251
 20
114.5014163698419
 30
0.0
 10
180.6473796274709
 20
114.3587079814321
 30
0.0
 10
180.8258105137169
 20
114.2063187360767
 30
0.0
  0
SPLINE
  5
F8
330
1F
100
AcDbEntity
  8
0
  6
HIDDEN
 62
     7
370
     0
100
AcDbSpline
210
0.0
220
0.0
230
1.0
 70
     8
 71
     3
 72
    14
 73
    10
 74
     0
 42
0.00000001
 43
0.00000001
 40
0.0
 40
0.0
 40
0.0
 40
0.0
 40
0.5
 40
0.5
 40
0.7499999999999996
 40
0.7499999999999996
 40
0.8749999999999998
 40
0.8749999999999998
 40
1.0
 40
1.0
 40
1.0
 40
1.0
 10
177.5340598945083
 20
116.4713129396502
 30
0.0
 10
177.6341515998928
 20
116.2944031165434
 30
0.0
 10
177.7449760857696
 20
116.1145677136578
 30
0.0
 10
177.9446268239576
 20
115.8540956606176
 30
0.0
 10
178.016249096902
 20
115.7692717175697
 30
0.0
 10
178.1399224409566
 20
115.6520302938524
 30
0.0
 10
178.1836960976884
 20
115.6148854813544
 30
0.0
 10
178.2790127443204
 20
115.5491972439263
 30
0.0
 10
178.331218855299
 20
115.5198309453032
 30
0.0
 10
178.3896425946672
 20
115.5018644488376
 30
0.0
  0
ELLIPSE
  5
F9
330
1F
100
AcDbEntity
  8
0
  6
HIDDEN
 62
     7
370
     0
100
AcDbEllipse
 10
191.3955000482
 20
115.3223207257
 30
0.0
 11
15.76995720882479
 21
9.013765741820421
 31
0.0
210
0.0
220
0.0
230
0.9999999999999999
 40
0.0076507844
 41
2.54989430773775
 42
2.640119776714756
  0
LINE
  5
FA
330
1F
100
AcDbEntity
  8
0
  6
HIDDEN
 62
     7
370
     0
100
AcDbLine
 10
178.2680559156
 20
111.725585083
 30
0.0
 11
178.2680559156
 21
107.9082406494
 31
0.0
  0
SPLINE
  5
FB
330
1F
100
AcDbEntity
  8
0
  6
HIDDEN
 62
     7
370
     0
100
AcDbSpline
210
0.0
220
0.0
230
1.0
 70
     8
 71
     3
 72
    10
 73
     6
 74
     0
 42
0.00000001
 43
0.00000001
 40
0.0
 40
0.0
 40
0.0
 40
0.0
 40
0.5
 40
0.5
 40
1.0
 40
1.0
 40
1.0
 40
1.0
 10
184.3689850960586
 20
111.7255850930554
 30
0.0
 10
184.2819410786806
 20
111.5784701112668
 30
0.0
 10
184.1783921766881
 20
111.4458497709861
 30
0.0
 10
183.9387282095485
 20
111.2084374921502
 30
0.0
 10
183.8022440594583
 20
111.1041574838063
 30
0.0
 10
183.6541796676482
 20
111.0191336352767
 30
0.0
  0
ELLIPSE
  5
FC
330
1F
100
AcDbEntity
  8
0
  6
HIDDEN
 62
     7
370
     0
100
AcDbEllipse
 10
186.5310277207
 20
112.5421096939
 30
0.0
 11
11.72067199094673
 21
6.699336784586961
 31
0.0
210
0.0
220
0.0
230
1.0
 40
0.0080429699
 41
1.814181126346549
 42
2.348599541021421
  0
SPLINE
  5
FD
330
1F
100
AcDbEntity
  8
0
  6
HIDDEN
 62
     7
370
     0
100
AcDbSpline
210
0.0
220
0.0
230
1.0
 70
     8
 71
     3
 72
    18
 73
    14
 74
     0
 42
0.00000001
 43
0.00000001
 40
0.0
 40
0.0
 40
0.0
 40
0.0
 40
0.1249999999999978
 40
0.1249999999999978
 40
0.2499999999999957
 40
0.2499999999999957
 40
0.3749999999999935
 40
0.3749999999999935
 40
0.4999999999999913
 40
0.4999999999999913
 40
0.7499999999999957
 40
0.7499999999999957
 40
1.0
 40
1.0
 40
1.0
 40
1.0
 10
178.2680556705184
 20
111.7255850930554
 30
0.0
 10
178.2680556705184
 20
111.8829227997508
 30
0.0
 10
178.3002249144615
 20
112.0355697999175
 30
0.0
 10
178.4142271181944
 20
112.3273117332198
 30
0.0
 10
178.4929525953425
 20
112.4608456386042
 30
0.0
 10
178.6775831698938
 20
112.7124784075848
 30
0.0
 10
178.7825498426534
 20
112.8287762649741
 30
0.0
 10
179.0042425460736
 20
113.0452649774168
 30
0.0
 10
179.121815319185
 20
113.1462875761463
 30
0.0
 10
179.4882276703954
 20
113.4346529070279
 30
0.0
 10
179.7493339927649
 20
113.6065559876488
 30
0.0
 10
180.2795034744041
 20
113.9230470209691
 30
0.0
 10
180.5507585194607
 20
114.0685909068087
 30
0.0
 10
180.8258105137169
 20
114.2063187360767
 30
0.0
  0
LINE
  5
FE
330
1F
100
AcDbEntity
  8
0
  6
HIDDEN
 62
     7
370
     0
100
AcDbLine
 10
180.8258104322
 20
114.206318757
 30
0.0
 11
184.6420052645
 21
114.8742017238
 31
0.0
  0
LINE
  5
FF
330
1F
100
AcDbEntity
  8
0
  6
HIDDEN
 62
     7
370
     0
100
AcDbLine
 10
184.6420052645
 20
114.8742017238
 30
0.0
 11
184.6420052645
 21
112.723480909
 31
0.0
  0
ELLIPSE
  5
100
330
1F
100
AcDbEntity
  8
0
  6
HIDDEN
 62
     7
370
     0
100
AcDbEllipse
 10
182.6269889412
 20
112.7406306838
 30
0.0
 11
1.926027131246655
 21
-0.601258320501543
 31
0.0
210
0.0
220
0.0
230
0.9999999999999999
 40
0.9849664716
 41
6.05486234826974
 42
6.581492398852389
  0
LINE
  5
101
330
1F
100
AcDbEntity
  8
0
  6
HIDDEN
 62
     7
370
     0
100
AcDbLine
 10
183.0283808706
 20
115.7802156075
 30
0.0
 11
183.0283808706
 21
115.8869712516
 31
0.0
  0
LINE
  5
102
330
1F
100
AcDbEntity
  8
0
  6
HIDDEN
 62
     7
370
     0
100
AcDbLine
 10
181.804898679
 20
116.0314876023
 30
0.0
 11
181.804898679
 21
115.9222350824
 31
0.0
  0
LINE
  5
103
330
1F
100
AcDbEntity
  8
0
  6
HIDDEN
 62
     7
370
     0
100
AcDbLine
 10
183.5580351947
 20
116.4067312046
 30
0.0
 11
183.5580351947
 21
116.5159839573
 31
0.0
  0
LINE
  5
104
330
1F
100
AcDbEntity
  8
0
  6
HIDDEN
 62
     7
370
     0
100
AcDbLine
 10
181.5230730174
 20
116.8000229071
 30
0.0
 11
181.5230730174
 21
116.6907703872
 31
0.0
  0
LINE
  5
105
330
1F
100
AcDbEntity
  8
0
  6
HIDDEN
 62
     7
370
     0
100
AcDbLine
 10
183.276209533
 20
117.1752662766
 30
0.0
 11
183.276209533
 21
117.2845187965
 31
0.0
  0
LINE
  5
106
330
1F
100
AcDbEntity
  8
0
  6
HIDDEN
 62
     7
370
     0
100
AcDbLine
 10
182.0527273414
 20
117.4240416284
 30
0.0
 11
182.0527273414
 21
117.3172859843
 31
0.0
  0
SPLINE
  5
107
330
1F
100
AcDbEntity
  8
0
  6
HIDDEN
 62
     7
370
     0
100
AcDbSpline
210
0.0
220
0.0
230
1.0
 70
     8
 71
     3
 72
    17
 73
    13
 74
     0
 42
0.00000001
 43
0.00000001
 40
0.0
 40
0.0
 40
0.0
 40
0.0
 40
0.0504252639055407
 40
0.1582016503158957
 40
0.2662595811695185
 40
0.3744047189144095
 40
0.482662492675372
 40
0.591028414056157
 40
0.6994629681062613
 40
0.8078856334359613
 40
0.9162378561720145
 40
1.0
 40
1.0
 40
1.0
 40
1.0
 10
182.336862683082
 20
115.2850765637159
 30
0.0
 10
182.2880152543129
 20
115.2955767014242
 30
0.0
 10
182.1347638234543
 20
115.3285192977604
 30
0.0
 10
181.8934455571801
 20
115.4438048246289
 30
0.0
 10
181.6482179594242
 20
115.6536597479999
 30
0.0
 10
181.4698334994153
 20
115.9228061042489
 30
0.0
 10
181.3717531202157
 20
116.2297047891143
 30
0.0
 10
181.3615678740126
 20
116.5515621366315
 30
0.0
 10
181.4398435947815
 20
116.8649248123526
 30
0.0
 10
181.6023298204137
 20
117.1429640537448
 30
0.0
 10
181.8138312893108
 20
117.3587555617593
 30
0.0
 10
181.9860250593289
 20
117.4410915150647
 30
0.0
 10
182.0611017940286
 20
117.4769901107102
 30
0.0
  0
ARC
  5
108
330
1F
100
AcDbEntity
  8
0
  6
HIDDEN
 62
     7
370
     0
100
AcDbCircle
 10
182.5479237801
 20
116.4244406795
 30
0.0
 40
1.158748193076049
100
AcDbArc
 50
259.5052293863
 51
97.5011569695
  0
LINE
  5
109
330
1F
100
AcDbEntity
  8
0
  6
HIDDEN
 62
     7
370
     0
100
AcDbLine
 10
181.2905552981
 20
116.4025074239
 30
0.0
 11
181.2905552981
 21
115.9851049441
 31
0.0
  0
LINE
  5
10A
330
1F
100
AcDbEntity
  8
0
  6
HIDDEN
 62
     7
370
     0
100
AcDbLine
 10
183.7905529139
 20
115.9851049441
 30
0.0
 11
183.7905529139
 21
116.4025074239
 31
0.0
  0
LINE
  5
10B
330
1F
100
AcDbEntity
  8
0
  6
HIDDEN
 62
     7
370
     0
100
AcDbLine
 10
180.682505965
 20
116.7376256916
 30
0.0
 11
180.682505965
 21
116.6462238315
 31
0.0
  0
LINE
  5
10C
330
1F
100
AcDbEntity
  8
0
  6
HIDDEN
 62
     7
370
     0
100
AcDbLine
 10
184.5325040815
 20
116.6462238315
 30
0.0
 11
184.5325040815
 21
116.7376256916
 31
0.0
  0
SPLINE
  5
10D
330
1F
100
AcDbEntity
  8
0
  6
HIDDEN
 62
     7
370
     0
100
AcDbSpline
210
0.0
220
0.0
230
1.0
 70
     8
 71
     3
 72
    20
 73
    16
 74
     0
 42
0.00000001
 43
0.00000001
 40
0.0
 40
0.0
 40
0.0
 40
0.0
 40
0.0723674966706539
 40
0.1525636945835737
 40
0.2325286934045197
 40
0.3121056385135444
 40
0.391250332768919
 40
0.4700273527650949
 40
0.5485737963326093
 40
0.6270687545207481
 40
0.7056431039581632
 40
0.7844718740298399
 40
0.8636846057793943
 40
0.9433273365525376
 40
1.0
 40
1.0
 40
1.0
 40
1.0
 10
184.0033936498407
 20
116.5276478412598
 30
0.0
 10
183.9999692382185
 20
116.4231331759105
 30
0.0
 10
183.9927499628132
 20
116.2027974697243
 30
0.0
 10
183.8739863855889
 20
115.8830542873231
 30
0.0
 10
183.679151719876
 20
115.5913730164381
 30
0.0
 10
183.4147266710956
 20
115.3572404135481
 30
0.0
 10
183.1004717342132
 20
115.195446537789
 30
0.0
 10
182.7557957931893
 20
115.1158479494958
 30
0.0
 10
182.4026178749265
 20
115.1229208245691
 30
0.0
 10
182.0628287158775
 20
115.215718706164
 30
0.0
 10
181.7573940095486
 20
115.3880789261086
 30
0.0
 10
181.5043691900082
 20
115.6292408230805
 30
0.0
 10
181.3208360747321
 20
115.9245121621806
 30
0.0
 10
181.2223127991629
 20
116.2239992682054
 30
0.0
 10
181.2118525071681
 20
116.4202219362235
 30
0.0
 10
181.2075036762002
 20
116.5018008458465
 30
0.0
  0
LINE
  5
10E
330
1F
100
AcDbEntity
  8
0
  6
HIDDEN
 62
     7
370
     0
100
AcDbLine
 10
181.2075036762
 20
116.5018008458
 30
0.0
 11
181.2075036762
 21
116.4475766844
 31
0.0
  0
LINE
  5
10F
330
1F
100
AcDbEntity
  8
0
  6
HIDDEN
 62
     7
370
     0
100
AcDbLine
 10
184.0075063703
 20
116.4475766844
 30
0.0
 11
184.0075063703
 21
116.5018008458
 31
0.0
  0
LINE
  5
110
330
1F
100
AcDbEntity
  8
0
  6
HIDDEN
 62
     7
370
     0
100
AcDbLine
 10
172.9893419144
 20
115.3137193895
 30
0.0
 11
170.5638650058
 21
114.02407092
 31
0.0
  0
LINE
  5
111
330
1F
100
AcDbEntity
  8
0
  6
HIDDEN
 62
     7
370
     0
100
AcDbLine
 10
171.0253316162
 20
110.8717251471
 30
0.0
 11
175.2607557175
 21
113.1237399085
 31
0.0
  0
LINE
  5
112
330
1F
100
AcDbEntity
  8
0
  6
HIDDEN
 62
     7
370
     0
100
AcDbLine
 10
90.7825040815
 20
110.2921097907
 30
0.0
 11
92.0815421452
 21
111.0421096808
 31
0.0
  0
LINE
  5
113
330
1F
100
AcDbEntity
  8
0
  6
HIDDEN
 62
     7
370
     0
100
AcDbLine
 10
92.0815421452
 20
114.0421097069
 30
0.0
 11
90.7825040815
 21
114.792109597
 31
0.0
  0
LINE
  5
114
330
1F
100
AcDbEntity
  8
0
  6
HIDDEN
 62
     7
370
     0
100
AcDbLine
 10
92.0815421452
 20
111.0421096808
 30
0.0
 11
170.7825022934
 21
111.0421096808
 31
0.0
  0
LINE
  5
115
330
1F
100
AcDbEntity
  8
0
  6
HIDDEN
 62
     7
370
     0
100
AcDbLine
 10
170.6487122176
 20
114.0421097069
 30
0.0
 11
92.0815421452
 21
114.0421097069
 31
0.0
  0
LINE
  5
116
330
1F
100
AcDbEntity
  8
0
  6
HIDDEN
 62
     7
370
     0
100
AcDbLine
 10
179.0405544636
 20
113.676883061
 30
0.0
 11
179.0405544636
 21
113.3965836042
 31
0.0
  0
LINE
  5
117
330
1F
100
AcDbEntity
  8
0
  6
HIDDEN
 62
     7
370
     0
100
AcDbLine
 10
181.0405510662
 20
113.3965836042
 30
0.0
 11
181.0405510662
 21
113.4112079297
 31
0.0
  0
LINE
  5
118
330
1F
100
AcDbEntity
  8
0
  6
HIDDEN
 62
     7
370
     0
100
AcDbLine
 10
170.7825022934
 20
111.0421096808
 30
0.0
 11
170.8585429189
 21
111.1686566281
 31
0.0
  0
LINE
  5
119
330
1F
100
AcDbEntity
  8
0
  6
HIDDEN
 62
     7
370
     0
100
AcDbLine
 10
181.5155553816
 20
116.3287764783
 30
0.0
 11
181.5155553816
 21
115.835562944
 31
0.0
  0
LINE
  5
11A
330
1F
100
AcDbEntity
  8
0
  6
HIDDEN
 62
     7
370
     0
100
AcDbLine
 10
183.5655528305
 20
115.8024642053
 30
0.0
 11
183.5655528305
 21
116.3287764783
 31
0.0
  0
LINE
  5
11B
330
1F
100
AcDbEntity
  8
VERMASSUNG
100
AcDbLine
 10
128.7825040815
 20
120.2964649322
 30
0.0
 11
128.7825040815
 21
104.7877544555
 31
0.0
  0
POINT
  5
11C
330
1F
100
AcDbEntity
  8
VERMASSUNG
100
AcDbPoint
 10
185.3825040815
 20
120.4171096939
 30
0.0
  0
POINT
  5
11D
330
1F
100
AcDbEntity
  8
VERMASSUNG
  6
Continuous
 62
     7
370
     0
100
AcDbPoint
 10
185.3825040815
 20
104.6671096939
 30
0.0
  0
DIMENSION
  5
11E
330
1F
100
AcDbEntity
  8
VERMASSUNG
100
AcDbDimension
  2
*D1
 10
128.7825040815
 20
124.3928002532
 30
0.0
 11
157.2825040815
 21
124.3928002532
 31
0.0
 70
   160
 71
     2
 42
-1.0
  3
SLDDIMSTYLE0
100
AcDbAlignedDimension
 13
185.7825040815
 23
120.0200912332
 33
0.0
 14
128.7825040815
 24
120.2964649322
 34
0.0
100
AcDbRotatedDimension
  0
DIMENSION
  5
129
330
1F
100
AcDbEntity
  8
VERMASSUNG
100
AcDbDimension
  2
*D2
 10
193.8875942028
 20
104.6671096939
 30
0.0
 11
193.8875942028
 21
104.0895854505
 31
0.0
 70
   160
  1
%%c<>-21.1
 71
     2
 42
-1.0
  3
SLDDIMSTYLE1
100
AcDbAlignedDimension
 13
185.3825040815
 23
120.4171096939
 33
0.0
 14
185.3825040815
 24
104.6671096939
 34
0.0
 50
90.0
100
AcDbRotatedDimension
  0
DIMENSION
  5
135
330
1F
100
AcDbEntity
  8
VERMASSUNG
100
AcDbDimension
  2
*D3
 10
80.7825040815
 20
104.5421096939
 30
0.0
 11
80.7825040815
 21
112.5421096939
 31
0.0
 70
   160
  1
%%c<>
 71
     2
 42
-1.0
  3
SLDDIMSTYLE0
100
AcDbAlignedDimension
 13
102.0825040815
 23
120.5421096939
 33
0.0
 14
92.1575040815
 24
104.5421096939
 34
0.0
 50
90.0
100
AcDbRotatedDimension
  0
DIMENSION
  5
140
330
1F
100
AcDbEntity
  8
VERMASSUNG
100
AcDbDimension
  2
*D4
 10
185.7825040815
 20
130.5421096939
 30
0.0
 11
138.2825040815
 21
130.5421096939
 31
0.0
 70
   160
 71
     2
 42
-1.0
  3
SLDDIMSTYLE0
100
AcDbAlignedDimension
 13
90.7825040815
 23
118.7421096939
 33
0.0
 14
185.7825040815
 24
120.0200912332
 34
0.0
100
AcDbRotatedDimension
  0
LINE
  5
14A
330
1F
100
AcDbEntity
  8
VERMASSUNG
  6
CENTERX2
370
     0
100
AcDbLine
 10
187.5454249556
 20
112.5421096939
 30
0.0
 11
89.1866711555
 21
112.5421096939
 31
0.0
  0
OLE2FRAME
  5
14B
330
1F
100
AcDbEntity
  8
0
100
AcDbOle2Frame
 70
     2
  3
Paintbrush-Bild
 10
13.8511154363
 20
38.264191557
 30
0.0
 11
51.6290888628
 21
31.9806341108
 31
0.0
 71
     2
 72
     0
 73
     1
 90
    12928
310
80552BED0767C5B32B40DDAF6807D121434000000000000000006FFBDDFB85D0
310
4940DDAF6807D121434000000000000000006FFBDDFB85D04940416F4BD60AFB
310
3F4000000000000000002BED0767C5B32B40416F4BD60AFB3F40000000000000
310
0000000000000100000000010000010000000100000000000100000000320000
310
D0CF11E0A1B11AE1000000000000000000000000000000003E000300FEFF0900
310
0600000000000000000000000100000001000000000000000010000002000000
310
01000000FEFFFFFF0000000000000000FFFFFFFFFFFFFFFFFFFFFFFFFFFFFFFF
310
FFFFFFFFFFFFFFFFFFFFFFFFFFFFFFFFFFFFFFFFFFFFFFFFFFFFFFFFFFFFFFFF
310
FFFFFFFFFFFFFFFFFFFFFFFFFFFFFFFFFFFFFFFFFFFFFFFFFFFFFFFFFFFFFFFF
310
FFFFFFFFFFFFFFFFFFFFFFFFFFFFFFFFFFFFFFFFFFFFFFFFFFFFFFFFFFFFFFFF
310
FFFFFFFFFFFFFFFFFFFFFFFFFFFFFFFFFFFFFFFFFFFFFFFFFFFFFFFFFFFFFFFF
310
FFFFFFFFFFFFFFFFFFFFFFFFFFFFFFFFFFFFFFFFFFFFFFFFFFFFFFFFFFFFFFFF
310
FFFFFFFFFFFFFFFFFFFFFFFFFFFFFFFFFFFFFFFFFFFFFFFFFFFFFFFFFFFFFFFF
310
FFFFFFFFFFFFFFFFFFFFFFFFFFFFFFFFFFFFFFFFFFFFFFFFFFFFFFFFFFFFFFFF
310
FFFFFFFFFFFFFFFFFFFFFFFFFFFFFFFFFFFFFFFFFFFFFFFFFFFFFFFFFFFFFFFF
310
FFFFFFFFFFFFFFFFFFFFFFFFFFFFFFFFFFFFFFFFFFFFFFFFFFFFFFFFFFFFFFFF
310
FFFFFFFFFFFFFFFFFFFFFFFFFFFFFFFFFFFFFFFFFFFFFFFFFFFFFFFFFFFFFFFF
310
FFFFFFFFFFFFFFFFFFFFFFFFFFFFFFFFFFFFFFFFFFFFFFFFFFFFFFFFFFFFFFFF
310
FFFFFFFFFFFFFFFFFFFFFFFFFFFFFFFFFFFFFFFFFFFFFFFFFFFFFFFFFFFFFFFF
310
FFFFFFFFFFFFFFFFFFFFFFFFFFFFFFFFFFFFFFFFFFFFFFFFFFFFFFFFFFFFFFFF
310
FDFFFFFFFEFFFFFFFEFFFFFFFEFFFFFF05000000060000000700000008000000
310
090000000A0000000B0000000C0000000D0000000E0000000F00000010000000
310
11000000120000001300000014000000150000001600000017000000FEFFFFFF
310
FFFFFFFFFFFFFFFFFFFFFFFFFFFFFFFFFFFFFFFFFFFFFFFFFFFFFFFFFFFFFFFF
310
FFFFFFFFFFFFFFFFFFFFFFFFFFFFFFFFFFFFFFFFFFFFFFFFFFFFFFFFFFFFFFFF
310
FFFFFFFFFFFFFFFFFFFFFFFFFFFFFFFFFFFFFFFFFFFFFFFFFFFFFFFFFFFFFFFF
310
FFFFFFFFFFFFFFFFFFFFFFFFFFFFFFFFFFFFFFFFFFFFFFFFFFFFFFFFFFFFFFFF
310
FFFFFFFFFFFFFFFFFFFFFFFFFFFFFFFFFFFFFFFFFFFFFFFFFFFFFFFFFFFFFFFF
310
FFFFFFFFFFFFFFFFFFFFFFFFFFFFFFFFFFFFFFFFFFFFFFFFFFFFFFFFFFFFFFFF
310
FFFFFFFFFFFFFFFFFFFFFFFFFFFFFFFFFFFFFFFFFFFFFFFFFFFFFFFFFFFFFFFF
310
FFFFFFFFFFFFFFFFFFFFFFFFFFFFFFFFFFFFFFFFFFFFFFFFFFFFFFFFFFFFFFFF
310
FFFFFFFFFFFFFFFFFFFFFFFFFFFFFFFFFFFFFFFFFFFFFFFFFFFFFFFFFFFFFFFF
310
FFFFFFFFFFFFFFFFFFFFFFFFFFFFFFFFFFFFFFFFFFFFFFFFFFFFFFFFFFFFFFFF
310
FFFFFFFFFFFFFFFFFFFFFFFFFFFFFFFFFFFFFFFFFFFFFFFFFFFFFFFFFFFFFFFF
310
FFFFFFFFFFFFFFFFFFFFFFFFFFFFFFFFFFFFFFFFFFFFFFFFFFFFFFFFFFFFFFFF
310
FFFFFFFFFFFFFFFFFFFFFFFFFFFFFFFFFFFFFFFFFFFFFFFFFFFFFFFFFFFFFFFF
310
52006F006F007400200045006E00740072007900000000000000000000000000
310
0000000000000000000000000000000000000000000000000000000000000000
310
16000500FFFFFFFFFFFFFFFF020000000A00030000000000C000000000000046
310
000000000000000000000000F0991C1A3CF8CC0103000000C000000000000000
310
01004F006C006500000000000000000000000000000000000000000000000000
310
0000000000000000000000000000000000000000000000000000000000000000
310
0A000200FFFFFFFFFFFFFFFFFFFFFFFF00000000000000000000000000000000
310
0000000000000000000000000000000000000000000000001400000000000000
310
010043006F006D0070004F0062006A0000000000000000000000000000000000
310
0000000000000000000000000000000000000000000000000000000000000000
310
120002010100000003000000FFFFFFFF00000000000000000000000000000000
310
0000000000000000000000000000000000000000010000004D00000000000000
310
01004F006C006500310030004E00610074006900760065000000000000000000
310
0000000000000000000000000000000000000000000000000000000000000000
310
1A000200FFFFFFFFFFFFFFFFFFFFFFFF00000000000000000000000000000000
310
0000000000000000000000000000000000000000040000002426000000000000
310
FEFFFFFF02000000FEFFFFFFFFFFFFFFFFFFFFFFFFFFFFFFFFFFFFFFFFFFFFFF
310
FFFFFFFFFFFFFFFFFFFFFFFFFFFFFFFFFFFFFFFFFFFFFFFFFFFFFFFFFFFFFFFF
310
FFFFFFFFFFFFFFFFFFFFFFFFFFFFFFFFFFFFFFFFFFFFFFFFFFFFFFFFFFFFFFFF
310
FFFFFFFFFFFFFFFFFFFFFFFFFFFFFFFFFFFFFFFFFFFFFFFFFFFFFFFFFFFFFFFF
310
FFFFFFFFFFFFFFFFFFFFFFFFFFFFFFFFFFFFFFFFFFFFFFFFFFFFFFFFFFFFFFFF
310
FFFFFFFFFFFFFFFFFFFFFFFFFFFFFFFFFFFFFFFFFFFFFFFFFFFFFFFFFFFFFFFF
310
FFFFFFFFFFFFFFFFFFFFFFFFFFFFFFFFFFFFFFFFFFFFFFFFFFFFFFFFFFFFFFFF
310
FFFFFFFFFFFFFFFFFFFFFFFFFFFFFFFFFFFFFFFFFFFFFFFFFFFFFFFFFFFFFFFF
310
FFFFFFFFFFFFFFFFFFFFFFFFFFFFFFFFFFFFFFFFFFFFFFFFFFFFFFFFFFFFFFFF
310
FFFFFFFFFFFFFFFFFFFFFFFFFFFFFFFFFFFFFFFFFFFFFFFFFFFFFFFFFFFFFFFF
310
FFFFFFFFFFFFFFFFFFFFFFFFFFFFFFFFFFFFFFFFFFFFFFFFFFFFFFFFFFFFFFFF
310
FFFFFFFFFFFFFFFFFFFFFFFFFFFFFFFFFFFFFFFFFFFFFFFFFFFFFFFFFFFFFFFF
310
FFFFFFFFFFFFFFFFFFFFFFFFFFFFFFFFFFFFFFFFFFFFFFFFFFFFFFFFFFFFFFFF
310
FFFFFFFFFFFFFFFFFFFFFFFFFFFFFFFFFFFFFFFFFFFFFFFFFFFFFFFFFFFFFFFF
310
FFFFFFFFFFFFFFFFFFFFFFFFFFFFFFFFFFFFFFFFFFFFFFFFFFFFFFFFFFFFFFFF
310
FFFFFFFFFFFFFFFFFFFFFFFFFFFFFFFFFFFFFFFFFFFFFFFFFFFFFFFFFFFFFFFF
310
0100000200000000000000000000000000000000000000000000000000000000
310
0000000000000000000000000000000000000000000000000000000000000000
310
0100FEFF030A0000FFFFFFFF0A00030000000000C00000000000004607000000
310
5042727573680007000000504272757368000700000050427275736800F439B2
310
7100000000000000000000000000000000000000000000000000000000000000
310
0000000000000000000000000000000000000000000000000000000000000000
310
0000000000000000000000000000000000000000000000000000000000000000
310
0000000000000000000000000000000000000000000000000000000000000000
310
0000000000000000000000000000000000000000000000000000000000000000
310
0000000000000000000000000000000000000000000000000000000000000000
310
0000000000000000000000000000000000000000000000000000000000000000
310
0000000000000000000000000000000000000000000000000000000000000000
310
0000000000000000000000000000000000000000000000000000000000000000
310
0000000000000000000000000000000000000000000000000000000000000000
310
0000000000000000000000000000000000000000000000000000000000000000
310
0000000000000000000000000000000000000000000000000000000000000000
310
20260000424D0E260000000000003E00000028000000B40200006E0000000100
310
01000000000000000000130B0000130B00000200000002000000000000FFFFFF
310
FFFFFFFFFFFFFFFFFFFFFFFFFFFFFFFFFFFFFFFFFFFFFFFFFFFFFFFFFFFFFFFF
310
FFFFFFFFFFFFFFFFFFFFFFFFFFFFFFFFFFFFFFFFFFFFFFFFFFFFFFFFFFFFFFFF
310
FFFFFFFFFFFFFFFFFFFFFFFFFFFFFFFFFFFFFFFFFFFFFFFFF000FFFFFFFFFFFF
310
FFFFFFFFFFFFFFFFFFFFFFFFFFFFFFFFFFFFFFFFFFFFFFFFFFFFFFFFFFFFFFFF
310
FFFFFFFFFFFFFFFFFFFFFFFFFFFFFFFFFFFFFFFFFFFFFFFFFFFFFFFFFFFFFFFF
310
FFFFFFFFFFFFFFFFFFFFFFFFFFFFFFFFF000FFFFFFFFFFFFFFFFFFFFFFFFFFFF
310
FFFFFFFFFFFFFFFFFFFFFFFFFFFFFFFFFFFFFFFFFFFFFFFFFFFFFFFFFFFFFFFF
310
FFFFFFFFFFFFFFFFFFFFFFFFFFFFFFFFFFFFFFFFFFFFFFFFFFFFFFFFFFFFFFFF
310
FFFFFFFFFFFFFFFFF000FFFFFFFFFFFFFFFFFFFFFFFFFFFFFFFFFFFFFFFFFFFF
310
FFFFFFFFFFFFFFFFFFFFFFFFFFFFFFFFFFFFFFFFFFFFFFFFFFFFFFFFFFFFFFFF
310
FFFFFFFFFFFFFFFFFFFFFFFFFFFFFFFFFFFFFFFFFFFFFFFFFFFFFFFFFFFFFFFF
310
F000FFFFFFFFFFFFFFFFFFFFFFFFFFFFFFFFFFFFFFFFFFFFFFFFFFFFFFFFFFFF
310
FFFFFFFFFFFFFFFFFFFFFFFFFFFFFFFFFFFFFFFFFFFFFFFFFFFFFFFFFFFFFFFF
310
FFFFFFFFFFFFFFFFFFFFFFFFFFFFFFFFFFFFFFFFFFFFFFFFF000FFFFFFFFFFFF
310
FFFFFFFFFFFFFFFFFFFFFFFFFFFFFFFFFFFFFFFFFFFFFFFFFFFFFFFFFFFFFFFF
310
FFFFFFFFFFFFFFFFFFFFFFFFFFFFFFFFFFFFFFFFFFFFFFFFFFFFFFFFFFFFFFFF
310
FFFFFFFFFFFFFFFFFFFFFFFFFFFFFFFFF000FFFFFFFFFFFFFFFFFFFFFFFFFFFF
310
FFFFFFFFFFFFFFFFFFFFFFFFFFFFFFFFFFFFFFFFFFFFFFFFFFFFFFFFFFFFFFFF
310
FFFFFFFFFFFFFFFFFFFFFFFFFFFFFFFFFFFFFFFFFFFFFFFFFFFFFFFFFFFFFFFF
310
FFFFFFFFFFFFFFFFF000FFFFFFFFFFFFFFFFFFFFFFFFFFFFFFFFFFFFFFFFFFFF
310
FFFFFFFFFFFFFFFFFFFFFFFFFFFFFFFFFFFFFFFFFFFFFFFFFFFFFFFFFFFFFFFF
310
FFFFFFFFFFFFFFFFFFFFFFFFFFFFFFFFFFFFFFFFFFFFFFFFFFFFFFFFFFFFFFFF
310
F000FFFFFFFFFFFFFFFFFFFFFFFFFFFFFFFFFFFFFFFFFFFFFFFFFFFFFFFFFFFF
310
FFFFFFFFFFFFFFFFFFFFFFFFFFFFFFFFFFFFFFFFFFFFFFFFFFFFFFFFFFFFFFFF
310
FFFFFFFFFFFFFFFFFFFFFFFFFFFFFFFFFFFFFFFFFFFFFFFFF000FFFFFFFFFFFF
310
FFFFFFFFFFFFFFFFFFFFFFFFFFFFFFFFFFFFFFFFFFFFFFFFFFFFFFFFFFFFFFFF
310
FFFFFFFFFFFFFFFFFFFFFFFFFFFFFFFFFFFFFFFFFFFFFFFFFFFFFFFFFFFFFFFF
310
FFFFFFFFFFFFFFFFFFFFFFFFFFFFFFFFF000FFFFFFFFFFFFFFFFFFFFFFFFFFFF
310
FFFFFFFFFFFFFFFFFFFFFFFFFFFFFFFFFFFFFFFFFFFFFFFFFFFFFFFFFFFFFFFF
310
FFFFFFFFFFFFFFFFFFFFFFFFFFFFFFFFFFFFFFFFFFFFFFFFFFFFFFFFFFFFFFFF
310
FFFFFFFFFFFFFFFFF000FFFFFFFFFFFFFFFFFFFFFFFFFFFFFFFFFFFFFFFFFFFF
310
FFFFFFFFFFFFFFFFFFFFFFFFFFFFFFFFFFFFFFFFFFFFFFFFFFFFFFFFFFFFFFFF
310
FFFFFFFFFFFFFFFFFFFFFFFFFFFFFFFFFFFFFFFFFFFFFFFFFFFFFFFFFFFFFFFF
310
F000FFFFFFFFFFFFFFFFFFFFFFFFFFFFFFFFFFFFFFFFFFFFFFFFFFFFFFFFFFFF
310
FFFFFFFFFFFFFFFFFFFFFFFFFFFFFFFFFFFFFFFFFFFFFFFFFFFFFFFFFFFFFFFF
310
FFFFFFFFFFFFFFFFFFFFFFFFFFFFFFFFFFFFFFFFFFFFFFFFF000FFFFFFFFFFFF
310
FFFFFFFFFFFFFFFFFFFFFFFFFFFFFFFFFFFFFFFFFFFFFFFFFFFFFFFFFFFFFFFF
310
FFFFFFFFFFFFFFFFFFFFFFFFFFFFFFFFFFFFFFFFFFFFFFFFFFFFFFFFFFFFFFFF
310
FFFFFFFFFFFFFFFFFFFFFFFFFFFFFFFFF000FFFFFFFFFFFFFFFFFFFFFFFFFFFF
310
FFFFFFFFFFFFFFFFFFFFFFFFFFFFFFFFFFFFFFFFFFFFFFFFFFFFFFFFFFFFFFFF
310
FFFFFFFFFFFFFFFFFFFFFFFFFFFFFFFFFFFFFFFFFFFFFFFFFFFFFFFFFFFFFFFF
310
FFFFFFFFFFFFFFFFF000FFFFFFFFFFFFFFFFFFFFFFFFFFFFFFFFFFFFFFFFFFFF
310
FFFFFFFFFFFFFFFFFFFFFFFFFFFFFFFFFFFFFFFFFFFFFFFFFFFFFFFFFFFFFFFF
310
FFFFFFFFFFFFFFFFFFFFFFFFFFFFFFFFFFFFFFFFFFFFFFFFFFFFFFFFFFFFFFFF
310
F000FFFFFFFFFFFFFFFFFFFFFFFFFFFFFFFFFFFFFFFFFFFFFFFFFFFFFFFFFFFF
310
FFFFFFFFFFFFFFFFFFFFFFFFFFFFFFFFFFFFFFFFFFFFFFFFFFFFFFFFFFFFFFFF
310
FFFFFFFFFFFFFFFFFFFFFFFFFFFFFFFFFFFFFFFFFFFFFFFFF000FFFFFFFFFFFF
310
FFFFFFFFFFFFFFFFFFFFFFFFFFFFFFFFFFFFFFFFFFFFFFFFFFFFFFFFFFFFFFFF
310
FFFFFFFFFFFFFFFFFFFFFFFFFFFFFFFFFFFFFFFFFFFFFFFFFFFFFFFFFFFFFFFF
310
FFFFFFFFFFFFFFFFFFFFFFFFFFFFFFFFF000FFFFFFFFFFFFFFFFFFFFFFFFFFFF
310
FFFFFFFFFFFFFFFFFFFFFFFFFFFFFFFFFFFFFFFFFFFFFFFFFFFFFFFFFFFFFFFF
310
FFFFFFFFFFFFFFFFFFFFFFFFFFFFFFFFFFFFFFFFFFFFFFFFFFFFFFFFFFFFFFFF
310
FFFFFFFFFFFFFFFFF000FFFFF80003FFFFFFFFFFFFFFFFFFFFFFFFFFFFFFFFFF
310
FFFFF00007FFFFFFFFFF00007FFFFFF800000000000000007FFFFFFFFFFFFFFF
310
FFFFFFFC001FFFFFFFFFFFFFFC001FFFFFFFFFFFFFFFFFFFFFFFFFFE0007FFFF
310
F000FFFF8000007FFFFFFFF8000FFFFFC0007FFFFF80007FFFFF0000007FFFFF
310
FFF8000007FFFFF800000000000000007FFFFFF0001FFFFFFFFFFFC00001FFFF
310
FFFFFFFFC00001FFFFFFFF000000000003FFFFE000007FFFF000FFFE0000000F
310
FFFFFFF0000FFFFF80007FFFFF80007FFFFC0000001FFFFFFFC0000001FFFFF8
310
00000000000000007FFFFFF0001FFFFFFFFFFE0000003FFFFFFFFFFE0000003F
310
FFFFFF000000000003FFFF0000000FFFF000FFF800000003FFFFFFF00007FFFF
310
80007FFFFF80007FFFF000000007FFFFFF000000003FFFF80000000000000000
310
7FFFFFF0001FFFFFFFFFF80000000FFFFFFFFFF80000000FFFFFFF0000000000
310
03FFFC00000003FFF000FFE000000000FFFFFFF00007FFFF80003FFFFF80007F
310
FFC000000001FFFFFC000000001FFFF800000000000000007FFFFFF0001FFFFF
310
FFFFE000000003FFFFFFFFE000000003FFFFFF000000000003FFF000000000FF
310
F000FF80000000007FFFFFF00007FFFF80003FFFFF80007FFF8000000000FFFF
310
F80000000007FFF800000000000000007FFFFFF0001FFFFFFFFFC000000001FF
310
FFFFFFC000000001FFFFFF000000000003FFC0000000007FF000FF0000000000
310
3FFFFFE00007FFFF00003FFFFF80007FFE00000000003FFFF00000000003FFF8
310
00000000000000007FFFFFF0001FFFFFFFFF8000000000FFFFFFFF8000000000
310
FFFFFF000000000003FF80000000003FF000FE00000000001FFFFFE00003FFFF
310
00003FFFFF80007FFC00000000001FFFE00000000001FFF8000001FFFE000000
310
7FFFFFF0001FFFFFFFFE00000000003FFFFFFE00000000003FFFFF0000000000
310
03FF00000000001FF000FC00000000000FFFFFE00003FFFF00001FFFFF80007F
310
F800000000001FFFC00000000000FFF8000001FFFE0000007FFFFFF0001FFFFF
310
FFFC00000000001FFFFFFC00000000001FFFFF000000000003FE00000000000F
310
F000F8000000000007FFFFE00003FFFF00001FFFFF80007FF800000000000FFF
310
800000000000FFF8000001FFFE0000007FFFFFF0001FFFFFFFF800000000000F
310
FFFFF800000000000FFFFF000000000003FC000000000007F000F80000000000
310
03FFFFC00003FFFE00001FFFFF80007FF0000000000007FF0000000000007FF8
310
000001FFFE0000007FFFFFF0001FFFFFFFF0000000000007FFFFF00000000000
310
07FFFF000000000003F8000000000003F000F0000000000003FFFFC00001FFFE
310
00001FFFFF80007FE0000000000007FE0000000000003FF8000001FFFE000000
310
7FFFFFF0001FFFFFFFF0000000000007FFFFF0000000000007FFFF0000000000
310
03F800001F800003F000E00001FFF00001FFFFC00001FFFE00000FFFFF80007F
310
E00001FFE00003FE00001FFF00003FF8000001FFFE0000007FFFFFF0001FFFFF
310
FFE000003E000003FFFFE000003E000003FFFF000000000003F00001FFF80001
310
F000E00007FFFC0001FFFFC00001FFFE00000FFFFF80007FC0000FFFFC0003FC
310
0000FFFFC0001FF8000001FFFE0000007FFFFFF0001FFFFFFFC00003FFE00001
310
FFFFC00003FFE00001FFFF0001FFFFFFFFF00007FFFE0001F000E0000FFFFF00
310
00FFFF800001FFFC00000FFFFF80007FC0001FFFFE0001FC0001FFFFE0001FF8
310
000001FFFE0000007FFFFFF0001FFFFFFF80000FFFF80000FFFF80000FFFF800
310
00FFFF0003FFFFFFFFE0000FFFFF8000F000C0003FFFFF8000FFFF800000FFFC
310
000007FFFF80007F80003FFFFF0001FC0003FFFFF0001FF8000001FFFE000000
310
7FFFFFF0001FFFFFFF80003FFFFE0000FFFF80003FFFFE0000FFFF0003FFFFFF
310
FFE0003FFFFF8000F000C0003FFFFF8000FFFF800000FFFC000007FFFF80007F
310
80007FFFFF8001F80007FFFFF8000FF8000001FFFE0000007FFFFFF0001FFFFF
310
FF00007FFFFF00007FFF00007FFFFF00007FFF0003FFFFFFFFE0003FFFFFC000
310
F000C0007FFFFFC000FFFF000000FFFC000007FFFF80007F8000FFFFFF8000F8
310
000FFFFFF8000FF8000001FFFE0000007FFFFFF0001FFFFFFF0000FFFFFF8000
310
7FFF0000FFFFFF80007FFF0003FFFFFFFFC0007FFFFFC00070008000FFFFFFC0
310
00FFFF000000FFF8000007FFFF80007F8000FFFFFF8000F8000FFFFFF8000FF8
310
000001FFFE0000007FFFFFF0001FFFFFFE0001FFFFFFC0003FFE0001FFFFFFC0
310
003FFF0003FFFFFFFFC0007FFFFFE00070008000FFFFFFC0007FFF0000007FF8
310
000003FFFF80007F0001FFFFFF8000F8000FFFFFF8000FF8000001FFFE000000
310
7FFFFFF0001FFFFFFE0001FFFFFFC0003FFE0001FFFFFFC0003FFF0003FFFFFF
310
FFC000FFFFFFE00070008000FFFFFFC0007FFF0000007FF8000003FFFF80007F
310
0001FFFFFF8000F8001FFFFFF8000FF8000001FFFE0000007FFFFFF0001FFFFF
310
FE0003FFFFFFE0003FFE0003FFFFFFE0003FFF0003FFFFFFFFC000FFFFFFE000
310
70008000FFFFFFC0007FFE0000007FF8000003FFFF80007F0001FFFFFF8000F0
310
001FFFFFF8000FF8000001FFFE0000007FFFFFF0001FFFFFFC0003FFFFFFE000
310
1FFC0003FFFFFFE0001FFF0003FFFFFFFFC000FFFFFFC00070008000FFFFFF80
310
007FFE0000007FF0000003FFFF80007F0001FFFFFF0000F0001FFFFFF8000FF8
310
000001FFFE0000007FFFFFF0001FFFFFFC0007FFFFFFF0001FFC0007FFFFFFF0
310
001FFF0003FFFFFFFFC000FFFFFFC00070008001FFFFFF0000FFFE0000003FF0
310
000001FFFF80007F0001FFFFFF0000F8001FFFFFF0000FF8000001FFFE000000
310
7FFFFFF0001FFFFFFC0007FFFFFFF0001FFC0007FFFFFFF0001FFF0003FFFFFF
310
FFC001FFFFFF80007000FFFFFFFFFE0000FFFE0008003FF0008001FFFF80007F
310
FFFFFFFFFC0000FFFFFFFFFFE0000FF8000001FFFE0000007FFFFFF0001FFFFF
310
F8000FFFFFFFF8000FF8000FFFFFFFF8000FFF0003FFFFFFFFFFFFFFFFFF0000
310
7000FFFFFFFFFC0000FFFC0008003FF0008001FFFF80007FFFFFFFFFF80001FF
310
FFFFFFFF80000FF8000001FFFE0000007FFFFFF0001FFFFFF8000FFFFFFFF800
310
0FF8000FFFFFFFF8000FFF0003FFFFFFFFFFFFFFFFFE0000F000FFFFFFFFE000
310
00FFFC000C003FE000C001FFFF80007FFFFFFFFFC00001FFFFFFFFFE00001FF8
310
000001FFFE0000007FFFFFF0001FFFFFF8000FFFFFFFF8000FF8000FFFFFFFF8
310
000FFF0003FFFFFFFFFFFFFFFFF00000F000FFFFFFFE000001FFFC000C001FE0
310
00C000FFFF80007FFFFFFFFE000001FFFFFFFFE000001FF80FFFFFFFFFFFFFC0
310
7FFFFFF0001FFFFFF8000FFFFFFFF8000FF8000FFFFFFFF8000FFF0003FFFFFF
310
FFFFFFFFFF800000F000FFFFFFC0000001FFFC001C001FE001C000FFFF80007F
310
FFFFFF80000003FFFFFFF80000001FF80FFFFFFFFFFFFFC07FFFFFF0001FFFFF
310
F8001FFFFFFFFC000FF8001FFFFFFFFC000FFF0003FFFFFFFFFFFFFFF0000001
310
F000FFFFF800000001FFF8001C001FE001C000FFFF80007FFFFFF800000003FF
310
FFFF800000003FF80FFFFFFFFFFFFFC07FFFFFF0001FFFFFF8001FFFFFFFFC00
310
0FF8001FFFFFFFFC000FFF0003FFFFFFFFFFFFFE00000001F000FFFFC0000000
310
03FFF8001E001FC001E000FFFF80007FFFFF8000000007FFFFFC000000003FF8
310
0FFFFFFFFFFFFFC07FFFFFF0001FFFFFF8001FFFFFFFFC000FF8001FFFFFFFFC
310
000FFF0003FFFFFFFFFFFFE000000003F000FFFE0000000007FFF8001E000FC0
310
01E0007FFF80007FFFFE0000000007FFFFE0000000007FF80FFFFFFFFFFFFFC0
310
7FFFFFF0001FFFFFF0001FFFFFFFFC0007F0001FFFFFFFFC0007FF0003FFFFFF
310
FFFFFF0000000003F000FFF80000000007FFF8001E000FC003E0007FFF80007F
310
FFF0000000000FFFFF8000000000FFF80FFFFFFFFFFFFFC07FFFFFF0001FFFFF
310
F0001FFFFFFFFC0007F0001FFFFFFFFC0007FF0003FFFFFFFFFFFC0000000007
310
F000FFE0000000000FFFF0003E000FC003E0007FFF80007FFFC0000000001FFF
310
FE0000000001FFF80FFFFFFFFFFFFFC07FFFFFF0001FFFFFF0001FFFFFFFFC00
310
07F0001FFFFFFFFC0007FF0003FFFFFFFFFFF0000000000FF000FFC000000000
310
1FFFF0003F000F8003F0003FFF80007FFF80000000003FFFF80000000003FFF8
310
0FFFFFFFFFFFFFC07FFFFFF0001FFFFFF0001FFFFFFFFC0007F0001FFFFFFFFC
310
0007FF0003FFFFFFFFFFE0000000001FF000FF00000000007FFFF0003F000780
310
03F0003FFF80007FFF00000000007FFFF00000000007FFF80FFFFFFFFFFFFFC0
310
7FFFFFF0001FFFFFF0001FFFFFFFFC0007F0001FFFFFFFFC0007FF0003FFFFFF
310
FFFF80000000007FF000FE0000000000FFFFE0003F00078007F0003FFF80007F
310
FE0000000001FFFFE0000000001FFFF80FFFFFFFFFFFFFC07FFFFFF0001FFFFF
310
F0001FFFFFFFFC0007F0001FFFFFFFFC0007FF0003FFFFFFFFFF0000000000FF
310
F000FC0000000003FFFFE0007F00078007F0003FFF80007FFC0000000007FFFF
310
C0000000007FFFF80FFFFFFFFFFFFFC07FFFFFF0001FFFFFF8001FFFFFFFFC00
310
0FF8001FFFFFFFFC000FFF0003FFFFFFFFFE0000000003FFF000FC000000000F
310
FFFFE0007F80070007F8001FFF80007FF8000000001FFFFF8000000001FFFFF8
310
0FFFFFFFFFFFFFC07FFFFFF0001FFFFFF8001FFFFFFFFC000FF8001FFFFFFFFC
310
000FFF0003FFFFFFFFFC000000000FFFF000F8000000007FFFFFE0007F800700
310
07F8001FFF80007FF000000000FFFFFF800000000FFFFFF80FFFFFFFFFFFFFC0
310
7FFFFFF0001FFFFFF8000FFFFFFFF8000FF8000FFFFFFFF8000FFF0003FFFFFF
310
FFFC000000007FFFF000F800000007FFFFFFC0007F8003000FF8001FFF80007F
310
F000000007FFFFFF000000007FFFFFF80FFFFFFFFFFFFFC07FFFFFF0001FFFFF
310
F8000FFFFFFFF8000FF8000FFFFFFFF8000FFF0003FFFFFFFFF80000000FFFFF
310
F000F0000000FFFFFFFFC000FF8003000FF8001FFF80007FE0000000FFFFFFFF
310
0000000FFFFFFFF8000001FFFE0000007FFFFFF0001FFFFFF8000FFFFFFFF800
310
0FF8000FFFFFFFF8000FFF0003FFFFFFFFF8000000FFFFFFF000F000000FFFFF
310
FFFFC000FFC002000FF8000FFF80007FE000001FFFFFFFFE000001FFFFFFFFF8
310
000001FFFE0000007FFFFFF0001FFFFFF8000FFFFFFFF8000FF8000FFFFFFFF8
310
000FFF0003FFFFFFFFF000001FFFFFFFF000E00000FFFFFFFFFFC000FFC00200
310
0FFC000FFF80007FE00001FFFFFFFFFE00001FFFFFFFFFF8000001FFFE000000
310
7FFFFFF0001FFFFFFC000FFFFFFFF8001FFC000FFFFFFFF8001FFF0003FFFFFF
310
FFF00001FFFFFFFFF000E00007FFFFFFFFFF8000FFC000001FFC000FFF80007F
310
C0000FFFFFFFFFFE0000FFFFFFFFFFF8000001FFFE0000007FFFFFF0001FFFFF
310
FC0007FFFFFFF0001FFC0007FFFFFFF0001FFF0003FFFFFFFFF00007FFFFFFFF
310
F000E0001FFFFFFFFFFF8000FFC000001FFC000FFF80007FC0003FFFFFFFFFFE
310
0001FFFFFFFFFFF8000001FFFE0000007FFFFFF0001FFFFFFC0007FFFFFFF000
310
1FFC0007FFFFFFF0001FFF0003FFFFFFFFF0001FFFFFFFFFF000E0003FFFFF00
310
03FF8001FFE000001FFC0007FF80007FC0007FFFFF0007FC0003FFFFF0003FF8
310
000001FFFE0000007FFFFFF0001FFFFFFC0003FFFFFFE0001FFC0003FFFFFFE0
310
001FFF0003FFFFFFFFF0003FFFFFFFFFF000E0003FFFFF0001FF8001FFE00000
310
1FFE0007FF80007FC0007FFFFE0003FC0007FFFFE0003FF8000001FFFE000000
310
7FFFFFF0001FFFFFFE0003FFFFFFE0003FFE0003FFFFFFE0003FFF0003FFFFFF
310
FFF0003FFFFF8001F000E0003FFFFF0001FF0001FFE000001FFE0007FF80007F
310
C0007FFFFE0003FC0007FFFFE0003FF8000001FFFE0000007FFFFFF0001FFFFF
310
FE0001FFFFFFC0003FFE0001FFFFFFC0003FFF0003FFFFFFFFF0003FFFFF0001
310
F000E0003FFFFF0003FF0001FFE000003FFE0007FF80007FC0007FFFFE0003FC
310
0007FFFFE0003FF8000001FFFE0000007FFFFFF0001FFFFFFF0001FFFFFFC000
310
7FFF0001FFFFFFC0007FFF0003FFFFFFFFF0003FFFFF0001F000E0003FFFFE00
310
03FF0003FFF000003FFE0003FF80007FC0007FFFFC0003FE0007FFFFE0003FF8
310
000001FFFE0000007FFFFFF0001FFFFFFF0000FFFFFF80007FFF0000FFFFFF80
310
007FFF0003FFFFFFFFF0003FFFFF0001F000E0003FFFFE0003FF0003FFF00000
310
3FFF0003FF80007FC0007FFFFC0007FE0007FFFFC0003FF8000001FFFE000000
310
7FFFFFF0001FFFFFFF80007FFFFF0000FFFF80007FFFFF0000FFFF0003FFFFFF
310
FFF0003FFFFF0003F000E0003FFFFC0003FE0003FFF000003FFF0003FF80007F
310
E0003FFFF80007FE0003FFFFC0007FF8000001FFFE0000007FFFFFF0001FFFFF
310
FF80003FFFFE0000FFFF80003FFFFE0000FFFF0003FFFFFFFFF0001FFFFE0003
310
F000F0001FFFF80003FE0003FFF000007FFF0001FF80007FE0003FFFF00007FE
310
0001FFFF80007FF8000001FFFE0000007FFFFFF0001FFFFFFFC0000FFFF80001
310
FFFFC0000FFFF80001FFFF0003FFFFFFFFF0001FFFFC0003F000F0000FFFF000
310
07FE0007FFF800007FFF0001FF80007FE0001FFFE00007FF0000FFFE00007FF8
310
000001FFFE0000007FFFFFF0001FFFFFFFC00003FFE00001FFFFC00003FFE000
310
01FFFF0003FFFFFFFFF8000FFFF80003F000F00003FFC00007FC0007FFF80000
310
7FFF8001FF80007FF00007FF80000FFF00007FF80000FFF8000001FFFE000000
310
7F80000000000001FFE000003E000003FFFFE000003E000003FFFF0003FFFFFF
310
FFF80003FFE00007F000F800000000000FFC0007FFF800007FFF8001FF80007F
310
F000000000000FFF000000000000FFF8000001FFFE0000007F80000000000001
310
FFF0000000000007FFFFF0000000000007FFFF0003FFFFFFFFFC00007E000007
310
F000F800000000000FFC0007FFF80000FFFF8000FF80007FF800000000001FFF
310
800000000001FFF8000001FFFE0000007F80000000000001FFF800000000000F
310
FFFFF800000000000FFFFF0003FFFFFFFFFC00000000000FF000FC0000000000
310
1FFC0007FFFC0000FFFF8000FF80007FF800000000003FFFC00000000001FFF8
310
000001FFFE0000007F80000000000001FFF800000000000FFFFFF80000000000
310
0FFFFF0003FFFFFFFFFE00000000001FF000FE00000000003FF8000FFFFC0000
310
FFFF8000FF80007FFC00000000003FFFC00000000003FFF8000001FFFE000000
310
7F80000000000001FFFC00000000001FFFFFFC00000000001FFFFF0003FFFFFF
310
FFFF00000000001FF000FF00000000003FF8000FFFFC0000FFFFC000FF80007F
310
FE00000000007FFFE00000000007FFF8000001FFFE0000007F80000000000001
310
FFFE00000000003FFFFFFE00000000003FFFFF0003FFFFFFFFFF80000000003F
310
F000FF80000000007FF8000FFFFC0001FFFFC0007F80007FFF0000000000FFFF
310
F0000000000FFFF800000000000000007F80000000000001FFFF8000000000FF
310
FFFFFF8000000000FFFFFF0003FFFFFFFFFFC0000000007FF000FFC000000000
310
FFF8000FFFFE0001FFFFC0007F80007FFF8000000001FFFFF8000000001FFFF8
310
00000000000000007F80000000000001FFFFC000000001FFFFFFFFC000000001
310
FFFFFF0003FFFFFFFFFFE000000000FFF000FFE000000003FFF0001FFFFE0001
310
FFFFC0007F80007FFFC000000007FFFFFE000000003FFFF80000000000000000
310
7F80000000000001FFFFE000000003FFFFFFFFE000000003FFFFFF0003FFFFFF
310
FFFFF000000003FFF000FFF80000000FFFF0001FFFFE0001FFFFE0007F80007F
310
FFF00000000FFFFFFF00000000FFFFF800000000000000007F80000000000001
310
FFFFF80000000FFFFFFFFFF80000000FFFFFFF0003FFFFFFFFFFFC0000000FFF
310
F000FFFE0000003FFFF0001FFFFE0003FFFFE0003F80007FFFFC0000003FFFFF
310
FFC0000003FFFFF800000000000000007F80000000000001FFFFFE0000003FFF
310
FFFFFFFE0000003FFFFFFF0003FFFFFFFFFFFF0000003FFFF000FFFF800000FF
310
FFF0001FFFFF0003FFFFE0003F80007FFFFF000001FFFFFFFFF800001FFFFFF8
310
00000000000000007F80000000000001FFFFFFC00001FFFFFFFFFFFFC00001FF
310
FFFFFF0003FFFFFFFFFFFFC00000FFFFF000FFFFF8000FFFFFFFFFFFFFFFFFFF
310
FFFFFFFFFFFFFFFFFFFFF0001FFFFFFFFFFF0000FFFFFFF80000000000000000
310
7FFFFFFFFFFFFFFFFFFFFFFC001FFFFFFFFFFFFFFC001FFFFFFFFFFFFFFFFFFF
310
FFFFFFFC001FFFFFF000FFFFFFFFFFFFFFFFFFFFFFFFFFFFFFFFFFFFFFFFFFFF
310
FFFFFFFFFFFFFFFFFFFFFFFFFFFFFFFFFFFFFFFFFFFFFFFFFFFFFFFFFFFFFFFF
310
FFFFFFFFFFFFFFFFFFFFFFFFFFFFFFFFFFFFFFFFFFFFFFFFFFFFFFFFFFFFFFFF
310
F000FFFFFFFFFFFFFFFFFFFFFFFFFFFFFFFFFFFFFFFFFFFFFFFFFFFFFFFFFFFF
310
FFFFFFFFFFFFFFFFFFFFFFFFFFFFFFFFFFFFFFFFFFFFFFFFFFFFFFFFFFFFFFFF
310
FFFFFFFFFFFFFFFFFFFFFFFFFFFFFFFFFFFFFFFFFFFFFFFFF000FFFFFFFFFFFF
310
FFFFFFFFFFFFFFFFFFFFFFFFFFFFFFFFFFFFFFFFFFFFFFFFFFFFFFFFFFFFFFFF
310
FFFFFFFFFFFFFFFFFFFFFFFFFFFFFFFFFFFFFFFFFFFFFFFFFFFFFFFFFFFFFFFF
310
FFFFFFFFFFFFFFFFFFFFFFFFFFFFFFFFF000FFFFFFFFFFFFFFFFFFFFFFFFFFFF
310
FFFFFFFFFFFFFFFFFFFFFFFFFFFFFFFFFFFFFFFFFFFFFFFFFFFFFFFFFFFFFFFF
310
FFFFFFFFFFFFFFFFFFFFFFFFFFFFFFFFFFFFFFFFFFFFFFFFFFFFFFFFFFFFFFFF
310
FFFFFFFFFFFFFFFFF000FFFFFFFFFFFFFFFFFFFFFFFFFFFFFFFFFFFFFFFFFFFF
310
FFFFFFFFFFFFFFFFFFFFFFFFFFFFFFFFFFFFFFFFFFFFFFFFFFFFFFFFFFFFFFFF
310
FFFFFFFFFFFFFFFFFFFFFFFFFFFFFFFFFFFFFFFFFFFFFFFFFFFFFFFFFFFFFFFF
310
F000FFFFFFFFFFFFFFFFFFFFFFFFFFFFFFFFFFFFFFFFFFFFFFFFFFFFFFFFFFFF
310
FFFFFFFFFFFFFFFFFFFFFFFFFFFFFFFFFFFFFFFFFFFFFFFFFFFFFFFFFFFFFFFF
310
FFFFFFFFFFFFFFFFFFFFFFFFFFFFFFFFFFFFFFFFFFFFFFFFF000FFFFFFFFFFFF
310
FFFFFFFFFFFFFFFFFFFFFFFFFFFFFFFFFFFFFFFFFFFFFFFFFFFFFFFFFFFFFFFF
310
FFFFFFFFFFFFFFFFFFFFFFFFFFFFFFFFFFFFFFFFFFFFFFFFFFFFFFFFFFFFFFFF
310
FFFFFFFFFFFFFFFFFFFFFFFFFFFFFFFFF000FFFFFFFFFFFFFFFFFFFFFFFFFFFF
310
FFFFFFFFFFFFFFFFFFFFFFFFFFFFFFFFFFFFFFFFFFFFFFFFFFFFFFFFFFFFFFFF
310
FFFFFFFFFFFFFFFFFFFFFFFFFFFFFFFFFFFFFFFFFFFFFFFFFFFFFFFFFFFFFFFF
310
FFFFFFFFFFFFFFFFF000FFFFFFFFFFFFFFFFFFFFFFFFFFFFFFFFFFFFFFFFFFFF
310
FFFFFFFFFFFFFFFFFFFFFFFFFFFFFFFFFFFFFFFFFFFFFFFFFFFFFFFFFFFFFFFF
310
FFFFFFFFFFFFFFFFFFFFFFFFFFFFFFFFFFFFFFFFFFFFFFFFFFFFFFFFFFFFFFFF
310
F000FFFFFFFFFFFFFFFFFFFFFFFFFFFFFFFFFFFFFFFFFFFFFFFFFFFFFFFFFFFF
310
FFFFFFFFFFFFFFFFFFFFFFFFFFFFFFFFFFFFFFFFFFFFFFFFFFFFFFFFFFFFFFFF
310
FFFFFFFFFFFFFFFFFFFFFFFFFFFFFFFFFFFFFFFFFFFFFFFFF000FFFFFFFFFFFF
310
FFFFFFFFFFFFFFFFFFFFFFFFFFFFFFFFFFFFFFFFFFFFFFFFFFFFFFFFFFFFFFFF
310
FFFFFFFFFFFFFFFFFFFFFFFFFFFFFFFFFFFFFFFFFFFFFFFFFFFFFFFFFFFFFFFF
310
FFFFFFFFFFFFFFFFFFFFFFFFFFFFFFFFF000FFFFFFFFFFFFFFFFFFFFFFFFFFFF
310
FFFFFFFFFFFFFFFFFFFFFFFFFFFFFFFFFFFFFFFFFFFFFFFFFFFFFFFFFFFFFFFF
310
FFFFFFFFFFFFFFFFFFFFFFFFFFFFFFFFFFFFFFFFFFFFFFFFFFFFFFFFFFFFFFFF
310
FFFFFFFFFFFFFFFFF000FFFFFFFFFFFFFFFFFFFFFFFFFFFFFFFFFFFFFFFFFFFF
310
FFFFFFFFFFFFFFFFFFFFFFFFFFFFFFFFFFFFFFFFFFFFFFFFFFFFFFFFFFFFFFFF
310
FFFFFFFFFFFFFFFFFFFFFFFFFFFFFFFFFFFFFFFFFFFFFFFFFFFFFFFFFFFFFFFF
310
F000FFFFFFFFFFFFFFFFFFFFFFFFFFFFFFFFFFFFFFFFFFFFFFFFFFFFFFFFFFFF
310
FFFFFFFFFFFFFFFFFFFFFFFFFFFFFFFFFFFFFFFFFFFFFFFFFFFFFFFFFFFFFFFF
310
FFFFFFFFFFFFFFFFFFFFFFFFFFFFFFFFFFFFFFFFFFFFFFFFF000FFFFFFFFFFFF
310
FFFFFFFFFFFFFFFFFFFFFFFFFFFFFFFFFFFFFFFFFFFFFFFFFFFFFFFFFFFFFFFF
310
FFFFFFFFFFFFFFFFFFFFFFFFFFFFFFFFFFFFFFFFFFFFFFFFFFFFFFFFFFFFFFFF
310
FFFFFFFFFFFFFFFFFFFFFFFFFFFFFFFFF000FFFFFFFFFFFFFFFFFFFFFFFFFFFF
310
FFFFFFFFFFFFFFFFFFFFFFFFFFFFFFFFFFFFFFFFFFFFFFFFFFFFFFFFFFFFFFFF
310
FFFFFFFFFFFFFFFFFFFFFFFFFFFFFFFFFFFFFFFFFFFFFFFFFFFFFFFFFFFFFFFF
310
FFFFFFFFFFFFFFFFF000FFFFFFFFFFFFFFFFFFFFFFFFFFFFFFFFFFFFFFFFFFFF
310
FFFFFFFFFFFFFFFFFFFFFFFFFFFFFFFFFFFFFFFFFFFFFFFFFFFFFFFFFFFFFFFF
310
FFFFFFFFFFFFFFFFFFFFFFFFFFFFFFFFFFFFFFFFFFFFFFFFFFFFFFFFFFFFFFFF
310
F000FFFFFFFFFFFFFFFFFFFFFFFFFFFFFFFFFFFFFFFFFFFFFFFFFFFFFFFFFFFF
310
FFFFFFFFFFFFFFFFFFFFFFFFFFFFFFFFFFFFFFFFFFFFFFFFFFFFFFFFFFFFFFFF
310
FFFFFFFFFFFFFFFFFFFFFFFFFFFFFFFFFFFFFFFFFFFFFFFFF000FFFFFFFFFFFF
310
FFFFFFFFFFFFFFFFFFFFFFFFFFFFFFFFFFFFFFFFFFFFFFFFFFFFFFFFFFFFFFFF
310
FFFFFFFFFFFFFFFFFFFFFFFFFFFFFFFFFFFFFFFFFFFFFFFFFFFFFFFFFFFFFFFF
310
FFFFFFFFFFFFFFFFFFFFFFFFFFFFFFFFF000FFFFFFFFFFFFFFFFFFFFFFFFFFFF
310
FFFFFFFFFFFFFFFFFFFFFFFFFFFFFFFFFFFFFFFFFFFFFFFFFFFFFFFFFFFFFFFF
310
FFFFFFFFFFFFFFFFFFFFFFFFFFFFFFFFFFFFFFFFFFFFFFFFFFFFFFFFFFFFFFFF
310
FFFFFFFFFFFFFFFFF000FFFFFFFFFFFFFFFFFFFFFFFFFFFFFFFFFFFFFFFFFFFF
310
FFFFFFFFFFFFFFFFFFFFFFFFFFFFFFFFFFFFFFFFFFFFFFFFFFFFFFFFFFFFFFFF
310
FFFFFFFFFFFFFFFFFFFFFFFFFFFFFFFFFFFFFFFFFFFFFFFFFFFFFFFFFFFFFFFF
310
F000FFFFFFFFFFFFFFFFFFFFFFFFFFFFFFFFFFFFFFFFFFFFFFFFFFFFFFFFFFFF
310
FFFFFFFFFFFFFFFFFFFFFFFFFFFFFFFFFFFFFFFFFFFFFFFFFFFFFFFFFFFFFFFF
310
FFFFFFFFFFFFFFFFFFFFFFFFFFFFFFFFFFFFFFFFFFFFFFFFF000FFFFFFFFFFFF
310
FFFFFFFFFFFFFFFFFFFFFFFFFFFFFFFFFFFFFFFFFFFFFFFFFFFFFFFFFFFFFFFF
310
FFFFFFFFFFFFFFFFFFFFFFFFFFFFFFFFFFFFFFFFFFFFFFFFFFFFFFFFFFFFFFFF
310
FFFFFFFFFFFFFFFFFFFFFFFFFFFFFFFFF0000000000000000000000000000000
310
0000000000000000000000000000000000000000000000000000000000000000
310
0000000000000000000000000000000000000000000000000000000000000000
310
0000000000000000000000000000000000000000000000000000000000000000
310
0000000000000000000000000000000000000000000000000000000000000000
310
0000000000000000000000000000000000000000000000000000000000000000
310
0000000000000000000000000000000000000000000000000000000000000000
310
0000000000000000000000000000000000000000000000000000000000000000
310
0000000000000000000000000000000000000000000000000000000000000000
310
0000000000000000000000000000000000000000000000000000000000000000
310
0000000000000000000000000000000000000000000000000000000000000000
310
0000000000000000000000000000000000000000000000000000000000000000
310
0000000000000000000000000000000000000000000000000000000000000000
310
0000000000000000000000000000000000000000000000000000000000000000
310
0000000000000000000000000000000000000000000000000000000000000000
310
0000000000000000000000000000000000000000000000000000000000000000
  1
OLE
  0
ENDSEC
  0
SECTION
  2
OBJECTS
  0
DICTIONARY
  5
C
330
0
100
AcDbDictionary
281
     1
  3
ACAD_GROUP
350
D
  3
ACAD_LAYOUT
350
1A
  3
ACAD_MLINESTYLE
350
17
  3
ACAD_PLOTSETTINGS
350
19
  3
ACAD_PLOTSTYLENAME
350
E
  0
DICTIONARY
  5
D
102
{ACAD_REACTORS
330
C
102
}
330
C
100
AcDbDictionary
281
     1
  0
DICTIONARY
  5
1A
102
{ACAD_REACTORS
330
C
102
}
330
C
100
AcDbDictionary
281
     1
  3
Layout1
350
1E
  3
Layout2
350
26
  3
Model
350
22
  0
DICTIONARY
  5
17
102
{ACAD_REACTORS
330
C
102
}
330
C
100
AcDbDictionary
281
     1
  3
Standard
350
18
  0
DICTIONARY
  5
19
102
{ACAD_REACTORS
330
C
102
}
330
C
100
AcDbDictionary
281
     1
  0
ACDBDICTIONARYWDFLT
  5
E
102
{ACAD_REACTORS
330
C
102
}
330
C
100
AcDbDictionary
281
     1
  3
Normal
350
F
100
AcDbDictionaryWithDefault
340
F
  0
LAYOUT
  5
1E
102
{ACAD_REACTORS
330
1A
102
}
330
1A
100
AcDbPlotSettings
  1

  2
none_device
  4

  6

 40
0.0
 41
0.0
 42
0.0
 43
0.0
 44
0.0
 45
0.0
 46
0.0
 47
0.0
 48
0.0
 49
0.0
140
0.0
141
0.0
142
1.0
143
1.0
 70
   688
 72
     0
 73
     0
 74
     5
  7

 75
    16
147
1.0
148
0.0
149
0.0
100
AcDbLayout
  1
Layout1
 70
     1
 71
     1
 10
0.0
 20
0.0
 11
420.0
 21
297.0
 12
0.0
 22
0.0
 32
0.0
 14
1.0000000000E+20
 24
1.0000000000E+20
 34
1.0000000000E+20
 15
-1.0000000000E+20
 25
-1.0000000000E+20
 35
-1.0000000000E+20
146
0.0
 13
0.0
 23
0.0
 33
0.0
 16
1.0
 26
0.0
 36
0.0
 17
0.0
 27
1.0
 37
0.0
 76
     0
330
1B
  0
LAYOUT
  5
26
102
{ACAD_REACTORS
330
1A
102
}
330
1A
100
AcDbPlotSettings
  1

  2
none_device
  4

  6

 40
0.0
 41
0.0
 42
0.0
 43
0.0
 44
0.0
 45
0.0
 46
0.0
 47
0.0
 48
0.0
 49
0.0
140
0.0
141
0.0
142
1.0
143
1.0
 70
   688
 72
     0
 73
     0
 74
     5
  7

 75
    16
147
1.0
148
0.0
149
0.0
100
AcDbLayout
  1
Layout2
 70
     1
 71
     2
 10
0.0
 20
0.0
 11
0.0
 21
0.0
 12
0.0
 22
0.0
 32
0.0
 14
0.0
 24
0.0
 34
0.0
 15
0.0
 25
0.0
 35
0.0
146
0.0
 13
0.0
 23
0.0
 33
0.0
 16
1.0
 26
0.0
 36
0.0
 17
0.0
 27
1.0
 37
0.0
 76
     0
330
23
  0
LAYOUT
  5
22
102
{ACAD_REACTORS
330
1A
102
}
330
1A
100
AcDbPlotSettings
  1

  2
none_device
  4

  6

 40
0.0
 41
0.0
 42
0.0
 43
0.0
 44
0.0
 45
0.0
 46
0.0
 47
0.0
 48
0.0
 49
0.0
140
0.0
141
0.0
142
1.0
143
1.0
 70
  1712
 72
     0
 73
     0
 74
     0
  7

 75
     0
147
1.0
148
0.0
149
0.0
100
AcDbLayout
  1
Model
 70
     1
 71
     0
 10
0.0
 20
0.0
 11
297.0
 21
210.0
 12
0.0
 22
0.0
 32
0.0
 14
0.0
 24
0.0
 34
0.0
 15
297.0
 25
210.0
 35
0.0
146
0.0
 13
0.0
 23
0.0
 33
0.0
 16
1.0
 26
0.0
 36
0.0
 17
0.0
 27
1.0
 37
0.0
 76
     0
330
1F
331
29
  0
MLINESTYLE
  5
18
102
{ACAD_REACTORS
330
17
102
}
330
17
100
AcDbMlineStyle
  2
Standard
 70
     0
  3

 62
   256
 51
90.0
 52
90.0
 71
     2
 49
0.5
 62
   256
  6
BYLAYER
 49
-0.5
 62
   256
  6
BYLAYER
  0
ACDBPLACEHOLDER
  5
F
102
{ACAD_REACTORS
330
E
102
}
330
E
  0
ENDSEC
  0
EOF
