  0
SECTION
  2
HEADER
  9
$ACADVER
  1
AC1015
  9
$ACADMAINTVER
 70
     6
  9
$DWGCODEPAGE
  3
ANSI_1252
  9
$INSBASE
 10
0.0
 20
0.0
 30
0.0
  9
$EXTMIN
 10
0.0
 20
0.0
 30
0.0
  9
$EXTMAX
 10
297.0
 20
210.0
 30
0.0
  9
$LIMMIN
 10
0.0
 20
0.0
  9
$LIMMAX
 10
297.0
 20
210.0
  9
$ORTHOMODE
 70
     0
  9
$REGENMODE
 70
     1
  9
$FILLMODE
 70
     1
  9
$QTEXTMODE
 70
     0
  9
$MIRRTEXT
 70
     1
  9
$LTSCALE
 40
1.0
  9
$ATTMODE
 70
     1
  9
$TEXTSIZE
 40
2.0
  9
$TRACEWID
 40
1.0
  9
$TEXTSTYLE
  7
Standard
  9
$CLAYER
  8
0
  9
$CELTYPE
  6
ByLayer
  9
$CECOLOR
 62
   256
  9
$CELTSCALE
 40
1.0
  9
$DISPSILH
 70
     0
  9
$DIMSCALE
 40
1.0
  9
$DIMASZ
 40
3.0
  9
$DIMEXO
 40
0.0
  9
$DIMDLI
 40
3.75
  9
$DIMRND
 40
0.0
  9
$DIMDLE
 40
0.0
  9
$DIMEXE
 40
1.0
  9
$DIMTP
 40
0.0
  9
$DIMTM
 40
0.0
  9
$DIMTXT
 40
2.0
  9
$DIMCEN
 40
2.5
  9
$DIMTSZ
 40
0.0
  9
$DIMTOL
 70
     0
  9
$DIMLIM
 70
     0
  9
$DIMTIH
 70
     1
  9
$DIMTOH
 70
     1
  9
$DIMSE1
 70
     0
  9
$DIMSE2
 70
     0
  9
$DIMTAD
 70
     1
  9
$DIMZIN
 70
     0
  9
$DIMBLK
  1

  9
$DIMASO
 70
     1
  9
$DIMSHO
 70
     1
  9
$DIMPOST
  1

  9
$DIMAPOST
  1

  9
$DIMALT
 70
     0
  9
$DIMALTD
 70
     3
  9
$DIMALTF
 40
0.0393700787
  9
$DIMLFAC
 40
1.0
  9
$DIMTOFL
 70
     1
  9
$DIMTVP
 40
0.0
  9
$DIMTIX
 70
     0
  9
$DIMSOXD
 70
     0
  9
$DIMSAH
 70
     0
  9
$DIMBLK1
  1

  9
$DIMBLK2
  1

  9
$DIMSTYLE
  2
ISO-25
  9
$DIMCLRD
 70
     0
  9
$DIMCLRE
 70
     0
  9
$DIMCLRT
 70
     0
  9
$DIMTFAC
 40
1.0
  9
$DIMGAP
 40
1.524
  9
$DIMJUST
 70
     0
  9
$DIMSD1
 70
     0
  9
$DIMSD2
 70
     0
  9
$DIMTOLJ
 70
     0
  9
$DIMTZIN
 70
     0
  9
$DIMALTZ
 70
     0
  9
$DIMALTTZ
 70
     0
  9
$DIMUPT
 70
     0
  9
$DIMDEC
 70
     2
  9
$DIMTDEC
 70
     2
  9
$DIMALTU
 70
     2
  9
$DIMALTTD
 70
     3
  9
$DIMTXSTY
  7
Standard
  9
$DIMAUNIT
 70
     0
  9
$DIMADEC
 70
     0
  9
$DIMALTRND
 40
0.0
  9
$DIMAZIN
 70
     0
  9
$DIMDSEP
 70
    44
  9
$DIMATFIT
 70
     3
  9
$DIMFRAC
 70
     0
  9
$DIMLDRBLK
  1

  9
$DIMLUNIT
 70
     2
  9
$DIMLWD
 70
    -2
  9
$DIMLWE
 70
    -2
  9
$DIMTMOVE
 70
     0
  9
$LUNITS
 70
     2
  9
$LUPREC
 70
     2
  9
$SKETCHINC
 40
1.0
  9
$FILLETRAD
 40
10.0
  9
$AUNITS
 70
     0
  9
$AUPREC
 70
     0
  9
$MENU
  1
.
  9
$ELEVATION
 40
0.0
  9
$PELEVATION
 40
0.0
  9
$THICKNESS
 40
0.0
  9
$LIMCHECK
 70
     0
  9
$CHAMFERA
 40
10.0
  9
$CHAMFERB
 40
10.0
  9
$CHAMFERC
 40
20.0
  9
$CHAMFERD
 40
0.0
  9
$SKPOLY
 70
     0
  9
$TDCREATE
 40
2455828.463430764
  9
$TDUCREATE
 40
2455828.380097431
  9
$TDUPDATE
 40
2455828.463430775
  9
$TDUUPDATE
 40
2455828.380097442
  9
$TDINDWG
 40
0.0000000116
  9
$TDUSRTIMER
 40
0.0000000116
  9
$USRTIMER
 70
     1
  9
$ANGBASE
 50
0.0
  9
$ANGDIR
 70
     0
  9
$PDMODE
 70
     0
  9
$PDSIZE
 40
-1.0
  9
$PLINEWID
 40
0.0
  9
$SPLFRAME
 70
     0
  9
$SPLINETYPE
 70
     6
  9
$SPLINESEGS
 70
     8
  9
$HANDSEED
  5
15A
  9
$SURFTAB1
 70
     6
  9
$SURFTAB2
 70
     6
  9
$SURFTYPE
 70
     6
  9
$SURFU
 70
     6
  9
$SURFV
 70
     6
  9
$UCSBASE
  2

  9
$UCSNAME
  2

  9
$UCSORG
 10
0.0
 20
0.0
 30
0.0
  9
$UCSXDIR
 10
1.0
 20
0.0
 30
0.0
  9
$UCSYDIR
 10
0.0
 20
1.0
 30
0.0
  9
$UCSORTHOREF
  2

  9
$UCSORTHOVIEW
 70
     0
  9
$UCSORGTOP
 10
0.0
 20
0.0
 30
0.0
  9
$UCSORGBOTTOM
 10
0.0
 20
0.0
 30
0.0
  9
$UCSORGLEFT
 10
0.0
 20
0.0
 30
0.0
  9
$UCSORGRIGHT
 10
0.0
 20
0.0
 30
0.0
  9
$UCSORGFRONT
 10
0.0
 20
0.0
 30
0.0
  9
$UCSORGBACK
 10
0.0
 20
0.0
 30
0.0
  9
$PUCSBASE
  2

  9
$PUCSNAME
  2

  9
$PUCSORG
 10
0.0
 20
0.0
 30
0.0
  9
$PUCSXDIR
 10
1.0
 20
0.0
 30
0.0
  9
$PUCSYDIR
 10
0.0
 20
1.0
 30
0.0
  9
$PUCSORTHOREF
  2

  9
$PUCSORTHOVIEW
 70
     0
  9
$PUCSORGTOP
 10
0.0
 20
0.0
 30
0.0
  9
$PUCSORGBOTTOM
 10
0.0
 20
0.0
 30
0.0
  9
$PUCSORGLEFT
 10
0.0
 20
0.0
 30
0.0
  9
$PUCSORGRIGHT
 10
0.0
 20
0.0
 30
0.0
  9
$PUCSORGFRONT
 10
0.0
 20
0.0
 30
0.0
  9
$PUCSORGBACK
 10
0.0
 20
0.0
 30
0.0
  9
$USERI1
 70
     0
  9
$USERI2
 70
     0
  9
$USERI3
 70
     0
  9
$USERI4
 70
     0
  9
$USERI5
 70
     0
  9
$USERR1
 40
0.0
  9
$USERR2
 40
0.0
  9
$USERR3
 40
0.0
  9
$USERR4
 40
0.0
  9
$USERR5
 40
0.0
  9
$WORLDVIEW
 70
     1
  9
$SHADEDGE
 70
     3
  9
$SHADEDIF
 70
    70
  9
$TILEMODE
 70
     1
  9
$MAXACTVP
 70
    64
  9
$PINSBASE
 10
0.0
 20
0.0
 30
0.0
  9
$PLIMCHECK
 70
     0
  9
$PEXTMIN
 10
1.0000000000E+20
 20
1.0000000000E+20
 30
1.0000000000E+20
  9
$PEXTMAX
 10
-1.0000000000E+20
 20
-1.0000000000E+20
 30
-1.0000000000E+20
  9
$PLIMMIN
 10
0.0
 20
0.0
  9
$PLIMMAX
 10
420.0
 20
297.0
  9
$UNITMODE
 70
     0
  9
$VISRETAIN
 70
     1
  9
$PLINEGEN
 70
     0
  9
$PSLTSCALE
 70
     1
  9
$TREEDEPTH
 70
  3020
  9
$CMLSTYLE
  2
Standard
  9
$CMLJUST
 70
     0
  9
$CMLSCALE
 40
20.0
  9
$PROXYGRAPHICS
 70
     1
  9
$MEASUREMENT
 70
     1
  9
$CELWEIGHT
370
    -1
  9
$ENDCAPS
280
     0
  9
$JOINSTYLE
280
     0
  9
$LWDISPLAY
290
     1
  9
$INSUNITS
 70
     4
  9
$HYPERLINKBASE
  1

  9
$STYLESHEET
  1

  9
$XEDIT
290
     1
  9
$CEPSNTYPE
380
     0
  9
$PSTYLEMODE
290
     1
  9
$FINGERPRINTGUID
  2
{C0FF5E53-26A8-4337-9145-155D15D309EA}
  9
$VERSIONGUID
  2
{FAEB1C32-E019-11D5-929B-00C0DF256EC4}
  9
$EXTNAMES
290
     1
  9
$PSVPSCALE
 40
0.0
  9
$OLESTARTUP
290
     0
  0
ENDSEC
  0
SECTION
  2
CLASSES
  0
CLASS
  1
ACDBDICTIONARYWDFLT
  2
AcDbDictionaryWithDefault
  3
ObjectDBX Classes
 90
        0
280
     0
281
     0
  0
CLASS
  1
VISUALSTYLE
  2
AcDbVisualStyle
  3
ObjectDBX Classes
 90
     4095
280
     0
281
     0
  0
CLASS
  1
DICTIONARYVAR
  2
AcDbDictionaryVar
  3
ObjectDBX Classes
 90
        0
280
     0
281
     0
  0
CLASS
  1
ACDBPLACEHOLDER
  2
AcDbPlaceHolder
  3
ObjectDBX Classes
 90
        0
280
     0
281
     0
  0
CLASS
  1
LAYOUT
  2
AcDbLayout
  3
ObjectDBX Classes
 90
        0
280
     0
281
     0
  0
ENDSEC
  0
SECTION
  2
TABLES
  0
TABLE
  2
VPORT
  5
8
330
0
100
AcDbSymbolTable
 70
     1
  0
VPORT
  5
29
330
8
100
AcDbSymbolTableRecord
100
AcDbViewportTableRecord
  2
*Active
 70
     0
 10
0.0
 20
0.0
 11
1.0
 21
1.0
 12
148.5
 22
105.0
 13
0.0
 23
0.0
 14
10.0
 24
10.0
 15
10.0
 25
10.0
 16
0.0
 26
0.0
 36
1.0
 17
0.0
 27
0.0
 37
0.0
 40
210.0
 41
1.4142857143
 42
50.0
 43
0.0
 44
0.0
 50
0.0
 51
0.0
 71
     0
 72
  2000
 73
     1
 74
     3
 75
     0
 76
     0
 77
     0
 78
     0
281
     0
 65
     1
110
0.0
120
0.0
130
0.0
111
1.0
121
0.0
131
0.0
112
0.0
122
1.0
132
0.0
 79
     0
146
0.0
  0
ENDTAB
  0
TABLE
  2
LTYPE
  5
5
330
0
100
AcDbSymbolTable
 70
     6
  0
LTYPE
  5
14
330
5
100
AcDbSymbolTableRecord
100
AcDbLinetypeTableRecord
  2
ByBlock
 70
     0
  3

 72
    65
 73
     0
 40
0.0
  0
LTYPE
  5
15
330
5
100
AcDbSymbolTableRecord
100
AcDbLinetypeTableRecord
  2
ByLayer
 70
     0
  3

 72
    65
 73
     0
 40
0.0
  0
LTYPE
  5
16
330
5
100
AcDbSymbolTableRecord
100
AcDbLinetypeTableRecord
  2
Continuous
 70
     0
  3
Solid line
 72
    65
 73
     0
 40
0.0
  0
LTYPE
  5
3B
330
5
100
AcDbSymbolTableRecord
100
AcDbLinetypeTableRecord
  2
HIDDEN
 70
     0
  3
Hidden __ __ __ __ __ __ __ __ __ __ __ __ __ __
 72
    65
 73
     2
 40
1.905
 49
1.27
 74
     0
 49
-0.635
 74
     0
  0
LTYPE
  5
3C
330
5
100
AcDbSymbolTableRecord
100
AcDbLinetypeTableRecord
  2
PHANTOM
 70
     0
  3
Phantom ______  __  __  ______  __  __  ______
 72
    65
 73
     6
 40
12.7
 49
6.35
 74
     0
 49
-1.27
 74
     0
 49
1.27
 74
     0
 49
-1.27
 74
     0
 49
1.27
 74
     0
 49
-1.27
 74
     0
  0
LTYPE
  5
3D
330
5
100
AcDbSymbolTableRecord
100
AcDbLinetypeTableRecord
  2
CENTER
 70
     0
  3
Center ____ _ ____ _ ____ _ ____ _ ____ _ ____
 72
    65
 73
     4
 40
10.16
 49
6.35
 74
     0
 49
-1.27
 74
     0
 49
1.27
 74
     0
 49
-1.27
 74
     0
  0
LTYPE
  5
3E
330
5
100
AcDbSymbolTableRecord
100
AcDbLinetypeTableRecord
  2
CENTERX2
 70
     0
  3
Center (2x) ________  __  ________  __  _____
 72
    65
 73
     4
 40
20.32
 49
12.7
 74
     0
 49
-2.54
 74
     0
 49
2.54
 74
     0
 49
-2.54
 74
     0
  0
LTYPE
  5
3F
330
5
100
AcDbSymbolTableRecord
100
AcDbLinetypeTableRecord
  2
DOT2
 70
     0
  3
Dot (.5x) ........................................
 72
    65
 73
     2
 40
0.635
 49
0.0
 74
     0
 49
-0.635
 74
     0
  0
ENDTAB
  0
TABLE
  2
LAYER
  5
2
330
0
100
AcDbSymbolTable
 70
     5
  0
LAYER
  5
10
330
2
100
AcDbSymbolTableRecord
100
AcDbLayerTableRecord
  2
0
 70
     0
 62
     7
  6
Continuous
370
    -3
390
F
  0
LAYER
  5
40
330
2
100
AcDbSymbolTableRecord
100
AcDbLayerTableRecord
  2
FORMAT
 70
     0
 62
     7
  6
Continuous
370
    -3
390
F
  0
LAYER
  5
41
330
2
100
AcDbSymbolTableRecord
100
AcDbLayerTableRecord
  2
VERMASSUNG
 70
     0
 62
     7
  6
Continuous
370
    -3
390
F
  0
LAYER
  5
42
330
2
100
AcDbSymbolTableRecord
100
AcDbLayerTableRecord
  2
KOPF_DÜNN
 70
     0
 62
     7
  6
Continuous
370
    -3
390
F
  0
LAYER
  5
43
330
2
100
AcDbSymbolTableRecord
100
AcDbLayerTableRecord
  2
KOPF_DICK
 70
     0
 62
     7
  6
Continuous
370
    15
390
F
  0
ENDTAB
  0
TABLE
  2
STYLE
  5
3
330
0
100
AcDbSymbolTable
 70
     2
  0
STYLE
  5
11
330
3
100
AcDbSymbolTableRecord
100
AcDbTextStyleTableRecord
  2
Standard
 70
     0
 40
0.0
 41
1.0
 50
0.0
 71
     0
 42
2.5
  3
txt
  4

  0
STYLE
  5
44
330
3
100
AcDbSymbolTableRecord
100
AcDbTextStyleTableRecord
  2
SLDTEXTSTYLE0
 70
     0
 40
0.0
 41
0.7
 50
0.0
 71
     0
 42
0.2
  3
TXT
  4

  0
ENDTAB
  0
TABLE
  2
VIEW
  5
6
330
0
100
AcDbSymbolTable
 70
     0
  0
ENDTAB
  0
TABLE
  2
UCS
  5
7
330
0
100
AcDbSymbolTable
 70
     0
  0
ENDTAB
  0
TABLE
  2
APPID
  5
9
330
0
100
AcDbSymbolTable
 70
     1
  0
APPID
  5
12
330
9
100
AcDbSymbolTableRecord
100
AcDbRegAppTableRecord
  2
ACAD
 70
     0
  0
ENDTAB
  0
TABLE
  2
DIMSTYLE
  5
A
330
0
100
AcDbSymbolTable
 70
     2
100
AcDbDimStyleTable
  0
DIMSTYLE
105
27
330
A
100
AcDbSymbolTableRecord
100
AcDbDimStyleTableRecord
  2
ISO-25
 70
     0
 41
2.5
 42
0.625
 43
3.75
 44
1.25
 73
     0
 74
     0
 77
     1
 78
     8
140
2.5
141
2.5
143
0.0393700787
147
0.625
171
     3
172
     1
271
     2
272
     2
274
     3
278
    44
283
     0
284
     8
340
11
  0
DIMSTYLE
105
133
102
{ACAD_REACTORS
330
132
330
13D
330
148
102
}
330
A
100
AcDbSymbolTableRecord
100
AcDbDimStyleTableRecord
  2
SLDDIMSTYLE0
 70
     0
 41
3.0
 44
0.0
 45
0.000000001
 73
     0
 74
     0
 77
     1
 78
    12
140
2.0
147
0.5
173
     1
271
     2
272
     3
284
    12
340
44
  0
ENDTAB
  0
TABLE
  2
BLOCK_RECORD
  5
1
330
0
100
AcDbSymbolTable
 70
     4
  0
BLOCK_RECORD
  5
1F
330
1
100
AcDbSymbolTableRecord
100
AcDbBlockTableRecord
  2
*Model_Space
340
22
  0
BLOCK_RECORD
  5
1B
330
1
100
AcDbSymbolTableRecord
100
AcDbBlockTableRecord
  2
*Paper_Space
340
1E
  0
BLOCK_RECORD
  5
23
330
1
100
AcDbSymbolTableRecord
100
AcDbBlockTableRecord
  2
*Paper_Space0
340
26
  0
BLOCK_RECORD
  5
134
330
1
100
AcDbSymbolTableRecord
100
AcDbBlockTableRecord
  2
*D1
340
0
  0
BLOCK_RECORD
  5
13E
330
1
100
AcDbSymbolTableRecord
100
AcDbBlockTableRecord
  2
*D2
340
0
  0
BLOCK_RECORD
  5
149
330
1
100
AcDbSymbolTableRecord
100
AcDbBlockTableRecord
  2
*D3
340
0
  0
ENDTAB
  0
ENDSEC
  0
SECTION
  2
BLOCKS
  0
BLOCK
  5
20
330
1F
100
AcDbEntity
  8
0
100
AcDbBlockBegin
  2
*Model_Space
 70
     0
 10
0.0
 20
0.0
 30
0.0
  3
*Model_Space
  1

  0
ENDBLK
  5
21
330
1F
100
AcDbEntity
  8
0
100
AcDbBlockEnd
  0
BLOCK
  5
1C
330
1B
100
AcDbEntity
 67
     1
  8
0
100
AcDbBlockBegin
  2
*Paper_Space
 70
     0
 10
0.0
 20
0.0
 30
0.0
  3
*Paper_Space
  1

  0
ENDBLK
  5
1D
330
1B
100
AcDbEntity
 67
     1
  8
0
100
AcDbBlockEnd
  0
BLOCK
  5
24
330
23
100
AcDbEntity
  8
0
100
AcDbBlockBegin
  2
*Paper_Space0
 70
     0
 10
0.0
 20
0.0
 30
0.0
  3
*Paper_Space0
  1

  0
ENDBLK
  5
25
330
23
100
AcDbEntity
  8
0
100
AcDbBlockEnd
  0
BLOCK
  5
135
330
134
100
AcDbEntity
  8
0
100
AcDbBlockBegin
  2
*D1
 70
     1
 10
0.0
 20
0.0
 30
0.0
  3
*D1
  1

  0
SOLID
  5
137
330
134
100
AcDbEntity
  8
VERMASSUNG
100
AcDbTrace
 10
191.5257714764
 20
137.3033240981
 30
0.0
 11
188.5257714764
 21
137.7533240981
 31
0.0
 12
188.5257714764
 22
136.8533240981
 32
0.0
 13
188.5257714764
 23
136.8533240981
 33
0.0
  0
SOLID
  5
138
330
134
100
AcDbEntity
  8
VERMASSUNG
100
AcDbTrace
 10
88.5257206688
 20
137.3033240981
 30
0.0
 11
91.5257206688
 21
136.8533240981
 31
0.0
 12
91.5257206688
 22
137.7533240981
 32
0.0
 13
91.5257206688
 23
137.7533240981
 33
0.0
  0
LINE
  5
139
330
134
100
AcDbEntity
  8
VERMASSUNG
100
AcDbLine
 10
191.5257714764
 20
125.6364166966
 30
0.0
 11
191.5257714764
 21
138.3033240981
 31
0.0
  0
LINE
  5
13A
330
134
100
AcDbEntity
  8
VERMASSUNG
100
AcDbLine
 10
88.5257206688
 20
119.5137614679
 30
0.0
 11
88.5257206688
 21
138.3033240981
 31
0.0
  0
LINE
  5
13B
330
134
100
AcDbEntity
  8
VERMASSUNG
100
AcDbLine
 10
191.5257714764
 20
137.3033240981
 30
0.0
 11
88.5257206688
 21
137.3033240981
 31
0.0
  0
MTEXT
  5
13C
330
134
100
AcDbEntity
  8
VERMASSUNG
100
AcDbMText
 10
135.8042270918
 20
139.8814596941
 30
0.0
 40
2.0
 41
0.0
 71
     1
 72
     1
  1
103
  7
SLDTEXTSTYLE0
 73
     1
 44
1.0
  0
ENDBLK
  5
136
330
134
100
AcDbEntity
  8
0
100
AcDbBlockEnd
  0
BLOCK
  5
13F
330
13E
100
AcDbEntity
  8
0
100
AcDbBlockBegin
  2
*D2
 70
     1
 10
0.0
 20
0.0
 30
0.0
  3
*D2
  1

  0
SOLID
  5
141
330
13E
100
AcDbEntity
  8
VERMASSUNG
100
AcDbTrace
 10
81.4340811781
 20
121.3137614679
 30
0.0
 11
80.9840811781
 21
118.3137614679
 31
0.0
 12
81.8840811781
 22
118.3137614679
 32
0.0
 13
81.8840811781
 23
118.3137614679
 33
0.0
  0
SOLID
  5
142
330
13E
100
AcDbEntity
  8
VERMASSUNG
100
AcDbTrace
 10
81.4340811781
 20
105.3137614679
 30
0.0
 11
81.8840811781
 21
108.3137614679
 31
0.0
 12
80.9840811781
 22
108.3137614679
 32
0.0
 13
80.9840811781
 23
108.3137614679
 33
0.0
  0
LINE
  5
143
330
13E
100
AcDbEntity
  8
VERMASSUNG
100
AcDbLine
 10
99.8257206688
 20
121.3137614679
 30
0.0
 11
80.4340811781
 21
121.3137614679
 31
0.0
  0
LINE
  5
144
330
13E
100
AcDbEntity
  8
VERMASSUNG
100
AcDbLine
 10
90.0257206688
 20
105.3137614679
 30
0.0
 11
80.4340811781
 21
105.3137614679
 31
0.0
  0
LINE
  5
145
330
13E
100
AcDbEntity
  8
VERMASSUNG
100
AcDbLine
 10
81.4340811781
 20
121.3137614679
 30
0.0
 11
81.4340811781
 21
105.3137614679
 31
0.0
  0
MTEXT
  5
146
330
13E
100
AcDbEntity
  8
VERMASSUNG
100
AcDbMText
 10
78.8559456404
 20
110.3062141537
 30
0.0
 40
2.0
 41
0.0
 71
     1
 72
     1
  1
%%c
  7
SLDTEXTSTYLE0
 11
-7.044195017643634E-15
 21
1.0
 31
0.0
 73
     1
 44
1.0
  0
MTEXT
  5
147
330
13E
100
AcDbEntity
  8
VERMASSUNG
100
AcDbMText
 10
78.8559455821
 20
113.9148923769
 30
0.0
 40
2.0
 41
0.0
 71
     1
 72
     1
  1
16
  7
SLDTEXTSTYLE0
 11
-7.044195017643634E-15
 21
1.0
 31
0.0
 73
     1
 44
1.0
  0
ENDBLK
  5
140
330
13E
100
AcDbEntity
  8
0
100
AcDbBlockEnd
  0
BLOCK
  5
14A
330
149
100
AcDbEntity
  8
0
100
AcDbBlockBegin
  2
*D3
 70
     1
 10
0.0
 20
0.0
 30
0.0
  3
*D3
  1

  0
SOLID
  5
14C
330
149
100
AcDbEntity
  8
VERMASSUNG
100
AcDbTrace
 10
211.2086058122
 20
125.8137614679
 30
0.0
 11
210.7586058122
 21
122.8137614679
 31
0.0
 12
211.6586058122
 22
122.8137614679
 32
0.0
 13
211.6586058122
 23
122.8137614679
 33
0.0
  0
SOLID
  5
14D
330
149
100
AcDbEntity
  8
VERMASSUNG
100
AcDbTrace
 10
211.2086058122
 20
100.8137614679
 30
0.0
 11
211.6586058122
 21
103.8137614679
 31
0.0
 12
210.7586058122
 22
103.8137614679
 32
0.0
 13
210.7586058122
 23
103.8137614679
 33
0.0
  0
LINE
  5
14E
330
149
100
AcDbEntity
  8
VERMASSUNG
100
AcDbLine
 10
190.8037206688
 20
125.8137614679
 30
0.0
 11
212.2086058122
 21
125.8137614679
 31
0.0
  0
LINE
  5
14F
330
149
100
AcDbEntity
  8
VERMASSUNG
100
AcDbLine
 10
190.8037206688
 20
100.8137614679
 30
0.0
 11
212.2086058122
 21
100.8137614679
 31
0.0
  0
LINE
  5
150
330
149
100
AcDbEntity
  8
VERMASSUNG
100
AcDbLine
 10
211.2086058122
 20
125.8137614679
 30
0.0
 11
211.2086058122
 21
100.8137614679
 31
0.0
  0
MTEXT
  5
151
330
149
100
AcDbEntity
  8
VERMASSUNG
100
AcDbMText
 10
208.6304702744
 20
110.2986660991
 30
0.0
 40
2.0
 41
0.0
 71
     1
 72
     1
  1
%%c
  7
SLDTEXTSTYLE0
 11
-7.044195017643634E-15
 21
1.0
 31
0.0
 73
     1
 44
1.0
  0
MTEXT
  5
152
330
149
100
AcDbEntity
  8
VERMASSUNG
100
AcDbMText
 10
208.6304702162
 20
113.9073443223
 30
0.0
 40
2.0
 41
0.0
 71
     1
 72
     1
  1
25
  7
SLDTEXTSTYLE0
 11
-7.044195017643634E-15
 21
1.0
 31
0.0
 73
     1
 44
1.0
  0
ENDBLK
  5
14B
330
149
100
AcDbEntity
  8
0
100
AcDbBlockEnd
  0
ENDSEC
  0
SECTION
  2
ENTITIES
  0
MTEXT
  5
45
330
1F
100
AcDbEntity
  8
KOPF_DÜNN
100
AcDbMText
 10
13.8892156294
 20
23.8442973028
 30
0.0
 40
3.0
 41
0.0
 71
     1
 72
     1
  1
271.030.048
  7
SLDTEXTSTYLE0
 73
     1
 44
1.0
  0
MTEXT
  5
46
330
1F
100
AcDbEntity
  8
VERMASSUNG
100
AcDbMText
 10
13.9329988022
 20
28.8834360957
 30
0.0
 40
3.0
 41
0.0
 71
     1
 72
     1
  1
Ausdrehstahl_Boring bar
  7
SLDTEXTSTYLE0
 73
     1
 44
1.0
  0
MTEXT
  5
47
330
1F
100
AcDbEntity
  8
VERMASSUNG
100
AcDbMText
 10
98.8601118557
 20
13.8365368761
 30
0.0
 40
2.0
 41
0.0
 71
     1
 72
     1
  1
Datum: 30.07.2007
  7
SLDTEXTSTYLE0
 73
     1
 44
1.0
  0
MTEXT
  5
48
330
1F
100
AcDbEntity
  8
VERMASSUNG
100
AcDbMText
 10
13.933048693
 20
18.0482802738
 30
0.0
 40
2.0
 41
0.0
 71
     1
 72
     1
  1
verstellbar_adjustable
  7
SLDTEXTSTYLE0
 73
     1
 44
1.0
  0
MTEXT
  5
49
330
1F
100
AcDbEntity
  8
VERMASSUNG
100
AcDbMText
 10
13.9808475933
 20
13.9090974274
 30
0.0
 40
2.0
 41
0.0
 71
     1
 72
     1
  1
Gewicht: 167g
  7
SLDTEXTSTYLE0
 73
     1
 44
1.0
  0
ARC
  5
4A
330
1F
100
AcDbEntity
  8
0
  6
Continuous
 62
     7
370
    15
100
AcDbCircle
 10
178.5257206688
 20
101.3137614679
 30
0.0
 40
4.000000000000008
100
AcDbArc
 50
30.0
 51
90.0
  0
ARC
  5
4B
330
1F
100
AcDbEntity
  8
0
  6
Continuous
 62
     7
370
    15
100
AcDbCircle
 10
178.5257206688
 20
125.3137614679
 30
0.0
 40
4.000000000000015
100
AcDbArc
 50
270.0
 51
330.0
  0
SPLINE
  5
4C
330
1F
100
AcDbEntity
  8
0
  6
Continuous
 62
     7
370
    15
100
AcDbSpline
210
0.0
220
0.0
230
1.0
 70
    24
 71
     1
 72
     4
 73
     2
 74
     0
 42
0.00000001
 43
0.00000001
 40
0.0
 40
0.0
 40
1.0
 40
1.0
 10
190.8044880019
 20
125.8137614678897
 30
0.0
 10
183.4331979569271
 20
125.8137614678897
 30
0.0
  0
SPLINE
  5
4D
330
1F
100
AcDbEntity
  8
0
  6
Continuous
 62
     7
370
    15
100
AcDbSpline
210
0.0
220
0.0
230
1.0
 70
    24
 71
     1
 72
     4
 73
     2
 74
     0
 42
0.00000001
 43
0.00000001
 40
0.0
 40
0.0
 40
1.0
 40
1.0
 10
181.9898222839531
 20
103.3137614678897
 30
0.0
 10
183.4331979569271
 20
100.8137614678897
 30
0.0
  0
SPLINE
  5
4E
330
1F
100
AcDbEntity
  8
0
  6
Continuous
 62
     7
370
    15
100
AcDbSpline
210
0.0
220
0.0
230
1.0
 70
    24
 71
     1
 72
     4
 73
     2
 74
     0
 42
0.00000001
 43
0.00000001
 40
0.0
 40
0.0
 40
1.0
 40
1.0
 10
183.4331979569271
 20
125.8137614678897
 30
0.0
 10
181.9898222839531
 20
123.3137614678897
 30
0.0
  0
SPLINE
  5
4F
330
1F
100
AcDbEntity
  8
0
  6
Continuous
 62
     7
370
    15
100
AcDbSpline
210
0.0
220
0.0
230
1.0
 70
    24
 71
     1
 72
     4
 73
     2
 74
     0
 42
0.00000001
 43
0.00000001
 40
0.0
 40
0.0
 40
1.0
 40
1.0
 10
183.4331979569271
 20
100.8137614678897
 30
0.0
 10
190.8044880019
 20
100.8137614678897
 30
0.0
  0
SPLINE
  5
50
330
1F
100
AcDbEntity
  8
0
  6
Continuous
 62
     7
370
    15
100
AcDbSpline
210
0.0
220
0.0
230
1.0
 70
    24
 71
     1
 72
     4
 73
     2
 74
     0
 42
0.00000001
 43
0.00000001
 40
0.0
 40
0.0
 40
1.0
 40
1.0
 10
88.52572066881531
 20
106.8137614678897
 30
0.0
 10
90.02572066881531
 20
105.3137614678897
 30
0.0
  0
SPLINE
  5
51
330
1F
100
AcDbEntity
  8
0
  6
Continuous
 62
     7
370
    15
100
AcDbSpline
210
0.0
220
0.0
230
1.0
 70
    24
 71
     1
 72
     4
 73
     2
 74
     0
 42
0.00000001
 43
0.00000001
 40
0.0
 40
0.0
 40
1.0
 40
1.0
 10
90.02572066881531
 20
105.3137614678897
 30
0.0
 10
178.5257206688153
 20
105.3137614678897
 30
0.0
  0
SPLINE
  5
52
330
1F
100
AcDbEntity
  8
0
  6
Continuous
 62
     7
370
    15
100
AcDbSpline
210
0.0
220
0.0
230
1.0
 70
    24
 71
     1
 72
     4
 73
     2
 74
     0
 42
0.00000001
 43
0.00000001
 40
0.0
 40
0.0
 40
1.0
 40
1.0
 10
102.7257206688153
 20
121.3137614678897
 30
0.0
 10
99.82572066881531
 20
121.3137614678897
 30
0.0
  0
SPLINE
  5
53
330
1F
100
AcDbEntity
  8
0
  6
Continuous
 62
     7
370
    15
100
AcDbSpline
210
0.0
220
0.0
230
1.0
 70
    24
 71
     1
 72
     4
 73
     2
 74
     0
 42
0.00000001
 43
0.00000001
 40
0.0
 40
0.0
 40
1.0
 40
1.0
 10
117.2257206688153
 20
121.3137614678897
 30
0.0
 10
114.3257206688153
 20
121.3137614678897
 30
0.0
  0
SPLINE
  5
54
330
1F
100
AcDbEntity
  8
0
  6
Continuous
 62
     7
370
    15
100
AcDbSpline
210
0.0
220
0.0
230
1.0
 70
    24
 71
     1
 72
     4
 73
     2
 74
     0
 42
0.00000001
 43
0.00000001
 40
0.0
 40
0.0
 40
1.0
 40
1.0
 10
131.7257206688153
 20
121.3137614678897
 30
0.0
 10
128.8257206688153
 20
121.3137614678897
 30
0.0
  0
SPLINE
  5
55
330
1F
100
AcDbEntity
  8
0
  6
Continuous
 62
     7
370
    15
100
AcDbSpline
210
0.0
220
0.0
230
1.0
 70
    24
 71
     1
 72
     4
 73
     2
 74
     0
 42
0.00000001
 43
0.00000001
 40
0.0
 40
0.0
 40
1.0
 40
1.0
 10
146.2257206688153
 20
121.3137614678897
 30
0.0
 10
143.3257206688153
 20
121.3137614678897
 30
0.0
  0
SPLINE
  5
56
330
1F
100
AcDbEntity
  8
0
  6
Continuous
 62
     7
370
    15
100
AcDbSpline
210
0.0
220
0.0
230
1.0
 70
    24
 71
     1
 72
     4
 73
     2
 74
     0
 42
0.00000001
 43
0.00000001
 40
0.0
 40
0.0
 40
1.0
 40
1.0
 10
178.5257206688153
 20
121.3137614678897
 30
0.0
 10
157.8257206688153
 20
121.3137614678897
 30
0.0
  0
SPLINE
  5
57
330
1F
100
AcDbEntity
  8
0
  6
Continuous
 62
     7
370
    15
100
AcDbSpline
210
0.0
220
0.0
230
1.0
 70
     8
 71
     3
 72
    18
 73
    14
 74
     0
 42
0.00000001
 43
0.00000001
 40
0.0
 40
0.0
 40
0.0
 40
0.0
 40
0.2499999999999988
 40
0.2499999999999988
 40
0.3749999999999986
 40
0.3749999999999986
 40
0.4374999999999987
 40
0.4374999999999987
 40
0.4999999999999989
 40
0.4999999999999989
 40
0.7499999999999993
 40
0.7499999999999993
 40
1.0
 40
1.0
 40
1.0
 40
1.0
 10
181.9898222839531
 20
109.6381662779919
 30
0.0
 10
181.8586959310513
 20
110.2560730215345
 30
0.0
 10
181.7258970223007
 20
110.8737197685709
 30
0.0
 10
181.580098218044
 20
111.8084907771055
 30
0.0
 10
181.5405544682524
 20
112.1214888329636
 30
0.0
 10
181.5010728673528
 20
112.5940690884688
 30
0.0
 10
181.4911998884249
 20
112.752106886161
 30
0.0
 10
181.4787091690194
 20
113.0693102983837
 30
0.0
 10
181.4761648520367
 20
113.2320105109202
 30
0.0
 10
181.4815567414291
 20
113.9984248024901
 30
0.0
 10
181.5438740559595
 20
114.6026506056581
 30
0.0
 10
181.7360064959827
 20
115.8007389167459
 30
0.0
 10
181.863678745456
 20
116.3949304317335
 30
0.0
 10
181.9898222839531
 20
116.9893566577876
 30
0.0
  0
SPLINE
  5
58
330
1F
100
AcDbEntity
  8
0
  6
Continuous
 62
     7
370
    15
100
AcDbSpline
210
0.0
220
0.0
230
1.0
 70
     8
 71
     3
 72
    23
 73
    19
 74
     0
 42
0.00000001
 43
0.00000001
 40
0.0
 40
0.0
 40
0.0
 40
0.0
 40
0.0592940561976212
 40
0.1155957239221517
 40
0.1695801296682377
 40
0.2221270213102981
 40
0.2737308829830075
 40
0.325538020931855
 40
0.3786209593631409
 40
0.4336019530819613
 40
0.4910509470574093
 40
0.5512552459825575
 40
0.6149319908325149
 40
0.6825566669609299
 40
0.7544687356235443
 40
0.8313710662400156
 40
0.9129414582625662
 40
1.0
 40
1.0
 40
1.0
 40
1.0
 10
185.9490793110366
 20
114.8886813396846
 30
0.0
 10
185.9498318961231
 20
114.915169588452
 30
0.0
 10
185.9512990856438
 20
114.9668093056184
 30
0.0
 10
185.9632013316262
 20
115.0417968558373
 30
0.0
 10
185.9822233961285
 20
115.1121349980488
 30
0.0
 10
186.0096204119925
 20
115.1774557609883
 30
0.0
 10
186.0448458418426
 20
115.2377450480858
 30
0.0
 10
186.08769464894
 20
115.2932092175717
 30
0.0
 10
186.138697173433
 20
115.3434298478273
 30
0.0
 10
186.1971584189272
 20
115.3889021807596
 30
0.0
 10
186.2632036392241
 20
115.4289769843673
 30
0.0
 10
186.3366590013213
 20
115.4633490224889
 30
0.0
 10
186.4171527879359
 20
115.492497200633
 30
0.0
 10
186.5047570255898
 20
115.516507922524
 30
0.0
 10
186.5997606281993
 20
115.5346973850402
 30
0.0
 10
186.7018596251619
 20
115.5476594682173
 30
0.0
 10
186.8112612093257
 20
115.555796247492
 30
0.0
 10
186.8865644639626
 20
115.5568217647518
 30
0.0
 10
186.9254414905237
 20
115.5573512114795
 30
0.0
  0
SPLINE
  5
59
330
1F
100
AcDbEntity
  8
0
  6
Continuous
 62
     7
370
    15
100
AcDbSpline
210
0.0
220
0.0
230
1.0
 70
     8
 71
     3
 72
    23
 73
    19
 74
     0
 42
0.00000001
 43
0.00000001
 40
0.0
 40
0.0
 40
0.0
 40
0.0
 40
0.0869696237113498
 40
0.1687160911435895
 40
0.245507313601541
 40
0.3176514674899429
 40
0.3853609488672387
 40
0.4491918801087296
 40
0.5095419572709401
 40
0.5669745460140927
 40
0.622142463247941
 40
0.6749333526875596
 40
0.7268659360509812
 40
0.7784886475613952
 40
0.8308864624302728
 40
0.8844237978147471
 40
0.9408617939744738
 40
1.0
 40
1.0
 40
1.0
 40
1.0
 10
186.9254414905238
 20
114.2240178781462
 30
0.0
 10
186.8867008109619
 20
114.2245967671691
 30
0.0
 10
186.8115461104468
 20
114.2257197787332
 30
0.0
 10
186.7023826259645
 20
114.2332016130548
 30
0.0
 10
186.6003690499788
 20
114.2461527546201
 30
0.0
 10
186.5056815226153
 20
114.2651119257114
 30
0.0
 10
186.417883561199
 20
114.2883323026859
 30
0.0
 10
186.3374579846608
 20
114.3176363547973
 30
0.0
 10
186.264107895207
 20
114.3520272962061
 30
0.0
 10
186.1979085191639
 20
114.3917456387363
 30
0.0
 10
186.1393208762773
 20
114.4366347317997
 30
0.0
 10
186.0878141102972
 20
114.4861617987226
 30
0.0
 10
186.0454712673991
 20
114.5417113723418
 30
0.0
 10
186.0095087831091
 20
114.6013490056289
 30
0.0
 10
185.9823468663498
 20
114.6663343888568
 30
0.0
 10
185.9630743927206
 20
114.736195203576
 30
0.0
 10
185.9513440105349
 20
114.8108288959933
 30
0.0
 10
185.9498458778406
 20
114.8623294554768
 30
0.0
 10
185.9490793110366
 20
114.8886813396846
 30
0.0
  0
LINE
  5
5A
330
1F
100
AcDbEntity
  8
0
  6
Continuous
 62
     7
370
    15
100
AcDbLine
 10
187.7319318751
 20
111.3109569807
 30
0.0
 11
187.916627388
 21
111.144290314
 31
0.0
  0
SPLINE
  5
5B
330
1F
100
AcDbEntity
  8
0
  6
Continuous
 62
     7
370
    15
100
AcDbSpline
210
0.0
220
0.0
230
1.0
 70
     8
 71
     3
 72
    15
 73
    11
 74
     0
 42
0.00000001
 43
0.00000001
 40
0.0
 40
0.0
 40
0.0
 40
0.0
 40
0.144565007911979
 40
0.2805363913210643
 40
0.4071401527390107
 40
0.5261190361585809
 40
0.6421058599885033
 40
0.7589092560722747
 40
0.8780579302083565
 40
1.0
 40
1.0
 40
1.0
 40
1.0
 10
187.8977972597545
 20
111.7857165960949
 30
0.0
 10
187.8974005749552
 20
111.760855485724
 30
0.0
 10
187.896630786168
 20
111.7126111263979
 30
0.0
 10
187.8888799724498
 20
111.6429448070765
 30
0.0
 10
187.8766286249358
 20
111.5784364955874
 30
0.0
 10
187.8593548510838
 20
111.5186136804706
 30
0.0
 10
187.8362544390279
 20
111.4625750364566
 30
0.0
 10
187.8069871239073
 20
111.4095266150491
 30
0.0
 10
187.7726996002205
 20
111.3582782026049
 30
0.0
 10
187.7456256807381
 20
111.3268520941128
 30
0.0
 10
187.7319318751391
 20
111.3109569807103
 30
0.0
  0
SPLINE
  5
5C
330
1F
100
AcDbEntity
  8
0
  6
Continuous
 62
     7
370
    15
100
AcDbSpline
210
0.0
220
0.0
230
1.0
 70
     8
 71
     3
 72
    23
 73
    19
 74
     0
 42
0.00000001
 43
0.00000001
 40
0.0
 40
0.0
 40
0.0
 40
0.0
 40
0.0746554421410058
 40
0.1455505618430356
 40
0.2126587759098872
 40
0.2768962727498168
 40
0.3385164718699883
 40
0.3981820786596402
 40
0.4568374063783351
 40
0.5147329008933627
 40
0.5721227750896525
 40
0.6290014951774715
 40
0.6862035808566874
 40
0.7443710756204309
 40
0.8040683804469398
 40
0.8663906962652379
 40
0.9315174970058625
 40
1.0
 40
1.0
 40
1.0
 40
1.0
 10
187.1425889264212
 20
112.4804281345564
 30
0.0
 10
187.1715951567946
 20
112.4799678598497
 30
0.0
 10
187.2281466017625
 20
112.4790704940283
 30
0.0
 10
187.3103299143972
 20
112.4698529356772
 30
0.0
 10
187.3877433342812
 20
112.45620448374
 30
0.0
 10
187.460145141296
 20
112.4362954497216
 30
0.0
 10
187.5273254540351
 20
112.409965996752
 30
0.0
 10
187.5900227426178
 20
112.3788235473296
 30
0.0
 10
187.6474955645133
 20
112.34138363484
 30
0.0
 10
187.6998220498105
 20
112.2984261638287
 30
0.0
 10
187.7463153139143
 20
112.250186712405
 30
0.0
 10
187.78726908503
 20
112.1974702108119
 30
0.0
 10
187.8212812243587
 20
112.1396838387524
 30
0.0
 10
187.8495680535626
 20
112.0777106503
 30
0.0
 10
187.8711304333777
 20
112.0109854607395
 30
0.0
 10
187.8867083407882
 20
111.9398928863195
 30
0.0
 10
187.8959614544055
 20
111.864218514638
 30
0.0
 10
187.8971751635531
 20
111.8123184062261
 30
0.0
 10
187.8977972597545
 20
111.7857165960949
 30
0.0
  0
SPLINE
  5
5D
330
1F
100
AcDbEntity
  8
0
  6
Continuous
 62
     7
370
    15
100
AcDbSpline
210
0.0
220
0.0
230
1.0
 70
     8
 71
     3
 72
    15
 73
    11
 74
     0
 42
0.00000001
 43
0.00000001
 40
0.0
 40
0.0
 40
0.0
 40
0.0
 40
0.1138257326179928
 40
0.2277053861373403
 40
0.3417287040661047
 40
0.4573736439245282
 40
0.577801011138984
 40
0.708215978446047
 40
0.8485535160615281
 40
1.0
 40
1.0
 40
1.0
 40
1.0
 10
186.6417876443699
 20
112.3550274935308
 30
0.0
 10
186.658706986099
 20
112.3654894041224
 30
0.0
 10
186.692553684495
 20
112.3864181812645
 30
0.0
 10
186.7464963117754
 20
112.4121994730209
 30
0.0
 10
186.8024283852164
 20
112.4340684344449
 30
0.0
 10
186.8611601088978
 20
112.4513280147454
 30
0.0
 10
186.9238050446178
 20
112.4647884270888
 30
0.0
 10
186.9916080726181
 20
112.4736050649377
 30
0.0
 10
187.0651673510594
 20
112.4793203028266
 30
0.0
 10
187.116134913838
 20
112.4800496019008
 30
0.0
 10
187.1425889264212
 20
112.4804281345564
 30
0.0
  0
LINE
  5
5E
330
1F
100
AcDbEntity
  8
0
  6
Continuous
 62
     7
370
    15
100
AcDbLine
 10
186.4510825162
 20
112.5140819807
 30
0.0
 11
186.6417876444
 21
112.3550274935
 31
0.0
  0
LINE
  5
5F
330
1F
100
AcDbEntity
  8
0
  6
Continuous
 62
     7
370
    15
100
AcDbLine
 10
186.3741594392
 20
112.4299473653
 30
0.0
 11
186.4510825162
 21
112.5140819807
 31
0.0
  0
LINE
  5
60
330
1F
100
AcDbEntity
  8
0
  6
Continuous
 62
     7
370
    15
100
AcDbLine
 10
186.5564511059
 20
112.2793063397
 30
0.0
 11
186.3741594392
 21
112.4299473653
 31
0.0
  0
SPLINE
  5
61
330
1F
100
AcDbEntity
  8
0
  6
Continuous
 62
     7
370
    15
100
AcDbSpline
210
0.0
220
0.0
230
1.0
 70
     8
 71
     3
 72
    15
 73
    11
 74
     0
 42
0.00000001
 43
0.00000001
 40
0.0
 40
0.0
 40
0.0
 40
0.0
 40
0.1403613678925675
 40
0.2729911849240514
 40
0.3997046194445442
 40
0.520688326588311
 40
0.6385435053577643
 40
0.7572108286350453
 40
0.8775299389297813
 40
1.0
 40
1.0
 40
1.0
 40
1.0
 10
186.384976746934
 20
111.798937749941
 30
0.0
 10
186.3855586369909
 20
111.8233951994278
 30
0.0
 10
186.3866903647485
 20
111.8709629042447
 30
0.0
 10
186.394211666955
 20
111.9403051130028
 30
0.0
 10
186.407370430794
 20
112.0053537212376
 30
0.0
 10
186.4259161370118
 20
112.0663835766672
 30
0.0
 10
186.44970751974
 20
112.1240870654018
 30
0.0
 10
186.4797037187557
 20
112.1786511308312
 30
0.0
 10
186.5147771834467
 20
112.2311334203758
 30
0.0
 10
186.5424779948253
 20
112.2631541391493
 30
0.0
 10
186.5564511059083
 20
112.2793063396846
 30
0.0
  0
SPLINE
  5
62
330
1F
100
AcDbEntity
  8
0
  6
Continuous
 62
     7
370
    15
100
AcDbSpline
210
0.0
220
0.0
230
1.0
 70
     8
 71
     3
 72
    23
 73
    19
 74
     0
 42
0.00000001
 43
0.00000001
 40
0.0
 40
0.0
 40
0.0
 40
0.0
 40
0.0741616272249798
 40
0.1445878049908748
 40
0.2113142299987958
 40
0.2752190918922832
 40
0.3367501428625261
 40
0.3961754162235329
 40
0.45462969258529
 40
0.5128409438794409
 40
0.5703342074201091
 40
0.6273792529976987
 40
0.6844968626457187
 40
0.7430428852326559
 40
0.8029949687690098
 40
0.8655723797160643
 40
0.930946552336257
 40
1.0
 40
1.0
 40
1.0
 40
1.0
 10
187.1417876443699
 20
111.095812749941
 30
0.0
 10
187.1127826400501
 20
111.0962824116218
 30
0.0
 10
187.0562335854343
 20
111.0971980785786
 30
0.0
 10
186.9740091729494
 20
111.1062886533658
 30
0.0
 10
186.8965962109417
 20
111.1204061571969
 30
0.0
 10
186.8242105856128
 20
111.1409472804861
 30
0.0
 10
186.7566322502957
 20
111.1668747795103
 30
0.0
 10
186.6939611652769
 20
111.1986789315773
 30
0.0
 10
186.6362683455386
 20
111.2365271084264
 30
0.0
 10
186.5839134905177
 20
111.2802651913338
 30
0.0
 10
186.5366913234022
 20
111.3287460319355
 30
0.0
 10
186.4960265288819
 20
111.3823641421718
 30
0.0
 10
186.4618530890293
 20
111.4407395617291
 30
0.0
 10
186.4331190426423
 20
111.5032599106797
 30
0.0
 10
186.4116743625287
 20
111.5708873607481
 30
0.0
 10
186.3960595227677
 20
111.6427615914851
 30
0.0
 10
186.386799281198
 20
111.7193701450519
 30
0.0
 10
186.385595243169
 20
111.7719356435763
 30
0.0
 10
186.384976746934
 20
111.798937749941
 30
0.0
  0
SPLINE
  5
63
330
1F
100
AcDbEntity
  8
0
  6
Continuous
 62
     7
370
    15
100
AcDbSpline
210
0.0
220
0.0
230
1.0
 70
     8
 71
     3
 72
    15
 73
    11
 74
     0
 42
0.00000001
 43
0.00000001
 40
0.0
 40
0.0
 40
0.0
 40
0.0
 40
0.1108744649420502
 40
0.2233300706365658
 40
0.33736500148547
 40
0.4556561916665529
 40
0.5792558067940564
 40
0.7109610223870125
 40
0.850798024000899
 40
1.0
 40
1.0
 40
1.0
 40
1.0
 10
187.6437908494981
 20
111.232030698659
 30
0.0
 10
187.6277054497343
 20
111.2208816605128
 30
0.0
 10
187.5953052621226
 20
111.198424591809
 30
0.0
 10
187.542548936185
 20
111.170600133797
 30
0.0
 10
187.4863651361729
 20
111.1471256174434
 30
0.0
 10
187.426335950786
 20
111.1284965728153
 30
0.0
 10
187.3621175901156
 20
111.1134129748844
 30
0.0
 10
187.2930813115335
 20
111.1034201640251
 30
0.0
 10
187.2191098578807
 20
111.0967343868084
 30
0.0
 10
187.1681124936323
 20
111.0961265271922
 30
0.0
 10
187.1417876443699
 20
111.095812749941
 30
0.0
  0
LINE
  5
64
330
1F
100
AcDbEntity
  8
0
  6
Continuous
 62
     7
370
    15
100
AcDbLine
 10
187.8601370033
 20
111.0593544166
 30
0.0
 11
187.6437908495
 21
111.2320306987
 31
0.0
  0
LINE
  5
65
330
1F
100
AcDbEntity
  8
0
  6
Continuous
 62
     7
370
    15
100
AcDbLine
 10
187.916627388
 20
111.144290314
 30
0.0
 11
187.8601370033
 21
111.0593544166
 31
0.0
  0
LINE
  5
66
330
1F
100
AcDbEntity
  8
0
  6
Continuous
 62
     7
370
    15
100
AcDbLine
 10
188.3721562341
 20
113.2137614679
 30
0.0
 11
191.8721562341
 21
113.2137614679
 31
0.0
  0
LINE
  5
67
330
1F
100
AcDbEntity
  8
0
  6
Continuous
 62
     7
370
    15
100
AcDbLine
 10
191.8721562341
 20
105.6457489756
 30
0.0
 11
191.8721562341
 21
113.2137614679
 31
0.0
  0
SPLINE
  5
68
330
1F
100
AcDbEntity
  8
0
  6
Continuous
 62
     7
370
    15
100
AcDbSpline
210
0.0
220
0.0
230
1.0
 70
     8
 71
     3
 72
     8
 73
     4
 74
     0
 42
0.00000001
 43
0.00000001
 40
0.0
 40
0.0
 40
0.0
 40
0.0
 40
1.0
 40
1.0
 40
1.0
 40
1.0
 10
191.8721562341135
 20
105.6457489756263
 30
0.0
 10
191.7257628483281
 20
105.4156290964321
 30
0.0
 10
191.5768243076068
 20
105.1876585061161
 30
0.0
 10
191.4257206688153
 20
104.9615162607613
 30
0.0
  0
LINE
  5
69
330
1F
100
AcDbEntity
  8
0
  6
Continuous
 62
     7
370
    15
100
AcDbLine
 10
191.4257206688
 20
104.9615162608
 30
0.0
 11
183.4331979569
 21
104.9615162608
 31
0.0
  0
SPLINE
  5
6A
330
1F
100
AcDbEntity
  8
0
  6
Continuous
 62
     7
370
    15
100
AcDbSpline
210
0.0
220
0.0
230
1.0
 70
     8
 71
     3
 72
    12
 73
     8
 74
     0
 42
0.00000001
 43
0.00000001
 40
0.0
 40
0.0
 40
0.0
 40
0.0
 40
0.5000000000000013
 40
0.5000000000000013
 40
0.7500000000000007
 40
0.7500000000000007
 40
1.0
 40
1.0
 40
1.0
 40
1.0
 10
183.4331979569271
 20
104.9615162607613
 30
0.0
 10
183.1399682971466
 20
105.7216242563223
 30
0.0
 10
182.8657267053494
 20
106.4888435898889
 30
0.0
 10
182.4983614607585
 20
107.6561502306272
 30
0.0
 10
182.3833107725186
 20
108.0480255090314
 30
0.0
 10
182.1715429885842
 20
108.8386422922279
 30
0.0
 10
182.0746757435295
 20
109.2383113005223
 30
0.0
 10
181.9898222839531
 20
109.6381662779919
 30
0.0
  0
SPLINE
  5
6B
330
1F
100
AcDbEntity
  8
0
  6
Continuous
 62
     7
370
    15
100
AcDbSpline
210
0.0
220
0.0
230
1.0
 70
     8
 71
     3
 72
    10
 73
     6
 74
     0
 42
0.00000001
 43
0.00000001
 40
0.0
 40
0.0
 40
0.0
 40
0.0
 40
0.5
 40
0.5
 40
1.0
 40
1.0
 40
1.0
 40
1.0
 10
181.9898222839531
 20
116.9893566577876
 30
0.0
 10
182.1597417496232
 20
117.7900681957297
 30
0.0
 10
182.3744806027862
 20
118.5772851128736
 30
0.0
 10
182.8639989354402
 20
120.1336413800613
 30
0.0
 10
183.138766821006
 20
120.9027842209075
 30
0.0
 10
183.4331979569271
 20
121.6660066750182
 30
0.0
  0
LINE
  5
6C
330
1F
100
AcDbEntity
  8
0
  6
Continuous
 62
     7
370
    15
100
AcDbLine
 10
183.4331979569
 20
121.666006675
 30
0.0
 11
191.4257206688
 21
121.666006675
 31
0.0
  0
SPLINE
  5
6D
330
1F
100
AcDbEntity
  8
0
  6
Continuous
 62
     7
370
    15
100
AcDbSpline
210
0.0
220
0.0
230
1.0
 70
     8
 71
     3
 72
     8
 73
     4
 74
     0
 42
0.00000001
 43
0.00000001
 40
0.0
 40
0.0
 40
0.0
 40
0.0
 40
1.0
 40
1.0
 40
1.0
 40
1.0
 10
191.4257206688153
 20
121.6660066750182
 30
0.0
 10
191.576964867498
 20
121.4396540672283
 30
0.0
 10
191.725906280106
 20
121.2116683749028
 30
0.0
 10
191.8721562341135
 20
120.9817739601532
 30
0.0
  0
LINE
  5
6E
330
1F
100
AcDbEntity
  8
0
  6
Continuous
 62
     7
370
    15
100
AcDbLine
 10
191.8721562341
 20
113.4137614679
 30
0.0
 11
191.8721562341
 21
120.9817739602
 31
0.0
  0
LINE
  5
6F
330
1F
100
AcDbEntity
  8
0
  6
Continuous
 62
     7
370
    15
100
AcDbLine
 10
191.8721562341
 20
113.4137614679
 30
0.0
 11
188.3721562341
 21
113.4137614679
 31
0.0
  0
LINE
  5
70
330
1F
100
AcDbEntity
  8
0
  6
Continuous
 62
     7
370
    15
100
AcDbLine
 10
188.3721562341
 20
113.4137614679
 30
0.0
 11
188.3721562341
 21
113.2137614679
 31
0.0
  0
SPLINE
  5
71
330
1F
100
AcDbEntity
  8
0
  6
Continuous
 62
     7
370
    15
100
AcDbSpline
210
0.0
220
0.0
230
1.0
 70
     8
 71
     3
 72
    23
 73
    19
 74
     0
 42
0.00000001
 43
0.00000001
 40
0.0
 40
0.0
 40
0.0
 40
0.0
 40
0.0692787012011039
 40
0.1355235837321771
 40
0.1991613828108475
 40
0.2605562949566048
 40
0.3204792014035743
 40
0.3793851116141055
 40
0.4381002844316685
 40
0.4977780859308108
 40
0.5572261271980773
 40
0.6165696670465565
 40
0.6762950674965934
 40
0.7365725983074138
 40
0.7985868137262265
 40
0.8629815925744593
 40
0.9299484105387931
 40
1.0
 40
1.0
 40
1.0
 40
1.0
 10
187.8977972597545
 20
113.3045467243
 30
0.0
 10
187.8972998166373
 20
113.2806124302588
 30
0.0
 10
187.8963267141863
 20
113.2337919609613
 30
0.0
 10
187.8875175174485
 20
113.1654816702333
 30
0.0
 10
187.8743984563485
 20
113.1006427531705
 30
0.0
 10
187.8543631893326
 20
113.0398731552825
 30
0.0
 10
187.8297497423524
 20
112.982592764452
 30
0.0
 10
187.7988953900829
 20
112.9294687123083
 30
0.0
 10
187.7631278077156
 20
112.8796376976192
 30
0.0
 10
187.7215012702358
 20
112.8342975856007
 30
0.0
 10
187.6753485768903
 20
112.7933128660138
 30
0.0
 10
187.6250951443131
 20
112.7573648065269
 30
0.0
 10
187.5707118564752
 20
112.7275033292636
 30
0.0
 10
187.5130342846659
 20
112.702277501461
 30
0.0
 10
187.4513465412464
 20
112.6831089784781
 30
0.0
 10
187.3858634144673
 20
112.6696162211123
 30
0.0
 10
187.3166691127074
 20
112.6615407890056
 30
0.0
 10
187.2693468543202
 20
112.6604652107279
 30
0.0
 10
187.2451530289853
 20
112.6599153140436
 30
0.0
  0
SPLINE
  5
72
330
1F
100
AcDbEntity
  8
0
  6
Continuous
 62
     7
370
    15
100
AcDbSpline
210
0.0
220
0.0
230
1.0
 70
     8
 71
     3
 72
    23
 73
    19
 74
     0
 42
0.00000001
 43
0.00000001
 40
0.0
 40
0.0
 40
0.0
 40
0.0
 40
0.0645337375923708
 40
0.126095818213875
 40
0.1853294707271505
 40
0.2431860146576029
 40
0.3003308758296585
 40
0.3575545087365774
 40
0.4155415459091984
 40
0.4746823233004352
 40
0.5351040464652405
 40
0.5954954361688165
 40
0.6571875972989092
 40
0.7206223763830072
 40
0.7858421929236662
 40
0.8538224401799742
 40
0.9253276281051978
 40
1.0
 40
1.0
 40
1.0
 40
1.0
 10
187.3036466187289
 20
113.9932486473769
 30
0.0
 10
187.3257121929713
 20
113.9927652567247
 30
0.0
 10
187.3688272633556
 20
113.9918207346487
 30
0.0
 10
187.4316853097669
 20
113.9828329125018
 30
0.0
 10
187.4910108252801
 20
113.9679625941176
 30
0.0
 10
187.5470000752436
 20
113.9474033012358
 30
0.0
 10
187.6000177899959
 20
113.9214857056903
 30
0.0
 10
187.649008083148
 20
113.8885125831261
 30
0.0
 10
187.6949268540129
 20
113.8503816073299
 30
0.0
 10
187.7370369135819
 20
113.8065120921541
 30
0.0
 10
187.7748278635509
 20
113.7578697523055
 30
0.0
 10
187.8081112968078
 20
113.7049716010791
 30
0.0
 10
187.8355955256883
 20
113.6477131138658
 30
0.0
 10
187.8585296994988
 20
113.5867435774854
 30
0.0
 10
187.876047149197
 20
113.521768937272
 30
0.0
 10
187.8888956797976
 20
113.4529376194093
 30
0.0
 10
187.8965639235077
 20
113.380042101638
 30
0.0
 10
187.8973802519602
 20
113.3300727403107
 30
0.0
 10
187.8977972597545
 20
113.3045467243
 30
0.0
  0
SPLINE
  5
73
330
1F
100
AcDbEntity
  8
0
  6
Continuous
 62
     7
370
    15
100
AcDbSpline
210
0.0
220
0.0
230
1.0
 70
     8
 71
     3
 72
    23
 73
    19
 74
     0
 42
0.00000001
 43
0.00000001
 40
0.0
 40
0.0
 40
0.0
 40
0.0
 40
0.0664635567780298
 40
0.1309236738232487
 40
0.1927744455963957
 40
0.2535802395440762
 40
0.3137046721607102
 40
0.3725516803797215
 40
0.4310436800390688
 40
0.4896412363120714
 40
0.5488179222267081
 40
0.6084262229269355
 40
0.6691114450986331
 40
0.7307434984826607
 40
0.7945899675020391
 40
0.860998402100335
 40
0.9289299842238564
 40
1.0
 40
1.0
 40
1.0
 40
1.0
 10
186.8449126443699
 20
113.6879601858385
 30
0.0
 10
186.8497196092944
 20
113.7001684254869
 30
0.0
 10
186.859188640721
 20
113.7242169065368
 30
0.0
 10
186.8754325391922
 20
113.7586756956865
 30
0.0
 10
186.8941019697308
 20
113.7905960308083
 30
0.0
 10
186.9146003609979
 20
113.8203115909654
 30
0.0
 10
186.9368084334872
 20
113.8480650515266
 30
0.0
 10
186.9616187246455
 20
113.8728546949956
 30
0.0
 10
186.9875954240534
 20
113.8959491192551
 30
0.0
 10
187.0158024487595
 20
113.9164142816816
 30
0.0
 10
187.0458709264816
 20
113.9344408375602
 30
0.0
 10
187.0777341032645
 20
113.9499814943603
 30
0.0
 10
187.1109088800941
 20
113.9638287098347
 30
0.0
 10
187.1461059107881
 20
113.9745601810865
 30
0.0
 10
187.1830620522321
 20
113.9829932045121
 30
0.0
 10
187.2217658901841
 20
113.9888579390961
 30
0.0
 10
187.26217308769
 20
113.9926093082693
 30
0.0
 10
187.2896155725839
 20
113.9930323504691
 30
0.0
 10
187.3036466187289
 20
113.9932486473769
 30
0.0
  0
SPLINE
  5
74
330
1F
100
AcDbEntity
  8
0
  6
Continuous
 62
     7
370
    15
100
AcDbSpline
210
0.0
220
0.0
230
1.0
 70
     8
 71
     3
 72
    15
 73
    11
 74
     0
 42
0.00000001
 43
0.00000001
 40
0.0
 40
0.0
 40
0.0
 40
0.0
 40
0.1410917436060238
 40
0.2729934421388608
 40
0.397053913061306
 40
0.5174104224164533
 40
0.6353899044599138
 40
0.7529100148815807
 40
0.8735529858034433
 40
1.0
 40
1.0
 40
1.0
 40
1.0
 10
186.4610985418058
 20
113.9163255704538
 30
0.0
 10
186.4834465155587
 20
113.9156804230362
 30
0.0
 10
186.5266868223528
 20
113.9144321500351
 30
0.0
 10
186.5888322069302
 20
113.903521662598
 30
0.0
 10
186.6457657828825
 20
113.885409429319
 30
0.0
 10
186.6975307753148
 20
113.8601547455607
 30
0.0
 10
186.7437114840177
 20
113.8274174838944
 30
0.0
 10
186.7837717030526
 20
113.7874599890236
 30
0.0
 10
186.8184479037039
 20
113.7409450245054
 30
0.0
 10
186.835953993835
 20
113.7058962260685
 30
0.0
 10
186.8449126443699
 20
113.6879601858385
 30
0.0
  0
SPLINE
  5
75
330
1F
100
AcDbEntity
  8
0
  6
Continuous
 62
     7
370
    15
100
AcDbSpline
210
0.0
220
0.0
230
1.0
 70
     8
 71
     3
 72
    23
 73
    19
 74
     0
 42
0.00000001
 43
0.00000001
 40
0.0
 40
0.0
 40
0.0
 40
0.0
 40
0.0780095798990842
 40
0.1518979689424907
 40
0.2219683206823258
 40
0.2886996043793288
 40
0.352598265006069
 40
0.4136518450138768
 40
0.4732261933771199
 40
0.5314440156371242
 40
0.5884935823952357
 40
0.6444838503138988
 40
0.700150634952093
 40
0.7564241695175568
 40
0.8138851567505256
 40
0.8730975988148961
 40
0.934816318895332
 40
0.9999999999999999
 40
0.9999999999999999
 40
0.9999999999999999
 40
0.9999999999999999
 10
185.9490793110366
 20
113.3049473653256
 30
0.0
 10
185.9494011868351
 20
113.3284686784262
 30
0.0
 10
185.9500279339617
 20
113.3742686903153
 30
0.0
 10
185.9566924734083
 20
113.4409129705858
 30
0.0
 10
185.9668276459641
 20
113.5036559666229
 30
0.0
 10
185.9816334824987
 20
113.5623965782622
 30
0.0
 10
186.0007826096125
 20
113.617005608439
 30
0.0
 10
186.0242826712779
 20
113.6674931633609
 30
0.0
 10
186.0512845507641
 20
113.714282673993
 30
0.0
 10
186.0832256162419
 20
113.7563356850623
 30
0.0
 10
186.1183343995448
 20
113.7943377587347
 30
0.0
 10
186.1576088732374
 20
113.8268318701925
 30
0.0
 10
186.1998712305317
 20
113.8549128742093
 30
0.0
 10
186.2459471313146
 20
113.8772070030006
 30
0.0
 10
186.295038203155
 20
113.8950652673723
 30
0.0
 10
186.3475122217736
 20
113.9072151551588
 30
0.0
 10
186.4031620327779
 20
113.9151733276709
 30
0.0
 10
186.4414380079255
 20
113.9159345612499
 30
0.0
 10
186.4610985418058
 20
113.9163255704538
 30
0.0
  0
SPLINE
  5
76
330
1F
100
AcDbEntity
  8
0
  6
Continuous
 62
     7
370
    15
100
AcDbSpline
210
0.0
220
0.0
230
1.0
 70
     8
 71
     3
 72
    23
 73
    19
 74
     0
 42
0.00000001
 43
0.00000001
 40
0.0
 40
0.0
 40
0.0
 40
0.0
 40
0.0719142722649209
 40
0.1401271384709629
 40
0.2059323429266307
 40
0.2688347729654257
 40
0.3301553439919184
 40
0.3902379985426141
 40
0.4495905197958208
 40
0.5093282855311384
 40
0.5688794056417817
 40
0.6271998797118127
 40
0.6855897244450935
 40
0.744765787250933
 40
0.8048975501528145
 40
0.867173412793284
 40
0.9321739773642224
 40
1.0
 40
1.0
 40
1.0
 40
1.0
 10
186.5764831571904
 20
112.7111973653256
 30
0.0
 10
186.5530917582405
 20
112.7116050722572
 30
0.0
 10
186.50751290864
 20
112.7123995015667
 30
0.0
 10
186.4408757861785
 20
112.7201551844265
 30
0.0
 10
186.3781105476514
 20
112.7330591207869
 30
0.0
 10
186.3185544385871
 20
112.7499427283164
 30
0.0
 10
186.2631738488822
 20
112.7731353640801
 30
0.0
 10
186.211077586654
 20
112.8005900959321
 30
0.0
 10
186.1631841722719
 20
112.833976877257
 30
0.0
 10
186.1186683549527
 20
112.8714299154552
 30
0.0
 10
186.0787431531351
 20
112.9133331362949
 30
0.0
 10
186.0439315505958
 20
112.959012755536
 30
0.0
 10
186.0145489378731
 20
113.008216502725
 30
0.0
 10
185.9904119040499
 20
113.0608464110367
 30
0.0
 10
185.9719679275157
 20
113.1170624813875
 30
0.0
 10
185.9588456992532
 20
113.176651273634
 30
0.0
 10
185.950692025179
 20
113.2396856144501
 30
0.0
 10
185.949624452144
 20
113.282887124018
 30
0.0
 10
185.9490793110366
 20
113.3049473653256
 30
0.0
  0
LINE
  5
77
330
1F
100
AcDbEntity
  8
0
  6
Continuous
 62
     7
370
    15
100
AcDbLine
 10
186.5901049521
 20
112.7111973653
 30
0.0
 11
186.5764831572
 21
112.7111973653
 31
0.0
  0
LINE
  5
78
330
1F
100
AcDbEntity
  8
0
  6
Continuous
 62
     7
370
    15
100
AcDbLine
 10
186.5901049521
 20
112.9676076217
 30
0.0
 11
186.5901049521
 21
112.7111973653
 31
0.0
  0
SPLINE
  5
79
330
1F
100
AcDbEntity
  8
0
  6
Continuous
 62
     7
370
    15
100
AcDbSpline
210
0.0
220
0.0
230
1.0
 70
     8
 71
     3
 72
    23
 73
    19
 74
     0
 42
0.00000001
 43
0.00000001
 40
0.0
 40
0.0
 40
0.0
 40
0.0
 40
0.0692280408896369
 40
0.1343797582038666
 40
0.1965670006711937
 40
0.2559183736385293
 40
0.312112788018074
 40
0.3675907122206321
 40
0.4224251443790691
 40
0.4772333802538115
 40
0.5328553408498842
 40
0.5903097872464463
 40
0.6499060798838661
 40
0.7116961671924898
 40
0.7777237030129366
 40
0.8472268056658498
 40
0.9211693225177044
 40
1.0
 40
1.0
 40
1.0
 40
1.0
 10
186.1798485418058
 20
113.3293864678897
 30
0.0
 10
186.1801303279882
 20
113.3149475502893
 30
0.0
 10
186.1806773080641
 20
113.2869199153752
 30
0.0
 10
186.1856508554253
 20
113.2461837887971
 30
0.0
 10
186.1933592397556
 20
113.2079596429383
 30
0.0
 10
186.2051400362642
 20
113.172756923487
 30
0.0
 10
186.2195105638004
 20
113.1400249415927
 30
0.0
 10
186.2378737267251
 20
113.1104897554061
 30
0.0
 10
186.2584361043866
 20
113.0827442324345
 30
0.0
 10
186.2834523889541
 20
113.0589099856937
 30
0.0
 10
186.3106263898335
 20
113.0367165136342
 30
0.0
 10
186.3419100072748
 20
113.0186930793486
 30
0.0
 10
186.375487813512
 20
113.0023954612628
 30
0.0
 10
186.4125035359597
 20
112.9896035463917
 30
0.0
 10
186.4524872082385
 20
112.9797778006647
 30
0.0
 10
186.4955901270653
 20
112.9724548751715
 30
0.0
 10
186.5418275163059
 20
112.968687687959
 30
0.0
 10
186.5736728305354
 20
112.9679752423263
 30
0.0
 10
186.5901049520622
 20
112.9676076217359
 30
0.0
  0
SPLINE
  5
7A
330
1F
100
AcDbEntity
  8
0
  6
Continuous
 62
     7
370
    15
100
AcDbSpline
210
0.0
220
0.0
230
1.0
 70
     8
 71
     3
 72
    23
 73
    19
 74
     0
 42
0.00000001
 43
0.00000001
 40
0.0
 40
0.0
 40
0.0
 40
0.0
 40
0.0689157781163109
 40
0.1335274650981223
 40
0.1959536396601404
 40
0.2550375133701481
 40
0.3124318501641335
 40
0.3689125741202328
 40
0.4241818947178092
 40
0.4807236159882028
 40
0.537596898278436
 40
0.5962549367180702
 40
0.6553812252746842
 40
0.7177421083534224
 40
0.782455565165911
 40
0.851566591801205
 40
0.9231717914417029
 40
1.0
 40
1.0
 40
1.0
 40
1.0
 10
186.4767235418058
 20
113.6599153140436
 30
0.0
 10
186.4650925494874
 20
113.6597328801576
 30
0.0
 10
186.4425569710858
 20
113.6593794061782
 30
0.0
 10
186.4096906418414
 20
113.6552542532834
 30
0.0
 10
186.3789931519433
 20
113.6484970188761
 30
0.0
 10
186.3501810446169
 20
113.6393265195977
 30
0.0
 10
186.3235500519694
 20
113.6272372495697
 30
0.0
 10
186.2990809884307
 20
113.612425034796
 30
0.0
 10
186.2767032859287
 20
113.5948544152186
 30
0.0
 10
186.2563222464093
 20
113.5749185739916
 30
0.0
 10
186.2380303870628
 20
113.55226875892
 30
0.0
 10
186.2227243287309
 20
113.5270278971732
 30
0.0
 10
186.2091105781141
 20
113.4998033559006
 30
0.0
 10
186.1985437314753
 20
113.4701583399653
 30
0.0
 10
186.1899877801675
 20
113.4381493498057
 30
0.0
 10
186.1842209420119
 20
113.4039403348961
 30
0.0
 10
186.1804551069538
 20
113.3673977248056
 30
0.0
 10
186.1800554182118
 20
113.3423506684311
 30
0.0
 10
186.1798485418058
 20
113.3293864678897
 30
0.0
  0
SPLINE
  5
7B
330
1F
100
AcDbEntity
  8
0
  6
Continuous
 62
     7
370
    15
100
AcDbSpline
210
0.0
220
0.0
230
1.0
 70
     8
 71
     3
 72
    23
 73
    19
 74
     0
 42
0.00000001
 43
0.00000001
 40
0.0
 40
0.0
 40
0.0
 40
0.0
 40
0.0880809049059557
 40
0.1698435193683141
 40
0.2462065795924699
 40
0.3161313337149518
 40
0.3814652441461968
 40
0.4415273509422319
 40
0.4980137278446451
 40
0.5504641220662237
 40
0.6010540493371623
 40
0.6517057218637237
 40
0.7029656758429152
 40
0.7562487071454187
 40
0.8119409987128668
 40
0.8702649936551553
 40
0.9328417356342524
 40
1.0
 40
1.0
 40
1.0
 40
1.0
 10
186.7695921315494
 20
113.2781044166077
 30
0.0
 10
186.7693536858217
 20
113.294403400563
 30
0.0
 10
186.7688938987473
 20
113.3258321966233
 30
0.0
 10
186.7656047117453
 20
113.371290596968
 30
0.0
 10
186.7606836305606
 20
113.4132214922753
 30
0.0
 10
186.7531018822578
 20
113.4516914970651
 30
0.0
 10
186.7430089777036
 20
113.4864266907474
 30
0.0
 10
186.7315372147243
 20
113.5181032001021
 30
0.0
 10
186.7177018099192
 20
113.5462423809689
 30
0.0
 10
186.7010260125464
 20
113.5707320478888
 30
0.0
 10
186.6817923240671
 20
113.591762669286
 30
0.0
 10
186.6606025624492
 20
113.6105279007113
 30
0.0
 10
186.6361414907718
 20
113.6258155489287
 30
0.0
 10
186.6090901048438
 20
113.6380505164417
 30
0.0
 10
186.5798114837272
 20
113.6483388171222
 30
0.0
 10
186.5477176247178
 20
113.6547744118952
 30
0.0
 10
186.5131908526735
 20
113.6595352133367
 30
0.0
 10
186.4891621655085
 20
113.6597856656119
 30
0.0
 10
186.4767235418058
 20
113.6599153140436
 30
0.0
  0
SPLINE
  5
7C
330
1F
100
AcDbEntity
  8
0
  6
Continuous
 62
     7
370
    15
100
AcDbSpline
210
0.0
220
0.0
230
1.0
 70
     8
 71
     3
 72
    11
 73
     7
 74
     0
 42
0.00000001
 43
0.00000001
 40
0.0
 40
0.0
 40
0.0
 40
0.0
 40
0.2153503896090696
 40
0.4354015545069419
 40
0.6852517265662523
 40
1.0
 40
1.0
 40
1.0
 40
1.0
 10
186.7671882853955
 20
113.1979762114795
 30
0.0
 10
186.7676177424708
 20
113.2037169136253
 30
0.0
 10
186.7684860310237
 20
113.2153236288152
 30
0.0
 10
186.7692964109048
 20
113.2336258359721
 30
0.0
 10
186.7696937680425
 20
113.254598357164
 30
0.0
 10
186.7696285107273
 20
113.2696907937831
 30
0.0
 10
186.7695921315494
 20
113.2781044166077
 30
0.0
  0
LINE
  5
7D
330
1F
100
AcDbEntity
  8
0
  6
Continuous
 62
     7
370
    15
100
AcDbLine
 10
186.9807299521
 20
113.1967742884
 30
0.0
 11
186.7671882854
 21
113.1979762115
 31
0.0
  0
LINE
  5
7E
330
1F
100
AcDbEntity
  8
0
  6
Continuous
 62
     7
370
    15
100
AcDbLine
 10
186.979528029
 20
113.205989032
 30
0.0
 11
186.9807299521
 21
113.1967742884
 31
0.0
  0
SPLINE
  5
7F
330
1F
100
AcDbEntity
  8
0
  6
Continuous
 62
     7
370
    15
100
AcDbSpline
210
0.0
220
0.0
230
1.0
 70
     8
 71
     3
 72
    11
 73
     7
 74
     0
 42
0.00000001
 43
0.00000001
 40
0.0
 40
0.0
 40
0.0
 40
0.0
 40
0.1748925297932437
 40
0.3998052323842604
 40
0.6748762670822572
 40
1.0
 40
1.0
 40
1.0
 40
1.0
 10
186.9747203366776
 20
113.3341941601974
 30
0.0
 10
186.9748436693587
 20
113.3267153911195
 30
0.0
 10
186.975125608509
 20
113.3096188861248
 30
0.0
 10
186.9758718347391
 20
113.2807633853237
 30
0.0
 10
186.9776477061021
 20
113.2455180687369
 30
0.0
 10
186.9788673509652
 20
113.2198781177262
 30
0.0
 10
186.9795280289853
 20
113.2059890319923
 30
0.0
  0
SPLINE
  5
80
330
1F
100
AcDbEntity
  8
0
  6
Continuous
 62
     7
370
    15
100
AcDbSpline
210
0.0
220
0.0
230
1.0
 70
     8
 71
     3
 72
    23
 73
    19
 74
     0
 42
0.00000001
 43
0.00000001
 40
0.0
 40
0.0
 40
0.0
 40
0.0
 40
0.0647407874969033
 40
0.125887333365143
 40
0.1841810479805741
 40
0.240841447444827
 40
0.2965654514503252
 40
0.3515187315750763
 40
0.407055231390195
 40
0.4639401910550155
 40
0.5219588867826813
 40
0.5817522873938133
 40
0.6433520566043761
 40
0.7081644125373244
 40
0.7753785554246806
 40
0.8457861531395039
 40
0.9209916627529894
 40
0.9999999999999999
 40
0.9999999999999999
 40
0.9999999999999999
 40
0.9999999999999999
 10
187.3020440546263
 20
113.7368383909667
 30
0.0
 10
187.2893434147524
 20
113.7365386198148
 30
0.0
 10
187.2646472417898
 20
113.7359557200326
 30
0.0
 10
187.2287421239206
 20
113.7312126184969
 30
0.0
 10
187.1952005275519
 20
113.7226777195773
 30
0.0
 10
187.1637510543321
 20
113.7110344091658
 30
0.0
 10
187.1343486943073
 20
113.6962539347325
 30
0.0
 10
187.1072933615935
 20
113.6779381794171
 30
0.0
 10
187.0821609420126
 20
113.6566840888825
 30
0.0
 10
187.0598607848121
 20
113.6316501063114
 30
0.0
 10
187.0397851995748
 20
113.6038393996287
 30
0.0
 10
187.0219075648461
 20
113.5734172709761
 30
0.0
 10
187.0078399474636
 20
113.5396510946949
 30
0.0
 10
186.9950922094737
 20
113.5038296192912
 30
0.0
 10
186.9862436504629
 20
113.465055247892
 30
0.0
 10
186.97925096581
 20
113.4238849098888
 30
0.0
 10
186.9753021493278
 20
113.3799447318614
 30
0.0
 10
186.9749174364958
 20
113.3496930142584
 30
0.0
 10
186.9747203366776
 20
113.3341941601974
 30
0.0
  0
SPLINE
  5
81
330
1F
100
AcDbEntity
  8
0
  6
Continuous
 62
     7
370
    15
100
AcDbSpline
210
0.0
220
0.0
230
1.0
 70
     8
 71
     3
 72
    23
 73
    19
 74
     0
 42
0.00000001
 43
0.00000001
 40
0.0
 40
0.0
 40
0.0
 40
0.0
 40
0.074476506974658
 40
0.1453829529709564
 40
0.2125360310157017
 40
0.277704129678348
 40
0.339972941635064
 40
0.4001792860470976
 40
0.4597983056607192
 40
0.518728269158162
 40
0.5773088776670873
 40
0.6344193966149413
 40
0.6913646383036359
 40
0.7492727728696079
 40
0.8082240581901592
 40
0.8693008010561492
 40
0.9332850175417509
 40
1.0
 40
1.0
 40
1.0
 40
1.0
 10
187.6670280289853
 20
113.3297871089154
 30
0.0
 10
187.6666962388268
 20
113.3451546585539
 30
0.0
 10
187.666048563003
 20
113.3751531082278
 30
0.0
 10
187.6617192471493
 20
113.4188468197319
 30
0.0
 10
187.6540951625275
 20
113.4601372001613
 30
0.0
 10
187.6432866875569
 20
113.4988480921159
 30
0.0
 10
187.6298419849601
 20
113.5352389603064
 30
0.0
 10
187.6126128832057
 20
113.5686958730305
 30
0.0
 10
187.5932349704791
 20
113.6001529000745
 30
0.0
 10
187.5701845665042
 20
113.6286358321402
 30
0.0
 10
187.5447020998573
 20
113.6541903334694
 30
0.0
 10
187.5168533814618
 20
113.6765457045315
 30
0.0
 10
187.4864689380168
 20
113.6950486735806
 30
0.0
 10
187.4539115849756
 20
113.710212375404
 30
0.0
 10
187.4192162189753
 20
113.7224714078309
 30
0.0
 10
187.382072752992
 20
113.7306307421347
 30
0.0
 10
187.3428045127596
 20
113.7360847311285
 30
0.0
 10
187.3158188160444
 20
113.7365836959771
 30
0.0
 10
187.3020440546263
 20
113.7368383909667
 30
0.0
  0
SPLINE
  5
82
330
1F
100
AcDbEntity
  8
0
  6
Continuous
 62
     7
370
    15
100
AcDbSpline
210
0.0
220
0.0
230
1.0
 70
     8
 71
     3
 72
    23
 73
    19
 74
     0
 42
0.00000001
 43
0.00000001
 40
0.0
 40
0.0
 40
0.0
 40
0.0
 40
0.0748688364129785
 40
0.1454694858381935
 40
0.2127712267791931
 40
0.2766499174106867
 40
0.3381886785363084
 40
0.3979536804558925
 40
0.4560727567337898
 40
0.5132785021607323
 40
0.569908994969123
 40
0.6266525624554993
 40
0.6836003154090636
 40
0.7415731499096112
 40
0.8020756636091129
 40
0.8646473542884114
 40
0.9305023603545585
 40
1.0
 40
1.0
 40
1.0
 40
1.0
 10
187.2311305930878
 20
112.9163255704538
 30
0.0
 10
187.2481098969689
 20
112.9170070087044
 30
0.0
 10
187.2811005339791
 20
112.9183310371878
 30
0.0
 10
187.3290423626875
 20
112.9244651691035
 30
0.0
 10
187.3739641893656
 20
112.9335169896107
 30
0.0
 10
187.4159411359835
 20
112.9459792358856
 30
0.0
 10
187.4550011897709
 20
112.9616181249976
 30
0.0
 10
187.4912004046629
 20
112.9803991861085
 30
0.0
 10
187.5242957041723
 20
113.0025286775085
 30
0.0
 10
187.5540441645009
 20
113.027905216206
 30
0.0
 10
187.5806052028226
 20
113.0561343307383
 30
0.0
 10
187.6041234785807
 20
113.0869358270977
 30
0.0
 10
187.6231648008275
 20
113.1210131260162
 30
0.0
 10
187.6395508464164
 20
113.1573502794867
 30
0.0
 10
187.6517902161055
 20
113.1966684006005
 30
0.0
 10
187.6604466157909
 20
113.2386804109611
 30
0.0
 10
187.6664008661924
 20
113.2832770365021
 30
0.0
 10
187.6668152573326
 20
113.314008071816
 30
0.0
 10
187.6670280289853
 20
113.3297871089154
 30
0.0
  0
LINE
  5
83
330
1F
100
AcDbEntity
  8
0
  6
Continuous
 62
     7
370
    15
100
AcDbLine
 10
187.2311305931
 20
112.659915314
 30
0.0
 11
187.2311305931
 21
112.9163255705
 31
0.0
  0
LINE
  5
84
330
1F
100
AcDbEntity
  8
0
  6
Continuous
 62
     7
370
    15
100
AcDbLine
 10
187.245153029
 20
112.659915314
 30
0.0
 11
187.2311305931
 21
112.659915314
 31
0.0
  0
SPLINE
  5
85
330
1F
100
AcDbEntity
  8
0
  6
Continuous
 62
     7
370
    15
100
AcDbSpline
210
0.0
220
0.0
230
1.0
 70
     8
 71
     3
 72
    23
 73
    19
 74
     0
 42
0.00000001
 43
0.00000001
 40
0.0
 40
0.0
 40
0.0
 40
0.0
 40
0.0592833497870527
 40
0.1158598625438498
 40
0.1695285953913521
 40
0.2219388067159525
 40
0.2735352627752696
 40
0.3255953050354236
 40
0.3783011166957056
 40
0.4333662763574784
 40
0.4906827352741435
 40
0.551180930510894
 40
0.614886281093957
 40
0.6827619428388789
 40
0.7547884297644812
 40
0.8314700929191774
 40
0.9131173814038436
 40
1.0
 40
1.0
 40
1.0
 40
1.0
 10
187.8977972597545
 20
114.8886813396846
 30
0.0
 10
187.8970282208466
 20
114.8623303437721
 30
0.0
 10
187.8955252568192
 20
114.8108315203201
 30
0.0
 10
187.8838292528372
 20
114.736185474864
 30
0.0
 10
187.8644485416565
 20
114.6664183711199
 30
0.0
 10
187.8377805831378
 20
114.6013831294164
 30
0.0
 10
187.8022582525068
 20
114.541590447347
 30
0.0
 10
187.7598437886159
 20
114.4863081108986
 30
0.0
 10
187.7088017263574
 20
114.4366156485641
 30
0.0
 10
187.6505698532207
 20
114.391768198476
 30
0.0
 10
187.5847054842957
 20
114.3519113408072
 30
0.0
 10
187.5115105984015
 20
114.317748534059
 30
0.0
 10
187.4312991385778
 20
114.2882360082614
 30
0.0
 10
187.3437147246823
 20
114.2651833271584
 30
0.0
 10
187.2493186906256
 20
114.2461369867792
 30
0.0
 10
187.1476991004229
 20
114.2332046474183
 30
0.0
 10
187.0389369856968
 20
114.225718206062
 30
0.0
 10
186.9640487819765
 20
114.2245962716349
 30
0.0
 10
186.9254414905237
 20
114.2240178781462
 30
0.0
  0
SPLINE
  5
86
330
1F
100
AcDbEntity
  8
0
  6
Continuous
 62
     7
370
    15
100
AcDbSpline
210
0.0
220
0.0
230
1.0
 70
     8
 71
     3
 72
    23
 73
    19
 74
     0
 42
0.00000001
 43
0.00000001
 40
0.0
 40
0.0
 40
0.0
 40
0.0
 40
0.0866677597929969
 40
0.1681346530250503
 40
0.2446266841148305
 40
0.3164168573254076
 40
0.3842036027344039
 40
0.4477514113878809
 40
0.5080999959196146
 40
0.5652747124951399
 40
0.6202036972292699
 40
0.6732014409505087
 40
0.7251327398721995
 40
0.776860275345884
 40
0.829417793363884
 40
0.8835315781222304
 40
0.9402644188870598
 40
1.0
 40
1.0
 40
1.0
 40
1.0
 10
186.9254414905238
 20
115.5573512114795
 30
0.0
 10
186.9640512242806
 20
115.5568172722707
 30
0.0
 10
187.0389537509423
 20
115.5557814351401
 30
0.0
 10
187.1476921803137
 20
115.5476887962324
 30
0.0
 10
187.2492537600105
 20
115.534673193646
 30
0.0
 10
187.3438393153185
 20
115.5164416237668
 30
0.0
 10
187.4312261023854
 20
115.492587905505
 30
0.0
 10
187.511517104191
 20
115.4632552046765
 30
0.0
 10
187.5847154591968
 20
115.4290599056413
 30
0.0
 10
187.6505272842113
 20
115.3891597019046
 30
0.0
 10
187.7091030679619
 20
115.3443885312401
 30
0.0
 10
187.7595654011277
 20
115.2938502561996
 30
0.0
 10
187.8024202494182
 20
115.2385559669621
 30
0.0
 10
187.8377498522029
 20
115.1783470549305
 30
0.0
 10
187.8645375085129
 20
115.1128348557751
 30
0.0
 10
187.8837612587361
 20
115.0424874063133
 30
0.0
 10
187.8955586566324
 20
114.9672019006222
 30
0.0
 10
187.8970383424989
 20
114.9153008900768
 30
0.0
 10
187.8977972597545
 20
114.8886813396846
 30
0.0
  0
SPLINE
  5
87
330
1F
100
AcDbEntity
  8
0
  6
Continuous
 62
     7
370
    15
100
AcDbSpline
210
0.0
220
0.0
230
1.0
 70
     8
 71
     3
 72
     8
 73
     4
 74
     0
 42
0.00000001
 43
0.00000001
 40
0.0000002897093945
 40
0.0000002897093945
 40
0.0000002897093945
 40
0.0000002897093945
 40
0.0003340674561561
 40
0.0003340674561561
 40
0.0003340674561561
 40
0.0003340674561561
 10
192.1027206688153
 20
105.8470637527808
 30
0.0
 10
192.0259131678258
 20
105.7798866421501
 30
0.0
 10
191.9490571212034
 20
105.7127834833325
 30
0.0
 10
191.8721562341135
 20
105.6457489756263
 30
0.0
  0
LINE
  5
88
330
1F
100
AcDbEntity
  8
0
  6
Continuous
 62
     7
370
    15
100
AcDbLine
 10
191.8721562341
 20
113.2137614679
 30
0.0
 11
191.8721562341
 21
113.4137614679
 31
0.0
  0
SPLINE
  5
89
330
1F
100
AcDbEntity
  8
0
  6
Continuous
 62
     7
370
    15
100
AcDbSpline
210
0.0
220
0.0
230
1.0
 70
     8
 71
     3
 72
     8
 73
     4
 74
     0
 42
0.00000001
 43
0.00000001
 40
0.0000005011813246
 40
0.0000005011813246
 40
0.0000005011813246
 40
0.0000005011813246
 40
0.0003342789280862
 40
0.0003342789280862
 40
0.0003342789280862
 40
0.0003342789280862
 10
191.8721562341135
 20
120.9817739601532
 30
0.0
 10
191.9490571212034
 20
120.9147394524469
 30
0.0
 10
192.0259131678258
 20
120.8476362936294
 30
0.0
 10
192.1027206688153
 20
120.7804591829987
 30
0.0
  0
LINE
  5
8A
330
1F
100
AcDbEntity
  8
0
  6
Continuous
 62
     7
370
    15
100
AcDbLine
 10
192.1027206688
 20
120.780459183
 30
0.0
 11
192.1027206688
 21
105.8470637528
 31
0.0
  0
ELLIPSE
  5
8B
330
1F
100
AcDbEntity
  8
0
  6
Continuous
 62
     7
370
    15
100
AcDbEllipse
 10
187.1956190537
 20
113.3137614679
 30
0.0
 11
21.65063509461126
 21
0.0
 31
0.0
210
0.0
220
0.0
230
1.0
 40
0.5773502692
 41
1.374151399176426
 42
1.399990390418794
  0
LINE
  5
8C
330
1F
100
AcDbEntity
  8
0
  6
Continuous
 62
     7
370
    15
100
AcDbLine
 10
191.4257206688
 20
125.2967668136
 30
0.0
 11
191.4257206688
 21
125.5728565993
 31
0.0
  0
ELLIPSE
  5
8D
330
1F
100
AcDbEntity
  8
0
  6
Continuous
 62
     7
370
    15
100
AcDbEllipse
 10
197.5879238991
 20
113.3137614679
 30
0.0
 11
21.65063509461126
 21
0.0
 31
0.0
210
0.0
220
0.0
230
1.0
 40
0.5773502692
 41
1.859406311357801
 42
1.886013958523445
  0
SPLINE
  5
8E
330
1F
100
AcDbEntity
  8
0
  6
Continuous
 62
     7
370
    15
100
AcDbSpline
210
0.0
220
0.0
230
1.0
 70
     8
 71
     3
 72
    23
 73
    19
 74
     0
 42
0.00000001
 43
0.00000001
 40
0.0
 40
0.0
 40
0.0
 40
0.0
 40
0.0000498372656661
 40
0.0000498372656661
 40
0.0000498372656661
 40
0.0000995402842366
 40
0.0000995402842366
 40
0.0000995402842366
 40
0.0001513125481458
 40
0.0001513125481458
 40
0.0001513125481458
 40
0.0002048985925241
 40
0.0002048985925241
 40
0.0002048985925241
 40
0.0002585228965183
 40
0.0002585228965183
 40
0.0002585228965183
 40
0.0003120846433393
 40
0.0003120846433393
 40
0.0003120846433393
 40
0.0003120846433393
 10
190.8757206688153
 20
125.1136253118008
 30
0.0
 10
190.8615487183517
 20
125.1164854378616
 30
0.0
 10
190.8487482207729
 20
125.1202166349702
 30
0.0
 10
190.83830434812
 20
125.1244474382215
 30
0.0
 10
190.8278775087043
 20
125.128671341324
 30
0.0
 10
190.8195035323895
 20
125.1335034625569
 30
0.0
 10
190.8137185291918
 20
125.1385430064899
 30
0.0
 10
190.8076956174137
 20
125.1437898019494
 30
0.0
 10
190.8043153496222
 20
125.1493998367149
 30
0.0
 10
190.8037938609429
 20
125.1549292230553
 30
0.0
 10
190.8032546165537
 20
125.1606468746128
 30
0.0
 10
190.8057630039224
 20
125.1664364217592
 30
0.0
 10
190.8111664842493
 20
125.1718199816201
 30
0.0
 10
190.8165700196178
 20
125.1772035963197
 30
0.0
 10
190.8250378903045
 20
125.1823366527121
 30
0.0
 10
190.8359444675701
 20
125.1867579376895
 30
0.0
 10
190.8468263227367
 20
125.1911692008752
 30
0.0
 10
190.8604934688493
 20
125.1950063006711
 30
0.0
 10
190.8757206688153
 20
125.197873099188
 30
0.0
  0
ELLIPSE
  5
8F
330
1F
100
AcDbEntity
  8
0
  6
Continuous
 62
     7
370
    15
100
AcDbEllipse
 10
183.7315174385
 20
113.3137614679
 30
0.0
 11
21.65063509461123
 21
0.0
 31
0.0
210
0.0
220
0.0
230
1.0
 40
0.5773502692
 41
1.2074757266953
 42
1.234517526767546
  0
LINE
  5
90
330
1F
100
AcDbEntity
  8
0
  6
Continuous
 62
     7
370
    15
100
AcDbLine
 10
191.4257206688
 20
124.5102528085
 30
0.0
 11
191.4257206688
 21
124.9977852704
 31
0.0
  0
ELLIPSE
  5
91
330
1F
100
AcDbEntity
  8
0
  6
Continuous
 62
     7
370
    15
100
AcDbEllipse
 10
201.0520255142
 20
113.3137614679
 30
0.0
 11
21.65063509461123
 21
0.0
 31
0.0
210
0.0
220
0.0
230
1.0
 40
0.5773502692
 41
2.031546275538658
 42
2.060113601244127
  0
SPLINE
  5
92
330
1F
100
AcDbEntity
  8
0
  6
Continuous
 62
     7
370
    15
100
AcDbSpline
210
0.0
220
0.0
230
1.0
 70
     8
 71
     3
 72
    10
 73
     6
 74
     0
 42
0.00000001
 43
0.00000001
 40
0.0
 40
0.0
 40
0.0
 40
0.0
 40
0.5
 40
0.5
 40
1.0
 40
1.0
 40
1.0
 40
1.0
 10
190.8757206688153
 20
124.2104562008012
 30
0.0
 10
190.8291099697726
 20
124.2255819037971
 30
0.0
 10
190.8037970799506
 20
124.2528175204185
 30
0.0
 10
190.8036446097771
 20
124.3061712029473
 30
0.0
 10
190.8289221399013
 20
124.3325479791797
 30
0.0
 10
190.8757206688153
 20
124.3469359837641
 30
0.0
  0
ELLIPSE
  5
93
330
1F
100
AcDbEntity
  8
0
  6
Continuous
 62
     7
370
    15
100
AcDbEllipse
 10
180.2674158234
 20
113.3137614679
 30
0.0
 11
21.65063509461129
 21
0.0
 31
0.0
210
0.0
220
0.0
230
1.0
 40
0.5773502692
 41
1.029345281035564
 42
1.058733402552058
  0
LINE
  5
94
330
1F
100
AcDbEntity
  8
0
  6
Continuous
 62
     7
370
    15
100
AcDbLine
 10
191.4257206688
 20
123.2701875117
 30
0.0
 11
191.4257206688
 21
124.0257832655
 31
0.0
  0
ELLIPSE
  5
95
330
1F
100
AcDbEntity
  8
0
  6
Continuous
 62
     7
370
    15
100
AcDbEllipse
 10
204.5161271294
 20
113.3137614679
 30
0.0
 11
21.65063509461126
 21
0.0
 31
0.0
210
0.0
220
0.0
230
1.0
 40
0.5773502692
 41
2.220084998198419
 42
2.252379653965378
  0
SPLINE
  5
96
330
1F
100
AcDbEntity
  8
0
  6
Continuous
 62
     7
370
    15
100
AcDbSpline
210
0.0
220
0.0
230
1.0
 70
     8
 71
     3
 72
    10
 73
     6
 74
     0
 42
0.00000001
 43
0.00000001
 40
0.0
 40
0.0
 40
0.0
 40
0.0
 40
0.5
 40
0.5
 40
1.0
 40
1.0
 40
1.0
 40
1.0
 10
190.8757206688153
 20
122.8131891069468
 30
0.0
 10
190.8263313167116
 20
122.8375774899117
 30
0.0
 10
190.8039325912785
 20
122.8786891001516
 30
0.0
 10
190.8035116241071
 20
122.9571341067996
 30
0.0
 10
190.8259869111117
 20
122.9976684312824
 30
0.0
 10
190.8757206688043
 20
123.0209634607632
 30
0.0
  0
ELLIPSE
  5
97
330
1F
100
AcDbEntity
  8
0
  6
Continuous
 62
     7
370
    15
100
AcDbEllipse
 10
176.8033142083
 20
113.3137614679
 30
0.0
 11
21.65063509461123
 21
0.0
 31
0.0
210
0.0
220
0.0
230
1.0
 40
0.5773502692
 41
0.8293164376064014
 42
0.8632426651555414
  0
LINE
  5
98
330
1F
100
AcDbEntity
  8
0
  6
Continuous
 62
     7
370
    15
100
AcDbLine
 10
191.4257206688
 20
121.666006675
 30
0.0
 11
191.4257206688
 21
122.5321349561
 31
0.0
  0
LINE
  5
99
330
1F
100
AcDbEntity
  8
0
  6
Continuous
 62
     7
370
    15
100
AcDbLine
 10
183.4331979569
 20
121.666006675
 30
0.0
 11
183.4331979569
 21
125.8137614679
 31
0.0
  0
SPLINE
  5
9A
330
1F
100
AcDbEntity
  8
0
  6
Continuous
 62
     7
370
    15
100
AcDbSpline
210
0.0
220
0.0
230
1.0
 70
     8
 71
     3
 72
    11
 73
     7
 74
     0
 42
0.00000001
 43
0.00000001
 40
0.0
 40
0.0
 40
0.0
 40
0.0
 40
0.3220227100034273
 40
0.6440454641284303
 40
0.9660632698350867
 40
1.0
 40
1.0
 40
1.0
 40
1.0
 10
190.8757206688153
 20
125.8131393724096
 30
0.0
 10
190.8624065314374
 20
125.8132304607809
 30
0.0
 10
190.8357782548573
 20
125.813412637536
 30
0.0
 10
190.8121670289244
 20
125.8136652055716
 30
0.0
 10
190.8016039778904
 20
125.8137852913993
 30
0.0
 10
190.8042369720536
 20
125.8137556355517
 30
0.0
 10
190.8044880019
 20
125.8137528081612
 30
0.0
  0
ELLIPSE
  5
9B
330
1F
100
AcDbEntity
  8
0
  6
Continuous
 62
     7
370
    15
100
AcDbEllipse
 10
190.6597206688
 20
113.3137614679
 30
0.0
 11
21.65063509461126
 21
0.0
 31
0.0
210
0.0
220
0.0
230
1.0
 40
0.5773502692
 41
1.535408917003357
 42
1.560819548635854
  0
LINE
  5
9C
330
1F
100
AcDbEntity
  8
0
  6
Continuous
 62
     7
370
    15
100
AcDbLine
 10
191.4257206688
 20
125.7163182967
 30
0.0
 11
191.4257206688
 21
125.8059356048
 31
0.0
  0
ELLIPSE
  5
9D
330
1F
100
AcDbEntity
  8
0
  6
Continuous
 62
     7
370
    15
100
AcDbEllipse
 10
194.123822284
 20
113.3137614679
 30
0.0
 11
21.65063509461129
 21
0.0
 31
0.0
210
0.0
220
0.0
230
1.0
 40
0.5773502692
 41
1.695741138506169
 42
1.721388254594966
  0
SPLINE
  5
9E
330
1F
100
AcDbEntity
  8
0
  6
Continuous
 62
     7
370
    15
100
AcDbSpline
210
0.0
220
0.0
230
1.0
 70
     8
 71
     3
 72
    26
 73
    22
 74
     0
 42
0.00000001
 43
0.00000001
 40
0.0
 40
0.0
 40
0.0
 40
0.0
 40
0.000048724821035
 40
0.000048724821035
 40
0.000048724821035
 40
0.0000974161824459
 40
0.0000974161824459
 40
0.0000974161824459
 40
0.0001465947471498
 40
0.0001465947471498
 40
0.0001465947471498
 40
0.0001961752299092
 40
0.0001961752299092
 40
0.0001961752299092
 40
0.0002457281726382
 40
0.0002457281726382
 40
0.0002457281726382
 40
0.0002948749637847
 40
0.0002948749637847
 40
0.0002948749637847
 40
0.0003028702933878
 40
0.0003028702933878
 40
0.0003028702933878
 40
0.0003028702933878
 10
190.8757206688153
 20
125.6318626757635
 30
0.0
 10
190.8617070440255
 20
125.6332582253522
 30
0.0
 10
190.8489346292039
 20
125.6350804699632
 30
0.0
 10
190.8384441470323
 20
125.6371573615672
 30
0.0
 10
190.8279580004001
 20
125.6392333948269
 30
0.0
 10
190.8194605086089
 20
125.6416196736646
 30
0.0
 10
190.8136159805487
 20
125.6441066619559
 30
0.0
 10
190.8077137518326
 20
125.6466182032741
 30
0.0
 10
190.8043548736366
 20
125.6493005938931
 30
0.0
 10
190.8038040926055
 20
125.6519287657591
 30
0.0
 10
190.8032489467566
 20
125.6545777653058
 30
0.0
 10
190.805532968721
 20
125.6572447912454
 30
0.0
 10
190.8104805445535
 20
125.6597125243604
 30
0.0
 10
190.8154246518463
 20
125.6621785274503
 30
0.0
 10
190.8231693173224
 20
125.6645146184251
 30
0.0
 10
190.8330885957423
 20
125.6665349579142
 30
0.0
 10
190.8429266727204
 20
125.6685387584504
 30
0.0
 10
190.8551818666686
 20
125.6702886238944
 30
0.0
 10
190.8688367706663
 20
125.671648496468
 30
0.0
 10
190.8710901926977
 20
125.6718729115805
 30
0.0
 10
190.8733866310458
 20
125.6720875902451
 30
0.0
 10
190.8757206688153
 20
125.6722920695665
 30
0.0
  0
LINE
  5
9F
330
1F
100
AcDbEntity
  8
0
  6
Continuous
 62
     7
370
    15
100
AcDbLine
 10
183.4331979569
 20
100.8137614679
 30
0.0
 11
183.4331979569
 21
104.9615162608
 31
0.0
  0
LINE
  5
A0
330
1F
100
AcDbEntity
  8
0
  6
Continuous
 62
     7
370
    15
100
AcDbLine
 10
192.1027206688
 20
105.4550476428
 30
0.0
 11
192.1027206688
 21
105.8470637528
 31
0.0
  0
SPLINE
  5
A1
330
1F
100
AcDbEntity
  8
0
  6
Continuous
 62
     7
370
    15
100
AcDbSpline
210
0.0
220
0.0
230
1.0
 70
     8
 71
     3
 72
     8
 73
     4
 74
     0
 42
0.00000001
 43
0.00000001
 40
0.0
 40
0.0
 40
0.0
 40
0.0
 40
1.0
 40
1.0
 40
1.0
 40
1.0
 10
191.4257206688153
 20
104.0953879797153
 30
0.0
 10
191.6623342015939
 20
104.5413403575171
 30
0.0
 10
191.8886703328156
 20
104.9941157946915
 30
0.0
 10
192.1027206688153
 20
105.4550476427813
 30
0.0
  0
LINE
  5
A2
330
1F
100
AcDbEntity
  8
0
  6
Continuous
 62
     7
370
    15
100
AcDbLine
 10
191.4257206688
 20
104.0953879797
 30
0.0
 11
191.4257206688
 21
104.9615162608
 31
0.0
  0
ELLIPSE
  5
A3
330
1F
100
AcDbEntity
  8
0
  6
Continuous
 62
     7
370
    15
100
AcDbEllipse
 10
190.6597206688
 20
113.3137614679
 30
0.0
 11
21.65063509461126
 21
0.0
 31
0.0
210
0.0
220
0.0
230
1.0
 40
0.5773502692
 41
4.72236575854374
 42
4.747776390176237
  0
SPLINE
  5
A4
330
1F
100
AcDbEntity
  8
0
  6
Continuous
 62
     7
370
    15
100
AcDbSpline
210
0.0
220
0.0
230
1.0
 70
     8
 71
     3
 72
    11
 73
     7
 74
     0
 42
0.00000001
 43
0.00000001
 40
0.0
 40
0.0
 40
0.0
 40
0.0
 40
0.2882361424857375
 40
0.6104262213390561
 40
0.9326338856848849
 40
1.0
 40
1.0
 40
1.0
 40
1.0
 10
190.8044880019
 20
100.8137701276183
 30
0.0
 10
190.8054538276524
 20
100.8137816972082
 30
0.0
 10
190.8074992524885
 20
100.8138061992744
 30
0.0
 10
190.8302488685852
 20
100.8140501480098
 30
0.0
 10
190.8561726102369
 20
100.8142665429363
 30
0.0
 10
190.8728387213883
 20
100.8143663111841
 30
0.0
 10
190.8757206688153
 20
100.8143835633698
 30
0.0
  0
ELLIPSE
  5
A5
330
1F
100
AcDbEntity
  8
0
  6
Continuous
 62
     7
370
    15
100
AcDbEllipse
 10
176.8033142083
 20
113.3137614679
 30
0.0
 11
21.65063509461123
 21
0.0
 31
0.0
210
0.0
220
0.0
230
1.0
 40
0.5773502692
 41
5.41994264202406
 42
5.453868869573201
  0
SPLINE
  5
A6
330
1F
100
AcDbEntity
  8
0
  6
Continuous
 62
     7
370
    15
100
AcDbSpline
210
0.0
220
0.0
230
1.0
 70
     8
 71
     3
 72
    10
 73
     6
 74
     0
 42
0.00000001
 43
0.00000001
 40
0.0
 40
0.0
 40
0.0
 40
0.0
 40
0.5
 40
0.5
 40
1.0
 40
1.0
 40
1.0
 40
1.0
 10
190.8757206688153
 20
103.6065594750228
 30
0.0
 10
190.8259519920761
 20
103.6298708603985
 30
0.0
 10
190.8035548737389
 20
103.6701934727103
 30
0.0
 10
190.8038882611051
 20
103.7488042524679
 30
0.0
 10
190.8263953359957
 20
103.7899770584878
 30
0.0
 10
190.8757206688153
 20
103.8143338288327
 30
0.0
  0
ELLIPSE
  5
A7
330
1F
100
AcDbEntity
  8
0
  6
Continuous
 62
     7
370
    15
100
AcDbEllipse
 10
204.5161271294
 20
113.3137614679
 30
0.0
 11
21.65063509461126
 21
0.0
 31
0.0
210
0.0
220
0.0
230
1.0
 40
0.5773502692
 41
4.030805653214222
 42
4.063100308981181
  0
LINE
  5
A8
330
1F
100
AcDbEntity
  8
0
  6
Continuous
 62
     7
370
    15
100
AcDbLine
 10
191.4257206688
 20
102.6017396703
 30
0.0
 11
191.4257206688
 21
103.3573354241
 31
0.0
  0
ELLIPSE
  5
A9
330
1F
100
AcDbEntity
  8
0
  6
Continuous
 62
     7
370
    15
100
AcDbEllipse
 10
180.2674158234
 20
113.3137614679
 30
0.0
 11
21.65063509461129
 21
0.0
 31
0.0
210
0.0
220
0.0
230
1.0
 40
0.5773502692
 41
5.22445190462754
 42
5.253840026144035
  0
SPLINE
  5
AA
330
1F
100
AcDbEntity
  8
0
  6
Continuous
 62
     7
370
    15
100
AcDbSpline
210
0.0
220
0.0
230
1.0
 70
     8
 71
     3
 72
    10
 73
     6
 74
     0
 42
0.00000001
 43
0.00000001
 40
0.0
 40
0.0
 40
0.0
 40
0.0
 40
0.5
 40
0.5
 40
1.0
 40
1.0
 40
1.0
 40
1.0
 10
190.8757206688153
 20
102.2805869520154
 30
0.0
 10
190.8289357085443
 20
102.2949707849794
 30
0.0
 10
190.8035789420514
 20
102.3214958035021
 30
0.0
 10
190.8038636265777
 20
102.3747756856876
 30
0.0
 10
190.8291002717075
 20
102.4019378848497
 30
0.0
 10
190.8757206688153
 20
102.4170667349783
 30
0.0
  0
ELLIPSE
  5
AB
330
1F
100
AcDbEntity
  8
0
  6
Continuous
 62
     7
370
    15
100
AcDbEllipse
 10
201.0520255142
 20
113.3137614679
 30
0.0
 11
21.65063509461123
 21
0.0
 31
0.0
210
0.0
220
0.0
230
1.0
 40
0.5773502692
 41
4.223071705935471
 42
4.25163903164094
  0
LINE
  5
AC
330
1F
100
AcDbEntity
  8
0
  6
Continuous
 62
     7
370
    15
100
AcDbLine
 10
191.4257206688
 20
101.6297376654
 30
0.0
 11
191.4257206688
 21
102.1172701272
 31
0.0
  0
ELLIPSE
  5
AD
330
1F
100
AcDbEntity
  8
0
  6
Continuous
 62
     7
370
    15
100
AcDbEllipse
 10
183.7315174385
 20
113.3137614679
 30
0.0
 11
21.65063509461123
 21
0.0
 31
0.0
210
0.0
220
0.0
230
1.0
 40
0.5773502692
 41
5.048667780412051
 42
5.075709580484296
  0
SPLINE
  5
AE
330
1F
100
AcDbEntity
  8
0
  6
Continuous
 62
     7
370
    15
100
AcDbSpline
210
0.0
220
0.0
230
1.0
 70
     8
 71
     3
 72
    10
 73
     6
 74
     0
 42
0.00000001
 43
0.00000001
 40
0.0
 40
0.0
 40
0.0
 40
0.0
 40
0.5
 40
0.5
 40
1.0
 40
1.0
 40
1.0
 40
1.0
 10
190.8757206688153
 20
101.4296498365914
 30
0.0
 10
190.8305905965834
 20
101.4381463969856
 30
0.0
 10
190.8036151461705
 20
101.4543583510911
 30
0.0
 10
190.8038268446801
 20
101.4879332095956
 30
0.0
 10
190.8306685329747
 20
101.5048053830663
 30
0.0
 10
190.8757206688153
 20
101.5138976239786
 30
0.0
  0
ELLIPSE
  5
AF
330
1F
100
AcDbEntity
  8
0
  6
Continuous
 62
     7
370
    15
100
AcDbEllipse
 10
197.5879238991
 20
113.3137614679
 30
0.0
 11
21.65063509461126
 21
0.0
 31
0.0
210
0.0
220
0.0
230
1.0
 40
0.5773502692
 41
4.39717134865615
 42
4.423778995821794
  0
LINE
  5
B0
330
1F
100
AcDbEntity
  8
0
  6
Continuous
 62
     7
370
    15
100
AcDbLine
 10
191.4257206688
 20
101.0546663364
 30
0.0
 11
191.4257206688
 21
101.3307561221
 31
0.0
  0
ELLIPSE
  5
B1
330
1F
100
AcDbEntity
  8
0
  6
Continuous
 62
     7
370
    15
100
AcDbEllipse
 10
187.1956190537
 20
113.3137614679
 30
0.0
 11
21.65063509461126
 21
0.0
 31
0.0
210
0.0
220
0.0
230
1.0
 40
0.5773502692
 41
4.883194916760801
 42
4.90903390800317
  0
SPLINE
  5
B2
330
1F
100
AcDbEntity
  8
0
  6
Continuous
 62
     7
370
    15
100
AcDbSpline
210
0.0
220
0.0
230
1.0
 70
     8
 71
     3
 72
    26
 73
    22
 74
     0
 42
0.00000001
 43
0.00000001
 40
0.0
 40
0.0
 40
0.0
 40
0.0
 40
0.0000486070027675
 40
0.0000486070027675
 40
0.0000486070027675
 40
0.0000971859221263
 40
0.0000971859221263
 40
0.0000971859221263
 40
0.0001461814299841
 40
0.0001461814299841
 40
0.0001461814299841
 40
0.0001956496964503
 40
0.0001956496964503
 40
0.0001956496964503
 40
0.0002452708676626
 40
0.0002452708676626
 40
0.0002452708676626
 40
0.000294604987647
 40
0.000294604987647
 40
0.000294604987647
 40
0.0003028728680201
 40
0.0003028728680201
 40
0.0003028728680201
 40
0.0003028728680201
 10
190.8757206688153
 20
100.955230866213
 30
0.0
 10
190.8617292474549
 20
100.9564566203037
 30
0.0
 10
190.8489688099374
 20
100.9580728060915
 30
0.0
 10
190.8384834943438
 20
100.9599564230608
 30
0.0
 10
190.8280017739224
 20
100.9618393941815
 30
0.0
 10
190.8195032252498
 20
100.9640415817123
 30
0.0
 10
190.813654447746
 20
100.9663946985455
 30
0.0
 10
190.8077558853288
 20
100.9687678451571
 30
0.0
 10
190.8043898296987
 20
100.9713595960621
 30
0.0
 10
190.8038128694215
 20
100.9739647800604
 30
0.0
 10
190.803230468276
 20
100.976594531544
 30
0.0
 10
190.8054743677612
 20
100.9793103554315
 30
0.0
 10
190.8103642058888
 20
100.9818843310393
 30
0.0
 10
190.815268158336
 20
100.9844657363234
 30
0.0
 10
190.8229721566309
 20
100.986975834348
 30
0.0
 10
190.83285520072
 20
100.9891892211674
 30
0.0
 10
190.8426802397239
 20
100.9913896172837
 30
0.0
 10
190.8549377456246
 20
100.993357520242
 30
0.0
 10
190.868613154992
 20
100.9949050382726
 30
0.0
 10
190.8709380914265
 20
100.9951681295597
 30
0.0
 10
190.8733092447466
 20
100.9954201178745
 30
0.0
 10
190.8757206688153
 20
100.995660260016
 30
0.0
  0
ELLIPSE
  5
B3
330
1F
100
AcDbEntity
  8
0
  6
Continuous
 62
     7
370
    15
100
AcDbEllipse
 10
194.123822284
 20
113.3137614679
 30
0.0
 11
21.65063509461129
 21
0.0
 31
0.0
210
0.0
220
0.0
230
1.0
 40
0.5773502692
 41
4.561797052584629
 42
4.587444168673426
  0
LINE
  5
B4
330
1F
100
AcDbEntity
  8
0
  6
Continuous
 62
     7
370
    15
100
AcDbLine
 10
191.4257206688
 20
100.821587331
 30
0.0
 11
191.4257206688
 21
100.9112046391
 31
0.0
  0
SPLINE
  5
B5
330
1F
100
AcDbEntity
  8
0
  6
Continuous
 62
     7
370
    15
100
AcDbSpline
210
0.0
220
0.0
230
1.0
 70
     8
 71
     3
 72
     8
 73
     4
 74
     0
 42
0.00000001
 43
0.00000001
 40
0.0
 40
0.0
 40
0.0
 40
0.0
 40
1.0
 40
1.0
 40
1.0
 40
1.0
 10
192.1027206688153
 20
121.1724752929982
 30
0.0
 10
191.8886703328156
 20
121.6334071410879
 30
0.0
 10
191.6623342015939
 20
122.0861825782624
 30
0.0
 10
191.4257206688153
 20
122.5321349560642
 30
0.0
  0
LINE
  5
B6
330
1F
100
AcDbEntity
  8
0
  6
Continuous
 62
     7
370
    15
100
AcDbLine
 10
192.1027206688
 20
120.780459183
 30
0.0
 11
192.1027206688
 21
121.172475293
 31
0.0
  0
SPLINE
  5
B7
330
1F
100
AcDbEntity
  8
0
  6
Continuous
 62
     7
370
    15
100
AcDbSpline
210
0.0
220
0.0
230
1.0
 70
     8
 71
     3
 72
    15
 73
    11
 74
     0
 42
0.00000001
 43
0.00000001
 40
0.0
 40
0.0
 40
0.0
 40
0.0
 40
0.1621229105026591
 40
0.3101601963180694
 40
0.4454873620925175
 40
0.5671948750483865
 40
0.6805807150185207
 40
0.7899548354035412
 40
0.8970979354519382
 40
1.0
 40
1.0
 40
1.0
 40
1.0
 10
187.1409863623186
 20
111.3265819807103
 30
0.0
 10
187.1591534701589
 20
111.326680081705
 30
0.0
 10
187.1939092842311
 20
111.3268677604464
 30
0.0
 10
187.2437551844305
 20
111.3298024823796
 30
0.0
 10
187.288951702878
 20
111.3340503050726
 30
0.0
 10
187.3300434499723
 20
111.3400230329084
 30
0.0
 10
187.367838542794
 20
111.3480221773877
 30
0.0
 10
187.4032988863245
 20
111.3585520636176
 30
0.0
 10
187.4368665795857
 20
111.3711212978525
 30
0.0
 10
187.4579709532982
 20
111.3815627973187
 30
0.0
 10
187.4683100802673
 20
111.3866781345564
 30
0.0
  0
LINE
  5
B8
330
1F
100
AcDbEntity
  8
0
  6
Continuous
 62
     7
370
    15
100
AcDbLine
 10
187.4683100803
 20
111.3866781346
 30
0.0
 11
186.7247203367
 21
112.1254601858
 31
0.0
  0
SPLINE
  5
B9
330
1F
100
AcDbEntity
  8
0
  6
Continuous
 62
     7
370
    15
100
AcDbSpline
210
0.0
220
0.0
230
1.0
 70
     8
 71
     3
 72
    15
 73
    11
 74
     0
 42
0.00000001
 43
0.00000001
 40
0.0
 40
0.0
 40
0.0
 40
0.0
 40
0.1200646636296487
 40
0.2389162044406762
 40
0.3585231651925997
 40
0.4792065622357628
 40
0.6042646549976944
 40
0.7312014965036464
 40
0.8634227487813793
 40
1.0
 40
1.0
 40
1.0
 40
1.0
 10
186.7247203366776
 20
112.1254601858385
 30
0.0
 10
186.7139997327473
 20
112.1150475397008
 30
0.0
 10
186.6926668449273
 20
112.0943274558878
 30
0.0
 10
186.6660722043013
 20
112.0584015350906
 30
0.0
 10
186.6424578730911
 20
112.0204448065847
 30
0.0
 10
186.6237225166722
 20
111.978966459876
 30
0.0
 10
186.6084672864975
 20
111.9351662273617
 30
0.0
 10
186.5976399364945
 20
111.8885778332774
 30
0.0
 10
186.5911315806045
 20
111.8397231145675
 30
0.0
 10
186.5904508388171
 20
111.8063031435561
 30
0.0
 10
186.5901049520622
 20
111.7893223653257
 30
0.0
  0
SPLINE
  5
BA
330
1F
100
AcDbEntity
  8
0
  6
Continuous
 62
     7
370
    15
100
AcDbSpline
210
0.0
220
0.0
230
1.0
 70
     8
 71
     3
 72
    23
 73
    19
 74
     0
 42
0.00000001
 43
0.00000001
 40
0.0
 40
0.0
 40
0.0
 40
0.0
 40
0.068175004676778
 40
0.1324612497147501
 40
0.1927945771157831
 40
0.25065936058949
 40
0.3066076469023077
 40
0.3610302807152403
 40
0.4146174994879623
 40
0.4690053083836771
 40
0.5242892943603713
 40
0.5813918798092409
 40
0.6415266480094067
 40
0.7046229927108475
 40
0.7720311668568197
 40
0.8429976097388725
 40
0.9191787900525366
 40
1.0
 40
1.0
 40
1.0
 40
1.0
 10
186.5901049520622
 20
111.7893223653257
 30
0.0
 10
186.5903933441564
 20
111.7706022621371
 30
0.0
 10
186.590953678217
 20
111.7342298661997
 30
0.0
 10
186.5980222060934
 20
111.6816783343659
 30
0.0
 10
186.6088503182039
 20
111.6327503888799
 30
0.0
 10
186.6233657208162
 20
111.5870903726112
 30
0.0
 10
186.6433049025352
 20
111.5453290715986
 30
0.0
 10
186.6668172632078
 20
111.5068358145068
 30
0.0
 10
186.6953899117005
 20
111.4724482230184
 30
0.0
 10
186.7279516022718
 20
111.4415544071303
 30
0.0
 10
186.7646353085837
 20
111.4139727542499
 30
0.0
 10
186.8060668866815
 20
111.3908338040418
 30
0.0
 10
186.8513919159529
 20
111.3708354690039
 30
0.0
 10
186.9010917837391
 20
111.3541802656997
 30
0.0
 10
186.9551570714987
 20
111.3423322308313
 30
0.0
 10
187.0132919929136
 20
111.3327645849318
 30
0.0
 10
187.0757334244431
 20
111.3279033925091
 30
0.0
 10
187.1188110130803
 20
111.3270310450602
 30
0.0
 10
187.1409863623186
 20
111.3265819807103
 30
0.0
  0
SPLINE
  5
BB
330
1F
100
AcDbEntity
  8
0
  6
Continuous
 62
     7
370
    15
100
AcDbSpline
210
0.0
220
0.0
230
1.0
 70
     8
 71
     3
 72
    15
 73
    11
 74
     0
 42
0.00000001
 43
0.00000001
 40
0.0
 40
0.0
 40
0.0
 40
0.0
 40
0.1531773058053812
 40
0.2973501974275811
 40
0.4338256551584884
 40
0.5629720294948145
 40
0.6840248260165154
 40
0.7968619277653766
 40
0.9024686797346114
 40
1.0
 40
1.0
 40
1.0
 40
1.0
 10
187.1578132853955
 20
112.2496589037872
 30
0.0
 10
187.1400467698437
 20
112.2495559380541
 30
0.0
 10
187.1055581301646
 20
112.2493560593522
 30
0.0
 10
187.0553187315134
 20
112.2463573730964
 30
0.0
 10
187.0079760858337
 20
112.2421358279037
 30
0.0
 10
186.9635409442087
 20
112.2358681429506
 30
0.0
 10
186.9223136928484
 20
112.227254525099
 30
0.0
 10
186.884054332102
 20
112.2179139419708
 30
0.0
 10
186.8491757737404
 20
112.2064664019279
 30
0.0
 10
186.8276185424739
 20
112.1969407327693
 30
0.0
 10
186.8172684136007
 20
112.1923672371205
 30
0.0
  0
LINE
  5
BC
330
1F
100
AcDbEntity
  8
0
  6
Continuous
 62
     7
370
    15
100
AcDbLine
 10
186.8172684136
 20
112.1923672371
 30
0.0
 11
187.5632620033
 21
111.4491781346
 31
0.0
  0
SPLINE
  5
BD
330
1F
100
AcDbEntity
  8
0
  6
Continuous
 62
     7
370
    15
100
AcDbSpline
210
0.0
220
0.0
230
1.0
 70
     8
 71
     3
 72
    23
 73
    19
 74
     0
 42
0.00000001
 43
0.00000001
 40
0.0
 40
0.0
 40
0.0
 40
0.0
 40
0.06805961938197
 40
0.132100392429818
 40
0.1931643596428781
 40
0.2517229073414963
 40
0.3081377628645048
 40
0.3636564409524367
 40
0.4187830708303008
 40
0.4742528944262424
 40
0.5305540454736873
 40
0.5884501520310461
 40
0.6486441713806884
 40
0.7112939621973364
 40
0.7772776714525642
 40
0.8472232328561352
 40
0.9215208404809972
 40
0.9999999999999999
 40
0.9999999999999999
 40
0.9999999999999999
 40
0.9999999999999999
 10
187.6926690546263
 20
111.7865178781462
 30
0.0
 10
187.6923382434859
 20
111.8048330291926
 30
0.0
 10
187.6916961552423
 20
111.8403818415811
 30
0.0
 10
187.6851891830223
 20
111.8920457604056
 30
0.0
 10
187.6743336194182
 20
111.9403046636721
 30
0.0
 10
187.6597087840019
 20
111.9854398753138
 30
0.0
 10
187.6403077348338
 20
112.0271351845773
 30
0.0
 10
187.6164677979552
 20
112.0653362832569
 30
0.0
 10
187.588792121287
 20
112.1005631599756
 30
0.0
 10
187.5564455144709
 20
112.1318790332237
 30
0.0
 10
187.5201343113512
 20
112.1596844603721
 30
0.0
 10
187.4797782608362
 20
112.1838053693477
 30
0.0
 10
187.4355248003972
 20
112.2041199390653
 30
0.0
 10
187.3875758541784
 20
112.2211222553528
 30
0.0
 10
187.3355851298402
 20
112.233727244917
 30
0.0
 10
187.2797361445429
 20
112.2428462024537
 30
0.0
 10
187.2200276340831
 20
112.2484969629183
 30
0.0
 10
187.1789263866486
 20
112.2492645867891
 30
0.0
 10
187.1578132853955
 20
112.2496589037872
 30
0.0
  0
SPLINE
  5
BE
330
1F
100
AcDbEntity
  8
0
  6
Continuous
 62
     7
370
    15
100
AcDbSpline
210
0.0
220
0.0
230
1.0
 70
     8
 71
     3
 72
    15
 73
    11
 74
     0
 42
0.00000001
 43
0.00000001
 40
0.0
 40
0.0
 40
0.0
 40
0.0
 40
0.1219705252910379
 40
0.2404757357030005
 40
0.359279282066502
 40
0.4774166533797465
 40
0.5987001228359922
 40
0.7242067579350198
 40
0.8587683072928297
 40
1.0
 40
1.0
 40
1.0
 40
1.0
 10
187.5632620033442
 20
111.4491781345564
 30
0.0
 10
187.5737954847385
 20
111.4600430904124
 30
0.0
 10
187.5945631798988
 20
111.4814643169474
 30
0.0
 10
187.6212288815439
 20
111.5172917238665
 30
0.0
 10
187.6436875070305
 20
111.5552942606489
 30
0.0
 10
187.661871402941
 20
111.5958980316042
 30
0.0
 10
187.6760553667288
 20
111.638960120032
 30
0.0
 10
187.6854369517824
 20
111.6853650589086
 30
0.0
 10
187.6916124883916
 20
111.7348017156833
 30
0.0
 10
187.6923112327664
 20
111.769003431033
 30
0.0
 10
187.6926690546263
 20
111.7865178781462
 30
0.0
  0
SPLINE
  5
BF
330
1F
100
AcDbEntity
  8
0
  6
Continuous
 62
     7
370
    15
100
AcDbSpline
210
0.0
220
0.0
230
1.0
 70
     8
 71
     3
 72
    23
 73
    19
 74
     0
 42
0.00000001
 43
0.00000001
 40
0.0
 40
0.0
 40
0.0
 40
0.0
 40
0.0535316358029324
 40
0.104404204806922
 40
0.1526084953969189
 40
0.1996835345689524
 40
0.2462464380955081
 40
0.2938317657427627
 40
0.3427542231215191
 40
0.3945440397209177
 40
0.4498257028701527
 40
0.5103347576822719
 40
0.5767016629155589
 40
0.648279403062817
 40
0.7263523419851265
 40
0.811118358850785
 40
0.9022692150936801
 40
0.9999999999999999
 40
0.9999999999999999
 40
0.9999999999999999
 40
0.9999999999999999
 10
186.1798485418058
 20
114.8906845448128
 30
0.0
 10
186.1803664149762
 20
114.8735575915611
 30
0.0
 10
186.181376437101
 20
114.8401544289602
 30
0.0
 10
186.1898076331736
 20
114.7918781243083
 30
0.0
 10
186.2041007729017
 20
114.7472754595507
 30
0.0
 10
186.2230773424842
 20
114.7058737385066
 30
0.0
 10
186.248975718753
 20
114.6686234319268
 30
0.0
 10
186.2800082451221
 20
114.6348469674369
 30
0.0
 10
186.316543365799
 20
114.6043506887923
 30
0.0
 10
186.3591111223055
 20
114.5781034789154
 30
0.0
 10
186.4073571483518
 20
114.5545591610833
 30
0.0
 10
186.4622743390149
 20
114.5348726648285
 30
0.0
 10
186.5234083501604
 20
114.5176301999898
 30
0.0
 10
186.5912575405133
 20
114.5043195615485
 30
0.0
 10
186.6654760446372
 20
114.4936280911666
 30
0.0
 10
186.7463347031263
 20
114.4855534150175
 30
0.0
 10
186.8337843732366
 20
114.4814186492511
 30
0.0
 10
186.8941877094578
 20
114.4807658860625
 30
0.0
 10
186.9254414905237
 20
114.4804281345564
 30
0.0
  0
SPLINE
  5
C0
330
1F
100
AcDbEntity
  8
0
  6
Continuous
 62
     7
370
    15
100
AcDbSpline
210
0.0
220
0.0
230
1.0
 70
     8
 71
     3
 72
    23
 73
    19
 74
     0
 42
0.00000001
 43
0.00000001
 40
0.0
 40
0.0
 40
0.0
 40
0.0
 40
0.0984390142048077
 40
0.1898891054737543
 40
0.2745059724415639
 40
0.3528911536107983
 40
0.4243767882144422
 40
0.4905466715740981
 40
0.5505865979202018
 40
0.6056156797702045
 40
0.6569862395491187
 40
0.7058457439829716
 40
0.7530890255640088
 40
0.799704085952987
 40
0.8468976387195274
 40
0.8953137043859203
 40
0.9461208110602313
 40
1.0
 40
1.0
 40
1.0
 40
1.0
 10
186.9254414905237
 20
115.3009409550692
 30
0.0
 10
186.8939194781438
 20
115.3006177649574
 30
0.0
 10
186.8331134371456
 20
115.2999943304204
 30
0.0
 10
186.745290864185
 20
115.2956880886915
 30
0.0
 10
186.6641257563601
 20
115.2882168203105
 30
0.0
 10
186.5897685804892
 20
115.2775165858724
 30
0.0
 10
186.5218955283027
 20
115.2639699283226
 30
0.0
 10
186.460680228091
 20
115.2475446548984
 30
0.0
 10
186.4061969255905
 20
115.2273552888003
 30
0.0
 10
186.3578531784072
 20
115.204691594224
 30
0.0
 10
186.3157135321736
 20
115.1780466599054
 30
0.0
 10
186.2792374330016
 20
115.1478453027123
 30
0.0
 10
186.248364241093
 20
115.1139057710195
 30
0.0
 10
186.2233743262256
 20
115.0761150337156
 30
0.0
 10
186.203351869966
 20
115.035005648535
 30
0.0
 10
186.1900573054155
 20
114.9898958022434
 30
0.0
 10
186.1812888501344
 20
114.9415058448155
 30
0.0
 10
186.1803379461978
 20
114.9079531857955
 30
0.0
 10
186.1798485418058
 20
114.8906845448128
 30
0.0
  0
SPLINE
  5
C1
330
1F
100
AcDbEntity
  8
0
  6
Continuous
 62
     7
370
    15
100
AcDbSpline
210
0.0
220
0.0
230
1.0
 70
     8
 71
     3
 72
    23
 73
    19
 74
     0
 42
0.00000001
 43
0.00000001
 40
0.0
 40
0.0
 40
0.0
 40
0.0
 40
0.0976640283990158
 40
0.1887248836851065
 40
0.2733793992072379
 40
0.351319078582575
 40
0.4231548269670129
 40
0.4893575888833869
 40
0.5496915715910117
 40
0.6051725023397568
 40
0.6567946586947461
 40
0.7055722398885371
 40
0.7530469039567428
 40
0.7995421412649695
 40
0.8469668329628464
 40
0.8952194610872376
 40
0.9462754047244933
 40
1.0
 40
1.0
 40
1.0
 40
1.0
 10
186.9254414905238
 20
114.4804281345564
 30
0.0
 10
186.9565617919438
 20
114.4807655330704
 30
0.0
 10
187.0166983167424
 20
114.4814175182111
 30
0.0
 10
187.1037472574343
 20
114.4855553256181
 30
0.0
 10
187.1842081524701
 20
114.4936165446694
 30
0.0
 10
187.2581487294553
 20
114.504367806181
 30
0.0
 10
187.3257519191674
 20
114.5175751835155
 30
0.0
 10
187.386620400293
 20
114.5348532897209
 30
0.0
 10
187.441213057225
 20
114.5546628139774
 30
0.0
 10
187.4893005164102
 20
114.5779904750081
 30
0.0
 10
187.5315520769714
 20
114.6043637949207
 30
0.0
 10
187.5676682535407
 20
114.6348630402526
 30
0.0
 10
187.5983855923423
 20
114.6686075844043
 30
0.0
 10
187.6236286374273
 20
114.7061093354701
 30
0.0
 10
187.6434155449047
 20
114.7470716470459
 30
0.0
 10
187.6568958147808
 20
114.7919818348794
 30
0.0
 10
187.6655490073979
 20
114.8401370059531
 30
0.0
 10
187.6665267213363
 20
114.873551686112
 30
0.0
 10
187.6670280289853
 20
114.8906845448128
 30
0.0
  0
SPLINE
  5
C2
330
1F
100
AcDbEntity
  8
0
  6
Continuous
 62
     7
370
    15
100
AcDbSpline
210
0.0
220
0.0
230
1.0
 70
     8
 71
     3
 72
    23
 73
    19
 74
     0
 42
0.00000001
 43
0.00000001
 40
0.0
 40
0.0
 40
0.0
 40
0.0
 40
0.0540660825395642
 40
0.1049789540849693
 40
0.1536871753678173
 40
0.2008647203973482
 40
0.2474106367341129
 40
0.2948177935911996
 40
0.3435260148740532
 40
0.3947219046464358
 40
0.4495647299166509
 40
0.5098129199390845
 40
0.5754055611567538
 40
0.6475493948594531
 40
0.7253782469020759
 40
0.8102886288834225
 40
0.9016379660377544
 40
1.0
 40
1.0
 40
1.0
 40
1.0
 10
187.6670280289853
 20
114.8906845448128
 30
0.0
 10
187.6664752977031
 20
114.9079399572728
 30
0.0
 10
187.6654020712149
 20
114.9414444219439
 30
0.0
 10
187.6575040630955
 20
114.9900331988786
 30
0.0
 10
187.6433024760723
 20
115.0348303164457
 30
0.0
 10
187.6239619737055
 20
115.0760952423691
 30
0.0
 10
187.5993384515706
 20
115.1140264087039
 30
0.0
 10
187.5684449736233
 20
115.1477004030236
 30
0.0
 10
187.532405275783
 20
115.1780674129166
 30
0.0
 10
187.4906285870001
 20
115.2046736240054
 30
0.0
 10
187.4425979522292
 20
115.2274645342132
 30
0.0
 10
187.3884158683846
 20
115.2473709259743
 30
0.0
 10
187.3274389793713
 20
115.2641798417372
 30
0.0
 10
187.2598810138012
 20
115.2773497952514
 30
0.0
 10
187.1857045507097
 20
115.2883117508499
 30
0.0
 10
187.1049199304144
 20
115.2956502408952
 30
0.0
 10
187.017370360311
 20
115.3000037682947
 30
0.0
 10
186.956830402005
 20
115.3006209546953
 30
0.0
 10
186.9254414905237
 20
115.3009409550692
 30
0.0
  0
LINE
  5
C3
330
1F
100
AcDbEntity
  8
0
  6
Continuous
 62
     7
370
    15
100
AcDbLine
 10
88.5257206688
 20
106.8137614679
 30
0.0
 11
88.5257206688
 21
119.5137614679
 31
0.0
  0
SPLINE
  5
C4
330
1F
100
AcDbEntity
  8
0
  6
Continuous
 62
     7
370
    15
100
AcDbSpline
210
0.0
220
0.0
230
1.0
 70
    24
 71
     3
 72
    10
 73
     6
 74
     0
 42
0.00000001
 43
0.00000001
 40
0.0
 40
0.0
 40
0.0
 40
0.0
 40
0.4999999999999998
 40
0.4999999999999998
 40
1.0
 40
1.0
 40
1.0
 40
1.0
 10
90.02572066881531
 20
119.5137614678897
 30
0.0
 10
89.71778325001236
 20
119.5137614678897
 30
0.0
 10
89.42766372039762
 20
119.5137614678897
 30
0.0
 10
88.91575989095685
 20
119.5137614678897
 30
0.0
 10
88.69215395023511
 20
119.5137614678897
 30
0.0
 10
88.52572066881531
 20
119.5137614678897
 30
0.0
  0
LINE
  5
C5
330
1F
100
AcDbEntity
  8
0
  6
Continuous
 62
     7
370
    15
100
AcDbLine
 10
90.0257206688
 20
105.3137614679
 30
0.0
 11
90.0257206688
 21
119.5137614679
 31
0.0
  0
LINE
  5
C6
330
1F
100
AcDbEntity
  8
0
  6
Continuous
 62
     7
370
    15
100
AcDbLine
 10
98.0257206688
 20
119.5137614679
 30
0.0
 11
90.0257206688
 21
119.5137614679
 31
0.0
  0
LINE
  5
C7
330
1F
100
AcDbEntity
  8
0
  6
Continuous
 62
     7
370
    15
100
AcDbLine
 10
99.8257206688
 20
121.3137614679
 30
0.0
 11
98.0257206688
 21
119.5137614679
 31
0.0
  0
LINE
  5
C8
330
1F
100
AcDbEntity
  8
0
  6
Continuous
 62
     7
370
    15
100
AcDbLine
 10
104.5257206688
 20
119.5137614679
 30
0.0
 11
102.7257206688
 21
121.3137614679
 31
0.0
  0
LINE
  5
C9
330
1F
100
AcDbEntity
  8
0
  6
Continuous
 62
     7
370
    15
100
AcDbLine
 10
112.5257206688
 20
119.5137614679
 30
0.0
 11
104.5257206688
 21
119.5137614679
 31
0.0
  0
LINE
  5
CA
330
1F
100
AcDbEntity
  8
0
  6
Continuous
 62
     7
370
    15
100
AcDbLine
 10
114.3257206688
 20
121.3137614679
 30
0.0
 11
112.5257206688
 21
119.5137614679
 31
0.0
  0
LINE
  5
CB
330
1F
100
AcDbEntity
  8
0
  6
Continuous
 62
     7
370
    15
100
AcDbLine
 10
119.0257206688
 20
119.5137614679
 30
0.0
 11
117.2257206688
 21
121.3137614679
 31
0.0
  0
LINE
  5
CC
330
1F
100
AcDbEntity
  8
0
  6
Continuous
 62
     7
370
    15
100
AcDbLine
 10
127.0257206688
 20
119.5137614679
 30
0.0
 11
119.0257206688
 21
119.5137614679
 31
0.0
  0
LINE
  5
CD
330
1F
100
AcDbEntity
  8
0
  6
Continuous
 62
     7
370
    15
100
AcDbLine
 10
128.8257206688
 20
121.3137614679
 30
0.0
 11
127.0257206688
 21
119.5137614679
 31
0.0
  0
LINE
  5
CE
330
1F
100
AcDbEntity
  8
0
  6
Continuous
 62
     7
370
    15
100
AcDbLine
 10
133.5257206688
 20
119.5137614679
 30
0.0
 11
131.7257206688
 21
121.3137614679
 31
0.0
  0
LINE
  5
CF
330
1F
100
AcDbEntity
  8
0
  6
Continuous
 62
     7
370
    15
100
AcDbLine
 10
141.5257206688
 20
119.5137614679
 30
0.0
 11
133.5257206688
 21
119.5137614679
 31
0.0
  0
LINE
  5
D0
330
1F
100
AcDbEntity
  8
0
  6
Continuous
 62
     7
370
    15
100
AcDbLine
 10
143.3257206688
 20
121.3137614679
 30
0.0
 11
141.5257206688
 21
119.5137614679
 31
0.0
  0
LINE
  5
D1
330
1F
100
AcDbEntity
  8
0
  6
Continuous
 62
     7
370
    15
100
AcDbLine
 10
148.0257206688
 20
119.5137614679
 30
0.0
 11
146.2257206688
 21
121.3137614679
 31
0.0
  0
LINE
  5
D2
330
1F
100
AcDbEntity
  8
0
  6
Continuous
 62
     7
370
    15
100
AcDbLine
 10
156.0257206688
 20
119.5137614679
 30
0.0
 11
148.0257206688
 21
119.5137614679
 31
0.0
  0
LINE
  5
D3
330
1F
100
AcDbEntity
  8
0
  6
Continuous
 62
     7
370
    15
100
AcDbLine
 10
157.8257206688
 20
121.3137614679
 30
0.0
 11
156.0257206688
 21
119.5137614679
 31
0.0
  0
SPLINE
  5
D4
330
1F
100
AcDbEntity
  8
0
  6
Continuous
 62
     7
370
    15
100
AcDbSpline
210
0.0
220
0.0
230
1.0
 70
     8
 71
     3
 72
     8
 73
     4
 74
     0
 42
0.00000001
 43
0.00000001
 40
0.000000282935621
 40
0.000000282935621
 40
0.000000282935621
 40
0.000000282935621
 40
0.0009580025334976
 40
0.0009580025334976
 40
0.0009580025334976
 40
0.0009580025334976
 10
192.1027206688153
 20
103.9106178969848
 30
0.0
 10
191.8770581194778
 20
103.7261836888795
 30
0.0
 10
191.6513912240098
 20
103.5417565708475
 30
0.0
 10
191.4257206688153
 20
103.3573354240799
 30
0.0
  0
LINE
  5
D5
330
1F
100
AcDbEntity
  8
0
  6
Continuous
 62
     7
370
    15
100
AcDbLine
 10
192.1027206688
 20
105.4550476428
 30
0.0
 11
192.1027206688
 21
103.910617897
 31
0.0
  0
SPLINE
  5
D6
330
1F
100
AcDbEntity
  8
0
  6
Continuous
 62
     7
370
    15
100
AcDbSpline
210
0.0
220
0.0
230
1.0
 70
     8
 71
     3
 72
     8
 73
     4
 74
     0
 42
0.00000001
 43
0.00000001
 40
0.0000002829255807
 40
0.0000002829255807
 40
0.0000002829255807
 40
0.0000002829255807
 40
0.0009580025234574
 40
0.0009580025234574
 40
0.0009580025234574
 40
0.0009580025234574
 10
191.4257206688153
 20
123.2701875116996
 30
0.0
 10
191.6513912240098
 20
123.085766364932
 30
0.0
 10
191.8770581194778
 20
122.9013392469
 30
0.0
 10
192.1027206688153
 20
122.7169050387946
 30
0.0
  0
LINE
  5
D7
330
1F
100
AcDbEntity
  8
0
  6
Continuous
 62
     7
370
    15
100
AcDbLine
 10
192.1027206688
 20
122.7169050388
 30
0.0
 11
192.1027206688
 21
121.172475293
 31
0.0
  0
SPLINE
  5
D8
330
1F
100
AcDbEntity
  8
0
  6
Continuous
 62
     7
370
    15
100
AcDbSpline
210
0.0
220
0.0
230
1.0
 70
     8
 71
     3
 72
     8
 73
     4
 74
     0
 42
0.00000001
 43
0.00000001
 40
0.0
 40
0.0
 40
0.0
 40
0.0
 40
1.0
 40
1.0
 40
1.0
 40
1.0
 10
192.1027206688153
 20
122.9621731889303
 30
0.0
 10
191.8827985312949
 20
123.3215851535211
 30
0.0
 10
191.6568245582114
 20
123.6758610406088
 30
0.0
 10
191.4257206688153
 20
124.0257832654906
 30
0.0
  0
LINE
  5
D9
330
1F
100
AcDbEntity
  8
0
  6
Continuous
 62
     7
370
    15
100
AcDbLine
 10
192.1027206688
 20
122.7169050388
 30
0.0
 11
192.1027206688
 21
122.9621731889
 31
0.0
  0
LINE
  5
DA
330
1F
100
AcDbEntity
  8
0
  6
Continuous
 62
     7
370
    15
100
AcDbLine
 10
192.1027206688
 20
103.6653497468
 30
0.0
 11
192.1027206688
 21
103.910617897
 31
0.0
  0
SPLINE
  5
DB
330
1F
100
AcDbEntity
  8
0
  6
Continuous
 62
     7
370
    15
100
AcDbSpline
210
0.0
220
0.0
230
1.0
 70
     8
 71
     3
 72
     8
 73
     4
 74
     0
 42
0.00000001
 43
0.00000001
 40
0.0
 40
0.0
 40
0.0
 40
0.0
 40
1.0
 40
1.0
 40
1.0
 40
1.0
 10
191.4257206688153
 20
102.6017396702889
 30
0.0
 10
191.6568245582114
 20
102.9516618951707
 30
0.0
 10
191.8827985312949
 20
103.3059377822583
 30
0.0
 10
192.1027206688153
 20
103.6653497468492
 30
0.0
  0
SPLINE
  5
DC
330
1F
100
AcDbEntity
  8
0
  6
Continuous
 62
     7
370
    15
100
AcDbSpline
210
0.0
220
0.0
230
1.0
 70
     8
 71
     3
 72
     8
 73
     4
 74
     0
 42
0.00000001
 43
0.00000001
 40
0.0000002845587185
 40
0.0000002845587185
 40
0.0000002845587185
 40
0.0000002845587185
 40
0.0009632248255465
 40
0.0009632248255465
 40
0.0009632248255465
 40
0.0009632248255465
 10
192.1027206688153
 20
102.6795410798553
 30
0.0
 10
191.8771221754693
 20
102.4920080323739
 30
0.0
 10
191.6514520865204
 20
102.3045897833947
 30
0.0
 10
191.4257206688153
 20
102.1172701272483
 30
0.0
  0
SPLINE
  5
DD
330
1F
100
AcDbEntity
  8
0
  6
Continuous
 62
     7
370
    15
100
AcDbSpline
210
0.0
220
0.0
230
1.0
 70
     8
 71
     3
 72
     8
 73
     4
 74
     0
 42
0.00000001
 43
0.00000001
 40
0.0000002843911059
 40
0.0000002843911059
 40
0.0000002843911059
 40
0.0000002843911059
 40
0.0009632246579339
 40
0.0009632246579339
 40
0.0009632246579339
 40
0.0009632246579339
 10
191.4257206688153
 20
124.5102528085311
 30
0.0
 10
191.6514520865204
 20
124.3229331523848
 30
0.0
 10
191.8771221754693
 20
124.1355149034056
 30
0.0
 10
192.1027206688153
 20
123.9479818559242
 30
0.0
  0
LINE
  5
DE
330
1F
100
AcDbEntity
  8
0
  6
Continuous
 62
     7
370
    15
100
AcDbLine
 10
192.1027206688
 20
123.9479818559
 30
0.0
 11
192.1027206688
 21
122.9621731889
 31
0.0
  0
LINE
  5
DF
330
1F
100
AcDbEntity
  8
0
  6
Continuous
 62
     7
370
    15
100
AcDbLine
 10
192.1027206688
 20
103.6653497468
 30
0.0
 11
192.1027206688
 21
102.6795410799
 31
0.0
  0
SPLINE
  5
E0
330
1F
100
AcDbEntity
  8
0
  6
Continuous
 62
     7
370
    15
100
AcDbSpline
210
0.0
220
0.0
230
1.0
 70
     8
 71
     3
 72
     8
 73
     4
 74
     0
 42
0.00000001
 43
0.00000001
 40
0.0
 40
0.0
 40
0.0
 40
0.0
 40
1.0
 40
1.0
 40
1.0
 40
1.0
 10
192.1027206688153
 20
124.1037714072955
 30
0.0
 10
191.8802798612076
 20
124.4050331072999
 30
0.0
 10
191.6544505916787
 20
124.7028735517914
 30
0.0
 10
191.4257206688153
 20
124.9977852703763
 30
0.0
  0
LINE
  5
E1
330
1F
100
AcDbEntity
  8
0
  6
Continuous
 62
     7
370
    15
100
AcDbLine
 10
192.1027206688
 20
123.9479818559
 30
0.0
 11
192.1027206688
 21
124.1037714073
 31
0.0
  0
LINE
  5
E2
330
1F
100
AcDbEntity
  8
0
  6
Continuous
 62
     7
370
    15
100
AcDbLine
 10
192.1027206688
 20
102.5237515285
 30
0.0
 11
192.1027206688
 21
102.6795410799
 31
0.0
  0
SPLINE
  5
E3
330
1F
100
AcDbEntity
  8
0
  6
Continuous
 62
     7
370
    15
100
AcDbSpline
210
0.0
220
0.0
230
1.0
 70
     8
 71
     3
 72
     8
 73
     4
 74
     0
 42
0.00000001
 43
0.00000001
 40
0.0
 40
0.0
 40
0.0
 40
0.0
 40
1.0
 40
1.0
 40
1.0
 40
1.0
 10
191.4257206688153
 20
101.6297376654032
 30
0.0
 10
191.6544505916787
 20
101.9246493839881
 30
0.0
 10
191.8802798612076
 20
102.2224898284796
 30
0.0
 10
192.1027206688153
 20
102.523751528484
 30
0.0
  0
SPLINE
  5
E4
330
1F
100
AcDbEntity
  8
0
  6
Continuous
 62
     7
370
    15
100
AcDbSpline
210
0.0
220
0.0
230
1.0
 70
     8
 71
     3
 72
     8
 73
     4
 74
     0
 42
0.00000001
 43
0.00000001
 40
0.0000002900472605
 40
0.0000002900472605
 40
0.0000002900472605
 40
0.0000002900472605
 40
0.0009809083344484
 40
0.0009809083344484
 40
0.0009809083344484
 40
0.0009809083344484
 10
192.1027206688153
 20
101.9227923472431
 30
0.0
 10
191.8773281133975
 20
101.7250297014291
 30
0.0
 10
191.6516479831656
 20
101.5277034949001
 30
0.0
 10
191.4257206688153
 20
101.3307561221402
 30
0.0
  0
SPLINE
  5
E5
330
1F
100
AcDbEntity
  8
0
  6
Continuous
 62
     7
370
    15
100
AcDbSpline
210
0.0
220
0.0
230
1.0
 70
     8
 71
     3
 72
     8
 73
     4
 74
     0
 42
0.00000001
 43
0.00000001
 40
0.0000002893605639
 40
0.0000002893605639
 40
0.0000002893605639
 40
0.0000002893605639
 40
0.0009809076477518
 40
0.0009809076477518
 40
0.0009809076477518
 40
0.0009809076477518
 10
191.4257206688153
 20
125.2967668136392
 30
0.0
 10
191.6516479831656
 20
125.0998194408794
 30
0.0
 10
191.8773281133975
 20
124.9024932343504
 30
0.0
 10
192.1027206688153
 20
124.7047305885364
 30
0.0
  0
LINE
  5
E6
330
1F
100
AcDbEntity
  8
0
  6
Continuous
 62
     7
370
    15
100
AcDbLine
 10
192.1027206688
 20
124.7047305885
 30
0.0
 11
192.1027206688
 21
124.1037714073
 31
0.0
  0
LINE
  5
E7
330
1F
100
AcDbEntity
  8
0
  6
Continuous
 62
     7
370
    15
100
AcDbLine
 10
192.1027206688
 20
102.5237515285
 30
0.0
 11
192.1027206688
 21
101.9227923472
 31
0.0
  0
LINE
  5
E8
330
1F
100
AcDbEntity
  8
0
  6
Continuous
 62
     7
370
    15
100
AcDbLine
 10
192.1027206688
 20
101.8352258363
 30
0.0
 11
192.1027206688
 21
101.9227923472
 31
0.0
  0
SPLINE
  5
E9
330
1F
100
AcDbEntity
  8
0
  6
Continuous
 62
     7
370
    15
100
AcDbSpline
210
0.0
220
0.0
230
1.0
 70
     8
 71
     3
 72
     8
 73
     4
 74
     0
 42
0.00000001
 43
0.00000001
 40
0.0000003237672794
 40
0.0000003237672794
 40
0.0000003237672794
 40
0.0000003237672794
 40
0.0011050311792726
 40
0.0011050311792726
 40
0.0011050311792726
 40
0.0011050311792726
 10
191.4257206688153
 20
101.0546663364427
 30
0.0
 10
191.6531823270714
 20
101.3127603749449
 30
0.0
 10
191.8789554538824
 20
101.5728588309936
 30
0.0
 10
192.1027206688153
 20
101.8352258362755
 30
0.0
  0
SPLINE
  5
EA
330
1F
100
AcDbEntity
  8
0
  6
Continuous
 62
     7
370
    15
100
AcDbSpline
210
0.0
220
0.0
230
1.0
 70
     8
 71
     3
 72
     8
 73
     4
 74
     0
 42
0.00000001
 43
0.00000001
 40
0.000000329116193
 40
0.000000329116193
 40
0.000000329116193
 40
0.000000329116193
 40
0.0011050365281861
 40
0.0011050365281861
 40
0.0011050365281861
 40
0.0011050365281861
 10
192.1027206688153
 20
124.792297099504
 30
0.0
 10
191.8789554538824
 20
125.0546641047858
 30
0.0
 10
191.6531823270714
 20
125.3147625608346
 30
0.0
 10
191.4257206688153
 20
125.5728565993368
 30
0.0
  0
LINE
  5
EB
330
1F
100
AcDbEntity
  8
0
  6
Continuous
 62
     7
370
    15
100
AcDbLine
 10
192.1027206688
 20
124.7047305885
 30
0.0
 11
192.1027206688
 21
124.7922970995
 31
0.0
  0
SPLINE
  5
EC
330
1F
100
AcDbEntity
  8
0
  6
Continuous
 62
     7
370
    15
100
AcDbSpline
210
0.0
220
0.0
230
1.0
 70
     8
 71
     3
 72
     8
 73
     4
 74
     0
 42
0.00000001
 43
0.00000001
 40
0.0000002971984766
 40
0.0000002971984766
 40
0.0000002971984766
 40
0.0000002971984766
 40
0.0010088766945382
 40
0.0010088766945382
 40
0.0010088766945382
 40
0.0010088766945382
 10
191.4257206688153
 20
125.7163182966837
 30
0.0
 10
191.6519609166411
 20
125.5047062819438
 30
0.0
 10
191.8776578707486
 20
125.2923166804656
 30
0.0
 10
192.1027206688153
 20
125.0790371448028
 30
0.0
  0
LINE
  5
ED
330
1F
100
AcDbEntity
  8
0
  6
Continuous
 62
     7
370
    15
100
AcDbLine
 10
192.1027206688
 20
125.0790371448
 30
0.0
 11
192.1027206688
 21
124.7922970995
 31
0.0
  0
SPLINE
  5
EE
330
1F
100
AcDbEntity
  8
0
  6
Continuous
 62
     7
370
    15
100
AcDbSpline
210
0.0
220
0.0
230
1.0
 70
     8
 71
     3
 72
     8
 73
     4
 74
     0
 42
0.00000001
 43
0.00000001
 40
0.0000002987536315
 40
0.0000002987536315
 40
0.0000002987536315
 40
0.0000002987536315
 40
0.0010088782496931
 40
0.0010088782496931
 40
0.0010088782496931
 40
0.0010088782496931
 10
192.1027206688153
 20
101.5484857909766
 30
0.0
 10
191.8776578707486
 20
101.3352062553139
 30
0.0
 10
191.6519609166411
 20
101.1228166538357
 30
0.0
 10
191.4257206688153
 20
100.9112046390958
 30
0.0
  0
LINE
  5
EF
330
1F
100
AcDbEntity
  8
0
  6
Continuous
 62
     7
370
    15
100
AcDbLine
 10
192.1027206688
 20
101.8352258363
 30
0.0
 11
192.1027206688
 21
101.548485791
 31
0.0
  0
SPLINE
  5
F0
330
1F
100
AcDbEntity
  8
0
  6
Continuous
 62
     7
370
    15
100
AcDbSpline
210
0.0
220
0.0
230
1.0
 70
     8
 71
     3
 72
     8
 73
     4
 74
     0
 42
0.00000001
 43
0.00000001
 40
0.0000003082750777
 40
0.0000003082750777
 40
0.0000003082750777
 40
0.0000003082750777
 40
0.0010486863765569
 40
0.0010486863765569
 40
0.0010486863765569
 40
0.0010486863765569
 10
191.4257206688153
 20
100.8215873309884
 30
0.0
 10
191.6524364695227
 20
101.0530791096224
 30
0.0
 10
191.8781613131192
 20
101.2858735152209
 30
0.0
 10
192.1027206688153
 20
101.5201510792089
 30
0.0
  0
LINE
  5
F1
330
1F
100
AcDbEntity
  8
0
  6
Continuous
 62
     7
370
    15
100
AcDbLine
 10
192.1027206688
 20
101.5201510792
 30
0.0
 11
192.1027206688
 21
101.548485791
 31
0.0
  0
SPLINE
  5
F2
330
1F
100
AcDbEntity
  8
0
  6
Continuous
 62
     7
370
    15
100
AcDbSpline
210
0.0
220
0.0
230
1.0
 70
     8
 71
     3
 72
     8
 73
     4
 74
     0
 42
0.00000001
 43
0.00000001
 40
0.0000003112359003
 40
0.0000003112359003
 40
0.0000003112359003
 40
0.0000003112359003
 40
0.0010486893373795
 40
0.0010486893373795
 40
0.0010486893373795
 40
0.0010486893373795
 10
192.1027206688153
 20
125.1073718565706
 30
0.0
 10
191.8781613131192
 20
125.3416494205586
 30
0.0
 10
191.6524364695227
 20
125.5744438261571
 30
0.0
 10
191.4257206688153
 20
125.8059356047911
 30
0.0
  0
LINE
  5
F3
330
1F
100
AcDbEntity
  8
0
  6
Continuous
 62
     7
370
    15
100
AcDbLine
 10
192.1027206688
 20
125.0790371448
 30
0.0
 11
192.1027206688
 21
125.1073718566
 31
0.0
  0
SPLINE
  5
F4
330
1F
100
AcDbEntity
  8
0
  6
HIDDEN
 62
     7
370
     0
100
AcDbSpline
210
0.0
220
0.0
230
1.0
 70
    24
 71
     1
 72
     4
 73
     2
 74
     0
 42
0.00000001
 43
0.00000001
 40
0.0
 40
0.0
 40
1.0
 40
1.0
 10
190.8079106600073
 20
103.7273745889446
 30
0.0
 10
190.8052782149152
 20
103.7089589943613
 30
0.0
  0
SPLINE
  5
F5
330
1F
100
AcDbEntity
  8
0
  6
HIDDEN
 62
     7
370
     0
100
AcDbSpline
210
0.0
220
0.0
230
1.0
 70
     8
 71
     3
 72
    14
 73
    10
 74
     0
 42
0.00000001
 43
0.00000001
 40
0.0
 40
0.0
 40
0.0
 40
0.0
 40
0.25
 40
0.25
 40
0.5
 40
0.5
 40
0.75
 40
0.75
 40
1.0
 40
1.0
 40
1.0
 40
1.0
 10
190.8757206688153
 20
120.406153375232
 30
0.0
 10
190.8451851863728
 20
120.3888615170863
 30
0.0
 10
190.8265564502391
 20
120.363258857677
 30
0.0
 10
190.8051229832624
 20
120.3071896615205
 30
0.0
 10
190.8022259618749
 20
120.2767479168042
 30
0.0
 10
190.8064825604188
 20
120.2141014075321
 30
0.0
 10
190.8136316681534
 20
120.1822099813155
 30
0.0
 10
190.836629898254
 20
120.1191942248582
 30
0.0
 10
190.8522007007799
 20
120.0872264137513
 30
0.0
 10
190.8757206688153
 20
120.0592270339066
 30
0.0
  0
ELLIPSE
  5
F6
330
1F
100
AcDbEntity
  8
0
  6
HIDDEN
 62
     7
370
     0
100
AcDbEllipse
 10
192.3917714764
 20
119.5137614679
 30
0.0
 11
2.165063509461135
 21
0.0
 31
0.0
210
0.0
220
0.0
230
1.0
 40
0.5773502692
 41
1.704702997419881
 42
2.346521364372599
  0
LINE
  5
F7
330
1F
100
AcDbEntity
  8
0
  6
HIDDEN
 62
     7
370
     0
100
AcDbLine
 10
190.7257206688
 20
120.7637614679
 30
0.0
 11
190.7257206688
 21
119.5137614679
 31
0.0
  0
ELLIPSE
  5
F8
330
1F
100
AcDbEntity
  8
0
  6
HIDDEN
 62
     7
370
     0
100
AcDbEllipse
 10
188.9276698612
 20
119.5137614679
 30
0.0
 11
2.165063509461106
 21
0.0
 31
0.0
210
0.0
220
0.0
230
1.0
 40
0.5773502692
 41
0.0
 42
0.4515630575236633
  0
LINE
  5
F9
330
1F
100
AcDbEntity
  8
0
  6
HIDDEN
 62
     7
370
     0
100
AcDbLine
 10
190.7257206688
 20
119.5137614679
 30
0.0
 11
190.7257206688
 21
113.3137614679
 31
0.0
  0
LINE
  5
FA
330
1F
100
AcDbEntity
  8
0
  6
HIDDEN
 62
     7
370
     0
100
AcDbLine
 10
191.0927333707
 20
119.5137614679
 30
0.0
 11
191.0927333707
 21
113.3137614679
 31
0.0
  0
ELLIPSE
  5
FB
330
1F
100
AcDbEntity
  8
0
  6
HIDDEN
 62
     7
370
     0
100
AcDbEllipse
 10
192.3917714764
 20
113.3137614679
 30
0.0
 11
2.165063509461135
 21
0.0
 31
0.0
210
0.0
220
0.0
230
1.0
 40
0.5773502692
 41
3.936663942806997
 42
4.578482309759714
  0
SPLINE
  5
FC
330
1F
100
AcDbEntity
  8
0
  6
HIDDEN
 62
     7
370
     0
100
AcDbSpline
210
0.0
220
0.0
230
1.0
 70
     8
 71
     3
 72
    14
 73
    10
 74
     0
 42
0.00000001
 43
0.00000001
 40
0.0
 40
0.0
 40
0.0
 40
0.0
 40
0.25
 40
0.25
 40
0.5
 40
0.5
 40
0.75
 40
0.75
 40
1.0
 40
1.0
 40
1.0
 40
1.0
 10
190.8757206688153
 20
112.7682959018729
 30
0.0
 10
190.8521563959035
 20
112.7402437792242
 30
0.0
 10
190.8367508813626
 20
112.7086322859327
 30
0.0
 10
190.813584503825
 20
112.645211555988
 30
0.0
 10
190.8065322806367
 20
112.6136768567435
 30
0.0
 10
190.8022162608795
 20
112.5511042424273
 30
0.0
 10
190.8050316832326
 20
112.5206335658705
 30
0.0
 10
190.8265652070051
 20
112.4641799516901
 30
0.0
 10
190.8452274584361
 20
112.4386374805575
 30
0.0
 10
190.8757206688153
 20
112.4213695605475
 30
0.0
  0
SPLINE
  5
FD
330
1F
100
AcDbEntity
  8
0
  6
HIDDEN
 62
     7
370
     0
100
AcDbSpline
210
0.0
220
0.0
230
1.0
 70
    24
 71
     1
 72
     4
 73
     2
 74
     0
 42
0.00000001
 43
0.00000001
 40
0.0
 40
0.0
 40
1.0
 40
1.0
 10
190.8099600657849
 20
112.528405143132
 30
0.0
 10
190.8072900608854
 20
112.5659910446569
 30
0.0
  0
LINE
  5
FE
330
1F
100
AcDbEntity
  8
0
  6
HIDDEN
 62
     7
370
     0
100
AcDbLine
 10
190.7257206688
 20
113.3137614679
 30
0.0
 11
190.7257206688
 21
112.0637614679
 31
0.0
  0
ELLIPSE
  5
FF
330
1F
100
AcDbEntity
  8
0
  6
HIDDEN
 62
     7
370
     0
100
AcDbEllipse
 10
188.9276698612
 20
113.3137614679
 30
0.0
 11
2.165063509461106
 21
0.0
 31
0.0
210
0.0
220
0.0
230
1.0
 40
0.5773502692
 41
5.831622249655944
 42
6.283185307179586
  0
SPLINE
  5
100
330
1F
100
AcDbEntity
  8
0
  6
HIDDEN
 62
     7
370
     0
100
AcDbSpline
210
0.0
220
0.0
230
1.0
 70
     8
 71
     3
 72
    52
 73
    48
 74
     0
 42
0.00000001
 43
0.00000001
 40
-0.0312500000000009
 40
-0.0312500000000009
 40
0.0
 40
0.0
 40
0.0312500000000014
 40
0.0312500000000014
 40
0.0625000000000028
 40
0.0625000000000028
 40
0.0937500000000043
 40
0.0937500000000043
 40
0.1250000000000057
 40
0.1250000000000057
 40
0.1875000000000048
 40
0.1875000000000048
 40
0.2500000000000039
 40
0.2500000000000039
 40
0.3125000000000029
 40
0.3125000000000029
 40
0.375000000000002
 40
0.375000000000002
 40
0.4375000000000012
 40
0.4375000000000012
 40
0.4687500000000007
 40
0.4687500000000007
 40
0.4843750000000018
 40
0.4843750000000018
 40
0.5000000000000029
 40
0.5000000000000029
 40
0.5156250000000039
 40
0.5156250000000039
 40
0.531250000000005
 40
0.531250000000005
 40
0.5625000000000046
 40
0.5625000000000046
 40
0.6250000000000034
 40
0.6250000000000034
 40
0.6875000000000024
 40
0.6875000000000024
 40
0.7500000000000013
 40
0.7500000000000013
 40
0.8125000000000003
 40
0.8125000000000003
 40
0.8749999999999993
 40
0.8749999999999993
 40
0.9374999999999982
 40
0.9374999999999982
 40
0.9687499999999991
 40
0.9687499999999991
 40
1.0
 40
1.0
 40
1.031250000000001
 40
1.031250000000001
 10
179.5608213941643
 20
113.4228972872628
 30
0.0
 10
179.5608213941642
 20
113.2046256485167
 30
0.0
 10
179.5828696552768
 20
113.0978144126463
 30
0.0
 10
179.6659601717174
 20
112.9004635169284
 30
0.0
 10
179.7269026071618
 20
112.8111395755546
 30
0.0
 10
179.8741167799501
 20
112.6595949843875
 30
0.0
 10
179.961191387463
 20
112.5963355963929
 30
0.0
 10
180.1459151644007
 20
112.4946749600843
 30
0.0
 10
180.244946289271
 20
112.4550305024382
 30
0.0
 10
180.552079248977
 20
112.3613091395302
 30
0.0
 10
180.763347283214
 20
112.3325192655894
 30
0.0
 10
181.1927931462535
 20
112.3080478607458
 30
0.0
 10
181.4072155868359
 20
112.3135285805789
 30
0.0
 10
181.8310473928207
 20
112.3474452611691
 30
0.0
 10
182.0413990508543
 20
112.3761037366159
 30
0.0
 10
182.459279520746
 20
112.4560174570112
 30
0.0
 10
182.6675560171853
 20
112.507388423416
 30
0.0
 10
183.0714573652164
 20
112.6396610620789
 30
0.0
 10
183.2711138005471
 20
112.7199202911525
 30
0.0
 10
183.5422589414382
 20
112.8878206703991
 30
0.0
 10
183.6292304692134
 20
112.9524681481838
 30
0.0
 10
183.7353035455918
 20
113.0735204544928
 30
0.0
 10
183.7664205421336
 20
113.1183166330869
 30
0.0
 10
183.8100651749352
 20
113.2158339716861
 30
0.0
 10
183.8224825213113
 20
113.2700025822989
 30
0.0
 10
183.8190464317365
 20
113.3784612314344
 30
0.0
 10
183.8033696096042
 20
113.4318168757706
 30
0.0
 10
183.7546033307235
 20
113.5278331377777
 30
0.0
 10
183.7219752655422
 20
113.5711356919289
 30
0.0
 10
183.6123014812835
 20
113.6890484317766
 30
0.0
 10
183.5250037443194
 20
113.7518045385569
 30
0.0
 10
183.2510949511998
 20
113.916688143628
 30
0.0
 10
183.05503954551
 20
113.9941067530511
 30
0.0
 10
182.6521313939944
 20
114.124245960895
 30
0.0
 10
182.4447812674256
 20
114.1747450688039
 30
0.0
 10
182.030378688961
 20
114.2530299904776
 30
0.0
 10
181.8218440401636
 20
114.2810877213372
 30
0.0
 10
181.4018149203923
 20
114.3141433031596
 30
0.0
 10
181.1903530328848
 20
114.319418268892
 30
0.0
 10
180.7628821569168
 20
114.294894364373
 30
0.0
 10
180.5498605943746
 20
114.2654395762449
 30
0.0
 10
180.1463806840489
 20
114.1425120385064
 30
0.0
 10
179.9481034259422
 20
114.0440522632037
 30
0.0
 10
179.7268365748146
 20
113.8163347234562
 30
0.0
 10
179.666100537984
 20
113.7272925746908
 30
0.0
 10
179.5829594006644
 20
113.5300216355582
 30
0.0
 10
179.5608213941643
 20
113.4228972872628
 30
0.0
 10
179.5608213941642
 20
113.2046256485167
 30
0.0
  0
SPLINE
  5
101
330
1F
100
AcDbEntity
  8
0
  6
HIDDEN
 62
     7
370
     0
100
AcDbSpline
210
0.0
220
0.0
230
1.0
 70
     8
 71
     3
 72
    16
 73
    12
 74
     0
 42
0.00000001
 43
0.00000001
 40
0.0
 40
0.0
 40
0.0
 40
0.0
 40
0.2499999999999981
 40
0.2499999999999981
 40
0.3749999999999984
 40
0.3749999999999984
 40
0.4999999999999987
 40
0.4999999999999987
 40
0.7499999999999993
 40
0.7499999999999993
 40
1.0
 40
1.0
 40
1.0
 40
1.0
 10
192.1027206688153
 20
115.0858752600906
 30
0.0
 10
191.9785167425447
 20
114.8108781556804
 30
0.0
 10
191.878541634421
 20
114.5260321038105
 30
0.0
 10
191.7745467193402
 20
114.0800772641443
 30
0.0
 10
191.7474933896294
 20
113.9271612622648
 30
0.0
 10
191.7115867406883
 20
113.6211583813153
 30
0.0
 10
191.7025695387804
 20
113.4680433010067
 30
0.0
 10
191.7024462158729
 20
113.0083556156301
 30
0.0
 10
191.7396705432832
 20
112.6975340408481
 30
0.0
 10
191.8779928480392
 20
112.1033160036437
 30
0.0
 10
191.9784587907838
 20
111.8167730897824
 30
0.0
 10
192.1027206688153
 20
111.5416476756889
 30
0.0
  0
LINE
  5
102
330
1F
100
AcDbEntity
  8
0
  6
HIDDEN
 62
     7
370
     0
100
AcDbLine
 10
190.5802724016
 20
110.5637614679
 30
0.0
 11
190.5802724016
 21
116.0637614679
 31
0.0
  0
SPLINE
  5
103
330
1F
100
AcDbEntity
  8
0
  6
HIDDEN
 62
     7
370
     0
100
AcDbSpline
210
0.0
220
0.0
230
1.0
 70
     8
 71
     3
 72
     8
 73
     4
 74
     0
 42
0.00000001
 43
0.00000001
 40
0.0
 40
0.0
 40
0.0
 40
0.0
 40
1.0
 40
1.0
 40
1.0
 40
1.0
 10
190.8757206688153
 20
116.2316749023144
 30
0.0
 10
191.2780239143813
 20
116.4542299241699
 30
0.0
 10
191.6880178174581
 20
116.6562982156122
 30
0.0
 10
192.1027206688153
 20
116.8458225920754
 30
0.0
  0
SPLINE
  5
104
330
1F
100
AcDbEntity
  8
0
  6
HIDDEN
 62
     7
370
     0
100
AcDbSpline
210
0.0
220
0.0
230
1.0
 70
     8
 71
     3
 72
    11
 73
     7
 74
     0
 42
0.00000001
 43
0.00000001
 40
0.0
 40
0.0
 40
0.0
 40
0.0
 40
0.2149431962098036
 40
0.4895651129530198
 40
0.7777589171663422
 40
1.0
 40
1.0
 40
1.0
 40
1.0
 10
190.8049203850469
 20
116.1934027197006
 30
0.0
 10
190.8052137699534
 20
116.1935563217673
 30
0.0
 10
190.8058819977335
 20
116.1939061733299
 30
0.0
 10
190.8223165169799
 20
116.2026139046903
 30
0.0
 10
190.8466535410284
 20
116.2156813375322
 30
0.0
 10
190.8669037972107
 20
116.2268236074696
 30
0.0
 10
190.8757206688153
 20
116.2316749023144
 30
0.0
  0
SPLINE
  5
105
330
1F
100
AcDbEntity
  8
0
  6
HIDDEN
 62
     7
370
     0
100
AcDbSpline
210
0.0
220
0.0
230
1.0
 70
     8
 71
     3
 72
     9
 73
     5
 74
     0
 42
0.00000001
 43
0.00000001
 40
0.0
 40
0.0
 40
0.0
 40
0.0
 40
0.4083126422859446
 40
1.0
 40
1.0
 40
1.0
 40
1.0
 10
190.8086881242406
 20
111.213023121797
 30
0.0
 10
190.8070792251764
 20
111.2171965542506
 30
0.0
 10
190.8031388645373
 20
111.2274177230839
 30
0.0
 10
190.8047052022228
 20
111.2362452123186
 30
0.0
 10
190.8056319844292
 20
111.2414683260991
 30
0.0
  0
SPLINE
  5
106
330
1F
100
AcDbEntity
  8
0
  6
HIDDEN
 62
     7
370
     0
100
AcDbSpline
210
0.0
220
0.0
230
1.0
 70
     8
 71
     3
 72
    11
 73
     7
 74
     0
 42
0.00000001
 43
0.00000001
 40
0.0
 40
0.0
 40
0.0
 40
0.0
 40
0.2824820768476833
 40
0.6255361460765597
 40
0.9344343785463755
 40
1.0
 40
1.0
 40
1.0
 40
1.0
 10
190.8757206688153
 20
110.3958480334651
 30
0.0
 10
190.8645537740846
 20
110.4019821788687
 30
0.0
 10
190.8398254926607
 20
110.4155658005909
 30
0.0
 10
190.8144160864495
 20
110.4291102596972
 30
0.0
 10
190.8024773277164
 20
110.4354102532992
 30
0.0
 10
190.8045563626777
 20
110.4343124352296
 30
0.0
 10
190.8049203850469
 20
110.4341202160788
 30
0.0
  0
SPLINE
  5
107
330
1F
100
AcDbEntity
  8
0
  6
HIDDEN
 62
     7
370
     0
100
AcDbSpline
210
0.0
220
0.0
230
1.0
 70
     8
 71
     3
 72
     8
 73
     4
 74
     0
 42
0.00000001
 43
0.00000001
 40
0.0
 40
0.0
 40
0.0
 40
0.0
 40
1.0
 40
1.0
 40
1.0
 40
1.0
 10
192.1027206688153
 20
109.7817003437041
 30
0.0
 10
191.6880178174581
 20
109.9712247201673
 30
0.0
 10
191.2780239143813
 20
110.1732930116096
 30
0.0
 10
190.8757206688153
 20
110.3958480334651
 30
0.0
  0
SPLINE
  5
108
330
1F
100
AcDbEntity
  8
0
  6
HIDDEN
 62
     7
370
     0
100
AcDbSpline
210
0.0
220
0.0
230
1.0
 70
     8
 71
     3
 72
     8
 73
     4
 74
     0
 42
0.00000001
 43
0.00000001
 40
0.0
 40
0.0
 40
0.0
 40
0.0
 40
1.0
 40
1.0
 40
1.0
 40
1.0
 10
190.8757206688143
 20
111.0747774475399
 30
0.0
 10
191.2437283674358
 20
110.6196713672473
 30
0.0
 10
191.6617128602541
 20
110.2328539771568
 30
0.0
 10
192.1027206688152
 20
109.8774958293299
 30
0.0
  0
SPLINE
  5
109
330
1F
100
AcDbEntity
  8
0
  6
HIDDEN
 62
     7
370
     0
100
AcDbSpline
210
0.0
220
0.0
230
1.0
 70
     8
 71
     3
 72
    12
 73
     8
 74
     0
 42
0.00000001
 43
0.00000001
 40
0.0
 40
0.0
 40
0.0
 40
0.0
 40
0.2500000000000009
 40
0.2500000000000009
 40
0.5000000000000018
 40
0.5000000000000018
 40
1.0
 40
1.0
 40
1.0
 40
1.0
 10
190.8757206688153
 20
111.3099181161739
 30
0.0
 10
190.8474526520938
 20
111.3164001724027
 30
0.0
 10
190.8250555564846
 20
111.3057439487186
 30
0.0
 10
190.8037431830192
 20
111.27031642584
 30
0.0
 10
190.8019654628343
 20
111.2472018051932
 30
0.0
 10
190.8111192437649
 20
111.1757109013622
 30
0.0
 10
190.8364635429999
 20
111.1233257706344
 30
0.0
 10
190.8757206688153
 20
111.0747774475413
 30
0.0
  0
SPLINE
  5
10A
330
1F
100
AcDbEntity
  8
0
  6
HIDDEN
 62
     7
370
     0
100
AcDbSpline
210
0.0
220
0.0
230
1.0
 70
     8
 71
     3
 72
     8
 73
     4
 74
     0
 42
0.00000001
 43
0.00000001
 40
0.0
 40
0.0
 40
0.0
 40
0.0
 40
1.0
 40
1.0
 40
1.0
 40
1.0
 10
192.1027206688153
 20
111.0459453308934
 30
0.0
 10
191.6929205314693
 20
111.1289773274347
 30
0.0
 10
191.2838188875384
 20
111.2163383073498
 30
0.0
 10
190.8757206688153
 20
111.3099181161739
 30
0.0
  0
SPLINE
  5
10B
330
1F
100
AcDbEntity
  8
0
  6
HIDDEN
 62
     7
370
     0
100
AcDbSpline
210
0.0
220
0.0
230
1.0
 70
     8
 71
     3
 72
     8
 73
     4
 74
     0
 42
0.00000001
 43
0.00000001
 40
0.0
 40
0.0
 40
0.0
 40
0.0
 40
1.0
 40
1.0
 40
1.0
 40
1.0
 10
190.8757206688153
 20
115.3176048196056
 30
0.0
 10
191.2838188875384
 20
115.4111846284297
 30
0.0
 10
191.6929205314693
 20
115.4985456083447
 30
0.0
 10
192.1027206688153
 20
115.5815776048861
 30
0.0
  0
SPLINE
  5
10C
330
1F
100
AcDbEntity
  8
0
  6
HIDDEN
 62
     7
370
     0
100
AcDbSpline
210
0.0
220
0.0
230
1.0
 70
     8
 71
     3
 72
    12
 73
     8
 74
     0
 42
0.00000001
 43
0.00000001
 40
0.0
 40
0.0
 40
0.0
 40
0.0
 40
0.5000000000000042
 40
0.5000000000000042
 40
0.7500000000000021
 40
0.7500000000000021
 40
1.0
 40
1.0
 40
1.0
 40
1.0
 10
190.8757206688148
 20
115.5527454882382
 30
0.0
 10
190.8365097386897
 20
115.5042542942204
 30
0.0
 10
190.8112662601168
 20
115.4525306934749
 30
0.0
 10
190.8019294002799
 20
115.3802529553202
 30
0.0
 10
190.8037900265464
 20
115.3571238553708
 30
0.0
 10
190.8250158563156
 20
115.3218497688421
 30
0.0
 10
190.8472787522428
 20
115.3110828869106
 30
0.0
 10
190.8757206688153
 20
115.3176048196056
 30
0.0
  0
SPLINE
  5
10D
330
1F
100
AcDbEntity
  8
0
  6
HIDDEN
 62
     7
370
     0
100
AcDbSpline
210
0.0
220
0.0
230
1.0
 70
     8
 71
     3
 72
     8
 73
     4
 74
     0
 42
0.00000001
 43
0.00000001
 40
0.0
 40
0.0
 40
0.0
 40
0.0
 40
1.0
 40
1.0
 40
1.0
 40
1.0
 10
192.1027206688152
 20
116.7500271064496
 30
0.0
 10
191.6617128602541
 20
116.3946689586227
 30
0.0
 10
191.2437283674358
 20
116.0078515685321
 30
0.0
 10
190.8757206688143
 20
115.5527454882395
 30
0.0
  0
LINE
  5
10E
330
1F
100
AcDbEntity
  8
0
  6
HIDDEN
 62
     7
370
     0
100
AcDbLine
 10
189.2257206688
 20
110.5637614679
 30
0.0
 11
189.2257206688
 21
116.0637614679
 31
0.0
  0
LINE
  5
10F
330
1F
100
AcDbEntity
  8
0
  6
HIDDEN
 62
     7
370
     0
100
AcDbLine
 10
188.8351612664
 20
111.2137614679
 30
0.0
 11
188.8351612664
 21
115.4137614679
 31
0.0
  0
LINE
  5
110
330
1F
100
AcDbEntity
  8
0
  6
HIDDEN
 62
     7
370
     0
100
AcDbLine
 10
89.8247587745
 20
111.8137614679
 30
0.0
 11
89.8247587745
 21
114.8137614679
 31
0.0
  0
LINE
  5
111
330
1F
100
AcDbEntity
  8
0
  6
HIDDEN
 62
     7
370
     0
100
AcDbLine
 10
177.2257206688
 20
111.2137614679
 30
0.0
 11
177.2257206688
 21
115.4137614679
 31
0.0
  0
LINE
  5
112
330
1F
100
AcDbEntity
  8
0
  6
HIDDEN
 62
     7
370
     0
100
AcDbLine
 10
176.8652042974
 20
111.8137614679
 30
0.0
 11
176.8652042974
 21
114.8137614679
 31
0.0
  0
SPLINE
  5
113
330
1F
100
AcDbEntity
  8
0
  6
HIDDEN
 62
     7
370
     0
100
AcDbSpline
210
0.0
220
0.0
230
1.0
 70
    24
 71
     1
 72
     4
 73
     2
 74
     0
 42
0.00000001
 43
0.00000001
 40
0.0
 40
0.0
 40
1.0
 40
1.0
 10
192.1027206688153
 20
120.7637614678897
 30
0.0
 10
190.7257206688153
 20
120.7637614678897
 30
0.0
  0
SPLINE
  5
114
330
1F
100
AcDbEntity
  8
0
  6
HIDDEN
 62
     7
370
     0
100
AcDbSpline
210
0.0
220
0.0
230
1.0
 70
    24
 71
     1
 72
     4
 73
     2
 74
     0
 42
0.00000001
 43
0.00000001
 40
0.0
 40
0.0
 40
1.0
 40
1.0
 10
190.7257206688153
 20
112.0637614678897
 30
0.0
 10
192.1027206688153
 20
112.0637614678897
 30
0.0
  0
SPLINE
  5
115
330
1F
100
AcDbEntity
  8
0
  6
HIDDEN
 62
     7
370
     0
100
AcDbSpline
210
0.0
220
0.0
230
1.0
 70
    24
 71
     1
 72
     4
 73
     2
 74
     0
 42
0.00000001
 43
0.00000001
 40
0.0
 40
0.0
 40
1.0
 40
1.0
 10
190.8037206688153
 20
112.5642989704704
 30
0.0
 10
190.8037206688153
 20
103.7092321843228
 30
0.0
  0
SPLINE
  5
116
330
1F
100
AcDbEntity
  8
0
  6
HIDDEN
 62
     7
370
     0
100
AcDbSpline
210
0.0
220
0.0
230
1.0
 70
    24
 71
     1
 72
     4
 73
     2
 74
     0
 42
0.00000001
 43
0.00000001
 40
0.0
 40
0.0
 40
1.0
 40
1.0
 10
190.8037206688153
 20
122.9185639414182
 30
0.0
 10
190.8037206688153
 20
120.2615318911225
 30
0.0
  0
SPLINE
  5
117
330
1F
100
AcDbEntity
  8
0
  6
HIDDEN
 62
     7
370
     0
100
AcDbSpline
210
0.0
220
0.0
230
1.0
 70
    24
 71
     1
 72
     4
 73
     2
 74
     0
 42
0.00000001
 43
0.00000001
 40
0.0
 40
0.0
 40
1.0
 40
1.0
 10
190.7257206688153
 20
114.3137614678897
 30
0.0
 10
181.2341750948251
 20
114.3137614678897
 30
0.0
  0
SPLINE
  5
118
330
1F
100
AcDbEntity
  8
0
  6
HIDDEN
 62
     7
370
     0
100
AcDbSpline
210
0.0
220
0.0
230
1.0
 70
    24
 71
     1
 72
     4
 73
     2
 74
     0
 42
0.00000001
 43
0.00000001
 40
0.0
 40
0.0
 40
1.0
 40
1.0
 10
181.2235093682298
 20
112.3137614678897
 30
0.0
 10
190.7257206688153
 20
112.3137614678897
 30
0.0
  0
SPLINE
  5
119
330
1F
100
AcDbEntity
  8
0
  6
HIDDEN
 62
     7
370
     0
100
AcDbSpline
210
0.0
220
0.0
230
1.0
 70
    24
 71
     1
 72
     4
 73
     2
 74
     0
 42
0.00000001
 43
0.00000001
 40
0.0
 40
0.0
 40
1.0
 40
1.0
 10
190.8037206688153
 20
112.5659910446569
 30
0.0
 10
190.8037206688153
 20
112.5642989704704
 30
0.0
  0
SPLINE
  5
11A
330
1F
100
AcDbEntity
  8
0
  6
HIDDEN
 62
     7
370
     0
100
AcDbSpline
210
0.0
220
0.0
230
1.0
 70
    24
 71
     1
 72
     4
 73
     2
 74
     0
 42
0.00000001
 43
0.00000001
 40
0.0
 40
0.0
 40
1.0
 40
1.0
 10
190.8037206688153
 20
103.7092321843228
 30
0.0
 10
190.8037206688153
 20
102.3478495907487
 30
0.0
  0
SPLINE
  5
11B
330
1F
100
AcDbEntity
  8
0
  6
HIDDEN
 62
     7
370
     0
100
AcDbSpline
210
0.0
220
0.0
230
1.0
 70
    24
 71
     1
 72
     4
 73
     2
 74
     0
 42
0.00000001
 43
0.00000001
 40
0.0
 40
0.0
 40
1.0
 40
1.0
 10
190.8037206688153
 20
124.2795476585576
 30
0.0
 10
190.8037206688153
 20
122.9185639414182
 30
0.0
  0
SPLINE
  5
11C
330
1F
100
AcDbEntity
  8
0
  6
HIDDEN
 62
     7
370
     0
100
AcDbSpline
210
0.0
220
0.0
230
1.0
 70
    24
 71
     1
 72
     4
 73
     2
 74
     0
 42
0.00000001
 43
0.00000001
 40
0.0
 40
0.0
 40
1.0
 40
1.0
 10
190.8037206688153
 20
125.15643493594
 30
0.0
 10
190.8037206688153
 20
124.2795476585576
 30
0.0
  0
SPLINE
  5
11D
330
1F
100
AcDbEntity
  8
0
  6
HIDDEN
 62
     7
370
     0
100
AcDbSpline
210
0.0
220
0.0
230
1.0
 70
    24
 71
     1
 72
     4
 73
     2
 74
     0
 42
0.00000001
 43
0.00000001
 40
0.0
 40
0.0
 40
1.0
 40
1.0
 10
190.8037206688153
 20
120.2615318911225
 30
0.0
 10
190.8037206688153
 20
112.5659910446569
 30
0.0
  0
SPLINE
  5
11E
330
1F
100
AcDbEntity
  8
0
  6
HIDDEN
 62
     7
370
     0
100
AcDbSpline
210
0.0
220
0.0
230
1.0
 70
    24
 71
     1
 72
     4
 73
     2
 74
     0
 42
0.00000001
 43
0.00000001
 40
0.0
 40
0.0
 40
1.0
 40
1.0
 10
190.8037206688153
 20
102.3478495907487
 30
0.0
 10
190.8037206688153
 20
101.4710143802111
 30
0.0
  0
SPLINE
  5
11F
330
1F
100
AcDbEntity
  8
0
  6
HIDDEN
 62
     7
370
     0
100
AcDbSpline
210
0.0
220
0.0
230
1.0
 70
    24
 71
     1
 72
     4
 73
     2
 74
     0
 42
0.00000001
 43
0.00000001
 40
0.0
 40
0.0
 40
1.0
 40
1.0
 10
190.8048946979147
 20
116.1934472111187
 30
0.0
 10
190.5802724016249
 20
116.0637614678897
 30
0.0
  0
SPLINE
  5
120
330
1F
100
AcDbEntity
  8
0
  6
HIDDEN
 62
     7
370
     0
100
AcDbSpline
210
0.0
220
0.0
230
1.0
 70
    24
 71
     1
 72
     4
 73
     2
 74
     0
 42
0.00000001
 43
0.00000001
 40
0.0
 40
0.0
 40
1.0
 40
1.0
 10
190.5802724016249
 20
110.5637614678897
 30
0.0
 10
190.8048946979147
 20
110.4340757246608
 30
0.0
  0
SPLINE
  5
121
330
1F
100
AcDbEntity
  8
0
  6
HIDDEN
 62
     7
370
     0
100
AcDbSpline
210
0.0
220
0.0
230
1.0
 70
    24
 71
     1
 72
     4
 73
     2
 74
     0
 42
0.00000001
 43
0.00000001
 40
0.0
 40
0.0
 40
1.0
 40
1.0
 10
189.2257206688153
 20
110.5637614678897
 30
0.0
 10
190.5802724016249
 20
110.5637614678897
 30
0.0
  0
SPLINE
  5
122
330
1F
100
AcDbEntity
  8
0
  6
HIDDEN
 62
     7
370
     0
100
AcDbSpline
210
0.0
220
0.0
230
1.0
 70
    24
 71
     1
 72
     4
 73
     2
 74
     0
 42
0.00000001
 43
0.00000001
 40
0.0
 40
0.0
 40
1.0
 40
1.0
 10
190.5802724016249
 20
116.0637614678897
 30
0.0
 10
189.2257206688153
 20
116.0637614678897
 30
0.0
  0
SPLINE
  5
123
330
1F
100
AcDbEntity
  8
0
  6
HIDDEN
 62
     7
370
     0
100
AcDbSpline
210
0.0
220
0.0
230
1.0
 70
    24
 71
     1
 72
     4
 73
     2
 74
     0
 42
0.00000001
 43
0.00000001
 40
0.0
 40
0.0
 40
1.0
 40
1.0
 10
189.2257206688153
 20
116.0637614678897
 30
0.0
 10
188.8351612664474
 20
115.4137614678897
 30
0.0
  0
SPLINE
  5
124
330
1F
100
AcDbEntity
  8
0
  6
HIDDEN
 62
     7
370
     0
100
AcDbSpline
210
0.0
220
0.0
230
1.0
 70
    24
 71
     1
 72
     4
 73
     2
 74
     0
 42
0.00000001
 43
0.00000001
 40
0.0
 40
0.0
 40
1.0
 40
1.0
 10
188.8351612664474
 20
111.2137614678897
 30
0.0
 10
189.2257206688153
 20
110.5637614678897
 30
0.0
  0
SPLINE
  5
125
330
1F
100
AcDbEntity
  8
0
  6
HIDDEN
 62
     7
370
     0
100
AcDbSpline
210
0.0
220
0.0
230
1.0
 70
    24
 71
     1
 72
     4
 73
     2
 74
     0
 42
0.00000001
 43
0.00000001
 40
0.0
 40
0.0
 40
1.0
 40
1.0
 10
88.52572066881531
 20
111.0637614678897
 30
0.0
 10
89.82475877449195
 20
111.8137614678897
 30
0.0
  0
SPLINE
  5
126
330
1F
100
AcDbEntity
  8
0
  6
HIDDEN
 62
     7
370
     0
100
AcDbSpline
210
0.0
220
0.0
230
1.0
 70
    24
 71
     1
 72
     4
 73
     2
 74
     0
 42
0.00000001
 43
0.00000001
 40
0.0
 40
0.0
 40
1.0
 40
1.0
 10
89.82475877449195
 20
114.8137614678897
 30
0.0
 10
88.52572066881531
 20
115.5637614678897
 30
0.0
  0
SPLINE
  5
127
330
1F
100
AcDbEntity
  8
0
  6
HIDDEN
 62
     7
370
     0
100
AcDbSpline
210
0.0
220
0.0
230
1.0
 70
    24
 71
     1
 72
     4
 73
     2
 74
     0
 42
0.00000001
 43
0.00000001
 40
0.0
 40
0.0
 40
1.0
 40
1.0
 10
190.8037206688153
 20
101.4710143802111
 30
0.0
 10
190.8037206688153
 20
100.9747908696494
 30
0.0
  0
SPLINE
  5
128
330
1F
100
AcDbEntity
  8
0
  6
HIDDEN
 62
     7
370
     0
100
AcDbSpline
210
0.0
220
0.0
230
1.0
 70
    24
 71
     1
 72
     4
 73
     2
 74
     0
 42
0.00000001
 43
0.00000001
 40
0.0
 40
0.0
 40
1.0
 40
1.0
 10
190.8037206688153
 20
125.6526988312592
 30
0.0
 10
190.8037206688153
 20
125.15643493594
 30
0.0
  0
SPLINE
  5
129
330
1F
100
AcDbEntity
  8
0
  6
HIDDEN
 62
     7
370
     0
100
AcDbSpline
210
0.0
220
0.0
230
1.0
 70
    24
 71
     1
 72
     4
 73
     2
 74
     0
 42
0.00000001
 43
0.00000001
 40
0.0
 40
0.0
 40
1.0
 40
1.0
 10
177.2257206688153
 20
111.2137614678897
 30
0.0
 10
188.8351612664474
 20
111.2137614678897
 30
0.0
  0
SPLINE
  5
12A
330
1F
100
AcDbEntity
  8
0
  6
HIDDEN
 62
     7
370
     0
100
AcDbSpline
210
0.0
220
0.0
230
1.0
 70
    24
 71
     1
 72
     4
 73
     2
 74
     0
 42
0.00000001
 43
0.00000001
 40
0.0
 40
0.0
 40
1.0
 40
1.0
 10
188.8351612664474
 20
115.4137614678897
 30
0.0
 10
177.2257206688153
 20
115.4137614678897
 30
0.0
  0
SPLINE
  5
12B
330
1F
100
AcDbEntity
  8
0
  6
HIDDEN
 62
     7
370
     0
100
AcDbSpline
210
0.0
220
0.0
230
1.0
 70
    24
 71
     1
 72
     4
 73
     2
 74
     0
 42
0.00000001
 43
0.00000001
 40
0.0
 40
0.0
 40
1.0
 40
1.0
 10
177.2257206688153
 20
115.4137614678897
 30
0.0
 10
176.8652042973988
 20
114.8137614678897
 30
0.0
  0
SPLINE
  5
12C
330
1F
100
AcDbEntity
  8
0
  6
HIDDEN
 62
     7
370
     0
100
AcDbSpline
210
0.0
220
0.0
230
1.0
 70
    24
 71
     1
 72
     4
 73
     2
 74
     0
 42
0.00000001
 43
0.00000001
 40
0.0
 40
0.0
 40
1.0
 40
1.0
 10
176.8652042973988
 20
111.8137614678897
 30
0.0
 10
177.2257206688153
 20
111.2137614678897
 30
0.0
  0
SPLINE
  5
12D
330
1F
100
AcDbEntity
  8
0
  6
HIDDEN
 62
     7
370
     0
100
AcDbSpline
210
0.0
220
0.0
230
1.0
 70
    24
 71
     1
 72
     4
 73
     2
 74
     0
 42
0.00000001
 43
0.00000001
 40
0.0
 40
0.0
 40
1.0
 40
1.0
 10
89.82475877449195
 20
111.8137614678897
 30
0.0
 10
176.8652042973988
 20
111.8137614678897
 30
0.0
  0
SPLINE
  5
12E
330
1F
100
AcDbEntity
  8
0
  6
HIDDEN
 62
     7
370
     0
100
AcDbSpline
210
0.0
220
0.0
230
1.0
 70
    24
 71
     1
 72
     4
 73
     2
 74
     0
 42
0.00000001
 43
0.00000001
 40
0.0
 40
0.0
 40
1.0
 40
1.0
 10
176.8652042973988
 20
114.8137614678897
 30
0.0
 10
89.82475877449195
 20
114.8137614678897
 30
0.0
  0
SPLINE
  5
12F
330
1F
100
AcDbEntity
  8
0
  6
HIDDEN
 62
     7
370
     0
100
AcDbSpline
210
0.0
220
0.0
230
1.0
 70
    24
 71
     1
 72
     4
 73
     2
 74
     0
 42
0.00000001
 43
0.00000001
 40
0.0
 40
0.0
 40
1.0
 40
1.0
 10
190.8037206688153
 20
125.8137614678897
 30
0.0
 10
190.8037206688153
 20
125.6526988312592
 30
0.0
  0
SPLINE
  5
130
330
1F
100
AcDbEntity
  8
0
  6
HIDDEN
 62
     7
370
     0
100
AcDbSpline
210
0.0
220
0.0
230
1.0
 70
    24
 71
     1
 72
     4
 73
     2
 74
     0
 42
0.00000001
 43
0.00000001
 40
0.0
 40
0.0
 40
1.0
 40
1.0
 10
190.8037206688153
 20
100.9747908696494
 30
0.0
 10
190.8037206688153
 20
100.8137614678897
 30
0.0
  0
LINE
  5
131
330
1F
100
AcDbEntity
  8
VERMASSUNG
100
AcDbLine
 10
191.5257714764
 20
111.2180398212
 30
0.0
 11
191.5257714764
 21
125.6364166966
 31
0.0
  0
DIMENSION
  5
132
330
1F
100
AcDbEntity
  8
VERMASSUNG
100
AcDbDimension
  2
*D1
 10
88.5257206688
 20
137.3033240981
 30
0.0
 11
137.7037146324
 21
137.3033240981
 31
0.0
 70
   160
 71
     2
 42
-1.0
  3
SLDDIMSTYLE0
100
AcDbAlignedDimension
 13
191.5257714764
 23
125.6364166966
 33
0.0
 14
88.5257206688
 24
119.5137614679
 34
0.0
100
AcDbRotatedDimension
  0
DIMENSION
  5
13D
330
1F
100
AcDbEntity
  8
VERMASSUNG
100
AcDbDimension
  2
*D2
 10
81.4340811781
 20
105.3137614679
 30
0.0
 11
81.4340811781
 21
113.3103517485
 31
0.0
 70
   160
  1
%%c<>
 71
     2
 42
-1.0
  3
SLDDIMSTYLE0
100
AcDbAlignedDimension
 13
99.8257206688
 23
121.3137614679
 33
0.0
 14
90.0257206688
 24
105.3137614679
 34
0.0
 50
90.0
100
AcDbRotatedDimension
  0
DIMENSION
  5
148
330
1F
100
AcDbEntity
  8
VERMASSUNG
100
AcDbDimension
  2
*D3
 10
211.2086058122
 20
100.8137614679
 30
0.0
 11
211.2086058122
 21
113.5023833255
 31
0.0
 70
   160
  1
%%c<>
 71
     2
 42
-1.0
  3
SLDDIMSTYLE0
100
AcDbAlignedDimension
 13
190.8037206688
 23
125.8137614679
 33
0.0
 14
190.8037206688
 24
100.8137614679
 34
0.0
 50
90.0
100
AcDbRotatedDimension
  0
LINE
  5
153
330
1F
100
AcDbEntity
  8
VERMASSUNG
  6
CENTERX2
370
     0
100
AcDbLine
 10
87.7018334985
 20
113.3137614679
 30
0.0
 11
195.7874628345
 21
113.3137614679
 31
0.0
  0
OLE2FRAME
  5
154
330
1F
100
AcDbEntity
  8
0
100
AcDbOle2Frame
 70
     2
  3
Bitmap
 10
13.8511154363
 20
38.264191557
 30
0.0
 11
51.6290888628
 21
31.9806341108
 31
0.0
 71
     2
 72
     0
 73
     1
 90
    12928
310
80552BED0767C5B32B40DDAF6807D121434000000000000000006FFBDDFB85D0
310
4940DDAF6807D121434000000000000000006FFBDDFB85D04940416F4BD60AFB
310
3F4000000000000000002BED0767C5B32B40416F4BD60AFB3F40000000000000
310
0000000000000100000000010000010000000100000000000100000000320000
310
D0CF11E0A1B11AE1000000000000000000000000000000003E000300FEFF0900
310
0600000000000000000000000100000001000000000000000010000002000000
310
01000000FEFFFFFF0000000000000000FFFFFFFFFFFFFFFFFFFFFFFFFFFFFFFF
310
FFFFFFFFFFFFFFFFFFFFFFFFFFFFFFFFFFFFFFFFFFFFFFFFFFFFFFFFFFFFFFFF
310
FFFFFFFFFFFFFFFFFFFFFFFFFFFFFFFFFFFFFFFFFFFFFFFFFFFFFFFFFFFFFFFF
310
FFFFFFFFFFFFFFFFFFFFFFFFFFFFFFFFFFFFFFFFFFFFFFFFFFFFFFFFFFFFFFFF
310
FFFFFFFFFFFFFFFFFFFFFFFFFFFFFFFFFFFFFFFFFFFFFFFFFFFFFFFFFFFFFFFF
310
FFFFFFFFFFFFFFFFFFFFFFFFFFFFFFFFFFFFFFFFFFFFFFFFFFFFFFFFFFFFFFFF
310
FFFFFFFFFFFFFFFFFFFFFFFFFFFFFFFFFFFFFFFFFFFFFFFFFFFFFFFFFFFFFFFF
310
FFFFFFFFFFFFFFFFFFFFFFFFFFFFFFFFFFFFFFFFFFFFFFFFFFFFFFFFFFFFFFFF
310
FFFFFFFFFFFFFFFFFFFFFFFFFFFFFFFFFFFFFFFFFFFFFFFFFFFFFFFFFFFFFFFF
310
FFFFFFFFFFFFFFFFFFFFFFFFFFFFFFFFFFFFFFFFFFFFFFFFFFFFFFFFFFFFFFFF
310
FFFFFFFFFFFFFFFFFFFFFFFFFFFFFFFFFFFFFFFFFFFFFFFFFFFFFFFFFFFFFFFF
310
FFFFFFFFFFFFFFFFFFFFFFFFFFFFFFFFFFFFFFFFFFFFFFFFFFFFFFFFFFFFFFFF
310
FFFFFFFFFFFFFFFFFFFFFFFFFFFFFFFFFFFFFFFFFFFFFFFFFFFFFFFFFFFFFFFF
310
FFFFFFFFFFFFFFFFFFFFFFFFFFFFFFFFFFFFFFFFFFFFFFFFFFFFFFFFFFFFFFFF
310
FDFFFFFFFEFFFFFFFEFFFFFFFEFFFFFF05000000060000000700000008000000
310
090000000A0000000B0000000C0000000D0000000E0000000F00000010000000
310
11000000120000001300000014000000150000001600000017000000FEFFFFFF
310
FFFFFFFFFFFFFFFFFFFFFFFFFFFFFFFFFFFFFFFFFFFFFFFFFFFFFFFFFFFFFFFF
310
FFFFFFFFFFFFFFFFFFFFFFFFFFFFFFFFFFFFFFFFFFFFFFFFFFFFFFFFFFFFFFFF
310
FFFFFFFFFFFFFFFFFFFFFFFFFFFFFFFFFFFFFFFFFFFFFFFFFFFFFFFFFFFFFFFF
310
FFFFFFFFFFFFFFFFFFFFFFFFFFFFFFFFFFFFFFFFFFFFFFFFFFFFFFFFFFFFFFFF
310
FFFFFFFFFFFFFFFFFFFFFFFFFFFFFFFFFFFFFFFFFFFFFFFFFFFFFFFFFFFFFFFF
310
FFFFFFFFFFFFFFFFFFFFFFFFFFFFFFFFFFFFFFFFFFFFFFFFFFFFFFFFFFFFFFFF
310
FFFFFFFFFFFFFFFFFFFFFFFFFFFFFFFFFFFFFFFFFFFFFFFFFFFFFFFFFFFFFFFF
310
FFFFFFFFFFFFFFFFFFFFFFFFFFFFFFFFFFFFFFFFFFFFFFFFFFFFFFFFFFFFFFFF
310
FFFFFFFFFFFFFFFFFFFFFFFFFFFFFFFFFFFFFFFFFFFFFFFFFFFFFFFFFFFFFFFF
310
FFFFFFFFFFFFFFFFFFFFFFFFFFFFFFFFFFFFFFFFFFFFFFFFFFFFFFFFFFFFFFFF
310
FFFFFFFFFFFFFFFFFFFFFFFFFFFFFFFFFFFFFFFFFFFFFFFFFFFFFFFFFFFFFFFF
310
FFFFFFFFFFFFFFFFFFFFFFFFFFFFFFFFFFFFFFFFFFFFFFFFFFFFFFFFFFFFFFFF
310
FFFFFFFFFFFFFFFFFFFFFFFFFFFFFFFFFFFFFFFFFFFFFFFFFFFFFFFFFFFFFFFF
310
52006F006F007400200045006E00740072007900000000000000000000000000
310
0000000000000000000000000000000000000000000000000000000000000000
310
16000500FFFFFFFFFFFFFFFF020000000A00030000000000C000000000000046
310
00000000000000000000000000832233D079CC0103000000C000000000000000
310
01004F006C006500000000000000000000000000000000000000000000000000
310
0000000000000000000000000000000000000000000000000000000000000000
310
0A000200FFFFFFFFFFFFFFFFFFFFFFFF00000000000000000000000000000000
310
0000000000000000000000000000000000000000000000001400000000000000
310
010043006F006D0070004F0062006A0000000000000000000000000000000000
310
0000000000000000000000000000000000000000000000000000000000000000
310
120002010100000003000000FFFFFFFF00000000000000000000000000000000
310
0000000000000000000000000000000000000000010000004D00000000000000
310
01004F006C006500310030004E00610074006900760065000000000000000000
310
0000000000000000000000000000000000000000000000000000000000000000
310
1A000200FFFFFFFFFFFFFFFFFFFFFFFF00000000000000000000000000000000
310
0000000000000000000000000000000000000000040000002426000000000000
310
FEFFFFFF02000000FEFFFFFFFFFFFFFFFFFFFFFFFFFFFFFFFFFFFFFFFFFFFFFF
310
FFFFFFFFFFFFFFFFFFFFFFFFFFFFFFFFFFFFFFFFFFFFFFFFFFFFFFFFFFFFFFFF
310
FFFFFFFFFFFFFFFFFFFFFFFFFFFFFFFFFFFFFFFFFFFFFFFFFFFFFFFFFFFFFFFF
310
FFFFFFFFFFFFFFFFFFFFFFFFFFFFFFFFFFFFFFFFFFFFFFFFFFFFFFFFFFFFFFFF
310
FFFFFFFFFFFFFFFFFFFFFFFFFFFFFFFFFFFFFFFFFFFFFFFFFFFFFFFFFFFFFFFF
310
FFFFFFFFFFFFFFFFFFFFFFFFFFFFFFFFFFFFFFFFFFFFFFFFFFFFFFFFFFFFFFFF
310
FFFFFFFFFFFFFFFFFFFFFFFFFFFFFFFFFFFFFFFFFFFFFFFFFFFFFFFFFFFFFFFF
310
FFFFFFFFFFFFFFFFFFFFFFFFFFFFFFFFFFFFFFFFFFFFFFFFFFFFFFFFFFFFFFFF
310
FFFFFFFFFFFFFFFFFFFFFFFFFFFFFFFFFFFFFFFFFFFFFFFFFFFFFFFFFFFFFFFF
310
FFFFFFFFFFFFFFFFFFFFFFFFFFFFFFFFFFFFFFFFFFFFFFFFFFFFFFFFFFFFFFFF
310
FFFFFFFFFFFFFFFFFFFFFFFFFFFFFFFFFFFFFFFFFFFFFFFFFFFFFFFFFFFFFFFF
310
FFFFFFFFFFFFFFFFFFFFFFFFFFFFFFFFFFFFFFFFFFFFFFFFFFFFFFFFFFFFFFFF
310
FFFFFFFFFFFFFFFFFFFFFFFFFFFFFFFFFFFFFFFFFFFFFFFFFFFFFFFFFFFFFFFF
310
FFFFFFFFFFFFFFFFFFFFFFFFFFFFFFFFFFFFFFFFFFFFFFFFFFFFFFFFFFFFFFFF
310
FFFFFFFFFFFFFFFFFFFFFFFFFFFFFFFFFFFFFFFFFFFFFFFFFFFFFFFFFFFFFFFF
310
FFFFFFFFFFFFFFFFFFFFFFFFFFFFFFFFFFFFFFFFFFFFFFFFFFFFFFFFFFFFFFFF
310
010000020000000000000000000000000000000018A6891A0000000000000000
310
0000000000000000E87D9AF3000034FF04020000000000000000000000000000
310
0100FEFF030A0000FFFFFFFF0A00030000000000C00000000000004607000000
310
5042727573680007000000504272757368000700000050427275736800F439B2
310
7100000000000000000000000000000000000000000000000000000000000000
310
0000000000000000000000000000000000000000000000000000000000000000
310
0000000000000000000000000000000000000000000000000000000000000000
310
0000000000000000000000000000000000000000000000000000000000000000
310
0000000000000000000000000000000000000000000000000000000000000000
310
0000000000000000000000000000000000000000000000000000000000000000
310
0000000000000000000000000000000000000000000000000000000000000000
310
0000000000000000000000000000000000000000000000000000000000000000
310
0000000000000000000000000000000000000000000000000000000000000000
310
0000000000000000000000000000000000000000000000000000000000000000
310
0000000000000000000000000000000000000000000000000000000000000000
310
0000000000000000000000000000000000000000000000000000000000000000
310
20260000424D0E260000000000003E00000028000000B40200006E0000000100
310
01000000000000000000130B0000130B00000200000002000000000000FFFFFF
310
FFFFFFFFFFFFFFFFFFFFFFFFFFFFFFFFFFFFFFFFFFFFFFFFFFFFFFFFFFFFFFFF
310
FFFFFFFFFFFFFFFFFFFFFFFFFFFFFFFFFFFFFFFFFFFFFFFFFFFFFFFFFFFFFFFF
310
FFFFFFFFFFFFFFFFFFFFFFFFFFFFFFFFFFFFFFFFFFFFFFFFF000FFFFFFFFFFFF
310
FFFFFFFFFFFFFFFFFFFFFFFFFFFFFFFFFFFFFFFFFFFFFFFFFFFFFFFFFFFFFFFF
310
FFFFFFFFFFFFFFFFFFFFFFFFFFFFFFFFFFFFFFFFFFFFFFFFFFFFFFFFFFFFFFFF
310
FFFFFFFFFFFFFFFFFFFFFFFFFFFFFFFFF000FFFFFFFFFFFFFFFFFFFFFFFFFFFF
310
FFFFFFFFFFFFFFFFFFFFFFFFFFFFFFFFFFFFFFFFFFFFFFFFFFFFFFFFFFFFFFFF
310
FFFFFFFFFFFFFFFFFFFFFFFFFFFFFFFFFFFFFFFFFFFFFFFFFFFFFFFFFFFFFFFF
310
FFFFFFFFFFFFFFFFF000FFFFFFFFFFFFFFFFFFFFFFFFFFFFFFFFFFFFFFFFFFFF
310
FFFFFFFFFFFFFFFFFFFFFFFFFFFFFFFFFFFFFFFFFFFFFFFFFFFFFFFFFFFFFFFF
310
FFFFFFFFFFFFFFFFFFFFFFFFFFFFFFFFFFFFFFFFFFFFFFFFFFFFFFFFFFFFFFFF
310
F000FFFFFFFFFFFFFFFFFFFFFFFFFFFFFFFFFFFFFFFFFFFFFFFFFFFFFFFFFFFF
310
FFFFFFFFFFFFFFFFFFFFFFFFFFFFFFFFFFFFFFFFFFFFFFFFFFFFFFFFFFFFFFFF
310
FFFFFFFFFFFFFFFFFFFFFFFFFFFFFFFFFFFFFFFFFFFFFFFFF000FFFFFFFFFFFF
310
FFFFFFFFFFFFFFFFFFFFFFFFFFFFFFFFFFFFFFFFFFFFFFFFFFFFFFFFFFFFFFFF
310
FFFFFFFFFFFFFFFFFFFFFFFFFFFFFFFFFFFFFFFFFFFFFFFFFFFFFFFFFFFFFFFF
310
FFFFFFFFFFFFFFFFFFFFFFFFFFFFFFFFF000FFFFFFFFFFFFFFFFFFFFFFFFFFFF
310
FFFFFFFFFFFFFFFFFFFFFFFFFFFFFFFFFFFFFFFFFFFFFFFFFFFFFFFFFFFFFFFF
310
FFFFFFFFFFFFFFFFFFFFFFFFFFFFFFFFFFFFFFFFFFFFFFFFFFFFFFFFFFFFFFFF
310
FFFFFFFFFFFFFFFFF000FFFFFFFFFFFFFFFFFFFFFFFFFFFFFFFFFFFFFFFFFFFF
310
FFFFFFFFFFFFFFFFFFFFFFFFFFFFFFFFFFFFFFFFFFFFFFFFFFFFFFFFFFFFFFFF
310
FFFFFFFFFFFFFFFFFFFFFFFFFFFFFFFFFFFFFFFFFFFFFFFFFFFFFFFFFFFFFFFF
310
F000FFFFFFFFFFFFFFFFFFFFFFFFFFFFFFFFFFFFFFFFFFFFFFFFFFFFFFFFFFFF
310
FFFFFFFFFFFFFFFFFFFFFFFFFFFFFFFFFFFFFFFFFFFFFFFFFFFFFFFFFFFFFFFF
310
FFFFFFFFFFFFFFFFFFFFFFFFFFFFFFFFFFFFFFFFFFFFFFFFF000FFFFFFFFFFFF
310
FFFFFFFFFFFFFFFFFFFFFFFFFFFFFFFFFFFFFFFFFFFFFFFFFFFFFFFFFFFFFFFF
310
FFFFFFFFFFFFFFFFFFFFFFFFFFFFFFFFFFFFFFFFFFFFFFFFFFFFFFFFFFFFFFFF
310
FFFFFFFFFFFFFFFFFFFFFFFFFFFFFFFFF000FFFFFFFFFFFFFFFFFFFFFFFFFFFF
310
FFFFFFFFFFFFFFFFFFFFFFFFFFFFFFFFFFFFFFFFFFFFFFFFFFFFFFFFFFFFFFFF
310
FFFFFFFFFFFFFFFFFFFFFFFFFFFFFFFFFFFFFFFFFFFFFFFFFFFFFFFFFFFFFFFF
310
FFFFFFFFFFFFFFFFF000FFFFFFFFFFFFFFFFFFFFFFFFFFFFFFFFFFFFFFFFFFFF
310
FFFFFFFFFFFFFFFFFFFFFFFFFFFFFFFFFFFFFFFFFFFFFFFFFFFFFFFFFFFFFFFF
310
FFFFFFFFFFFFFFFFFFFFFFFFFFFFFFFFFFFFFFFFFFFFFFFFFFFFFFFFFFFFFFFF
310
F000FFFFFFFFFFFFFFFFFFFFFFFFFFFFFFFFFFFFFFFFFFFFFFFFFFFFFFFFFFFF
310
FFFFFFFFFFFFFFFFFFFFFFFFFFFFFFFFFFFFFFFFFFFFFFFFFFFFFFFFFFFFFFFF
310
FFFFFFFFFFFFFFFFFFFFFFFFFFFFFFFFFFFFFFFFFFFFFFFFF000FFFFFFFFFFFF
310
FFFFFFFFFFFFFFFFFFFFFFFFFFFFFFFFFFFFFFFFFFFFFFFFFFFFFFFFFFFFFFFF
310
FFFFFFFFFFFFFFFFFFFFFFFFFFFFFFFFFFFFFFFFFFFFFFFFFFFFFFFFFFFFFFFF
310
FFFFFFFFFFFFFFFFFFFFFFFFFFFFFFFFF000FFFFFFFFFFFFFFFFFFFFFFFFFFFF
310
FFFFFFFFFFFFFFFFFFFFFFFFFFFFFFFFFFFFFFFFFFFFFFFFFFFFFFFFFFFFFFFF
310
FFFFFFFFFFFFFFFFFFFFFFFFFFFFFFFFFFFFFFFFFFFFFFFFFFFFFFFFFFFFFFFF
310
FFFFFFFFFFFFFFFFF000FFFFFFFFFFFFFFFFFFFFFFFFFFFFFFFFFFFFFFFFFFFF
310
FFFFFFFFFFFFFFFFFFFFFFFFFFFFFFFFFFFFFFFFFFFFFFFFFFFFFFFFFFFFFFFF
310
FFFFFFFFFFFFFFFFFFFFFFFFFFFFFFFFFFFFFFFFFFFFFFFFFFFFFFFFFFFFFFFF
310
F000FFFFFFFFFFFFFFFFFFFFFFFFFFFFFFFFFFFFFFFFFFFFFFFFFFFFFFFFFFFF
310
FFFFFFFFFFFFFFFFFFFFFFFFFFFFFFFFFFFFFFFFFFFFFFFFFFFFFFFFFFFFFFFF
310
FFFFFFFFFFFFFFFFFFFFFFFFFFFFFFFFFFFFFFFFFFFFFFFFF000FFFFFFFFFFFF
310
FFFFFFFFFFFFFFFFFFFFFFFFFFFFFFFFFFFFFFFFFFFFFFFFFFFFFFFFFFFFFFFF
310
FFFFFFFFFFFFFFFFFFFFFFFFFFFFFFFFFFFFFFFFFFFFFFFFFFFFFFFFFFFFFFFF
310
FFFFFFFFFFFFFFFFFFFFFFFFFFFFFFFFF000FFFFFFFFFFFFFFFFFFFFFFFFFFFF
310
FFFFFFFFFFFFFFFFFFFFFFFFFFFFFFFFFFFFFFFFFFFFFFFFFFFFFFFFFFFFFFFF
310
FFFFFFFFFFFFFFFFFFFFFFFFFFFFFFFFFFFFFFFFFFFFFFFFFFFFFFFFFFFFFFFF
310
FFFFFFFFFFFFFFFFF000FFFFF80003FFFFFFFFFFFFFFFFFFFFFFFFFFFFFFFFFF
310
FFFFF00007FFFFFFFFFF00007FFFFFF800000000000000007FFFFFFFFFFFFFFF
310
FFFFFFFC001FFFFFFFFFFFFFFC001FFFFFFFFFFFFFFFFFFFFFFFFFFE0007FFFF
310
F000FFFF8000007FFFFFFFF8000FFFFFC0007FFFFF80007FFFFF0000007FFFFF
310
FFF8000007FFFFF800000000000000007FFFFFF0001FFFFFFFFFFFC00001FFFF
310
FFFFFFFFC00001FFFFFFFF000000000003FFFFE000007FFFF000FFFE0000000F
310
FFFFFFF0000FFFFF80007FFFFF80007FFFFC0000001FFFFFFFC0000001FFFFF8
310
00000000000000007FFFFFF0001FFFFFFFFFFE0000003FFFFFFFFFFE0000003F
310
FFFFFF000000000003FFFF0000000FFFF000FFF800000003FFFFFFF00007FFFF
310
80007FFFFF80007FFFF000000007FFFFFF000000003FFFF80000000000000000
310
7FFFFFF0001FFFFFFFFFF80000000FFFFFFFFFF80000000FFFFFFF0000000000
310
03FFFC00000003FFF000FFE000000000FFFFFFF00007FFFF80003FFFFF80007F
310
FFC000000001FFFFFC000000001FFFF800000000000000007FFFFFF0001FFFFF
310
FFFFE000000003FFFFFFFFE000000003FFFFFF000000000003FFF000000000FF
310
F000FF80000000007FFFFFF00007FFFF80003FFFFF80007FFF8000000000FFFF
310
F80000000007FFF800000000000000007FFFFFF0001FFFFFFFFFC000000001FF
310
FFFFFFC000000001FFFFFF000000000003FFC0000000007FF000FF0000000000
310
3FFFFFE00007FFFF00003FFFFF80007FFE00000000003FFFF00000000003FFF8
310
00000000000000007FFFFFF0001FFFFFFFFF8000000000FFFFFFFF8000000000
310
FFFFFF000000000003FF80000000003FF000FE00000000001FFFFFE00003FFFF
310
00003FFFFF80007FFC00000000001FFFE00000000001FFF8000001FFFE000000
310
7FFFFFF0001FFFFFFFFE00000000003FFFFFFE00000000003FFFFF0000000000
310
03FF00000000001FF000FC00000000000FFFFFE00003FFFF00001FFFFF80007F
310
F800000000001FFFC00000000000FFF8000001FFFE0000007FFFFFF0001FFFFF
310
FFFC00000000001FFFFFFC00000000001FFFFF000000000003FE00000000000F
310
F000F8000000000007FFFFE00003FFFF00001FFFFF80007FF800000000000FFF
310
800000000000FFF8000001FFFE0000007FFFFFF0001FFFFFFFF800000000000F
310
FFFFF800000000000FFFFF000000000003FC000000000007F000F80000000000
310
03FFFFC00003FFFE00001FFFFF80007FF0000000000007FF0000000000007FF8
310
000001FFFE0000007FFFFFF0001FFFFFFFF0000000000007FFFFF00000000000
310
07FFFF000000000003F8000000000003F000F0000000000003FFFFC00001FFFE
310
00001FFFFF80007FE0000000000007FE0000000000003FF8000001FFFE000000
310
7FFFFFF0001FFFFFFFF0000000000007FFFFF0000000000007FFFF0000000000
310
03F800001F800003F000E00001FFF00001FFFFC00001FFFE00000FFFFF80007F
310
E00001FFE00003FE00001FFF00003FF8000001FFFE0000007FFFFFF0001FFFFF
310
FFE000003E000003FFFFE000003E000003FFFF000000000003F00001FFF80001
310
F000E00007FFFC0001FFFFC00001FFFE00000FFFFF80007FC0000FFFFC0003FC
310
0000FFFFC0001FF8000001FFFE0000007FFFFFF0001FFFFFFFC00003FFE00001
310
FFFFC00003FFE00001FFFF0001FFFFFFFFF00007FFFE0001F000E0000FFFFF00
310
00FFFF800001FFFC00000FFFFF80007FC0001FFFFE0001FC0001FFFFE0001FF8
310
000001FFFE0000007FFFFFF0001FFFFFFF80000FFFF80000FFFF80000FFFF800
310
00FFFF0003FFFFFFFFE0000FFFFF8000F000C0003FFFFF8000FFFF800000FFFC
310
000007FFFF80007F80003FFFFF0001FC0003FFFFF0001FF8000001FFFE000000
310
7FFFFFF0001FFFFFFF80003FFFFE0000FFFF80003FFFFE0000FFFF0003FFFFFF
310
FFE0003FFFFF8000F000C0003FFFFF8000FFFF800000FFFC000007FFFF80007F
310
80007FFFFF8001F80007FFFFF8000FF8000001FFFE0000007FFFFFF0001FFFFF
310
FF00007FFFFF00007FFF00007FFFFF00007FFF0003FFFFFFFFE0003FFFFFC000
310
F000C0007FFFFFC000FFFF000000FFFC000007FFFF80007F8000FFFFFF8000F8
310
000FFFFFF8000FF8000001FFFE0000007FFFFFF0001FFFFFFF0000FFFFFF8000
310
7FFF0000FFFFFF80007FFF0003FFFFFFFFC0007FFFFFC00070008000FFFFFFC0
310
00FFFF000000FFF8000007FFFF80007F8000FFFFFF8000F8000FFFFFF8000FF8
310
000001FFFE0000007FFFFFF0001FFFFFFE0001FFFFFFC0003FFE0001FFFFFFC0
310
003FFF0003FFFFFFFFC0007FFFFFE00070008000FFFFFFC0007FFF0000007FF8
310
000003FFFF80007F0001FFFFFF8000F8000FFFFFF8000FF8000001FFFE000000
310
7FFFFFF0001FFFFFFE0001FFFFFFC0003FFE0001FFFFFFC0003FFF0003FFFFFF
310
FFC000FFFFFFE00070008000FFFFFFC0007FFF0000007FF8000003FFFF80007F
310
0001FFFFFF8000F8001FFFFFF8000FF8000001FFFE0000007FFFFFF0001FFFFF
310
FE0003FFFFFFE0003FFE0003FFFFFFE0003FFF0003FFFFFFFFC000FFFFFFE000
310
70008000FFFFFFC0007FFE0000007FF8000003FFFF80007F0001FFFFFF8000F0
310
001FFFFFF8000FF8000001FFFE0000007FFFFFF0001FFFFFFC0003FFFFFFE000
310
1FFC0003FFFFFFE0001FFF0003FFFFFFFFC000FFFFFFC00070008000FFFFFF80
310
007FFE0000007FF0000003FFFF80007F0001FFFFFF0000F0001FFFFFF8000FF8
310
000001FFFE0000007FFFFFF0001FFFFFFC0007FFFFFFF0001FFC0007FFFFFFF0
310
001FFF0003FFFFFFFFC000FFFFFFC00070008001FFFFFF0000FFFE0000003FF0
310
000001FFFF80007F0001FFFFFF0000F8001FFFFFF0000FF8000001FFFE000000
310
7FFFFFF0001FFFFFFC0007FFFFFFF0001FFC0007FFFFFFF0001FFF0003FFFFFF
310
FFC001FFFFFF80007000FFFFFFFFFE0000FFFE0008003FF0008001FFFF80007F
310
FFFFFFFFFC0000FFFFFFFFFFE0000FF8000001FFFE0000007FFFFFF0001FFFFF
310
F8000FFFFFFFF8000FF8000FFFFFFFF8000FFF0003FFFFFFFFFFFFFFFFFF0000
310
7000FFFFFFFFFC0000FFFC0008003FF0008001FFFF80007FFFFFFFFFF80001FF
310
FFFFFFFF80000FF8000001FFFE0000007FFFFFF0001FFFFFF8000FFFFFFFF800
310
0FF8000FFFFFFFF8000FFF0003FFFFFFFFFFFFFFFFFE0000F000FFFFFFFFE000
310
00FFFC000C003FE000C001FFFF80007FFFFFFFFFC00001FFFFFFFFFE00001FF8
310
000001FFFE0000007FFFFFF0001FFFFFF8000FFFFFFFF8000FF8000FFFFFFFF8
310
000FFF0003FFFFFFFFFFFFFFFFF00000F000FFFFFFFE000001FFFC000C001FE0
310
00C000FFFF80007FFFFFFFFE000001FFFFFFFFE000001FF80FFFFFFFFFFFFFC0
310
7FFFFFF0001FFFFFF8000FFFFFFFF8000FF8000FFFFFFFF8000FFF0003FFFFFF
310
FFFFFFFFFF800000F000FFFFFFC0000001FFFC001C001FE001C000FFFF80007F
310
FFFFFF80000003FFFFFFF80000001FF80FFFFFFFFFFFFFC07FFFFFF0001FFFFF
310
F8001FFFFFFFFC000FF8001FFFFFFFFC000FFF0003FFFFFFFFFFFFFFF0000001
310
F000FFFFF800000001FFF8001C001FE001C000FFFF80007FFFFFF800000003FF
310
FFFF800000003FF80FFFFFFFFFFFFFC07FFFFFF0001FFFFFF8001FFFFFFFFC00
310
0FF8001FFFFFFFFC000FFF0003FFFFFFFFFFFFFE00000001F000FFFFC0000000
310
03FFF8001E001FC001E000FFFF80007FFFFF8000000007FFFFFC000000003FF8
310
0FFFFFFFFFFFFFC07FFFFFF0001FFFFFF8001FFFFFFFFC000FF8001FFFFFFFFC
310
000FFF0003FFFFFFFFFFFFE000000003F000FFFE0000000007FFF8001E000FC0
310
01E0007FFF80007FFFFE0000000007FFFFE0000000007FF80FFFFFFFFFFFFFC0
310
7FFFFFF0001FFFFFF0001FFFFFFFFC0007F0001FFFFFFFFC0007FF0003FFFFFF
310
FFFFFF0000000003F000FFF80000000007FFF8001E000FC003E0007FFF80007F
310
FFF0000000000FFFFF8000000000FFF80FFFFFFFFFFFFFC07FFFFFF0001FFFFF
310
F0001FFFFFFFFC0007F0001FFFFFFFFC0007FF0003FFFFFFFFFFFC0000000007
310
F000FFE0000000000FFFF0003E000FC003E0007FFF80007FFFC0000000001FFF
310
FE0000000001FFF80FFFFFFFFFFFFFC07FFFFFF0001FFFFFF0001FFFFFFFFC00
310
07F0001FFFFFFFFC0007FF0003FFFFFFFFFFF0000000000FF000FFC000000000
310
1FFFF0003F000F8003F0003FFF80007FFF80000000003FFFF80000000003FFF8
310
0FFFFFFFFFFFFFC07FFFFFF0001FFFFFF0001FFFFFFFFC0007F0001FFFFFFFFC
310
0007FF0003FFFFFFFFFFE0000000001FF000FF00000000007FFFF0003F000780
310
03F0003FFF80007FFF00000000007FFFF00000000007FFF80FFFFFFFFFFFFFC0
310
7FFFFFF0001FFFFFF0001FFFFFFFFC0007F0001FFFFFFFFC0007FF0003FFFFFF
310
FFFF80000000007FF000FE0000000000FFFFE0003F00078007F0003FFF80007F
310
FE0000000001FFFFE0000000001FFFF80FFFFFFFFFFFFFC07FFFFFF0001FFFFF
310
F0001FFFFFFFFC0007F0001FFFFFFFFC0007FF0003FFFFFFFFFF0000000000FF
310
F000FC0000000003FFFFE0007F00078007F0003FFF80007FFC0000000007FFFF
310
C0000000007FFFF80FFFFFFFFFFFFFC07FFFFFF0001FFFFFF8001FFFFFFFFC00
310
0FF8001FFFFFFFFC000FFF0003FFFFFFFFFE0000000003FFF000FC000000000F
310
FFFFE0007F80070007F8001FFF80007FF8000000001FFFFF8000000001FFFFF8
310
0FFFFFFFFFFFFFC07FFFFFF0001FFFFFF8001FFFFFFFFC000FF8001FFFFFFFFC
310
000FFF0003FFFFFFFFFC000000000FFFF000F8000000007FFFFFE0007F800700
310
07F8001FFF80007FF000000000FFFFFF800000000FFFFFF80FFFFFFFFFFFFFC0
310
7FFFFFF0001FFFFFF8000FFFFFFFF8000FF8000FFFFFFFF8000FFF0003FFFFFF
310
FFFC000000007FFFF000F800000007FFFFFFC0007F8003000FF8001FFF80007F
310
F000000007FFFFFF000000007FFFFFF80FFFFFFFFFFFFFC07FFFFFF0001FFFFF
310
F8000FFFFFFFF8000FF8000FFFFFFFF8000FFF0003FFFFFFFFF80000000FFFFF
310
F000F0000000FFFFFFFFC000FF8003000FF8001FFF80007FE0000000FFFFFFFF
310
0000000FFFFFFFF8000001FFFE0000007FFFFFF0001FFFFFF8000FFFFFFFF800
310
0FF8000FFFFFFFF8000FFF0003FFFFFFFFF8000000FFFFFFF000F000000FFFFF
310
FFFFC000FFC002000FF8000FFF80007FE000001FFFFFFFFE000001FFFFFFFFF8
310
000001FFFE0000007FFFFFF0001FFFFFF8000FFFFFFFF8000FF8000FFFFFFFF8
310
000FFF0003FFFFFFFFF000001FFFFFFFF000E00000FFFFFFFFFFC000FFC00200
310
0FFC000FFF80007FE00001FFFFFFFFFE00001FFFFFFFFFF8000001FFFE000000
310
7FFFFFF0001FFFFFFC000FFFFFFFF8001FFC000FFFFFFFF8001FFF0003FFFFFF
310
FFF00001FFFFFFFFF000E00007FFFFFFFFFF8000FFC000001FFC000FFF80007F
310
C0000FFFFFFFFFFE0000FFFFFFFFFFF8000001FFFE0000007FFFFFF0001FFFFF
310
FC0007FFFFFFF0001FFC0007FFFFFFF0001FFF0003FFFFFFFFF00007FFFFFFFF
310
F000E0001FFFFFFFFFFF8000FFC000001FFC000FFF80007FC0003FFFFFFFFFFE
310
0001FFFFFFFFFFF8000001FFFE0000007FFFFFF0001FFFFFFC0007FFFFFFF000
310
1FFC0007FFFFFFF0001FFF0003FFFFFFFFF0001FFFFFFFFFF000E0003FFFFF00
310
03FF8001FFE000001FFC0007FF80007FC0007FFFFF0007FC0003FFFFF0003FF8
310
000001FFFE0000007FFFFFF0001FFFFFFC0003FFFFFFE0001FFC0003FFFFFFE0
310
001FFF0003FFFFFFFFF0003FFFFFFFFFF000E0003FFFFF0001FF8001FFE00000
310
1FFE0007FF80007FC0007FFFFE0003FC0007FFFFE0003FF8000001FFFE000000
310
7FFFFFF0001FFFFFFE0003FFFFFFE0003FFE0003FFFFFFE0003FFF0003FFFFFF
310
FFF0003FFFFF8001F000E0003FFFFF0001FF0001FFE000001FFE0007FF80007F
310
C0007FFFFE0003FC0007FFFFE0003FF8000001FFFE0000007FFFFFF0001FFFFF
310
FE0001FFFFFFC0003FFE0001FFFFFFC0003FFF0003FFFFFFFFF0003FFFFF0001
310
F000E0003FFFFF0003FF0001FFE000003FFE0007FF80007FC0007FFFFE0003FC
310
0007FFFFE0003FF8000001FFFE0000007FFFFFF0001FFFFFFF0001FFFFFFC000
310
7FFF0001FFFFFFC0007FFF0003FFFFFFFFF0003FFFFF0001F000E0003FFFFE00
310
03FF0003FFF000003FFE0003FF80007FC0007FFFFC0003FE0007FFFFE0003FF8
310
000001FFFE0000007FFFFFF0001FFFFFFF0000FFFFFF80007FFF0000FFFFFF80
310
007FFF0003FFFFFFFFF0003FFFFF0001F000E0003FFFFE0003FF0003FFF00000
310
3FFF0003FF80007FC0007FFFFC0007FE0007FFFFC0003FF8000001FFFE000000
310
7FFFFFF0001FFFFFFF80007FFFFF0000FFFF80007FFFFF0000FFFF0003FFFFFF
310
FFF0003FFFFF0003F000E0003FFFFC0003FE0003FFF000003FFF0003FF80007F
310
E0003FFFF80007FE0003FFFFC0007FF8000001FFFE0000007FFFFFF0001FFFFF
310
FF80003FFFFE0000FFFF80003FFFFE0000FFFF0003FFFFFFFFF0001FFFFE0003
310
F000F0001FFFF80003FE0003FFF000007FFF0001FF80007FE0003FFFF00007FE
310
0001FFFF80007FF8000001FFFE0000007FFFFFF0001FFFFFFFC0000FFFF80001
310
FFFFC0000FFFF80001FFFF0003FFFFFFFFF0001FFFFC0003F000F0000FFFF000
310
07FE0007FFF800007FFF0001FF80007FE0001FFFE00007FF0000FFFE00007FF8
310
000001FFFE0000007FFFFFF0001FFFFFFFC00003FFE00001FFFFC00003FFE000
310
01FFFF0003FFFFFFFFF8000FFFF80003F000F00003FFC00007FC0007FFF80000
310
7FFF8001FF80007FF00007FF80000FFF00007FF80000FFF8000001FFFE000000
310
7F80000000000001FFE000003E000003FFFFE000003E000003FFFF0003FFFFFF
310
FFF80003FFE00007F000F800000000000FFC0007FFF800007FFF8001FF80007F
310
F000000000000FFF000000000000FFF8000001FFFE0000007F80000000000001
310
FFF0000000000007FFFFF0000000000007FFFF0003FFFFFFFFFC00007E000007
310
F000F800000000000FFC0007FFF80000FFFF8000FF80007FF800000000001FFF
310
800000000001FFF8000001FFFE0000007F80000000000001FFF800000000000F
310
FFFFF800000000000FFFFF0003FFFFFFFFFC00000000000FF000FC0000000000
310
1FFC0007FFFC0000FFFF8000FF80007FF800000000003FFFC00000000001FFF8
310
000001FFFE0000007F80000000000001FFF800000000000FFFFFF80000000000
310
0FFFFF0003FFFFFFFFFE00000000001FF000FE00000000003FF8000FFFFC0000
310
FFFF8000FF80007FFC00000000003FFFC00000000003FFF8000001FFFE000000
310
7F80000000000001FFFC00000000001FFFFFFC00000000001FFFFF0003FFFFFF
310
FFFF00000000001FF000FF00000000003FF8000FFFFC0000FFFFC000FF80007F
310
FE00000000007FFFE00000000007FFF8000001FFFE0000007F80000000000001
310
FFFE00000000003FFFFFFE00000000003FFFFF0003FFFFFFFFFF80000000003F
310
F000FF80000000007FF8000FFFFC0001FFFFC0007F80007FFF0000000000FFFF
310
F0000000000FFFF800000000000000007F80000000000001FFFF8000000000FF
310
FFFFFF8000000000FFFFFF0003FFFFFFFFFFC0000000007FF000FFC000000000
310
FFF8000FFFFE0001FFFFC0007F80007FFF8000000001FFFFF8000000001FFFF8
310
00000000000000007F80000000000001FFFFC000000001FFFFFFFFC000000001
310
FFFFFF0003FFFFFFFFFFE000000000FFF000FFE000000003FFF0001FFFFE0001
310
FFFFC0007F80007FFFC000000007FFFFFE000000003FFFF80000000000000000
310
7F80000000000001FFFFE000000003FFFFFFFFE000000003FFFFFF0003FFFFFF
310
FFFFF000000003FFF000FFF80000000FFFF0001FFFFE0001FFFFE0007F80007F
310
FFF00000000FFFFFFF00000000FFFFF800000000000000007F80000000000001
310
FFFFF80000000FFFFFFFFFF80000000FFFFFFF0003FFFFFFFFFFFC0000000FFF
310
F000FFFE0000003FFFF0001FFFFE0003FFFFE0003F80007FFFFC0000003FFFFF
310
FFC0000003FFFFF800000000000000007F80000000000001FFFFFE0000003FFF
310
FFFFFFFE0000003FFFFFFF0003FFFFFFFFFFFF0000003FFFF000FFFF800000FF
310
FFF0001FFFFF0003FFFFE0003F80007FFFFF000001FFFFFFFFF800001FFFFFF8
310
00000000000000007F80000000000001FFFFFFC00001FFFFFFFFFFFFC00001FF
310
FFFFFF0003FFFFFFFFFFFFC00000FFFFF000FFFFF8000FFFFFFFFFFFFFFFFFFF
310
FFFFFFFFFFFFFFFFFFFFF0001FFFFFFFFFFF0000FFFFFFF80000000000000000
310
7FFFFFFFFFFFFFFFFFFFFFFC001FFFFFFFFFFFFFFC001FFFFFFFFFFFFFFFFFFF
310
FFFFFFFC001FFFFFF000FFFFFFFFFFFFFFFFFFFFFFFFFFFFFFFFFFFFFFFFFFFF
310
FFFFFFFFFFFFFFFFFFFFFFFFFFFFFFFFFFFFFFFFFFFFFFFFFFFFFFFFFFFFFFFF
310
FFFFFFFFFFFFFFFFFFFFFFFFFFFFFFFFFFFFFFFFFFFFFFFFFFFFFFFFFFFFFFFF
310
F000FFFFFFFFFFFFFFFFFFFFFFFFFFFFFFFFFFFFFFFFFFFFFFFFFFFFFFFFFFFF
310
FFFFFFFFFFFFFFFFFFFFFFFFFFFFFFFFFFFFFFFFFFFFFFFFFFFFFFFFFFFFFFFF
310
FFFFFFFFFFFFFFFFFFFFFFFFFFFFFFFFFFFFFFFFFFFFFFFFF000FFFFFFFFFFFF
310
FFFFFFFFFFFFFFFFFFFFFFFFFFFFFFFFFFFFFFFFFFFFFFFFFFFFFFFFFFFFFFFF
310
FFFFFFFFFFFFFFFFFFFFFFFFFFFFFFFFFFFFFFFFFFFFFFFFFFFFFFFFFFFFFFFF
310
FFFFFFFFFFFFFFFFFFFFFFFFFFFFFFFFF000FFFFFFFFFFFFFFFFFFFFFFFFFFFF
310
FFFFFFFFFFFFFFFFFFFFFFFFFFFFFFFFFFFFFFFFFFFFFFFFFFFFFFFFFFFFFFFF
310
FFFFFFFFFFFFFFFFFFFFFFFFFFFFFFFFFFFFFFFFFFFFFFFFFFFFFFFFFFFFFFFF
310
FFFFFFFFFFFFFFFFF000FFFFFFFFFFFFFFFFFFFFFFFFFFFFFFFFFFFFFFFFFFFF
310
FFFFFFFFFFFFFFFFFFFFFFFFFFFFFFFFFFFFFFFFFFFFFFFFFFFFFFFFFFFFFFFF
310
FFFFFFFFFFFFFFFFFFFFFFFFFFFFFFFFFFFFFFFFFFFFFFFFFFFFFFFFFFFFFFFF
310
F000FFFFFFFFFFFFFFFFFFFFFFFFFFFFFFFFFFFFFFFFFFFFFFFFFFFFFFFFFFFF
310
FFFFFFFFFFFFFFFFFFFFFFFFFFFFFFFFFFFFFFFFFFFFFFFFFFFFFFFFFFFFFFFF
310
FFFFFFFFFFFFFFFFFFFFFFFFFFFFFFFFFFFFFFFFFFFFFFFFF000FFFFFFFFFFFF
310
FFFFFFFFFFFFFFFFFFFFFFFFFFFFFFFFFFFFFFFFFFFFFFFFFFFFFFFFFFFFFFFF
310
FFFFFFFFFFFFFFFFFFFFFFFFFFFFFFFFFFFFFFFFFFFFFFFFFFFFFFFFFFFFFFFF
310
FFFFFFFFFFFFFFFFFFFFFFFFFFFFFFFFF000FFFFFFFFFFFFFFFFFFFFFFFFFFFF
310
FFFFFFFFFFFFFFFFFFFFFFFFFFFFFFFFFFFFFFFFFFFFFFFFFFFFFFFFFFFFFFFF
310
FFFFFFFFFFFFFFFFFFFFFFFFFFFFFFFFFFFFFFFFFFFFFFFFFFFFFFFFFFFFFFFF
310
FFFFFFFFFFFFFFFFF000FFFFFFFFFFFFFFFFFFFFFFFFFFFFFFFFFFFFFFFFFFFF
310
FFFFFFFFFFFFFFFFFFFFFFFFFFFFFFFFFFFFFFFFFFFFFFFFFFFFFFFFFFFFFFFF
310
FFFFFFFFFFFFFFFFFFFFFFFFFFFFFFFFFFFFFFFFFFFFFFFFFFFFFFFFFFFFFFFF
310
F000FFFFFFFFFFFFFFFFFFFFFFFFFFFFFFFFFFFFFFFFFFFFFFFFFFFFFFFFFFFF
310
FFFFFFFFFFFFFFFFFFFFFFFFFFFFFFFFFFFFFFFFFFFFFFFFFFFFFFFFFFFFFFFF
310
FFFFFFFFFFFFFFFFFFFFFFFFFFFFFFFFFFFFFFFFFFFFFFFFF000FFFFFFFFFFFF
310
FFFFFFFFFFFFFFFFFFFFFFFFFFFFFFFFFFFFFFFFFFFFFFFFFFFFFFFFFFFFFFFF
310
FFFFFFFFFFFFFFFFFFFFFFFFFFFFFFFFFFFFFFFFFFFFFFFFFFFFFFFFFFFFFFFF
310
FFFFFFFFFFFFFFFFFFFFFFFFFFFFFFFFF000FFFFFFFFFFFFFFFFFFFFFFFFFFFF
310
FFFFFFFFFFFFFFFFFFFFFFFFFFFFFFFFFFFFFFFFFFFFFFFFFFFFFFFFFFFFFFFF
310
FFFFFFFFFFFFFFFFFFFFFFFFFFFFFFFFFFFFFFFFFFFFFFFFFFFFFFFFFFFFFFFF
310
FFFFFFFFFFFFFFFFF000FFFFFFFFFFFFFFFFFFFFFFFFFFFFFFFFFFFFFFFFFFFF
310
FFFFFFFFFFFFFFFFFFFFFFFFFFFFFFFFFFFFFFFFFFFFFFFFFFFFFFFFFFFFFFFF
310
FFFFFFFFFFFFFFFFFFFFFFFFFFFFFFFFFFFFFFFFFFFFFFFFFFFFFFFFFFFFFFFF
310
F000FFFFFFFFFFFFFFFFFFFFFFFFFFFFFFFFFFFFFFFFFFFFFFFFFFFFFFFFFFFF
310
FFFFFFFFFFFFFFFFFFFFFFFFFFFFFFFFFFFFFFFFFFFFFFFFFFFFFFFFFFFFFFFF
310
FFFFFFFFFFFFFFFFFFFFFFFFFFFFFFFFFFFFFFFFFFFFFFFFF000FFFFFFFFFFFF
310
FFFFFFFFFFFFFFFFFFFFFFFFFFFFFFFFFFFFFFFFFFFFFFFFFFFFFFFFFFFFFFFF
310
FFFFFFFFFFFFFFFFFFFFFFFFFFFFFFFFFFFFFFFFFFFFFFFFFFFFFFFFFFFFFFFF
310
FFFFFFFFFFFFFFFFFFFFFFFFFFFFFFFFF000FFFFFFFFFFFFFFFFFFFFFFFFFFFF
310
FFFFFFFFFFFFFFFFFFFFFFFFFFFFFFFFFFFFFFFFFFFFFFFFFFFFFFFFFFFFFFFF
310
FFFFFFFFFFFFFFFFFFFFFFFFFFFFFFFFFFFFFFFFFFFFFFFFFFFFFFFFFFFFFFFF
310
FFFFFFFFFFFFFFFFF000FFFFFFFFFFFFFFFFFFFFFFFFFFFFFFFFFFFFFFFFFFFF
310
FFFFFFFFFFFFFFFFFFFFFFFFFFFFFFFFFFFFFFFFFFFFFFFFFFFFFFFFFFFFFFFF
310
FFFFFFFFFFFFFFFFFFFFFFFFFFFFFFFFFFFFFFFFFFFFFFFFFFFFFFFFFFFFFFFF
310
F000FFFFFFFFFFFFFFFFFFFFFFFFFFFFFFFFFFFFFFFFFFFFFFFFFFFFFFFFFFFF
310
FFFFFFFFFFFFFFFFFFFFFFFFFFFFFFFFFFFFFFFFFFFFFFFFFFFFFFFFFFFFFFFF
310
FFFFFFFFFFFFFFFFFFFFFFFFFFFFFFFFFFFFFFFFFFFFFFFFF000FFFFFFFFFFFF
310
FFFFFFFFFFFFFFFFFFFFFFFFFFFFFFFFFFFFFFFFFFFFFFFFFFFFFFFFFFFFFFFF
310
FFFFFFFFFFFFFFFFFFFFFFFFFFFFFFFFFFFFFFFFFFFFFFFFFFFFFFFFFFFFFFFF
310
FFFFFFFFFFFFFFFFFFFFFFFFFFFFFFFFF000FFFFFFFFFFFFFFFFFFFFFFFFFFFF
310
FFFFFFFFFFFFFFFFFFFFFFFFFFFFFFFFFFFFFFFFFFFFFFFFFFFFFFFFFFFFFFFF
310
FFFFFFFFFFFFFFFFFFFFFFFFFFFFFFFFFFFFFFFFFFFFFFFFFFFFFFFFFFFFFFFF
310
FFFFFFFFFFFFFFFFF000FFFFFFFFFFFFFFFFFFFFFFFFFFFFFFFFFFFFFFFFFFFF
310
FFFFFFFFFFFFFFFFFFFFFFFFFFFFFFFFFFFFFFFFFFFFFFFFFFFFFFFFFFFFFFFF
310
FFFFFFFFFFFFFFFFFFFFFFFFFFFFFFFFFFFFFFFFFFFFFFFFFFFFFFFFFFFFFFFF
310
F000FFFFFFFFFFFFFFFFFFFFFFFFFFFFFFFFFFFFFFFFFFFFFFFFFFFFFFFFFFFF
310
FFFFFFFFFFFFFFFFFFFFFFFFFFFFFFFFFFFFFFFFFFFFFFFFFFFFFFFFFFFFFFFF
310
FFFFFFFFFFFFFFFFFFFFFFFFFFFFFFFFFFFFFFFFFFFFFFFFF000FFFFFFFFFFFF
310
FFFFFFFFFFFFFFFFFFFFFFFFFFFFFFFFFFFFFFFFFFFFFFFFFFFFFFFFFFFFFFFF
310
FFFFFFFFFFFFFFFFFFFFFFFFFFFFFFFFFFFFFFFFFFFFFFFFFFFFFFFFFFFFFFFF
310
FFFFFFFFFFFFFFFFFFFFFFFFFFFFFFFFF0000000000000000000000000000000
310
0000000000000000000000000000000000000000000000000000000000000000
310
00000000000000000000000000000000ED789AF3000034FF0907000000000000
310
0000000000000000000000000000000000000000000000000000000000000000
310
0000000000000000000000000000000000000000000000000000000000000000
310
0000000000000000000000000000000000000000000000000000000000000000
310
0000000000000000000000000000000000000000000000000000000000000000
310
0000000000000000000000000000000000000000000000000000000000000000
310
0000000000000000000000000000000000000000000000000000000000000000
310
0000000000000000000000000000000000000000000000000000000000000000
310
0000000000000000000000000000000000000000000000000000000000000000
310
0000000000000000000000000000000000000000000000000000000000000000
310
0000000000000000000000000000000000000000000000000000000000000000
310
0000000000000000000000000000000000000000000000000000000000000000
310
0000000000000000000000000000000000000000000000000000000000000000
310
0000000000000000000000000000000000000000000000000000000000000000
  1
OLE
  0
ENDSEC
  0
SECTION
  2
OBJECTS
  0
DICTIONARY
  5
C
330
0
100
AcDbDictionary
281
     1
  3
ACAD_GROUP
350
D
  3
ACAD_LAYOUT
350
1A
  3
ACAD_MLEADERSTYLE
350
156
  3
ACAD_MLINESTYLE
350
17
  3
ACAD_PLOTSETTINGS
350
19
  3
ACAD_PLOTSTYLENAME
350
E
  3
ACAD_TABLESTYLE
350
155
  3
ACAD_VISUALSTYLE
350
2A
  3
AcDbVariableDictionary
350
157
  0
DICTIONARY
  5
D
102
{ACAD_REACTORS
330
C
102
}
330
C
100
AcDbDictionary
281
     1
  0
DICTIONARY
  5
1A
102
{ACAD_REACTORS
330
C
102
}
330
C
100
AcDbDictionary
281
     1
  3
Layout1
350
1E
  3
Layout2
350
26
  3
Model
350
22
  0
DICTIONARY
  5
156
102
{ACAD_REACTORS
330
C
102
}
330
C
100
AcDbDictionary
281
     1
  0
DICTIONARY
  5
17
102
{ACAD_REACTORS
330
C
102
}
330
C
100
AcDbDictionary
281
     1
  3
Standard
350
18
  0
DICTIONARY
  5
19
102
{ACAD_REACTORS
330
C
102
}
330
C
100
AcDbDictionary
281
     1
  0
ACDBDICTIONARYWDFLT
  5
E
102
{ACAD_REACTORS
330
C
102
}
330
C
100
AcDbDictionary
281
     1
  3
Normal
350
F
100
AcDbDictionaryWithDefault
340
F
  0
DICTIONARY
  5
155
102
{ACAD_REACTORS
330
C
102
}
330
C
100
AcDbDictionary
281
     1
  0
DICTIONARY
  5
2A
102
{ACAD_REACTORS
330
C
102
}
330
C
100
AcDbDictionary
281
     1
  3
2dWireframe
350
2F
  3
3D Hidden
350
31
  3
3dWireframe
350
30
  3
Basic
350
32
  3
Brighten
350
36
  3
ColorChange
350
3A
  3
Conceptual
350
34
  3
Dim
350
35
  3
Facepattern
350
39
  3
Flat
350
2B
  3
FlatWithEdges
350
2C
  3
Gouraud
350
2D
  3
GouraudWithEdges
350
2E
  3
Linepattern
350
38
  3
Realistic
350
33
  3
Thicken
350
37
  0
DICTIONARY
  5
157
102
{ACAD_REACTORS
330
C
102
}
330
C
100
AcDbDictionary
281
     1
  3
PSOLHEIGHT
350
159
  3
PSOLWIDTH
350
158
  0
LAYOUT
  5
1E
102
{ACAD_REACTORS
330
1A
102
}
330
1A
100
AcDbPlotSettings
  1

  2
none_device
  4

  6

 40
0.0
 41
0.0
 42
0.0
 43
0.0
 44
0.0
 45
0.0
 46
0.0
 47
0.0
 48
0.0
 49
0.0
140
0.0
141
0.0
142
1.0
143
1.0
 70
   688
 72
     0
 73
     0
 74
     5
  7

 75
    16
147
1.0
148
0.0
149
0.0
100
AcDbLayout
  1
Layout1
 70
     1
 71
     1
 10
0.0
 20
0.0
 11
420.0
 21
297.0
 12
0.0
 22
0.0
 32
0.0
 14
1.0000000000E+20
 24
1.0000000000E+20
 34
1.0000000000E+20
 15
-1.0000000000E+20
 25
-1.0000000000E+20
 35
-1.0000000000E+20
146
0.0
 13
0.0
 23
0.0
 33
0.0
 16
1.0
 26
0.0
 36
0.0
 17
0.0
 27
1.0
 37
0.0
 76
     0
330
1B
  0
LAYOUT
  5
26
102
{ACAD_REACTORS
330
1A
102
}
330
1A
100
AcDbPlotSettings
  1

  2
none_device
  4

  6

 40
0.0
 41
0.0
 42
0.0
 43
0.0
 44
0.0
 45
0.0
 46
0.0
 47
0.0
 48
0.0
 49
0.0
140
0.0
141
0.0
142
1.0
143
1.0
 70
   688
 72
     0
 73
     0
 74
     5
  7

 75
    16
147
1.0
148
0.0
149
0.0
100
AcDbLayout
  1
Layout2
 70
     1
 71
     2
 10
0.0
 20
0.0
 11
0.0
 21
0.0
 12
0.0
 22
0.0
 32
0.0
 14
0.0
 24
0.0
 34
0.0
 15
0.0
 25
0.0
 35
0.0
146
0.0
 13
0.0
 23
0.0
 33
0.0
 16
1.0
 26
0.0
 36
0.0
 17
0.0
 27
1.0
 37
0.0
 76
     0
330
23
  0
LAYOUT
  5
22
102
{ACAD_REACTORS
330
1A
102
}
330
1A
100
AcDbPlotSettings
  1

  2
none_device
  4

  6

 40
0.0
 41
0.0
 42
0.0
 43
0.0
 44
0.0
 45
0.0
 46
0.0
 47
0.0
 48
0.0
 49
0.0
140
0.0
141
0.0
142
1.0
143
1.0
 70
  1712
 72
     0
 73
     0
 74
     0
  7

 75
     0
147
1.0
148
0.0
149
0.0
100
AcDbLayout
  1
Model
 70
     1
 71
     0
 10
0.0
 20
0.0
 11
297.0
 21
210.0
 12
0.0
 22
0.0
 32
0.0
 14
0.0
 24
0.0
 34
0.0
 15
297.0
 25
210.0
 35
0.0
146
0.0
 13
0.0
 23
0.0
 33
0.0
 16
1.0
 26
0.0
 36
0.0
 17
0.0
 27
1.0
 37
0.0
 76
     0
330
1F
331
29
  0
MLINESTYLE
  5
18
102
{ACAD_REACTORS
330
17
102
}
330
17
100
AcDbMlineStyle
  2
Standard
 70
     0
  3

 62
   256
 51
90.0
 52
90.0
 71
     2
 49
0.5
 62
   256
  6
BYLAYER
 49
-0.5
 62
   256
  6
BYLAYER
  0
ACDBPLACEHOLDER
  5
F
102
{ACAD_REACTORS
330
E
102
}
330
E
  0
VISUALSTYLE
  5
2F
102
{ACAD_REACTORS
330
2A
102
}
330
2A
100
AcDbVisualStyle
  2
2dWireframe
 70
     4
 71
     0
 72
     2
 73
     0
 90
        0
 40
-0.6
 41
-30.0
 62
     5
 63
     7
 74
     1
 91
        4
 64
     7
 65
   257
 75
     1
175
     1
 42
1.0
 92
        0
 66
   257
 43
1.0
 76
     1
 77
     6
 78
     2
 67
     7
 79
     5
170
     0
171
     0
290
     0
174
     0
 93
        1
 44
0.0
173
     0
291
     0
 45
0.0
1001
ACAD
1000
AcDbSavedByObjectVersion
1070
     0
  0
VISUALSTYLE
  5
31
102
{ACAD_REACTORS
330
2A
102
}
330
2A
100
AcDbVisualStyle
  2
3D Hidden
 70
     6
 71
     1
 72
     2
 73
     2
 90
        0
 40
-0.6
 41
-30.0
 62
     5
 63
     7
 74
     2
 91
        2
 64
     7
 65
   257
 75
     2
175
     1
 42
40.0
 92
        0
 66
   257
 43
1.0
 76
     1
 77
     6
 78
     2
 67
     7
 79
     3
170
     0
171
     0
290
     0
174
     0
 93
        1
 44
0.0
173
     0
291
     0
 45
0.0
1001
ACAD
1000
AcDbSavedByObjectVersion
1070
     0
  0
VISUALSTYLE
  5
30
102
{ACAD_REACTORS
330
2A
102
}
330
2A
100
AcDbVisualStyle
  2
3dWireframe
 70
     5
 71
     0
 72
     2
 73
     0
 90
        0
 40
-0.6
 41
-30.0
 62
     5
 63
     7
 74
     1
 91
        4
 64
     7
 65
   257
 75
     1
175
     1
 42
1.0
 92
        0
 66
   257
 43
1.0
 76
     1
 77
     6
 78
     2
 67
     7
 79
     5
170
     0
171
     0
290
     0
174
     0
 93
        1
 44
0.0
173
     0
291
     0
 45
0.0
1001
ACAD
1000
AcDbSavedByObjectVersion
1070
     0
  0
VISUALSTYLE
  5
32
102
{ACAD_REACTORS
330
2A
102
}
330
2A
100
AcDbVisualStyle
  2
Basic
 70
     7
 71
     1
 72
     0
 73
     1
 90
        0
 40
-0.6
 41
-30.0
 62
     5
 63
     7
 74
     0
 91
        4
 64
     7
 65
   257
 75
     1
175
     1
 42
1.0
 92
        8
 66
     7
 43
1.0
 76
     1
 77
     6
 78
     2
 67
     7
 79
     5
170
     0
171
     0
290
     0
174
     0
 93
        1
 44
0.0
173
     0
291
     1
 45
0.0
1001
ACAD
1000
AcDbSavedByObjectVersion
1070
     0
  0
VISUALSTYLE
  5
36
102
{ACAD_REACTORS
330
2A
102
}
330
2A
100
AcDbVisualStyle
  2
Brighten
 70
    12
 71
     2
 72
     2
 73
     0
 90
        0
 40
-0.6
 41
-30.0
 62
     5
 63
     7
 74
     1
 91
        4
 64
     7
 65
   257
 75
     1
175
     1
 42
1.0
 92
        8
 66
     7
 43
1.0
 76
     1
 77
     6
 78
     2
 67
     7
 79
     5
170
     0
171
     0
290
     0
174
     0
 93
        1
 44
50.0
173
     0
291
     1
 45
0.0
1001
ACAD
1000
AcDbSavedByObjectVersion
1070
     0
  0
VISUALSTYLE
  5
3A
102
{ACAD_REACTORS
330
2A
102
}
330
2A
100
AcDbVisualStyle
  2
ColorChange
 70
    16
 71
     2
 72
     2
 73
     3
 90
        0
 40
-0.6
 41
-30.0
 62
     5
 63
     8
 74
     1
 91
        4
 64
     7
 65
   257
 75
     1
175
     1
 42
1.0
 92
        8
 66
     8
 43
1.0
 76
     1
 77
     6
 78
     2
 67
     7
 79
     5
170
     0
171
     0
290
     0
174
     0
 93
        1
 44
0.0
173
     0
291
     1
 45
0.0
1001
ACAD
1000
AcDbSavedByObjectVersion
1070
     0
  0
VISUALSTYLE
  5
34
102
{ACAD_REACTORS
330
2A
102
}
330
2A
100
AcDbVisualStyle
  2
Conceptual
 70
     9
 71
     3
 72
     2
 73
     0
 90
        0
 40
-0.6
 41
-30.0
 62
     5
 63
     7
 74
     2
 91
        2
 64
     7
 65
   257
 75
     1
175
     1
 42
40.0
 92
        8
 66
     7
 43
1.0
 76
     1
 77
     6
 78
     2
 67
     7
 79
     3
170
     0
171
     0
290
     0
174
     0
 93
        1
 44
0.0
173
     0
291
     0
 45
0.0
1001
ACAD
1000
AcDbSavedByObjectVersion
1070
     0
  0
VISUALSTYLE
  5
35
102
{ACAD_REACTORS
330
2A
102
}
330
2A
100
AcDbVisualStyle
  2
Dim
 70
    11
 71
     2
 72
     2
 73
     0
 90
        0
 40
-0.6
 41
-30.0
 62
     5
 63
     7
 74
     1
 91
        4
 64
     7
 65
   257
 75
     1
175
     1
 42
1.0
 92
        8
 66
     7
 43
1.0
 76
     1
 77
     6
 78
     2
 67
     7
 79
     5
170
     0
171
     0
290
     0
174
     0
 93
        1
 44
-50.0
173
     0
291
     1
 45
0.0
1001
ACAD
1000
AcDbSavedByObjectVersion
1070
     0
  0
VISUALSTYLE
  5
39
102
{ACAD_REACTORS
330
2A
102
}
330
2A
100
AcDbVisualStyle
  2
Facepattern
 70
    15
 71
     2
 72
     2
 73
     0
 90
        0
 40
-0.6
 41
-30.0
 62
     5
 63
     7
 74
     1
 91
        4
 64
     7
 65
   257
 75
     1
175
     1
 42
1.0
 92
        8
 66
     7
 43
1.0
 76
     1
 77
     6
 78
     2
 67
     7
 79
     5
170
     0
171
     0
290
     0
174
     0
 93
        1
 44
0.0
173
     0
291
     1
 45
0.0
1001
ACAD
1000
AcDbSavedByObjectVersion
1070
     0
  0
VISUALSTYLE
  5
2B
102
{ACAD_REACTORS
330
2A
102
}
330
2A
100
AcDbVisualStyle
  2
Flat
 70
     0
 71
     2
 72
     1
 73
     1
 90
        2
 40
-0.6
 41
30.0
 62
     5
 63
     7
 74
     0
 91
        4
 64
     7
 65
   257
 75
     1
175
     1
 42
1.0
 92
        8
 66
     7
 43
1.0
 76
     1
 77
     6
 78
     2
 67
     7
 79
     5
170
     0
171
     0
290
     0
174
     0
 93
       13
 44
0.0
173
     0
291
     1
 45
0.0
1001
ACAD
1000
AcDbSavedByObjectVersion
1070
     0
  0
VISUALSTYLE
  5
2C
102
{ACAD_REACTORS
330
2A
102
}
330
2A
100
AcDbVisualStyle
  2
FlatWithEdges
 70
     1
 71
     2
 72
     1
 73
     1
 90
        2
 40
-0.6
 41
30.0
 62
     5
 63
     7
 74
     1
 91
        4
 64
     7
 65
   257
 75
     1
175
     1
 42
1.0
 92
        0
 66
   257
 43
1.0
 76
     1
 77
     6
 78
     2
 67
     7
 79
     5
170
     0
171
     0
290
     0
174
     0
 93
       13
 44
0.0
173
     0
291
     1
 45
0.0
1001
ACAD
1000
AcDbSavedByObjectVersion
1070
     0
  0
VISUALSTYLE
  5
2D
102
{ACAD_REACTORS
330
2A
102
}
330
2A
100
AcDbVisualStyle
  2
Gouraud
 70
     2
 71
     2
 72
     2
 73
     1
 90
        2
 40
-0.6
 41
30.0
 62
     5
 63
     7
 74
     0
 91
        4
 64
     7
 65
   257
 75
     1
175
     1
 42
1.0
 92
        0
 66
     7
 43
1.0
 76
     1
 77
     6
 78
     2
 67
     7
 79
     5
170
     0
171
     0
290
     0
174
     0
 93
       13
 44
0.0
173
     0
291
     1
 45
0.0
1001
ACAD
1000
AcDbSavedByObjectVersion
1070
     0
  0
VISUALSTYLE
  5
2E
102
{ACAD_REACTORS
330
2A
102
}
330
2A
100
AcDbVisualStyle
  2
GouraudWithEdges
 70
     3
 71
     2
 72
     2
 73
     1
 90
        2
 40
-0.6
 41
30.0
 62
     5
 63
     7
 74
     1
 91
        4
 64
     7
 65
   257
 75
     1
175
     1
 42
1.0
 92
        0
 66
   257
 43
1.0
 76
     1
 77
     6
 78
     2
 67
     7
 79
     5
170
     0
171
     0
290
     0
174
     0
 93
       13
 44
0.0
173
     0
291
     1
 45
0.0
1001
ACAD
1000
AcDbSavedByObjectVersion
1070
     0
  0
VISUALSTYLE
  5
38
102
{ACAD_REACTORS
330
2A
102
}
330
2A
100
AcDbVisualStyle
  2
Linepattern
 70
    14
 71
     2
 72
     2
 73
     0
 90
        0
 40
-0.6
 41
-30.0
 62
     5
 63
     7
 74
     1
 91
        4
 64
     7
 65
   257
 75
     7
175
     7
 42
1.0
 92
        8
 66
     7
 43
1.0
 76
     1
 77
     6
 78
     2
 67
     7
 79
     5
170
     0
171
     0
290
     0
174
     0
 93
        1
 44
0.0
173
     0
291
     1
 45
0.0
1001
ACAD
1000
AcDbSavedByObjectVersion
1070
     0
  0
VISUALSTYLE
  5
33
102
{ACAD_REACTORS
330
2A
102
}
330
2A
100
AcDbVisualStyle
  2
Realistic
 70
     8
 71
     2
 72
     2
 73
     0
 90
        0
 40
-0.6
 41
-30.0
 62
     5
 63
     7
 74
     1
 91
        0
 64
     7
 65
   257
 75
     1
175
     1
 42
1.0
 92
        8
 66
     8
 43
1.0
 76
     1
 77
     6
 78
     2
 67
     7
 79
     5
170
     0
171
     0
290
     0
174
     0
 93
       13
 44
0.0
173
     0
291
     0
 45
0.0
1001
ACAD
1000
AcDbSavedByObjectVersion
1070
     0
  0
VISUALSTYLE
  5
37
102
{ACAD_REACTORS
330
2A
102
}
330
2A
100
AcDbVisualStyle
  2
Thicken
 70
    13
 71
     2
 72
     2
 73
     0
 90
        0
 40
-0.6
 41
-30.0
 62
     5
 63
     7
 74
     1
 91
        4
 64
     7
 65
   257
 75
     1
175
     1
 42
1.0
 92
       12
 66
     7
 43
1.0
 76
     1
 77
     6
 78
     2
 67
     7
 79
     5
170
     0
171
     0
290
     0
174
     0
 93
        1
 44
0.0
173
     0
291
     1
 45
0.0
1001
ACAD
1000
AcDbSavedByObjectVersion
1070
     0
  0
DICTIONARYVAR
  5
159
102
{ACAD_REACTORS
330
157
102
}
330
157
100
DictionaryVariables
280
     0
  1
80.000000
  0
DICTIONARYVAR
  5
158
102
{ACAD_REACTORS
330
157
102
}
330
157
100
DictionaryVariables
280
     0
  1
5.000000
  0
ENDSEC
  0
EOF
