  0
SECTION
  2
HEADER
  9
$ACADVER
  1
AC1015
  9
$ACADMAINTVER
 70
     6
  9
$DWGCODEPAGE
  3
ANSI_1252
  9
$INSBASE
 10
0.0
 20
0.0
 30
0.0
  9
$EXTMIN
 10
0.0
 20
0.0
 30
0.0
  9
$EXTMAX
 10
297.0
 20
210.0
 30
0.0
  9
$LIMMIN
 10
0.0
 20
0.0
  9
$LIMMAX
 10
297.0
 20
210.0
  9
$ORTHOMODE
 70
     0
  9
$REGENMODE
 70
     1
  9
$FILLMODE
 70
     1
  9
$QTEXTMODE
 70
     0
  9
$MIRRTEXT
 70
     1
  9
$LTSCALE
 40
1.0
  9
$ATTMODE
 70
     1
  9
$TEXTSIZE
 40
2.0
  9
$TRACEWID
 40
1.0
  9
$TEXTSTYLE
  7
Standard
  9
$CLAYER
  8
0
  9
$CELTYPE
  6
ByLayer
  9
$CECOLOR
 62
   256
  9
$CELTSCALE
 40
1.0
  9
$DISPSILH
 70
     0
  9
$DIMSCALE
 40
1.0
  9
$DIMASZ
 40
3.0
  9
$DIMEXO
 40
0.0
  9
$DIMDLI
 40
3.75
  9
$DIMRND
 40
0.0
  9
$DIMDLE
 40
0.0
  9
$DIMEXE
 40
1.0
  9
$DIMTP
 40
0.0
  9
$DIMTM
 40
0.0
  9
$DIMTXT
 40
2.0
  9
$DIMCEN
 40
2.5
  9
$DIMTSZ
 40
0.0
  9
$DIMTOL
 70
     0
  9
$DIMLIM
 70
     0
  9
$DIMTIH
 70
     1
  9
$DIMTOH
 70
     1
  9
$DIMSE1
 70
     0
  9
$DIMSE2
 70
     0
  9
$DIMTAD
 70
     1
  9
$DIMZIN
 70
     0
  9
$DIMBLK
  1

  9
$DIMASO
 70
     1
  9
$DIMSHO
 70
     1
  9
$DIMPOST
  1

  9
$DIMAPOST
  1

  9
$DIMALT
 70
     0
  9
$DIMALTD
 70
     3
  9
$DIMALTF
 40
0.0393700787
  9
$DIMLFAC
 40
0.5
  9
$DIMTOFL
 70
     1
  9
$DIMTVP
 40
0.0
  9
$DIMTIX
 70
     0
  9
$DIMSOXD
 70
     0
  9
$DIMSAH
 70
     0
  9
$DIMBLK1
  1

  9
$DIMBLK2
  1

  9
$DIMSTYLE
  2
ISO-25
  9
$DIMCLRD
 70
     0
  9
$DIMCLRE
 70
     0
  9
$DIMCLRT
 70
     0
  9
$DIMTFAC
 40
1.0
  9
$DIMGAP
 40
1.524
  9
$DIMJUST
 70
     0
  9
$DIMSD1
 70
     0
  9
$DIMSD2
 70
     0
  9
$DIMTOLJ
 70
     0
  9
$DIMTZIN
 70
     0
  9
$DIMALTZ
 70
     0
  9
$DIMALTTZ
 70
     0
  9
$DIMUPT
 70
     0
  9
$DIMDEC
 70
     2
  9
$DIMTDEC
 70
     3
  9
$DIMALTU
 70
     2
  9
$DIMALTTD
 70
     3
  9
$DIMTXSTY
  7
Standard
  9
$DIMAUNIT
 70
     0
  9
$DIMADEC
 70
     2
  9
$DIMALTRND
 40
0.0
  9
$DIMAZIN
 70
     0
  9
$DIMDSEP
 70
    44
  9
$DIMATFIT
 70
     3
  9
$DIMFRAC
 70
     0
  9
$DIMLDRBLK
  1

  9
$DIMLUNIT
 70
     2
  9
$DIMLWD
 70
    -2
  9
$DIMLWE
 70
    -2
  9
$DIMTMOVE
 70
     0
  9
$LUNITS
 70
     2
  9
$LUPREC
 70
     2
  9
$SKETCHINC
 40
1.0
  9
$FILLETRAD
 40
10.0
  9
$AUNITS
 70
     0
  9
$AUPREC
 70
     2
  9
$MENU
  1
.
  9
$ELEVATION
 40
0.0
  9
$PELEVATION
 40
0.0
  9
$THICKNESS
 40
0.0
  9
$LIMCHECK
 70
     0
  9
$CHAMFERA
 40
0.0
  9
$CHAMFERB
 40
0.0
  9
$CHAMFERC
 40
0.0
  9
$CHAMFERD
 40
0.0
  9
$SKPOLY
 70
     0
  9
$TDCREATE
 40
2458177.605464421
  9
$TDUCREATE
 40
2458177.563797755
  9
$TDUPDATE
 40
2458177.605466123
  9
$TDUUPDATE
 40
2458177.563799456
  9
$TDINDWG
 40
0.0000000116
  9
$TDUSRTIMER
 40
0.0000000116
  9
$USRTIMER
 70
     1
  9
$ANGBASE
 50
0.0
  9
$ANGDIR
 70
     0
  9
$PDMODE
 70
     0
  9
$PDSIZE
 40
-1.0
  9
$PLINEWID
 40
0.0
  9
$SPLFRAME
 70
     0
  9
$SPLINETYPE
 70
     6
  9
$SPLINESEGS
 70
     8
  9
$HANDSEED
  5
2E4
  9
$SURFTAB1
 70
     6
  9
$SURFTAB2
 70
     6
  9
$SURFTYPE
 70
     6
  9
$SURFU
 70
     6
  9
$SURFV
 70
     6
  9
$UCSBASE
  2

  9
$UCSNAME
  2

  9
$UCSORG
 10
0.0
 20
0.0
 30
0.0
  9
$UCSXDIR
 10
1.0
 20
0.0
 30
0.0
  9
$UCSYDIR
 10
0.0
 20
1.0
 30
0.0
  9
$UCSORTHOREF
  2

  9
$UCSORTHOVIEW
 70
     0
  9
$UCSORGTOP
 10
0.0
 20
0.0
 30
0.0
  9
$UCSORGBOTTOM
 10
0.0
 20
0.0
 30
0.0
  9
$UCSORGLEFT
 10
0.0
 20
0.0
 30
0.0
  9
$UCSORGRIGHT
 10
0.0
 20
0.0
 30
0.0
  9
$UCSORGFRONT
 10
0.0
 20
0.0
 30
0.0
  9
$UCSORGBACK
 10
0.0
 20
0.0
 30
0.0
  9
$PUCSBASE
  2

  9
$PUCSNAME
  2

  9
$PUCSORG
 10
0.0
 20
0.0
 30
0.0
  9
$PUCSXDIR
 10
1.0
 20
0.0
 30
0.0
  9
$PUCSYDIR
 10
0.0
 20
1.0
 30
0.0
  9
$PUCSORTHOREF
  2

  9
$PUCSORTHOVIEW
 70
     0
  9
$PUCSORGTOP
 10
0.0
 20
0.0
 30
0.0
  9
$PUCSORGBOTTOM
 10
0.0
 20
0.0
 30
0.0
  9
$PUCSORGLEFT
 10
0.0
 20
0.0
 30
0.0
  9
$PUCSORGRIGHT
 10
0.0
 20
0.0
 30
0.0
  9
$PUCSORGFRONT
 10
0.0
 20
0.0
 30
0.0
  9
$PUCSORGBACK
 10
0.0
 20
0.0
 30
0.0
  9
$USERI1
 70
     0
  9
$USERI2
 70
     0
  9
$USERI3
 70
     0
  9
$USERI4
 70
     0
  9
$USERI5
 70
     0
  9
$USERR1
 40
0.0
  9
$USERR2
 40
0.0
  9
$USERR3
 40
0.0
  9
$USERR4
 40
0.0
  9
$USERR5
 40
0.0
  9
$WORLDVIEW
 70
     1
  9
$SHADEDGE
 70
     3
  9
$SHADEDIF
 70
    70
  9
$TILEMODE
 70
     1
  9
$MAXACTVP
 70
    64
  9
$PINSBASE
 10
0.0
 20
0.0
 30
0.0
  9
$PLIMCHECK
 70
     0
  9
$PEXTMIN
 10
1.0000000000E+20
 20
1.0000000000E+20
 30
1.0000000000E+20
  9
$PEXTMAX
 10
-1.0000000000E+20
 20
-1.0000000000E+20
 30
-1.0000000000E+20
  9
$PLIMMIN
 10
0.0
 20
0.0
  9
$PLIMMAX
 10
420.0
 20
297.0
  9
$UNITMODE
 70
     0
  9
$VISRETAIN
 70
     1
  9
$PLINEGEN
 70
     0
  9
$PSLTSCALE
 70
     1
  9
$TREEDEPTH
 70
  3020
  9
$CMLSTYLE
  2
Standard
  9
$CMLJUST
 70
     0
  9
$CMLSCALE
 40
20.0
  9
$PROXYGRAPHICS
 70
     1
  9
$MEASUREMENT
 70
     1
  9
$CELWEIGHT
370
    -1
  9
$ENDCAPS
280
     0
  9
$JOINSTYLE
280
     0
  9
$LWDISPLAY
290
     1
  9
$INSUNITS
 70
     4
  9
$HYPERLINKBASE
  1

  9
$STYLESHEET
  1

  9
$XEDIT
290
     1
  9
$CEPSNTYPE
380
     0
  9
$PSTYLEMODE
290
     1
  9
$FINGERPRINTGUID
  2
{5FEAE0E0-6C60-44B9-BD50-4241DF7BE70F}
  9
$VERSIONGUID
  2
{FAEB1C32-E019-11D5-929B-00C0DF256EC4}
  9
$EXTNAMES
290
     1
  9
$PSVPSCALE
 40
0.0
  9
$OLESTARTUP
290
     0
  0
ENDSEC
  0
SECTION
  2
CLASSES
  0
CLASS
  1
ACDBDICTIONARYWDFLT
  2
AcDbDictionaryWithDefault
  3
ObjectDBX Classes
 90
        0
280
     0
281
     0
  0
CLASS
  1
VISUALSTYLE
  2
AcDbVisualStyle
  3
ObjectDBX Classes
 90
     4095
280
     0
281
     0
  0
CLASS
  1
MATERIAL
  2
AcDbMaterial
  3
ObjectDBX Classes
 90
     1153
280
     0
281
     0
  0
CLASS
  1
SCALE
  2
AcDbScale
  3
ObjectDBX Classes
 90
     1153
280
     0
281
     0
  0
CLASS
  1
TABLESTYLE
  2
AcDbTableStyle
  3
ObjectDBX Classes
 90
     4095
280
     0
281
     0
  0
CLASS
  1
MLEADERSTYLE
  2
AcDbMLeaderStyle
  3
ACDB_MLEADERSTYLE_CLASS
 90
     4095
280
     0
281
     0
  0
CLASS
  1
SUN
  2
AcDbSun
  3
SCENEOE
 90
     1153
280
     0
281
     0
  0
CLASS
  1
ACDBPLACEHOLDER
  2
AcDbPlaceHolder
  3
ObjectDBX Classes
 90
        0
280
     0
281
     0
  0
CLASS
  1
LAYOUT
  2
AcDbLayout
  3
ObjectDBX Classes
 90
        0
280
     0
281
     0
  0
ENDSEC
  0
SECTION
  2
TABLES
  0
TABLE
  2
VPORT
  5
8
330
0
100
AcDbSymbolTable
 70
     1
  0
VPORT
  5
29
330
8
100
AcDbSymbolTableRecord
100
AcDbViewportTableRecord
  2
*Active
 70
     0
 10
0.0
 20
0.0
 11
1.0
 21
1.0
 12
148.5
 22
105.0
 13
0.0
 23
0.0
 14
10.0
 24
10.0
 15
10.0
 25
10.0
 16
0.0
 26
0.0
 36
1.0
 17
0.0
 27
0.0
 37
0.0
 40
210.0
 41
1.4142857143
 42
50.0
 43
0.0
 44
0.0
 50
0.0
 51
0.0
 71
     0
 72
  2000
 73
     1
 74
     3
 75
     0
 76
     0
 77
     0
 78
     0
281
     0
 65
     1
110
0.0
120
0.0
130
0.0
111
1.0
121
0.0
131
0.0
112
0.0
122
1.0
132
0.0
 79
     0
146
0.0
  0
ENDTAB
  0
TABLE
  2
LTYPE
  5
5
330
0
100
AcDbSymbolTable
 70
     6
  0
LTYPE
  5
14
330
5
100
AcDbSymbolTableRecord
100
AcDbLinetypeTableRecord
  2
ByBlock
 70
     0
  3

 72
    65
 73
     0
 40
0.0
  0
LTYPE
  5
15
330
5
100
AcDbSymbolTableRecord
100
AcDbLinetypeTableRecord
  2
ByLayer
 70
     0
  3

 72
    65
 73
     0
 40
0.0
  0
LTYPE
  5
16
330
5
100
AcDbSymbolTableRecord
100
AcDbLinetypeTableRecord
  2
Continuous
 70
     0
  3
Solid line
 72
    65
 73
     0
 40
0.0
  0
LTYPE
  5
6E
330
5
100
AcDbSymbolTableRecord
100
AcDbLinetypeTableRecord
  2
HIDDEN
 70
     0
  3
Hidden __ __ __ __ __ __ __ __ __ __ __ __ __ __
 72
    65
 73
     2
 40
1.905
 49
1.27
 74
     0
 49
-0.635
 74
     0
  0
LTYPE
  5
6F
330
5
100
AcDbSymbolTableRecord
100
AcDbLinetypeTableRecord
  2
PHANTOM
 70
     0
  3
Phantom ______  __  __  ______  __  __  ______
 72
    65
 73
     6
 40
12.7
 49
6.35
 74
     0
 49
-1.27
 74
     0
 49
1.27
 74
     0
 49
-1.27
 74
     0
 49
1.27
 74
     0
 49
-1.27
 74
     0
  0
LTYPE
  5
70
330
5
100
AcDbSymbolTableRecord
100
AcDbLinetypeTableRecord
  2
CENTER
 70
     0
  3
Center ____ _ ____ _ ____ _ ____ _ ____ _ ____
 72
    65
 73
     4
 40
10.16
 49
6.35
 74
     0
 49
-1.27
 74
     0
 49
1.27
 74
     0
 49
-1.27
 74
     0
  0
LTYPE
  5
71
330
5
100
AcDbSymbolTableRecord
100
AcDbLinetypeTableRecord
  2
CENTERX2
 70
     0
  3
Center (2x) ________  __  ________  __  _____
 72
    65
 73
     4
 40
20.32
 49
12.7
 74
     0
 49
-2.54
 74
     0
 49
2.54
 74
     0
 49
-2.54
 74
     0
  0
LTYPE
  5
72
330
5
100
AcDbSymbolTableRecord
100
AcDbLinetypeTableRecord
  2
DOT2
 70
     0
  3
Dot (.5x) ........................................
 72
    65
 73
     2
 40
0.635
 49
0.0
 74
     0
 49
-0.635
 74
     0
  0
ENDTAB
  0
TABLE
  2
LAYER
  5
2
330
0
100
AcDbSymbolTable
 70
     5
  0
LAYER
  5
10
330
2
100
AcDbSymbolTableRecord
100
AcDbLayerTableRecord
  2
0
 70
     0
 62
     7
  6
Continuous
370
    -3
390
F
  0
LAYER
  5
73
330
2
100
AcDbSymbolTableRecord
100
AcDbLayerTableRecord
  2
FORMAT
 70
     0
 62
     7
  6
Continuous
370
    -3
390
F
  0
LAYER
  5
74
330
2
100
AcDbSymbolTableRecord
100
AcDbLayerTableRecord
  2
VERMASSUNG
 70
     0
 62
     7
  6
Continuous
370
    -3
390
F
  0
LAYER
  5
75
330
2
100
AcDbSymbolTableRecord
100
AcDbLayerTableRecord
  2
KOPF_DÜNN
 70
     0
 62
     7
  6
Continuous
370
    -3
390
F
  0
LAYER
  5
76
330
2
100
AcDbSymbolTableRecord
100
AcDbLayerTableRecord
  2
KOPF_DICK
 70
     0
 62
     7
  6
Continuous
370
    25
390
F
  0
ENDTAB
  0
TABLE
  2
STYLE
  5
3
330
0
100
AcDbSymbolTable
 70
     3
  0
STYLE
  5
11
330
3
100
AcDbSymbolTableRecord
100
AcDbTextStyleTableRecord
  2
Standard
 70
     0
 40
0.0
 41
1.0
 50
0.0
 71
     0
 42
2.0
  3
txt
  4

  0
STYLE
  5
77
330
3
100
AcDbSymbolTableRecord
100
AcDbTextStyleTableRecord
  2
SLDTEXTSTYLE0
 70
     0
 40
0.0
 41
0.7
 50
0.0
 71
     0
 42
2.0
  3
TXT
  4

  0
STYLE
  5
297
330
3
100
AcDbSymbolTableRecord
100
AcDbTextStyleTableRecord
  2
SLDTEXTSTYLE1
 70
     0
 40
0.0
 41
0.65
 50
0.0
 71
     0
 42
2.0
  3
TXT
  4

  0
ENDTAB
  0
TABLE
  2
VIEW
  5
6
330
0
100
AcDbSymbolTable
 70
     0
  0
ENDTAB
  0
TABLE
  2
UCS
  5
7
330
0
100
AcDbSymbolTable
 70
     0
  0
ENDTAB
  0
TABLE
  2
APPID
  5
9
330
0
100
AcDbSymbolTable
 70
     1
  0
APPID
  5
12
330
9
100
AcDbSymbolTableRecord
100
AcDbRegAppTableRecord
  2
ACAD
 70
     0
  0
ENDTAB
  0
TABLE
  2
DIMSTYLE
  5
A
330
0
100
AcDbSymbolTable
 70
     4
100
AcDbDimStyleTable
  0
DIMSTYLE
105
27
330
A
100
AcDbSymbolTableRecord
100
AcDbDimStyleTableRecord
  2
ISO-25
 70
     0
 41
2.5
 42
0.625
 43
3.75
 44
1.25
 73
     0
 74
     0
 77
     1
 78
     8
140
2.5
141
2.5
143
0.0393700787
147
0.625
171
     3
172
     1
178
     0
271
     2
272
     2
274
     3
278
    44
283
     0
284
     8
340
11
  0
DIMSTYLE
105
28F
102
{ACAD_REACTORS
330
28E
102
}
330
A
100
AcDbSymbolTableRecord
100
AcDbDimStyleTableRecord
  2
SLDDIMSTYLE0
 70
     0
 41
3.0
 44
0.0
 45
0.000000001
 73
     0
 74
     0
 76
     1
 77
     1
 78
    12
 79
     3
140
2.0
147
0.5
173
     1
178
     0
271
     2
272
     3
276
     2
282
     1
284
    12
340
77
  0
DIMSTYLE
105
29C
102
{ACAD_REACTORS
330
29B
330
2B5
102
}
330
A
100
AcDbSymbolTableRecord
100
AcDbDimStyleTableRecord
  2
SLDDIMSTYLE1
 70
     0
 41
3.0
 44
0.0
 45
0.000000001
 73
     0
 74
     0
 77
     1
 78
    12
 79
     3
140
2.0
147
0.5
173
     1
178
     0
271
     2
272
     3
276
     2
284
    12
340
77
  0
DIMSTYLE
105
2A9
102
{ACAD_REACTORS
330
2A8
102
}
330
A
100
AcDbSymbolTableRecord
100
AcDbDimStyleTableRecord
  2
SLDDIMSTYLE2
 70
     0
 41
3.0
 44
0.0
 45
0.000000001
 73
     0
 74
     0
 77
     1
 78
    12
 79
     3
140
2.0
147
0.5
172
     1
173
     1
178
     0
271
     2
272
     3
276
     2
284
    12
289
     0
340
77
  0
ENDTAB
  0
TABLE
  2
BLOCK_RECORD
  5
1
330
0
100
AcDbSymbolTable
 70
     5
  0
BLOCK_RECORD
  5
1F
330
1
100
AcDbSymbolTableRecord
100
AcDbBlockTableRecord
  2
*Model_Space
340
22
  0
BLOCK_RECORD
  5
1B
330
1
100
AcDbSymbolTableRecord
100
AcDbBlockTableRecord
  2
*Paper_Space
340
1E
  0
BLOCK_RECORD
  5
23
330
1
100
AcDbSymbolTableRecord
100
AcDbBlockTableRecord
  2
*Paper_Space0
340
26
  0
BLOCK_RECORD
  5
290
330
1
100
AcDbSymbolTableRecord
100
AcDbBlockTableRecord
  2
_D
340
0
  0
BLOCK_RECORD
  5
29D
330
1
100
AcDbSymbolTableRecord
100
AcDbBlockTableRecord
  2
_D_1
340
0
  0
BLOCK_RECORD
  5
2AA
330
1
100
AcDbSymbolTableRecord
100
AcDbBlockTableRecord
  2
_D_2
340
0
  0
BLOCK_RECORD
  5
2B6
330
1
100
AcDbSymbolTableRecord
100
AcDbBlockTableRecord
  2
_D_3
340
0
  0
ENDTAB
  0
ENDSEC
  0
SECTION
  2
BLOCKS
  0
BLOCK
  5
20
330
1F
100
AcDbEntity
  8
0
100
AcDbBlockBegin
  2
*Model_Space
 70
     0
 10
0.0
 20
0.0
 30
0.0
  3
*Model_Space
  1

  0
ENDBLK
  5
21
330
1F
100
AcDbEntity
  8
0
100
AcDbBlockEnd
  0
BLOCK
  5
1C
330
1B
100
AcDbEntity
 67
     1
  8
0
100
AcDbBlockBegin
  2
*Paper_Space
 70
     0
 10
0.0
 20
0.0
 30
0.0
  3
*Paper_Space
  1

  0
ENDBLK
  5
1D
330
1B
100
AcDbEntity
 67
     1
  8
0
100
AcDbBlockEnd
  0
BLOCK
  5
24
330
23
100
AcDbEntity
  8
0
100
AcDbBlockBegin
  2
*Paper_Space0
 70
     0
 10
0.0
 20
0.0
 30
0.0
  3
*Paper_Space0
  1

  0
ENDBLK
  5
25
330
23
100
AcDbEntity
  8
0
100
AcDbBlockEnd
  0
BLOCK
  5
291
330
290
100
AcDbEntity
  8
0
100
AcDbBlockBegin
  2
_D
 70
     0
 10
0.0
 20
0.0
 30
0.0
  3
_D
  1

  0
SOLID
  5
293
330
290
100
AcDbEntity
  8
VERMASSUNG
100
AcDbTrace
 10
217.91243398
 20
150.6456236464
 30
0.0
 11
217.46243398
 21
147.6456236464
 31
0.0
 12
218.36243398
 22
147.6456236464
 32
0.0
 13
218.36243398
 23
147.6456236464
 33
0.0
  0
LINE
  5
294
330
290
100
AcDbEntity
  8
VERMASSUNG
100
AcDbLine
 10
165.3983494668
 20
150.6456236464
 30
0.0
 11
218.91243398
 21
150.6456236464
 31
0.0
  0
LINE
  5
295
330
290
100
AcDbEntity
  8
VERMASSUNG
100
AcDbLine
 10
217.91243398
 20
150.6456236464
 30
0.0
 11
217.91243398
 21
109.6856243354
 31
0.0
  0
MTEXT
  5
296
330
290
100
AcDbEntity
  8
VERMASSUNG
100
AcDbMText
 10
215.3342986751
 20
109.6856243354
 30
0.0
 40
2.0
 41
0.0
 71
     1
 72
     1
  1
%%c
  7
SLDTEXTSTYLE0
 11
6.123233995736766E-17
 21
1.0
 31
0.0
 73
     1
 44
1.0
  0
MTEXT
  5
298
330
290
100
AcDbEntity
  8
VERMASSUNG
100
AcDbMText
 10
215.1342987238
 20
113.2956243497
 30
0.0
 40
2.0
 41
0.0
 71
     1
 72
     1
  1
64 -
  7
SLDTEXTSTYLE1
 11
6.123233995736766E-17
 21
1.0
 31
0.0
 73
     1
 44
1.0
  0
MTEXT
  5
299
330
290
100
AcDbEntity
  8
VERMASSUNG
100
AcDbMText
 10
215.3342986751
 20
120.0956239742
 30
0.0
 40
2.0
 41
0.0
 71
     1
 72
     1
  1
%%c
  7
SLDTEXTSTYLE0
 11
6.123233995736766E-17
 21
1.0
 31
0.0
 73
     1
 44
1.0
  0
MTEXT
  5
29A
330
290
100
AcDbEntity
  8
VERMASSUNG
100
AcDbMText
 10
215.1342987238
 20
123.7056239885
 30
0.0
 40
2.0
 41
0.0
 71
     1
 72
     1
  1
80
  7
SLDTEXTSTYLE0
 11
6.123233995736766E-17
 21
1.0
 31
0.0
 73
     1
 44
1.0
  0
ENDBLK
  5
292
330
290
100
AcDbEntity
  8
0
100
AcDbBlockEnd
  0
BLOCK
  5
29E
330
29D
100
AcDbEntity
  8
0
100
AcDbBlockBegin
  2
_D_1
 70
     0
 10
0.0
 20
0.0
 30
0.0
  3
_D_1
  1

  0
ARC
  5
2A0
330
29D
100
AcDbEntity
  8
VERMASSUNG
100
AcDbCircle
 10
143.3622025402
 20
159.0825548207
 30
0.0
 40
4.248529228887633
100
AcDbArc
 50
153.4349488229
 51
206.5650511771
  0
ARC
  5
2A1
330
29D
100
AcDbEntity
  8
VERMASSUNG
100
AcDbCircle
 10
147.7622025164
 20
159.0825548207
 30
0.0
 40
4.248529228887608
100
AcDbArc
 50
333.4349488229
 51
26.5650511771
  0
SOLID
  5
2A2
330
29D
100
AcDbEntity
  8
VERMASSUNG
100
AcDbTrace
 10
162.6622024992
 20
157.1825545559
 30
0.0
 11
159.6622024992
 21
157.6325545559
 31
0.0
 12
159.6622024992
 22
156.7325545559
 32
0.0
 13
159.6622024992
 23
156.7325545559
 33
0.0
  0
SOLID
  5
2A3
330
29D
100
AcDbEntity
  8
VERMASSUNG
100
AcDbTrace
 10
128.4622024992
 20
157.1825545559
 30
0.0
 11
131.4622024992
 21
156.7325545559
 31
0.0
 12
131.4622024992
 22
157.6325545559
 32
0.0
 13
131.4622024992
 23
157.6325545559
 33
0.0
  0
LINE
  5
2A4
330
29D
100
AcDbEntity
  8
VERMASSUNG
100
AcDbLine
 10
162.6622024992
 20
150.2458673156
 30
0.0
 11
162.6622024992
 21
158.1825545559
 31
0.0
  0
LINE
  5
2A5
330
29D
100
AcDbEntity
  8
VERMASSUNG
100
AcDbLine
 10
128.4622024992
 20
137.5956236464
 30
0.0
 11
128.4622024992
 21
158.1825545559
 31
0.0
  0
LINE
  5
2A6
330
29D
100
AcDbEntity
  8
VERMASSUNG
100
AcDbLine
 10
162.6622024992
 20
157.1825545559
 30
0.0
 11
128.4622024992
 21
157.1825545559
 31
0.0
  0
MTEXT
  5
2A7
330
29D
100
AcDbEntity
  8
VERMASSUNG
100
AcDbMText
 10
139.5622024762
 20
159.7606903847
 30
0.0
 40
2.0
 41
0.0
 71
     1
 72
     1
  1
16.2 -49.2
  7
SLDTEXTSTYLE0
 73
     1
 44
1.0
  0
ENDBLK
  5
29F
330
29D
100
AcDbEntity
  8
0
100
AcDbBlockEnd
  0
BLOCK
  5
2AB
330
2AA
100
AcDbEntity
  8
0
100
AcDbBlockBegin
  2
_D_2
 70
     0
 10
0.0
 20
0.0
 30
0.0
  3
_D_2
  1

  0
SOLID
  5
2AD
330
2AA
100
AcDbEntity
  8
VERMASSUNG
100
AcDbTrace
 10
208.2661278197
 20
141.5956236464
 30
0.0
 11
208.7161278197
 21
144.5956236464
 31
0.0
 12
207.8161278197
 22
144.5956236464
 32
0.0
 13
207.8161278197
 23
144.5956236464
 33
0.0
  0
SOLID
  5
2AE
330
2AA
100
AcDbEntity
  8
VERMASSUNG
100
AcDbTrace
 10
208.2661278197
 20
135.0956236464
 30
0.0
 11
207.8161278197
 21
132.0956236464
 31
0.0
 12
208.7161278197
 22
132.0956236464
 32
0.0
 13
208.7161278197
 23
132.0956236464
 33
0.0
  0
LINE
  5
2AF
330
2AA
100
AcDbEntity
  8
VERMASSUNG
100
AcDbLine
 10
192.8785154527
 20
141.5956236464
 30
0.0
 11
209.2661278197
 21
141.5956236464
 31
0.0
  0
LINE
  5
2B0
330
2AA
100
AcDbEntity
  8
VERMASSUNG
100
AcDbLine
 10
193.6622024992
 20
135.0956236464
 30
0.0
 11
209.2661278197
 21
135.0956236464
 31
0.0
  0
LINE
  5
2B1
330
2AA
100
AcDbEntity
  8
VERMASSUNG
100
AcDbLine
 10
208.2661278197
 20
141.5956236464
 30
0.0
 11
208.2661278197
 21
147.5956236464
 31
0.0
  0
LINE
  5
2B2
330
2AA
100
AcDbEntity
  8
VERMASSUNG
100
AcDbLine
 10
208.2661278197
 20
141.5956236464
 30
0.0
 11
208.2661278197
 21
135.0956236464
 31
0.0
  0
LINE
  5
2B3
330
2AA
100
AcDbEntity
  8
VERMASSUNG
100
AcDbLine
 10
208.2661278197
 20
135.0956236464
 30
0.0
 11
208.2661278197
 21
129.0956236464
 31
0.0
  0
MTEXT
  5
2B4
330
2AA
100
AcDbEntity
  8
VERMASSUNG
100
AcDbMText
 10
205.6879922237
 20
136.6456237403
 30
0.0
 40
2.0
 41
0.0
 71
     1
 72
     1
  1
6.5
  7
SLDTEXTSTYLE0
 11
-7.044195017643634E-15
 21
1.0
 31
0.0
 73
     1
 44
1.0
  0
ENDBLK
  5
2AC
330
2AA
100
AcDbEntity
  8
0
100
AcDbBlockEnd
  0
BLOCK
  5
2B7
330
2B6
100
AcDbEntity
  8
0
100
AcDbBlockBegin
  2
_D_3
 70
     0
 10
0.0
 20
0.0
 30
0.0
  3
_D_3
  1

  0
SOLID
  5
2B9
330
2B6
100
AcDbEntity
  8
VERMASSUNG
100
AcDbTrace
 10
91.5720299111
 20
97.0956236464
 30
0.0
 11
92.0220299111
 21
100.0956236464
 31
0.0
 12
91.1220299111
 22
100.0956236464
 32
0.0
 13
91.1220299111
 23
100.0956236464
 33
0.0
  0
SOLID
  5
2BA
330
2B6
100
AcDbEntity
  8
VERMASSUNG
100
AcDbTrace
 10
91.5720299111
 20
139.0956236464
 30
0.0
 11
91.1220299111
 21
136.0956236464
 31
0.0
 12
92.0220299111
 22
136.0956236464
 32
0.0
 13
92.0220299111
 23
136.0956236464
 33
0.0
  0
LINE
  5
2BB
330
2B6
100
AcDbEntity
  8
VERMASSUNG
100
AcDbLine
 10
134.328227903
 20
97.0956236464
 30
0.0
 11
90.5720299111
 21
97.0956236464
 31
0.0
  0
LINE
  5
2BC
330
2B6
100
AcDbEntity
  8
VERMASSUNG
100
AcDbLine
 10
134.328227903
 20
139.0956236464
 30
0.0
 11
90.5720299111
 21
139.0956236464
 31
0.0
  0
LINE
  5
2BD
330
2B6
100
AcDbEntity
  8
VERMASSUNG
100
AcDbLine
 10
91.5720299111
 20
97.0956236464
 30
0.0
 11
91.5720299111
 21
139.0956236464
 31
0.0
  0
MTEXT
  5
2BE
330
2B6
100
AcDbEntity
  8
VERMASSUNG
100
AcDbMText
 10
88.9938946062
 20
114.7906236262
 30
0.0
 40
2.0
 41
0.0
 71
     1
 72
     1
  1
%%c
  7
SLDTEXTSTYLE0
 11
6.123233995736766E-17
 21
1.0
 31
0.0
 73
     1
 44
1.0
  0
MTEXT
  5
2BF
330
2B6
100
AcDbEntity
  8
VERMASSUNG
100
AcDbMText
 10
88.7938946549
 20
118.4006236405
 30
0.0
 40
2.0
 41
0.0
 71
     1
 72
     1
  1
42
  7
SLDTEXTSTYLE0
 11
6.123233995736766E-17
 21
1.0
 31
0.0
 73
     1
 44
1.0
  0
ENDBLK
  5
2B8
330
2B6
100
AcDbEntity
  8
0
100
AcDbBlockEnd
  0
ENDSEC
  0
SECTION
  2
ENTITIES
  0
MTEXT
  5
78
330
1F
100
AcDbEntity
  8
KOPF_DÜNN
100
AcDbMText
 10
13.8892156294
 20
23.8442973028
 30
0.0
 40
3.0
 41
0.0
 71
     1
 72
     1
  1
255.420.001
  7
SLDTEXTSTYLE0
 73
     1
 44
1.0
  0
MTEXT
  5
79
330
1F
100
AcDbEntity
  8
VERMASSUNG
100
AcDbMText
 10
13.9329988022
 20
28.8834360957
 30
0.0
 40
3.0
 41
0.0
 71
     1
 72
     1
  1
Umkehradapter_Reversal adapter
  7
SLDTEXTSTYLE0
 73
     1
 44
1.0
  0
MTEXT
  5
7A
330
1F
100
AcDbEntity
  8
VERMASSUNG
100
AcDbMText
 10
98.8601118557
 20
13.8365368761
 30
0.0
 40
2.0
 41
0.0
 71
     1
 72
     1
  1
Datum: 27.02.2018
  7
SLDTEXTSTYLE0
 73
     1
 44
1.0
  0
MTEXT
  5
7B
330
1F
100
AcDbEntity
  8
VERMASSUNG
100
AcDbMText
 10
13.933048693
 20
18.0482802738
 30
0.0
 40
2.0
 41
0.0
 71
     1
 72
     1
  1
Achtung: Linkslauf / Caution: counterclockwise rotation
  7
SLDTEXTSTYLE0
 73
     1
 44
1.0
  0
MTEXT
  5
7C
330
1F
100
AcDbEntity
  8
VERMASSUNG
100
AcDbMText
 10
13.9808475933
 20
13.9090974274
 30
0.0
 40
2.0
 41
0.0
 71
     1
 72
     1
  1
Gewicht: 20g
  7
SLDTEXTSTYLE0
 73
     1
 44
1.0
  0
LINE
  5
7D
330
1F
100
AcDbEntity
  8
0
  6
PHANTOM
 62
     7
370
    25
100
AcDbLine
 10
172.5477264064
 20
135.1811475536
 30
0.0
 11
172.0622024992
 21
134.6956236464
 31
0.0
  0
LINE
  5
7E
330
1F
100
AcDbEntity
  8
0
  6
PHANTOM
 62
     7
370
    25
100
AcDbLine
 10
172.0622024992
 20
134.6956236464
 30
0.0
 11
172.0622024992
 21
133.899897811
 31
0.0
  0
LINE
  5
7F
330
1F
100
AcDbEntity
  8
0
  6
PHANTOM
 62
     7
370
    25
100
AcDbLine
 10
194.0622024992
 20
130.4154401238
 30
0.0
 11
194.0622024992
 21
131.7735892988
 31
0.0
  0
LINE
  5
80
330
1F
100
AcDbEntity
  8
0
  6
PHANTOM
 62
     7
370
    25
100
AcDbLine
 10
172.1122024992
 20
100.5456236464
 30
0.0
 11
172.1122024992
 21
100.5228513692
 31
0.0
  0
LINE
  5
81
330
1F
100
AcDbEntity
  8
0
  6
PHANTOM
 62
     7
370
    25
100
AcDbLine
 10
194.0122024992
 20
100.5228513692
 30
0.0
 11
194.0122024992
 21
100.5456236464
 31
0.0
  0
LINE
  5
82
330
1F
100
AcDbEntity
  8
0
  6
PHANTOM
 62
     7
370
    25
100
AcDbLine
 10
172.1122024992
 20
100.5228513692
 30
0.0
 11
172.124728133
 21
100.5171466251
 31
0.0
  0
LINE
  5
83
330
1F
100
AcDbEntity
  8
0
  6
PHANTOM
 62
     7
370
    25
100
AcDbLine
 10
173.6332263162
 20
99.8301078485
 30
0.0
 11
177.1622024992
 21
98.2228513692
 31
0.0
  0
LINE
  5
84
330
1F
100
AcDbEntity
  8
0
  6
PHANTOM
 62
     7
370
    25
100
AcDbLine
 10
188.9622024992
 20
98.2228513692
 30
0.0
 11
192.4886050674
 21
99.8289357072
 31
0.0
  0
LINE
  5
85
330
1F
100
AcDbEntity
  8
0
  6
PHANTOM
 62
     7
370
    25
100
AcDbLine
 10
193.9927841513
 20
100.5140073691
 30
0.0
 11
194.0122024992
 21
100.5228513692
 31
0.0
  0
LINE
  5
86
330
1F
100
AcDbEntity
  8
0
  6
PHANTOM
 62
     7
370
    25
100
AcDbLine
 10
180.5326995157
 20
98.7138839619
 30
0.0
 11
180.5326995157
 21
98.7221548936
 31
0.0
  0
LINE
  5
87
330
1F
100
AcDbEntity
  8
0
  6
PHANTOM
 62
     7
370
    25
100
AcDbLine
 10
188.0479545202
 20
99.0470333133
 30
0.0
 11
188.0479545202
 21
99.0355809298
 31
0.0
  0
LINE
  5
88
330
1F
100
AcDbEntity
  8
0
  6
PHANTOM
 62
     7
370
    25
100
AcDbLine
 10
164.1740239076
 20
139.0956236464
 30
0.0
 11
134.328227903
 21
139.0956236464
 31
0.0
  0
LINE
  5
89
330
1F
100
AcDbEntity
  8
0
  6
PHANTOM
 62
     7
370
    25
100
AcDbLine
 10
134.328227903
 20
97.0956236464
 30
0.0
 11
163.9712722599
 21
97.0956236464
 31
0.0
  0
ARC
  5
8A
330
1F
100
AcDbEntity
  8
0
  6
PHANTOM
 62
     7
370
    25
100
AcDbCircle
 10
134.328227903
 20
138.0956236464
 30
0.0
 40
1.000000000000008
100
AcDbArc
 50
90.0
 51
150.0
  0
ARC
  5
8B
330
1F
100
AcDbEntity
  8
0
  6
PHANTOM
 62
     7
370
    25
100
AcDbCircle
 10
134.328227903
 20
98.0956236464
 30
0.0
 40
1.000000000000015
100
AcDbArc
 50
210.0
 51
270.0
  0
ARC
  5
8C
330
1F
100
AcDbEntity
  8
0
  6
PHANTOM
 62
     7
370
    25
100
AcDbCircle
 10
132.5961770954
 20
139.0956236464
 30
0.0
 40
1.0
100
AcDbArc
 50
270.0
 51
330.0
  0
ARC
  5
8D
330
1F
100
AcDbEntity
  8
0
  6
PHANTOM
 62
     7
370
    25
100
AcDbCircle
 10
132.5961770954
 20
97.0956236464
 30
0.0
 40
1.0
100
AcDbArc
 50
30.0
 51
90.0
  0
LINE
  5
8E
330
1F
100
AcDbEntity
  8
0
  6
PHANTOM
 62
     7
370
    25
100
AcDbLine
 10
199.317309582
 20
100.5456236464
 30
0.0
 11
200.2122024992
 21
102.0956236464
 31
0.0
  0
LINE
  5
8F
330
1F
100
AcDbEntity
  8
0
  6
PHANTOM
 62
     7
370
    25
100
AcDbLine
 10
128.9622024992
 20
98.0956236464
 30
0.0
 11
132.5961770954
 21
98.0956236464
 31
0.0
  0
LINE
  5
90
330
1F
100
AcDbEntity
  8
0
  6
PHANTOM
 62
     7
370
    25
100
AcDbLine
 10
132.5961770954
 20
138.0956236464
 30
0.0
 11
128.9622024992
 21
138.0956236464
 31
0.0
  0
ARC
  5
91
330
1F
100
AcDbEntity
  8
0
  6
PHANTOM
 62
     7
370
    25
100
AcDbCircle
 10
128.9622024992
 20
98.5956236464
 30
0.0
 40
0.5
100
AcDbArc
 50
180.0
 51
270.0
  0
ARC
  5
92
330
1F
100
AcDbEntity
  8
0
  6
PHANTOM
 62
     7
370
    25
100
AcDbCircle
 10
128.9622024992
 20
137.5956236464
 30
0.0
 40
0.5
100
AcDbArc
 50
90.0
 51
180.0
  0
ARC
  5
93
330
1F
100
AcDbEntity
  8
0
  6
PHANTOM
 62
     7
370
    25
100
AcDbCircle
 10
128.0622024992
 20
106.8456236464
 30
0.0
 40
0.6000000000000054
100
AcDbArc
 50
48.1896851042
 51
90.0
  0
ARC
  5
94
330
1F
100
AcDbEntity
  8
0
  6
PHANTOM
 62
     7
370
    25
100
AcDbCircle
 10
128.0622024992
 20
129.3456236464
 30
0.0
 40
0.5999999999999842
100
AcDbArc
 50
270.0
 51
311.8103148958
  0
LINE
  5
95
330
1F
100
AcDbEntity
  8
0
  6
PHANTOM
 62
     7
370
    25
100
AcDbLine
 10
106.4622024992
 20
129.0956236464
 30
0.0
 11
102.9633346498
 21
128.70067219
 31
0.0
  0
LINE
  5
96
330
1F
100
AcDbEntity
  8
0
  6
PHANTOM
 62
     7
370
    25
100
AcDbLine
 10
102.9633346498
 20
107.4905751028
 30
0.0
 11
106.4622024992
 21
107.0956236464
 31
0.0
  0
LINE
  5
97
330
1F
100
AcDbEntity
  8
0
  6
PHANTOM
 62
     7
370
    25
100
AcDbLine
 10
106.4622024992
 20
107.0956236464
 30
0.0
 11
125.9622024992
 21
107.0956236464
 31
0.0
  0
LINE
  5
98
330
1F
100
AcDbEntity
  8
0
  6
PHANTOM
 62
     7
370
    25
100
AcDbLine
 10
110.7163156138
 20
129.0956236464
 30
0.0
 11
106.4622024992
 21
129.0956236464
 31
0.0
  0
LINE
  5
99
330
1F
100
AcDbEntity
  8
0
  6
PHANTOM
 62
     7
370
    25
100
AcDbLine
 10
125.9622024992
 20
129.0956236464
 30
0.0
 11
122.7106206816
 21
129.0956236464
 31
0.0
  0
LINE
  5
9A
330
1F
100
AcDbEntity
  8
0
  6
PHANTOM
 62
     7
370
    25
100
AcDbLine
 10
125.9622024992
 20
107.0956236464
 30
0.0
 11
127.1921203533
 21
107.4251791422
 31
0.0
  0
LINE
  5
9B
330
1F
100
AcDbEntity
  8
0
  6
PHANTOM
 62
     7
370
    25
100
AcDbLine
 10
127.1921203533
 20
128.7660681506
 30
0.0
 11
125.9622024992
 21
129.0956236464
 31
0.0
  0
ARC
  5
9C
330
1F
100
AcDbEntity
  8
0
  6
PHANTOM
 62
     7
370
    25
100
AcDbCircle
 10
101.6622024992
 20
108.3056236464
 30
0.0
 40
1.2
100
AcDbArc
 50
180.0
 51
300.0
  0
ARC
  5
9D
330
1F
100
AcDbEntity
  8
0
  6
PHANTOM
 62
     7
370
    25
100
AcDbCircle
 10
101.6622024992
 20
127.8856236464
 30
0.0
 40
1.2
100
AcDbArc
 50
60.0
 51
180.0
  0
LINE
  5
9E
330
1F
100
AcDbEntity
  8
0
  6
PHANTOM
 62
     7
370
    25
100
AcDbLine
 10
102.2622024992
 20
107.2663931618
 30
0.0
 11
102.473600699
 21
107.3884439694
 31
0.0
  0
LINE
  5
9F
330
1F
100
AcDbEntity
  8
0
  6
PHANTOM
 62
     7
370
    25
100
AcDbLine
 10
102.473600699
 20
128.8028033234
 30
0.0
 11
102.2622024992
 21
128.9248541309
 31
0.0
  0
ARC
  5
A0
330
1F
100
AcDbEntity
  8
0
  6
PHANTOM
 62
     7
370
    25
100
AcDbCircle
 10
102.873600699
 20
106.6956236464
 30
0.0
 40
0.8000000000000119
100
AcDbArc
 50
83.5597259642
 51
120.0
  0
ARC
  5
A1
330
1F
100
AcDbEntity
  8
0
  6
PHANTOM
 62
     7
370
    25
100
AcDbCircle
 10
102.873600699
 20
129.4956236464
 30
0.0
 40
0.8000000000000242
100
AcDbArc
 50
240.0
 51
276.4402740358
  0
ARC
  5
A2
330
1F
100
AcDbEntity
  8
0
  6
PHANTOM
 62
     7
370
    25
100
AcDbCircle
 10
127.3474117804
 20
106.8456236464
 30
0.0
 40
0.5999999999999943
100
AcDbArc
 50
90.0
 51
105.0
  0
ARC
  5
A3
330
1F
100
AcDbEntity
  8
0
  6
PHANTOM
 62
     7
370
    25
100
AcDbCircle
 10
127.3474117804
 20
129.3456236464
 30
0.0
 40
0.5999999999999659
100
AcDbArc
 50
255.0
 51
270.0
  0
LINE
  5
A4
330
1F
100
AcDbEntity
  8
0
  6
PHANTOM
 62
     7
370
    25
100
AcDbLine
 10
127.3474117804
 20
107.4456236464
 30
0.0
 11
128.0622024992
 21
107.4456236464
 31
0.0
  0
LINE
  5
A5
330
1F
100
AcDbEntity
  8
0
  6
PHANTOM
 62
     7
370
    25
100
AcDbLine
 10
128.0622024992
 20
128.7456236464
 30
0.0
 11
127.3474117804
 21
128.7456236464
 31
0.0
  0
LINE
  5
A6
330
1F
100
AcDbEntity
  8
0
  6
PHANTOM
 62
     7
370
    25
100
AcDbLine
 10
195.5622024992
 20
142.5956236464
 30
0.0
 11
195.5622024992
 21
145.0956236464
 31
0.0
  0
LINE
  5
A7
330
1F
100
AcDbEntity
  8
0
  6
PHANTOM
 62
     7
370
    25
100
AcDbLine
 10
195.5622024992
 20
145.0956236464
 30
0.0
 11
192.0622024992
 21
148.5956236464
 31
0.0
  0
LINE
  5
A8
330
1F
100
AcDbEntity
  8
0
  6
Continuous
 62
     7
370
    25
100
AcDbLine
 10
170.5622024992
 20
137.4956236464
 30
0.0
 11
170.5622024992
 21
136.0956236464
 31
0.0
  0
LINE
  5
A9
330
1F
100
AcDbEntity
  8
0
  6
Continuous
 62
     7
370
    25
100
AcDbLine
 10
195.5622024992
 20
131.5956236464
 30
0.0
 11
195.5622024992
 21
137.4956236464
 31
0.0
  0
LINE
  5
AA
330
1F
100
AcDbEntity
  8
0
  6
Continuous
 62
     7
370
    25
100
AcDbLine
 10
172.0622024992
 20
138.3235892988
 30
0.0
 11
172.0622024992
 21
137.4956236464
 31
0.0
  0
LINE
  5
AB
330
1F
100
AcDbEntity
  8
0
  6
Continuous
 62
     7
370
    25
100
AcDbLine
 10
194.0622024992
 20
137.4956236464
 30
0.0
 11
194.0622024992
 21
141.1956236464
 31
0.0
  0
LINE
  5
AC
330
1F
100
AcDbEntity
  8
0
  6
Continuous
 62
     7
370
    25
100
AcDbLine
 10
194.0622024992
 20
141.1956236464
 30
0.0
 11
193.5335150288
 21
141.7243111168
 31
0.0
  0
LINE
  5
AD
330
1F
100
AcDbEntity
  8
0
  6
PHANTOM
 62
     7
370
    25
100
AcDbLine
 10
172.0622024992
 20
134.6956236464
 30
0.0
 11
175.6132037109
 21
134.6956236464
 31
0.0
  0
LINE
  5
AE
330
1F
100
AcDbEntity
  8
0
  6
PHANTOM
 62
     7
370
    25
100
AcDbLine
 10
193.9996768655
 20
100.5118630543
 30
0.0
 11
193.9996768655
 21
100.5171466251
 31
0.0
  0
LINE
  5
AF
330
1F
100
AcDbEntity
  8
0
  6
PHANTOM
 62
     7
370
    25
100
AcDbLine
 10
193.9927841513
 20
100.5228513692
 30
0.0
 11
194.0122024992
 21
100.5228513692
 31
0.0
  0
LINE
  5
B0
330
1F
100
AcDbEntity
  8
0
  6
PHANTOM
 62
     7
370
    25
100
AcDbLine
 10
193.9927841513
 20
100.5118630543
 30
0.0
 11
193.9927841513
 21
100.5228513692
 31
0.0
  0
LINE
  5
B1
330
1F
100
AcDbEntity
  8
0
  6
PHANTOM
 62
     7
370
    25
100
AcDbLine
 10
193.9927841513
 20
100.5118630543
 30
0.0
 11
193.9790557984
 21
100.5118630543
 31
0.0
  0
LINE
  5
B2
330
1F
100
AcDbEntity
  8
0
  6
PHANTOM
 62
     7
370
    25
100
AcDbLine
 10
193.9790557984
 20
100.5118630543
 30
0.0
 11
193.9790557984
 21
100.5228513692
 31
0.0
  0
LINE
  5
B3
330
1F
100
AcDbEntity
  8
0
  6
PHANTOM
 62
     7
370
    25
100
AcDbLine
 10
193.824897058
 20
100.5228513692
 30
0.0
 11
193.9790557984
 21
100.5228513692
 31
0.0
  0
LINE
  5
B4
330
1F
100
AcDbEntity
  8
0
  6
PHANTOM
 62
     7
370
    25
100
AcDbLine
 10
193.824897058
 20
100.5118630543
 30
0.0
 11
193.824897058
 21
100.5228513692
 31
0.0
  0
LINE
  5
B5
330
1F
100
AcDbEntity
  8
0
  6
PHANTOM
 62
     7
370
    25
100
AcDbLine
 10
193.824897058
 20
100.5118630543
 30
0.0
 11
193.7862694334
 21
100.5118630543
 31
0.0
  0
LINE
  5
B6
330
1F
100
AcDbEntity
  8
0
  6
PHANTOM
 62
     7
370
    25
100
AcDbLine
 10
193.7862694334
 20
100.5118630543
 30
0.0
 11
193.7862694334
 21
100.5228513692
 31
0.0
  0
LINE
  5
B7
330
1F
100
AcDbEntity
  8
0
  6
PHANTOM
 62
     7
370
    25
100
AcDbLine
 10
193.4872758421
 20
100.5228513692
 30
0.0
 11
193.7862694334
 21
100.5228513692
 31
0.0
  0
LINE
  5
B8
330
1F
100
AcDbEntity
  8
0
  6
PHANTOM
 62
     7
370
    25
100
AcDbLine
 10
193.4872758421
 20
100.5118630543
 30
0.0
 11
193.4872758421
 21
100.5228513692
 31
0.0
  0
LINE
  5
B9
330
1F
100
AcDbEntity
  8
0
  6
PHANTOM
 62
     7
370
    25
100
AcDbLine
 10
193.4872758421
 20
100.5118630543
 30
0.0
 11
193.4243581266
 21
100.5118630543
 31
0.0
  0
LINE
  5
BA
330
1F
100
AcDbEntity
  8
0
  6
PHANTOM
 62
     7
370
    25
100
AcDbLine
 10
193.4243581266
 20
100.5118630543
 30
0.0
 11
193.4243581266
 21
100.5228513692
 31
0.0
  0
LINE
  5
BB
330
1F
100
AcDbEntity
  8
0
  6
PHANTOM
 62
     7
370
    25
100
AcDbLine
 10
192.985244992
 20
100.5228513692
 30
0.0
 11
193.4243581266
 21
100.5228513692
 31
0.0
  0
LINE
  5
BC
330
1F
100
AcDbEntity
  8
0
  6
PHANTOM
 62
     7
370
    25
100
AcDbLine
 10
192.985244992
 20
100.5118630543
 30
0.0
 11
192.985244992
 21
100.5228513692
 31
0.0
  0
LINE
  5
BD
330
1F
100
AcDbEntity
  8
0
  6
PHANTOM
 62
     7
370
    25
100
AcDbLine
 10
192.985244992
 20
100.5118630543
 30
0.0
 11
192.8990294355
 21
100.5118630543
 31
0.0
  0
LINE
  5
BE
330
1F
100
AcDbEntity
  8
0
  6
PHANTOM
 62
     7
370
    25
100
AcDbLine
 10
192.8990294355
 20
100.5118630543
 30
0.0
 11
192.8990294355
 21
100.5228513692
 31
0.0
  0
LINE
  5
BF
330
1F
100
AcDbEntity
  8
0
  6
PHANTOM
 62
     7
370
    25
100
AcDbLine
 10
192.326721834
 20
100.5228513692
 30
0.0
 11
192.8990294355
 21
100.5228513692
 31
0.0
  0
LINE
  5
C0
330
1F
100
AcDbEntity
  8
0
  6
PHANTOM
 62
     7
370
    25
100
AcDbLine
 10
192.326721834
 20
100.5118630543
 30
0.0
 11
192.326721834
 21
100.5228513692
 31
0.0
  0
LINE
  5
C1
330
1F
100
AcDbEntity
  8
0
  6
PHANTOM
 62
     7
370
    25
100
AcDbLine
 10
192.326721834
 20
100.5118630543
 30
0.0
 11
192.2185681074
 21
100.5118630543
 31
0.0
  0
LINE
  5
C2
330
1F
100
AcDbEntity
  8
0
  6
PHANTOM
 62
     7
370
    25
100
AcDbLine
 10
192.2185681074
 20
100.5118630543
 30
0.0
 11
192.2185681074
 21
100.5228513692
 31
0.0
  0
LINE
  5
C3
330
1F
100
AcDbEntity
  8
0
  6
PHANTOM
 62
     7
370
    25
100
AcDbLine
 10
191.5220916718
 20
100.5228513692
 30
0.0
 11
192.2185681074
 21
100.5228513692
 31
0.0
  0
LINE
  5
C4
330
1F
100
AcDbEntity
  8
0
  6
PHANTOM
 62
     7
370
    25
100
AcDbLine
 10
191.5220916718
 20
100.5118630543
 30
0.0
 11
191.5220916718
 21
100.5228513692
 31
0.0
  0
LINE
  5
C5
330
1F
100
AcDbEntity
  8
0
  6
PHANTOM
 62
     7
370
    25
100
AcDbLine
 10
191.5220916718
 20
100.5118630543
 30
0.0
 11
191.3937054238
 21
100.5118630543
 31
0.0
  0
LINE
  5
C6
330
1F
100
AcDbEntity
  8
0
  6
PHANTOM
 62
     7
370
    25
100
AcDbLine
 10
191.3937054238
 20
100.5118630543
 30
0.0
 11
191.3937054238
 21
100.5228513692
 31
0.0
  0
LINE
  5
C7
330
1F
100
AcDbEntity
  8
0
  6
PHANTOM
 62
     7
370
    25
100
AcDbLine
 10
190.5840440036
 20
100.5228513692
 30
0.0
 11
191.3937054238
 21
100.5228513692
 31
0.0
  0
LINE
  5
C8
330
1F
100
AcDbEntity
  8
0
  6
PHANTOM
 62
     7
370
    25
100
AcDbLine
 10
190.5840440036
 20
100.5118630543
 30
0.0
 11
190.5840440036
 21
100.5228513692
 31
0.0
  0
LINE
  5
C9
330
1F
100
AcDbEntity
  8
0
  6
PHANTOM
 62
     7
370
    25
100
AcDbLine
 10
190.5840440036
 20
100.5118630543
 30
0.0
 11
190.4374499622
 21
100.5118630543
 31
0.0
  0
LINE
  5
CA
330
1F
100
AcDbEntity
  8
0
  6
PHANTOM
 62
     7
370
    25
100
AcDbLine
 10
190.4374499622
 20
100.5118630543
 30
0.0
 11
190.4374499622
 21
100.5228513692
 31
0.0
  0
LINE
  5
CB
330
1F
100
AcDbEntity
  8
0
  6
PHANTOM
 62
     7
370
    25
100
AcDbLine
 10
189.5273724016
 20
100.5228513692
 30
0.0
 11
190.4374499622
 21
100.5228513692
 31
0.0
  0
LINE
  5
CC
330
1F
100
AcDbEntity
  8
0
  6
PHANTOM
 62
     7
370
    25
100
AcDbLine
 10
189.5273724016
 20
100.5118630543
 30
0.0
 11
189.5273724016
 21
100.5228513692
 31
0.0
  0
LINE
  5
CD
330
1F
100
AcDbEntity
  8
0
  6
PHANTOM
 62
     7
370
    25
100
AcDbLine
 10
189.5273724016
 20
100.5118630543
 30
0.0
 11
189.3648824423
 21
100.5118630543
 31
0.0
  0
LINE
  5
CE
330
1F
100
AcDbEntity
  8
0
  6
PHANTOM
 62
     7
370
    25
100
AcDbLine
 10
189.3648824423
 20
100.5118630543
 30
0.0
 11
189.3648824423
 21
100.5228513692
 31
0.0
  0
LINE
  5
CF
330
1F
100
AcDbEntity
  8
0
  6
PHANTOM
 62
     7
370
    25
100
AcDbLine
 10
188.3687412081
 20
100.5228513692
 30
0.0
 11
189.3648824423
 21
100.5228513692
 31
0.0
  0
LINE
  5
D0
330
1F
100
AcDbEntity
  8
0
  6
PHANTOM
 62
     7
370
    25
100
AcDbLine
 10
188.3687412081
 20
100.5118630543
 30
0.0
 11
188.3687412081
 21
100.5228513692
 31
0.0
  0
LINE
  5
D1
330
1F
100
AcDbEntity
  8
0
  6
PHANTOM
 62
     7
370
    25
100
AcDbLine
 10
188.3687412081
 20
100.5118630543
 30
0.0
 11
188.1929178947
 21
100.5118630543
 31
0.0
  0
LINE
  5
D2
330
1F
100
AcDbEntity
  8
0
  6
PHANTOM
 62
     7
370
    25
100
AcDbLine
 10
188.1929178947
 20
100.5118630543
 30
0.0
 11
188.1929178947
 21
100.5228513692
 31
0.0
  0
LINE
  5
D3
330
1F
100
AcDbEntity
  8
0
  6
PHANTOM
 62
     7
370
    25
100
AcDbLine
 10
187.1264227292
 20
100.5228513692
 30
0.0
 11
188.1929178947
 21
100.5228513692
 31
0.0
  0
LINE
  5
D4
330
1F
100
AcDbEntity
  8
0
  6
PHANTOM
 62
     7
370
    25
100
AcDbLine
 10
187.1264227292
 20
100.5118630543
 30
0.0
 11
187.1264227292
 21
100.5228513692
 31
0.0
  0
LINE
  5
D5
330
1F
100
AcDbEntity
  8
0
  6
PHANTOM
 62
     7
370
    25
100
AcDbLine
 10
187.1264227292
 20
100.5118630543
 30
0.0
 11
186.9400389004
 21
100.5118630543
 31
0.0
  0
LINE
  5
D6
330
1F
100
AcDbEntity
  8
0
  6
PHANTOM
 62
     7
370
    25
100
AcDbLine
 10
186.9400389004
 20
100.5118630543
 30
0.0
 11
186.9400389004
 21
100.5228513692
 31
0.0
  0
LINE
  5
D7
330
1F
100
AcDbEntity
  8
0
  6
PHANTOM
 62
     7
370
    25
100
AcDbLine
 10
185.8200090695
 20
100.5228513692
 30
0.0
 11
186.9400389004
 21
100.5228513692
 31
0.0
  0
LINE
  5
D8
330
1F
100
AcDbEntity
  8
0
  6
PHANTOM
 62
     7
370
    25
100
AcDbLine
 10
185.8200090695
 20
100.5118630543
 30
0.0
 11
185.8200090695
 21
100.5228513692
 31
0.0
  0
LINE
  5
D9
330
1F
100
AcDbEntity
  8
0
  6
PHANTOM
 62
     7
370
    25
100
AcDbLine
 10
185.8200090695
 20
100.5118630543
 30
0.0
 11
185.6260041095
 21
100.5118630543
 31
0.0
  0
LINE
  5
DA
330
1F
100
AcDbEntity
  8
0
  6
PHANTOM
 62
     7
370
    25
100
AcDbLine
 10
185.6260041095
 20
100.5118630543
 30
0.0
 11
185.6260041095
 21
100.5228513692
 31
0.0
  0
LINE
  5
DB
330
1F
100
AcDbEntity
  8
0
  6
PHANTOM
 62
     7
370
    25
100
AcDbLine
 10
184.4701031526
 20
100.5228513692
 30
0.0
 11
185.6260041095
 21
100.5228513692
 31
0.0
  0
LINE
  5
DC
330
1F
100
AcDbEntity
  8
0
  6
PHANTOM
 62
     7
370
    25
100
AcDbLine
 10
184.4701031526
 20
100.5118630543
 30
0.0
 11
184.4701031526
 21
100.5228513692
 31
0.0
  0
LINE
  5
DD
330
1F
100
AcDbEntity
  8
0
  6
PHANTOM
 62
     7
370
    25
100
AcDbLine
 10
184.4701031526
 20
100.5118630543
 30
0.0
 11
184.2715366356
 21
100.5118630543
 31
0.0
  0
LINE
  5
DE
330
1F
100
AcDbEntity
  8
0
  6
PHANTOM
 62
     7
370
    25
100
AcDbLine
 10
184.2715366356
 20
100.5118630543
 30
0.0
 11
184.2715366356
 21
100.5228513692
 31
0.0
  0
LINE
  5
DF
330
1F
100
AcDbEntity
  8
0
  6
PHANTOM
 62
     7
370
    25
100
AcDbLine
 10
183.0979938015
 20
100.5228513692
 30
0.0
 11
184.2715366356
 21
100.5228513692
 31
0.0
  0
LINE
  5
E0
330
1F
100
AcDbEntity
  8
0
  6
PHANTOM
 62
     7
370
    25
100
AcDbLine
 10
183.0979938015
 20
100.5118630543
 30
0.0
 11
183.0979938015
 21
100.5228513692
 31
0.0
  0
LINE
  5
E1
330
1F
100
AcDbEntity
  8
0
  6
PHANTOM
 62
     7
370
    25
100
AcDbLine
 10
183.0979938015
 20
100.5118630543
 30
0.0
 11
182.89799724
 21
100.5118630543
 31
0.0
  0
LINE
  5
E2
330
1F
100
AcDbEntity
  8
0
  6
PHANTOM
 62
     7
370
    25
100
AcDbLine
 10
182.89799724
 20
100.5118630543
 30
0.0
 11
182.89799724
 21
100.5228513692
 31
0.0
  0
LINE
  5
E3
330
1F
100
AcDbEntity
  8
0
  6
PHANTOM
 62
     7
370
    25
100
AcDbLine
 10
181.7253200001
 20
100.5228513692
 30
0.0
 11
182.89799724
 21
100.5228513692
 31
0.0
  0
LINE
  5
E4
330
1F
100
AcDbEntity
  8
0
  6
PHANTOM
 62
     7
370
    25
100
AcDbLine
 10
181.7253200001
 20
100.5118630543
 30
0.0
 11
181.7253200001
 21
100.5228513692
 31
0.0
  0
LINE
  5
E5
330
1F
100
AcDbEntity
  8
0
  6
PHANTOM
 62
     7
370
    25
100
AcDbLine
 10
181.7253200001
 20
100.5118630543
 30
0.0
 11
181.5270474595
 21
100.5118630543
 31
0.0
  0
LINE
  5
E6
330
1F
100
AcDbEntity
  8
0
  6
PHANTOM
 62
     7
370
    25
100
AcDbLine
 10
181.5270474595
 20
100.5118630543
 30
0.0
 11
181.5270474595
 21
100.5228513692
 31
0.0
  0
LINE
  5
E7
330
1F
100
AcDbEntity
  8
0
  6
PHANTOM
 62
     7
370
    25
100
AcDbLine
 10
180.3737296343
 20
100.5228513692
 30
0.0
 11
181.5270474595
 21
100.5228513692
 31
0.0
  0
LINE
  5
E8
330
1F
100
AcDbEntity
  8
0
  6
PHANTOM
 62
     7
370
    25
100
AcDbLine
 10
180.3737296343
 20
100.5118630543
 30
0.0
 11
180.3737296343
 21
100.5228513692
 31
0.0
  0
LINE
  5
E9
330
1F
100
AcDbEntity
  8
0
  6
PHANTOM
 62
     7
370
    25
100
AcDbLine
 10
180.3737296343
 20
100.5118630543
 30
0.0
 11
180.1803079909
 21
100.5118630543
 31
0.0
  0
LINE
  5
EA
330
1F
100
AcDbEntity
  8
0
  6
PHANTOM
 62
     7
370
    25
100
AcDbLine
 10
180.1803079909
 20
100.5118630543
 30
0.0
 11
180.1803079909
 21
100.5228513692
 31
0.0
  0
LINE
  5
EB
330
1F
100
AcDbEntity
  8
0
  6
PHANTOM
 62
     7
370
    25
100
AcDbLine
 10
179.0645380917
 20
100.5228513692
 30
0.0
 11
180.1803079909
 21
100.5228513692
 31
0.0
  0
LINE
  5
EC
330
1F
100
AcDbEntity
  8
0
  6
PHANTOM
 62
     7
370
    25
100
AcDbLine
 10
179.0645380917
 20
100.5118630543
 30
0.0
 11
179.0645380917
 21
100.5228513692
 31
0.0
  0
LINE
  5
ED
330
1F
100
AcDbEntity
  8
0
  6
PHANTOM
 62
     7
370
    25
100
AcDbLine
 10
179.0645380917
 20
100.5118630543
 30
0.0
 11
178.8790177204
 21
100.5118630543
 31
0.0
  0
LINE
  5
EE
330
1F
100
AcDbEntity
  8
0
  6
PHANTOM
 62
     7
370
    25
100
AcDbLine
 10
178.8790177204
 20
100.5118630543
 30
0.0
 11
178.8790177204
 21
100.5228513692
 31
0.0
  0
LINE
  5
EF
330
1F
100
AcDbEntity
  8
0
  6
PHANTOM
 62
     7
370
    25
100
AcDbLine
 10
177.8183921048
 20
100.5228513692
 30
0.0
 11
178.8790177204
 21
100.5228513692
 31
0.0
  0
LINE
  5
F0
330
1F
100
AcDbEntity
  8
0
  6
PHANTOM
 62
     7
370
    25
100
AcDbLine
 10
177.8183921048
 20
100.5118630543
 30
0.0
 11
177.8183921048
 21
100.5228513692
 31
0.0
  0
LINE
  5
F1
330
1F
100
AcDbEntity
  8
0
  6
PHANTOM
 62
     7
370
    25
100
AcDbLine
 10
177.8183921048
 20
100.5118630543
 30
0.0
 11
177.6436987727
 21
100.5118630543
 31
0.0
  0
LINE
  5
F2
330
1F
100
AcDbEntity
  8
0
  6
PHANTOM
 62
     7
370
    25
100
AcDbLine
 10
177.6436987727
 20
100.5118630543
 30
0.0
 11
177.6436987727
 21
100.5228513692
 31
0.0
  0
LINE
  5
F3
330
1F
100
AcDbEntity
  8
0
  6
PHANTOM
 62
     7
370
    25
100
AcDbLine
 10
176.6549441404
 20
100.5228513692
 30
0.0
 11
177.6436987727
 21
100.5228513692
 31
0.0
  0
LINE
  5
F4
330
1F
100
AcDbEntity
  8
0
  6
PHANTOM
 62
     7
370
    25
100
AcDbLine
 10
176.6549441404
 20
100.5118630543
 30
0.0
 11
176.6549441404
 21
100.5228513692
 31
0.0
  0
LINE
  5
F5
330
1F
100
AcDbEntity
  8
0
  6
PHANTOM
 62
     7
370
    25
100
AcDbLine
 10
176.6549441404
 20
100.5118630543
 30
0.0
 11
176.4938328656
 21
100.5118630543
 31
0.0
  0
LINE
  5
F6
330
1F
100
AcDbEntity
  8
0
  6
PHANTOM
 62
     7
370
    25
100
AcDbLine
 10
176.4938328656
 20
100.5118630543
 30
0.0
 11
176.4938328656
 21
100.5228513692
 31
0.0
  0
LINE
  5
F7
330
1F
100
AcDbEntity
  8
0
  6
PHANTOM
 62
     7
370
    25
100
AcDbLine
 10
175.5925424677
 20
100.5228513692
 30
0.0
 11
176.4938328656
 21
100.5228513692
 31
0.0
  0
LINE
  5
F8
330
1F
100
AcDbEntity
  8
0
  6
PHANTOM
 62
     7
370
    25
100
AcDbLine
 10
175.5925424677
 20
100.5118630543
 30
0.0
 11
175.5925424677
 21
100.5228513692
 31
0.0
  0
LINE
  5
F9
330
1F
100
AcDbEntity
  8
0
  6
PHANTOM
 62
     7
370
    25
100
AcDbLine
 10
175.5925424677
 20
100.5118630543
 30
0.0
 11
175.4475540714
 21
100.5118630543
 31
0.0
  0
LINE
  5
FA
330
1F
100
AcDbEntity
  8
0
  6
PHANTOM
 62
     7
370
    25
100
AcDbLine
 10
175.4475540714
 20
100.5118630543
 30
0.0
 11
175.4475540714
 21
100.5228513692
 31
0.0
  0
LINE
  5
FB
330
1F
100
AcDbEntity
  8
0
  6
PHANTOM
 62
     7
370
    25
100
AcDbLine
 10
174.647941796
 20
100.5228513692
 30
0.0
 11
175.4475540714
 21
100.5228513692
 31
0.0
  0
LINE
  5
FC
330
1F
100
AcDbEntity
  8
0
  6
PHANTOM
 62
     7
370
    25
100
AcDbLine
 10
174.647941796
 20
100.5118630543
 30
0.0
 11
174.647941796
 21
100.5228513692
 31
0.0
  0
LINE
  5
FD
330
1F
100
AcDbEntity
  8
0
  6
PHANTOM
 62
     7
370
    25
100
AcDbLine
 10
174.647941796
 20
100.5118630543
 30
0.0
 11
174.5213628317
 21
100.5118630543
 31
0.0
  0
LINE
  5
FE
330
1F
100
AcDbEntity
  8
0
  6
PHANTOM
 62
     7
370
    25
100
AcDbLine
 10
174.5213628317
 20
100.5118630543
 30
0.0
 11
174.5213628317
 21
100.5228513692
 31
0.0
  0
LINE
  5
FF
330
1F
100
AcDbEntity
  8
0
  6
PHANTOM
 62
     7
370
    25
100
AcDbLine
 10
173.8360390419
 20
100.5228513692
 30
0.0
 11
174.5213628317
 21
100.5228513692
 31
0.0
  0
LINE
  5
100
330
1F
100
AcDbEntity
  8
0
  6
PHANTOM
 62
     7
370
    25
100
AcDbLine
 10
173.8360390419
 20
100.5118630543
 30
0.0
 11
173.8360390419
 21
100.5228513692
 31
0.0
  0
LINE
  5
101
330
1F
100
AcDbEntity
  8
0
  6
PHANTOM
 62
     7
370
    25
100
AcDbLine
 10
173.8360390419
 20
100.5118630543
 30
0.0
 11
173.7298657356
 21
100.5118630543
 31
0.0
  0
LINE
  5
102
330
1F
100
AcDbEntity
  8
0
  6
PHANTOM
 62
     7
370
    25
100
AcDbLine
 10
173.7298657356
 20
100.5118630543
 30
0.0
 11
173.7298657356
 21
100.5228513692
 31
0.0
  0
LINE
  5
103
330
1F
100
AcDbEntity
  8
0
  6
PHANTOM
 62
     7
370
    25
100
AcDbLine
 10
173.1696383971
 20
100.5228513692
 30
0.0
 11
173.7298657356
 21
100.5228513692
 31
0.0
  0
LINE
  5
104
330
1F
100
AcDbEntity
  8
0
  6
PHANTOM
 62
     7
370
    25
100
AcDbLine
 10
173.1696383971
 20
100.5118630543
 30
0.0
 11
173.1696383971
 21
100.5228513692
 31
0.0
  0
LINE
  5
105
330
1F
100
AcDbEntity
  8
0
  6
PHANTOM
 62
     7
370
    25
100
AcDbLine
 10
173.1696383971
 20
100.5118630543
 30
0.0
 11
173.0855451651
 21
100.5118630543
 31
0.0
  0
LINE
  5
106
330
1F
100
AcDbEntity
  8
0
  6
PHANTOM
 62
     7
370
    25
100
AcDbLine
 10
173.0855451651
 20
100.5118630543
 30
0.0
 11
173.0855451651
 21
100.5228513692
 31
0.0
  0
LINE
  5
107
330
1F
100
AcDbEntity
  8
0
  6
PHANTOM
 62
     7
370
    25
100
AcDbLine
 10
172.6592493976
 20
100.5228513692
 30
0.0
 11
173.0855451651
 21
100.5228513692
 31
0.0
  0
LINE
  5
108
330
1F
100
AcDbEntity
  8
0
  6
PHANTOM
 62
     7
370
    25
100
AcDbLine
 10
172.6592493976
 20
100.5118630543
 30
0.0
 11
172.6592493976
 21
100.5228513692
 31
0.0
  0
LINE
  5
109
330
1F
100
AcDbEntity
  8
0
  6
PHANTOM
 62
     7
370
    25
100
AcDbLine
 10
172.6592493976
 20
100.5118630543
 30
0.0
 11
172.5985624405
 21
100.5118630543
 31
0.0
  0
LINE
  5
10A
330
1F
100
AcDbEntity
  8
0
  6
PHANTOM
 62
     7
370
    25
100
AcDbLine
 10
172.5985624405
 20
100.5118630543
 30
0.0
 11
172.5985624405
 21
100.5228513692
 31
0.0
  0
LINE
  5
10B
330
1F
100
AcDbEntity
  8
0
  6
PHANTOM
 62
     7
370
    25
100
AcDbLine
 10
172.312921183
 20
100.5228513692
 30
0.0
 11
172.5985624405
 21
100.5228513692
 31
0.0
  0
LINE
  5
10C
330
1F
100
AcDbEntity
  8
0
  6
PHANTOM
 62
     7
370
    25
100
AcDbLine
 10
172.312921183
 20
100.5118630543
 30
0.0
 11
172.312921183
 21
100.5228513692
 31
0.0
  0
LINE
  5
10D
330
1F
100
AcDbEntity
  8
0
  6
PHANTOM
 62
     7
370
    25
100
AcDbLine
 10
172.312921183
 20
100.5118630543
 30
0.0
 11
172.2765975704
 21
100.5118630543
 31
0.0
  0
LINE
  5
10E
330
1F
100
AcDbEntity
  8
0
  6
PHANTOM
 62
     7
370
    25
100
AcDbLine
 10
172.2765975704
 20
100.5118630543
 30
0.0
 11
172.2765975704
 21
100.5228513692
 31
0.0
  0
LINE
  5
10F
330
1F
100
AcDbEntity
  8
0
  6
PHANTOM
 62
     7
370
    25
100
AcDbLine
 10
172.1361155561
 20
100.5228513692
 30
0.0
 11
172.2765975704
 21
100.5228513692
 31
0.0
  0
LINE
  5
110
330
1F
100
AcDbEntity
  8
0
  6
PHANTOM
 62
     7
370
    25
100
AcDbLine
 10
172.1361155561
 20
100.5118630543
 30
0.0
 11
172.1361155561
 21
100.5228513692
 31
0.0
  0
LINE
  5
111
330
1F
100
AcDbEntity
  8
0
  6
PHANTOM
 62
     7
370
    25
100
AcDbLine
 10
172.1361155561
 20
100.5118630543
 30
0.0
 11
172.124728133
 21
100.5118630543
 31
0.0
  0
LINE
  5
112
330
1F
100
AcDbEntity
  8
0
  6
PHANTOM
 62
     7
370
    25
100
AcDbLine
 10
172.124728133
 20
100.5118630543
 30
0.0
 11
172.124728133
 21
100.5228513692
 31
0.0
  0
LINE
  5
113
330
1F
100
AcDbEntity
  8
0
  6
PHANTOM
 62
     7
370
    25
100
AcDbLine
 10
172.1122024992
 20
100.5228513692
 30
0.0
 11
172.124728133
 21
100.5228513692
 31
0.0
  0
LINE
  5
114
330
1F
100
AcDbEntity
  8
0
  6
PHANTOM
 62
     7
370
    25
100
AcDbLine
 10
177.1622024992
 20
98.2228513692
 30
0.0
 11
188.9622024992
 21
98.2228513692
 31
0.0
  0
LINE
  5
115
330
1F
100
AcDbEntity
  8
0
  6
PHANTOM
 62
     7
370
    25
100
AcDbLine
 10
172.1361155561
 20
100.5228513692
 30
0.0
 11
173.6332263162
 21
99.8399240221
 31
0.0
  0
LINE
  5
116
330
1F
100
AcDbEntity
  8
0
  6
PHANTOM
 62
     7
370
    25
100
AcDbLine
 10
172.312921183
 20
100.5228513692
 30
0.0
 11
173.787525867
 21
99.8399240221
 31
0.0
  0
LWPOLYLINE
  5
117
330
1F
100
AcDbEntity
  8
0
  6
PHANTOM
 62
     7
370
    25
100
AcDbPolyline
 90
        3
 70
   128
 43
0.0
 10
172.6592493976
 20
100.5228513692
 10
173.0090892771
 20
100.3556416612
 10
175.0409448171
 20
99.3845069927
  0
LINE
  5
118
330
1F
100
AcDbEntity
  8
0
  6
PHANTOM
 62
     7
370
    25
100
AcDbLine
 10
173.1696383971
 20
100.5228513692
 30
0.0
 11
174.5301864243
 21
99.8399240221
 31
0.0
  0
LINE
  5
119
330
1F
100
AcDbEntity
  8
0
  6
PHANTOM
 62
     7
370
    25
100
AcDbLine
 10
173.8360390419
 20
100.5228513692
 30
0.0
 11
175.1068352302
 21
99.8399240221
 31
0.0
  0
LINE
  5
11A
330
1F
100
AcDbEntity
  8
0
  6
PHANTOM
 62
     7
370
    25
100
AcDbLine
 10
174.647941796
 20
100.5228513692
 30
0.0
 11
175.8089449302
 21
99.8399240221
 31
0.0
  0
LINE
  5
11B
330
1F
100
AcDbEntity
  8
0
  6
PHANTOM
 62
     7
370
    25
100
AcDbLine
 10
175.5925424677
 20
100.5228513692
 30
0.0
 11
176.6254428349
 21
99.8399240221
 31
0.0
  0
LWPOLYLINE
  5
11C
330
1F
100
AcDbEntity
  8
0
  6
PHANTOM
 62
     7
370
    25
100
AcDbPolyline
 90
        3
 70
   128
 43
0.0
 10
176.6549441404
 20
100.5228513692
 10
176.8724876607
 20
100.3556416612
 10
178.1359714224
 20
99.3845069927
  0
LINE
  5
11D
330
1F
100
AcDbEntity
  8
0
  6
PHANTOM
 62
     7
370
    25
100
AcDbLine
 10
177.8183921048
 20
100.5228513692
 30
0.0
 11
178.5484957221
 21
99.8399240221
 31
0.0
  0
LINE
  5
11E
330
1F
100
AcDbEntity
  8
0
  6
PHANTOM
 62
     7
370
    25
100
AcDbLine
 10
179.0645380917
 20
100.5228513692
 30
0.0
 11
179.6247230117
 21
99.8399240221
 31
0.0
  0
LINE
  5
11F
330
1F
100
AcDbEntity
  8
0
  6
PHANTOM
 62
     7
370
    25
100
AcDbLine
 10
180.3737296343
 20
100.5228513692
 30
0.0
 11
180.7551614063
 21
99.8399240221
 31
0.0
  0
LINE
  5
120
330
1F
100
AcDbEntity
  8
0
  6
PHANTOM
 62
     7
370
    25
100
AcDbLine
 10
181.7253200001
 20
100.5228513692
 30
0.0
 11
181.9219832171
 21
99.8399240221
 31
0.0
  0
LWPOLYLINE
  5
121
330
1F
100
AcDbEntity
  8
0
  6
PHANTOM
 62
     7
370
    25
100
AcDbPolyline
 90
        3
 70
   128
 43
0.0
 10
183.0979938015
 20
100.5228513692
 10
183.1001467319
 20
100.3556416612
 10
183.1126508627
 20
99.3845069927
  0
LINE
  5
122
330
1F
100
AcDbEntity
  8
0
  6
PHANTOM
 62
     7
370
    25
100
AcDbLine
 10
184.0923210764
 20
99.8399240221
 30
0.0
 11
184.2715366356
 21
100.5228513692
 31
0.0
  0
LINE
  5
123
330
1F
100
AcDbEntity
  8
0
  6
PHANTOM
 62
     7
370
    25
100
AcDbLine
 10
185.2616061619
 20
99.8399240221
 30
0.0
 11
185.6260041095
 21
100.5228513692
 31
0.0
  0
LINE
  5
124
330
1F
100
AcDbEntity
  8
0
  6
PHANTOM
 62
     7
370
    25
100
AcDbLine
 10
186.3962053377
 20
99.8399240221
 30
0.0
 11
186.9400389004
 21
100.5228513692
 31
0.0
  0
LINE
  5
125
330
1F
100
AcDbEntity
  8
0
  6
PHANTOM
 62
     7
370
    25
100
AcDbLine
 10
187.4782252971
 20
99.8399240221
 30
0.0
 11
188.1929178947
 21
100.5228513692
 31
0.0
  0
LWPOLYLINE
  5
126
330
1F
100
AcDbEntity
  8
0
  6
PHANTOM
 62
     7
370
    25
100
AcDbPolyline
 90
        3
 70
   128
 43
0.0
 10
187.9075707834
 20
99.3845069927
 10
189.1508224366
 20
100.3556416612
 10
189.3648824423
 20
100.5228513692
  0
LINE
  5
127
330
1F
100
AcDbEntity
  8
0
  6
PHANTOM
 62
     7
370
    25
100
AcDbLine
 10
189.4173694789
 20
99.8399240221
 30
0.0
 11
190.4374499622
 21
100.5228513692
 31
0.0
  0
LINE
  5
128
330
1F
100
AcDbEntity
  8
0
  6
PHANTOM
 62
     7
370
    25
100
AcDbLine
 10
190.2439122391
 20
99.8399240221
 30
0.0
 11
191.3937054238
 21
100.5228513692
 31
0.0
  0
LINE
  5
129
330
1F
100
AcDbEntity
  8
0
  6
PHANTOM
 62
     7
370
    25
100
AcDbLine
 10
190.9571951467
 20
99.8399240221
 30
0.0
 11
192.2185681074
 21
100.5228513692
 31
0.0
  0
LINE
  5
12A
330
1F
100
AcDbEntity
  8
0
  6
PHANTOM
 62
     7
370
    25
100
AcDbLine
 10
191.5459693039
 20
99.8399240221
 30
0.0
 11
192.8990294355
 21
100.5228513692
 31
0.0
  0
LWPOLYLINE
  5
12B
330
1F
100
AcDbEntity
  8
0
  6
PHANTOM
 62
     7
370
    25
100
AcDbPolyline
 90
        3
 70
   128
 43
0.0
 10
191.0517212691
 20
99.3845069927
 10
193.0758488313
 20
100.3556416612
 10
193.4243581266
 20
100.5228513692
  0
LINE
  5
12C
330
1F
100
AcDbEntity
  8
0
  6
PHANTOM
 62
     7
370
    25
100
AcDbLine
 10
192.3149600992
 20
99.8399240221
 30
0.0
 11
193.7862694334
 21
100.5228513692
 31
0.0
  0
LINE
  5
12D
330
1F
100
AcDbEntity
  8
0
  6
PHANTOM
 62
     7
370
    25
100
AcDbLine
 10
192.4830492931
 20
99.8399240221
 30
0.0
 11
193.9790557984
 21
100.5228513692
 31
0.0
  0
SPLINE
  5
12E
330
1F
100
AcDbEntity
  8
0
  6
PHANTOM
 62
     7
370
    25
100
AcDbSpline
210
0.0
220
0.0
230
1.0
 70
     8
 71
     3
 72
    10
 73
     6
 74
     0
 42
0.000000001
 43
0.00000001
 40
0.0
 40
0.0
 40
0.0
 40
0.0
 40
0.2461079990924498
 40
0.7427085220997477
 40
1.0
 40
1.0
 40
1.0
 40
1.0
 10
188.7920418811082
 20
98.87292226778584
 30
0.0
 10
188.7362645971159
 20
98.88011997637848
 30
0.0
 10
188.5679390477092
 20
98.901841332576
 30
0.0
 10
188.4524188715783
 20
98.99936614101019
 30
0.0
 10
188.4456365695568
 20
99.10187641367358
 30
0.0
 10
188.4433218765921
 20
99.13686155679986
 30
0.0
  0
LINE
  5
12F
330
1F
100
AcDbEntity
  8
0
  6
PHANTOM
 62
     7
370
    25
100
AcDbLine
 10
188.4433218766
 20
99.1368615568
 30
0.0
 11
188.0592473911
 21
99.1160726744
 31
0.0
  0
LINE
  5
130
330
1F
100
AcDbEntity
  8
0
  6
PHANTOM
 62
     7
370
    25
100
AcDbLine
 10
188.0592473911
 20
99.1160726744
 30
0.0
 11
188.0563859079
 21
99.0470333133
 31
0.0
  0
SPLINE
  5
131
330
1F
100
AcDbEntity
  8
0
  6
PHANTOM
 62
     7
370
    25
100
AcDbSpline
210
0.0
220
0.0
230
1.0
 70
     8
 71
     3
 72
     9
 73
     5
 74
     0
 42
0.000000001
 43
0.00000001
 40
0.0
 40
0.0
 40
0.0
 40
0.0
 40
0.4976414611734208
 40
1.0
 40
1.0
 40
1.0
 40
1.0
 10
188.1457304694327
 20
98.84066410851368
 30
0.0
 10
187.7256999300501
 20
98.81727739852009
 30
0.0
 10
186.881657437304
 20
98.77028229899912
 30
0.0
 10
186.0409678361344
 20
98.87422114623571
 30
0.0
 10
185.6186402364842
 20
98.92643571366081
 30
0.0
  0
LINE
  5
132
330
1F
100
AcDbEntity
  8
0
  6
PHANTOM
 62
     7
370
    25
100
AcDbLine
 10
185.6186402365
 20
98.9264357137
 30
0.0
 11
185.422373196
 21
98.7792141072
 31
0.0
  0
LINE
  5
133
330
1F
100
AcDbEntity
  8
0
  6
PHANTOM
 62
     7
370
    25
100
AcDbLine
 10
178.0661047363
 20
98.5093868633
 30
0.0
 11
177.296481916
 21
99.0873911512
 31
0.0
  0
SPLINE
  5
134
330
1F
100
AcDbEntity
  8
0
  6
PHANTOM
 62
     7
370
    25
100
AcDbSpline
210
0.0
220
0.0
230
1.0
 70
     8
 71
     3
 72
    10
 73
     6
 74
     0
 42
0.000000001
 43
0.00000001
 40
0.0
 40
0.0
 40
0.0
 40
0.0
 40
0.0557987721558034
 40
0.6215420605629185
 40
1.0
 40
1.0
 40
1.0
 40
1.0
 10
180.5283450919583
 20
98.72215489357328
 30
0.0
 10
180.5297480911637
 20
98.72567962507404
 30
0.0
 10
180.5453760876848
 20
98.76494158004654
 30
0.0
 10
180.490692261335
 20
98.84146149700773
 30
0.0
 10
180.4112169337934
 20
98.90754174740627
 30
0.0
 10
180.3793613633806
 20
98.93402825755456
 30
0.0
  0
SPLINE
  5
135
330
1F
100
AcDbEntity
  8
0
  6
PHANTOM
 62
     7
370
    25
100
AcDbSpline
210
0.0
220
0.0
230
1.0
 70
     8
 71
     3
 72
    12
 73
     8
 74
     0
 42
0.000000001
 43
0.00000001
 40
0.0
 40
0.0
 40
0.0
 40
0.0
 40
0.2094872063929239
 40
0.3668716160318077
 40
0.5239901306351306
 40
0.7568734330960687
 40
0.9999999999999999
 40
0.9999999999999999
 40
0.9999999999999999
 40
0.9999999999999999
 10
180.3793613633806
 20
98.93402825755456
 30
0.0
 10
180.3081904295578
 20
98.98002016692983
 30
0.0
 10
180.1835499039829
 20
99.06056506705728
 30
0.0
 10
179.9181462224379
 20
99.1490751928268
 30
0.0
 10
179.6190474007663
 20
99.20961807139197
 30
0.0
 10
179.2770131063237
 20
99.23881483319464
 30
0.0
 10
179.0507580014234
 20
99.23702808921973
 30
0.0
 10
178.9351960552557
 20
99.23611549274536
 30
0.0
  0
SPLINE
  5
136
330
1F
100
AcDbEntity
  8
0
  6
PHANTOM
 62
     7
370
    25
100
AcDbSpline
210
0.0
220
0.0
230
1.0
 70
     8
 71
     3
 72
    11
 73
     7
 74
     0
 42
0.000000001
 43
0.00000001
 40
0.0
 40
0.0
 40
0.0
 40
0.0
 40
0.1491221568561032
 40
0.4632532148399277
 40
0.7825052520591359
 40
1.0
 40
1.0
 40
1.0
 40
1.0
 10
180.128967930186
 20
98.77520329643552
 30
0.0
 10
180.1309521653927
 20
98.76139522699181
 30
0.0
 10
180.1371162617141
 20
98.7184999745666
 30
0.0
 10
180.0608526872565
 20
98.66463670903708
 30
0.0
 10
179.9430533208694
 20
98.62439556352057
 30
0.0
 10
179.8444967943573
 20
98.61438062278496
 30
0.0
 10
179.804560780795
 20
98.61032247642777
 30
0.0
  0
SPLINE
  5
137
330
1F
100
AcDbEntity
  8
0
  6
PHANTOM
 62
     7
370
    25
100
AcDbSpline
210
0.0
220
0.0
230
1.0
 70
     8
 71
     3
 72
    10
 73
     6
 74
     0
 42
0.000000001
 43
0.00000001
 40
0.0
 40
0.0
 40
0.0
 40
0.0
 40
0.2401814935760034
 40
0.5791286744516242
 40
1.0
 40
1.0
 40
1.0
 40
1.0
 10
179.804560780795
 20
98.61032247642777
 30
0.0
 10
179.6858396541418
 20
98.61126702624104
 30
0.0
 10
179.3995777624183
 20
98.61354453677346
 30
0.0
 10
178.8399163038318
 20
98.74559211347642
 30
0.0
 10
178.4366046651182
 20
98.8692917290641
 30
0.0
 10
178.2132061790859
 20
98.93781022491811
 30
0.0
  0
SPLINE
  5
138
330
1F
100
AcDbEntity
  8
0
  6
PHANTOM
 62
     7
370
    25
100
AcDbSpline
210
0.0
220
0.0
230
1.0
 70
     8
 71
     3
 72
    10
 73
     6
 74
     0
 42
0.000000001
 43
0.00000001
 40
0.0
 40
0.0
 40
0.0
 40
0.0
 40
0.4904370109829188
 40
0.7421702457321473
 40
0.9999999999999999
 40
0.9999999999999999
 40
0.9999999999999999
 40
0.9999999999999999
 10
178.2132061790859
 20
98.93781022491811
 30
0.0
 10
178.0008821528126
 20
99.00510965421321
 30
0.0
 10
177.679575703207
 20
99.10695277139047
 30
0.0
 10
177.2425360311515
 20
99.23098349213763
 30
0.0
 10
177.0279354794312
 20
99.28008341861837
 30
0.0
 10
176.919351440346
 20
99.30492710281828
 30
0.0
  0
SPLINE
  5
139
330
1F
100
AcDbEntity
  8
0
  6
PHANTOM
 62
     7
370
    25
100
AcDbSpline
210
0.0
220
0.0
230
1.0
 70
     8
 71
     3
 72
    10
 73
     6
 74
     0
 42
0.000000001
 43
0.00000001
 40
0.0
 40
0.0
 40
0.0
 40
0.0
 40
0.4955501630525795
 40
0.7470128390127833
 40
1.0
 40
1.0
 40
1.0
 40
1.0
 10
176.919351440346
 20
99.30492710281828
 30
0.0
 10
176.8683807656443
 20
99.3152531297411
 30
0.0
 10
176.7915454596467
 20
99.3308190103773
 30
0.0
 10
176.6940548566411
 20
99.34706014414552
 30
0.0
 10
176.6478051509282
 20
99.35315375128653
 30
0.0
 10
176.6246104130419
 20
99.35620976252467
 30
0.0
  0
SPLINE
  5
13A
330
1F
100
AcDbEntity
  8
0
  6
PHANTOM
 62
     7
370
    25
100
AcDbSpline
210
0.0
220
0.0
230
1.0
 70
     8
 71
     3
 72
     9
 73
     5
 74
     0
 42
0.000000001
 43
0.00000001
 40
0.0
 40
0.0
 40
0.0
 40
0.0
 40
0.5000000000000002
 40
1.0
 40
1.0
 40
1.0
 40
1.0
 10
182.9126543012251
 20
99.37351867783589
 30
0.0
 10
182.9459870614657
 20
99.3733839353509
 30
0.0
 10
183.0126525819468
 20
99.37311445038092
 30
0.0
 10
183.0793181024279
 20
99.3733839353509
 30
0.0
 10
183.1126508626685
 20
99.37351867783589
 30
0.0
  0
LWPOLYLINE
  5
13B
330
1F
100
AcDbEntity
  8
0
  6
PHANTOM
 62
     7
370
    25
100
AcDbPolyline
 90
        3
 70
   128
 43
0.0
 10
182.89799724
 20
100.5118630543
 10
182.9115544524
 20
99.4589374792
 10
182.9126543012
 20
99.3735186778
  0
LWPOLYLINE
  5
13C
330
1F
100
AcDbEntity
  8
0
  6
PHANTOM
 62
     7
370
    25
100
AcDbPolyline
 90
        3
 70
   128
 43
0.0
 10
183.1126508627
 20
99.3735186778
 10
183.1115510139
 20
99.4589374792
 10
183.0979938015
 20
100.5118630543
  0
LINE
  5
13D
330
1F
100
AcDbEntity
  8
0
  6
PHANTOM
 62
     7
370
    25
100
AcDbLine
 10
183.1126508627
 20
99.3735186778
 30
0.0
 11
183.1126508627
 21
99.3845069927
 31
0.0
  0
LINE
  5
13E
330
1F
100
AcDbEntity
  8
0
  6
PHANTOM
 62
     7
370
    25
100
AcDbLine
 10
181.7237106765
 20
99.8289357072
 30
0.0
 11
181.9219832171
 21
99.8289357072
 31
0.0
  0
LINE
  5
13F
330
1F
100
AcDbEntity
  8
0
  6
PHANTOM
 62
     7
370
    25
100
AcDbLine
 10
181.5270474595
 20
100.5118630543
 30
0.0
 11
181.7237106765
 21
99.8289357072
 31
0.0
  0
LINE
  5
140
330
1F
100
AcDbEntity
  8
0
  6
PHANTOM
 62
     7
370
    25
100
AcDbLine
 10
181.9219832171
 20
99.8289357072
 30
0.0
 11
181.7253200001
 21
100.5118630543
 31
0.0
  0
LINE
  5
141
330
1F
100
AcDbEntity
  8
0
  6
PHANTOM
 62
     7
370
    25
100
AcDbLine
 10
184.0923210764
 20
99.8289357072
 30
0.0
 11
184.2908875935
 21
99.8289357072
 31
0.0
  0
LINE
  5
142
330
1F
100
AcDbEntity
  8
0
  6
PHANTOM
 62
     7
370
    25
100
AcDbLine
 10
184.2715366356
 20
100.5118630543
 30
0.0
 11
184.0923210764
 21
99.8289357072
 31
0.0
  0
LINE
  5
143
330
1F
100
AcDbEntity
  8
0
  6
PHANTOM
 62
     7
370
    25
100
AcDbLine
 10
184.2908875935
 20
99.8289357072
 30
0.0
 11
184.4701031526
 21
100.5118630543
 31
0.0
  0
LINE
  5
144
330
1F
100
AcDbEntity
  8
0
  6
PHANTOM
 62
     7
370
    25
100
AcDbLine
 10
184.0923210764
 20
99.8289357072
 30
0.0
 11
184.0923210764
 21
99.8399240221
 31
0.0
  0
LINE
  5
145
330
1F
100
AcDbEntity
  8
0
  6
PHANTOM
 62
     7
370
    25
100
AcDbLine
 10
181.9219832171
 20
99.8289357072
 30
0.0
 11
181.9219832171
 21
99.8399240221
 31
0.0
  0
LINE
  5
146
330
1F
100
AcDbEntity
  8
0
  6
PHANTOM
 62
     7
370
    25
100
AcDbLine
 10
180.5617397629
 20
99.8289357072
 30
0.0
 11
180.7551614063
 21
99.8289357072
 31
0.0
  0
LINE
  5
147
330
1F
100
AcDbEntity
  8
0
  6
PHANTOM
 62
     7
370
    25
100
AcDbLine
 10
180.1803079909
 20
100.5118630543
 30
0.0
 11
180.5617397629
 21
99.8289357072
 31
0.0
  0
LINE
  5
148
330
1F
100
AcDbEntity
  8
0
  6
PHANTOM
 62
     7
370
    25
100
AcDbLine
 10
180.7551614063
 20
99.8289357072
 30
0.0
 11
180.3737296343
 21
100.5118630543
 31
0.0
  0
LINE
  5
149
330
1F
100
AcDbEntity
  8
0
  6
PHANTOM
 62
     7
370
    25
100
AcDbLine
 10
185.2616061619
 20
99.8289357072
 30
0.0
 11
185.4556111219
 21
99.8289357072
 31
0.0
  0
LINE
  5
14A
330
1F
100
AcDbEntity
  8
0
  6
PHANTOM
 62
     7
370
    25
100
AcDbLine
 10
185.6260041095
 20
100.5118630543
 30
0.0
 11
185.2616061619
 21
99.8289357072
 31
0.0
  0
LINE
  5
14B
330
1F
100
AcDbEntity
  8
0
  6
PHANTOM
 62
     7
370
    25
100
AcDbLine
 10
185.4556111219
 20
99.8289357072
 30
0.0
 11
185.8200090695
 21
100.5118630543
 31
0.0
  0
LINE
  5
14C
330
1F
100
AcDbEntity
  8
0
  6
PHANTOM
 62
     7
370
    25
100
AcDbLine
 10
185.2616061619
 20
99.8289357072
 30
0.0
 11
185.2616061619
 21
99.8399240221
 31
0.0
  0
LINE
  5
14D
330
1F
100
AcDbEntity
  8
0
  6
PHANTOM
 62
     7
370
    25
100
AcDbLine
 10
180.7551614063
 20
99.8289357072
 30
0.0
 11
180.7551614063
 21
99.8399240221
 31
0.0
  0
LINE
  5
14E
330
1F
100
AcDbEntity
  8
0
  6
PHANTOM
 62
     7
370
    25
100
AcDbLine
 10
186.3962053377
 20
99.8289357072
 30
0.0
 11
186.5825891665
 21
99.8289357072
 31
0.0
  0
LINE
  5
14F
330
1F
100
AcDbEntity
  8
0
  6
PHANTOM
 62
     7
370
    25
100
AcDbLine
 10
186.9400389004
 20
100.5118630543
 30
0.0
 11
186.3962053377
 21
99.8289357072
 31
0.0
  0
LINE
  5
150
330
1F
100
AcDbEntity
  8
0
  6
PHANTOM
 62
     7
370
    25
100
AcDbLine
 10
186.5825891665
 20
99.8289357072
 30
0.0
 11
187.1264227292
 21
100.5118630543
 31
0.0
  0
LINE
  5
151
330
1F
100
AcDbEntity
  8
0
  6
PHANTOM
 62
     7
370
    25
100
AcDbLine
 10
186.3962053377
 20
99.8289357072
 30
0.0
 11
186.3962053377
 21
99.8399240221
 31
0.0
  0
LINE
  5
152
330
1F
100
AcDbEntity
  8
0
  6
PHANTOM
 62
     7
370
    25
100
AcDbLine
 10
179.4392026404
 20
99.8289357072
 30
0.0
 11
179.6247230117
 21
99.8289357072
 31
0.0
  0
LINE
  5
153
330
1F
100
AcDbEntity
  8
0
  6
PHANTOM
 62
     7
370
    25
100
AcDbLine
 10
178.8790177204
 20
100.5118630543
 30
0.0
 11
179.4392026404
 21
99.8289357072
 31
0.0
  0
LINE
  5
154
330
1F
100
AcDbEntity
  8
0
  6
PHANTOM
 62
     7
370
    25
100
AcDbLine
 10
179.6247230117
 20
99.8289357072
 30
0.0
 11
179.0645380917
 21
100.5118630543
 31
0.0
  0
LINE
  5
155
330
1F
100
AcDbEntity
  8
0
  6
PHANTOM
 62
     7
370
    25
100
AcDbLine
 10
179.6247230117
 20
99.8289357072
 30
0.0
 11
179.6247230117
 21
99.8399240221
 31
0.0
  0
LINE
  5
156
330
1F
100
AcDbEntity
  8
0
  6
PHANTOM
 62
     7
370
    25
100
AcDbLine
 10
188.1929178947
 20
100.5118630543
 30
0.0
 11
187.4782252971
 21
99.8289357072
 31
0.0
  0
LINE
  5
157
330
1F
100
AcDbEntity
  8
0
  6
PHANTOM
 62
     7
370
    25
100
AcDbLine
 10
187.4782252971
 20
99.8289357072
 30
0.0
 11
187.4782252971
 21
99.8399240221
 31
0.0
  0
LINE
  5
158
330
1F
100
AcDbEntity
  8
0
  6
PHANTOM
 62
     7
370
    25
100
AcDbLine
 10
187.4782252971
 20
99.8289357072
 30
0.0
 11
187.6540486105
 21
99.8289357072
 31
0.0
  0
LINE
  5
159
330
1F
100
AcDbEntity
  8
0
  6
PHANTOM
 62
     7
370
    25
100
AcDbLine
 10
187.6540486105
 20
99.8289357072
 30
0.0
 11
188.3687412081
 21
100.5118630543
 31
0.0
  0
LINE
  5
15A
330
1F
100
AcDbEntity
  8
0
  6
PHANTOM
 62
     7
370
    25
100
AcDbLine
 10
178.3738023899
 20
99.8289357072
 30
0.0
 11
178.5484957221
 21
99.8289357072
 31
0.0
  0
LINE
  5
15B
330
1F
100
AcDbEntity
  8
0
  6
PHANTOM
 62
     7
370
    25
100
AcDbLine
 10
177.6436987727
 20
100.5118630543
 30
0.0
 11
178.3738023899
 21
99.8289357072
 31
0.0
  0
LINE
  5
15C
330
1F
100
AcDbEntity
  8
0
  6
PHANTOM
 62
     7
370
    25
100
AcDbLine
 10
178.5484957221
 20
99.8289357072
 30
0.0
 11
177.8183921048
 21
100.5118630543
 31
0.0
  0
LINE
  5
15D
330
1F
100
AcDbEntity
  8
0
  6
PHANTOM
 62
     7
370
    25
100
AcDbLine
 10
178.5484957221
 20
99.8289357072
 30
0.0
 11
178.5484957221
 21
99.8399240221
 31
0.0
  0
LWPOLYLINE
  5
15E
330
1F
100
AcDbEntity
  8
0
  6
PHANTOM
 62
     7
370
    25
100
AcDbPolyline
 90
        3
 70
   128
 43
0.0
 10
189.3648824423
 20
100.5118630543
 10
188.0169257537
 20
99.4589374792
 10
187.9075707834
 20
99.3735186778
  0
LINE
  5
15F
330
1F
100
AcDbEntity
  8
0
  6
PHANTOM
 62
     7
370
    25
100
AcDbLine
 10
187.9075707834
 20
99.3735186778
 30
0.0
 11
187.9075707834
 21
99.3845069927
 31
0.0
  0
SPLINE
  5
160
330
1F
100
AcDbEntity
  8
0
  6
PHANTOM
 62
     7
370
    25
100
AcDbSpline
210
0.0
220
0.0
230
1.0
 70
     8
 71
     3
 72
     9
 73
     5
 74
     0
 42
0.000000001
 43
0.00000001
 40
0.0
 40
0.0
 40
0.0
 40
0.0
 40
0.5000000000000151
 40
0.9999999999999999
 40
0.9999999999999999
 40
0.9999999999999999
 40
0.9999999999999999
 10
187.9075707834375
 20
99.37351867783589
 30
0.0
 10
187.9346524433187
 20
99.3733839353509
 30
0.0
 10
187.9888157630812
 20
99.37311445038092
 30
0.0
 10
188.0429790828437
 20
99.3733839353509
 30
0.0
 10
188.0700607427249
 20
99.37351867783589
 30
0.0
  0
LWPOLYLINE
  5
161
330
1F
100
AcDbEntity
  8
0
  6
PHANTOM
 62
     7
370
    25
100
AcDbPolyline
 90
        3
 70
   128
 43
0.0
 10
188.0700607427
 20
99.3735186778
 10
188.179415713
 20
99.4589374792
 10
189.5273724016
 20
100.5118630543
  0
SPLINE
  5
162
330
1F
100
AcDbEntity
  8
0
  6
PHANTOM
 62
     7
370
    25
100
AcDbSpline
210
0.0
220
0.0
230
1.0
 70
     8
 71
     3
 72
     9
 73
     5
 74
     0
 42
0.000000001
 43
0.00000001
 40
0.0
 40
0.0
 40
0.0
 40
0.0
 40
0.500000000000028
 40
1.0
 40
1.0
 40
1.0
 40
1.0
 10
177.9748601476865
 20
99.37351867783589
 30
0.0
 10
178.0017120268134
 20
99.3733839353509
 30
0.0
 10
178.0554157850671
 20
99.37311445038092
 30
0.0
 10
178.1091195433207
 20
99.3733839353509
 30
0.0
 10
178.1359714224476
 20
99.37351867783589
 30
0.0
  0
LWPOLYLINE
  5
163
330
1F
100
AcDbEntity
  8
0
  6
PHANTOM
 62
     7
370
    25
100
AcDbPolyline
 90
        3
 70
   128
 43
0.0
 10
176.4938328656
 20
100.5118630543
 10
177.8637255847
 20
99.4589374792
 10
177.9748601477
 20
99.3735186778
  0
LWPOLYLINE
  5
164
330
1F
100
AcDbEntity
  8
0
  6
PHANTOM
 62
     7
370
    25
100
AcDbPolyline
 90
        3
 70
   128
 43
0.0
 10
178.1359714224
 20
99.3735186778
 10
178.0248368594
 20
99.4589374792
 10
176.6549441404
 20
100.5118630543
  0
LINE
  5
165
330
1F
100
AcDbEntity
  8
0
  6
PHANTOM
 62
     7
370
    25
100
AcDbLine
 10
178.1359714224
 20
99.3735186778
 30
0.0
 11
178.1359714224
 21
99.3845069927
 31
0.0
  0
LINE
  5
166
330
1F
100
AcDbEntity
  8
0
  6
PHANTOM
 62
     7
370
    25
100
AcDbLine
 10
189.4173694789
 20
99.8289357072
 30
0.0
 11
189.5639635203
 21
99.8289357072
 31
0.0
  0
LINE
  5
167
330
1F
100
AcDbEntity
  8
0
  6
PHANTOM
 62
     7
370
    25
100
AcDbLine
 10
190.4374499622
 20
100.5118630543
 30
0.0
 11
189.4173694789
 21
99.8289357072
 31
0.0
  0
LINE
  5
168
330
1F
100
AcDbEntity
  8
0
  6
PHANTOM
 62
     7
370
    25
100
AcDbLine
 10
189.5639635203
 20
99.8289357072
 30
0.0
 11
190.5840440036
 21
100.5118630543
 31
0.0
  0
LINE
  5
169
330
1F
100
AcDbEntity
  8
0
  6
PHANTOM
 62
     7
370
    25
100
AcDbLine
 10
189.4173694789
 20
99.8289357072
 30
0.0
 11
189.4173694789
 21
99.8399240221
 31
0.0
  0
LINE
  5
16A
330
1F
100
AcDbEntity
  8
0
  6
PHANTOM
 62
     7
370
    25
100
AcDbLine
 10
178.0661047363
 20
98.4993868633
 30
0.0
 11
177.6907122648
 21
98.5563966346
 31
0.0
  0
LINE
  5
16B
330
1F
100
AcDbEntity
  8
0
  6
PHANTOM
 62
     7
370
    25
100
AcDbLine
 10
177.6907122648
 20
98.5563966346
 30
0.0
 11
176.624610413
 21
99.3462097625
 31
0.0
  0
SPLINE
  5
16C
330
1F
100
AcDbEntity
  8
0
  6
PHANTOM
 62
     7
370
    25
100
AcDbSpline
210
0.0
220
0.0
230
1.0
 70
     8
 71
     3
 72
    10
 73
     6
 74
     0
 42
0.000000001
 43
0.00000001
 40
0.0
 40
0.0
 40
0.0
 40
0.0
 40
0.4953557733429335
 40
0.7470766343987414
 40
1.0
 40
1.0
 40
1.0
 40
1.0
 10
176.6246104130419
 20
99.34620976252467
 30
0.0
 10
176.6708514980239
 20
99.33966001605273
 30
0.0
 10
176.7405905340832
 20
99.32978193889342
 30
0.0
 10
176.8408859507068
 20
99.3113451248948
 30
0.0
 10
176.893154760438
 20
99.30040846374573
 30
0.0
 10
176.919351440346
 20
99.29492710281829
 30
0.0
  0
SPLINE
  5
16D
330
1F
100
AcDbEntity
  8
0
  6
PHANTOM
 62
     7
370
    25
100
AcDbSpline
210
0.0
220
0.0
230
1.0
 70
     8
 71
     3
 72
    10
 73
     6
 74
     0
 42
0.000000001
 43
0.00000001
 40
0.0
 40
0.0
 40
0.0
 40
0.0
 40
0.4877600490219915
 40
0.7432189598006261
 40
1.0
 40
1.0
 40
1.0
 40
1.0
 10
176.919351440346
 20
99.29492710281828
 30
0.0
 10
177.1279231191228
 20
99.24447346634761
 30
0.0
 10
177.4457318991884
 20
99.16759529788945
 30
0.0
 10
177.8811484095568
 20
99.03250862388943
 30
0.0
 10
178.1023299605636
 20
98.96276969169925
 30
0.0
 10
178.2132061790859
 20
98.92781022491812
 30
0.0
  0
SPLINE
  5
16E
330
1F
100
AcDbEntity
  8
0
  6
PHANTOM
 62
     7
370
    25
100
AcDbSpline
210
0.0
220
0.0
230
1.0
 70
     8
 71
     3
 72
    10
 73
     6
 74
     0
 42
0.000000001
 43
0.00000001
 40
0.0
 40
0.0
 40
0.0
 40
0.0
 40
0.4773094633148445
 40
0.7273959801567143
 40
1.0
 40
1.0
 40
1.0
 40
1.0
 10
178.2132061790859
 20
98.92781022491812
 30
0.0
 10
178.4671881991299
 20
98.84985761224988
 30
0.0
 10
178.8542442175232
 20
98.73106169166664
 30
0.0
 10
179.408181874563
 20
98.60634291652704
 30
0.0
 10
179.6686935321977
 20
98.60238610952926
 30
0.0
 10
179.804560780795
 20
98.60032247642778
 30
0.0
  0
SPLINE
  5
16F
330
1F
100
AcDbEntity
  8
0
  6
PHANTOM
 62
     7
370
    25
100
AcDbSpline
210
0.0
220
0.0
230
1.0
 70
     8
 71
     3
 72
    12
 73
     8
 74
     0
 42
0.000000001
 43
0.00000001
 40
0.0
 40
0.0
 40
0.0
 40
0.0
 40
0.3023163842895217
 40
0.5310116453936842
 40
0.7101116878382084
 40
0.8904837193765066
 40
1.0
 40
1.0
 40
1.0
 40
1.0
 10
179.804560780795
 20
98.60032247642778
 30
0.0
 10
179.8813962383845
 20
98.61035826777939
 30
0.0
 10
180.0163559192998
 20
98.62798590013865
 30
0.0
 10
180.1177515491785
 20
98.69442438227654
 30
0.0
 10
180.150073415168
 20
98.76389322356515
 30
0.0
 10
180.1178212113335
 20
98.82950849394196
 30
0.0
 10
180.0698824313089
 20
98.86911994949342
 30
0.0
 10
180.0517717429311
 20
98.88408467590729
 30
0.0
  0
SPLINE
  5
170
330
1F
100
AcDbEntity
  8
0
  6
PHANTOM
 62
     7
370
    25
100
AcDbSpline
210
0.0
220
0.0
230
1.0
 70
     8
 71
     3
 72
    12
 73
     8
 74
     0
 42
0.000000001
 43
0.00000001
 40
0.0
 40
0.0
 40
0.0
 40
0.0
 40
0.201130101609932
 40
0.3737616383127776
 40
0.5555757595121548
 40
0.8171674324888217
 40
1.0
 40
1.0
 40
1.0
 40
1.0
 10
180.0517717429311
 20
98.88408467590729
 30
0.0
 10
180.0054465589151
 20
98.9135989785028
 30
0.0
 10
179.9193601077355
 20
98.96844563747361
 30
0.0
 10
179.7245973000176
 20
99.02781262969178
 30
0.0
 10
179.5015344561365
 20
99.06494574867617
 30
0.0
 10
179.286668368037
 20
99.07546672800477
 30
0.0
 10
179.1531429299822
 20
99.0702341133906
 30
0.0
 10
179.0982116358637
 20
99.06808145771265
 30
0.0
  0
LINE
  5
171
330
1F
100
AcDbEntity
  8
0
  6
PHANTOM
 62
     7
370
    25
100
AcDbLine
 10
179.0982116359
 20
99.0680814577
 30
0.0
 11
178.9351960553
 21
99.2261154927
 31
0.0
  0
SPLINE
  5
172
330
1F
100
AcDbEntity
  8
0
  6
PHANTOM
 62
     7
370
    25
100
AcDbSpline
210
0.0
220
0.0
230
1.0
 70
     8
 71
     3
 72
    12
 73
     8
 74
     0
 42
0.000000001
 43
0.00000001
 40
0.0
 40
0.0
 40
0.0
 40
0.0
 40
0.3836839298354938
 40
0.5590704756901027
 40
0.7358199155485441
 40
0.8909993529812897
 40
0.9999999999999999
 40
0.9999999999999999
 40
0.9999999999999999
 40
0.9999999999999999
 10
178.9351960552557
 20
99.22611549274535
 30
0.0
 10
179.121776432591
 20
99.22682145250363
 30
0.0
 10
179.3936449477933
 20
99.22785011497076
 30
0.0
 10
179.8003438904879
 20
99.16795650378681
 30
0.0
 10
180.0691278012958
 20
99.09365343539746
 30
0.0
 10
180.2608802925047
 20
99.00599774476285
 30
0.0
 10
180.3447547711965
 20
98.94797034884714
 30
0.0
 10
180.3793613633806
 20
98.92402825755455
 30
0.0
  0
SPLINE
  5
173
330
1F
100
AcDbEntity
  8
0
  6
PHANTOM
 62
     7
370
    25
100
AcDbSpline
210
0.0
220
0.0
230
1.0
 70
     8
 71
     3
 72
    12
 73
     8
 74
     0
 42
0.000000001
 43
0.00000001
 40
0.0
 40
0.0
 40
0.0
 40
0.0
 40
0.2138924126095231
 40
0.4192048130050752
 40
0.6414235807296838
 40
0.862278676118504
 40
1.0
 40
1.0
 40
1.0
 40
1.0
 10
180.3793613633806
 20
98.92402825755455
 30
0.0
 10
180.4343586867835
 20
98.87581553352388
 30
0.0
 10
180.5421471884497
 20
98.78132407534089
 30
0.0
 10
180.5361010639006
 20
98.64034197734198
 30
0.0
 10
180.4052012361433
 20
98.53121133537263
 30
0.0
 10
180.2102000578763
 20
98.46654222340263
 30
0.0
 10
180.0573762112912
 20
98.45084439413061
 30
0.0
 10
179.9986799297142
 20
98.44481520282517
 30
0.0
  0
SPLINE
  5
174
330
1F
100
AcDbEntity
  8
0
  6
PHANTOM
 62
     7
370
    25
100
AcDbSpline
210
0.0
220
0.0
230
1.0
 70
     8
 71
     3
 72
    10
 73
     6
 74
     0
 42
0.000000001
 43
0.00000001
 40
0.0
 40
0.0
 40
0.0
 40
0.0
 40
0.2751322645252269
 40
0.6225555722763699
 40
1.0
 40
1.0
 40
1.0
 40
1.0
 10
179.9986799297142
 20
98.44481520282517
 30
0.0
 10
179.8463436152608
 20
98.44365741677328
 30
0.0
 10
179.5016445971843
 20
98.44103763621301
 30
0.0
 10
178.8648907805201
 20
98.59316692522326
 30
0.0
 10
178.4275262092058
 20
98.73118750026882
 30
0.0
 10
178.1997869786576
 20
98.80305591765399
 30
0.0
  0
SPLINE
  5
175
330
1F
100
AcDbEntity
  8
0
  6
PHANTOM
 62
     7
370
    25
100
AcDbSpline
210
0.0
220
0.0
230
1.0
 70
     8
 71
     3
 72
    10
 73
     6
 74
     0
 42
0.000000001
 43
0.00000001
 40
0.0
 40
0.0
 40
0.0
 40
0.0
 40
0.4968591086854062
 40
0.7465255116424905
 40
0.9999999999999999
 40
0.9999999999999999
 40
0.9999999999999999
 40
0.9999999999999999
 10
178.1997869786576
 20
98.80305591765399
 30
0.0
 10
178.0470537413247
 20
98.85326937230838
 30
0.0
 10
177.8175736811797
 20
98.92871455238442
 30
0.0
 10
177.5082546500637
 20
99.02988800381674
 30
0.0
 10
177.3532601159958
 20
99.07211756388475
 30
0.0
 10
177.2751763011056
 20
99.09339215379897
 30
0.0
  0
LINE
  5
176
330
1F
100
AcDbEntity
  8
0
  6
PHANTOM
 62
     7
370
    25
100
AcDbLine
 10
177.2751763011
 20
99.0933921538
 30
0.0
 11
178.0661047363
 21
98.4993868633
 31
0.0
  0
LINE
  5
177
330
1F
100
AcDbEntity
  8
0
  6
PHANTOM
 62
     7
370
    25
100
AcDbLine
 10
176.4804544386
 20
99.8289357072
 30
0.0
 11
176.6254428349
 21
99.8289357072
 31
0.0
  0
LINE
  5
178
330
1F
100
AcDbEntity
  8
0
  6
PHANTOM
 62
     7
370
    25
100
AcDbLine
 10
175.4475540714
 20
100.5118630543
 30
0.0
 11
176.4804544386
 21
99.8289357072
 31
0.0
  0
LINE
  5
179
330
1F
100
AcDbEntity
  8
0
  6
PHANTOM
 62
     7
370
    25
100
AcDbLine
 10
176.6254428349
 20
99.8289357072
 30
0.0
 11
175.5925424677
 21
100.5118630543
 31
0.0
  0
LINE
  5
17A
330
1F
100
AcDbEntity
  8
0
  6
PHANTOM
 62
     7
370
    25
100
AcDbLine
 10
176.6254428349
 20
99.8289357072
 30
0.0
 11
176.6254428349
 21
99.8399240221
 31
0.0
  0
LINE
  5
17B
330
1F
100
AcDbEntity
  8
0
  6
PHANTOM
 62
     7
370
    25
100
AcDbLine
 10
178.9351960553
 20
99.2261154927
 30
0.0
 11
178.9351960553
 21
99.2361154927
 31
0.0
  0
LINE
  5
17C
330
1F
100
AcDbEntity
  8
0
  6
PHANTOM
 62
     7
370
    25
100
AcDbLine
 10
180.3793613634
 20
98.9240282576
 30
0.0
 11
180.3793613634
 21
98.9340282576
 31
0.0
  0
LINE
  5
17D
330
1F
100
AcDbEntity
  8
0
  6
PHANTOM
 62
     7
370
    25
100
AcDbLine
 10
190.2439122391
 20
99.8289357072
 30
0.0
 11
190.3722984871
 21
99.8289357072
 31
0.0
  0
LINE
  5
17E
330
1F
100
AcDbEntity
  8
0
  6
PHANTOM
 62
     7
370
    25
100
AcDbLine
 10
191.3937054238
 20
100.5118630543
 30
0.0
 11
190.2439122391
 21
99.8289357072
 31
0.0
  0
LINE
  5
17F
330
1F
100
AcDbEntity
  8
0
  6
PHANTOM
 62
     7
370
    25
100
AcDbLine
 10
190.3722984871
 20
99.8289357072
 30
0.0
 11
191.5220916718
 21
100.5118630543
 31
0.0
  0
LINE
  5
180
330
1F
100
AcDbEntity
  8
0
  6
PHANTOM
 62
     7
370
    25
100
AcDbLine
 10
190.2439122391
 20
99.8289357072
 30
0.0
 11
190.2439122391
 21
99.8399240221
 31
0.0
  0
LINE
  5
181
330
1F
100
AcDbEntity
  8
0
  6
PHANTOM
 62
     7
370
    25
100
AcDbLine
 10
175.6823659659
 20
99.8289357072
 30
0.0
 11
175.8089449302
 21
99.8289357072
 31
0.0
  0
LINE
  5
182
330
1F
100
AcDbEntity
  8
0
  6
PHANTOM
 62
     7
370
    25
100
AcDbLine
 10
174.5213628317
 20
100.5118630543
 30
0.0
 11
175.6823659659
 21
99.8289357072
 31
0.0
  0
LINE
  5
183
330
1F
100
AcDbEntity
  8
0
  6
PHANTOM
 62
     7
370
    25
100
AcDbLine
 10
175.8089449302
 20
99.8289357072
 30
0.0
 11
174.647941796
 21
100.5118630543
 31
0.0
  0
LINE
  5
184
330
1F
100
AcDbEntity
  8
0
  6
PHANTOM
 62
     7
370
    25
100
AcDbLine
 10
185.422373196
 20
98.7692141072
 30
0.0
 11
185.6186402365
 21
98.9164357137
 31
0.0
  0
SPLINE
  5
185
330
1F
100
AcDbEntity
  8
0
  6
PHANTOM
 62
     7
370
    25
100
AcDbSpline
210
0.0
220
0.0
230
1.0
 70
     8
 71
     3
 72
     9
 73
     5
 74
     0
 42
0.000000001
 43
0.00000001
 40
0.0
 40
0.0
 40
0.0
 40
0.0
 40
0.4977135882403697
 40
1.0
 40
1.0
 40
1.0
 40
1.0
 10
185.6186402364842
 20
98.9164357136608
 30
0.0
 10
186.0370466413775
 20
98.86459362945469
 30
0.0
 10
186.8777036272005
 20
98.76043315356851
 30
0.0
 10
187.7217682691398
 20
98.80718253131393
 30
0.0
 10
188.1457304694327
 20
98.83066410851369
 30
0.0
  0
SPLINE
  5
186
330
1F
100
AcDbEntity
  8
0
  6
PHANTOM
 62
     7
370
    25
100
AcDbSpline
210
0.0
220
0.0
230
1.0
 70
     8
 71
     3
 72
    10
 73
     6
 74
     0
 42
0.000000001
 43
0.00000001
 40
0.0
 40
0.0
 40
0.0
 40
0.0
 40
0.3661656372280233
 40
0.6810234334840035
 40
1.0
 40
1.0
 40
1.0
 40
1.0
 10
188.1457304694327
 20
98.83066410851369
 30
0.0
 10
188.1178097046656
 20
98.85752231512654
 30
0.0
 10
188.0658804869729
 20
98.90747530422506
 30
0.0
 10
188.0427778400163
 20
99.0031768185156
 30
0.0
 10
188.0537338094259
 20
99.0716257911923
 30
0.0
 10
188.0592473910654
 20
99.10607267442926
 30
0.0
  0
LINE
  5
187
330
1F
100
AcDbEntity
  8
0
  6
PHANTOM
 62
     7
370
    25
100
AcDbLine
 10
188.0592473911
 20
99.1060726744
 30
0.0
 11
188.4433218766
 21
99.1268615568
 31
0.0
  0
SPLINE
  5
188
330
1F
100
AcDbEntity
  8
0
  6
PHANTOM
 62
     7
370
    25
100
AcDbSpline
210
0.0
220
0.0
230
1.0
 70
     8
 71
     3
 72
    10
 73
     6
 74
     0
 42
0.000000001
 43
0.00000001
 40
0.0
 40
0.0
 40
0.0
 40
0.0
 40
0.4946076242366999
 40
0.7431866596569005
 40
1.0
 40
1.0
 40
1.0
 40
1.0
 10
188.4433218765921
 20
99.12686155679987
 30
0.0
 10
188.4563223162158
 20
99.06207657644345
 30
0.0
 10
188.4758564940664
 20
98.96473207387675
 30
0.0
 10
188.6190497565251
 20
98.88519171531249
 30
0.0
 10
188.7337548800683
 20
98.87042561115636
 30
0.0
 10
188.7920418811082
 20
98.86292226778585
 30
0.0
  0
LINE
  5
189
330
1F
100
AcDbEntity
  8
0
  6
PHANTOM
 62
     7
370
    25
100
AcDbLine
 10
188.7920418811
 20
98.8629222678
 30
0.0
 11
188.6654214281
 21
98.7680308558
 31
0.0
  0
SPLINE
  5
18A
330
1F
100
AcDbEntity
  8
0
  6
PHANTOM
 62
     7
370
    25
100
AcDbSpline
210
0.0
220
0.0
230
1.0
 70
     8
 71
     3
 72
     9
 73
     5
 74
     0
 42
0.000000001
 43
0.00000001
 40
0.0
 40
0.0
 40
0.0
 40
0.0
 40
0.4958585058546558
 40
1.0
 40
1.0
 40
1.0
 40
1.0
 10
188.6654214280921
 20
98.7680308558419
 30
0.0
 10
188.1294031826895
 20
98.70357529138418
 30
0.0
 10
187.0484128617134
 20
98.57358747490694
 30
0.0
 10
185.9673711698184
 20
98.70364613831048
 30
0.0
 10
185.422373196033
 20
98.7692141072053
 30
0.0
  0
LINE
  5
18B
330
1F
100
AcDbEntity
  8
0
  6
PHANTOM
 62
     7
370
    25
100
AcDbLine
 10
185.422373196
 20
98.7692141072
 30
0.0
 11
185.422373196
 21
98.7792141072
 31
0.0
  0
LINE
  5
18C
330
1F
100
AcDbEntity
  8
0
  6
PHANTOM
 62
     7
370
    25
100
AcDbLine
 10
185.6186402365
 20
98.9164357137
 30
0.0
 11
185.6186402365
 21
98.9264357137
 31
0.0
  0
LINE
  5
18D
330
1F
100
AcDbEntity
  8
0
  6
PHANTOM
 62
     7
370
    25
100
AcDbLine
 10
175.8089449302
 20
99.8289357072
 30
0.0
 11
175.8089449302
 21
99.8399240221
 31
0.0
  0
LINE
  5
18E
330
1F
100
AcDbEntity
  8
0
  6
PHANTOM
 62
     7
370
    25
100
AcDbLine
 10
179.8045607808
 20
98.6003224764
 30
0.0
 11
179.8045607808
 21
98.6103224764
 31
0.0
  0
LINE
  5
18F
330
1F
100
AcDbEntity
  8
0
  6
PHANTOM
 62
     7
370
    25
100
AcDbLine
 10
190.9571951467
 20
99.8289357072
 30
0.0
 11
191.0653488734
 21
99.8289357072
 31
0.0
  0
LINE
  5
190
330
1F
100
AcDbEntity
  8
0
  6
PHANTOM
 62
     7
370
    25
100
AcDbLine
 10
192.2185681074
 20
100.5118630543
 30
0.0
 11
190.9571951467
 21
99.8289357072
 31
0.0
  0
LINE
  5
191
330
1F
100
AcDbEntity
  8
0
  6
PHANTOM
 62
     7
370
    25
100
AcDbLine
 10
191.0653488734
 20
99.8289357072
 30
0.0
 11
192.326721834
 21
100.5118630543
 31
0.0
  0
LINE
  5
192
330
1F
100
AcDbEntity
  8
0
  6
PHANTOM
 62
     7
370
    25
100
AcDbLine
 10
190.9571951467
 20
99.8289357072
 30
0.0
 11
190.9571951467
 21
99.8399240221
 31
0.0
  0
LINE
  5
193
330
1F
100
AcDbEntity
  8
0
  6
PHANTOM
 62
     7
370
    25
100
AcDbLine
 10
176.9193514403
 20
99.2949271028
 30
0.0
 11
176.9193514403
 21
99.3049271028
 31
0.0
  0
LINE
  5
194
330
1F
100
AcDbEntity
  8
0
  6
PHANTOM
 62
     7
370
    25
100
AcDbLine
 10
188.0592473911
 20
99.1060726744
 30
0.0
 11
188.0592473911
 21
99.1160726744
 31
0.0
  0
LINE
  5
195
330
1F
100
AcDbEntity
  8
0
  6
PHANTOM
 62
     7
370
    25
100
AcDbLine
 10
188.4433218766
 20
99.1268615568
 30
0.0
 11
188.4433218766
 21
99.1368615568
 31
0.0
  0
LINE
  5
196
330
1F
100
AcDbEntity
  8
0
  6
PHANTOM
 62
     7
370
    25
100
AcDbLine
 10
175.0006619238
 20
99.8289357072
 30
0.0
 11
175.1068352302
 21
99.8289357072
 31
0.0
  0
LINE
  5
197
330
1F
100
AcDbEntity
  8
0
  6
PHANTOM
 62
     7
370
    25
100
AcDbLine
 10
173.7298657356
 20
100.5118630543
 30
0.0
 11
175.0006619238
 21
99.8289357072
 31
0.0
  0
LINE
  5
198
330
1F
100
AcDbEntity
  8
0
  6
PHANTOM
 62
     7
370
    25
100
AcDbLine
 10
175.1068352302
 20
99.8289357072
 30
0.0
 11
173.8360390419
 21
100.5118630543
 31
0.0
  0
LINE
  5
199
330
1F
100
AcDbEntity
  8
0
  6
PHANTOM
 62
     7
370
    25
100
AcDbLine
 10
175.1068352302
 20
99.8289357072
 30
0.0
 11
175.1068352302
 21
99.8399240221
 31
0.0
  0
LINE
  5
19A
330
1F
100
AcDbEntity
  8
0
  6
PHANTOM
 62
     7
370
    25
100
AcDbLine
 10
188.7920418811
 20
98.8629222678
 30
0.0
 11
188.7920418811
 21
98.8729222678
 31
0.0
  0
LINE
  5
19B
330
1F
100
AcDbEntity
  8
0
  6
PHANTOM
 62
     7
370
    25
100
AcDbLine
 10
176.624610413
 20
99.3462097625
 30
0.0
 11
176.624610413
 21
99.3562097625
 31
0.0
  0
LINE
  5
19C
330
1F
100
AcDbEntity
  8
0
  6
PHANTOM
 62
     7
370
    25
100
AcDbLine
 10
178.0661047363
 20
98.4993868633
 30
0.0
 11
178.0661047363
 21
98.5093868633
 31
0.0
  0
LINE
  5
19D
330
1F
100
AcDbEntity
  8
0
  6
PHANTOM
 62
     7
370
    25
100
AcDbLine
 10
192.8990294355
 20
100.5118630543
 30
0.0
 11
191.5459693039
 21
99.8289357072
 31
0.0
  0
LINE
  5
19E
330
1F
100
AcDbEntity
  8
0
  6
PHANTOM
 62
     7
370
    25
100
AcDbLine
 10
191.5459693039
 20
99.8289357072
 30
0.0
 11
191.5459693039
 21
99.8399240221
 31
0.0
  0
LINE
  5
19F
330
1F
100
AcDbEntity
  8
0
  6
PHANTOM
 62
     7
370
    25
100
AcDbLine
 10
191.5459693039
 20
99.8289357072
 30
0.0
 11
191.6321848604
 21
99.8289357072
 31
0.0
  0
LINE
  5
1A0
330
1F
100
AcDbEntity
  8
0
  6
PHANTOM
 62
     7
370
    25
100
AcDbLine
 10
191.6321848604
 20
99.8289357072
 30
0.0
 11
192.985244992
 21
100.5118630543
 31
0.0
  0
LINE
  5
1A1
330
1F
100
AcDbEntity
  8
0
  6
PHANTOM
 62
     7
370
    25
100
AcDbLine
 10
174.4460931923
 20
99.8289357072
 30
0.0
 11
174.5301864243
 21
99.8289357072
 31
0.0
  0
LINE
  5
1A2
330
1F
100
AcDbEntity
  8
0
  6
PHANTOM
 62
     7
370
    25
100
AcDbLine
 10
173.0855451651
 20
100.5118630543
 30
0.0
 11
174.4460931923
 21
99.8289357072
 31
0.0
  0
LINE
  5
1A3
330
1F
100
AcDbEntity
  8
0
  6
PHANTOM
 62
     7
370
    25
100
AcDbLine
 10
174.5301864243
 20
99.8289357072
 30
0.0
 11
173.1696383971
 21
100.5118630543
 31
0.0
  0
LINE
  5
1A4
330
1F
100
AcDbEntity
  8
0
  6
PHANTOM
 62
     7
370
    25
100
AcDbLine
 10
174.5301864243
 20
99.8289357072
 30
0.0
 11
174.5301864243
 21
99.8399240221
 31
0.0
  0
LWPOLYLINE
  5
1A5
330
1F
100
AcDbEntity
  8
0
  6
PHANTOM
 62
     7
370
    25
100
AcDbPolyline
 90
        3
 70
   128
 43
0.0
 10
193.4243581266
 20
100.5118630543
 10
191.2297611766
 20
99.4589374792
 10
191.0517212691
 20
99.3735186778
  0
LINE
  5
1A6
330
1F
100
AcDbEntity
  8
0
  6
PHANTOM
 62
     7
370
    25
100
AcDbLine
 10
191.0517212691
 20
99.3735186778
 30
0.0
 11
191.0517212691
 21
99.3845069927
 31
0.0
  0
SPLINE
  5
1A7
330
1F
100
AcDbEntity
  8
0
  6
PHANTOM
 62
     7
370
    25
100
AcDbSpline
210
0.0
220
0.0
230
1.0
 70
     8
 71
     3
 72
     9
 73
     5
 74
     0
 42
0.000000001
 43
0.00000001
 40
0.0
 40
0.0
 40
0.0
 40
0.0
 40
0.5000000000000061
 40
1.0
 40
1.0
 40
1.0
 40
1.0
 10
191.0517212690855
 20
99.37351867783589
 30
0.0
 10
191.0622075550046
 20
99.37338393535089
 30
0.0
 10
191.0831801268427
 20
99.37311445038092
 30
0.0
 10
191.1041526986808
 20
99.3733839353509
 30
0.0
 10
191.1146389845998
 20
99.37351867783589
 30
0.0
  0
LWPOLYLINE
  5
1A8
330
1F
100
AcDbEntity
  8
0
  6
PHANTOM
 62
     7
370
    25
100
AcDbPolyline
 90
        3
 70
   128
 43
0.0
 10
191.1146389846
 20
99.3735186778
 10
191.2926788922
 20
99.4589374792
 10
193.4872758421
 20
100.5118630543
  0
SPLINE
  5
1A9
330
1F
100
AcDbEntity
  8
0
  6
PHANTOM
 62
     7
370
    25
100
AcDbSpline
210
0.0
220
0.0
230
1.0
 70
     8
 71
     3
 72
     9
 73
     5
 74
     0
 42
0.000000001
 43
0.00000001
 40
0.0
 40
0.0
 40
0.0
 40
0.0
 40
0.4999999999999998
 40
0.9999999999999999
 40
0.9999999999999999
 40
0.9999999999999999
 40
0.9999999999999999
 10
174.9802578600229
 20
99.37351867783589
 30
0.0
 10
174.9903723528714
 20
99.3733839353509
 30
0.0
 10
175.0106013385683
 20
99.37311445038092
 30
0.0
 10
175.0308303242653
 20
99.3733839353509
 30
0.0
 10
175.0409448171138
 20
99.37351867783589
 30
0.0
  0
LWPOLYLINE
  5
1AA
330
1F
100
AcDbEntity
  8
0
  6
PHANTOM
 62
     7
370
    25
100
AcDbPolyline
 90
        3
 70
   128
 43
0.0
 10
172.5985624405
 20
100.5118630543
 10
174.8015382085
 20
99.4589374792
 10
174.98025786
 20
99.3735186778
  0
LWPOLYLINE
  5
1AB
330
1F
100
AcDbEntity
  8
0
  6
PHANTOM
 62
     7
370
    25
100
AcDbPolyline
 90
        3
 70
   128
 43
0.0
 10
175.0409448171
 20
99.3735186778
 10
174.8622251656
 20
99.4589374792
 10
172.6592493976
 20
100.5118630543
  0
LINE
  5
1AC
330
1F
100
AcDbEntity
  8
0
  6
PHANTOM
 62
     7
370
    25
100
AcDbLine
 10
175.0409448171
 20
99.3735186778
 30
0.0
 11
175.0409448171
 21
99.3845069927
 31
0.0
  0
LINE
  5
1AD
330
1F
100
AcDbEntity
  8
0
  6
PHANTOM
 62
     7
370
    25
100
AcDbLine
 10
192.3149600992
 20
99.8289357072
 30
0.0
 11
192.3535877238
 21
99.8289357072
 31
0.0
  0
LINE
  5
1AE
330
1F
100
AcDbEntity
  8
0
  6
PHANTOM
 62
     7
370
    25
100
AcDbLine
 10
193.7862694334
 20
100.5118630543
 30
0.0
 11
192.3149600992
 21
99.8289357072
 31
0.0
  0
LINE
  5
1AF
330
1F
100
AcDbEntity
  8
0
  6
PHANTOM
 62
     7
370
    25
100
AcDbLine
 10
192.3535877238
 20
99.8289357072
 30
0.0
 11
193.824897058
 21
100.5118630543
 31
0.0
  0
LINE
  5
1B0
330
1F
100
AcDbEntity
  8
0
  6
PHANTOM
 62
     7
370
    25
100
AcDbLine
 10
192.3149600992
 20
99.8289357072
 30
0.0
 11
192.3149600992
 21
99.8399240221
 31
0.0
  0
LINE
  5
1B1
330
1F
100
AcDbEntity
  8
0
  6
PHANTOM
 62
     7
370
    25
100
AcDbLine
 10
173.787525867
 20
99.8289357072
 30
0.0
 11
173.787525867
 21
99.8399240221
 31
0.0
  0
LINE
  5
1B2
330
1F
100
AcDbEntity
  8
0
  6
PHANTOM
 62
     7
370
    25
100
AcDbLine
 10
173.787525867
 20
99.8289357072
 30
0.0
 11
172.312921183
 21
100.5118630543
 31
0.0
  0
LINE
  5
1B3
330
1F
100
AcDbEntity
  8
0
  6
PHANTOM
 62
     7
370
    25
100
AcDbLine
 10
173.7512022544
 20
99.8289357072
 30
0.0
 11
173.787525867
 21
99.8289357072
 31
0.0
  0
LINE
  5
1B4
330
1F
100
AcDbEntity
  8
0
  6
PHANTOM
 62
     7
370
    25
100
AcDbLine
 10
172.2765975704
 20
100.5118630543
 30
0.0
 11
173.7512022544
 21
99.8289357072
 31
0.0
  0
LINE
  5
1B5
330
1F
100
AcDbEntity
  8
0
  6
PHANTOM
 62
     7
370
    25
100
AcDbLine
 10
193.9790557984
 20
100.5118630543
 30
0.0
 11
192.4830492931
 21
99.8289357072
 31
0.0
  0
LINE
  5
1B6
330
1F
100
AcDbEntity
  8
0
  6
PHANTOM
 62
     7
370
    25
100
AcDbLine
 10
192.4830492931
 20
99.8289357072
 30
0.0
 11
192.4830492931
 21
99.8399240221
 31
0.0
  0
LINE
  5
1B7
330
1F
100
AcDbEntity
  8
0
  6
PHANTOM
 62
     7
370
    25
100
AcDbLine
 10
192.4830492931
 20
99.8289357072
 30
0.0
 11
192.496777646
 21
99.8289357072
 31
0.0
  0
LINE
  5
1B8
330
1F
100
AcDbEntity
  8
0
  6
PHANTOM
 62
     7
370
    25
100
AcDbLine
 10
192.496777646
 20
99.8289357072
 30
0.0
 11
193.9927841513
 21
100.5118630543
 31
0.0
  0
LINE
  5
1B9
330
1F
100
AcDbEntity
  8
0
  6
PHANTOM
 62
     7
370
    25
100
AcDbLine
 10
173.6332263162
 20
99.8289357072
 30
0.0
 11
173.6332263162
 21
99.8399240221
 31
0.0
  0
LINE
  5
1BA
330
1F
100
AcDbEntity
  8
0
  6
PHANTOM
 62
     7
370
    25
100
AcDbLine
 10
173.6332263162
 20
99.8289357072
 30
0.0
 11
172.1361155561
 21
100.5118630543
 31
0.0
  0
LINE
  5
1BB
330
1F
100
AcDbEntity
  8
0
  6
PHANTOM
 62
     7
370
    25
100
AcDbLine
 10
173.6218388931
 20
99.8289357072
 30
0.0
 11
173.6332263162
 21
99.8289357072
 31
0.0
  0
LINE
  5
1BC
330
1F
100
AcDbEntity
  8
0
  6
PHANTOM
 62
     7
370
    25
100
AcDbLine
 10
172.124728133
 20
100.5118630543
 30
0.0
 11
173.6218388931
 21
99.8289357072
 31
0.0
  0
LINE
  5
1BD
330
1F
100
AcDbEntity
  8
0
  6
PHANTOM
 62
     7
370
    25
100
AcDbLine
 10
190.5303354343
 20
98.9285998809
 30
0.0
 11
190.5303354343
 21
98.9370505277
 31
0.0
  0
SPLINE
  5
1BE
330
1F
100
AcDbEntity
  8
0
  6
PHANTOM
 62
     7
370
    25
100
AcDbSpline
210
0.0
220
0.0
230
1.0
 70
     8
 71
     3
 72
    11
 73
     7
 74
     0
 42
0.000000001
 43
0.00000001
 40
0.0
 40
0.0
 40
0.0
 40
0.0
 40
0.2145930129825681
 40
0.5039315221145191
 40
0.7955423989640862
 40
1.0
 40
1.0
 40
1.0
 40
1.0
 10
189.6979409183928
 20
98.55794015412947
 30
0.0
 10
189.7435131554761
 20
98.57669304875165
 30
0.0
 10
189.8505310237675
 20
98.62073071148662
 30
0.0
 10
190.0722653766703
 20
98.71993616149364
 30
0.0
 10
190.3188191940845
 20
98.83162342205215
 30
0.0
 10
190.4686016825342
 20
98.90029604652365
 30
0.0
 10
190.5303354342859
 20
98.92859988093807
 30
0.0
  0
LINE
  5
1BF
330
1F
100
AcDbEntity
  8
0
  6
PHANTOM
 62
     7
370
    25
100
AcDbLine
 10
192.5025661053
 20
99.8289357072
 30
0.0
 11
192.5025661053
 21
99.8315781403
 31
0.0
  0
LINE
  5
1C0
330
1F
100
AcDbEntity
  8
0
  6
PHANTOM
 62
     7
370
    25
100
AcDbLine
 10
193.9996768655
 20
100.5118630543
 30
0.0
 11
192.5025661053
 21
99.8289357072
 31
0.0
  0
LINE
  5
1C1
330
1F
100
AcDbEntity
  8
0
  6
PHANTOM
 62
     7
370
    25
100
AcDbLine
 10
175.282191938
 20
99.0737290019
 30
0.0
 11
175.282191938
 21
99.079093803
 31
0.0
  0
LINE
  5
1C2
330
1F
100
AcDbEntity
  8
0
  6
PHANTOM
 62
     7
370
    25
100
AcDbLine
 10
192.5025661053
 20
99.8289357072
 30
0.0
 11
192.496777646
 21
99.8289357072
 31
0.0
  0
LINE
  5
1C3
330
1F
100
AcDbEntity
  8
0
  6
PHANTOM
 62
     7
370
    25
100
AcDbLine
 10
173.635799931
 20
99.8289357072
 30
0.0
 11
173.6332263162
 21
99.8289357072
 31
0.0
  0
LINE
  5
1C4
330
1F
100
AcDbEntity
  8
0
  6
PHANTOM
 62
     7
370
    25
100
AcDbLine
 10
180.9682655799
 20
117.1215797505
 30
0.0
 11
182.8587807978
 21
115.7951991324
 31
0.0
  0
LINE
  5
1C5
330
1F
100
AcDbEntity
  8
0
  6
PHANTOM
 62
     7
370
    25
100
AcDbLine
 10
184.9527177171
 20
116.7692430283
 30
0.0
 11
182.8587807978
 21
115.7951991324
 31
0.0
  0
LINE
  5
1C6
330
1F
100
AcDbEntity
  8
0
  6
PHANTOM
 62
     7
370
    25
100
AcDbLine
 10
185.1561394186
 20
119.0696675423
 30
0.0
 11
183.2656242006
 21
120.3960481604
 31
0.0
  0
LINE
  5
1C7
330
1F
100
AcDbEntity
  8
0
  6
PHANTOM
 62
     7
370
    25
100
AcDbLine
 10
181.1716872813
 20
119.4220042645
 30
0.0
 11
180.9682655799
 21
117.1215797505
 31
0.0
  0
CIRCLE
  5
1C8
330
1F
100
AcDbEntity
  8
0
  6
PHANTOM
 62
     7
370
    25
100
AcDbCircle
 10
183.0622024992
 20
118.0956236464
 30
0.0
 40
3.309500000000011
  0
LINE
  5
1C9
330
1F
100
AcDbEntity
  8
0
  6
PHANTOM
 62
     7
370
    25
100
AcDbLine
 10
185.1561394186
 20
119.0696675423
 30
0.0
 11
184.9527177171
 21
116.7692430283
 31
0.0
  0
LINE
  5
1CA
330
1F
100
AcDbEntity
  8
0
  6
PHANTOM
 62
     7
370
    25
100
AcDbLine
 10
181.1716872813
 20
119.4220042645
 30
0.0
 11
183.2656242006
 21
120.3960481604
 31
0.0
  0
CIRCLE
  5
1CB
330
1F
100
AcDbEntity
  8
0
  6
PHANTOM
 62
     7
370
    25
100
AcDbCircle
 10
183.0622024992
 20
118.0956236464
 30
0.0
 40
3.399999999999977
  0
SPLINE
  5
1CC
330
1F
100
AcDbEntity
  8
0
  6
PHANTOM
 62
     7
370
    25
100
AcDbSpline
210
0.0
220
0.0
230
1.0
 70
    11
 71
     3
 72
    76
 73
    72
 74
     0
 42
0.000000001
 43
0.00000001
 40
0.0
 40
0.0
 40
0.0
 40
0.0
 40
0.03125
 40
0.03125
 40
0.0625
 40
0.0625
 40
0.09375
 40
0.09375
 40
0.1250000000000001
 40
0.1250000000000001
 40
0.1562500000000001
 40
0.1562500000000001
 40
0.1875000000000001
 40
0.1875000000000001
 40
0.2187500000000001
 40
0.2187500000000001
 40
0.2500000000000001
 40
0.2500000000000001
 40
0.2812500000000001
 40
0.2812500000000001
 40
0.3125000000000001
 40
0.3125000000000001
 40
0.3281250000000002
 40
0.3281250000000002
 40
0.3437500000000002
 40
0.3437500000000002
 40
0.3750000000000002
 40
0.3750000000000002
 40
0.4062500000000002
 40
0.4062500000000002
 40
0.4375000000000002
 40
0.4375000000000002
 40
0.4687500000000002
 40
0.4687500000000002
 40
0.5000000000000002
 40
0.5000000000000002
 40
0.5312500000000002
 40
0.5312500000000002
 40
0.5625000000000002
 40
0.5625000000000002
 40
0.5937500000000002
 40
0.5937500000000002
 40
0.6250000000000002
 40
0.6250000000000002
 40
0.6562500000000003
 40
0.6562500000000003
 40
0.6875000000000003
 40
0.6875000000000003
 40
0.7187500000000003
 40
0.7187500000000003
 40
0.7500000000000003
 40
0.7500000000000003
 40
0.7812500000000003
 40
0.7812500000000003
 40
0.8125000000000003
 40
0.8125000000000003
 40
0.8281250000000003
 40
0.8281250000000003
 40
0.8437500000000003
 40
0.8437500000000003
 40
0.8593750000000003
 40
0.8593750000000003
 40
0.8750000000000004
 40
0.8750000000000004
 40
0.9062500000000003
 40
0.9062500000000003
 40
0.9375000000000002
 40
0.9375000000000002
 40
0.9687500000000001
 40
0.9687500000000001
 40
1.0
 40
1.0
 40
1.0
 40
1.0
 10
180.0225655757419
 20
121.1119525703946
 30
0.0
 10
180.2398380336782
 20
121.2934963035436
 30
0.0
 10
180.4715867316
 20
121.4518817549426
 30
0.0
 10
180.9622279036542
 20
121.7256680958601
 30
0.0
 10
181.2231070466742
 20
121.8413600736627
 30
0.0
 10
181.7544702183883
 20
122.0228357024136
 30
0.0
 10
182.0265829607047
 20
122.0898736369616
 30
0.0
 10
182.5836293114575
 20
122.1769607321835
 30
0.0
 10
182.8685018421883
 20
122.1963741725328
 30
0.0
 10
183.429541650831
 20
122.18645470117
 30
0.0
 10
183.7084506564019
 20
122.1576861567786
 30
0.0
 10
184.2629646111932
 20
122.0511955216988
 30
0.0
 10
184.5364272511572
 20
121.9733623592233
 30
0.0
 10
185.0587547612544
 20
121.7736257831606
 30
0.0
 10
185.310192619801
 20
121.6513212229929
 30
0.0
 10
185.7924849889689
 20
121.3588048232815
 30
0.0
 10
186.0194381820392
 20
121.1904428925963
 30
0.0
 10
186.4332871507991
 20
120.8172856189706
 30
0.0
 10
186.6221137534966
 20
120.6114221686401
 30
0.0
 10
186.9597346295564
 20
120.156618650876
 30
0.0
 10
187.1027616062792
 20
119.9151417800864
 30
0.0
 10
187.2766775750678
 20
119.5341957232266
 30
0.0
 10
187.3279330884877
 20
119.4039287248014
 30
0.0
 10
187.4163490481164
 20
119.1364811906592
 30
0.0
 10
187.4536439986906
 20
118.9983654593551
 30
0.0
 10
187.5407329376617
 20
118.5834547108868
 30
0.0
 10
187.5670410234635
 20
118.3042752833881
 30
0.0
 10
187.5559214106623
 20
117.7407453962012
 30
0.0
 10
187.5173244929914
 20
117.4560919898117
 30
0.0
 10
187.3798825873585
 20
116.91131841842
 30
0.0
 10
187.279933927905
 20
116.6448534382913
 30
0.0
 10
187.0253957564425
 20
116.140299683797
 30
0.0
 10
186.8729489958233
 20
115.9049618415617
 30
0.0
 10
186.5208398805175
 20
115.4657888444987
 30
0.0
 10
186.3210260950248
 20
115.2629278954801
 30
0.0
 10
185.8916151568016
 20
114.9031602010113
 30
0.0
 10
185.6591764726754
 20
114.7433042542621
 30
0.0
 10
185.165442279166
 20
114.4670180395852
 30
0.0
 10
184.9090867970676
 20
114.3530873796708
 30
0.0
 10
184.378375144272
 20
114.1707704265468
 30
0.0
 10
184.1012713838971
 20
114.1021076777423
 30
0.0
 10
183.5438670959553
 20
114.0145773742394
 30
0.0
 10
183.2639478760466
 20
113.9951629422293
 30
0.0
 10
182.7017105157183
 20
114.004250767796
 30
0.0
 10
182.4168632114532
 20
114.0334965115867
 30
0.0
 10
181.8641873258435
 20
114.1394150470964
 30
0.0
 10
181.594812976077
 20
114.2156587373245
 30
0.0
 10
181.0701463310417
 20
114.4155229232091
 30
0.0
 10
180.8131351546699
 20
114.5406302680777
 30
0.0
 10
180.3342105852573
 20
114.8310024866537
 30
0.0
 10
180.1098826594107
 20
114.996769908805
 30
0.0
 10
179.6929652556037
 20
115.3719043184767
 30
0.0
 10
179.5001422701593
 20
115.5827416714113
 30
0.0
 10
179.1670462640328
 20
116.0314064286409
 30
0.0
 10
179.0240419317778
 20
116.2712402091536
 30
0.0
 10
178.8479113782684
 20
116.656456682305
 30
0.0
 10
178.7956517968617
 20
116.7895157002187
 30
0.0
 10
178.7073516066572
 20
117.0571852002903
 30
0.0
 10
178.6708658558485
 20
117.192650666066
 30
0.0
 10
178.6132009425157
 20
117.4668449417315
 30
0.0
 10
178.5920207754274
 20
117.6055735309031
 30
0.0
 10
178.5654307111529
 20
117.8863968729912
 30
0.0
 10
178.5600815329919
 20
118.0294994408679
 30
0.0
 10
178.5687587744776
 20
118.4547107457147
 30
0.0
 10
178.6066419330022
 20
118.7332428483533
 30
0.0
 10
178.7446829560222
 20
119.280738971222
 30
0.0
 10
178.8456027129064
 20
119.5487837055594
 30
0.0
 10
179.0987128208025
 20
120.0502128753442
 30
0.0
 10
179.2532581108113
 20
120.2889976445014
 30
0.0
 10
179.6071562692802
 20
120.7294659351397
 30
0.0
 10
179.8052931178055
 20
120.9304088372457
 30
0.0
 10
180.0225655757419
 20
121.1119525703946
 30
0.0
  0
SPLINE
  5
1CD
330
1F
100
AcDbEntity
  8
0
  6
PHANTOM
 62
     7
370
    25
100
AcDbSpline
210
0.0
220
0.0
230
1.0
 70
     8
 71
     3
 72
    21
 73
    17
 74
     0
 42
0.000000001
 43
0.00000001
 40
0.0
 40
0.0
 40
0.0
 40
0.0
 40
0.0317442650866778
 40
0.0952918741681785
 40
0.1590598540962825
 40
0.2550947719474047
 40
0.3146398077552749
 40
0.3744016820776346
 40
0.4648040069823953
 40
0.5565769050988448
 40
0.6181280286540313
 40
0.7130288101630817
 40
0.7850460412734532
 40
0.8582298932212362
 40
0.9073058191599841
 40
1.0
 40
1.0
 40
1.0
 40
1.0
 10
170.4267859633056
 20
134.1589223436922
 30
0.0
 10
170.3168564293071
 20
134.2439626402808
 30
0.0
 10
169.9868632386456
 20
134.4992417976223
 30
0.0
 10
169.4511083791415
 20
134.9155869383672
 30
0.0
 10
168.7242220240181
 20
135.4829204775574
 30
0.0
 10
168.0463216265071
 20
136.0148875981995
 30
0.0
 10
167.4205309096862
 20
136.5081006770109
 30
0.0
 10
166.843582819963
 20
136.9642285826614
 30
0.0
 10
166.2294538925023
 20
137.4514881673889
 30
0.0
 10
165.6829887556545
 20
137.8866338082052
 30
0.0
 10
165.1971458815048
 20
138.2744516423383
 30
0.0
 10
164.8217577698067
 20
138.5747830083829
 30
0.0
 10
164.5168515045423
 20
138.819141386541
 30
0.0
 10
164.3393795690386
 20
138.961533162881
 30
0.0
 10
164.2039153285068
 20
139.0702879727137
 30
0.0
 10
164.1858413182789
 20
139.0848073131741
 30
0.0
 10
164.1740239076087
 20
139.0943005582656
 30
0.0
  0
LINE
  5
1CE
330
1F
100
AcDbEntity
  8
0
  6
PHANTOM
 62
     7
370
    25
100
AcDbLine
 10
196.4594257495
 20
130.035757261
 30
0.0
 11
170.4267859633
 21
134.1589223437
 31
0.0
  0
LINE
  5
1CF
330
1F
100
AcDbEntity
  8
0
  6
PHANTOM
 62
     7
370
    25
100
AcDbLine
 10
169.4277922342
 20
100.5456236464
 30
0.0
 11
196.4594257495
 21
100.5456236464
 31
0.0
  0
SPLINE
  5
1D0
330
1F
100
AcDbEntity
  8
0
  6
PHANTOM
 62
     7
370
    25
100
AcDbSpline
210
0.0
220
0.0
230
1.0
 70
     8
 71
     3
 72
    18
 73
    14
 74
     0
 42
0.000000001
 43
0.00000001
 40
0.0
 40
0.0
 40
0.0
 40
0.0
 40
0.0136405377901302
 40
0.1200229774103561
 40
0.2101202068449498
 40
0.3011872519809503
 40
0.418584521785797
 40
0.5078378328149804
 40
0.6592059864785992
 40
0.7862270247429927
 40
0.8712849311628836
 40
0.9570583089065395
 40
1.0
 40
1.0
 40
1.0
 40
1.0
 10
163.9712722598834
 20
97.10143403268196
 30
0.0
 10
163.9683289261498
 20
97.09954844519359
 30
0.0
 10
163.9424305573573
 20
97.0829571767255
 30
0.0
 10
164.0396820402375
 20
97.14527093839585
 30
0.0
 10
164.2459823521408
 20
97.27735462764005
 30
0.0
 10
164.5883120552482
 20
97.49626378435417
 30
0.0
 10
165.0461377177542
 20
97.78844088555309
 30
0.0
 10
165.7207522574768
 20
98.21773653391426
 30
0.0
 10
166.5431337483565
 20
98.73908920637096
 30
0.0
 10
167.4722743029606
 20
99.32465971651028
 30
0.0
 10
168.2936705657045
 20
99.8394966802595
 30
0.0
 10
168.9122862729027
 20
100.2255031205131
 30
0.0
 10
169.298833154727
 20
100.4655422284407
 30
0.0
 10
169.4277922342071
 20
100.5456236463827
 30
0.0
  0
SPLINE
  5
1D1
330
1F
100
AcDbEntity
  8
0
  6
PHANTOM
 62
     7
370
    25
100
AcDbSpline
210
0.0
220
0.0
230
1.0
 70
    24
 71
     3
 72
    14
 73
    10
 74
     0
 42
0.000000001
 43
0.00000001
 40
0.0
 40
0.0
 40
0.0
 40
0.0
 40
0.25
 40
0.25
 40
0.5
 40
0.5
 40
0.75
 40
0.75
 40
1.0
 40
1.0
 40
1.0
 40
1.0
 10
197.7584638551537
 20
129.8300098376615
 30
0.0
 10
197.6978687292369
 20
129.8396071627662
 30
0.0
 10
197.6241980554125
 20
129.8512754512082
 30
0.0
 10
197.4467980484878
 20
129.8793728520185
 30
0.0
 10
197.3437351968251
 20
129.8956964040974
 30
0.0
 10
197.1169470940519
 20
129.9316161108274
 30
0.0
 10
196.9899626958738
 20
129.9517284636628
 30
0.0
 10
196.7302784862793
 20
129.9928584018605
 30
0.0
 10
196.5939144496187
 20
130.0144563434874
 30
0.0
 10
196.459425749477
 20
130.0357572609894
 30
0.0
  0
SPLINE
  5
1D2
330
1F
100
AcDbEntity
  8
0
  6
PHANTOM
 62
     7
370
    25
100
AcDbSpline
210
0.0
220
0.0
230
1.0
 70
    24
 71
     3
 72
    14
 73
    10
 74
     0
 42
0.000000001
 43
0.00000001
 40
0.0
 40
0.0
 40
0.0
 40
0.0
 40
0.25
 40
0.25
 40
0.5
 40
0.5
 40
0.75
 40
0.75
 40
1.0
 40
1.0
 40
1.0
 40
1.0
 10
196.459425749477
 20
100.5456236463827
 30
0.0
 10
196.6311790359385
 20
100.5456236463827
 30
0.0
 10
196.8028660832228
 20
100.5456236463827
 30
0.0
 10
197.0949204437727
 20
100.5456236463827
 30
0.0
 10
197.218233857144
 20
100.5456236463827
 30
0.0
 10
197.4255568024032
 20
100.5456236463827
 30
0.0
 10
197.5101940227783
 20
100.5456236463827
 30
0.0
 10
197.6540008736017
 20
100.5456236463827
 30
0.0
 10
197.7112606629921
 20
100.5456236463827
 30
0.0
 10
197.7584638551549
 20
100.5456236463827
 30
0.0
  0
LINE
  5
1D3
330
1F
100
AcDbEntity
  8
0
  6
PHANTOM
 62
     7
370
    25
100
AcDbLine
 10
200.2122024992
 20
129.4413758158
 30
0.0
 11
200.2122024992
 21
102.0956236464
 31
0.0
  0
SPLINE
  5
1D4
330
1F
100
AcDbEntity
  8
0
  6
PHANTOM
 62
     7
370
    25
100
AcDbSpline
210
0.0
220
0.0
230
1.0
 70
    24
 71
     3
 72
    13
 73
     9
 74
     0
 42
0.000000001
 43
0.00000001
 40
0.0
 40
0.0
 40
0.0
 40
0.0
 40
0.1797550010703248
 40
0.359797462527386
 40
0.5409490587912762
 40
0.7225979612414739
 40
0.9714267287649057
 40
1.0
 40
1.0
 40
1.0
 40
1.0
 10
197.7584638551549
 20
100.5456236463827
 30
0.0
 10
197.9226220097905
 20
100.5456236463827
 30
0.0
 10
198.2512008373022
 20
100.5456236463827
 30
0.0
 10
198.6542330973278
 20
100.5456236463827
 30
0.0
 10
198.9806686840734
 20
100.5456236463827
 30
0.0
 10
199.2213861893808
 20
100.5456236463827
 30
0.0
 10
199.3444246173817
 20
100.5456236463827
 30
0.0
 10
199.3099425366475
 20
100.5456236463827
 30
0.0
 10
199.3063907752762
 20
100.5456236463827
 30
0.0
  0
SPLINE
  5
1D5
330
1F
100
AcDbEntity
  8
0
  6
PHANTOM
 62
     7
370
    25
100
AcDbSpline
210
0.0
220
0.0
230
1.0
 70
    24
 71
     3
 72
     8
 73
     4
 74
     0
 42
0.000000001
 43
0.00000001
 40
0.0
 40
0.0
 40
0.0
 40
0.0
 40
1.0
 40
1.0
 40
1.0
 40
1.0
 10
200.2122024992096
 20
129.44137581582
 30
0.0
 10
199.4440368668483
 20
129.5630412995781
 30
0.0
 10
198.6142627233717
 20
129.6944646128885
 30
0.0
 10
197.7584638551537
 20
129.8300098376615
 30
0.0
  0
LINE
  5
1D6
330
1F
100
AcDbEntity
  8
0
  6
PHANTOM
 62
     7
370
    25
100
AcDbLine
 10
128.4622024992
 20
98.5956236464
 30
0.0
 11
128.4622024992
 21
137.5956236435
 31
0.0
  0
LINE
  5
1D7
330
1F
100
AcDbEntity
  8
0
  6
PHANTOM
 62
     7
370
    25
100
AcDbLine
 10
194.0611797244
 20
100.5356236464
 30
0.0
 11
194.0611797244
 21
100.5456236464
 31
0.0
  0
LINE
  5
1D8
330
1F
100
AcDbEntity
  8
0
  6
PHANTOM
 62
     7
370
    25
100
AcDbLine
 10
106.4622024992
 20
107.0956236464
 30
0.0
 11
106.4622024992
 21
129.0956236464
 31
0.0
  0
SPLINE
  5
1D9
330
1F
100
AcDbEntity
  8
0
  6
PHANTOM
 62
     7
370
    25
100
AcDbSpline
210
0.0
220
0.0
230
1.0
 70
     8
 71
     3
 72
    40
 73
    36
 74
     0
 42
0.000000001
 43
0.00000001
 40
0.0
 40
0.0
 40
0.0
 40
0.0
 40
0.0075058692915563
 40
0.0255885055303426
 40
0.0623797593458887
 40
0.0811197522442133
 40
0.0993467967045097
 40
0.1362804558112191
 40
0.1549983308338271
 40
0.1811531385240198
 40
0.2343844926465918
 40
0.2614771722109818
 40
0.2881538291603894
 40
0.342180870612204
 40
0.3695646078091499
 40
0.4006647565883037
 40
0.463886264773707
 40
0.4960852161955415
 40
0.5275928413887655
 40
0.5593222925005061
 40
0.5917457557166353
 40
0.6244063677472754
 40
0.6558790322932702
 40
0.6875676122567698
 40
0.7199540349554536
 40
0.7525945418630546
 40
0.777819907728661
 40
0.8290067092068301
 40
0.8550624896060506
 40
0.875147395736463
 40
0.9159202204121414
 40
0.9366818491871038
 40
0.9567733781002513
 40
0.9978129726377791
 40
1.0
 40
1.0
 40
1.0
 40
1.0
 10
110.716315613839
 20
129.0941724920845
 30
0.0
 10
110.7151729423636
 20
129.0945755520243
 30
0.0
 10
110.7112774235062
 20
129.0959496369031
 30
0.0
 10
110.7436812826092
 20
129.0845188921575
 30
0.0
 10
110.8230545684553
 20
129.0566388268532
 30
0.0
 10
110.9537733420991
 20
129.0115731712417
 30
0.0
 10
111.113881776335
 20
128.9571897157631
 30
0.0
 10
111.3158589309297
 20
128.8902680403944
 30
0.0
 10
111.5782824949982
 20
128.8066992804482
 30
0.0
 10
111.9276229879658
 20
128.6992452675653
 30
0.0
 10
112.3657274181721
 20
128.5739360523979
 30
0.0
 10
112.8504789623557
 20
128.4496544494568
 30
0.0
 10
113.3657157609407
 20
128.3283872238156
 30
0.0
 10
113.9184705492741
 20
128.216926954572
 30
0.0
 10
114.5206565793529
 20
128.1199469193132
 30
0.0
 10
115.1899842515068
 20
128.0323108325323
 30
0.0
 10
115.9105707126846
 20
127.9749480644821
 30
0.0
 10
116.6408940903198
 20
127.9578285639269
 30
0.0
 10
117.1906765140045
 20
127.9654909572242
 30
0.0
 10
117.7383276345321
 20
127.9933862104808
 30
0.0
 10
118.2852220833683
 20
128.0413289031994
 30
0.0
 10
118.8192995933049
 20
128.1073352374783
 30
0.0
 10
119.3344661679758
 20
128.1883040933354
 30
0.0
 10
119.8301586284873
 20
128.2816078671027
 30
0.0
 10
120.3097480969038
 20
128.3858829324795
 30
0.0
 10
120.7325931787089
 20
128.4892590267374
 30
0.0
 10
121.2119140060071
 20
128.6167111321576
 30
0.0
 10
121.6192401537582
 20
128.7360046809735
 30
0.0
 10
121.9509980787112
 20
128.8397746335318
 30
0.0
 10
122.2142017954425
 20
128.9248777273454
 30
0.0
 10
122.4163268814402
 20
128.9928927249165
 30
0.0
 10
122.5646704716229
 20
129.0439700239023
 30
0.0
 10
122.6716439988744
 20
129.0812605692608
 30
0.0
 10
122.721073523539
 20
129.098752588751
 30
0.0
 10
122.7111240688598
 20
129.0952433341573
 30
0.0
 10
122.7106206816261
 20
129.0950657853349
 30
0.0
  0
LINE
  5
1DA
330
1F
100
AcDbEntity
  8
0
  6
PHANTOM
 62
     7
370
    25
100
AcDbLine
 10
125.9622024992
 20
107.0956236464
 30
0.0
 11
125.9622024992
 21
129.0956236464
 31
0.0
  0
SPLINE
  5
1DB
330
1F
100
AcDbEntity
  8
0
  6
PHANTOM
 62
     7
370
    25
100
AcDbSpline
210
0.0
220
0.0
230
1.0
 70
    11
 71
     3
 72
    78
 73
    74
 74
     0
 42
0.000000001
 43
0.00000001
 40
0.0
 40
0.0
 40
0.0
 40
0.0
 40
0.03125
 40
0.03125
 40
0.0625
 40
0.0625
 40
0.078125
 40
0.078125
 40
0.0937500000000001
 40
0.0937500000000001
 40
0.1250000000000003
 40
0.1250000000000003
 40
0.1406250000000004
 40
0.1406250000000004
 40
0.1562500000000004
 40
0.1562500000000004
 40
0.1718750000000005
 40
0.1718750000000005
 40
0.1875000000000006
 40
0.1875000000000006
 40
0.2187500000000006
 40
0.2187500000000006
 40
0.2500000000000006
 40
0.2500000000000006
 40
0.2812500000000006
 40
0.2812500000000006
 40
0.3125000000000005
 40
0.3125000000000005
 40
0.3750000000000005
 40
0.3750000000000005
 40
0.4375000000000004
 40
0.4375000000000004
 40
0.4687500000000004
 40
0.4687500000000004
 40
0.5000000000000003
 40
0.5000000000000003
 40
0.5312500000000002
 40
0.5312500000000002
 40
0.5468750000000002
 40
0.5468750000000002
 40
0.5625000000000002
 40
0.5625000000000002
 40
0.5937500000000002
 40
0.5937500000000002
 40
0.6250000000000001
 40
0.6250000000000001
 40
0.6406250000000001
 40
0.6406250000000001
 40
0.6562500000000001
 40
0.6562500000000001
 40
0.6875000000000001
 40
0.6875000000000001
 40
0.7031250000000001
 40
0.7031250000000001
 40
0.7187500000000001
 40
0.7187500000000001
 40
0.7500000000000001
 40
0.7500000000000001
 40
0.7812500000000001
 40
0.7812500000000001
 40
0.8125000000000001
 40
0.8125000000000001
 40
0.8437500000000001
 40
0.8437500000000001
 40
0.875
 40
0.875
 40
0.90625
 40
0.90625
 40
0.9375
 40
0.9375
 40
0.96875
 40
0.96875
 40
1.0
 40
1.0
 40
1.0
 40
1.0
 10
112.754511746395
 20
121.7387520627735
 30
0.0
 10
112.4655582445495
 20
121.5320012563468
 30
0.0
 10
112.1989633007233
 20
121.3022025701682
 30
0.0
 10
111.7139092291248
 20
120.790635594271
 30
0.0
 10
111.4942985027196
 20
120.5059920584336
 30
0.0
 10
111.2212250546061
 20
120.0505684306977
 30
0.0
 10
111.1390286667035
 20
119.8935043777953
 30
0.0
 10
110.9937580684819
 20
119.5678532738244
 30
0.0
 10
110.9303049897515
 20
119.3977923384637
 30
0.0
 10
110.7759997685581
 20
118.8816126744802
 30
0.0
 10
110.7196777029884
 20
118.5294478659034
 30
0.0
 10
110.7094954917075
 20
117.9882685770443
 30
0.0
 10
110.7189143864436
 20
117.8053273498999
 30
0.0
 10
110.762248122439
 20
117.4481332341616
 30
0.0
 10
110.7960408531228
 20
117.2722137437833
 30
0.0
 10
110.8869086574802
 20
116.9254937969533
 30
0.0
 10
110.9444852819515
 20
116.7535694857509
 30
0.0
 10
111.0801617436518
 20
116.4208948520253
 30
0.0
 10
111.1579071185838
 20
116.2604673793693
 30
0.0
 10
111.418342849366
 20
115.7952284295913
 30
0.0
 10
111.6305815121134
 20
115.5041483038223
 30
0.0
 10
112.1018866460398
 20
114.9807321191049
 30
0.0
 10
112.3619442108421
 20
114.7455044974034
 30
0.0
 10
112.926554818088
 20
114.3211988543206
 30
0.0
 10
113.2299474375754
 20
114.133814402748
 30
0.0
 10
113.8591691446066
 20
113.8135289019772
 30
0.0
 10
114.1878233545486
 20
113.6786944820381
 30
0.0
 10
115.2128283509071
 20
113.3494753007187
 30
0.0
 10
115.9167889018732
 20
113.2375247770874
 30
0.0
 10
117.3669379540881
 20
113.223483690123
 30
0.0
 10
118.0732523908867
 20
113.3218595678789
 30
0.0
 10
119.1047732708385
 20
113.6302004129016
 30
0.0
 10
119.4365293728929
 20
113.7583751488256
 30
0.0
 10
120.070457546069
 20
114.063800271977
 30
0.0
 10
120.3737205083605
 20
114.2412892534719
 30
0.0
 10
120.9506441133883
 20
114.6526853564767
 30
0.0
 10
121.2192660061552
 20
114.8834736990585
 30
0.0
 10
121.5825210598108
 20
115.265189647283
 30
0.0
 10
121.6973588925414
 20
115.3986888849209
 30
0.0
 10
121.9134450837921
 20
115.6795735004596
 30
0.0
 10
122.0151051390152
 20
115.8278001992375
 30
0.0
 10
122.2906780929237
 20
116.2850970339504
 30
0.0
 10
122.4378437121518
 20
116.6087665699965
 30
0.0
 10
122.6468207496467
 20
117.3009409815353
 30
0.0
 10
122.7039425839915
 20
117.6563467246205
 30
0.0
 10
122.7150855083306
 20
118.1947534633706
 30
0.0
 10
122.706197115025
 20
118.3771090482882
 30
0.0
 10
122.6632701791416
 20
118.7368015127177
 30
0.0
 10
122.6295926235172
 20
118.9132815068477
 30
0.0
 10
122.494136846104
 20
119.4332750534905
 30
0.0
 10
122.3557115080672
 20
119.7705517788286
 30
0.0
 10
122.0955086394859
 20
120.2366524715801
 30
0.0
 10
121.9998941657386
 20
120.3862587622137
 30
0.0
 10
121.7919916734053
 20
120.6748113848754
 30
0.0
 10
121.6792469741801
 20
120.8141225757075
 30
0.0
 10
121.324519017757
 20
121.2087281788805
 30
0.0
 10
121.0643725926401
 20
121.4440220221711
 30
0.0
 10
120.5018881848027
 20
121.8672949337678
 30
0.0
 10
120.1973203939881
 20
122.0558151718621
 30
0.0
 10
119.5669787651346
 20
122.3769905315407
 30
0.0
 10
119.2392575489417
 20
122.5114597846062
 30
0.0
 10
118.5586690165311
 20
122.7305209250306
 30
0.0
 10
118.2070439350707
 20
122.8141096837245
 30
0.0
 10
117.5018732373237
 20
122.9269139942229
 30
0.0
 10
117.1455289107378
 20
122.9570896681527
 30
0.0
 10
116.4251290039651
 20
122.9643414026923
 30
0.0
 10
116.0616835452406
 20
122.9407768570475
 30
0.0
 10
115.3537268402484
 20
122.841580533878
 30
0.0
 10
115.0057827822265
 20
122.7661272055856
 30
0.0
 10
114.3219817846186
 20
122.5617723601223
 30
0.0
 10
113.9859208388803
 20
122.4321848926669
 30
0.0
 10
113.3482873219879
 20
122.1244623650213
 30
0.0
 10
113.0434652482405
 20
121.9455028692001
 30
0.0
 10
112.754511746395
 20
121.7387520627735
 30
0.0
  0
CIRCLE
  5
1DC
330
1F
100
AcDbEntity
  8
0
  6
PHANTOM
 62
     7
370
    25
100
AcDbCircle
 10
116.7122024992
 20
118.0956236464
 30
0.0
 40
4.66858565927437
  0
LINE
  5
1DD
330
1F
100
AcDbEntity
  8
0
  6
PHANTOM
 62
     7
370
    25
100
AcDbLine
 10
100.4622024992
 20
108.3056236464
 30
0.0
 11
100.4622024992
 21
127.8856236194
 31
0.0
  0
SPLINE
  5
1DE
330
1F
100
AcDbEntity
  8
0
  6
PHANTOM
 62
     7
370
    25
100
AcDbSpline
210
0.0
220
0.0
230
1.0
 70
     8
 71
     3
 72
    18
 73
    14
 74
     0
 42
0.000000001
 43
0.00000001
 40
0.0
 40
0.0
 40
0.0
 40
0.0
 40
0.2499999999999986
 40
0.2499999999999986
 40
0.3749999999999986
 40
0.3749999999999986
 40
0.4999999999999986
 40
0.4999999999999986
 40
0.6249999999999986
 40
0.6249999999999986
 40
0.7499999999999986
 40
0.7499999999999986
 40
1.0
 40
1.0
 40
1.0
 40
1.0
 10
115.4355775787542
 20
120.499786702417
 30
0.0
 10
115.5992714589349
 20
120.6245645927144
 30
0.0
 10
115.7928226104244
 20
120.734465684413
 30
0.0
 10
116.1183374276351
 20
120.8508400445043
 30
0.0
 10
116.2338698141061
 20
120.881805543083
 30
0.0
 10
116.4678968236589
 20
120.923083175023
 30
0.0
 10
116.5879565002656
 20
120.9339984371288
 30
0.0
 10
116.8336278809007
 20
120.9341651791368
 30
0.0
 10
116.9538646225728
 20
120.923441274162
 30
0.0
 10
117.1895506618045
 20
120.8820857104182
 30
0.0
 10
117.3053417028144
 20
120.8510509543923
 30
0.0
 10
117.6306812472385
 20
120.7348845130983
 30
0.0
 10
117.8244168878725
 20
120.6251108701691
 30
0.0
 10
117.988827419665
 20
120.499786702417
 30
0.0
  0
SPLINE
  5
1DF
330
1F
100
AcDbEntity
  8
0
  6
PHANTOM
 62
     7
370
    25
100
AcDbSpline
210
0.0
220
0.0
230
1.0
 70
     8
 71
     3
 72
    54
 73
    50
 74
     0
 42
0.000000001
 43
0.00000001
 40
0.0
 40
0.0
 40
0.0
 40
0.0
 40
0.0625000000000001
 40
0.0625000000000001
 40
0.1250000000000003
 40
0.1250000000000003
 40
0.1562500000000003
 40
0.1562500000000003
 40
0.1875000000000004
 40
0.1875000000000004
 40
0.2187500000000004
 40
0.2187500000000004
 40
0.2500000000000004
 40
0.2500000000000004
 40
0.2812500000000005
 40
0.2812500000000005
 40
0.3125000000000005
 40
0.3125000000000005
 40
0.3750000000000006
 40
0.3750000000000006
 40
0.4375000000000007
 40
0.4375000000000007
 40
0.4687500000000008
 40
0.4687500000000008
 40
0.5000000000000008
 40
0.5000000000000008
 40
0.5312500000000009
 40
0.5312500000000009
 40
0.5625000000000009
 40
0.5625000000000009
 40
0.625000000000001
 40
0.625000000000001
 40
0.656250000000001
 40
0.656250000000001
 40
0.687500000000001
 40
0.687500000000001
 40
0.7500000000000008
 40
0.7500000000000008
 40
0.7812500000000008
 40
0.7812500000000008
 40
0.8125000000000007
 40
0.8125000000000007
 40
0.8437500000000007
 40
0.8437500000000007
 40
0.8750000000000006
 40
0.8750000000000006
 40
0.9375000000000003
 40
0.9375000000000003
 40
1.0
 40
1.0
 40
1.0
 40
1.0
 10
117.9888274196649
 20
120.499786702417
 30
0.0
 10
118.2772033861645
 20
120.3823006040005
 30
0.0
 10
118.5355218980385
 20
120.2291166724908
 30
0.0
 10
119.0035777385125
 20
119.8382207925282
 30
0.0
 10
119.2037757561855
 20
119.6082440464351
 30
0.0
 10
119.4434267156318
 20
119.1970279670224
 30
0.0
 10
119.5106249501418
 20
119.0525148373661
 30
0.0
 10
119.6172606760828
 20
118.747770251793
 30
0.0
 10
119.6568104126831
 20
118.5852341492009
 30
0.0
 10
119.7011938816501
 20
118.2590343700771
 30
0.0
 10
119.7069054110073
 20
118.0940568579271
 30
0.0
 10
119.6835928456593
 20
117.7601343145468
 30
0.0
 10
119.6548635369469
 20
117.5972966365794
 30
0.0
 10
119.5668479368256
 20
117.2830586116536
 30
0.0
 10
119.5068823008909
 20
117.1305782808911
 30
0.0
 10
119.3635666443175
 20
116.8473323670632
 30
0.0
 10
119.2790691089156
 20
116.7137739011312
 30
0.0
 10
118.9966262424791
 20
116.3438759452629
 30
0.0
 10
118.7737258875939
 20
116.1399494121167
 30
0.0
 10
118.2653060510804
 20
115.8024421622104
 30
0.0
 10
117.9891384368353
 20
115.6745795740826
 30
0.0
 10
117.5288881994836
 20
115.5393404515536
 30
0.0
 10
117.3713281756385
 20
115.5051503920245
 30
0.0
 10
117.0483083070004
 20
115.4588337782528
 30
0.0
 10
116.8803061320401
 20
115.4467233911717
 30
0.0
 10
116.548272360996
 20
115.4465271756685
 30
0.0
 10
116.3841702360478
 20
115.4580350597144
 30
0.0
 10
116.0595191968805
 20
115.5038834280602
 30
0.0
 10
115.8997459229426
 20
115.5384145800385
 30
0.0
 10
115.4446458067172
 20
115.6712082544044
 30
0.0
 10
115.1617576281035
 20
115.80133056034
 30
0.0
 10
114.7829184555219
 20
116.0518458436774
 30
0.0
 10
114.6638383430665
 20
116.1446478961008
 30
0.0
 10
114.4397326872074
 20
116.3515018204368
 30
0.0
 10
114.3355299227236
 20
116.4650881298927
 30
0.0
 10
114.0548105093252
 20
116.8315458612855
 30
0.0
 10
113.9045949118979
 20
117.1191625185216
 30
0.0
 10
113.7713273940604
 20
117.5889745049332
 30
0.0
 10
113.7417196062031
 20
117.754757547948
 30
0.0
 10
113.7176752960414
 20
118.0842617114899
 30
0.0
 10
113.7224475731092
 20
118.2499941600729
 30
0.0
 10
113.7666002527183
 20
118.581222195797
 30
0.0
 10
113.8050212861754
 20
118.7402893119024
 30
0.0
 10
113.9113245555825
 20
119.0468518482388
 30
0.0
 10
113.9794844365856
 20
119.1938695093231
 30
0.0
 10
114.2164126662669
 20
119.6021724923609
 30
0.0
 10
114.4218192614683
 20
119.8391566559479
 30
0.0
 10
114.8890524349799
 20
120.2291504292908
 30
0.0
 10
115.1471157857839
 20
120.3822656377816
 30
0.0
 10
115.4355775787542
 20
120.499786702417
 30
0.0
  0
SPLINE
  5
1E0
330
1F
100
AcDbEntity
  8
0
  6
PHANTOM
 62
     7
370
    25
100
AcDbSpline
210
0.0
220
0.0
230
1.0
 70
     8
 71
     3
 72
    19
 73
    15
 74
     0
 42
0.000000001
 43
0.00000001
 40
0.0
 40
0.0
 40
0.0
 40
0.0
 40
0.0314950045368304
 40
0.1107998751919754
 40
0.1905255638326065
 40
0.2717510215838963
 40
0.3535942467657797
 40
0.4329362742916894
 40
0.512997405913587
 40
0.5953904063325467
 40
0.6785884091101582
 40
0.8183467088212566
 40
0.96100846216879
 40
1.0
 40
1.0
 40
1.0
 40
1.0
 10
115.4371072273945
 20
120.5008303670693
 30
0.0
 10
115.4611392866179
 20
120.4905422532679
 30
0.0
 10
115.5456844137492
 20
120.4543485221692
 30
0.0
 10
115.6999371270706
 20
120.4002365535127
 30
0.0
 10
115.8985094781959
 20
120.3388150874696
 30
0.0
 10
116.1058728073029
 20
120.2885234439961
 30
0.0
 10
116.3178104814636
 20
120.2516370875983
 30
0.0
 10
116.5323016810528
 20
120.2300358281844
 30
0.0
 10
116.7489819403869
 20
120.2244348175093
 30
0.0
 10
116.9687565238426
 20
120.2357503326535
 30
0.0
 10
117.2389440890395
 20
120.2703226445882
 30
0.0
 10
117.5529758793947
 20
120.3429291779904
 30
0.0
 10
117.8178846420156
 20
120.4294749294897
 30
0.0
 10
117.9572190199281
 20
120.4882413684237
 30
0.0
 10
117.9871268824959
 20
120.5008554741855
 30
0.0
  0
LINE
  5
1E1
330
1F
100
AcDbEntity
  8
0
  6
PHANTOM
 62
     7
370
    25
100
AcDbLine
 10
196.3997435722
 20
100.5356236464
 30
0.0
 11
194.0611797244
 21
100.5356236464
 31
0.0
  0
LINE
  5
1E2
330
1F
100
AcDbEntity
  8
0
  6
PHANTOM
 62
     7
370
    25
100
AcDbLine
 10
194.0611797244
 20
100.5356236464
 30
0.0
 11
194.0122024992
 21
100.5356236464
 31
0.0
  0
CIRCLE
  5
1E3
330
1F
100
AcDbEntity
  8
0
  6
PHANTOM
 62
     7
370
    25
100
AcDbCircle
 10
165.9333900736
 20
146.6162248137
 30
0.0
 40
0.7748015129974458
  0
ARC
  5
1E4
330
1F
100
AcDbEntity
  8
0
  6
PHANTOM
 62
     7
370
    25
100
AcDbCircle
 10
163.0621822498
 20
150.1627659859
 30
0.0
 40
0.1077525032277331
100
AcDbArc
 50
79.9871684462
 51
179.978450116
  0
ARC
  5
1E5
330
1F
100
AcDbEntity
  8
0
  6
PHANTOM
 62
     7
370
    25
100
AcDbCircle
 10
163.0621273431
 20
150.2457168973
 30
0.0
 40
0.3999248722038532
100
AcDbArc
 50
79.987168447
 51
179.9784501152
  0
LINE
  5
1E6
330
1F
100
AcDbEntity
  8
0
  6
PHANTOM
 62
     7
370
    25
100
AcDbLine
 10
163.08091704
 20
150.2688772935
 30
0.0
 11
168.63091704
 21
149.2908586962
 31
0.0
  0
LINE
  5
1E7
330
1F
100
AcDbEntity
  8
0
  6
PHANTOM
 62
     7
370
    25
100
AcDbLine
 10
163.1316617703
 20
150.6395504495
 30
0.0
 11
168.6816617703
 21
149.6615318522
 31
0.0
  0
LINE
  5
1E8
330
1F
100
AcDbEntity
  8
0
  6
PHANTOM
 62
     7
370
    25
100
AcDbLine
 10
168.7199752443
 20
149.1847879162
 30
0.0
 11
168.7199752443
 21
149.1729219907
 31
0.0
  0
LINE
  5
1E9
330
1F
100
AcDbEntity
  8
0
  6
PHANTOM
 62
     7
370
    25
100
AcDbLine
 10
163.0551807367
 20
144.4224906071
 30
0.0
 11
163.0434879584
 21
144.4245511034
 31
0.0
  0
ARC
  5
1EA
330
1F
100
AcDbEntity
  8
0
  6
PHANTOM
 62
     7
370
    25
100
AcDbCircle
 10
163.0621556051
 20
144.5306471852
 30
0.0
 40
0.1077258539020673
100
AcDbArc
 50
180.0134571391
 51
260.020927937
  0
LINE
  5
1EB
330
1F
100
AcDbEntity
  8
0
  6
PHANTOM
 62
     7
370
    25
100
AcDbLine
 10
162.9544297542
 20
144.5306218835
 30
0.0
 11
162.9544297542
 21
150.1628065134
 31
0.0
  0
ARC
  5
1EC
330
1F
100
AcDbEntity
  8
0
  6
PHANTOM
 62
     7
370
    25
100
AcDbCircle
 10
168.6122493933
 20
149.1847626144
 30
0.0
 40
0.1077258539020014
100
AcDbArc
 50
0.0134571391
 51
80.020927937
  0
LINE
  5
1ED
330
1F
100
AcDbEntity
  8
0
  6
PHANTOM
 62
     7
370
    25
100
AcDbLine
 10
162.6622024992
 20
144.6136826856
 30
0.0
 11
162.6622024992
 21
150.2458673156
 31
0.0
  0
ARC
  5
1EE
330
1F
100
AcDbEntity
  8
0
  6
PHANTOM
 62
     7
370
    25
100
AcDbCircle
 10
168.61229921
 20
149.2676284058
 30
0.0
 40
0.3999638606408128
100
AcDbArc
 50
27.3017215014
 51
80.0131546542
  0
ARC
  5
1EF
330
1F
100
AcDbEntity
  8
0
  6
PHANTOM
 62
     7
370
    25
100
AcDbCircle
 10
163.0618926775
 20
144.6137226134
 30
0.0
 40
0.3996901802806627
100
AcDbArc
 50
180.0057236648
 51
233.2264654967
  0
ELLIPSE
  5
1F0
330
1F
100
AcDbEntity
  8
0
  6
PHANTOM
 62
     7
370
    25
100
AcDbEllipse
 10
164.5237387
 20
143.0657472233
 30
0.0
 11
37.46357312604795
 21
-6.986315017984623
 31
0.0
210
0.0
220
0.0
230
1.0
 40
0.1545180653
 41
1.433108762878105
 42
1.615888145996128
  0
SPLINE
  5
1F1
330
1F
100
AcDbEntity
  8
0
  6
PHANTOM
 62
     7
370
    25
100
AcDbSpline
210
0.0
220
0.0
230
1.0
 70
     8
 71
     3
 72
    12
 73
     8
 74
     0
 42
0.000000001
 43
0.00000001
 40
0.0
 40
0.0
 40
0.0
 40
0.0
 40
0.1798043370495014
 40
0.5127527588129268
 40
0.6812103755578184
 40
0.8495823161227183
 40
1.0
 40
1.0
 40
1.0
 40
1.0
 10
174.1968466515944
 20
148.5956247833415
 30
0.0
 10
174.0267034311044
 20
148.4851664398608
 30
0.0
 10
173.5415015325786
 20
148.170169475477
 30
0.0
 10
172.757801037437
 20
147.873965799894
 30
0.0
 10
171.9289892689535
 20
147.7501392867207
 30
0.0
 10
171.3105472701754
 20
147.7431655033877
 30
0.0
 10
170.9195211389573
 20
147.8095472677157
 30
0.0
 10
170.7350193845596
 20
147.8408688367894
 30
0.0
  0
LINE
  5
1F2
330
1F
100
AcDbEntity
  8
0
  6
PHANTOM
 62
     7
370
    25
100
AcDbLine
 10
174.1979129337
 20
148.5956236464
 30
0.0
 11
174.1968466516
 21
148.5956247833
 31
0.0
  0
LINE
  5
1F3
330
1F
100
AcDbEntity
  8
0
  6
PHANTOM
 62
     7
370
    25
100
AcDbLine
 10
181.0376430101
 20
148.5956236464
 30
0.0
 11
174.1979129337
 21
148.5956236464
 31
0.0
  0
SPLINE
  5
1F4
330
1F
100
AcDbEntity
  8
0
  6
PHANTOM
 62
     7
370
    25
100
AcDbSpline
210
0.0
220
0.0
230
1.0
 70
     8
 71
     3
 72
    12
 73
     8
 74
     0
 42
0.000000001
 43
0.00000001
 40
0.0
 40
0.0
 40
0.0
 40
0.0
 40
0.2455032411790307
 40
0.4924292635960723
 40
0.6185780489214101
 40
0.8722983661451863
 40
1.0
 40
1.0
 40
1.0
 40
1.0
 10
164.7167570183253
 20
148.1554920106798
 30
0.0
 10
165.9456978039855
 20
147.7157153162836
 30
0.0
 10
168.4107015374576
 20
146.8336132604076
 30
0.0
 10
171.6010000980939
 20
146.0334617374553
 30
0.0
 10
174.8712461848688
 20
145.4365694500209
 30
0.0
 10
177.5522337536883
 20
145.139223722903
 30
0.0
 10
179.573564495753
 20
145.1065596964354
 30
0.0
 10
180.2503143199115
 20
145.0956236463827
 30
0.0
  0
SPLINE
  5
1F5
330
1F
100
AcDbEntity
  8
0
  6
PHANTOM
 62
     7
370
    25
100
AcDbSpline
210
0.0
220
0.0
230
1.0
 70
     8
 71
     3
 72
     9
 73
     5
 74
     0
 42
0.000000001
 43
0.00000001
 40
0.0
 40
0.0
 40
0.0
 40
0.0
 40
0.4999985675502346
 40
1.0
 40
1.0
 40
1.0
 40
1.0
 10
164.7167570183253
 20
148.1554920106798
 30
0.0
 10
164.5826682034983
 20
148.323149698706
 30
0.0
 10
164.31448980554
 20
148.6584660354061
 30
0.0
 10
164.0471135498525
 20
148.9952089339138
 30
0.0
 10
163.9134250390056
 20
149.1635808655349
 30
0.0
  0
LINE
  5
1F6
330
1F
100
AcDbEntity
  8
0
  6
PHANTOM
 62
     7
370
    25
100
AcDbLine
 10
170.938571592
 20
138.1456236464
 30
0.0
 11
180.2503143199
 21
139.6204588068
 31
0.0
  0
LINE
  5
1F7
330
1F
100
AcDbEntity
  8
0
  6
PHANTOM
 62
     7
370
    25
100
AcDbLine
 10
168.1646677196
 20
138.1456236464
 30
0.0
 11
170.938571592
 21
138.1456236464
 31
0.0
  0
LINE
  5
1F8
330
1F
100
AcDbEntity
  8
0
  6
PHANTOM
 62
     7
370
    25
100
AcDbLine
 10
164.7167570183
 20
141.486489983
 30
0.0
 11
168.1646677196
 21
138.1456236464
 31
0.0
  0
LINE
  5
1F9
330
1F
100
AcDbEntity
  8
0
  6
PHANTOM
 62
     7
370
    25
100
AcDbLine
 10
164.7167570183
 20
148.1554920107
 30
0.0
 11
164.7167570183
 21
141.486489983
 31
0.0
  0
ELLIPSE
  5
1FA
330
1F
100
AcDbEntity
  8
0
  6
PHANTOM
 62
     7
370
    25
100
AcDbEllipse
 10
165.9336206407
 20
146.5113717057
 30
0.0
 11
-0.6984410129142021
 21
0.7562915866641619
 31
0.0
210
0.0
220
0.0
230
1.0
 40
0.9919499568
 41
0.0
 42
6.283185307179586
  0
LINE
  5
1FB
330
1F
100
AcDbEntity
  8
0
  6
PHANTOM
 62
     7
370
    25
100
AcDbLine
 10
195.5622024992
 20
142.5956236464
 30
0.0
 11
194.9049217815
 21
142.5956236464
 31
0.0
  0
LINE
  5
1FC
330
1F
100
AcDbEntity
  8
0
  6
PHANTOM
 62
     7
370
    25
100
AcDbLine
 10
194.9049217815
 20
141.9415206078
 30
0.0
 11
194.9049217815
 21
142.5956236464
 31
0.0
  0
LINE
  5
1FD
330
1F
100
AcDbEntity
  8
0
  6
PHANTOM
 62
     7
370
    25
100
AcDbLine
 10
180.2503143199
 20
145.0956236464
 30
0.0
 11
195.5622024992
 21
145.0956236464
 31
0.0
  0
LINE
  5
1FE
330
1F
100
AcDbEntity
  8
0
  6
PHANTOM
 62
     7
370
    25
100
AcDbLine
 10
180.2503143199
 20
139.6204588068
 30
0.0
 11
194.9049217815
 21
141.9415206078
 31
0.0
  0
LINE
  5
1FF
330
1F
100
AcDbEntity
  8
0
  6
PHANTOM
 62
     7
370
    25
100
AcDbLine
 10
181.0376430101
 20
148.5956236464
 30
0.0
 11
192.0622024992
 21
148.5956236464
 31
0.0
  0
LINE
  5
200
330
1F
100
AcDbEntity
  8
0
  6
PHANTOM
 62
     7
370
    25
100
AcDbLine
 10
167.3131843739
 20
138.1456236464
 30
0.0
 11
162.7752319378
 21
142.6470070806
 31
0.0
  0
LINE
  5
201
330
1F
100
AcDbEntity
  8
0
  6
PHANTOM
 62
     7
370
    25
100
AcDbLine
 10
163.7166726429
 20
142.379418008
 30
0.0
 11
162.7752319378
 21
142.6470070806
 31
0.0
  0
LINE
  5
202
330
1F
100
AcDbEntity
  8
0
  6
PHANTOM
 62
     7
370
    25
100
AcDbLine
 10
164.7167570183
 20
141.486489983
 30
0.0
 11
163.7166726429
 21
142.379418008
 31
0.0
  0
LINE
  5
203
330
1F
100
AcDbEntity
  8
0
  6
PHANTOM
 62
     7
370
    25
100
AcDbLine
 10
168.1646677196
 20
138.1456236464
 30
0.0
 11
167.3131843739
 21
138.1456236464
 31
0.0
  0
ELLIPSE
  5
204
330
1F
100
AcDbEntity
  8
0
  6
PHANTOM
 62
     7
370
    25
100
AcDbEllipse
 10
171.7889878193
 20
154.1079124316
 30
0.0
 11
0.9489020500510321
 21
4.94434917778068
 31
0.0
210
0.0
220
0.0
230
1.0
 40
0.993111535
 41
3.156670330950656
 42
3.237406650603276
  0
LINE
  5
205
330
1F
100
AcDbEntity
  8
0
  6
PHANTOM
 62
     7
370
    25
100
AcDbLine
 10
171.3141930611
 20
149.0960875313
 30
0.0
 11
174.1111401423
 21
148.6032107275
 31
0.0
  0
LINE
  5
206
330
1F
100
AcDbEntity
  8
0
  6
PHANTOM
 62
     7
370
    25
100
AcDbLine
 10
174.1111401423
 20
148.6032107275
 30
0.0
 11
174.1968466516
 21
148.5956247833
 31
0.0
  0
LINE
  5
207
330
1F
100
AcDbEntity
  8
0
  6
PHANTOM
 62
     7
370
    25
100
AcDbLine
 10
163.7166726429
 20
142.379418008
 30
0.0
 11
163.6836211265
 21
149.0420806099
 31
0.0
  0
LINE
  5
208
330
1F
100
AcDbEntity
  8
0
  6
PHANTOM
 62
     7
370
    25
100
AcDbLine
 10
163.913425039
 20
149.1635808655
 30
0.0
 11
163.6836211265
 21
149.0420806099
 31
0.0
  0
LINE
  5
209
330
1F
100
AcDbEntity
  8
0
  6
PHANTOM
 62
     7
370
    25
100
AcDbLine
 10
163.2542088138
 20
150.1360969848
 30
0.0
 11
163.913425039
 21
149.1635808655
 31
0.0
  0
LINE
  5
20A
330
1F
100
AcDbEntity
  8
0
  6
PHANTOM
 62
     7
370
    25
100
AcDbLine
 10
168.8660888717
 20
149.1471739106
 30
0.0
 11
163.2542088138
 21
150.1360969848
 31
0.0
  0
LINE
  5
20B
330
1F
100
AcDbEntity
  8
0
  6
PHANTOM
 62
     7
370
    25
100
AcDbLine
 10
168.8660888717
 20
149.1471739106
 30
0.0
 11
168.8660888717
 21
149.3369815958
 31
0.0
  0
LINE
  5
20C
330
1F
100
AcDbEntity
  8
0
  6
PHANTOM
 62
     7
370
    25
100
AcDbLine
 10
168.8660888717
 20
149.3369815958
 30
0.0
 11
168.9999240431
 21
149.4872546793
 31
0.0
  0
LINE
  5
20D
330
1F
100
AcDbEntity
  8
0
  6
PHANTOM
 62
     7
370
    25
100
AcDbLine
 10
168.9999240431
 20
149.4872546793
 30
0.0
 11
170.9142265934
 21
149.1499171127
 31
0.0
  0
LINE
  5
20E
330
1F
100
AcDbEntity
  8
0
  6
PHANTOM
 62
     7
370
    25
100
AcDbLine
 10
163.6836211265
 20
149.0420806099
 30
0.0
 11
163.0551807367
 21
149.9691943333
 31
0.0
  0
LINE
  5
20F
330
1F
100
AcDbEntity
  8
0
  6
PHANTOM
 62
     7
370
    25
100
AcDbLine
 10
163.0551807367
 20
149.9691943333
 30
0.0
 11
163.2542088138
 21
150.1360969848
 31
0.0
  0
LINE
  5
210
330
1F
100
AcDbEntity
  8
0
  6
PHANTOM
 62
     7
370
    25
100
AcDbLine
 10
162.7752319378
 20
142.6470070806
 30
0.0
 11
162.7752319378
 21
144.2672996235
 31
0.0
  0
LINE
  5
211
330
1F
100
AcDbEntity
  8
0
  6
PHANTOM
 62
     7
370
    25
100
AcDbLine
 10
162.7752319378
 20
144.2672996235
 30
0.0
 11
162.9090671092
 21
144.3414918042
 31
0.0
  0
LINE
  5
212
330
1F
100
AcDbEntity
  8
0
  6
PHANTOM
 62
     7
370
    25
100
AcDbLine
 10
162.9090671092
 20
144.3414918042
 30
0.0
 11
163.0551807367
 21
144.274213323
 31
0.0
  0
LINE
  5
213
330
1F
100
AcDbEntity
  8
0
  6
PHANTOM
 62
     7
370
    25
100
AcDbLine
 10
163.0551807367
 20
149.9691943333
 30
0.0
 11
163.0551807367
 21
144.274213323
 31
0.0
  0
LINE
  5
214
330
1F
100
AcDbEntity
  8
0
  6
PHANTOM
 62
     7
370
    25
100
AcDbLine
 10
163.0551807367
 20
144.3157437241
 30
0.0
 11
162.9090671092
 21
144.3414918042
 31
0.0
  0
LINE
  5
215
330
1F
100
AcDbEntity
  8
0
  6
Continuous
 62
     7
370
    25
100
AcDbLine
 10
195.1858334064
 20
131.5956236464
 30
0.0
 11
195.5622024992
 21
131.5956236464
 31
0.0
  0
LINE
  5
216
330
1F
100
AcDbEntity
  8
0
  6
Continuous
 62
     7
370
    25
100
AcDbLine
 10
171.2194832169
 20
135.3915206078
 30
0.0
 11
195.1858334064
 21
131.5956236464
 31
0.0
  0
LINE
  5
217
330
1F
100
AcDbEntity
  8
0
  6
Continuous
 62
     7
370
    25
100
AcDbLine
 10
171.2194832169
 20
136.0956236464
 30
0.0
 11
171.2194832169
 21
135.3915206078
 31
0.0
  0
LINE
  5
218
330
1F
100
AcDbEntity
  8
0
  6
Continuous
 62
     7
370
    25
100
AcDbLine
 10
170.5622024992
 20
136.0956236464
 30
0.0
 11
171.2194832169
 21
136.0956236464
 31
0.0
  0
LINE
  5
219
330
1F
100
AcDbEntity
  8
0
  6
Continuous
 62
     7
370
    25
100
AcDbLine
 10
170.5622024992
 20
137.4956236464
 30
0.0
 11
195.5622024992
 21
137.4956236464
 31
0.0
  0
LINE
  5
21A
330
1F
100
AcDbEntity
  8
0
  6
Continuous
 62
     7
370
    25
100
AcDbLine
 10
190.1955137117
 20
141.1956236464
 30
0.0
 11
194.0622024992
 21
141.1956236464
 31
0.0
  0
LINE
  5
21B
330
1F
100
AcDbEntity
  8
0
  6
Continuous
 62
     7
370
    25
100
AcDbLine
 10
192.8785154527
 20
141.5956236464
 30
0.0
 11
192.7210143176
 21
141.5956236464
 31
0.0
  0
SPLINE
  5
21C
330
1F
100
AcDbEntity
  8
0
  6
HIDDEN
 62
     7
370
    18
100
AcDbSpline
210
0.0
220
0.0
230
1.0
 70
     8
 71
     3
 72
     9
 73
     5
 74
     0
 42
0.000000001
 43
0.00000001
 40
0.0
 40
0.0
 40
0.0
 40
0.0
 40
0.330829853716706
 40
0.9999999999999999
 40
0.9999999999999999
 40
0.9999999999999999
 40
0.9999999999999999
 10
173.2458895457632
 20
135.0956236463827
 30
0.0
 10
173.3415502563677
 20
135.1841256306343
 30
0.0
 10
173.6307040601426
 20
135.4516407392538
 30
0.0
 10
173.9212620608407
 20
135.7176309428993
 30
0.0
 10
174.1156948006716
 20
135.8956236463827
 30
0.0
  0
LINE
  5
21D
330
1F
100
AcDbEntity
  8
0
  6
HIDDEN
 62
     7
370
    18
100
AcDbLine
 10
173.2458895458
 20
135.0956236464
 30
0.0
 11
193.6467441571
 21
135.0956236464
 31
0.0
  0
SPLINE
  5
21E
330
1F
100
AcDbEntity
  8
0
  6
HIDDEN
 62
     7
370
    18
100
AcDbSpline
210
0.0
220
0.0
230
1.0
 70
     8
 71
     3
 72
     9
 73
     5
 74
     0
 42
0.000000001
 43
0.00000001
 40
0.0
 40
0.0
 40
0.0
 40
0.0
 40
0.6691701462832916
 40
0.9999999999999999
 40
0.9999999999999999
 40
0.9999999999999999
 40
0.9999999999999999
 10
174.1156948006715
 20
135.8956236463827
 30
0.0
 10
173.9212620608406
 20
135.7176309428993
 30
0.0
 10
173.6307040601425
 20
135.4516407392538
 30
0.0
 10
173.3415502563676
 20
135.1841256306343
 30
0.0
 10
173.2458895457631
 20
135.0956236463827
 30
0.0
  0
LINE
  5
21F
330
1F
100
AcDbEntity
  8
0
  6
HIDDEN
 62
     7
370
    18
100
AcDbLine
 10
174.1156948007
 20
135.8956236464
 30
0.0
 11
173.2622024992
 21
135.8956236464
 31
0.0
  0
LINE
  5
220
330
1F
100
AcDbEntity
  8
0
  6
HIDDEN
 62
     7
370
    18
100
AcDbLine
 10
172.0622024992
 20
134.6956236464
 30
0.0
 11
194.0622024992
 21
134.6956236464
 31
0.0
  0
LINE
  5
221
330
1F
100
AcDbEntity
  8
0
  6
HIDDEN
 62
     7
370
    18
100
AcDbLine
 10
175.6132037109
 20
134.6956236464
 30
0.0
 11
183.0622024992
 21
134.6956236464
 31
0.0
  0
LINE
  5
222
330
1F
100
AcDbEntity
  8
0
  6
HIDDEN
 62
     7
370
    18
100
AcDbLine
 10
172.0622024992
 20
107.3956236464
 30
0.0
 11
194.0622024992
 21
107.3956236464
 31
0.0
  0
LINE
  5
223
330
1F
100
AcDbEntity
  8
0
  6
HIDDEN
 62
     7
370
    18
100
AcDbLine
 10
191.5771306181
 20
107.3956236464
 30
0.0
 11
191.5771306181
 21
121.7956236464
 31
0.0
  0
SPLINE
  5
224
330
1F
100
AcDbEntity
  8
0
  6
HIDDEN
 62
     7
370
    18
100
AcDbSpline
210
0.0
220
0.0
230
1.0
 70
     8
 71
     3
 72
    17
 73
    13
 74
     0
 42
0.000000001
 43
0.00000001
 40
0.0
 40
0.0
 40
0.0
 40
0.0
 40
0.0697969680174068
 40
0.1419352017355097
 40
0.2116797701433289
 40
0.2832015482822305
 40
0.3768778080063976
 40
0.4732432299531307
 40
0.6013867194786257
 40
0.7331371255323096
 40
0.8654689595928574
 40
1.0
 40
1.0
 40
1.0
 40
1.0
 10
191.5771306181278
 20
121.7956236463827
 30
0.0
 10
191.5759347865149
 20
121.8314164545828
 30
0.0
 10
191.5735030103784
 20
121.9042027029953
 30
0.0
 10
191.5541778911341
 20
122.0091845433498
 30
0.0
 10
191.5243757801399
 20
122.1083364427748
 30
0.0
 10
191.4806568395906
 20
122.2080360690898
 30
0.0
 10
191.4204677352394
 20
122.3052717308834
 30
0.0
 10
191.3349085900912
 20
122.4033988280941
 30
0.0
 10
191.2268312469376
 20
122.4878852362508
 30
0.0
 10
191.0973104331918
 20
122.5507294746109
 30
0.0
 10
190.9585988337544
 20
122.5888331335176
 30
0.0
 10
190.8620847575885
 20
122.5933477405286
 30
0.0
 10
190.8134300351719
 20
122.5956236463827
 30
0.0
  0
LINE
  5
225
330
1F
100
AcDbEntity
  8
0
  6
HIDDEN
 62
     7
370
    18
100
AcDbLine
 10
190.8134300352
 20
122.5956236464
 30
0.0
 11
176.1692846456
 21
122.5956236464
 31
0.0
  0
SPLINE
  5
226
330
1F
100
AcDbEntity
  8
0
  6
HIDDEN
 62
     7
370
    18
100
AcDbSpline
210
0.0
220
0.0
230
1.0
 70
     8
 71
     3
 72
    16
 73
    12
 74
     0
 42
0.000000001
 43
0.00000001
 40
0.0
 40
0.0
 40
0.0
 40
0.0
 40
0.1759678381215945
 40
0.3572010016017931
 40
0.4672163978433198
 40
0.579678388190533
 40
0.6662265038677044
 40
0.7549770779636762
 40
0.8256596304053138
 40
0.8982660234864435
 40
1.0
 40
1.0
 40
1.0
 40
1.0
 10
176.1692846456315
 20
122.5956236463827
 30
0.0
 10
176.0994079755465
 20
122.5917388263713
 30
0.0
 10
175.9575637794173
 20
122.5838529444174
 30
0.0
 10
175.7813124123275
 20
122.5232210261415
 30
0.0
 10
175.6403357233733
 20
122.44019893665
 30
0.0
 10
175.5418046285526
 20
122.355114261277
 30
0.0
 10
175.4613982155545
 20
122.2572825220516
 30
0.0
 10
175.4035564473047
 20
122.1593298847485
 30
0.0
 10
175.3615652090816
 20
122.0557047179845
 30
0.0
 10
175.3294717180529
 20
121.937393553585
 30
0.0
 10
175.3246564295131
 20
121.8478661550147
 30
0.0
 10
175.3218465326869
 20
121.7956236463827
 30
0.0
  0
LINE
  5
227
330
1F
100
AcDbEntity
  8
0
  6
HIDDEN
 62
     7
370
    18
100
AcDbLine
 10
175.3218465327
 20
121.7956236464
 30
0.0
 11
175.3218465327
 21
107.3956236464
 31
0.0
  0
LINE
  5
228
330
1F
100
AcDbEntity
  8
0
  6
HIDDEN
 62
     7
370
    18
100
AcDbLine
 10
193.8788563256
 20
110.5956236464
 30
0.0
 11
193.8788563256
 21
118.5956236464
 31
0.0
  0
SPLINE
  5
229
330
1F
100
AcDbEntity
  8
0
  6
HIDDEN
 62
     7
370
    18
100
AcDbSpline
210
0.0
220
0.0
230
1.0
 70
    11
 71
     3
 72
    27
 73
    23
 74
     0
 42
0.000000001
 43
0.00000001
 40
0.0
 40
0.0
 40
0.0
 40
0.0
 40
0.0523203889688249
 40
0.1061739549733167
 40
0.1584899004147265
 40
0.2122935029593002
 40
0.265154036319732
 40
0.3195248516273672
 40
0.372735598439936
 40
0.4275219035278233
 40
0.480143923969329
 40
0.500005565921327
 40
0.5343287003572745
 40
0.5863546158144617
 40
0.6398750086869213
 40
0.6921960546675852
 40
0.7459923032300338
 40
0.7990529657498074
 40
0.8536461662209583
 40
0.906760785112705
 40
0.9614587767483
 40
1.0
 40
1.0
 40
1.0
 40
1.0
 10
193.8788563256015
 20
118.5956236463827
 30
0.0
 10
193.8798326542783
 20
118.7054301202066
 30
0.0
 10
193.8818139216008
 20
118.9282607955385
 30
0.0
 10
193.8973096786803
 20
119.2514983275596
 30
0.0
 10
193.920313197839
 20
119.5588632037244
 30
0.0
 10
193.9488634560784
 20
119.837414358266
 30
0.0
 10
193.9800792877229
 20
120.0845314600555
 30
0.0
 10
194.0100734260554
 20
120.2887394003652
 30
0.0
 10
194.0361306065134
 20
120.4483208026887
 30
0.0
 10
194.0537883870202
 20
120.5493063209576
 30
0.0
 10
194.0626627591623
 20
120.5981671977481
 30
0.0
 10
194.0604549921908
 20
120.5859864921583
 30
0.0
 10
194.0615209284266
 20
120.5919033822665
 30
0.0
 10
194.0500308999675
 20
120.5282435119235
 30
0.0
 10
194.0305195759026
 20
120.4150311641693
 30
0.0
 10
194.0036886928398
 20
120.2472341480427
 30
0.0
 10
193.9734112418797
 20
120.0352326210152
 30
0.0
 10
193.9423259069276
 20
119.7794863854035
 30
0.0
 10
193.9144125044988
 20
119.4910211000251
 30
0.0
 10
193.8927646905024
 20
119.1736515506135
 30
0.0
 10
193.8806955011163
 20
118.8720159954809
 30
0.0
 10
193.8793942208698
 20
118.6764588551746
 30
0.0
 10
193.8788563256016
 20
118.5956236463827
 30
0.0
  0
SPLINE
  5
22A
330
1F
100
AcDbEntity
  8
0
  6
HIDDEN
 62
     7
370
    18
100
AcDbSpline
210
0.0
220
0.0
230
1.0
 70
    11
 71
     3
 72
    27
 73
    23
 74
     0
 42
0.000000001
 43
0.00000001
 40
0.0
 40
0.0
 40
0.0
 40
0.0
 40
0.0523203889688249
 40
0.1061739549733167
 40
0.1584899004147268
 40
0.2122935029593009
 40
0.2651540363197322
 40
0.3195248516273675
 40
0.3727355984399361
 40
0.4275219035278235
 40
0.4801439239693292
 40
0.500005565921302
 40
0.5343287003572746
 40
0.5863546158144618
 40
0.6398750086869214
 40
0.692196054667585
 40
0.7459923032300336
 40
0.7990529657498071
 40
0.8536461662209585
 40
0.9067607851127049
 40
0.9614587767483005
 40
0.9999999999999999
 40
0.9999999999999999
 40
0.9999999999999999
 40
0.9999999999999999
 10
193.8788563256016
 20
110.5956236463827
 30
0.0
 10
193.8798326542783
 20
110.4858171725588
 30
0.0
 10
193.8818139216009
 20
110.2629864972268
 30
0.0
 10
193.8973096786804
 20
109.9397489652058
 30
0.0
 10
193.920313197839
 20
109.6323840890409
 30
0.0
 10
193.9488634560784
 20
109.3538329344994
 30
0.0
 10
193.9800792877229
 20
109.1067158327099
 30
0.0
 10
194.0100734260554
 20
108.9025078924002
 30
0.0
 10
194.0361306065134
 20
108.7429264900767
 30
0.0
 10
194.0537883870202
 20
108.6419409718078
 30
0.0
 10
194.0626627591624
 20
108.5930800950172
 30
0.0
 10
194.0604549921908
 20
108.6052608006071
 30
0.0
 10
194.0615209284266
 20
108.5993439104989
 30
0.0
 10
194.0500308999675
 20
108.6630037808418
 30
0.0
 10
194.0305195759025
 20
108.7762161285961
 30
0.0
 10
194.0036886928398
 20
108.9440131447227
 30
0.0
 10
193.9734112418797
 20
109.1560146717502
 30
0.0
 10
193.9423259069276
 20
109.4117609073619
 30
0.0
 10
193.9144125044988
 20
109.7002261927402
 30
0.0
 10
193.8927646905023
 20
110.0175957421519
 30
0.0
 10
193.8806955011163
 20
110.3192312972844
 30
0.0
 10
193.8793942208698
 20
110.5147884375908
 30
0.0
 10
193.8788563256015
 20
110.5956236463827
 30
0.0
  0
LINE
  5
22B
330
1F
100
AcDbEntity
  8
0
  6
HIDDEN
 62
     7
370
    18
100
AcDbLine
 10
176.1692846456
 20
122.5956236464
 30
0.0
 11
190.8134300352
 21
122.5956236464
 31
0.0
  0
ARC
  5
22C
330
1F
100
AcDbEntity
  8
0
  6
HIDDEN
 62
     7
370
    18
100
AcDbCircle
 10
183.4512028324
 20
119.2973355541
 30
0.0
 40
2.498288680440727
100
AcDbArc
 50
90.0393147922
 51
180.0392609126
  0
LINE
  5
22D
330
1F
100
AcDbEntity
  8
0
  6
HIDDEN
 62
     7
370
    18
100
AcDbLine
 10
180.9529147385
 20
119.2956236464
 30
0.0
 11
180.9529147385
 21
107.3956236464
 31
0.0
  0
LINE
  5
22E
330
1F
100
AcDbEntity
  8
0
  6
HIDDEN
 62
     7
370
    18
100
AcDbLine
 10
175.3218465327
 20
107.3956236464
 30
0.0
 11
180.9529147385
 21
107.3956236464
 31
0.0
  0
LINE
  5
22F
330
1F
100
AcDbEntity
  8
0
  6
HIDDEN
 62
     7
370
    18
100
AcDbLine
 10
180.9476811429
 20
107.3956236464
 30
0.0
 11
180.9529147385
 21
107.3956236464
 31
0.0
  0
ARC
  5
230
330
1F
100
AcDbEntity
  8
0
  6
HIDDEN
 62
     7
370
    18
100
AcDbCircle
 10
183.4442549798
 20
119.2981880608
 30
0.0
 40
2.496575153935347
100
AcDbArc
 50
359.9411473151
 51
180.0588526849
  0
ARC
  5
231
330
1F
100
AcDbEntity
  8
0
  6
HIDDEN
 62
     7
370
    18
100
AcDbCircle
 10
183.4477743184
 20
119.2973355541
 30
0.0
 40
2.498288680440728
100
AcDbArc
 50
359.9607390874
 51
89.9606852078
  0
LINE
  5
232
330
1F
100
AcDbEntity
  8
0
  6
HIDDEN
 62
     7
370
    18
100
AcDbLine
 10
185.9408288167
 20
107.3956236464
 30
0.0
 11
185.9408288167
 21
119.2956236464
 31
0.0
  0
LINE
  5
233
330
1F
100
AcDbEntity
  8
0
  6
HIDDEN
 62
     7
370
    18
100
AcDbLine
 10
180.9476811429
 20
119.2956236464
 30
0.0
 11
180.9476811429
 21
107.3956236464
 31
0.0
  0
LINE
  5
234
330
1F
100
AcDbEntity
  8
0
  6
HIDDEN
 62
     7
370
    18
100
AcDbLine
 10
180.9476811429
 20
107.3956236464
 30
0.0
 11
185.9408288167
 21
107.3956236464
 31
0.0
  0
LINE
  5
235
330
1F
100
AcDbEntity
  8
0
  6
HIDDEN
 62
     7
370
    18
100
AcDbLine
 10
185.9460624123
 20
107.3956236464
 30
0.0
 11
185.9460624123
 21
119.2956236464
 31
0.0
  0
LINE
  5
236
330
1F
100
AcDbEntity
  8
0
  6
HIDDEN
 62
     7
370
    18
100
AcDbLine
 10
185.9460624123
 20
107.3956236464
 30
0.0
 11
191.5771306181
 21
107.3956236464
 31
0.0
  0
LINE
  5
237
330
1F
100
AcDbEntity
  8
0
  6
HIDDEN
 62
     7
370
    18
100
AcDbLine
 10
185.9408288167
 20
107.3956236464
 30
0.0
 11
185.9460624123
 21
107.3956236464
 31
0.0
  0
LINE
  5
238
330
1F
100
AcDbEntity
  8
0
  6
HIDDEN
 62
     7
370
    18
100
AcDbLine
 10
177.5622024992
 20
107.7956236464
 30
0.0
 11
188.5622024992
 21
107.7956236464
 31
0.0
  0
LINE
  5
239
330
1F
100
AcDbEntity
  8
0
  6
HIDDEN
 62
     7
370
    18
100
AcDbLine
 10
177.3350857976
 20
107.3956236464
 30
0.0
 11
188.7893192009
 21
107.3956236464
 31
0.0
  0
LINE
  5
23A
330
1F
100
AcDbEntity
  8
0
  6
HIDDEN
 62
     7
370
    18
100
AcDbLine
 10
177.9622024992
 20
113.3956236464
 30
0.0
 11
188.1622024992
 21
113.3956236464
 31
0.0
  0
LINE
  5
23B
330
1F
100
AcDbEntity
  8
0
  6
HIDDEN
 62
     7
370
    18
100
AcDbLine
 10
178.1622024992
 20
123.8956236464
 30
0.0
 11
187.9622024992
 21
123.8956236464
 31
0.0
  0
LINE
  5
23C
330
1F
100
AcDbEntity
  8
0
  6
HIDDEN
 62
     7
370
    18
100
AcDbLine
 10
178.1661764082
 20
113.3956236464
 30
0.0
 11
187.9582285903
 21
113.3956236464
 31
0.0
  0
LINE
  5
23D
330
1F
100
AcDbEntity
  8
0
  6
HIDDEN
 62
     7
370
    18
100
AcDbLine
 10
179.6622024992
 20
124.7969145749
 30
0.0
 11
186.4622024992
 21
124.7969145749
 31
0.0
  0
LINE
  5
23E
330
1F
100
AcDbEntity
  8
0
  6
HIDDEN
 62
     7
370
    18
100
AcDbLine
 10
178.8122024992
 20
134.6626109445
 30
0.0
 11
187.3122024992
 21
134.6626109445
 31
0.0
  0
LINE
  5
23F
330
1F
100
AcDbEntity
  8
0
  6
HIDDEN
 62
     7
370
    18
100
AcDbLine
 10
178.5775722807
 20
135.0956236464
 30
0.0
 11
187.5468327177
 21
135.0956236464
 31
0.0
  0
LINE
  5
240
330
1F
100
AcDbEntity
  8
0
  6
HIDDEN
 62
     7
370
    18
100
AcDbLine
 10
179.6622024992
 20
132.0848921202
 30
0.0
 11
186.4622024992
 21
132.0848921202
 31
0.0
  0
LINE
  5
241
330
1F
100
AcDbEntity
  8
0
  6
HIDDEN
 62
     7
370
    18
100
AcDbLine
 10
178.8122024992
 20
132.5956236464
 30
0.0
 11
187.3122024992
 21
132.5956236464
 31
0.0
  0
LINE
  5
242
330
1F
100
AcDbEntity
  8
0
  6
HIDDEN
 62
     7
370
    18
100
AcDbLine
 10
177.5622024992
 20
135.8956236464
 30
0.0
 11
174.1156948007
 21
135.8956236464
 31
0.0
  0
LINE
  5
243
330
1F
100
AcDbEntity
  8
0
  6
HIDDEN
 62
     7
370
    18
100
AcDbLine
 10
177.5622024992
 20
135.0956236464
 30
0.0
 11
173.2458895458
 21
135.0956236464
 31
0.0
  0
LINE
  5
244
330
1F
100
AcDbEntity
  8
0
  6
HIDDEN
 62
     7
370
    18
100
AcDbLine
 10
178.0622024992
 20
135.8956236464
 30
0.0
 11
178.0622024992
 21
135.0956236464
 31
0.0
  0
LINE
  5
245
330
1F
100
AcDbEntity
  8
0
  6
HIDDEN
 62
     7
370
    18
100
AcDbLine
 10
178.0622024992
 20
135.8956236464
 30
0.0
 11
177.5622024992
 21
135.8956236464
 31
0.0
  0
LINE
  5
246
330
1F
100
AcDbEntity
  8
0
  6
HIDDEN
 62
     7
370
    18
100
AcDbLine
 10
178.0622024992
 20
135.0956236464
 30
0.0
 11
177.5622024992
 21
135.0956236464
 31
0.0
  0
LINE
  5
247
330
1F
100
AcDbEntity
  8
0
  6
HIDDEN
 62
     7
370
    18
100
AcDbLine
 10
191.4622024992
 20
118.5956236464
 30
0.0
 11
191.4622024992
 21
120.5956236464
 31
0.0
  0
LINE
  5
248
330
1F
100
AcDbEntity
  8
0
  6
HIDDEN
 62
     7
370
    18
100
AcDbLine
 10
191.4622024992
 20
118.5956236464
 30
0.0
 11
191.4622024992
 21
110.5956236464
 31
0.0
  0
LINE
  5
249
330
1F
100
AcDbEntity
  8
0
  6
HIDDEN
 62
     7
370
    18
100
AcDbLine
 10
191.4622024992
 20
110.5956236464
 30
0.0
 11
191.4622024992
 21
108.5956236464
 31
0.0
  0
LINE
  5
24A
330
1F
100
AcDbEntity
  8
0
  6
HIDDEN
 62
     7
370
    18
100
AcDbLine
 10
177.5622024992
 20
135.8956236464
 30
0.0
 11
178.0622024992
 21
135.8956236464
 31
0.0
  0
LINE
  5
24B
330
1F
100
AcDbEntity
  8
0
  6
HIDDEN
 62
     7
370
    18
100
AcDbLine
 10
177.5622024992
 20
135.0956236464
 30
0.0
 11
178.0622024992
 21
135.0956236464
 31
0.0
  0
LINE
  5
24C
330
1F
100
AcDbEntity
  8
0
  6
HIDDEN
 62
     7
370
    18
100
AcDbLine
 10
195.5622024992
 20
131.5956236464
 30
0.0
 11
195.1858334064
 21
131.5956236464
 31
0.0
  0
LINE
  5
24D
330
1F
100
AcDbEntity
  8
0
  6
HIDDEN
 62
     7
370
    18
100
AcDbLine
 10
171.2194832169
 20
136.0956236464
 30
0.0
 11
170.5622024992
 21
136.0956236464
 31
0.0
  0
LINE
  5
24E
330
1F
100
AcDbEntity
  8
0
  6
HIDDEN
 62
     7
370
    18
100
AcDbLine
 10
171.2194832169
 20
135.3915206078
 30
0.0
 11
171.2194832169
 21
136.0956236464
 31
0.0
  0
LINE
  5
24F
330
1F
100
AcDbEntity
  8
0
  6
HIDDEN
 62
     7
370
    18
100
AcDbLine
 10
195.1858334064
 20
131.5956236464
 30
0.0
 11
171.2194832169
 21
135.3915206078
 31
0.0
  0
LINE
  5
250
330
1F
100
AcDbEntity
  8
0
  6
HIDDEN
 62
     7
370
    18
100
AcDbLine
 10
183.0622024992
 20
137.4956236464
 30
0.0
 11
170.5622024992
 21
137.4956236464
 31
0.0
  0
LINE
  5
251
330
1F
100
AcDbEntity
  8
0
  6
HIDDEN
 62
     7
370
    18
100
AcDbLine
 10
195.5622024992
 20
137.4956236464
 30
0.0
 11
183.0622024992
 21
137.4956236464
 31
0.0
  0
LINE
  5
252
330
1F
100
AcDbEntity
  8
0
  6
HIDDEN
 62
     7
370
    18
100
AcDbLine
 10
190.1955137117
 20
141.1956236464
 30
0.0
 11
172.0622024992
 21
141.1956236464
 31
0.0
  0
LINE
  5
253
330
1F
100
AcDbEntity
  8
0
  6
HIDDEN
 62
     7
370
    18
100
AcDbLine
 10
194.0622024992
 20
141.1956236464
 30
0.0
 11
183.0622024992
 21
141.1956236464
 31
0.0
  0
LINE
  5
254
330
1F
100
AcDbEntity
  8
0
  6
HIDDEN
 62
     7
370
    18
100
AcDbLine
 10
194.0583042216
 20
137.4956236464
 30
0.0
 11
172.0661007769
 21
137.4956236464
 31
0.0
  0
SPLINE
  5
255
330
1F
100
AcDbEntity
  8
0
  6
HIDDEN
 62
     7
370
    18
100
AcDbSpline
210
0.0
220
0.0
230
1.0
 70
     8
 71
     3
 72
     9
 73
     5
 74
     0
 42
0.000000001
 43
0.00000001
 40
0.0
 40
0.0
 40
0.0
 40
0.0
 40
0.3454522794792273
 40
1.0
 40
1.0
 40
1.0
 40
1.0
 10
192.878515452656
 20
141.5956236463827
 30
0.0
 10
192.7911595742348
 20
141.6764483497458
 30
0.0
 10
192.5382856358925
 20
141.9104161310121
 30
0.0
 10
192.2843516740386
 20
142.1432335412282
 30
0.0
 10
192.1181397781443
 20
142.2956236463827
 30
0.0
  0
LINE
  5
256
330
1F
100
AcDbEntity
  8
0
  6
HIDDEN
 62
     7
370
    18
100
AcDbLine
 10
192.8785154527
 20
141.5956236464
 30
0.0
 11
172.4776608413
 21
141.5956236464
 31
0.0
  0
SPLINE
  5
257
330
1F
100
AcDbEntity
  8
0
  6
HIDDEN
 62
     7
370
    18
100
AcDbSpline
210
0.0
220
0.0
230
1.0
 70
     8
 71
     3
 72
     9
 73
     5
 74
     0
 42
0.000000001
 43
0.00000001
 40
0.0
 40
0.0
 40
0.0
 40
0.0
 40
0.6545477205207716
 40
1.0
 40
1.0
 40
1.0
 40
1.0
 10
192.1181397781444
 20
142.2956236463827
 30
0.0
 10
192.2843516740387
 20
142.1432335412282
 30
0.0
 10
192.5382856358927
 20
141.9104161310122
 30
0.0
 10
192.7911595742349
 20
141.6764483497458
 30
0.0
 10
192.878515452656
 20
141.5956236463827
 30
0.0
  0
LINE
  5
258
330
1F
100
AcDbEntity
  8
0
  6
HIDDEN
 62
     7
370
    18
100
AcDbLine
 10
192.1181397781
 20
142.2956236464
 30
0.0
 11
192.9622024992
 21
142.2956236464
 31
0.0
  0
LINE
  5
259
330
1F
100
AcDbEntity
  8
0
  6
HIDDEN
 62
     7
370
    18
100
AcDbLine
 10
173.0877031051
 20
135.0956236464
 30
0.0
 11
193.8622024992
 21
135.0956236464
 31
0.0
  0
SPLINE
  5
25A
330
1F
100
AcDbEntity
  8
0
  6
HIDDEN
 62
     7
370
    18
100
AcDbSpline
210
0.0
220
0.0
230
1.0
 70
    24
 71
     3
 72
    13
 73
     9
 74
     0
 42
0.000000001
 43
0.00000001
 40
0.0
 40
0.0
 40
0.0
 40
0.0
 40
0.0432231892256178
 40
0.1305786164593067
 40
0.2184754199405653
 40
0.4946821285833559
 40
0.7742632017282168
 40
1.0
 40
1.0
 40
1.0
 40
1.0
 10
173.0877031050797
 20
135.0956236463827
 30
0.0
 10
173.0925099452308
 20
135.0948623176956
 30
0.0
 10
173.1070315607738
 20
135.0925623197453
 30
0.0
 10
173.1695777467506
 20
135.0826559770849
 30
0.0
 10
173.3094562789128
 20
135.060501394055
 30
0.0
 10
173.5650445180011
 20
135.0200201938534
 30
0.0
 10
173.9353481169673
 20
134.961369865581
 30
0.0
 10
174.2222762097394
 20
134.9159249201939
 30
0.0
 10
174.3504534080147
 20
134.8956236463827
 30
0.0
  0
SPLINE
  5
25B
330
1F
100
AcDbEntity
  8
0
  6
HIDDEN
 62
     7
370
    18
100
AcDbSpline
210
0.0
220
0.0
230
1.0
 70
    24
 71
     3
 72
    13
 73
     9
 74
     0
 42
0.000000001
 43
0.00000001
 40
0.0
 40
0.0
 40
0.0
 40
0.0
 40
0.1373264181995422
 40
0.4136764070143279
 40
0.6930197130111843
 40
0.831082821595975
 40
0.9701589772539184
 40
1.0
 40
1.0
 40
1.0
 40
1.0
 10
174.3504534080148
 20
134.8956236463827
 30
0.0
 10
174.2715001682533
 20
134.9081286110741
 30
0.0
 10
174.0336647031268
 20
134.9457980481075
 30
0.0
 10
173.6860457478317
 20
135.0008554817881
 30
0.0
 10
173.3900953492021
 20
135.0477294200389
 30
0.0
 10
173.2033139024452
 20
135.0773126949465
 30
0.0
 10
173.106201520482
 20
135.0926937852123
 30
0.0
 10
173.0904804075085
 20
135.0951837648919
 30
0.0
 10
173.0877031050797
 20
135.0956236463827
 30
0.0
  0
LINE
  5
25C
330
1F
100
AcDbEntity
  8
0
  6
HIDDEN
 62
     7
370
    18
100
AcDbLine
 10
174.350453408
 20
134.8956236464
 30
0.0
 11
194.0468329334
 21
131.7760235988
 31
0.0
  0
LINE
  5
25D
330
1F
100
AcDbEntity
  8
0
  6
HIDDEN
 62
     7
370
    18
100
AcDbLine
 10
181.6260618376
 20
135.0956236464
 30
0.0
 11
181.6260618376
 21
136.0956236464
 31
0.0
  0
LINE
  5
25E
330
1F
100
AcDbEntity
  8
0
  6
HIDDEN
 62
     7
370
    18
100
AcDbLine
 10
181.6260618376
 20
136.0956236464
 30
0.0
 11
178.8122024992
 21
136.0956236464
 31
0.0
  0
LINE
  5
25F
330
1F
100
AcDbEntity
  8
0
  6
HIDDEN
 62
     7
370
    18
100
AcDbLine
 10
178.8160318928
 20
141.5956236464
 30
0.0
 11
187.3083731056
 21
141.5956236464
 31
0.0
  0
LINE
  5
260
330
1F
100
AcDbEntity
  8
0
  6
HIDDEN
 62
     7
370
    18
100
AcDbLine
 10
181.6260618376
 20
135.0956236464
 30
0.0
 11
187.3122024992
 21
135.0956236464
 31
0.0
  0
LINE
  5
261
330
1F
100
AcDbEntity
  8
0
  6
HIDDEN
 62
     7
370
    18
100
AcDbLine
 10
181.6260618376
 20
136.0956236464
 30
0.0
 11
171.2194832169
 21
136.0956236464
 31
0.0
  0
LINE
  5
262
330
1F
100
AcDbEntity
  8
0
  6
HIDDEN
 62
     7
370
    18
100
AcDbLine
 10
181.6260618376
 20
135.0956236464
 30
0.0
 11
173.0877031051
 21
135.0956236464
 31
0.0
  0
LINE
  5
263
330
1F
100
AcDbEntity
  8
0
  6
HIDDEN
 62
     7
370
    18
100
AcDbLine
 10
171.2194832169
 20
135.3915206078
 30
0.0
 11
173.0877031051
 21
135.0956236464
 31
0.0
  0
LINE
  5
264
330
1F
100
AcDbEntity
  8
0
  6
HIDDEN
 62
     7
370
    18
100
AcDbLine
 10
188.0622024992
 20
141.5956236464
 30
0.0
 11
188.0622024992
 21
142.2956236464
 31
0.0
  0
LINE
  5
265
330
1F
100
AcDbEntity
  8
0
  6
HIDDEN
 62
     7
370
    18
100
AcDbLine
 10
188.5622024992
 20
142.2956236464
 30
0.0
 11
188.0622024992
 21
142.2956236464
 31
0.0
  0
LINE
  5
266
330
1F
100
AcDbEntity
  8
0
  6
HIDDEN
 62
     7
370
    18
100
AcDbLine
 10
188.5622024992
 20
141.5956236464
 30
0.0
 11
188.0622024992
 21
141.5956236464
 31
0.0
  0
LINE
  5
267
330
1F
100
AcDbEntity
  8
0
  6
HIDDEN
 62
     7
370
    18
100
AcDbLine
 10
188.5622024992
 20
142.2956236464
 30
0.0
 11
192.1181397781
 21
142.2956236464
 31
0.0
  0
LINE
  5
268
330
1F
100
AcDbEntity
  8
0
  6
HIDDEN
 62
     7
370
    18
100
AcDbLine
 10
192.8785154527
 20
141.5956236464
 30
0.0
 11
188.5622024992
 21
141.5956236464
 31
0.0
  0
LINE
  5
269
330
1F
100
AcDbEntity
  8
0
  6
HIDDEN
 62
     7
370
    18
100
AcDbLine
 10
188.0622024992
 20
142.2956236464
 30
0.0
 11
188.5622024992
 21
142.2956236464
 31
0.0
  0
LINE
  5
26A
330
1F
100
AcDbEntity
  8
0
  6
HIDDEN
 62
     7
370
    18
100
AcDbLine
 10
188.0622024992
 20
141.5956236464
 30
0.0
 11
188.5622024992
 21
141.5956236464
 31
0.0
  0
LINE
  5
26B
330
1F
100
AcDbEntity
  8
0
  6
HIDDEN
 62
     7
370
    18
100
AcDbLine
 10
194.0622024992
 20
134.6956236464
 30
0.0
 11
193.6622024992
 21
135.0956236464
 31
0.0
  0
LINE
  5
26C
330
1F
100
AcDbEntity
  8
0
  6
HIDDEN
 62
     7
370
    18
100
AcDbLine
 10
173.2622024992
 20
135.8956236464
 30
0.0
 11
172.5477264064
 21
135.1811475536
 31
0.0
  0
LINE
  5
26D
330
1F
100
AcDbEntity
  8
0
  6
HIDDEN
 62
     7
370
    18
100
AcDbLine
 10
172.0622024992
 20
133.899897811
 30
0.0
 11
172.0622024992
 21
107.3956236464
 31
0.0
  0
LINE
  5
26E
330
1F
100
AcDbEntity
  8
0
  6
HIDDEN
 62
     7
370
    18
100
AcDbLine
 10
194.0622024992
 20
120.5888716083
 30
0.0
 11
194.0622024992
 21
130.4154401238
 31
0.0
  0
LINE
  5
26F
330
1F
100
AcDbEntity
  8
0
  6
HIDDEN
 62
     7
370
    18
100
AcDbLine
 10
194.0622024992
 20
131.7735892988
 30
0.0
 11
194.0622024992
 21
134.6956236464
 31
0.0
  0
LINE
  5
270
330
1F
100
AcDbEntity
  8
0
  6
HIDDEN
 62
     7
370
    18
100
AcDbLine
 10
194.0622024992
 20
107.3956236464
 30
0.0
 11
194.0622024992
 21
108.6023756845
 31
0.0
  0
LINE
  5
271
330
1F
100
AcDbEntity
  8
0
  6
HIDDEN
 62
     7
370
    18
100
AcDbLine
 10
183.4494885754
 20
121.7956236464
 30
0.0
 11
183.4442549798
 21
121.7956236464
 31
0.0
  0
LINE
  5
272
330
1F
100
AcDbEntity
  8
0
  6
HIDDEN
 62
     7
370
    18
100
AcDbLine
 10
188.7931426069
 20
107.3956236464
 30
0.0
 11
188.5622024992
 21
107.7956236464
 31
0.0
  0
LINE
  5
273
330
1F
100
AcDbEntity
  8
0
  6
HIDDEN
 62
     7
370
    18
100
AcDbLine
 10
177.5622024992
 20
107.7956236464
 30
0.0
 11
177.3312623915
 21
107.3956236464
 31
0.0
  0
LINE
  5
274
330
1F
100
AcDbEntity
  8
0
  6
HIDDEN
 62
     7
370
    18
100
AcDbLine
 10
177.5622024992
 20
112.9956236464
 30
0.0
 11
177.5622024992
 21
107.7956236464
 31
0.0
  0
LINE
  5
275
330
1F
100
AcDbEntity
  8
0
  6
HIDDEN
 62
     7
370
    18
100
AcDbLine
 10
188.5622024992
 20
107.7956236464
 30
0.0
 11
188.5622024992
 21
112.9956236464
 31
0.0
  0
ARC
  5
276
330
1F
100
AcDbEntity
  8
0
  6
HIDDEN
 62
     7
370
    18
100
AcDbCircle
 10
177.9622024992
 20
112.9956236464
 30
0.0
 40
0.4000000000000199
100
AcDbArc
 50
90.0
 51
180.0
  0
ARC
  5
277
330
1F
100
AcDbEntity
  8
0
  6
HIDDEN
 62
     7
370
    18
100
AcDbCircle
 10
188.1622024992
 20
112.9956236464
 30
0.0
 40
0.4000000000000199
100
AcDbArc
 50
0.0
 51
90.0
  0
LINE
  5
278
330
1F
100
AcDbEntity
  8
0
  6
HIDDEN
 62
     7
370
    18
100
AcDbLine
 10
178.1622024992
 20
123.8956236464
 30
0.0
 11
178.1622024992
 21
113.3956236464
 31
0.0
  0
LINE
  5
279
330
1F
100
AcDbEntity
  8
0
  6
HIDDEN
 62
     7
370
    18
100
AcDbLine
 10
187.9622024992
 20
113.3956236464
 30
0.0
 11
187.9622024992
 21
123.8956236464
 31
0.0
  0
LINE
  5
27A
330
1F
100
AcDbEntity
  8
0
  6
HIDDEN
 62
     7
370
    18
100
AcDbLine
 10
187.9622024992
 20
123.8956236464
 30
0.0
 11
186.4622024992
 21
124.7969145749
 31
0.0
  0
LINE
  5
27B
330
1F
100
AcDbEntity
  8
0
  6
HIDDEN
 62
     7
370
    18
100
AcDbLine
 10
179.6622024992
 20
124.7969145749
 30
0.0
 11
178.1622024992
 21
123.8956236464
 31
0.0
  0
LINE
  5
27C
330
1F
100
AcDbEntity
  8
0
  6
HIDDEN
 62
     7
370
    18
100
AcDbLine
 10
178.5622024992
 20
135.0956236464
 30
0.0
 11
178.8122024992
 21
134.6626109445
 31
0.0
  0
LINE
  5
27D
330
1F
100
AcDbEntity
  8
0
  6
HIDDEN
 62
     7
370
    18
100
AcDbLine
 10
187.3122024992
 20
134.6626109445
 30
0.0
 11
187.5622024992
 21
135.0956236464
 31
0.0
  0
LINE
  5
27E
330
1F
100
AcDbEntity
  8
0
  6
HIDDEN
 62
     7
370
    18
100
AcDbLine
 10
178.8122024992
 20
132.5956236464
 30
0.0
 11
179.6622024992
 21
132.0848921202
 31
0.0
  0
LINE
  5
27F
330
1F
100
AcDbEntity
  8
0
  6
HIDDEN
 62
     7
370
    18
100
AcDbLine
 10
186.4622024992
 20
132.0848921202
 30
0.0
 11
187.3122024992
 21
132.5956236464
 31
0.0
  0
LINE
  5
280
330
1F
100
AcDbEntity
  8
0
  6
HIDDEN
 62
     7
370
    18
100
AcDbLine
 10
178.8122024992
 20
134.6626109445
 30
0.0
 11
178.8122024992
 21
132.5956236464
 31
0.0
  0
LINE
  5
281
330
1F
100
AcDbEntity
  8
0
  6
HIDDEN
 62
     7
370
    18
100
AcDbLine
 10
187.3122024992
 20
132.5956236464
 30
0.0
 11
187.3122024992
 21
134.6626109445
 31
0.0
  0
LINE
  5
282
330
1F
100
AcDbEntity
  8
0
  6
HIDDEN
 62
     7
370
    18
100
AcDbLine
 10
179.6622024992
 20
132.0848921202
 30
0.0
 11
179.6622024992
 21
124.7969145749
 31
0.0
  0
LINE
  5
283
330
1F
100
AcDbEntity
  8
0
  6
HIDDEN
 62
     7
370
    18
100
AcDbLine
 10
186.4622024992
 20
124.7969145749
 30
0.0
 11
186.4622024992
 21
132.0848921202
 31
0.0
  0
LINE
  5
284
330
1F
100
AcDbEntity
  8
0
  6
HIDDEN
 62
     7
370
    18
100
AcDbLine
 10
194.0622024992
 20
120.5956236464
 30
0.0
 11
191.4622024992
 21
120.5956236464
 31
0.0
  0
LINE
  5
285
330
1F
100
AcDbEntity
  8
0
  6
HIDDEN
 62
     7
370
    18
100
AcDbLine
 10
191.4622024992
 20
108.5956236464
 30
0.0
 11
194.0622024992
 21
108.5956236464
 31
0.0
  0
LINE
  5
286
330
1F
100
AcDbEntity
  8
0
  6
HIDDEN
 62
     7
370
    18
100
AcDbLine
 10
172.0622024992
 20
141.1956236464
 30
0.0
 11
172.0622024992
 21
138.3235892988
 31
0.0
  0
LINE
  5
287
330
1F
100
AcDbEntity
  8
0
  6
HIDDEN
 62
     7
370
    18
100
AcDbLine
 10
193.5335150288
 20
141.7243111168
 30
0.0
 11
192.9622024992
 21
142.2956236464
 31
0.0
  0
LINE
  5
288
330
1F
100
AcDbEntity
  8
0
  6
HIDDEN
 62
     7
370
    18
100
AcDbLine
 10
172.4622024992
 20
141.5956236464
 30
0.0
 11
172.0622024992
 21
141.1956236464
 31
0.0
  0
ARC
  5
289
330
1F
100
AcDbEntity
  8
0
  6
HIDDEN
 62
     7
370
    18
100
AcDbCircle
 10
193.8622024992
 20
134.8956236464
 30
0.0
 40
0.2000000000000171
100
AcDbArc
 50
0.0
 51
90.0
  0
LINE
  5
28A
330
1F
100
AcDbEntity
  8
0
  6
HIDDEN
 62
     7
370
    18
100
AcDbLine
 10
194.0622024992
 20
131.7735892988
 30
0.0
 11
194.0622024992
 21
134.8956236464
 31
0.0
  0
LINE
  5
28B
330
1F
100
AcDbEntity
  8
0
  6
HIDDEN
 62
     7
370
    18
100
AcDbLine
 10
178.8122024992
 20
141.5956236464
 30
0.0
 11
178.8122024992
 21
136.0956236464
 31
0.0
  0
LINE
  5
28C
330
1F
100
AcDbEntity
  8
0
  6
HIDDEN
 62
     7
370
    18
100
AcDbLine
 10
187.3122024992
 20
135.0956236464
 30
0.0
 11
187.3122024992
 21
141.5956236464
 31
0.0
  0
LINE
  5
28D
330
1F
100
AcDbEntity
  8
VERMASSUNG
100
AcDbLine
 10
163.0622024992
 20
150.6456236464
 30
0.0
 11
165.3983494668
 21
150.6456236464
 31
0.0
  0
DIMENSION
  5
28E
330
1F
100
AcDbEntity
  8
VERMASSUNG
100
AcDbDimension
  2
_D
 10
217.91243398
 20
150.6456236464
 30
0.0
 11
217.91243398
 21
118.0956236464
 31
0.0
 70
   160
  1
%%c64 - %%c80
 71
     2
 42
-1.0
  3
SLDDIMSTYLE0
100
AcDbAlignedDimension
 13
163.9622487306
 23
97.0956236464
 33
0.0
 14
165.3983494668
 24
150.6456236464
 34
0.0
 50
90.0
100
AcDbRotatedDimension
  0
DIMENSION
  5
29B
330
1F
100
AcDbEntity
  8
VERMASSUNG
100
AcDbDimension
  2
_D_1
 10
128.4622024992
 20
157.1825545559
 30
0.0
 11
145.5622024992
 21
157.1825545559
 31
0.0
 70
   160
  1
(16.2 -49.2)
 71
     2
 42
-1.0
  3
SLDDIMSTYLE1
100
AcDbAlignedDimension
 13
162.6622024992
 23
150.2458673156
 33
0.0
 14
128.4622024992
 24
137.5956236464
 34
0.0
100
AcDbRotatedDimension
  0
DIMENSION
  5
2A8
330
1F
100
AcDbEntity
  8
VERMASSUNG
100
AcDbDimension
  2
_D_2
 10
208.2661278197
 20
135.0956236464
 30
0.0
 11
208.2661278197
 21
138.3456236464
 31
0.0
 70
   160
  1
<>
 71
     2
 42
-1.0
  3
SLDDIMSTYLE2
100
AcDbAlignedDimension
 13
192.8785154527
 23
141.5956236464
 33
0.0
 14
193.6622024992
 24
135.0956236464
 34
0.0
 50
90.0
100
AcDbRotatedDimension
  0
DIMENSION
  5
2B5
330
1F
100
AcDbEntity
  8
VERMASSUNG
100
AcDbDimension
  2
_D_3
 10
91.5720299111
 20
139.0956236464
 30
0.0
 11
91.5720299111
 21
118.0956236464
 31
0.0
 70
   160
  1
%%c<>
 71
     2
 42
-1.0
  3
SLDDIMSTYLE1
100
AcDbAlignedDimension
 13
134.328227903
 23
97.0956236464
 33
0.0
 14
134.328227903
 24
139.0956236464
 34
0.0
 50
90.0
100
AcDbRotatedDimension
  0
LINE
  5
2C0
330
1F
100
AcDbEntity
  8
VERMASSUNG
  6
CENTERX2
370
    18
100
AcDbLine
 10
96.2729323308
 20
118.0956236464
 30
0.0
 11
206.2488721805
 21
118.0956236464
 31
0.0
  0
LINE
  5
2C1
330
1F
100
AcDbEntity
  8
0
  6
Continuous
 62
     7
370
    25
100
AcDbLine
 10
245.8344723991
 20
63.2543813594
 30
0.0
 11
242.1858220901
 21
61.1480603703
 31
0.0
  0
LINE
  5
2C2
330
1F
100
AcDbEntity
  8
0
  6
Continuous
 62
     7
370
    25
100
AcDbLine
 10
263.2245011851
 20
15.5599682354
 30
0.0
 11
270.832440715
 21
19.9519382403
 31
0.0
  0
LINE
  5
2C3
330
1F
100
AcDbEntity
  8
0
  6
Continuous
 62
     7
370
    25
100
AcDbLine
 10
279.1223959239
 20
35.6433805835
 30
0.0
 11
279.1223959239
 21
37.4394784296
 31
0.0
  0
LINE
  5
2C4
330
1F
100
AcDbEntity
  8
0
  6
Continuous
 62
     7
370
    25
100
AcDbLine
 10
264.1341685672
 20
62.2596915353
 30
0.0
 11
263.5685750821
 21
62.5863078558
 31
0.0
  0
LWPOLYLINE
  5
2C5
330
1F
100
AcDbEntity
  8
0
  6
Continuous
 62
     7
370
    25
100
AcDbPolyline
 90
       49
 70
   128
 43
0.0
 10
245.8344723991
 20
63.2543813594
 10
246.4755457721
 20
63.5883162991
 10
247.377722829
 20
63.9482884385
 10
248.3288308522
 20
64.2084618091
 10
249.3246219625
 20
64.3676744134
 10
250.360648715
 20
64.4252151693
 10
251.4322839628
 20
64.3808270857
 10
252.5347415226
 20
64.2347084107
 10
253.6630975515
 20
63.9875117457
 10
254.8123125374
 20
63.640341131
 10
255.9772538073
 20
63.1947471149
 10
257.1527184507
 20
62.6527198284
 10
258.333456557
 20
62.016680097
 10
259.5141946634
 20
61.2894686284
 10
260.6896593068
 20
60.4743333257
 10
261.8546005767
 20
59.574914781
 10
263.0038155626
 20
58.5952300159
 10
264.1321715915
 20
57.5396545402
 10
265.2346291513
 20
56.4129028104
 10
266.3062643991
 20
55.2200071732
 10
267.3422911516
 20
53.9662953901
 10
268.3380822619
 20
52.6573668423
 10
269.2891902851
 20
51.2990675223
 10
270.191367342
 20
49.8974639248
 10
271.0405840907
 20
48.4588159515
 10
271.8330477232
 20
46.9895489536
 10
272.5652189045
 20
45.4962250342
 10
273.2338275803
 20
43.9855137405
 10
273.8358875819
 20
42.4641622757
 10
274.3687099634
 20
40.9389653648
 10
274.8299150105
 20
39.4167349075
 10
275.2174428696
 20
37.9042695545
 10
275.5295627472
 20
36.4083243433
 10
275.7648806401
 20
34.9355805283
 10
275.9223455615
 20
33.4926157409
 10
276.0012542349
 20
32.0858746122
 10
276.0012542349
 20
30.7216399894
 10
275.9223455615
 20
29.4060048757
 10
275.7648806401
 20
28.1448452167
 10
275.5295627472
 20
26.9437936578
 10
275.2174428696
 20
25.8082143866
 10
274.8299150105
 20
24.743179176
 10
274.3687099634
 20
23.7534447316
 10
273.8358875819
 20
22.8434314478
 10
273.2338275803
 20
22.0172036648
 10
272.5652189045
 20
21.2784515165
 10
271.8330477232
 20
20.6304744492
 10
271.0405840907
 20
20.076166486
 10
270.832440715
 20
19.9519382403
  0
ARC
  5
2C6
330
1F
100
AcDbEntity
  8
0
  6
Continuous
 62
     7
370
    25
100
AcDbCircle
 10
244.2719372472
 20
26.8885213227
 30
0.0
 40
23.39734677839741
100
AcDbArc
 50
347.7320945527
 51
12.2679054473
  0
ELLIPSE
  5
2C7
330
1F
100
AcDbEntity
  8
0
  6
Continuous
 62
     7
370
    25
100
AcDbEllipse
 10
252.7051616376
 20
38.3540143029
 30
0.0
 11
-9.899732326464971
 21
23.10438903198212
 31
0.0
210
0.0
220
0.0
230
1.0
 40
0.4806899322
 41
4.230371219512381
 42
6.800218736895862
  0
ARC
  5
2C8
330
1F
100
AcDbEntity
  8
0
  6
Continuous
 62
     7
370
    25
100
AcDbCircle
 10
262.6153456194
 20
50.2330118088
 30
0.0
 40
23.94789655587553
100
AcDbArc
 50
167.1402286524
 51
196.0889317872
  0
LINE
  5
2C9
330
1F
100
AcDbEntity
  8
0
  6
Continuous
 62
     7
370
    25
100
AcDbLine
 10
238.6096712788
 20
43.0215186041
 30
0.0
 11
239.6054233453
 21
43.5963540363
 31
0.0
  0
ELLIPSE
  5
2CA
330
1F
100
AcDbEntity
  8
0
  6
Continuous
 62
     7
370
    25
100
AcDbEllipse
 10
252.7051616376
 20
38.3540143029
 30
0.0
 11
-9.899732326464971
 21
23.10438903198212
 31
0.0
210
0.0
220
0.0
230
1.0
 40
0.4806899322
 41
1.168492404305536
 42
3.738339921689052
  0
SPLINE
  5
2CB
330
1F
100
AcDbEntity
  8
0
  6
Continuous
 62
     7
370
    25
100
AcDbSpline
210
0.0
220
0.0
230
1.0
 70
     8
 71
     3
 72
    13
 73
     9
 74
     0
 42
0.000000001
 43
0.00000001
 40
0.0
 40
0.0
 40
0.0
 40
0.0
 40
0.0432231892256178
 40
0.130578616459307
 40
0.2184754199405656
 40
0.4946821285833559
 40
0.7742632017282172
 40
1.0
 40
1.0
 40
1.0
 40
1.0
 10
240.8332716862932
 20
41.02415955254541
 30
0.0
 10
240.8389929034724
 20
40.95178613576117
 30
0.0
 10
240.8562768808261
 20
40.7331437634275
 30
0.0
 10
240.9307208611653
 20
40.34328791626402
 30
0.0
 10
241.0972076666442
 20
39.53786577971322
 30
0.0
 10
241.4014149583998
 20
38.36929465314623
 30
0.0
 10
241.8421592405729
 20
36.94567821276886
 30
0.0
 10
242.1836679826894
 20
36.03278233119151
 30
0.0
 10
242.33622757812
 20
35.62497131733394
 30
0.0
  0
ELLIPSE
  5
2CC
330
1F
100
AcDbEntity
  8
0
  6
Continuous
 62
     7
370
    25
100
AcDbEllipse
 10
252.7051616376
 20
38.3540143029
 30
0.0
 11
-8.71176444728917
 21
20.33186234814426
 31
0.0
210
0.0
220
0.0
230
1.0
 40
0.4806899322
 41
1.499518642203104
 42
6.469192498998293
  0
SPLINE
  5
2CD
330
1F
100
AcDbEntity
  8
0
  6
Continuous
 62
     7
370
    25
100
AcDbSpline
210
0.0
220
0.0
230
1.0
 70
     8
 71
     3
 72
    13
 73
     9
 74
     0
 42
0.000000001
 43
0.00000001
 40
0.0
 40
0.0
 40
0.0
 40
0.0
 40
0.1373264181995422
 40
0.4136764070143282
 40
0.6930197130111843
 40
0.831082821595975
 40
0.9701589772539184
 40
1.0
 40
1.0
 40
1.0
 40
1.0
 10
242.3362275781201
 20
57.56071135331606
 30
0.0
 10
242.2422555263198
 20
57.46234678043317
 30
0.0
 10
241.9591780146641
 20
57.16603742043392
 30
0.0
 10
241.5454335429685
 20
56.56228252206616
 30
0.0
 10
241.1931862346327
 20
55.85890681744235
 30
0.0
 10
240.9708744480232
 20
55.21554877314562
 30
0.0
 10
240.8552889468345
 20
54.84487585595912
 30
0.0
 10
240.8365772986847
 20
54.59420859192859
 30
0.0
 10
240.8332716862933
 20
54.54992554387921
 30
0.0
  0
LINE
  5
2CE
330
1F
100
AcDbEntity
  8
0
  6
Continuous
 62
     7
370
    25
100
AcDbLine
 10
240.8332716863
 20
54.5499255439
 30
0.0
 11
240.8332716863
 21
54.3193690433
 31
0.0
  0
LINE
  5
2CF
330
1F
100
AcDbEntity
  8
0
  6
Continuous
 62
     7
370
    25
100
AcDbLine
 10
238.6096712788
 20
56.0861715942
 30
0.0
 11
240.8332716863
 21
54.3193690433
 31
0.0
  0
LINE
  5
2D0
330
1F
100
AcDbEntity
  8
0
  6
Continuous
 62
     7
370
    25
100
AcDbLine
 10
267.1349997933
 20
31.8600610524
 30
0.0
 11
267.1349997933
 21
21.9169815929
 31
0.0
  0
LINE
  5
2D1
330
1F
100
AcDbEntity
  8
0
  6
Continuous
 62
     7
370
    25
100
AcDbLine
 10
240.8332716863
 20
41.2547160531
 30
0.0
 11
238.6096712788
 21
43.0215186041
 31
0.0
  0
LINE
  5
2D2
330
1F
100
AcDbEntity
  8
0
  6
Continuous
 62
     7
370
    25
100
AcDbLine
 10
240.8332716863
 20
41.2547160531
 30
0.0
 11
240.8332716863
 21
41.0241595525
 31
0.0
  0
LWPOLYLINE
  5
2D3
330
1F
100
AcDbEntity
  8
0
  6
Continuous
 62
     7
370
    25
100
AcDbPolyline
 90
        3
 70
   128
 43
0.0
 10
242.3362275781
 20
57.5607113533
 10
243.0516602022
 20
58.1430685481
 10
243.5443076012
 20
58.4669333449
  0
LWPOLYLINE
  5
2D4
330
1F
100
AcDbEntity
  8
0
  6
Continuous
 62
     7
370
    25
100
AcDbPolyline
 90
        3
 70
   128
 43
0.0
 10
263.484230951
 20
19.5929665088
 10
263.4206075151
 20
19.5793296777
 10
263.3375371263
 20
19.5623258196
  0
LINE
  5
2D5
330
1F
100
AcDbEntity
  8
0
  6
Continuous
 62
     7
370
    25
100
AcDbLine
 10
252.9083344062
 20
47.3485837124
 30
0.0
 11
240.8332716863
 21
54.3193690433
 31
0.0
  0
LINE
  5
2D6
330
1F
100
AcDbEntity
  8
0
  6
Continuous
 62
     7
370
    25
100
AcDbLine
 10
240.8332716863
 20
41.2547160531
 30
0.0
 11
252.9083344062
 21
34.2839307223
 31
0.0
  0
LWPOLYLINE
  5
2D7
330
1F
100
AcDbEntity
  8
0
  6
Continuous
 62
     7
370
    25
100
AcDbPolyline
 90
       34
 70
   128
 43
0.0
 10
252.9083344062
 20
47.3485837124
 10
253.5772394733
 20
47.1901247099
 10
254.264481103
 20
46.9300773103
 10
254.9608076932
 20
46.5719422548
 10
255.6568453406
 20
46.1205407341
 10
256.3432240318
 20
45.5819494862
 10
257.0107037815
 20
44.9634189915
 10
257.6502990206
 20
44.2732758671
 10
258.2533995596
 20
43.5208107751
 10
258.8118864984
 20
42.7161533514
 10
259.3182415222
 20
41.870135842
 10
259.7656481124
 20
40.9941472795
 10
260.1480833107
 20
40.099980165
 10
260.4603987994
 20
39.1996717181
 10
260.6983902076
 20
38.3053418324
 10
260.8588537105
 20
37.4290299187
 10
260.9396291589
 20
36.582532831
 10
260.9396291589
 20
35.777246058
 10
260.8588537105
 20
35.0240103178
 10
260.6983902076
 20
34.3329656211
 10
260.4603987994
 20
33.7134147665
 10
260.1480833107
 20
33.1736981073
 10
259.7656481124
 20
32.7210812742
 10
259.3182415222
 20
32.3616573654
 10
258.8118864984
 20
32.1002649223
 10
258.2533995596
 20
31.9404227929
 10
257.6502990206
 20
31.8842827615
 10
257.0107037815
 20
31.9326005817
 10
256.3432240318
 20
32.084725802
 10
255.6568453406
 20
32.3386105227
 10
254.9608076932
 20
32.690836964
 10
254.264481103
 20
33.1366634767
 10
253.5772394733
 20
33.6700883732
 10
252.9083344062
 20
34.2839307223
  0
LWPOLYLINE
  5
2D8
330
1F
100
AcDbEntity
  8
0
  6
Continuous
 62
     7
370
    25
100
AcDbPolyline
 90
       45
 70
   128
 43
0.0
 10
253.3452730202
 20
64.0667562773
 10
253.3788044923
 20
64.0810477445
 10
254.2434740981
 20
64.3865175294
 10
255.1556493972
 20
64.5912813915
 10
256.1106821533
 20
64.6942959011
 10
257.1037057384
 20
64.6950361199
 10
258.129659932
 20
64.593498276
 10
259.1833167065
 20
64.3901997829
 10
260.2593068687
 20
64.0861766031
 10
261.3521474193
 20
63.682977969
 10
262.4562694933
 20
63.1826584886
 10
263.5660467378
 20
62.5877676751
 10
264.6758239823
 20
61.9013369558
 10
265.7799460564
 20
61.1268642243
 10
266.872786607
 20
60.2682960161
 10
267.9487767691
 20
59.3300073979
 10
269.0024335437
 20
58.3167796737
 10
270.0283877372
 20
57.2337760194
 10
271.0214113223
 20
56.0865151736
 10
271.9764440784
 20
54.8808433145
 10
272.8886193775
 20
53.6229042696
 10
273.7532889834
 20
52.3191082078
 10
274.5660467378
 20
50.9760989751
 10
275.3227510137
 20
49.6007202386
 10
276.0195458195
 20
48.1999806131
 10
276.6528804486
 20
46.7810179468
 10
277.2195275728
 20
45.351062948
 10
277.7165996884
 20
43.9174023397
 10
278.1415638298
 20
42.4873417277
 10
278.492254477
 20
41.0681683731
 10
278.766884591
 20
39.667114058
 10
278.9640547196
 20
38.291318234
 10
279.0827601291
 20
36.9477916414
 10
279.1223959239
 20
35.6433805835
 10
279.0827601291
 20
34.3847320403
 10
278.9640547196
 20
33.1782597962
 10
278.766884591
 20
32.0301117571
 10
278.492254477
 20
30.9461386224
 10
278.1415638298
 20
29.9318640706
 10
277.7165996884
 20
28.9924566123
 10
277.2195275728
 20
28.1327032527
 10
276.6528804486
 20
27.3569850977
 10
276.0195458195
 20
26.6692550294
 10
275.3227510137
 20
26.0730175624
 10
275.2919505811
 20
26.0498764765
  0
ARC
  5
2D9
330
1F
100
AcDbEntity
  8
0
  6
Continuous
 62
     7
370
    25
100
AcDbCircle
 10
246.3865211139
 20
34.6287711417
 30
0.0
 40
32.83971303051511
100
AcDbArc
 50
15.6156172827
 51
57.286915725
  0
SPLINE
  5
2DA
330
1F
100
AcDbEntity
  8
0
  6
Continuous
 62
     7
370
    25
100
AcDbSpline
210
0.0
220
0.0
230
1.0
 70
     8
 71
     3
 72
     9
 73
     5
 74
     0
 42
0.000000001
 43
0.00000001
 40
0.0
 40
0.0
 40
0.0
 40
0.0
 40
0.6545477205207716
 40
1.0
 40
1.0
 40
1.0
 40
1.0
 10
277.9287109763099
 20
44.66090457700315
 30
0.0
 10
277.9482579402305
 20
44.40079531890398
 30
0.0
 10
277.9781212539474
 20
44.00340755030516
 30
0.0
 10
278.0048585976963
 20
43.60594602124307
 30
0.0
 10
278.0140950740417
 20
43.46864203002326
 30
0.0
  0
ARC
  5
2DB
330
1F
100
AcDbEntity
  8
0
  6
Continuous
 62
     7
370
    25
100
AcDbCircle
 10
254.8923818305
 20
37.1436831972
 30
0.0
 40
24.23181953108861
100
AcDbArc
 50
0.6994208304
 51
18.0725546831
  0
LINE
  5
2DC
330
1F
100
AcDbEntity
  8
0
  6
Continuous
 62
     7
370
    25
100
AcDbLine
 10
254.3225479686
 20
35.1003388341
 30
0.0
 11
252.9083344062
 21
34.2839307223
 31
0.0
  0
LWPOLYLINE
  5
2DD
330
1F
100
AcDbEntity
  8
0
  6
Continuous
 62
     7
370
    25
100
AcDbPolyline
 90
       19
 70
   128
 43
0.0
 10
252.103902956
 20
47.8216037735
 10
251.9929058175
 20
47.7540887874
 10
251.5406885501
 20
47.3959528922
 10
251.1540224231
 20
46.9433520806
 10
250.8381738182
 20
46.402450763
 10
250.5974445846
 20
45.7806160001
 10
250.4351134477
 20
45.0863171637
 10
250.3533913529
 20
44.3290105846
 10
250.3533913529
 20
43.5190107569
 10
250.4351134477
 20
42.6673498555
 10
250.5974445846
 20
41.7856274779
 10
250.8381738182
 20
40.885852658
 10
251.1540224231
 20
39.9802803034
 10
251.5406885501
 20
39.0812442843
 10
251.9929058175
 20
38.2009894457
 10
252.5045150389
 20
37.3515048337
 10
253.0685481111
 20
36.544360405
 10
253.6773229196
 20
35.7905494437
 10
254.3225479686
 20
35.1003388341
  0
LINE
  5
2DE
330
1F
100
AcDbEntity
  8
0
  6
Continuous
 62
     7
370
    25
100
AcDbLine
 10
277.5683291527
 20
44.8689485754
 30
0.0
 11
277.9287109763
 21
44.660904577
 31
0.0
  0
LINE
  5
2DF
330
1F
100
AcDbEntity
  8
0
  6
Continuous
 62
     7
370
    25
100
AcDbLine
 10
239.6054233453
 20
43.5963540363
 30
0.0
 11
254.3225479686
 21
35.1003388341
 31
0.0
  0
LWPOLYLINE
  5
2E0
330
1F
100
AcDbEntity
  8
0
  6
Continuous
 62
     7
370
    18
100
AcDbPolyline
 90
       22
 70
   128
 43
0.0
 10
263.3375371263
 20
19.5623258196
 10
262.4729834909
 20
19.436571466
 10
261.4848290388
 20
19.3977460628
 10
260.4612679884
 20
19.4630547876
 10
259.4076077615
 20
19.6321589982
 10
258.3293118515
 20
19.9041818467
 10
257.2319714942
 20
20.2777128262
 10
256.1212766755
 20
20.7508150846
 10
255.0029866278
 20
21.3210354674
 10
253.8828999664
 20
21.9854172385
 10
252.7668246227
 20
22.7405154112
 10
251.6605477282
 20
23.5824146113
 10
250.5698056071
 20
24.5067493795
 10
249.5002540319
 20
25.5087268075
 10
248.4574388968
 20
26.5831513899
 10
247.4467674607
 20
27.7244519649
 10
246.4734803096
 20
28.9267106017
 10
245.5426241821
 20
30.1836932865
 10
244.6590258018
 20
31.4888822478
 10
243.8272668487
 20
32.8355097523
 10
243.0516602022
 20
34.2165931972
 10
242.3362275781
 20
35.6249713173
  0
ARC
  5
2E1
330
1F
100
AcDbEntity
  8
0
  6
Continuous
 62
     7
370
    18
100
AcDbCircle
 10
248.0231971201
 20
51.6020446352
 30
0.0
 40
7.770780501080115
100
AcDbArc
 50
104.9012298238
 51
157.7062925173
  0
LWPOLYLINE
  5
2E2
330
1F
100
AcDbEntity
  8
0
  6
Continuous
 62
     7
370
    18
100
AcDbPolyline
 90
       26
 70
   128
 43
0.0
 10
263.935877518
 20
20.1972910692
 10
263.0310414152
 20
20.0138167866
 10
262.0739092745
 20
19.9303092011
 10
261.0794807089
 20
19.949855126
 10
260.0529541613
 20
20.0723523836
 10
258.999695869
 20
20.2971606112
 10
257.9252118114
 20
20.6231046084
 10
256.8351189269
 20
21.048480481
 10
255.7351157501
 20
21.5710645475
 10
254.6309526224
 20
22.1881249643
 10
253.5284016317
 20
22.8964360061
 10
252.4332264381
 20
23.6922949288
 10
251.3511521445
 20
24.5715413257
 10
250.2878353678
 20
25.5295788766
 10
249.2488346686
 20
26.561399375
 10
248.2395814939
 20
27.6616089092
 10
247.2653517831
 20
28.8244560589
 10
246.3312383883
 20
30.0438619617
 10
245.4421244508
 20
31.3134520904
 10
244.602657874
 20
32.6265895762
 10
243.8172270267
 20
33.9764099037
 10
243.089937802
 20
35.3558567953
 10
242.4245921536
 20
36.7577190987
 10
241.8246682213
 20
38.1746684834
 10
241.2933021481
 20
39.5992977501
 10
240.8332716863
 20
41.0241595525
  0
OLE2FRAME
  5
2E3
330
1F
100
AcDbEntity
  8
0
100
AcDbOle2Frame
 70
     2
  3
Paintbrush-Bild
 10
13.8511154363
 20
38.264191557
 30
0.0
 11
51.6290888628
 21
31.9806341108
 31
0.0
 71
     2
 72
     0
 73
     1
 90
    12928
310
80552BED0767C5B32B40DDAF6807D121434000000000000000006FFBDDFB85D0
310
4940DDAF6807D121434000000000000000006FFBDDFB85D04940416F4BD60AFB
310
3F4000000000000000002BED0767C5B32B40416F4BD60AFB3F40000000000000
310
0000000000000100000000010000010000000100000000000100000000320000
310
D0CF11E0A1B11AE1000000000000000000000000000000003E000300FEFF0900
310
0600000000000000000000000100000001000000000000000010000002000000
310
01000000FEFFFFFF0000000000000000FFFFFFFFFFFFFFFFFFFFFFFFFFFFFFFF
310
FFFFFFFFFFFFFFFFFFFFFFFFFFFFFFFFFFFFFFFFFFFFFFFFFFFFFFFFFFFFFFFF
310
FFFFFFFFFFFFFFFFFFFFFFFFFFFFFFFFFFFFFFFFFFFFFFFFFFFFFFFFFFFFFFFF
310
FFFFFFFFFFFFFFFFFFFFFFFFFFFFFFFFFFFFFFFFFFFFFFFFFFFFFFFFFFFFFFFF
310
FFFFFFFFFFFFFFFFFFFFFFFFFFFFFFFFFFFFFFFFFFFFFFFFFFFFFFFFFFFFFFFF
310
FFFFFFFFFFFFFFFFFFFFFFFFFFFFFFFFFFFFFFFFFFFFFFFFFFFFFFFFFFFFFFFF
310
FFFFFFFFFFFFFFFFFFFFFFFFFFFFFFFFFFFFFFFFFFFFFFFFFFFFFFFFFFFFFFFF
310
FFFFFFFFFFFFFFFFFFFFFFFFFFFFFFFFFFFFFFFFFFFFFFFFFFFFFFFFFFFFFFFF
310
FFFFFFFFFFFFFFFFFFFFFFFFFFFFFFFFFFFFFFFFFFFFFFFFFFFFFFFFFFFFFFFF
310
FFFFFFFFFFFFFFFFFFFFFFFFFFFFFFFFFFFFFFFFFFFFFFFFFFFFFFFFFFFFFFFF
310
FFFFFFFFFFFFFFFFFFFFFFFFFFFFFFFFFFFFFFFFFFFFFFFFFFFFFFFFFFFFFFFF
310
FFFFFFFFFFFFFFFFFFFFFFFFFFFFFFFFFFFFFFFFFFFFFFFFFFFFFFFFFFFFFFFF
310
FFFFFFFFFFFFFFFFFFFFFFFFFFFFFFFFFFFFFFFFFFFFFFFFFFFFFFFFFFFFFFFF
310
FFFFFFFFFFFFFFFFFFFFFFFFFFFFFFFFFFFFFFFFFFFFFFFFFFFFFFFFFFFFFFFF
310
FDFFFFFFFEFFFFFFFEFFFFFFFEFFFFFF05000000060000000700000008000000
310
090000000A0000000B0000000C0000000D0000000E0000000F00000010000000
310
11000000120000001300000014000000150000001600000017000000FEFFFFFF
310
FFFFFFFFFFFFFFFFFFFFFFFFFFFFFFFFFFFFFFFFFFFFFFFFFFFFFFFFFFFFFFFF
310
FFFFFFFFFFFFFFFFFFFFFFFFFFFFFFFFFFFFFFFFFFFFFFFFFFFFFFFFFFFFFFFF
310
FFFFFFFFFFFFFFFFFFFFFFFFFFFFFFFFFFFFFFFFFFFFFFFFFFFFFFFFFFFFFFFF
310
FFFFFFFFFFFFFFFFFFFFFFFFFFFFFFFFFFFFFFFFFFFFFFFFFFFFFFFFFFFFFFFF
310
FFFFFFFFFFFFFFFFFFFFFFFFFFFFFFFFFFFFFFFFFFFFFFFFFFFFFFFFFFFFFFFF
310
FFFFFFFFFFFFFFFFFFFFFFFFFFFFFFFFFFFFFFFFFFFFFFFFFFFFFFFFFFFFFFFF
310
FFFFFFFFFFFFFFFFFFFFFFFFFFFFFFFFFFFFFFFFFFFFFFFFFFFFFFFFFFFFFFFF
310
FFFFFFFFFFFFFFFFFFFFFFFFFFFFFFFFFFFFFFFFFFFFFFFFFFFFFFFFFFFFFFFF
310
FFFFFFFFFFFFFFFFFFFFFFFFFFFFFFFFFFFFFFFFFFFFFFFFFFFFFFFFFFFFFFFF
310
FFFFFFFFFFFFFFFFFFFFFFFFFFFFFFFFFFFFFFFFFFFFFFFFFFFFFFFFFFFFFFFF
310
FFFFFFFFFFFFFFFFFFFFFFFFFFFFFFFFFFFFFFFFFFFFFFFFFFFFFFFFFFFFFFFF
310
FFFFFFFFFFFFFFFFFFFFFFFFFFFFFFFFFFFFFFFFFFFFFFFFFFFFFFFFFFFFFFFF
310
FFFFFFFFFFFFFFFFFFFFFFFFFFFFFFFFFFFFFFFFFFFFFFFFFFFFFFFFFFFFFFFF
310
52006F006F007400200045006E00740072007900000000000000000000000000
310
0000000000000000000000000000000000000000000000000000000000000000
310
16000500FFFFFFFFFFFFFFFF020000000A00030000000000C000000000000046
310
000000000000000000000000F0EDC953CFAFD30103000000C000000000000000
310
01004F006C006500000000000000000000000000000000000000000000000000
310
0000000000000000000000000000000000000000000000000000000000000000
310
0A000200FFFFFFFFFFFFFFFFFFFFFFFF00000000000000000000000000000000
310
0000000000000000000000000000000000000000000000001400000000000000
310
010043006F006D0070004F0062006A0000000000000000000000000000000000
310
0000000000000000000000000000000000000000000000000000000000000000
310
120002010100000003000000FFFFFFFF00000000000000000000000000000000
310
0000000000000000000000000000000000000000010000004D00000000000000
310
01004F006C006500310030004E00610074006900760065000000000000000000
310
0000000000000000000000000000000000000000000000000000000000000000
310
1A000200FFFFFFFFFFFFFFFFFFFFFFFF00000000000000000000000000000000
310
0000000000000000000000000000000000000000040000002426000000000000
310
FEFFFFFF02000000FEFFFFFFFFFFFFFFFFFFFFFFFFFFFFFFFFFFFFFFFFFFFFFF
310
FFFFFFFFFFFFFFFFFFFFFFFFFFFFFFFFFFFFFFFFFFFFFFFFFFFFFFFFFFFFFFFF
310
FFFFFFFFFFFFFFFFFFFFFFFFFFFFFFFFFFFFFFFFFFFFFFFFFFFFFFFFFFFFFFFF
310
FFFFFFFFFFFFFFFFFFFFFFFFFFFFFFFFFFFFFFFFFFFFFFFFFFFFFFFFFFFFFFFF
310
FFFFFFFFFFFFFFFFFFFFFFFFFFFFFFFFFFFFFFFFFFFFFFFFFFFFFFFFFFFFFFFF
310
FFFFFFFFFFFFFFFFFFFFFFFFFFFFFFFFFFFFFFFFFFFFFFFFFFFFFFFFFFFFFFFF
310
FFFFFFFFFFFFFFFFFFFFFFFFFFFFFFFFFFFFFFFFFFFFFFFFFFFFFFFFFFFFFFFF
310
FFFFFFFFFFFFFFFFFFFFFFFFFFFFFFFFFFFFFFFFFFFFFFFFFFFFFFFFFFFFFFFF
310
FFFFFFFFFFFFFFFFFFFFFFFFFFFFFFFFFFFFFFFFFFFFFFFFFFFFFFFFFFFFFFFF
310
FFFFFFFFFFFFFFFFFFFFFFFFFFFFFFFFFFFFFFFFFFFFFFFFFFFFFFFFFFFFFFFF
310
FFFFFFFFFFFFFFFFFFFFFFFFFFFFFFFFFFFFFFFFFFFFFFFFFFFFFFFFFFFFFFFF
310
FFFFFFFFFFFFFFFFFFFFFFFFFFFFFFFFFFFFFFFFFFFFFFFFFFFFFFFFFFFFFFFF
310
FFFFFFFFFFFFFFFFFFFFFFFFFFFFFFFFFFFFFFFFFFFFFFFFFFFFFFFFFFFFFFFF
310
FFFFFFFFFFFFFFFFFFFFFFFFFFFFFFFFFFFFFFFFFFFFFFFFFFFFFFFFFFFFFFFF
310
FFFFFFFFFFFFFFFFFFFFFFFFFFFFFFFFFFFFFFFFFFFFFFFFFFFFFFFFFFFFFFFF
310
FFFFFFFFFFFFFFFFFFFFFFFFFFFFFFFFFFFFFFFFFFFFFFFFFFFFFFFFFFFFFFFF
310
0100000200000000000000000000000000000000000000000000000000000000
310
0000000000000000000000000000000000000000000000000000000000000000
310
0100FEFF030A0000FFFFFFFF0A00030000000000C00000000000004607000000
310
5042727573680007000000504272757368000700000050427275736800F439B2
310
7100000000000000000000000000000000000000000000000000000000000000
310
0000000000000000000000000000000000000000000000000000000000000000
310
0000000000000000000000000000000000000000000000000000000000000000
310
0000000000000000000000000000000000000000000000000000000000000000
310
0000000000000000000000000000000000000000000000000000000000000000
310
0000000000000000000000000000000000000000000000000000000000000000
310
0000000000000000000000000000000000000000000000000000000000000000
310
0000000000000000000000000000000000000000000000000000000000000000
310
0000000000000000000000000000000000000000000000000000000000000000
310
0000000000000000000000000000000000000000000000000000000000000000
310
0000000000000000000000000000000000000000000000000000000000000000
310
0000000000000000000000000000000000000000000000000000000000000000
310
20260000424D0E260000000000003E00000028000000B40200006E0000000100
310
01000000000000000000130B0000130B00000200000002000000000000FFFFFF
310
FFFFFFFFFFFFFFFFFFFFFFFFFFFFFFFFFFFFFFFFFFFFFFFFFFFFFFFFFFFFFFFF
310
FFFFFFFFFFFFFFFFFFFFFFFFFFFFFFFFFFFFFFFFFFFFFFFFFFFFFFFFFFFFFFFF
310
FFFFFFFFFFFFFFFFFFFFFFFFFFFFFFFFFFFFFFFFFFFFFFFFF000FFFFFFFFFFFF
310
FFFFFFFFFFFFFFFFFFFFFFFFFFFFFFFFFFFFFFFFFFFFFFFFFFFFFFFFFFFFFFFF
310
FFFFFFFFFFFFFFFFFFFFFFFFFFFFFFFFFFFFFFFFFFFFFFFFFFFFFFFFFFFFFFFF
310
FFFFFFFFFFFFFFFFFFFFFFFFFFFFFFFFF000FFFFFFFFFFFFFFFFFFFFFFFFFFFF
310
FFFFFFFFFFFFFFFFFFFFFFFFFFFFFFFFFFFFFFFFFFFFFFFFFFFFFFFFFFFFFFFF
310
FFFFFFFFFFFFFFFFFFFFFFFFFFFFFFFFFFFFFFFFFFFFFFFFFFFFFFFFFFFFFFFF
310
FFFFFFFFFFFFFFFFF000FFFFFFFFFFFFFFFFFFFFFFFFFFFFFFFFFFFFFFFFFFFF
310
FFFFFFFFFFFFFFFFFFFFFFFFFFFFFFFFFFFFFFFFFFFFFFFFFFFFFFFFFFFFFFFF
310
FFFFFFFFFFFFFFFFFFFFFFFFFFFFFFFFFFFFFFFFFFFFFFFFFFFFFFFFFFFFFFFF
310
F000FFFFFFFFFFFFFFFFFFFFFFFFFFFFFFFFFFFFFFFFFFFFFFFFFFFFFFFFFFFF
310
FFFFFFFFFFFFFFFFFFFFFFFFFFFFFFFFFFFFFFFFFFFFFFFFFFFFFFFFFFFFFFFF
310
FFFFFFFFFFFFFFFFFFFFFFFFFFFFFFFFFFFFFFFFFFFFFFFFF000FFFFFFFFFFFF
310
FFFFFFFFFFFFFFFFFFFFFFFFFFFFFFFFFFFFFFFFFFFFFFFFFFFFFFFFFFFFFFFF
310
FFFFFFFFFFFFFFFFFFFFFFFFFFFFFFFFFFFFFFFFFFFFFFFFFFFFFFFFFFFFFFFF
310
FFFFFFFFFFFFFFFFFFFFFFFFFFFFFFFFF000FFFFFFFFFFFFFFFFFFFFFFFFFFFF
310
FFFFFFFFFFFFFFFFFFFFFFFFFFFFFFFFFFFFFFFFFFFFFFFFFFFFFFFFFFFFFFFF
310
FFFFFFFFFFFFFFFFFFFFFFFFFFFFFFFFFFFFFFFFFFFFFFFFFFFFFFFFFFFFFFFF
310
FFFFFFFFFFFFFFFFF000FFFFFFFFFFFFFFFFFFFFFFFFFFFFFFFFFFFFFFFFFFFF
310
FFFFFFFFFFFFFFFFFFFFFFFFFFFFFFFFFFFFFFFFFFFFFFFFFFFFFFFFFFFFFFFF
310
FFFFFFFFFFFFFFFFFFFFFFFFFFFFFFFFFFFFFFFFFFFFFFFFFFFFFFFFFFFFFFFF
310
F000FFFFFFFFFFFFFFFFFFFFFFFFFFFFFFFFFFFFFFFFFFFFFFFFFFFFFFFFFFFF
310
FFFFFFFFFFFFFFFFFFFFFFFFFFFFFFFFFFFFFFFFFFFFFFFFFFFFFFFFFFFFFFFF
310
FFFFFFFFFFFFFFFFFFFFFFFFFFFFFFFFFFFFFFFFFFFFFFFFF000FFFFFFFFFFFF
310
FFFFFFFFFFFFFFFFFFFFFFFFFFFFFFFFFFFFFFFFFFFFFFFFFFFFFFFFFFFFFFFF
310
FFFFFFFFFFFFFFFFFFFFFFFFFFFFFFFFFFFFFFFFFFFFFFFFFFFFFFFFFFFFFFFF
310
FFFFFFFFFFFFFFFFFFFFFFFFFFFFFFFFF000FFFFFFFFFFFFFFFFFFFFFFFFFFFF
310
FFFFFFFFFFFFFFFFFFFFFFFFFFFFFFFFFFFFFFFFFFFFFFFFFFFFFFFFFFFFFFFF
310
FFFFFFFFFFFFFFFFFFFFFFFFFFFFFFFFFFFFFFFFFFFFFFFFFFFFFFFFFFFFFFFF
310
FFFFFFFFFFFFFFFFF000FFFFFFFFFFFFFFFFFFFFFFFFFFFFFFFFFFFFFFFFFFFF
310
FFFFFFFFFFFFFFFFFFFFFFFFFFFFFFFFFFFFFFFFFFFFFFFFFFFFFFFFFFFFFFFF
310
FFFFFFFFFFFFFFFFFFFFFFFFFFFFFFFFFFFFFFFFFFFFFFFFFFFFFFFFFFFFFFFF
310
F000FFFFFFFFFFFFFFFFFFFFFFFFFFFFFFFFFFFFFFFFFFFFFFFFFFFFFFFFFFFF
310
FFFFFFFFFFFFFFFFFFFFFFFFFFFFFFFFFFFFFFFFFFFFFFFFFFFFFFFFFFFFFFFF
310
FFFFFFFFFFFFFFFFFFFFFFFFFFFFFFFFFFFFFFFFFFFFFFFFF000FFFFFFFFFFFF
310
FFFFFFFFFFFFFFFFFFFFFFFFFFFFFFFFFFFFFFFFFFFFFFFFFFFFFFFFFFFFFFFF
310
FFFFFFFFFFFFFFFFFFFFFFFFFFFFFFFFFFFFFFFFFFFFFFFFFFFFFFFFFFFFFFFF
310
FFFFFFFFFFFFFFFFFFFFFFFFFFFFFFFFF000FFFFFFFFFFFFFFFFFFFFFFFFFFFF
310
FFFFFFFFFFFFFFFFFFFFFFFFFFFFFFFFFFFFFFFFFFFFFFFFFFFFFFFFFFFFFFFF
310
FFFFFFFFFFFFFFFFFFFFFFFFFFFFFFFFFFFFFFFFFFFFFFFFFFFFFFFFFFFFFFFF
310
FFFFFFFFFFFFFFFFF000FFFFFFFFFFFFFFFFFFFFFFFFFFFFFFFFFFFFFFFFFFFF
310
FFFFFFFFFFFFFFFFFFFFFFFFFFFFFFFFFFFFFFFFFFFFFFFFFFFFFFFFFFFFFFFF
310
FFFFFFFFFFFFFFFFFFFFFFFFFFFFFFFFFFFFFFFFFFFFFFFFFFFFFFFFFFFFFFFF
310
F000FFFFFFFFFFFFFFFFFFFFFFFFFFFFFFFFFFFFFFFFFFFFFFFFFFFFFFFFFFFF
310
FFFFFFFFFFFFFFFFFFFFFFFFFFFFFFFFFFFFFFFFFFFFFFFFFFFFFFFFFFFFFFFF
310
FFFFFFFFFFFFFFFFFFFFFFFFFFFFFFFFFFFFFFFFFFFFFFFFF000FFFFFFFFFFFF
310
FFFFFFFFFFFFFFFFFFFFFFFFFFFFFFFFFFFFFFFFFFFFFFFFFFFFFFFFFFFFFFFF
310
FFFFFFFFFFFFFFFFFFFFFFFFFFFFFFFFFFFFFFFFFFFFFFFFFFFFFFFFFFFFFFFF
310
FFFFFFFFFFFFFFFFFFFFFFFFFFFFFFFFF000FFFFFFFFFFFFFFFFFFFFFFFFFFFF
310
FFFFFFFFFFFFFFFFFFFFFFFFFFFFFFFFFFFFFFFFFFFFFFFFFFFFFFFFFFFFFFFF
310
FFFFFFFFFFFFFFFFFFFFFFFFFFFFFFFFFFFFFFFFFFFFFFFFFFFFFFFFFFFFFFFF
310
FFFFFFFFFFFFFFFFF000FFFFF80003FFFFFFFFFFFFFFFFFFFFFFFFFFFFFFFFFF
310
FFFFF00007FFFFFFFFFF00007FFFFFF800000000000000007FFFFFFFFFFFFFFF
310
FFFFFFFC001FFFFFFFFFFFFFFC001FFFFFFFFFFFFFFFFFFFFFFFFFFE0007FFFF
310
F000FFFF8000007FFFFFFFF8000FFFFFC0007FFFFF80007FFFFF0000007FFFFF
310
FFF8000007FFFFF800000000000000007FFFFFF0001FFFFFFFFFFFC00001FFFF
310
FFFFFFFFC00001FFFFFFFF000000000003FFFFE000007FFFF000FFFE0000000F
310
FFFFFFF0000FFFFF80007FFFFF80007FFFFC0000001FFFFFFFC0000001FFFFF8
310
00000000000000007FFFFFF0001FFFFFFFFFFE0000003FFFFFFFFFFE0000003F
310
FFFFFF000000000003FFFF0000000FFFF000FFF800000003FFFFFFF00007FFFF
310
80007FFFFF80007FFFF000000007FFFFFF000000003FFFF80000000000000000
310
7FFFFFF0001FFFFFFFFFF80000000FFFFFFFFFF80000000FFFFFFF0000000000
310
03FFFC00000003FFF000FFE000000000FFFFFFF00007FFFF80003FFFFF80007F
310
FFC000000001FFFFFC000000001FFFF800000000000000007FFFFFF0001FFFFF
310
FFFFE000000003FFFFFFFFE000000003FFFFFF000000000003FFF000000000FF
310
F000FF80000000007FFFFFF00007FFFF80003FFFFF80007FFF8000000000FFFF
310
F80000000007FFF800000000000000007FFFFFF0001FFFFFFFFFC000000001FF
310
FFFFFFC000000001FFFFFF000000000003FFC0000000007FF000FF0000000000
310
3FFFFFE00007FFFF00003FFFFF80007FFE00000000003FFFF00000000003FFF8
310
00000000000000007FFFFFF0001FFFFFFFFF8000000000FFFFFFFF8000000000
310
FFFFFF000000000003FF80000000003FF000FE00000000001FFFFFE00003FFFF
310
00003FFFFF80007FFC00000000001FFFE00000000001FFF8000001FFFE000000
310
7FFFFFF0001FFFFFFFFE00000000003FFFFFFE00000000003FFFFF0000000000
310
03FF00000000001FF000FC00000000000FFFFFE00003FFFF00001FFFFF80007F
310
F800000000001FFFC00000000000FFF8000001FFFE0000007FFFFFF0001FFFFF
310
FFFC00000000001FFFFFFC00000000001FFFFF000000000003FE00000000000F
310
F000F8000000000007FFFFE00003FFFF00001FFFFF80007FF800000000000FFF
310
800000000000FFF8000001FFFE0000007FFFFFF0001FFFFFFFF800000000000F
310
FFFFF800000000000FFFFF000000000003FC000000000007F000F80000000000
310
03FFFFC00003FFFE00001FFFFF80007FF0000000000007FF0000000000007FF8
310
000001FFFE0000007FFFFFF0001FFFFFFFF0000000000007FFFFF00000000000
310
07FFFF000000000003F8000000000003F000F0000000000003FFFFC00001FFFE
310
00001FFFFF80007FE0000000000007FE0000000000003FF8000001FFFE000000
310
7FFFFFF0001FFFFFFFF0000000000007FFFFF0000000000007FFFF0000000000
310
03F800001F800003F000E00001FFF00001FFFFC00001FFFE00000FFFFF80007F
310
E00001FFE00003FE00001FFF00003FF8000001FFFE0000007FFFFFF0001FFFFF
310
FFE000003E000003FFFFE000003E000003FFFF000000000003F00001FFF80001
310
F000E00007FFFC0001FFFFC00001FFFE00000FFFFF80007FC0000FFFFC0003FC
310
0000FFFFC0001FF8000001FFFE0000007FFFFFF0001FFFFFFFC00003FFE00001
310
FFFFC00003FFE00001FFFF0001FFFFFFFFF00007FFFE0001F000E0000FFFFF00
310
00FFFF800001FFFC00000FFFFF80007FC0001FFFFE0001FC0001FFFFE0001FF8
310
000001FFFE0000007FFFFFF0001FFFFFFF80000FFFF80000FFFF80000FFFF800
310
00FFFF0003FFFFFFFFE0000FFFFF8000F000C0003FFFFF8000FFFF800000FFFC
310
000007FFFF80007F80003FFFFF0001FC0003FFFFF0001FF8000001FFFE000000
310
7FFFFFF0001FFFFFFF80003FFFFE0000FFFF80003FFFFE0000FFFF0003FFFFFF
310
FFE0003FFFFF8000F000C0003FFFFF8000FFFF800000FFFC000007FFFF80007F
310
80007FFFFF8001F80007FFFFF8000FF8000001FFFE0000007FFFFFF0001FFFFF
310
FF00007FFFFF00007FFF00007FFFFF00007FFF0003FFFFFFFFE0003FFFFFC000
310
F000C0007FFFFFC000FFFF000000FFFC000007FFFF80007F8000FFFFFF8000F8
310
000FFFFFF8000FF8000001FFFE0000007FFFFFF0001FFFFFFF0000FFFFFF8000
310
7FFF0000FFFFFF80007FFF0003FFFFFFFFC0007FFFFFC00070008000FFFFFFC0
310
00FFFF000000FFF8000007FFFF80007F8000FFFFFF8000F8000FFFFFF8000FF8
310
000001FFFE0000007FFFFFF0001FFFFFFE0001FFFFFFC0003FFE0001FFFFFFC0
310
003FFF0003FFFFFFFFC0007FFFFFE00070008000FFFFFFC0007FFF0000007FF8
310
000003FFFF80007F0001FFFFFF8000F8000FFFFFF8000FF8000001FFFE000000
310
7FFFFFF0001FFFFFFE0001FFFFFFC0003FFE0001FFFFFFC0003FFF0003FFFFFF
310
FFC000FFFFFFE00070008000FFFFFFC0007FFF0000007FF8000003FFFF80007F
310
0001FFFFFF8000F8001FFFFFF8000FF8000001FFFE0000007FFFFFF0001FFFFF
310
FE0003FFFFFFE0003FFE0003FFFFFFE0003FFF0003FFFFFFFFC000FFFFFFE000
310
70008000FFFFFFC0007FFE0000007FF8000003FFFF80007F0001FFFFFF8000F0
310
001FFFFFF8000FF8000001FFFE0000007FFFFFF0001FFFFFFC0003FFFFFFE000
310
1FFC0003FFFFFFE0001FFF0003FFFFFFFFC000FFFFFFC00070008000FFFFFF80
310
007FFE0000007FF0000003FFFF80007F0001FFFFFF0000F0001FFFFFF8000FF8
310
000001FFFE0000007FFFFFF0001FFFFFFC0007FFFFFFF0001FFC0007FFFFFFF0
310
001FFF0003FFFFFFFFC000FFFFFFC00070008001FFFFFF0000FFFE0000003FF0
310
000001FFFF80007F0001FFFFFF0000F8001FFFFFF0000FF8000001FFFE000000
310
7FFFFFF0001FFFFFFC0007FFFFFFF0001FFC0007FFFFFFF0001FFF0003FFFFFF
310
FFC001FFFFFF80007000FFFFFFFFFE0000FFFE0008003FF0008001FFFF80007F
310
FFFFFFFFFC0000FFFFFFFFFFE0000FF8000001FFFE0000007FFFFFF0001FFFFF
310
F8000FFFFFFFF8000FF8000FFFFFFFF8000FFF0003FFFFFFFFFFFFFFFFFF0000
310
7000FFFFFFFFFC0000FFFC0008003FF0008001FFFF80007FFFFFFFFFF80001FF
310
FFFFFFFF80000FF8000001FFFE0000007FFFFFF0001FFFFFF8000FFFFFFFF800
310
0FF8000FFFFFFFF8000FFF0003FFFFFFFFFFFFFFFFFE0000F000FFFFFFFFE000
310
00FFFC000C003FE000C001FFFF80007FFFFFFFFFC00001FFFFFFFFFE00001FF8
310
000001FFFE0000007FFFFFF0001FFFFFF8000FFFFFFFF8000FF8000FFFFFFFF8
310
000FFF0003FFFFFFFFFFFFFFFFF00000F000FFFFFFFE000001FFFC000C001FE0
310
00C000FFFF80007FFFFFFFFE000001FFFFFFFFE000001FF80FFFFFFFFFFFFFC0
310
7FFFFFF0001FFFFFF8000FFFFFFFF8000FF8000FFFFFFFF8000FFF0003FFFFFF
310
FFFFFFFFFF800000F000FFFFFFC0000001FFFC001C001FE001C000FFFF80007F
310
FFFFFF80000003FFFFFFF80000001FF80FFFFFFFFFFFFFC07FFFFFF0001FFFFF
310
F8001FFFFFFFFC000FF8001FFFFFFFFC000FFF0003FFFFFFFFFFFFFFF0000001
310
F000FFFFF800000001FFF8001C001FE001C000FFFF80007FFFFFF800000003FF
310
FFFF800000003FF80FFFFFFFFFFFFFC07FFFFFF0001FFFFFF8001FFFFFFFFC00
310
0FF8001FFFFFFFFC000FFF0003FFFFFFFFFFFFFE00000001F000FFFFC0000000
310
03FFF8001E001FC001E000FFFF80007FFFFF8000000007FFFFFC000000003FF8
310
0FFFFFFFFFFFFFC07FFFFFF0001FFFFFF8001FFFFFFFFC000FF8001FFFFFFFFC
310
000FFF0003FFFFFFFFFFFFE000000003F000FFFE0000000007FFF8001E000FC0
310
01E0007FFF80007FFFFE0000000007FFFFE0000000007FF80FFFFFFFFFFFFFC0
310
7FFFFFF0001FFFFFF0001FFFFFFFFC0007F0001FFFFFFFFC0007FF0003FFFFFF
310
FFFFFF0000000003F000FFF80000000007FFF8001E000FC003E0007FFF80007F
310
FFF0000000000FFFFF8000000000FFF80FFFFFFFFFFFFFC07FFFFFF0001FFFFF
310
F0001FFFFFFFFC0007F0001FFFFFFFFC0007FF0003FFFFFFFFFFFC0000000007
310
F000FFE0000000000FFFF0003E000FC003E0007FFF80007FFFC0000000001FFF
310
FE0000000001FFF80FFFFFFFFFFFFFC07FFFFFF0001FFFFFF0001FFFFFFFFC00
310
07F0001FFFFFFFFC0007FF0003FFFFFFFFFFF0000000000FF000FFC000000000
310
1FFFF0003F000F8003F0003FFF80007FFF80000000003FFFF80000000003FFF8
310
0FFFFFFFFFFFFFC07FFFFFF0001FFFFFF0001FFFFFFFFC0007F0001FFFFFFFFC
310
0007FF0003FFFFFFFFFFE0000000001FF000FF00000000007FFFF0003F000780
310
03F0003FFF80007FFF00000000007FFFF00000000007FFF80FFFFFFFFFFFFFC0
310
7FFFFFF0001FFFFFF0001FFFFFFFFC0007F0001FFFFFFFFC0007FF0003FFFFFF
310
FFFF80000000007FF000FE0000000000FFFFE0003F00078007F0003FFF80007F
310
FE0000000001FFFFE0000000001FFFF80FFFFFFFFFFFFFC07FFFFFF0001FFFFF
310
F0001FFFFFFFFC0007F0001FFFFFFFFC0007FF0003FFFFFFFFFF0000000000FF
310
F000FC0000000003FFFFE0007F00078007F0003FFF80007FFC0000000007FFFF
310
C0000000007FFFF80FFFFFFFFFFFFFC07FFFFFF0001FFFFFF8001FFFFFFFFC00
310
0FF8001FFFFFFFFC000FFF0003FFFFFFFFFE0000000003FFF000FC000000000F
310
FFFFE0007F80070007F8001FFF80007FF8000000001FFFFF8000000001FFFFF8
310
0FFFFFFFFFFFFFC07FFFFFF0001FFFFFF8001FFFFFFFFC000FF8001FFFFFFFFC
310
000FFF0003FFFFFFFFFC000000000FFFF000F8000000007FFFFFE0007F800700
310
07F8001FFF80007FF000000000FFFFFF800000000FFFFFF80FFFFFFFFFFFFFC0
310
7FFFFFF0001FFFFFF8000FFFFFFFF8000FF8000FFFFFFFF8000FFF0003FFFFFF
310
FFFC000000007FFFF000F800000007FFFFFFC0007F8003000FF8001FFF80007F
310
F000000007FFFFFF000000007FFFFFF80FFFFFFFFFFFFFC07FFFFFF0001FFFFF
310
F8000FFFFFFFF8000FF8000FFFFFFFF8000FFF0003FFFFFFFFF80000000FFFFF
310
F000F0000000FFFFFFFFC000FF8003000FF8001FFF80007FE0000000FFFFFFFF
310
0000000FFFFFFFF8000001FFFE0000007FFFFFF0001FFFFFF8000FFFFFFFF800
310
0FF8000FFFFFFFF8000FFF0003FFFFFFFFF8000000FFFFFFF000F000000FFFFF
310
FFFFC000FFC002000FF8000FFF80007FE000001FFFFFFFFE000001FFFFFFFFF8
310
000001FFFE0000007FFFFFF0001FFFFFF8000FFFFFFFF8000FF8000FFFFFFFF8
310
000FFF0003FFFFFFFFF000001FFFFFFFF000E00000FFFFFFFFFFC000FFC00200
310
0FFC000FFF80007FE00001FFFFFFFFFE00001FFFFFFFFFF8000001FFFE000000
310
7FFFFFF0001FFFFFFC000FFFFFFFF8001FFC000FFFFFFFF8001FFF0003FFFFFF
310
FFF00001FFFFFFFFF000E00007FFFFFFFFFF8000FFC000001FFC000FFF80007F
310
C0000FFFFFFFFFFE0000FFFFFFFFFFF8000001FFFE0000007FFFFFF0001FFFFF
310
FC0007FFFFFFF0001FFC0007FFFFFFF0001FFF0003FFFFFFFFF00007FFFFFFFF
310
F000E0001FFFFFFFFFFF8000FFC000001FFC000FFF80007FC0003FFFFFFFFFFE
310
0001FFFFFFFFFFF8000001FFFE0000007FFFFFF0001FFFFFFC0007FFFFFFF000
310
1FFC0007FFFFFFF0001FFF0003FFFFFFFFF0001FFFFFFFFFF000E0003FFFFF00
310
03FF8001FFE000001FFC0007FF80007FC0007FFFFF0007FC0003FFFFF0003FF8
310
000001FFFE0000007FFFFFF0001FFFFFFC0003FFFFFFE0001FFC0003FFFFFFE0
310
001FFF0003FFFFFFFFF0003FFFFFFFFFF000E0003FFFFF0001FF8001FFE00000
310
1FFE0007FF80007FC0007FFFFE0003FC0007FFFFE0003FF8000001FFFE000000
310
7FFFFFF0001FFFFFFE0003FFFFFFE0003FFE0003FFFFFFE0003FFF0003FFFFFF
310
FFF0003FFFFF8001F000E0003FFFFF0001FF0001FFE000001FFE0007FF80007F
310
C0007FFFFE0003FC0007FFFFE0003FF8000001FFFE0000007FFFFFF0001FFFFF
310
FE0001FFFFFFC0003FFE0001FFFFFFC0003FFF0003FFFFFFFFF0003FFFFF0001
310
F000E0003FFFFF0003FF0001FFE000003FFE0007FF80007FC0007FFFFE0003FC
310
0007FFFFE0003FF8000001FFFE0000007FFFFFF0001FFFFFFF0001FFFFFFC000
310
7FFF0001FFFFFFC0007FFF0003FFFFFFFFF0003FFFFF0001F000E0003FFFFE00
310
03FF0003FFF000003FFE0003FF80007FC0007FFFFC0003FE0007FFFFE0003FF8
310
000001FFFE0000007FFFFFF0001FFFFFFF0000FFFFFF80007FFF0000FFFFFF80
310
007FFF0003FFFFFFFFF0003FFFFF0001F000E0003FFFFE0003FF0003FFF00000
310
3FFF0003FF80007FC0007FFFFC0007FE0007FFFFC0003FF8000001FFFE000000
310
7FFFFFF0001FFFFFFF80007FFFFF0000FFFF80007FFFFF0000FFFF0003FFFFFF
310
FFF0003FFFFF0003F000E0003FFFFC0003FE0003FFF000003FFF0003FF80007F
310
E0003FFFF80007FE0003FFFFC0007FF8000001FFFE0000007FFFFFF0001FFFFF
310
FF80003FFFFE0000FFFF80003FFFFE0000FFFF0003FFFFFFFFF0001FFFFE0003
310
F000F0001FFFF80003FE0003FFF000007FFF0001FF80007FE0003FFFF00007FE
310
0001FFFF80007FF8000001FFFE0000007FFFFFF0001FFFFFFFC0000FFFF80001
310
FFFFC0000FFFF80001FFFF0003FFFFFFFFF0001FFFFC0003F000F0000FFFF000
310
07FE0007FFF800007FFF0001FF80007FE0001FFFE00007FF0000FFFE00007FF8
310
000001FFFE0000007FFFFFF0001FFFFFFFC00003FFE00001FFFFC00003FFE000
310
01FFFF0003FFFFFFFFF8000FFFF80003F000F00003FFC00007FC0007FFF80000
310
7FFF8001FF80007FF00007FF80000FFF00007FF80000FFF8000001FFFE000000
310
7F80000000000001FFE000003E000003FFFFE000003E000003FFFF0003FFFFFF
310
FFF80003FFE00007F000F800000000000FFC0007FFF800007FFF8001FF80007F
310
F000000000000FFF000000000000FFF8000001FFFE0000007F80000000000001
310
FFF0000000000007FFFFF0000000000007FFFF0003FFFFFFFFFC00007E000007
310
F000F800000000000FFC0007FFF80000FFFF8000FF80007FF800000000001FFF
310
800000000001FFF8000001FFFE0000007F80000000000001FFF800000000000F
310
FFFFF800000000000FFFFF0003FFFFFFFFFC00000000000FF000FC0000000000
310
1FFC0007FFFC0000FFFF8000FF80007FF800000000003FFFC00000000001FFF8
310
000001FFFE0000007F80000000000001FFF800000000000FFFFFF80000000000
310
0FFFFF0003FFFFFFFFFE00000000001FF000FE00000000003FF8000FFFFC0000
310
FFFF8000FF80007FFC00000000003FFFC00000000003FFF8000001FFFE000000
310
7F80000000000001FFFC00000000001FFFFFFC00000000001FFFFF0003FFFFFF
310
FFFF00000000001FF000FF00000000003FF8000FFFFC0000FFFFC000FF80007F
310
FE00000000007FFFE00000000007FFF8000001FFFE0000007F80000000000001
310
FFFE00000000003FFFFFFE00000000003FFFFF0003FFFFFFFFFF80000000003F
310
F000FF80000000007FF8000FFFFC0001FFFFC0007F80007FFF0000000000FFFF
310
F0000000000FFFF800000000000000007F80000000000001FFFF8000000000FF
310
FFFFFF8000000000FFFFFF0003FFFFFFFFFFC0000000007FF000FFC000000000
310
FFF8000FFFFE0001FFFFC0007F80007FFF8000000001FFFFF8000000001FFFF8
310
00000000000000007F80000000000001FFFFC000000001FFFFFFFFC000000001
310
FFFFFF0003FFFFFFFFFFE000000000FFF000FFE000000003FFF0001FFFFE0001
310
FFFFC0007F80007FFFC000000007FFFFFE000000003FFFF80000000000000000
310
7F80000000000001FFFFE000000003FFFFFFFFE000000003FFFFFF0003FFFFFF
310
FFFFF000000003FFF000FFF80000000FFFF0001FFFFE0001FFFFE0007F80007F
310
FFF00000000FFFFFFF00000000FFFFF800000000000000007F80000000000001
310
FFFFF80000000FFFFFFFFFF80000000FFFFFFF0003FFFFFFFFFFFC0000000FFF
310
F000FFFE0000003FFFF0001FFFFE0003FFFFE0003F80007FFFFC0000003FFFFF
310
FFC0000003FFFFF800000000000000007F80000000000001FFFFFE0000003FFF
310
FFFFFFFE0000003FFFFFFF0003FFFFFFFFFFFF0000003FFFF000FFFF800000FF
310
FFF0001FFFFF0003FFFFE0003F80007FFFFF000001FFFFFFFFF800001FFFFFF8
310
00000000000000007F80000000000001FFFFFFC00001FFFFFFFFFFFFC00001FF
310
FFFFFF0003FFFFFFFFFFFFC00000FFFFF000FFFFF8000FFFFFFFFFFFFFFFFFFF
310
FFFFFFFFFFFFFFFFFFFFF0001FFFFFFFFFFF0000FFFFFFF80000000000000000
310
7FFFFFFFFFFFFFFFFFFFFFFC001FFFFFFFFFFFFFFC001FFFFFFFFFFFFFFFFFFF
310
FFFFFFFC001FFFFFF000FFFFFFFFFFFFFFFFFFFFFFFFFFFFFFFFFFFFFFFFFFFF
310
FFFFFFFFFFFFFFFFFFFFFFFFFFFFFFFFFFFFFFFFFFFFFFFFFFFFFFFFFFFFFFFF
310
FFFFFFFFFFFFFFFFFFFFFFFFFFFFFFFFFFFFFFFFFFFFFFFFFFFFFFFFFFFFFFFF
310
F000FFFFFFFFFFFFFFFFFFFFFFFFFFFFFFFFFFFFFFFFFFFFFFFFFFFFFFFFFFFF
310
FFFFFFFFFFFFFFFFFFFFFFFFFFFFFFFFFFFFFFFFFFFFFFFFFFFFFFFFFFFFFFFF
310
FFFFFFFFFFFFFFFFFFFFFFFFFFFFFFFFFFFFFFFFFFFFFFFFF000FFFFFFFFFFFF
310
FFFFFFFFFFFFFFFFFFFFFFFFFFFFFFFFFFFFFFFFFFFFFFFFFFFFFFFFFFFFFFFF
310
FFFFFFFFFFFFFFFFFFFFFFFFFFFFFFFFFFFFFFFFFFFFFFFFFFFFFFFFFFFFFFFF
310
FFFFFFFFFFFFFFFFFFFFFFFFFFFFFFFFF000FFFFFFFFFFFFFFFFFFFFFFFFFFFF
310
FFFFFFFFFFFFFFFFFFFFFFFFFFFFFFFFFFFFFFFFFFFFFFFFFFFFFFFFFFFFFFFF
310
FFFFFFFFFFFFFFFFFFFFFFFFFFFFFFFFFFFFFFFFFFFFFFFFFFFFFFFFFFFFFFFF
310
FFFFFFFFFFFFFFFFF000FFFFFFFFFFFFFFFFFFFFFFFFFFFFFFFFFFFFFFFFFFFF
310
FFFFFFFFFFFFFFFFFFFFFFFFFFFFFFFFFFFFFFFFFFFFFFFFFFFFFFFFFFFFFFFF
310
FFFFFFFFFFFFFFFFFFFFFFFFFFFFFFFFFFFFFFFFFFFFFFFFFFFFFFFFFFFFFFFF
310
F000FFFFFFFFFFFFFFFFFFFFFFFFFFFFFFFFFFFFFFFFFFFFFFFFFFFFFFFFFFFF
310
FFFFFFFFFFFFFFFFFFFFFFFFFFFFFFFFFFFFFFFFFFFFFFFFFFFFFFFFFFFFFFFF
310
FFFFFFFFFFFFFFFFFFFFFFFFFFFFFFFFFFFFFFFFFFFFFFFFF000FFFFFFFFFFFF
310
FFFFFFFFFFFFFFFFFFFFFFFFFFFFFFFFFFFFFFFFFFFFFFFFFFFFFFFFFFFFFFFF
310
FFFFFFFFFFFFFFFFFFFFFFFFFFFFFFFFFFFFFFFFFFFFFFFFFFFFFFFFFFFFFFFF
310
FFFFFFFFFFFFFFFFFFFFFFFFFFFFFFFFF000FFFFFFFFFFFFFFFFFFFFFFFFFFFF
310
FFFFFFFFFFFFFFFFFFFFFFFFFFFFFFFFFFFFFFFFFFFFFFFFFFFFFFFFFFFFFFFF
310
FFFFFFFFFFFFFFFFFFFFFFFFFFFFFFFFFFFFFFFFFFFFFFFFFFFFFFFFFFFFFFFF
310
FFFFFFFFFFFFFFFFF000FFFFFFFFFFFFFFFFFFFFFFFFFFFFFFFFFFFFFFFFFFFF
310
FFFFFFFFFFFFFFFFFFFFFFFFFFFFFFFFFFFFFFFFFFFFFFFFFFFFFFFFFFFFFFFF
310
FFFFFFFFFFFFFFFFFFFFFFFFFFFFFFFFFFFFFFFFFFFFFFFFFFFFFFFFFFFFFFFF
310
F000FFFFFFFFFFFFFFFFFFFFFFFFFFFFFFFFFFFFFFFFFFFFFFFFFFFFFFFFFFFF
310
FFFFFFFFFFFFFFFFFFFFFFFFFFFFFFFFFFFFFFFFFFFFFFFFFFFFFFFFFFFFFFFF
310
FFFFFFFFFFFFFFFFFFFFFFFFFFFFFFFFFFFFFFFFFFFFFFFFF000FFFFFFFFFFFF
310
FFFFFFFFFFFFFFFFFFFFFFFFFFFFFFFFFFFFFFFFFFFFFFFFFFFFFFFFFFFFFFFF
310
FFFFFFFFFFFFFFFFFFFFFFFFFFFFFFFFFFFFFFFFFFFFFFFFFFFFFFFFFFFFFFFF
310
FFFFFFFFFFFFFFFFFFFFFFFFFFFFFFFFF000FFFFFFFFFFFFFFFFFFFFFFFFFFFF
310
FFFFFFFFFFFFFFFFFFFFFFFFFFFFFFFFFFFFFFFFFFFFFFFFFFFFFFFFFFFFFFFF
310
FFFFFFFFFFFFFFFFFFFFFFFFFFFFFFFFFFFFFFFFFFFFFFFFFFFFFFFFFFFFFFFF
310
FFFFFFFFFFFFFFFFF000FFFFFFFFFFFFFFFFFFFFFFFFFFFFFFFFFFFFFFFFFFFF
310
FFFFFFFFFFFFFFFFFFFFFFFFFFFFFFFFFFFFFFFFFFFFFFFFFFFFFFFFFFFFFFFF
310
FFFFFFFFFFFFFFFFFFFFFFFFFFFFFFFFFFFFFFFFFFFFFFFFFFFFFFFFFFFFFFFF
310
F000FFFFFFFFFFFFFFFFFFFFFFFFFFFFFFFFFFFFFFFFFFFFFFFFFFFFFFFFFFFF
310
FFFFFFFFFFFFFFFFFFFFFFFFFFFFFFFFFFFFFFFFFFFFFFFFFFFFFFFFFFFFFFFF
310
FFFFFFFFFFFFFFFFFFFFFFFFFFFFFFFFFFFFFFFFFFFFFFFFF000FFFFFFFFFFFF
310
FFFFFFFFFFFFFFFFFFFFFFFFFFFFFFFFFFFFFFFFFFFFFFFFFFFFFFFFFFFFFFFF
310
FFFFFFFFFFFFFFFFFFFFFFFFFFFFFFFFFFFFFFFFFFFFFFFFFFFFFFFFFFFFFFFF
310
FFFFFFFFFFFFFFFFFFFFFFFFFFFFFFFFF000FFFFFFFFFFFFFFFFFFFFFFFFFFFF
310
FFFFFFFFFFFFFFFFFFFFFFFFFFFFFFFFFFFFFFFFFFFFFFFFFFFFFFFFFFFFFFFF
310
FFFFFFFFFFFFFFFFFFFFFFFFFFFFFFFFFFFFFFFFFFFFFFFFFFFFFFFFFFFFFFFF
310
FFFFFFFFFFFFFFFFF000FFFFFFFFFFFFFFFFFFFFFFFFFFFFFFFFFFFFFFFFFFFF
310
FFFFFFFFFFFFFFFFFFFFFFFFFFFFFFFFFFFFFFFFFFFFFFFFFFFFFFFFFFFFFFFF
310
FFFFFFFFFFFFFFFFFFFFFFFFFFFFFFFFFFFFFFFFFFFFFFFFFFFFFFFFFFFFFFFF
310
F000FFFFFFFFFFFFFFFFFFFFFFFFFFFFFFFFFFFFFFFFFFFFFFFFFFFFFFFFFFFF
310
FFFFFFFFFFFFFFFFFFFFFFFFFFFFFFFFFFFFFFFFFFFFFFFFFFFFFFFFFFFFFFFF
310
FFFFFFFFFFFFFFFFFFFFFFFFFFFFFFFFFFFFFFFFFFFFFFFFF000FFFFFFFFFFFF
310
FFFFFFFFFFFFFFFFFFFFFFFFFFFFFFFFFFFFFFFFFFFFFFFFFFFFFFFFFFFFFFFF
310
FFFFFFFFFFFFFFFFFFFFFFFFFFFFFFFFFFFFFFFFFFFFFFFFFFFFFFFFFFFFFFFF
310
FFFFFFFFFFFFFFFFFFFFFFFFFFFFFFFFF000FFFFFFFFFFFFFFFFFFFFFFFFFFFF
310
FFFFFFFFFFFFFFFFFFFFFFFFFFFFFFFFFFFFFFFFFFFFFFFFFFFFFFFFFFFFFFFF
310
FFFFFFFFFFFFFFFFFFFFFFFFFFFFFFFFFFFFFFFFFFFFFFFFFFFFFFFFFFFFFFFF
310
FFFFFFFFFFFFFFFFF000FFFFFFFFFFFFFFFFFFFFFFFFFFFFFFFFFFFFFFFFFFFF
310
FFFFFFFFFFFFFFFFFFFFFFFFFFFFFFFFFFFFFFFFFFFFFFFFFFFFFFFFFFFFFFFF
310
FFFFFFFFFFFFFFFFFFFFFFFFFFFFFFFFFFFFFFFFFFFFFFFFFFFFFFFFFFFFFFFF
310
F000FFFFFFFFFFFFFFFFFFFFFFFFFFFFFFFFFFFFFFFFFFFFFFFFFFFFFFFFFFFF
310
FFFFFFFFFFFFFFFFFFFFFFFFFFFFFFFFFFFFFFFFFFFFFFFFFFFFFFFFFFFFFFFF
310
FFFFFFFFFFFFFFFFFFFFFFFFFFFFFFFFFFFFFFFFFFFFFFFFF000FFFFFFFFFFFF
310
FFFFFFFFFFFFFFFFFFFFFFFFFFFFFFFFFFFFFFFFFFFFFFFFFFFFFFFFFFFFFFFF
310
FFFFFFFFFFFFFFFFFFFFFFFFFFFFFFFFFFFFFFFFFFFFFFFFFFFFFFFFFFFFFFFF
310
FFFFFFFFFFFFFFFFFFFFFFFFFFFFFFFFF0000000000000000000000000000000
310
0000000000000000000000000000000000000000000000000000000000000000
310
0000000000000000000000000000000000000000000000000000000000000000
310
0000000000000000000000000000000000000000000000000000000000000000
310
0000000000000000000000000000000000000000000000000000000000000000
310
0000000000000000000000000000000000000000000000000000000000000000
310
0000000000000000000000000000000000000000000000000000000000000000
310
0000000000000000000000000000000000000000000000000000000000000000
310
0000000000000000000000000000000000000000000000000000000000000000
310
0000000000000000000000000000000000000000000000000000000000000000
310
0000000000000000000000000000000000000000000000000000000000000000
310
0000000000000000000000000000000000000000000000000000000000000000
310
0000000000000000000000000000000000000000000000000000000000000000
310
0000000000000000000000000000000000000000000000000000000000000000
310
0000000000000000000000000000000000000000000000000000000000000000
310
0000000000000000000000000000000000000000000000000000000000000000
  1
OLE
  0
ENDSEC
  0
SECTION
  2
OBJECTS
  0
DICTIONARY
  5
C
330
0
100
AcDbDictionary
281
     1
  3
ACAD_GROUP
350
D
  3
ACAD_LAYOUT
350
1A
  3
ACAD_MLINESTYLE
350
17
  3
ACAD_PLOTSETTINGS
350
19
  3
ACAD_PLOTSTYLENAME
350
E
  3
ACAD_SCALELIST
350
47
  0
DICTIONARY
  5
D
102
{ACAD_REACTORS
330
C
102
}
330
C
100
AcDbDictionary
281
     1
  0
DICTIONARY
  5
1A
102
{ACAD_REACTORS
330
C
102
}
330
C
100
AcDbDictionary
281
     1
  3
Layout1
350
1E
  3
Layout2
350
26
  3
Model
350
22
  0
DICTIONARY
  5
17
102
{ACAD_REACTORS
330
C
102
}
330
C
100
AcDbDictionary
281
     1
  3
Standard
350
18
  0
DICTIONARY
  5
19
102
{ACAD_REACTORS
330
C
102
}
330
C
100
AcDbDictionary
281
     1
  0
ACDBDICTIONARYWDFLT
  5
E
102
{ACAD_REACTORS
330
C
102
}
330
C
100
AcDbDictionary
281
     1
  3
Normal
350
F
100
AcDbDictionaryWithDefault
340
F
  0
DICTIONARY
  5
47
102
{ACAD_REACTORS
330
C
102
}
330
C
100
AcDbDictionary
281
     1
  3
A0
350
48
  3
A1
350
49
  3
A2
350
4A
  3
A3
350
4B
  3
A4
350
4C
  3
A5
350
4D
  3
A6
350
4E
  3
A7
350
4F
  3
A8
350
50
  3
A9
350
51
  3
B0
350
52
  3
B1
350
53
  3
B2
350
54
  3
B3
350
55
  3
B4
350
56
  3
B5
350
57
  3
B6
350
58
  3
B7
350
59
  3
B8
350
5A
  3
B9
350
5B
  3
C0
350
5C
  3
C1
350
5D
  3
C2
350
5E
  3
C3
350
5F
  3
C4
350
60
  3
C5
350
61
  3
C6
350
62
  3
C7
350
63
  3
C8
350
64
  3
C9
350
65
  3
D0
350
66
  3
D1
350
67
  3
D2
350
68
  0
LAYOUT
  5
1E
102
{ACAD_REACTORS
330
1A
102
}
330
1A
100
AcDbPlotSettings
  1

  2
none_device
  4

  6

 40
0.0
 41
0.0
 42
0.0
 43
0.0
 44
0.0
 45
0.0
 46
0.0
 47
0.0
 48
0.0
 49
0.0
140
0.0
141
0.0
142
1.0
143
1.0
 70
   688
 72
     1
 73
     0
 74
     5
  7

 75
    16
147
1.0
148
0.0
149
0.0
100
AcDbLayout
  1
Layout1
 70
     1
 71
     1
 10
0.0
 20
0.0
 11
420.0
 21
297.0
 12
0.0
 22
0.0
 32
0.0
 14
1.0000000000E+20
 24
1.0000000000E+20
 34
1.0000000000E+20
 15
-1.0000000000E+20
 25
-1.0000000000E+20
 35
-1.0000000000E+20
146
0.0
 13
0.0
 23
0.0
 33
0.0
 16
1.0
 26
0.0
 36
0.0
 17
0.0
 27
1.0
 37
0.0
 76
     0
330
1B
  0
LAYOUT
  5
26
102
{ACAD_REACTORS
330
1A
102
}
330
1A
100
AcDbPlotSettings
  1

  2
none_device
  4

  6

 40
0.0
 41
0.0
 42
0.0
 43
0.0
 44
0.0
 45
0.0
 46
0.0
 47
0.0
 48
0.0
 49
0.0
140
0.0
141
0.0
142
1.0
143
1.0
 70
   688
 72
     1
 73
     0
 74
     5
  7

 75
    16
147
1.0
148
0.0
149
0.0
100
AcDbLayout
  1
Layout2
 70
     1
 71
     2
 10
0.0
 20
0.0
 11
0.0
 21
0.0
 12
0.0
 22
0.0
 32
0.0
 14
0.0
 24
0.0
 34
0.0
 15
0.0
 25
0.0
 35
0.0
146
0.0
 13
0.0
 23
0.0
 33
0.0
 16
1.0
 26
0.0
 36
0.0
 17
0.0
 27
1.0
 37
0.0
 76
     0
330
23
  0
LAYOUT
  5
22
102
{ACAD_REACTORS
330
1A
102
}
330
1A
100
AcDbPlotSettings
  1

  2
none_device
  4
Letter_(8.50_x_11.00_Inches)
  6

 40
6.35
 41
6.35
 42
6.35000508
 43
6.35000508
 44
215.9
 45
279.4
 46
0.0
 47
0.0
 48
0.0
 49
0.0
140
0.0
141
0.0
142
1.0
143
1.0
 70
  1712
 72
     1
 73
     0
 74
     0
  7

 75
     0
147
1.0
148
0.0
149
0.0
100
AcDbLayout
  1
Model
 70
     1
 71
     0
 10
0.0
 20
0.0
 11
297.0
 21
210.0
 12
0.0
 22
0.0
 32
0.0
 14
0.0
 24
0.0
 34
0.0
 15
297.0
 25
210.0
 35
0.0
146
0.0
 13
0.0
 23
0.0
 33
0.0
 16
1.0
 26
0.0
 36
0.0
 17
0.0
 27
1.0
 37
0.0
 76
     0
330
1F
331
29
  0
MLINESTYLE
  5
18
102
{ACAD_REACTORS
330
17
102
}
330
17
100
AcDbMlineStyle
  2
Standard
 70
     0
  3

 62
   256
 51
90.0
 52
90.0
 71
     2
 49
0.5
 62
   256
  6
BYLAYER
 49
-0.5
 62
   256
  6
BYLAYER
  0
ACDBPLACEHOLDER
  5
F
102
{ACAD_REACTORS
330
E
102
}
330
E
  0
SCALE
  5
48
102
{ACAD_REACTORS
330
47
102
}
330
47
100
AcDbScale
 70
     0
300
1:1
140
1.0
141
1.0
290
     1
  0
SCALE
  5
49
102
{ACAD_REACTORS
330
47
102
}
330
47
100
AcDbScale
 70
     0
300
1:2
140
1.0
141
2.0
290
     0
  0
SCALE
  5
4A
102
{ACAD_REACTORS
330
47
102
}
330
47
100
AcDbScale
 70
     0
300
1:4
140
1.0
141
4.0
290
     0
  0
SCALE
  5
4B
102
{ACAD_REACTORS
330
47
102
}
330
47
100
AcDbScale
 70
     0
300
1:5
140
1.0
141
5.0
290
     0
  0
SCALE
  5
4C
102
{ACAD_REACTORS
330
47
102
}
330
47
100
AcDbScale
 70
     0
300
1:8
140
1.0
141
8.0
290
     0
  0
SCALE
  5
4D
102
{ACAD_REACTORS
330
47
102
}
330
47
100
AcDbScale
 70
     0
300
1:10
140
1.0
141
10.0
290
     0
  0
SCALE
  5
4E
102
{ACAD_REACTORS
330
47
102
}
330
47
100
AcDbScale
 70
     0
300
1:16
140
1.0
141
16.0
290
     0
  0
SCALE
  5
4F
102
{ACAD_REACTORS
330
47
102
}
330
47
100
AcDbScale
 70
     0
300
1:20
140
1.0
141
20.0
290
     0
  0
SCALE
  5
50
102
{ACAD_REACTORS
330
47
102
}
330
47
100
AcDbScale
 70
     0
300
1:30
140
1.0
141
30.0
290
     0
  0
SCALE
  5
51
102
{ACAD_REACTORS
330
47
102
}
330
47
100
AcDbScale
 70
     0
300
1:40
140
1.0
141
40.0
290
     0
  0
SCALE
  5
52
102
{ACAD_REACTORS
330
47
102
}
330
47
100
AcDbScale
 70
     0
300
1:50
140
1.0
141
50.0
290
     0
  0
SCALE
  5
53
102
{ACAD_REACTORS
330
47
102
}
330
47
100
AcDbScale
 70
     0
300
1:100
140
1.0
141
100.0
290
     0
  0
SCALE
  5
54
102
{ACAD_REACTORS
330
47
102
}
330
47
100
AcDbScale
 70
     0
300
2:1
140
2.0
141
1.0
290
     0
  0
SCALE
  5
55
102
{ACAD_REACTORS
330
47
102
}
330
47
100
AcDbScale
 70
     0
300
4:1
140
4.0
141
1.0
290
     0
  0
SCALE
  5
56
102
{ACAD_REACTORS
330
47
102
}
330
47
100
AcDbScale
 70
     0
300
8:1
140
8.0
141
1.0
290
     0
  0
SCALE
  5
57
102
{ACAD_REACTORS
330
47
102
}
330
47
100
AcDbScale
 70
     0
300
10:1
140
10.0
141
1.0
290
     0
  0
SCALE
  5
58
102
{ACAD_REACTORS
330
47
102
}
330
47
100
AcDbScale
 70
     0
300
100:1
140
100.0
141
1.0
290
     0
  0
SCALE
  5
59
102
{ACAD_REACTORS
330
47
102
}
330
47
100
AcDbScale
 70
     0
300
1/128" = 1'-0"
140
0.0078125
141
12.0
290
     0
  0
SCALE
  5
5A
102
{ACAD_REACTORS
330
47
102
}
330
47
100
AcDbScale
 70
     0
300
1/64" = 1'-0"
140
0.015625
141
12.0
290
     0
  0
SCALE
  5
5B
102
{ACAD_REACTORS
330
47
102
}
330
47
100
AcDbScale
 70
     0
300
1/32" = 1'-0"
140
0.03125
141
12.0
290
     0
  0
SCALE
  5
5C
102
{ACAD_REACTORS
330
47
102
}
330
47
100
AcDbScale
 70
     0
300
1/16" = 1'-0"
140
0.0625
141
12.0
290
     0
  0
SCALE
  5
5D
102
{ACAD_REACTORS
330
47
102
}
330
47
100
AcDbScale
 70
     0
300
3/32" = 1'-0"
140
0.09375
141
12.0
290
     0
  0
SCALE
  5
5E
102
{ACAD_REACTORS
330
47
102
}
330
47
100
AcDbScale
 70
     0
300
1/8" = 1'-0"
140
0.125
141
12.0
290
     0
  0
SCALE
  5
5F
102
{ACAD_REACTORS
330
47
102
}
330
47
100
AcDbScale
 70
     0
300
3/16" = 1'-0"
140
0.1875
141
12.0
290
     0
  0
SCALE
  5
60
102
{ACAD_REACTORS
330
47
102
}
330
47
100
AcDbScale
 70
     0
300
1/4" = 1'-0"
140
0.25
141
12.0
290
     0
  0
SCALE
  5
61
102
{ACAD_REACTORS
330
47
102
}
330
47
100
AcDbScale
 70
     0
300
3/8" = 1'-0"
140
0.375
141
12.0
290
     0
  0
SCALE
  5
62
102
{ACAD_REACTORS
330
47
102
}
330
47
100
AcDbScale
 70
     0
300
1/2" = 1'-0"
140
0.5
141
12.0
290
     0
  0
SCALE
  5
63
102
{ACAD_REACTORS
330
47
102
}
330
47
100
AcDbScale
 70
     0
300
3/4" = 1'-0"
140
0.75
141
12.0
290
     0
  0
SCALE
  5
64
102
{ACAD_REACTORS
330
47
102
}
330
47
100
AcDbScale
 70
     0
300
1" = 1'-0"
140
1.0
141
12.0
290
     0
  0
SCALE
  5
65
102
{ACAD_REACTORS
330
47
102
}
330
47
100
AcDbScale
 70
     0
300
1-1/2" = 1'-0"
140
1.5
141
12.0
290
     0
  0
SCALE
  5
66
102
{ACAD_REACTORS
330
47
102
}
330
47
100
AcDbScale
 70
     0
300
3" = 1'-0"
140
3.0
141
12.0
290
     0
  0
SCALE
  5
67
102
{ACAD_REACTORS
330
47
102
}
330
47
100
AcDbScale
 70
     0
300
6" = 1'-0"
140
6.0
141
12.0
290
     0
  0
SCALE
  5
68
102
{ACAD_REACTORS
330
47
102
}
330
47
100
AcDbScale
 70
     0
300
1'-0" = 1'-0"
140
12.0
141
12.0
290
     0
  0
ENDSEC
  0
EOF
