  0
SECTION
  2
HEADER
  9
$ACADVER
  1
AC1015
  9
$ACADMAINTVER
 70
    13
  9
$DWGCODEPAGE
  3
ANSI_1252
  9
$INSBASE
 10
0.0
 20
0.0
 30
0.0
  9
$EXTMIN
 10
-50.91675010316612
 20
-77.35423110688646
 30
-0.0000000000000109
  9
$EXTMAX
 10
145.8554310846132
 20
57.53507234915241
 30
0.0000000000000044
  9
$LIMMIN
 10
0.0
 20
0.0
  9
$LIMMAX
 10
420.0
 20
297.0
  9
$ORTHOMODE
 70
     0
  9
$REGENMODE
 70
     1
  9
$FILLMODE
 70
     1
  9
$QTEXTMODE
 70
     0
  9
$MIRRTEXT
 70
     1
  9
$LTSCALE
 40
1.0
  9
$ATTMODE
 70
     1
  9
$TEXTSIZE
 40
2.5
  9
$TRACEWID
 40
1.0
  9
$TEXTSTYLE
  7
STANDARD
  9
$CLAYER
  8
0
  9
$CELTYPE
  6
ByLayer
  9
$CECOLOR
 62
   256
  9
$CELTSCALE
 40
1.0
  9
$DISPSILH
 70
     0
  9
$DIMSCALE
 40
1.0
  9
$DIMASZ
 40
3.0
  9
$DIMEXO
 40
0.0
  9
$DIMDLI
 40
3.75
  9
$DIMRND
 40
0.0
  9
$DIMDLE
 40
0.0
  9
$DIMEXE
 40
1.0
  9
$DIMTP
 40
0.0
  9
$DIMTM
 40
0.0
  9
$DIMTXT
 40
2.0
  9
$DIMCEN
 40
2.5
  9
$DIMTSZ
 40
0.0
  9
$DIMTOL
 70
     0
  9
$DIMLIM
 70
     0
  9
$DIMTIH
 70
     1
  9
$DIMTOH
 70
     1
  9
$DIMSE1
 70
     0
  9
$DIMSE2
 70
     0
  9
$DIMTAD
 70
     1
  9
$DIMZIN
 70
     0
  9
$DIMBLK
  1

  9
$DIMASO
 70
     1
  9
$DIMSHO
 70
     1
  9
$DIMPOST
  1

  9
$DIMAPOST
  1

  9
$DIMALT
 70
     0
  9
$DIMALTD
 70
     3
  9
$DIMALTF
 40
0.0394
  9
$DIMLFAC
 40
1.0
  9
$DIMTOFL
 70
     1
  9
$DIMTVP
 40
0.0
  9
$DIMTIX
 70
     0
  9
$DIMSOXD
 70
     0
  9
$DIMSAH
 70
     0
  9
$DIMBLK1
  1

  9
$DIMBLK2
  1

  9
$DIMSTYLE
  2
ISO-25
  9
$DIMCLRD
 70
     0
  9
$DIMCLRE
 70
     0
  9
$DIMCLRT
 70
     0
  9
$DIMTFAC
 40
1.0
  9
$DIMGAP
 40
1.524
  9
$DIMJUST
 70
     0
  9
$DIMSD1
 70
     0
  9
$DIMSD2
 70
     0
  9
$DIMTOLJ
 70
     0
  9
$DIMTZIN
 70
     0
  9
$DIMALTZ
 70
     0
  9
$DIMALTTZ
 70
     0
  9
$DIMUPT
 70
     0
  9
$DIMDEC
 70
     2
  9
$DIMTDEC
 70
     2
  9
$DIMALTU
 70
     2
  9
$DIMALTTD
 70
     3
  9
$DIMTXSTY
  7
STANDARD
  9
$DIMAUNIT
 70
     0
  9
$DIMADEC
 70
     0
  9
$DIMALTRND
 40
0.0
  9
$DIMAZIN
 70
     0
  9
$DIMDSEP
 70
    44
  9
$DIMATFIT
 70
     3
  9
$DIMFRAC
 70
     0
  9
$DIMLDRBLK
  1

  9
$DIMLUNIT
 70
     2
  9
$DIMLWD
 70
    -2
  9
$DIMLWE
 70
    -2
  9
$DIMTMOVE
 70
     0
  9
$LUNITS
 70
     2
  9
$LUPREC
 70
     2
  9
$SKETCHINC
 40
1.0
  9
$FILLETRAD
 40
10.0
  9
$AUNITS
 70
     0
  9
$AUPREC
 70
     0
  9
$MENU
  1
.
  9
$ELEVATION
 40
0.0
  9
$PELEVATION
 40
0.0
  9
$THICKNESS
 40
0.0
  9
$LIMCHECK
 70
     0
  9
$CHAMFERA
 40
10.0
  9
$CHAMFERB
 40
10.0
  9
$CHAMFERC
 40
20.0
  9
$CHAMFERD
 40
0.0
  9
$SKPOLY
 70
     0
  9
$TDCREATE
 40
2454392.556567835
  9
$TDUCREATE
 40
2454392.514901169
  9
$TDUPDATE
 40
2454482.307944027
  9
$TDUUPDATE
 40
2454482.266277361
  9
$TDINDWG
 40
0.0652769213
  9
$TDUSRTIMER
 40
0.0652762153
  9
$USRTIMER
 70
     1
  9
$ANGBASE
 50
0.0
  9
$ANGDIR
 70
     0
  9
$PDMODE
 70
     0
  9
$PDSIZE
 40
-1.0
  9
$PLINEWID
 40
0.0
  9
$SPLFRAME
 70
     0
  9
$SPLINETYPE
 70
     6
  9
$SPLINESEGS
 70
     8
  9
$HANDSEED
  5
AEF
  9
$SURFTAB1
 70
     6
  9
$SURFTAB2
 70
     6
  9
$SURFTYPE
 70
     6
  9
$SURFU
 70
     6
  9
$SURFV
 70
     6
  9
$UCSBASE
  2

  9
$UCSNAME
  2

  9
$UCSORG
 10
0.0
 20
0.0
 30
0.0
  9
$UCSXDIR
 10
1.0
 20
0.0
 30
0.0
  9
$UCSYDIR
 10
0.0
 20
1.0
 30
0.0
  9
$UCSORTHOREF
  2

  9
$UCSORTHOVIEW
 70
     0
  9
$UCSORGTOP
 10
0.0
 20
0.0
 30
0.0
  9
$UCSORGBOTTOM
 10
0.0
 20
0.0
 30
0.0
  9
$UCSORGLEFT
 10
0.0
 20
0.0
 30
0.0
  9
$UCSORGRIGHT
 10
0.0
 20
0.0
 30
0.0
  9
$UCSORGFRONT
 10
0.0
 20
0.0
 30
0.0
  9
$UCSORGBACK
 10
0.0
 20
0.0
 30
0.0
  9
$PUCSBASE
  2

  9
$PUCSNAME
  2

  9
$PUCSORG
 10
0.0
 20
0.0
 30
0.0
  9
$PUCSXDIR
 10
1.0
 20
0.0
 30
0.0
  9
$PUCSYDIR
 10
0.0
 20
1.0
 30
0.0
  9
$PUCSORTHOREF
  2

  9
$PUCSORTHOVIEW
 70
     0
  9
$PUCSORGTOP
 10
0.0
 20
0.0
 30
0.0
  9
$PUCSORGBOTTOM
 10
0.0
 20
0.0
 30
0.0
  9
$PUCSORGLEFT
 10
0.0
 20
0.0
 30
0.0
  9
$PUCSORGRIGHT
 10
0.0
 20
0.0
 30
0.0
  9
$PUCSORGFRONT
 10
0.0
 20
0.0
 30
0.0
  9
$PUCSORGBACK
 10
0.0
 20
0.0
 30
0.0
  9
$USERI1
 70
     0
  9
$USERI2
 70
     0
  9
$USERI3
 70
     0
  9
$USERI4
 70
     0
  9
$USERI5
 70
     0
  9
$USERR1
 40
0.0
  9
$USERR2
 40
0.0
  9
$USERR3
 40
0.0
  9
$USERR4
 40
0.0
  9
$USERR5
 40
0.0
  9
$WORLDVIEW
 70
     1
  9
$SHADEDGE
 70
     3
  9
$SHADEDIF
 70
    70
  9
$TILEMODE
 70
     1
  9
$MAXACTVP
 70
    64
  9
$PINSBASE
 10
0.0
 20
0.0
 30
0.0
  9
$PLIMCHECK
 70
     0
  9
$PEXTMIN
 10
1.000000000000000E+20
 20
1.000000000000000E+20
 30
1.000000000000000E+20
  9
$PEXTMAX
 10
-1.000000000000000E+20
 20
-1.000000000000000E+20
 30
-1.000000000000000E+20
  9
$PLIMMIN
 10
0.0
 20
0.0
  9
$PLIMMAX
 10
420.0
 20
297.0
  9
$UNITMODE
 70
     0
  9
$VISRETAIN
 70
     1
  9
$PLINEGEN
 70
     0
  9
$PSLTSCALE
 70
     1
  9
$TREEDEPTH
 70
  3020
  9
$CMLSTYLE
  2
Standard
  9
$CMLJUST
 70
     0
  9
$CMLSCALE
 40
20.0
  9
$PROXYGRAPHICS
 70
     1
  9
$MEASUREMENT
 70
     1
  9
$CELWEIGHT
370
    -1
  9
$ENDCAPS
280
     0
  9
$JOINSTYLE
280
     0
  9
$LWDISPLAY
290
     1
  9
$INSUNITS
 70
     4
  9
$HYPERLINKBASE
  1

  9
$STYLESHEET
  1

  9
$XEDIT
290
     1
  9
$CEPSNTYPE
380
     0
  9
$PSTYLEMODE
290
     1
  9
$FINGERPRINTGUID
  2
{C93709F7-6DA9-4D3D-A4C2-D9868062098C}
  9
$VERSIONGUID
  2
{9D337D6F-4993-4356-AB2F-96AAC7B45971}
  9
$EXTNAMES
290
     1
  9
$PSVPSCALE
 40
0.0
  9
$OLESTARTUP
290
     0
  0
ENDSEC
  0
SECTION
  2
CLASSES
  0
CLASS
  1
ACDBDICTIONARYWDFLT
  2
AcDbDictionaryWithDefault
  3
AutoCAD 2000
 90
        0
280
     0
281
     0
  0
CLASS
  1
ACDBPLACEHOLDER
  2
AcDbPlaceHolder
  3
AutoCAD 2000
 90
        0
280
     0
281
     0
  0
CLASS
  1
LAYOUT
  2
AcDbLayout
  3
AutoCAD 2000
 90
        0
280
     0
281
     0
  0
CLASS
  1
DICTIONARYVAR
  2
AcDbDictionaryVar
  3
AutoCAD 2000
 90
        0
280
     0
281
     0
  0
ENDSEC
  0
SECTION
  2
TABLES
  0
TABLE
  2
VPORT
  5
8
330
0
100
AcDbSymbolTable
 70
     3
  0
VPORT
  5
AEE
330
8
100
AcDbSymbolTableRecord
100
AcDbViewportTableRecord
  2
*Active
 70
     0
 10
0.0
 20
0.0
 11
1.0
 21
1.0
 12
-61.18963245037645
 22
-89.27895072906698
 13
0.0
 23
0.0
 14
10.0
 24
10.0
 15
10.0
 25
10.0
 16
0.0
 26
0.0
 36
1.0
 17
108.6589729411
 27
79.36937135019999
 37
0.0
 40
135.9124840132275
 41
1.558227848101265
 42
50.0
 43
0.0
 44
0.0
 50
0.0
 51
0.0
 71
     0
 72
  2000
 73
     1
 74
     3
 75
     0
 76
     0
 77
     0
 78
     0
281
     0
 65
     1
110
0.0
120
0.0
130
0.0
111
1.0
121
0.0
131
0.0
112
0.0
122
1.0
132
0.0
 79
     0
146
0.0
  0
ENDTAB
  0
TABLE
  2
LTYPE
  5
5
330
0
100
AcDbSymbolTable
 70
    10
  0
LTYPE
  5
14
330
5
100
AcDbSymbolTableRecord
100
AcDbLinetypeTableRecord
  2
ByBlock
 70
     0
  3

 72
    65
 73
     0
 40
0.0
  0
LTYPE
  5
15
330
5
100
AcDbSymbolTableRecord
100
AcDbLinetypeTableRecord
  2
ByLayer
 70
     0
  3

 72
    65
 73
     0
 40
0.0
  0
LTYPE
  5
16
330
5
100
AcDbSymbolTableRecord
100
AcDbLinetypeTableRecord
  2
Continuous
 70
     0
  3
Solid line
 72
    65
 73
     0
 40
0.0
  0
LTYPE
  5
2A
330
5
100
AcDbSymbolTableRecord
100
AcDbLinetypeTableRecord
  2
SLD-Durchgehend
 70
     0
  3
SolidWorks Line Style
 72
    65
 73
     0
 40
0.0
  0
LTYPE
  5
2B
330
5
100
AcDbSymbolTableRecord
100
AcDbLinetypeTableRecord
  2
SLD-Gestrichelt
 70
     0
  3
SolidWorks Line Style
 72
    65
 73
     2
 40
1.905
 49
1.27
 74
     0
 49
-0.635
 74
     0
  0
LTYPE
  5
2C
330
5
100
AcDbSymbolTableRecord
100
AcDbLinetypeTableRecord
  2
SLD-Phantom
 70
     0
  3
SolidWorks Line Style
 72
    65
 73
     6
 40
12.7
 49
6.349999999999997
 74
     0
 49
-1.27
 74
     0
 49
1.27
 74
     0
 49
-1.27
 74
     0
 49
1.27
 74
     0
 49
-1.27
 74
     0
  0
LTYPE
  5
2D
330
5
100
AcDbSymbolTableRecord
100
AcDbLinetypeTableRecord
  2
SLD-Kette
 70
     0
  3
SolidWorks Line Style
 72
    65
 73
     4
 40
10.16
 49
6.349999999999997
 74
     0
 49
-1.27
 74
     0
 49
1.27
 74
     0
 49
-1.27
 74
     0
  0
LTYPE
  5
2E
330
5
100
AcDbSymbolTableRecord
100
AcDbLinetypeTableRecord
  2
SLD-Punktstrich
 70
     0
  3
SolidWorks Line Style
 72
    65
 73
     4
 40
19.05
 49
15.24
 74
     0
 49
-1.27
 74
     0
 49
1.27
 74
     0
 49
-1.27
 74
     0
  0
LTYPE
  5
2F
330
5
100
AcDbSymbolTableRecord
100
AcDbLinetypeTableRecord
  2
SLD-Naht
 70
     0
  3
SolidWorks Line Style
 72
    65
 73
     2
 40
0.635
 49
0.0
 74
     0
 49
-0.635
 74
     0
  0
LTYPE
  5
30
330
5
100
AcDbSymbolTableRecord
100
AcDbLinetypeTableRecord
  2
SLD-Dicke-Dünne-Kette
 70
     0
  3
SolidWorks Line Style
 72
    65
 73
     4
 40
10.16
 49
6.349999999999997
 74
     0
 49
-1.27
 74
     0
 49
1.27
 74
     0
 49
-1.27
 74
     0
  0
LTYPE
  5
194
330
5
100
AcDbSymbolTableRecord
100
AcDbLinetypeTableRecord
  2
GEN3A
 70
     0
  3
 - - - - -
 72
    65
 73
     2
 40
3.1
 49
2.5
 74
     0
 49
-0.6
 74
     0
  0
LTYPE
  5
195
330
5
100
AcDbSymbolTableRecord
100
AcDbLinetypeTableRecord
  2
GEN7A
 70
     0
  3
__ . __ . __
 72
    65
 73
     4
 40
7.5
 49
5.0
 74
     0
 49
-1.25
 74
     0
 49
0.0
 74
     0
 49
-1.25
 74
     0
  0
ENDTAB
  0
TABLE
  2
LAYER
  5
2
102
{ACAD_XDICTIONARY
360
19C
102
}
330
0
100
AcDbSymbolTable
 70
    15
  0
LAYER
  5
10
330
2
100
AcDbSymbolTableRecord
100
AcDbLayerTableRecord
  2
0
 70
     0
 62
     7
  6
Continuous
370
    -3
390
F
  0
LAYER
  5
31
330
2
100
AcDbSymbolTableRecord
100
AcDbLayerTableRecord
  2
FORMAT
 70
     0
 62
     7
  6
SLD-Durchgehend
370
     0
390
F
  0
LAYER
  5
32
330
2
100
AcDbSymbolTableRecord
100
AcDbLayerTableRecord
  2
VERMASSUNG
 70
     0
 62
     7
  6
SLD-Durchgehend
370
     0
390
F
  0
LAYER
  5
33
330
2
100
AcDbSymbolTableRecord
100
AcDbLayerTableRecord
  2
KOPF__DÜNN
 70
     0
 62
     7
  6
SLD-Durchgehend
370
     0
390
F
  0
LAYER
  5
34
330
2
100
AcDbSymbolTableRecord
100
AcDbLayerTableRecord
  2
KOPF__DICK
 70
     0
 62
     7
  6
SLD-Durchgehend
370
    15
390
F
  0
LAYER
  5
BC
330
2
100
AcDbSymbolTableRecord
100
AcDbLayerTableRecord
  2
Defpoints
 70
     0
 62
     7
  6
Continuous
290
     0
370
    -3
390
F
  0
LAYER
  5
196
330
2
100
AcDbSymbolTableRecord
100
AcDbLayerTableRecord
  2
SK1
 70
     0
 62
     4
  6
Continuous
370
    -3
390
F
  0
LAYER
  5
197
330
2
100
AcDbSymbolTableRecord
100
AcDbLayerTableRecord
  2
SK3
 70
     0
 62
     1
  6
GEN3A
370
    -3
390
F
  0
LAYER
  5
198
330
2
100
AcDbSymbolTableRecord
100
AcDbLayerTableRecord
  2
4
 70
     0
 62
     2
  6
GEN7A
370
    -3
390
F
  0
LAYER
  5
199
330
2
100
AcDbSymbolTableRecord
100
AcDbLayerTableRecord
  2
SK2
 70
     0
 62
     7
  6
Continuous
370
    -3
390
F
  0
LAYER
  5
20D
330
2
100
AcDbSymbolTableRecord
100
AcDbLayerTableRecord
  2
SK4
 70
     0
 62
     2
  6
GEN7A
370
    -3
390
F
  0
LAYER
  5
20F
330
2
100
AcDbSymbolTableRecord
100
AcDbLayerTableRecord
  2
1
 70
     0
 62
     4
  6
Continuous
370
    -3
390
F
  0
LAYER
  5
210
330
2
100
AcDbSymbolTableRecord
100
AcDbLayerTableRecord
  2
3
 70
     0
 62
     1
  6
GEN3A
370
    -3
390
F
  0
LAYER
  5
214
330
2
100
AcDbSymbolTableRecord
100
AcDbLayerTableRecord
  2
2
 70
     0
 62
     7
  6
Continuous
370
    -3
390
F
  0
LAYER
  5
22A
330
2
100
AcDbSymbolTableRecord
100
AcDbLayerTableRecord
  2
5
 70
     0
 62
     7
  6
Continuous
370
    -3
390
F
  0
ENDTAB
  0
TABLE
  2
STYLE
  5
3
330
0
100
AcDbSymbolTable
 70
     3
  0
STYLE
  5
11
330
3
100
AcDbSymbolTableRecord
100
AcDbTextStyleTableRecord
  2
STANDARD
 70
     0
 40
0.0
 41
1.0
 50
0.0
 71
     0
 42
2.5
  3
ISOCPEUR.TTF
  4

1001
ACAD
1000
ISOCPEUR
1071
       34
  0
STYLE
  5
35
330
3
100
AcDbSymbolTableRecord
100
AcDbTextStyleTableRecord
  2
SLDTEXTSTYLE0
 70
     0
 40
0.0
 41
1.0
 50
0.0
 71
     0
 42
0.2
  3
ISOCPEUR.TTF
  4

1001
ACAD
1000
ISOCPEUR
1071
       34
  0
STYLE
  5
19A
330
3
100
AcDbSymbolTableRecord
100
AcDbTextStyleTableRecord
  2
GENPRESET
 70
     0
 40
0.0
 41
1.0
 50
0.0
 71
     0
 42
3.5
  3
simplex.shx
  4

  0
ENDTAB
  0
TABLE
  2
VIEW
  5
6
330
0
100
AcDbSymbolTable
 70
     0
  0
ENDTAB
  0
TABLE
  2
UCS
  5
7
330
0
100
AcDbSymbolTable
 70
     0
  0
ENDTAB
  0
TABLE
  2
APPID
  5
9
330
0
100
AcDbSymbolTable
 70
     1
  0
APPID
  5
12
330
9
100
AcDbSymbolTableRecord
100
AcDbRegAppTableRecord
  2
ACAD
 70
     0
  0
ENDTAB
  0
TABLE
  2
DIMSTYLE
  5
A
330
0
100
AcDbSymbolTable
 70
     4
100
AcDbDimStyleTable
 71
     3
340
19B
340
27
340
82F
  0
DIMSTYLE
105
27
330
A
100
AcDbSymbolTableRecord
100
AcDbDimStyleTableRecord
  2
ISO-25
 70
     0
 41
2.5
 42
0.625
 43
3.75
 44
1.25
 73
     0
 74
     0
 77
     1
 78
     8
140
2.5
141
2.5
143
0.0393700787
147
0.625
171
     3
172
     1
271
     2
272
     2
274
     3
278
    44
283
     0
284
     8
340
11
  0
DIMSTYLE
105
C9
330
A
100
AcDbSymbolTableRecord
100
AcDbDimStyleTableRecord
  2
SLDDIMSTYLE0
 70
     0
 41
3.0
 44
0.0
 73
     0
 74
     0
 77
     2
 78
    12
140
2.0
147
0.5
173
     1
271
     2
272
     3
284
    12
340
35
  0
DIMSTYLE
105
19B
102
{ACAD_REACTORS
330
848
330
922
330
849
102
}
330
A
100
AcDbSymbolTableRecord
100
AcDbDimStyleTableRecord
  2
GEN-ISO_TDM
 70
     0
 41
4.57
 42
0.0
 43
2.299999999999998
 44
2.5
 47
0.1
 48
0.1
 73
     0
 74
     0
 77
     1
 78
     8
140
4.57
141
2.0
146
0.7
147
1.5
172
     1
178
     7
179
     1
271
     2
272
     2
284
     8
285
     8
286
     8
340
19A
  0
DIMSTYLE
105
82F
330
A
100
AcDbSymbolTableRecord
100
AcDbDimStyleTableRecord
  2
SLDDIMSTYLE1
 70
     0
 41
3.0
 44
0.0
 73
     0
 74
     0
 77
     2
 78
    12
140
2.0
147
0.5
173
     1
271
     2
272
     3
284
    12
340
35
  0
ENDTAB
  0
TABLE
  2
BLOCK_RECORD
  5
1
330
0
100
AcDbSymbolTable
 70
    16
  0
BLOCK_RECORD
  5
1F
330
1
100
AcDbSymbolTableRecord
100
AcDbBlockTableRecord
  2
*Model_Space
340
22
  0
BLOCK_RECORD
  5
1B
330
1
100
AcDbSymbolTableRecord
100
AcDbBlockTableRecord
  2
*Paper_Space
340
1E
  0
BLOCK_RECORD
  5
23
330
1
100
AcDbSymbolTableRecord
100
AcDbBlockTableRecord
  2
*Paper_Space0
340
26
  0
BLOCK_RECORD
  5
BD
330
1
100
AcDbSymbolTableRecord
100
AcDbBlockTableRecord
  2
*D1
340
0
  0
BLOCK_RECORD
  5
D1
330
1
100
AcDbSymbolTableRecord
100
AcDbBlockTableRecord
  2
*D2
340
0
  0
BLOCK_RECORD
  5
E7
330
1
100
AcDbSymbolTableRecord
100
AcDbBlockTableRecord
  2
*D3
340
0
  0
BLOCK_RECORD
  5
188
330
1
100
AcDbSymbolTableRecord
100
AcDbBlockTableRecord
  2
*D4
340
0
  0
BLOCK_RECORD
  5
1F8
330
1
100
AcDbSymbolTableRecord
100
AcDbBlockTableRecord
  2
*D5
340
0
  0
BLOCK_RECORD
  5
811
330
1
100
AcDbSymbolTableRecord
100
AcDbBlockTableRecord
  2
*D6
340
0
  0
BLOCK_RECORD
  5
81C
330
1
100
AcDbSymbolTableRecord
100
AcDbBlockTableRecord
  2
*D7
340
0
  0
BLOCK_RECORD
  5
826
330
1
100
AcDbSymbolTableRecord
100
AcDbBlockTableRecord
  2
*D8
340
0
  0
BLOCK_RECORD
  5
84A
330
1
100
AcDbSymbolTableRecord
100
AcDbBlockTableRecord
  2
*D9
340
0
  0
BLOCK_RECORD
  5
855
330
1
100
AcDbSymbolTableRecord
100
AcDbBlockTableRecord
  2
*D10
340
0
  0
BLOCK_RECORD
  5
861
330
1
100
AcDbSymbolTableRecord
100
AcDbBlockTableRecord
  2
*D11
340
0
  0
BLOCK_RECORD
  5
88F
330
1
100
AcDbSymbolTableRecord
100
AcDbBlockTableRecord
  2
A$C6DB00609
340
0
102
{BLKREFS
331
95F
102
}
  0
BLOCK_RECORD
  5
923
330
1
100
AcDbSymbolTableRecord
100
AcDbBlockTableRecord
  2
*D13
340
0
  0
BLOCK_RECORD
  5
9DD
330
1
100
AcDbSymbolTableRecord
100
AcDbBlockTableRecord
  2
*D14
340
0
  0
ENDTAB
  0
ENDSEC
  0
SECTION
  2
BLOCKS
  0
BLOCK
  5
20
330
1F
100
AcDbEntity
  8
0
100
AcDbBlockBegin
  2
*Model_Space
 70
     0
 10
0.0
 20
0.0
 30
0.0
  3
*Model_Space
  1

  0
ENDBLK
  5
21
330
1F
100
AcDbEntity
  8
0
100
AcDbBlockEnd
  0
BLOCK
  5
1C
330
1B
100
AcDbEntity
 67
     1
  8
0
100
AcDbBlockBegin
  2
*Paper_Space
 70
     0
 10
0.0
 20
0.0
 30
0.0
  3
*Paper_Space
  1

  0
ENDBLK
  5
1D
330
1B
100
AcDbEntity
 67
     1
  8
0
100
AcDbBlockEnd
  0
BLOCK
  5
24
330
23
100
AcDbEntity
  8
0
100
AcDbBlockBegin
  2
*Paper_Space0
 70
     0
 10
0.0
 20
0.0
 30
0.0
  3
*Paper_Space0
  1

  0
ENDBLK
  5
25
330
23
100
AcDbEntity
  8
0
100
AcDbBlockEnd
  0
BLOCK
  5
C7
330
BD
100
AcDbEntity
  8
0
100
AcDbBlockBegin
  2
*D1
 70
     1
 10
0.0
 20
0.0
 30
0.0
  3
*D1
  1

  0
LINE
  5
24D
330
BD
100
AcDbEntity
  8
2
 62
     0
370
    -2
100
AcDbLine
 10
0.0
 20
27.1
 30
0.0
 11
0.0000000000000005
 21
34.74636295409998
 31
0.0
  0
LINE
  5
24E
330
BD
100
AcDbEntity
  8
2
 62
     0
370
    -2
100
AcDbLine
 10
70.0
 20
27.1
 30
0.0
 11
70.0
 21
34.74636295409998
 31
0.0
  0
LINE
  5
24F
330
BD
100
AcDbEntity
  8
2
 62
     0
370
    -2
100
AcDbLine
 10
4.57
 20
32.24636295409998
 30
0.0
 11
65.43000000000001
 21
32.24636295409998
 31
0.0
  0
SOLID
  5
250
330
BD
100
AcDbEntity
  8
2
 62
     0
100
AcDbTrace
 10
4.57
 20
33.00802962076665
 30
0.0
 11
4.57
 21
31.48469628743331
 31
0.0
 12
0.0000000000000003
 22
32.24636295409998
 32
0.0
 13
0.0000000000000003
 23
32.24636295409998
 33
0.0
  0
SOLID
  5
251
330
BD
100
AcDbEntity
  8
2
 62
     0
100
AcDbTrace
 10
65.43000000000001
 20
33.00802962076665
 30
0.0
 11
65.43000000000001
 21
31.48469628743331
 31
0.0
 12
70.0
 22
32.24636295409998
 32
0.0
 13
70.0
 23
32.24636295409998
 33
0.0
  0
MTEXT
  5
252
330
BD
100
AcDbEntity
  8
2
 62
     7
100
AcDbMText
 10
30.7878776572762
 20
38.31636295409997
 30
0.0
 40
4.57
 41
0.0
 71
     1
 72
     1
  1
\A1;70
  7
GENPRESET
 73
     1
 44
1.0
  0
POINT
  5
253
330
BD
100
AcDbEntity
  8
Defpoints
 62
     0
100
AcDbPoint
 10
0.0
 20
27.1
 30
0.0
  0
POINT
  5
254
330
BD
100
AcDbEntity
  8
Defpoints
 62
     0
100
AcDbPoint
 10
70.0
 20
27.1
 30
0.0
  0
POINT
  5
255
330
BD
100
AcDbEntity
  8
Defpoints
 62
     0
100
AcDbPoint
 10
70.0
 20
32.24636295409998
 30
0.0
  0
ENDBLK
  5
C8
330
BD
100
AcDbEntity
  8
0
100
AcDbBlockEnd
  0
BLOCK
  5
DC
330
D1
100
AcDbEntity
  8
0
100
AcDbBlockBegin
  2
*D2
 70
     1
 10
0.0
 20
0.0
 30
0.0
  3
*D2
  1

  0
SOLID
  5
DE
330
D1
100
AcDbEntity
  8
VERMASSUNG
100
AcDbTrace
 10
202.4668304458999
 20
134.6600788488999
 30
0.0
 11
202.0168304459
 21
131.6600788488998
 31
0.0
 12
202.9168304459
 22
131.6600788488998
 32
0.0
 13
202.9168304459
 23
131.6600788488998
 33
0.0
  0
SOLID
  5
DF
330
D1
100
AcDbEntity
  8
VERMASSUNG
100
AcDbTrace
 10
202.4668304458999
 20
79.6600788489
 30
0.0
 11
202.9168304459
 21
82.66007884889999
 31
0.0
 12
202.0168304459
 22
82.66007884889999
 32
0.0
 13
202.0168304459
 23
82.66007884889999
 33
0.0
  0
LINE
  5
E0
330
D1
100
AcDbEntity
  8
VERMASSUNG
100
AcDbLine
 10
197.1974369076998
 20
134.6600788488999
 30
0.0
 11
203.4668304459
 21
134.6600788488999
 31
0.0
  0
LINE
  5
E1
330
D1
100
AcDbEntity
  8
VERMASSUNG
100
AcDbLine
 10
197.1974369076998
 20
79.6600788489
 30
0.0
 11
203.4668304459
 21
79.6600788489
 31
0.0
  0
LINE
  5
E2
330
D1
100
AcDbEntity
  8
VERMASSUNG
100
AcDbLine
 10
202.4668304458999
 20
134.6600788488999
 30
0.0
 11
202.4668304458999
 21
79.6600788489
 31
0.0
  0
MTEXT
  5
E3
330
D1
100
AcDbEntity
  8
VERMASSUNG
100
AcDbMText
 10
199.6668306691999
 20
99.9762037456
 30
0.0
 40
2.0
 41
0.0
 71
     1
 72
     1
  1
{MBM }
  7
SLDTEXTSTYLE0
 11
-0.000000000000007
 21
1.0
 31
0.0
 73
     1
 44
1.0
  0
MTEXT
  5
E4
330
D1
100
AcDbEntity
  8
VERMASSUNG
100
AcDbMText
 10
199.8668306204999
 20
106.3762035838998
 30
0.0
 40
2.0
 41
0.0
 71
     1
 72
     1
  1
{%%c}
  7
SLDTEXTSTYLE0
 11
-0.000000000000007
 21
1.0
 31
0.0
 73
     1
 44
1.0
  0
MTEXT
  5
E5
330
D1
100
AcDbEntity
  8
VERMASSUNG
100
AcDbMText
 10
199.8668303295
 20
109.9861339735
 30
0.0
 40
2.0
 41
0.0
 71
     1
 72
     1
  1
{55}
  7
SLDTEXTSTYLE0
 11
-0.000000000000007
 21
1.0
 31
0.0
 73
     1
 44
1.0
  0
ENDBLK
  5
DD
330
D1
100
AcDbEntity
  8
0
100
AcDbBlockEnd
  0
BLOCK
  5
F1
330
E7
100
AcDbEntity
  8
0
100
AcDbBlockBegin
  2
*D3
 70
     1
 10
0.0
 20
0.0
 30
0.0
  3
*D3
  1

  0
ARC
  5
F3
330
E7
100
AcDbEntity
  8
VERMASSUNG
100
AcDbCircle
 10
152.338374549
 20
145.5087762926
 30
0.0
 40
4.246303061824995
100
AcDbArc
 50
153.4349488229
 51
206.5650511771
  0
ARC
  5
F4
330
E7
100
AcDbEntity
  8
VERMASSUNG
100
AcDbCircle
 10
151.7153656293
 20
145.5087762926
 30
0.0
 40
4.246303061825021
100
AcDbArc
 50
333.4349488229
 51
26.5650511771
  0
SOLID
  5
F5
330
E7
100
AcDbEntity
  8
VERMASSUNG
100
AcDbTrace
 10
97.59743690770001
 20
143.6097718327999
 30
0.0
 11
100.5974369076999
 21
143.1597718327999
 31
0.0
 12
100.5974369076999
 22
144.0597718328
 32
0.0
 13
100.5974369076999
 23
144.0597718328
 33
0.0
  0
SOLID
  5
F6
330
E7
100
AcDbEntity
  8
VERMASSUNG
100
AcDbTrace
 10
197.5974369076998
 20
143.6097718327999
 30
0.0
 11
194.5974369076998
 21
144.0597718328
 31
0.0
 12
194.5974369076998
 22
143.1597718327999
 32
0.0
 13
194.5974369076998
 23
143.1597718327999
 33
0.0
  0
LINE
  5
F7
330
E7
100
AcDbEntity
  8
VERMASSUNG
100
AcDbLine
 10
97.59743690770001
 20
121.2600788488998
 30
0.0
 11
97.59743690770001
 21
144.6097718327999
 31
0.0
  0
LINE
  5
F8
330
E7
100
AcDbEntity
  8
VERMASSUNG
100
AcDbLine
 10
197.5974369076998
 20
134.2600788489
 30
0.0
 11
197.5974369076998
 21
144.6097718327999
 31
0.0
  0
LINE
  5
F9
330
E7
100
AcDbEntity
  8
VERMASSUNG
100
AcDbLine
 10
97.59743690770001
 20
143.6097718327999
 30
0.0
 11
197.5974369076998
 21
143.6097718327999
 31
0.0
  0
MTEXT
  5
FA
330
E7
100
AcDbEntity
  8
VERMASSUNG
100
AcDbMText
 10
150.1278656293
 20
146.2097719492
 30
0.0
 40
2.0
 41
0.0
 71
     1
 72
     1
  1
{100}
  7
SLDTEXTSTYLE0
 73
     1
 44
1.0
  0
ENDBLK
  5
F2
330
E7
100
AcDbEntity
  8
0
100
AcDbBlockEnd
  0
BLOCK
  5
192
330
188
100
AcDbEntity
  8
0
100
AcDbBlockBegin
  2
*D4
 70
     1
 10
0.0
 20
0.0
 30
0.0
  3
*D4
  1

  0
LINE
  5
189
330
188
100
AcDbEntity
  8
SK2
 62
     0
370
    -2
100
AcDbLine
 10
0.4000000000000057
 20
27.5
 30
0.0
 11
-35.66546078314999
 21
27.50000000000001
 31
0.0
  0
LINE
  5
18A
330
188
100
AcDbEntity
  8
SK2
 62
     0
370
    -2
100
AcDbLine
 10
0.4000000000000057
 20
-27.5
 30
0.0
 11
-35.66546078315
 21
-27.49999999999999
 31
0.0
  0
LINE
  5
18B
330
188
100
AcDbEntity
  8
SK2
 62
     0
370
    -2
100
AcDbLine
 10
-33.16546078314999
 20
22.93000000000001
 30
0.0
 11
-33.16546078315
 21
-22.92999999999998
 31
0.0
  0
SOLID
  5
18C
330
188
100
AcDbEntity
  8
SK2
 62
     0
100
AcDbTrace
 10
-33.92712744981666
 20
22.93000000000001
 30
0.0
 11
-32.40379411648332
 21
22.93000000000001
 31
0.0
 12
-33.16546078314999
 22
27.50000000000001
 32
0.0
 13
-33.16546078314999
 23
27.50000000000001
 33
0.0
  0
SOLID
  5
18D
330
188
100
AcDbEntity
  8
SK2
 62
     0
100
AcDbTrace
 10
-33.92712744981667
 20
-22.92999999999998
 30
0.0
 11
-32.40379411648332
 21
-22.92999999999998
 31
0.0
 12
-33.16546078315
 22
-27.49999999999999
 32
0.0
 13
-33.16546078315
 23
-27.49999999999999
 33
0.0
  0
MTEXT
  5
18E
330
188
100
AcDbEntity
  8
SK2
 62
     7
100
AcDbMText
 10
-39.23546078315
 20
-15.34214285714283
 30
0.0
 40
4.57
 41
0.0
 71
     1
 72
     1
  1
\A1;MBM %%c55
  7
GENPRESET
 11
0.0000000000000001
 21
1.0
 31
0.0
 73
     1
 44
1.0
  0
POINT
  5
18F
330
188
100
AcDbEntity
  8
Defpoints
 62
     0
100
AcDbPoint
 10
0.4000000000000057
 20
27.5
 30
0.0
  0
POINT
  5
190
330
188
100
AcDbEntity
  8
Defpoints
 62
     0
100
AcDbPoint
 10
0.4000000000000057
 20
-27.5
 30
0.0
  0
POINT
  5
191
330
188
100
AcDbEntity
  8
Defpoints
 62
     0
100
AcDbPoint
 10
-33.16546078315
 20
-27.49999999999999
 30
0.0
  0
ENDBLK
  5
193
330
188
100
AcDbEntity
  8
0
100
AcDbBlockEnd
  0
BLOCK
  5
202
330
1F8
100
AcDbEntity
  8
0
100
AcDbBlockBegin
  2
*D5
 70
     1
 10
0.0
 20
0.0
 30
0.0
  3
*D5
  1

  0
LINE
  5
279
330
1F8
100
AcDbEntity
  8
SK2
 62
     0
370
    -2
100
AcDbLine
 10
69.59999999999999
 20
27.49999999999998
 30
0.0
 11
80.72067563436453
 21
27.49999999999998
 31
0.0
  0
LINE
  5
27A
330
1F8
100
AcDbEntity
  8
SK2
 62
     0
370
    -2
100
AcDbLine
 10
69.59999999999999
 20
-27.50000000000001
 30
0.0
 11
80.72067563436453
 21
-27.50000000000003
 31
0.0
  0
LINE
  5
27B
330
1F8
100
AcDbEntity
  8
SK2
 62
     0
370
    -2
100
AcDbLine
 10
78.22067563436452
 20
22.92999999999997
 30
0.0
 11
78.22067563436452
 21
-22.93000000000001
 31
0.0
  0
SOLID
  5
27C
330
1F8
100
AcDbEntity
  8
SK2
 62
     0
100
AcDbTrace
 10
77.45900896769784
 20
22.92999999999997
 30
0.0
 11
78.9823423010312
 21
22.92999999999997
 31
0.0
 12
78.22067563436452
 22
27.49999999999998
 32
0.0
 13
78.22067563436452
 23
27.49999999999998
 33
0.0
  0
SOLID
  5
27D
330
1F8
100
AcDbEntity
  8
SK2
 62
     0
100
AcDbTrace
 10
77.45900896769784
 20
-22.93000000000001
 30
0.0
 11
78.9823423010312
 21
-22.93000000000001
 31
0.0
 12
78.22067563436452
 22
-27.50000000000003
 32
0.0
 13
78.22067563436452
 23
-27.50000000000003
 33
0.0
  0
MTEXT
  5
27E
330
1F8
100
AcDbEntity
  8
SK2
 62
     7
100
AcDbMText
 10
74.43567563436451
 20
0.0000000000000005
 30
0.0
 40
4.57
 41
0.0
 71
     5
 72
     1
  1
\A1;MBM %%c55
  7
GENPRESET
 11
0.0000000000000001
 21
1.0
 31
0.0
 73
     1
 44
1.0
  0
POINT
  5
27F
330
1F8
100
AcDbEntity
  8
Defpoints
 62
     0
100
AcDbPoint
 10
69.59999999999999
 20
27.49999999999998
 30
0.0
  0
POINT
  5
280
330
1F8
100
AcDbEntity
  8
Defpoints
 62
     0
100
AcDbPoint
 10
69.59999999999999
 20
-27.50000000000001
 30
0.0
  0
POINT
  5
281
330
1F8
100
AcDbEntity
  8
Defpoints
 62
     0
100
AcDbPoint
 10
78.22067563436452
 20
-27.50000000000003
 30
0.0
  0
ENDBLK
  5
203
330
1F8
100
AcDbEntity
  8
0
100
AcDbBlockEnd
  0
BLOCK
  5
81A
330
811
100
AcDbEntity
  8
0
100
AcDbBlockBegin
  2
*D6
 70
     1
 10
0.0
 20
0.0
 30
0.0
  3
*D6
  1

  0
SOLID
  5
812
330
811
100
AcDbEntity
  8
VERMASSUNG
100
AcDbTrace
 10
80.75195460519998
 20
140.9978715123999
 30
0.0
 11
80.30195460520001
 21
137.9978715123999
 31
0.0
 12
81.20195460519999
 22
137.9978715123999
 32
0.0
 13
81.20195460519999
 23
137.9978715123999
 33
0.0
  0
SOLID
  5
813
330
811
100
AcDbEntity
  8
VERMASSUNG
100
AcDbTrace
 10
80.75195460519998
 20
85.99787151239999
 30
0.0
 11
81.20195460519999
 21
88.99787151239998
 31
0.0
 12
80.30195460520001
 22
88.99787151239998
 32
0.0
 13
80.30195460520001
 23
88.99787151239998
 33
0.0
  0
LINE
  5
814
330
811
100
AcDbEntity
  8
VERMASSUNG
100
AcDbLine
 10
117.3844265595999
 20
140.9978715123999
 30
0.0
 11
79.7519546052
 21
140.9978715123999
 31
0.0
  0
LINE
  5
815
330
811
100
AcDbEntity
  8
VERMASSUNG
100
AcDbLine
 10
117.3844265595999
 20
85.99787151239999
 30
0.0
 11
79.7519546052
 21
85.99787151239999
 31
0.0
  0
LINE
  5
816
330
811
100
AcDbEntity
  8
VERMASSUNG
100
AcDbLine
 10
80.75195460519998
 20
140.9978715123999
 30
0.0
 11
80.75195460519998
 21
85.99787151239999
 31
0.0
  0
MTEXT
  5
817
330
811
100
AcDbEntity
  8
VERMASSUNG
100
AcDbMText
 10
77.95195482859998
 20
107.093831882
 30
0.0
 40
2.0
 41
0.0
 71
     1
 72
     1
  1
{MBM }
  7
SLDTEXTSTYLE0
 11
-0.000000000000007
 21
1.0
 31
0.0
 73
     1
 44
1.0
  0
MTEXT
  5
818
330
811
100
AcDbEntity
  8
VERMASSUNG
100
AcDbMText
 10
78.15195477989999
 20
113.4938317203
 30
0.0
 40
2.0
 41
0.0
 71
     1
 72
     1
  1
{%%c}
  7
SLDTEXTSTYLE0
 11
-0.000000000000007
 21
1.0
 31
0.0
 73
     1
 44
1.0
  0
MTEXT
  5
819
330
811
100
AcDbEntity
  8
VERMASSUNG
100
AcDbMText
 10
78.1519544888
 20
117.1026708964
 30
0.0
 40
2.0
 41
0.0
 71
     1
 72
     1
  1
{55}
  7
SLDTEXTSTYLE0
 11
-0.000000000000007
 21
1.0
 31
0.0
 73
     1
 44
1.0
  0
ENDBLK
  5
81B
330
811
100
AcDbEntity
  8
0
100
AcDbBlockEnd
  0
BLOCK
  5
824
330
81C
100
AcDbEntity
  8
0
100
AcDbBlockBegin
  2
*D7
 70
     1
 10
0.0
 20
0.0
 30
0.0
  3
*D7
  1

  0
SOLID
  5
81D
330
81C
100
AcDbEntity
  8
VERMASSUNG
100
AcDbTrace
 10
72.5602812594
 20
153.4978715123999
 30
0.0
 11
72.1102812594
 21
150.4978715123999
 31
0.0
 12
73.0102812594
 22
150.4978715123999
 32
0.0
 13
73.0102812594
 23
150.4978715123999
 33
0.0
  0
SOLID
  5
81E
330
81C
100
AcDbEntity
  8
VERMASSUNG
100
AcDbTrace
 10
72.5602812594
 20
73.4978715124
 30
0.0
 11
73.0102812594
 21
76.49787151239998
 31
0.0
 12
72.1102812594
 22
76.49787151239998
 32
0.0
 13
72.1102812594
 23
76.49787151239998
 33
0.0
  0
LINE
  5
81F
330
81C
100
AcDbEntity
  8
VERMASSUNG
100
AcDbLine
 10
125.1786551937
 20
153.4978715123999
 30
0.0
 11
71.5602812594
 21
153.4978715123999
 31
0.0
  0
LINE
  5
820
330
81C
100
AcDbEntity
  8
VERMASSUNG
100
AcDbLine
 10
125.1786551937
 20
73.4978715124
 30
0.0
 11
71.5602812594
 21
73.4978715124
 31
0.0
  0
LINE
  5
821
330
81C
100
AcDbEntity
  8
VERMASSUNG
100
AcDbLine
 10
72.5602812594
 20
153.4978715123999
 30
0.0
 11
72.5602812594
 21
73.4978715124
 31
0.0
  0
MTEXT
  5
822
330
81C
100
AcDbEntity
  8
VERMASSUNG
100
AcDbMText
 10
69.9602812011
 20
110.2942965637999
 30
0.0
 40
2.0
 41
0.0
 71
     1
 72
     1
  1
{%%c}
  7
SLDTEXTSTYLE0
 11
-0.000000000000007
 21
1.0
 31
0.0
 73
     1
 44
1.0
  0
MTEXT
  5
823
330
81C
100
AcDbEntity
  8
VERMASSUNG
100
AcDbMText
 10
69.9602811429
 20
113.9022062146999
 30
0.0
 40
2.0
 41
0.0
 71
     1
 72
     1
  1
{80}
  7
SLDTEXTSTYLE0
 11
-0.000000000000007
 21
1.0
 31
0.0
 73
     1
 44
1.0
  0
ENDBLK
  5
825
330
81C
100
AcDbEntity
  8
0
100
AcDbBlockEnd
  0
BLOCK
  5
82D
330
826
100
AcDbEntity
  8
0
100
AcDbBlockBegin
  2
*D8
 70
     1
 10
0.0
 20
0.0
 30
0.0
  3
*D8
  1

  0
SOLID
  5
827
330
826
100
AcDbEntity
  8
VERMASSUNG
100
AcDbTrace
 10
117.3844265595999
 20
164.9444439919
 30
0.0
 11
120.3844265595999
 21
164.4944439919
 31
0.0
 12
120.3844265595999
 22
165.3944439918999
 32
0.0
 13
120.3844265595999
 23
165.3944439918999
 33
0.0
  0
SOLID
  5
828
330
826
100
AcDbEntity
  8
VERMASSUNG
100
AcDbTrace
 10
206.9844265596
 20
164.9444439919
 30
0.0
 11
203.9844265595998
 21
165.3944439918999
 31
0.0
 12
203.9844265595998
 22
164.4944439919
 32
0.0
 13
203.9844265595998
 23
164.4944439919
 33
0.0
  0
LINE
  5
829
330
826
100
AcDbEntity
  8
VERMASSUNG
100
AcDbLine
 10
117.3844265595999
 20
140.8906918354
 30
0.0
 11
117.3844265595999
 21
165.9444439919
 31
0.0
  0
LINE
  5
82A
330
826
100
AcDbEntity
  8
VERMASSUNG
100
AcDbLine
 10
206.9844265596
 20
141.1519851304998
 30
0.0
 11
206.9844265596
 21
165.9444439919
 31
0.0
  0
LINE
  5
82B
330
826
100
AcDbEntity
  8
VERMASSUNG
100
AcDbLine
 10
117.3844265595999
 20
164.9444439919
 30
0.0
 11
206.9844265596
 21
164.9444439919
 31
0.0
  0
MTEXT
  5
82C
330
826
100
AcDbEntity
  8
VERMASSUNG
100
AcDbMText
 10
159.7848556151
 20
167.5444441083
 30
0.0
 40
2.0
 41
0.0
 71
     1
 72
     1
  1
{89.6}
  7
SLDTEXTSTYLE0
 73
     1
 44
1.0
  0
ENDBLK
  5
82E
330
826
100
AcDbEntity
  8
0
100
AcDbBlockEnd
  0
BLOCK
  5
853
330
84A
100
AcDbEntity
  8
0
100
AcDbBlockBegin
  2
*D9
 70
     1
 10
0.0
 20
0.0
 30
0.0
  3
*D9
  1

  0
LINE
  5
91A
330
84A
100
AcDbEntity
  8
SK2
 62
     0
370
    -2
100
AcDbLine
 10
-36.63247128390004
 20
-15.32428571428567
 30
0.0
 11
-36.63247128390004
 21
22.93000000000001
 31
0.0
  0
MTEXT
  5
91B
330
84A
100
AcDbEntity
  8
SK2
 62
     7
100
AcDbMText
 10
-42.70247128390002
 20
-13.8242857142857
 30
0.0
 40
4.57
 41
0.0
 71
     1
 72
     1
  1
\A1;MBM \U+220555
  7
GENPRESET
 11
0.0000000000000001
 21
1.0
 31
0.0
 73
     1
 44
1.0
  0
SOLID
  5
91C
330
84A
100
AcDbEntity
  8
SK2
 62
     0
100
AcDbTrace
 10
-37.39413795056671
 20
22.93000000000001
 30
0.0
 11
-35.87080461723337
 21
22.93000000000001
 31
0.0
 12
-36.63247128390004
 22
27.50000000000001
 32
0.0
 13
-36.63247128390004
 23
27.50000000000001
 33
0.0
  0
POINT
  5
91D
330
84A
100
AcDbEntity
  8
Defpoints
 62
     0
100
AcDbPoint
 10
-36.63247128390004
 20
27.50000000000001
 30
0.0
  0
POINT
  5
91E
330
84A
100
AcDbEntity
  8
Defpoints
 62
     0
100
AcDbPoint
 10
-36.63247128389996
 20
-27.49999999999998
 30
0.0
  0
ENDBLK
  5
854
330
84A
100
AcDbEntity
  8
0
100
AcDbBlockEnd
  0
BLOCK
  5
85F
330
855
100
AcDbEntity
  8
0
100
AcDbBlockBegin
  2
*D10
 70
     1
 10
0.0
 20
0.0
 30
0.0
  3
*D10
  1

  0
LINE
  5
909
330
855
100
AcDbEntity
  8
SK2
 62
     0
370
    -2
100
AcDbLine
 10
7.794229304600007
 20
40.0
 30
0.0
 11
-47.32414462969999
 21
40.00000000000002
 31
0.0
  0
LINE
  5
90A
330
855
100
AcDbEntity
  8
SK2
 62
     0
370
    -2
100
AcDbLine
 10
7.794229304600007
 20
-39.99999999999998
 30
0.0
 11
-47.32414462970001
 21
-39.99999999999998
 31
0.0
  0
LINE
  5
90B
330
855
100
AcDbEntity
  8
SK2
 62
     0
370
    -2
100
AcDbLine
 10
-44.82414462969999
 20
35.43000000000002
 30
0.0
 11
-44.82414462970001
 21
-35.42999999999996
 31
0.0
  0
SOLID
  5
90C
330
855
100
AcDbEntity
  8
SK2
 62
     0
100
AcDbTrace
 10
-45.58581129636664
 20
35.43000000000002
 30
0.0
 11
-44.06247796303332
 21
35.43000000000002
 31
0.0
 12
-44.82414462969999
 22
40.00000000000002
 32
0.0
 13
-44.82414462969999
 23
40.00000000000002
 33
0.0
  0
SOLID
  5
90D
330
855
100
AcDbEntity
  8
SK2
 62
     0
100
AcDbTrace
 10
-45.58581129636664
 20
-35.42999999999996
 30
0.0
 11
-44.06247796303333
 21
-35.42999999999996
 31
0.0
 12
-44.82414462970001
 22
-39.99999999999998
 32
0.0
 13
-44.82414462970001
 23
-39.99999999999998
 33
0.0
  0
MTEXT
  5
90E
330
855
100
AcDbEntity
  8
SK2
 62
     7
100
AcDbMText
 10
-50.89414462970001
 20
-5.766904761904746
 30
0.0
 40
4.57
 41
0.0
 71
     1
 72
     1
  1
\A1;%%c80
  7
GENPRESET
 11
0.0000000000000001
 21
1.0
 31
0.0
 73
     1
 44
1.0
  0
POINT
  5
90F
330
855
100
AcDbEntity
  8
Defpoints
 62
     0
100
AcDbPoint
 10
7.794229304600007
 20
40.0
 30
0.0
  0
POINT
  5
910
330
855
100
AcDbEntity
  8
Defpoints
 62
     0
100
AcDbPoint
 10
7.794229304600007
 20
-39.99999999999998
 30
0.0
  0
POINT
  5
911
330
855
100
AcDbEntity
  8
Defpoints
 62
     0
100
AcDbPoint
 10
-44.82414462970001
 20
-39.99999999999998
 30
0.0
  0
ENDBLK
  5
860
330
855
100
AcDbEntity
  8
0
100
AcDbBlockEnd
  0
BLOCK
  5
86B
330
861
100
AcDbEntity
  8
0
100
AcDbBlockBegin
  2
*D11
 70
     1
 10
0.0
 20
0.0
 30
0.0
  3
*D11
  1

  0
LINE
  5
9D2
330
861
100
AcDbEntity
  8
2
 62
     0
370
    -2
100
AcDbLine
 10
0.0000006704999862
 20
27.39282032300003
 30
0.0
 11
0.0000006704999878
 21
53.94657247950004
 31
0.0
  0
LINE
  5
9D3
330
861
100
AcDbEntity
  8
2
 62
     0
370
    -2
100
AcDbLine
 10
89.6000006705
 20
27.6541136181
 30
0.0
 11
89.6000006705
 21
53.94657247950004
 31
0.0
  0
LINE
  5
9D4
330
861
100
AcDbEntity
  8
2
 62
     0
370
    -2
100
AcDbLine
 10
4.570000670499988
 20
51.44657247950004
 30
0.0
 11
85.03000067049999
 21
51.44657247950004
 31
0.0
  0
SOLID
  5
9D5
330
861
100
AcDbEntity
  8
2
 62
     0
100
AcDbTrace
 10
4.570000670499988
 20
52.2082391461667
 30
0.0
 11
4.570000670499988
 21
50.68490581283334
 31
0.0
 12
0.0000006704999877
 22
51.44657247950004
 32
0.0
 13
0.0000006704999877
 23
51.44657247950004
 33
0.0
  0
SOLID
  5
9D6
330
861
100
AcDbEntity
  8
2
 62
     0
100
AcDbTrace
 10
85.03000067049999
 20
52.2082391461667
 30
0.0
 11
85.03000067049999
 21
50.68490581283334
 31
0.0
 12
89.6000006705
 22
51.44657247950004
 32
0.0
 13
89.6000006705
 23
51.44657247950004
 33
0.0
  0
MTEXT
  5
9D7
330
861
100
AcDbEntity
  8
2
 62
     7
100
AcDbMText
 10
37.94500067049998
 20
57.51657247950003
 30
0.0
 40
4.57
 41
0.0
 71
     1
 72
     1
  1
\A1;89.6
  7
GENPRESET
 73
     1
 44
1.0
  0
POINT
  5
9D8
330
861
100
AcDbEntity
  8
Defpoints
 62
     0
100
AcDbPoint
 10
0.0000006704999862
 20
27.39282032300003
 30
0.0
  0
POINT
  5
9D9
330
861
100
AcDbEntity
  8
Defpoints
 62
     0
100
AcDbPoint
 10
89.6000006705
 20
27.6541136181
 30
0.0
  0
POINT
  5
9DA
330
861
100
AcDbEntity
  8
Defpoints
 62
     0
100
AcDbPoint
 10
89.6000006705
 20
51.44657247950004
 30
0.0
  0
ENDBLK
  5
86C
330
861
100
AcDbEntity
  8
0
100
AcDbBlockEnd
  0
BLOCK
  5
8B4
330
88F
100
AcDbEntity
  8
0
100
AcDbBlockBegin
  2
A$C6DB00609
 70
     0
 10
0.0
 20
0.0
 30
0.0
  3
A$C6DB00609
  1

  0
LINE
  5
890
330
88F
100
AcDbEntity
  8
0
  6
SLD-Durchgehend
 62
     7
370
    15
100
AcDbLine
 10
36.2996766344
 20
19.81003582475
 30
0.0
 11
36.2996766344
 21
61.46037206055
 31
0.0
  0
LINE
  5
891
330
88F
100
AcDbEntity
  8
0
  6
SLD-Durchgehend
 62
     7
370
    15
100
AcDbLine
 10
38.7275302783
 20
17.24361814555
 30
0.0
 11
47.10000101479999
 21
17.24361814555
 31
0.0
  0
LINE
  5
892
330
88F
100
AcDbEntity
  8
0
  6
SLD-Durchgehend
 62
     7
370
    15
100
AcDbLine
 10
48.00000134850001
 20
12.59287632995001
 30
0.0
 11
48.00000134850001
 21
-61.07554584744999
 31
0.0
  0
LINE
  5
893
330
88F
100
AcDbEntity
  8
0
  6
SLD-Durchgehend
 62
     7
370
    15
100
AcDbLine
 10
47.50000033529999
 20
12.14605290444999
 30
0.0
 11
47.50000033529999
 21
-67.85285472874999
 31
0.0
  0
LINE
  5
894
330
88F
100
AcDbEntity
  8
0
  6
SLD-Durchgehend
 62
     7
370
    15
100
AcDbLine
 10
47.64641169460001
 20
64.68512117865002
 30
0.0
 11
47.64641169460001
 21
17.22141914065001
 31
0.0
  0
LINE
  5
895
330
88F
100
AcDbEntity
  8
0
  6
SLD-Durchgehend
 62
     7
370
    15
100
AcDbLine
 10
47.10000101479999
 20
17.24361814555
 30
0.0
 11
47.10000101479999
 21
73.57208430765
 31
0.0
  0
LINE
  5
896
330
88F
100
AcDbEntity
  8
0
  6
SLD-Durchgehend
 62
     7
370
    15
100
AcDbLine
 10
48.00000134850001
 20
13.22140172125
 30
0.0
 11
48.00000134850001
 21
15.59999492015001
 31
0.0
  0
LINE
  5
897
330
88F
100
AcDbEntity
  8
0
  6
SLD-Durchgehend
 62
     7
370
    15
100
AcDbLine
 10
44.7999993339
 20
12.14605290444999
 30
0.0
 11
47.50000033529999
 21
12.14605290444999
 31
0.0
  0
ARC
  5
898
330
88F
100
AcDbEntity
  8
0
  6
SLD-Durchgehend
 62
     7
370
    15
100
AcDbCircle
 10
61.0750003353
 20
-2.541335525549996
 30
0.0
 40
20.00000000000003
100
AcDbArc
 50
130.8249361567997
 51
132.7460406878995
  0
LINE
  5
899
330
88F
100
AcDbEntity
  8
0
  6
SLD-Durchgehend
 62
     7
370
    15
100
AcDbLine
 10
48.00000134850001
 20
12.59287632995001
 30
0.0
 11
48.00000134850001
 21
13.22140172125
 31
0.0
  0
LINE
  5
89A
330
88F
100
AcDbEntity
  8
0
  6
SLD-Durchgehend
 62
     7
370
    15
100
AcDbLine
 10
48.00000134850001
 20
15.59999492015001
 30
0.0
 11
48.00000134850001
 21
19.98749934135001
 31
0.0
  0
LINE
  5
89B
330
88F
100
AcDbEntity
  8
0
  6
SLD-Durchgehend
 62
     7
370
    15
100
AcDbLine
 10
48.00000134850001
 20
15.59999492015001
 30
0.0
 11
50.59326533230001
 21
15.59999492015001
 31
0.0
  0
ARC
  5
89C
330
88F
100
AcDbEntity
  8
0
  6
SLD-Durchgehend
 62
     7
370
    15
100
AcDbCircle
 10
44.57500033530002
 20
-2.541335525549996
 30
0.0
 40
20.00000000000006
100
AcDbArc
 50
80.13949535499953
 51
81.16610018199983
  0
ELLIPSE
  5
89D
330
88F
100
AcDbEntity
  8
0
  6
SLD-Durchgehend
 62
     7
370
    15
100
AcDbEllipse
 10
36.1837517231
 20
-2.541335525549996
 30
0.0
 11
74.64101615137639
 21
0.0000000000000142
 31
0.0
210
0.0
220
0.0
230
1.0
 40
0.2679491924
 41
1.416615689179764
 42
1.424019885447696
  0
LINE
  5
89E
330
88F
100
AcDbEntity
  8
0
  6
SLD-Durchgehend
 62
     7
370
    15
100
AcDbLine
 10
51.59326735880002
 20
-16.35056734084999
 30
0.0
 11
51.59326735880002
 21
16.35056734084999
 31
0.0
  0
LINE
  5
89F
330
88F
100
AcDbEntity
  8
0
  6
SLD-Durchgehend
 62
     7
370
    15
100
AcDbLine
 10
50.59326533230001
 20
-15.59999492024999
 30
0.0
 11
50.59326533230001
 21
15.59999492015001
 31
0.0
  0
LINE
  5
8A0
330
88F
100
AcDbEntity
  8
0
  6
SLD-Durchgehend
 62
     7
370
    15
100
AcDbLine
 10
53.0000040308
 20
-18.98585446184998
 30
0.0
 11
53.0000040308
 21
18.98585446174998
 31
0.0
  0
LINE
  5
8A1
330
88F
100
AcDbEntity
  8
0
  6
SLD-Durchgehend
 62
     7
370
     0
100
AcDbLine
 10
39.78975582870001
 20
-14.62139096115
 30
0.0
 11
39.78975582870001
 21
-62.33259290454999
 31
0.0
  0
LINE
  5
8A2
330
88F
100
AcDbEntity
  8
0
  6
SLD-Durchgehend
 62
     7
370
     0
100
AcDbLine
 10
39.86046556379999
 20
-14.52368777244998
 30
0.0
 11
39.86046556379999
 21
-62.38435581324999
 31
0.0
  0
LINE
  5
8A3
330
88F
100
AcDbEntity
  8
0
  6
SLD-Durchgehend
 62
     7
370
    15
100
AcDbLine
 10
36.2996766344
 20
-19.61693540215
 30
0.0
 11
36.2996766344
 21
-61.46037206054999
 31
0.0
  0
LINE
  5
8A4
330
88F
100
AcDbEntity
  8
0
  6
SLD-Durchgehend
 62
     7
370
    15
100
AcDbLine
 10
36.35893482710001
 20
-19.61393840614998
 30
0.0
 11
36.35893482710001
 21
-61.46037206054999
 31
0.0
  0
LINE
  5
8A5
330
88F
100
AcDbEntity
  8
0
  6
SLD-Durchgehend
 62
     7
370
    15
100
AcDbLine
 10
36.65555361659999
 20
-19.30628344414998
 30
0.0
 11
36.65555361659999
 21
-61.46037206054999
 31
0.0
  0
LINE
  5
8A6
330
88F
100
AcDbEntity
  8
0
  6
SLD-Durchgehend
 62
     7
370
    15
100
AcDbLine
 10
36.7148118094
 20
-19.30167712274998
 30
0.0
 11
36.7148118094
 21
-61.46037206054999
 31
0.0
  0
LINE
  5
8A7
330
88F
100
AcDbEntity
  8
0
  6
SLD-Durchgehend
 62
     7
370
    15
100
AcDbLine
 10
37.0114305988
 20
-18.89700256294998
 30
0.0
 11
37.0114305988
 21
-61.46037206054999
 31
0.0
  0
LINE
  5
8A8
330
88F
100
AcDbEntity
  8
0
  6
SLD-Durchgehend
 62
     7
370
    15
100
AcDbLine
 10
37.07068879159999
 20
-18.89113150534997
 30
0.0
 11
37.07068879159999
 21
-61.46037206054999
 31
0.0
  0
LINE
  5
8A9
330
88F
100
AcDbEntity
  8
0
  6
SLD-Durchgehend
 62
     7
370
    15
100
AcDbLine
 10
37.3673038557
 20
-18.38292554025
 30
0.0
 11
37.3673038557
 21
-61.46037206054999
 31
0.0
  0
LINE
  5
8AA
330
88F
100
AcDbEntity
  8
0
  6
SLD-Durchgehend
 62
     7
370
    15
100
AcDbLine
 10
37.42656577380002
 20
-18.37572082875
 30
0.0
 11
37.42656577380002
 21
-61.46037206054999
 31
0.0
  0
LINE
  5
8AB
330
88F
100
AcDbEntity
  8
0
  6
SLD-Durchgehend
 62
     7
370
    15
100
AcDbLine
 10
37.7231808379
 20
-17.75494590404997
 30
0.0
 11
37.7231808379
 21
-61.46037206054999
 31
0.0
  0
LINE
  5
8AC
330
88F
100
AcDbEntity
  8
0
  6
SLD-Durchgehend
 62
     7
370
    15
100
AcDbLine
 10
37.782442756
 20
-17.74630509314998
 30
0.0
 11
37.782442756
 21
-61.46037206054999
 31
0.0
  0
LINE
  5
8AD
330
88F
100
AcDbEntity
  8
0
  6
SLD-Durchgehend
 62
     7
370
    15
100
AcDbLine
 10
38.0790578201
 20
-17.00055971744999
 30
0.0
 11
38.0790578201
 21
-61.46037206054999
 31
0.0
  0
LINE
  5
8AE
330
88F
100
AcDbEntity
  8
0
  6
SLD-Durchgehend
 62
     7
370
    15
100
AcDbLine
 10
38.13831601290002
 20
-16.99022203684998
 30
0.0
 11
38.13831601290002
 21
-61.46037206054999
 31
0.0
  0
LINE
  5
8AF
330
88F
100
AcDbEntity
  8
0
  6
SLD-Durchgehend
 62
     7
370
    15
100
AcDbLine
 10
38.4349348023
 20
-16.10179990534999
 30
0.0
 11
38.4349348023
 21
-61.46037206054999
 31
0.0
  0
LINE
  5
8B0
330
88F
100
AcDbEntity
  8
0
  6
SLD-Durchgehend
 62
     7
370
    15
100
AcDbLine
 10
38.4941929951
 20
-16.08962193134999
 30
0.0
 11
38.4941929951
 21
-61.46037206054999
 31
0.0
  0
LINE
  5
8B1
330
88F
100
AcDbEntity
  8
0
  6
SLD-Durchgehend
 62
     7
370
    15
100
AcDbLine
 10
38.79081178460001
 20
-15.03302901984999
 30
0.0
 11
38.79081178460001
 21
-61.46037206054999
 31
0.0
  0
LINE
  5
8B2
330
88F
100
AcDbEntity
  8
0
  6
SLD-Durchgehend
 62
     7
370
    15
100
AcDbLine
 10
38.85006997729997
 20
-15.01853298394998
 30
0.0
 11
38.85006997729997
 21
-61.46037206054999
 31
0.0
  0
LINE
  5
8B3
330
88F
100
AcDbEntity
  8
0
  6
SLD-Durchgehend
 62
     7
370
    15
100
AcDbLine
 10
39.92337826639999
 20
-14.50947206464999
 30
0.0
 11
39.92337826639999
 21
-62.38435581324999
 31
0.0
  0
ENDBLK
  5
8B5
330
88F
100
AcDbEntity
  8
0
100
AcDbBlockEnd
  0
BLOCK
  5
92E
330
923
100
AcDbEntity
  8
0
100
AcDbBlockBegin
  2
*D13
 70
     1
 10
0.0
 20
0.0
 30
0.0
  3
*D13
  1

  0
LINE
  5
954
330
923
100
AcDbEntity
  8
SK2
 62
     0
370
    -2
100
AcDbLine
 10
0.0000006704999862
 20
27.50000133220403
 30
0.0
 11
-37.50895729654289
 21
27.50000133220403
 31
0.0
  0
LINE
  5
955
330
923
100
AcDbEntity
  8
SK2
 62
     0
370
    -2
100
AcDbLine
 10
0.0000006704999826
 20
-27.50000133220398
 30
0.0
 11
-37.50895729654291
 21
-27.50000133220396
 31
0.0
  0
LINE
  5
956
330
923
100
AcDbEntity
  8
SK2
 62
     0
370
    -2
100
AcDbLine
 10
-35.00895729654289
 20
22.93000133220403
 30
0.0
 11
-35.00895729654291
 21
-22.93000133220397
 31
0.0
  0
SOLID
  5
957
330
923
100
AcDbEntity
  8
SK2
 62
     0
100
AcDbTrace
 10
-35.77062396320956
 20
22.93000133220403
 30
0.0
 11
-34.24729062987621
 21
22.93000133220403
 31
0.0
 12
-35.00895729654289
 22
27.50000133220403
 32
0.0
 13
-35.00895729654289
 23
27.50000133220403
 33
0.0
  0
SOLID
  5
958
330
923
100
AcDbEntity
  8
SK2
 62
     0
100
AcDbTrace
 10
-35.77062396320958
 20
-22.93000133220397
 30
0.0
 11
-34.24729062987624
 21
-22.93000133220397
 31
0.0
 12
-35.00895729654291
 22
-27.50000133220396
 32
0.0
 13
-35.00895729654291
 23
-27.50000133220396
 33
0.0
  0
MTEXT
  5
959
330
923
100
AcDbEntity
  8
SK2
 62
     7
100
AcDbMText
 10
-38.79395729654291
 20
0.0000000000000282
 30
0.0
 40
4.57
 41
0.0
 71
     5
 72
     1
  1
\A1;MBM ø55
  7
GENPRESET
 11
0.0000000000000001
 21
1.0
 31
0.0
 73
     1
 44
1.0
  0
POINT
  5
95A
330
923
100
AcDbEntity
  8
Defpoints
 62
     0
100
AcDbPoint
 10
0.0000006704999862
 20
27.50000133220403
 30
0.0
  0
POINT
  5
95B
330
923
100
AcDbEntity
  8
Defpoints
 62
     0
100
AcDbPoint
 10
0.0000006704999826
 20
-27.50000133220398
 30
0.0
  0
POINT
  5
95C
330
923
100
AcDbEntity
  8
Defpoints
 62
     0
100
AcDbPoint
 10
-35.00895729654291
 20
-27.50000133220396
 30
0.0
  0
ENDBLK
  5
92F
330
923
100
AcDbEntity
  8
0
100
AcDbBlockEnd
  0
BLOCK
  5
9E7
330
9DD
100
AcDbEntity
  8
0
100
AcDbBlockBegin
  2
*D14
 70
     1
 10
0.0
 20
0.0
 30
0.0
  3
*D14
  1

  0
LINE
  5
9E9
330
9DD
100
AcDbEntity
  8
2
 62
     0
370
    -2
100
AcDbLine
 10
-30.0
 20
14.09999999999999
 30
0.0
 11
-30.0
 21
45.68422143807306
 31
0.0
  0
LINE
  5
9EA
330
9DD
100
AcDbEntity
  8
2
 62
     0
370
    -2
100
AcDbLine
 10
89.5999986678
 20
26.00000053650002
 30
0.0
 11
89.5999986678
 21
45.68422143807306
 31
0.0
  0
LINE
  5
9EB
330
9DD
100
AcDbEntity
  8
2
 62
     0
370
    -2
100
AcDbLine
 10
-25.42999999999999
 20
43.18422143807306
 30
0.0
 11
85.02999866779999
 21
43.18422143807306
 31
0.0
  0
SOLID
  5
9EC
330
9DD
100
AcDbEntity
  8
2
 62
     0
100
AcDbTrace
 10
-25.42999999999999
 20
43.94588810473972
 30
0.0
 11
-25.42999999999999
 21
42.42255477140639
 31
0.0
 12
-30.0
 22
43.18422143807306
 32
0.0
 13
-30.0
 23
43.18422143807306
 33
0.0
  0
SOLID
  5
9ED
330
9DD
100
AcDbEntity
  8
2
 62
     0
100
AcDbTrace
 10
85.02999866779999
 20
43.94588810473972
 30
0.0
 11
85.02999866779999
 21
42.42255477140639
 31
0.0
 12
89.5999986678
 22
43.18422143807306
 32
0.0
 13
89.5999986678
 23
43.18422143807306
 33
0.0
  0
MTEXT
  5
9EE
330
9DD
100
AcDbEntity
  8
2
 62
     7
100
AcDbMText
 10
29.79999933389999
 20
46.96922143807307
 30
0.0
 40
4.57
 41
0.0
 71
     5
 72
     1
  1
\A1;119.6
  7
GENPRESET
 73
     1
 44
1.0
  0
POINT
  5
9EF
330
9DD
100
AcDbEntity
  8
Defpoints
 62
     0
100
AcDbPoint
 10
-30.0
 20
14.09999999999999
 30
0.0
  0
POINT
  5
9F0
330
9DD
100
AcDbEntity
  8
Defpoints
 62
     0
100
AcDbPoint
 10
89.5999986678
 20
26.00000053650002
 30
0.0
  0
POINT
  5
9F1
330
9DD
100
AcDbEntity
  8
Defpoints
 62
     0
100
AcDbPoint
 10
89.5999986678
 20
43.18422143807306
 30
0.0
  0
ENDBLK
  5
9E8
330
9DD
100
AcDbEntity
  8
0
100
AcDbBlockEnd
  0
ENDSEC
  0
SECTION
  2
ENTITIES
  0
MTEXT
  5
36
330
1F
100
AcDbEntity
  8
5
100
AcDbMText
 10
-45.05674496912265
 20
-72.7579320219224
 30
0.0
 40
4.57
 41
0.0
 71
     1
 72
     1
  1
146.550.000
  7
GENPRESET
 73
     1
 44
1.0
  0
MTEXT
  5
37
330
1F
100
AcDbEntity
  8
5
100
AcDbMText
 10
-45.01296179632265
 20
-64.71879322902243
 30
0.0
 40
4.57
 41
0.0
 71
     1
 72
     1
  1
Zweischneiderkopf_Twin cutter boring head ø86-ø402
  7
GENPRESET
 73
     1
 44
1.0
  0
LINE
  5
58
330
1F
100
AcDbEntity
  8
1
100
AcDbLine
 10
0.0000006704999862
 20
-27.39282032299998
 30
0.0
 11
0.0000006704999862
 21
27.39282032300003
 31
0.0
  0
LINE
  5
9C
330
1F
100
AcDbEntity
  8
3
100
AcDbLine
 10
0.0
 20
-22.63183453639999
 30
0.0
 11
0.475046229599997
 21
-21.6130946094
 31
0.0
  0
LINE
  5
9D
330
1F
100
AcDbEntity
  8
3
100
AcDbLine
 10
0.475046229599997
 20
21.61309460939998
 30
0.0
 11
0.0
 21
22.63183453639999
 31
0.0
  0
ARC
  5
9E
330
1F
100
AcDbEntity
  8
3
100
AcDbCircle
 10
-0.25
 20
-21.27499999999999
 30
0.0
 40
0.8000000000000254
100
AcDbArc
 50
335.0
 51
0.0
  0
ARC
  5
9F
330
1F
100
AcDbEntity
  8
3
100
AcDbCircle
 10
-0.25
 20
-21.27499999999999
 30
0.0
 40
0.8000000000000254
100
AcDbArc
 50
0.0
 51
71.79004313570001
  0
ARC
  5
A0
330
1F
100
AcDbEntity
  8
3
100
AcDbCircle
 10
-0.25
 20
21.27499999999999
 30
0.0
 40
0.8000000000000152
100
AcDbArc
 50
345.625
 51
25.0
  0
ARC
  5
A1
330
1F
100
AcDbEntity
  8
3
100
AcDbCircle
 10
-0.25
 20
21.27499999999999
 30
0.0
 40
0.8000000000000293
100
AcDbArc
 50
288.2099568642999
 51
345.625
  0
LINE
  5
A2
330
1F
100
AcDbEntity
  8
3
100
AcDbLine
 10
0.5500000000000114
 20
-21.27499999999999
 30
0.0
 11
0.5500000000000114
 21
21.27499999999999
 31
0.0
  0
LINE
  5
FD
330
1F
100
AcDbEntity
  8
SK4
100
AcDbLine
 10
-30.0
 20
0.0
 30
0.0
 11
0.0
 21
0.0
 31
0.0
  0
CIRCLE
  5
1CE
330
1F
100
AcDbEntity
  8
SK1
100
AcDbCircle
 10
-14.19999999999999
 20
0.0
 30
0.0
 40
4.000000000000006
  0
LINE
  5
1CF
330
1F
100
AcDbEntity
  8
SK1
100
AcDbLine
 10
-30.0
 20
-14.09999999999999
 30
0.0
 11
-30.0
 21
14.09999999999999
 31
0.0
  0
CIRCLE
  5
1D0
330
1F
100
AcDbEntity
  8
SK1
100
AcDbCircle
 10
-14.19999999999999
 20
0.0
 30
0.0
 40
4.942344702964468
  0
LWPOLYLINE
  5
1D1
330
1F
100
AcDbEntity
  8
SK1
100
AcDbPolyline
 90
       20
 70
   128
 43
0.0
 10
-20.94999999999998
 20
0.0
 10
-20.90063933869998
 20
0.6767369767500071
 10
-20.73598965199998
 20
1.400911859999991
 10
-20.45612188589998
 20
2.106737529349999
 10
-20.06276167499998
 20
2.782681854800002
 10
-19.56836317904999
 20
3.406654401099997
 10
-18.64420103779998
 20
4.235854434949998
 10
-17.6477709743
 20
4.84453313985
 10
-16.5282176188
 20
5.295072258450002
 10
-15.36991795814999
 20
5.559809324400005
 10
-14.14818960759999
 20
5.6464416469
 10
-12.92872730774999
 20
5.543982780950003
 10
-11.71075888435
 20
5.242960059049991
 10
-10.59651999349999
 20
4.764030003499994
 10
-9.555473373300003
 20
4.082530322599993
 10
-8.843557847799997
 20
3.419704283000001
 10
-8.234052702499994
 20
2.626061678400001
 10
-7.853624776900005
 20
1.910810475200008
 10
-7.585777725249997
 20
1.118966402949989
 10
-7.449999999999986
 20
0.0
  0
LINE
  5
1D2
330
1F
100
AcDbEntity
  8
SK1
100
AcDbLine
 10
-26.0
 20
-15.0
 30
0.0
 11
-26.0
 21
15.0
 31
0.0
  0
LINE
  5
1D3
330
1F
100
AcDbEntity
  8
SK1
100
AcDbLine
 10
-5.788334699949999
 20
-15.0
 30
0.0
 11
-5.788334699949999
 21
15.0
 31
0.0
  0
LINE
  5
1D4
330
1F
100
AcDbEntity
  8
SK1
100
AcDbLine
 10
-26.0
 20
-15.0
 30
0.0
 11
-5.788334699949999
 21
-15.0
 31
0.0
  0
ARC
  5
1D5
330
1F
100
AcDbEntity
  8
SK1
100
AcDbCircle
 10
-29.19999999999999
 20
-14.09999999999999
 30
0.0
 40
0.8000000000000044
100
AcDbArc
 50
180.0
 51
280.0
  0
ARC
  5
1D6
330
1F
100
AcDbEntity
  8
SK1
100
AcDbCircle
 10
-28.05027270489999
 20
-15.1157839917
 30
0.0
 40
0.3999999999999986
100
AcDbArc
 50
82.00000000000008
 51
100.0000000000001
  0
LINE
  5
1D7
330
1F
100
AcDbEntity
  8
SK1
100
AcDbLine
 10
-29.06108145784999
 20
-14.88784620239998
 30
0.0
 11
-28.119731976
 21
-14.72186089049999
 31
0.0
  0
LINE
  5
1D8
330
1F
100
AcDbEntity
  8
SK1
100
AcDbLine
 10
-27.99460346454997
 20
-14.7196767642
 30
0.0
 11
-26.0
 21
-15.0
 31
0.0
  0
LWPOLYLINE
  5
1DA
330
1F
100
AcDbEntity
  8
SK1
100
AcDbPolyline
 90
       21
 70
   128
 43
0.0
 10
-7.449999999999986
 20
0.0
 10
-7.480888330650002
 20
-0.5356843697000075
 10
-7.624476147800009
 20
-1.266699489449989
 10
-7.885670644149992
 20
-1.982905565299985
 10
-8.257120846299997
 20
-2.662106009150008
 10
-8.730205990000001
 20
-3.292356966449986
 10
-9.366095261249997
 20
-3.925706672650008
 10
-10.10061297549998
 20
-4.473194231349991
 10
-11.04236275354999
 20
-4.982081343299991
 10
-12.0774144831
 20
-5.355942475299997
 10
-13.25582190605
 20
-5.590217468299995
 10
-14.49335345289999
 20
-5.641189766699992
 10
-15.708157274
 20
-5.501661172949993
 10
-16.91451420679999
 20
-5.163268941599993
 10
-18.01152964999998
 20
-4.648671824849997
 10
-19.0280286353
 20
-3.9307597568
 10
-19.6988586856
 20
-3.258476673299995
 10
-20.2658474977
 20
-2.4622338283
 10
-20.61535579475
 20
-1.744232855149999
 10
-20.85141070089997
 20
-0.9547501940999863
 10
-20.94999999999998
 20
0.0
  0
LINE
  5
1DB
330
1F
100
AcDbEntity
  8
SK1
100
AcDbLine
 10
-1.606834536349991
 20
-21.02499999999998
 30
0.0
 11
-1.606834536349991
 21
-13.64003757324998
 31
0.0
  0
LINE
  5
1DC
330
1F
100
AcDbEntity
  8
SK1
100
AcDbLine
 10
-3.950000000000001
 20
-21.02499999999998
 30
0.0
 11
-1.606834536349991
 21
-21.02499999999998
 31
0.0
  0
LINE
  5
1DD
330
1F
100
AcDbEntity
  8
SK1
100
AcDbLine
 10
-1.606834536349991
 20
-13.64003757324998
 30
0.0
 11
-3.950000000000001
 21
-13.64003757324998
 31
0.0
  0
LINE
  5
1DE
330
1F
100
AcDbEntity
  8
SK1
100
AcDbLine
 10
-5.788334699949999
 20
-15.0
 30
0.0
 11
-4.957055236049995
 21
-14.77725933894999
 31
0.0
  0
ARC
  5
1DF
330
1F
100
AcDbEntity
  8
SK1
100
AcDbCircle
 10
-4.75
 20
-15.54999999999999
 30
0.0
 40
0.8000000000000085
100
AcDbArc
 50
0.0
 51
105.0000000000002
  0
LINE
  5
1E0
330
1F
100
AcDbEntity
  8
SK1
100
AcDbLine
 10
-5.788334699949999
 20
15.0
 30
0.0
 11
-26.0
 21
15.0
 31
0.0
  0
ARC
  5
1E2
330
1F
100
AcDbEntity
  8
SK1
100
AcDbCircle
 10
-29.19999999999999
 20
14.09999999999999
 30
0.0
 40
0.8000000000000044
100
AcDbArc
 50
79.9999999999998
 51
180.0
  0
ARC
  5
1E3
330
1F
100
AcDbEntity
  8
SK1
100
AcDbCircle
 10
-28.05027270489999
 20
15.1157839917
 30
0.0
 40
0.4000000000000056
100
AcDbArc
 50
259.9999999999998
 51
277.9999999999999
  0
LINE
  5
1E4
330
1F
100
AcDbEntity
  8
SK1
100
AcDbLine
 10
-28.119731976
 20
14.72186089049999
 30
0.0
 11
-29.06108145784999
 21
14.88784620239998
 31
0.0
  0
LINE
  5
1E5
330
1F
100
AcDbEntity
  8
SK1
100
AcDbLine
 10
-26.0
 20
15.0
 30
0.0
 11
-27.99460346454997
 21
14.7196767642
 31
0.0
  0
LINE
  5
1E6
330
1F
100
AcDbEntity
  8
SK1
100
AcDbLine
 10
-1.606834536349991
 20
13.64003757324998
 30
0.0
 11
-3.950000000000001
 21
13.64003757324998
 31
0.0
  0
LINE
  5
1E7
330
1F
100
AcDbEntity
  8
SK1
100
AcDbLine
 10
-4.957055236049995
 20
14.77725933894999
 30
0.0
 11
-5.788334699949999
 21
15.0
 31
0.0
  0
ARC
  5
1E8
330
1F
100
AcDbEntity
  8
SK1
100
AcDbCircle
 10
-4.75
 20
15.54999999999999
 30
0.0
 40
0.7999999999999971
100
AcDbArc
 50
254.9999999999995
 51
0.0
  0
LINE
  5
1E9
330
1F
100
AcDbEntity
  8
SK1
100
AcDbLine
 10
-3.950000000000001
 20
-21.02499999999998
 30
0.0
 11
-3.949999999999988
 21
21.02499999999998
 31
0.0
  0
LINE
  5
1EA
330
1F
100
AcDbEntity
  8
SK1
100
AcDbLine
 10
-1.606834536349991
 20
13.64003757324998
 30
0.0
 11
-1.606834536349991
 21
21.02499999999998
 31
0.0
  0
LINE
  5
1EB
330
1F
100
AcDbEntity
  8
SK1
100
AcDbLine
 10
-0.5880946094000024
 20
12.8957589914
 30
0.0
 11
-1.606834536349991
 21
13.64003757324998
 31
0.0
  0
LINE
  5
1EC
330
1F
100
AcDbEntity
  8
SK1
100
AcDbLine
 10
-1.606834536349991
 20
21.02499999999998
 30
0.0
 11
-3.950000000000001
 21
21.02499999999998
 31
0.0
  0
LINE
  5
1ED
330
1F
100
AcDbEntity
  8
SK1
100
AcDbLine
 10
-0.5880946093499944
 20
20.54995377039998
 30
0.0
 11
-1.606834536349991
 21
21.02499999999998
 31
0.0
  0
LINE
  5
1EE
330
1F
100
AcDbEntity
  8
SK3
100
AcDbLine
 10
-26.0987083894
 20
7.0
 30
0.0
 11
0.0
 21
7.0
 31
0.0
  0
LINE
  5
1EF
330
1F
100
AcDbEntity
  8
SK3
100
AcDbLine
 10
0.0
 20
-7.0
 30
0.0
 11
-26.0987083894
 21
-7.0
 31
0.0
  0
LINE
  5
1F0
330
1F
100
AcDbEntity
  8
SK1
100
AcDbLine
 10
-0.1499999999999915
 20
12.78603181264998
 30
0.0
 11
-0.1499999999999915
 21
-12.78603181264998
 31
0.0
  0
ARC
  5
1F1
330
1F
100
AcDbEntity
  8
SK1
100
AcDbCircle
 10
-0.2490740635000037
 20
13.31989824195
 30
0.0
 40
0.5429816151209015
100
AcDbArc
 50
231.3641575182998
 51
280.5132565499999
  0
ARC
  5
1F2
330
1F
100
AcDbEntity
  8
SK1
100
AcDbCircle
 10
-0.25
 20
21.27499999999999
 30
0.0
 40
0.7999999999999984
100
AcDbArc
 50
245.0000000000003
 51
288.2099568642999
  0
LWPOLYLINE
  5
1F3
330
1F
100
AcDbEntity
  8
SK1
100
AcDbPolyline
 90
        3
 70
   128
 43
0.0
 10
-1.606834536349991
 20
-13.64003757324998
 10
-0.8737795698500008
 20
-13.10700410574999
 10
-0.5880946093499944
 20
-12.89575899139998
  0
ARC
  5
1F4
330
1F
100
AcDbEntity
  8
SK1
100
AcDbCircle
 10
-0.2491211378999907
 20
-13.31971029359998
 30
0.0
 40
0.5428054172628256
100
AcDbArc
 50
79.47823807290022
 51
128.6443478599994
  0
LINE
  5
1F5
330
1F
100
AcDbEntity
  8
SK1
100
AcDbLine
 10
-1.606834536349991
 20
-21.02499999999998
 30
0.0
 11
-0.5880946093499944
 21
-20.54995377034998
 31
0.0
  0
ARC
  5
1F6
330
1F
100
AcDbEntity
  8
SK1
100
AcDbCircle
 10
-0.25
 20
-21.27499999999999
 30
0.0
 40
0.8000000000000115
100
AcDbArc
 50
71.79004313569997
 51
114.9999999999996
  0
LINE
  5
20E
330
1F
100
AcDbEntity
  8
4
100
AcDbLine
 10
0.0
 20
0.0
 30
0.0
 11
89.5999986678
 21
0.0
 31
0.0
  0
REGION
  5
23E
330
1F
100
AcDbEntity
  8
5
100
AcDbModelerGeometry
 70
     1
  1
koo hn n o          
  1
h J1410(1 nl ^ \VL kqoqm QK mk H:; U>1 ni ohemlemi moog 
  1
rn fqfffffffffffffffj:rooh n:rono 
  1
=0;& {rn {n {rn {rn |
  1
3*2/ {rn {rn {m {o |
  1
,7:33 {rn {rn {rn {l {rn {n |
  1
9><: {rn {rn {k {m {rn {j 90-(>-; ;0*=3: 0*+ |
  1
300/ {rn {rn {i {l |
  1
/3>1:r,*-9><: {rn rllqnoollmkhhjgliil rjjqfnklohjhokohmki o o o n m o o 90-(>-;@) V V V V |
  1
<0:;8: {rn {h {g {rn {f -:):-,:; {k {rn |
  1
<0:;8: {rn {no {i {rn {nn -:):-,:; {k {rn |
  1
<0:;8: {rn {i {nm {rn {nl -:):-,:; {k {rn |
  1
:;8: {rn {nk {nj {i {ni 90-(>-; |
  1
<0:;8: {rn {nh {h {rn {ng -:):-,:; {k {rn |
  1
:;8: {rn {nf {nk {h {mo 90-(>-; |
  1
<0:;8: {rn {g {mn {rn {mm -:):-,:; {k {rn |
  1
:;8: {rn {nj {ml {g {mk 90-(>-; |
  1
):-+:' {rn {f {mj |
  1
):-+:' {rn {f {mi |
  1
,+->687+r<*-): {rn rliqojfijggijlmjfkl rioqookfmfjgjklfjif o roqjlmonliifjkjgkgfk nqfmhfkmmgjmfngkfh o V V |
  1
<0:;8: {rn {mh {no {rn {mg -:):-,:; {k {rn |
  1
:;8: {rn {mf {nf {no {lo 90-(>-; |
  1
):-+:' {rn {ng {ln |
  1
,+->687+r<*-): {rn rlkqlinmmfgghkhgkhl rioqookfmfjgjklfjif o rm o o V V |
  1
<0:;8: {rn {nm {lm {rn {ll -:):-,:; {k {rn |
  1
:;8: {rn {ml {lk {nm {lj 90-(>-; |
  1
):-+:' {rn {nl {li |
  1
,+->687+r<*-): {rn rlgqojlmominjfgiogn rjmqhgoiofonfofknnj o m o o V V |
  1
/061+ {rn rliqojfijggijlmjfkl rioqookfmfjgjklfjif o |
  1
/061+ {rn rlgqojlmominjfgiogn rjmqhgoiofonfofknnj o |
  1
<0:;8: {rn {lh {nh {rn {lg -:):-,:; {k {rn |
  1
:;8: {rn {lf {mf {nh {ko 90-(>-; |
  1
):-+:' {rn {mg {kn |
  1
,+->687+r<*-): {rn rllqnmlfijolkfhkmoj rjjqmokmilffgonlllm o roqkffnkkjioljfmlmll rnqflihnmlkjnjnfokk o V V |
  1
/061+ {rn rlkqlinmmfgghkhgkhl rioqookfmfjgjklfjif o |
  1
<0:;8: {rn {mn {km {rn {kl -:):-,:; {k {rn |
  1
:;8: {rn {lk {kk {mn {kj 90-(>-; |
  1
):-+:' {rn {mm {ki |
  1
,+->687+r<*-): {rn rliqllhjnllimnijhg rjmqhgoiofonfofknnj o oqkjfngfjmfijlloohl rnqfkijhmimmgojhloj o V V |
  1
/061+ {rn rliqllhjnllimnijhg rjmqhgoiofonfofknnj o |
  1
<0:;8: {rn {kh {mh {rn {kg -:):-,:; {k {rn |
  1
:;8: {rn {kf {lf {mh {jo 90-(>-; |
  1
):-+:' {rn {lg {jn |
  1
,+->687+r<*-): {rn rlnqhhkmnffnngiofmj rioqookfmfjgjklfjif o roqjknlmigjnonmjgikf nqfmjlkgogmfnnfifg o V V |
  1
/061+ {rn rllqnmlfijolkfhkmoj rjjqmokmilffgonlllm o |
  1
<0:;8: {rn {lm {jm {rn {jl -:):-,:; {k {rn |
  1
:;8: {rn {kk {jk {lm {jj 90-(>-; |
  1
):-+:' {rn {ll {ji |
  1
,+->687+r<*-): {rn rljqmmihhgojmgjjjmm rjhqkgfngofgokhgfoi o oqjkiffiokfiomonjof nqfmlhkjnmfofjhflm o V V |
  1
/061+ {rn rljqmmihhgojmgjjjmm rjhqkgfngofgokhgfoi o |
  1
<0:;8: {rn {jm {lh {rn {jh -:):-,:; {k {rn |
  1
:;8: {rn {jg {kf {lh {jf 90-(>-; |
  1
):-+:' {rn {kg {io |
  1
,+->687+r<*-): {rn rloqnmohgmhkongholf rioqookfmfjgjklfjif o rm o o V V |
  1
/061+ {rn rlnqhhkmnffnngiofmj rioqookfmfjgjklfjif o |
  1
<0:;8: {rn {km {kh {rn {in -:):-,:; {k {rn |
  1
:;8: {rn {jk {im {km {il 90-(>-; |
  1
):-+:' {rn {kl {ik |
  1
,+->687+r<*-): {rn rllqgghfkihnikmmmil rjmqhgoiofonfofknnj o m o o V V |
  1
/061+ {rn rllqgghfkihnikmmmil rjmqhgoiofonfofknnj o |
  1
:;8: {rn {ij {jg {kh {ii 90-(>-; |
  1
):-+:' {rn {jh {ih |
  1
,+->687+r<*-): {rn rmgqnjkimnimgfjjlmi rjmqhgoiofonfofknnj o roqjmjmnllmokmjomhkk rnqfmfgojfkojnjmfli o V V |
  1
/061+ {rn rloqnmohgmhkongholf rioqookfmfjgjklfjif o |
  1
:;8: {rn {im {ij {jm {ig 90-(>-; |
  1
):-+:' {rn {jl {if |
  1
,+->687+r<*-): {rn rlmqlnnofflhimijjnh rjmqhgoiofonfofknnj o oqjojlgfiiloigogfgi rnqfljofmoimonmjlkh o V V |
  1
/061+ {rn rlmqlnnofflhimijjnh rjmqhgoiofonfofknnj o |
  1
):-+:' {rn {in {ho |
  1
,+->687+r<*-): {rn rmfqgnnfkikkoiihogi rjmqhgoiofonfofknnj o m o o V V |
  1
/061+ {rn rmgqnjkimnimgfjjlmi rjmqhgoiofonfofknnj o |
  1
,+->687+r<*-): {rn rlnqognljhjhjkklmhg rjhqkgfngofgokhgfoi o oqjmoioknljjlnghihf nqflnojkkinhokokh o V V |
  1
/061+ {rn rlnqognljhjhjkklmhg rjhqkgfngofgokhgfoi o |
  1
/061+ {rn rmfqgnnfkikkoiihogi rjmqhgoiofonfofknnj o |
  0
REGION
  5
23F
330
1F
100
AcDbEntity
  8
5
100
AcDbModelerGeometry
 70
     1
  1
koo mi n o          
  1
h J1410(1 nl ^ \VL kqoqm QK mk H:; U>1 ni ohemlemi moog 
  1
rn fqfffffffffffffffj:rooh n:rono 
  1
=0;& {rn {n {rn {rn |
  1
3*2/ {rn {rn {m {o |
  1
,7:33 {rn {rn {rn {l {rn {n |
  1
9><: {rn {rn {k {m {rn {j 90-(>-; ;0*=3: 0*+ |
  1
300/ {rn {rn {i {l |
  1
/3>1:r,*-9><: {rn rjqoinihmollmimjfi rjiqngiimjoghllffkg o o o n m o o 90-(>-;@) V V V V |
  1
<0:;8: {rn {h {g {rn {f -:):-,:; {k {rn |
  1
<0:;8: {rn {no {i {rn {nn -:):-,:; {k {rn |
  1
<0:;8: {rn {i {no {rn {nm -:):-,:; {k {rn |
  1
:;8: {rn {nl {nk {i {nj 90-(>-; |
  1
<0:;8: {rn {g {h {rn {ni -:):-,:; {k {rn |
  1
:;8: {rn {nh {nl {h {ng 90-(>-; |
  1
:;8: {rn {nk {nf {g {mo 90-(>-; |
  1
):-+:' {rn {f {mn |
  1
):-+:' {rn {f {mm |
  1
,+->687+r<*-): {rn lkqgklmhjhnlmofmii rimqmnhkgnjklgfnkmk o rm o o V V |
  1
:;8: {rn {nf {nh {no {ml 90-(>-; |
  1
):-+:' {rn {ni {mk |
  1
,+->687+r<*-): {rn lkqgklmhjhnlmofmii rjoqnjjhigilohggkhm o mqljiljhikkijlllgm:ronj rm o V V |
  1
):-+:' {rn {nm {mj |
  1
,+->687+r<*-): {rn rkkqfiiinfhhfhlkkkk rimqmnhkgnjklgfnkmk o o m o V V |
  1
/061+ {rn lkqgklmhjhnlmofmii rimqmnhkgnjklgfnkmk o |
  1
/061+ {rn rkkqfiiinfhhfhlkkkk rimqmnhkgnjklgfnkmk o |
  1
,+->687+r<*-): {rn rkkqfiiinfhhfhlkkkk rjoqnjjhigilohggkhm o m o o V V |
  1
/061+ {rn lkqgklmhjhnlmofmii rjoqnjjhigilohggkhm o |
  1
/061+ {rn rkkqfiiinfhhfhlkkkk rjoqnjjhigilohggkhm o |
  0
REGION
  5
240
330
1F
100
AcDbEntity
  8
5
100
AcDbModelerGeometry
 70
     1
  1
koo mi n o          
  1
h J1410(1 nl ^ \VL kqoqm QK mk H:; U>1 ni ohemlemi moog 
  1
rn fqfffffffffffffffj:rooh n:rono 
  1
=0;& {rn {n {rn {rn |
  1
3*2/ {rn {rn {m {o |
  1
,7:33 {rn {rn {rn {l {rn {n |
  1
9><: {rn {rn {k {m {rn {j -:):-,:; ;0*=3: 0*+ |
  1
300/ {rn {rn {i {l |
  1
/3>1:r,*-9><: {rn rknqiihfjfhnfmhjmln rjiqlfngijkmlfnnogj o o o rn rm o o 90-(>-;@) V V V V |
  1
<0:;8: {rn {h {g {rn {f -:):-,:; {k {rn |
  1
<0:;8: {rn {no {i {rn {nn 90-(>-; {k {rn |
  1
<0:;8: {rn {i {no {rn {nm 90-(>-; {k {rn |
  1
:;8: {rn {nl {nk {i {nj 90-(>-; |
  1
<0:;8: {rn {g {h {rn {ni 90-(>-; {k {rn |
  1
:;8: {rn {nl {nh {h {ng 90-(>-; |
  1
:;8: {rn {nf {nk {g {mo 90-(>-; |
  1
):-+:' {rn {f {mn |
  1
):-+:' {rn {f {mm |
  1
61+<*-):r<*-): {rn 90-(>-; $ :'><+<*- 1*=, l 0/:1 mk 
  1
 o l oqligokiljfljmjmjj n oqikiffjgmifofigklg n nqoigjglohkoojklhk n nqiohihjljnioiinng n 
  1
 nqfhmmojknmiffgfof n mqnfkhjgmkmhhogjlf n mqioinmmijimmmlmmg n lqnlhnlfiiikkokmkj n lqifnmlfgjmonggmhk n 
  1
 kqokoilfionkiiffnk n kqlffkggihjloikjmk n kqgnjjkihfkomhonmj n jqljoknhiinlnnjjjf n jqgnogkngnofmjifjk n 
  1
 iqmmhnfffmkgnlkoni n iqinkmilhmmmoihgkk n hqkgfigmoofjhoomml n hqgihgfiogmnmng n gqmjlnglnofmnkimnl n 
  1
 gqjjhhkmomokmlmfin n gqhimgololoifolglj n fqnknnhijkkiknoojg n fqmjiilgghlkomkimn l 
  1
 rkoqlmiljmgifofhjll rjjqogojhmoknnmlolk o 
  1
 rkoqljmnfflhilinjk rjkqgmmljogkgimmmli o 
  1
 rkoqlfhiljkjmlmoi rjkqligknggnoijkoil o 
  1
 rknqojkokgnnnkijinf rjlqfkkgjikklnkohmm o 
  1
 rknqgkkflmongggmhjg rjlqfokoiflnlgohggn o 
  1
 rkmqfmgjfngomlmnjfn rjlqflhfkfokiifooli o 
  1
 rklqokgnihomlhlhomm rjkqgggfgkimmmkmfkk o 
  1
 rkmqjkmlmhhmhkfijh rjjqlgjnjkokfmjmjlk o 
  1
 rknqhlfogonnkjifhol rjjqkhnohijmnfnlini o 
  1
 rkoqhgmohngmommhmjf rjjqhokoojoknmfggji o 
  1
 rlfqglkofjomknljojl rjjqfononnollhilnk o 
  1
 rlfqofjfoifnkifgnoj rjiqlmknlikfokfjklk o 
  1
 rlgqjhfonooomnnjmgm rjiqfonifloolkhflii o 
  1
 rlgqlfmkhlkonhgjffm rjhqhgognmjnfnmmghj o 
  1
 rlgqjmgfhmjioigjfkl rjgqhjhfingmlfffhfl o 
  1
 rlfqnfighmggmijknfn rjfqkhfliknlllkmool o 
  1
 rlfqfkmfkijklmkohfk rjfqghhklfnmhgonhog o 
  1
 rknqonimiohihffmfhj rioqmlkonimjfoofili o 
  1
 rkmqnlholjjhjkjghjk rioqnmohgohikkgmnhh o 
  1
 rklqmnogomiofoomifg rjfqfmjifglgohjnkmh o 
  1
 rklqgiknihfnijmhiil rjfqioofngomkjlmhgg o 
  1
 rkkqmhfkognlhihkfm rjfqnimfknilnhglgml o 
  1
 rkkqiinohikmmkkkonm rjgqhmnnlifojhojgkg o 
  1
 rkkqhjifhlfmmhffgon rjgqnjlginjoflfgjlg o 
  1
 rkkqgofgnjlmlggjknh rjhqfjhnjjnjmmikhkh o 
  1
 rkkqglkffklnihhojoj rjhqjmmhhomooominjf o 
  1
 o 
  1
 1*33@,*-9><: 
  1
 1*33@,*-9><: 
  1
 1*33=, 
  1
 1*33=, 
  1
 V V 
  1
 o 
  1
 o 
  3
 mm oqligokiljfljmjmjj oqikiffjgmifofigklg nqoigjglohkoojklhk nqiohihjljnioiinng nqfhmmojknmiffgfof mqnfkhjgmkmhhogjlf mqioinmmijimmmlmmg lqnlhnlfiiikkokmkj lqifnmlfgjmonggmhk kqokoilfionkiiffnk kqlffkggihjloikjmk kqgnjjkihfkomhonmj jqljoknhiinlnnjjjf jqg
  1
nogkngnofmjifjk iqmmhnfffmkgnlkoni iqinkmilhmmmoihgkk hqkgfigmoofjhoomml hqgihgfiogmnmng gqmjlnglnofmnkimnl gqjjhhkmomokmlmfin gqhimgololoifolglj fqnknnhijkkiknoojg 
  1
 Y n Y o " V V |
  1
:;8: {rn {nh {nf {no {ml 90-(>-; |
  1
):-+:' {rn {ni {mk |
  1
,+->687+r<*-): {rn rkoqlmiljmgifofhjll rjjqogojhmoknnmlolk o nqfffffggjlnomnhjn roqoomnkngiioojnojinfi o V V |
  1
):-+:' {rn {nm {mj |
  1
,+->687+r<*-): {rn rklqmkfgkhiojmokmlg rjhqjmoijmllikkooml o rnqfffffgmnkfmjoklf roqoomihmnlllkfklhngfk o V V |
  1
/061+ {rn rkoqlmiljmgifofhjll rjjqogojhmoknnmlolk o |
  1
/061+ {rn rkkqglkffklnihhojoj rjhqjmmhhomooominjf o |
  1
61+<*-):r<*-): {rn 90-(>-; $ :'><+<*- 1*=, l 0/:1 mg 
  1
 o l oqlfigjomnhmmhnoggk n oqhmihgjfojjnjijimj n nqongknlhimogofofh n nqmhjijkomimihfkmn n 
  1
 nqjjhhfooifjkllfmm n nqginnnojigjoifhom n mqjkkgnlhjikjngfjl n mqgnmoofmlhlingolh n lqokfffiohonmmmllj n 
  1
 lqlloonlmhgjlffngk n lqjhjiljhgilhmngkg n lqflkijnjffnhfgkfk n kqklfnimomimokiofi n kqihhohhmgmkfjfon n 
  1
 kqfjglhmkoiilonmjg n jqlmoknigoglljkill n jqijoooimimfnhomng n iqnnmooijfhfmfnkjk n iqillkinjnnhkjhlfi n 
  1
 iqfknhinkfmmgkfnmf n hqmokikooliljffifi n hqkfmhhkhgfkhifngl n hqhnffflnfkkoglkjn n gqmmhonmnijoikjmjg n 
  1
 gqhgfgkommjlomnifh n fqnlnohigkhjkjhkmm n fqlggifigilfmffjgm l 
  1
 rlgqhkjnggfkfjfgnom rjjqogmmijlimhnhfoj o 
  1
 rlgqhlignljgijoiogg rjkqgnngnggogfmhgig o 
  1
 rlgqhmnkhjoikljngik rjkqlnijmihfkjihnfi o 
  1
 rlfqohlogmgjhkhfnog rjlqhnknmloiigjjkfl o 
  1
 rlfqkinhfokjjgllgmn rjlqmiojgfohllkjkgi o 
  1
 rlfqfhgilglgjlggkfl rjlqolfhigihjfmmf o 
  1
 rkoqkgjlhmgnhigmhl rjmqhfmjhoinlkgomog o 
  1
 rknqllnjlfgnomiinhf rjmqihkgolggfgofnmh o 
  1
 rkmqnhlggnnooofnmog rjmqijfoglkgfjgloig o 
  1
 rkmqfjllkolfjonlhfh rjmqgmkjnkfkfilfhkf o 
  1
 rklqkljiffkjnmlmjml rjlqokomhokgfkjohhi o 
  1
 rklqgkofkighhmghmof rjlqlkfhfkhgiifjlif o 
  1
 rkkqmfkjjfjlihgkoik rjlqhlinokkomhinjif o 
  1
 rkkqimnmjgjgjiokihf rjkqkmnkfonkjhmfhkf o 
  1
 rkkqiilgmoknlhkiim rjjqnfgjfomlhfikjgn o 
  1
 rkkqliglnlojljlofmi rjjqgmninnhiomgkhlf o 
  1
 rklqffgikngohlgjjgm rjiqmfkmlkfnfkjjmfm o 
  1
 rklqkoongkfgnfninnm rjiqjgnonlhgihimmji o 
  1
 rkmqigllljnllmhnjmh rjiqgjnilglloihknoi o 
  1
 rknqgngnkgkokigimjj rjhqomfkmgjmjggili o 
  1
 rkoqfgnligikmilhkhh rjhqnjkgkjnhmojlmnk o 
  1
 rkoqminknflnfnnhgoi rjhqkkmjloinmfifklj o 
  1
 rkoqolligfnhogiihij rjgqomnfkinlimomhkl o 
  1
 rkoqmohfkniiniohlmm rjgqjgkkioolhnkohkk o 
  1
 rkoqghmhmijkghjhiif rjgqgiojlljingfommm o 
  1
 rknqhnjofikljhfnkfk rjgqfkohiofgffloklf o 
  1
 rkmqhlifonjholglgik rjgqhfmginlfimgjnkh o 
  1
 rklqnfmlmghlglogjok rjgqofohfhflnhkillh o 
  1
 rklqmlmjkikhgnkkkgj rjhqifmnkiifgjlflok o 
  1
 rklqmkfgkhiojmokmlg rjhqjmoijmllikkooml o 
  1
 o 
  1
 1*33@,*-9><: 
  1
 1*33@,*-9><: 
  1
 1*33=, 
  1
 1*33=, 
  1
 V V 
  1
 o 
  1
 o 
  3
 mi oqlfigjomnhmmhnoggk oqhmihgjfojjnjijimj nqongknlhimogofofh nqmhjijkomimihfkmn nqjjhhfooifjkllfmm nqginnnojigjoifhom mqjkkgnlhjikjngfjl mqgnmoofmlhlingolh lqokfffiohonmmmllj lqlloonlmhgjlffngk lqjhjiljhgilhmngkg lqflkijnjffnhfgkfk kqklfnimomimokiofi kq
  1
ihhohhmgmkfjfon kqfjglhmkoiilonmjg jqlmoknigoglljkill jqijoooimimfnhomng iqnnmooijfhfmfnkjk iqillkinjnnhkjhlfi iqfknhinkfmmgkfnmf hqmokikooliljffifi hqkfmhhkhgfkhifngl hqhnffflnfkkoglkjn gqmmhonmnijoikjmjg gqhgfgkommjlomnifh fqnlnohigkhjkjhkmm 
  1
 Y n Y o " V V |
  1
/061+ {rn rlgqhkjnggfkfjfgnom rjjqogmmijlimhnhfoj o |
  1
/061+ {rn rklqmkfgkhiojmokmlg rjhqjmoijmllikkooml o |
  0
REGION
  5
241
330
1F
100
AcDbEntity
  8
5
100
AcDbModelerGeometry
 70
     1
  1
koo ki n o          
  1
h J1410(1 nl ^ \VL kqoqm QK mk H:; U>1 ni ohemlemi moog 
  1
rn fqfffffffffffffffj:rooh n:rono 
  1
=0;& {rn {n {rn {rn |
  1
3*2/ {rn {rn {m {o |
  1
,7:33 {rn {rn {rn {l {rn {n |
  1
9><: {rn {rn {k {m {rn {j -:):-,:; ;0*=3: 0*+ |
  1
300/ {rn {rn {i {l |
  1
/3>1:r,*-9><: {rn nqjfkllljflfjojmlm rjjqmkkmoojogolhfil o o o rn rm o o 90-(>-;@) V V V V |
  1
<0:;8: {rn {h {g {rn {f -:):-,:; {k {rn |
  1
<0:;8: {rn {no {i {rn {nn -:):-,:; {k {rn |
  1
<0:;8: {rn {i {nm {rn {nl -:):-,:; {k {rn |
  1
:;8: {rn {nk {nj {i {ni 90-(>-; |
  1
<0:;8: {rn {nh {h {rn {ng -:):-,:; {k {rn |
  1
:;8: {rn {nf {nk {h {mo 90-(>-; |
  1
<0:;8: {rn {g {mn {rn {mm -:):-,:; {k {rn |
  1
:;8: {rn {nj {ml {g {mk 90-(>-; |
  1
):-+:' {rn {f {mj |
  1
):-+:' {rn {f {mi |
  1
,+->687+r<*-): {rn kqhmffnfjjfliijhgi rjkqogknmoiniljonkg o rm o o V V |
  1
<0:;8: {rn {mh {no {rn {mg -:):-,:; {k {rn |
  1
:;8: {rn {mf {nf {no {lo 90-(>-; |
  1
):-+:' {rn {ng {ln |
  1
,+->687+r<*-): {rn kqhmffnfjjfliijhgi rjmqhfhlogikoomolhj o o rm o V V |
  1
<0:;8: {rn {nm {mh {rn {lm -:):-,:; {k {rn |
  1
:;8: {rn {ml {ll {nm {lk 90-(>-; |
  1
):-+:' {rn {nl {lj |
  1
,+->687+r<*-): {rn mqkoghogkifjinfgij rjkqogknmoiniljonkg o o rm o V V |
  1
/061+ {rn kqhmffnfjjfliijhgi rjkqogknmoiniljonkg o |
  1
/061+ {rn mqkoghogkifjinfgij rjkqogknmoiniljonkg o |
  1
<0:;8: {rn {mn {nh {rn {li -:):-,:; {k {rn |
  1
:;8: {rn {lh {mf {nh {lg 90-(>-; |
  1
):-+:' {rn {mg {lf |
  1
,+->687+r<*-): {rn rnqkhmfgmlonohgjomi rjmqhfhlogikoomolhj o m o o V V |
  1
/061+ {rn kqhmffnfjjfliijhgi rjmqhfhlogikoomolhj o |
  1
:;8: {rn {ll {ko {mn {kn 90-(>-; |
  1
):-+:' {rn {mm {km |
  1
,+->687+r<*-): {rn mqkoghogkifjinfgij rioqonnmjmnjfklnng o rm o o V V |
  1
/061+ {rn mqkoghogkifjinfgij rioqonnmjmnjfklnng o |
  1
:;8: {rn {ko {lh {mh {kl 90-(>-; |
  1
):-+:' {rn {li {kk |
  1
,+->687+r<*-): {rn rnqkhmfgmlonohgjomi rjkqogknmoiniljonkg o o m o V V |
  1
/061+ {rn rnqkhmfgmlonohgjomi rjmqhfhlogikoomolhj o |
  1
):-+:' {rn {lm {kj |
  1
,+->687+r<*-): {rn oqhnniggikhfjmololj rioqonnmjmnjfklnng o o m o V V |
  1
/061+ {rn oqhnniggikhfjmololj rioqonnmjmnjfklnng o |
  1
,+->687+r<*-): {rn oqhnniggikhfjmololj rjkqogknmoiniljonkg o rm o o V V |
  1
/061+ {rn rnqkhmfgmlonohgjomi rjkqogknmoiniljonkg o |
  1
/061+ {rn oqhnniggikhfjmololj rjkqogknmoiniljonkg o |
  0
REGION
  5
242
330
1F
100
AcDbEntity
  8
5
100
AcDbModelerGeometry
 70
     1
  1
koo mi n o          
  1
h J1410(1 nl ^ \VL kqoqm QK mk H:; U>1 ni ohemlemi moog 
  1
rn fqfffffffffffffffj:rooh n:rono 
  1
=0;& {rn {n {rn {rn |
  1
3*2/ {rn {rn {m {o |
  1
,7:33 {rn {rn {rn {l {rn {n |
  1
9><: {rn {rn {k {m {rn {j -:):-,:; ;0*=3: 0*+ |
  1
300/ {rn {rn {i {l |
  1
/3>1:r,*-9><: {rn rnkqkhnonlmjnmionlm rjiqlfngijkmlfnnogj o o o rn rm o o 90-(>-;@) V V V V |
  1
<0:;8: {rn {h {g {rn {f -:):-,:; {k {rn |
  1
<0:;8: {rn {no {i {rn {nn 90-(>-; {k {rn |
  1
<0:;8: {rn {i {no {rn {nm 90-(>-; {k {rn |
  1
:;8: {rn {nl {nk {i {nj 90-(>-; |
  1
<0:;8: {rn {g {h {rn {ni 90-(>-; {k {rn |
  1
:;8: {rn {nl {nh {h {ng 90-(>-; |
  1
:;8: {rn {nf {nk {g {mo 90-(>-; |
  1
):-+:' {rn {f {mn |
  1
):-+:' {rn {f {mm |
  1
61+<*-):r<*-): {rn 90-(>-; $ :'><+<*- 1*=, l 0/:1 mk 
  1
 o l oqligokiljfljmjmjj n oqikiffjgmifofigklg n nqoigjglohkoojklhk n nqiohihjljnioiinng n 
  1
 nqfhmmojknmiffgfof n mqnfkhjgmkmhhogjlf n mqioinmmijimmmlmmg n lqnlhnlfiiikkokmkj n lqifnmlfgjmonggmhk n 
  1
 kqokoilfionkiiffnk n kqlffkggihjloikjmk n kqgnjjkihfkomhonmj n jqljoknhiinlnnjjjf n jqgnogkngnofmjifjk n 
  1
 iqmmhnfffmkgnlkoni n iqinkmilhmmmoihgkk n hqkgfigmoofjhoomml n hqgihgfiogmnmng n gqmjlnglnofmnkimnl n 
  1
 gqjjhhkmomokmlmfin n gqhimgololoifolglj n fqnknnhijkkiknoojg n fqmjiilgghlkomkimn l 
  1
 rnlqnmfkoikonogmkkg rjjqogojhmoknnmlolk o 
  1
 rnlqnjjmjmfoglkikjj rjkqgmmljogkgimmmli o 
  1
 rnlqmooiggfgklojjnj rjkqligknggnoijkoil o 
  1
 rnlqgjhnoniklkjojlk rjlqfkkgjikklnkohmm o 
  1
 rnkqikhfgjjjogihihk rjlqfokoiflnlgohggn o 
  1
 rnjqhlnikjllkloijoi rjlqflhfkfokiifooli o 
  1
 rnjqgjnmmojjjhmnflh rjkqgggfgkimmmkmfkk o 
  1
 rnjqlkjlgnmjfkgnkgj rjjqlgjnjkokfmjmjlk o 
  1
 rnkqjkmnllikijjking rjjqkhnohijmnfnlini o 
  1
 rnlqjgjnmjljmmnmnhk rjjqhokoojoknmfggji o 
  1
 rnmqilhnkgjjinnffig rjjqfononnollhilnk o 
  1
 rnnqgfgfiokkiiglom rjiqlmknlikfokfjklk o 
  1
 rnnqlgmoiljlknoomnm rjiqfonifloolkhflii o 
  1
 rnnqnfjjmifllhhofoh rjhqhgognmjnfnmmghj o 
  1
 rnnqllmomiofmihogkk rjgqhjhfingmlfffhfl o 
  1
 rnnqffffmiknkilfnoi rjfqkhfliknlllkmool o 
  1
 rnmqhkioooohjmmjhof rjfqghhklfnmhgonhog o 
  1
 rnlqgnflnkmfffhhgf rioqmlkonimjfoofili o 
  1
 rnkqfkoogfnohkkliif rioqnmohgohikkgmnhh o 
  1
 rniqonlgjinkofghinl rjfqfmjifglgohjnkmh o 
  1
 rniqiihmmnkkgjnmjhg rjfqioofngomkjlmhgg o 
  1
 rnhqogmkiniifijfglj rjfqnimfknilnhglgml o 
  1
 rnhqkiknmffjkkmgfmh rjgqhmnnlifojhojgkg o 
  1
 rnhqjioomhkjkhgkhni rjgqnjlginjoflfgjlg o 
  1
 rnhqinmgiggjjghollm rjhqfjhnjjnjmmikhkh o 
  1
 rnhqilgokhgkghjjkm rjhqjmmhhomooominjf o 
  1
 o 
  1
 1*33@,*-9><: 
  1
 1*33@,*-9><: 
  1
 1*33=, 
  1
 1*33=, 
  1
 V V 
  1
 o 
  1
 o 
  3
 mm oqligokiljfljmjmjj oqikiffjgmifofigklg nqoigjglohkoojklhk nqiohihjljnioiinng nqfhmmojknmiffgfof mqnfkhjgmkmhhogjlf mqioinmmijimmmlmmg lqnlhnlfiiikkokmkj lqifnmlfgjmonggmhk kqokoilfionkiiffnk kqlffkggihjloikjmk kqgnjjkihfkomhonmj jqljoknhiinlnnjjjf jqg
  1
nogkngnofmjifjk iqmmhnfffmkgnlkoni iqinkmilhmmmoihgkk hqkgfigmoofjhoomml hqgihgfiogmnmng gqmjlnglnofmnkimnl gqjjhhkmomokmlmfin gqhimgololoifolglj fqnknnhijkkiknoojg 
  1
 Y n Y o " V V |
  1
:;8: {rn {nh {nf {no {ml 90-(>-; |
  1
):-+:' {rn {ni {mk |
  1
,+->687+r<*-): {rn rnlqnmfkoikonogmkkg rjjqogojhmoknnmlolk o nqfffffggjlnomnhjn roqoomnkngiioojnojinfi o V V |
  1
):-+:' {rn {nm {mj |
  1
,+->687+r<*-): {rn rniqojmfonnlhngfnjl rjhqjmoijmllikkooml o rnqfffffgmnkfmjoklf roqoomihmnlllkfklhngfk o V V |
  1
/061+ {rn rnlqnmfkoikonogmkkg rjjqogojhmoknnmlolk o |
  1
/061+ {rn rnhqilgokhgkghjjkm rjhqjmmhhomooominjf o |
  1
61+<*-):r<*-): {rn 90-(>-; $ :'><+<*- 1*=, l 0/:1 mg 
  1
 o l oqlfigjomnhmmhnoggk n oqhmihgjfojjnjijimj n nqongknlhimogofofh n nqmhjijkomimihfkmn n 
  1
 nqjjhhfooifjkllfmm n nqginnnojigjoifhom n mqjkkgnlhjikjngfjl n mqgnmoofmlhlingolh n lqokfffiohonmmmllj n 
  1
 lqlloonlmhgjlffngk n lqjhjiljhgilhmngkg n lqflkijnjffnhfgkfk n kqklfnimomimokiofi n kqihhohhmgmkfjfon n 
  1
 kqfjglhmkoiilonmjg n jqlmoknigoglljkill n jqijoooimimfnhomng n iqnnmooijfhfmfnkjk n iqillkinjnnhkjhlfi n 
  1
 iqfknhinkfmmgkfnmf n hqmokikooliljffifi n hqkfmhhkhgfkhifngl n hqhnffflnfkkoglkjn n gqmmhonmnijoikjmjg n 
  1
 gqhgfgkommjlomnifh n fqnlnohigkhjkjhkmm n fqlggifigilfmffjgm l 
  1
 rnnqjkgmkmkgnjgloln rjjqogmmijlimhnhfoj o 
  1
 rnnqjlfgihnngkfnoln rjkqgnngnggogfmhgig o 
  1
 rnnqjmkjmgjfillihhf rjkqlnijmihfkjihnfi o 
  1
 rnnqghinlilgfkikoml rjlqhnknmloiigjjkfl o 
  1
 rnmqmikgklfghgnghli rjlqmiojgfohllkjkgi o 
  1
 rnmqhgnifnfnhlhlkog rjlqolfhigihjfmmf o 
  1
 rnlqmggkmilkfiihikj rjmqhfmjhoinlkgomog o 
  1
 rnkqnlkjfllkmmjnofk rjmqihkgolggfgofnmh o 
  1
 rnkqfhiflkilmohinml rjmqijfoglkgfjgloig o 
  1
 rnjqhjilflfmiffghnm rjmqgmkjnkfkfilfhkf o 
  1
 rniqmlghjmfglmnhklg rjlqokomhokgfkjohhi o 
  1
 rniqikkoookofmhmnmk rjlqlkfhfkhgiifjlif o 
  1
 rnhqofhinloighigfhf rjlqhlinokkomhinjif o 
  1
 rnhqkmklnmnnhjgfjfk rjkqkmnkfonkjhmfhkf o 
  1
 rnhqkiighlfkjhlnjlj rjjqnfgjfomlhfikjgn o 
  1
 rnhqnhnliijgjjnjgkn rjjqgmninnhiomgkhlf o 
  1
 rniqgonifjllflhokfh rjiqmfkmlkfnfkjjmfm o 
  1
 rniqmolmlgjnlfonomh rjiqjgnonlhgihimmji o 
  1
 rnjqkgilggiijmjikkm rjiqgjnilglloihknoi o 
  1
 rnkqimnmonfliihnnh rjhqomfkmgjmjggili o 
  1
 rnlqhgkkmmnhkimmlfm rjhqnjkgkjnhmojlmnk o 
  1
 rnlqoikkhmgjnnomhmn rjhqkkmjloinmfifklj o 
  1
 rnmqglihkmhomgjnig rjgqomnfkinlimomhkl o 
  1
 rnlqonoffjnfljfmmlh rjgqjgkkioolhnkohkk o 
  1
 rnlqihjhgoogohkmjgk rjgqgiojlljingfommm o 
  1
 rnkqjngnkffihhhikof rjgqfkohiofgffloklf o 
  1
 rnjqjlffjjnomlighhf rjgqhfmginlfimgjnkh o 
  1
 rnjqffjlgmmhomflknf rjgqofohfhflnhkillh o 
  1
 rniqoljiooononmfk rjhqifmnkiifgjlflok o 
  1
 rniqojmfonnlhngfnjl rjhqjmoijmllikkooml o 
  1
 o 
  1
 1*33@,*-9><: 
  1
 1*33@,*-9><: 
  1
 1*33=, 
  1
 1*33=, 
  1
 V V 
  1
 o 
  1
 o 
  3
 mi oqlfigjomnhmmhnoggk oqhmihgjfojjnjijimj nqongknlhimogofofh nqmhjijkomimihfkmn nqjjhhfooifjkllfmm nqginnnojigjoifhom mqjkkgnlhjikjngfjl mqgnmoofmlhlingolh lqokfffiohonmmmllj lqlloonlmhgjlffngk lqjhjiljhgilhmngkg lqflkijnjffnhfgkfk kqklfnimomimokiofi kq
  1
ihhohhmgmkfjfon kqfjglhmkoiilonmjg jqlmoknigoglljkill jqijoooimimfnhomng iqnnmooijfhfmfnkjk iqillkinjnnhkjhlfi iqfknhinkfmmgkfnmf hqmokikooliljffifi hqkfmhhkhgfkhifngl hqhnffflnfkkoglkjn gqmmhonmnijoikjmjg gqhgfgkommjlomnifh fqnlnohigkhjkjhkmm 
  1
 Y n Y o " V V |
  1
/061+ {rn rnnqjkgmkmkgnjgloln rjjqogmmijlimhnhfoj o |
  1
/061+ {rn rniqojmfonnlhngfnjl rjhqjmoijmllikkooml o |
  0
REGION
  5
243
330
1F
100
AcDbEntity
  8
5
100
AcDbModelerGeometry
 70
     1
  1
koo mi n o          
  1
h J1410(1 nl ^ \VL kqoqm QK mk H:; U>1 ni ohemlemi moog 
  1
rn fqfffffffffffffffj:rooh n:rono 
  1
=0;& {rn {n {rn {rn |
  1
3*2/ {rn {rn {m {o |
  1
,7:33 {rn {rn {rn {l {rn {n |
  1
9><: {rn {rn {k {m {rn {j 90-(>-; ;0*=3: 0*+ |
  1
300/ {rn {rn {i {l |
  1
/3>1:r,*-9><: {rn rmiqkohhlkjfmkjmimh rjiqlfiikkfkknijjhl o o o n m o o 90-(>-;@) V V V V |
  1
<0:;8: {rn {h {g {rn {f -:):-,:; {k {rn |
  1
<0:;8: {rn {no {i {rn {nn -:):-,:; {k {rn |
  1
<0:;8: {rn {i {no {rn {nm -:):-,:; {k {rn |
  1
:;8: {rn {nl {nk {i {nj 90-(>-; |
  1
<0:;8: {rn {g {h {rn {ni -:):-,:; {k {rn |
  1
:;8: {rn {nh {nl {h {ng 90-(>-; |
  1
:;8: {rn {nk {nf {g {mo 90-(>-; |
  1
):-+:' {rn {f {mn |
  1
):-+:' {rn {f {mm |
  1
,+->687+r<*-): {rn rmhqlokmihjgnmofmol rjfqfghnijhonhnljmm o o m o V V |
  1
:;8: {rn {nf {nh {no {ml 90-(>-; |
  1
):-+:' {rn {ni {mk |
  1
,+->687+r<*-): {rn rmjqjnnmoniolifiojn rjfqfghnijhonhnljmm o rm o o V V |
  1
):-+:' {rn {nm {mj |
  1
,+->687+r<*-): {rn rmhqlokmihjgnmofmol rjmqgoinmkngiinhiml o m o o V V |
  1
/061+ {rn rmhqlokmihjgnmofmol rjfqfghnijhonhnljmm o |
  1
/061+ {rn rmhqlokmihjgnmofmol rjmqgoinmkngiinhiml o |
  1
,+->687+r<*-): {rn rmjqjnnmoniolifiojn rjmqgoinmkngiinhiml o o rm o V V |
  1
/061+ {rn rmjqjnnmoniolifiojn rjfqfghnijhonhnljmm o |
  1
/061+ {rn rmjqjnnmoniolifiojn rjmqgoinmkngiinhiml o |
  0
REGION
  5
244
330
1F
100
AcDbEntity
  8
5
100
AcDbModelerGeometry
 70
     1
  1
koo mi n o          
  1
h J1410(1 nl ^ \VL kqoqm QK mk H:; U>1 ni ohemlemi moog 
  1
rn fqfffffffffffffffj:rooh n:rono 
  1
=0;& {rn {n {rn {rn |
  1
3*2/ {rn {rn {m {o |
  1
,7:33 {rn {rn {rn {l {rn {n |
  1
9><: {rn {rn {k {m {rn {j 90-(>-; ;0*=3: 0*+ |
  1
300/ {rn {rn {i {l |
  1
/3>1:r,*-9><: {rn rmnqkhgfionhfgkhgnh rjiqlfngijkmlfnnogj o o o n m o o 90-(>-;@) V V V V |
  1
<0:;8: {rn {h {g {rn {f 90-(>-; {k {rn |
  1
<0:;8: {rn {no {i {rn {nn -:):-,:; {k {rn |
  1
<0:;8: {rn {i {no {rn {nm 90-(>-; {k {rn |
  1
:;8: {rn {nl {nk {i {nj 90-(>-; |
  1
<0:;8: {rn {g {h {rn {ni 90-(>-; {k {rn |
  1
:;8: {rn {nh {nk {h {ng 90-(>-; |
  1
:;8: {rn {nf {nl {g {mo 90-(>-; |
  1
):-+:' {rn {f {mn |
  1
):-+:' {rn {f {mm |
  1
,+->687+r<*-): {rn rmlqoiogkgoijhhigmk rjhqjmoijmllikkooml o rnqfffffgmnkfmjoklf roqoomihmnlllkfklhngfk o V V |
  1
:;8: {rn {nh {nf {no {ml 90-(>-; |
  1
):-+:' {rn {nn {mk |
  1
61+<*-):r<*-): {rn 90-(>-; $ :'><+<*- 1*=, l 0/:1 mk 
  1
 o l oqligokiljfljmjmjj n oqikiffjgmifofigklg n nqoigjglohkoojklhk n nqiohihjljnioiinng n 
  1
 nqfhmmojknmiffgfof n mqnfkhjgmkmhhogjlf n mqioinmmijimmmlmmg n lqnlhnlfiiikkokmkj n lqifnmlfgjmonggmhk n 
  1
 kqokoilfionkiiffnk n kqlffkggihjloikjmk n kqgnjjkihfkomhonmj n jqljoknhiinlnnjjjf n jqgnogkngnofmjifjk n 
  1
 iqmmhnfffmkgnlkoni n iqinkmilhmmmoihgkk n hqkgfigmoofjhoomml n hqgihgfiogmnmng n gqmjlnglnofmnkimnl n 
  1
 gqjjhhkmomokmlmfin n gqhimgololoifolglj n fqnknnhijkkiknoojg n fqmjiilgghlkomkimn l 
  1
 rmoqnlhljllmfihonm rjjqogojhmoknnmlolk o 
  1
 rmoqnilnffgliflknmi rjkqgmmljogkgimmmli o 
  1
 rmoqmogiljfnmgflngi rjkqligknggnoijkoil o 
  1
 rmoqgijokgjhmolgmoj rjlqfkkgjikklnkohmm o 
  1
 rmnqijjflmkhfkjjlkj rjlqfokoiflnlgohggn o 
  1
 rmmqhlfjfmmimgfknhg rjlqflhfkfokiifooli o 
  1
 rmmqgjfnihkgklofiof rjkqgggfgkimmmkmfkk o 
  1
 rmmqljllmgnggoifnji rjjqlgjnjkokfmjmjlk o 
  1
 rmnqjjoogojhjnkmmgf rjjqkhnohijmnfnlini o 
  1
 rmoqjflohmmgohffgkj rjjqhokoojoknmfggji o 
  1
 rnfqikjofjkgkhohilf rjjqfononnollhilnk o 
  1
 rngqfoifohlhjmhoifn rjiqlmknlikfokfjklk o 
  1
 rngqlfoonokimighgif rjiqfonifloolkhflii o 
  1
 rngqmolkhlgimljgjhg rjhqhgognmjnfnmmghj o 
  1
 rngqllffhlomnmjgjl rjgqhjhfingmlfffhfl o 
  1
 rnfqoohghllklmmihhh rjfqkhfliknlllkmool o 
  1
 rnfqhjlfkhoolgnllg rjfqghhklfnmhgonhog o 
  1
 rmoqgmhminmmgjijjin rioqmlkonimjfoofili o 
  1
 rmnqfkgolioliolnlk rioqnmohgohikkgmnhh o 
  1
 rmlqomngoloifjhjmgk rjfqfmjifglgohjnkmh o 
  1
 rmlqihjniglhhnoomkf rjfqioofngomkjlmhgg o 
  1
 rmkqofokogjfgmkhjoh rjfqnimfknilnhglgml o 
  1
 rmkqkhmohigglonijfg rjgqhmnnlifojhojgkg o 
  1
 rmkqjihfhklgllhmlgg rjgqnjlginjoflfgjlg o 
  1
 rmkqimognjhgkkjgool rjhqfjhnjjnjmmikhkh o 
  1
 rmkqikjffkhhhlklofn rjhqjmmhhomooominjf o 
  1
 o 
  1
 1*33@,*-9><: 
  1
 1*33@,*-9><: 
  1
 1*33=, 
  1
 1*33=, 
  1
 V V 
  1
 o 
  1
 o 
  3
 mm oqligokiljfljmjmjj oqikiffjgmifofigklg nqoigjglohkoojklhk nqiohihjljnioiinng nqfhmmojknmiffgfof mqnfkhjgmkmhhogjlf mqioinmmijimmmlmmg lqnlhnlfiiikkokmkj lqifnmlfgjmonggmhk kqokoilfionkiiffnk kqlffkggihjloikjmk kqgnjjkihfkomhonmj jqljoknhiinlnnjjjf jqg
  1
nogkngnofmjifjk iqmmhnfffmkgnlkoni iqinkmilhmmmoihgkk hqkgfigmoofjhoomml hqgihgfiogmnmng gqmjlnglnofmnkimnl gqjjhhkmomokmlmfin gqhimgololoifolglj fqnknnhijkkiknoojg 
  1
 Y n Y o " V V |
  1
):-+:' {rn {ni {mj |
  1
61+<*-):r<*-): {rn 90-(>-; $ :'><+<*- 1*=, l 0/:1 mg 
  1
 o l oqlfigjomnhmmhnoggk n oqhmihgjfojjnjijimj n nqongknlhimogofofh n nqmhjijkomimihfkmn n 
  1
 nqjjhhfooifjkllfmm n nqginnnojigjoifhom n mqjkkgnlhjikjngfjl n mqgnmoofmlhlingolh n lqokfffiohonmmmllj n 
  1
 lqlloonlmhgjlffngk n lqjhjiljhgilhmngkg n lqflkijnjffnhfgkfk n kqklfnimomimokiofi n kqihhohhmgmkfjfon n 
  1
 kqfjglhmkoiilonmjg n jqlmoknigoglljkill n jqijoooimimfnhomng n iqnnmooijfhfmfnkjk n iqillkinjnnhkjhlfi n 
  1
 iqfknhinkfmmgkfnmf n hqmokikooliljffifi n hqkfmhhkhgfkhifngl n hqhnffflnfkkoglkjn n gqmmhonmnijoikjmjg n 
  1
 gqhgfgkommjlomnifh n fqnlnohigkhjkjhkmm n fqlggifigilfmffjgm l 
  1
 rngqjjingfknonhoigg rjjqogmmijlimhnhfoj o 
  1
 rngqjkhgnkokhohgihk rjkqgnngnggogfmhgig o 
  1
 rngqjlmkhjjmkfmkkj rjkqlnijmihfkjihnfi o 
  1
 rngqggkogllngojnifk rjlqhnknmloiigjjkfl o 
  1
 rnfqmhmhfofnikoikoh rjlqmiojgfohllkjkgi o 
  1
 rnfqhgfilggkjfinohf rjlqolfhigihjfmmf o 
  1
 rmoqmfilhlmhgmjjlnh rjmqhfmjhoinlkgomog o 
  1
 rmnqnkmjkomhoglghij rjmqihkgolggfgofnmh o 
  1
 rmnqfgkggnjioiilhfk rjmqijfoglkgfjgloig o 
  1
 rmmqhiklkogjjjgilgl rjmqgmkjnkfkfilfhkf o 
  1
 rmlqmkiifffnngojnof rjlqokomhokgfkjohhi o 
  1
 rmlqijnfkhllhgjfhfj rjlqlkfhfkhgiifjlif o 
  1
 rmkqnojjjfffhljiij rjlqhlinokkomhinjif o 
  1
 rmkqklmmjfokinhhmij rjkqkmnkfonkjhmfhkf o 
  1
 rmkqkhkgmoghklnfmoh rjjqnfgjfomlhfikjgn o 
  1
 rmkqnhflnljnknoljnm rjjqgmninnhiomgkhlf o 
  1
 rmlqgofikmmihfjgnig rjiqmfkmlkfnfkjjmfm o 
  1
 rmlqmnnngjkkmkggiff rjiqjgnonlhgihimmji o 
  1
 rmmqkfklljjflgkknnl rjiqgjnilglloihknoi o 
  1
 rmnqimfnkggijmjggkn rjhqomfkmgjmjggili o 
  1
 rmoqhfmlifnolmnooil rjhqnjkgkjnhmojlmnk o 
  1
 rmoqohmknfhhfifolfm rjhqkkmjloinmfifklj o 
  1
 rnfqgkkigfilnklfljn rjgqomnfkinlimomhkl o 
  1
 rmoqongfkmnmmnhffog rjgqjgkkioolhnkohkk o 
  1
 rmoqiglhmhoofllomjj rjgqgiojlljingfommm o 
  1
 rmnqjmiofigfilikogn rjgqfkohiofgffloklf o 
  1
 rmmqjkhfomolofjikj rjgqhfmginlfimgjnkh o 
  1
 rmlqoollmfnfgggnof rjgqofohfhflnhkillh o 
  1
 rmlqokljkiflghnhohn rjhqifmnkiifgjlflok o 
  1
 rmlqoiogkgoijhhigmk rjhqjmoijmllikkooml o 
  1
 o 
  1
 1*33@,*-9><: 
  1
 1*33@,*-9><: 
  1
 1*33=, 
  1
 1*33=, 
  1
 V V 
  1
 o 
  1
 o 
  3
 mi oqlfigjomnhmmhnoggk oqhmihgjfojjnjijimj nqongknlhimogofofh nqmhjijkomimihfkmn nqjjhhfooifjkllfmm nqginnnojigjoifhom mqjkkgnlhjikjngfjl mqgnmoofmlhlingolh lqokfffiohonmmmllj lqlloonlmhgjlffngk lqjhjiljhgilhmngkg lqflkijnjffnhfgkfk kqklfnimomimokiofi kq
  1
ihhohhmgmkfjfon kqfjglhmkoiilonmjg jqlmoknigoglljkill jqijoooimimfnhomng iqnnmooijfhfmfnkjk iqillkinjnnhkjhlfi iqfknhinkfmmgkfnmf hqmokikooliljffifi hqkfmhhkhgfkhifngl hqhnffflnfkkoglkjn gqmmhonmnijoikjmjg gqhgfgkommjlomnifh fqnlnohigkhjkjhkmm 
  1
 Y n Y o " V V |
  1
/061+ {rn rmlqoiogkgoijhhigmk rjhqjmoijmllikkooml o |
  1
/061+ {rn rmkqikjffkhhhlklofn rjhqjmmhhomooominjf o |
  1
,+->687+r<*-): {rn rmoqnlhljllmfihonm rjjqogojhmoknnmlolk o nqfffffggjlnomnhjn roqoomnkngiioojnojinfi o V V |
  1
/061+ {rn rmoqnlhljllmfihonm rjjqogojhmoknnmlolk o |
  1
/061+ {rn rngqjjingfknonhoigg rjjqogmmijlimhnhfoj o |
  0
REGION
  5
245
330
1F
100
AcDbEntity
  8
5
100
AcDbModelerGeometry
 70
     1
  1
koo ii n o          
  1
h J1410(1 nl ^ \VL kqoqm QK mk H:; U>1 ni ohemlemi moog 
  1
rn fqfffffffffffffffj:rooh n:rono 
  1
=0;& {rn {n {rn {rn |
  1
3*2/ {rn {rn {m {o |
  1
,7:33 {rn {rn {rn {l {rn {n |
  1
9><: {rn {rn {k {m {rn {j -:):-,:; ;0*=3: 0*+ |
  1
300/ {rn {rn {i {l |
  1
/3>1:r,*-9><: {rn riqlmihnfhihgjimkig rjiqkokmgolffhmjhkf o o o rn rm o o 90-(>-;@) V V V V |
  1
<0:;8: {rn {h {g {rn {f 90-(>-; {k {rn |
  1
<0:;8: {rn {no {i {rn {nn 90-(>-; {k {rn |
  1
<0:;8: {rn {i {nm {rn {nl 90-(>-; {k {rn |
  1
:;8: {rn {nk {nj {i {ni 90-(>-; |
  1
<0:;8: {rn {nh {h {rn {ng 90-(>-; {k {rn |
  1
:;8: {rn {nj {nf {h {mo 90-(>-; |
  1
<0:;8: {rn {g {mn {rn {mm 90-(>-; {k {rn |
  1
:;8: {rn {ml {nk {g {mk 90-(>-; |
  1
):-+:' {rn {f {mj |
  1
):-+:' {rn {f {mi |
  1
,+->687+r<*-): {rn rlqngfjogmgginlnmil rjhqmoliimfmnjggnf o o m o V V |
  1
<0:;8: {rn {mh {no {rn {mg 90-(>-; {k {rn |
  1
:;8: {rn {nf {mf {no {lo 90-(>-; |
  1
):-+:' {rn {nn {ln |
  1
,+->687+r<*-): {rn rlqngfjogmgginlnmil rjjqiokgfhghhgilmjm o rm o o V V |
  1
<0:;8: {rn {nm {lm {rn {ll 90-(>-; {k {rn |
  1
:;8: {rn {lk {ml {nm {lj 90-(>-; |
  1
):-+:' {rn {mm {li |
  1
,+->687+r<*-): {rn rjqlfliglgflmngihgg rjhqmoliimfmnjggnf o m o o V V |
  1
/061+ {rn rlqngfjogmgginlnmil rjhqmoliimfmnjggnf o |
  1
/061+ {rn rlqngfjogmgginlnmil rjjqiokgfhghhgilmjm o |
  1
<0:;8: {rn {lh {nh {rn {lg 90-(>-; {k {rn |
  1
:;8: {rn {mf {lf {nh {ko 90-(>-; |
  1
):-+:' {rn {ng {kn |
  1
,+->687+r<*-): {rn rjqlfliglgflmngihgg rjjqiokgfhghhgilmjm o o m o V V |
  1
/061+ {rn rjqlfliglgflmngihgg rjjqiokgfhghhgilmjm o |
  1
<0:;8: {rn {mn {km {rn {kl 90-(>-; {k {rn |
  1
:;8: {rn {kk {lk {mn {kj 90-(>-; |
  1
):-+:' {rn {ll {ki |
  1
,+->687+r<*-): {rn rjqlfliglgflmngihgg rjfqlihgkinhnmiimfk o o m o V V |
  1
/061+ {rn rjqlfliglgflmngihgg rjhqmoliimfmnjggnf o |
  1
<0:;8: {rn {kh {mh {rn {kg 90-(>-; {k {rn |
  1
:;8: {rn {lf {kf {mh {jo 90-(>-; |
  1
):-+:' {rn {mg {jn |
  1
,+->687+r<*-): {rn rjqlfliglgflmngihgg rjlqkkohnkimgngjmim o rm o o V V |
  1
/061+ {rn rjqlfliglgflmngihgg rjlqkkohnkimgngjmim o |
  1
<0:;8: {rn {lm {kh {rn {jm 90-(>-; {k {rn |
  1
:;8: {rn {jl {kk {lm {jk 90-(>-; |
  1
):-+:' {rn {kl {jj |
  1
,+->687+r<*-): {rn rhqmiimjhifhgomnlm rjfqlihgkinhnmiimfk o m o o V V |
  1
/061+ {rn rjqlfliglgflmngihgg rjfqlihgkinhnmiimfk o |
  1
<0:;8: {rn {km {lh {rn {ji 90-(>-; {k {rn |
  1
:;8: {rn {kf {jh {lh {jg 90-(>-; |
  1
):-+:' {rn {lg {jf |
  1
,+->687+r<*-): {rn rhqmiimjhifhgomnlm rjlqkkohnkimgngjmim o o rm o V V |
  1
/061+ {rn rhqmiimjhifhgomnlm rjlqkkohnkimgngjmim o |
  1
:;8: {rn {io {jl {km {in 90-(>-; |
  1
):-+:' {rn {jm {im |
  1
,+->687+r<*-): {rn rhqmiimjhifhgomnlm rjhqngknijfhioljlnh o o rm o V V |
  1
/061+ {rn rhqmiimjhifhgomnlm rjfqlihgkinhnmiimfk o |
  1
:;8: {rn {jh {io {kh {il 90-(>-; |
  1
):-+:' {rn {kg {ik |
  1
,+->687+r<*-): {rn rhqmiimjhifhgomnlm rjjqimklfkgmlknimlf o rm o o V V |
  1
/061+ {rn rhqmiimjhifhgomnlm rjjqimklfkgmlknimlf o |
  1
):-+:' {rn {ji {ij |
  1
,+->687+r<*-): {rn rfqkjofmhnlikgmhgfi rjhqngknijfhioljlnh o m o o V V |
  1
/061+ {rn rhqmiimjhifhgomnlm rjhqngknijfhioljlnh o |
  1
,+->687+r<*-): {rn rfqkjofmhnlikgmhgfi rjjqimklfkgmlknimlf o o rm o V V |
  1
/061+ {rn rfqkjofmhnlikgmhgfi rjjqimklfkgmlknimlf o |
  1
/061+ {rn rfqkjofmhnlikgmhgfi rjhqngknijfhioljlnh o |
  0
REGION
  5
246
330
1F
100
AcDbEntity
  8
5
100
AcDbModelerGeometry
 70
     1
  1
koo mi n o          
  1
h J1410(1 nl ^ \VL kqoqm QK mk H:; U>1 ni ohemlemi moog 
  1
rn fqfffffffffffffffj:rooh n:rono 
  1
=0;& {rn {n {rn {rn |
  1
3*2/ {rn {rn {m {o |
  1
,7:33 {rn {rn {rn {l {rn {n |
  1
9><: {rn {rn {k {m {rn {j -:):-,:; ;0*=3: 0*+ |
  1
300/ {rn {rn {i {l |
  1
/3>1:r,*-9><: {rn riqllflhikfgokfglok rjiqlflojlhgknhngk o o o rn rm o o 90-(>-;@) V V V V |
  1
<0:;8: {rn {h {g {rn {f 90-(>-; {k {rn |
  1
<0:;8: {rn {no {i {rn {nn 90-(>-; {k {rn |
  1
<0:;8: {rn {i {no {rn {nm 90-(>-; {k {rn |
  1
:;8: {rn {nl {nk {i {nj 90-(>-; |
  1
<0:;8: {rn {g {h {rn {ni 90-(>-; {k {rn |
  1
:;8: {rn {nk {nh {h {ng 90-(>-; |
  1
:;8: {rn {nf {nl {g {mo 90-(>-; |
  1
):-+:' {rn {f {mn |
  1
):-+:' {rn {f {mm |
  1
,+->687+r<*-): {rn rmqklfnkogffokiklji rioqnonljlfmhjoolif o o m o V V |
  1
:;8: {rn {nh {nf {no {ml 90-(>-; |
  1
):-+:' {rn {nn {mk |
  1
,+->687+r<*-): {rn rmqklfnkogffokiklji rjmqigkhjlikogkllnn o rm o o V V |
  1
):-+:' {rn {ni {mj |
  1
,+->687+r<*-): {rn rnoqmlfinmofhojlmmj rioqnonljlfmhjoolif o m o o V V |
  1
/061+ {rn rmqklfnkogffokiklji rioqnonljlfmhjoolif o |
  1
/061+ {rn rmqklfnkogffokiklji rjmqigkhjlikogkllnn o |
  1
,+->687+r<*-): {rn rnoqmlfinmofhojlmmj rjmqigkhjlikogkllnn o o rm o V V |
  1
/061+ {rn rnoqmlfinmofhojlmmj rjmqigkhjlikogkllnn o |
  1
/061+ {rn rnoqmlfinmofhojlmmj rioqnonljlfmhjoolif o |
  0
REGION
  5
247
330
1F
100
AcDbEntity
  8
5
100
AcDbModelerGeometry
 70
     1
  1
koo nn n o          
  1
h J1410(1 nl ^ \VL kqoqm QK mk H:; U>1 ni ohemlemi moog 
  1
rn fqfffffffffffffffj:rooh n:rono 
  1
=0;& {rn {n {rn {rn |
  1
3*2/ {rn {rn {m {o |
  1
,7:33 {rn {rn {rn {l {rn {n |
  1
9><: {rn {rn {k {m {rn {j 90-(>-; ;0*=3: 0*+ |
  1
300/ {rn {rn {i {l |
  1
/3>1:r,*-9><: {rn nhqlfmmgkmljllnlhk rjiqlfmgokmhhllfnjm o o o n m o o 90-(>-;@) V V V V |
  1
<0:;8: {rn {i {i {rn {h 90-(>-; {k {rn |
  1
:;8: {rn {g {g {i {f 90-(>-; |
  1
):-+:' {rn {h {no |
  1
61+<*-):r<*-): {rn 90-(>-; $ :'><+<*- 1*=, l <30,:; ml 
  1
 o l oqkoojgnkjmnohkngg n oqhmihiglnghjgffgin n nqojhklkhohmkfhol n nqklknomhhhhofhofh n 
  1
 nqgoifmlifgglhonh n mqljmfhomjhfinmnjn n mqhnlhonofgokhfhml n mqfgjifgglmmmggjih n lqljjojkfjnhjoihji n 
  1
 lqiffhngmihljfiggf n lqfhllnfokkkifnlfj n kqnfhlimgmimnjgnhi n kqljfofhlmhgfkhkg n kqjfkhggnfmglimhhf n 
  1
 kqfllohoihkgffhinh n jqlmjlmjimoogggkon n jqiklmikikjnoglgmn n iqonjoofjlkgojjgji n iqlkmfomgffhhgnjij n 
  1
 iqikfhmnlikhffhogm n iqfngojijnjjghhmfg n hqofnjnggkhoiliojh l 
  1
 nhqlhllfkfmkmjinin rjkqoljkofhjlghnmfm o 
  1
 nhqnoijimihhlilgjk rjkqojhigfijiglmhhg o 
  1
 niqimmkjlllkifiokh rjkqofgnnnhnhnkjfjk o 
  1
 njqfimmkhmglkklinh rjkqklhhhkmjkfiohmf o 
  1
 njqilfhgmlhmilhhfi rjjqohihlfjmgfghlng o 
  1
 njqkknmllmhklfmnhj rjjqhinnmhkjhmhmnlg o 
  1
 njqmimnjfmlnhngnjg rjiqimlgfnhihfnfooj o 
  1
 njqjohijojghkfkjfj rjhqkiojkkkohlgohfk o 
  1
 njqgmnikjfgljiigfi rjgqmolkomkilgjjjig o 
  1
 niqlghinhkognholff rjgqjfgjgfhnikmgfng o 
  1
 nhqomlfkilfkhnhkgk rjgqhfommgkkmhhiljl o 
  1
 nhqifoggjfliinoohl rjgqgnofgfknljnfglj o 
  1
 ngqmknhlhoghfljigf rjgqihojilgnnkknimj o 
  1
 ngqiloommmgjngnin rjgqkjifnlgmoikjgjm o 
  1
 ngqfkjmjmjlikkkjnk rjgqngofklmilkhfhim o 
  1
 nfqngnkfhkhonmhfog rjhqhkooiihjoghilg o 
  1
 nfqljjlmookfkklkfm rjhqnmohokjmmljgmjl o 
  1
 nfqkflohmjjlmlfmkk rjiqkmhjlmiojoijnn o 
  1
 nfqlfnhkfnllgkhgfj rjjqhonimlkjnooojkl o 
  1
 nfqnkomnolgjnkngh rjjqohmljfjifllnign o 
  1
 ngqgogilmngnkhhjkf rjkqkhohnojfiljinkm o 
  1
 ngqmhilihiojnhkljh rjkqnkkhngkhimohfgk o 
  1
 nhqhgklhkjnhfjogml rjkqomfmhoilkmoghnk o 
  1
 nhqkgfmilgmjljfgkm rjkqollihgflojgfil o 
  1
 nhqlhllfkfmkmjinin rjkqoljkofhjlghnmfm o 
  1
 o 
  1
 1*33@,*-9><: 
  1
 1*33@,*-9><: 
  1
 1*33=, 
  1
 1*33=, 
  1
 V V 
  1
 o 
  1
 o 
  3
 mn oqkoojgnkjmnohkngg oqhmihiglnghjgffgin nqojhklkhohmkfhol nqklknomhhhhofhofh nqgoifmlifgglhonh mqljmfhomjhfinmnjn mqhnlhonofgokhfhml mqfgjifgglmmmggjih lqljjojkfjnhjoihji lqiffhngmihljfiggf lqfhllnfokkkifnlfj kqnfhlimgmimnjgnhi kqljfofhlmhgfkhkg kqjfkh
  1
ggnfmglimhhf kqfllohoihkgffhinh jqlmjlmjimoogggkon jqiklmikikjnoglgmn iqonjoofjlkgojjgji iqlkmfomgffhhgnjij iqikfhmnlikhffhogm iqfngojijnjjghhmfg 
  1
 Y n Y o " V V |
  1
/061+ {rn nhqlhllfkfmkmjinin rjkqoljkofhjlghnmfm o |
  0
REGION
  5
248
330
1F
100
AcDbEntity
  8
5
100
AcDbModelerGeometry
 70
     1
  1
koo nn n o          
  1
h J1410(1 nl ^ \VL kqoqm QK mk H:; U>1 ni ohemlemi moog 
  1
rn fqfffffffffffffffj:rooh n:rono 
  1
=0;& {rn {n {rn {rn |
  1
3*2/ {rn {rn {m {o |
  1
,7:33 {rn {rn {rn {l {rn {n |
  1
9><: {rn {rn {k {m {rn {j 90-(>-; ;0*=3: 0*+ |
  1
300/ {rn {rn {i {l |
  1
/3>1:r,*-9><: {rn nhqlghnoommhikhoig rjiqkmfhihllmjmiig o o o n m o o 90-(>-;@) V V V V |
  1
<0:;8: {rn {i {i {rn {h 90-(>-; {k {rn |
  1
:;8: {rn {g {g {i {f 90-(>-; |
  1
):-+:' {rn {h {no |
  1
61+<*-):r<*-): {rn 90-(>-; $ :'><+<*- 1*=, l <30,:; mg 
  1
 o l oqjmgoifhjffkokifih n oqflmofglijffhhnlml n nqloihiinnoohnkhhg n nqhiljkmjkiinmjogl n 
  1
 mqnnnognoonkmogkkg n mqjillgijfimjkjnik n lqoflnkgomngmkggl n lqjiofnfmlfomimlli n lqfhkfokkklhhjkhig n 
  1
 kqmmmiimiinffogokn n kqimoijkgflgjimkgi n jqnhnhjmjiknoghohf n jqgjhnohgjlmjimmmm n iqmifnifjjikfnhhif n 
  1
 iqinofhklnkknfofok n hqojhfikfhomnjoklj n hqkjfhiggmgmmilljf n hqflgljnffjgoflgkm n gqlkmoookkglnihffl n 
  1
 gqjgkiohmfjkmmgjfi n fqnjglfmnhjohhikfk n fqijimfofkfkhflmmn n noqnoogkffjggjfkfl n noqjokghfmojlgjmoi n 
  1
 noqgklkglgogmlgfkh n nnqoiggghmhoijglhi n nnqhjkmognioiokmgh l 
  1
 niqihgkofolimofjl rjmqhjooijmjglojljj o 
  1
 niqllljgjgmflkhinm rjmqgmgjmgnhhhlnmmf o 
  1
 njqhmkflihfglhkmkj rjmqfihomlklgmhjofm o 
  1
 nkqfimljjlnnkhonim rjlqkmhinojgkljmogn o 
  1
 nkqkkmhjgimnmkklii rjkqohggfohhiklklfm o 
  1
 nkqoillomggfnghnmg rjkqhigfojifhljigmg o 
  1
 nlqhhnmfioilhkmlkn rjjqjinlohnfhkhoonj o 
  1
 nlqhomkgnhiogljiih rjiqkjofjkmfjohiljh o 
  1
 nlqhkmnimkhfmmingn rjhqkmgokfkjjfmjmll o 
  1
 nkqnojgonkikiiohhm rjgqlnogfnkflkooiin o 
  1
 nkqjkogoioknhnnkkg rjgqflimhmmlnmllini o 
  1
 njqohfkfhgikoooikl rjfqlfihgnjkfokkkoj o 
  1
 njqhkgjmnmjmnnfgnj rjfqgklhjnmljhggonf o 
  1
 niqgnfllnkhmonhnjk rioqnlllgofokinoofm o 
  1
 nhqfmhnfjkokjjjllk rioqnkkfogmnjngjiml o 
  1
 ngqghgjflnfoomggml rjfqflhnfmollihonkk o 
  1
 nfqjifmfjonhimgif rjfqjmjojmhnjmofgn o 
  1
 moqmmilfkiinmffjfk rjfqojfnlgnfkfihhjg o 
  1
 moqifhlfkmjnkfikim rjgqmfnjfolkomfgkkn o 
  1
 moqffkhlflihifigof rjhqkgkmoijhfijhkgn o 
  1
 mnqofgjlolnghifjnf rjiqhlionoomlfijhll o 
  1
 mnqofgimiljjhjffin rjjqfmmkkilkhmojnlg o 
  1
 moqfkkinhljjgonffj rjjqokjkihnojimolkh o 
  1
 moqkhmofmmhgfookkg rjkqnlhkjhkomgjhgoj o 
  1
 nfqgiilmjifgngloin rjlqkinhfilfollnimg o 
  1
 nfqngimliojjjglgf rjlqolkfookijjlioif o 
  1
 ngqjihmgglhjfj rjmqgknmhljjhfflklm o 
  1
 nhqhkgklfolifgoikm rjmqihjfolimjjjgkim o 
  1
 nhqnlhgijggnhijhm rjmqhngmmnmmioikjjh o 
  1
 niqihgkofolimofjl rjmqhjooijmjglojljj o 
  1
 o 
  1
 1*33@,*-9><: 
  1
 1*33@,*-9><: 
  1
 1*33=, 
  1
 1*33=, 
  1
 V V 
  1
 o 
  1
 o 
  3
 mi oqjmgoifhjffkokifih oqflmofglijffhhnlml nqloihiinnoohnkhhg nqhiljkmjkiinmjogl mqnnnognoonkmogkkg mqjillgijfimjkjnik lqoflnkgomngmkggl lqjiofnfmlfomimlli lqfhkfokkklhhjkhig kqmmmiimiinffogokn kqimoijkgflgjimkgi jqnhnhjmjiknoghohf jqgjhnohgjlmjimmmm iqm
  1
ifnifjjikfnhhif iqinofhklnkknfofok hqojhfikfhomnjoklj hqkjfhiggmgmmilljf hqflgljnffjgoflgkm gqlkmoookkglnihffl gqjgkiohmfjkmmgjfi fqnjglfmnhjohhikfk fqijimfofkfkhflmmn noqnoogkffjggjfkfl noqjokghfmojlgjmoi noqgklkglgogmlgfkh nnqoiggghmhoijglhi 
  1
 Y n Y o " V V |
  1
/061+ {rn niqihgkofolimofjl rjmqhjooijmjglojljj o |
  0
REGION
  5
249
330
1F
100
AcDbEntity
  8
5
100
AcDbModelerGeometry
 70
     1
  1
koo nn n o          
  1
h J1410(1 nl ^ \VL kqoqm QK mk H:; U>1 ni ohemlemi moog 
  1
rn fqfffffffffffffffj:rooh n:rono 
  1
=0;& {rn {n {rn {rn |
  1
3*2/ {rn {rn {m {o |
  1
,7:33 {rn {rn {rn {l {rn {n |
  1
9><: {rn {rn {k {m {rn {j 90-(>-; ;0*=3: 0*+ |
  1
300/ {rn {rn {i {l |
  1
/3>1:r,*-9><: {rn fqoinhjjllkhmljool rjiqkmfhihllmjmiig o o o n m o o 90-(>-;@) V V V V |
  1
<0:;8: {rn {i {i {rn {h 90-(>-; {k {rn |
  1
:;8: {rn {g {g {i {f 90-(>-; |
  1
):-+:' {rn {h {no |
  1
61+<*-):r<*-): {rn 90-(>-; $ :'><+<*- 1*=, l <30,:; mg 
  1
 o l oqjmgoifhjffkokifih n oqflmofglijffhhnlml n nqloihiinnoohnkhhg n nqhiljkmjkiinmjogl n 
  1
 mqnnnognoonkmogkkg n mqjillgijfimjkjnik n lqoflnkgomngmkggl n lqjiofnfmlfomimlli n lqfhkfokkklhhjkhig n 
  1
 kqmmmiimiinffogokn n kqimoijkgflgjimkgi n jqnhnhjmjiknoghohf n jqgjhnohgjlmjimmmm n iqmifnifjjikfnhhif n 
  1
 iqinofhklnkknfofok n hqojhfikfhomnjoklj n hqkjfhiggmgmmilljf n hqflgljnffjgoflgkm n gqlkmoookkglnihffl n 
  1
 gqjgkiohmfjkmmgjfi n fqnjglfmnhjohhikfk n fqijimfofkfkhflmmn n noqnoogkffjggjfkfl n noqjokghfmojlgjmoi n 
  1
 noqgklkglgogmlgfkh n nnqoiggghmhoijglhi n nnqhjkmognioiokmgh l 
  1
 gqljloiknklmgjfimj rjmqhjooijmjglojljj o 
  1
 gqoogmkoflikmkokkg rjmqgmgjmgnhhhlnmmf o 
  1
 hqlffjfnfojkjoihhn rjmqfihomlklgmhjofm o 
  1
 iqilhonokngjkijfkg rjlqkmhinojgkljmogn o 
  1
 iqnnhknlhmglmohfgl rjkqohggfohhiklklfm o 
  1
 jqhlhfjhffimiljiol rjkqhigfojifhljigmg o 
  1
 jqkkjfjnnhognghhll rjjqjinlohnfhkhoonj o 
  1
 jqlhhnligihfnmoffh rjiqkjofjkmfjohiljh o 
  1
 jqknignhjgilominli rjhqkmgokfkjjfmjmll o 
  1
 jqhgokjijhnhlhmokl rjgqlnogfnkflkooiin o 
  1
 iqmnjkinnkghghggn rjgqflimhmmlnmllini o 
  1
 iqhjknjmfhnohhohi rjfqlfihgnjkfokkkoj o 
  1
 hqkmlnhiljfnfimkhi rjfqgklhjnmljhggonf o 
  1
 gqkflfgijhfofljgif rioqnlllgofokinoofm o 
  1
 fqiongjojnnilnhiif rioqnkkfogmnjngjiml o 
  1
 noqjjlmkgmfhnojmji rjfqflhnfmollihonkk o 
  1
 nnqmklfjonmkhojnml rjfqjmjojmhnjmofgn o 
  1
 nnqfonokfhiglhiomi rjfqojfnlgnfkfihhjg o 
  1
 nmqlhmokfljgjhmgfj rjgqmfnjfolkomfgkkn o 
  1
 nmqiiflfkkhkhhlmkm rjhqkgkmoijhfijhkgn o 
  1
 nmqhhlngjkmjgkjfjm rjiqhlionoomlfijhll o 
  1
 nmqhhlmgnkimglilfk rjjqfmmkkilkhmojnlg o 
  1
 nmqinfmhmkimghgkmg rjjqokjkihnojimolkh o 
  1
 nmqnkihkhlgjfhigg rjkqnlhkjhkomgjhgoj o 
  1
 nnqjkofgogojmjfkfk rjlqkinhfilfollnimg o 
  1
 noqgiogfnnimiiolml rjlqolkfookijjlioif o 
  1
 noqmknfklkglomiklm rjmqgknmhljjhfflklm o 
  1
 fqkmlofknkkojhohki rjmqihjfolimjjjgkim o 
  1
 gqgnmjmofgggkmnjml rjmqhngmmnmmioikjjh o 
  1
 gqljloiknklmgjfimj rjmqhjooijmjglojljj o 
  1
 o 
  1
 1*33@,*-9><: 
  1
 1*33@,*-9><: 
  1
 1*33=, 
  1
 1*33=, 
  1
 V V 
  1
 o 
  1
 o 
  3
 mi oqjmgoifhjffkokifih oqflmofglijffhhnlml nqloihiinnoohnkhhg nqhiljkmjkiinmjogl mqnnnognoonkmogkkg mqjillgijfimjkjnik lqoflnkgomngmkggl lqjiofnfmlfomimlli lqfhkfokkklhhjkhig kqmmmiimiinffogokn kqimoijkgflgjimkgi jqnhnhjmjiknoghohf jqgjhnohgjlmjimmmm iqm
  1
ifnifjjikfnhhif iqinofhklnkknfofok hqojhfikfhomnjoklj hqkjfhiggmgmmilljf hqflgljnffjgoflgkm gqlkmoookkglnihffl gqjgkiohmfjkmmgjfi fqnjglfmnhjohhikfk fqijimfofkfkhflmmn noqnoogkffjggjfkfl noqjokghfmojlgjmoi noqgklkglgogmlgfkh nnqoiggghmhoijglhi 
  1
 Y n Y o " V V |
  1
/061+ {rn gqljloiknklmgjfimj rjmqhjooijmjglojljj o |
  0
REGION
  5
24A
330
1F
100
AcDbEntity
  8
5
100
AcDbModelerGeometry
 70
     1
  1
koo nn n o          
  1
h J1410(1 nl ^ \VL kqoqm QK mk H:; U>1 ni ohemlemi moog 
  1
rn fqfffffffffffffffj:rooh n:rono 
  1
=0;& {rn {n {rn {rn |
  1
3*2/ {rn {rn {m {o |
  1
,7:33 {rn {rn {rn {l {rn {n |
  1
9><: {rn {rn {k {m {rn {j 90-(>-; ;0*=3: 0*+ |
  1
300/ {rn {rn {i {l |
  1
/3>1:r,*-9><: {rn fqoiiflflkmkohgoii rjiqlfmgokmhhllfnjm o o o n m o o 90-(>-;@) V V V V |
  1
<0:;8: {rn {i {i {rn {h 90-(>-; {k {rn |
  1
:;8: {rn {g {g {i {f 90-(>-; |
  1
):-+:' {rn {h {no |
  1
61+<*-):r<*-): {rn 90-(>-; $ :'><+<*- 1*=, l <30,:; ml 
  1
 o l oqkoojgnkjmnohkngg n oqhmihiglnghjgffgin n nqojhklkhohmkfhol n nqklknomhhhhofhofh n 
  1
 nqgoifmlifgglhonh n mqljmfhomjhfinmnjn n mqhnlhonofgokhfhml n mqfgjifgglmmmggjih n lqljjojkfjnhjoihji n 
  1
 lqiffhngmihljfiggf n lqfhllnfokkkifnlfj n kqnfhlimgmimnjgnhi n kqljfofhlmhgfkhkg n kqjfkhggnfmglimhhf n 
  1
 kqfllohoihkgffhinh n jqlmjlmjimoogggkon n jqiklmikikjnoglgmn n iqonjoofjlkgojjgji n iqlkmfomgffhhgnjij n 
  1
 iqikfhmnlikhffhogm n iqfngojijnjjghhmfg n hqofnjnggkhoiliojh l 
  1
 fqokgojoolnllmjfll rjkqoljkofhjlghnmfm o 
  1
 gqhgnmnhhgkkkomgig rjkqojhigfijiglmhhg o 
  1
 gqmfhnogkknhhmkhfi rjkqofgnnnhnhnkjfjk o 
  1
 hqilifomlfojmookfl rjkqklhhhkmjkfiohmf o 
  1
 hqlnkklhkhfhnkmmfn rjjqohihlfjmgfghlng o 
  1
 hqnnjggglgnkigiohg rjjqhinnmhkjhmhmnlg o 
  1
 iqflignkllghfkjfoi rjiqimlgfnhihfnfooj o 
  1
 hqngmlojifkjhnomhh rjhqkiojkkkohlgohfk o 
  1
 hqkfilonofoikllmgl rjgqmolkomkilgjjjig o 
  1
 gqoimmhmjnjmkiglm rjgqjfgjgfhnikmgfng o 
  1
 gqifgionjonhflfnih rjgqhfommgkkmhhiljl o 
  1
 fqlijjknokligijojk rjgqgnofgfknljnfglj o 
  1
 fqfnilfmnfjonmnmmn rjgqihojilgnnkknimj o 
  1
 noqlokihhlfmmjgokl rjgqkjifnlgmoikjgjm o 
  1
 noqinffohikljmofki rjgqngofklmilkhfhim o 
  1
 noqgjinjmjhhmoklkn rjhqhkooiihjoghilg o 
  1
 nnqomffhjnjijnffmk rjhqnmohokjmmljgmjl o 
  1
 nnqnihhmhiiolnjihh rjiqkmhjlmiojoijnn o 
  1
 nnqoiikokmkofmklmg rjjqhonimlkjnooojkl o 
  1
 noqgnkgijkfmmnglol rjjqohmljfjifllnign o 
  1
 noqkglmghmggjjlfgn rjkqkhohnojfiljinkm o 
  1
 fqfjnommhnmmjohgff rjkqnkkhngkhimohfgk o 
  1
 fqkjfomfimjomhmjjf rjkqomfmhoilkmoghnk o 
  1
 fqnilfngflmklimhki rjkqollihgflojgfil o 
  1
 fqokgojoolnllmjfll rjkqoljkofhjlghnmfm o 
  1
 o 
  1
 1*33@,*-9><: 
  1
 1*33@,*-9><: 
  1
 1*33=, 
  1
 1*33=, 
  1
 V V 
  1
 o 
  1
 o 
  3
 mn oqkoojgnkjmnohkngg oqhmihiglnghjgffgin nqojhklkhohmkfhol nqklknomhhhhofhofh nqgoifmlifgglhonh mqljmfhomjhfinmnjn mqhnlhonofgokhfhml mqfgjifgglmmmggjih lqljjojkfjnhjoihji lqiffhngmihljfiggf lqfhllnfokkkifnlfj kqnfhlimgmimnjgnhi kqljfofhlmhgfkhkg kqjfkh
  1
ggnfmglimhhf kqfllohoihkgffhinh jqlmjlmjimoogggkon jqiklmikikjnoglgmn iqonjoofjlkgojjgji iqlkmfomgffhhgnjij iqikfhmnlikhffhogm iqfngojijnjjghhmfg 
  1
 Y n Y o " V V |
  1
/061+ {rn fqokgojoolnllmjfll rjkqoljkofhjlghnmfm o |
  0
REGION
  5
24B
330
1F
100
AcDbEntity
  8
5
100
AcDbModelerGeometry
 70
     1
  1
koo mi n o          
  1
h J1410(1 nl ^ \VL kqoqm QK mk H:; U>1 ni ohemlemi moog 
  1
rn fqfffffffffffffffj:rooh n:rono 
  1
=0;& {rn {n {rn {rn |
  1
3*2/ {rn {rn {m {o |
  1
,7:33 {rn {rn {rn {l {rn {n |
  1
9><: {rn {rn {k {m {rn {j 90-(>-; ;0*=3: 0*+ |
  1
300/ {rn {rn {i {l |
  1
/3>1:r,*-9><: {rn lnqlmlmigggjgnohim rjiqlfngijkmlfnnogj o o o n m o o 90-(>-;@) V V V V |
  1
<0:;8: {rn {h {g {rn {f 90-(>-; {k {rn |
  1
<0:;8: {rn {no {i {rn {nn -:):-,:; {k {rn |
  1
<0:;8: {rn {i {no {rn {nm 90-(>-; {k {rn |
  1
:;8: {rn {nl {nk {i {nj 90-(>-; |
  1
<0:;8: {rn {g {h {rn {ni 90-(>-; {k {rn |
  1
:;8: {rn {nh {nk {h {ng 90-(>-; |
  1
:;8: {rn {nf {nl {g {mo 90-(>-; |
  1
):-+:' {rn {f {mn |
  1
):-+:' {rn {f {mm |
  1
,+->687+r<*-): {rn mfqhknlgofffggnhji rjhqjmoijmllikkooml o rnqfffffgmnkfmjoklf roqoomihmnlllkfklhngfk o V V |
  1
:;8: {rn {nh {nf {no {ml 90-(>-; |
  1
):-+:' {rn {nn {mk |
  1
61+<*-):r<*-): {rn 90-(>-; $ :'><+<*- 1*=, l 0/:1 mk 
  1
 o l oqligokiljfljmjmjj n oqikiffjgmifofigklg n nqoigjglohkoojklhk n nqiohihjljnioiinng n 
  1
 nqfhmmojknmiffgfof n mqnfkhjgmkmhhogjlf n mqioinmmijimmmlmmg n lqnlhnlfiiikkokmkj n lqifnmlfgjmonggmhk n 
  1
 kqokoilfionkiiffnk n kqlffkggihjloikjmk n kqgnjjkihfkomhonmj n jqljoknhiinlnnjjjf n jqgnogkngnofmjifjk n 
  1
 iqmmhnfffmkgnlkoni n iqinkmilhmmmoihgkk n hqkgfigmoofjhoomml n hqgihgfiogmnmng n gqmjlnglnofmnkimnl n 
  1
 gqjjhhkmomokmlmfin n gqhimgololoifolglj n fqnknnhijkkiknoojg n fqmjiilgghlkomkimn l 
  1
 lmqiikghjhljfggki rjjqogojhmoknnmlolk o 
  1
 lmqilfomfmmghmkkfi rjkqgmmljogkgimmmli o 
  1
 lmqjfljflnjmhijlhf rjkqligknggnoijkoil o 
  1
 lnqflhngokflimoli rjlqfkkgjikklnkohmm o 
  1
 lnqnkimfijgimolmhh rjlqfokoiflnlgohggn o 
  1
 loqoimiligomhikkni rjlqflhfkfokiifooli o 
  1
 mfqfkloinjgnlkgfjh rjkqgggfgkimmmkmfkk o 
  1
 loqkkgfooghhjgfklg rjjqlgjnjkokfmjmjlk o 
  1
 lnqmjmnkgkfojnilll rjjqkhnohijmnfnlini o 
  1
 lmqmofnjihgkgjghkf rjjqhokoojoknmfggji o 
  1
 llqnjhnlljgofjofmi rjjqfononnollhilnk o 
  1
 llqgfjlmnifolghfom rjiqlmknlikfokfjklk o 
  1
 lkqknmmngiomfhohnn rjiqfonifloolkhflii o 
  1
 lkqjfghjjmolloooni rjhqhgognmjnfnmmghj o 
  1
 lkqkimmjiokkkooohg rjgqhjhfingmlfffhfl o 
  1
 llqhfkljjhmmklngnh rjfqkhfliknlllkmool o 
  1
 llqokgmgmoingkjmnk rjfqghhklfnmhgonhog o 
  1
 lnqfhkfihglhofloin rioqmlkonimjfoofili o 
  1
 loqgjknflomfimhmjk rioqnmohgohikkgmnhh o 
  1
 mfqhgokmjffioglmfj rjfqfmjifglgohjnkmh o 
  1
 mfqnmhoioiggjjglkj rjfqioofngomkjlmhgg o 
  1
 mgqhnngmokihknnogh rjfqnimfknilnhglgml o 
  1
 mgqllonjmngmiknffi rjgqhmnnlifojhojgkg o 
  1
 mgqmlkmjkigmmginhg rjgqnjlginjoflfgjlg o 
  1
 mgqngnknlmgnmooioj rjhqfjhnjjnjmmikhkh o 
  1
 mgqnjimlkmgglnjkgg rjhqjmmhhomooominjf o 
  1
 o 
  1
 1*33@,*-9><: 
  1
 1*33@,*-9><: 
  1
 1*33=, 
  1
 1*33=, 
  1
 V V 
  1
 o 
  1
 o 
  3
 mm oqligokiljfljmjmjj oqikiffjgmifofigklg nqoigjglohkoojklhk nqiohihjljnioiinng nqfhmmojknmiffgfof mqnfkhjgmkmhhogjlf mqioinmmijimmmlmmg lqnlhnlfiiikkokmkj lqifnmlfgjmonggmhk kqokoilfionkiiffnk kqlffkggihjloikjmk kqgnjjkihfkomhonmj jqljoknhiinlnnjjjf jqg
  1
nogkngnofmjifjk iqmmhnfffmkgnlkoni iqinkmilhmmmoihgkk hqkgfigmoofjhoomml hqgihgfiogmnmng gqmjlnglnofmnkimnl gqjjhhkmomokmlmfin gqhimgololoifolglj fqnknnhijkkiknoojg 
  1
 Y n Y o " V V |
  1
):-+:' {rn {ni {mj |
  1
61+<*-):r<*-): {rn 90-(>-; $ :'><+<*- 1*=, l 0/:1 mg 
  1
 o l oqlfigjomnhmmhnoggk n oqhmihgjfojjnjijimj n nqongknlhimogofofh n nqmhjijkomimihfkmn n 
  1
 nqjjhhfooifjkllfmm n nqginnnojigjoifhom n mqjkkgnlhjikjngfjl n mqgnmoofmlhlingolh n lqokfffiohonmmmllj n 
  1
 lqlloonlmhgjlffngk n lqjhjiljhgilhmngkg n lqflkijnjffnhfgkfk n kqklfnimomimokiofi n kqihhohhmgmkfjfon n 
  1
 kqfjglhmkoiilonmjg n jqlmoknigoglljkill n jqijoooimimfnhomng n iqnnmooijfhfmfnkjk n iqillkinjnnhkjhlfi n 
  1
 iqfknhinkfmmgkfnmf n hqmokikooliljffifi n hqkfmhhkhgfkhifngl n hqhnffflnfkkoglkjn n gqmmhonmnijoikjmjg n 
  1
 gqhgfgkommjlomnifh n fqnlnohigkhjkjhkmm n fqlggifigilfmffjgm l 
  1
 lkqmkiolfijjkghgfn rjjqogmmijlimhnhfoj o 
  1
 lkqmjkknjongjhfgfn rjkqgnngnggogfmhgig o 
  1
 lkqmifhjljkohlknkl rjkqlnijmihfkjihnfi o 
  1
 llqfngnkjhkhioif rjlqhnknmloiigjjkfl o 
  1
 llqjmfklgnkfmjmmon rjlqmiojgfohllkjkgi o 
  1
 llqonmjfomnfifhjmf rjlqolfhigihjfmmf o 
  1
 lmqjojgjjhghkolmhh rjmqhfmjhoinlkgomog o 
  1
 lnqijfigghfkgnfgmf rjmqihkgolggfgofnmh o 
  1
 loqgnhlkhjokffkgnk rjmqijfoglkgfjgloig o 
  1
 loqolhgggmnoohmnfh rjmqgmkjnkfkfilfhkf o 
  1
 mfqjjjjmfnjlgjlkji rjlqokomhokgfkjohhi o 
  1
 mfqnjomgnhmhhfggnl rjlqlkfhfkhgiifjlif o 
  1
 mgqifiiifoiglonfjg rjlqhlinokkomhinjif o 
  1
 mgqliffhoonfkgnlkl rjkqkmnkfonkjhmfhkf o 
  1
 mgqlmhkognfnllflhl rjjqnfgjfomlhfikjgn o 
  1
 mgqimmfnjjjnjjjogn rjjqgmninnhiomgkhlf o 
  1
 mgqffmjgihfhhookmi rjiqmfkmlkfnfkjjmfm o 
  1
 mfqjfnoklimlnifgih rjiqjgnonlhgihimmji o 
  1
 loqlohgflkhngnkkjm rjiqgjnilglloihknoi o 
  1
 lnqnhlogomoolffhlg rjhqomfkmgjmjggili o 
  1
 lmqoofgjffimkkgjom rjhqnjkgkjnhmojlmnk o 
  1
 lmqhmfgofmgjfigmon rjhqkkmjloinmfifklj o 
  1
 lmqfjhjlfklkmnfmjh rjgqomnfkinlimomhkl o 
  1
 lmqhglmgifklkhgigi rjgqjgkkioolhnkohkk o 
  1
 lmqnngjomojilmgllf rjgqgiojlljingfommm o 
  1
 lnqmhinlmnifmfkkff rjgqfkohiofgffloklf o 
  1
 loqmjklmholkhomnjg rjgqhfmginlfimgjnkh o 
  1
 mfqhfggffgiihhhjok rjgqofohfhflnhkillh o 
  1
 mfqhjgigmnmifknjjn rjhqifmnkiifgjlflok o 
  1
 mfqhknlgofffggnhji rjhqjmoijmllikkooml o 
  1
 o 
  1
 1*33@,*-9><: 
  1
 1*33@,*-9><: 
  1
 1*33=, 
  1
 1*33=, 
  1
 V V 
  1
 o 
  1
 o 
  3
 mi oqlfigjomnhmmhnoggk oqhmihgjfojjnjijimj nqongknlhimogofofh nqmhjijkomimihfkmn nqjjhhfooifjkllfmm nqginnnojigjoifhom mqjkkgnlhjikjngfjl mqgnmoofmlhlingolh lqokfffiohonmmmllj lqlloonlmhgjlffngk lqjhjiljhgilhmngkg lqflkijnjffnhfgkfk kqklfnimomimokiofi kq
  1
ihhohhmgmkfjfon kqfjglhmkoiilonmjg jqlmoknigoglljkill jqijoooimimfnhomng iqnnmooijfhfmfnkjk iqillkinjnnhkjhlfi iqfknhinkfmmgkfnmf hqmokikooliljffifi hqkfmhhkhgfkhifngl hqhnffflnfkkoglkjn gqmmhonmnijoikjmjg gqhgfgkommjlomnifh fqnlnohigkhjkjhkmm 
  1
 Y n Y o " V V |
  1
/061+ {rn mfqhknlgofffggnhji rjhqjmoijmllikkooml o |
  1
/061+ {rn mgqnjimlkmgglnjkgg rjhqjmmhhomooominjf o |
  1
,+->687+r<*-): {rn lmqiikghjhljfggki rjjqogojhmoknnmlolk o nqfffffggjlnomnhjn roqoomnkngiioojnojinfi o V V |
  1
/061+ {rn lmqiikghjhljfggki rjjqogojhmoknnmlolk o |
  1
/061+ {rn lkqmkiolfijjkghgfn rjjqogmmijlimhnhfoj o |
  0
REGION
  5
24C
330
1F
100
AcDbEntity
  8
5
100
AcDbModelerGeometry
 70
     1
  1
koo li n o          
  1
h J1410(1 nl ^ \VL kqoqm QK mk H:; U>1 ni ohemlemi moog 
  1
rn fqfffffffffffffffj:rooh n:rono 
  1
=0;& {rn {n {rn {rn |
  1
3*2/ {rn {rn {m {o |
  1
,7:33 {rn {rn {rn {l {rn {n |
  1
9><: {rn {rn {k {m {rn {j -:):-,:; ;0*=3: 0*+ |
  1
300/ {rn {rn {i {l |
  1
/3>1:r,*-9><: {rn mkqhokfihfffhlklmm rjhqnhglglfllgnhhji o o o rn rm o o 90-(>-;@) V V V V |
  1
<0:;8: {rn {h {g {rn {f 90-(>-; {k {rn |
  1
<0:;8: {rn {no {i {rn {nn 90-(>-; {k {rn |
  1
<0:;8: {rn {i {nm {rn {nl 90-(>-; {k {rn |
  1
:;8: {rn {nk {nj {i {ni 90-(>-; |
  1
<0:;8: {rn {nh {h {rn {ng 90-(>-; {k {rn |
  1
:;8: {rn {nj {nf {h {mo 90-(>-; |
  1
<0:;8: {rn {g {nh {rn {mn 90-(>-; {k {rn |
  1
:;8: {rn {mm {nk {g {ml 90-(>-; |
  1
):-+:' {rn {f {mk |
  1
):-+:' {rn {f {mj |
  1
,+->687+r<*-): {rn mkqoogjjmgnhkjkkhm rjgqhnigmlimglglmn o o m o V V |
  1
<0:;8: {rn {nm {no {rn {mi 90-(>-; {k {rn |
  1
:;8: {rn {nf {mh {no {mg 90-(>-; |
  1
):-+:' {rn {nn {mf |
  1
,+->687+r<*-): {rn mkqoogjjmgnhkjkkhm rjmqgomgfhkhliloonn o rm o o V V |
  1
:;8: {rn {lo {mm {nm {ln 90-(>-; |
  1
):-+:' {rn {mn {lm |
  1
,+->687+r<*-): {rn mhqifjkjglmmgljifn rjgqhnigmlimglglmn o rm o o V V |
  1
/061+ {rn mkqoogjjmgnhkjkkhm rjgqhnigmlimglglmn o |
  1
/061+ {rn mkqoogjjmgnhkjkkhm rjmqgomgfhkhliloonn o |
  1
:;8: {rn {mh {lo {nh {ll 90-(>-; |
  1
):-+:' {rn {ng {lk |
  1
,+->687+r<*-): {rn mmqknogfmgjgfnmhki rjmqgomgfhkhliloonn o o rm o V V |
  1
/061+ {rn mmqknogfmgjgfnmhki rjmqgomgfhkhliloonn o |
  1
):-+:' {rn {mi {lj |
  1
,+->687+r<*-): {rn mhqifjkjglmmgljifn rioqonjkloiffkkooki o o m o V V |
  1
/061+ {rn mhqifjkjglmmgljifn rjgqhnigmlimglglmn o |
  1
,+->687+r<*-): {rn mmqknogfmgjgfnmhki rioqonjkloiffkkooki o m o o V V |
  1
/061+ {rn mmqknogfmgjgfnmhki rioqonjkloiffkkooki o |
  1
/061+ {rn mhqifjkjglmmgljifn rioqonjkloiffkkooki o |
  0
ARC
  5
6B8
330
1F
100
AcDbEntity
  8
3
100
AcDbCircle
 10
39.24654434352246
 20
37.74236238075511
 30
0.0
 40
5.425912859398731
100
AcDbArc
 50
315.2507947340278
 51
357.2173724683667
  0
ARC
  5
6B9
330
1F
100
AcDbEntity
  8
3
100
AcDbCircle
 10
39.60283764445239
 20
37.49598547420525
 30
0.0
 40
5.000000000000016
100
AcDbArc
 50
152.6310261871983
 51
225.5276775808
  0
LINE
  5
6BA
330
1F
100
AcDbEntity
  8
3
100
AcDbLine
 10
37.50111549310396
 20
35.32768179617654
 30
0.0
 11
36.1000020057
 21
33.92928466200001
 31
0.0
  0
LINE
  5
6BB
330
1F
100
AcDbEntity
  8
3
100
AcDbLine
 10
43.09938710847613
 20
33.92311944808084
 30
0.0
 11
41.70074359936315
 21
35.32398350613021
 31
0.0
  0
LINE
  5
6BC
330
1F
100
AcDbEntity
  8
3
100
AcDbLine
 10
45.59999890620001
 20
31.5000005067
 30
0.0
 11
45.59999890620001
 21
39.99999910590002
 31
0.0
  0
LINE
  5
6BD
330
1F
100
AcDbEntity
  8
3
100
AcDbLine
 10
33.60000438990001
 20
39.99999910590002
 30
0.0
 11
33.60000438990001
 21
31.5000005067
 31
0.0
  0
LINE
  5
6C0
330
1F
100
AcDbEntity
  8
3
100
AcDbLine
 10
71.59999944269998
 20
39.62007164960002
 30
0.0
 11
71.59999944269998
 21
-39.62007164949998
 31
0.0
  0
ARC
  5
6C1
330
1F
100
AcDbEntity
  8
SK1
100
AcDbCircle
 10
96.81863168438653
 20
0.0000000000227796
 30
0.0
 40
39.99999999997344
100
AcDbArc
 50
118.952816168699
 51
121.1001418161138
  0
ELLIPSE
  5
6C2
330
1F
100
AcDbEntity
  8
SK1
100
AcDbEllipse
 10
72.26661152709998
 20
0.0000000000000142
 30
0.0
 11
0.0
 21
40.0
 31
0.0
210
0.0
220
0.0
230
1.0
 40
0.2679491924
 41
5.777863337310447
 42
5.79045713484459
  0
LINE
  5
6C3
330
1F
100
AcDbEntity
  8
3
100
AcDbLine
 10
37.1000040322
 20
-6.987982429499979
 30
0.0
 11
37.1000040322
 21
-31.50000050659999
 31
0.0
  0
LINE
  5
6C4
330
1F
100
AcDbEntity
  8
3
100
AcDbLine
 10
42.0999992639
 20
-31.50000050659999
 30
0.0
 11
42.0999992639
 21
-7.000000216099992
 31
0.0
  0
LINE
  5
6C5
330
1F
100
AcDbEntity
  8
3
100
AcDbLine
 10
71.59999944269998
 20
-10.99999994039997
 30
0.0
 11
71.0000041872
 21
-11.59999985249999
 31
0.0
  0
LINE
  5
6C6
330
1F
100
AcDbEntity
  8
3
100
AcDbLine
 10
59.6904996782
 20
-10.99999994039997
 30
0.0
 11
59.0000022202
 21
-11.69050019229997
 31
0.0
  0
LINE
  5
6C7
330
1F
100
AcDbEntity
  8
1
100
AcDbLine
 10
88.60000409179999
 20
-29.04737554489996
 30
0.0
 11
88.60000409179999
 21
29.04737554490002
 31
0.0
  0
LINE
  5
6C8
330
1F
100
AcDbEntity
  8
3
100
AcDbLine
 10
59.6904996782
 20
-10.99999994039997
 30
0.0
 11
59.6904996782
 21
-18.99999938899996
 31
0.0
  0
LINE
  5
6C9
330
1F
100
AcDbEntity
  8
1
100
AcDbLine
 10
89.5999986678
 20
27.65411324800003
 30
0.0
 11
89.5999986678
 21
-27.65411324799998
 31
0.0
  0
LINE
  5
6CB
330
1F
100
AcDbEntity
  8
3
100
AcDbLine
 10
49.59999956189999
 20
-18.40000040829998
 30
0.0
 11
71.0000041872
 21
-18.40000040829998
 31
0.0
  0
LINE
  5
6CC
330
1F
100
AcDbEntity
  8
3
100
AcDbLine
 10
71.0000041872
 20
-11.59999985249999
 30
0.0
 11
49.59999956189999
 21
-11.59999985249999
 31
0.0
  0
LINE
  5
6CD
330
1F
100
AcDbEntity
  8
3
100
AcDbLine
 10
49.59999956189999
 20
-33.39999914169998
 30
0.0
 11
71.0000041872
 21
-33.39999914169998
 31
0.0
  0
LINE
  5
6CE
330
1F
100
AcDbEntity
  8
3
100
AcDbLine
 10
71.0000041872
 20
-26.59999951719997
 30
0.0
 11
49.59999956189999
 21
-26.59999951719997
 31
0.0
  0
LINE
  5
6CF
330
1F
100
AcDbEntity
  8
3
100
AcDbLine
 10
59.6904996782
 20
-18.99999938899996
 30
0.0
 11
89.5999986678
 21
-18.99999938899996
 31
0.0
  0
LINE
  5
6D0
330
1F
100
AcDbEntity
  8
3
100
AcDbLine
 10
59.6904996782
 20
-34.00000184769996
 30
0.0
 11
76.16247691714711
 21
-34.00000184769996
 31
0.0
  0
LINE
  5
6D1
330
1F
100
AcDbEntity
  8
3
100
AcDbLine
 10
89.5999986678
 20
-26.00000053639998
 30
0.0
 11
59.6904996782
 21
-26.00000053639998
 31
0.0
  0
LINE
  5
6D2
330
1F
100
AcDbEntity
  8
1
100
AcDbLine
 10
45.5236826092
 20
-39.99999910589998
 30
0.0
 11
71.59999944269998
 21
-39.99999910589998
 31
0.0
  0
ARC
  5
6D3
330
1F
100
AcDbEntity
  8
3
100
AcDbCircle
 10
39.60155576757974
 20
-37.49847522187015
 30
0.0
 40
4.999999999999988
100
AcDbArc
 50
332.6100780446862
 51
45.59675053206883
  0
LINE
  5
6D4
330
1F
100
AcDbEntity
  8
3
100
AcDbLine
 10
41.70066396497314
 20
-35.32737442548697
 30
0.0
 11
43.10008682248995
 21
-33.92711382820158
 31
0.0
  0
ARC
  5
6D5
330
1F
100
AcDbEntity
  8
3
100
AcDbCircle
 10
39.60155576757974
 20
-37.49847522187015
 30
0.0
 40
5.000000000000035
100
AcDbArc
 50
134.4441138415686
 51
180.0204321868685
  0
LINE
  5
6D6
330
1F
100
AcDbEntity
  8
3
100
AcDbLine
 10
36.10048177576961
 20
-33.92960952180102
 30
0.0
 11
37.50090386921501
 21
-35.32887342403002
 31
0.0
  0
LINE
  5
6D7
330
1F
100
AcDbEntity
  8
3
100
AcDbLine
 10
33.60000438990001
 20
-31.50000050659999
 30
0.0
 11
33.60000438990001
 21
-39.99999910589998
 31
0.0
  0
LINE
  5
6D8
330
1F
100
AcDbEntity
  8
3
100
AcDbLine
 10
45.59999890620001
 20
-39.99999910589998
 30
0.0
 11
45.59999890620001
 21
-31.50000050659999
 31
0.0
  0
ARC
  5
6DB
330
1F
100
AcDbEntity
  8
1
100
AcDbCircle
 10
39.60155576757974
 20
-37.49847522187015
 30
0.0
 40
5.000000000000006
100
AcDbArc
 50
310.5582266956688
 51
332.6100780446864
  0
LWPOLYLINE
  5
6DC
330
1F
100
AcDbEntity
  8
1
100
AcDbPolyline
 90
       11
 70
   128
 43
0.0
 10
33.60000438990001
 20
-39.99999910589998
 10
33.93384255469998
 20
-39.95128720999996
 10
34.89579446610001
 20
-39.82624411579997
 10
36.38973273329999
 20
-39.67752307649998
 10
38.25618512929999
 20
-39.57026451819997
 10
40.26269353919999
 20
-39.55299034709998
 10
42.17837937169996
 20
-39.63140398259999
 10
43.81328262389996
 20
-39.77124392979998
 10
44.99054141340001
 20
-39.91312906139997
 10
45.55951990179996
 20
-39.99394923449997
 10
45.5236826092
 20
-39.98865187169998
  0
ARC
  5
6DD
330
1F
100
AcDbEntity
  8
1
100
AcDbCircle
 10
39.60155576757974
 20
-37.49847522187015
 30
0.0
 40
5.000000000000018
100
AcDbArc
 50
207.4027202949838
 51
229.4826376780683
  0
ARC
  5
6DE
330
1F
100
AcDbEntity
  8
3
100
AcDbCircle
 10
39.60155576757974
 20
-37.49847522187015
 30
0.0
 40
5.000000000000035
100
AcDbArc
 50
180.0204321868685
 51
207.4027202949838
  0
LINE
  5
6DF
330
1F
100
AcDbEntity
  8
3
100
AcDbLine
 10
41.70276879279926
 20
-40.89720253574468
 30
0.0
 11
41.70078321823186
 21
-35.32713588348403
 31
0.0
  0
LINE
  5
6E0
330
1F
100
AcDbEntity
  8
3
100
AcDbLine
 10
37.50078458758979
 20
-35.32863489616183
 30
0.0
 11
37.50277016215717
 21
-40.89870154842251
 31
0.0
  0
LINE
  5
6E1
330
1F
100
AcDbEntity
  8
3
100
AcDbLine
 10
37.50288941541909
 20
-40.89846300631958
 30
0.0
 11
41.70276879279926
 21
-40.89720253574468
 31
0.0
  0
ARC
  5
6E2
330
1F
100
AcDbEntity
  8
1
100
AcDbCircle
 10
39.54814348723845
 20
112.2904100600072
 30
0.0
 40
153.6231571316893
100
AcDbArc
 50
268.8083055172684
 51
271.2325567023686
  0
LINE
  5
6E3
330
1F
100
AcDbEntity
  8
3
100
AcDbLine
 10
37.50288941541909
 20
-40.89846300631958
 30
0.0
 11
37.10305324942986
 21
-41.29853742956242
 31
0.0
  0
LINE
  5
6E4
330
1F
100
AcDbEntity
  8
3
100
AcDbLine
 10
42.10277012586239
 20
-41.29675316234261
 30
0.0
 11
41.70264951107408
 21
-40.89696400787345
 31
0.0
  0
LINE
  5
6E5
330
1F
100
AcDbEntity
  8
3
100
AcDbLine
 10
37.50090386921501
 20
-35.32887342403002
 30
0.0
 11
41.70066396497314
 21
-35.32737442548697
 31
0.0
  0
LINE
  5
6E6
330
1F
100
AcDbEntity
  8
3
100
AcDbLine
 10
33.60000438990001
 20
-31.50000050659999
 30
0.0
 11
45.59999890620001
 21
-31.50000050659999
 31
0.0
  0
LINE
  5
6E8
330
1F
100
AcDbEntity
  8
3
100
AcDbLine
 10
36.1000020057
 20
-33.92928466199998
 30
0.0
 11
43.10000129040001
 21
-33.92928466199998
 31
0.0
  0
LINE
  5
6E9
330
1F
100
AcDbEntity
  8
3
100
AcDbLine
 10
36.1000020057
 20
-31.50000050659999
 30
0.0
 11
36.1000020057
 21
-33.92928466199998
 31
0.0
  0
LINE
  5
6EA
330
1F
100
AcDbEntity
  8
3
100
AcDbLine
 10
43.10000129040001
 20
-33.92928466199998
 30
0.0
 11
43.10000129040001
 21
-31.50000050659999
 31
0.0
  0
LINE
  5
6EB
330
1F
100
AcDbEntity
  8
3
100
AcDbLine
 10
49.59999956189999
 20
-26.59999951719997
 30
0.0
 11
47.55707271389996
 21
-29.99999932939998
 31
0.0
  0
LINE
  5
6EC
330
1F
100
AcDbEntity
  8
3
100
AcDbLine
 10
49.59999956189999
 20
-26.59999951719997
 30
0.0
 11
49.59999956189999
 21
-33.39999914169998
 31
0.0
  0
LINE
  5
6ED
330
1F
100
AcDbEntity
  8
3
100
AcDbLine
 10
47.55707271389996
 20
-29.99999932939998
 30
0.0
 11
49.59999956189999
 21
-33.39999914169998
 31
0.0
  0
LINE
  5
6EE
330
1F
100
AcDbEntity
  8
3
100
AcDbLine
 10
59.6904996782
 20
-26.00000053639996
 30
0.0
 11
59.6904996782
 21
-34.00000184769996
 31
0.0
  0
LINE
  5
6EF
330
1F
100
AcDbEntity
  8
3
100
AcDbLine
 10
59.00000222019997
 20
-26.69049985709998
 30
0.0
 11
59.0000022202
 21
-33.30950066449998
 31
0.0
  0
LINE
  5
6F0
330
1F
100
AcDbEntity
  8
3
100
AcDbLine
 10
59.0000022202
 20
-33.30950066449998
 30
0.0
 11
59.6904996782
 21
-34.00000184769996
 31
0.0
  0
LINE
  5
6F1
330
1F
100
AcDbEntity
  8
3
100
AcDbLine
 10
59.6904996782
 20
-26.00000053639998
 30
0.0
 11
59.0000022202
 21
-26.69049985709998
 31
0.0
  0
LINE
  5
6F4
330
1F
100
AcDbEntity
  8
3
100
AcDbLine
 10
47.55707271389996
 20
-14.99999966469997
 30
0.0
 11
49.59999956189999
 21
-18.40000040829998
 31
0.0
  0
LINE
  5
6F5
330
1F
100
AcDbEntity
  8
3
100
AcDbLine
 10
49.59999956189999
 20
-11.59999985249999
 30
0.0
 11
49.59999956189999
 21
-18.40000040829998
 31
0.0
  0
LINE
  5
6F6
330
1F
100
AcDbEntity
  8
3
100
AcDbLine
 10
49.59999956189999
 20
-11.59999985249999
 30
0.0
 11
47.55707271389996
 21
-14.99999966469997
 31
0.0
  0
LINE
  5
6F8
330
1F
100
AcDbEntity
  8
3
100
AcDbLine
 10
59.0000022202
 20
-18.30950006839998
 30
0.0
 11
59.6904996782
 21
-18.99999938899996
 31
0.0
  0
LINE
  5
6FA
330
1F
100
AcDbEntity
  8
3
100
AcDbLine
 10
59.0000022202
 20
-11.69050019229997
 30
0.0
 11
59.0000022202
 21
-18.30950006839998
 31
0.0
  0
LINE
  5
6FB
330
1F
100
AcDbEntity
  8
SK1
100
AcDbLine
 10
77.45506055650001
 20
-33.78230333329998
 30
0.0
 11
77.45506055650001
 21
-35.00074520709998
 31
0.0
  0
ARC
  5
6FC
330
1F
100
AcDbEntity
  8
1
100
AcDbCircle
 10
96.81863168440001
 20
0.0000000000000142
 30
0.0
 40
39.99999999999986
100
AcDbArc
 50
238.7693763486999
 51
238.9013668820465
  0
ELLIPSE
  5
6FD
330
1F
100
AcDbEntity
  8
1
100
AcDbEllipse
 10
15.92315265899999
 20
0.0000000000000142
 30
0.0
 11
149.2820323027529
 21
0.0
 31
0.0
210
0.0
220
0.0
230
1.0
 40
0.2679491924
 41
5.117406078685438
 42
5.122520446306713
  0
ARC
  5
6FE
330
1F
100
AcDbEntity
  8
1
100
AcDbCircle
 10
93.45058328810004
 20
0.0000000000000142
 30
0.0
 40
39.99999999999989
100
AcDbArc
 50
243.1229980391001
 51
243.2495444920282
  0
ELLIPSE
  5
6FF
330
1F
100
AcDbEntity
  8
1
100
AcDbEllipse
 10
6.721473317900004
 20
0.0000000000000142
 30
0.0
 11
149.2820323027529
 21
0.0
 31
0.0
210
0.0
220
0.0
230
1.0
 40
0.2679491924
 41
5.190881896596893
 42
5.196178691367721
  0
LINE
  5
700
330
1F
100
AcDbEntity
  8
1
100
AcDbLine
 10
71.59999944269998
 20
-39.62007164949998
 30
0.0
 11
72.59935326880001
 21
-39.62007164949998
 31
0.0
  0
LINE
  5
701
330
1F
100
AcDbEntity
  8
1
100
AcDbLine
 10
71.59999944269998
 20
-39.99999910589998
 30
0.0
 11
71.59999944269998
 21
-39.62007164949998
 31
0.0
  0
LINE
  5
707
330
1F
100
AcDbEntity
  8
SK1
100
AcDbLine
 10
73.89630563549999
 20
-39.16359692809997
 30
0.0
 11
73.89630563549999
 21
-39.53490033739996
 31
0.0
  0
LINE
  5
708
330
1F
100
AcDbEntity
  8
SK1
100
AcDbLine
 10
74.60805214939998
 20
-38.51626068349997
 30
0.0
 11
74.60805214939998
 21
-39.03384134169996
 31
0.0
  0
LINE
  5
709
330
1F
100
AcDbEntity
  8
SK1
100
AcDbLine
 10
75.31980611379998
 20
-37.67101839179996
 30
0.0
 11
75.31980611379998
 21
-38.34268078209999
 31
0.0
  0
LINE
  5
70A
330
1F
100
AcDbEntity
  8
SK1
100
AcDbLine
 10
76.0315600782
 20
-36.61416098469997
 30
0.0
 11
76.0315600782
 21
-37.45090216399997
 31
0.0
  0
ELLIPSE
  5
70B
330
1F
100
AcDbEntity
  8
SK1
100
AcDbEllipse
 10
52.72987002340001
 20
0.0000000000000142
 30
0.0
 11
149.2820323027399
 21
0.0
 31
0.0
210
0.0
220
0.0
230
1.0
 40
0.2679491924
 41
4.850325976803079
 42
4.853854643270334
  0
ELLIPSE
  5
70C
330
1F
100
AcDbEntity
  8
SK1
100
AcDbEllipse
 10
72.26661152709998
 20
0.0000000000000142
 30
0.0
 11
0.0
 21
40.0
 31
0.0
210
0.0
220
0.0
230
1.0
 40
0.2679491924
 41
3.283058316475486
 42
3.29423693126826
  0
ARC
  5
70D
330
1F
100
AcDbEntity
  8
1
100
AcDbCircle
 10
79.97838970279999
 20
0.0000000000000142
 30
0.0
 40
39.99999999999998
100
AcDbArc
 50
259.2544861940999
 51
259.3694216001628
  0
LWPOLYLINE
  5
70E
330
1F
100
AcDbEntity
  8
1
100
AcDbPolyline
 90
        8
 70
   128
 43
0.0
 10
72.52050377429998
 20
-39.29860144849997
 10
72.48138822610001
 20
-39.28805142639996
 10
72.46305234730002
 20
-39.27558660509999
 10
72.46746309099997
 20
-39.26242515439998
 10
72.4946651607
 20
-39.25012052059997
 10
72.54142500459998
 20
-39.24027457829996
 10
72.60160334409999
 20
-39.23411667349997
 10
72.61016406119998
 20
-39.23362120979998
  0
ELLIPSE
  5
70F
330
1F
100
AcDbEntity
  8
1
100
AcDbEllipse
 10
43.52819068229999
 20
0.0000000000000142
 30
0.0
 11
149.2820323027615
 21
0.0
 31
0.0
210
0.0
220
0.0
230
1.0
 40
0.2679491924
 41
4.908455033649246
 42
4.913244486510198
  0
ELLIPSE
  5
710
330
1F
100
AcDbEntity
  8
SK1
100
AcDbEllipse
 10
72.26661152709998
 20
0.0000000000000142
 30
0.0
 11
0.0
 21
40.0
 31
0.0
210
0.0
220
0.0
230
1.0
 40
0.2679491924
 41
3.350510795737798
 42
3.361828309298078
  0
ARC
  5
711
330
1F
100
AcDbEntity
  8
1
100
AcDbCircle
 10
83.34643809909998
 20
0.0000000000000142
 30
0.0
 40
39.99999999999998
100
AcDbArc
 50
255.3535080222995
 51
255.4702142032449
  0
LWPOLYLINE
  5
712
330
1F
100
AcDbEntity
  8
1
100
AcDbPolyline
 90
        7
 70
   128
 43
0.0
 10
73.23225773869999
 20
-38.70017081499998
 10
73.1928963214
 20
-38.68552669879999
 10
73.1747169047
 20
-38.66832703349997
 10
73.1796044856
 20
-38.65008801219997
 10
73.2080060988
 20
-38.63304108379998
 10
73.2563752681
 20
-38.61960396169996
 10
73.3219180256
 20
-38.61117362969997
  0
ELLIPSE
  5
713
330
1F
100
AcDbEntity
  8
1
100
AcDbEllipse
 10
34.32651134119999
 20
0.0000000000000142
 30
0.0
 11
149.2820323027529
 21
0.0
 31
0.0
210
0.0
220
0.0
230
1.0
 40
0.2679491924
 41
4.976674513043628
 42
4.981542078935563
  0
ELLIPSE
  5
714
330
1F
100
AcDbEntity
  8
SK1
100
AcDbEllipse
 10
72.26661152709998
 20
0.0000000000000142
 30
0.0
 11
0.0
 21
40.0
 31
0.0
210
0.0
220
0.0
230
1.0
 40
0.2679491924
 41
3.418943905339002
 42
3.430460323226651
  0
ARC
  5
715
330
1F
100
AcDbEntity
  8
1
100
AcDbCircle
 10
86.71448649549999
 20
0.0000000000000142
 30
0.0
 40
39.99999999999996
100
AcDbArc
 50
251.3817056801001
 51
251.5008472967955
  0
LWPOLYLINE
  5
716
330
1F
100
AcDbEntity
  8
1
100
AcDbPolyline
 90
        7
 70
   128
 43
0.0
 10
73.9440117031
 20
-37.90666162969996
 10
73.90432991080003
 20
-37.88756206629999
 10
73.88635911039997
 20
-37.86528483029997
 10
73.89190979299998
 20
-37.84146159889997
 10
73.92201758920002
 20
-37.81919926399996
 10
73.97259213029999
 20
-37.80200332399997
 10
74.03366453939999
 20
-37.79228404159997
  0
ELLIPSE
  5
717
330
1F
100
AcDbEntity
  8
1
100
AcDbEllipse
 10
25.1248320001
 20
0.0000000000000142
 30
0.0
 11
149.2820323027529
 21
0.0
 31
0.0
210
0.0
220
0.0
230
1.0
 40
0.2679491924
 41
5.046179913741558
 42
5.051153924572488
  0
ELLIPSE
  5
718
330
1F
100
AcDbEntity
  8
SK1
100
AcDbEllipse
 10
72.26661152709998
 20
0.0000000000000142
 30
0.0
 11
0.0
 21
40.0
 31
0.0
210
0.0
220
0.0
230
1.0
 40
0.2679491924
 41
3.488739763692626
 42
3.500524545915337
  0
ARC
  5
719
330
1F
100
AcDbEntity
  8
1
100
AcDbCircle
 10
90.08253489180001
 20
0.0000000000000142
 30
0.0
 40
39.99999999999992
100
AcDbArc
 50
247.3147017233995
 51
247.4370545942298
  0
LWPOLYLINE
  5
71A
330
1F
100
AcDbEntity
  8
1
100
AcDbPolyline
 90
        7
 70
   128
 43
0.0
 10
74.65576566750002
 20
-36.90548241139997
 10
74.61567409330003
 20
-36.88142448659997
 10
74.59797896439998
 20
-36.85358539219997
 10
74.60443861779997
 20
-36.82344779369997
 10
74.63687844569999
 20
-36.79528832429996
 10
74.69039596610001
 20
-36.77413985129999
 10
74.74541850389998
 20
-36.76382824779997
  0
LWPOLYLINE
  5
71B
330
1F
100
AcDbEntity
  8
1
100
AcDbPolyline
 90
        7
 70
   128
 43
0.0
 10
75.36751218139999
 20
-35.67916154859998
 10
75.32692141830001
 20
-35.64943745729996
 10
75.30958391720002
 20
-35.61535850169998
 10
75.31726546580002
 20
-35.57783737779998
 10
75.35289414220001
 20
-35.54282337429997
 10
75.41024126110001
 20
-35.51756590599997
 10
75.45717246830001
 20
-35.50759330389997
  0
LINE
  5
71C
330
1F
100
AcDbEntity
  8
SK1
100
AcDbLine
 10
76.74331404269998
 20
-35.32670810819998
 30
0.0
 11
76.74331404269998
 21
-36.34373471139996
 31
0.0
  0
ELLIPSE
  5
71D
330
1F
100
AcDbEntity
  8
SK1
100
AcDbEllipse
 10
72.26661152709998
 20
0.0000000000000142
 30
0.0
 11
0.0
 21
40.0
 31
0.0
210
0.0
220
0.0
230
1.0
 40
0.2679491924
 41
3.560348253093926
 42
3.572485050434038
  0
ELLIPSE
  5
71E
330
1F
100
AcDbEntity
  8
SK1
100
AcDbEllipse
 10
72.26661152709998
 20
0.0000000000000142
 30
0.0
 11
0.0
 21
40.0
 31
0.0
210
0.0
220
0.0
230
1.0
 40
0.2679491924
 41
3.634320825924872
 42
3.646914623459013
  0
ELLIPSE
  5
71F
330
1F
100
AcDbEntity
  8
1
100
AcDbEllipse
 10
-2.480206023199996
 20
0.0000000000000142
 30
0.0
 11
149.2820323027529
 21
0.0
 31
0.0
210
0.0
220
0.0
230
1.0
 40
0.2679491924
 41
5.267278355119016
 42
5.272812190289339
  0
LINE
  5
720
330
1F
100
AcDbEntity
  8
3
100
AcDbLine
 10
71.0000041872
 20
-26.59999951719997
 30
0.0
 11
71.0000041872
 21
-33.39999914169998
 31
0.0
  0
LINE
  5
721
330
1F
100
AcDbEntity
  8
3
100
AcDbLine
 10
71.0000041872
 20
-33.39999914169998
 30
0.0
 11
71.59999944269998
 21
-34.00000184769996
 31
0.0
  0
LWPOLYLINE
  5
722
330
1F
100
AcDbEntity
  8
1
100
AcDbPolyline
 90
        7
 70
   128
 43
0.0
 10
76.07926614580001
 20
-34.20349210499998
 10
76.03805698450002
 20
-34.16709601879998
 10
76.02116651830002
 20
-34.12582352759999
 10
76.03053189810001
 20
-34.07933190459998
 10
76.07056386769999
 20
-34.03611108659998
 10
76.12075842910002
 20
-34.01070088149998
 10
76.16892643269999
 20
-33.99834781879998
  0
LINE
  5
723
330
1F
100
AcDbEntity
  8
3
100
AcDbLine
 10
71.59999944269998
 20
-26.00000053639998
 30
0.0
 11
71.0000041872
 21
-26.59999951719997
 31
0.0
  0
LINE
  5
724
330
1F
100
AcDbEntity
  8
3
100
AcDbLine
 10
71.0000041872
 20
-11.59999985249999
 30
0.0
 11
71.0000041872
 21
-18.40000040829998
 31
0.0
  0
LINE
  5
725
330
1F
100
AcDbEntity
  8
3
100
AcDbLine
 10
71.0000041872
 20
-18.40000040829998
 30
0.0
 11
71.59999944269998
 21
-18.99999938899996
 31
0.0
  0
LINE
  5
726
330
1F
100
AcDbEntity
  8
1
100
AcDbLine
 10
79.6352121979
 20
-29.04737554489996
 30
0.0
 11
88.60000409179999
 21
-29.04737554489996
 31
0.0
  0
LINE
  5
727
330
1F
100
AcDbEntity
  8
SK1
100
AcDbLine
 10
78.87856848540002
 20
-29.75640818479998
 30
0.0
 11
78.87856848540002
 21
-31.48153796789998
 31
0.0
  0
LINE
  5
729
330
1F
100
AcDbEntity
  8
SK1
100
AcDbLine
 10
78.16681452089998
 20
-31.94369748229998
 30
0.0
 11
78.16681452089998
 21
-33.39349478479998
 31
0.0
  0
ELLIPSE
  5
72A
330
1F
100
AcDbEntity
  8
SK1
100
AcDbEllipse
 10
72.26661152709998
 20
0.0000000000000142
 30
0.0
 11
0.0
 21
40.0
 31
0.0
210
0.0
220
0.0
230
1.0
 40
0.2679491924
 41
3.711363001779243
 42
3.7245516159887
  0
ARC
  5
72B
330
1F
100
AcDbEntity
  8
1
100
AcDbCircle
 10
100.1866800808
 20
0.0000000000000142
 30
0.0
 40
39.99999999999983
100
AcDbArc
 50
234.2046736540998
 51
234.3437984719864
  0
LWPOLYLINE
  5
72C
330
1F
100
AcDbEntity
  8
1
100
AcDbPolyline
 90
        7
 70
   128
 43
0.0
 10
76.79102011019998
 20
-32.44446218009999
 10
76.7442826181
 20
-32.39123895759998
 10
76.73244364560002
 20
-32.34094381329998
 10
76.74974389369999
 20
-32.28263929479996
 10
76.79055817420003
 20
-32.23895654079999
 10
76.84122957290002
 20
-32.21172839399997
 10
76.8806803971
 20
-32.20053389669998
  0
ELLIPSE
  5
72D
330
1F
100
AcDbEntity
  8
1
100
AcDbEllipse
 10
-11.6818853644
 20
0.0000000000000142
 30
0.0
 11
149.2820323027529
 21
0.0
 31
0.0
210
0.0
220
0.0
230
1.0
 40
0.2679491924
 41
5.347487313970431
 42
5.353332699365187
  0
ELLIPSE
  5
72E
330
1F
100
AcDbEntity
  8
SK1
100
AcDbEllipse
 10
72.26661152709998
 20
0.0000000000000142
 30
0.0
 11
0.0
 21
40.0
 31
0.0
210
0.0
220
0.0
230
1.0
 40
0.2679491924
 41
3.79242157792781
 42
3.806395524014613
  0
ARC
  5
72F
330
1F
100
AcDbEntity
  8
1
100
AcDbCircle
 10
103.5547284770999
 20
0.0000000000000142
 30
0.0
 40
39.99999999999978
100
AcDbArc
 50
229.3603937972999
 51
229.5090733295894
  0
ARC
  5
730
330
1F
100
AcDbEntity
  8
1
100
AcDbCircle
 10
77.61439502580002
 20
-30.22825668939998
 30
0.0
 40
0.1672814175274129
100
AcDbArc
 50
97.54612516649984
 51
228.1437130650999
  0
ELLIPSE
  5
731
330
1F
100
AcDbEntity
  8
1
100
AcDbEllipse
 10
-20.88356470549999
 20
0.0000000000000142
 30
0.0
 11
149.2820323027573
 21
0.0
 31
0.0
210
0.0
220
0.0
230
1.0
 40
0.2679491924
 41
5.432760687074657
 42
5.449637515526455
  0
ELLIPSE
  5
732
330
1F
100
AcDbEntity
  8
1
100
AcDbEllipse
 10
72.26661152709998
 20
0.0000000000000142
 30
0.0
 11
0.0
 21
40.0
 31
0.0
210
0.0
220
0.0
230
1.0
 40
0.2679491924
 41
3.878841188731563
 42
3.899633419016056
  0
LINE
  5
733
330
1F
100
AcDbEntity
  8
1
100
AcDbLine
 10
89.5999986678
 20
-27.65411324799998
 30
0.0
 11
88.60000409179999
 21
-29.04737554489996
 31
0.0
  0
LINE
  5
734
330
1F
100
AcDbEntity
  8
3
100
AcDbLine
 10
49.59999956189999
 20
11.59999985250002
 30
0.0
 11
71.0000041872
 21
11.59999985250002
 31
0.0
  0
LINE
  5
735
330
1F
100
AcDbEntity
  8
3
100
AcDbLine
 10
71.0000041872
 20
18.40000040830001
 30
0.0
 11
49.59999956189999
 21
18.40000040830001
 31
0.0
  0
LINE
  5
736
330
1F
100
AcDbEntity
  8
3
100
AcDbLine
 10
49.59999956189999
 20
26.59999951719999
 30
0.0
 11
71.0000041872
 21
26.59999951719999
 31
0.0
  0
LINE
  5
737
330
1F
100
AcDbEntity
  8
3
100
AcDbLine
 10
71.0000041872
 20
33.3999991417
 30
0.0
 11
49.59999956189999
 21
33.3999991417
 31
0.0
  0
LINE
  5
738
330
1F
100
AcDbEntity
  8
3
100
AcDbLine
 10
59.6904996782
 20
10.9999999404
 30
0.0
 11
89.5999986678
 21
10.9999999404
 31
0.0
  0
LINE
  5
739
330
1F
100
AcDbEntity
  8
3
100
AcDbLine
 10
89.5999986678
 20
18.99999938910001
 30
0.0
 11
59.6904996782
 21
18.99999938910001
 31
0.0
  0
LINE
  5
73A
330
1F
100
AcDbEntity
  8
3
100
AcDbLine
 10
89.5999986678
 20
-10.99999994039997
 30
0.0
 11
59.6904996782
 21
-10.99999994039997
 31
0.0
  0
LINE
  5
73B
330
1F
100
AcDbEntity
  8
3
100
AcDbLine
 10
59.6904996782
 20
26.00000053650002
 30
0.0
 11
89.5999986678
 21
26.00000053650002
 31
0.0
  0
LINE
  5
73C
330
1F
100
AcDbEntity
  8
3
100
AcDbLine
 10
76.16296286969356
 20
34.00000184780002
 30
0.0
 11
59.6904996782
 21
34.00000184780002
 31
0.0
  0
LINE
  5
73D
330
1F
100
AcDbEntity
  8
3
100
AcDbLine
 10
42.0999992639
 20
6.987982429600022
 30
0.0
 11
42.0999992639
 21
31.5000005067
 31
0.0
  0
LINE
  5
73E
330
1F
100
AcDbEntity
  8
3
100
AcDbLine
 10
37.1000040322
 20
31.5000005067
 30
0.0
 11
37.1000040322
 21
7.000000216100017
 31
0.0
  0
LINE
  5
73F
330
1F
100
AcDbEntity
  8
3
100
AcDbLine
 10
47.55707271389996
 20
14.9999996647
 30
0.0
 11
49.59999956189999
 21
11.59999985250002
 31
0.0
  0
LINE
  5
740
330
1F
100
AcDbEntity
  8
3
100
AcDbLine
 10
49.59999956189999
 20
18.40000040830001
 30
0.0
 11
49.59999956189999
 21
11.59999985250002
 31
0.0
  0
LINE
  5
741
330
1F
100
AcDbEntity
  8
3
100
AcDbLine
 10
59.0000022202
 20
11.69050019239999
 30
0.0
 11
59.0000022202
 21
18.30950006840001
 31
0.0
  0
LINE
  5
742
330
1F
100
AcDbEntity
  8
3
100
AcDbLine
 10
59.6904996782
 20
18.99999938910001
 30
0.0
 11
59.6904996782
 21
10.9999999404
 31
0.0
  0
LINE
  5
743
330
1F
100
AcDbEntity
  8
3
100
AcDbLine
 10
47.20602370799999
 20
0.0000000000000142
 30
0.0
 11
42.9999995976
 21
7.000000216100017
 31
0.0
  0
LINE
  5
744
330
1F
100
AcDbEntity
  8
3
100
AcDbLine
 10
42.9999995976
 20
-7.000000216099992
 30
0.0
 11
47.20602370799999
 21
0.0000000000000142
 31
0.0
  0
LINE
  5
746
330
1F
100
AcDbEntity
  8
3
100
AcDbLine
 10
42.9999995976
 20
7.000000216100017
 30
0.0
 11
42.9999995976
 21
-7.000000216099992
 31
0.0
  0
ARC
  5
747
330
1F
100
AcDbEntity
  8
3
100
AcDbCircle
 10
39.601095578
 20
-13.53549778559997
 30
0.0
 40
6.996945627356223
100
AcDbArc
 50
69.07521549869962
 51
110.6474801573997
  0
LINE
  5
748
330
1F
100
AcDbEntity
  8
3
100
AcDbLine
 10
42.0999992639
 20
-7.000000216099992
 30
0.0
 11
42.9999995976
 21
-7.000000216099992
 31
0.0
  0
ARC
  5
749
330
1F
100
AcDbEntity
  8
3
100
AcDbCircle
 10
39.59890771809997
 20
13.53549778560001
 30
0.0
 40
6.996945627355517
100
AcDbArc
 50
249.0752154986994
 51
290.6474801573996
  0
LINE
  5
74A
330
1F
100
AcDbEntity
  8
3
100
AcDbLine
 10
42.9999995976
 20
7.000000216100017
 30
0.0
 11
42.06615127620001
 21
7.000000216100017
 31
0.0
  0
LINE
  5
74B
330
1F
100
AcDbEntity
  8
3
100
AcDbLine
 10
59.0000022202
 20
11.69050019239999
 30
0.0
 11
59.6904996782
 21
10.9999999404
 31
0.0
  0
LINE
  5
74C
330
1F
100
AcDbEntity
  8
3
100
AcDbLine
 10
33.60000438990001
 20
31.5000005067
 30
0.0
 11
45.59999890620001
 21
31.5000005067
 31
0.0
  0
LINE
  5
74E
330
1F
100
AcDbEntity
  8
3
100
AcDbLine
 10
43.10000129040001
 20
33.92928466200001
 30
0.0
 11
36.1000020057
 21
33.92928466200001
 31
0.0
  0
LINE
  5
74F
330
1F
100
AcDbEntity
  8
3
100
AcDbLine
 10
36.1000020057
 20
33.92928466200001
 30
0.0
 11
36.1000020057
 21
31.5000005067
 31
0.0
  0
LINE
  5
750
330
1F
100
AcDbEntity
  8
3
100
AcDbLine
 10
43.10000129040001
 20
31.5000005067
 30
0.0
 11
43.10000129040001
 21
33.92928466200001
 31
0.0
  0
LINE
  5
751
330
1F
100
AcDbEntity
  8
3
100
AcDbLine
 10
49.59999956189999
 20
18.40000040830001
 30
0.0
 11
47.55707271389996
 21
14.9999996647
 31
0.0
  0
LINE
  5
752
330
1F
100
AcDbEntity
  8
3
100
AcDbLine
 10
59.6904996782
 20
18.99999938910001
 30
0.0
 11
59.0000022202
 21
18.30950006840001
 31
0.0
  0
LINE
  5
753
330
1F
100
AcDbEntity
  8
3
100
AcDbLine
 10
47.55707271389996
 20
29.99999932950002
 30
0.0
 11
49.59999956189999
 21
26.59999951719999
 31
0.0
  0
LINE
  5
754
330
1F
100
AcDbEntity
  8
3
100
AcDbLine
 10
49.59999956189999
 20
33.3999991417
 30
0.0
 11
49.59999956189999
 21
26.59999951719999
 31
0.0
  0
LINE
  5
755
330
1F
100
AcDbEntity
  8
3
100
AcDbLine
 10
49.59999956189999
 20
33.3999991417
 30
0.0
 11
47.55707271389996
 21
29.99999932950002
 31
0.0
  0
LINE
  5
756
330
1F
100
AcDbEntity
  8
3
100
AcDbLine
 10
59.69049967820001
 20
34.00000184780003
 30
0.0
 11
59.6904996782
 21
26.00000053650002
 31
0.0
  0
LINE
  5
757
330
1F
100
AcDbEntity
  8
3
100
AcDbLine
 10
59.0000022202
 20
33.30950066450001
 30
0.0
 11
59.0000022202
 21
26.69049985710001
 31
0.0
  0
LINE
  5
758
330
1F
100
AcDbEntity
  8
3
100
AcDbLine
 10
59.0000022202
 20
26.69049985710001
 30
0.0
 11
59.6904996782
 21
26.00000053650002
 31
0.0
  0
LINE
  5
759
330
1F
100
AcDbEntity
  8
3
100
AcDbLine
 10
59.6904996782
 20
34.00000184780002
 30
0.0
 11
59.0000022202
 21
33.30950066450001
 31
0.0
  0
LINE
  5
75C
330
1F
100
AcDbEntity
  8
3
100
AcDbLine
 10
71.0000041872
 20
18.40000040830001
 30
0.0
 11
71.0000041872
 21
11.59999985250002
 31
0.0
  0
LINE
  5
75D
330
1F
100
AcDbEntity
  8
3
100
AcDbLine
 10
67.59999878700003
 20
1.249999972100027
 30
0.0
 11
66.8489281088
 21
0.0000000000000142
 31
0.0
  0
LINE
  5
75E
330
1F
100
AcDbEntity
  8
3
100
AcDbLine
 10
67.59999878700003
 20
1.249999972100027
 30
0.0
 11
67.59999878700003
 21
-1.249999971999969
 31
0.0
  0
LINE
  5
75F
330
1F
100
AcDbEntity
  8
3
100
AcDbLine
 10
69.17512603099996
 20
1.249999972100027
 30
0.0
 11
69.17512603099996
 21
-1.249999971999969
 31
0.0
  0
LINE
  5
760
330
1F
100
AcDbEntity
  8
3
100
AcDbLine
 10
67.59999878700003
 20
-1.249999971999969
 30
0.0
 11
69.17512603099996
 21
-1.249999971999969
 31
0.0
  0
LINE
  5
761
330
1F
100
AcDbEntity
  8
3
100
AcDbLine
 10
66.8489281088
 20
0.0000000000000142
 30
0.0
 11
67.59999878700003
 21
-1.249999971999969
 31
0.0
  0
LINE
  5
762
330
1F
100
AcDbEntity
  8
3
100
AcDbLine
 10
69.17512603099996
 20
-1.249999971999969
 30
0.0
 11
71.59999944269998
 21
-2.649999922099977
 31
0.0
  0
LINE
  5
763
330
1F
100
AcDbEntity
  8
3
100
AcDbLine
 10
69.17512603099996
 20
1.249999972100027
 30
0.0
 11
67.59999878700003
 21
1.249999972100027
 31
0.0
  0
LINE
  5
764
330
1F
100
AcDbEntity
  8
3
100
AcDbLine
 10
71.59999944269998
 20
2.649999922200009
 30
0.0
 11
69.17512603099996
 21
1.249999972100027
 31
0.0
  0
LINE
  5
765
330
1F
100
AcDbEntity
  8
3
100
AcDbLine
 10
71.0000041872
 20
11.59999985250002
 30
0.0
 11
71.59999944269998
 21
10.9999999404
 31
0.0
  0
ELLIPSE
  5
766
330
1F
100
AcDbEntity
  8
SK1
100
AcDbEllipse
 10
-2.480206023199996
 20
0.0000000000000142
 30
0.0
 11
-149.2820323031558
 21
0.0000000001478791
 31
0.0
210
0.0
220
0.0
230
1.0
 40
0.2679491923995689
 41
4.142618632197271
 42
4.151972903024168
  0
LINE
  5
767
330
1F
100
AcDbEntity
  8
3
100
AcDbLine
 10
71.59999944269998
 20
18.99999938910001
 30
0.0
 11
71.0000041872
 21
18.40000040830001
 31
0.0
  0
LINE
  5
768
330
1F
100
AcDbEntity
  8
3
100
AcDbLine
 10
71.0000041872
 20
33.3999991417
 30
0.0
 11
71.0000041872
 21
26.59999951719999
 31
0.0
  0
LINE
  5
769
330
1F
100
AcDbEntity
  8
3
100
AcDbLine
 10
71.0000041872
 20
26.59999951719999
 30
0.0
 11
71.59999944269998
 21
26.00000053650002
 31
0.0
  0
LINE
  5
76A
330
1F
100
AcDbEntity
  8
3
100
AcDbLine
 10
71.59999944269998
 20
34.00000184780002
 30
0.0
 11
71.0000041872
 21
33.3999991417
 31
0.0
  0
LWPOLYLINE
  5
76C
330
1F
100
AcDbEntity
  8
1
100
AcDbPolyline
 90
        7
 70
   128
 43
0.0
 10
76.16892643269999
 20
33.9983478189
 10
76.11105032259998
 20
34.01440009480001
 10
76.06622762979998
 20
34.03925150630003
 10
76.03413052849997
 20
34.07312184570001
 10
76.02070458229999
 20
34.11583229900001
 10
76.03489048779998
 20
34.16252508760003
 10
76.07926614580001
 20
34.20349210500001
  0
LINE
  5
76D
330
1F
100
AcDbEntity
  8
1
100
AcDbLine
 10
88.60000409179999
 20
29.04737554490002
 30
0.0
 11
79.6352121979
 21
29.04737554490002
 31
0.0
  0
ELLIPSE
  5
76E
330
1F
100
AcDbEntity
  8
1
100
AcDbEllipse
 10
72.26661152709998
 20
0.0000000000000142
 30
0.0
 11
0.0
 21
40.0
 31
0.0
210
0.0
220
0.0
230
1.0
 40
0.2679491924
 41
5.525144541753375
 42
5.545936772037874
  0
LINE
  5
771
330
1F
100
AcDbEntity
  8
SK1
100
AcDbLine
 10
77.45506055650001
 20
35.00074520710001
 30
0.0
 11
77.45506055650001
 21
33.78230333330002
 31
0.0
  0
LINE
  5
772
330
1F
100
AcDbEntity
  8
SK1
100
AcDbLine
 10
78.16681452089998
 20
33.39349478480001
 30
0.0
 11
78.16681452089998
 21
31.94369748240002
 31
0.0
  0
LINE
  5
773
330
1F
100
AcDbEntity
  8
SK1
100
AcDbLine
 10
78.87856848540002
 20
31.48153796790001
 30
0.0
 11
78.87856848540002
 21
29.7564081848
 31
0.0
  0
ELLIPSE
  5
774
330
1F
100
AcDbEntity
  8
1
100
AcDbEllipse
 10
-20.88356470549999
 20
0.0000000000000142
 30
0.0
 11
149.2820323027573
 21
0.0
 31
0.0
210
0.0
220
0.0
230
1.0
 40
0.2679491924
 41
0.833547791653155
 42
0.8504246201049536
  0
ARC
  5
775
330
1F
100
AcDbEntity
  8
1
100
AcDbCircle
 10
77.61294938509998
 20
30.22781043050001
 30
0.0
 40
0.1666548440978225
100
AcDbArc
 50
131.3837242372999
 51
262.9264375309996
  0
ARC
  5
776
330
1F
100
AcDbEntity
  8
1
100
AcDbCircle
 10
103.5547284770999
 20
0.0000000000000142
 30
0.0
 40
39.99999999999978
100
AcDbArc
 50
130.4926253667832
 51
130.6396062027
  0
ELLIPSE
  5
777
330
1F
100
AcDbEntity
  8
SK1
100
AcDbEllipse
 10
72.26661152709998
 20
0.0000000000000142
 30
0.0
 11
0.0
 21
40.0
 31
0.0
210
0.0
220
0.0
230
1.0
 40
0.2679491924
 41
5.618382436754833
 42
5.632356382841637
  0
ELLIPSE
  5
778
330
1F
100
AcDbEntity
  8
1
100
AcDbEllipse
 10
-11.6818853644
 20
0.0000000000000142
 30
0.0
 11
149.2820323027529
 21
0.0
 31
0.0
210
0.0
220
0.0
230
1.0
 40
0.2679491924
 41
0.9298601452278909
 42
0.9356979932091761
  0
LWPOLYLINE
  5
779
330
1F
100
AcDbEntity
  8
1
100
AcDbPolyline
 90
        7
 70
   128
 43
0.0
 10
76.8806803971
 20
32.20053389670001
 10
76.82369090609999
 20
32.21919015050004
 10
76.77993364629998
 20
32.24745020270001
 10
76.7473597079
 20
32.28671848780003
 10
76.7325107008
 20
32.33815357090001
 10
76.74697972830002
 20
32.39635378120003
 10
76.79102011019998
 20
32.44446218020003
  0
ARC
  5
77A
330
1F
100
AcDbEntity
  8
SK1
100
AcDbCircle
 10
100.1866800808024
 20
-0.0000000000033441
 30
0.0
 40
40.00000000000397
100
AcDbArc
 50
123.4010881748001
 51
125.6577914641095
  0
ELLIPSE
  5
77B
330
1F
100
AcDbEntity
  8
SK1
100
AcDbEllipse
 10
72.26661152709998
 20
0.0000000000000142
 30
0.0
 11
0.0
 21
40.0
 31
0.0
210
0.0
220
0.0
230
1.0
 40
0.2679491924
 41
5.700226344780751
 42
5.713414958990212
  0
LINE
  5
77C
330
1F
100
AcDbEntity
  8
1
100
AcDbLine
 10
88.60000409179999
 20
29.04737554490002
 30
0.0
 11
89.5999986678
 21
27.65411324800003
 31
0.0
  0
LINE
  5
77D
330
1F
100
AcDbEntity
  8
1
100
AcDbLine
 10
71.59999944269998
 20
39.99999910590002
 30
0.0
 11
45.5236826092
 21
39.99999910590002
 31
0.0
  0
ARC
  5
77E
330
1F
100
AcDbEntity
  8
1
100
AcDbCircle
 10
38.01447615566899
 20
35.98682434834763
 30
0.0
 40
7.182979392485797
100
AcDbArc
 50
32.08051026392929
 51
47.62358705398716
  0
ARC
  5
77F
330
1F
100
AcDbEntity
  8
1
100
AcDbCircle
 10
39.59952478169999
 20
79.58983163630001
 30
0.0
 40
40.04184167483182
100
AcDbArc
 50
261.3828508819996
 51
278.5080974607998
  0
ARC
  5
780
330
1F
100
AcDbEntity
  8
1
100
AcDbCircle
 10
39.60283764445239
 20
37.49598547420525
 30
0.0
 40
5.000000000000016
100
AcDbArc
 50
130.4852524795995
 51
152.6310261871983
  0
LINE
  5
781
330
1F
100
AcDbEntity
  8
3
100
AcDbLine
 10
41.70092575148674
 20
35.32361252313604
 30
0.0
 11
41.70583076286753
 21
40.89350792485517
 31
0.0
  0
LINE
  5
782
330
1F
100
AcDbEntity
  8
3
100
AcDbLine
 10
37.50582996028863
 20
40.89720674603795
 30
0.0
 11
37.50092494890471
 21
35.32731134421878
 31
0.0
  0
LINE
  5
783
330
1F
100
AcDbEntity
  8
3
100
AcDbLine
 10
37.50092494890471
 20
35.32731134421878
 30
0.0
 11
41.70074359936315
 21
35.32398350613021
 31
0.0
  0
LINE
  5
784
330
1F
100
AcDbEntity
  8
1
100
AcDbLine
 10
36.35657612541271
 20
41.2988509924694
 30
0.0
 11
42.85579226523838
 21
41.29312732500664
 31
0.0
  0
LINE
  5
785
330
1F
100
AcDbEntity
  8
3
100
AcDbLine
 10
37.50601955933267
 20
40.89683552891474
 30
0.0
 11
41.70564766559188
 21
40.8931372388684
 31
0.0
  0
LINE
  5
786
330
1F
100
AcDbEntity
  8
3
100
AcDbLine
 10
37.10640712814459
 20
41.29708240268647
 30
0.0
 11
37.50601955933267
 21
40.89683552891474
 31
0.0
  0
LINE
  5
787
330
1F
100
AcDbEntity
  8
3
100
AcDbLine
 10
41.70564766559188
 20
40.8931372388684
 30
0.0
 11
42.1059594552211
 21
41.29268054168949
 31
0.0
  0
ARC
  5
788
330
1F
100
AcDbEntity
  8
3
100
AcDbCircle
 10
39.66607676507322
 20
37.49208099038342
 30
0.0
 40
4.999999999999993
100
AcDbArc
 50
359.8495413144001
 51
27.51234194549804
  0
ELLIPSE
  5
789
330
1F
100
AcDbEntity
  8
SK1
100
AcDbEllipse
 10
6.721473317900004
 20
0.0000000000000142
 30
0.0
 11
149.2820323022325
 21
0.0000000001593481
 31
0.0
210
0.0
220
0.0
230
1.0
 40
0.2679491924006712
 41
1.078068154457696
 42
1.087013440502991
  0
ARC
  5
78A
330
1F
100
AcDbEntity
  8
SK1
100
AcDbCircle
 10
93.45058328811346
 20
-0.0000000000272819
 30
0.0
 40
40.0000000000303
100
AcDbArc
 50
114.6883157634011
 51
116.7519022053585
  0
ELLIPSE
  5
78B
330
1F
100
AcDbEntity
  8
SK1
100
AcDbEllipse
 10
15.92315265899999
 20
0.0000000000000142
 30
0.0
 11
-149.2820323035462
 21
0.0000000002010473
 31
0.0
210
0.0
220
0.0
230
1.0
 40
0.2679491923988503
 41
4.293633380883322
 42
4.302264102287619
  0
LINE
  5
78C
330
1F
100
AcDbEntity
  8
1
100
AcDbLine
 10
72.59845138234078
 20
39.62007164960002
 30
0.0
 11
71.59999944269998
 21
39.62007164960002
 31
0.0
  0
LINE
  5
78D
330
1F
100
AcDbEntity
  8
1
100
AcDbLine
 10
71.59999944269998
 20
39.62007164960002
 30
0.0
 11
71.59999944269998
 21
39.99999910590002
 31
0.0
  0
LINE
  5
78F
330
1F
100
AcDbEntity
  8
1
100
AcDbLine
 10
74.59718175229999
 20
36.8461273611
 30
0.0
 11
74.59718175229999
 21
36.8460714817
 31
0.0
  0
LINE
  5
792
330
1F
100
AcDbEntity
  8
SK1
100
AcDbLine
 10
73.89630563549999
 20
39.53490033750002
 30
0.0
 11
73.89630563549999
 21
39.16359692809999
 31
0.0
  0
LINE
  5
793
330
1F
100
AcDbEntity
  8
SK1
100
AcDbLine
 10
74.60805214939998
 20
39.0338413417
 30
0.0
 11
74.60805214939998
 21
38.51626068360001
 31
0.0
  0
LINE
  5
794
330
1F
100
AcDbEntity
  8
SK1
100
AcDbLine
 10
75.31980611379998
 20
38.34268078210003
 30
0.0
 11
75.31980611379998
 21
37.67101839190003
 31
0.0
  0
LINE
  5
795
330
1F
100
AcDbEntity
  8
SK1
100
AcDbLine
 10
76.0315600782
 20
37.45090216399999
 30
0.0
 11
76.0315600782
 21
36.61416098480002
 31
0.0
  0
LWPOLYLINE
  5
796
330
1F
100
AcDbEntity
  8
1
100
AcDbPolyline
 90
        7
 70
   128
 43
0.0
 10
75.45717246830001
 20
35.5075933039
 10
75.3985289484
 20
35.52128747110002
 10
75.35281963639999
 20
35.5428718031
 10
75.32114721830001
 20
35.5718247593
 10
75.30893571670002
 20
35.6071740389
 10
75.32298751170002
 20
35.64472869040001
 10
75.36751218139999
 20
35.67916154860002
  0
LWPOLYLINE
  5
797
330
1F
100
AcDbEntity
  8
1
100
AcDbPolyline
 90
        7
 70
   128
 43
0.0
 10
74.74541850389998
 20
36.76382824780002
 10
74.68612678349997
 20
36.775328219
 10
74.639679864
 20
36.79372742770003
 10
74.60839487610002
 20
36.8180833757
 10
74.59719665349997
 20
36.84701025489999
 10
74.61118884380002
 20
36.87702864410001
 10
74.65576566750002
 20
36.9054824114
  0
ARC
  5
798
330
1F
100
AcDbEntity
  8
SK1
100
AcDbCircle
 10
90.08253489178757
 20
0.0000000000311883
 30
0.0
 40
39.99999999996639
100
AcDbArc
 50
110.5652825628987
 51
112.5643443464548
  0
ELLIPSE
  5
799
330
1F
100
AcDbEntity
  8
SK1
100
AcDbEllipse
 10
72.26661152709998
 20
0.0000000000000142
 30
0.0
 11
0.0
 21
40.0
 31
0.0
210
0.0
220
0.0
230
1.0
 40
0.2679491924
 41
5.924253414854134
 42
5.936038197076846
  0
ELLIPSE
  5
79A
330
1F
100
AcDbEntity
  8
SK1
100
AcDbEllipse
 10
25.1248320001
 20
0.0000000000000142
 30
0.0
 11
-149.28203230278
 21
0.0000000000066386
 31
0.0
210
0.0
220
0.0
230
1.0
 40
0.2679491923999598
 41
4.365241870281976
 42
4.373630441737493
  0
LWPOLYLINE
  5
79B
330
1F
100
AcDbEntity
  8
1
100
AcDbPolyline
 90
        8
 70
   128
 43
0.0
 10
74.03366453939999
 20
37.79228404170003
 10
73.97382892670002
 20
37.80171275140002
 10
73.92678596080002
 20
37.8169678152
 10
73.89583624900001
 20
37.8369502723
 10
73.88547249140001
 20
37.86012530330002
 10
73.89944232999998
 20
37.88372501730002
 10
73.93720187240004
 20
37.90425136690002
 10
73.9440117031
 20
37.9066616297
  0
ARC
  5
79C
330
1F
100
AcDbEntity
  8
SK1
100
AcDbCircle
 10
86.71448649550219
 20
-0.0000000000071081
 30
0.0
 40
40.00000000000741
100
AcDbArc
 50
106.5508983080003
 51
108.5005149553552
  0
ELLIPSE
  5
79D
330
1F
100
AcDbEntity
  8
SK1
100
AcDbEllipse
 10
72.26661152709998
 20
0.0000000000000142
 30
0.0
 11
0.0
 21
40.0
 31
0.0
210
0.0
220
0.0
230
1.0
 40
0.2679491924
 41
5.994317637542824
 42
6.005834055430472
  0
ELLIPSE
  5
79E
330
1F
100
AcDbEntity
  8
SK1
100
AcDbEllipse
 10
34.32651134119999
 20
0.0000000000000142
 30
0.0
 11
149.2820323022061
 21
0.0000000000902029
 31
0.0
210
0.0
220
0.0
230
1.0
 40
0.2679491924009014
 41
1.29344507504453
 42
1.301649495370197
  0
LWPOLYLINE
  5
79F
330
1F
100
AcDbEntity
  8
1
100
AcDbPolyline
 90
        8
 70
   128
 43
0.0
 10
73.3219180256
 20
38.61117362979999
 10
73.26163537799998
 20
38.6186093092
 10
73.21411557490002
 20
38.63075003030003
 10
73.18345643580002
 20
38.64650055770001
 10
73.17375577979999
 20
38.66442292930001
 10
73.1877181679
 20
38.68238627910001
 10
73.22433777149999
 20
38.69797661900001
 10
73.23225773869999
 20
38.70017081500002
  0
ARC
  5
7A0
330
1F
100
AcDbEntity
  8
SK1
100
AcDbCircle
 10
83.34643809909421
 20
0.000000000024629
 30
0.0
 40
39.9999999999747
100
AcDbArc
 50
102.6185735703996
 51
104.5311203400844
  0
ELLIPSE
  5
7A1
330
1F
100
AcDbEntity
  8
SK1
100
AcDbEllipse
 10
72.26661152709998
 20
0.0000000000000142
 30
0.0
 11
0.0
 21
40.0
 31
0.0
210
0.0
220
0.0
230
1.0
 40
0.2679491924
 41
6.062949651471402
 42
6.074267165031677
  0
ELLIPSE
  5
7A2
330
1F
100
AcDbEntity
  8
SK1
100
AcDbEllipse
 10
43.52819068229999
 20
0.0000000000000142
 30
0.0
 11
149.2820323010396
 21
0.0000000002058868
 31
0.0
210
0.0
220
0.0
230
1.0
 40
0.2679491924029581
 41
1.361878184644121
 42
1.369946986104873
  0
LWPOLYLINE
  5
7A3
330
1F
100
AcDbEntity
  8
1
100
AcDbPolyline
 90
        8
 70
   128
 43
0.0
 10
72.61016406119998
 20
39.23362120990002
 10
72.54954613740001
 20
39.23912346360002
 10
72.50166870650001
 20
39.2481535673
 10
72.47123308479999
 20
39.2597801984
 10
72.46203906830003
 20
39.27280008790002
 10
72.47599400580002
 20
39.28568586709999
 10
72.51180894670001
 20
39.29683938620003
 10
72.52050377429998
 20
39.29860144860002
  0
ARC
  5
7A4
330
1F
100
AcDbEntity
  8
SK1
100
AcDbCircle
 10
79.97838970279509
 20
0.0000000000278099
 30
0.0
 40
39.99999999997177
100
AcDbArc
 50
98.74587287779929
 51
100.6318928191438
  0
ELLIPSE
  5
7A5
330
1F
100
AcDbEntity
  8
SK1
100
AcDbEllipse
 10
72.26661152709998
 20
0.0000000000000142
 30
0.0
 11
0.0
 21
40.0
 31
0.0
210
0.0
220
0.0
230
1.0
 40
0.2679491924
 41
6.130541029501221
 42
6.141719644293996
  0
ELLIPSE
  5
7A6
330
1F
100
AcDbEntity
  8
SK1
100
AcDbEllipse
 10
52.72987002340001
 20
0.0000000000000142
 30
0.0
 11
30.40764542174245
 21
36.23910466778578
 31
0.0
210
0.0
220
0.0
230
0.9999999999999998
 40
0.5267664044080922
 41
0.3837832038353257
 42
0.4237614341105176
  0
LINE
  5
7A7
330
1F
100
AcDbEntity
  8
SK1
100
AcDbLine
 10
76.74331404269998
 20
36.34373471140001
 30
0.0
 11
76.74331404269998
 21
35.3267081082
 31
0.0
  0
ELLIPSE
  5
7A8
330
1F
100
AcDbEntity
  8
SK1
100
AcDbEllipse
 10
72.26661152709998
 20
0.0000000000000142
 30
0.0
 11
0.0
 21
40.0
 31
0.0
210
0.0
220
0.0
230
1.0
 40
0.2679491924
 41
5.852292910335427
 42
5.864429707675537
  0
LINE
  5
807
330
1F
100
AcDbEntity
  8
1
100
AcDbLine
 10
6.928203627399994
 20
39.50000181800003
 30
0.0
 11
0.0535901636000062
 21
27.59282104670002
 31
0.0
  0
ARC
  5
808
330
1F
100
AcDbEntity
  8
1
100
AcDbCircle
 10
7.794229304600007
 20
39.0
 30
0.0
 40
1.0
100
AcDbArc
 50
90.0
 51
149.9999999999998
  0
LINE
  5
809
330
1F
100
AcDbEntity
  8
1
100
AcDbLine
 10
0.0535901636000062
 20
-27.59282104669998
 30
0.0
 11
6.928203627399994
 21
-39.50000181789997
 31
0.0
  0
LINE
  5
80A
330
1F
100
AcDbEntity
  8
1
100
AcDbLine
 10
7.794229313699998
 20
-39.99999910589998
 30
0.0
 11
33.60000438990001
 21
-39.99999910589998
 31
0.0
  0
ARC
  5
80B
330
1F
100
AcDbEntity
  8
1
100
AcDbCircle
 10
7.794229304600007
 20
-38.99999999999998
 30
0.0
 40
1.000000000000011
100
AcDbArc
 50
210.0
 51
270.0
  0
LINE
  5
80C
330
1F
100
AcDbEntity
  8
1
100
AcDbLine
 10
33.60000438990001
 20
39.99999910590002
 30
0.0
 11
7.794229313699998
 21
39.99999910590002
 31
0.0
  0
ARC
  5
80D
330
1F
100
AcDbEntity
  8
1
100
AcDbCircle
 10
0.4000006704999919
 20
27.39282032300003
 30
0.0
 40
0.4000000000000057
100
AcDbArc
 50
149.9999999999998
 51
180.0
  0
ARC
  5
80E
330
1F
100
AcDbEntity
  8
1
100
AcDbCircle
 10
0.4000006704999919
 20
-27.39282032299998
 30
0.0
 40
0.4000000000000057
100
AcDbArc
 50
180.0
 51
210.0
  0
LINE
  5
80F
330
1F
100
AcDbEntity
  8
3
100
AcDbLine
 10
0.0
 20
-7.000000216099992
 30
0.0
 11
37.13385201989999
 21
-7.000000216099992
 31
0.0
  0
LINE
  5
810
330
1F
100
AcDbEntity
  8
3
100
AcDbLine
 10
37.1000040322
 20
7.000000216100017
 30
0.0
 11
0.0
 21
7.000000216100017
 31
0.0
  0
LINE
  5
83F
330
1F
100
AcDbEntity
  8
SK3
100
AcDbLine
 10
-26.0987083894
 20
-7.000000216099992
 30
0.0
 11
-26.0987083894
 21
7.000000216100017
 31
0.0
  0
LINE
  5
840
330
1F
100
AcDbEntity
  8
SK3
100
AcDbLine
 10
-26.9999993034
 20
-8.500000461899986
 30
0.0
 11
-26.9999993034
 21
8.500000462000016
 31
0.0
  0
LINE
  5
841
330
1F
100
AcDbEntity
  8
SK3
100
AcDbLine
 10
-26.9999993034
 20
-8.500000461899986
 30
0.0
 11
-26.0987083894
 21
-7.000000216099992
 31
0.0
  0
LINE
  5
842
330
1F
100
AcDbEntity
  8
SK3
100
AcDbLine
 10
-28.99999928199999
 20
-8.500000461899986
 30
0.0
 11
-26.9999993034
 21
-8.500000461899986
 31
0.0
  0
ARC
  5
843
330
1F
100
AcDbEntity
  8
SK3
100
AcDbCircle
 10
-28.99999932950001
 20
-9.499999999999984
 30
0.0
 40
1.0
100
AcDbArc
 50
90.0
 51
180.0
  0
LINE
  5
844
330
1F
100
AcDbEntity
  8
SK3
100
AcDbLine
 10
-26.0987083894
 20
7.000000216100017
 30
0.0
 11
-26.9999993034
 21
8.500000462000016
 31
0.0
  0
LINE
  5
845
330
1F
100
AcDbEntity
  8
SK3
100
AcDbLine
 10
-26.9999993034
 20
8.500000462000016
 30
0.0
 11
-28.99999928199999
 21
8.500000462000016
 31
0.0
  0
ARC
  5
846
330
1F
100
AcDbEntity
  8
SK3
100
AcDbCircle
 10
-28.99999932950001
 20
9.500000000000012
 30
0.0
 40
1.0
100
AcDbArc
 50
180.0
 51
270.0
  0
DIMENSION
  5
848
330
1F
100
AcDbEntity
  8
SK2
100
AcDbDimension
  2
*D10
 10
-44.82414462970001
 20
-39.99999999999998
 30
0.0
 11
-44.8241446297
 21
0.0000000000000142
 31
0.0
 70
   160
  1
%%c<>
 71
     5
 42
80.0
  3
GEN-ISO_TDM
100
AcDbAlignedDimension
 13
7.794229304600007
 23
40.0
 33
0.0
 14
7.794229304600007
 24
-39.99999999999998
 34
0.0
 50
90.0
100
AcDbRotatedDimension
  0
DIMENSION
  5
849
330
1F
100
AcDbEntity
  8
2
100
AcDbDimension
  2
*D11
 10
89.6000006705
 20
51.44657247950004
 30
0.0
 11
44.80000067049997
 21
51.44657247950004
 31
0.0
 70
   160
 71
     5
 42
89.59999999999999
  3
GEN-ISO_TDM
100
AcDbAlignedDimension
 13
0.0000006704999862
 23
27.39282032300003
 33
0.0
 14
89.6000006705
 24
27.6541136181
 34
0.0
100
AcDbRotatedDimension
  0
DIMENSION
  5
922
330
1F
100
AcDbEntity
  8
SK2
100
AcDbDimension
  2
*D13
 10
-35.00895729654291
 20
-27.50000133220396
 30
0.0
 11
-35.00895729654289
 21
0.0000000000000277
 31
0.0
 70
   160
  1
MBM ø<>
 71
     5
 42
55.000002664408
  3
GEN-ISO_TDM
100
AcDbAlignedDimension
 13
0.0000006704999862
 23
27.50000133220403
 33
0.0
 14
0.0000006704999826
 24
-27.50000133220398
 34
0.0
 50
90.0
100
AcDbRotatedDimension
  0
LINE
  5
9AC
330
1F
100
AcDbEntity
  8
SK1
100
AcDbLine
 10
77.58162356920002
 20
-30.42035209268957
 30
0.0
 11
78.87856862956251
 21
-31.48153641770062
 31
0.0
  0
LINE
  5
9AD
330
1F
100
AcDbEntity
  8
SK1
100
AcDbLine
 10
77.58162356920002
 20
-32.06127264105322
 30
0.0
 11
78.76005035896831
 21
-31.82327485459943
 31
0.0
  0
LINE
  5
9AE
330
1F
100
AcDbEntity
  8
SK1
100
AcDbLine
 10
76.86986960460003
 20
-32.50117458211249
 30
0.0
 11
78.16681625561331
 21
-33.39349633017885
 31
0.0
  0
LINE
  5
9AF
330
1F
100
AcDbEntity
  8
SK1
100
AcDbLine
 10
76.86986960460003
 20
-33.88120927148221
 30
0.0
 11
78.04829798501909
 21
-33.6809952174917
 31
0.0
  0
LINE
  5
9B0
330
1F
100
AcDbEntity
  8
SK1
100
AcDbLine
 10
76.15811564019998
 20
-34.25117628326572
 30
0.0
 11
77.45506055650001
 21
-35.00074520709998
 31
0.0
  0
LINE
  5
9B1
330
1F
100
AcDbEntity
  8
SK1
100
AcDbLine
 10
76.15811564019994
 20
-35.40954191157467
 30
0.0
 11
77.33654561106988
 21
-35.24182512433064
 31
0.0
  0
LINE
  5
9B2
330
1F
100
AcDbEntity
  8
SK1
100
AcDbLine
 10
75.44636167580006
 20
-35.7190146019621
 30
0.0
 11
76.7433115077149
 21
-36.34373494392981
 31
0.0
  0
LINE
  5
9B3
330
1F
100
AcDbEntity
  8
SK1
100
AcDbLine
 10
76.62479323712066
 20
-36.54382602069715
 30
0.0
 11
75.44636167580006
 21
-36.68273644967841
 31
0.0
  0
LINE
  5
9B5
330
1F
100
AcDbEntity
  8
SK1
100
AcDbLine
 10
74.73460771140003
 20
-37.72663285856522
 30
0.0
 11
75.91304086317141
 21
-37.61388553781635
 31
0.0
  0
LINE
  5
9B6
330
1F
100
AcDbEntity
  8
SK1
100
AcDbLine
 10
74.73460771140001
 20
-36.93834229178583
 30
0.0
 11
76.0315600782
 21
-37.45090216399997
 31
0.0
  0
LINE
  5
9B7
330
1F
100
AcDbEntity
  8
SK1
100
AcDbLine
 10
74.02286119760003
 20
-37.93313389765867
 30
0.0
 11
75.31980611379998
 21
-38.34268078209999
 31
0.0
  0
LINE
  5
9B8
330
1F
100
AcDbEntity
  8
SK1
100
AcDbLine
 10
74.02286119760003
 20
-38.55985783354677
 30
0.0
 11
75.20128848922221
 21
-38.47136250715324
 31
0.0
  0
LINE
  5
9B9
330
1F
100
AcDbEntity
  8
SK1
100
AcDbLine
 10
73.31110723320001
 20
-38.72069387823403
 30
0.0
 11
74.60805438586717
 21
-39.03383980708518
 31
0.0
  0
LINE
  5
9BA
330
1F
100
AcDbEntity
  8
SK1
100
AcDbLine
 10
73.31110723320001
 20
-39.1958502507181
 30
0.0
 11
74.48953611527295
 21
-39.13023465231874
 31
0.0
  0
LINE
  5
9BB
330
1F
100
AcDbEntity
  8
SK1
100
AcDbLine
 10
72.59935326880004
 20
-39.31348141930064
 30
0.0
 11
73.89630563549999
 21
-39.53490033739996
 31
0.0
  0
LINE
  5
9BC
330
1F
100
AcDbEntity
  8
SK1
100
AcDbLine
 10
72.59935326880003
 20
-39.62007164949998
 30
0.0
 11
73.25614946502772
 21
-39.62007066670906
 31
0.0
  0
ARC
  5
ADF
330
1F
100
AcDbEntity
  8
1
100
AcDbCircle
 10
100.1866800808
 20
0.0000000000000142
 30
0.0
 40
39.99999999999981
100
AcDbArc
 50
125.6577914641095
 51
125.7953263459001
  0
ELLIPSE
  5
AE0
330
1F
100
AcDbEntity
  8
1
100
AcDbEllipse
 10
-2.480206023199996
 20
0.0000000000000142
 30
0.0
 11
149.2820323027529
 21
0.0
 31
0.0
210
0.0
220
0.0
230
1.0
 40
0.2679491924
 41
1.010380249432415
 42
1.015906952060587
  0
ARC
  5
AE1
330
1F
100
AcDbEntity
  8
1
100
AcDbCircle
 10
96.81863168440001
 20
0.0000000000000142
 30
0.0
 40
39.99999999999989
100
AcDbArc
 50
121.1001418161135
 51
121.2306236512999
  0
ELLIPSE
  5
AE2
330
1F
100
AcDbEntity
  8
1
100
AcDbEllipse
 10
6.721473317900004
 20
0.0000000000000142
 30
0.0
 11
149.2820323027529
 21
0.0
 31
0.0
210
0.0
220
0.0
230
1.0
 40
0.2679491924
 41
1.087013440505109
 42
1.092303410582704
  0
ARC
  5
AE3
330
1F
100
AcDbEntity
  8
1
100
AcDbCircle
 10
93.45058328810004
 20
0.0000000000000142
 30
0.0
 40
39.99999999999989
100
AcDbArc
 50
116.7519022053589
 51
116.8770019608998
  0
ELLIPSE
  5
AE4
330
1F
100
AcDbEntity
  8
1
100
AcDbEllipse
 10
15.92315265899999
 20
0.0000000000000142
 30
0.0
 11
149.2820323027529
 21
0.0
 31
0.0
210
0.0
220
0.0
230
1.0
 40
0.2679491924
 41
1.160671448695155
 42
1.165779228494159
  0
ARC
  5
AE5
330
1F
100
AcDbEntity
  8
1
100
AcDbCircle
 10
90.08253489180001
 20
0.0000000000000142
 30
0.0
 40
39.99999999999995
100
AcDbArc
 50
112.5643443464541
 51
112.6852982766002
  0
ELLIPSE
  5
AE6
330
1F
100
AcDbEntity
  8
1
100
AcDbEllipse
 10
25.1248320001
 20
0.0000000000000142
 30
0.0
 11
149.2820323027529
 21
0.0
 31
0.0
210
0.0
220
0.0
230
1.0
 40
0.2679491924
 41
1.232037788147622
 42
1.237005393438034
  0
ARC
  5
AE7
330
1F
100
AcDbEntity
  8
1
100
AcDbCircle
 10
86.71448649549999
 20
0.0000000000000142
 30
0.0
 40
39.99999999999996
100
AcDbArc
 50
108.5005149553555
 51
108.6182943199994
  0
ELLIPSE
  5
AE8
330
1F
100
AcDbEntity
  8
1
100
AcDbEllipse
 10
34.32651134119999
 20
0.0000000000000142
 30
0.0
 11
149.2820323027529
 21
0.0
 31
0.0
210
0.0
220
0.0
230
1.0
 40
0.2679491924
 41
1.301649495371369
 42
1.306510794135959
  0
ARC
  5
AE9
330
1F
100
AcDbEntity
  8
1
100
AcDbCircle
 10
83.34643809909998
 20
0.0000000000000142
 30
0.0
 40
39.99999999999998
100
AcDbArc
 50
104.5311203400836
 51
104.6464919777001
  0
ELLIPSE
  5
AEA
330
1F
100
AcDbEntity
  8
1
100
AcDbEllipse
 10
43.52819068229999
 20
0.0000000000000142
 30
0.0
 11
149.2820323027615
 21
0.0
 31
0.0
210
0.0
220
0.0
230
1.0
 40
0.2679491924
 41
1.369946986107591
 42
1.37473027353034
  0
ARC
  5
AEB
330
1F
100
AcDbEntity
  8
1
100
AcDbCircle
 10
79.97838970279999
 20
0.0000000000000142
 30
0.0
 40
40.0
100
AcDbArc
 50
100.6318928191434
 51
100.7455138058999
  0
LINE
  5
AEC
330
1F
100
AcDbEntity
  8
SK1
100
AcDbLine
 10
77.58072168274075
 20
32.06145292064006
 30
0.0
 11
78.76005035896773
 21
31.82327485460113
 31
0.0
  0
LINE
  5
AED
330
1F
100
AcDbEntity
  8
SK1
100
AcDbLine
 10
78.87856848540002
 20
31.48153796790001
 30
0.0
 11
77.58072168274077
 21
30.41958203273951
 31
0.0
  0
ENDSEC
  0
SECTION
  2
OBJECTS
  0
DICTIONARY
  5
C
330
0
100
AcDbDictionary
281
     1
  3
ACAD_GROUP
350
D
  3
ACAD_LAYOUT
350
1A
  3
ACAD_MLINESTYLE
350
17
  3
ACAD_PLOTSETTINGS
350
19
  3
ACAD_PLOTSTYLENAME
350
E
  3
AcDbVariableDictionary
350
25F
  0
DICTIONARY
  5
19C
330
2
100
AcDbDictionary
280
     1
281
     1
  3
ACAD_LAYERSTATES
360
19D
  0
DICTIONARY
  5
D
102
{ACAD_REACTORS
330
C
102
}
330
C
100
AcDbDictionary
281
     1
  0
DICTIONARY
  5
1A
102
{ACAD_REACTORS
330
C
102
}
330
C
100
AcDbDictionary
281
     1
  3
Layout1
350
1E
  3
Layout2
350
26
  3
Model
350
22
  0
DICTIONARY
  5
17
102
{ACAD_REACTORS
330
C
102
}
330
C
100
AcDbDictionary
281
     1
  3
Standard
350
18
  0
DICTIONARY
  5
19
102
{ACAD_REACTORS
330
C
102
}
330
C
100
AcDbDictionary
281
     1
  0
ACDBDICTIONARYWDFLT
  5
E
102
{ACAD_REACTORS
330
C
102
}
330
C
100
AcDbDictionary
281
     1
  3
Normal
350
F
100
AcDbDictionaryWithDefault
340
F
  0
DICTIONARY
  5
25F
102
{ACAD_REACTORS
330
C
102
}
330
C
100
AcDbDictionary
281
     1
  3
DIMASSOC
350
260
  0
DICTIONARY
  5
19D
102
{ACAD_REACTORS
330
19C
102
}
330
19C
100
AcDbDictionary
281
     1
  0
LAYOUT
  5
1E
102
{ACAD_REACTORS
330
1A
102
}
330
1A
100
AcDbPlotSettings
  1

  2

  4

  6

 40
0.0
 41
0.0
 42
0.0
 43
0.0
 44
0.0
 45
0.0
 46
0.0
 47
0.0
 48
0.0
 49
0.0
140
0.0
141
0.0
142
1.0
143
1.0
 70
   688
 72
     0
 73
     0
 74
     5
  7

 75
    16
147
1.0
148
0.0
149
0.0
100
AcDbLayout
  1
Layout1
 70
     1
 71
     1
 10
0.0
 20
0.0
 11
420.0
 21
297.0
 12
0.0
 22
0.0
 32
0.0
 14
1.000000000000000E+20
 24
1.000000000000000E+20
 34
1.000000000000000E+20
 15
-1.000000000000000E+20
 25
-1.000000000000000E+20
 35
-1.000000000000000E+20
146
0.0
 13
0.0
 23
0.0
 33
0.0
 16
1.0
 26
0.0
 36
0.0
 17
0.0
 27
1.0
 37
0.0
 76
     0
330
1B
  0
LAYOUT
  5
26
102
{ACAD_REACTORS
330
1A
102
}
330
1A
100
AcDbPlotSettings
  1

  2

  4

  6

 40
0.0
 41
0.0
 42
0.0
 43
0.0
 44
0.0
 45
0.0
 46
0.0
 47
0.0
 48
0.0
 49
0.0
140
0.0
141
0.0
142
1.0
143
1.0
 70
   688
 72
     0
 73
     0
 74
     5
  7

 75
    16
147
1.0
148
0.0
149
0.0
100
AcDbLayout
  1
Layout2
 70
     1
 71
     2
 10
0.0
 20
0.0
 11
0.0
 21
0.0
 12
0.0
 22
0.0
 32
0.0
 14
0.0
 24
0.0
 34
0.0
 15
0.0
 25
0.0
 35
0.0
146
0.0
 13
0.0
 23
0.0
 33
0.0
 16
1.0
 26
0.0
 36
0.0
 17
0.0
 27
1.0
 37
0.0
 76
     0
330
23
  0
LAYOUT
  5
22
102
{ACAD_REACTORS
330
1A
102
}
330
1A
100
AcDbPlotSettings
  1

  2

  4

  6

 40
0.0
 41
0.0
 42
0.0
 43
0.0
 44
0.0
 45
0.0
 46
0.0
 47
0.0
 48
0.0
 49
0.0
140
0.0
141
0.0
142
1.0
143
1.0
 70
  1712
 72
     0
 73
     0
 74
     0
  7

 75
     0
147
1.0
148
0.0
149
0.0
100
AcDbLayout
  1
Model
 70
     1
 71
     0
 10
0.0
 20
0.0
 11
0.0
 21
0.0
 12
0.0
 22
0.0
 32
0.0
 14
0.0
 24
0.0
 34
0.0
 15
297.0
 25
210.0
 35
0.0
146
0.0
 13
0.0
 23
0.0
 33
0.0
 16
1.0
 26
0.0
 36
0.0
 17
0.0
 27
1.0
 37
0.0
 76
     0
330
1F
  0
MLINESTYLE
  5
18
102
{ACAD_REACTORS
330
17
102
}
330
17
100
AcDbMlineStyle
  2
STANDARD
 70
     0
  3

 62
   256
 51
90.0
 52
90.0
 71
     2
 49
0.5
 62
   256
  6
BYLAYER
 49
-0.5
 62
   256
  6
BYLAYER
  0
ACDBPLACEHOLDER
  5
F
102
{ACAD_REACTORS
330
E
102
}
330
E
  0
DICTIONARYVAR
  5
260
102
{ACAD_REACTORS
330
25F
102
}
330
25F
100
DictionaryVariables
280
     0
  1
1
  0
ENDSEC
  0
EOF
