  0
SECTION
  2
HEADER
  9
$ACADVER
  1
AC1015
  9
$ACADMAINTVER
 70
     6
  9
$DWGCODEPAGE
  3
ANSI_1252
  9
$INSBASE
 10
0.0
 20
0.0
 30
0.0
  9
$EXTMIN
 10
0.0
 20
0.0
 30
0.0
  9
$EXTMAX
 10
297.0
 20
210.0
 30
0.0
  9
$LIMMIN
 10
0.0
 20
0.0
  9
$LIMMAX
 10
297.0
 20
210.0
  9
$ORTHOMODE
 70
     0
  9
$REGENMODE
 70
     1
  9
$FILLMODE
 70
     1
  9
$QTEXTMODE
 70
     0
  9
$MIRRTEXT
 70
     1
  9
$LTSCALE
 40
1.0
  9
$ATTMODE
 70
     1
  9
$TEXTSIZE
 40
2.0
  9
$TRACEWID
 40
1.0
  9
$TEXTSTYLE
  7
Standard
  9
$CLAYER
  8
0
  9
$CELTYPE
  6
ByLayer
  9
$CECOLOR
 62
   256
  9
$CELTSCALE
 40
1.0
  9
$DISPSILH
 70
     0
  9
$DIMSCALE
 40
1.0
  9
$DIMASZ
 40
3.0
  9
$DIMEXO
 40
0.0
  9
$DIMDLI
 40
3.75
  9
$DIMRND
 40
0.0
  9
$DIMDLE
 40
0.0
  9
$DIMEXE
 40
1.0
  9
$DIMTP
 40
0.0
  9
$DIMTM
 40
0.0
  9
$DIMTXT
 40
2.0
  9
$DIMCEN
 40
2.5
  9
$DIMTSZ
 40
0.0
  9
$DIMTOL
 70
     0
  9
$DIMLIM
 70
     0
  9
$DIMTIH
 70
     1
  9
$DIMTOH
 70
     1
  9
$DIMSE1
 70
     0
  9
$DIMSE2
 70
     0
  9
$DIMTAD
 70
     1
  9
$DIMZIN
 70
     0
  9
$DIMBLK
  1

  9
$DIMASO
 70
     1
  9
$DIMSHO
 70
     1
  9
$DIMPOST
  1

  9
$DIMAPOST
  1

  9
$DIMALT
 70
     0
  9
$DIMALTD
 70
     3
  9
$DIMALTF
 40
0.0393700787
  9
$DIMLFAC
 40
1.0
  9
$DIMTOFL
 70
     1
  9
$DIMTVP
 40
0.0
  9
$DIMTIX
 70
     0
  9
$DIMSOXD
 70
     0
  9
$DIMSAH
 70
     0
  9
$DIMBLK1
  1

  9
$DIMBLK2
  1

  9
$DIMSTYLE
  2
ISO-25
  9
$DIMCLRD
 70
     0
  9
$DIMCLRE
 70
     0
  9
$DIMCLRT
 70
     0
  9
$DIMTFAC
 40
1.0
  9
$DIMGAP
 40
1.524
  9
$DIMJUST
 70
     0
  9
$DIMSD1
 70
     0
  9
$DIMSD2
 70
     0
  9
$DIMTOLJ
 70
     0
  9
$DIMTZIN
 70
     0
  9
$DIMALTZ
 70
     0
  9
$DIMALTTZ
 70
     0
  9
$DIMUPT
 70
     0
  9
$DIMDEC
 70
     2
  9
$DIMTDEC
 70
     3
  9
$DIMALTU
 70
     2
  9
$DIMALTTD
 70
     3
  9
$DIMTXSTY
  7
Standard
  9
$DIMAUNIT
 70
     0
  9
$DIMADEC
 70
     2
  9
$DIMALTRND
 40
0.0
  9
$DIMAZIN
 70
     0
  9
$DIMDSEP
 70
    44
  9
$DIMATFIT
 70
     3
  9
$DIMFRAC
 70
     0
  9
$DIMLDRBLK
  1

  9
$DIMLUNIT
 70
     2
  9
$DIMLWD
 70
    -2
  9
$DIMLWE
 70
    -2
  9
$DIMTMOVE
 70
     0
  9
$LUNITS
 70
     2
  9
$LUPREC
 70
     2
  9
$SKETCHINC
 40
1.0
  9
$FILLETRAD
 40
10.0
  9
$AUNITS
 70
     0
  9
$AUPREC
 70
     2
  9
$MENU
  1
.
  9
$ELEVATION
 40
0.0
  9
$PELEVATION
 40
0.0
  9
$THICKNESS
 40
0.0
  9
$LIMCHECK
 70
     0
  9
$CHAMFERA
 40
0.0
  9
$CHAMFERB
 40
0.0
  9
$CHAMFERC
 40
0.0
  9
$CHAMFERD
 40
0.0
  9
$SKPOLY
 70
     0
  9
$TDCREATE
 40
2457669.410482847
  9
$TDUCREATE
 40
2457669.327149514
  9
$TDUPDATE
 40
2457669.410484306
  9
$TDUUPDATE
 40
2457669.327150972
  9
$TDINDWG
 40
0.0000000116
  9
$TDUSRTIMER
 40
0.0000000116
  9
$USRTIMER
 70
     1
  9
$ANGBASE
 50
0.0
  9
$ANGDIR
 70
     0
  9
$PDMODE
 70
     0
  9
$PDSIZE
 40
-1.0
  9
$PLINEWID
 40
0.0
  9
$SPLFRAME
 70
     0
  9
$SPLINETYPE
 70
     6
  9
$SPLINESEGS
 70
     8
  9
$HANDSEED
  5
26E
  9
$SURFTAB1
 70
     6
  9
$SURFTAB2
 70
     6
  9
$SURFTYPE
 70
     6
  9
$SURFU
 70
     6
  9
$SURFV
 70
     6
  9
$UCSBASE
  2

  9
$UCSNAME
  2

  9
$UCSORG
 10
0.0
 20
0.0
 30
0.0
  9
$UCSXDIR
 10
1.0
 20
0.0
 30
0.0
  9
$UCSYDIR
 10
0.0
 20
1.0
 30
0.0
  9
$UCSORTHOREF
  2

  9
$UCSORTHOVIEW
 70
     0
  9
$UCSORGTOP
 10
0.0
 20
0.0
 30
0.0
  9
$UCSORGBOTTOM
 10
0.0
 20
0.0
 30
0.0
  9
$UCSORGLEFT
 10
0.0
 20
0.0
 30
0.0
  9
$UCSORGRIGHT
 10
0.0
 20
0.0
 30
0.0
  9
$UCSORGFRONT
 10
0.0
 20
0.0
 30
0.0
  9
$UCSORGBACK
 10
0.0
 20
0.0
 30
0.0
  9
$PUCSBASE
  2

  9
$PUCSNAME
  2

  9
$PUCSORG
 10
0.0
 20
0.0
 30
0.0
  9
$PUCSXDIR
 10
1.0
 20
0.0
 30
0.0
  9
$PUCSYDIR
 10
0.0
 20
1.0
 30
0.0
  9
$PUCSORTHOREF
  2

  9
$PUCSORTHOVIEW
 70
     0
  9
$PUCSORGTOP
 10
0.0
 20
0.0
 30
0.0
  9
$PUCSORGBOTTOM
 10
0.0
 20
0.0
 30
0.0
  9
$PUCSORGLEFT
 10
0.0
 20
0.0
 30
0.0
  9
$PUCSORGRIGHT
 10
0.0
 20
0.0
 30
0.0
  9
$PUCSORGFRONT
 10
0.0
 20
0.0
 30
0.0
  9
$PUCSORGBACK
 10
0.0
 20
0.0
 30
0.0
  9
$USERI1
 70
     0
  9
$USERI2
 70
     0
  9
$USERI3
 70
     0
  9
$USERI4
 70
     0
  9
$USERI5
 70
     0
  9
$USERR1
 40
0.0
  9
$USERR2
 40
0.0
  9
$USERR3
 40
0.0
  9
$USERR4
 40
0.0
  9
$USERR5
 40
0.0
  9
$WORLDVIEW
 70
     1
  9
$SHADEDGE
 70
     3
  9
$SHADEDIF
 70
    70
  9
$TILEMODE
 70
     1
  9
$MAXACTVP
 70
    64
  9
$PINSBASE
 10
0.0
 20
0.0
 30
0.0
  9
$PLIMCHECK
 70
     0
  9
$PEXTMIN
 10
1.0000000000E+20
 20
1.0000000000E+20
 30
1.0000000000E+20
  9
$PEXTMAX
 10
-1.0000000000E+20
 20
-1.0000000000E+20
 30
-1.0000000000E+20
  9
$PLIMMIN
 10
0.0
 20
0.0
  9
$PLIMMAX
 10
420.0
 20
297.0
  9
$UNITMODE
 70
     0
  9
$VISRETAIN
 70
     1
  9
$PLINEGEN
 70
     0
  9
$PSLTSCALE
 70
     1
  9
$TREEDEPTH
 70
  3020
  9
$CMLSTYLE
  2
Standard
  9
$CMLJUST
 70
     0
  9
$CMLSCALE
 40
20.0
  9
$PROXYGRAPHICS
 70
     1
  9
$MEASUREMENT
 70
     1
  9
$CELWEIGHT
370
    -1
  9
$ENDCAPS
280
     0
  9
$JOINSTYLE
280
     0
  9
$LWDISPLAY
290
     1
  9
$INSUNITS
 70
     4
  9
$HYPERLINKBASE
  1

  9
$STYLESHEET
  1

  9
$XEDIT
290
     1
  9
$CEPSNTYPE
380
     0
  9
$PSTYLEMODE
290
     1
  9
$FINGERPRINTGUID
  2
{AC41F57B-9D3D-4F2F-9E4E-D536724AFE11}
  9
$VERSIONGUID
  2
{FAEB1C32-E019-11D5-929B-00C0DF256EC4}
  9
$EXTNAMES
290
     1
  9
$PSVPSCALE
 40
0.0
  9
$OLESTARTUP
290
     0
  0
ENDSEC
  0
SECTION
  2
CLASSES
  0
CLASS
  1
ACDBDICTIONARYWDFLT
  2
AcDbDictionaryWithDefault
  3
ObjectDBX Classes
 90
        0
280
     0
281
     0
  0
CLASS
  1
VISUALSTYLE
  2
AcDbVisualStyle
  3
ObjectDBX Classes
 90
     4095
280
     0
281
     0
  0
CLASS
  1
MATERIAL
  2
AcDbMaterial
  3
ObjectDBX Classes
 90
     1153
280
     0
281
     0
  0
CLASS
  1
SCALE
  2
AcDbScale
  3
ObjectDBX Classes
 90
     1153
280
     0
281
     0
  0
CLASS
  1
TABLESTYLE
  2
AcDbTableStyle
  3
ObjectDBX Classes
 90
     4095
280
     0
281
     0
  0
CLASS
  1
MLEADERSTYLE
  2
AcDbMLeaderStyle
  3
ACDB_MLEADERSTYLE_CLASS
 90
     4095
280
     0
281
     0
  0
CLASS
  1
SUN
  2
AcDbSun
  3
SCENEOE
 90
     1153
280
     0
281
     0
  0
CLASS
  1
ACDBPLACEHOLDER
  2
AcDbPlaceHolder
  3
ObjectDBX Classes
 90
        0
280
     0
281
     0
  0
CLASS
  1
LAYOUT
  2
AcDbLayout
  3
ObjectDBX Classes
 90
        0
280
     0
281
     0
  0
ENDSEC
  0
SECTION
  2
TABLES
  0
TABLE
  2
VPORT
  5
8
330
0
100
AcDbSymbolTable
 70
     1
  0
VPORT
  5
29
330
8
100
AcDbSymbolTableRecord
100
AcDbViewportTableRecord
  2
*Active
 70
     0
 10
0.0
 20
0.0
 11
1.0
 21
1.0
 12
148.5
 22
105.0
 13
0.0
 23
0.0
 14
10.0
 24
10.0
 15
10.0
 25
10.0
 16
0.0
 26
0.0
 36
1.0
 17
0.0
 27
0.0
 37
0.0
 40
210.0
 41
1.4142857143
 42
50.0
 43
0.0
 44
0.0
 50
0.0
 51
0.0
 71
     0
 72
  2000
 73
     1
 74
     3
 75
     0
 76
     0
 77
     0
 78
     0
281
     0
 65
     1
110
0.0
120
0.0
130
0.0
111
1.0
121
0.0
131
0.0
112
0.0
122
1.0
132
0.0
 79
     0
146
0.0
  0
ENDTAB
  0
TABLE
  2
LTYPE
  5
5
330
0
100
AcDbSymbolTable
 70
     6
  0
LTYPE
  5
14
330
5
100
AcDbSymbolTableRecord
100
AcDbLinetypeTableRecord
  2
ByBlock
 70
     0
  3

 72
    65
 73
     0
 40
0.0
  0
LTYPE
  5
15
330
5
100
AcDbSymbolTableRecord
100
AcDbLinetypeTableRecord
  2
ByLayer
 70
     0
  3

 72
    65
 73
     0
 40
0.0
  0
LTYPE
  5
16
330
5
100
AcDbSymbolTableRecord
100
AcDbLinetypeTableRecord
  2
Continuous
 70
     0
  3
Solid line
 72
    65
 73
     0
 40
0.0
  0
LTYPE
  5
6E
330
5
100
AcDbSymbolTableRecord
100
AcDbLinetypeTableRecord
  2
HIDDEN
 70
     0
  3
Hidden __ __ __ __ __ __ __ __ __ __ __ __ __ __
 72
    65
 73
     2
 40
1.905
 49
1.27
 74
     0
 49
-0.635
 74
     0
  0
LTYPE
  5
6F
330
5
100
AcDbSymbolTableRecord
100
AcDbLinetypeTableRecord
  2
PHANTOM
 70
     0
  3
Phantom ______  __  __  ______  __  __  ______
 72
    65
 73
     6
 40
12.7
 49
6.35
 74
     0
 49
-1.27
 74
     0
 49
1.27
 74
     0
 49
-1.27
 74
     0
 49
1.27
 74
     0
 49
-1.27
 74
     0
  0
LTYPE
  5
70
330
5
100
AcDbSymbolTableRecord
100
AcDbLinetypeTableRecord
  2
CENTER
 70
     0
  3
Center ____ _ ____ _ ____ _ ____ _ ____ _ ____
 72
    65
 73
     4
 40
10.16
 49
6.35
 74
     0
 49
-1.27
 74
     0
 49
1.27
 74
     0
 49
-1.27
 74
     0
  0
LTYPE
  5
71
330
5
100
AcDbSymbolTableRecord
100
AcDbLinetypeTableRecord
  2
CENTERX2
 70
     0
  3
Center (2x) ________  __  ________  __  _____
 72
    65
 73
     4
 40
20.32
 49
12.7
 74
     0
 49
-2.54
 74
     0
 49
2.54
 74
     0
 49
-2.54
 74
     0
  0
LTYPE
  5
72
330
5
100
AcDbSymbolTableRecord
100
AcDbLinetypeTableRecord
  2
DOT2
 70
     0
  3
Dot (.5x) ........................................
 72
    65
 73
     2
 40
0.635
 49
0.0
 74
     0
 49
-0.635
 74
     0
  0
ENDTAB
  0
TABLE
  2
LAYER
  5
2
330
0
100
AcDbSymbolTable
 70
     5
  0
LAYER
  5
10
330
2
100
AcDbSymbolTableRecord
100
AcDbLayerTableRecord
  2
0
 70
     0
 62
     7
  6
Continuous
370
    -3
390
F
  0
LAYER
  5
73
330
2
100
AcDbSymbolTableRecord
100
AcDbLayerTableRecord
  2
FORMAT
 70
     0
 62
     7
  6
Continuous
370
    -3
390
F
  0
LAYER
  5
74
330
2
100
AcDbSymbolTableRecord
100
AcDbLayerTableRecord
  2
VERMASSUNG
 70
     0
 62
     7
  6
Continuous
370
    -3
390
F
  0
LAYER
  5
75
330
2
100
AcDbSymbolTableRecord
100
AcDbLayerTableRecord
  2
KOPF_DÜNN
 70
     0
 62
     7
  6
Continuous
370
    -3
390
F
  0
LAYER
  5
76
330
2
100
AcDbSymbolTableRecord
100
AcDbLayerTableRecord
  2
KOPF_DICK
 70
     0
 62
     7
  6
Continuous
370
    15
390
F
  0
ENDTAB
  0
TABLE
  2
STYLE
  5
3
330
0
100
AcDbSymbolTable
 70
     2
  0
STYLE
  5
11
330
3
100
AcDbSymbolTableRecord
100
AcDbTextStyleTableRecord
  2
Standard
 70
     0
 40
0.0
 41
1.0
 50
0.0
 71
     0
 42
2.0
  3
txt
  4

  0
STYLE
  5
77
330
3
100
AcDbSymbolTableRecord
100
AcDbTextStyleTableRecord
  2
SLDTEXTSTYLE0
 70
     0
 40
0.0
 41
0.7
 50
0.0
 71
     0
 42
2.0
  3
TXT
  4

  0
ENDTAB
  0
TABLE
  2
VIEW
  5
6
330
0
100
AcDbSymbolTable
 70
     0
  0
ENDTAB
  0
TABLE
  2
UCS
  5
7
330
0
100
AcDbSymbolTable
 70
     0
  0
ENDTAB
  0
TABLE
  2
APPID
  5
9
330
0
100
AcDbSymbolTable
 70
     1
  0
APPID
  5
12
330
9
100
AcDbSymbolTableRecord
100
AcDbRegAppTableRecord
  2
ACAD
 70
     0
  0
ENDTAB
  0
TABLE
  2
DIMSTYLE
  5
A
330
0
100
AcDbSymbolTable
 70
     2
100
AcDbDimStyleTable
  0
DIMSTYLE
105
27
330
A
100
AcDbSymbolTableRecord
100
AcDbDimStyleTableRecord
  2
ISO-25
 70
     0
 41
2.5
 42
0.625
 43
3.75
 44
1.25
 73
     0
 74
     0
 77
     1
 78
     8
140
2.5
141
2.5
143
0.0393700787
147
0.625
171
     3
172
     1
178
     0
271
     2
272
     2
274
     3
278
    44
283
     0
284
     8
340
11
  0
DIMSTYLE
105
168
102
{ACAD_REACTORS
330
167
330
174
330
17F
330
18B
330
197
330
1A1
102
}
330
A
100
AcDbSymbolTableRecord
100
AcDbDimStyleTableRecord
  2
SLDDIMSTYLE0
 70
     0
 41
3.0
 44
0.0
 45
0.000000001
 73
     0
 74
     0
 77
     1
 78
    12
 79
     3
140
2.0
147
0.5
173
     1
178
     0
271
     2
272
     3
276
     2
284
    12
340
77
  0
ENDTAB
  0
TABLE
  2
BLOCK_RECORD
  5
1
330
0
100
AcDbSymbolTable
 70
     7
  0
BLOCK_RECORD
  5
1F
330
1
100
AcDbSymbolTableRecord
100
AcDbBlockTableRecord
  2
*Model_Space
340
22
  0
BLOCK_RECORD
  5
1B
330
1
100
AcDbSymbolTableRecord
100
AcDbBlockTableRecord
  2
*Paper_Space
340
1E
  0
BLOCK_RECORD
  5
23
330
1
100
AcDbSymbolTableRecord
100
AcDbBlockTableRecord
  2
*Paper_Space0
340
26
  0
BLOCK_RECORD
  5
169
330
1
100
AcDbSymbolTableRecord
100
AcDbBlockTableRecord
  2
_D
340
0
  0
BLOCK_RECORD
  5
175
330
1
100
AcDbSymbolTableRecord
100
AcDbBlockTableRecord
  2
_D_1
340
0
  0
BLOCK_RECORD
  5
180
330
1
100
AcDbSymbolTableRecord
100
AcDbBlockTableRecord
  2
_D_2
340
0
  0
BLOCK_RECORD
  5
18C
330
1
100
AcDbSymbolTableRecord
100
AcDbBlockTableRecord
  2
_D_3
340
0
  0
BLOCK_RECORD
  5
198
330
1
100
AcDbSymbolTableRecord
100
AcDbBlockTableRecord
  2
_D_4
340
0
  0
BLOCK_RECORD
  5
1A2
330
1
100
AcDbSymbolTableRecord
100
AcDbBlockTableRecord
  2
_D_5
340
0
  0
ENDTAB
  0
ENDSEC
  0
SECTION
  2
BLOCKS
  0
BLOCK
  5
20
330
1F
100
AcDbEntity
  8
0
100
AcDbBlockBegin
  2
*Model_Space
 70
     0
 10
0.0
 20
0.0
 30
0.0
  3
*Model_Space
  1

  0
ENDBLK
  5
21
330
1F
100
AcDbEntity
  8
0
100
AcDbBlockEnd
  0
BLOCK
  5
1C
330
1B
100
AcDbEntity
 67
     1
  8
0
100
AcDbBlockBegin
  2
*Paper_Space
 70
     0
 10
0.0
 20
0.0
 30
0.0
  3
*Paper_Space
  1

  0
ENDBLK
  5
1D
330
1B
100
AcDbEntity
 67
     1
  8
0
100
AcDbBlockEnd
  0
BLOCK
  5
24
330
23
100
AcDbEntity
  8
0
100
AcDbBlockBegin
  2
*Paper_Space0
 70
     0
 10
0.0
 20
0.0
 30
0.0
  3
*Paper_Space0
  1

  0
ENDBLK
  5
25
330
23
100
AcDbEntity
  8
0
100
AcDbBlockEnd
  0
BLOCK
  5
16A
330
169
100
AcDbEntity
  8
0
100
AcDbBlockBegin
  2
_D
 70
     0
 10
0.0
 20
0.0
 30
0.0
  3
_D
  1

  0
SOLID
  5
16C
330
169
100
AcDbEntity
  8
VERMASSUNG
100
AcDbTrace
 10
95.4533185233
 20
161.170255352
 30
0.0
 11
95.0033185233
 21
158.170255352
 31
0.0
 12
95.9033185233
 22
158.170255352
 32
0.0
 13
95.9033185233
 23
158.170255352
 33
0.0
  0
SOLID
  5
16D
330
169
100
AcDbEntity
  8
VERMASSUNG
100
AcDbTrace
 10
95.4533185233
 20
61.170255352
 30
0.0
 11
95.9033185233
 21
64.170255352
 31
0.0
 12
95.0033185233
 22
64.170255352
 32
0.0
 13
95.0033185233
 23
64.170255352
 33
0.0
  0
LINE
  5
16E
330
169
100
AcDbEntity
  8
VERMASSUNG
100
AcDbLine
 10
153.0774287488
 20
161.170255352
 30
0.0
 11
94.4533185233
 21
161.170255352
 31
0.0
  0
LINE
  5
16F
330
169
100
AcDbEntity
  8
VERMASSUNG
100
AcDbLine
 10
153.0774287488
 20
61.170255352
 30
0.0
 11
94.4533185233
 21
61.170255352
 31
0.0
  0
LINE
  5
170
330
169
100
AcDbEntity
  8
VERMASSUNG
100
AcDbLine
 10
95.4533185233
 20
161.170255352
 30
0.0
 11
95.4533185233
 21
61.170255352
 31
0.0
  0
MTEXT
  5
171
330
169
100
AcDbEntity
  8
VERMASSUNG
100
AcDbMText
 10
92.6751832671
 20
100.4668732717
 30
0.0
 40
2.0
 41
0.0
 71
     1
 72
     1
  1
HSK A 100
  7
SLDTEXTSTYLE0
 11
-7.044195017643634E-15
 21
1.0
 31
0.0
 73
     1
 44
1.0
  0
MTEXT
  5
172
330
169
100
AcDbEntity
  8
VERMASSUNG
100
AcDbMText
 10
92.8751832184
 20
114.4668737038
 30
0.0
 40
2.0
 41
0.0
 71
     1
 72
     1
  1
%%c
  7
SLDTEXTSTYLE0
 11
-7.044195017643634E-15
 21
1.0
 31
0.0
 73
     1
 44
1.0
  0
MTEXT
  5
173
330
169
100
AcDbEntity
  8
VERMASSUNG
100
AcDbMText
 10
92.8751829274
 20
118.0749515415
 30
0.0
 40
2.0
 41
0.0
 71
     1
 72
     1
  1
100
  7
SLDTEXTSTYLE0
 11
-7.044195017643634E-15
 21
1.0
 31
0.0
 73
     1
 44
1.0
  0
ENDBLK
  5
16B
330
169
100
AcDbEntity
  8
0
100
AcDbBlockEnd
  0
BLOCK
  5
176
330
175
100
AcDbEntity
  8
0
100
AcDbBlockBegin
  2
_D_1
 70
     0
 10
0.0
 20
0.0
 30
0.0
  3
_D_1
  1

  0
SOLID
  5
178
330
175
100
AcDbEntity
  8
VERMASSUNG
100
AcDbTrace
 10
223.6477147993
 20
122.170255352
 30
0.0
 11
223.1977147993
 21
119.170255352
 31
0.0
 12
224.0977147993
 22
119.170255352
 32
0.0
 13
224.0977147993
 23
119.170255352
 33
0.0
  0
SOLID
  5
179
330
175
100
AcDbEntity
  8
VERMASSUNG
100
AcDbTrace
 10
223.6477147993
 20
100.170255352
 30
0.0
 11
224.0977147993
 21
103.170255352
 31
0.0
 12
223.1977147993
 22
103.170255352
 32
0.0
 13
223.1977147993
 23
103.170255352
 33
0.0
  0
LINE
  5
17A
330
175
100
AcDbEntity
  8
VERMASSUNG
100
AcDbLine
 10
202.9774287489
 20
122.170255352
 30
0.0
 11
224.6477147993
 21
122.170255352
 31
0.0
  0
LINE
  5
17B
330
175
100
AcDbEntity
  8
VERMASSUNG
100
AcDbLine
 10
202.9774287489
 20
100.170255352
 30
0.0
 11
224.6477147993
 21
100.170255352
 31
0.0
  0
LINE
  5
17C
330
175
100
AcDbEntity
  8
VERMASSUNG
100
AcDbLine
 10
223.6477147993
 20
122.170255352
 30
0.0
 11
223.6477147993
 21
100.170255352
 31
0.0
  0
MTEXT
  5
17D
330
175
100
AcDbEntity
  8
VERMASSUNG
100
AcDbMText
 10
221.0695792615
 20
107.9660792449
 30
0.0
 40
2.0
 41
0.0
 71
     1
 72
     1
  1
%%c
  7
SLDTEXTSTYLE0
 11
-7.044195017643634E-15
 21
1.0
 31
0.0
 73
     1
 44
1.0
  0
MTEXT
  5
17E
330
175
100
AcDbEntity
  8
VERMASSUNG
100
AcDbMText
 10
221.0695792033
 20
111.5750514385
 30
0.0
 40
2.0
 41
0.0
 71
     1
 72
     1
  1
22
  7
SLDTEXTSTYLE0
 11
-7.044195017643634E-15
 21
1.0
 31
0.0
 73
     1
 44
1.0
  0
ENDBLK
  5
177
330
175
100
AcDbEntity
  8
0
100
AcDbBlockEnd
  0
BLOCK
  5
181
330
180
100
AcDbEntity
  8
0
100
AcDbBlockBegin
  2
_D_2
 70
     0
 10
0.0
 20
0.0
 30
0.0
  3
_D_2
  1

  0
SOLID
  5
183
330
180
100
AcDbEntity
  8
VERMASSUNG
100
AcDbTrace
 10
229.7477147993
 20
130.670255352
 30
0.0
 11
229.2977147993
 21
127.670255352
 31
0.0
 12
230.1977147993
 22
127.670255352
 32
0.0
 13
230.1977147993
 23
127.670255352
 33
0.0
  0
SOLID
  5
184
330
180
100
AcDbEntity
  8
VERMASSUNG
100
AcDbTrace
 10
229.7477147993
 20
91.670255352
 30
0.0
 11
230.1977147993
 21
94.670255352
 31
0.0
 12
229.2977147993
 22
94.670255352
 32
0.0
 13
229.2977147993
 23
94.670255352
 33
0.0
  0
LINE
  5
185
330
180
100
AcDbEntity
  8
VERMASSUNG
100
AcDbLine
 10
213.1774287488
 20
130.670255352
 30
0.0
 11
230.7477147993
 21
130.670255352
 31
0.0
  0
LINE
  5
186
330
180
100
AcDbEntity
  8
VERMASSUNG
100
AcDbLine
 10
213.1774287488
 20
91.670255352
 30
0.0
 11
230.7477147993
 21
91.670255352
 31
0.0
  0
LINE
  5
187
330
180
100
AcDbEntity
  8
VERMASSUNG
100
AcDbLine
 10
229.7477147993
 20
130.670255352
 30
0.0
 11
229.7477147993
 21
91.670255352
 31
0.0
  0
MTEXT
  5
188
330
180
100
AcDbEntity
  8
VERMASSUNG
100
AcDbMText
 10
226.9695795431
 20
104.965955661
 30
0.0
 40
2.0
 41
0.0
 71
     1
 72
     1
  1
ST4
  7
SLDTEXTSTYLE0
 11
-7.044195017643634E-15
 21
1.0
 31
0.0
 73
     1
 44
1.0
  0
MTEXT
  5
189
330
180
100
AcDbEntity
  8
VERMASSUNG
100
AcDbMText
 10
227.1695794944
 20
110.9659557131
 30
0.0
 40
2.0
 41
0.0
 71
     1
 72
     1
  1
%%c
  7
SLDTEXTSTYLE0
 11
-7.044195017643634E-15
 21
1.0
 31
0.0
 73
     1
 44
1.0
  0
MTEXT
  5
18A
330
180
100
AcDbEntity
  8
VERMASSUNG
100
AcDbMText
 10
227.1695792033
 20
114.5751750224
 30
0.0
 40
2.0
 41
0.0
 71
     1
 72
     1
  1
39
  7
SLDTEXTSTYLE0
 11
-7.044195017643634E-15
 21
1.0
 31
0.0
 73
     1
 44
1.0
  0
ENDBLK
  5
182
330
180
100
AcDbEntity
  8
0
100
AcDbBlockEnd
  0
BLOCK
  5
18D
330
18C
100
AcDbEntity
  8
0
100
AcDbBlockBegin
  2
_D_3
 70
     0
 10
0.0
 20
0.0
 30
0.0
  3
_D_3
  1

  0
ARC
  5
18F
330
18C
100
AcDbEntity
  8
VERMASSUNG
100
AcDbCircle
 10
157.6396064008
 20
180.528238247
 30
0.0
 40
4.247059938537323
100
AcDbArc
 50
153.4349488229
 51
206.5650511771
  0
ARC
  5
190
330
18C
100
AcDbEntity
  8
VERMASSUNG
100
AcDbCircle
 10
158.6152510969
 20
180.528238247
 30
0.0
 40
4.247059938537323
100
AcDbArc
 50
333.4349488229
 51
26.5650511771
  0
SOLID
  5
191
330
18C
100
AcDbEntity
  8
VERMASSUNG
100
AcDbTrace
 10
213.5774287488
 20
178.6288953016
 30
0.0
 11
210.5774287488
 21
179.0788953016
 31
0.0
 12
210.5774287488
 22
178.1788953016
 32
0.0
 13
210.5774287488
 23
178.1788953016
 33
0.0
  0
SOLID
  5
192
330
18C
100
AcDbEntity
  8
VERMASSUNG
100
AcDbTrace
 10
102.6774287488
 20
178.6288953016
 30
0.0
 11
105.6774287488
 21
178.1788953016
 31
0.0
 12
105.6774287488
 22
179.0788953016
 32
0.0
 13
105.6774287488
 23
179.0788953016
 33
0.0
  0
LINE
  5
193
330
18C
100
AcDbEntity
  8
VERMASSUNG
100
AcDbLine
 10
213.5774287488
 20
130.270255352
 30
0.0
 11
213.5774287488
 21
179.6288953016
 31
0.0
  0
LINE
  5
194
330
18C
100
AcDbEntity
  8
VERMASSUNG
100
AcDbLine
 10
102.6774287488
 20
141.6729250946
 30
0.0
 11
102.6774287488
 21
179.6288953016
 31
0.0
  0
LINE
  5
195
330
18C
100
AcDbEntity
  8
VERMASSUNG
100
AcDbLine
 10
213.5774287488
 20
178.6288953016
 30
0.0
 11
102.6774287488
 21
178.6288953016
 31
0.0
  0
MTEXT
  5
196
330
18C
100
AcDbEntity
  8
VERMASSUNG
100
AcDbMText
 10
155.4284205099
 20
181.2070308975
 30
0.0
 40
2.0
 41
0.0
 71
     1
 72
     1
  1
110.9
  7
SLDTEXTSTYLE0
 73
     1
 44
1.0
  0
ENDBLK
  5
18E
330
18C
100
AcDbEntity
  8
0
100
AcDbBlockEnd
  0
BLOCK
  5
199
330
198
100
AcDbEntity
  8
0
100
AcDbBlockBegin
  2
_D_4
 70
     0
 10
0.0
 20
0.0
 30
0.0
  3
_D_4
  1

  0
SOLID
  5
19B
330
198
100
AcDbEntity
  8
VERMASSUNG
100
AcDbTrace
 10
152.5774287488
 20
172.6288953016
 30
0.0
 11
155.5774287488
 21
172.1788953016
 31
0.0
 12
155.5774287488
 22
173.0788953016
 32
0.0
 13
155.5774287488
 23
173.0788953016
 33
0.0
  0
SOLID
  5
19C
330
198
100
AcDbEntity
  8
VERMASSUNG
100
AcDbTrace
 10
213.5774287488
 20
172.6288953016
 30
0.0
 11
210.5774287488
 21
173.0788953016
 31
0.0
 12
210.5774287488
 22
172.1788953016
 32
0.0
 13
210.5774287488
 23
172.1788953016
 33
0.0
  0
LINE
  5
19D
330
198
100
AcDbEntity
  8
VERMASSUNG
100
AcDbLine
 10
152.5774287488
 20
160.670255352
 30
0.0
 11
152.5774287488
 21
173.6288953016
 31
0.0
  0
LINE
  5
19E
330
198
100
AcDbEntity
  8
VERMASSUNG
100
AcDbLine
 10
213.5774287488
 20
130.270255352
 30
0.0
 11
213.5774287488
 21
173.6288953016
 31
0.0
  0
LINE
  5
19F
330
198
100
AcDbEntity
  8
VERMASSUNG
100
AcDbLine
 10
152.5774287488
 20
172.6288953016
 30
0.0
 11
213.5774287488
 21
172.6288953016
 31
0.0
  0
MTEXT
  5
1A0
330
198
100
AcDbEntity
  8
VERMASSUNG
100
AcDbMText
 10
181.8784823019
 20
175.2070308975
 30
0.0
 40
2.0
 41
0.0
 71
     1
 72
     1
  1
61
  7
SLDTEXTSTYLE0
 73
     1
 44
1.0
  0
ENDBLK
  5
19A
330
198
100
AcDbEntity
  8
0
100
AcDbBlockEnd
  0
BLOCK
  5
1A3
330
1A2
100
AcDbEntity
  8
0
100
AcDbBlockBegin
  2
_D_5
 70
     0
 10
0.0
 20
0.0
 30
0.0
  3
_D_5
  1

  0
ARC
  5
1A5
330
1A2
100
AcDbEntity
  8
VERMASSUNG
100
AcDbCircle
 10
196.6642222607
 20
168.528238247
 30
0.0
 40
4.247059938537297
100
AcDbArc
 50
153.4349488229
 51
206.5650511771
  0
ARC
  5
1A6
330
1A2
100
AcDbEntity
  8
VERMASSUNG
100
AcDbCircle
 10
198.440635237
 20
168.528238247
 30
0.0
 40
4.247059938537297
100
AcDbArc
 50
333.4349488229
 51
26.5650511771
  0
SOLID
  5
1A7
330
1A2
100
AcDbEntity
  8
VERMASSUNG
100
AcDbTrace
 10
181.5274287489
 20
166.6288953016
 30
0.0
 11
184.5274287489
 21
166.1788953016
 31
0.0
 12
184.5274287489
 22
167.0788953016
 32
0.0
 13
184.5274287489
 23
167.0788953016
 33
0.0
  0
SOLID
  5
1A8
330
1A2
100
AcDbEntity
  8
VERMASSUNG
100
AcDbTrace
 10
213.5774287488
 20
166.6288953016
 30
0.0
 11
210.5774287488
 21
167.0788953016
 31
0.0
 12
210.5774287488
 22
166.1788953016
 32
0.0
 13
210.5774287488
 23
166.1788953016
 33
0.0
  0
LINE
  5
1A9
330
1A2
100
AcDbEntity
  8
VERMASSUNG
100
AcDbLine
 10
181.5274287489
 20
159.1389951728
 30
0.0
 11
181.5274287489
 21
167.6288953016
 31
0.0
  0
LINE
  5
1AA
330
1A2
100
AcDbEntity
  8
VERMASSUNG
100
AcDbLine
 10
213.5774287488
 20
130.270255352
 30
0.0
 11
213.5774287488
 21
167.6288953016
 31
0.0
  0
LINE
  5
1AB
330
1A2
100
AcDbEntity
  8
VERMASSUNG
100
AcDbLine
 10
181.5274287489
 20
166.6288953016
 30
0.0
 11
213.5774287488
 21
166.6288953016
 31
0.0
  0
MTEXT
  5
1AC
330
1A2
100
AcDbEntity
  8
VERMASSUNG
100
AcDbMText
 10
194.4530363699
 20
169.2070308975
 30
0.0
 40
2.0
 41
0.0
 71
     1
 72
     1
  1
32.05
  7
SLDTEXTSTYLE0
 73
     1
 44
1.0
  0
ENDBLK
  5
1A4
330
1A2
100
AcDbEntity
  8
0
100
AcDbBlockEnd
  0
ENDSEC
  0
SECTION
  2
ENTITIES
  0
MTEXT
  5
78
330
1F
100
AcDbEntity
  8
KOPF_DÜNN
100
AcDbMText
 10
13.8892156294
 20
23.8442973028
 30
0.0
 40
3.0
 41
0.0
 71
     1
 72
     1
  1
144.810.039.061
  7
SLDTEXTSTYLE0
 73
     1
 44
1.0
  0
MTEXT
  5
79
330
1F
100
AcDbEntity
  8
VERMASSUNG
100
AcDbMText
 10
13.9329988022
 20
28.8834360957
 30
0.0
 40
3.0
 41
0.0
 71
     1
 72
     1
  1
Aufnahme_Master shank ST4
  7
SLDTEXTSTYLE0
 73
     1
 44
1.0
  0
MTEXT
  5
7A
330
1F
100
AcDbEntity
  8
VERMASSUNG
100
AcDbMText
 10
98.8601118557
 20
13.8365368761
 30
0.0
 40
2.0
 41
0.0
 71
     1
 72
     1
  1
Datum: 10.06.2008
  7
SLDTEXTSTYLE0
 73
     1
 44
1.0
  0
MTEXT
  5
7B
330
1F
100
AcDbEntity
  8
VERMASSUNG
100
AcDbMText
 10
13.933048693
 20
18.0482802738
 30
0.0
 40
2.0
 41
0.0
 71
     1
 72
     1
  1
DIN 69893 HSK A 100
  7
SLDTEXTSTYLE0
 73
     1
 44
1.0
  0
MTEXT
  5
7C
330
1F
100
AcDbEntity
  8
VERMASSUNG
100
AcDbMText
 10
13.9808475933
 20
13.9090974274
 30
0.0
 40
2.0
 41
0.0
 71
     1
 72
     1
  1
Gewicht: 2211g
  7
SLDTEXTSTYLE0
 73
     1
 44
1.0
  0
LINE
  5
7D
330
1F
100
AcDbEntity
  8
0
  6
Continuous
 62
     7
370
    15
100
AcDbLine
 10
153.0774287488
 20
61.170255352
 30
0.0
 11
157.5274287488
 21
61.170255352
 31
0.0
  0
LINE
  5
7E
330
1F
100
AcDbEntity
  8
0
  6
Continuous
 62
     7
370
    15
100
AcDbLine
 10
157.5428067203
 20
161.170255352
 30
0.0
 11
153.0774287488
 21
161.170255352
 31
0.0
  0
ARC
  5
7F
330
1F
100
AcDbEntity
  8
0
  6
Continuous
 62
     7
370
    15
100
AcDbCircle
 10
153.0774287488
 20
61.670255352
 30
0.0
 40
0.5
100
AcDbArc
 50
180.0
 51
270.0
  0
ARC
  5
80
330
1F
100
AcDbEntity
  8
0
  6
Continuous
 62
     7
370
    15
100
AcDbCircle
 10
153.0774287488
 20
160.670255352
 30
0.0
 40
0.5
100
AcDbArc
 50
90.0
 51
180.0
  0
ARC
  5
81
330
1F
100
AcDbEntity
  8
0
  6
Continuous
 62
     7
370
    15
100
AcDbCircle
 10
151.6804918304
 20
72.5417700276
 30
0.0
 40
0.9962338214387074
100
AcDbArc
 50
25.7988228126
 51
90.0
  0
ARC
  5
82
330
1F
100
AcDbEntity
  8
0
  6
Continuous
 62
     7
370
    15
100
AcDbCircle
 10
151.6804918304
 20
149.7987406764
 30
0.0
 40
0.9962338214386932
100
AcDbArc
 50
270.0
 51
334.2011771874
  0
LINE
  5
83
330
1F
100
AcDbEntity
  8
0
  6
Continuous
 62
     7
370
    15
100
AcDbLine
 10
150.0774287488
 20
73.288003849
 30
0.0
 11
150.8832749032
 21
73.5039296753
 31
0.0
  0
LINE
  5
84
330
1F
100
AcDbEntity
  8
0
  6
Continuous
 62
     7
370
    15
100
AcDbLine
 10
150.8832749032
 20
148.8365810287
 30
0.0
 11
150.0774287488
 21
149.052506855
 31
0.0
  0
LINE
  5
85
330
1F
100
AcDbEntity
  8
0
  6
Continuous
 62
     7
370
    15
100
AcDbLine
 10
131.0967333275
 20
148.1015702106
 30
0.0
 11
112.7774287488
 21
147.1837693801
 31
0.0
  0
LINE
  5
86
330
1F
100
AcDbEntity
  8
0
  6
Continuous
 62
     7
370
    15
100
AcDbLine
 10
150.0774287488
 20
149.052506855
 30
0.0
 11
144.0093895944
 21
148.7484968773
 31
0.0
  0
LINE
  5
87
330
1F
100
AcDbEntity
  8
0
  6
Continuous
 62
     7
370
    15
100
AcDbLine
 10
144.0095128708
 20
73.5920076505
 30
0.0
 11
150.0774287488
 21
73.288003849
 31
0.0
  0
LINE
  5
88
330
1F
100
AcDbEntity
  8
0
  6
Continuous
 62
     7
370
    15
100
AcDbLine
 10
117.7774287488
 20
74.9062403219
 30
0.0
 11
131.0973799028
 21
74.2389080998
 31
0.0
  0
ARC
  5
89
330
1F
100
AcDbEntity
  8
0
  6
Continuous
 62
     7
370
    15
100
AcDbCircle
 10
151.1420939483
 20
72.538003849
 30
0.0
 40
1.000000000000014
100
AcDbArc
 50
90.0
 51
105.0
  0
ARC
  5
8A
330
1F
100
AcDbEntity
  8
0
  6
Continuous
 62
     7
370
    15
100
AcDbCircle
 10
151.1420939483
 20
149.802506855
 30
0.0
 40
1.0
100
AcDbArc
 50
255.0
 51
270.0
  0
LINE
  5
8B
330
1F
100
AcDbEntity
  8
0
  6
Continuous
 62
     7
370
    15
100
AcDbLine
 10
151.1420939483
 20
73.538003849
 30
0.0
 11
151.6804918304
 21
73.538003849
 31
0.0
  0
LINE
  5
8C
330
1F
100
AcDbEntity
  8
0
  6
Continuous
 62
     7
370
    15
100
AcDbLine
 10
151.6804918304
 20
148.802506855
 30
0.0
 11
151.1420939483
 21
148.802506855
 31
0.0
  0
ARC
  5
8D
330
1F
100
AcDbEntity
  8
0
  6
Continuous
 62
     7
370
    15
100
AcDbCircle
 10
185.5274287488
 20
87.670255352
 30
0.0
 40
4.0
100
AcDbArc
 50
90.0
 51
180.0
  0
ARC
  5
8E
330
1F
100
AcDbEntity
  8
0
  6
Continuous
 62
     7
370
    15
100
AcDbCircle
 10
185.5274287488
 20
134.670255352
 30
0.0
 40
4.0
100
AcDbArc
 50
180.0
 51
270.0
  0
LINE
  5
8F
330
1F
100
AcDbEntity
  8
0
  6
Continuous
 62
     7
370
    15
100
AcDbLine
 10
213.1774287488
 20
130.670255352
 30
0.0
 11
185.5274287488
 21
130.670255352
 31
0.0
  0
LINE
  5
90
330
1F
100
AcDbEntity
  8
0
  6
Continuous
 62
     7
370
    15
100
AcDbLine
 10
185.5274287488
 20
91.670255352
 30
0.0
 11
213.1774287488
 21
91.670255352
 31
0.0
  0
LINE
  5
91
330
1F
100
AcDbEntity
  8
0
  6
Continuous
 62
     7
370
    15
100
AcDbLine
 10
213.1774287488
 20
91.670255352
 30
0.0
 11
213.5774287488
 21
92.070255352
 31
0.0
  0
LINE
  5
92
330
1F
100
AcDbEntity
  8
0
  6
Continuous
 62
     7
370
    15
100
AcDbLine
 10
213.5774287488
 20
130.270255352
 30
0.0
 11
213.1774287488
 21
130.670255352
 31
0.0
  0
LINE
  5
93
330
1F
100
AcDbEntity
  8
0
  6
Continuous
 62
     7
370
    15
100
AcDbLine
 10
104.3274287488
 20
78.920255352
 30
0.0
 11
115.8774287488
 21
78.920255352
 31
0.0
  0
ARC
  5
94
330
1F
100
AcDbEntity
  8
0
  6
Continuous
 62
     7
370
    15
100
AcDbCircle
 10
115.8774287488
 20
77.020255352
 30
0.0
 40
1.899999999999999
100
AcDbArc
 50
35.6630613694
 51
90.0
  0
ARC
  5
95
330
1F
100
AcDbEntity
  8
0
  6
Continuous
 62
     7
370
    15
100
AcDbCircle
 10
110.8774287488
 20
145.320255352
 30
0.0
 40
1.900000000000017
100
AcDbArc
 50
270.0
 51
310.9212832533
  0
LINE
  5
96
330
1F
100
AcDbEntity
  8
0
  6
Continuous
 62
     7
370
    15
100
AcDbLine
 10
104.3274287488
 20
143.420255352
 30
0.0
 11
102.7342123869
 21
141.82703899
 31
0.0
  0
LINE
  5
97
330
1F
100
AcDbEntity
  8
0
  6
Continuous
 62
     7
370
    15
100
AcDbLine
 10
102.7349516493
 20
80.5127324515
 30
0.0
 11
104.3274287488
 21
78.920255352
 31
0.0
  0
LINE
  5
98
330
1F
100
AcDbEntity
  8
0
  6
Continuous
 62
     7
370
    15
100
AcDbLine
 10
110.8774287488
 20
143.420255352
 30
0.0
 11
104.3274287488
 21
143.420255352
 31
0.0
  0
SPLINE
  5
99
330
1F
100
AcDbEntity
  8
0
  6
Continuous
 62
     7
370
    15
100
AcDbSpline
210
0.0
220
0.0
230
1.0
 70
    24
 71
     3
 72
    11
 73
     7
 74
     0
 42
0.000000001
 43
0.00000001
 40
0.0
 40
0.0
 40
0.0
 40
0.0
 40
0.1285561766307353
 40
0.480153579784221
 40
0.8150691831753851
 40
1.0
 40
1.0
 40
1.0
 40
1.0
 10
201.3818777970671
 20
110.3158874882306
 30
0.0
 10
201.3952835013337
 20
110.4079226725388
 30
0.0
 10
201.4453534167732
 20
110.7516714084601
 30
0.0
 10
201.5392457223523
 20
111.3962772775191
 30
0.0
 10
201.6409112837373
 20
112.0942494611357
 30
0.0
 10
201.6953742683713
 20
112.4681582636192
 30
0.0
 10
201.7147489987597
 20
112.6011730494717
 30
0.0
  0
SPLINE
  5
9A
330
1F
100
AcDbEntity
  8
0
  6
Continuous
 62
     7
370
    15
100
AcDbSpline
210
0.0
220
0.0
230
1.0
 70
    24
 71
     3
 72
    10
 73
     6
 74
     0
 42
0.000000001
 43
0.00000001
 40
0.0
 40
0.0
 40
0.0
 40
0.0
 40
0.4391222274230446
 40
0.7513714712594687
 40
0.9999999999999999
 40
0.9999999999999999
 40
0.9999999999999999
 40
0.9999999999999999
 10
203.1945575471574
 20
108.884969790756
 30
0.0
 10
202.9350548127304
 20
109.0898195747381
 30
0.0
 10
202.4910259315086
 20
109.4403331082503
 30
0.0
 10
201.8455568469165
 20
109.9498622384066
 30
0.0
 10
201.5242903265116
 20
110.2034679564771
 30
0.0
 10
201.3818777970671
 20
110.3158874882306
 30
0.0
  0
SPLINE
  5
9B
330
1F
100
AcDbEntity
  8
0
  6
Continuous
 62
     7
370
    15
100
AcDbSpline
210
0.0
220
0.0
230
1.0
 70
    24
 71
     3
 72
    10
 73
     6
 74
     0
 42
0.000000001
 43
0.00000001
 40
0.0
 40
0.0
 40
0.0
 40
0.0
 40
0.4391222274230467
 40
0.75137147125947
 40
1.0
 40
1.0
 40
1.0
 40
1.0
 10
205.3401084989403
 20
109.7393376545226
 30
0.0
 10
205.0329520148385
 20
109.6170265861483
 30
0.0
 10
204.5073839498359
 20
109.4077430617523
 30
0.0
 10
203.7433842368563
 20
109.1035150022163
 30
0.0
 10
203.3631219822597
 20
108.9520928931954
 30
0.0
 10
203.1945575471574
 20
108.884969790756
 30
0.0
  0
SPLINE
  5
9C
330
1F
100
AcDbEntity
  8
0
  6
Continuous
 62
     7
370
    15
100
AcDbSpline
210
0.0
220
0.0
230
1.0
 70
    24
 71
     3
 72
    11
 73
     7
 74
     0
 42
0.000000001
 43
0.00000001
 40
0.0
 40
0.0
 40
0.0
 40
0.0
 40
0.1849308168246144
 40
0.5198464202157772
 40
0.8714438233692656
 40
0.9999999999999999
 40
0.9999999999999999
 40
0.9999999999999999
 40
0.9999999999999999
 10
205.6729797006328
 20
112.0246232157637
 30
0.0
 10
205.6536049702444
 20
111.8916084299112
 30
0.0
 10
205.5991419856104
 20
111.5176996274276
 30
0.0
 10
205.4974764242255
 20
110.819727443811
 30
0.0
 10
205.4035841186463
 20
110.175121574752
 30
0.0
 10
205.3535142032068
 20
109.8313728388308
 30
0.0
 10
205.3401084989403
 20
109.7393376545226
 30
0.0
  0
CIRCLE
  5
9D
330
1F
100
AcDbEntity
  8
0
  6
Continuous
 62
     7
370
    15
100
AcDbCircle
 10
203.5274287488
 20
111.170255352
 30
0.0
 40
2.399999999999996
  0
SPLINE
  5
9E
330
1F
100
AcDbEntity
  8
0
  6
Continuous
 62
     7
370
    15
100
AcDbSpline
210
0.0
220
0.0
230
1.0
 70
    24
 71
     3
 72
    10
 73
     6
 74
     0
 42
0.000000001
 43
0.00000001
 40
0.0
 40
0.0
 40
0.0
 40
0.0
 40
0.4391222274230462
 40
0.751371471259467
 40
1.0
 40
1.0
 40
1.0
 40
1.0
 10
203.8602999505425
 20
113.4555409132383
 30
0.0
 10
204.1198026849695
 20
113.2506911292562
 30
0.0
 10
204.5638315661913
 20
112.900177595744
 30
0.0
 10
205.2093006507834
 20
112.3906484655877
 30
0.0
 10
205.5305671711884
 20
112.1370427475172
 30
0.0
 10
205.6729797006328
 20
112.0246232157637
 30
0.0
  0
SPLINE
  5
9F
330
1F
100
AcDbEntity
  8
0
  6
Continuous
 62
     7
370
    15
100
AcDbSpline
210
0.0
220
0.0
230
1.0
 70
    24
 71
     3
 72
    10
 73
     6
 74
     0
 42
0.000000001
 43
0.00000001
 40
0.0
 40
0.0
 40
0.0
 40
0.0
 40
0.4391222274230385
 40
0.751371471259467
 40
1.0
 40
1.0
 40
1.0
 40
1.0
 10
201.7147489987597
 20
112.6011730494717
 30
0.0
 10
202.0219054828614
 20
112.723484117846
 30
0.0
 10
202.547473547864
 20
112.932767642242
 30
0.0
 10
203.3114732608437
 20
113.236995701778
 30
0.0
 10
203.6917355154402
 20
113.3884178107989
 30
0.0
 10
203.8602999505425
 20
113.4555409132383
 30
0.0
  0
CIRCLE
  5
A0
330
1F
100
AcDbEntity
  8
0
  6
Continuous
 62
     7
370
    15
100
AcDbCircle
 10
203.5274287488
 20
111.170255352
 30
0.0
 40
3.620000000000003
  0
CIRCLE
  5
A1
330
1F
100
AcDbEntity
  8
0
  6
Continuous
 62
     7
370
    15
100
AcDbCircle
 10
203.5274287488
 20
111.170255352
 30
0.0
 40
3.999999999999984
  0
ARC
  5
A2
330
1F
100
AcDbEntity
  8
0
  6
Continuous
 62
     7
370
    15
100
AcDbCircle
 10
203.5274287488
 20
111.170255352
 30
0.0
 40
2.000000000000008
100
AcDbArc
 50
291.7126654853
 51
351.7126654853
  0
ARC
  5
A3
330
1F
100
AcDbEntity
  8
0
  6
Continuous
 62
     7
370
    15
100
AcDbCircle
 10
203.5274287488
 20
111.170255352
 30
0.0
 40
2.000000000000007
100
AcDbArc
 50
351.7126654853
 51
51.7126654853
  0
ARC
  5
A4
330
1F
100
AcDbEntity
  8
0
  6
Continuous
 62
     7
370
    15
100
AcDbCircle
 10
203.5274287488
 20
111.170255352
 30
0.0
 40
2.000000000000006
100
AcDbArc
 50
51.7126654853
 51
111.7126654853
  0
ARC
  5
A5
330
1F
100
AcDbEntity
  8
0
  6
Continuous
 62
     7
370
    15
100
AcDbCircle
 10
203.5274287488
 20
111.170255352
 30
0.0
 40
2.000000000000035
100
AcDbArc
 50
111.7126654853
 51
171.7126654853
  0
ARC
  5
A6
330
1F
100
AcDbEntity
  8
0
  6
Continuous
 62
     7
370
    15
100
AcDbCircle
 10
203.5274287488
 20
111.170255352
 30
0.0
 40
2.000000000000012
100
AcDbArc
 50
231.7126654853
 51
291.7126654853
  0
ARC
  5
A7
330
1F
100
AcDbEntity
  8
0
  6
Continuous
 62
     7
370
    15
100
AcDbCircle
 10
203.5274287488
 20
111.170255352
 30
0.0
 40
2.000000000000035
100
AcDbArc
 50
171.7126654853
 51
231.7126654853
  0
LINE
  5
A8
330
1F
100
AcDbEntity
  8
0
  6
Continuous
 62
     7
370
    15
100
AcDbLine
 10
157.5274287488
 20
142.520255352
 30
0.0
 11
169.3153997279
 21
142.520255352
 31
0.0
  0
LINE
  5
A9
330
1F
100
AcDbEntity
  8
0
  6
Continuous
 62
     7
370
    15
100
AcDbLine
 10
169.3153997279
 20
62.395261759
 30
0.0
 11
169.3153997279
 21
142.520255352
 31
0.0
  0
LINE
  5
AA
330
1F
100
AcDbEntity
  8
0
  6
Continuous
 62
     7
370
    15
100
AcDbLine
 10
169.3153997279
 20
62.395261759
 30
0.0
 11
167.5274287488
 21
62.395261759
 31
0.0
  0
SPLINE
  5
AB
330
1F
100
AcDbEntity
  8
0
  6
Continuous
 62
     7
370
    15
100
AcDbSpline
210
0.0
220
0.0
230
1.0
 70
     8
 71
     3
 72
    30
 73
    26
 74
     0
 42
0.000000001
 43
0.00000001
 40
0.0
 40
0.0
 40
0.0
 40
0.0
 40
0.1250000000000006
 40
0.1250000000000006
 40
0.187500000000001
 40
0.187500000000001
 40
0.2500000000000013
 40
0.2500000000000013
 40
0.3750000000000014
 40
0.3750000000000014
 40
0.4375000000000014
 40
0.4375000000000014
 40
0.5000000000000013
 40
0.5000000000000013
 40
0.625000000000001
 40
0.625000000000001
 40
0.6875000000000009
 40
0.6875000000000009
 40
0.7500000000000007
 40
0.7500000000000007
 40
0.8125000000000006
 40
0.8125000000000006
 40
0.8750000000000004
 40
0.8750000000000004
 40
1.0
 40
1.0
 40
1.0
 40
1.0
 10
167.52742874885
 20
62.39526175896835
 30
0.0
 10
166.864684055005
 20
62.39526175896835
 30
0.0
 10
166.2134281958892
 20
62.38042168237954
 30
0.0
 10
165.252977657631
 20
62.33805211814993
 30
0.0
 10
164.935586214398
 20
62.32057401537074
 30
0.0
 10
164.3064227128431
 20
62.27924572881845
 30
0.0
 10
163.9942745264014
 20
62.25532045536075
 30
0.0
 10
163.0869672245532
 20
62.17651393889383
 30
0.0
 10
162.5135422669119
 20
62.11420791891738
 30
0.0
 10
161.6996653973372
 20
62.011078598678
 30
0.0
 10
161.4348592007674
 20
61.97489467963148
 30
0.0
 10
160.927951789953
 20
61.90109989543097
 30
0.0
 10
160.6865576385996
 20
61.86362603665934
 30
0.0
 10
159.9974161664672
 20
61.75091409331961
 30
0.0
 10
159.584361351603
 20
61.67537799584584
 30
0.0
 10
159.0362065322279
 20
61.56698473882835
 30
0.0
 10
158.8667439248823
 20
61.53191250716507
 30
0.0
 10
158.558726676867
 20
61.46567704656523
 30
0.0
 10
158.4193466562586
 20
61.43435034981051
 30
0.0
 10
158.1695611436319
 20
61.37594157822957
 30
0.0
 10
158.0591550309779
 20
61.34885834304674
 30
0.0
 10
157.8678971773402
 20
61.29959858843313
 30
0.0
 10
157.7867776590559
 20
61.2773366086255
 30
0.0
 10
157.5926307389475
 20
61.21976970145718
 30
0.0
 10
157.52742874885
 20
61.19351009667121
 30
0.0
 10
157.52742874885
 20
61.1802563521972
 30
0.0
  0
LINE
  5
AC
330
1F
100
AcDbEntity
  8
0
  6
Continuous
 62
     7
370
    15
100
AcDbLine
 10
157.5274287488
 20
61.1802563522
 30
0.0
 11
157.5274287488
 21
61.170255352
 31
0.0
  0
SPLINE
  5
AD
330
1F
100
AcDbEntity
  8
0
  6
Continuous
 62
     7
370
    15
100
AcDbSpline
210
0.0
220
0.0
230
1.0
 70
     8
 71
     3
 72
    23
 73
    19
 74
     0
 42
0.000000001
 43
0.00000001
 40
0.0
 40
0.0
 40
0.0
 40
0.0
 40
0.0520256687590416
 40
0.1044186119084699
 40
0.1579654762732602
 40
0.2119084390155455
 40
0.2639329008030785
 40
0.3697142245600881
 40
0.423586857736462
 40
0.4762679679182532
 40
0.5833878371337099
 40
0.6379530306539528
 40
0.691055181935852
 40
0.7445319929992286
 40
0.7992014233075216
 40
0.8542881036302091
 40
0.9066815619543741
 40
1.0
 40
1.0
 40
1.0
 40
1.0
 10
167.52742874885
 20
160.1600502076607
 30
0.0
 10
167.254416351655
 20
160.1613717761675
 30
0.0
 10
166.7064642305408
 20
160.1640242427733
 30
0.0
 10
165.8833178730856
 20
160.1854991312009
 30
0.0
 10
165.0620727724933
 20
160.2197168498689
 30
0.0
 10
164.2606439623852
 20
160.2667687600363
 30
0.0
 10
163.2282607082422
 20
160.3437577108621
 30
0.0
 10
162.2510126936182
 20
160.4396349615226
 30
0.0
 10
161.3499656823622
 20
160.5465644093108
 30
0.0
 10
160.5009919032608
 20
160.6584112171513
 30
0.0
 10
159.7434234576526
 20
160.7726398158806
 30
0.0
 10
159.0984351672031
 20
160.8792195622445
 30
0.0
 10
158.6738612940053
 20
160.9531495186456
 30
0.0
 10
158.3113046443562
 20
161.0190400767024
 30
0.0
 10
158.0101030872326
 20
161.0757364279166
 30
0.0
 10
157.7828495151978
 20
161.1196726741513
 30
0.0
 10
157.5767422179753
 20
161.1603311209792
 30
0.0
 10
157.5560552799422
 20
161.1645145603687
 30
0.0
 10
157.5428067203305
 20
161.1671937652875
 30
0.0
  0
LINE
  5
AE
330
1F
100
AcDbEntity
  8
0
  6
Continuous
 62
     7
370
    15
100
AcDbLine
 10
169.3153997279
 20
160.1600502077
 30
0.0
 11
167.5274287488
 21
160.1600502077
 31
0.0
  0
LINE
  5
AF
330
1F
100
AcDbEntity
  8
0
  6
Continuous
 62
     7
370
    15
100
AcDbLine
 10
169.3153997279
 20
150.1212181129
 30
0.0
 11
169.3153997279
 21
160.1600502077
 31
0.0
  0
LINE
  5
B0
330
1F
100
AcDbEntity
  8
0
  6
Continuous
 62
     7
370
    15
100
AcDbLine
 10
167.235395597
 20
150.1212181129
 30
0.0
 11
169.3153997279
 21
150.1212181129
 31
0.0
  0
SPLINE
  5
B1
330
1F
100
AcDbEntity
  8
0
  6
Continuous
 62
     7
370
    15
100
AcDbSpline
210
0.0
220
0.0
230
1.0
 70
     8
 71
     3
 72
    22
 73
    18
 74
     0
 42
0.000000001
 43
0.00000001
 40
0.0
 40
0.0
 40
0.0
 40
0.0
 40
0.2500000000000001
 40
0.2500000000000001
 40
0.3750000000000002
 40
0.3750000000000002
 40
0.5000000000000002
 40
0.5000000000000002
 40
0.6250000000000001
 40
0.6250000000000001
 40
0.7500000000000001
 40
0.7500000000000001
 40
0.875
 40
0.875
 40
0.9375
 40
0.9375
 40
1.0
 40
1.0
 40
1.0
 40
1.0
 10
157.52742874885
 20
142.5202553519972
 30
0.0
 10
157.7301537047691
 20
143.5395016938618
 30
0.0
 10
158.0448974265644
 20
144.4986098438011
 30
0.0
 10
158.7529528962354
 20
145.8410889213103
 30
0.0
 10
159.0314155264531
 20
146.2752975040504
 30
0.0
 10
159.6701829330903
 20
147.0869252195525
 30
0.0
 10
160.0305966128805
 20
147.4662055124893
 30
0.0
 10
160.8481288448697
 20
148.1691640915103
 30
0.0
 10
161.3092968281569
 20
148.4941929092109
 30
0.0
 10
162.3072870746406
 20
149.0592082326018
 30
0.0
 10
162.8470462686329
 20
149.3029118268083
 30
0.0
 10
164.0216392326643
 20
149.7071117544533
 30
0.0
 10
164.6333754186561
 20
149.8595489474988
 30
0.0
 10
165.5852846435178
 20
150.0148764951075
 30
0.0
 10
165.9085178077785
 20
150.0543812751575
 30
0.0
 10
166.5675809790538
 20
150.1076903958262
 30
0.0
 10
166.9016449896277
 20
150.1212181128841
 30
0.0
 10
167.2353955970293
 20
150.1212181128841
 30
0.0
  0
LINE
  5
B2
330
1F
100
AcDbEntity
  8
0
  6
Continuous
 62
     7
370
    15
100
AcDbLine
 10
152.5774287488
 20
61.670255352
 30
0.0
 11
152.5774287488
 21
160.6702553509
 31
0.0
  0
LINE
  5
B3
330
1F
100
AcDbEntity
  8
0
  6
Continuous
 62
     7
370
    15
100
AcDbLine
 10
181.5274287489
 20
63.4209098067
 30
0.0
 11
181.5274287489
 21
142.520255352
 31
0.0
  0
SPLINE
  5
B4
330
1F
100
AcDbEntity
  8
0
  6
Continuous
 62
     7
370
    15
100
AcDbSpline
210
0.0
220
0.0
230
1.0
 70
     8
 71
     3
 72
    14
 73
    10
 74
     0
 42
0.000000001
 43
0.00000001
 40
0.0
 40
0.0
 40
0.0
 40
0.0
 40
0.25
 40
0.25
 40
0.5
 40
0.5
 40
0.75
 40
0.75
 40
1.0
 40
1.0
 40
1.0
 40
1.0
 10
181.52742874885
 20
63.42090980674386
 30
0.0
 10
181.52742874885
 20
63.28748411068933
 30
0.0
 10
181.5021176489391
 20
63.15563630284496
 30
0.0
 10
181.4037828850944
 20
62.90911375415087
 30
0.0
 10
181.3306388808383
 20
62.79530856591031
 30
0.0
 10
181.1472008197426
 20
62.60485138896305
 30
0.0
 10
181.035514485404
 20
62.52721652511313
 30
0.0
 10
180.7930110550977
 20
62.42292511500066
 30
0.0
 10
180.6596366264035
 20
62.3952617589683
 30
0.0
 10
180.52742874885
 20
62.39526175896831
 30
0.0
  0
SPLINE
  5
B5
330
1F
100
AcDbEntity
  8
0
  6
Continuous
 62
     7
370
    15
100
AcDbSpline
210
0.0
220
0.0
230
1.0
 70
    24
 71
     3
 72
    12
 73
     8
 74
     0
 42
0.000000001
 43
0.00000001
 40
0.0
 40
0.0
 40
0.0
 40
0.0
 40
0.2500000000000016
 40
0.2500000000000016
 40
0.5000000000000032
 40
0.5000000000000032
 40
1.0
 40
1.0
 40
1.0
 40
1.0
 10
180.52742874885
 20
142.5202553519972
 30
0.0
 10
180.679518985795
 20
142.5202553519972
 30
0.0
 10
180.8279782468704
 20
142.5202553519972
 30
0.0
 10
181.0853818791361
 20
142.5202553519972
 30
0.0
 10
181.194486626978
 20
142.5202553519972
 30
0.0
 10
181.4485461033856
 20
142.5202553519972
 30
0.0
 10
181.52742874885
 20
142.5202553519972
 30
0.0
 10
181.52742874885
 20
142.5202553519972
 30
0.0
  0
LINE
  5
B6
330
1F
100
AcDbEntity
  8
0
  6
Continuous
 62
     7
370
    15
100
AcDbLine
 10
170.6674287488
 20
64.798867065
 30
0.0
 11
170.6674287488
 21
142.520255352
 31
0.0
  0
SPLINE
  5
B7
330
1F
100
AcDbEntity
  8
0
  6
Continuous
 62
     7
370
    15
100
AcDbSpline
210
0.0
220
0.0
230
1.0
 70
     8
 71
     3
 72
     8
 73
     4
 74
     0
 42
0.000000001
 43
0.00000001
 40
0.0
 40
0.0
 40
0.0
 40
0.0
 40
1.0
 40
1.0
 40
1.0
 40
1.0
 10
170.66742874885
 20
64.79886706497368
 30
0.0
 10
170.2172022845722
 20
63.99741170234891
 30
0.0
 10
169.7665044573288
 20
63.19622169078826
 30
0.0
 10
169.3153997279286
 20
62.39526175896835
 30
0.0
  0
SPLINE
  5
B8
330
1F
100
AcDbEntity
  8
0
  6
Continuous
 62
     7
370
    15
100
AcDbSpline
210
0.0
220
0.0
230
1.0
 70
    24
 71
     3
 72
     8
 73
     4
 74
     0
 42
0.000000001
 43
0.00000001
 40
0.0
 40
0.0
 40
0.0
 40
0.0
 40
1.0
 40
1.0
 40
1.0
 40
1.0
 10
169.3153997279286
 20
142.5202553519972
 30
0.0
 10
169.7722013002568
 20
142.5202553519972
 30
0.0
 10
170.223215866496
 20
142.5202553519972
 30
0.0
 10
170.66742874885
 20
142.5202553519972
 30
0.0
  0
LINE
  5
B9
330
1F
100
AcDbEntity
  8
0
  6
Continuous
 62
     7
370
    15
100
AcDbLine
 10
175.8394577698
 20
62.395261759
 30
0.0
 11
175.8394577698
 21
142.520255352
 31
0.0
  0
SPLINE
  5
BA
330
1F
100
AcDbEntity
  8
0
  6
Continuous
 62
     7
370
    15
100
AcDbSpline
210
0.0
220
0.0
230
1.0
 70
     8
 71
     3
 72
     8
 73
     4
 74
     0
 42
0.000000001
 43
0.00000001
 40
0.0
 40
0.0
 40
0.0
 40
0.0
 40
1.0
 40
1.0
 40
1.0
 40
1.0
 10
175.8394577697714
 20
62.39526175896835
 30
0.0
 10
175.3883530403712
 20
63.19622169078826
 30
0.0
 10
174.9376552131278
 20
63.99741170234893
 30
0.0
 10
174.48742874885
 20
64.79886706497369
 30
0.0
  0
LINE
  5
BB
330
1F
100
AcDbEntity
  8
0
  6
Continuous
 62
     7
370
    15
100
AcDbLine
 10
174.4874287488
 20
64.798867065
 30
0.0
 11
174.4874287488
 21
142.520255352
 31
0.0
  0
SPLINE
  5
BC
330
1F
100
AcDbEntity
  8
0
  6
Continuous
 62
     7
370
    15
100
AcDbSpline
210
0.0
220
0.0
230
1.0
 70
    24
 71
     3
 72
     8
 73
     4
 74
     0
 42
0.000000001
 43
0.00000001
 40
0.0
 40
0.0
 40
0.0
 40
0.0
 40
1.0
 40
1.0
 40
1.0
 40
1.0
 10
174.48742874885
 20
142.5202553519972
 30
0.0
 10
174.9316416312039
 20
142.5202553519972
 30
0.0
 10
175.3826561974431
 20
142.5202553519972
 30
0.0
 10
175.8394577697714
 20
142.5202553519972
 30
0.0
  0
LINE
  5
BD
330
1F
100
AcDbEntity
  8
0
  6
Continuous
 62
     7
370
    15
100
AcDbLine
 10
180.5274287488
 20
62.395261759
 30
0.0
 11
175.8394577698
 21
62.395261759
 31
0.0
  0
LINE
  5
BE
330
1F
100
AcDbEntity
  8
0
  6
Continuous
 62
     7
370
    15
100
AcDbLine
 10
175.8394577698
 20
142.520255352
 30
0.0
 11
180.5274287488
 21
142.520255352
 31
0.0
  0
SPLINE
  5
BF
330
1F
100
AcDbEntity
  8
0
  6
Continuous
 62
     7
370
    15
100
AcDbSpline
210
0.0
220
0.0
230
1.0
 70
     8
 71
     3
 72
    12
 73
     8
 74
     0
 42
0.000000001
 43
0.00000001
 40
0.0
 40
0.0
 40
0.0
 40
0.0
 40
0.25
 40
0.25
 40
0.5
 40
0.5
 40
1.0
 40
1.0
 40
1.0
 40
1.0
 10
171.46742874885
 20
66.5305798939475
 30
0.0
 10
171.361668095501
 20
66.53057989394752
 30
0.0
 10
171.2536804673181
 20
66.5080403879471
 30
0.0
 10
171.0590858020525
 20
66.42346975595181
 30
0.0
 10
170.9702138892137
 20
66.36098810319301
 30
0.0
 10
170.7510215968878
 20
66.13159915172085
 30
0.0
 10
170.6674287488499
 20
65.91901581419846
 30
0.0
 10
170.6674287488499
 20
65.70707656960225
 30
0.0
  0
SPLINE
  5
C0
330
1F
100
AcDbEntity
  8
0
  6
Continuous
 62
     7
370
    15
100
AcDbSpline
210
0.0
220
0.0
230
1.0
 70
    24
 71
     3
 72
    14
 73
    10
 74
     0
 42
0.000000001
 43
0.00000001
 40
0.0
 40
0.0
 40
0.0
 40
0.0
 40
0.25
 40
0.25
 40
0.5
 40
0.5
 40
0.75
 40
0.75
 40
1.0
 40
1.0
 40
1.0
 40
1.0
 10
170.66742874885
 20
142.5202553519972
 30
0.0
 10
170.66742874885
 20
142.5202553519972
 30
0.0
 10
170.6831430693159
 20
142.5202553519972
 30
0.0
 10
170.7468270477843
 20
142.5202553519972
 30
0.0
 10
170.7954302421948
 20
142.5202553519972
 30
0.0
 10
170.9281137646203
 20
142.5202553519972
 30
0.0
 10
171.013215868931
 20
142.5202553519972
 30
0.0
 10
171.2196581038411
 20
142.5202553519972
 30
0.0
 10
171.3437390454641
 20
142.5202553519972
 30
0.0
 10
171.46742874885
 20
142.5202553519972
 30
0.0
  0
SPLINE
  5
C1
330
1F
100
AcDbEntity
  8
0
  6
Continuous
 62
     7
370
    15
100
AcDbSpline
210
0.0
220
0.0
230
1.0
 70
     8
 71
     3
 72
    14
 73
    10
 74
     0
 42
0.000000001
 43
0.00000001
 40
0.0
 40
0.0
 40
0.0
 40
0.0
 40
0.25
 40
0.25
 40
0.5
 40
0.5
 40
0.75
 40
0.75
 40
1.0
 40
1.0
 40
1.0
 40
1.0
 10
174.48742874885
 20
65.70707656960225
 30
0.0
 10
174.48742874885
 20
65.81412065059665
 30
0.0
 10
174.4673110616918
 20
65.9193557908391
 30
0.0
 10
174.3888198724262
 20
66.11720627768678
 30
0.0
 10
174.330663247625
 20
66.2082580412517
 30
0.0
 10
174.1841479920069
 20
66.36142413517648
 30
0.0
 10
174.0955054433659
 20
66.4237185813859
 30
0.0
 10
173.8997821205655
 20
66.50851236692188
 30
0.0
 10
173.7945509294946
 20
66.5305798939475
 30
0.0
 10
173.68742874885
 20
66.5305798939475
 30
0.0
  0
SPLINE
  5
C2
330
1F
100
AcDbEntity
  8
0
  6
Continuous
 62
     7
370
    15
100
AcDbSpline
210
0.0
220
0.0
230
1.0
 70
    24
 71
     3
 72
    14
 73
    10
 74
     0
 42
0.000000001
 43
0.00000001
 40
0.0
 40
0.0
 40
0.0
 40
0.0
 40
0.25
 40
0.25
 40
0.5
 40
0.5
 40
0.75
 40
0.75
 40
1.0
 40
1.0
 40
1.0
 40
1.0
 10
173.68742874885
 20
142.5202553519972
 30
0.0
 10
173.8111985136151
 20
142.5202553519972
 30
0.0
 10
173.935565617622
 20
142.5202553519972
 30
0.0
 10
174.141922086348
 20
142.5202553519972
 30
0.0
 10
174.2272502297664
 20
142.5202553519972
 30
0.0
 10
174.3594422884817
 20
142.5202553519972
 30
0.0
 10
174.4080875322323
 20
142.5202553519972
 30
0.0
 10
174.471623323961
 20
142.5202553519972
 30
0.0
 10
174.48742874885
 20
142.5202553519972
 30
0.0
 10
174.48742874885
 20
142.5202553519972
 30
0.0
  0
LINE
  5
C3
330
1F
100
AcDbEntity
  8
0
  6
Continuous
 62
     7
370
    15
100
AcDbLine
 10
173.6874287488
 20
66.5305798939
 30
0.0
 11
171.4674287488
 21
66.5305798939
 31
0.0
  0
LINE
  5
C4
330
1F
100
AcDbEntity
  8
0
  6
Continuous
 62
     7
370
    15
100
AcDbLine
 10
171.4674287488
 20
142.520255352
 30
0.0
 11
173.6874287488
 21
142.520255352
 31
0.0
  0
LINE
  5
C5
330
1F
100
AcDbEntity
  8
0
  6
Continuous
 62
     7
370
    15
100
AcDbLine
 10
150.0774287488
 20
73.288003849
 30
0.0
 11
150.0774287488
 21
149.052506855
 31
0.0
  0
LINE
  5
C6
330
1F
100
AcDbEntity
  8
0
  6
Continuous
 62
     7
370
    15
100
AcDbLine
 10
117.7774287488
 20
74.9062403219
 30
0.0
 11
117.7774287488
 21
77.3009220866
 31
0.0
  0
SPLINE
  5
C7
330
1F
100
AcDbEntity
  8
0
  6
Continuous
 62
     7
370
    15
100
AcDbSpline
210
0.0
220
0.0
230
1.0
 70
     8
 71
     3
 72
    14
 73
    10
 74
     0
 42
0.000000001
 43
0.00000001
 40
0.0
 40
0.0
 40
0.0
 40
0.0
 40
0.25
 40
0.25
 40
0.5
 40
0.5
 40
0.75
 40
0.75
 40
1.0
 40
1.0
 40
1.0
 40
1.0
 10
116.773006277513
 20
79.00377400825361
 30
0.0
 10
116.8617748554583
 20
78.84523987694567
 30
0.0
 10
116.9834926941373
 20
78.69279720005711
 30
0.0
 10
117.2185423039941
 20
78.39566257622819
 30
0.0
 10
117.334172490211
 20
78.25097993261083
 30
0.0
 10
117.5345774236388
 20
77.96769073010742
 30
0.0
 10
117.6199777156231
 20
77.82913673707057
 30
0.0
 10
117.7416833493403
 20
77.55775270703705
 30
0.0
 10
117.777428748853
 20
77.42561683840242
 30
0.0
 10
117.777428748853
 20
77.30092208663166
 30
0.0
  0
SPLINE
  5
C8
330
1F
100
AcDbEntity
  8
0
  6
Continuous
 62
     7
370
    15
100
AcDbSpline
210
0.0
220
0.0
230
1.0
 70
     8
 71
     3
 72
    14
 73
    10
 74
     0
 42
0.000000001
 43
0.00000001
 40
0.0
 40
0.0
 40
0.0
 40
0.0
 40
0.1249999999999983
 40
0.1249999999999983
 40
0.2499999999999966
 40
0.2499999999999966
 40
0.4999999999999978
 40
0.4999999999999978
 40
1.0
 40
1.0
 40
1.0
 40
1.0
 10
115.87742874885
 20
79.63260394735373
 30
0.0
 10
115.9450110486345
 20
79.63975983245513
 30
0.0
 10
116.0174986263824
 20
79.63533536241613
 30
0.0
 10
116.1497897356483
 20
79.60562920464578
 30
0.0
 10
116.2070671150385
 20
79.58234492306754
 30
0.0
 10
116.3567175422388
 20
79.50485968321722
 30
0.0
 10
116.4304308377603
 20
79.44300785631586
 30
0.0
 10
116.6182388210865
 20
79.25833040366753
 30
0.0
 10
116.702279127448
 20
79.1300874803763
 30
0.0
 10
116.7730062775142
 20
79.00377400825373
 30
0.0
  0
SPLINE
  5
C9
330
1F
100
AcDbEntity
  8
0
  6
Continuous
 62
     7
370
    15
100
AcDbSpline
210
0.0
220
0.0
230
1.0
 70
     8
 71
     3
 72
     8
 73
     4
 74
     0
 42
0.000000001
 43
0.00000001
 40
0.0
 40
0.0
 40
0.0
 40
0.0
 40
1.0
 40
1.0
 40
1.0
 40
1.0
 10
112.3327883607692
 20
79.21455536256194
 30
0.0
 10
113.4980866714781
 20
79.36974283444856
 30
0.0
 10
114.6827018855179
 20
79.50610147275889
 30
0.0
 10
115.87742874885
 20
79.63260394735373
 30
0.0
  0
SPLINE
  5
CA
330
1F
100
AcDbEntity
  8
0
  6
Continuous
 62
     7
370
    15
100
AcDbSpline
210
0.0
220
0.0
230
1.0
 70
     8
 71
     3
 72
    14
 73
    10
 74
     0
 42
0.000000001
 43
0.00000001
 40
0.0
 40
0.0
 40
0.0
 40
0.0
 40
0.4999999999999972
 40
0.4999999999999972
 40
0.7499999999999971
 40
0.7499999999999971
 40
0.8749999999999986
 40
0.8749999999999986
 40
1.0
 40
1.0
 40
1.0
 40
1.0
 10
104.5773538648213
 20
78.92442318343203
 30
0.0
 10
105.885655427355
 20
78.93143790717316
 30
0.0
 10
107.1907148020118
 20
78.94684648361763
 30
0.0
 10
109.1365908535002
 20
79.0007430390843
 30
0.0
 10
109.7832883572392
 20
79.023774603687
 30
0.0
 10
110.7471307210935
 20
79.07471712855777
 30
0.0
 10
111.0673694130276
 20
79.09445205079096
 30
0.0
 10
111.70406463937
 20
79.14393917926252
 30
0.0
 10
112.0207800476529
 20
79.17300395819176
 30
0.0
 10
112.3327883607692
 20
79.21455536256191
 30
0.0
  0
SPLINE
  5
CB
330
1F
100
AcDbEntity
  8
0
  6
Continuous
 62
     7
370
    15
100
AcDbSpline
210
0.0
220
0.0
230
1.0
 70
     8
 71
     3
 72
    12
 73
     8
 74
     0
 42
0.000000001
 43
0.00000001
 40
0.0
 40
0.0
 40
0.0
 40
0.0
 40
0.2500000000000009
 40
0.2500000000000009
 40
0.5000000000000018
 40
0.5000000000000018
 40
1.0
 40
1.0
 40
1.0
 40
1.0
 10
110.87742874885
 20
143.2567782434936
 30
0.0
 10
110.3587299270218
 20
143.2893010183418
 30
0.0
 10
109.8370183538168
 20
143.3125977595123
 30
0.0
 10
108.7907263373212
 20
143.3504432739344
 30
0.0
 10
108.266054711651
 20
143.3647117484306
 30
0.0
 10
106.6892086891118
 20
143.3989212358888
 30
0.0
 10
105.6342533745648
 20
143.4104207398327
 30
0.0
 10
104.5773538648196
 20
143.4160875205623
 30
0.0
  0
SPLINE
  5
CC
330
1F
100
AcDbEntity
  8
0
  6
Continuous
 62
     7
370
    15
100
AcDbSpline
210
0.0
220
0.0
230
1.0
 70
     8
 71
     3
 72
    20
 73
    16
 74
     0
 42
0.000000001
 43
0.00000001
 40
0.0
 40
0.0
 40
0.0
 40
0.0
 40
0.2500000000000003
 40
0.2500000000000003
 40
0.5000000000000007
 40
0.5000000000000007
 40
0.750000000000001
 40
0.750000000000001
 40
0.8750000000000007
 40
0.8750000000000007
 40
0.9375000000000012
 40
0.9375000000000012
 40
0.9687500000000007
 40
0.9687500000000007
 40
1.0
 40
1.0
 40
1.0
 40
1.0
 10
112.77742874885
 20
144.9148640889817
 30
0.0
 10
112.77742874885
 20
144.7791817692349
 30
0.0
 10
112.7287169596333
 20
144.6380947830949
 30
0.0
 10
112.5595555364081
 20
144.3460230643643
 30
0.0
 10
112.4377751224898
 20
144.1943743222739
 30
0.0
 10
112.1402280277403
 20
143.8919658821208
 30
0.0
 10
111.9663154220376
 20
143.7393772459975
 30
0.0
 10
111.6469005881557
 20
143.5141064821552
 30
0.0
 10
111.5318598127085
 20
143.4393833876445
 30
0.0
 10
111.3247754886921
 20
143.3399729783875
 30
0.0
 10
111.2486676538857
 20
143.3084078860429
 30
0.0
 10
111.1172731143323
 20
143.2739645018499
 30
0.0
 10
111.0707198953309
 20
143.2649129300823
 30
0.0
 10
110.9743865442502
 20
143.2547372812438
 30
0.0
 10
110.9251271208947
 20
143.2537875225688
 30
0.0
 10
110.877428748848
 20
143.2567782434834
 30
0.0
  0
LINE
  5
CD
330
1F
100
AcDbEntity
  8
0
  6
Continuous
 62
     7
370
    15
100
AcDbLine
 10
112.7774287488
 20
144.914864089
 30
0.0
 11
112.7774287488
 21
147.1837693801
 31
0.0
  0
SPLINE
  5
CE
330
1F
100
AcDbEntity
  8
0
  6
Continuous
 62
     7
370
    15
100
AcDbSpline
210
0.0
220
0.0
230
1.0
 70
     8
 71
     3
 72
    24
 73
    20
 74
     0
 42
0.000000001
 43
0.00000001
 40
0.0
 40
0.0
 40
0.0
 40
0.0
 40
0.0002934293894792
 40
0.062808005175934
 40
0.1260453927228742
 40
0.1890746766613222
 40
0.2513200540860153
 40
0.3133304633787786
 40
0.3759158453762985
 40
0.4383740564607907
 40
0.5000631094857534
 40
0.561659398803632
 40
0.6245050380643723
 40
0.6872231506498981
 40
0.7494953263230506
 40
0.811758379753676
 40
0.8747365508229972
 40
0.9378980306234588
 40
1.0
 40
1.0
 40
1.0
 40
1.0
 10
131.0973850126894
 20
74.23901009368478
 30
0.0
 10
131.0971901598047
 20
74.23898578629078
 30
0.0
 10
131.0554822687924
 20
74.23378283463704
 30
0.0
 10
131.2006006603226
 20
74.25241745796701
 30
0.0
 10
131.5556796018646
 20
74.29493723651606
 30
0.0
 10
132.1602552394089
 20
74.36307352011761
 30
0.0
 10
132.9666905482243
 20
74.43632905713368
 30
0.0
 10
133.9521679721418
 20
74.5008483979516
 30
0.0
 10
135.0838375688271
 20
74.53941262601249
 30
0.0
 10
136.3061300389879
 20
74.5431071320144
 30
0.0
 10
137.5734587204378
 20
74.50068115196498
 30
0.0
 10
138.839944250856
 20
74.41243401118223
 30
0.0
 10
140.0560816146715
 20
74.28404074091868
 30
0.0
 10
141.18149211052
 20
74.13139975232639
 30
0.0
 10
142.1589091720706
 20
73.96962513722113
 30
0.0
 10
142.9621746506205
 20
73.81709624411938
 30
0.0
 10
143.5506681736205
 20
73.69308250085204
 30
0.0
 10
143.9395742852703
 20
73.6081585745759
 30
0.0
 10
143.9863354160096
 20
73.59743226329705
 30
0.0
 10
144.0095182225525
 20
73.59211447060542
 30
0.0
  0
SPLINE
  5
CF
330
1F
100
AcDbEntity
  8
0
  6
Continuous
 62
     7
370
    15
100
AcDbSpline
210
0.0
220
0.0
230
1.0
 70
     8
 71
     3
 72
    41
 73
    37
 74
     0
 42
0.000000001
 43
0.00000001
 40
0.0
 40
0.0
 40
0.0
 40
0.0
 40
0.0619930088509839
 40
0.1254347838145775
 40
0.1886508980472116
 40
0.2510246518033717
 40
0.3131658325488003
 40
0.3756581805174138
 40
0.4382227337755126
 40
0.4998045140815232
 40
0.5615164441950592
 40
0.6240683366165516
 40
0.6867257531767135
 40
0.7488365631577227
 40
0.8110686297815293
 40
0.8741743265521017
 40
0.9373213196239055
 40
0.9685512131825712
 40
0.984208730152181
 40
0.9920641614991338
 40
0.9960005295431176
 40
0.9979711229155214
 40
0.9989570525954502
 40
0.9994501795074999
 40
0.9996967839589611
 40
0.9998200964931961
 40
0.9998817553448917
 40
0.9999125854178162
 40
0.9999280006161619
 40
0.9999357082558221
 40
0.9999395620857765
 40
0.9999414890032835
 40
0.999942452462671
 40
0.9999434159224786
 40
0.9999502132898598
 40
0.9999999999999999
 40
0.9999999999999999
 40
0.9999999999999999
 40
0.9999999999999999
 10
144.0093968920746
 20
148.7483512154373
 30
0.0
 10
143.9858252467313
 20
148.7430417357874
 30
0.0
 10
143.9381310906872
 20
148.7322986948479
 30
0.0
 10
143.5460891012597
 20
148.6470695583923
 30
0.0
 10
142.9555750519869
 20
148.5225007797518
 30
0.0
 10
142.1515376059468
 20
148.3695538336001
 30
0.0
 10
141.1754622057659
 20
148.2077972796466
 30
0.0
 10
140.0536534704869
 20
148.0555645117146
 30
0.0
 10
138.8401225506975
 20
147.9277845705129
 30
0.0
 10
137.5752918443011
 20
147.8399360188304
 30
0.0
 10
136.3072488068568
 20
147.7975505349598
 30
0.0
 10
135.0837414491552
 20
147.8012863429312
 30
0.0
 10
133.9502429087362
 20
147.8398818133787
 30
0.0
 10
132.9641370977639
 20
147.9043211846705
 30
0.0
 10
132.1555092889805
 20
147.9778309919519
 30
0.0
 10
131.5588905938681
 20
148.0451446767632
 30
0.0
 10
131.2434993044103
 20
148.083109228031
 30
0.0
 10
131.1334327356106
 20
148.0969082873633
 30
0.0
 10
131.1060133478
 20
148.1003943612835
 30
0.0
 10
131.0990912969654
 20
148.1012735869776
 30
0.0
 10
131.0973230567892
 20
148.101494361583
 30
0.0
 10
131.0968626776057
 20
148.101549564295
 30
0.0
 10
131.0967385189352
 20
148.1015633040803
 30
0.0
 10
131.0967029644219
 20
148.1015666999138
 30
0.0
 10
131.0966918203802
 20
148.1015675282306
 30
0.0
 10
131.096687907144
 20
148.1015677248243
 30
0.0
 10
131.0966863649957
 20
148.1015677687474
 30
0.0
 10
131.0966856979143
 20
148.101567777064
 30
0.0
 10
131.0966853898494
 20
148.1015677778803
 30
0.0
 10
131.0966852429241
 20
148.1015677773549
 30
0.0
 10
131.0966851701964
 20
148.1015677769971
 30
0.0
 10
131.0966851354868
 20
148.1015677765993
 30
0.0
 10
131.0966851137533
 20
148.1015677766241
 30
0.0
 10
131.0966850818982
 20
148.1015677743794
 30
0.0
 10
131.0966831325578
 20
148.1015679903254
 30
0.0
 10
131.0967100674207
 20
148.1015645091948
 30
0.0
 10
131.0967337666356
 20
148.1015614462476
 30
0.0
  0
SPLINE
  5
D0
330
1F
100
AcDbEntity
  8
0
  6
Continuous
 62
     7
370
    15
100
AcDbSpline
210
0.0
220
0.0
230
1.0
 70
     8
 71
     3
 72
    20
 73
    16
 74
     0
 42
0.000000001
 43
0.00000001
 40
0.0
 40
0.0
 40
0.0
 40
0.0
 40
0.2499999999999887
 40
0.2499999999999887
 40
0.374999999999986
 40
0.374999999999986
 40
0.4374999999999881
 40
0.4374999999999881
 40
0.4999999999999901
 40
0.4999999999999901
 40
0.6249999999999891
 40
0.6249999999999891
 40
0.7499999999999881
 40
0.7499999999999881
 40
1.0
 40
1.0
 40
1.0
 40
1.0
 10
102.968242980566
 20
80.49177219929646
 30
0.0
 10
102.9945151977794
 20
80.51109014037891
 30
0.0
 10
103.0251953400342
 20
80.52547885148067
 30
0.0
 10
103.0966662104162
 20
80.51857448964466
 30
0.0
 10
103.1246932474605
 20
80.51140848629623
 30
0.0
 10
103.179776836958
 20
80.48170945959264
 30
0.0
 10
103.2006681655105
 20
80.46823581703133
 30
0.0
 10
103.2458768129559
 20
80.43303755151531
 30
0.0
 10
103.2702810253515
 20
80.41112932278804
 30
0.0
 10
103.3416133434029
 20
80.33900446279252
 30
0.0
 10
103.3835101282232
 20
80.28666392184245
 30
0.0
 10
103.455086087079
 20
80.18918052994168
 30
0.0
 10
103.4859140768964
 20
80.14242676006327
 30
0.0
 10
103.569014009732
 20
80.00913354422417
 30
0.0
 10
103.6138689151023
 20
79.92649614630896
 30
0.0
 10
103.6539809905548
 20
79.84738925151818
 30
0.0
  0
SPLINE
  5
D1
330
1F
100
AcDbEntity
  8
0
  6
Continuous
 62
     7
370
    15
100
AcDbSpline
210
0.0
220
0.0
230
1.0
 70
     8
 71
     3
 72
    14
 73
    10
 74
     0
 42
0.000000001
 43
0.00000001
 40
0.0
 40
0.0
 40
0.0
 40
0.0
 40
0.25
 40
0.25
 40
0.5
 40
0.5
 40
0.75
 40
0.75
 40
1.0
 40
1.0
 40
1.0
 40
1.0
 10
102.67742874885
 20
80.66758560942922
 30
0.0
 10
102.67742874885
 20
80.62633867840488
 30
0.0
 10
102.6860384652312
 20
80.5894317061224
 30
0.0
 10
102.7171246448016
 20
80.52853164622299
 30
0.0
 10
102.7395141982856
 20
80.5043507266833
 30
0.0
 10
102.7942581294618
 20
80.47038313580005
 30
0.0
 10
102.826708369047
 20
80.46046305183185
 30
0.0
 10
102.896709883775
 20
80.459111842927
 30
0.0
 10
102.9349203838976
 20
80.46727011962317
 30
0.0
 10
102.9682429805706
 20
80.49177219929125
 30
0.0
  0
LINE
  5
D2
330
1F
100
AcDbEntity
  8
0
  6
Continuous
 62
     7
370
    15
100
AcDbLine
 10
102.6774287488
 20
80.6675856094
 30
0.0
 11
102.6774287488
 21
141.6729250946
 31
0.0
  0
SPLINE
  5
D3
330
1F
100
AcDbEntity
  8
0
  6
Continuous
 62
     7
370
    15
100
AcDbSpline
210
0.0
220
0.0
230
1.0
 70
     8
 71
     3
 72
    10
 73
     6
 74
     0
 42
0.000000001
 43
0.00000001
 40
0.0
 40
0.0
 40
0.0
 40
0.0
 40
0.0592402688376416
 40
0.6438088530391356
 40
1.0
 40
1.0
 40
1.0
 40
1.0
 10
102.9682429805706
 20
141.848738504703
 30
0.0
 10
102.9634107229494
 20
141.8519874113347
 30
0.0
 10
102.9108949208146
 20
141.8872957394904
 30
0.0
 10
102.8119447231359
 20
141.8935500360489
 30
0.0
 10
102.7625161982446
 20
141.83834979836
 30
0.0
 10
102.7438015335003
 20
141.8174498434367
 30
0.0
  0
SPLINE
  5
D4
330
1F
100
AcDbEntity
  8
0
  6
Continuous
 62
     7
370
    15
100
AcDbSpline
210
0.0
220
0.0
230
1.0
 70
     8
 71
     3
 72
     8
 73
     4
 74
     0
 42
0.000000001
 43
0.00000001
 40
0.0
 40
0.0
 40
0.0
 40
0.0
 40
1.0
 40
1.0
 40
1.0
 40
1.0
 10
102.7010624177862
 20
141.7805045956347
 30
0.0
 10
102.6857133791501
 20
141.7499945406388
 30
0.0
 10
102.67742874885
 20
141.7136829851265
 30
0.0
 10
102.67742874885
 20
141.672925094565
 30
0.0
  0
SPLINE
  5
D5
330
1F
100
AcDbEntity
  8
0
  6
Continuous
 62
     7
370
    15
100
AcDbSpline
210
0.0
220
0.0
230
1.0
 70
     8
 71
     3
 72
    20
 73
    16
 74
     0
 42
0.000000001
 43
0.00000001
 40
0.0
 40
0.0
 40
0.0
 40
0.0
 40
0.2499999999999868
 40
0.2499999999999868
 40
0.3749999999999822
 40
0.3749999999999822
 40
0.4999999999999776
 40
0.4999999999999776
 40
0.5624999999999778
 40
0.5624999999999778
 40
0.624999999999978
 40
0.624999999999978
 40
0.7499999999999855
 40
0.7499999999999855
 40
1.0
 40
1.0
 40
1.0
 40
1.0
 10
103.6539809905524
 20
142.4931214524753
 30
0.0
 10
103.6139847727286
 20
142.4142430459179
 30
0.0
 10
103.5688711448909
 20
142.3311133992264
 30
0.0
 10
103.4856169305244
 20
142.1976247348754
 30
0.0
 10
103.4553976019039
 20
142.1517596789934
 30
0.0
 10
103.3833093667624
 20
142.0535681265885
 30
0.0
 10
103.3413920493514
 20
142.0012583070649
 30
0.0
 10
103.2701414447999
 20
141.9292524043304
 30
0.0
 10
103.2459056324206
 20
141.9074821920289
 30
0.0
 10
103.200307442236
 20
141.8720075336999
 30
0.0
 10
103.1795049526362
 20
141.8586373495223
 30
0.0
 10
103.1245639542172
 20
141.8290674373871
 30
0.0
 10
103.0964949661303
 20
141.8219409150851
 30
0.0
 10
103.0259921360675
 20
141.8150665436024
 30
0.0
 10
102.9945680482766
 20
141.8293817026896
 30
0.0
 10
102.968242980568
 20
141.8487385047002
 30
0.0
  0
SPLINE
  5
D6
330
1F
100
AcDbEntity
  8
0
  6
Continuous
 62
     7
370
    15
100
AcDbSpline
210
0.0
220
0.0
230
1.0
 70
     8
 71
     3
 72
    10
 73
     6
 74
     0
 42
0.000000001
 43
0.00000001
 40
0.0
 40
0.0
 40
0.0
 40
0.0
 40
0.4999999999999989
 40
0.4999999999999989
 40
1.0
 40
1.0
 40
1.0
 40
1.0
 10
104.32742874885
 20
143.4185405538171
 30
0.0
 10
104.2025404780998
 20
143.2875442757457
 30
0.0
 10
104.0810903600393
 20
143.1438314390807
 30
0.0
 10
103.8515063850819
 20
142.8332611463914
 30
0.0
 10
103.7412314096859
 20
142.6651920733284
 30
0.0
 10
103.6539809905524
 20
142.4931214524753
 30
0.0
  0
SPLINE
  5
D7
330
1F
100
AcDbEntity
  8
0
  6
Continuous
 62
     7
370
    15
100
AcDbSpline
210
0.0
220
0.0
230
1.0
 70
     8
 71
     3
 72
     8
 73
     4
 74
     0
 42
0.000000001
 43
0.00000001
 40
0.0
 40
0.0
 40
0.0
 40
0.0
 40
1.0
 40
1.0
 40
1.0
 40
1.0
 10
104.5773538648157
 20
143.4160875205617
 30
0.0
 10
104.4903358349674
 20
143.4165540853488
 30
0.0
 10
104.4073818085874
 20
143.417594104925
 30
0.0
 10
104.3274287488477
 20
143.4185405538172
 30
0.0
  0
SPLINE
  5
D8
330
1F
100
AcDbEntity
  8
0
  6
Continuous
 62
     7
370
    15
100
AcDbSpline
210
0.0
220
0.0
230
1.0
 70
     8
 71
     3
 72
     8
 73
     4
 74
     0
 42
0.000000001
 43
0.00000001
 40
0.0
 40
0.0
 40
0.0
 40
0.0
 40
1.0
 40
1.0
 40
1.0
 40
1.0
 10
104.3274287488477
 20
78.92197015017707
 30
0.0
 10
104.4073818085879
 20
78.92291659906934
 30
0.0
 10
104.4903358349684
 20
78.92395661864548
 30
0.0
 10
104.5773538648174
 20
78.92442318343254
 30
0.0
  0
SPLINE
  5
D9
330
1F
100
AcDbEntity
  8
0
  6
Continuous
 62
     7
370
    15
100
AcDbSpline
210
0.0
220
0.0
230
1.0
 70
     8
 71
     3
 72
    10
 73
     6
 74
     0
 42
0.000000001
 43
0.00000001
 40
0.0
 40
0.0
 40
0.0
 40
0.0
 40
0.4999999999999989
 40
0.4999999999999989
 40
1.0
 40
1.0
 40
1.0
 40
1.0
 10
103.6539809905515
 20
79.84738925152075
 30
0.0
 10
103.741231409685
 20
79.67531863066738
 30
0.0
 10
103.8515063850811
 20
79.50724955760394
 30
0.0
 10
104.081090360039
 20
79.19667926491414
 30
0.0
 10
104.2025404780996
 20
79.05296642824885
 30
0.0
 10
104.32742874885
 20
78.92197015017716
 30
0.0
  0
SPLINE
  5
DA
330
1F
100
AcDbEntity
  8
0
  6
Continuous
 62
     7
370
    15
100
AcDbSpline
210
0.0
220
0.0
230
1.0
 70
     8
 71
     3
 72
    10
 73
     6
 74
     0
 42
0.000000001
 43
0.00000001
 40
0.0
 40
0.0
 40
0.0
 40
0.0
 40
0.5
 40
0.5
 40
1.0
 40
1.0
 40
1.0
 40
1.0
 10
171.46742874885
 20
156.0445311121696
 30
0.0
 10
171.2548924349936
 20
156.0445311121696
 30
0.0
 10
171.0449562633396
 20
156.1359436987998
 30
0.0
 10
170.7512491223284
 20
156.440688564704
 30
0.0
 10
170.66742874885
 20
156.6528435346126
 30
0.0
 10
170.66742874885
 20
156.8638065928451
 30
0.0
  0
SPLINE
  5
DB
330
1F
100
AcDbEntity
  8
0
  6
Continuous
 62
     7
370
    15
100
AcDbSpline
210
0.0
220
0.0
230
1.0
 70
     8
 71
     3
 72
    14
 73
    10
 74
     0
 42
0.000000001
 43
0.00000001
 40
0.0
 40
0.0
 40
0.0
 40
0.0
 40
0.25
 40
0.25
 40
0.5
 40
0.5
 40
0.75
 40
0.75
 40
1.0
 40
1.0
 40
1.0
 40
1.0
 10
170.66742874885
 20
145.8844905444942
 30
0.0
 10
170.66742874885
 20
145.760623667705
 30
0.0
 10
170.6832878764776
 20
145.6363639908675
 30
0.0
 10
170.7466495219975
 20
145.3987556284616
 30
0.0
 10
170.7952392300468
 20
145.2819752437092
 30
0.0
 10
170.9275248348217
 20
145.0731727151002
 30
0.0
 10
171.0128496260823
 20
144.9786620115076
 30
0.0
 10
171.2197408743884
 20
144.8407052107052
 30
0.0
 10
171.3437088202784
 20
144.7987867650696
 30
0.0
 10
171.46742874885
 20
144.7987867650696
 30
0.0
  0
SPLINE
  5
DC
330
1F
100
AcDbEntity
  8
0
  6
Continuous
 62
     7
370
    15
100
AcDbSpline
210
0.0
220
0.0
230
1.0
 70
     8
 71
     3
 72
     8
 73
     4
 74
     0
 42
0.000000001
 43
0.00000001
 40
0.0
 40
0.0
 40
0.0
 40
0.0
 40
1.0
 40
1.0
 40
1.0
 40
1.0
 10
169.3153997279286
 20
150.1212181128841
 30
0.0
 10
169.7723260817281
 20
149.1053001432098
 30
0.0
 10
170.2235317235312
 20
148.0865043141186
 30
0.0
 10
170.66742874885
 20
147.065702858135
 30
0.0
  0
LINE
  5
DD
330
1F
100
AcDbEntity
  8
0
  6
Continuous
 62
     7
370
    15
100
AcDbLine
 10
170.6674287488
 20
147.0657028581
 30
0.0
 11
170.6674287488
 21
145.8844905445
 31
0.0
  0
LINE
  5
DE
330
1F
100
AcDbEntity
  8
0
  6
Continuous
 62
     7
370
    15
100
AcDbLine
 10
171.4674287488
 20
144.7987867651
 30
0.0
 11
173.6874287488
 21
144.7987867651
 31
0.0
  0
SPLINE
  5
DF
330
1F
100
AcDbEntity
  8
0
  6
Continuous
 62
     7
370
    15
100
AcDbSpline
210
0.0
220
0.0
230
1.0
 70
     8
 71
     3
 72
    12
 73
     8
 74
     0
 42
0.000000001
 43
0.00000001
 40
0.0
 40
0.0
 40
0.0
 40
0.0
 40
0.2500000000000039
 40
0.2500000000000039
 40
0.5000000000000078
 40
0.5000000000000078
 40
1.0
 40
1.0
 40
1.0
 40
1.0
 10
173.68742874885
 20
144.7987867650696
 30
0.0
 10
173.8111296988299
 20
144.7987867650696
 30
0.0
 10
173.9352263111002
 20
144.8407803768021
 30
0.0
 10
174.1418814741872
 20
144.9785757034466
 30
0.0
 10
174.226922240914
 20
145.0725493019114
 30
0.0
 10
174.4264008093876
 20
145.3873375081323
 30
0.0
 10
174.48742874885
 20
145.63757650036
 30
0.0
 10
174.48742874885
 20
145.8844905444942
 30
0.0
  0
LINE
  5
E0
330
1F
100
AcDbEntity
  8
0
  6
Continuous
 62
     7
370
    15
100
AcDbLine
 10
174.4874287488
 20
145.8844905445
 30
0.0
 11
174.4874287488
 21
147.0657028581
 31
0.0
  0
SPLINE
  5
E1
330
1F
100
AcDbEntity
  8
0
  6
Continuous
 62
     7
370
    15
100
AcDbSpline
210
0.0
220
0.0
230
1.0
 70
     8
 71
     3
 72
     8
 73
     4
 74
     0
 42
0.000000001
 43
0.00000001
 40
0.0
 40
0.0
 40
0.0
 40
0.0
 40
1.0
 40
1.0
 40
1.0
 40
1.0
 10
174.48742874885
 20
147.065702858135
 30
0.0
 10
174.9315787598755
 20
148.0870860890866
 30
0.0
 10
175.3826530701334
 20
149.1055706258549
 30
0.0
 10
175.8394577697714
 20
150.1212181128841
 30
0.0
  0
LINE
  5
E2
330
1F
100
AcDbEntity
  8
0
  6
Continuous
 62
     7
370
    15
100
AcDbLine
 10
175.8394577698
 20
150.1212181129
 30
0.0
 11
180.5274287488
 21
150.1212181129
 31
0.0
  0
SPLINE
  5
E3
330
1F
100
AcDbEntity
  8
0
  6
Continuous
 62
     7
370
    15
100
AcDbSpline
210
0.0
220
0.0
230
1.0
 70
     8
 71
     3
 72
    16
 73
    12
 74
     0
 42
0.000000001
 43
0.00000001
 40
0.0
 40
0.0
 40
0.0
 40
0.0
 40
0.1249999999999996
 40
0.1249999999999996
 40
0.2499999999999992
 40
0.2499999999999992
 40
0.4999999999999994
 40
0.4999999999999994
 40
0.7499999999999997
 40
0.7499999999999997
 40
1.0
 40
1.0
 40
1.0
 40
1.0
 10
180.52742874885
 20
150.1212181128841
 30
0.0
 10
180.6030664552612
 20
150.1212181128841
 30
0.0
 10
180.6793821196794
 20
150.1098731127491
 30
0.0
 10
180.8237928575713
 20
150.0672205621106
 30
0.0
 10
180.8922393066798
 20
150.0362862374278
 30
0.0
 10
181.0871705592929
 20
149.9170298656602
 30
0.0
 10
181.1950117330738
 20
149.8068778520396
 30
0.0
 10
181.3637244812859
 20
149.5587417663815
 30
0.0
 10
181.4260888940094
 20
149.4183994423778
 30
0.0
 10
181.5073928185178
 20
149.1301277508892
 30
0.0
 10
181.52742874885
 20
148.9793227779094
 30
0.0
 10
181.52742874885
 20
148.8289528865641
 30
0.0
  0
LINE
  5
E4
330
1F
100
AcDbEntity
  8
0
  6
Continuous
 62
     7
370
    15
100
AcDbLine
 10
181.5274287489
 20
148.8289528866
 30
0.0
 11
181.5274287488
 21
142.520255352
 31
0.0
  0
SPLINE
  5
E5
330
1F
100
AcDbEntity
  8
0
  6
Continuous
 62
     7
370
    15
100
AcDbSpline
210
0.0
220
0.0
230
1.0
 70
     8
 71
     3
 72
    14
 73
    10
 74
     0
 42
0.000000001
 43
0.00000001
 40
0.0
 40
0.0
 40
0.0
 40
0.0
 40
0.25
 40
0.25
 40
0.5
 40
0.5
 40
0.75
 40
0.75
 40
1.0
 40
1.0
 40
1.0
 40
1.0
 10
174.48742874885
 20
156.8638065928451
 30
0.0
 10
174.48742874885
 20
156.7574498990928
 30
0.0
 10
174.4670411927088
 20
156.6516094113327
 30
0.0
 10
174.3884068472472
 20
156.4550444977962
 30
0.0
 10
174.3296754876086
 20
156.3638737555091
 30
0.0
 10
174.183066582006
 20
156.2119626664775
 30
0.0
 10
174.0936612619795
 20
156.1498938296579
 30
0.0
 10
173.8997705293792
 20
156.0666257818992
 30
0.0
 10
173.7932655394893
 20
156.0445311121696
 30
0.0
 10
173.68742874885
 20
156.0445311121696
 30
0.0
  0
SPLINE
  5
E6
330
1F
100
AcDbEntity
  8
0
  6
Continuous
 62
     7
370
    15
100
AcDbSpline
210
0.0
220
0.0
230
1.0
 70
     8
 71
     3
 72
    12
 73
     8
 74
     0
 42
0.000000001
 43
0.00000001
 40
0.0
 40
0.0
 40
0.0
 40
0.0
 40
0.4999999999999953
 40
0.4999999999999953
 40
0.7499999999999977
 40
0.7499999999999977
 40
1.0
 40
1.0
 40
1.0
 40
1.0
 10
181.52742874885
 20
159.138995172843
 30
0.0
 10
181.52742874885
 20
159.4042646056094
 30
0.0
 10
181.4228220053635
 20
159.6667797112618
 30
0.0
 10
181.1461536536182
 20
159.952317317299
 30
0.0
 10
181.0357883942662
 20
160.0286389341605
 30
0.0
 10
180.7917163456505
 20
160.1329810990006
 30
0.0
 10
180.6599638843188
 20
160.1600502076607
 30
0.0
 10
180.52742874885
 20
160.1600502076607
 30
0.0
  0
LINE
  5
E7
330
1F
100
AcDbEntity
  8
0
  6
Continuous
 62
     7
370
    15
100
AcDbLine
 10
181.5274287489
 20
148.8289528866
 30
0.0
 11
181.5274287489
 21
159.1389951728
 31
0.0
  0
LINE
  5
E8
330
1F
100
AcDbEntity
  8
0
  6
Continuous
 62
     7
370
    15
100
AcDbLine
 10
180.5274287488
 20
160.1600502077
 30
0.0
 11
175.8394577698
 21
160.1600502077
 31
0.0
  0
LINE
  5
E9
330
1F
100
AcDbEntity
  8
0
  6
Continuous
 62
     7
370
    15
100
AcDbLine
 10
175.8394577698
 20
150.1212181129
 30
0.0
 11
175.8394577698
 21
160.1600502077
 31
0.0
  0
SPLINE
  5
EA
330
1F
100
AcDbEntity
  8
0
  6
Continuous
 62
     7
370
    15
100
AcDbSpline
210
0.0
220
0.0
230
1.0
 70
     8
 71
     3
 72
     8
 73
     4
 74
     0
 42
0.000000001
 43
0.00000001
 40
0.0
 40
0.0
 40
0.0
 40
0.0
 40
1.0
 40
1.0
 40
1.0
 40
1.0
 10
170.66742874885
 20
157.7675262127021
 30
0.0
 10
170.2171205131654
 20
158.5652413378157
 30
0.0
 10
169.7664266966418
 20
159.3627396374729
 30
0.0
 10
169.3153997279286
 20
160.1600502076607
 30
0.0
  0
LINE
  5
EB
330
1F
100
AcDbEntity
  8
0
  6
Continuous
 62
     7
370
    15
100
AcDbLine
 10
170.6674287488
 20
147.0657028581
 30
0.0
 11
170.6674287488
 21
157.7675262127
 31
0.0
  0
SPLINE
  5
EC
330
1F
100
AcDbEntity
  8
0
  6
Continuous
 62
     7
370
    15
100
AcDbSpline
210
0.0
220
0.0
230
1.0
 70
     8
 71
     3
 72
     8
 73
     4
 74
     0
 42
0.000000001
 43
0.00000001
 40
0.0
 40
0.0
 40
0.0
 40
0.0
 40
1.0
 40
1.0
 40
1.0
 40
1.0
 10
175.8394577697714
 20
160.1600502076607
 30
0.0
 10
175.3884308010581
 20
159.3627396374729
 30
0.0
 10
174.9377369845346
 20
158.5652413378156
 30
0.0
 10
174.48742874885
 20
157.767526212702
 30
0.0
  0
LINE
  5
ED
330
1F
100
AcDbEntity
  8
0
  6
Continuous
 62
     7
370
    15
100
AcDbLine
 10
174.4874287488
 20
147.0657028581
 30
0.0
 11
174.4874287488
 21
157.7675262127
 31
0.0
  0
LINE
  5
EE
330
1F
100
AcDbEntity
  8
0
  6
Continuous
 62
     7
370
    15
100
AcDbLine
 10
173.6874287488
 20
156.0445311122
 30
0.0
 11
171.4674287488
 21
156.0445311122
 31
0.0
  0
SPLINE
  5
EF
330
1F
100
AcDbEntity
  8
0
  6
Continuous
 62
     7
370
    15
100
AcDbSpline
210
0.0
220
0.0
230
1.0
 70
    11
 71
     3
 72
    77
 73
    73
 74
     0
 42
0.000000001
 43
0.00000001
 40
0.0
 40
0.0
 40
0.0
 40
0.0
 40
0.0312500000000001
 40
0.0312500000000001
 40
0.0625000000000002
 40
0.0625000000000002
 40
0.0937500000000004
 40
0.0937500000000004
 40
0.1250000000000005
 40
0.1250000000000005
 40
0.1562500000000006
 40
0.1562500000000006
 40
0.1875000000000008
 40
0.1875000000000008
 40
0.2187500000000009
 40
0.2187500000000009
 40
0.250000000000001
 40
0.250000000000001
 40
0.2812500000000011
 40
0.2812500000000011
 40
0.3125000000000012
 40
0.3125000000000012
 40
0.3437500000000013
 40
0.3437500000000013
 40
0.3593750000000014
 40
0.3593750000000014
 40
0.3750000000000014
 40
0.3906250000000014
 40
0.3906250000000014
 40
0.4062500000000015
 40
0.4062500000000015
 40
0.4375000000000014
 40
0.4375000000000014
 40
0.4687500000000014
 40
0.4687500000000014
 40
0.5000000000000013
 40
0.5000000000000013
 40
0.5312500000000013
 40
0.5312500000000013
 40
0.5625000000000013
 40
0.5625000000000013
 40
0.5937500000000013
 40
0.5937500000000013
 40
0.6250000000000013
 40
0.6250000000000013
 40
0.6562500000000013
 40
0.6562500000000013
 40
0.6875000000000013
 40
0.6875000000000013
 40
0.7187500000000013
 40
0.7187500000000013
 40
0.7500000000000012
 40
0.7500000000000012
 40
0.765625000000001
 40
0.765625000000001
 40
0.7812500000000007
 40
0.7812500000000007
 40
0.8125000000000006
 40
0.8125000000000006
 40
0.8437500000000004
 40
0.8437500000000004
 40
0.8750000000000003
 40
0.8750000000000003
 40
0.8906250000000003
 40
0.8906250000000003
 40
0.9062500000000002
 40
0.9062500000000002
 40
0.9375000000000001
 40
0.9375000000000001
 40
0.9687500000000001
 40
0.9687500000000001
 40
1.0
 40
1.0
 40
1.0
 40
1.0
 10
200.1770286933198
 20
114.4886145698726
 30
0.0
 10
200.4193753420587
 20
114.6850862893694
 30
0.0
 10
200.6764964968574
 20
114.8555075664306
 30
0.0
 10
201.2179056052625
 20
115.1491118472986
 30
0.0
 10
201.504226134685
 20
115.2728866624097
 30
0.0
 10
202.0957482684356
 20
115.469282592293
 30
0.0
 10
202.3967529816851
 20
115.5409187440268
 30
0.0
 10
203.0088780652016
 20
115.633336932371
 30
0.0
 10
203.3229842615205
 20
115.6539363553944
 30
0.0
 10
203.9455094745412
 20
115.641921112628
 30
0.0
 10
204.2530680411383
 20
115.6099366873837
 30
0.0
 10
204.860869515857
 20
115.4944837902752
 30
0.0
 10
205.1640466023886
 20
115.4097396170599
 30
0.0
 10
205.7442239021275
 20
115.1913288813622
 30
0.0
 10
206.0217264055055
 20
115.0582633286013
 30
0.0
 10
206.5511755670711
 20
114.7430867855698
 30
0.0
 10
206.805587537548
 20
114.5584756932064
 30
0.0
 10
207.2677714633637
 20
114.1497274307469
 30
0.0
 10
207.4770768854448
 20
113.9255082635222
 30
0.0
 10
207.8495680644106
 20
113.4345051497196
 30
0.0
 10
208.0136162671102
 20
113.1644422838864
 30
0.0
 10
208.2741253361136
 20
112.6048230352606
 30
0.0
 10
208.3731631992721
 20
112.3129555315594
 30
0.0
 10
208.4711516553099
 20
111.8554943530389
 30
0.0
 10
208.495206916279
 20
111.6992690758927
 30
0.0
 10
208.5244441652993
 20
111.3892234694322
 30
0.0
 10
208.5354082109191
 20
111.0793669359362
 30
0.0
 10
208.5103109793945
 20
110.7698836647293
 30
0.0
 10
208.4668476727704
 20
110.4605903407574
 30
0.0
 10
208.4357178344472
 20
110.3057624405008
 30
0.0
 10
208.3174285192077
 20
109.853837062633
 30
0.0
 10
208.2052554582543
 20
109.5649789997472
 30
0.0
 10
207.9170361047114
 20
109.0109116977291
 30
0.0
 10
207.7437142650072
 20
108.7517714888891
 30
0.0
 10
207.3499500986748
 20
108.2749878305017
 30
0.0
 10
207.1261604105098
 20
108.0541119003449
 30
0.0
 10
206.6461897487376
 20
107.6632433907369
 30
0.0
 10
206.3893985767704
 20
107.4916754321614
 30
0.0
 10
205.8432511526035
 20
107.1941497119405
 30
0.0
 10
205.5557055008966
 20
107.0697890542335
 30
0.0
 10
204.9688761253852
 20
106.8740025798399
 30
0.0
 10
204.6673200054889
 20
106.8012999657037
 30
0.0
 10
204.0475334038751
 20
106.7070971854493
 30
0.0
 10
203.7369571830071
 20
106.6868612006554
 30
0.0
 10
203.1178751380213
 20
106.698048406877
 30
0.0
 10
202.8080217572361
 20
106.7295316846253
 30
0.0
 10
202.1925159572826
 20
106.8461661135887
 30
0.0
 10
201.8943506691011
 20
106.9297579697534
 30
0.0
 10
201.3166919804814
 20
107.1465869287073
 30
0.0
 10
201.0357391770146
 20
107.2806645559024
 30
0.0
 10
200.5003409894199
 20
107.5994430424672
 30
0.0
 10
200.2512451906034
 20
107.7805993623962
 30
0.0
 10
199.9057306485891
 20
108.0857029629894
 30
0.0
 10
199.7952804217156
 20
108.1930049317408
 30
0.0
 10
199.5843110352264
 20
108.4194708711467
 30
0.0
 10
199.4832049358934
 20
108.5394666054237
 30
0.0
 10
199.2017071758325
 20
108.9111380851397
 30
0.0
 10
199.0421748077274
 20
109.1744245663506
 30
0.0
 10
198.7815606383051
 20
109.7335487594003
 30
0.0
 10
198.6798641228285
 20
110.0340730106212
 30
0.0
 10
198.5505482752594
 20
110.6418761703614
 30
0.0
 10
198.5212125703394
 20
110.950182791259
 30
0.0
 10
198.5321604068582
 20
111.4195086924122
 30
0.0
 10
198.5452192010854
 20
111.5771276715585
 30
0.0
 10
198.5890874752928
 20
111.8858052785525
 30
0.0
 10
198.6198814537367
 20
112.0380051497921
 30
0.0
 10
198.7381000108425
 20
112.4883799052502
 30
0.0
 10
198.8531469116454
 20
112.7834274611206
 30
0.0
 10
199.14070843145
 20
113.3340433334537
 30
0.0
 10
199.3129219789965
 20
113.5916177068313
 30
0.0
 10
199.7118308606898
 20
114.0731653245946
 30
0.0
 10
199.9346820445808
 20
114.2921428503758
 30
0.0
 10
200.1770286933197
 20
114.4886145698726
 30
0.0
  0
LINE
  5
F0
330
1F
100
AcDbEntity
  8
0
  6
Continuous
 62
     7
370
    15
100
AcDbLine
 10
213.1774287488
 20
111.170255352
 30
0.0
 11
213.1774287488
 21
91.670255352
 31
0.0
  0
LINE
  5
F1
330
1F
100
AcDbEntity
  8
0
  6
Continuous
 62
     7
370
    15
100
AcDbLine
 10
213.1774287488
 20
130.670255352
 30
0.0
 11
213.1774287488
 21
111.170255352
 31
0.0
  0
LINE
  5
F2
330
1F
100
AcDbEntity
  8
0
  6
Continuous
 62
     7
370
    15
100
AcDbLine
 10
213.5774287488
 20
111.170255352
 30
0.0
 11
213.5774287488
 21
92.070255352
 31
0.0
  0
LINE
  5
F3
330
1F
100
AcDbEntity
  8
0
  6
Continuous
 62
     7
370
    15
100
AcDbLine
 10
213.5774287488
 20
130.270255352
 30
0.0
 11
213.5774287488
 21
111.170255352
 31
0.0
  0
LINE
  5
F4
330
1F
100
AcDbEntity
  8
0
  6
Continuous
 62
     7
370
    15
100
AcDbLine
 10
104.3274287488
 20
78.920255352
 30
0.0
 11
104.3274287488
 21
78.9219701502
 31
0.0
  0
LINE
  5
F5
330
1F
100
AcDbEntity
  8
0
  6
Continuous
 62
     7
370
    15
100
AcDbLine
 10
104.3274287488
 20
143.420255352
 30
0.0
 11
104.3274287488
 21
143.4185405538
 31
0.0
  0
CIRCLE
  5
F6
330
1F
100
AcDbEntity
  8
0
  6
HIDDEN
 62
     7
370
     0
100
AcDbCircle
 10
203.5274287488
 20
111.170255352
 30
0.0
 40
2.95358983848622
  0
CIRCLE
  5
F7
330
1F
100
AcDbEntity
  8
0
  6
HIDDEN
 62
     7
370
     0
100
AcDbCircle
 10
203.5274287488
 20
111.170255352
 30
0.0
 40
2.753589838486227
  0
LINE
  5
F8
330
1F
100
AcDbEntity
  8
0
  6
HIDDEN
 62
     7
370
     0
100
AcDbLine
 10
169.3153997279
 20
150.1212181129
 30
0.0
 11
169.3153997279
 21
142.520255352
 31
0.0
  0
LINE
  5
F9
330
1F
100
AcDbEntity
  8
0
  6
HIDDEN
 62
     7
370
     0
100
AcDbLine
 10
132.9908534983
 20
74.4344489897
 30
0.0
 11
132.7152386761
 21
74.4100229923
 31
0.0
  0
SPLINE
  5
FA
330
1F
100
AcDbEntity
  8
0
  6
HIDDEN
 62
     7
370
     0
100
AcDbSpline
210
0.0
220
0.0
230
1.0
 70
     8
 71
     3
 72
    13
 73
     9
 74
     0
 42
0.000000001
 43
0.00000001
 40
0.0
 40
0.0
 40
0.0
 40
0.0
 40
0.1247123583496572
 40
0.2490591701008075
 40
0.3740782882418872
 40
0.5009715943216706
 40
0.7521524312994651
 40
1.0
 40
1.0
 40
1.0
 40
1.0
 10
131.0967337666356
 20
148.1015614462476
 30
0.0
 10
131.1025203770856
 20
148.1007852014451
 30
0.0
 10
131.1140766367493
 20
148.099234987105
 30
0.0
 10
131.2110867535042
 20
148.0870186803554
 30
0.0
 10
131.3663822893883
 20
148.0680919689776
 30
0.0
 10
131.6565505680752
 20
148.0341198905612
 30
0.0
 10
132.144106485841
 20
147.977598567144
 30
0.0
 10
132.7098032129625
 20
147.9297901743301
 30
0.0
 10
132.9907622863209
 20
147.9060456463883
 30
0.0
  0
SPLINE
  5
FB
330
1F
100
AcDbEntity
  8
0
  6
HIDDEN
 62
     7
370
     0
100
AcDbSpline
210
0.0
220
0.0
230
1.0
 70
     8
 71
     3
 72
    13
 73
     9
 74
     0
 42
0.000000001
 43
0.00000001
 40
0.0
 40
0.0
 40
0.0
 40
0.0
 40
0.1623791929692865
 40
0.3258947138511472
 40
0.4929794169203473
 40
0.6612927697465019
 40
0.8237023543491112
 40
1.0
 40
1.0
 40
1.0
 40
1.0
 10
142.830634404041
 20
142.5365775727442
 30
0.0
 10
142.9062239126694
 20
142.5489533449583
 30
0.0
 10
143.0579319045254
 20
142.5737914949125
 30
0.0
 10
143.2408308093858
 20
142.6010498434883
 30
0.0
 10
143.3898930392909
 20
142.6221696885965
 30
0.0
 10
143.4938436527192
 20
142.6361561258217
 30
0.0
 10
143.5691760485156
 20
142.6459491578427
 30
0.0
 10
143.5609460074492
 20
142.6448777892835
 30
0.0
 10
143.5566622581399
 20
142.6443201402648
 30
0.0
  0
SPLINE
  5
FC
330
1F
100
AcDbEntity
  8
0
  6
HIDDEN
 62
     7
370
     0
100
AcDbSpline
210
0.0
220
0.0
230
1.0
 70
     8
 71
     3
 72
    13
 73
     9
 74
     0
 42
0.000000001
 43
0.00000001
 40
0.0
 40
0.0
 40
0.0
 40
0.0
 40
0.1540115221164598
 40
0.3222892125066733
 40
0.4885596897585152
 40
0.6560393801186606
 40
0.827352716247426
 40
0.9999999999999999
 40
0.9999999999999999
 40
0.9999999999999999
 40
0.9999999999999999
 10
143.5566620426304
 20
79.69619059160834
 30
0.0
 10
143.5618471086059
 20
79.6955188405585
 30
0.0
 10
143.5726975359445
 20
79.69411311380583
 30
0.0
 10
143.503357104769
 20
79.70309987614188
 30
0.0
 10
143.4032398615382
 20
79.71651396363961
 30
0.0
 10
143.2567120339137
 20
79.73715451972983
 30
0.0
 10
143.070498152111
 20
79.76471997855877
 30
0.0
 10
142.9107954396808
 20
79.79082832922924
 30
0.0
 10
142.830634404041
 20
79.80393313125009
 30
0.0
  0
SPLINE
  5
FD
330
1F
100
AcDbEntity
  8
0
  6
HIDDEN
 62
     7
370
     0
100
AcDbSpline
210
0.0
220
0.0
230
1.0
 70
     8
 71
     3
 72
    33
 73
    29
 74
     0
 42
0.000000001
 43
0.00000001
 40
0.0
 40
0.0
 40
0.0
 40
0.0
 40
0.0315773698875103
 40
0.0633753287769056
 40
0.0958656851178231
 40
0.1285943208117603
 40
0.1601713694082661
 40
0.2244011681247344
 40
0.2571344568799635
 40
0.2885965627565485
 40
0.3526214070085074
 40
0.3852675959519927
 40
0.416221218400961
 40
0.47919103539153
 40
0.5112817741273478
 40
0.542125632299066
 40
0.604836055890565
 40
0.6367710793564878
 40
0.668066338471983
 40
0.7316979547407202
 40
0.7641081282919966
 40
0.7957194290717576
 40
0.8275524266255816
 40
0.8600900250720821
 40
0.8928737620729295
 40
0.9241775068323745
 40
0.9878778414776337
 40
1.0
 40
1.0
 40
1.0
 40
1.0
 10
142.830634404041
 20
79.80393313125009
 30
0.0
 10
142.7467632570358
 20
79.81780686963181
 30
0.0
 10
142.5784350670918
 20
79.84565126371656
 30
0.0
 10
142.2790804707503
 20
79.89208390394695
 30
0.0
 10
141.9450810034915
 20
79.94069650596781
 30
0.0
 10
141.5793110416042
 20
79.98984443915505
 30
0.0
 10
141.0559311269153
 20
80.05391022474767
 30
0.0
 10
140.4795039183207
 20
80.1136917391528
 30
0.0
 10
139.8643667714692
 20
80.16369134661684
 30
0.0
 10
139.2280510453863
 20
80.20583133930029
 30
0.0
 10
138.5642705079476
 20
80.23446606403826
 30
0.0
 10
137.8922047563645
 20
80.24672551512191
 30
0.0
 10
137.2227561729327
 20
80.24805480623019
 30
0.0
 10
136.5575716058188
 20
80.23319428332071
 30
0.0
 10
135.9112803669283
 20
80.20333631893156
 30
0.0
 10
135.2820904160699
 20
80.16459309087026
 30
0.0
 10
134.6823747238906
 20
80.11401485711039
 30
0.0
 10
134.1240751577688
 20
80.05561484264385
 30
0.0
 10
133.5938802873813
 20
79.99329161127433
 30
0.0
 10
133.1147135850697
 20
79.92788303673879
 30
0.0
 10
132.6997955998748
 20
79.86509413313281
 30
0.0
 10
132.4225232159488
 20
79.82058953431142
 30
0.0
 10
132.1809679303876
 20
79.77988058487645
 30
0.0
 10
131.9754759260392
 20
79.74382345422698
 30
0.0
 10
131.811311502295
 20
79.71406642927461
 30
0.0
 10
131.6518775557297
 20
79.68448111585022
 30
0.0
 10
131.5736393277811
 20
79.66953183684535
 30
0.0
 10
131.5813641181259
 20
79.67100425944656
 30
0.0
 10
131.5825991227953
 20
79.67123966373674
 30
0.0
  0
SPLINE
  5
FE
330
1F
100
AcDbEntity
  8
0
  6
HIDDEN
 62
     7
370
     0
100
AcDbSpline
210
0.0
220
0.0
230
1.0
 70
     8
 71
     3
 72
    32
 73
    28
 74
     0
 42
0.000000001
 43
0.00000001
 40
0.0
 40
0.0
 40
0.0
 40
0.0
 40
0.0203568221721047
 40
0.0512207857583791
 40
0.1139954454389429
 40
0.1459779869097671
 40
0.1769364677636723
 40
0.2398766914470386
 40
0.2719275468465718
 40
0.3033698011481655
 40
0.3673099924152951
 40
0.3998847012176185
 40
0.4314690120325904
 40
0.4957360700021207
 40
0.5285028301030417
 40
0.5596434488300027
 40
0.6230067766607695
 40
0.655307982320555
 40
0.6861132872619365
 40
0.7487562626891764
 40
0.7806634244345368
 40
0.8117607067089879
 40
0.8749825776111486
 40
0.9071778073885578
 40
0.9301738434827024
 40
0.9765719131095673
 40
1.0
 40
1.0
 40
1.0
 40
1.0
 10
131.5825991227953
 20
142.6692710402576
 30
0.0
 10
131.5822420708891
 20
142.6693385191845
 30
0.0
 10
131.5813436753025
 20
142.6695083061791
 30
0.0
 10
131.6439374218552
 20
142.6576140649917
 30
0.0
 10
131.7857486033187
 20
142.6309671880721
 30
0.0
 10
132.0097931951942
 20
142.5905851166595
 30
0.0
 10
132.2843353110284
 20
142.5427158749091
 30
0.0
 10
132.633026600036
 20
142.4852459896293
 30
0.0
 10
133.0493025624134
 20
142.4227514425748
 30
0.0
 10
133.5108966092762
 20
142.3582257609354
 30
0.0
 10
134.0344345583713
 20
142.2936453839522
 30
0.0
 10
134.6066320328261
 20
142.2348900190674
 30
0.0
 10
135.208838403278
 20
142.1815171626852
 30
0.0
 10
135.8500649100596
 20
142.138654600853
 30
0.0
 10
136.5111502280557
 20
142.1105905548319
 30
0.0
 10
137.1778611825023
 20
142.0930018972922
 30
0.0
 10
137.8517504031092
 20
142.0915552490515
 30
0.0
 10
138.516099887057
 20
142.1064807881893
 30
0.0
 10
139.1676341612166
 20
142.131487513413
 30
0.0
 10
139.7982933738726
 20
142.1705915560948
 30
0.0
 10
140.3958323496951
 20
142.2206927138785
 30
0.0
 10
140.9698303176498
 20
142.2768638803617
 30
0.0
 10
141.5007800310431
 20
142.3397779090505
 30
0.0
 10
141.9441609123073
 20
142.3998814111041
 30
0.0
 10
142.2956815598809
 20
142.4507711280893
 30
0.0
 10
142.5853490698578
 20
142.4958936046272
 30
0.0
 10
142.7690118342555
 20
142.5263566165146
 30
0.0
 10
142.830634404041
 20
142.5365775727442
 30
0.0
  0
LINE
  5
FF
330
1F
100
AcDbEntity
  8
0
  6
HIDDEN
 62
     7
370
     0
100
AcDbLine
 10
122.5740530759
 20
84.670255352
 30
0.0
 11
122.5740530759
 21
137.670255352
 31
0.0
  0
LINE
  5
100
330
1F
100
AcDbEntity
  8
0
  6
HIDDEN
 62
     7
370
     0
100
AcDbLine
 10
161.8615063672
 20
84.670255352
 30
0.0
 11
161.8615063672
 21
137.670255352
 31
0.0
  0
LINE
  5
101
330
1F
100
AcDbEntity
  8
0
  6
HIDDEN
 62
     7
370
     0
100
AcDbLine
 10
165.0274287488
 20
86.295255352
 30
0.0
 11
165.0274287488
 21
136.0452553514
 31
0.0
  0
SPLINE
  5
102
330
1F
100
AcDbEntity
  8
0
  6
HIDDEN
 62
     7
370
     0
100
AcDbSpline
210
0.0
220
0.0
230
1.0
 70
     8
 71
     3
 72
    20
 73
    16
 74
     0
 42
0.000000001
 43
0.00000001
 40
0.0
 40
0.0
 40
0.0
 40
0.0
 40
0.2499999999999978
 40
0.2499999999999978
 40
0.3749999999999982
 40
0.3749999999999982
 40
0.4999999999999986
 40
0.4999999999999986
 40
0.6249999999999989
 40
0.6249999999999989
 40
0.7499999999999992
 40
0.7499999999999992
 40
0.8749999999999997
 40
0.8749999999999997
 40
1.0
 40
1.0
 40
1.0
 40
1.0
 10
112.77742874885
 20
136.3987689824114
 30
0.0
 10
112.77742874885
 20
136.3195659958792
 30
0.0
 10
112.7304462536373
 20
136.2384697774762
 30
0.0
 10
112.5926246628597
 20
136.1182730857253
 30
0.0
 10
112.5363423789497
 20
136.0793463817232
 30
0.0
 10
112.4032575274825
 20
136.0041576492989
 30
0.0
 10
112.3254175852494
 20
135.9675154439569
 30
0.0
 10
112.1527852291351
 20
135.8999249111251
 30
0.0
 10
112.058392232044
 20
135.8689667293494
 30
0.0
 10
111.8529549257288
 20
135.8134423079797
 30
0.0
 10
111.7406086857417
 20
135.7887337941465
 30
0.0
 10
111.508367821842
 20
135.7489375670383
 30
0.0
 10
111.3876571794193
 20
135.7335177296412
 30
0.0
 10
111.1365863201503
 20
135.7124377548016
 30
0.0
 10
111.0070643237345
 20
135.7069605097807
 30
0.0
 10
110.87742874885
 20
135.7069605097807
 30
0.0
  0
LINE
  5
103
330
1F
100
AcDbEntity
  8
0
  6
HIDDEN
 62
     7
370
     0
100
AcDbLine
 10
110.8774287488
 20
135.7069605098
 30
0.0
 11
104.3274287488
 21
135.7069605098
 31
0.0
  0
LINE
  5
104
330
1F
100
AcDbEntity
  8
0
  6
HIDDEN
 62
     7
370
     0
100
AcDbLine
 10
104.3274287488
 20
86.6335501942
 30
0.0
 11
115.8774287488
 21
86.6335501942
 31
0.0
  0
SPLINE
  5
105
330
1F
100
AcDbEntity
  8
0
  6
HIDDEN
 62
     7
370
     0
100
AcDbSpline
210
0.0
220
0.0
230
1.0
 70
     8
 71
     3
 72
    18
 73
    14
 74
     0
 42
0.000000001
 43
0.00000001
 40
0.0
 40
0.0
 40
0.0
 40
0.0
 40
0.1249999999999982
 40
0.1249999999999982
 40
0.2499999999999964
 40
0.2499999999999964
 40
0.4999999999999988
 40
0.4999999999999988
 40
0.7500000000000011
 40
0.7500000000000011
 40
0.8750000000000006
 40
0.8750000000000006
 40
1.0
 40
1.0
 40
1.0
 40
1.0
 10
115.87742874885
 20
86.63355019421365
 30
0.0
 10
116.0068960618072
 20
86.63355019421364
 30
0.0
 10
116.1339068107038
 20
86.628197195621
 30
0.0
 10
116.3832701319011
 20
86.6074592229322
 30
0.0
 10
116.5068937865295
 20
86.59178731867792
 30
0.0
 10
116.8559261234636
 20
86.53209259027584
 30
0.0
 10
117.0664378882704
 20
86.47432741059485
 30
0.0
 10
117.4103545659699
 20
86.33980556931735
 30
0.0
 10
117.5467049674877
 20
86.26213645581194
 30
0.0
 10
117.6837430240502
 20
86.14284532172462
 30
0.0
 10
117.7189620427631
 20
86.10192631258955
 30
0.0
 10
117.7655856197017
 20
86.02127031929953
 30
0.0
 10
117.77742874885
 20
85.98130179910667
 30
0.0
 10
117.77742874885
 20
85.94174172158286
 30
0.0
  0
LINE
  5
106
330
1F
100
AcDbEntity
  8
0
  6
HIDDEN
 62
     7
370
     0
100
AcDbLine
 10
104.3274287488
 20
86.6335501942
 30
0.0
 11
104.3274287488
 21
135.7069605098
 31
0.0
  0
CIRCLE
  5
107
330
1F
100
AcDbEntity
  8
0
  6
HIDDEN
 62
     7
370
     0
100
AcDbCircle
 10
203.5274287488
 20
111.170255352
 30
0.0
 40
3.625
  0
LINE
  5
108
330
1F
100
AcDbEntity
  8
0
  6
HIDDEN
 62
     7
370
     0
100
AcDbLine
 10
104.3274287488
 20
83.800255352
 30
0.0
 11
104.3274287488
 21
78.9219701502
 31
0.0
  0
LINE
  5
109
330
1F
100
AcDbEntity
  8
0
  6
HIDDEN
 62
     7
370
     0
100
AcDbLine
 10
117.7774287488
 20
83.800255352
 30
0.0
 11
117.7774287488
 21
77.3009220866
 31
0.0
  0
LINE
  5
10A
330
1F
100
AcDbEntity
  8
0
  6
HIDDEN
 62
     7
370
     0
100
AcDbLine
 10
112.7774287488
 20
138.540255352
 30
0.0
 11
112.7774287488
 21
144.914864089
 31
0.0
  0
LINE
  5
10B
330
1F
100
AcDbEntity
  8
0
  6
HIDDEN
 62
     7
370
     0
100
AcDbLine
 10
104.3274287488
 20
138.540255352
 30
0.0
 11
104.3274287488
 21
143.4185405538
 31
0.0
  0
LINE
  5
10C
330
1F
100
AcDbEntity
  8
0
  6
HIDDEN
 62
     7
370
     0
100
AcDbLine
 10
176.8774287488
 20
98.170255352
 30
0.0
 11
176.8774287488
 21
124.170255352
 31
0.0
  0
LINE
  5
10D
330
1F
100
AcDbEntity
  8
0
  6
HIDDEN
 62
     7
370
     0
100
AcDbLine
 10
180.8774287488
 20
98.170255352
 30
0.0
 11
180.8774287488
 21
124.170255352
 31
0.0
  0
LINE
  5
10E
330
1F
100
AcDbEntity
  8
0
  6
HIDDEN
 62
     7
370
     0
100
AcDbLine
 10
165.7774287488
 20
99.920255352
 30
0.0
 11
165.7774287488
 21
122.420255352
 31
0.0
  0
SPLINE
  5
10F
330
1F
100
AcDbEntity
  8
0
  6
HIDDEN
 62
     7
370
     0
100
AcDbSpline
210
0.0
220
0.0
230
1.0
 70
     8
 71
     3
 72
    16
 73
    12
 74
     0
 42
0.000000001
 43
0.00000001
 40
0.0
 40
0.0
 40
0.0
 40
0.0
 40
0.2500000000000004
 40
0.2500000000000004
 40
0.5000000000000009
 40
0.5000000000000009
 40
0.6249999999999974
 40
0.6249999999999974
 40
0.749999999999994
 40
0.749999999999994
 40
1.0
 40
1.0
 40
1.0
 40
1.0
 10
213.57742874885
 20
121.6343604670164
 30
0.0
 10
213.57742874885
 20
121.5452947985107
 30
0.0
 10
213.5721090086627
 20
121.4544324250617
 30
0.0
 10
213.5426718840422
 20
121.2663593086405
 30
0.0
 10
213.5192813379788
 20
121.1682581167387
 30
0.0
 10
213.4511539078841
 20
121.0282297682146
 30
0.0
 10
213.4221923612926
 20
120.9835296017635
 30
0.0
 10
213.3556508183369
 20
120.9134591742872
 30
0.0
 10
213.3182046835402
 20
120.8882567827496
 30
0.0
 10
213.2078353996298
 20
120.8431171361032
 30
0.0
 10
213.1398040618245
 20
120.8487154717312
 30
0.0
 10
213.0774287488236
 20
120.8644504229336
 30
0.0
  0
SPLINE
  5
110
330
1F
100
AcDbEntity
  8
0
  6
HIDDEN
 62
     7
370
     0
100
AcDbSpline
210
0.0
220
0.0
230
1.0
 70
     8
 71
     3
 72
     8
 73
     4
 74
     0
 42
0.000000001
 43
0.00000001
 40
0.0
 40
0.0
 40
0.0
 40
0.0
 40
1.0
 40
1.0
 40
1.0
 40
1.0
 10
213.0774287488245
 20
120.8644504229326
 30
0.0
 10
212.9923893517653
 20
120.80700633164
 30
0.0
 10
212.8873701008213
 20
120.766249087227
 30
0.0
 10
212.7774287488503
 20
120.7662490872269
 30
0.0
  0
SPLINE
  5
111
330
1F
100
AcDbEntity
  8
0
  6
HIDDEN
 62
     7
370
     0
100
AcDbSpline
210
0.0
220
0.0
230
1.0
 70
     8
 71
     3
 72
     8
 73
     4
 74
     0
 42
0.000000001
 43
0.00000001
 40
0.0
 40
0.0
 40
0.0
 40
0.0
 40
1.0
 40
1.0
 40
1.0
 40
1.0
 10
213.0774287488682
 20
101.4760602810322
 30
0.0
 10
212.9923893517999
 20
101.5335043723405
 30
0.0
 10
212.8873701008401
 20
101.5742616167673
 30
0.0
 10
212.7774287488503
 20
101.5742616167674
 30
0.0
  0
SPLINE
  5
112
330
1F
100
AcDbEntity
  8
0
  6
HIDDEN
 62
     7
370
     0
100
AcDbSpline
210
0.0
220
0.0
230
1.0
 70
     8
 71
     3
 72
    16
 73
    12
 74
     0
 42
0.000000001
 43
0.00000001
 40
0.0
 40
0.0
 40
0.0
 40
0.0
 40
0.2499999999999913
 40
0.2499999999999913
 40
0.3749999999999927
 40
0.3749999999999927
 40
0.4999999999999941
 40
0.4999999999999941
 40
0.749999999999997
 40
0.749999999999997
 40
1.0
 40
1.0
 40
1.0
 40
1.0
 10
213.0774287488673
 20
101.4760602810313
 30
0.0
 10
213.1395018322236
 20
101.4917190539603
 30
0.0
 10
213.2073111161061
 20
101.4973199428636
 30
0.0
 10
213.317166888041
 20
101.4528226037889
 30
0.0
 10
213.3544738058291
 20
101.4279424764837
 30
0.0
 10
213.4207814879925
 20
101.3588068965763
 30
0.0
 10
213.4497477091414
 20
101.3146823972749
 30
0.0
 10
213.5185596592609
 20
101.174682800514
 30
0.0
 10
213.5422703333713
 20
101.0759754468909
 30
0.0
 10
213.571971341817
 20
100.8876874096263
 30
0.0
 10
213.57742874885
 20
100.7954510318881
 30
0.0
 10
213.57742874885
 20
100.7061504131819
 30
0.0
  0
ELLIPSE
  5
113
330
1F
100
AcDbEntity
  8
0
  6
HIDDEN
 62
     7
370
     0
100
AcDbEllipse
 10
96.3927555486
 20
111.170255352
 30
0.0
 11
31.0810857081166
 21
-1.421085471520200E-14
 31
0.0
210
0.0
220
0.0
230
1.0
 40
0.8164965809
 41
4.915995335118103
 42
4.970536038964787
  0
ELLIPSE
  5
114
330
1F
100
AcDbEntity
  8
0
  6
HIDDEN
 62
     7
370
     0
100
AcDbEllipse
 10
96.3927555486
 20
111.170255352
 30
0.0
 11
31.0810857081166
 21
1.421085471520200E-14
 31
0.0
210
0.0
220
0.0
230
1.0
 40
0.8164965809
 41
1.312649268214811
 42
1.367189972061496
  0
LINE
  5
115
330
1F
100
AcDbEntity
  8
0
  6
HIDDEN
 62
     7
370
     0
100
AcDbLine
 10
189.0774287488
 20
111.170255352
 30
0.0
 11
189.0774287488
 21
100.670255352
 31
0.0
  0
LINE
  5
116
330
1F
100
AcDbEntity
  8
0
  6
HIDDEN
 62
     7
370
     0
100
AcDbLine
 10
189.0774287488
 20
121.670255352
 30
0.0
 11
189.0774287488
 21
111.170255352
 31
0.0
  0
LINE
  5
117
330
1F
100
AcDbEntity
  8
0
  6
HIDDEN
 62
     7
370
     0
100
AcDbLine
 10
192.9434541526
 20
111.170255352
 30
0.0
 11
192.9434541526
 21
100.170255352
 31
0.0
  0
LINE
  5
118
330
1F
100
AcDbEntity
  8
0
  6
HIDDEN
 62
     7
370
     0
100
AcDbLine
 10
192.9434541526
 20
122.170255352
 30
0.0
 11
192.9434541526
 21
111.170255352
 31
0.0
  0
LINE
  5
119
330
1F
100
AcDbEntity
  8
0
  6
HIDDEN
 62
     7
370
     0
100
AcDbLine
 10
202.9774287489
 20
120.7662490872
 30
0.0
 11
212.7774287488
 21
120.7662490872
 31
0.0
  0
LINE
  5
11A
330
1F
100
AcDbEntity
  8
0
  6
HIDDEN
 62
     7
370
     0
100
AcDbLine
 10
202.9774287489
 20
101.5742616168
 30
0.0
 11
212.7774287488
 21
101.5742616168
 31
0.0
  0
LINE
  5
11B
330
1F
100
AcDbEntity
  8
0
  6
HIDDEN
 62
     7
370
     0
100
AcDbLine
 10
181.5274287488
 20
67.270255352
 30
0.0
 11
167.5274287488
 21
67.270255352
 31
0.0
  0
LINE
  5
11C
330
1F
100
AcDbEntity
  8
0
  6
HIDDEN
 62
     7
370
     0
100
AcDbLine
 10
157.5274287488
 20
61.1802563522
 30
0.0
 11
157.5274287488
 21
67.270255352
 31
0.0
  0
LINE
  5
11D
330
1F
100
AcDbEntity
  8
0
  6
HIDDEN
 62
     7
370
     0
100
AcDbLine
 10
167.5274287488
 20
67.270255352
 30
0.0
 11
157.5274287488
 21
67.270255352
 31
0.0
  0
LINE
  5
11E
330
1F
100
AcDbEntity
  8
0
  6
HIDDEN
 62
     7
370
     0
100
AcDbLine
 10
117.7774287488
 20
83.800255352
 30
0.0
 11
117.7774287488
 21
85.9417417216
 31
0.0
  0
LINE
  5
11F
330
1F
100
AcDbEntity
  8
0
  6
HIDDEN
 62
     7
370
     0
100
AcDbLine
 10
104.3274287488
 20
83.800255352
 30
0.0
 11
104.3274287488
 21
86.6335501942
 31
0.0
  0
LINE
  5
120
330
1F
100
AcDbEntity
  8
0
  6
HIDDEN
 62
     7
370
     0
100
AcDbLine
 10
104.3274287488
 20
138.540255352
 30
0.0
 11
104.3274287488
 21
135.7069605098
 31
0.0
  0
LINE
  5
121
330
1F
100
AcDbEntity
  8
0
  6
HIDDEN
 62
     7
370
     0
100
AcDbLine
 10
112.7774287488
 20
138.540255352
 30
0.0
 11
112.7774287488
 21
136.3987689824
 31
0.0
  0
LINE
  5
122
330
1F
100
AcDbEntity
  8
0
  6
HIDDEN
 62
     7
370
     0
100
AcDbLine
 10
167.5274287488
 20
155.070255352
 30
0.0
 11
157.5274287488
 21
155.070255352
 31
0.0
  0
LINE
  5
123
330
1F
100
AcDbEntity
  8
0
  6
HIDDEN
 62
     7
370
     0
100
AcDbLine
 10
181.5274287488
 20
155.070255352
 30
0.0
 11
167.5274287488
 21
155.070255352
 31
0.0
  0
SPLINE
  5
124
330
1F
100
AcDbEntity
  8
0
  6
HIDDEN
 62
     7
370
     0
100
AcDbSpline
210
0.0
220
0.0
230
1.0
 70
     8
 71
     3
 72
    31
 73
    27
 74
     0
 42
0.000000001
 43
0.00000001
 40
0.0
 40
0.0
 40
0.0
 40
0.0
 40
0.0530989691793653
 40
0.1124811969126965
 40
0.1778800255936857
 40
0.2129049298001269
 40
0.2494589131270298
 40
0.2912257377227499
 40
0.3260689029898595
 40
0.3539846964610575
 40
0.3749704708351426
 40
0.4414296920955707
 40
0.500148667065436
 40
0.5546646469292311
 40
0.6144102486439619
 40
0.6794371093900383
 40
0.7023332019326193
 40
0.7258247264470346
 40
0.7499129161143314
 40
0.7913783937550275
 40
0.8260461439264793
 40
0.8539123827265408
 40
0.8749742579877758
 40
0.9411622752448288
 40
0.9999141549760484
 40
1.0
 40
1.0
 40
1.0
 40
1.0
 10
143.5768948849538
 20
74.07034895785722
 30
0.0
 10
143.5607072485093
 20
74.07524642949446
 30
0.0
 10
143.526416475061
 20
74.085620895894
 30
0.0
 10
143.225152372549
 20
74.16126102963494
 30
0.0
 10
142.7829902460215
 20
74.25754573094126
 30
0.0
 10
142.2881565798739
 20
74.35721079912521
 30
0.0
 10
141.8176811155739
 20
74.44948889113213
 30
0.0
 10
141.2867596279228
 20
74.54512094149636
 30
0.0
 10
140.7486091484827
 20
74.63077117568211
 30
0.0
 10
140.2905617884037
 20
74.69806298322446
 30
0.0
 10
139.6349975665437
 20
74.78641109060891
 30
0.0
 10
138.7516899685939
 20
74.88306988854495
 30
0.0
 10
137.6230325981608
 20
74.96984237818339
 30
0.0
 10
136.5332557929195
 20
75.00793034930278
 30
0.0
 10
135.4372898905833
 20
75.00974236319449
 30
0.0
 10
134.5979657669012
 20
74.98561913421878
 30
0.0
 10
134.0186018734719
 20
74.95669592866791
 30
0.0
 10
133.6711939726556
 20
74.93521607882892
 30
0.0
 10
133.2597560015963
 20
74.90341305357379
 30
0.0
 10
132.8421974978901
 20
74.86581276176156
 30
0.0
 10
132.4710085038969
 20
74.82876814133843
 30
0.0
 10
132.2169570024346
 20
74.80007512821255
 30
0.0
 10
131.9159031966867
 20
74.76369309947057
 30
0.0
 10
131.6604185652461
 20
74.73091422334826
 30
0.0
 10
131.5611980610915
 20
74.71457599916067
 30
0.0
 10
131.5774786185551
 20
74.71716958544539
 30
0.0
 10
131.5775023721052
 20
74.7171733695223
 30
0.0
  0
SPLINE
  5
125
330
1F
100
AcDbEntity
  8
0
  6
HIDDEN
 62
     7
370
     0
100
AcDbSpline
210
0.0
220
0.0
230
1.0
 70
     8
 71
     3
 72
    31
 73
    27
 74
     0
 42
0.000000001
 43
0.00000001
 40
0.0
 40
0.0
 40
0.0
 40
0.0
 40
0.0001335023480594
 40
0.0285632175532076
 40
0.0588656400649411
 40
0.0910449443506586
 40
0.1251045554876866
 40
0.1546919639364299
 40
0.1963692353852811
 40
0.2501219033075145
 40
0.3205344876836514
 40
0.3856170780788864
 40
0.4454082559405277
 40
0.4999595087280139
 40
0.5225241241396291
 40
0.5462991291095557
 40
0.5712887257084658
 40
0.5974965164973955
 40
0.624925608729924
 40
0.6541994918542131
 40
0.6958764716935242
 40
0.7499421557154065
 40
0.8215992549734715
 40
0.8871485474406124
 40
0.946641889625097
 40
0.9999999999999999
 40
0.9999999999999999
 40
0.9999999999999999
 40
0.9999999999999999
 10
131.5775420373183
 20
147.6232631444542
 30
0.0
 10
131.5775041453811
 20
147.6232714064735
 30
0.0
 10
131.569397054674
 20
147.6250390896513
 30
0.0
 10
131.5980526961087
 20
147.6195854465112
 30
0.0
 10
131.6714464423914
 20
147.6090412154951
 30
0.0
 10
131.8151009602149
 20
147.5893564139633
 30
0.0
 10
132.0161372224744
 20
147.5645170375946
 30
0.0
 10
132.2987676426295
 20
147.5303085974156
 30
0.0
 10
132.7121767314899
 20
147.4866287136072
 30
0.0
 10
133.3884647253514
 20
147.4235855157235
 30
0.0
 10
134.3268930894184
 20
147.3622890085337
 30
0.0
 10
135.4363953006493
 20
147.3309982127255
 30
0.0
 10
136.5338465460197
 20
147.3326610876455
 30
0.0
 10
137.3972174620281
 20
147.3626683632417
 30
0.0
 10
138.0310874383977
 20
147.4030591170229
 30
0.0
 10
138.4764951433575
 20
147.4378298161429
 30
0.0
 10
138.9387830433741
 20
147.4803581942726
 30
0.0
 10
139.4141562555368
 20
147.5307287333013
 30
0.0
 10
139.9016475472961
 20
147.5889223401855
 30
0.0
 10
140.4581959849292
 20
147.6656890171859
 30
0.0
 10
141.1247921929736
 20
147.7673201400245
 30
0.0
 10
141.9261297622138
 20
147.9094658743708
 30
0.0
 10
142.678638062611
 20
148.0607079609559
 30
0.0
 10
143.2239247014458
 20
148.1785594160102
 30
0.0
 10
143.5266437701825
 20
148.2547878923295
 30
0.0
 10
143.5609340833372
 20
148.2652401442763
 30
0.0
 10
143.5771471339679
 20
148.2701821490126
 30
0.0
  0
SPLINE
  5
126
330
1F
100
AcDbEntity
  8
0
  6
HIDDEN
 62
     7
370
     0
100
AcDbSpline
210
0.0
220
0.0
230
1.0
 70
     8
 71
     3
 72
    18
 73
    14
 74
     0
 42
0.000000001
 43
0.00000001
 40
0.0
 40
0.0
 40
0.0
 40
0.0
 40
0.0301122960240438
 40
0.1110464336239955
 40
0.193750579632074
 40
0.2770674319781456
 40
0.3572222375097762
 40
0.5202522979301764
 40
0.6033195572254165
 40
0.683570480061674
 40
0.8467897962903681
 40
0.9299580050018903
 40
1.0
 40
1.0
 40
1.0
 40
1.0
 10
213.0305459708202
 20
126.8772648510296
 30
0.0
 10
213.0300959937784
 20
126.8773993688385
 30
0.0
 10
213.0284365937223
 20
126.8778954360574
 30
0.0
 10
213.0268895984969
 20
126.8555816500176
 30
0.0
 10
213.0265301693352
 20
126.8098925654623
 30
0.0
 10
213.0280728318878
 20
126.7402102704497
 30
0.0
 10
213.0326753478433
 20
126.6194890706115
 30
0.0
 10
213.0405485907346
 20
126.4566203657383
 30
0.0
 10
213.0506596922268
 20
126.2552513160668
 30
0.0
 10
213.0614125415445
 20
126.0296264378978
 30
0.0
 10
213.0711054127889
 20
125.7690909492342
 30
0.0
 10
213.0765800922663
 20
125.4902543350703
 30
0.0
 10
213.0771625051053
 20
125.3461393513806
 30
0.0
 10
213.0774287625487
 20
125.2802553519972
 30
0.0
  0
LINE
  5
127
330
1F
100
AcDbEntity
  8
0
  6
HIDDEN
 62
     7
370
     0
100
AcDbLine
 10
213.0774287625
 20
125.280255352
 30
0.0
 11
213.0774287488
 21
120.8644504229
 31
0.0
  0
LINE
  5
128
330
1F
100
AcDbEntity
  8
0
  6
HIDDEN
 62
     7
370
     0
100
AcDbLine
 10
213.077428743
 20
97.060255352
 30
0.0
 11
213.0774287489
 21
101.476060281
 31
0.0
  0
SPLINE
  5
129
330
1F
100
AcDbEntity
  8
0
  6
HIDDEN
 62
     7
370
     0
100
AcDbSpline
210
0.0
220
0.0
230
1.0
 70
     8
 71
     3
 72
    14
 73
    10
 74
     0
 42
0.000000001
 43
0.00000001
 40
0.0
 40
0.0
 40
0.0
 40
0.0
 40
0.2499999999999999
 40
0.2499999999999999
 40
0.4999999999999999
 40
0.4999999999999999
 40
0.7499999999999998
 40
0.7499999999999998
 40
1.0
 40
1.0
 40
1.0
 40
1.0
 10
213.07742874885
 20
97.06025535199716
 30
0.0
 10
213.07742874885
 20
96.85015088463884
 30
0.0
 10
213.0776011591697
 20
96.6583963568838
 30
0.0
 10
213.0745995302206
 20
96.30952218152584
 30
0.0
 10
213.0723032532988
 20
96.15072001930318
 30
0.0
 10
213.065022109672
 20
95.87972462209959
 30
0.0
 10
213.0601918858388
 20
95.76816292190593
 30
0.0
 10
213.0496763505531
 20
95.59277981354496
 30
0.0
 10
213.0440261255814
 20
95.53022173238242
 30
0.0
 10
213.0391969450228
 20
95.49505371407518
 30
0.0
  0
SPLINE
  5
12A
330
1F
100
AcDbEntity
  8
0
  6
HIDDEN
 62
     7
370
     0
100
AcDbSpline
210
0.0
220
0.0
230
1.0
 70
     8
 71
     3
 72
    14
 73
    10
 74
     0
 42
0.000000001
 43
0.00000001
 40
0.0
 40
0.0
 40
0.0
 40
0.0
 40
0.0069955212181547
 40
0.1682254671458708
 40
0.3341580921163681
 40
0.4949389827911504
 40
0.6603625862509959
 40
0.827553797151161
 40
1.0
 40
1.0
 40
1.0
 40
1.0
 10
213.0304929141008
 20
95.46256491003545
 30
0.0
 10
213.0303638234399
 20
95.46206371494742
 30
0.0
 10
213.0272595033959
 20
95.45001117801901
 30
0.0
 10
213.0258177428321
 20
95.51038431385439
 30
0.0
 10
213.0292758890212
 20
95.64837653774259
 30
0.0
 10
213.0404489095543
 20
95.88350618590542
 30
0.0
 10
213.0563821049799
 20
96.19629684830365
 30
0.0
 10
213.0729668330236
 20
96.58692647863806
 30
0.0
 10
213.0759261769705
 20
96.90085996369751
 30
0.0
 10
213.0774287429597
 20
97.06025535199714
 30
0.0
  0
LINE
  5
12B
330
1F
100
AcDbEntity
  8
0
  6
HIDDEN
 62
     7
370
     0
100
AcDbLine
 10
202.9774287489
 20
97.060255352
 30
0.0
 11
202.9774287489
 21
101.5742616168
 31
0.0
  0
LINE
  5
12C
330
1F
100
AcDbEntity
  8
0
  6
HIDDEN
 62
     7
370
     0
100
AcDbLine
 10
202.9774287489
 20
125.280255352
 30
0.0
 11
202.9774287489
 21
120.7662490872
 31
0.0
  0
LINE
  5
12D
330
1F
100
AcDbEntity
  8
0
  6
HIDDEN
 62
     7
370
     0
100
AcDbLine
 10
202.9774287489
 20
95.460255352
 30
0.0
 11
202.9774287489
 21
97.060255352
 31
0.0
  0
LINE
  5
12E
330
1F
100
AcDbEntity
  8
0
  6
HIDDEN
 62
     7
370
     0
100
AcDbLine
 10
202.9774287489
 20
126.880255352
 30
0.0
 11
202.9774287489
 21
125.280255352
 31
0.0
  0
LINE
  5
12F
330
1F
100
AcDbEntity
  8
0
  6
HIDDEN
 62
     7
370
     0
100
AcDbLine
 10
175.8394577698
 20
150.1212181129
 30
0.0
 11
175.8394577698
 21
142.520255352
 31
0.0
  0
LINE
  5
130
330
1F
100
AcDbEntity
  8
0
  6
HIDDEN
 62
     7
370
     0
100
AcDbLine
 10
170.6674287488
 20
145.8844905445
 30
0.0
 11
170.6674287488
 21
142.520255352
 31
0.0
  0
LINE
  5
131
330
1F
100
AcDbEntity
  8
0
  6
HIDDEN
 62
     7
370
     0
100
AcDbLine
 10
174.4874287488
 20
145.8844905445
 30
0.0
 11
174.4874287488
 21
142.520255352
 31
0.0
  0
CIRCLE
  5
132
330
1F
100
AcDbEntity
  8
0
  6
HIDDEN
 62
     7
370
     0
100
AcDbCircle
 10
159.5774287488
 20
111.170255352
 30
0.0
 40
5.000000000000014
  0
LINE
  5
133
330
1F
100
AcDbEntity
  8
0
  6
HIDDEN
 62
     7
370
     0
100
AcDbLine
 10
152.5774287488
 20
71.7655723954
 30
0.0
 11
152.6670303728
 21
72.4031210773
 31
0.0
  0
LINE
  5
134
330
1F
100
AcDbEntity
  8
0
  6
HIDDEN
 62
     7
370
     0
100
AcDbLine
 10
152.6670303728
 20
149.9373896267
 30
0.0
 11
152.5774287488
 21
150.5749383086
 31
0.0
  0
ARC
  5
135
330
1F
100
AcDbEntity
  8
0
  6
HIDDEN
 62
     7
370
     0
100
AcDbCircle
 10
151.6804918304
 20
72.5417700276
 30
0.0
 40
0.9962338214386963
100
AcDbArc
 50
352.0
 51
0.0
  0
ARC
  5
136
330
1F
100
AcDbEntity
  8
0
  6
HIDDEN
 62
     7
370
     0
100
AcDbCircle
 10
151.6804918304
 20
72.5417700276
 30
0.0
 40
0.9962338214387044
100
AcDbArc
 50
0.0
 51
25.7988228126
  0
ARC
  5
137
330
1F
100
AcDbEntity
  8
0
  6
HIDDEN
 62
     7
370
     0
100
AcDbCircle
 10
151.6804918304
 20
149.7987406764
 30
0.0
 40
0.9962338214386963
100
AcDbArc
 50
348.75
 51
8.0
  0
LWPOLYLINE
  5
138
330
1F
100
AcDbEntity
  8
0
  6
HIDDEN
 62
     7
370
     0
100
AcDbPolyline
 90
        3
 70
   128
 43
0.0
 10
152.6575832983
 20
149.6043850994
 10
152.6008918676
 20
149.4174984982
 10
152.5774287488
 20
149.3651671633
  0
LINE
  5
139
330
1F
100
AcDbEntity
  8
0
  6
HIDDEN
 62
     7
370
     0
100
AcDbLine
 10
152.6767256518
 20
72.5417700276
 30
0.0
 11
152.6767256518
 21
149.7987406764
 31
0.0
  0
ARC
  5
13A
330
1F
100
AcDbEntity
  8
0
  6
HIDDEN
 62
     7
370
     0
100
AcDbCircle
 10
142.830634404
 20
91.670255352
 30
0.0
 40
12.00000000000001
100
AcDbArc
 50
273.4740619764
 51
324.3146652873
  0
ARC
  5
13B
330
1F
100
AcDbEntity
  8
0
  6
HIDDEN
 62
     7
370
     0
100
AcDbCircle
 10
142.830634404
 20
130.670255352
 30
0.0
 40
12.00000000000002
100
AcDbArc
 50
35.6853347127
 51
86.5252878025
  0
LINE
  5
13C
330
1F
100
AcDbEntity
  8
0
  6
HIDDEN
 62
     7
370
     0
100
AcDbLine
 10
126.038154691
 20
79.670255352
 30
0.0
 11
131.5825991228
 21
79.670255352
 31
0.0
  0
LINE
  5
13D
330
1F
100
AcDbEntity
  8
0
  6
HIDDEN
 62
     7
370
     0
100
AcDbLine
 10
131.5825991228
 20
142.670255352
 30
0.0
 11
126.038154691
 21
142.670255352
 31
0.0
  0
ARC
  5
13E
330
1F
100
AcDbEntity
  8
0
  6
HIDDEN
 62
     7
370
     0
100
AcDbCircle
 10
126.038154691
 20
80.670255352
 30
0.0
 40
1.0
100
AcDbArc
 50
210.0
 51
270.0
  0
ARC
  5
13F
330
1F
100
AcDbEntity
  8
0
  6
HIDDEN
 62
     7
370
     0
100
AcDbCircle
 10
126.038154691
 20
141.670255352
 30
0.0
 40
1.0
100
AcDbArc
 50
90.0
 51
150.0
  0
LINE
  5
140
330
1F
100
AcDbEntity
  8
0
  6
HIDDEN
 62
     7
370
     0
100
AcDbLine
 10
125.1721292872
 20
142.170255352
 30
0.0
 11
122.5740530759
 21
137.670255352
 31
0.0
  0
LINE
  5
141
330
1F
100
AcDbEntity
  8
0
  6
HIDDEN
 62
     7
370
     0
100
AcDbLine
 10
122.5740530759
 20
84.670255352
 30
0.0
 11
125.1721292872
 21
80.170255352
 31
0.0
  0
ARC
  5
142
330
1F
100
AcDbEntity
  8
0
  6
HIDDEN
 62
     7
370
     0
100
AcDbCircle
 10
163.0274287488
 20
86.295255352
 30
0.0
 40
2.0
100
AcDbArc
 50
234.3409123039
 51
0.0
  0
ARC
  5
143
330
1F
100
AcDbEntity
  8
0
  6
HIDDEN
 62
     7
370
     0
100
AcDbCircle
 10
163.0274287488
 20
136.045255352
 30
0.0
 40
2.000000000000003
100
AcDbArc
 50
0.0
 51
125.6590876961
  0
LINE
  5
144
330
1F
100
AcDbEntity
  8
0
  6
HIDDEN
 62
     7
370
     0
100
AcDbLine
 10
152.5774287488
 20
84.670255352
 30
0.0
 11
161.8615063672
 21
84.670255352
 31
0.0
  0
LINE
  5
145
330
1F
100
AcDbEntity
  8
0
  6
HIDDEN
 62
     7
370
     0
100
AcDbLine
 10
161.8615063672
 20
137.670255352
 30
0.0
 11
152.5774287488
 21
137.670255352
 31
0.0
  0
LINE
  5
146
330
1F
100
AcDbEntity
  8
0
  6
HIDDEN
 62
     7
370
     0
100
AcDbLine
 10
117.7774287488
 20
84.670255352
 30
0.0
 11
122.5740530759
 21
84.670255352
 31
0.0
  0
LINE
  5
147
330
1F
100
AcDbEntity
  8
0
  6
HIDDEN
 62
     7
370
     0
100
AcDbLine
 10
122.5740530759
 20
137.670255352
 30
0.0
 11
112.7774287488
 21
137.670255352
 31
0.0
  0
LINE
  5
148
330
1F
100
AcDbEntity
  8
0
  6
HIDDEN
 62
     7
370
     0
100
AcDbLine
 10
176.8774287488
 20
98.170255352
 30
0.0
 11
180.8774287488
 21
98.170255352
 31
0.0
  0
LINE
  5
149
330
1F
100
AcDbEntity
  8
0
  6
HIDDEN
 62
     7
370
     0
100
AcDbLine
 10
180.8774287488
 20
124.170255352
 30
0.0
 11
176.8774287488
 21
124.170255352
 31
0.0
  0
LINE
  5
14A
330
1F
100
AcDbEntity
  8
0
  6
HIDDEN
 62
     7
370
     0
100
AcDbLine
 10
165.0274287488
 20
99.170255352
 30
0.0
 11
165.7774287488
 21
99.920255352
 31
0.0
  0
LINE
  5
14B
330
1F
100
AcDbEntity
  8
0
  6
HIDDEN
 62
     7
370
     0
100
AcDbLine
 10
165.7774287488
 20
122.420255352
 30
0.0
 11
165.0274287488
 21
123.170255352
 31
0.0
  0
ARC
  5
14C
330
1F
100
AcDbEntity
  8
0
  6
HIDDEN
 62
     7
370
     0
100
AcDbCircle
 10
190.9457762513
 20
121.670255352
 30
0.0
 40
1.000000000000017
100
AcDbArc
 50
75.0
 51
90.0
  0
ARC
  5
14D
330
1F
100
AcDbEntity
  8
0
  6
HIDDEN
 62
     7
370
     0
100
AcDbCircle
 10
190.9457762513
 20
100.670255352
 30
0.0
 40
1.000000000000017
100
AcDbArc
 50
270.0
 51
285.0
  0
ARC
  5
14E
330
1F
100
AcDbEntity
  8
0
  6
HIDDEN
 62
     7
370
     0
100
AcDbCircle
 10
190.0774287488
 20
121.670255352
 30
0.0
 40
1.0
100
AcDbArc
 50
90.0
 51
180.0
  0
ARC
  5
14F
330
1F
100
AcDbEntity
  8
0
  6
HIDDEN
 62
     7
370
     0
100
AcDbCircle
 10
190.0774287488
 20
100.670255352
 30
0.0
 40
1.0
100
AcDbArc
 50
180.0
 51
270.0
  0
LINE
  5
150
330
1F
100
AcDbEntity
  8
0
  6
HIDDEN
 62
     7
370
     0
100
AcDbLine
 10
190.9457762513
 20
122.670255352
 30
0.0
 11
190.0774287488
 21
122.670255352
 31
0.0
  0
LINE
  5
151
330
1F
100
AcDbEntity
  8
0
  6
HIDDEN
 62
     7
370
     0
100
AcDbLine
 10
190.0774287488
 20
99.670255352
 30
0.0
 11
190.9457762513
 21
99.670255352
 31
0.0
  0
LINE
  5
152
330
1F
100
AcDbEntity
  8
0
  6
HIDDEN
 62
     7
370
     0
100
AcDbLine
 10
191.2045952964
 20
99.7043295257
 30
0.0
 11
192.9434541526
 21
100.170255352
 31
0.0
  0
LINE
  5
153
330
1F
100
AcDbEntity
  8
0
  6
HIDDEN
 62
     7
370
     0
100
AcDbLine
 10
192.9434541526
 20
122.170255352
 30
0.0
 11
191.2045952964
 21
122.6361811783
 31
0.0
  0
LINE
  5
154
330
1F
100
AcDbEntity
  8
0
  6
HIDDEN
 62
     7
370
     0
100
AcDbLine
 10
165.7774287488
 20
99.920255352
 30
0.0
 11
176.8774287488
 21
99.920255352
 31
0.0
  0
LINE
  5
155
330
1F
100
AcDbEntity
  8
0
  6
HIDDEN
 62
     7
370
     0
100
AcDbLine
 10
176.8774287488
 20
122.420255352
 30
0.0
 11
165.7774287488
 21
122.420255352
 31
0.0
  0
LINE
  5
156
330
1F
100
AcDbEntity
  8
0
  6
HIDDEN
 62
     7
370
     0
100
AcDbLine
 10
202.9774287489
 20
122.170255352
 30
0.0
 11
192.9434541526
 21
122.170255352
 31
0.0
  0
LINE
  5
157
330
1F
100
AcDbEntity
  8
0
  6
HIDDEN
 62
     7
370
     0
100
AcDbLine
 10
192.9434541526
 20
100.170255352
 30
0.0
 11
202.9774287489
 21
100.170255352
 31
0.0
  0
LINE
  5
158
330
1F
100
AcDbEntity
  8
0
  6
HIDDEN
 62
     7
370
     0
100
AcDbLine
 10
157.5274287488
 20
161.170255352
 30
0.0
 11
157.5274287488
 21
155.070255352
 31
0.0
  0
LINE
  5
159
330
1F
100
AcDbEntity
  8
0
  6
HIDDEN
 62
     7
370
     0
100
AcDbLine
 10
144.0101413649
 20
73.5919757814
 30
0.0
 11
143.5774320784
 21
74.0702004988
 31
0.0
  0
LINE
  5
15A
330
1F
100
AcDbEntity
  8
0
  6
HIDDEN
 62
     7
370
     0
100
AcDbLine
 10
131.5774292069
 20
74.7171618555
 30
0.0
 11
131.0968019017
 21
74.2389371446
 31
0.0
  0
LINE
  5
15B
330
1F
100
AcDbEntity
  8
0
  6
HIDDEN
 62
     7
370
     0
100
AcDbLine
 10
131.0966835602
 20
148.1015676432
 30
0.0
 11
131.5774290242
 21
147.6232879714
 31
0.0
  0
LINE
  5
15C
330
1F
100
AcDbEntity
  8
0
  6
HIDDEN
 62
     7
370
     0
100
AcDbLine
 10
143.577428751
 20
148.2702603587
 30
0.0
 11
144.0102504207
 21
148.7485400316
 31
0.0
  0
LINE
  5
15D
330
1F
100
AcDbEntity
  8
0
  6
HIDDEN
 62
     7
370
     0
100
AcDbLine
 10
213.5774287488
 20
127.4268589843
 30
0.0
 11
213.0218214899
 21
126.8712607971
 31
0.0
  0
LINE
  5
15E
330
1F
100
AcDbEntity
  8
0
  6
HIDDEN
 62
     7
370
     0
100
AcDbLine
 10
213.022247421
 20
95.4688214079
 30
0.0
 11
213.5774287488
 21
94.9136509111
 31
0.0
  0
LINE
  5
15F
330
1F
100
AcDbEntity
  8
0
  6
HIDDEN
 62
     7
370
     0
100
AcDbLine
 10
143.5774287488
 20
73.9700716564
 30
0.0
 11
143.5774287488
 21
79.696190458
 31
0.0
  0
LINE
  5
160
330
1F
100
AcDbEntity
  8
0
  6
HIDDEN
 62
     7
370
     0
100
AcDbLine
 10
131.5774287488
 20
79.6712395514
 30
0.0
 11
131.5774287488
 21
74.7172002699
 31
0.0
  0
LINE
  5
161
330
1F
100
AcDbEntity
  8
0
  6
HIDDEN
 62
     7
370
     0
100
AcDbLine
 10
143.5774287488
 20
142.644320246
 30
0.0
 11
143.5774287488
 21
148.3702641849
 31
0.0
  0
LINE
  5
162
330
1F
100
AcDbEntity
  8
0
  6
HIDDEN
 62
     7
370
     0
100
AcDbLine
 10
131.5774287488
 20
147.6232774721
 30
0.0
 11
131.5774287488
 21
142.6692711526
 31
0.0
  0
LINE
  5
163
330
1F
100
AcDbEntity
  8
0
  6
HIDDEN
 62
     7
370
     0
100
AcDbLine
 10
180.8774287488
 20
106.920255352
 30
0.0
 11
189.0774287488
 21
106.920255352
 31
0.0
  0
LINE
  5
164
330
1F
100
AcDbEntity
  8
0
  6
HIDDEN
 62
     7
370
     0
100
AcDbLine
 10
189.0774287488
 20
115.420255352
 30
0.0
 11
180.8774287488
 21
115.420255352
 31
0.0
  0
LINE
  5
165
330
1F
100
AcDbEntity
  8
0
  6
HIDDEN
 62
     7
370
     0
100
AcDbLine
 10
202.9774287489
 20
95.460255352
 30
0.0
 11
213.0313533235
 21
95.460255352
 31
0.0
  0
LINE
  5
166
330
1F
100
AcDbEntity
  8
0
  6
HIDDEN
 62
     7
370
     0
100
AcDbLine
 10
213.0312191929
 20
126.880255352
 30
0.0
 11
202.9774287489
 21
126.880255352
 31
0.0
  0
DIMENSION
  5
167
330
1F
100
AcDbEntity
  8
VERMASSUNG
100
AcDbDimension
  2
_D
 10
95.4533185233
 20
61.170255352
 30
0.0
 11
95.4533185233
 21
111.170255352
 31
0.0
 70
   160
  1
HSK A 100 %%c<>
 71
     2
 42
-1.0
  3
SLDDIMSTYLE0
100
AcDbAlignedDimension
 13
153.0774287488
 23
161.170255352
 33
0.0
 14
153.0774287488
 24
61.170255352
 34
0.0
 50
90.0
100
AcDbRotatedDimension
  0
DIMENSION
  5
174
330
1F
100
AcDbEntity
  8
VERMASSUNG
100
AcDbDimension
  2
_D_1
 10
223.6477147993
 20
100.170255352
 30
0.0
 11
223.6477147993
 21
111.170255352
 31
0.0
 70
   160
  1
%%c<>
 71
     2
 42
-1.0
  3
SLDDIMSTYLE0
100
AcDbAlignedDimension
 13
202.9774287489
 23
122.170255352
 33
0.0
 14
202.9774287489
 24
100.170255352
 34
0.0
 50
90.0
100
AcDbRotatedDimension
  0
DIMENSION
  5
17F
330
1F
100
AcDbEntity
  8
VERMASSUNG
100
AcDbDimension
  2
_D_2
 10
229.7477147993
 20
91.670255352
 30
0.0
 11
229.7477147993
 21
111.170255352
 31
0.0
 70
   160
  1
ST4 %%c<>
 71
     2
 42
-1.0
  3
SLDDIMSTYLE0
100
AcDbAlignedDimension
 13
213.1774287488
 23
130.670255352
 33
0.0
 14
213.1774287488
 24
91.670255352
 34
0.0
 50
90.0
100
AcDbRotatedDimension
  0
DIMENSION
  5
18B
330
1F
100
AcDbEntity
  8
VERMASSUNG
100
AcDbDimension
  2
_D_3
 10
102.6774287488
 20
178.6288953016
 30
0.0
 11
158.1274287489
 21
178.6288953016
 31
0.0
 70
   160
  1
(<>)
 71
     2
 42
-1.0
  3
SLDDIMSTYLE0
100
AcDbAlignedDimension
 13
213.5774287488
 23
130.270255352
 33
0.0
 14
102.6774287488
 24
141.6729250946
 34
0.0
100
AcDbRotatedDimension
  0
DIMENSION
  5
197
330
1F
100
AcDbEntity
  8
VERMASSUNG
100
AcDbDimension
  2
_D_4
 10
213.5774287488
 20
172.6288953016
 30
0.0
 11
183.0774287488
 21
172.6288953016
 31
0.0
 70
   160
  1
<>
 71
     2
 42
-1.0
  3
SLDDIMSTYLE0
100
AcDbAlignedDimension
 13
152.5774287488
 23
160.670255352
 33
0.0
 14
213.5774287488
 24
130.270255352
 34
0.0
100
AcDbRotatedDimension
  0
DIMENSION
  5
1A1
330
1F
100
AcDbEntity
  8
VERMASSUNG
100
AcDbDimension
  2
_D_5
 10
213.5774287488
 20
166.6288953016
 30
0.0
 11
197.5524287488
 21
166.6288953016
 31
0.0
 70
   160
  1
(<>)
 71
     2
 42
-1.0
  3
SLDDIMSTYLE0
100
AcDbAlignedDimension
 13
181.5274287489
 23
159.1389951728
 33
0.0
 14
213.5774287488
 24
130.270255352
 34
0.0
100
AcDbRotatedDimension
  0
LINE
  5
1AD
330
1F
100
AcDbEntity
  8
VERMASSUNG
  6
CENTERX2
370
     0
100
AcDbLine
 10
100.742108825
 20
111.170255352
 30
0.0
 11
216.2140304124
 21
111.170255352
 31
0.0
  0
LINE
  5
1AE
330
1F
100
AcDbEntity
  8
0
  6
Continuous
 62
     7
370
    15
100
AcDbLine
 10
260.646295722
 20
44.2178425337
 30
0.0
 11
260.5119236032
 21
44.2954391217
 31
0.0
  0
LINE
  5
1AF
330
1F
100
AcDbEntity
  8
0
  6
Continuous
 62
     7
370
    15
100
AcDbLine
 10
257.9517811291
 20
44.2954391217
 30
0.0
 11
257.8174090103
 21
44.2178425337
 31
0.0
  0
LINE
  5
1B0
330
1F
100
AcDbEntity
  8
0
  6
Continuous
 62
     7
370
    15
100
AcDbLine
 10
261.2318523662
 20
43.1484394486
 30
0.0
 11
261.2318523662
 21
43.4015671003
 31
0.0
  0
LINE
  5
1B1
330
1F
100
AcDbEntity
  8
0
  6
Continuous
 62
     7
370
    15
100
AcDbLine
 10
257.2318523662
 20
43.4015671003
 30
0.0
 11
257.2318523662
 21
43.1484394486
 31
0.0
  0
LINE
  5
1B2
330
1F
100
AcDbEntity
  8
0
  6
Continuous
 62
     7
370
    15
100
AcDbLine
 10
228.8960996528
 20
24.2411626895
 30
0.0
 11
234.6370893488
 21
20.9269598828
 31
0.0
  0
LINE
  5
1B3
330
1F
100
AcDbEntity
  8
0
  6
Continuous
 62
     7
370
    15
100
AcDbLine
 10
256.0804617774
 20
66.281427529
 30
0.0
 11
253.8940679687
 21
67.5436058086
 31
0.0
  0
SPLINE
  5
1B4
330
1F
100
AcDbEntity
  8
0
  6
Continuous
 62
     7
370
    15
100
AcDbSpline
210
0.0
220
0.0
230
1.0
 70
     8
 71
     3
 72
    33
 73
    29
 74
     0
 42
0.000000001
 43
0.00000001
 40
0.0
 40
0.0
 40
0.0
 40
0.0
 40
0.0350645018880302
 40
0.0743532994380039
 40
0.1136623453921746
 40
0.1529811753053642
 40
0.1923017541406786
 40
0.2316190163855341
 40
0.2709307944836269
 40
0.3102361621566624
 40
0.3495350194477955
 40
0.3888277960613041
 40
0.4281152492780625
 40
0.4673983317555015
 40
0.5066781084083316
 40
0.5459557064944265
 40
0.585232287354462
 40
0.6245090315059368
 40
0.6637868152492767
 40
0.7030667575551887
 40
0.7423500595580719
 40
0.7816379123047885
 40
0.8209314739225602
 40
0.8602318281132179
 40
0.8995399133182197
 40
0.9388564077337809
 40
0.9781815501390791
 40
1.0
 40
1.0
 40
1.0
 40
1.0
 10
246.0070591175603
 20
68.30283590260726
 30
0.0
 10
245.6373842173498
 20
68.20138371842009
 30
0.0
 10
244.8534988897372
 20
67.98625718807337
 30
0.0
 10
243.632610161182
 20
67.51560364991161
 30
0.0
 10
242.3573284051275
 20
66.92562086348258
 30
0.0
 10
241.0768055086041
 20
66.2231892291236
 30
0.0
 10
239.7984541207734
 20
65.41578238215477
 30
0.0
 10
238.5287318426757
 20
64.50675570608394
 30
0.0
 10
237.2742378690533
 20
63.5012064594378
 30
0.0
 10
236.0413981265563
 20
62.40436345321638
 30
0.0
 10
234.8365353608791
 20
61.22199318613
 30
0.0
 10
233.6658223133318
 20
59.96026007498507
 30
0.0
 10
232.5352603732133
 20
58.62572865301179
 30
0.0
 10
231.4506498261531
 20
57.22532474113957
 30
0.0
 10
230.4175617924548
 20
55.76630440338365
 30
0.0
 10
229.4413100386506
 20
54.2562177286597
 30
0.0
 10
228.5269238374236
 20
52.7028711857231
 30
0.0
 10
227.6791245059619
 20
51.11429224087869
 30
0.0
 10
226.9022984555385
 20
49.49868525310726
 30
0.0
 10
226.2004751278591
 20
47.8643883724672
 30
0.0
 10
225.577301974348
 20
46.21982355794989
 30
0.0
 10
225.0360425775181
 20
44.57346423692859
 30
0.0
 10
224.579511479427
 20
42.93376317935238
 30
0.0
 10
224.2102516634124
 20
41.30922157645131
 30
0.0
 10
223.9298168193666
 20
39.70793071402353
 30
0.0
 10
223.7414079562536
 20
38.13908959315856
 30
0.0
 10
223.6550542105203
 20
36.83459156045262
 30
0.0
 10
223.6470479326827
 20
36.0642294925778
 30
0.0
 10
223.6441909763755
 20
35.7893338652568
 30
0.0
  0
SPLINE
  5
1B5
330
1F
100
AcDbEntity
  8
0
  6
Continuous
 62
     7
370
    15
100
AcDbSpline
210
0.0
220
0.0
230
1.0
 70
     8
 71
     3
 72
    12
 73
     8
 74
     0
 42
0.000000001
 43
0.00000001
 40
0.0
 40
0.0
 40
0.0
 40
0.0
 40
0.1427835992561617
 40
0.4140361711283786
 40
0.6853581518149655
 40
0.9566454168592116
 40
0.9999999999999999
 40
0.9999999999999999
 40
0.9999999999999999
 40
0.9999999999999999
 10
223.6441909763755
 20
35.7893338652568
 30
0.0
 10
223.6468155811108
 20
35.53149543758645
 30
0.0
 10
223.6544262681995
 20
34.7838294877257
 30
0.0
 10
223.7360541538617
 20
33.58671392241767
 30
0.0
 10
223.9292783342459
 20
32.23360048207178
 30
0.0
 10
224.1126691886284
 20
31.29053857512702
 30
0.0
 10
224.2576579482928
 20
30.82457067126172
 30
0.0
 10
224.2776359876782
 20
30.76036483104816
 30
0.0
  0
LINE
  5
1B6
330
1F
100
AcDbEntity
  8
0
  6
Continuous
 62
     7
370
    15
100
AcDbLine
 10
262.6447631016
 20
25.6652264184
 30
0.0
 11
262.7861614729
 21
25.7468804985
 31
0.0
  0
LINE
  5
1B7
330
1F
100
AcDbEntity
  8
0
  6
Continuous
 62
     7
370
    15
100
AcDbLine
 10
269.537933702
 20
37.4425602917
 30
0.0
 11
269.537933702
 21
37.6058419141
 31
0.0
  0
LINE
  5
1B8
330
1F
100
AcDbEntity
  8
0
  6
Continuous
 62
     7
370
    15
100
AcDbLine
 10
267.518246407
 20
42.0698287771
 30
0.0
 11
257.7424951571
 21
47.7132498501
 31
0.0
  0
LINE
  5
1B9
330
1F
100
AcDbEntity
  8
0
  6
Continuous
 62
     7
370
    15
100
AcDbLine
 10
247.9932875139
 20
30.8252970337
 30
0.0
 11
257.7690387638
 21
25.1818759607
 31
0.0
  0
SPLINE
  5
1BA
330
1F
100
AcDbEntity
  8
0
  6
Continuous
 62
     7
370
    15
100
AcDbSpline
210
0.0
220
0.0
230
1.0
 70
     8
 71
     3
 72
    20
 73
    16
 74
     0
 42
0.000000001
 43
0.00000001
 40
0.0
 40
0.0
 40
0.0
 40
0.0
 40
0.0129548587811767
 40
0.0963588865879663
 40
0.1798801679004262
 40
0.263411955984199
 40
0.3468541610713479
 40
0.4301260678953685
 40
0.5131544665495873
 40
0.5958872360299055
 40
0.6783354108281434
 40
0.7606606617915074
 40
0.8431653990876048
 40
0.9267084717147164
 40
1.0
 40
1.0
 40
1.0
 40
1.0
 10
259.2612096154515
 20
33.87761443315964
 30
0.0
 10
259.2760049914443
 20
33.91742695274984
 30
0.0
 10
259.3860537369685
 20
34.21355446172344
 30
0.0
 10
259.6436688120664
 20
34.7628505511674
 30
0.0
 10
260.0583922991351
 20
35.50197317166403
 30
0.0
 10
260.5360192838256
 20
36.19788577095012
 30
0.0
 10
261.0601577708475
 20
36.83359247686994
 30
0.0
 10
261.6185640266089
 20
37.39379927814701
 30
0.0
 10
262.1963045471607
 20
37.86543167670687
 30
0.0
 10
262.7780642985178
 20
38.23819344258323
 30
0.0
 10
263.3479762226128
 20
38.50477499173175
 30
0.0
 10
263.8911699253732
 20
38.66265882314341
 30
0.0
 10
264.3925178921983
 20
38.70931071647011
 30
0.0
 10
264.8278532859528
 20
38.6630962646855
 30
0.0
 10
265.0654750064762
 20
38.55419900564063
 30
0.0
 10
265.1765197564844
 20
38.50330942837231
 30
0.0
  0
LINE
  5
1BB
330
1F
100
AcDbEntity
  8
0
  6
Continuous
 62
     7
370
    15
100
AcDbLine
 10
242.0943084924
 20
66.7631886334
 30
0.0
 11
232.8267111054
 21
71.380561259
 31
0.0
  0
LINE
  5
1BC
330
1F
100
AcDbEntity
  8
0
  6
Continuous
 62
     7
370
    15
100
AcDbLine
 10
215.0379883501
 20
40.5662508502
 30
0.0
 11
223.6682039759
 21
34.8516805072
 31
0.0
  0
SPLINE
  5
1BD
330
1F
100
AcDbEntity
  8
0
  6
Continuous
 62
     7
370
    15
100
AcDbSpline
210
0.0
220
0.0
230
1.0
 70
     8
 71
     3
 72
    21
 73
    17
 74
     0
 42
0.000000001
 43
0.00000001
 40
0.0
 40
0.0
 40
0.0
 40
0.0
 40
0.0311034097277931
 40
0.1059358832092937
 40
0.1810498295572137
 40
0.2564359968789116
 40
0.332051746979076
 40
0.4078395459113759
 40
0.4837419374769381
 40
0.5597102577492186
 40
0.6357077475838817
 40
0.711704991181472
 40
0.7876867198829843
 40
0.8636460349444014
 40
0.9395803766229297
 40
0.9999999999999999
 40
0.9999999999999999
 40
0.9999999999999999
 40
0.9999999999999999
 10
241.6587006809289
 20
17.57432900724705
 30
0.0
 10
241.8086982163725
 20
17.54591453480041
 30
0.0
 10
242.3195785840078
 20
17.44913697051072
 30
0.0
 10
243.2396865113427
 20
17.40912046966103
 30
0.0
 10
244.4115538440835
 20
17.45179584521094
 30
0.0
 10
245.6216039341115
 20
17.62108002386982
 30
0.0
 10
246.8598922114404
 20
17.9072041979988
 30
0.0
 10
248.1206533691212
 20
18.31127559227665
 30
0.0
 10
249.3967243899502
 20
18.83044550433671
 30
0.0
 10
250.6812342442614
 20
19.46199312962947
 30
0.0
 10
251.9672975626709
 20
20.20223207723416
 30
0.0
 10
253.2480428692707
 20
21.04723796348201
 30
0.0
 10
254.5171875817726
 20
21.99152131647644
 30
0.0
 10
255.7669077922158
 20
23.03303080199224
 30
0.0
 10
256.9123142632636
 20
24.07854296144219
 30
0.0
 10
257.623584189942
 20
24.81303343432731
 30
0.0
 10
257.9387540573662
 20
25.13849252697393
 30
0.0
  0
SPLINE
  5
1BE
330
1F
100
AcDbEntity
  8
0
  6
Continuous
 62
     7
370
    15
100
AcDbSpline
210
0.0
220
0.0
230
1.0
 70
     8
 71
     3
 72
    11
 73
     7
 74
     0
 42
0.000000001
 43
0.00000001
 40
0.0
 40
0.0
 40
0.0
 40
0.0
 40
0.0622017108441326
 40
0.462073061260924
 40
0.8620916125362516
 40
1.0
 40
1.0
 40
1.0
 40
1.0
 10
267.6333205612919
 20
41.91478426094795
 30
0.0
 10
267.6599448553472
 20
42.00011208738532
 30
0.0
 10
267.8577266991443
 20
42.63398034338002
 30
0.0
 10
268.1421931471498
 20
43.80812268887815
 30
0.0
 10
268.4156693336027
 20
45.07598783829076
 30
0.0
 10
268.5295477112597
 20
45.79085275604498
 30
0.0
 10
268.558742723256
 20
45.97412275232548
 30
0.0
  0
LINE
  5
1BF
330
1F
100
AcDbEntity
  8
0
  6
Continuous
 62
     7
370
    15
100
AcDbLine
 10
236.9436921899
 20
19.595386406
 30
0.0
 11
238.6011402246
 21
18.6385620222
 31
0.0
  0
LINE
  5
1C0
330
1F
100
AcDbEntity
  8
0
  6
Continuous
 62
     7
370
    15
100
AcDbLine
 10
259.186423855
 20
29.505188527
 30
0.0
 11
259.123013365
 21
29.5887539719
 31
0.0
  0
SPLINE
  5
1C1
330
1F
100
AcDbEntity
  8
0
  6
Continuous
 62
     7
370
    15
100
AcDbSpline
210
0.0
220
0.0
230
1.0
 70
     8
 71
     3
 72
    10
 73
     6
 74
     0
 42
0.000000001
 43
0.00000001
 40
0.0
 40
0.0
 40
0.0
 40
0.0
 40
0.0881150440523108
 40
0.7080874652526278
 40
1.0
 40
1.0
 40
1.0
 40
1.0
 10
259.8279280250297
 20
28.91167152282619
 30
0.0
 10
259.8079205811502
 20
28.91926569318338
 30
0.0
 10
259.6471419039655
 20
28.9802920127722
 30
0.0
 10
259.4588101761012
 20
29.13240908606038
 30
0.0
 10
259.3183307251495
 20
29.32800505765341
 30
0.0
 10
259.273360455227
 20
29.39061922348835
 30
0.0
  0
SPLINE
  5
1C2
330
1F
100
AcDbEntity
  8
0
  6
Continuous
 62
     7
370
    15
100
AcDbSpline
210
0.0
220
0.0
230
1.0
 70
     8
 71
     3
 72
    15
 73
    11
 74
     0
 42
0.000000001
 43
0.00000001
 40
0.0
 40
0.0
 40
0.0
 40
0.0
 40
0.0796769712005167
 40
0.2305222579164442
 40
0.3812467420259952
 40
0.5316619253520234
 40
0.6816400113109761
 40
0.8310722470540607
 40
0.9799075002319111
 40
1.0
 40
1.0
 40
1.0
 40
1.0
 10
268.5752837615715
 20
54.1326752025238
 30
0.0
 10
268.5278052684872
 20
54.36256449757038
 30
0.0
 10
268.3904399888667
 20
55.02768264358509
 30
0.0
 10
268.0925030225249
 20
56.07166063200697
 30
0.0
 10
267.6530604684745
 20
57.23248952453408
 30
0.0
 10
267.1238523877682
 20
58.30356067794123
 30
0.0
 10
266.5104880443491
 20
59.28088853341941
 30
0.0
 10
265.8132118679604
 20
60.1538161149082
 30
0.0
 10
265.2679589772304
 20
60.71086551030159
 30
0.0
 10
264.9551008168769
 20
60.97239052170375
 30
0.0
 10
264.9178890360728
 20
61.00349666701918
 30
0.0
  0
SPLINE
  5
1C3
330
1F
100
AcDbEntity
  8
0
  6
Continuous
 62
     7
370
    15
100
AcDbSpline
210
0.0
220
0.0
230
1.0
 70
     8
 71
     3
 72
    29
 73
    25
 74
     0
 42
0.000000001
 43
0.00000001
 40
0.0
 40
0.0
 40
0.0
 40
0.0
 40
0.0245943093492684
 40
0.0700242228627588
 40
0.1156603136040822
 40
0.1616983604565991
 40
0.2082372481453445
 40
0.2552723025547502
 40
0.302719820832385
 40
0.3504588029345438
 40
0.3983697139883124
 40
0.4463572707085011
 40
0.4943469488474323
 40
0.5423028168703173
 40
0.5902116016338048
 40
0.6380710571555218
 40
0.6858855246897496
 40
0.733663066457571
 40
0.7814137450109057
 40
0.8291486558580391
 40
0.8768794220099433
 40
0.9246168261206701
 40
0.9723700785497368
 40
1.0
 40
1.0
 40
1.0
 40
1.0
 10
232.6838771821942
 20
71.43184985268255
 30
0.0
 10
232.5336357111935
 20
71.50534072894851
 30
0.0
 10
232.1058724388371
 20
71.71458187595316
 30
0.0
 10
231.3379410694215
 20
71.93223400312847
 30
0.0
 10
230.3943604963024
 20
72.09205309116876
 30
0.0
 10
229.4048303921789
 20
72.12725616825854
 30
0.0
 10
228.3782977181523
 20
72.04416348468988
 30
0.0
 10
227.3201889520635
 20
71.84030228278351
 30
0.0
 10
226.2385108174983
 20
71.5167924326487
 30
0.0
 10
225.1418424152769
 20
71.07557377853837
 30
0.0
 10
224.0391906730732
 20
70.52027824142843
 30
0.0
 10
222.939456595153
 20
69.85577572935878
 30
0.0
 10
221.8511213175863
 20
69.08788671916503
 30
0.0
 10
220.7821571689393
 20
68.2230815825465
 30
0.0
 10
219.7400236571446
 20
67.26825557950356
 30
0.0
 10
218.7318404266798
 20
66.23072162478516
 30
0.0
 10
217.7644498686669
 20
65.11821615297598
 30
0.0
 10
216.8444597072996
 20
63.93887536653296
 30
0.0
 10
215.9780770647836
 20
62.70121672403501
 30
0.0
 10
215.1716290614352
 20
61.41406306826064
 30
0.0
 10
214.4294772101394
 20
60.08664115616394
 30
0.0
 10
213.7616591543969
 20
58.72802904397927
 30
0.0
 10
213.2404954103699
 20
57.5429448686554
 30
0.0
 10
212.9764370225092
 20
56.8113647773424
 30
0.0
 10
212.8796526588453
 20
56.54322137852622
 30
0.0
  0
LINE
  5
1C4
330
1F
100
AcDbEntity
  8
0
  6
Continuous
 62
     7
370
    15
100
AcDbLine
 10
213.262698865
 20
54.222072727
 30
0.0
 11
217.0538646063
 21
52.0334793301
 31
0.0
  0
LINE
  5
1C5
330
1F
100
AcDbEntity
  8
0
  6
Continuous
 62
     7
370
    15
100
AcDbLine
 10
212.7572591727
 20
55.9892696658
 30
0.0
 11
212.7572591727
 21
55.3392140548
 31
0.0
  0
LINE
  5
1C6
330
1F
100
AcDbEntity
  8
0
  6
Continuous
 62
     7
370
    15
100
AcDbLine
 10
217.1531962805
 20
40.106515822
 30
0.0
 11
217.147529058
 21
40.1482690328
 31
0.0
  0
LINE
  5
1C7
330
1F
100
AcDbEntity
  8
0
  6
Continuous
 62
     7
370
    15
100
AcDbLine
 10
212.7572591727
 20
43.8309769768
 30
0.0
 11
212.7572591727
 21
43.1809213658
 31
0.0
  0
SPLINE
  5
1C8
330
1F
100
AcDbEntity
  8
0
  6
Continuous
 62
     7
370
    15
100
AcDbSpline
210
0.0
220
0.0
230
1.0
 70
     8
 71
     3
 72
    11
 73
     7
 74
     0
 42
0.000000001
 43
0.00000001
 40
0.0
 40
0.0
 40
0.0
 40
0.0
 40
0.2680284835789637
 40
0.5823136371406024
 40
0.8929237548286213
 40
1.0
 40
1.0
 40
1.0
 40
1.0
 10
212.8885492487236
 20
42.8503194246878
 30
0.0
 10
213.0403805002837
 20
42.60965976846315
 30
0.0
 10
213.3702462188335
 20
42.0868071303483
 30
0.0
 10
213.9882878159929
 20
41.40586055556576
 30
0.0
 10
214.5379511621971
 20
40.89862135290736
 30
0.0
 10
214.895234014019
 20
40.6755774171235
 30
0.0
 10
214.9868254798626
 20
40.61839885139661
 30
0.0
  0
SPLINE
  5
1C9
330
1F
100
AcDbEntity
  8
0
  6
Continuous
 62
     7
370
    15
100
AcDbSpline
210
0.0
220
0.0
230
1.0
 70
     8
 71
     3
 72
     9
 73
     5
 74
     0
 42
0.000000001
 43
0.00000001
 40
0.0
 40
0.0
 40
0.0
 40
0.0
 40
0.0392329985122251
 40
1.0
 40
1.0
 40
1.0
 40
1.0
 10
212.7991109609952
 20
42.98536042501436
 30
0.0
 10
212.8001332852668
 20
42.98345122342815
 30
0.0
 10
212.8261910506774
 20
42.93478806591768
 30
0.0
 10
212.857994012477
 20
42.89170867853214
 30
0.0
 10
212.8885492487236
 20
42.8503194246878
 30
0.0
  0
LWPOLYLINE
  5
1CA
330
1F
100
AcDbEntity
  8
0
  6
Continuous
 62
     7
370
    15
100
AcDbPolyline
 90
       23
 70
   128
 43
0.0
 10
258.1498300793
 20
44.3943397574
 10
258.6024464153
 20
44.5363907697
 10
259.1060534782
 20
44.5990738606
 10
259.6198520189
 20
44.5773108189
 10
260.1022171352
 20
44.4728647569
 10
260.5140704742
 20
44.2941972732
 10
260.8220461277
 20
44.0557829449
 10
261.0011937399
 20
43.7769366829
 10
261.0369998367
 20
43.4802489531
 10
260.926563621
 20
43.1897556307
 10
260.6788319784
 20
42.9289907572
 10
260.313874653
 20
42.7190799518
 10
259.861258317
 20
42.5770289395
 10
259.3576512541
 20
42.5143458486
 10
258.8438527135
 20
42.5361088903
 10
258.3614875972
 20
42.6405549523
 10
257.9496342582
 20
42.819222436
 10
257.6416586047
 20
43.0576367643
 10
257.4625109925
 20
43.3364830262
 10
257.4267048957
 20
43.6331707561
 10
257.5371411113
 20
43.9236640785
 10
257.784872754
 20
44.184428952
 10
258.1498300793
 20
44.3943397574
  0
LWPOLYLINE
  5
1CB
330
1F
100
AcDbEntity
  8
0
  6
Continuous
 62
     7
370
    15
100
AcDbPolyline
 90
       19
 70
   128
 43
0.0
 10
260.646295722
 20
44.2178425337
 10
260.9129927207
 20
44.0270036844
 10
261.1429507358
 20
43.7419725826
 10
261.2311713275
 20
43.4316951634
 10
261.1711115782
 20
43.1191832836
 10
260.9672258446
 20
42.8276145197
 10
260.6346353989
 20
42.578613193
 10
260.198006953
 20
42.3906465929
 10
259.6897232413
 20
42.2776553421
 10
259.1474813413
 20
42.2480194849
 10
258.6114968543
 20
42.3039369772
 10
258.1215212977
 20
42.4412606744
 10
257.713893917
 20
42.6498059062
 10
257.4188465703
 20
42.9141058266
 10
257.2582615695
 20
43.2145585197
 10
257.2440487695
 20
43.5288807837
 10
257.3772622687
 20
43.8337607742
 10
257.6480222312
 20
44.1065869371
 10
257.8174090103
 20
44.2178425337
  0
LWPOLYLINE
  5
1CC
330
1F
100
AcDbEntity
  8
0
  6
Continuous
 62
     7
370
    15
100
AcDbPolyline
 90
       19
 70
   128
 43
0.0
 10
258.5144895241
 20
44.1120445968
 10
258.8867656737
 20
44.2201928216
 10
259.3006643714
 20
44.2483152086
 10
259.7062633257
 20
44.1930197829
 10
260.0546413167
 20
44.0609759889
 10
260.3037788172
 20
43.8681102569
 10
260.4236261678
 20
43.6376850407
 10
260.3997280092
 20
43.3974930219
 10
260.234966812
 20
43.176504903
 10
259.9492152083
 20
43.0013751124
 10
259.5769390586
 20
42.8932268876
 10
259.163040361
 20
42.8651045006
 10
258.7574414067
 20
42.9203999263
 10
258.4090634156
 20
43.0524437203
 10
258.1599259151
 20
43.2453094523
 10
258.0400785645
 20
43.4757346685
 10
258.0639767232
 20
43.7159266873
 10
258.2287379203
 20
43.9369148062
 10
258.5144895241
 20
44.1120445968
  0
SPLINE
  5
1CD
330
1F
100
AcDbEntity
  8
0
  6
Continuous
 62
     7
370
    15
100
AcDbSpline
210
0.0
220
0.0
230
1.0
 70
     8
 71
     3
 72
    11
 73
     7
 74
     0
 42
0.000000001
 43
0.00000001
 40
0.0
 40
0.0
 40
0.0
 40
0.0
 40
0.1285561766307353
 40
0.480153579784221
 40
0.8150691831753851
 40
1.0
 40
1.0
 40
1.0
 40
1.0
 10
258.1712208974311
 20
43.78325408214135
 30
0.0
 10
258.2084998810939
 20
43.78130582650204
 30
0.0
 10
258.3477358005613
 20
43.77402914836747
 30
0.0
 10
258.6088343341516
 20
43.82163543529344
 30
0.0
 10
258.8915489701433
 20
43.99625608536638
 30
0.0
 10
259.0430012679132
 20
44.13307402653083
 30
0.0
 10
259.096879098071
 20
44.181745812335
 30
0.0
  0
SPLINE
  5
1CE
330
1F
100
AcDbEntity
  8
0
  6
Continuous
 62
     7
370
    15
100
AcDbSpline
210
0.0
220
0.0
230
1.0
 70
     8
 71
     3
 72
    10
 73
     6
 74
     0
 42
0.000000001
 43
0.00000001
 40
0.0
 40
0.0
 40
0.0
 40
0.0
 40
0.4391222274230446
 40
0.7513714712594711
 40
1.0
 40
1.0
 40
1.0
 40
1.0
 10
258.3061941655333
 20
43.12122926522151
 30
0.0
 10
258.2868714295975
 20
43.16007933936341
 30
0.0
 10
258.2538087613422
 20
43.22655476589293
 30
0.0
 10
258.2057467295344
 20
43.50482883207376
 30
0.0
 10
258.1818250234588
 20
43.69773966406227
 30
0.0
 10
258.1712208974311
 20
43.78325408214135
 30
0.0
  0
LINE
  5
1CF
330
1F
100
AcDbEntity
  8
0
  6
Continuous
 62
     7
370
    15
100
AcDbLine
 10
258.4706782306
 20
43.0220092955
 30
0.0
 11
258.3061941655
 21
43.1212292652
 31
0.0
  0
SPLINE
  5
1D0
330
1F
100
AcDbEntity
  8
0
  6
Continuous
 62
     7
370
    15
100
AcDbSpline
210
0.0
220
0.0
230
1.0
 70
     8
 71
     3
 72
     9
 73
     5
 74
     0
 42
0.000000001
 43
0.00000001
 40
0.0
 40
0.0
 40
0.0
 40
0.0
 40
0.490742551508816
 40
1.0
 40
1.0
 40
1.0
 40
1.0
 10
260.2924838349152
 20
43.25618790868893
 30
0.0
 10
260.2388511794741
 20
43.2059458120297
 30
0.0
 10
260.1295623980626
 20
43.10356606830303
 30
0.0
 10
260.0081828115359
 20
43.03790517125358
 30
0.0
 10
259.9463693530025
 20
43.00446687035654
 30
0.0
  0
SPLINE
  5
1D1
330
1F
100
AcDbEntity
  8
0
  6
Continuous
 62
     7
370
    15
100
AcDbSpline
210
0.0
220
0.0
230
1.0
 70
     8
 71
     3
 72
    10
 73
     6
 74
     0
 42
0.000000001
 43
0.00000001
 40
0.0
 40
0.0
 40
0.0
 40
0.0
 40
0.4391222274230451
 40
0.7513714712594677
 40
1.0
 40
1.0
 40
1.0
 40
1.0
 10
260.157510566813
 20
43.9182127256088
 30
0.0
 10
260.1768333027488
 20
43.76751221836346
 30
0.0
 10
260.209895971004
 20
43.50965220860499
 30
0.0
 10
260.2579580028119
 20
43.31645131895515
 30
0.0
 10
260.2818797088875
 20
43.27469697156712
 30
0.0
 10
260.2924838349152
 20
43.25618790868893
 30
0.0
  0
SPLINE
  5
1D2
330
1F
100
AcDbEntity
  8
0
  6
Continuous
 62
     7
370
    15
100
AcDbSpline
210
0.0
220
0.0
230
1.0
 70
     8
 71
     3
 72
    10
 73
     6
 74
     0
 42
0.000000001
 43
0.00000001
 40
0.0
 40
0.0
 40
0.0
 40
0.0
 40
0.4391222274230371
 40
0.7513714712594688
 40
1.0
 40
1.0
 40
1.0
 40
1.0
 10
259.096879098071
 20
44.181745812335
 30
0.0
 10
259.2487188073987
 20
44.088093271575
 30
0.0
 10
259.5085280784134
 20
43.92784666381168
 30
0.0
 10
259.8862036293123
 20
43.8765429252128
 30
0.0
 10
260.0741824387946
 20
43.90541442972338
 30
0.0
 10
260.157510566813
 20
43.9182127256088
 30
0.0
  0
LINE
  5
1D3
330
1F
100
AcDbEntity
  8
0
  6
Continuous
 62
     7
370
    15
100
AcDbLine
 10
260.1575105668
 20
43.139281209
 30
0.0
 11
260.1575105668
 21
43.9182127256
 31
0.0
  0
LINE
  5
1D4
330
1F
100
AcDbEntity
  8
0
  6
Continuous
 62
     7
370
    15
100
AcDbLine
 10
259.0968790981
 20
42.8683605907
 30
0.0
 11
259.0968790981
 21
44.1817458123
 31
0.0
  0
SPLINE
  5
1D5
330
1F
100
AcDbEntity
  8
0
  6
Continuous
 62
     7
370
    15
100
AcDbSpline
210
0.0
220
0.0
230
1.0
 70
     8
 71
     3
 72
    14
 73
    10
 74
     0
 42
0.000000001
 43
0.00000001
 40
0.0
 40
0.0
 40
0.0
 40
0.0
 40
0.25
 40
0.25
 40
0.5
 40
0.5
 40
0.75
 40
0.75
 40
1.0
 40
1.0
 40
1.0
 40
1.0
 10
234.571734756987
 20
34.83091775975284
 30
0.0
 10
234.5245616497546
 20
34.80368530460671
 30
0.0
 10
234.4689975850558
 20
34.78194094646577
 30
0.0
 10
234.3470721129368
 20
34.75169551905974
 30
0.0
 10
234.280975592061
 20
34.74339648894944
 30
0.0
 10
234.1487836629242
 20
34.74196387316967
 30
0.0
 10
234.0818485113935
 20
34.74891384735129
 30
0.0
 10
233.9592380197232
 20
34.7771232009607
 30
0.0
 10
233.9023025649195
 20
34.79869904526836
 30
0.0
 10
233.8555600215473
 20
34.82568294118875
 30
0.0
  0
SPLINE
  5
1D6
330
1F
100
AcDbEntity
  8
0
  6
Continuous
 62
     7
370
    15
100
AcDbSpline
210
0.0
220
0.0
230
1.0
 70
     8
 71
     3
 72
    12
 73
     8
 74
     0
 42
0.000000001
 43
0.00000001
 40
0.0
 40
0.0
 40
0.0
 40
0.0
 40
0.2500000000000016
 40
0.2500000000000016
 40
0.5000000000000032
 40
0.5000000000000032
 40
1.0
 40
1.0
 40
1.0
 40
1.0
 10
262.184023177627
 20
62.59090753634304
 30
0.0
 10
262.2377951965751
 20
62.55986561055031
 30
0.0
 10
262.2902834716933
 20
62.51089098129349
 30
0.0
 10
262.3812893986318
 20
62.39416010644398
 30
0.0
 10
262.4198637521611
 20
62.32670864111084
 30
0.0
 10
262.5096873414574
 20
62.12239141410394
 30
0.0
 10
262.5375765682203
 20
61.98202858490654
 30
0.0
 10
262.5375765682203
 20
61.85921185985185
 30
0.0
  0
LINE
  5
1D7
330
1F
100
AcDbEntity
  8
0
  6
Continuous
 62
     7
370
    15
100
AcDbLine
 10
233.8555600215
 20
34.8256829412
 30
0.0
 11
232.1981119869
 21
35.782507325
 31
0.0
  0
LWPOLYLINE
  5
1D8
330
1F
100
AcDbEntity
  8
0
  6
Continuous
 62
     7
370
    15
100
AcDbPolyline
 90
       27
 70
   128
 43
0.0
 10
232.1981119869
 20
35.782507325
 10
232.5533192384
 20
37.5245875201
 10
233.011095473
 20
39.2892715271
 10
233.5686606179
 20
41.0658424288
 10
234.2226285827
 20
42.8435111186
 10
234.9690278231
 20
44.6114818235
 10
235.8033254602
 20
46.3590176658
 10
236.7204548085
 20
48.0755058691
 10
237.7148461461
 20
49.7505222087
 10
238.780460539
 20
51.3738943188
 10
239.9108265165
 20
52.9357634684
 10
241.0990793713
 20
54.4266444338
 10
242.3380028498
 20
55.8374831022
 10
243.6200729756
 20
57.1597114572
 10
244.9375037433
 20
58.3852996126
 10
246.2822944021
 20
59.5068045774
 10
247.6462780451
 20
60.5174154576
 10
249.0211712062
 20
61.4109948181
 10
250.3986241659
 20
62.1821159558
 10
251.7702716592
 20
62.8260958559
 10
253.1277836775
 20
63.3390236317
 10
254.4629160571
 20
63.7177842751
 10
255.7675605455
 20
63.9600775747
 10
257.0337940431
 20
64.0644320845
 10
258.25392672
 20
64.03021406
 10
259.4205487165
 20
63.8576313072
 10
260.526575143
 20
63.5477319202
  0
LINE
  5
1D9
330
1F
100
AcDbEntity
  8
0
  6
Continuous
 62
     7
370
    15
100
AcDbLine
 10
260.526575143
 20
63.5477319202
 30
0.0
 11
262.1840231776
 21
62.5909075363
 31
0.0
  0
LINE
  5
1DA
330
1F
100
AcDbEntity
  8
0
  6
Continuous
 62
     7
370
    15
100
AcDbLine
 10
266.9746716202
 20
53.1284646404
 30
0.0
 11
268.4131883793
 21
53.9589026891
 31
0.0
  0
LINE
  5
1DB
330
1F
100
AcDbEntity
  8
0
  6
Continuous
 62
     7
370
    15
100
AcDbLine
 10
266.9746716202
 20
44.9630565215
 30
0.0
 11
266.9746716202
 21
53.1284646404
 31
0.0
  0
LINE
  5
1DC
330
1F
100
AcDbEntity
  8
0
  6
Continuous
 62
     7
370
    15
100
AcDbLine
 10
268.4131883793
 20
45.7934945702
 30
0.0
 11
266.9746716202
 21
44.9630565215
 31
0.0
  0
LINE
  5
1DD
330
1F
100
AcDbEntity
  8
0
  6
Continuous
 62
     7
370
    15
100
AcDbLine
 10
234.571734757
 20
25.848968829
 30
0.0
 11
235.9326839261
 21
26.6346280611
 31
0.0
  0
LINE
  5
1DE
330
1F
100
AcDbEntity
  8
0
  6
Continuous
 62
     7
370
    15
100
AcDbLine
 10
235.9326839261
 20
26.6346280611
 30
0.0
 11
235.9326839261
 21
35.6165769918
 31
0.0
  0
LINE
  5
1DF
330
1F
100
AcDbEntity
  8
0
  6
Continuous
 62
     7
370
    15
100
AcDbLine
 10
235.9326839261
 20
35.6165769918
 30
0.0
 11
234.571734757
 21
34.8309177598
 31
0.0
  0
LINE
  5
1E0
330
1F
100
AcDbEntity
  8
0
  6
Continuous
 62
     7
370
    15
100
AcDbLine
 10
262.5375765682
 20
61.8592118599
 30
0.0
 11
262.5375765682
 21
59.2835573564
 31
0.0
  0
LINE
  5
1E1
330
1F
100
AcDbEntity
  8
0
  6
Continuous
 62
     7
370
    15
100
AcDbLine
 10
264.7680379718
 20
60.571175317
 30
0.0
 11
262.5375765682
 21
59.2835573564
 31
0.0
  0
LWPOLYLINE
  5
1E2
330
1F
100
AcDbEntity
  8
0
  6
Continuous
 62
     7
370
    15
100
AcDbPolyline
 90
       25
 70
   128
 43
0.0
 10
231.2193263959
 20
37.3287096542
 10
231.5777345015
 20
39.016961789
 10
232.0363479816
 20
40.7257423744
 10
232.5923011263
 20
42.4443738583
 10
233.2421199856
 20
44.162117134
 10
233.9817440763
 20
45.8682386448
 10
234.8065517549
 20
47.5520774544
 10
235.7113890963
 20
49.2031118627
 10
236.6906020994
 20
50.8110251527
 10
237.7380720159
 20
52.3657700556
 10
238.8472535852
 20
53.8576315328
 10
240.0112159326
 20
55.2772874812
 10
241.2226858784
 20
56.615866984
 10
242.4740933848
 20
57.8650057421
 10
243.7576188588
 20
59.0168983389
 10
245.0652420137
 20
60.064347014
 10
246.3887919854
 20
61.0008066395
 10
247.7199983885
 20
61.8204256176
 10
249.0505429956
 20
62.5180824458
 10
250.3721117145
 20
63.0894177189
 10
251.6764465401
 20
63.5308613691
 10
252.9553971557
 20
63.8396549749
 10
254.2009718614
 20
64.0138689965
 10
255.405387511
 20
64.0524148337
 10
256.1506286818
 20
64.0057892799
  0
SPLINE
  5
1E3
330
1F
100
AcDbEntity
  8
0
  6
Continuous
 62
     7
370
    15
100
AcDbSpline
210
0.0
220
0.0
230
1.0
 70
     8
 71
     3
 72
     8
 73
     4
 74
     0
 42
0.000000001
 43
0.00000001
 40
0.0
 40
0.0
 40
0.0
 40
0.0
 40
1.0
 40
1.0
 40
1.0
 40
1.0
 10
231.2193263958838
 20
37.32870965419244
 30
0.0
 10
230.7767900420384
 20
37.2570231237632
 30
0.0
 10
230.3341808519868
 20
37.18548695816142
 30
0.0
 10
229.8915091457704
 20
37.11408080185672
 30
0.0
  0
LWPOLYLINE
  5
1E4
330
1F
100
AcDbEntity
  8
0
  6
Continuous
 62
     7
370
    15
100
AcDbPolyline
 90
       27
 70
   128
 43
0.0
 10
229.8915091458
 20
37.1140808019
 10
230.2467163973
 20
38.8561609969
 10
230.7044926319
 20
40.620845004
 10
231.2620577768
 20
42.3974159056
 10
231.9160257416
 20
44.1750845955
 10
232.662424982
 20
45.9430553003
 10
233.4967226191
 20
47.6905911427
 10
234.4138519674
 20
49.4070793459
 10
235.4082433049
 20
51.0820956856
 10
236.4738576979
 20
52.7054677957
 10
237.6042236753
 20
54.2673369452
 10
238.7924765302
 20
55.7582179106
 10
240.0314000086
 20
57.169056579
 10
241.3134701345
 20
58.4912849341
 10
242.6309009022
 20
59.7168730894
 10
243.975691561
 20
60.8383780543
 10
245.339675204
 20
61.8489889344
 10
246.714568365
 20
62.7425682949
 10
248.0920213248
 20
63.5136894326
 10
249.4636688181
 20
64.1576693328
 10
250.8211808364
 20
64.6705971085
 10
252.156313216
 20
65.0493577519
 10
253.4609577044
 20
65.2916510516
 10
254.7271912019
 20
65.3960055614
 10
255.9473238789
 20
65.3617875369
 10
257.1139458754
 20
65.189204784
 10
258.2199723019
 20
64.879305397
  0
LINE
  5
1E5
330
1F
100
AcDbEntity
  8
0
  6
Continuous
 62
     7
370
    15
100
AcDbLine
 10
258.2199723019
 20
64.879305397
 30
0.0
 11
258.5159072285
 21
63.9361630864
 31
0.0
  0
LINE
  5
1E6
330
1F
100
AcDbEntity
  8
0
  6
Continuous
 62
     7
370
    15
100
AcDbLine
 10
254.052295194
 20
67.2852541793
 30
0.0
 11
258.2199723019
 21
64.879305397
 31
0.0
  0
LINE
  5
1E7
330
1F
100
AcDbEntity
  8
0
  6
Continuous
 62
     7
370
    15
100
AcDbLine
 10
229.8915091458
 20
37.1140808019
 30
0.0
 11
229.2593659438
 21
37.4790093046
 31
0.0
  0
SPLINE
  5
1E8
330
1F
100
AcDbEntity
  8
0
  6
Continuous
 62
     7
370
    15
100
AcDbSpline
210
0.0
220
0.0
230
1.0
 70
     8
 71
     3
 72
    30
 73
    26
 74
     0
 42
0.000000001
 43
0.00000001
 40
0.0
 40
0.0
 40
0.0
 40
0.0
 40
0.1250000000000006
 40
0.1250000000000006
 40
0.187500000000001
 40
0.187500000000001
 40
0.2500000000000013
 40
0.2500000000000013
 40
0.3750000000000014
 40
0.3750000000000014
 40
0.4375000000000014
 40
0.4375000000000014
 40
0.5000000000000013
 40
0.5000000000000013
 40
0.625000000000001
 40
0.625000000000001
 40
0.6875000000000009
 40
0.6875000000000009
 40
0.7500000000000007
 40
0.7500000000000007
 40
0.8125000000000006
 40
0.8125000000000006
 40
0.8750000000000004
 40
0.8750000000000004
 40
1.0
 40
1.0
 40
1.0
 40
1.0
 10
229.2593659438348
 20
37.47900930461257
 30
0.0
 10
229.0250503102281
 20
37.61427684064319
 30
0.0
 10
228.7895498336994
 20
37.71753936957256
 30
0.0
 10
228.4349993863097
 20
37.82678210733633
 30
0.0
 10
228.3166051229107
 20
37.85553506933303
 30
0.0
 10
228.0795504778605
 20
37.89748823398273
 30
0.0
 10
227.9607305666246
 20
37.91059336888483
 30
0.0
 10
227.6120866826484
 20
37.92584475789916
 30
0.0
 10
227.3873218400065
 20
37.90476599645714
 30
0.0
 10
227.0631111924027
 20
37.82776294458146
 30
0.0
 10
226.9566951164915
 20
37.79425433954824
 30
0.0
 10
226.751385886519
 20
37.71271599342462
 30
0.0
 10
226.6527911560113
 20
37.66491038832329
 30
0.0
 10
226.3692931622123
 20
37.50124317877038
 30
0.0
 10
226.1965501885422
 20
37.36533108229379
 30
0.0
 10
225.9644253900461
 20
37.12095994538871
 30
0.0
 10
225.8921114042201
 20
37.03314286018106
 30
0.0
 10
225.7597930901504
 20
36.84776229124079
 30
0.0
 10
225.6994391514297
 20
36.74984129120046
 30
0.0
 10
225.5904760172866
 20
36.54375344049622
 30
0.0
 10
225.5418661921885
 20
36.43558663365197
 30
0.0
 10
225.4568303762938
 20
36.20889692014521
 30
0.0
 10
225.4202794971188
 20
36.08975649242244
 30
0.0
 10
225.3312852200259
 20
35.72177216396831
 30
0.0
 10
225.2989486630458
 20
35.46254703867163
 30
0.0
 10
225.2942627567489
 20
35.18934045724149
 30
0.0
  0
ARC
  5
1E9
330
1F
100
AcDbEntity
  8
0
  6
Continuous
 62
     7
370
    15
100
AcDbCircle
 10
248.8623278327
 20
34.7810700513
 30
0.0
 40
23.57160105191437
100
AcDbArc
 50
179.0075624958
 51
180.9924375042
  0
SPLINE
  5
1EA
330
1F
100
AcDbEntity
  8
0
  6
Continuous
 62
     7
370
    15
100
AcDbSpline
210
0.0
220
0.0
230
1.0
 70
     8
 71
     3
 72
    30
 73
    26
 74
     0
 42
0.000000001
 43
0.00000001
 40
0.0
 40
0.0
 40
0.0
 40
0.0
 40
0.1249999999999998
 40
0.1249999999999998
 40
0.1874999999999997
 40
0.1874999999999997
 40
0.2499999999999996
 40
0.2499999999999996
 40
0.3749999999999996
 40
0.3749999999999996
 40
0.4374999999999998
 40
0.4374999999999998
 40
0.5
 40
0.5
 40
0.6250000000000002
 40
0.6250000000000002
 40
0.6875000000000002
 40
0.6875000000000002
 40
0.7500000000000001
 40
0.7500000000000001
 40
0.8125000000000001
 40
0.8125000000000001
 40
0.8750000000000001
 40
0.8750000000000001
 40
1.0
 40
1.0
 40
1.0
 40
1.0
 10
225.2942627567489
 20
34.37279964535573
 30
0.0
 10
225.2989490034077
 20
34.10498384472401
 30
0.0
 10
225.3312585237264
 20
33.8312676797386
 30
0.0
 10
225.418916579095
 20
33.41201953254319
 30
0.0
 10
225.4547107504085
 20
33.27080911385089
 30
0.0
 10
225.5395713652609
 20
32.98530849885874
 30
0.0
 10
225.5888240131746
 20
32.84072343402771
 30
0.0
 10
225.753028349344
 20
32.41163116487611
 30
0.0
 10
225.8850808074044
 20
32.12865834939227
 30
0.0
 10
226.1151313749234
 20
31.70765443865513
 30
0.0
 10
226.1975944134172
 20
31.56724936878133
 30
0.0
 10
226.3713461486363
 20
31.2905850746871
 30
0.0
 10
226.46214774047
 20
31.15500052564073
 30
0.0
 10
226.7455422127013
 20
30.75590345888108
 30
0.0
 10
226.9490220873683
 20
30.4999765158739
 30
0.0
 10
227.2749300746171
 20
30.13035053583822
 30
0.0
 10
227.3866706900782
 20
30.0100316886527
 30
0.0
 10
227.6119747942156
 20
29.77919409052191
 30
0.0
 10
227.7260974416947
 20
29.66803149644235
 30
0.0
 10
227.957007228259
 20
29.45395768726737
 30
0.0
 10
228.0737946442678
 20
29.3510465605329
 30
0.0
 10
228.3098776067376
 20
29.15348839361767
 30
0.0
 10
228.4297549811274
 20
29.0584166210123
 30
0.0
 10
228.7882382362911
 20
28.78961154240972
 30
0.0
 10
229.0250469028544
 20
28.63232987693495
 30
0.0
 10
229.2593659438348
 20
28.49706037386932
 30
0.0
  0
LINE
  5
1EB
330
1F
100
AcDbEntity
  8
0
  6
Continuous
 62
     7
370
    15
100
AcDbLine
 10
229.2593659438
 20
28.4970603739
 30
0.0
 11
229.8915091458
 21
28.1321318711
 31
0.0
  0
LWPOLYLINE
  5
1EC
330
1F
100
AcDbEntity
  8
0
  6
Continuous
 62
     7
370
    15
100
AcDbPolyline
 90
       10
 70
   128
 43
0.0
 10
235.8436956328
 20
20.353509881
 10
235.3786432176
 20
20.5468899115
 10
234.3898193093
 20
21.0754679735
 10
233.4778484938
 20
21.7336958926
 10
232.6482294672
 20
22.5176049065
 10
231.9059643883
 20
23.4224684634
 10
231.2555287184
 20
24.44283072
 10
230.7008442365
 20
25.5725394381
 10
230.2452553933
 20
26.8047830784
 10
229.8915091458
 20
28.1321318711
  0
LINE
  5
1ED
330
1F
100
AcDbEntity
  8
0
  6
Continuous
 62
     7
370
    15
100
AcDbLine
 10
260.1719259448
 20
63.7519622203
 30
0.0
 11
260.524336782
 21
63.5485197743
 31
0.0
  0
SPLINE
  5
1EE
330
1F
100
AcDbEntity
  8
0
  6
Continuous
 62
     7
370
    15
100
AcDbSpline
210
0.0
220
0.0
230
1.0
 70
     8
 71
     3
 72
    22
 73
    18
 74
     0
 42
0.000000001
 43
0.00000001
 40
0.0
 40
0.0
 40
0.0
 40
0.0
 40
0.2500000000000001
 40
0.2500000000000001
 40
0.3750000000000002
 40
0.3750000000000002
 40
0.5000000000000002
 40
0.5000000000000002
 40
0.6250000000000001
 40
0.6250000000000001
 40
0.7500000000000001
 40
0.7500000000000001
 40
0.875
 40
0.875
 40
0.9375
 40
0.9375
 40
1.0
 40
1.0
 40
1.0
 40
1.0
 10
254.0522951939817
 20
67.28525417932363
 30
0.0
 10
254.4843272895208
 20
67.11698374121718
 30
0.0
 10
254.9347019378862
 20
66.90630773633697
 30
0.0
 10
255.6596753795704
 20
66.52121350008034
 30
0.0
 10
255.9116427032899
 20
66.38008796180456
 30
0.0
 10
256.4244348164221
 20
66.08107099258737
 30
0.0
 10
256.6859561284812
 20
65.92290515523155
 30
0.0
 10
257.2235308100798
 20
65.59030521389406
 30
0.0
 10
257.5014933547426
 20
65.41460740252802
 30
0.0
 10
258.054099273488
 20
65.06296448643467
 30
0.0
 10
258.3310951986593
 20
64.88558565731195
 30
0.0
 10
258.889282778556
 20
64.53127523799938
 30
0.0
 10
259.1594588677158
 20
64.36141739828693
 30
0.0
 10
259.5509261828123
 20
64.12084841331222
 30
0.0
 10
259.6791734129201
 20
64.04298053076383
 30
0.0
 10
259.9310350521016
 20
63.89237423526539
 30
0.0
 10
260.053927285948
 20
63.82008139605446
 30
0.0
 10
260.1719259448074
 20
63.75196222025237
 30
0.0
  0
ARC
  5
1EF
330
1F
100
AcDbEntity
  8
0
  6
Continuous
 62
     7
370
    15
100
AcDbCircle
 10
249.1182391058
 20
58.6713088135
 30
0.0
 40
10.07602080663538
100
AcDbArc
 50
61.7070637799
 51
107.3162612634
  0
ARC
  5
1F0
330
1F
100
AcDbEntity
  8
0
  6
Continuous
 62
     7
370
    15
100
AcDbCircle
 10
234.3336006131
 20
32.9205404995
 30
0.0
 40
10.24197324061483
100
AcDbArc
 50
192.7026668486
 51
237.9334689377
  0
LINE
  5
1F1
330
1F
100
AcDbEntity
  8
0
  6
Continuous
 62
     7
370
    15
100
AcDbLine
 10
231.5404269456
 20
37.5140770559
 30
0.0
 11
231.2193263959
 21
37.3287096542
 31
0.0
  0
LINE
  5
1F2
330
1F
100
AcDbEntity
  8
0
  6
Continuous
 62
     7
370
    15
100
AcDbLine
 10
232.5010767291
 20
37.2956631373
 30
0.0
 11
232.1144220506
 21
37.5188741321
 31
0.0
  0
SPLINE
  5
1F3
330
1F
100
AcDbEntity
  8
0
  6
Continuous
 62
     7
370
    15
100
AcDbSpline
210
0.0
220
0.0
230
1.0
 70
     8
 71
     3
 72
    12
 73
     8
 74
     0
 42
0.000000001
 43
0.00000001
 40
0.0
 40
0.0
 40
0.0
 40
0.0
 40
0.25
 40
0.25
 40
0.5
 40
0.5
 40
1.0
 40
1.0
 40
1.0
 40
1.0
 10
232.114422050576
 20
37.51887413205833
 30
0.0
 10
232.0770300129931
 20
37.54046009588476
 30
0.0
 10
232.0308817021382
 20
37.55790023090722
 30
0.0
 10
231.9321818647556
 20
37.58035635922155
 30
0.0
 10
231.8786702984602
 20
37.58574266482217
 30
0.0
 10
231.7200728787588
 20
37.58366150601204
 30
0.0
 10
231.615358784141
 20
37.55733428552125
 30
0.0
 10
231.5404269456143
 20
37.51407705589577
 30
0.0
  0
LWPOLYLINE
  5
1F4
330
1F
100
AcDbEntity
  8
0
  6
Continuous
 62
     7
370
    15
100
AcDbPolyline
 90
       52
 70
   128
 43
0.0
 10
262.7850639416
 20
41.3421763113
 10
261.9552153197
 20
40.8040103005
 10
261.137946357
 20
40.155793141
 10
260.3456460179
 20
39.4073511442
 10
259.5903247679
 20
38.5700299279
 10
258.8834325072
 20
37.656522428
 10
258.235685002
 20
36.6806764873
 10
257.6569014441
 20
35.6572849353
 10
257.1558556023
 20
34.6018613449
 10
256.7401428209
 20
33.5304048618
 10
256.4160648818
 20
32.4591576742
 10
256.1885344762
 20
31.4043587974
 10
256.0610007332
 20
30.3819979072
 10
256.0353969343
 20
29.4075729525
 10
256.112111207
 20
28.4958552225
 10
256.2899806411
 20
27.6606654285
 10
256.5663089174
 20
26.9146641964
 10
256.9369071807
 20
26.2691601446
 10
257.3961575393
 20
25.7339384564
 10
257.9370982258
 20
25.317112547
 10
258.5515291308
 20
25.0250010725
 10
259.2301361081
 20
24.8620321448
 10
259.9626321676
 20
24.830676207
 10
260.7379134159
 20
24.931408583
 10
261.5442273793
 20
25.1627022726
 10
262.3693511602
 20
25.5210510994
 10
263.2007767231
 20
26.0010228604
 10
264.025900504
 20
26.5953416729
 10
264.8322144674
 20
27.2949982696
 10
265.6074957156
 20
28.0893865696
 10
266.3399917752
 20
28.9664644562
 10
267.0185987525
 20
29.9129363224
 10
267.6330296575
 20
30.9144546198
 10
268.173970344
 20
31.9558373517
 10
268.6332207025
 20
33.0212982174
 10
269.0038189659
 20
34.0946859164
 10
269.2801472421
 20
35.1597289852
 10
269.4580166763
 20
36.2002824565
 10
269.534730949
 20
37.2005726005
 10
269.5091271501
 20
38.1454360382
 10
269.3815934071
 20
39.020549603
 10
269.1540630015
 20
39.8126474653
 10
268.8299850624
 20
40.5097222289
 10
268.4142722809
 20
41.101206951
 10
267.9132264392
 20
41.5781353261
 10
267.3344428813
 20
41.9332776062
 10
266.6866953761
 20
42.1612501964
 10
265.9798031154
 20
42.2585972645
 10
265.2244818654
 20
42.2238431283
 10
264.4321815263
 20
42.057514625
 10
263.6149125636
 20
41.7621331252
 10
262.7850639416
 20
41.3421763113
  0
LWPOLYLINE
  5
1F5
330
1F
100
AcDbEntity
  8
0
  6
Continuous
 62
     7
370
    15
100
AcDbPolyline
 90
       27
 70
   128
 43
0.0
 10
262.6436425854
 20
41.5871252848
 10
261.7964149347
 20
41.0376887817
 10
260.9620303916
 20
40.3758963937
 10
260.1531373753
 20
39.611780219
 10
259.3819978792
 20
38.7569234798
 10
258.6603015921
 20
37.8242849328
 10
257.9989886941
 20
36.8280024279
 10
257.4080840146
 20
35.7831785921
 10
256.8965450662
 20
34.7056518899
 10
256.4721262579
 20
33.6117565276
 10
256.1412613463
 20
32.5180748438
 10
255.908965906
 20
31.4411859382
 10
255.7787612993
 20
30.3974143487
 10
255.7526212952
 20
29.4025825887
 10
255.8309421495
 20
28.4717712937
 10
256.012536598
 20
27.6190906139
 10
256.2946518538
 20
26.8574663194
 10
256.6730113374
 20
26.1984438581
 10
257.1418795045
 20
25.6520133387
 10
257.6941487917
 20
25.226458091
 10
258.3214473597
 20
24.9282290986
 10
259.0142660014
 20
24.7618472091
 10
259.7621022926
 20
24.7298346024
 10
260.5536197973
 20
24.832676557
 10
261.376819917
 20
25.0688140935
 10
262.2192237771
 20
25.4346676078
 10
262.6447631016
 20
25.6652264184
  0
LWPOLYLINE
  5
1F6
330
1F
100
AcDbEntity
  8
0
  6
Continuous
 62
     7
370
    15
100
AcDbPolyline
 90
       14
 70
   128
 43
0.0
 10
269.537933702
 20
37.6058419141
 10
269.5085238715
 20
38.3234375715
 10
269.3783192648
 20
39.2168781219
 10
269.1460238245
 20
40.0255644211
 10
268.8151589129
 20
40.7372376091
 10
268.3907401046
 20
41.3411094458
 10
267.8792011562
 20
41.8280258497
 10
267.2882964767
 20
42.1906056645
 10
266.6269835787
 20
42.4233525498
 10
265.9052872916
 20
42.5227382999
 10
265.1341477955
 20
42.4872563284
 10
264.3252547792
 20
42.3174445056
 10
263.4908702361
 20
42.0158770058
 10
262.6436425854
 20
41.5871252848
  0
SPLINE
  5
1F7
330
1F
100
AcDbEntity
  8
0
  6
Continuous
 62
     7
370
    15
100
AcDbSpline
210
0.0
220
0.0
230
1.0
 70
    11
 71
     3
 72
    77
 73
    73
 74
     0
 42
0.000000001
 43
0.00000001
 40
0.0
 40
0.0
 40
0.0
 40
0.0
 40
0.0312500000000001
 40
0.0312500000000001
 40
0.0625000000000002
 40
0.0625000000000002
 40
0.0937500000000004
 40
0.0937500000000004
 40
0.1250000000000005
 40
0.1250000000000005
 40
0.1562500000000006
 40
0.1562500000000006
 40
0.1875000000000008
 40
0.1875000000000008
 40
0.2187500000000009
 40
0.2187500000000009
 40
0.250000000000001
 40
0.250000000000001
 40
0.2812500000000011
 40
0.2812500000000011
 40
0.3125000000000012
 40
0.3125000000000012
 40
0.3437500000000013
 40
0.3437500000000013
 40
0.3593750000000014
 40
0.3593750000000014
 40
0.3750000000000014
 40
0.3906250000000014
 40
0.3906250000000014
 40
0.4062500000000015
 40
0.4062500000000015
 40
0.4375000000000014
 40
0.4375000000000014
 40
0.4687500000000014
 40
0.4687500000000014
 40
0.5000000000000013
 40
0.5000000000000013
 40
0.5312500000000013
 40
0.5312500000000013
 40
0.5625000000000013
 40
0.5625000000000013
 40
0.5937500000000013
 40
0.5937500000000013
 40
0.6250000000000013
 40
0.6250000000000013
 40
0.6562500000000013
 40
0.6562500000000013
 40
0.6875000000000013
 40
0.6875000000000013
 40
0.7187500000000013
 40
0.7187500000000013
 40
0.7500000000000012
 40
0.7500000000000012
 40
0.765625000000001
 40
0.765625000000001
 40
0.7812500000000007
 40
0.7812500000000007
 40
0.8125000000000006
 40
0.8125000000000006
 40
0.8437500000000004
 40
0.8437500000000004
 40
0.8750000000000003
 40
0.8750000000000003
 40
0.8906250000000003
 40
0.8906250000000003
 40
0.9062500000000002
 40
0.9062500000000002
 40
0.9375000000000001
 40
0.9375000000000001
 40
0.9687500000000001
 40
0.9687500000000001
 40
1.0
 40
1.0
 40
1.0
 40
1.0
 10
259.2205242193829
 20
44.8016967194764
 30
0.0
 10
259.3756699413272
 20
44.77848138203642
 30
0.0
 10
259.5268290177337
 20
44.74753147263891
 30
0.0
 10
259.822050832702
 20
44.67292922439258
 30
0.0
 10
259.9670414322284
 20
44.62891805175576
 30
0.0
 10
260.2456125351359
 20
44.5305831381725
 30
0.0
 10
260.3773609764243
 20
44.47701574740672
 30
0.0
 10
260.6264546390104
 20
44.36216801738547
 30
0.0
 10
260.7447909455794
 20
44.30025671253341
 30
0.0
 10
260.9606388155539
 20
44.17190305809694
 30
0.0
 10
261.058068987589
 20
44.10570381705058
 30
0.0
 10
261.2321404965568
 20
43.96895634174378
 30
0.0
 10
261.309368193677
 20
43.89766436546272
 30
0.0
 10
261.437271988997
 20
43.75399656607688
 30
0.0
 10
261.4883381626146
 20
43.68159174412317
 30
0.0
 10
261.5640949734087
 20
43.53428154133704
 30
0.0
 10
261.5887733105321
 20
43.45853032503137
 30
0.0
 10
261.6076656704903
 20
43.3083890724488
 30
0.0
 10
261.6023928653283
 20
43.23370820988964
 30
0.0
 10
261.560492568941
 20
43.0834841652845
 30
0.0
 10
261.5230107253375
 20
43.00717754215402
 30
0.0
 10
261.417259307171
 20
42.85995264504789
 30
0.0
 10
261.3490837339504
 20
42.78820902821337
 30
0.0
 10
261.2219909340907
 20
42.68287165113139
 30
0.0
 10
261.1752617767365
 20
42.64807059143786
 30
0.0
 10
261.0759810298567
 20
42.58125043643938
 30
0.0
 10
260.9703065773452
 20
42.5166869354283
 30
0.0
 10
260.8520145061781
 20
42.45654917786725
 30
0.0
 10
260.7272962033766
 20
42.3986971670911
 30
0.0
 10
260.6615502143947
 20
42.37088433951076
 30
0.0
 10
260.4599488762804
 20
42.29317036089901
 30
0.0
 10
260.3181629627136
 20
42.24810729315855
 30
0.0
 10
260.0203696597886
 20
42.17190904897375
 30
0.0
 10
259.8674712362229
 20
42.14168278747177
 30
0.0
 10
259.5596861011196
 20
42.09796670486087
 30
0.0
 10
259.4024730640817
 20
42.08429737120948
 30
0.0
 10
259.0945849223788
 20
42.07498324317226
 30
0.0
 10
258.9431370993838
 20
42.07907366158597
 30
0.0
 10
258.644853598633
 20
42.10550332872808
 30
0.0
 10
258.4992227263329
 20
42.12792353215288
 30
0.0
 10
258.222526239067
 20
42.19011309062909
 30
0.0
 10
258.0902057946907
 20
42.22997578285476
 30
0.0
 10
257.8377724278836
 20
42.32830631369383
 30
0.0
 10
257.7208126509222
 20
42.38559338982451
 30
0.0
 10
257.5058893695529
 20
42.51531023523852
 30
0.0
 10
257.4074706757845
 20
42.58803328729203
 30
0.0
 10
257.231093011101
 20
42.74844723780287
 30
0.0
 10
257.1552298466802
 20
42.83414041799644
 30
0.0
 10
257.02765727233
 20
43.01549140955326
 30
0.0
 10
256.9757290557652
 20
43.11169298596765
 30
0.0
 10
256.8991424259967
 20
43.31139687232803
 30
0.0
 10
256.875122192881
 20
43.4127988438815
 30
0.0
 10
256.8608347675244
 20
43.56622218594977
 30
0.0
 10
256.8597216901909
 20
43.61758494200231
 30
0.0
 10
256.8652005490171
 20
43.72059501271295
 30
0.0
 10
256.8718790434986
 20
43.77257417225442
 30
0.0
 10
256.9037602678251
 20
43.92555841388065
 30
0.0
 10
256.9404428863016
 20
44.02382575818989
 30
0.0
 10
257.0459821172811
 20
44.21130553823426
 30
0.0
 10
257.1162783373976
 20
44.30165533950332
 30
0.0
 10
257.2854491489716
 20
44.46270370648002
 30
0.0
 10
257.3840802621924
 20
44.53408929637281
 30
0.0
 10
257.5538826705592
 20
44.62673319084197
 30
0.0
 10
257.6142263760343
 20
44.65514882082245
 30
0.0
 10
257.7388701676726
 20
44.70556846361639
 30
0.0
 10
257.803568263686
 20
44.72780995411241
 30
0.0
 10
258.0045963572116
 20
44.78599258502237
 30
0.0
 10
258.149586642832
 20
44.81350650595606
 30
0.0
 10
258.4459271017409
 20
44.84532281361825
 30
0.0
 10
258.5978800784197
 20
44.85011236759091
 30
0.0
 10
258.9091684590725
 20
44.83988541488685
 30
0.0
 10
259.0653784974385
 20
44.82491205691638
 30
0.0
 10
259.2205242193828
 20
44.8016967194764
 30
0.0
  0
LINE
  5
1F8
330
1F
100
AcDbEntity
  8
0
  6
Continuous
 62
     7
370
    15
100
AcDbLine
 10
266.4847045843
 20
33.4534431225
 30
0.0
 11
267.8620906306
 21
35.1668982695
 31
0.0
  0
SPLINE
  5
1F9
330
1F
100
AcDbEntity
  8
0
  6
Continuous
 62
     7
370
    15
100
AcDbSpline
210
0.0
220
0.0
230
1.0
 70
     8
 71
     3
 72
    22
 73
    18
 74
     0
 42
0.000000001
 43
0.00000001
 40
0.0
 40
0.0
 40
0.0
 40
0.0
 40
0.0500000000000156
 40
0.1
 40
0.15
 40
0.2
 40
0.25
 40
0.2968749999999255
 40
0.34375
 40
0.3906249999999996
 40
0.4374999999999988
 40
0.5153528850584173
 40
0.5153528850584173
 40
0.53125
 40
0.6249999999995612
 40
0.8125
 40
0.8824198414281793
 40
0.8824198414281793
 40
0.8824198414281793
 40
0.8824198414281793
 10
267.8620906305531
 20
35.16689826949875
 30
0.0
 10
267.9278288194873
 20
35.24867595157168
 30
0.0
 10
268.0565835327643
 20
35.4266788426238
 30
0.0
 10
268.2328886223478
 20
35.73204381147086
 30
0.0
 10
268.3815966803727
 20
36.07061483115115
 30
0.0
 10
268.4882842740661
 20
36.4264014965847
 30
0.0
 10
268.5388317670408
 20
36.77001169331748
 30
0.0
 10
268.5299028916126
 20
37.08012099184477
 30
0.0
 10
268.4648742069969
 20
37.34043979597542
 30
0.0
 10
268.3486759485006
 20
37.54458475755265
 30
0.0
 10
268.1568284443195
 20
37.71741010638723
 30
0.0
 10
267.9815993331282
 20
37.77164569997419
 30
0.0
 10
267.8446522526835
 20
37.78473152449938
 30
0.0
 10
267.6967116123466
 20
37.7985901400852
 30
0.0
 10
267.3600336999319
 20
37.827823747487
 30
0.0
 10
267.1320900404238
 20
37.84861683637588
 30
0.0
 10
266.6318735726027
 20
37.89336928392429
 30
0.0
 10
266.484683784575
 20
37.90652823582744
 30
0.0
  0
SPLINE
  5
1FA
330
1F
100
AcDbEntity
  8
0
  6
Continuous
 62
     7
370
    15
100
AcDbSpline
210
0.0
220
0.0
230
1.0
 70
     8
 71
     3
 72
    22
 73
    18
 74
     0
 42
0.000000001
 43
0.00000001
 40
0.0
 40
0.0
 40
0.0
 40
0.0
 40
0.0500000000000156
 40
0.1
 40
0.15
 40
0.2
 40
0.25
 40
0.2968749999999255
 40
0.34375
 40
0.3906249999999996
 40
0.4374999999999988
 40
0.5153528850584173
 40
0.5153528850584173
 40
0.53125
 40
0.6249999999995612
 40
0.8125
 40
0.88121615793427
 40
0.88121615793427
 40
0.88121615793427
 40
0.88121615793427
 10
257.708037252718
 20
29.30508802661382
 30
0.0
 10
257.6432684112283
 20
29.31087933704513
 30
0.0
 10
257.5130944750165
 20
29.34035210116836
 30
0.0
 10
257.3373598039724
 20
29.44210853858734
 30
0.0
 10
257.1884989061919
 20
29.60899856929985
 30
0.0
 10
257.0818522529817
 20
29.84160264801388
 30
0.0
 10
257.0312940653754
 20
30.12685309889896
 30
0.0
 10
257.0402251651185
 20
30.44727058855012
 30
0.0
 10
257.1052549849344
 20
30.78267227866687
 30
0.0
 10
257.2214465266698
 20
31.12096828450457
 30
0.0
 10
257.4133254310897
 20
31.51533518446763
 30
0.0
 10
257.5884334693964
 20
31.77173537706306
 30
0.0
 10
257.7254388272227
 20
31.94300942346378
 30
0.0
 10
257.8734832779821
 20
32.12780579665966
 30
0.0
 10
258.2113065127472
 20
32.54718423032806
 30
0.0
 10
258.4302877183829
 20
32.82000484278241
 30
0.0
 10
258.9388230912373
 20
33.45264473462428
 30
0.0
 10
259.0854441609985
 20
33.63503826039467
 30
0.0
  0
LINE
  5
1FB
330
1F
100
AcDbEntity
  8
0
  6
Continuous
 62
     7
370
    15
100
AcDbLine
 10
259.085423299
 20
29.1819289582
 30
0.0
 11
257.7080372527
 21
29.3050880266
 31
0.0
  0
SPLINE
  5
1FC
330
1F
100
AcDbEntity
  8
0
  6
Continuous
 62
     7
370
    15
100
AcDbSpline
210
0.0
220
0.0
230
1.0
 70
     8
 71
     3
 72
    13
 73
     9
 74
     0
 42
0.000000001
 43
0.00000001
 40
0.0
 40
0.0
 40
0.0
 40
0.0
 40
0.1816492558371292
 40
0.3706247117738208
 40
0.5261459199750511
 40
0.686174896398115
 40
0.8417493105987862
 40
1.0
 40
1.0
 40
1.0
 40
1.0
 10
257.6196489050678
 20
29.63495081915583
 30
0.0
 10
257.5583069520042
 20
29.6459229869514
 30
0.0
 10
257.4331490284605
 20
29.66830984732156
 30
0.0
 10
257.2868583437074
 20
29.76835950317622
 30
0.0
 10
257.1733716823549
 20
29.90476473433139
 30
0.0
 10
257.0957099187655
 20
30.06758254465731
 30
0.0
 10
257.0455974778943
 20
30.25910511526289
 30
0.0
 10
257.040359867748
 20
30.40448187217169
 30
0.0
 10
257.0377187297162
 20
30.47779013126148
 30
0.0
  0
SPLINE
  5
1FD
330
1F
100
AcDbEntity
  8
0
  6
Continuous
 62
     7
370
    15
100
AcDbSpline
210
0.0
220
0.0
230
1.0
 70
     8
 71
     3
 72
    13
 73
     9
 74
     0
 42
0.000000001
 43
0.00000001
 40
0.0
 40
0.0
 40
0.0
 40
0.0
 40
0.0034791351058464
 40
0.1375494058588128
 40
0.3649658021168837
 40
0.577363886581408
 40
0.7947795227588549
 40
1.0
 40
1.0
 40
1.0
 40
1.0
 10
259.2591338584929
 20
33.87836305899334
 30
0.0
 10
259.2591270043663
 20
33.87826129208981
 30
0.0
 10
259.2588560229241
 20
33.87423788492373
 30
0.0
 10
259.2445661475865
 20
33.84926874061113
 30
0.0
 10
259.2167216403616
 20
33.80633986686738
 30
0.0
 10
259.1747356048452
 20
33.74909962947948
 30
0.0
 10
259.1311840473583
 20
33.69232930668628
 30
0.0
 10
259.1003946472183
 20
33.65376434535612
 30
0.0
 10
259.0854441609961
 20
33.63503826039157
 30
0.0
  0
LINE
  5
1FE
330
1F
100
AcDbEntity
  8
0
  6
Continuous
 62
     7
370
    15
100
AcDbLine
 10
230.9829364578
 20
29.4920564525
 30
0.0
 11
235.9326839261
 21
26.6346280611
 31
0.0
  0
ARC
  5
1FF
330
1F
100
AcDbEntity
  8
0
  6
Continuous
 62
     7
370
    15
100
AcDbCircle
 10
235.0910174451
 20
35.946341022
 30
0.0
 40
7.650759354637099
100
AcDbArc
 50
182.476303705
 51
237.5236964406
  0
LINE
  5
200
330
1F
100
AcDbEntity
  8
0
  6
Continuous
 62
     7
370
    15
100
AcDbLine
 10
227.4474025518
 20
36.4323216033
 30
0.0
 11
227.4474025518
 21
35.6157807915
 31
0.0
  0
ARC
  5
201
330
1F
100
AcDbEntity
  8
0
  6
Continuous
 62
     7
370
    15
100
AcDbCircle
 10
230.6802363719
 20
36.5383822758
 30
0.0
 40
3.234573136324471
100
AcDbArc
 50
154.1865514909
 51
181.8790480553
  0
SPLINE
  5
202
330
1F
100
AcDbEntity
  8
0
  6
Continuous
 62
     7
370
    15
100
AcDbSpline
210
0.0
220
0.0
230
1.0
 70
     8
 71
     3
 72
    16
 73
    12
 74
     0
 42
0.000000001
 43
0.00000001
 40
0.0
 40
0.0
 40
0.0
 40
0.0
 40
0.2500000000000004
 40
0.2500000000000004
 40
0.5000000000000009
 40
0.5000000000000009
 40
0.6249999999999974
 40
0.6249999999999974
 40
0.749999999999994
 40
0.749999999999994
 40
1.0
 40
1.0
 40
1.0
 40
1.0
 10
266.484683784575
 20
37.90652823582744
 30
0.0
 10
266.4531943154894
 20
37.90934343391085
 30
0.0
 10
266.4191888030989
 20
37.91079253158841
 30
0.0
 10
266.3422873198898
 20
37.90886396417523
 30
0.0
 10
266.2993335040031
 20
37.90570863769857
 30
0.0
 10
266.2257393227009
 20
37.89191555706293
 30
0.0
 10
266.1996959742978
 20
37.88558365670242
 30
0.0
 10
266.1513963489559
 20
37.8700054863029
 30
0.0
 10
266.1292467500547
 20
37.86078973957741
 30
0.0
 10
266.0742660403888
 20
37.83270759382676
 30
0.0
 10
266.0521926407841
 20
37.8143433290947
 30
0.0
 10
266.0357027827317
 20
37.79717116912671
 30
0.0
  0
SPLINE
  5
203
330
1F
100
AcDbEntity
  8
0
  6
Continuous
 62
     7
370
    15
100
AcDbSpline
210
0.0
220
0.0
230
1.0
 70
     8
 71
     3
 72
     8
 73
     4
 74
     0
 42
0.000000001
 43
0.00000001
 40
0.0
 40
0.0
 40
0.0
 40
0.0
 40
1.0
 40
1.0
 40
1.0
 40
1.0
 10
266.0357027827317
 20
37.79717116912655
 30
0.0
 10
265.9853272623214
 20
37.81634386262747
 30
0.0
 10
265.9337874881192
 20
37.83906696352048
 30
0.0
 10
265.8949173503634
 20
37.86150621641394
 30
0.0
  0
LINE
  5
204
330
1F
100
AcDbEntity
  8
0
  6
Continuous
 62
     7
370
    15
100
AcDbLine
 10
265.2519977439
 20
38.4707619232
 30
0.0
 11
265.1683577081
 21
38.5161948553
 31
0.0
  0
LINE
  5
205
330
1F
100
AcDbEntity
  8
0
  6
Continuous
 62
     7
370
    15
100
AcDbLine
 10
264.4727236263
 20
38.6825211775
 30
0.0
 11
265.8949173504
 21
37.8615062164
 31
0.0
  0
ARC
  5
206
330
1F
100
AcDbEntity
  8
0
  6
Continuous
 62
     7
370
    15
100
AcDbCircle
 10
256.1351266785
 20
38.0048418019
 30
0.0
 40
6.78586507578814
100
AcDbArc
 50
338.0727566755
 51
2.4323366984
  0
LINE
  5
207
330
1F
100
AcDbEntity
  8
0
  6
Continuous
 62
     7
370
    15
100
AcDbLine
 10
262.4300941226
 20
35.470803581
 30
0.0
 11
265.8949173504
 21
33.470603707
 31
0.0
  0
LINE
  5
208
330
1F
100
AcDbEntity
  8
0
  6
Continuous
 62
     7
370
    15
100
AcDbLine
 10
259.7524447144
 20
28.944224437
 30
0.0
 11
259.8360925436
 21
28.8987875297
 31
0.0
  0
LINE
  5
209
330
1F
100
AcDbEntity
  8
0
  6
Continuous
 62
     7
370
    15
100
AcDbLine
 10
257.1055082684
 20
30.7103744401
 30
0.0
 11
259.109525108
 21
29.5534801438
 31
0.0
  0
SPLINE
  5
20A
330
1F
100
AcDbEntity
  8
0
  6
Continuous
 62
     7
370
    15
100
AcDbSpline
210
0.0
220
0.0
230
1.0
 70
     8
 71
     3
 72
     8
 73
     4
 74
     0
 42
0.000000001
 43
0.00000001
 40
0.0
 40
0.0
 40
0.0
 40
0.0
 40
1.0
 40
1.0
 40
1.0
 40
1.0
 10
215.6916319729867
 20
40.92565135406822
 30
0.0
 10
216.1584941986535
 20
40.54540976680627
 30
0.0
 10
216.6255289830369
 20
40.17850311826343
 30
0.0
 10
217.0926540952123
 20
39.81857679267147
 30
0.0
  0
SPLINE
  5
20B
330
1F
100
AcDbEntity
  8
0
  6
Continuous
 62
     7
370
    15
100
AcDbSpline
210
0.0
220
0.0
230
1.0
 70
     8
 71
     3
 72
    14
 73
    10
 74
     0
 42
0.000000001
 43
0.00000001
 40
0.0
 40
0.0
 40
0.0
 40
0.0
 40
0.125
 40
0.125
 40
0.25
 40
0.25
 40
0.5
 40
0.5
 40
1.0
 40
1.0
 40
1.0
 40
1.0
 10
217.0926540952123
 20
39.81857679267143
 30
0.0
 10
217.1190780338855
 20
39.79821678438582
 30
0.0
 10
217.1431419763903
 20
39.78270448107115
 30
0.0
 10
217.1794112338154
 20
39.76572111251178
 30
0.0
 10
217.1914296088036
 20
39.76384687110586
 30
0.0
 10
217.216943855474
 20
39.7679877124411
 30
0.0
 10
217.221137517922
 20
39.78293010050411
 30
0.0
 10
217.2222443276576
 20
39.83728143684926
 30
0.0
 10
217.206616342569
 20
39.88870239752526
 30
0.0
 10
217.1869636099354
 20
39.94505122511123
 30
0.0
  0
SPLINE
  5
20C
330
1F
100
AcDbEntity
  8
0
  6
Continuous
 62
     7
370
    15
100
AcDbSpline
210
0.0
220
0.0
230
1.0
 70
     8
 71
     3
 72
    14
 73
    10
 74
     0
 42
0.000000001
 43
0.00000001
 40
0.0
 40
0.0
 40
0.0
 40
0.0
 40
0.25
 40
0.25
 40
0.5
 40
0.5
 40
0.75
 40
0.75
 40
1.0
 40
1.0
 40
1.0
 40
1.0
 10
217.1869636099349
 20
39.94505122511159
 30
0.0
 10
217.1622977619969
 20
40.0157737876494
 30
0.0
 10
217.1514348912725
 20
40.07884008539961
 30
0.0
 10
217.1294845240776
 20
40.21040682635821
 30
0.0
 10
217.1192129292586
 20
40.27836016534989
 30
0.0
 10
217.0899089149001
 20
40.42696516919332
 30
0.0
 10
217.0711162436704
 20
40.50742897562419
 30
0.0
 10
217.0181969391542
 20
40.68699984943852
 30
0.0
 10
216.9841177619752
 20
40.78583089536638
 30
0.0
 10
216.9400315096975
 20
40.89343095034566
 30
0.0
  0
LWPOLYLINE
  5
20D
330
1F
100
AcDbEntity
  8
0
  6
Continuous
 62
     7
370
    15
100
AcDbPolyline
 90
        9
 70
   128
 43
0.0
 10
216.9400315097
 20
40.8934309503
 10
216.5719515858
 20
41.9645764898
 10
216.3068221969
 20
43.1285792094
 10
216.1468547893
 20
44.3757301535
 10
216.0933836524
 20
45.6956268264
 10
216.1468547893
 20
47.07725996
 10
216.3068221969
 20
48.5091053416
 10
216.5719515858
 20
49.9792199378
 10
216.9400315097
 20
51.4753415115
  0
SPLINE
  5
20E
330
1F
100
AcDbEntity
  8
0
  6
Continuous
 62
     7
370
    15
100
AcDbSpline
210
0.0
220
0.0
230
1.0
 70
     8
 71
     3
 72
    14
 73
    10
 74
     0
 42
0.000000001
 43
0.00000001
 40
0.0
 40
0.0
 40
0.0
 40
0.0
 40
0.25
 40
0.25
 40
0.5
 40
0.5
 40
0.75
 40
0.75
 40
1.0
 40
1.0
 40
1.0
 40
1.0
 10
217.1869636099349
 20
53.5288416244201
 30
0.0
 10
217.1622977619969
 20
53.35716909292724
 30
0.0
 10
217.1514348912725
 20
53.18218936075165
 30
0.0
 10
217.1294845240776
 20
52.83338285711046
 30
0.0
 10
217.1192129292586
 20
52.65916876517466
 30
0.0
 10
217.0899089149001
 20
52.31311785322357
 30
0.0
 10
217.0711162436704
 20
52.14123499930832
 30
0.0
 10
217.0181969391542
 20
51.80120333041411
 30
0.0
 10
216.9841177619752
 20
51.63384246991698
 30
0.0
 10
216.9400315096975
 20
51.47534151151403
 30
0.0
  0
SPLINE
  5
20F
330
1F
100
AcDbEntity
  8
0
  6
Continuous
 62
     7
370
    15
100
AcDbSpline
210
0.0
220
0.0
230
1.0
 70
     8
 71
     3
 72
    14
 73
    10
 74
     0
 42
0.000000001
 43
0.00000001
 40
0.0
 40
0.0
 40
0.0
 40
0.0
 40
0.1249999999999983
 40
0.1249999999999983
 40
0.2499999999999966
 40
0.2499999999999966
 40
0.4999999999999978
 40
0.4999999999999978
 40
1.0
 40
1.0
 40
1.0
 40
1.0
 10
217.0926540952123
 20
54.27758536806277
 30
0.0
 10
217.1190780338855
 20
54.27327906879056
 30
0.0
 10
217.1431419763904
 20
54.25739556225016
 30
0.0
 10
217.1794112338154
 20
54.20825098935875
 30
0.0
 10
217.1914296088036
 20
54.1772396340064
 30
0.0
 10
217.216943855474
 20
54.08038109213897
 30
0.0
 10
217.221137517922
 20
54.01010047126282
 30
0.0
 10
217.2222443276576
 20
53.80369906918494
 30
0.0
 10
217.206616342569
 20
53.66562323316278
 30
0.0
 10
217.1869636099354
 20
53.52884162442002
 30
0.0
  0
SPLINE
  5
210
330
1F
100
AcDbEntity
  8
0
  6
Continuous
 62
     7
370
    15
100
AcDbSpline
210
0.0
220
0.0
230
1.0
 70
     8
 71
     3
 72
     8
 73
     4
 74
     0
 42
0.000000001
 43
0.00000001
 40
0.0
 40
0.0
 40
0.0
 40
0.0
 40
1.0
 40
1.0
 40
1.0
 40
1.0
 10
215.6916319729867
 20
54.44679826194773
 30
0.0
 10
216.1584941986535
 20
54.41470850788242
 30
0.0
 10
216.6255289830369
 20
54.35371257057676
 30
0.0
 10
217.0926540952123
 20
54.27758536806277
 30
0.0
  0
SPLINE
  5
211
330
1F
100
AcDbEntity
  8
0
  6
Continuous
 62
     7
370
    15
100
AcDbSpline
210
0.0
220
0.0
230
1.0
 70
     8
 71
     3
 72
    14
 73
    10
 74
     0
 42
0.000000001
 43
0.00000001
 40
0.0
 40
0.0
 40
0.0
 40
0.0
 40
0.4999999999999972
 40
0.4999999999999972
 40
0.7499999999999971
 40
0.7499999999999971
 40
0.8749999999999986
 40
0.8749999999999986
 40
1.0
 40
1.0
 40
1.0
 40
1.0
 10
212.8470945957687
 20
55.37138013810994
 30
0.0
 10
213.3121291284837
 20
55.1750348888491
 30
0.0
 10
213.7789850497653
 20
54.98738237738105
 30
0.0
 10
214.4860114353698
 20
54.73736442043661
 30
0.0
 10
214.7227964182609
 20
54.65920316263778
 30
0.0
 10
215.0815770563924
 20
54.5586358972428
 30
0.0
 10
215.2017758803935
 20
54.52791440099116
 30
0.0
 10
215.4443779785033
 20
54.4766396946066
 30
0.0
 10
215.5666297360921
 20
54.45539028507362
 30
0.0
 10
215.6916319729867
 20
54.44679826194768
 30
0.0
  0
LINE
  5
212
330
1F
100
AcDbEntity
  8
0
  6
Continuous
 62
     7
370
    15
100
AcDbLine
 10
232.70477896
 20
71.4395919233
 30
0.0
 11
232.8267111054
 21
71.380561259
 31
0.0
  0
LINE
  5
213
330
1F
100
AcDbEntity
  8
0
  6
Continuous
 62
     7
370
    15
100
AcDbLine
 10
215.0379883501
 20
40.5662508502
 30
0.0
 11
214.9850807583
 21
40.6016921266
 31
0.0
  0
SPLINE
  5
214
330
1F
100
AcDbEntity
  8
0
  6
Continuous
 62
     7
370
    15
100
AcDbSpline
210
0.0
220
0.0
230
1.0
 70
     8
 71
     3
 72
    14
 73
    10
 74
     0
 42
0.000000001
 43
0.00000001
 40
0.0
 40
0.0
 40
0.0
 40
0.0
 40
0.4999999999999986
 40
0.4999999999999986
 40
0.7499999999999978
 40
0.7499999999999978
 40
0.8749999999999989
 40
0.8749999999999989
 40
1.0
 40
1.0
 40
1.0
 40
1.0
 10
212.8470945957687
 20
43.04843616223555
 30
0.0
 10
213.3121291284837
 20
42.71359084599717
 30
0.0
 10
213.7789850497653
 20
42.37480267092565
 30
0.0
 10
214.4860114353698
 20
41.85250692389291
 30
0.0
 10
214.7227964182609
 20
41.67608521580254
 30
0.0
 10
215.0815770563924
 20
41.4040030642836
 30
0.0
 10
215.2017758803935
 20
41.31205770292669
 30
0.0
 10
215.4443779785033
 20
41.12363168209638
 30
0.0
 10
215.5666297360921
 20
41.02746093804173
 30
0.0
 10
215.6916319729867
 20
40.92565135406824
 30
0.0
  0
SPLINE
  5
215
330
1F
100
AcDbEntity
  8
0
  6
Continuous
 62
     7
370
    15
100
AcDbSpline
210
0.0
220
0.0
230
1.0
 70
     8
 71
     3
 72
    17
 73
    13
 74
     0
 42
0.000000001
 43
0.00000001
 40
0.0
 40
0.0
 40
0.0
 40
0.0
 40
0.1228398102357145
 40
0.2461119701119566
 40
0.3693600841014097
 40
0.4921470635023586
 40
0.6142445569961337
 40
0.6757598983746854
 40
0.7365176929105648
 40
0.8584571856677871
 40
0.98096482868157
 40
1.0
 40
1.0
 40
1.0
 40
1.0
 10
221.3053381299356
 20
40.60466011901271
 30
0.0
 10
221.1015693921578
 20
40.97854972025583
 30
0.0
 10
220.6933147277661
 20
41.72764487263152
 30
0.0
 10
220.500047148795
 20
42.87596339360395
 30
0.0
 10
220.70540953627
 20
43.82830197404056
 30
0.0
 10
221.2646987093978
 20
44.46176839434067
 30
0.0
 10
221.9405947326795
 20
44.6030755272557
 30
0.0
 10
222.5154831999895
 20
44.47688200020755
 30
0.0
 10
223.0957245253266
 20
44.18880986181588
 30
0.0
 10
223.7592832854529
 20
43.53014438125426
 30
0.0
 10
224.2683286664625
 20
42.75862726853776
 30
0.0
 10
224.4142041775565
 20
42.29392913531876
 30
0.0
 10
224.4338220250463
 20
42.23143490967467
 30
0.0
  0
SPLINE
  5
216
330
1F
100
AcDbEntity
  8
0
  6
Continuous
 62
     7
370
    15
100
AcDbSpline
210
0.0
220
0.0
230
1.0
 70
     8
 71
     3
 72
    12
 73
     8
 74
     0
 42
0.000000001
 43
0.00000001
 40
0.0
 40
0.0
 40
0.0
 40
0.0
 40
0.0348234346465065
 40
0.3556683490202566
 40
0.515770916996679
 40
0.6780240183794096
 40
1.0
 40
1.0
 40
1.0
 40
1.0
 10
223.8074478923667
 20
38.57231903770774
 30
0.0
 10
223.7851032917773
 20
38.56854430172276
 30
0.0
 10
223.5568872274575
 20
38.52999112253783
 30
0.0
 10
223.0834887009949
 20
38.79353385189358
 30
0.0
 10
222.5148104798346
 20
39.20290755906568
 30
0.0
 10
221.9313564235774
 20
39.73914746604016
 30
0.0
 10
221.5553525040103
 20
40.25899832863946
 30
0.0
 10
221.3053381299356
 20
40.60466011901271
 30
0.0
  0
LINE
  5
217
330
1F
100
AcDbEntity
  8
0
  6
Continuous
 62
     7
370
    15
100
AcDbLine
 10
259.1808717099
 20
29.4953539743
 30
0.0
 11
257.6196489051
 21
29.6349508192
 31
0.0
  0
SPLINE
  5
218
330
1F
100
AcDbEntity
  8
0
  6
Continuous
 62
     7
370
    15
100
AcDbSpline
210
0.0
220
0.0
230
1.0
 70
     8
 71
     3
 72
    16
 73
    12
 74
     0
 42
0.000000001
 43
0.00000001
 40
0.0
 40
0.0
 40
0.0
 40
0.0
 40
0.249999999999997
 40
0.249999999999997
 40
0.499999999999994
 40
0.499999999999994
 40
0.6249999999999961
 40
0.6249999999999961
 40
0.7499999999999983
 40
0.7499999999999983
 40
1.0
 40
1.0
 40
1.0
 40
1.0
 10
259.0854232990043
 20
29.18192895823569
 30
0.0
 10
259.1164720530784
 20
29.17915273174757
 30
0.0
 10
259.1471457768286
 20
29.17980006848233
 30
0.0
 10
259.2036253067979
 20
29.19390091013039
 30
0.0
 10
259.2301926939911
 20
29.20681899088904
 30
0.0
 10
259.2554146169173
 20
29.24887490924563
 30
0.0
 10
259.2607852441384
 20
29.26700283618452
 30
0.0
 10
259.2618145177759
 20
29.30966867751013
 30
0.0
 10
259.2574152233013
 20
29.33413056082271
 30
0.0
 10
259.2342884271981
 20
29.40699595774638
 30
0.0
 10
259.2082609782218
 20
29.45307021760744
 30
0.0
 10
259.1808717099304
 20
29.49535397432357
 30
0.0
  0
SPLINE
  5
219
330
1F
100
AcDbEntity
  8
0
  6
Continuous
 62
     7
370
    15
100
AcDbSpline
210
0.0
220
0.0
230
1.0
 70
     8
 71
     3
 72
     8
 73
     4
 74
     0
 42
0.000000001
 43
0.00000001
 40
0.0
 40
0.0
 40
0.0
 40
0.0
 40
1.0
 40
1.0
 40
1.0
 40
1.0
 10
259.1095251079576
 20
29.55348014380379
 30
0.0
 10
259.1484811903377
 20
29.53099127613477
 30
0.0
 10
259.1709631641293
 20
29.5111370344639
 30
0.0
 10
259.1808717099304
 20
29.49535397432362
 30
0.0
  0
SPLINE
  5
21A
330
1F
100
AcDbEntity
  8
0
  6
Continuous
 62
     7
370
    15
100
AcDbSpline
210
0.0
220
0.0
230
1.0
 70
     8
 71
     3
 72
    14
 73
    10
 74
     0
 42
0.000000001
 43
0.00000001
 40
0.0
 40
0.0
 40
0.0
 40
0.0
 40
0.25
 40
0.25
 40
0.5
 40
0.5
 40
0.75
 40
0.75
 40
1.0
 40
1.0
 40
1.0
 40
1.0
 10
268.4206324582167
 20
46.20599600142423
 30
0.0
 10
268.4673144945553
 20
46.17904703547079
 30
0.0
 10
268.5050011091614
 20
46.14594031131968
 30
0.0
 10
268.5538725879158
 20
46.07533173825715
 30
0.0
 10
268.5659738183156
 20
46.03683616386707
 30
0.0
 10
268.5638042067604
 20
45.96087804967168
 30
0.0
 10
268.5495637926784
 20
45.92268434207933
 30
0.0
 10
268.4977123500889
 20
45.85268969315426
 30
0.0
 10
268.4600058099853
 20
45.82052169767248
 30
0.0
 10
268.4131883792678
 20
45.79349457020789
 30
0.0
  0
ARC
  5
21B
330
1F
100
AcDbEntity
  8
0
  6
Continuous
 62
     7
370
    15
100
AcDbCircle
 10
242.8948346103
 20
26.0749242683
 30
0.0
 40
8.582541492525015
100
AcDbArc
 50
219.7215270998
 51
260.9429025512
  0
SPLINE
  5
21C
330
1F
100
AcDbEntity
  8
0
  6
Continuous
 62
     7
370
    15
100
AcDbSpline
210
0.0
220
0.0
230
1.0
 70
     8
 71
     3
 72
    14
 73
    10
 74
     0
 42
0.000000001
 43
0.00000001
 40
0.0
 40
0.0
 40
0.0
 40
0.0
 40
0.25
 40
0.25
 40
0.5
 40
0.5
 40
0.75
 40
0.75
 40
1.0
 40
1.0
 40
1.0
 40
1.0
 10
233.8555600215473
 20
25.84373401044551
 30
0.0
 10
233.9027811849709
 20
25.81647381305067
 30
0.0
 10
233.9590679444023
 20
25.79519188152652
 30
0.0
 10
234.0824972924756
 20
25.7668372516954
 30
0.0
 10
234.1491506159355
 20
25.75999386935524
 30
0.0
 10
234.2812754928772
 20
25.76147598498443
 30
0.0
 10
234.3476348488619
 20
25.76986651667063
 30
0.0
 10
234.4688890809827
 20
25.79998484014201
 30
0.0
 10
234.5250001834599
 20
25.82198953398282
 30
0.0
 10
234.5717347569873
 20
25.84896882900977
 30
0.0
  0
LINE
  5
21D
330
1F
100
AcDbEntity
  8
0
  6
Continuous
 62
     7
370
    15
100
AcDbLine
 10
232.1981119869
 20
26.8005583943
 30
0.0
 11
233.8555600215
 21
25.8437340104
 31
0.0
  0
SPLINE
  5
21E
330
1F
100
AcDbEntity
  8
0
  6
Continuous
 62
     7
370
    15
100
AcDbSpline
210
0.0
220
0.0
230
1.0
 70
     8
 71
     3
 72
     8
 73
     4
 74
     0
 42
0.000000001
 43
0.00000001
 40
0.0
 40
0.0
 40
0.0
 40
0.0
 40
1.0
 40
1.0
 40
1.0
 40
1.0
 10
232.5699003479501
 20
27.56709097665852
 30
0.0
 10
232.4457221800652
 20
27.31162017743244
 30
0.0
 10
232.3218044799234
 20
27.05610733075948
 30
0.0
 10
232.1981119868912
 20
26.80055839427282
 30
0.0
  0
LINE
  5
21F
330
1F
100
AcDbEntity
  8
0
  6
Continuous
 62
     7
370
    15
100
AcDbLine
 10
232.8910008977
 20
27.7524583784
 30
0.0
 11
232.569900348
 21
27.5670909767
 31
0.0
  0
SPLINE
  5
220
330
1F
100
AcDbEntity
  8
0
  6
Continuous
 62
     7
370
    15
100
AcDbSpline
210
0.0
220
0.0
230
1.0
 70
     8
 71
     3
 72
    12
 73
     8
 74
     0
 42
0.000000001
 43
0.00000001
 40
0.0
 40
0.0
 40
0.0
 40
0.0
 40
0.2499999999999986
 40
0.2499999999999986
 40
0.4999999999999971
 40
0.4999999999999971
 40
1.0
 40
1.0
 40
1.0
 40
1.0
 10
232.8993105776931
 20
28.08381869925348
 30
0.0
 10
232.9367026152759
 20
28.06223273542704
 30
0.0
 10
232.9669130885934
 20
28.03559188263698
 30
0.0
 10
233.0058124586029
 20
27.97861367933117
 30
0.0
 10
233.0151428245328
 20
27.94772210965436
 30
0.0
 10
233.0115377611189
 20
27.85616576809229
 30
0.0
 10
232.9659327362073
 20
27.79571560798727
 30
0.0
 10
232.8910008976805
 20
27.75245837836179
 30
0.0
  0
LINE
  5
221
330
1F
100
AcDbEntity
  8
0
  6
Continuous
 62
     7
370
    15
100
AcDbLine
 10
232.1144220506
 20
28.5369252013
 30
0.0
 11
232.8993105777
 21
28.0838186993
 31
0.0
  0
SPLINE
  5
222
330
1F
100
AcDbEntity
  8
0
  6
Continuous
 62
     7
370
    15
100
AcDbSpline
210
0.0
220
0.0
230
1.0
 70
     8
 71
     3
 72
    14
 73
    10
 74
     0
 42
0.000000001
 43
0.00000001
 40
0.0
 40
0.0
 40
0.0
 40
0.0
 40
0.25
 40
0.25
 40
0.5
 40
0.5
 40
0.75
 40
0.75
 40
1.0
 40
1.0
 40
1.0
 40
1.0
 10
231.5404269456143
 20
28.53212812515252
 30
0.0
 10
231.5782727433928
 20
28.55397603916413
 30
0.0
 10
231.6225916605407
 20
28.57134868395305
 30
0.0
 10
231.7202931970928
 20
28.59571015864492
 30
0.0
 10
231.7730463287046
 20
28.60242412317647
 30
0.0
 10
231.878999685933
 20
28.60378157276248
 30
0.0
 10
231.9323639722284
 20
28.59840387162339
 30
0.0
 10
232.0315417470001
 20
28.57576292810755
 30
0.0
 10
232.0765486404013
 20
28.55878905562368
 30
0.0
 10
232.114422050576
 20
28.53692520131509
 30
0.0
  0
LINE
  5
223
330
1F
100
AcDbEntity
  8
0
  6
Continuous
 62
     7
370
    15
100
AcDbLine
 10
231.2193263959
 20
28.3467607234
 30
0.0
 11
231.5404269456
 21
28.5321281252
 31
0.0
  0
SPLINE
  5
224
330
1F
100
AcDbEntity
  8
0
  6
Continuous
 62
     7
370
    15
100
AcDbSpline
210
0.0
220
0.0
230
1.0
 70
     8
 71
     3
 72
     8
 73
     4
 74
     0
 42
0.000000001
 43
0.00000001
 40
0.0
 40
0.0
 40
0.0
 40
0.0
 40
1.0
 40
1.0
 40
1.0
 40
1.0
 10
229.8915091457704
 20
28.13213187111347
 30
0.0
 10
230.3341808519868
 20
28.20353802741818
 30
0.0
 10
230.7767900420384
 20
28.27507419301994
 30
0.0
 10
231.2193263958838
 20
28.3467607234492
 30
0.0
  0
LINE
  5
225
330
1F
100
AcDbEntity
  8
0
  6
Continuous
 62
     7
370
    15
100
AcDbLine
 10
266.9746716202
 20
47.0407314254
 30
0.0
 11
268.4206324582
 21
46.2059960014
 31
0.0
  0
LWPOLYLINE
  5
226
330
1F
100
AcDbEntity
  8
0
  6
Continuous
 62
     7
370
    15
100
AcDbPolyline
 90
        9
 70
   128
 43
0.0
 10
236.9436921899
 20
19.595386406
 10
236.6964221505
 20
19.7438944967
 10
235.784451335
 20
20.4021224158
 10
234.9548323084
 20
21.1860314297
 10
234.2125672294
 20
22.0908949865
 10
233.5621315595
 20
23.1112572432
 10
233.0074470776
 20
24.2409659612
 10
232.5518582344
 20
25.4732096015
 10
232.1981119869
 20
26.8005583943
  0
SPLINE
  5
227
330
1F
100
AcDbEntity
  8
0
  6
Continuous
 62
     7
370
    15
100
AcDbSpline
210
0.0
220
0.0
230
1.0
 70
     8
 71
     3
 72
     8
 73
     4
 74
     0
 42
0.000000001
 43
0.00000001
 40
0.0
 40
0.0
 40
0.0
 40
0.0
 40
1.0
 40
1.0
 40
1.0
 40
1.0
 10
265.8949173503643
 20
33.47060370702572
 30
0.0
 10
265.9338734327444
 20
33.44811483935668
 30
0.0
 10
265.984541756212
 20
33.44453223100225
 30
0.0
 10
266.0357027827473
 20
33.45256372108289
 30
0.0
  0
SPLINE
  5
228
330
1F
100
AcDbEntity
  8
0
  6
Continuous
 62
     7
370
    15
100
AcDbSpline
210
0.0
220
0.0
230
1.0
 70
     8
 71
     3
 72
    16
 73
    12
 74
     0
 42
0.000000001
 43
0.00000001
 40
0.0
 40
0.0
 40
0.0
 40
0.0
 40
0.2499999999999884
 40
0.2499999999999884
 40
0.3749999999999878
 40
0.3749999999999878
 40
0.4999999999999873
 40
0.4999999999999873
 40
0.7499999999999936
 40
0.7499999999999936
 40
1.0
 40
1.0
 40
1.0
 40
1.0
 10
266.0357027827474
 20
33.45256372108282
 30
0.0
 10
266.0520184898938
 20
33.40402497004339
 30
0.0
 10
266.0743933069235
 20
33.35519291671
 30
0.0
 10
266.1285279442669
 20
33.30099212135904
 30
0.0
 10
266.1504617339489
 20
33.28666408291385
 30
0.0
 10
266.1985767537209
 20
33.2721759687486
 30
0.0
 10
266.2245450674237
 20
33.27205939250502
 30
0.0
 10
266.2981926810276
 20
33.28715032534701
 30
0.0
 10
266.341613173035
 20
33.31458707501329
 30
0.0
 10
266.4188168201599
 20
33.37749503134497
 30
0.0
 10
266.4534397475341
 20
33.41454996281602
 30
0.0
 10
266.4847045842668
 20
33.45344312248218
 30
0.0
  0
SPLINE
  5
229
330
1F
100
AcDbEntity
  8
0
  6
Continuous
 62
     7
370
    15
100
AcDbSpline
210
0.0
220
0.0
230
1.0
 70
     8
 71
     3
 72
    26
 73
    22
 74
     0
 42
0.000000001
 43
0.00000001
 40
0.0
 40
0.0
 40
0.0
 40
0.0
 40
0.1249999999999995
 40
0.1249999999999995
 40
0.1874999999999995
 40
0.1874999999999995
 40
0.2499999999999994
 40
0.2499999999999994
 40
0.3749999999999992
 40
0.3749999999999992
 40
0.4999999999999992
 40
0.4999999999999992
 40
0.6249999999999992
 40
0.6249999999999992
 40
0.6874999999999993
 40
0.6874999999999993
 40
0.7499999999999993
 40
0.7499999999999993
 40
0.8749999999999997
 40
0.8749999999999997
 40
1.0
 40
1.0
 40
1.0
 40
1.0
 10
267.59692558761
 20
35.39471004806502
 30
0.0
 10
267.6832331167207
 20
35.50207579376834
 30
0.0
 10
267.7612311202753
 20
35.61623605255004
 30
0.0
 10
267.8648169296945
 20
35.79811811406461
 30
0.0
 10
267.8972892318181
 20
35.86098234685564
 30
0.0
 10
267.9561662769335
 20
35.98705585987859
 30
0.0
 10
267.982705654998
 20
36.0504828595716
 30
0.0
 10
268.0537790706486
 20
36.24191829812742
 30
0.0
 10
268.090029954575
 20
36.37285758761329
 30
0.0
 10
268.1365708076154
 20
36.62426952008737
 30
0.0
 10
268.1475382568041
 20
36.74685678057416
 30
0.0
 10
268.1449024805676
 20
36.97729844925326
 30
0.0
 10
268.1315645280367
 20
37.08270066639214
 30
0.0
 10
268.0940764986318
 20
37.22580519410356
 30
0.0
 10
268.0785771453562
 20
37.27087001839885
 30
0.0
 10
268.0425146513302
 20
37.35329037607117
 30
0.0
 10
268.0218333084796
 20
37.39103836882302
 30
0.0
 10
267.9517505217547
 20
37.49402716420791
 30
0.0
 10
267.8938014319565
 20
37.54901309813148
 30
0.0
 10
267.7601961533173
 20
37.62632247654302
 30
0.0
 10
267.6832415061272
 20
37.64985637454506
 30
0.0
 10
267.5969255924533
 20
37.65757432149254
 30
0.0
  0
LINE
  5
22A
330
1F
100
AcDbEntity
  8
0
  6
Continuous
 62
     7
370
    15
100
AcDbLine
 10
267.5969255925
 20
37.6575743215
 30
0.0
 11
266.0357027827
 21
37.7971711691
 31
0.0
  0
ARC
  5
22B
330
1F
100
AcDbEntity
  8
0
  6
Continuous
 62
     7
370
    15
100
AcDbCircle
 10
242.8193663755
 20
30.8473045724
 30
0.0
 40
11.86649261870447
100
AcDbArc
 50
192.164729815
 51
214.9100933088
  0
SPLINE
  5
22C
330
1F
100
AcDbEntity
  8
0
  6
Continuous
 62
     7
370
    15
100
AcDbSpline
210
0.0
220
0.0
230
1.0
 70
     8
 71
     3
 72
    20
 73
    16
 74
     0
 42
0.000000001
 43
0.00000001
 40
0.0
 40
0.0
 40
0.0
 40
0.0
 40
0.1090270104920481
 40
0.1717035767047139
 40
0.2312621918738046
 40
0.3523993163339962
 40
0.4141164666366686
 40
0.4738574730775066
 40
0.5953140886717906
 40
0.6571630653025784
 40
0.7178376160213367
 40
0.8412238828198946
 40
0.9040837465693958
 40
0.9650324256964804
 40
1.0
 40
1.0
 40
1.0
 40
1.0
 10
222.7017025089051
 20
44.2752238098962
 30
0.0
 10
222.682596983306
 20
44.16202704002961
 30
0.0
 10
222.6525082276354
 20
43.98375662639727
 30
0.0
 10
222.6576268015604
 20
43.72253453746875
 30
0.0
 10
222.6835565871186
 20
43.4413695942431
 30
0.0
 10
222.7444905064863
 20
43.15144284583139
 30
0.0
 10
222.8377509524955
 20
42.85890727540322
 30
0.0
 10
222.9517954041274
 20
42.56577533360524
 30
0.0
 10
223.095374154033
 20
42.27434749605335
 30
0.0
 10
223.264642200554
 20
41.98996304713577
 30
0.0
 10
223.4506802089271
 20
41.71024319930451
 30
0.0
 10
223.6584396270247
 20
41.44083002336643
 30
0.0
 10
223.8819209312011
 20
41.19122649016339
 30
0.0
 10
224.0293857355642
 20
41.03487301033987
 30
0.0
 10
224.1227594756671
 20
40.95286996273154
 30
0.0
 10
224.156800142168
 20
40.92297463678
 30
0.0
  0
ARC
  5
22D
330
1F
100
AcDbEntity
  8
0
  6
Continuous
 62
     7
370
    15
100
AcDbCircle
 10
262.0339419683
 20
39.0864490994
 30
0.0
 40
2.57416899725022
100
AcDbArc
 50
320.7034755418
 51
349.7435996042
  0
LINE
  5
22E
330
1F
100
AcDbEntity
  8
0
  6
Continuous
 62
     7
370
    15
100
AcDbLine
 10
266.0357027827
 20
33.4525637211
 30
0.0
 11
267.5969255876
 21
35.3947100481
 31
0.0
  0
LINE
  5
22F
330
1F
100
AcDbEntity
  8
0
  6
Continuous
 62
     7
370
    15
100
AcDbLine
 10
262.4300941226
 20
35.470803581
 30
0.0
 11
264.0260363426
 21
37.4561405304
 31
0.0
  0
SPLINE
  5
230
330
1F
100
AcDbEntity
  8
0
  6
Continuous
 62
     7
370
    15
100
AcDbSpline
210
0.0
220
0.0
230
1.0
 70
     8
 71
     3
 72
    15
 73
    11
 74
     0
 42
0.000000001
 43
0.00000001
 40
0.0
 40
0.0
 40
0.0
 40
0.0
 40
0.1885497088186015
 40
0.3627478880714217
 40
0.5226974219838175
 40
0.6685359215592848
 40
0.7446366610182389
 40
0.8258111605373446
 40
0.9120799144908492
 40
1.0
 40
1.0
 40
1.0
 40
1.0
 10
221.5956515824708
 20
40.78707052222369
 30
0.0
 10
221.7220706623897
 20
40.60406081073948
 30
0.0
 10
221.9652863880456
 20
40.25197123842763
 30
0.0
 10
222.371654631077
 20
39.80988464032104
 30
0.0
 10
222.7576368692446
 20
39.46466350109012
 30
0.0
 10
223.0645400911281
 20
39.2442100322988
 30
0.0
 10
223.2993938151697
 20
39.10293306418964
 30
0.0
 10
223.4826354616582
 20
39.01044853059172
 30
0.0
 10
223.6682879127343
 20
38.93537651217183
 30
0.0
 10
223.7864884857869
 20
38.90720223851304
 30
0.0
 10
223.8461490502759
 20
38.89298155389926
 30
0.0
  0
SPLINE
  5
231
330
1F
100
AcDbEntity
  8
0
  6
Continuous
 62
     7
370
    15
100
AcDbSpline
210
0.0
220
0.0
230
1.0
 70
     8
 71
     3
 72
    22
 73
    18
 74
     0
 42
0.000000001
 43
0.00000001
 40
0.0
 40
0.0
 40
0.0
 40
0.0
 40
0.1402864692907324
 40
0.2282537884295858
 40
0.2750030522914542
 40
0.323565055054008
 40
0.3962761026350631
 40
0.4526559277739687
 40
0.4926849906388197
 40
0.5822231041263358
 40
0.6617017271911216
 40
0.700226200977229
 40
0.7412752563996583
 40
0.7848545772578678
 40
0.8309688324369418
 40
0.897593496058984
 40
0.9999999999999999
 40
0.9999999999999999
 40
0.9999999999999999
 40
0.9999999999999999
 10
223.0557457090968
 20
44.13728612126748
 30
0.0
 10
222.8310306438883
 20
44.24854835729889
 30
0.0
 10
222.4654068940686
 20
44.42957812454383
 30
0.0
 10
222.0442284991149
 20
44.4132681144309
 30
0.0
 10
221.7852180273994
 20
44.34796451850042
 30
0.0
 10
221.5632248184217
 20
44.24593657570657
 30
0.0
 10
221.3561846622536
 20
44.08713843854712
 30
0.0
 10
221.1944052140899
 20
43.88890771335507
 30
0.0
 10
221.0481315077045
 20
43.63592295040538
 30
0.0
 10
220.9361009251198
 20
43.30260595224618
 30
0.0
 10
220.8987858226722
 20
42.9232112901209
 30
0.0
 10
220.9122302878592
 20
42.6155699757065
 30
0.0
 10
220.9439431123827
 20
42.36998301984787
 30
0.0
 10
221.0007712358151
 20
42.10315225338303
 30
0.0
 10
221.0974630365044
 20
41.77986106591505
 30
0.0
 10
221.2744274118474
 20
41.33136517532961
 30
0.0
 10
221.4744619034089
 20
40.99241899957213
 30
0.0
 10
221.5956515824708
 20
40.7870705222237
 30
0.0
  0
SPLINE
  5
232
330
1F
100
AcDbEntity
  8
0
  6
Continuous
 62
     7
370
    15
100
AcDbSpline
210
0.0
220
0.0
230
1.0
 70
     8
 71
     3
 72
     9
 73
     5
 74
     0
 42
0.000000001
 43
0.00000001
 40
0.0
 40
0.0
 40
0.0
 40
0.0
 40
0.1788333373123255
 40
0.9999999999999999
 40
0.9999999999999999
 40
0.9999999999999999
 40
0.9999999999999999
 10
262.5454160955262
 20
61.84798616278393
 30
0.0
 10
262.5851800018791
 20
61.85693028218604
 30
0.0
 10
262.807531756594
 20
61.90694399627612
 30
0.0
 10
263.0306796708337
 20
61.95576527534106
 30
0.0
 10
263.2139212988557
 20
61.99585568213897
 30
0.0
  0
LINE
  5
233
330
1F
100
AcDbEntity
  8
0
  6
Continuous
 62
     7
370
    15
100
AcDbLine
 10
263.2139212989
 20
61.9958556821
 30
0.0
 11
264.8713693335
 21
61.0390312983
 31
0.0
  0
SPLINE
  5
234
330
1F
100
AcDbEntity
  8
0
  6
Continuous
 62
     7
370
    15
100
AcDbSpline
210
0.0
220
0.0
230
1.0
 70
     8
 71
     3
 72
    16
 73
    12
 74
     0
 42
0.000000001
 43
0.00000001
 40
0.0
 40
0.0
 40
0.0
 40
0.0
 40
0.1249999999999996
 40
0.1249999999999996
 40
0.2499999999999992
 40
0.2499999999999992
 40
0.4999999999999994
 40
0.4999999999999994
 40
0.7499999999999997
 40
0.7499999999999997
 40
1.0
 40
1.0
 40
1.0
 40
1.0
 10
264.8713693335118
 20
61.03903129831166
 30
0.0
 10
264.8981113010702
 20
61.02359348904322
 30
0.0
 10
264.9210818997166
 20
61.00570176963598
 30
0.0
 10
264.9570588518407
 20
60.96752177309085
 30
0.0
 10
264.9703213906197
 20
60.94723795562026
 30
0.0
 10
264.9970765013254
 20
60.88311162432557
 30
0.0
 10
264.996259496065
 20
60.83861877269641
 30
0.0
 10
264.9681791058187
 20
60.75353908035255
 30
0.0
 10
264.9406097508942
 20
60.71216622430625
 30
0.0
 10
264.8674355951348
 20
60.6367350915983
 30
0.0
 10
264.8212017567221
 20
60.60186611677452
 30
0.0
 10
264.7680379717939
 20
60.57117531700748
 30
0.0
  0
LINE
  5
235
330
1F
100
AcDbEntity
  8
0
  6
Continuous
 62
     7
370
    15
100
AcDbLine
 10
215.4843207168
 20
46.7475800664
 30
0.0
 11
216.1070942481
 21
46.3880605594
 31
0.0
  0
SPLINE
  5
236
330
1F
100
AcDbEntity
  8
0
  6
Continuous
 62
     7
370
    15
100
AcDbSpline
210
0.0
220
0.0
230
1.0
 70
     8
 71
     3
 72
    14
 73
    10
 74
     0
 42
0.000000001
 43
0.00000001
 40
0.0
 40
0.0
 40
0.0
 40
0.0
 40
0.0464354858962596
 40
0.23433263433364
 40
0.4276975897054319
 40
0.615129379312877
 40
0.8081511918621581
 40
0.9928219127097655
 40
1.0
 40
1.0
 40
1.0
 40
1.0
 10
268.4131883792678
 20
53.95890268906539
 30
0.0
 10
268.4181636010762
 20
53.96184989106878
 30
0.0
 10
268.4432706245144
 20
53.97672268923248
 30
0.0
 10
268.483654967305
 20
54.00689250926137
 30
0.0
 10
268.5250845794986
 20
54.0514720239478
 30
0.0
 10
268.5534959232386
 20
54.09997361849445
 30
0.0
 10
268.5652357793488
 20
54.14960153066012
 30
0.0
 10
268.5674876008832
 20
54.18419544886397
 30
0.0
 10
268.5617503562535
 20
54.20087427631542
 30
0.0
 10
268.5615356953277
 20
54.20149832022014
 30
0.0
  0
LINE
  5
237
330
1F
100
AcDbEntity
  8
0
  6
Continuous
 62
     7
370
    15
100
AcDbLine
 10
212.8323295456
 20
56.4290112923
 30
0.0
 11
212.8452004039
 21
56.4677032438
 31
0.0
  0
LWPOLYLINE
  5
238
330
1F
100
AcDbEntity
  8
0
  6
Continuous
 62
     7
370
    15
100
AcDbPolyline
 90
       11
 70
   128
 43
0.0
 10
212.8713780222
 20
56.5463975402
 10
212.879577183
 20
56.5710455883
 10
212.8967453327
 20
56.6127915032
 10
212.9050360217
 20
56.6259651499
 10
212.9093179453
 20
56.6249500316
 10
212.9104833015
 20
56.6110570917
 10
212.9080088185
 20
56.5812055967
 10
212.8983855747
 20
56.5162649868
 10
212.8578601728
 20
56.3053927559
 10
212.8469507681
 20
56.2532851021
 10
212.8469507681
 20
56.2532851021
  0
SPLINE
  5
239
330
1F
100
AcDbEntity
  8
0
  6
Continuous
 62
     7
370
    15
100
AcDbSpline
210
0.0
220
0.0
230
1.0
 70
     8
 71
     3
 72
    10
 73
     6
 74
     0
 42
0.000000001
 43
0.00000001
 40
0.0
 40
0.0
 40
0.0
 40
0.0
 40
0.1815690553731935
 40
0.7767097940434246
 40
1.0
 40
1.0
 40
1.0
 40
1.0
 10
212.7630136368066
 20
55.98940646297088
 30
0.0
 10
212.7613888224537
 20
56.01511192486817
 30
0.0
 10
212.7544382480905
 20
56.1250738562942
 30
0.0
 10
212.785195469294
 20
56.26783314867047
 30
0.0
 10
212.8222264795358
 20
56.39446317849546
 30
0.0
 10
212.8323295456014
 20
56.42901129232906
 30
0.0
  0
SPLINE
  5
23A
330
1F
100
AcDbEntity
  8
0
  6
Continuous
 62
     7
370
    15
100
AcDbSpline
210
0.0
220
0.0
230
1.0
 70
     8
 71
     3
 72
     8
 73
     4
 74
     0
 42
0.000000001
 43
0.00000001
 40
0.0
 40
0.0
 40
0.0
 40
0.0
 40
1.0
 40
1.0
 40
1.0
 40
1.0
 10
212.7578654453972
 20
55.39237708790069
 30
0.0
 10
212.7864677409716
 20
55.39082367276716
 30
0.0
 10
212.8161641207092
 20
55.38443949480438
 30
0.0
 10
212.8470945957675
 20
55.37138013811629
 30
0.0
  0
SPLINE
  5
23B
330
1F
100
AcDbEntity
  8
0
  6
Continuous
 62
     7
370
    15
100
AcDbSpline
210
0.0
220
0.0
230
1.0
 70
     8
 71
     3
 72
    10
 73
     6
 74
     0
 42
0.000000001
 43
0.00000001
 40
0.0
 40
0.0
 40
0.0
 40
0.0
 40
0.4999999999999989
 40
0.4999999999999989
 40
1.0
 40
1.0
 40
1.0
 40
1.0
 10
212.846950768064
 20
56.25328510209505
 30
0.0
 10
212.8169622981551
 20
56.11149424592504
 30
0.0
 10
212.7965289989686
 20
55.96923642988173
 30
0.0
 10
212.7678960117428
 20
55.68242616171197
 30
0.0
 10
212.7600249520963
 20
55.53796962851645
 30
0.0
 10
212.7578654453981
 20
55.39237708789698
 30
0.0
  0
ARC
  5
23C
330
1F
100
AcDbEntity
  8
0
  6
Continuous
 62
     7
370
    15
100
AcDbCircle
 10
213.9771982145
 20
55.2243228497
 30
0.0
 40
1.230859305078458
100
AcDbArc
 50
172.152662553
 51
234.515109951
  0
SPLINE
  5
23D
330
1F
100
AcDbEntity
  8
0
  6
Continuous
 62
     7
370
    15
100
AcDbSpline
210
0.0
220
0.0
230
1.0
 70
     8
 71
     3
 72
     8
 73
     4
 74
     0
 42
0.000000001
 43
0.00000001
 40
0.0
 40
0.0
 40
0.0
 40
0.0
 40
1.0
 40
1.0
 40
1.0
 40
1.0
 10
212.7578654453979
 20
43.12845832033464
 30
0.0
 10
212.7864677409721
 20
43.09776091647652
 30
0.0
 10
212.8161641207095
 20
43.07070746462605
 30
0.0
 10
212.8470945957675
 20
43.04843616223098
 30
0.0
  0
ARC
  5
23E
330
1F
100
AcDbEntity
  8
0
  6
Continuous
 62
     7
370
    15
100
AcDbCircle
 10
216.4903670817
 20
43.0209670543
 30
0.0
 40
3.734049120875647
100
AcDbArc
 50
122.5266432908
 51
178.3504108787
  0
LINE
  5
23F
330
1F
100
AcDbEntity
  8
0
  6
Continuous
 62
     7
370
    15
100
AcDbLine
 10
214.4825997188
 20
46.1692988433
 30
0.0
 11
215.4843207168
 21
46.7475800664
 31
0.0
  0
SPLINE
  5
240
330
1F
100
AcDbEntity
  8
0
  6
Continuous
 62
     7
370
    15
100
AcDbSpline
210
0.0
220
0.0
230
1.0
 70
     8
 71
     3
 72
     9
 73
     5
 74
     0
 42
0.000000001
 43
0.00000001
 40
0.0
 40
0.0
 40
0.0
 40
0.0
 40
0.3882939128165615
 40
1.0
 40
1.0
 40
1.0
 40
1.0
 10
212.7916706152098
 20
44.1956091581616
 30
0.0
 10
212.7833512845338
 20
44.14889636154974
 30
0.0
 10
212.76192594048
 20
44.02859368599912
 30
0.0
 10
212.7626008131105
 20
43.90589544224575
 30
0.0
 10
212.7630136368066
 20
43.83084017965509
 30
0.0
  0
ARC
  5
241
330
1F
100
AcDbEntity
  8
0
  6
Continuous
 62
     7
370
    15
100
AcDbCircle
 10
215.2752809504
 20
43.7081770721
 30
0.0
 40
2.530989991238335
100
AcDbArc
 50
122.9343892187
 51
168.8962877716
  0
LINE
  5
242
330
1F
100
AcDbEntity
  8
0
  6
Continuous
 62
     7
370
    15
100
AcDbLine
 10
214.4825997188
 20
46.1692988433
 30
0.0
 11
213.8992366243
 21
45.8324210196
 31
0.0
  0
SPLINE
  5
243
330
1F
100
AcDbEntity
  8
0
  6
Continuous
 62
     7
370
    15
100
AcDbSpline
210
0.0
220
0.0
230
1.0
 70
     8
 71
     3
 72
     9
 73
     5
 74
     0
 42
0.000000001
 43
0.00000001
 40
0.0
 40
0.0
 40
0.0
 40
0.0
 40
0.2367616494441725
 40
1.0
 40
1.0
 40
1.0
 40
1.0
 10
212.8026039703568
 20
42.98706717093989
 30
0.0
 10
212.7953658454495
 20
42.99707348352106
 30
0.0
 10
212.7647944884564
 20
43.03933671578294
 30
0.0
 10
212.7608647627582
 20
43.08988099105016
 30
0.0
 10
212.7578654453982
 20
43.12845832033513
 30
0.0
  0
LWPOLYLINE
  5
244
330
1F
100
AcDbEntity
  8
0
  6
Continuous
 62
     7
370
     0
100
AcDbPolyline
 90
       27
 70
   128
 43
0.0
 10
234.571734757
 20
34.8309177598
 10
234.9282252246
 20
36.5498891096
 10
235.3862592276
 20
38.2905867549
 10
235.9430222959
 20
40.0423146744
 10
236.5950933012
 20
41.7943090693
 10
237.3384654793
 20
43.5358045033
 10
238.1685710497
 20
45.2561000531
 10
239.0803092833
 20
46.9446250616
 10
240.0680778451
 20
48.5910040912
 10
241.1258072184
 20
50.185120678
 10
242.2469979997
 20
51.7171794936
 10
243.4247608362
 20
53.1777665344
 10
244.6518587579
 20
54.5579069678
 10
245.920751647
 20
55.8491202793
 10
247.223642569
 20
57.0434723828
 10
248.5525256826
 20
58.1336243727
 10
249.899235433
 20
59.1128776194
 10
251.2554967263
 20
59.9752149299
 10
252.6129757778
 20
60.7153375216
 10
253.9633313199
 20
61.3286975818
 10
255.2982658564
 20
61.8115262122
 10
256.6095766487
 20
62.1608565879
 10
257.889206118
 20
62.3745421871
 10
259.129291357
 20
62.4512699814
 10
260.3222124451
 20
62.3905685033
 10
261.4606392698
 20
62.1928107437
 10
262.5375765682
 20
61.8592118599
  0
LWPOLYLINE
  5
245
330
1F
100
AcDbEntity
  8
0
  6
Continuous
 62
     7
370
     0
100
AcDbPolyline
 90
       27
 70
   128
 43
0.0
 10
233.8555600215
 20
34.8256829412
 10
234.210767273
 20
36.5677631363
 10
234.6685435077
 20
38.3324471433
 10
235.2261086526
 20
40.1090180449
 10
235.8800766173
 20
41.8866867348
 10
236.6264758578
 20
43.6546574396
 10
237.4607734949
 20
45.402193282
 10
238.3779028432
 20
47.1186814852
 10
239.3722941807
 20
48.7936978249
 10
240.4379085737
 20
50.417069935
 10
241.5682745511
 20
51.9789390846
 10
242.756527406
 20
53.46982005
 10
243.9954508844
 20
54.8806587184
 10
245.2775210103
 20
56.2028870734
 10
246.5949517779
 20
57.4284752288
 10
247.9397424368
 20
58.5499801936
 10
249.3037260797
 20
59.5605910737
 10
250.6786192408
 20
60.4541704342
 10
252.0560722005
 20
61.225291572
 10
253.4277196938
 20
61.8692714721
 10
254.7852317122
 20
62.3821992478
 10
256.1203640918
 20
62.7609598913
 10
257.4250085801
 20
63.0032531909
 10
258.6912420777
 20
63.1076077007
 10
259.9113747547
 20
63.0733896762
 10
261.0779967512
 20
62.9008069234
 10
262.1840231776
 20
62.5909075363
  0
ARC
  5
246
330
1F
100
AcDbEntity
  8
0
  6
Continuous
 62
     7
370
     0
100
AcDbCircle
 10
235.3340279746
 20
51.2790420821
 30
0.0
 40
33.53091237328268
100
AcDbArc
 50
344.0076430355
 51
350.5842748241
  0
LWPOLYLINE
  5
247
330
1F
100
AcDbEntity
  8
0
  6
Continuous
 62
     7
370
     0
100
AcDbPolyline
 90
       24
 70
   128
 43
0.0
 10
257.8185319679
 20
25.1538784432
 10
257.5375473876
 20
24.8667440416
 10
256.2647949804
 20
23.6447502338
 10
254.9632209402
 20
22.5212479961
 10
253.6406225183
 20
21.5029678169
 10
252.3049229151
 20
20.5960098383
 10
250.9641238154
 20
19.8058073117
 10
249.6262574534
 20
19.1370940497
 10
248.2993384941
 20
18.5938760673
 10
246.9913160208
 20
18.1794075838
 10
245.7100259148
 20
17.8961715271
 10
244.4631439138
 20
17.7458646604
 10
243.2581396289
 20
17.7293874168
 10
242.1022317975
 20
17.8468385053
 10
241.002345038
 20
18.0975143197
 10
239.9650683674
 20
18.4799131535
 10
238.9966157285
 20
18.9917441959
 10
238.1027887648
 20
19.6299412554
 10
237.2889420646
 20
20.3906811285
 10
236.5599510841
 20
21.2694065022
 10
235.9201829401
 20
22.2608532564
 10
235.373470248
 20
23.3590819982
 10
234.9230881625
 20
24.5575136434
 10
234.571734757
 20
25.848968829
  0
ARC
  5
248
330
1F
100
AcDbEntity
  8
0
  6
Continuous
 62
     7
370
     0
100
AcDbCircle
 10
257.426993448
 20
52.2134063703
 30
0.0
 40
11.12399372828671
100
AcDbArc
 50
9.0277456972
 51
48.705552358
  0
LWPOLYLINE
  5
249
330
1F
100
AcDbEntity
  8
0
  6
Continuous
 62
     7
370
     0
100
AcDbPolyline
 90
       28
 70
   128
 43
0.0
 10
243.1451730942
 20
35.2892838968
 10
243.1974152277
 20
36.3936695181
 10
243.3534846531
 20
37.5444843329
 10
243.6114187069
 20
38.7272561772
 10
243.9679737186
 20
39.9271110088
 10
244.4186658021
 20
41.128959957
 10
244.9578272429
 20
42.317689074
 10
245.5786777731
 20
43.4783494013
 10
246.2734098371
 20
44.596344962
 10
247.033286776
 20
45.6576163132
 10
247.8487526965
 20
46.6488173519
 10
248.7095526415
 20
47.5574831499
 10
249.6048615522
 20
48.3721867076
 10
250.5234203995
 20
49.082682655
 10
251.4536777731
 20
49.6800360934
 10
252.3839351467
 20
50.1567349567
 10
253.3024939941
 20
50.5067844801
 10
254.1978029047
 20
50.7257825877
 10
255.0586028497
 20
50.8109752513
 10
255.8740687702
 20
50.7612911237
 10
256.6339457091
 20
50.5773550116
 10
257.3286777731
 20
50.2614800183
 10
257.9495283034
 20
49.8176384553
 10
258.4886897442
 20
49.2514118876
 10
258.9393818277
 20
48.5699209428
 10
259.2959368394
 20
47.7817357651
 10
259.5538708931
 20
46.8967682403
 10
259.6072672881
 20
46.636739813
  0
LWPOLYLINE
  5
24A
330
1F
100
AcDbEntity
  8
0
  6
Continuous
 62
     7
370
     0
100
AcDbPolyline
 90
       14
 70
   128
 43
0.0
 10
249.8580596449
 20
29.7487869966
 10
249.6048615522
 20
29.6645786274
 10
248.7095526415
 20
29.4455805198
 10
247.8487526965
 20
29.3603878562
 10
247.033286776
 20
29.4100719838
 10
246.2734098371
 20
29.5940080959
 10
245.5786777731
 20
29.9098830891
 10
244.9578272429
 20
30.3537246522
 10
244.4186658021
 20
30.9199512199
 10
243.9679737186
 20
31.6014421646
 10
243.6114187069
 20
32.3896273424
 10
243.3534846531
 20
33.2745948672
 10
243.1974152277
 20
34.2452157589
 10
243.1451730942
 20
35.2892838968
  0
LWPOLYLINE
  5
24B
330
1F
100
AcDbEntity
  8
0
  6
Continuous
 62
     7
370
     0
100
AcDbPolyline
 90
       26
 70
   128
 43
0.0
 10
223.7174142811
 20
35.6872828513
 10
223.7692840781
 20
37.2798663742
 10
223.9245890765
 20
38.9229915767
 10
224.1824178849
 20
40.6070159466
 10
224.5412574612
 20
42.3220569594
 10
224.9990019922
 20
44.0580500723
 10
225.5529652509
 20
45.8048077876
 10
226.1998963607
 20
47.5520794364
 10
226.9359988725
 20
49.2896113339
 10
227.7569530441
 20
51.007206952
 10
228.6579411901
 20
52.6947867567
 10
229.6336759536
 20
54.3424473586
 10
230.6784313352
 20
55.9405196301
 10
231.7860762948
 20
57.4796254478
 10
232.9501107313
 20
58.9507327267
 10
234.1637036279
 20
60.3452084242
 10
235.4197331388
 20
61.6548692026
 10
236.7108283834
 20
62.8720294516
 10
238.0294127015
 20
63.9895463909
 10
239.367748116
 20
65.0008619868
 10
240.7179807425
 20
65.9000414371
 10
242.072186879
 20
66.6818079993
 10
243.4224195055
 20
67.3415739564
 10
244.7607549199
 20
67.8754675395
 10
246.079339238
 20
68.2803556485
 10
246.119153477
 20
68.2906477039
  0
ARC
  5
24C
330
1F
100
AcDbEntity
  8
0
  6
Continuous
 62
     7
370
     0
100
AcDbCircle
 10
242.5588876151
 20
35.4848744933
 30
0.0
 40
18.84256050908532
100
AcDbArc
 50
179.384512116
 51
194.8100829327
  0
LWPOLYLINE
  5
24D
330
1F
100
AcDbEntity
  8
0
  6
Continuous
 62
     7
370
     0
100
AcDbPolyline
 90
       23
 70
   128
 43
0.0
 10
231.5404269456
 20
37.5140770559
 10
231.9002347789
 20
39.1823163909
 10
232.359394415
 20
40.8702815688
 10
232.9150027887
 20
42.567300326
 10
233.563547032
 20
44.2626431571
 10
234.300926684
 20
45.9455911528
 10
235.1224796166
 20
47.605503771
 10
236.0230115109
 20
49.231886112
 10
236.9968286985
 20
50.8144552737
 10
238.0377741604
 20
52.343205365
 10
239.139266455
 20
53.8084707697
 10
240.2943413295
 20
55.200987257
 10
241.495695752
 20
56.511950556
 10
242.7357340854
 20
57.7330720205
 10
244.0066161109
 20
58.856631035
 10
245.300306599
 20
59.8755238286
 10
246.6086261119
 20
60.783308389
 10
247.923302719
 20
61.5742451924
 10
249.2360242968
 20
62.2433334923
 10
250.5384910824
 20
62.7863429369
 10
251.8224681493
 20
63.1998403154
 10
253.0798374738
 20
63.4812112653
 10
254.0192349892
 20
63.6061614208
  0
LWPOLYLINE
  5
24E
330
1F
100
AcDbEntity
  8
0
  6
Continuous
 62
     7
370
     0
100
AcDbPolyline
 90
       20
 70
   128
 43
0.0
 10
232.1144220506
 20
37.5188741321
 10
232.4756032366
 20
39.169150229
 10
232.9353845761
 20
40.8384144782
 10
233.490826341
 20
42.5159940167
 10
234.1383771739
 20
44.191162816
 10
234.8738967951
 20
45.853210261
 10
235.692682474
 20
47.4915096315
 10
236.5894990974
 20
49.0955860463
 10
237.5586126417
 20
50.6551834378
 10
238.5938268345
 20
52.1603301259
 10
239.6885227723
 20
53.6014025748
 10
240.83570124
 20
54.9691869238
 10
242.0280274623
 20
56.2549378981
 10
243.2578780002
 20
57.4504347239
 10
244.5173894934
 20
58.5480336901
 10
245.7985089371
 20
59.5407170205
 10
247.0930451703
 20
60.4221377433
 10
248.3927212485
 20
61.1866602725
 10
249.6892273643
 20
61.82939644
 10
249.9453719532
 20
61.942072901
  0
LWPOLYLINE
  5
24F
330
1F
100
AcDbEntity
  8
0
  6
Continuous
 62
     7
370
     0
100
AcDbPolyline
 90
        8
 70
   128
 43
0.0
 10
245.9736002189
 20
35.2892838968
 10
246.0258554318
 20
34.3411029689
 10
246.1818289345
 20
33.4676280819
 10
246.4391563279
 20
32.6821002246
 10
246.7939367908
 20
31.9964271988
 10
247.2407922133
 20
31.4210031085
 10
247.7729487224
 20
30.9645507963
 10
247.9932875139
 20
30.8252970337
  0
LWPOLYLINE
  5
250
330
1F
100
AcDbEntity
  8
0
  6
Continuous
 62
     7
370
     0
100
AcDbPolyline
 90
       21
 70
   128
 43
0.0
 10
257.7424951571
 20
47.7132498501
 10
257.6672414151
 20
47.7553720179
 10
257.0226299556
 20
48.0209859322
 10
256.3150368938
 20
48.1539328061
 10
255.5551886191
 20
48.1521973006
 10
254.7546036569
 20
48.0158057241
 10
253.9254180591
 20
47.7468256339
 10
253.0802014341
 20
47.3493344941
 10
252.2317664045
 20
46.8293578651
 10
251.3929743804
 20
46.1947780625
 10
250.5765405939
 20
45.4552146694
 10
249.7948413489
 20
44.6218787128
 10
249.0597264093
 20
43.7074027165
 10
248.3823393681
 20
42.7256492044
 10
247.7729487224
 20
41.6915005589
 10
247.2407922133
 20
40.6206334194
 10
246.7939367908
 20
39.5292810402
 10
246.4391563279
 20
38.4339872108
 10
246.1818289345
 20
37.3513554693
 10
246.0258554318
 20
36.2977974092
 10
245.9736002189
 20
35.2892838968
  0
LWPOLYLINE
  5
251
330
1F
100
AcDbEntity
  8
0
  6
Continuous
 62
     7
370
     0
100
AcDbPolyline
 90
       14
 70
   128
 43
0.0
 10
259.085423299
 20
29.1819289582
 10
259.4592776155
 20
28.7157064156
 10
259.9264980211
 20
28.3850363701
 10
260.4739680562
 20
28.1992018499
 10
261.0863183821
 20
28.1634198598
 10
261.7463582508
 20
28.2786949213
 10
262.4355581071
 20
28.541790873
 10
263.1345697762
 20
28.9453217202
 10
263.8237696325
 20
29.4779589849
 10
264.4838095012
 20
30.1247497347
 10
265.0961598271
 20
30.8675363622
 10
265.6436298621
 20
31.6854663303
 10
266.1108502677
 20
32.5555775738
 10
266.4847045843
 20
33.4534431225
  0
LWPOLYLINE
  5
252
330
1F
100
AcDbEntity
  8
0
  6
Continuous
 62
     7
370
     0
100
AcDbPolyline
 90
       14
 70
   128
 43
0.0
 10
266.4846837846
 20
37.9065282358
 10
266.1108272831
 20
38.3727384768
 10
265.6436071836
 20
38.7033982892
 10
265.0961396779
 20
38.8892251155
 10
264.4837937296
 20
38.9250022703
 10
263.8237596241
 20
38.8097253875
 10
263.1345663885
 20
38.5466306157
 10
262.4355616291
 20
38.1431037705
 10
261.7463683897
 20
37.6104729934
 10
261.0863342768
 20
36.9636907393
 10
260.4739883176
 20
36.2209140181
 10
259.9265207978
 20
35.4029946764
 10
259.4593006816
 20
34.5328940272
 10
259.085444161
 20
33.6350382604
  0
LINE
  5
253
330
1F
100
AcDbEntity
  8
0
  6
Continuous
 62
     7
370
     0
100
AcDbLine
 10
257.6196489051
 20
29.6349508192
 30
0.0
 11
257.7080372527
 21
29.3050880266
 31
0.0
  0
LWPOLYLINE
  5
254
330
1F
100
AcDbEntity
  8
0
  6
Continuous
 62
     7
370
     0
100
AcDbPolyline
 90
        3
 70
   128
 43
0.0
 10
265.8949173504
 20
37.8615062164
 10
265.5412269644
 20
38.2642733532
 10
265.2519977439
 20
38.4707619232
  0
LWPOLYLINE
  5
255
330
1F
100
AcDbEntity
  8
0
  6
Continuous
 62
     7
370
     0
100
AcDbPolyline
 90
       13
 70
   128
 43
0.0
 10
259.8360925436
 20
28.8987875297
 10
259.897548854
 20
28.8688644658
 10
260.4009997299
 20
28.7154136454
 10
260.9602085628
 20
28.6944325129
 10
261.5603362022
 20
28.8064778228
 10
262.1854576771
 20
29.0485763438
 10
262.8189847812
 20
29.4143037563
 10
263.4441062562
 20
29.8939551273
 10
264.0442338955
 20
30.4748024412
 10
264.6034427284
 20
31.1414323492
 10
265.1068936043
 20
31.8761551781
 10
265.5412269644
 20
32.6594743428
 10
265.8949173504
 20
33.470603707
  0
LINE
  5
256
330
1F
100
AcDbEntity
  8
0
  6
Continuous
 62
     7
370
     0
100
AcDbLine
 10
257.2103953285
 20
29.8712078801
 30
0.0
 11
257.6196489051
 21
29.6349508192
 31
0.0
  0
LINE
  5
257
330
1F
100
AcDbEntity
  8
0
  6
Continuous
 62
     7
370
     0
100
AcDbLine
 10
225.2942627567
 20
35.1893404572
 30
0.0
 11
227.4474025518
 21
36.4323216033
 31
0.0
  0
LWPOLYLINE
  5
258
330
1F
100
AcDbEntity
  8
0
  6
Continuous
 62
     7
370
     0
100
AcDbPolyline
 90
       22
 70
   128
 43
0.0
 10
212.8470945958
 20
55.3713801381
 10
213.3768904835
 20
56.8436360112
 10
213.9959451143
 20
58.3072517034
 10
214.699175523
 20
59.7502096845
 10
215.4808075896
 20
61.1606620415
 10
216.3344234496
 20
62.5270277606
 10
217.2530141906
 20
63.8380878164
 10
218.2290374008
 20
65.0830772904
 10
219.2544790992
 20
66.2517737594
 10
220.3209195369
 20
67.3345812312
 10
221.4196023305
 20
68.3226089349
 10
222.5415063593
 20
69.2077443224
 10
223.6774198366
 20
69.982719679
 10
224.8180159463
 20
70.6411717976
 10
225.9539294236
 20
71.1776942259
 10
227.0758334524
 20
71.5878816583
 10
228.174516246
 20
71.868366107
 10
229.2409566837
 20
72.016844556
 10
230.2663983822
 20
72.0320978708
 10
231.2424215924
 20
71.9140008088
 10
232.1610123333
 20
71.6635230474
 10
232.70477896
 20
71.4395919233
  0
ARC
  5
259
330
1F
100
AcDbEntity
  8
0
  6
Continuous
 62
     7
370
     0
100
AcDbCircle
 10
218.7513719852
 20
46.0501775164
 30
0.0
 40
6.623514372936909
100
AcDbArc
 50
206.9488356075
 51
235.3456503486
  0
ARC
  5
25A
330
1F
100
AcDbEntity
  8
0
  6
Continuous
 62
     7
370
     0
100
AcDbCircle
 10
245.7990113722
 20
28.1937122596
 30
0.0
 40
12.17244543786149
100
AcDbArc
 50
191.1312529963
 51
218.6565143382
  0
LINE
  5
25B
330
1F
100
AcDbEntity
  8
0
  6
Continuous
 62
     7
370
     0
100
AcDbLine
 10
229.2593659438
 20
28.4970603739
 30
0.0
 11
230.9829364578
 21
29.4920564525
 31
0.0
  0
LINE
  5
25C
330
1F
100
AcDbEntity
  8
0
  6
Continuous
 62
     7
370
     0
100
AcDbLine
 10
225.2942627567
 20
34.3727996454
 30
0.0
 11
227.4474025518
 21
35.6157807915
 31
0.0
  0
LINE
  5
25D
330
1F
100
AcDbEntity
  8
0
  6
Continuous
 62
     7
370
     0
100
AcDbLine
 10
267.8620906306
 20
35.1668982695
 30
0.0
 11
267.5969255876
 21
35.3947100481
 31
0.0
  0
LINE
  5
25E
330
1F
100
AcDbEntity
  8
0
  6
Continuous
 62
     7
370
     0
100
AcDbLine
 10
232.9651571741
 20
27.8237936398
 30
0.0
 11
232.8993105777
 21
28.0838186993
 31
0.0
  0
LINE
  5
25F
330
1F
100
AcDbEntity
  8
0
  6
Continuous
 62
     7
370
     0
100
AcDbLine
 10
232.452204725
 20
27.3718804056
 30
0.0
 11
232.1144220506
 21
28.5369252013
 31
0.0
  0
ARC
  5
260
330
1F
100
AcDbEntity
  8
0
  6
Continuous
 62
     7
370
     0
100
AcDbCircle
 10
243.9485310667
 20
31.4033608601
 30
0.0
 40
12.73597366899334
100
AcDbArc
 50
193.0289139223
 51
204.5990437934
  0
LINE
  5
261
330
1F
100
AcDbEntity
  8
0
  6
Continuous
 62
     7
370
     0
100
AcDbLine
 10
264.0260363426
 20
37.4561405304
 30
0.0
 11
267.5969255876
 21
35.3947100481
 31
0.0
  0
LINE
  5
262
330
1F
100
AcDbEntity
  8
0
  6
Continuous
 62
     7
370
     0
100
AcDbLine
 10
260.1719259448
 20
63.7519622203
 30
0.0
 11
260.0715559252
 21
63.6940198413
 31
0.0
  0
ARC
  5
263
330
1F
100
AcDbEntity
  8
0
  6
Continuous
 62
     7
370
     0
100
AcDbCircle
 10
218.7927818851
 20
53.0573083154
 30
0.0
 40
1.964288976023114
100
AcDbArc
 50
160.1800805246
 51
207.3804133616
  0
ARC
  5
264
330
1F
100
AcDbEntity
  8
0
  6
Continuous
 62
     7
370
     0
100
AcDbCircle
 10
216.5596597732
 20
52.9958748753
 30
0.0
 40
0.8231425509786507
100
AcDbArc
 50
40.3517278188
 51
62.0985124778
  0
LINE
  5
265
330
1F
100
AcDbEntity
  8
0
  6
Continuous
 62
     7
370
     0
100
AcDbLine
 10
216.9448516006
 20
53.7233299704
 30
0.0
 11
217.0926540952
 21
54.2775853681
 31
0.0
  0
LINE
  5
266
330
1F
100
AcDbEntity
  8
0
  6
Continuous
 62
     7
370
     0
100
AcDbLine
 10
216.9448516006
 20
53.7233299704
 30
0.0
 11
215.691631973
 21
54.4467982619
 31
0.0
  0
LINE
  5
267
330
1F
100
AcDbEntity
  8
0
  6
Continuous
 62
     7
370
     0
100
AcDbLine
 10
212.8469507681
 20
56.2532851021
 30
0.0
 11
212.8323295456
 21
56.4290112923
 31
0.0
  0
ARC
  5
268
330
1F
100
AcDbEntity
  8
0
  6
Continuous
 62
     7
370
     0
100
AcDbCircle
 10
216.6632010178
 20
39.6944338344
 30
0.0
 40
0.5806344198067296
100
AcDbArc
 50
25.5708468831
 51
60.9826879702
  0
ARC
  5
269
330
1F
100
AcDbEntity
  8
0
  6
Continuous
 62
     7
370
     0
100
AcDbCircle
 10
218.9005726376
 20
40.8482012729
 30
0.0
 40
2.059656355480463
100
AcDbArc
 50
172.8744043428
 51
198.2795396692
  0
LINE
  5
26A
330
1F
100
AcDbEntity
  8
0
  6
Continuous
 62
     7
370
     0
100
AcDbLine
 10
216.099667132
 20
45.235785696
 30
0.0
 11
214.4825997188
 21
46.1692988433
 31
0.0
  0
LINE
  5
26B
330
1F
100
AcDbEntity
  8
0
  6
Continuous
 62
     7
370
     0
100
AcDbLine
 10
216.9448516006
 20
40.2021830625
 30
0.0
 11
215.691631973
 21
40.9256513541
 31
0.0
  0
LINE
  5
26C
330
1F
100
AcDbEntity
  8
0
  6
Continuous
 62
     7
370
     0
100
AcDbLine
 10
216.9448516006
 20
40.2021830625
 30
0.0
 11
217.0926540952
 21
39.8185767927
 31
0.0
  0
OLE2FRAME
  5
26D
330
1F
100
AcDbEntity
  8
0
100
AcDbOle2Frame
 70
     2
  3
Paintbrush-Bild
 10
13.8511154363
 20
38.264191557
 30
0.0
 11
51.6290888628
 21
31.9806341108
 31
0.0
 71
     2
 72
     0
 73
     1
 90
    12928
310
80552BED0767C5B32B40DDAF6807D121434000000000000000006FFBDDFB85D0
310
4940DDAF6807D121434000000000000000006FFBDDFB85D04940416F4BD60AFB
310
3F4000000000000000002BED0767C5B32B40416F4BD60AFB3F40000000000000
310
0000000000000100000000010000010000000100000000000100000000320000
310
D0CF11E0A1B11AE1000000000000000000000000000000003E000300FEFF0900
310
0600000000000000000000000100000001000000000000000010000002000000
310
01000000FEFFFFFF0000000000000000FFFFFFFFFFFFFFFFFFFFFFFFFFFFFFFF
310
FFFFFFFFFFFFFFFFFFFFFFFFFFFFFFFFFFFFFFFFFFFFFFFFFFFFFFFFFFFFFFFF
310
FFFFFFFFFFFFFFFFFFFFFFFFFFFFFFFFFFFFFFFFFFFFFFFFFFFFFFFFFFFFFFFF
310
FFFFFFFFFFFFFFFFFFFFFFFFFFFFFFFFFFFFFFFFFFFFFFFFFFFFFFFFFFFFFFFF
310
FFFFFFFFFFFFFFFFFFFFFFFFFFFFFFFFFFFFFFFFFFFFFFFFFFFFFFFFFFFFFFFF
310
FFFFFFFFFFFFFFFFFFFFFFFFFFFFFFFFFFFFFFFFFFFFFFFFFFFFFFFFFFFFFFFF
310
FFFFFFFFFFFFFFFFFFFFFFFFFFFFFFFFFFFFFFFFFFFFFFFFFFFFFFFFFFFFFFFF
310
FFFFFFFFFFFFFFFFFFFFFFFFFFFFFFFFFFFFFFFFFFFFFFFFFFFFFFFFFFFFFFFF
310
FFFFFFFFFFFFFFFFFFFFFFFFFFFFFFFFFFFFFFFFFFFFFFFFFFFFFFFFFFFFFFFF
310
FFFFFFFFFFFFFFFFFFFFFFFFFFFFFFFFFFFFFFFFFFFFFFFFFFFFFFFFFFFFFFFF
310
FFFFFFFFFFFFFFFFFFFFFFFFFFFFFFFFFFFFFFFFFFFFFFFFFFFFFFFFFFFFFFFF
310
FFFFFFFFFFFFFFFFFFFFFFFFFFFFFFFFFFFFFFFFFFFFFFFFFFFFFFFFFFFFFFFF
310
FFFFFFFFFFFFFFFFFFFFFFFFFFFFFFFFFFFFFFFFFFFFFFFFFFFFFFFFFFFFFFFF
310
FFFFFFFFFFFFFFFFFFFFFFFFFFFFFFFFFFFFFFFFFFFFFFFFFFFFFFFFFFFFFFFF
310
FDFFFFFFFEFFFFFFFEFFFFFFFEFFFFFF05000000060000000700000008000000
310
090000000A0000000B0000000C0000000D0000000E0000000F00000010000000
310
11000000120000001300000014000000150000001600000017000000FEFFFFFF
310
FFFFFFFFFFFFFFFFFFFFFFFFFFFFFFFFFFFFFFFFFFFFFFFFFFFFFFFFFFFFFFFF
310
FFFFFFFFFFFFFFFFFFFFFFFFFFFFFFFFFFFFFFFFFFFFFFFFFFFFFFFFFFFFFFFF
310
FFFFFFFFFFFFFFFFFFFFFFFFFFFFFFFFFFFFFFFFFFFFFFFFFFFFFFFFFFFFFFFF
310
FFFFFFFFFFFFFFFFFFFFFFFFFFFFFFFFFFFFFFFFFFFFFFFFFFFFFFFFFFFFFFFF
310
FFFFFFFFFFFFFFFFFFFFFFFFFFFFFFFFFFFFFFFFFFFFFFFFFFFFFFFFFFFFFFFF
310
FFFFFFFFFFFFFFFFFFFFFFFFFFFFFFFFFFFFFFFFFFFFFFFFFFFFFFFFFFFFFFFF
310
FFFFFFFFFFFFFFFFFFFFFFFFFFFFFFFFFFFFFFFFFFFFFFFFFFFFFFFFFFFFFFFF
310
FFFFFFFFFFFFFFFFFFFFFFFFFFFFFFFFFFFFFFFFFFFFFFFFFFFFFFFFFFFFFFFF
310
FFFFFFFFFFFFFFFFFFFFFFFFFFFFFFFFFFFFFFFFFFFFFFFFFFFFFFFFFFFFFFFF
310
FFFFFFFFFFFFFFFFFFFFFFFFFFFFFFFFFFFFFFFFFFFFFFFFFFFFFFFFFFFFFFFF
310
FFFFFFFFFFFFFFFFFFFFFFFFFFFFFFFFFFFFFFFFFFFFFFFFFFFFFFFFFFFFFFFF
310
FFFFFFFFFFFFFFFFFFFFFFFFFFFFFFFFFFFFFFFFFFFFFFFFFFFFFFFFFFFFFFFF
310
FFFFFFFFFFFFFFFFFFFFFFFFFFFFFFFFFFFFFFFFFFFFFFFFFFFFFFFFFFFFFFFF
310
52006F006F007400200045006E00740072007900000000000000000000000000
310
0000000000000000000000000000000000000000000000000000000000000000
310
16000500FFFFFFFFFFFFFFFF020000000A00030000000000C000000000000046
310
0000000000000000000000002075EB8E6F20D20103000000C000000000000000
310
01004F006C006500000000000000000000000000000000000000000000000000
310
0000000000000000000000000000000000000000000000000000000000000000
310
0A000200FFFFFFFFFFFFFFFFFFFFFFFF00000000000000000000000000000000
310
0000000000000000000000000000000000000000000000001400000000000000
310
010043006F006D0070004F0062006A0000000000000000000000000000000000
310
0000000000000000000000000000000000000000000000000000000000000000
310
120002010100000003000000FFFFFFFF00000000000000000000000000000000
310
0000000000000000000000000000000000000000010000004D00000000000000
310
01004F006C006500310030004E00610074006900760065000000000000000000
310
0000000000000000000000000000000000000000000000000000000000000000
310
1A000200FFFFFFFFFFFFFFFFFFFFFFFF00000000000000000000000000000000
310
0000000000000000000000000000000000000000040000002426000000000000
310
FEFFFFFF02000000FEFFFFFFFFFFFFFFFFFFFFFFFFFFFFFFFFFFFFFFFFFFFFFF
310
FFFFFFFFFFFFFFFFFFFFFFFFFFFFFFFFFFFFFFFFFFFFFFFFFFFFFFFFFFFFFFFF
310
FFFFFFFFFFFFFFFFFFFFFFFFFFFFFFFFFFFFFFFFFFFFFFFFFFFFFFFFFFFFFFFF
310
FFFFFFFFFFFFFFFFFFFFFFFFFFFFFFFFFFFFFFFFFFFFFFFFFFFFFFFFFFFFFFFF
310
FFFFFFFFFFFFFFFFFFFFFFFFFFFFFFFFFFFFFFFFFFFFFFFFFFFFFFFFFFFFFFFF
310
FFFFFFFFFFFFFFFFFFFFFFFFFFFFFFFFFFFFFFFFFFFFFFFFFFFFFFFFFFFFFFFF
310
FFFFFFFFFFFFFFFFFFFFFFFFFFFFFFFFFFFFFFFFFFFFFFFFFFFFFFFFFFFFFFFF
310
FFFFFFFFFFFFFFFFFFFFFFFFFFFFFFFFFFFFFFFFFFFFFFFFFFFFFFFFFFFFFFFF
310
FFFFFFFFFFFFFFFFFFFFFFFFFFFFFFFFFFFFFFFFFFFFFFFFFFFFFFFFFFFFFFFF
310
FFFFFFFFFFFFFFFFFFFFFFFFFFFFFFFFFFFFFFFFFFFFFFFFFFFFFFFFFFFFFFFF
310
FFFFFFFFFFFFFFFFFFFFFFFFFFFFFFFFFFFFFFFFFFFFFFFFFFFFFFFFFFFFFFFF
310
FFFFFFFFFFFFFFFFFFFFFFFFFFFFFFFFFFFFFFFFFFFFFFFFFFFFFFFFFFFFFFFF
310
FFFFFFFFFFFFFFFFFFFFFFFFFFFFFFFFFFFFFFFFFFFFFFFFFFFFFFFFFFFFFFFF
310
FFFFFFFFFFFFFFFFFFFFFFFFFFFFFFFFFFFFFFFFFFFFFFFFFFFFFFFFFFFFFFFF
310
FFFFFFFFFFFFFFFFFFFFFFFFFFFFFFFFFFFFFFFFFFFFFFFFFFFFFFFFFFFFFFFF
310
FFFFFFFFFFFFFFFFFFFFFFFFFFFFFFFFFFFFFFFFFFFFFFFFFFFFFFFFFFFFFFFF
310
0100000200000000000000000000000000000000000000000000000000000000
310
0000000000000000000000000000000000000000000000000000000000000000
310
0100FEFF030A0000FFFFFFFF0A00030000000000C00000000000004607000000
310
5042727573680007000000504272757368000700000050427275736800F439B2
310
7100000000000000000000000000000000000000000000000000000000000000
310
0000000000000000000000000000000000000000000000000000000000000000
310
0000000000000000000000000000000000000000000000000000000000000000
310
0000000000000000000000000000000000000000000000000000000000000000
310
0000000000000000000000000000000000000000000000000000000000000000
310
0000000000000000000000000000000000000000000000000000000000000000
310
0000000000000000000000000000000000000000000000000000000000000000
310
0000000000000000000000000000000000000000000000000000000000000000
310
0000000000000000000000000000000000000000000000000000000000000000
310
0000000000000000000000000000000000000000000000000000000000000000
310
0000000000000000000000000000000000000000000000000000000000000000
310
0000000000000000000000000000000000000000000000000000000000000000
310
20260000424D0E260000000000003E00000028000000B40200006E0000000100
310
01000000000000000000130B0000130B00000200000002000000000000FFFFFF
310
FFFFFFFFFFFFFFFFFFFFFFFFFFFFFFFFFFFFFFFFFFFFFFFFFFFFFFFFFFFFFFFF
310
FFFFFFFFFFFFFFFFFFFFFFFFFFFFFFFFFFFFFFFFFFFFFFFFFFFFFFFFFFFFFFFF
310
FFFFFFFFFFFFFFFFFFFFFFFFFFFFFFFFFFFFFFFFFFFFFFFFF000FFFFFFFFFFFF
310
FFFFFFFFFFFFFFFFFFFFFFFFFFFFFFFFFFFFFFFFFFFFFFFFFFFFFFFFFFFFFFFF
310
FFFFFFFFFFFFFFFFFFFFFFFFFFFFFFFFFFFFFFFFFFFFFFFFFFFFFFFFFFFFFFFF
310
FFFFFFFFFFFFFFFFFFFFFFFFFFFFFFFFF000FFFFFFFFFFFFFFFFFFFFFFFFFFFF
310
FFFFFFFFFFFFFFFFFFFFFFFFFFFFFFFFFFFFFFFFFFFFFFFFFFFFFFFFFFFFFFFF
310
FFFFFFFFFFFFFFFFFFFFFFFFFFFFFFFFFFFFFFFFFFFFFFFFFFFFFFFFFFFFFFFF
310
FFFFFFFFFFFFFFFFF000FFFFFFFFFFFFFFFFFFFFFFFFFFFFFFFFFFFFFFFFFFFF
310
FFFFFFFFFFFFFFFFFFFFFFFFFFFFFFFFFFFFFFFFFFFFFFFFFFFFFFFFFFFFFFFF
310
FFFFFFFFFFFFFFFFFFFFFFFFFFFFFFFFFFFFFFFFFFFFFFFFFFFFFFFFFFFFFFFF
310
F000FFFFFFFFFFFFFFFFFFFFFFFFFFFFFFFFFFFFFFFFFFFFFFFFFFFFFFFFFFFF
310
FFFFFFFFFFFFFFFFFFFFFFFFFFFFFFFFFFFFFFFFFFFFFFFFFFFFFFFFFFFFFFFF
310
FFFFFFFFFFFFFFFFFFFFFFFFFFFFFFFFFFFFFFFFFFFFFFFFF000FFFFFFFFFFFF
310
FFFFFFFFFFFFFFFFFFFFFFFFFFFFFFFFFFFFFFFFFFFFFFFFFFFFFFFFFFFFFFFF
310
FFFFFFFFFFFFFFFFFFFFFFFFFFFFFFFFFFFFFFFFFFFFFFFFFFFFFFFFFFFFFFFF
310
FFFFFFFFFFFFFFFFFFFFFFFFFFFFFFFFF000FFFFFFFFFFFFFFFFFFFFFFFFFFFF
310
FFFFFFFFFFFFFFFFFFFFFFFFFFFFFFFFFFFFFFFFFFFFFFFFFFFFFFFFFFFFFFFF
310
FFFFFFFFFFFFFFFFFFFFFFFFFFFFFFFFFFFFFFFFFFFFFFFFFFFFFFFFFFFFFFFF
310
FFFFFFFFFFFFFFFFF000FFFFFFFFFFFFFFFFFFFFFFFFFFFFFFFFFFFFFFFFFFFF
310
FFFFFFFFFFFFFFFFFFFFFFFFFFFFFFFFFFFFFFFFFFFFFFFFFFFFFFFFFFFFFFFF
310
FFFFFFFFFFFFFFFFFFFFFFFFFFFFFFFFFFFFFFFFFFFFFFFFFFFFFFFFFFFFFFFF
310
F000FFFFFFFFFFFFFFFFFFFFFFFFFFFFFFFFFFFFFFFFFFFFFFFFFFFFFFFFFFFF
310
FFFFFFFFFFFFFFFFFFFFFFFFFFFFFFFFFFFFFFFFFFFFFFFFFFFFFFFFFFFFFFFF
310
FFFFFFFFFFFFFFFFFFFFFFFFFFFFFFFFFFFFFFFFFFFFFFFFF000FFFFFFFFFFFF
310
FFFFFFFFFFFFFFFFFFFFFFFFFFFFFFFFFFFFFFFFFFFFFFFFFFFFFFFFFFFFFFFF
310
FFFFFFFFFFFFFFFFFFFFFFFFFFFFFFFFFFFFFFFFFFFFFFFFFFFFFFFFFFFFFFFF
310
FFFFFFFFFFFFFFFFFFFFFFFFFFFFFFFFF000FFFFFFFFFFFFFFFFFFFFFFFFFFFF
310
FFFFFFFFFFFFFFFFFFFFFFFFFFFFFFFFFFFFFFFFFFFFFFFFFFFFFFFFFFFFFFFF
310
FFFFFFFFFFFFFFFFFFFFFFFFFFFFFFFFFFFFFFFFFFFFFFFFFFFFFFFFFFFFFFFF
310
FFFFFFFFFFFFFFFFF000FFFFFFFFFFFFFFFFFFFFFFFFFFFFFFFFFFFFFFFFFFFF
310
FFFFFFFFFFFFFFFFFFFFFFFFFFFFFFFFFFFFFFFFFFFFFFFFFFFFFFFFFFFFFFFF
310
FFFFFFFFFFFFFFFFFFFFFFFFFFFFFFFFFFFFFFFFFFFFFFFFFFFFFFFFFFFFFFFF
310
F000FFFFFFFFFFFFFFFFFFFFFFFFFFFFFFFFFFFFFFFFFFFFFFFFFFFFFFFFFFFF
310
FFFFFFFFFFFFFFFFFFFFFFFFFFFFFFFFFFFFFFFFFFFFFFFFFFFFFFFFFFFFFFFF
310
FFFFFFFFFFFFFFFFFFFFFFFFFFFFFFFFFFFFFFFFFFFFFFFFF000FFFFFFFFFFFF
310
FFFFFFFFFFFFFFFFFFFFFFFFFFFFFFFFFFFFFFFFFFFFFFFFFFFFFFFFFFFFFFFF
310
FFFFFFFFFFFFFFFFFFFFFFFFFFFFFFFFFFFFFFFFFFFFFFFFFFFFFFFFFFFFFFFF
310
FFFFFFFFFFFFFFFFFFFFFFFFFFFFFFFFF000FFFFFFFFFFFFFFFFFFFFFFFFFFFF
310
FFFFFFFFFFFFFFFFFFFFFFFFFFFFFFFFFFFFFFFFFFFFFFFFFFFFFFFFFFFFFFFF
310
FFFFFFFFFFFFFFFFFFFFFFFFFFFFFFFFFFFFFFFFFFFFFFFFFFFFFFFFFFFFFFFF
310
FFFFFFFFFFFFFFFFF000FFFFFFFFFFFFFFFFFFFFFFFFFFFFFFFFFFFFFFFFFFFF
310
FFFFFFFFFFFFFFFFFFFFFFFFFFFFFFFFFFFFFFFFFFFFFFFFFFFFFFFFFFFFFFFF
310
FFFFFFFFFFFFFFFFFFFFFFFFFFFFFFFFFFFFFFFFFFFFFFFFFFFFFFFFFFFFFFFF
310
F000FFFFFFFFFFFFFFFFFFFFFFFFFFFFFFFFFFFFFFFFFFFFFFFFFFFFFFFFFFFF
310
FFFFFFFFFFFFFFFFFFFFFFFFFFFFFFFFFFFFFFFFFFFFFFFFFFFFFFFFFFFFFFFF
310
FFFFFFFFFFFFFFFFFFFFFFFFFFFFFFFFFFFFFFFFFFFFFFFFF000FFFFFFFFFFFF
310
FFFFFFFFFFFFFFFFFFFFFFFFFFFFFFFFFFFFFFFFFFFFFFFFFFFFFFFFFFFFFFFF
310
FFFFFFFFFFFFFFFFFFFFFFFFFFFFFFFFFFFFFFFFFFFFFFFFFFFFFFFFFFFFFFFF
310
FFFFFFFFFFFFFFFFFFFFFFFFFFFFFFFFF000FFFFFFFFFFFFFFFFFFFFFFFFFFFF
310
FFFFFFFFFFFFFFFFFFFFFFFFFFFFFFFFFFFFFFFFFFFFFFFFFFFFFFFFFFFFFFFF
310
FFFFFFFFFFFFFFFFFFFFFFFFFFFFFFFFFFFFFFFFFFFFFFFFFFFFFFFFFFFFFFFF
310
FFFFFFFFFFFFFFFFF000FFFFF80003FFFFFFFFFFFFFFFFFFFFFFFFFFFFFFFFFF
310
FFFFF00007FFFFFFFFFF00007FFFFFF800000000000000007FFFFFFFFFFFFFFF
310
FFFFFFFC001FFFFFFFFFFFFFFC001FFFFFFFFFFFFFFFFFFFFFFFFFFE0007FFFF
310
F000FFFF8000007FFFFFFFF8000FFFFFC0007FFFFF80007FFFFF0000007FFFFF
310
FFF8000007FFFFF800000000000000007FFFFFF0001FFFFFFFFFFFC00001FFFF
310
FFFFFFFFC00001FFFFFFFF000000000003FFFFE000007FFFF000FFFE0000000F
310
FFFFFFF0000FFFFF80007FFFFF80007FFFFC0000001FFFFFFFC0000001FFFFF8
310
00000000000000007FFFFFF0001FFFFFFFFFFE0000003FFFFFFFFFFE0000003F
310
FFFFFF000000000003FFFF0000000FFFF000FFF800000003FFFFFFF00007FFFF
310
80007FFFFF80007FFFF000000007FFFFFF000000003FFFF80000000000000000
310
7FFFFFF0001FFFFFFFFFF80000000FFFFFFFFFF80000000FFFFFFF0000000000
310
03FFFC00000003FFF000FFE000000000FFFFFFF00007FFFF80003FFFFF80007F
310
FFC000000001FFFFFC000000001FFFF800000000000000007FFFFFF0001FFFFF
310
FFFFE000000003FFFFFFFFE000000003FFFFFF000000000003FFF000000000FF
310
F000FF80000000007FFFFFF00007FFFF80003FFFFF80007FFF8000000000FFFF
310
F80000000007FFF800000000000000007FFFFFF0001FFFFFFFFFC000000001FF
310
FFFFFFC000000001FFFFFF000000000003FFC0000000007FF000FF0000000000
310
3FFFFFE00007FFFF00003FFFFF80007FFE00000000003FFFF00000000003FFF8
310
00000000000000007FFFFFF0001FFFFFFFFF8000000000FFFFFFFF8000000000
310
FFFFFF000000000003FF80000000003FF000FE00000000001FFFFFE00003FFFF
310
00003FFFFF80007FFC00000000001FFFE00000000001FFF8000001FFFE000000
310
7FFFFFF0001FFFFFFFFE00000000003FFFFFFE00000000003FFFFF0000000000
310
03FF00000000001FF000FC00000000000FFFFFE00003FFFF00001FFFFF80007F
310
F800000000001FFFC00000000000FFF8000001FFFE0000007FFFFFF0001FFFFF
310
FFFC00000000001FFFFFFC00000000001FFFFF000000000003FE00000000000F
310
F000F8000000000007FFFFE00003FFFF00001FFFFF80007FF800000000000FFF
310
800000000000FFF8000001FFFE0000007FFFFFF0001FFFFFFFF800000000000F
310
FFFFF800000000000FFFFF000000000003FC000000000007F000F80000000000
310
03FFFFC00003FFFE00001FFFFF80007FF0000000000007FF0000000000007FF8
310
000001FFFE0000007FFFFFF0001FFFFFFFF0000000000007FFFFF00000000000
310
07FFFF000000000003F8000000000003F000F0000000000003FFFFC00001FFFE
310
00001FFFFF80007FE0000000000007FE0000000000003FF8000001FFFE000000
310
7FFFFFF0001FFFFFFFF0000000000007FFFFF0000000000007FFFF0000000000
310
03F800001F800003F000E00001FFF00001FFFFC00001FFFE00000FFFFF80007F
310
E00001FFE00003FE00001FFF00003FF8000001FFFE0000007FFFFFF0001FFFFF
310
FFE000003E000003FFFFE000003E000003FFFF000000000003F00001FFF80001
310
F000E00007FFFC0001FFFFC00001FFFE00000FFFFF80007FC0000FFFFC0003FC
310
0000FFFFC0001FF8000001FFFE0000007FFFFFF0001FFFFFFFC00003FFE00001
310
FFFFC00003FFE00001FFFF0001FFFFFFFFF00007FFFE0001F000E0000FFFFF00
310
00FFFF800001FFFC00000FFFFF80007FC0001FFFFE0001FC0001FFFFE0001FF8
310
000001FFFE0000007FFFFFF0001FFFFFFF80000FFFF80000FFFF80000FFFF800
310
00FFFF0003FFFFFFFFE0000FFFFF8000F000C0003FFFFF8000FFFF800000FFFC
310
000007FFFF80007F80003FFFFF0001FC0003FFFFF0001FF8000001FFFE000000
310
7FFFFFF0001FFFFFFF80003FFFFE0000FFFF80003FFFFE0000FFFF0003FFFFFF
310
FFE0003FFFFF8000F000C0003FFFFF8000FFFF800000FFFC000007FFFF80007F
310
80007FFFFF8001F80007FFFFF8000FF8000001FFFE0000007FFFFFF0001FFFFF
310
FF00007FFFFF00007FFF00007FFFFF00007FFF0003FFFFFFFFE0003FFFFFC000
310
F000C0007FFFFFC000FFFF000000FFFC000007FFFF80007F8000FFFFFF8000F8
310
000FFFFFF8000FF8000001FFFE0000007FFFFFF0001FFFFFFF0000FFFFFF8000
310
7FFF0000FFFFFF80007FFF0003FFFFFFFFC0007FFFFFC00070008000FFFFFFC0
310
00FFFF000000FFF8000007FFFF80007F8000FFFFFF8000F8000FFFFFF8000FF8
310
000001FFFE0000007FFFFFF0001FFFFFFE0001FFFFFFC0003FFE0001FFFFFFC0
310
003FFF0003FFFFFFFFC0007FFFFFE00070008000FFFFFFC0007FFF0000007FF8
310
000003FFFF80007F0001FFFFFF8000F8000FFFFFF8000FF8000001FFFE000000
310
7FFFFFF0001FFFFFFE0001FFFFFFC0003FFE0001FFFFFFC0003FFF0003FFFFFF
310
FFC000FFFFFFE00070008000FFFFFFC0007FFF0000007FF8000003FFFF80007F
310
0001FFFFFF8000F8001FFFFFF8000FF8000001FFFE0000007FFFFFF0001FFFFF
310
FE0003FFFFFFE0003FFE0003FFFFFFE0003FFF0003FFFFFFFFC000FFFFFFE000
310
70008000FFFFFFC0007FFE0000007FF8000003FFFF80007F0001FFFFFF8000F0
310
001FFFFFF8000FF8000001FFFE0000007FFFFFF0001FFFFFFC0003FFFFFFE000
310
1FFC0003FFFFFFE0001FFF0003FFFFFFFFC000FFFFFFC00070008000FFFFFF80
310
007FFE0000007FF0000003FFFF80007F0001FFFFFF0000F0001FFFFFF8000FF8
310
000001FFFE0000007FFFFFF0001FFFFFFC0007FFFFFFF0001FFC0007FFFFFFF0
310
001FFF0003FFFFFFFFC000FFFFFFC00070008001FFFFFF0000FFFE0000003FF0
310
000001FFFF80007F0001FFFFFF0000F8001FFFFFF0000FF8000001FFFE000000
310
7FFFFFF0001FFFFFFC0007FFFFFFF0001FFC0007FFFFFFF0001FFF0003FFFFFF
310
FFC001FFFFFF80007000FFFFFFFFFE0000FFFE0008003FF0008001FFFF80007F
310
FFFFFFFFFC0000FFFFFFFFFFE0000FF8000001FFFE0000007FFFFFF0001FFFFF
310
F8000FFFFFFFF8000FF8000FFFFFFFF8000FFF0003FFFFFFFFFFFFFFFFFF0000
310
7000FFFFFFFFFC0000FFFC0008003FF0008001FFFF80007FFFFFFFFFF80001FF
310
FFFFFFFF80000FF8000001FFFE0000007FFFFFF0001FFFFFF8000FFFFFFFF800
310
0FF8000FFFFFFFF8000FFF0003FFFFFFFFFFFFFFFFFE0000F000FFFFFFFFE000
310
00FFFC000C003FE000C001FFFF80007FFFFFFFFFC00001FFFFFFFFFE00001FF8
310
000001FFFE0000007FFFFFF0001FFFFFF8000FFFFFFFF8000FF8000FFFFFFFF8
310
000FFF0003FFFFFFFFFFFFFFFFF00000F000FFFFFFFE000001FFFC000C001FE0
310
00C000FFFF80007FFFFFFFFE000001FFFFFFFFE000001FF80FFFFFFFFFFFFFC0
310
7FFFFFF0001FFFFFF8000FFFFFFFF8000FF8000FFFFFFFF8000FFF0003FFFFFF
310
FFFFFFFFFF800000F000FFFFFFC0000001FFFC001C001FE001C000FFFF80007F
310
FFFFFF80000003FFFFFFF80000001FF80FFFFFFFFFFFFFC07FFFFFF0001FFFFF
310
F8001FFFFFFFFC000FF8001FFFFFFFFC000FFF0003FFFFFFFFFFFFFFF0000001
310
F000FFFFF800000001FFF8001C001FE001C000FFFF80007FFFFFF800000003FF
310
FFFF800000003FF80FFFFFFFFFFFFFC07FFFFFF0001FFFFFF8001FFFFFFFFC00
310
0FF8001FFFFFFFFC000FFF0003FFFFFFFFFFFFFE00000001F000FFFFC0000000
310
03FFF8001E001FC001E000FFFF80007FFFFF8000000007FFFFFC000000003FF8
310
0FFFFFFFFFFFFFC07FFFFFF0001FFFFFF8001FFFFFFFFC000FF8001FFFFFFFFC
310
000FFF0003FFFFFFFFFFFFE000000003F000FFFE0000000007FFF8001E000FC0
310
01E0007FFF80007FFFFE0000000007FFFFE0000000007FF80FFFFFFFFFFFFFC0
310
7FFFFFF0001FFFFFF0001FFFFFFFFC0007F0001FFFFFFFFC0007FF0003FFFFFF
310
FFFFFF0000000003F000FFF80000000007FFF8001E000FC003E0007FFF80007F
310
FFF0000000000FFFFF8000000000FFF80FFFFFFFFFFFFFC07FFFFFF0001FFFFF
310
F0001FFFFFFFFC0007F0001FFFFFFFFC0007FF0003FFFFFFFFFFFC0000000007
310
F000FFE0000000000FFFF0003E000FC003E0007FFF80007FFFC0000000001FFF
310
FE0000000001FFF80FFFFFFFFFFFFFC07FFFFFF0001FFFFFF0001FFFFFFFFC00
310
07F0001FFFFFFFFC0007FF0003FFFFFFFFFFF0000000000FF000FFC000000000
310
1FFFF0003F000F8003F0003FFF80007FFF80000000003FFFF80000000003FFF8
310
0FFFFFFFFFFFFFC07FFFFFF0001FFFFFF0001FFFFFFFFC0007F0001FFFFFFFFC
310
0007FF0003FFFFFFFFFFE0000000001FF000FF00000000007FFFF0003F000780
310
03F0003FFF80007FFF00000000007FFFF00000000007FFF80FFFFFFFFFFFFFC0
310
7FFFFFF0001FFFFFF0001FFFFFFFFC0007F0001FFFFFFFFC0007FF0003FFFFFF
310
FFFF80000000007FF000FE0000000000FFFFE0003F00078007F0003FFF80007F
310
FE0000000001FFFFE0000000001FFFF80FFFFFFFFFFFFFC07FFFFFF0001FFFFF
310
F0001FFFFFFFFC0007F0001FFFFFFFFC0007FF0003FFFFFFFFFF0000000000FF
310
F000FC0000000003FFFFE0007F00078007F0003FFF80007FFC0000000007FFFF
310
C0000000007FFFF80FFFFFFFFFFFFFC07FFFFFF0001FFFFFF8001FFFFFFFFC00
310
0FF8001FFFFFFFFC000FFF0003FFFFFFFFFE0000000003FFF000FC000000000F
310
FFFFE0007F80070007F8001FFF80007FF8000000001FFFFF8000000001FFFFF8
310
0FFFFFFFFFFFFFC07FFFFFF0001FFFFFF8001FFFFFFFFC000FF8001FFFFFFFFC
310
000FFF0003FFFFFFFFFC000000000FFFF000F8000000007FFFFFE0007F800700
310
07F8001FFF80007FF000000000FFFFFF800000000FFFFFF80FFFFFFFFFFFFFC0
310
7FFFFFF0001FFFFFF8000FFFFFFFF8000FF8000FFFFFFFF8000FFF0003FFFFFF
310
FFFC000000007FFFF000F800000007FFFFFFC0007F8003000FF8001FFF80007F
310
F000000007FFFFFF000000007FFFFFF80FFFFFFFFFFFFFC07FFFFFF0001FFFFF
310
F8000FFFFFFFF8000FF8000FFFFFFFF8000FFF0003FFFFFFFFF80000000FFFFF
310
F000F0000000FFFFFFFFC000FF8003000FF8001FFF80007FE0000000FFFFFFFF
310
0000000FFFFFFFF8000001FFFE0000007FFFFFF0001FFFFFF8000FFFFFFFF800
310
0FF8000FFFFFFFF8000FFF0003FFFFFFFFF8000000FFFFFFF000F000000FFFFF
310
FFFFC000FFC002000FF8000FFF80007FE000001FFFFFFFFE000001FFFFFFFFF8
310
000001FFFE0000007FFFFFF0001FFFFFF8000FFFFFFFF8000FF8000FFFFFFFF8
310
000FFF0003FFFFFFFFF000001FFFFFFFF000E00000FFFFFFFFFFC000FFC00200
310
0FFC000FFF80007FE00001FFFFFFFFFE00001FFFFFFFFFF8000001FFFE000000
310
7FFFFFF0001FFFFFFC000FFFFFFFF8001FFC000FFFFFFFF8001FFF0003FFFFFF
310
FFF00001FFFFFFFFF000E00007FFFFFFFFFF8000FFC000001FFC000FFF80007F
310
C0000FFFFFFFFFFE0000FFFFFFFFFFF8000001FFFE0000007FFFFFF0001FFFFF
310
FC0007FFFFFFF0001FFC0007FFFFFFF0001FFF0003FFFFFFFFF00007FFFFFFFF
310
F000E0001FFFFFFFFFFF8000FFC000001FFC000FFF80007FC0003FFFFFFFFFFE
310
0001FFFFFFFFFFF8000001FFFE0000007FFFFFF0001FFFFFFC0007FFFFFFF000
310
1FFC0007FFFFFFF0001FFF0003FFFFFFFFF0001FFFFFFFFFF000E0003FFFFF00
310
03FF8001FFE000001FFC0007FF80007FC0007FFFFF0007FC0003FFFFF0003FF8
310
000001FFFE0000007FFFFFF0001FFFFFFC0003FFFFFFE0001FFC0003FFFFFFE0
310
001FFF0003FFFFFFFFF0003FFFFFFFFFF000E0003FFFFF0001FF8001FFE00000
310
1FFE0007FF80007FC0007FFFFE0003FC0007FFFFE0003FF8000001FFFE000000
310
7FFFFFF0001FFFFFFE0003FFFFFFE0003FFE0003FFFFFFE0003FFF0003FFFFFF
310
FFF0003FFFFF8001F000E0003FFFFF0001FF0001FFE000001FFE0007FF80007F
310
C0007FFFFE0003FC0007FFFFE0003FF8000001FFFE0000007FFFFFF0001FFFFF
310
FE0001FFFFFFC0003FFE0001FFFFFFC0003FFF0003FFFFFFFFF0003FFFFF0001
310
F000E0003FFFFF0003FF0001FFE000003FFE0007FF80007FC0007FFFFE0003FC
310
0007FFFFE0003FF8000001FFFE0000007FFFFFF0001FFFFFFF0001FFFFFFC000
310
7FFF0001FFFFFFC0007FFF0003FFFFFFFFF0003FFFFF0001F000E0003FFFFE00
310
03FF0003FFF000003FFE0003FF80007FC0007FFFFC0003FE0007FFFFE0003FF8
310
000001FFFE0000007FFFFFF0001FFFFFFF0000FFFFFF80007FFF0000FFFFFF80
310
007FFF0003FFFFFFFFF0003FFFFF0001F000E0003FFFFE0003FF0003FFF00000
310
3FFF0003FF80007FC0007FFFFC0007FE0007FFFFC0003FF8000001FFFE000000
310
7FFFFFF0001FFFFFFF80007FFFFF0000FFFF80007FFFFF0000FFFF0003FFFFFF
310
FFF0003FFFFF0003F000E0003FFFFC0003FE0003FFF000003FFF0003FF80007F
310
E0003FFFF80007FE0003FFFFC0007FF8000001FFFE0000007FFFFFF0001FFFFF
310
FF80003FFFFE0000FFFF80003FFFFE0000FFFF0003FFFFFFFFF0001FFFFE0003
310
F000F0001FFFF80003FE0003FFF000007FFF0001FF80007FE0003FFFF00007FE
310
0001FFFF80007FF8000001FFFE0000007FFFFFF0001FFFFFFFC0000FFFF80001
310
FFFFC0000FFFF80001FFFF0003FFFFFFFFF0001FFFFC0003F000F0000FFFF000
310
07FE0007FFF800007FFF0001FF80007FE0001FFFE00007FF0000FFFE00007FF8
310
000001FFFE0000007FFFFFF0001FFFFFFFC00003FFE00001FFFFC00003FFE000
310
01FFFF0003FFFFFFFFF8000FFFF80003F000F00003FFC00007FC0007FFF80000
310
7FFF8001FF80007FF00007FF80000FFF00007FF80000FFF8000001FFFE000000
310
7F80000000000001FFE000003E000003FFFFE000003E000003FFFF0003FFFFFF
310
FFF80003FFE00007F000F800000000000FFC0007FFF800007FFF8001FF80007F
310
F000000000000FFF000000000000FFF8000001FFFE0000007F80000000000001
310
FFF0000000000007FFFFF0000000000007FFFF0003FFFFFFFFFC00007E000007
310
F000F800000000000FFC0007FFF80000FFFF8000FF80007FF800000000001FFF
310
800000000001FFF8000001FFFE0000007F80000000000001FFF800000000000F
310
FFFFF800000000000FFFFF0003FFFFFFFFFC00000000000FF000FC0000000000
310
1FFC0007FFFC0000FFFF8000FF80007FF800000000003FFFC00000000001FFF8
310
000001FFFE0000007F80000000000001FFF800000000000FFFFFF80000000000
310
0FFFFF0003FFFFFFFFFE00000000001FF000FE00000000003FF8000FFFFC0000
310
FFFF8000FF80007FFC00000000003FFFC00000000003FFF8000001FFFE000000
310
7F80000000000001FFFC00000000001FFFFFFC00000000001FFFFF0003FFFFFF
310
FFFF00000000001FF000FF00000000003FF8000FFFFC0000FFFFC000FF80007F
310
FE00000000007FFFE00000000007FFF8000001FFFE0000007F80000000000001
310
FFFE00000000003FFFFFFE00000000003FFFFF0003FFFFFFFFFF80000000003F
310
F000FF80000000007FF8000FFFFC0001FFFFC0007F80007FFF0000000000FFFF
310
F0000000000FFFF800000000000000007F80000000000001FFFF8000000000FF
310
FFFFFF8000000000FFFFFF0003FFFFFFFFFFC0000000007FF000FFC000000000
310
FFF8000FFFFE0001FFFFC0007F80007FFF8000000001FFFFF8000000001FFFF8
310
00000000000000007F80000000000001FFFFC000000001FFFFFFFFC000000001
310
FFFFFF0003FFFFFFFFFFE000000000FFF000FFE000000003FFF0001FFFFE0001
310
FFFFC0007F80007FFFC000000007FFFFFE000000003FFFF80000000000000000
310
7F80000000000001FFFFE000000003FFFFFFFFE000000003FFFFFF0003FFFFFF
310
FFFFF000000003FFF000FFF80000000FFFF0001FFFFE0001FFFFE0007F80007F
310
FFF00000000FFFFFFF00000000FFFFF800000000000000007F80000000000001
310
FFFFF80000000FFFFFFFFFF80000000FFFFFFF0003FFFFFFFFFFFC0000000FFF
310
F000FFFE0000003FFFF0001FFFFE0003FFFFE0003F80007FFFFC0000003FFFFF
310
FFC0000003FFFFF800000000000000007F80000000000001FFFFFE0000003FFF
310
FFFFFFFE0000003FFFFFFF0003FFFFFFFFFFFF0000003FFFF000FFFF800000FF
310
FFF0001FFFFF0003FFFFE0003F80007FFFFF000001FFFFFFFFF800001FFFFFF8
310
00000000000000007F80000000000001FFFFFFC00001FFFFFFFFFFFFC00001FF
310
FFFFFF0003FFFFFFFFFFFFC00000FFFFF000FFFFF8000FFFFFFFFFFFFFFFFFFF
310
FFFFFFFFFFFFFFFFFFFFF0001FFFFFFFFFFF0000FFFFFFF80000000000000000
310
7FFFFFFFFFFFFFFFFFFFFFFC001FFFFFFFFFFFFFFC001FFFFFFFFFFFFFFFFFFF
310
FFFFFFFC001FFFFFF000FFFFFFFFFFFFFFFFFFFFFFFFFFFFFFFFFFFFFFFFFFFF
310
FFFFFFFFFFFFFFFFFFFFFFFFFFFFFFFFFFFFFFFFFFFFFFFFFFFFFFFFFFFFFFFF
310
FFFFFFFFFFFFFFFFFFFFFFFFFFFFFFFFFFFFFFFFFFFFFFFFFFFFFFFFFFFFFFFF
310
F000FFFFFFFFFFFFFFFFFFFFFFFFFFFFFFFFFFFFFFFFFFFFFFFFFFFFFFFFFFFF
310
FFFFFFFFFFFFFFFFFFFFFFFFFFFFFFFFFFFFFFFFFFFFFFFFFFFFFFFFFFFFFFFF
310
FFFFFFFFFFFFFFFFFFFFFFFFFFFFFFFFFFFFFFFFFFFFFFFFF000FFFFFFFFFFFF
310
FFFFFFFFFFFFFFFFFFFFFFFFFFFFFFFFFFFFFFFFFFFFFFFFFFFFFFFFFFFFFFFF
310
FFFFFFFFFFFFFFFFFFFFFFFFFFFFFFFFFFFFFFFFFFFFFFFFFFFFFFFFFFFFFFFF
310
FFFFFFFFFFFFFFFFFFFFFFFFFFFFFFFFF000FFFFFFFFFFFFFFFFFFFFFFFFFFFF
310
FFFFFFFFFFFFFFFFFFFFFFFFFFFFFFFFFFFFFFFFFFFFFFFFFFFFFFFFFFFFFFFF
310
FFFFFFFFFFFFFFFFFFFFFFFFFFFFFFFFFFFFFFFFFFFFFFFFFFFFFFFFFFFFFFFF
310
FFFFFFFFFFFFFFFFF000FFFFFFFFFFFFFFFFFFFFFFFFFFFFFFFFFFFFFFFFFFFF
310
FFFFFFFFFFFFFFFFFFFFFFFFFFFFFFFFFFFFFFFFFFFFFFFFFFFFFFFFFFFFFFFF
310
FFFFFFFFFFFFFFFFFFFFFFFFFFFFFFFFFFFFFFFFFFFFFFFFFFFFFFFFFFFFFFFF
310
F000FFFFFFFFFFFFFFFFFFFFFFFFFFFFFFFFFFFFFFFFFFFFFFFFFFFFFFFFFFFF
310
FFFFFFFFFFFFFFFFFFFFFFFFFFFFFFFFFFFFFFFFFFFFFFFFFFFFFFFFFFFFFFFF
310
FFFFFFFFFFFFFFFFFFFFFFFFFFFFFFFFFFFFFFFFFFFFFFFFF000FFFFFFFFFFFF
310
FFFFFFFFFFFFFFFFFFFFFFFFFFFFFFFFFFFFFFFFFFFFFFFFFFFFFFFFFFFFFFFF
310
FFFFFFFFFFFFFFFFFFFFFFFFFFFFFFFFFFFFFFFFFFFFFFFFFFFFFFFFFFFFFFFF
310
FFFFFFFFFFFFFFFFFFFFFFFFFFFFFFFFF000FFFFFFFFFFFFFFFFFFFFFFFFFFFF
310
FFFFFFFFFFFFFFFFFFFFFFFFFFFFFFFFFFFFFFFFFFFFFFFFFFFFFFFFFFFFFFFF
310
FFFFFFFFFFFFFFFFFFFFFFFFFFFFFFFFFFFFFFFFFFFFFFFFFFFFFFFFFFFFFFFF
310
FFFFFFFFFFFFFFFFF000FFFFFFFFFFFFFFFFFFFFFFFFFFFFFFFFFFFFFFFFFFFF
310
FFFFFFFFFFFFFFFFFFFFFFFFFFFFFFFFFFFFFFFFFFFFFFFFFFFFFFFFFFFFFFFF
310
FFFFFFFFFFFFFFFFFFFFFFFFFFFFFFFFFFFFFFFFFFFFFFFFFFFFFFFFFFFFFFFF
310
F000FFFFFFFFFFFFFFFFFFFFFFFFFFFFFFFFFFFFFFFFFFFFFFFFFFFFFFFFFFFF
310
FFFFFFFFFFFFFFFFFFFFFFFFFFFFFFFFFFFFFFFFFFFFFFFFFFFFFFFFFFFFFFFF
310
FFFFFFFFFFFFFFFFFFFFFFFFFFFFFFFFFFFFFFFFFFFFFFFFF000FFFFFFFFFFFF
310
FFFFFFFFFFFFFFFFFFFFFFFFFFFFFFFFFFFFFFFFFFFFFFFFFFFFFFFFFFFFFFFF
310
FFFFFFFFFFFFFFFFFFFFFFFFFFFFFFFFFFFFFFFFFFFFFFFFFFFFFFFFFFFFFFFF
310
FFFFFFFFFFFFFFFFFFFFFFFFFFFFFFFFF000FFFFFFFFFFFFFFFFFFFFFFFFFFFF
310
FFFFFFFFFFFFFFFFFFFFFFFFFFFFFFFFFFFFFFFFFFFFFFFFFFFFFFFFFFFFFFFF
310
FFFFFFFFFFFFFFFFFFFFFFFFFFFFFFFFFFFFFFFFFFFFFFFFFFFFFFFFFFFFFFFF
310
FFFFFFFFFFFFFFFFF000FFFFFFFFFFFFFFFFFFFFFFFFFFFFFFFFFFFFFFFFFFFF
310
FFFFFFFFFFFFFFFFFFFFFFFFFFFFFFFFFFFFFFFFFFFFFFFFFFFFFFFFFFFFFFFF
310
FFFFFFFFFFFFFFFFFFFFFFFFFFFFFFFFFFFFFFFFFFFFFFFFFFFFFFFFFFFFFFFF
310
F000FFFFFFFFFFFFFFFFFFFFFFFFFFFFFFFFFFFFFFFFFFFFFFFFFFFFFFFFFFFF
310
FFFFFFFFFFFFFFFFFFFFFFFFFFFFFFFFFFFFFFFFFFFFFFFFFFFFFFFFFFFFFFFF
310
FFFFFFFFFFFFFFFFFFFFFFFFFFFFFFFFFFFFFFFFFFFFFFFFF000FFFFFFFFFFFF
310
FFFFFFFFFFFFFFFFFFFFFFFFFFFFFFFFFFFFFFFFFFFFFFFFFFFFFFFFFFFFFFFF
310
FFFFFFFFFFFFFFFFFFFFFFFFFFFFFFFFFFFFFFFFFFFFFFFFFFFFFFFFFFFFFFFF
310
FFFFFFFFFFFFFFFFFFFFFFFFFFFFFFFFF000FFFFFFFFFFFFFFFFFFFFFFFFFFFF
310
FFFFFFFFFFFFFFFFFFFFFFFFFFFFFFFFFFFFFFFFFFFFFFFFFFFFFFFFFFFFFFFF
310
FFFFFFFFFFFFFFFFFFFFFFFFFFFFFFFFFFFFFFFFFFFFFFFFFFFFFFFFFFFFFFFF
310
FFFFFFFFFFFFFFFFF000FFFFFFFFFFFFFFFFFFFFFFFFFFFFFFFFFFFFFFFFFFFF
310
FFFFFFFFFFFFFFFFFFFFFFFFFFFFFFFFFFFFFFFFFFFFFFFFFFFFFFFFFFFFFFFF
310
FFFFFFFFFFFFFFFFFFFFFFFFFFFFFFFFFFFFFFFFFFFFFFFFFFFFFFFFFFFFFFFF
310
F000FFFFFFFFFFFFFFFFFFFFFFFFFFFFFFFFFFFFFFFFFFFFFFFFFFFFFFFFFFFF
310
FFFFFFFFFFFFFFFFFFFFFFFFFFFFFFFFFFFFFFFFFFFFFFFFFFFFFFFFFFFFFFFF
310
FFFFFFFFFFFFFFFFFFFFFFFFFFFFFFFFFFFFFFFFFFFFFFFFF000FFFFFFFFFFFF
310
FFFFFFFFFFFFFFFFFFFFFFFFFFFFFFFFFFFFFFFFFFFFFFFFFFFFFFFFFFFFFFFF
310
FFFFFFFFFFFFFFFFFFFFFFFFFFFFFFFFFFFFFFFFFFFFFFFFFFFFFFFFFFFFFFFF
310
FFFFFFFFFFFFFFFFFFFFFFFFFFFFFFFFF000FFFFFFFFFFFFFFFFFFFFFFFFFFFF
310
FFFFFFFFFFFFFFFFFFFFFFFFFFFFFFFFFFFFFFFFFFFFFFFFFFFFFFFFFFFFFFFF
310
FFFFFFFFFFFFFFFFFFFFFFFFFFFFFFFFFFFFFFFFFFFFFFFFFFFFFFFFFFFFFFFF
310
FFFFFFFFFFFFFFFFF000FFFFFFFFFFFFFFFFFFFFFFFFFFFFFFFFFFFFFFFFFFFF
310
FFFFFFFFFFFFFFFFFFFFFFFFFFFFFFFFFFFFFFFFFFFFFFFFFFFFFFFFFFFFFFFF
310
FFFFFFFFFFFFFFFFFFFFFFFFFFFFFFFFFFFFFFFFFFFFFFFFFFFFFFFFFFFFFFFF
310
F000FFFFFFFFFFFFFFFFFFFFFFFFFFFFFFFFFFFFFFFFFFFFFFFFFFFFFFFFFFFF
310
FFFFFFFFFFFFFFFFFFFFFFFFFFFFFFFFFFFFFFFFFFFFFFFFFFFFFFFFFFFFFFFF
310
FFFFFFFFFFFFFFFFFFFFFFFFFFFFFFFFFFFFFFFFFFFFFFFFF000FFFFFFFFFFFF
310
FFFFFFFFFFFFFFFFFFFFFFFFFFFFFFFFFFFFFFFFFFFFFFFFFFFFFFFFFFFFFFFF
310
FFFFFFFFFFFFFFFFFFFFFFFFFFFFFFFFFFFFFFFFFFFFFFFFFFFFFFFFFFFFFFFF
310
FFFFFFFFFFFFFFFFFFFFFFFFFFFFFFFFF0000000000000000000000000000000
310
0000000000000000000000000000000000000000000000000000000000000000
310
0000000000000000000000000000000000000000000000000000000000000000
310
0000000000000000000000000000000000000000000000000000000000000000
310
0000000000000000000000000000000000000000000000000000000000000000
310
0000000000000000000000000000000000000000000000000000000000000000
310
0000000000000000000000000000000000000000000000000000000000000000
310
0000000000000000000000000000000000000000000000000000000000000000
310
0000000000000000000000000000000000000000000000000000000000000000
310
0000000000000000000000000000000000000000000000000000000000000000
310
0000000000000000000000000000000000000000000000000000000000000000
310
0000000000000000000000000000000000000000000000000000000000000000
310
0000000000000000000000000000000000000000000000000000000000000000
310
0000000000000000000000000000000000000000000000000000000000000000
310
0000000000000000000000000000000000000000000000000000000000000000
310
0000000000000000000000000000000000000000000000000000000000000000
  1
OLE
  0
ENDSEC
  0
SECTION
  2
OBJECTS
  0
DICTIONARY
  5
C
330
0
100
AcDbDictionary
281
     1
  3
ACAD_GROUP
350
D
  3
ACAD_LAYOUT
350
1A
  3
ACAD_MLINESTYLE
350
17
  3
ACAD_PLOTSETTINGS
350
19
  3
ACAD_PLOTSTYLENAME
350
E
  3
ACAD_SCALELIST
350
47
  0
DICTIONARY
  5
D
102
{ACAD_REACTORS
330
C
102
}
330
C
100
AcDbDictionary
281
     1
  0
DICTIONARY
  5
1A
102
{ACAD_REACTORS
330
C
102
}
330
C
100
AcDbDictionary
281
     1
  3
Layout1
350
1E
  3
Layout2
350
26
  3
Model
350
22
  0
DICTIONARY
  5
17
102
{ACAD_REACTORS
330
C
102
}
330
C
100
AcDbDictionary
281
     1
  3
Standard
350
18
  0
DICTIONARY
  5
19
102
{ACAD_REACTORS
330
C
102
}
330
C
100
AcDbDictionary
281
     1
  0
ACDBDICTIONARYWDFLT
  5
E
102
{ACAD_REACTORS
330
C
102
}
330
C
100
AcDbDictionary
281
     1
  3
Normal
350
F
100
AcDbDictionaryWithDefault
340
F
  0
DICTIONARY
  5
47
102
{ACAD_REACTORS
330
C
102
}
330
C
100
AcDbDictionary
281
     1
  3
A0
350
48
  3
A1
350
49
  3
A2
350
4A
  3
A3
350
4B
  3
A4
350
4C
  3
A5
350
4D
  3
A6
350
4E
  3
A7
350
4F
  3
A8
350
50
  3
A9
350
51
  3
B0
350
52
  3
B1
350
53
  3
B2
350
54
  3
B3
350
55
  3
B4
350
56
  3
B5
350
57
  3
B6
350
58
  3
B7
350
59
  3
B8
350
5A
  3
B9
350
5B
  3
C0
350
5C
  3
C1
350
5D
  3
C2
350
5E
  3
C3
350
5F
  3
C4
350
60
  3
C5
350
61
  3
C6
350
62
  3
C7
350
63
  3
C8
350
64
  3
C9
350
65
  3
D0
350
66
  3
D1
350
67
  3
D2
350
68
  0
LAYOUT
  5
1E
102
{ACAD_REACTORS
330
1A
102
}
330
1A
100
AcDbPlotSettings
  1

  2
none_device
  4

  6

 40
0.0
 41
0.0
 42
0.0
 43
0.0
 44
0.0
 45
0.0
 46
0.0
 47
0.0
 48
0.0
 49
0.0
140
0.0
141
0.0
142
1.0
143
1.0
 70
   688
 72
     1
 73
     0
 74
     5
  7

 75
    16
147
1.0
148
0.0
149
0.0
100
AcDbLayout
  1
Layout1
 70
     1
 71
     1
 10
0.0
 20
0.0
 11
420.0
 21
297.0
 12
0.0
 22
0.0
 32
0.0
 14
1.0000000000E+20
 24
1.0000000000E+20
 34
1.0000000000E+20
 15
-1.0000000000E+20
 25
-1.0000000000E+20
 35
-1.0000000000E+20
146
0.0
 13
0.0
 23
0.0
 33
0.0
 16
1.0
 26
0.0
 36
0.0
 17
0.0
 27
1.0
 37
0.0
 76
     0
330
1B
  0
LAYOUT
  5
26
102
{ACAD_REACTORS
330
1A
102
}
330
1A
100
AcDbPlotSettings
  1

  2
none_device
  4

  6

 40
0.0
 41
0.0
 42
0.0
 43
0.0
 44
0.0
 45
0.0
 46
0.0
 47
0.0
 48
0.0
 49
0.0
140
0.0
141
0.0
142
1.0
143
1.0
 70
   688
 72
     1
 73
     0
 74
     5
  7

 75
    16
147
1.0
148
0.0
149
0.0
100
AcDbLayout
  1
Layout2
 70
     1
 71
     2
 10
0.0
 20
0.0
 11
0.0
 21
0.0
 12
0.0
 22
0.0
 32
0.0
 14
0.0
 24
0.0
 34
0.0
 15
0.0
 25
0.0
 35
0.0
146
0.0
 13
0.0
 23
0.0
 33
0.0
 16
1.0
 26
0.0
 36
0.0
 17
0.0
 27
1.0
 37
0.0
 76
     0
330
23
  0
LAYOUT
  5
22
102
{ACAD_REACTORS
330
1A
102
}
330
1A
100
AcDbPlotSettings
  1

  2
none_device
  4
Letter_(8.50_x_11.00_Inches)
  6

 40
6.35
 41
6.35
 42
6.35000508
 43
6.35000508
 44
215.9
 45
279.4
 46
0.0
 47
0.0
 48
0.0
 49
0.0
140
0.0
141
0.0
142
1.0
143
1.0
 70
  1712
 72
     1
 73
     0
 74
     0
  7

 75
     0
147
1.0
148
0.0
149
0.0
100
AcDbLayout
  1
Model
 70
     1
 71
     0
 10
0.0
 20
0.0
 11
297.0
 21
210.0
 12
0.0
 22
0.0
 32
0.0
 14
0.0
 24
0.0
 34
0.0
 15
297.0
 25
210.0
 35
0.0
146
0.0
 13
0.0
 23
0.0
 33
0.0
 16
1.0
 26
0.0
 36
0.0
 17
0.0
 27
1.0
 37
0.0
 76
     0
330
1F
331
29
  0
MLINESTYLE
  5
18
102
{ACAD_REACTORS
330
17
102
}
330
17
100
AcDbMlineStyle
  2
Standard
 70
     0
  3

 62
   256
 51
90.0
 52
90.0
 71
     2
 49
0.5
 62
   256
  6
BYLAYER
 49
-0.5
 62
   256
  6
BYLAYER
  0
ACDBPLACEHOLDER
  5
F
102
{ACAD_REACTORS
330
E
102
}
330
E
  0
SCALE
  5
48
102
{ACAD_REACTORS
330
47
102
}
330
47
100
AcDbScale
 70
     0
300
1:1
140
1.0
141
1.0
290
     1
  0
SCALE
  5
49
102
{ACAD_REACTORS
330
47
102
}
330
47
100
AcDbScale
 70
     0
300
1:2
140
1.0
141
2.0
290
     0
  0
SCALE
  5
4A
102
{ACAD_REACTORS
330
47
102
}
330
47
100
AcDbScale
 70
     0
300
1:4
140
1.0
141
4.0
290
     0
  0
SCALE
  5
4B
102
{ACAD_REACTORS
330
47
102
}
330
47
100
AcDbScale
 70
     0
300
1:5
140
1.0
141
5.0
290
     0
  0
SCALE
  5
4C
102
{ACAD_REACTORS
330
47
102
}
330
47
100
AcDbScale
 70
     0
300
1:8
140
1.0
141
8.0
290
     0
  0
SCALE
  5
4D
102
{ACAD_REACTORS
330
47
102
}
330
47
100
AcDbScale
 70
     0
300
1:10
140
1.0
141
10.0
290
     0
  0
SCALE
  5
4E
102
{ACAD_REACTORS
330
47
102
}
330
47
100
AcDbScale
 70
     0
300
1:16
140
1.0
141
16.0
290
     0
  0
SCALE
  5
4F
102
{ACAD_REACTORS
330
47
102
}
330
47
100
AcDbScale
 70
     0
300
1:20
140
1.0
141
20.0
290
     0
  0
SCALE
  5
50
102
{ACAD_REACTORS
330
47
102
}
330
47
100
AcDbScale
 70
     0
300
1:30
140
1.0
141
30.0
290
     0
  0
SCALE
  5
51
102
{ACAD_REACTORS
330
47
102
}
330
47
100
AcDbScale
 70
     0
300
1:40
140
1.0
141
40.0
290
     0
  0
SCALE
  5
52
102
{ACAD_REACTORS
330
47
102
}
330
47
100
AcDbScale
 70
     0
300
1:50
140
1.0
141
50.0
290
     0
  0
SCALE
  5
53
102
{ACAD_REACTORS
330
47
102
}
330
47
100
AcDbScale
 70
     0
300
1:100
140
1.0
141
100.0
290
     0
  0
SCALE
  5
54
102
{ACAD_REACTORS
330
47
102
}
330
47
100
AcDbScale
 70
     0
300
2:1
140
2.0
141
1.0
290
     0
  0
SCALE
  5
55
102
{ACAD_REACTORS
330
47
102
}
330
47
100
AcDbScale
 70
     0
300
4:1
140
4.0
141
1.0
290
     0
  0
SCALE
  5
56
102
{ACAD_REACTORS
330
47
102
}
330
47
100
AcDbScale
 70
     0
300
8:1
140
8.0
141
1.0
290
     0
  0
SCALE
  5
57
102
{ACAD_REACTORS
330
47
102
}
330
47
100
AcDbScale
 70
     0
300
10:1
140
10.0
141
1.0
290
     0
  0
SCALE
  5
58
102
{ACAD_REACTORS
330
47
102
}
330
47
100
AcDbScale
 70
     0
300
100:1
140
100.0
141
1.0
290
     0
  0
SCALE
  5
59
102
{ACAD_REACTORS
330
47
102
}
330
47
100
AcDbScale
 70
     0
300
1/128" = 1'-0"
140
0.0078125
141
12.0
290
     0
  0
SCALE
  5
5A
102
{ACAD_REACTORS
330
47
102
}
330
47
100
AcDbScale
 70
     0
300
1/64" = 1'-0"
140
0.015625
141
12.0
290
     0
  0
SCALE
  5
5B
102
{ACAD_REACTORS
330
47
102
}
330
47
100
AcDbScale
 70
     0
300
1/32" = 1'-0"
140
0.03125
141
12.0
290
     0
  0
SCALE
  5
5C
102
{ACAD_REACTORS
330
47
102
}
330
47
100
AcDbScale
 70
     0
300
1/16" = 1'-0"
140
0.0625
141
12.0
290
     0
  0
SCALE
  5
5D
102
{ACAD_REACTORS
330
47
102
}
330
47
100
AcDbScale
 70
     0
300
3/32" = 1'-0"
140
0.09375
141
12.0
290
     0
  0
SCALE
  5
5E
102
{ACAD_REACTORS
330
47
102
}
330
47
100
AcDbScale
 70
     0
300
1/8" = 1'-0"
140
0.125
141
12.0
290
     0
  0
SCALE
  5
5F
102
{ACAD_REACTORS
330
47
102
}
330
47
100
AcDbScale
 70
     0
300
3/16" = 1'-0"
140
0.1875
141
12.0
290
     0
  0
SCALE
  5
60
102
{ACAD_REACTORS
330
47
102
}
330
47
100
AcDbScale
 70
     0
300
1/4" = 1'-0"
140
0.25
141
12.0
290
     0
  0
SCALE
  5
61
102
{ACAD_REACTORS
330
47
102
}
330
47
100
AcDbScale
 70
     0
300
3/8" = 1'-0"
140
0.375
141
12.0
290
     0
  0
SCALE
  5
62
102
{ACAD_REACTORS
330
47
102
}
330
47
100
AcDbScale
 70
     0
300
1/2" = 1'-0"
140
0.5
141
12.0
290
     0
  0
SCALE
  5
63
102
{ACAD_REACTORS
330
47
102
}
330
47
100
AcDbScale
 70
     0
300
3/4" = 1'-0"
140
0.75
141
12.0
290
     0
  0
SCALE
  5
64
102
{ACAD_REACTORS
330
47
102
}
330
47
100
AcDbScale
 70
     0
300
1" = 1'-0"
140
1.0
141
12.0
290
     0
  0
SCALE
  5
65
102
{ACAD_REACTORS
330
47
102
}
330
47
100
AcDbScale
 70
     0
300
1-1/2" = 1'-0"
140
1.5
141
12.0
290
     0
  0
SCALE
  5
66
102
{ACAD_REACTORS
330
47
102
}
330
47
100
AcDbScale
 70
     0
300
3" = 1'-0"
140
3.0
141
12.0
290
     0
  0
SCALE
  5
67
102
{ACAD_REACTORS
330
47
102
}
330
47
100
AcDbScale
 70
     0
300
6" = 1'-0"
140
6.0
141
12.0
290
     0
  0
SCALE
  5
68
102
{ACAD_REACTORS
330
47
102
}
330
47
100
AcDbScale
 70
     0
300
1'-0" = 1'-0"
140
12.0
141
12.0
290
     0
  0
ENDSEC
  0
EOF
