  0
SECTION
  2
HEADER
  9
$ACADVER
  1
AC1015
  9
$ACADMAINTVER
 70
     6
  9
$DWGCODEPAGE
  3
ANSI_1252
  9
$INSBASE
 10
0.0
 20
0.0
 30
0.0
  9
$EXTMIN
 10
0.0
 20
0.0
 30
0.0
  9
$EXTMAX
 10
297.0
 20
210.0
 30
0.0
  9
$LIMMIN
 10
0.0
 20
0.0
  9
$LIMMAX
 10
297.0
 20
210.0
  9
$ORTHOMODE
 70
     0
  9
$REGENMODE
 70
     1
  9
$FILLMODE
 70
     1
  9
$QTEXTMODE
 70
     0
  9
$MIRRTEXT
 70
     1
  9
$LTSCALE
 40
1.0
  9
$ATTMODE
 70
     1
  9
$TEXTSIZE
 40
2.0
  9
$TRACEWID
 40
1.0
  9
$TEXTSTYLE
  7
Standard
  9
$CLAYER
  8
0
  9
$CELTYPE
  6
ByLayer
  9
$CECOLOR
 62
   256
  9
$CELTSCALE
 40
1.0
  9
$DISPSILH
 70
     0
  9
$DIMSCALE
 40
1.0
  9
$DIMASZ
 40
3.0
  9
$DIMEXO
 40
0.0
  9
$DIMDLI
 40
3.75
  9
$DIMRND
 40
0.0
  9
$DIMDLE
 40
0.0
  9
$DIMEXE
 40
1.0
  9
$DIMTP
 40
0.0
  9
$DIMTM
 40
0.0
  9
$DIMTXT
 40
2.0
  9
$DIMCEN
 40
2.5
  9
$DIMTSZ
 40
0.0
  9
$DIMTOL
 70
     0
  9
$DIMLIM
 70
     0
  9
$DIMTIH
 70
     1
  9
$DIMTOH
 70
     1
  9
$DIMSE1
 70
     0
  9
$DIMSE2
 70
     0
  9
$DIMTAD
 70
     1
  9
$DIMZIN
 70
     0
  9
$DIMBLK
  1

  9
$DIMASO
 70
     1
  9
$DIMSHO
 70
     1
  9
$DIMPOST
  1

  9
$DIMAPOST
  1

  9
$DIMALT
 70
     0
  9
$DIMALTD
 70
     3
  9
$DIMALTF
 40
0.0393700787
  9
$DIMLFAC
 40
1.0
  9
$DIMTOFL
 70
     1
  9
$DIMTVP
 40
0.0
  9
$DIMTIX
 70
     0
  9
$DIMSOXD
 70
     0
  9
$DIMSAH
 70
     0
  9
$DIMBLK1
  1

  9
$DIMBLK2
  1

  9
$DIMSTYLE
  2
ISO-25
  9
$DIMCLRD
 70
     0
  9
$DIMCLRE
 70
     0
  9
$DIMCLRT
 70
     0
  9
$DIMTFAC
 40
1.0
  9
$DIMGAP
 40
1.524
  9
$DIMJUST
 70
     0
  9
$DIMSD1
 70
     0
  9
$DIMSD2
 70
     0
  9
$DIMTOLJ
 70
     0
  9
$DIMTZIN
 70
     0
  9
$DIMALTZ
 70
     0
  9
$DIMALTTZ
 70
     0
  9
$DIMUPT
 70
     0
  9
$DIMDEC
 70
     2
  9
$DIMTDEC
 70
     3
  9
$DIMALTU
 70
     2
  9
$DIMALTTD
 70
     3
  9
$DIMTXSTY
  7
Standard
  9
$DIMAUNIT
 70
     0
  9
$DIMADEC
 70
     2
  9
$DIMALTRND
 40
0.0
  9
$DIMAZIN
 70
     0
  9
$DIMDSEP
 70
    44
  9
$DIMATFIT
 70
     3
  9
$DIMFRAC
 70
     0
  9
$DIMLDRBLK
  1

  9
$DIMLUNIT
 70
     2
  9
$DIMLWD
 70
    -2
  9
$DIMLWE
 70
    -2
  9
$DIMTMOVE
 70
     0
  9
$LUNITS
 70
     2
  9
$LUPREC
 70
     2
  9
$SKETCHINC
 40
1.0
  9
$FILLETRAD
 40
10.0
  9
$AUNITS
 70
     0
  9
$AUPREC
 70
     2
  9
$MENU
  1
.
  9
$ELEVATION
 40
0.0
  9
$PELEVATION
 40
0.0
  9
$THICKNESS
 40
0.0
  9
$LIMCHECK
 70
     0
  9
$CHAMFERA
 40
0.0
  9
$CHAMFERB
 40
0.0
  9
$CHAMFERC
 40
0.0
  9
$CHAMFERD
 40
0.0
  9
$SKPOLY
 70
     0
  9
$TDCREATE
 40
2457668.659873472
  9
$TDUCREATE
 40
2457668.576540139
  9
$TDUPDATE
 40
2457668.659875069
  9
$TDUUPDATE
 40
2457668.576541736
  9
$TDINDWG
 40
0.0000000116
  9
$TDUSRTIMER
 40
0.0000000116
  9
$USRTIMER
 70
     1
  9
$ANGBASE
 50
0.0
  9
$ANGDIR
 70
     0
  9
$PDMODE
 70
     0
  9
$PDSIZE
 40
-1.0
  9
$PLINEWID
 40
0.0
  9
$SPLFRAME
 70
     0
  9
$SPLINETYPE
 70
     6
  9
$SPLINESEGS
 70
     8
  9
$HANDSEED
  5
2CC
  9
$SURFTAB1
 70
     6
  9
$SURFTAB2
 70
     6
  9
$SURFTYPE
 70
     6
  9
$SURFU
 70
     6
  9
$SURFV
 70
     6
  9
$UCSBASE
  2

  9
$UCSNAME
  2

  9
$UCSORG
 10
0.0
 20
0.0
 30
0.0
  9
$UCSXDIR
 10
1.0
 20
0.0
 30
0.0
  9
$UCSYDIR
 10
0.0
 20
1.0
 30
0.0
  9
$UCSORTHOREF
  2

  9
$UCSORTHOVIEW
 70
     0
  9
$UCSORGTOP
 10
0.0
 20
0.0
 30
0.0
  9
$UCSORGBOTTOM
 10
0.0
 20
0.0
 30
0.0
  9
$UCSORGLEFT
 10
0.0
 20
0.0
 30
0.0
  9
$UCSORGRIGHT
 10
0.0
 20
0.0
 30
0.0
  9
$UCSORGFRONT
 10
0.0
 20
0.0
 30
0.0
  9
$UCSORGBACK
 10
0.0
 20
0.0
 30
0.0
  9
$PUCSBASE
  2

  9
$PUCSNAME
  2

  9
$PUCSORG
 10
0.0
 20
0.0
 30
0.0
  9
$PUCSXDIR
 10
1.0
 20
0.0
 30
0.0
  9
$PUCSYDIR
 10
0.0
 20
1.0
 30
0.0
  9
$PUCSORTHOREF
  2

  9
$PUCSORTHOVIEW
 70
     0
  9
$PUCSORGTOP
 10
0.0
 20
0.0
 30
0.0
  9
$PUCSORGBOTTOM
 10
0.0
 20
0.0
 30
0.0
  9
$PUCSORGLEFT
 10
0.0
 20
0.0
 30
0.0
  9
$PUCSORGRIGHT
 10
0.0
 20
0.0
 30
0.0
  9
$PUCSORGFRONT
 10
0.0
 20
0.0
 30
0.0
  9
$PUCSORGBACK
 10
0.0
 20
0.0
 30
0.0
  9
$USERI1
 70
     0
  9
$USERI2
 70
     0
  9
$USERI3
 70
     0
  9
$USERI4
 70
     0
  9
$USERI5
 70
     0
  9
$USERR1
 40
0.0
  9
$USERR2
 40
0.0
  9
$USERR3
 40
0.0
  9
$USERR4
 40
0.0
  9
$USERR5
 40
0.0
  9
$WORLDVIEW
 70
     1
  9
$SHADEDGE
 70
     3
  9
$SHADEDIF
 70
    70
  9
$TILEMODE
 70
     1
  9
$MAXACTVP
 70
    64
  9
$PINSBASE
 10
0.0
 20
0.0
 30
0.0
  9
$PLIMCHECK
 70
     0
  9
$PEXTMIN
 10
1.0000000000E+20
 20
1.0000000000E+20
 30
1.0000000000E+20
  9
$PEXTMAX
 10
-1.0000000000E+20
 20
-1.0000000000E+20
 30
-1.0000000000E+20
  9
$PLIMMIN
 10
0.0
 20
0.0
  9
$PLIMMAX
 10
420.0
 20
297.0
  9
$UNITMODE
 70
     0
  9
$VISRETAIN
 70
     1
  9
$PLINEGEN
 70
     0
  9
$PSLTSCALE
 70
     1
  9
$TREEDEPTH
 70
  3020
  9
$CMLSTYLE
  2
Standard
  9
$CMLJUST
 70
     0
  9
$CMLSCALE
 40
20.0
  9
$PROXYGRAPHICS
 70
     1
  9
$MEASUREMENT
 70
     1
  9
$CELWEIGHT
370
    -1
  9
$ENDCAPS
280
     0
  9
$JOINSTYLE
280
     0
  9
$LWDISPLAY
290
     1
  9
$INSUNITS
 70
     4
  9
$HYPERLINKBASE
  1

  9
$STYLESHEET
  1

  9
$XEDIT
290
     1
  9
$CEPSNTYPE
380
     0
  9
$PSTYLEMODE
290
     1
  9
$FINGERPRINTGUID
  2
{227AEC31-562F-4755-8F49-DEAF5976127D}
  9
$VERSIONGUID
  2
{FAEB1C32-E019-11D5-929B-00C0DF256EC4}
  9
$EXTNAMES
290
     1
  9
$PSVPSCALE
 40
0.0
  9
$OLESTARTUP
290
     0
  0
ENDSEC
  0
SECTION
  2
CLASSES
  0
CLASS
  1
ACDBDICTIONARYWDFLT
  2
AcDbDictionaryWithDefault
  3
ObjectDBX Classes
 90
        0
280
     0
281
     0
  0
CLASS
  1
VISUALSTYLE
  2
AcDbVisualStyle
  3
ObjectDBX Classes
 90
     4095
280
     0
281
     0
  0
CLASS
  1
MATERIAL
  2
AcDbMaterial
  3
ObjectDBX Classes
 90
     1153
280
     0
281
     0
  0
CLASS
  1
SCALE
  2
AcDbScale
  3
ObjectDBX Classes
 90
     1153
280
     0
281
     0
  0
CLASS
  1
TABLESTYLE
  2
AcDbTableStyle
  3
ObjectDBX Classes
 90
     4095
280
     0
281
     0
  0
CLASS
  1
MLEADERSTYLE
  2
AcDbMLeaderStyle
  3
ACDB_MLEADERSTYLE_CLASS
 90
     4095
280
     0
281
     0
  0
CLASS
  1
SUN
  2
AcDbSun
  3
SCENEOE
 90
     1153
280
     0
281
     0
  0
CLASS
  1
ACDBPLACEHOLDER
  2
AcDbPlaceHolder
  3
ObjectDBX Classes
 90
        0
280
     0
281
     0
  0
CLASS
  1
LAYOUT
  2
AcDbLayout
  3
ObjectDBX Classes
 90
        0
280
     0
281
     0
  0
ENDSEC
  0
SECTION
  2
TABLES
  0
TABLE
  2
VPORT
  5
8
330
0
100
AcDbSymbolTable
 70
     1
  0
VPORT
  5
29
330
8
100
AcDbSymbolTableRecord
100
AcDbViewportTableRecord
  2
*Active
 70
     0
 10
0.0
 20
0.0
 11
1.0
 21
1.0
 12
148.5
 22
105.0
 13
0.0
 23
0.0
 14
10.0
 24
10.0
 15
10.0
 25
10.0
 16
0.0
 26
0.0
 36
1.0
 17
0.0
 27
0.0
 37
0.0
 40
210.0
 41
1.4142857143
 42
50.0
 43
0.0
 44
0.0
 50
0.0
 51
0.0
 71
     0
 72
  2000
 73
     1
 74
     3
 75
     0
 76
     0
 77
     0
 78
     0
281
     0
 65
     1
110
0.0
120
0.0
130
0.0
111
1.0
121
0.0
131
0.0
112
0.0
122
1.0
132
0.0
 79
     0
146
0.0
  0
ENDTAB
  0
TABLE
  2
LTYPE
  5
5
330
0
100
AcDbSymbolTable
 70
     6
  0
LTYPE
  5
14
330
5
100
AcDbSymbolTableRecord
100
AcDbLinetypeTableRecord
  2
ByBlock
 70
     0
  3

 72
    65
 73
     0
 40
0.0
  0
LTYPE
  5
15
330
5
100
AcDbSymbolTableRecord
100
AcDbLinetypeTableRecord
  2
ByLayer
 70
     0
  3

 72
    65
 73
     0
 40
0.0
  0
LTYPE
  5
16
330
5
100
AcDbSymbolTableRecord
100
AcDbLinetypeTableRecord
  2
Continuous
 70
     0
  3
Solid line
 72
    65
 73
     0
 40
0.0
  0
LTYPE
  5
6E
330
5
100
AcDbSymbolTableRecord
100
AcDbLinetypeTableRecord
  2
HIDDEN
 70
     0
  3
Hidden __ __ __ __ __ __ __ __ __ __ __ __ __ __
 72
    65
 73
     2
 40
1.905
 49
1.27
 74
     0
 49
-0.635
 74
     0
  0
LTYPE
  5
6F
330
5
100
AcDbSymbolTableRecord
100
AcDbLinetypeTableRecord
  2
PHANTOM
 70
     0
  3
Phantom ______  __  __  ______  __  __  ______
 72
    65
 73
     6
 40
12.7
 49
6.35
 74
     0
 49
-1.27
 74
     0
 49
1.27
 74
     0
 49
-1.27
 74
     0
 49
1.27
 74
     0
 49
-1.27
 74
     0
  0
LTYPE
  5
70
330
5
100
AcDbSymbolTableRecord
100
AcDbLinetypeTableRecord
  2
CENTER
 70
     0
  3
Center ____ _ ____ _ ____ _ ____ _ ____ _ ____
 72
    65
 73
     4
 40
10.16
 49
6.35
 74
     0
 49
-1.27
 74
     0
 49
1.27
 74
     0
 49
-1.27
 74
     0
  0
LTYPE
  5
71
330
5
100
AcDbSymbolTableRecord
100
AcDbLinetypeTableRecord
  2
CENTERX2
 70
     0
  3
Center (2x) ________  __  ________  __  _____
 72
    65
 73
     4
 40
20.32
 49
12.7
 74
     0
 49
-2.54
 74
     0
 49
2.54
 74
     0
 49
-2.54
 74
     0
  0
LTYPE
  5
72
330
5
100
AcDbSymbolTableRecord
100
AcDbLinetypeTableRecord
  2
DOT2
 70
     0
  3
Dot (.5x) ........................................
 72
    65
 73
     2
 40
0.635
 49
0.0
 74
     0
 49
-0.635
 74
     0
  0
ENDTAB
  0
TABLE
  2
LAYER
  5
2
330
0
100
AcDbSymbolTable
 70
     5
  0
LAYER
  5
10
330
2
100
AcDbSymbolTableRecord
100
AcDbLayerTableRecord
  2
0
 70
     0
 62
     7
  6
Continuous
370
    -3
390
F
  0
LAYER
  5
73
330
2
100
AcDbSymbolTableRecord
100
AcDbLayerTableRecord
  2
FORMAT
 70
     0
 62
     7
  6
Continuous
370
    -3
390
F
  0
LAYER
  5
74
330
2
100
AcDbSymbolTableRecord
100
AcDbLayerTableRecord
  2
VERMASSUNG
 70
     0
 62
     7
  6
Continuous
370
    -3
390
F
  0
LAYER
  5
75
330
2
100
AcDbSymbolTableRecord
100
AcDbLayerTableRecord
  2
KOPF_DÜNN
 70
     0
 62
     7
  6
Continuous
370
    -3
390
F
  0
LAYER
  5
76
330
2
100
AcDbSymbolTableRecord
100
AcDbLayerTableRecord
  2
KOPF_DICK
 70
     0
 62
     7
  6
Continuous
370
    15
390
F
  0
ENDTAB
  0
TABLE
  2
STYLE
  5
3
330
0
100
AcDbSymbolTable
 70
     3
  0
STYLE
  5
11
330
3
100
AcDbSymbolTableRecord
100
AcDbTextStyleTableRecord
  2
Standard
 70
     0
 40
0.0
 41
1.0
 50
0.0
 71
     0
 42
2.0
  3
txt
  4

  0
STYLE
  5
77
330
3
100
AcDbSymbolTableRecord
100
AcDbTextStyleTableRecord
  2
SLDTEXTSTYLE0
 70
     0
 40
0.0
 41
0.7
 50
0.0
 71
     0
 42
2.0
  3
TXT
  4

  0
STYLE
  5
1DE
330
3
100
AcDbSymbolTableRecord
100
AcDbTextStyleTableRecord
  2
SLDTEXTSTYLE1
 70
     0
 40
0.0
 41
0.65
 50
0.0
 71
     0
 42
2.0
  3
TXT
  4

  0
ENDTAB
  0
TABLE
  2
VIEW
  5
6
330
0
100
AcDbSymbolTable
 70
     0
  0
ENDTAB
  0
TABLE
  2
UCS
  5
7
330
0
100
AcDbSymbolTable
 70
     0
  0
ENDTAB
  0
TABLE
  2
APPID
  5
9
330
0
100
AcDbSymbolTable
 70
     1
  0
APPID
  5
12
330
9
100
AcDbSymbolTableRecord
100
AcDbRegAppTableRecord
  2
ACAD
 70
     0
  0
ENDTAB
  0
TABLE
  2
DIMSTYLE
  5
A
330
0
100
AcDbSymbolTable
 70
     2
100
AcDbDimStyleTable
  0
DIMSTYLE
105
27
330
A
100
AcDbSymbolTableRecord
100
AcDbDimStyleTableRecord
  2
ISO-25
 70
     0
 41
2.5
 42
0.625
 43
3.75
 44
1.25
 73
     0
 74
     0
 77
     1
 78
     8
140
2.5
141
2.5
143
0.0393700787
147
0.625
171
     3
172
     1
178
     0
271
     2
272
     2
274
     3
278
    44
283
     0
284
     8
340
11
  0
DIMSTYLE
105
1BE
102
{ACAD_REACTORS
330
1BD
330
1C9
330
1D5
330
1E2
330
1EE
330
1F8
102
}
330
A
100
AcDbSymbolTableRecord
100
AcDbDimStyleTableRecord
  2
SLDDIMSTYLE0
 70
     0
 41
3.0
 44
0.0
 45
0.000000001
 73
     0
 74
     0
 77
     1
 78
    12
 79
     3
140
2.0
147
0.5
173
     1
178
     0
271
     2
272
     3
276
     2
284
    12
340
77
  0
ENDTAB
  0
TABLE
  2
BLOCK_RECORD
  5
1
330
0
100
AcDbSymbolTable
 70
     7
  0
BLOCK_RECORD
  5
1F
330
1
100
AcDbSymbolTableRecord
100
AcDbBlockTableRecord
  2
*Model_Space
340
22
  0
BLOCK_RECORD
  5
1B
330
1
100
AcDbSymbolTableRecord
100
AcDbBlockTableRecord
  2
*Paper_Space
340
1E
  0
BLOCK_RECORD
  5
23
330
1
100
AcDbSymbolTableRecord
100
AcDbBlockTableRecord
  2
*Paper_Space0
340
26
  0
BLOCK_RECORD
  5
1BF
330
1
100
AcDbSymbolTableRecord
100
AcDbBlockTableRecord
  2
_D
340
0
  0
BLOCK_RECORD
  5
1CA
330
1
100
AcDbSymbolTableRecord
100
AcDbBlockTableRecord
  2
_D_1
340
0
  0
BLOCK_RECORD
  5
1D6
330
1
100
AcDbSymbolTableRecord
100
AcDbBlockTableRecord
  2
_D_2
340
0
  0
BLOCK_RECORD
  5
1E3
330
1
100
AcDbSymbolTableRecord
100
AcDbBlockTableRecord
  2
_D_3
340
0
  0
BLOCK_RECORD
  5
1EF
330
1
100
AcDbSymbolTableRecord
100
AcDbBlockTableRecord
  2
_D_4
340
0
  0
BLOCK_RECORD
  5
1F9
330
1
100
AcDbSymbolTableRecord
100
AcDbBlockTableRecord
  2
_D_5
340
0
  0
ENDTAB
  0
ENDSEC
  0
SECTION
  2
BLOCKS
  0
BLOCK
  5
20
330
1F
100
AcDbEntity
  8
0
100
AcDbBlockBegin
  2
*Model_Space
 70
     0
 10
0.0
 20
0.0
 30
0.0
  3
*Model_Space
  1

  0
ENDBLK
  5
21
330
1F
100
AcDbEntity
  8
0
100
AcDbBlockEnd
  0
BLOCK
  5
1C
330
1B
100
AcDbEntity
 67
     1
  8
0
100
AcDbBlockBegin
  2
*Paper_Space
 70
     0
 10
0.0
 20
0.0
 30
0.0
  3
*Paper_Space
  1

  0
ENDBLK
  5
1D
330
1B
100
AcDbEntity
 67
     1
  8
0
100
AcDbBlockEnd
  0
BLOCK
  5
24
330
23
100
AcDbEntity
  8
0
100
AcDbBlockBegin
  2
*Paper_Space0
 70
     0
 10
0.0
 20
0.0
 30
0.0
  3
*Paper_Space0
  1

  0
ENDBLK
  5
25
330
23
100
AcDbEntity
  8
0
100
AcDbBlockEnd
  0
BLOCK
  5
1C0
330
1BF
100
AcDbEntity
  8
0
100
AcDbBlockBegin
  2
_D
 70
     0
 10
0.0
 20
0.0
 30
0.0
  3
_D
  1

  0
SOLID
  5
1C2
330
1BF
100
AcDbEntity
  8
VERMASSUNG
100
AcDbTrace
 10
223.3265270516
 20
122.4123566331
 30
0.0
 11
222.8765270516
 21
119.4123566331
 31
0.0
 12
223.7765270516
 22
119.4123566331
 32
0.0
 13
223.7765270516
 23
119.4123566331
 33
0.0
  0
SOLID
  5
1C3
330
1BF
100
AcDbEntity
  8
VERMASSUNG
100
AcDbTrace
 10
223.3265270516
 20
86.4123566331
 30
0.0
 11
223.7765270516
 21
89.4123566331
 31
0.0
 12
222.8765270516
 22
89.4123566331
 32
0.0
 13
222.8765270516
 23
89.4123566331
 33
0.0
  0
LINE
  5
1C4
330
1BF
100
AcDbEntity
  8
VERMASSUNG
100
AcDbLine
 10
200.6538176784
 20
122.4123566331
 30
0.0
 11
224.3265270516
 21
122.4123566331
 31
0.0
  0
LINE
  5
1C5
330
1BF
100
AcDbEntity
  8
VERMASSUNG
100
AcDbLine
 10
200.6538176784
 20
86.4123566331
 30
0.0
 11
224.3265270516
 21
86.4123566331
 31
0.0
  0
LINE
  5
1C6
330
1BF
100
AcDbEntity
  8
VERMASSUNG
100
AcDbLine
 10
223.3265270516
 20
122.4123566331
 30
0.0
 11
223.3265270516
 21
86.4123566331
 31
0.0
  0
MTEXT
  5
1C7
330
1BF
100
AcDbEntity
  8
VERMASSUNG
100
AcDbMText
 10
220.7483915138
 20
101.208180526
 30
0.0
 40
2.0
 41
0.0
 71
     1
 72
     1
  1
%%c
  7
SLDTEXTSTYLE0
 11
-7.044195017643634E-15
 21
1.0
 31
0.0
 73
     1
 44
1.0
  0
MTEXT
  5
1C8
330
1BF
100
AcDbEntity
  8
VERMASSUNG
100
AcDbMText
 10
220.7483914556
 20
104.8171527197
 30
0.0
 40
2.0
 41
0.0
 71
     1
 72
     1
  1
36
  7
SLDTEXTSTYLE0
 11
-7.044195017643634E-15
 21
1.0
 31
0.0
 73
     1
 44
1.0
  0
ENDBLK
  5
1C1
330
1BF
100
AcDbEntity
  8
0
100
AcDbBlockEnd
  0
BLOCK
  5
1CB
330
1CA
100
AcDbEntity
  8
0
100
AcDbBlockBegin
  2
_D_1
 70
     0
 10
0.0
 20
0.0
 30
0.0
  3
_D_1
  1

  0
SOLID
  5
1CD
330
1CA
100
AcDbEntity
  8
VERMASSUNG
100
AcDbTrace
 10
229.3265270516
 20
136.4123566331
 30
0.0
 11
228.8765270516
 21
133.4123566331
 31
0.0
 12
229.7765270516
 22
133.4123566331
 32
0.0
 13
229.7765270516
 23
133.4123566331
 33
0.0
  0
SOLID
  5
1CE
330
1CA
100
AcDbEntity
  8
VERMASSUNG
100
AcDbTrace
 10
229.3265270516
 20
72.4123566331
 30
0.0
 11
229.7765270516
 21
75.4123566331
 31
0.0
 12
228.8765270516
 22
75.4123566331
 32
0.0
 13
228.8765270516
 23
75.4123566331
 33
0.0
  0
LINE
  5
1CF
330
1CA
100
AcDbEntity
  8
VERMASSUNG
100
AcDbLine
 10
216.6538176785
 20
136.4123566331
 30
0.0
 11
230.3265270516
 21
136.4123566331
 31
0.0
  0
LINE
  5
1D0
330
1CA
100
AcDbEntity
  8
VERMASSUNG
100
AcDbLine
 10
216.6538176785
 20
72.4123566331
 30
0.0
 11
230.3265270516
 21
72.4123566331
 31
0.0
  0
LINE
  5
1D1
330
1CA
100
AcDbEntity
  8
VERMASSUNG
100
AcDbLine
 10
229.3265270516
 20
136.4123566331
 30
0.0
 11
229.3265270516
 21
72.4123566331
 31
0.0
  0
MTEXT
  5
1D2
330
1CA
100
AcDbEntity
  8
VERMASSUNG
100
AcDbMText
 10
226.5483917954
 20
98.2091599287
 30
0.0
 40
2.0
 41
0.0
 71
     1
 72
     1
  1
ST6
  7
SLDTEXTSTYLE0
 11
-7.044195017643634E-15
 21
1.0
 31
0.0
 73
     1
 44
1.0
  0
MTEXT
  5
1D3
330
1CA
100
AcDbEntity
  8
VERMASSUNG
100
AcDbMText
 10
226.7483917466
 20
104.009159855
 30
0.0
 40
2.0
 41
0.0
 71
     1
 72
     1
  1
%%c
  7
SLDTEXTSTYLE0
 11
-7.044195017643634E-15
 21
1.0
 31
0.0
 73
     1
 44
1.0
  0
MTEXT
  5
1D4
330
1CA
100
AcDbEntity
  8
VERMASSUNG
100
AcDbMText
 10
226.7483914556
 20
107.6176357269
 30
0.0
 40
2.0
 41
0.0
 71
     1
 72
     1
  1
64
  7
SLDTEXTSTYLE0
 11
-7.044195017643634E-15
 21
1.0
 31
0.0
 73
     1
 44
1.0
  0
ENDBLK
  5
1CC
330
1CA
100
AcDbEntity
  8
0
100
AcDbBlockEnd
  0
BLOCK
  5
1D7
330
1D6
100
AcDbEntity
  8
0
100
AcDbBlockBegin
  2
_D_2
 70
     0
 10
0.0
 20
0.0
 30
0.0
  3
_D_2
  1

  0
SOLID
  5
1D9
330
1D6
100
AcDbEntity
  8
VERMASSUNG
100
AcDbTrace
 10
81.3913217131
 20
135.9123566331
 30
0.0
 11
80.9413217131
 21
132.9123566331
 31
0.0
 12
81.8413217131
 22
132.9123566331
 32
0.0
 13
81.8413217131
 23
132.9123566331
 33
0.0
  0
SOLID
  5
1DA
330
1D6
100
AcDbEntity
  8
VERMASSUNG
100
AcDbTrace
 10
81.3913217131
 20
72.9123566331
 30
0.0
 11
81.8413217131
 21
75.9123566331
 31
0.0
 12
80.9413217131
 22
75.9123566331
 32
0.0
 13
80.9413217131
 23
75.9123566331
 33
0.0
  0
LINE
  5
1DB
330
1D6
100
AcDbEntity
  8
VERMASSUNG
100
AcDbLine
 10
117.5538176785
 20
135.9123566331
 30
0.0
 11
80.3913217131
 21
135.9123566331
 31
0.0
  0
LINE
  5
1DC
330
1D6
100
AcDbEntity
  8
VERMASSUNG
100
AcDbLine
 10
117.5538176785
 20
72.9123566331
 30
0.0
 11
80.3913217131
 21
72.9123566331
 31
0.0
  0
LINE
  5
1DD
330
1D6
100
AcDbEntity
  8
VERMASSUNG
100
AcDbLine
 10
81.3913217131
 20
135.9123566331
 30
0.0
 11
81.3913217131
 21
72.9123566331
 31
0.0
  0
MTEXT
  5
1DF
330
1D6
100
AcDbEntity
  8
VERMASSUNG
100
AcDbMText
 10
78.6131864569
 20
94.7082804231
 30
0.0
 40
2.0
 41
0.0
 71
     1
 72
     1
  1
HSK A 63
  7
SLDTEXTSTYLE1
 11
-7.044195017643634E-15
 21
1.0
 31
0.0
 73
     1
 44
1.0
  0
MTEXT
  5
1E0
330
1D6
100
AcDbEntity
  8
VERMASSUNG
100
AcDbMText
 10
78.8131864082
 20
107.7082806913
 30
0.0
 40
2.0
 41
0.0
 71
     1
 72
     1
  1
%%c
  7
SLDTEXTSTYLE0
 11
-7.044195017643634E-15
 21
1.0
 31
0.0
 73
     1
 44
1.0
  0
MTEXT
  5
1E1
330
1D6
100
AcDbEntity
  8
VERMASSUNG
100
AcDbMText
 10
78.8131861172
 20
111.3170528226
 30
0.0
 40
2.0
 41
0.0
 71
     1
 72
     1
  1
63
  7
SLDTEXTSTYLE0
 11
-7.044195017643634E-15
 21
1.0
 31
0.0
 73
     1
 44
1.0
  0
ENDBLK
  5
1D8
330
1D6
100
AcDbEntity
  8
0
100
AcDbBlockEnd
  0
BLOCK
  5
1E4
330
1E3
100
AcDbEntity
  8
0
100
AcDbBlockBegin
  2
_D_3
 70
     0
 10
0.0
 20
0.0
 30
0.0
  3
_D_3
  1

  0
ARC
  5
1E6
330
1E3
100
AcDbEntity
  8
VERMASSUNG
100
AcDbCircle
 10
150.8159953304
 20
157.13244939
 30
0.0
 40
4.247059938537233
100
AcDbArc
 50
153.4349488229
 51
206.5650511771
  0
ARC
  5
1E7
330
1E3
100
AcDbEntity
  8
VERMASSUNG
100
AcDbCircle
 10
151.7916400266
 20
157.13244939
 30
0.0
 40
4.24705993853726
100
AcDbArc
 50
333.4349488229
 51
26.5650511771
  0
SOLID
  5
1E8
330
1E3
100
AcDbEntity
  8
VERMASSUNG
100
AcDbTrace
 10
85.3538176785
 20
155.2331064446
 30
0.0
 11
88.3538176785
 21
154.7831064446
 31
0.0
 12
88.3538176785
 22
155.6831064446
 32
0.0
 13
88.3538176785
 23
155.6831064446
 33
0.0
  0
SOLID
  5
1E9
330
1E3
100
AcDbEntity
  8
VERMASSUNG
100
AcDbTrace
 10
217.2538176785
 20
155.2331064446
 30
0.0
 11
214.2538176785
 21
155.6831064446
 31
0.0
 12
214.2538176785
 22
154.7831064446
 32
0.0
 13
214.2538176785
 23
154.7831064446
 33
0.0
  0
LINE
  5
1EA
330
1E3
100
AcDbEntity
  8
VERMASSUNG
100
AcDbLine
 10
85.3538176785
 20
124.1030343796
 30
0.0
 11
85.3538176785
 21
156.2331064446
 31
0.0
  0
LINE
  5
1EB
330
1E3
100
AcDbEntity
  8
VERMASSUNG
100
AcDbLine
 10
217.2538176785
 20
135.8123566331
 30
0.0
 11
217.2538176785
 21
156.2331064446
 31
0.0
  0
LINE
  5
1EC
330
1E3
100
AcDbEntity
  8
VERMASSUNG
100
AcDbLine
 10
85.3538176785
 20
155.2331064446
 30
0.0
 11
217.2538176785
 21
155.2331064446
 31
0.0
  0
MTEXT
  5
1ED
330
1E3
100
AcDbEntity
  8
VERMASSUNG
100
AcDbMText
 10
148.6048094396
 20
157.8112420405
 30
0.0
 40
2.0
 41
0.0
 71
     1
 72
     1
  1
131.9
  7
SLDTEXTSTYLE0
 73
     1
 44
1.0
  0
ENDBLK
  5
1E5
330
1E3
100
AcDbEntity
  8
0
100
AcDbBlockEnd
  0
BLOCK
  5
1F0
330
1EF
100
AcDbEntity
  8
0
100
AcDbBlockBegin
  2
_D_4
 70
     0
 10
0.0
 20
0.0
 30
0.0
  3
_D_4
  1

  0
SOLID
  5
1F2
330
1EF
100
AcDbEntity
  8
VERMASSUNG
100
AcDbTrace
 10
117.2538176785
 20
149.2331064446
 30
0.0
 11
120.2538176785
 21
148.7831064446
 31
0.0
 12
120.2538176785
 22
149.6831064446
 32
0.0
 13
120.2538176785
 23
149.6831064446
 33
0.0
  0
SOLID
  5
1F3
330
1EF
100
AcDbEntity
  8
VERMASSUNG
100
AcDbTrace
 10
217.2538176785
 20
149.2331064446
 30
0.0
 11
214.2538176785
 21
149.6831064446
 31
0.0
 12
214.2538176785
 22
148.7831064446
 32
0.0
 13
214.2538176785
 23
148.7831064446
 33
0.0
  0
LINE
  5
1F4
330
1EF
100
AcDbEntity
  8
VERMASSUNG
100
AcDbLine
 10
117.2538176785
 20
135.6123566331
 30
0.0
 11
117.2538176785
 21
150.2331064446
 31
0.0
  0
LINE
  5
1F5
330
1EF
100
AcDbEntity
  8
VERMASSUNG
100
AcDbLine
 10
217.2538176785
 20
135.8123566331
 30
0.0
 11
217.2538176785
 21
150.2331064446
 31
0.0
  0
LINE
  5
1F6
330
1EF
100
AcDbEntity
  8
VERMASSUNG
100
AcDbLine
 10
117.2538176785
 20
149.2331064446
 30
0.0
 11
217.2538176785
 21
149.2331064446
 31
0.0
  0
MTEXT
  5
1F7
330
1EF
100
AcDbEntity
  8
VERMASSUNG
100
AcDbMText
 10
165.3544747331
 20
151.8112420405
 30
0.0
 40
2.0
 41
0.0
 71
     1
 72
     1
  1
100
  7
SLDTEXTSTYLE0
 73
     1
 44
1.0
  0
ENDBLK
  5
1F1
330
1EF
100
AcDbEntity
  8
0
100
AcDbBlockEnd
  0
BLOCK
  5
1FA
330
1F9
100
AcDbEntity
  8
0
100
AcDbBlockBegin
  2
_D_5
 70
     0
 10
0.0
 20
0.0
 30
0.0
  3
_D_5
  1

  0
ARC
  5
1FC
330
1F9
100
AcDbEntity
  8
VERMASSUNG
100
AcDbCircle
 10
179.2402394087
 20
145.13244939
 30
0.0
 40
4.247059938537323
100
AcDbArc
 50
153.4349488229
 51
206.5650511771
  0
ARC
  5
1FD
330
1F9
100
AcDbEntity
  8
VERMASSUNG
100
AcDbCircle
 10
181.2173959484
 20
145.13244939
 30
0.0
 40
4.247059938537323
100
AcDbArc
 50
333.4349488229
 51
26.5650511771
  0
SOLID
  5
1FE
330
1F9
100
AcDbEntity
  8
VERMASSUNG
100
AcDbTrace
 10
143.2038176785
 20
143.2331064446
 30
0.0
 11
146.2038176785
 21
142.7831064446
 31
0.0
 12
146.2038176785
 22
143.6831064446
 32
0.0
 13
146.2038176785
 23
143.6831064446
 33
0.0
  0
SOLID
  5
1FF
330
1F9
100
AcDbEntity
  8
VERMASSUNG
100
AcDbTrace
 10
217.2538176785
 20
143.2331064446
 30
0.0
 11
214.2538176785
 21
143.6831064446
 31
0.0
 12
214.2538176785
 22
142.7831064446
 32
0.0
 13
214.2538176785
 23
142.7831064446
 33
0.0
  0
LINE
  5
200
330
1F9
100
AcDbEntity
  8
VERMASSUNG
100
AcDbLine
 10
143.2038176785
 20
134.2587969569
 30
0.0
 11
143.2038176785
 21
144.2331064446
 31
0.0
  0
LINE
  5
201
330
1F9
100
AcDbEntity
  8
VERMASSUNG
100
AcDbLine
 10
217.2538176785
 20
135.8123566331
 30
0.0
 11
217.2538176785
 21
144.2331064446
 31
0.0
  0
LINE
  5
202
330
1F9
100
AcDbEntity
  8
VERMASSUNG
100
AcDbLine
 10
143.2038176785
 20
143.2331064446
 30
0.0
 11
217.2538176785
 21
143.2331064446
 31
0.0
  0
MTEXT
  5
203
330
1F9
100
AcDbEntity
  8
VERMASSUNG
100
AcDbMText
 10
177.0290535179
 20
145.8112420405
 30
0.0
 40
2.0
 41
0.0
 71
     1
 72
     1
  1
74.05
  7
SLDTEXTSTYLE0
 73
     1
 44
1.0
  0
ENDBLK
  5
1FB
330
1F9
100
AcDbEntity
  8
0
100
AcDbBlockEnd
  0
ENDSEC
  0
SECTION
  2
ENTITIES
  0
MTEXT
  5
78
330
1F
100
AcDbEntity
  8
KOPF_DÜNN
100
AcDbMText
 10
13.8892156294
 20
23.8442973028
 30
0.0
 40
3.0
 41
0.0
 71
     1
 72
     1
  1
144.806.064.100
  7
SLDTEXTSTYLE0
 73
     1
 44
1.0
  0
MTEXT
  5
79
330
1F
100
AcDbEntity
  8
VERMASSUNG
100
AcDbMText
 10
13.9329988022
 20
28.8834360957
 30
0.0
 40
3.0
 41
0.0
 71
     1
 72
     1
  1
Aufnahme_Master shank ST6+
  7
SLDTEXTSTYLE0
 73
     1
 44
1.0
  0
MTEXT
  5
7A
330
1F
100
AcDbEntity
  8
VERMASSUNG
100
AcDbMText
 10
98.8601118557
 20
13.8365368761
 30
0.0
 40
2.0
 41
0.0
 71
     1
 72
     1
  1
Datum: 10.06.2008
  7
SLDTEXTSTYLE0
 73
     1
 44
1.0
  0
MTEXT
  5
7B
330
1F
100
AcDbEntity
  8
VERMASSUNG
100
AcDbMText
 10
13.933048693
 20
18.0482802738
 30
0.0
 40
2.0
 41
0.0
 71
     1
 72
     1
  1
DIN 69893 HSK A 63
  7
SLDTEXTSTYLE0
 73
     1
 44
1.0
  0
MTEXT
  5
7C
330
1F
100
AcDbEntity
  8
VERMASSUNG
100
AcDbMText
 10
13.9808475933
 20
13.9090974274
 30
0.0
 40
2.0
 41
0.0
 71
     1
 72
     1
  1
Gewicht: 1892g
  7
SLDTEXTSTYLE0
 73
     1
 44
1.0
  0
LINE
  5
7D
330
1F
100
AcDbEntity
  8
0
  6
Continuous
 62
     7
370
    15
100
AcDbLine
 10
216.6538164626
 20
72.4123551132
 30
0.0
 11
217.2538191686
 21
73.0123578193
 31
0.0
  0
LINE
  5
7E
330
1F
100
AcDbEntity
  8
0
  6
Continuous
 62
     7
370
    15
100
AcDbLine
 10
217.2538191686
 20
135.812355447
 30
0.0
 11
216.6538164626
 21
136.4123581531
 31
0.0
  0
LINE
  5
7F
330
1F
100
AcDbEntity
  8
0
  6
Continuous
 62
     7
370
    15
100
AcDbLine
 10
216.6538164626
 20
136.4123581531
 30
0.0
 11
163.2952690731
 21
136.4123581531
 31
0.0
  0
LINE
  5
80
330
1F
100
AcDbEntity
  8
0
  6
Continuous
 62
     7
370
    15
100
AcDbLine
 10
163.2952690731
 20
72.4123551132
 30
0.0
 11
216.6538164626
 21
72.4123551132
 31
0.0
  0
ARC
  5
81
330
1F
100
AcDbEntity
  8
0
  6
Continuous
 62
     7
370
    15
100
AcDbCircle
 10
163.2952695629
 20
135.4123566331
 30
0.0
 40
1.000000000000008
100
AcDbArc
 50
90.0
 51
150.0
  0
ARC
  5
82
330
1F
100
AcDbEntity
  8
0
  6
Continuous
 62
     7
370
    15
100
AcDbCircle
 10
163.2952695629
 20
73.4123566331
 30
0.0
 40
1.000000000000015
100
AcDbArc
 50
210.0
 51
270.0
  0
LINE
  5
83
330
1F
100
AcDbEntity
  8
0
  6
Continuous
 62
     7
370
    15
100
AcDbLine
 10
162.4292433868
 20
135.9123571398
 30
0.0
 11
159.5424935828
 21
130.9123563202
 31
0.0
  0
LINE
  5
84
330
1F
100
AcDbEntity
  8
0
  6
Continuous
 62
     7
370
    15
100
AcDbLine
 10
159.5424935828
 20
77.9123569461
 30
0.0
 11
162.4292433868
 21
72.9123561265
 31
0.0
  0
LINE
  5
85
330
1F
100
AcDbEntity
  8
0
  6
Continuous
 62
     7
370
    15
100
AcDbLine
 10
117.5538176928
 20
72.9123561265
 30
0.0
 11
122.2038176517
 21
72.9123561265
 31
0.0
  0
LINE
  5
86
330
1F
100
AcDbEntity
  8
0
  6
Continuous
 62
     7
370
    15
100
AcDbLine
 10
122.2318062234
 20
135.9123571398
 30
0.0
 11
117.5538176928
 21
135.9123571398
 31
0.0
  0
ARC
  5
87
330
1F
100
AcDbEntity
  8
0
  6
Continuous
 62
     7
370
    15
100
AcDbCircle
 10
117.5538176785
 20
73.2123566331
 30
0.0
 40
0.3000000000000114
100
AcDbArc
 50
180.0
 51
270.0
  0
ARC
  5
88
330
1F
100
AcDbEntity
  8
0
  6
Continuous
 62
     7
370
    15
100
AcDbCircle
 10
117.5538176785
 20
135.6123566331
 30
0.0
 40
0.3000000000000114
100
AcDbArc
 50
90.0
 51
180.0
  0
ARC
  5
89
330
1F
100
AcDbEntity
  8
0
  6
Continuous
 62
     7
370
    15
100
AcDbCircle
 10
144.2038176785
 20
77.4123566331
 30
0.0
 40
1.000000000000017
100
AcDbArc
 50
90.0
 51
143.1139143113
  0
ARC
  5
8A
330
1F
100
AcDbEntity
  8
0
  6
Continuous
 62
     7
370
    15
100
AcDbCircle
 10
144.2038176785
 20
131.4123566331
 30
0.0
 40
1.000000000000028
100
AcDbArc
 50
216.9029571301
 51
270.0
  0
ARC
  5
8B
330
1F
100
AcDbEntity
  8
0
  6
Continuous
 62
     7
370
    15
100
AcDbCircle
 10
158.6764674093
 20
131.4123566331
 30
0.0
 40
1.0
100
AcDbArc
 50
270.0
 51
330.0
  0
ARC
  5
8C
330
1F
100
AcDbEntity
  8
0
  6
Continuous
 62
     7
370
    15
100
AcDbCircle
 10
158.6764674093
 20
77.4123566331
 30
0.0
 40
1.0
100
AcDbArc
 50
30.0
 51
90.0
  0
LINE
  5
8D
330
1F
100
AcDbEntity
  8
0
  6
Continuous
 62
     7
370
    15
100
AcDbLine
 10
144.2038175325
 20
78.4123560967
 30
0.0
 11
158.6764678965
 21
78.4123560967
 31
0.0
  0
LINE
  5
8E
330
1F
100
AcDbEntity
  8
0
  6
Continuous
 62
     7
370
    15
100
AcDbLine
 10
158.6764678965
 20
130.4123571696
 30
0.0
 11
144.2038175325
 21
130.4123571696
 31
0.0
  0
ARC
  5
8F
330
1F
100
AcDbEntity
  8
0
  6
Continuous
 62
     7
370
    15
100
AcDbCircle
 10
116.7538109259
 20
79.8419190188
 30
0.0
 40
0.6000067526677321
100
AcDbArc
 50
33.5571153394
 51
90.0
  0
ARC
  5
90
330
1F
100
AcDbEntity
  8
0
  6
Continuous
 62
     7
370
    15
100
AcDbCircle
 10
116.7538109259
 20
128.9827942475
 30
0.0
 40
0.6000067526677242
100
AcDbArc
 50
270.0
 51
326.4428846606
  0
LINE
  5
91
330
1F
100
AcDbEntity
  8
0
  6
Continuous
 62
     7
370
    15
100
AcDbLine
 10
104.0223092447
 20
128.0700864824
 30
0.0
 11
91.4538168023
 21
127.4404025259
 31
0.0
  0
LINE
  5
92
330
1F
100
AcDbEntity
  8
0
  6
Continuous
 62
     7
370
    15
100
AcDbLine
 10
115.2538175835
 20
128.6327878567
 30
0.0
 11
112.4368161569
 21
128.4916552337
 31
0.0
  0
LINE
  5
93
330
1F
100
AcDbEntity
  8
0
  6
Continuous
 62
     7
370
    15
100
AcDbLine
 10
112.4368720363
 20
80.3330561699
 30
0.0
 11
115.2538175835
 21
80.1919254096
 31
0.0
  0
LINE
  5
94
330
1F
100
AcDbEntity
  8
0
  6
Continuous
 62
     7
370
    15
100
AcDbLine
 10
95.453817458
 20
81.1839106115
 30
0.0
 11
104.0227115761
 21
80.7546062948
 31
0.0
  0
LINE
  5
95
330
1F
100
AcDbEntity
  8
0
  6
Continuous
 62
     7
370
    15
100
AcDbLine
 10
115.2538175835
 20
80.1919254096
 30
0.0
 11
116.1105305097
 21
80.4214815231
 31
0.0
  0
LINE
  5
96
330
1F
100
AcDbEntity
  8
0
  6
Continuous
 62
     7
370
    15
100
AcDbLine
 10
116.1105305097
 20
128.4032317432
 30
0.0
 11
115.2538175835
 21
128.6327878567
 31
0.0
  0
ARC
  5
97
330
1F
100
AcDbEntity
  8
0
  6
Continuous
 62
     7
370
    15
100
AcDbCircle
 10
116.265821879
 20
79.8419257714
 30
0.0
 40
0.6000000000000085
100
AcDbArc
 50
90.0
 51
105.0
  0
ARC
  5
98
330
1F
100
AcDbEntity
  8
0
  6
Continuous
 62
     7
370
    15
100
AcDbCircle
 10
116.265821879
 20
128.9827874949
 30
0.0
 40
0.6000000000000227
100
AcDbArc
 50
255.0
 51
270.0
  0
LINE
  5
99
330
1F
100
AcDbEntity
  8
0
  6
Continuous
 62
     7
370
    15
100
AcDbLine
 10
116.2658219134
 20
80.4419259163
 30
0.0
 11
116.7538109027
 21
80.4419259163
 31
0.0
  0
LINE
  5
9A
330
1F
100
AcDbEntity
  8
0
  6
Continuous
 62
     7
370
    15
100
AcDbLine
 10
116.7538109027
 20
128.38278735
 30
0.0
 11
116.2658219134
 21
128.38278735
 31
0.0
  0
LINE
  5
9B
330
1F
100
AcDbEntity
  8
0
  6
Continuous
 62
     7
370
    15
100
AcDbLine
 10
86.6371542822
 20
83.5423565092
 30
0.0
 11
94.0538179736
 21
83.5423565092
 31
0.0
  0
ARC
  5
9C
330
1F
100
AcDbEntity
  8
0
  6
Continuous
 62
     7
370
    15
100
AcDbCircle
 10
94.0538176785
 20
82.1423566331
 30
0.0
 40
1.399999999999997
100
AcDbArc
 50
42.2465410162
 51
90.0
  0
LINE
  5
9D
330
1F
100
AcDbEntity
  8
0
  6
Continuous
 62
     7
370
    15
100
AcDbLine
 10
85.3548497568
 20
84.6913235815
 30
0.0
 11
86.4949804406
 21
83.5511928978
 31
0.0
  0
LINE
  5
9E
330
1F
100
AcDbEntity
  8
0
  6
Continuous
 62
     7
370
    15
100
AcDbLine
 10
86.4949804406
 20
125.2735203685
 30
0.0
 11
85.363719673
 21
124.1422577383
 31
0.0
  0
ARC
  5
9F
330
1F
100
AcDbEntity
  8
0
  6
Continuous
 62
     7
370
    15
100
AcDbCircle
 10
90.0538176785
 20
126.6823566331
 30
0.0
 40
1.399999999999991
100
AcDbArc
 50
270.0
 51
301.7485287426
  0
LINE
  5
A0
330
1F
100
AcDbEntity
  8
0
  6
Continuous
 62
     7
370
    15
100
AcDbLine
 10
90.0538173179
 20
125.2823567571
 30
0.0
 11
86.6280832003
 21
125.2823567571
 31
0.0
  0
LINE
  5
A1
330
1F
100
AcDbEntity
  8
0
  6
Continuous
 62
     7
370
    15
100
AcDbLine
 10
217.2538191686
 20
104.4123566331
 30
0.0
 11
217.2538191686
 21
73.0123578193
 31
0.0
  0
LINE
  5
A2
330
1F
100
AcDbEntity
  8
0
  6
Continuous
 62
     7
370
    15
100
AcDbLine
 10
217.2538191686
 20
135.812355447
 30
0.0
 11
217.2538191686
 21
104.4123566331
 31
0.0
  0
LINE
  5
A3
330
1F
100
AcDbEntity
  8
0
  6
Continuous
 62
     7
370
    15
100
AcDbLine
 10
216.6538164626
 20
104.4123566331
 30
0.0
 11
216.6538164626
 21
72.4123551132
 31
0.0
  0
LINE
  5
A4
330
1F
100
AcDbEntity
  8
0
  6
Continuous
 62
     7
370
    15
100
AcDbLine
 10
216.6538164626
 20
136.4123581531
 30
0.0
 11
216.6538164626
 21
104.4123566331
 31
0.0
  0
SPLINE
  5
A5
330
1F
100
AcDbEntity
  8
0
  6
Continuous
 62
     7
370
    15
100
AcDbSpline
210
0.0
220
0.0
230
1.0
 70
    11
 71
     3
 72
    94
 73
    90
 74
     0
 42
0.000000001
 43
0.00000001
 40
0.0
 40
0.0
 40
0.0
 40
0.0
 40
0.0312500000000006
 40
0.0312500000000006
 40
0.0625000000000013
 40
0.0625000000000013
 40
0.0937500000000019
 40
0.0937500000000019
 40
0.1093750000000022
 40
0.1093750000000022
 40
0.1250000000000025
 40
0.1250000000000025
 40
0.1562500000000022
 40
0.1562500000000022
 40
0.171875000000002
 40
0.171875000000002
 40
0.1875000000000019
 40
0.1875000000000019
 40
0.2187500000000015
 40
0.2187500000000015
 40
0.2343750000000014
 40
0.2343750000000014
 40
0.2500000000000012
 40
0.2500000000000012
 40
0.2812500000000008
 40
0.2812500000000008
 40
0.3125000000000004
 40
0.3125000000000004
 40
0.3281250000000002
 40
0.3281250000000002
 40
0.3437500000000001
 40
0.3437500000000001
 40
0.3749999999999997
 40
0.3749999999999997
 40
0.3906249999999995
 40
0.3906249999999995
 40
0.4062499999999993
 40
0.4062499999999993
 40
0.4218749999999992
 40
0.4218749999999992
 40
0.4374999999999989
 40
0.4374999999999989
 40
0.4687499999999982
 40
0.4687499999999982
 40
0.4843749999999977
 40
0.4843749999999977
 40
0.4999999999999973
 40
0.4999999999999973
 40
0.5312499999999973
 40
0.5312499999999973
 40
0.5624999999999972
 40
0.5624999999999972
 40
0.5781249999999972
 40
0.5781249999999972
 40
0.5937499999999972
 40
0.5937499999999972
 40
0.6249999999999972
 40
0.6249999999999972
 40
0.6562499999999971
 40
0.6562499999999971
 40
0.6874999999999971
 40
0.6874999999999971
 40
0.7187499999999971
 40
0.7187499999999971
 40
0.749999999999997
 40
0.749999999999997
 40
0.781249999999997
 40
0.781249999999997
 40
0.812499999999997
 40
0.812499999999997
 40
0.8281249999999972
 40
0.8281249999999972
 40
0.8437499999999974
 40
0.8437499999999974
 40
0.8593749999999976
 40
0.8593749999999976
 40
0.8749999999999978
 40
0.8749999999999978
 40
0.9062499999999982
 40
0.9062499999999982
 40
0.9218749999999986
 40
0.9218749999999986
 40
0.9374999999999989
 40
0.9374999999999989
 40
0.9531249999999991
 40
0.9531249999999991
 40
0.9687499999999994
 40
0.9687499999999994
 40
1.0
 40
1.0
 40
1.0
 40
1.0
 10
196.3145636263832
 20
109.2548636181838
 30
0.0
 10
196.6648084741795
 20
109.5453038499638
 30
0.0
 10
197.0381546876249
 20
109.7985561034308
 30
0.0
 10
197.8281276688514
 20
110.2361662535205
 30
0.0
 10
198.2479158853742
 20
110.4209760875198
 30
0.0
 10
199.1027081581034
 20
110.710810397143
 30
0.0
 10
199.5403297368397
 20
110.8178283164889
 30
0.0
 10
200.2120496014532
 20
110.9220368027567
 30
0.0
 10
200.4396324924342
 20
110.9473675816724
 30
0.0
 10
200.893355810451
 20
110.9781310352477
 30
0.0
 10
201.1195348424191
 20
110.9836943076908
 30
0.0
 10
201.7960747714937
 20
110.9716677683356
 30
0.0
 10
202.2444548612162
 20
110.9256079205645
 30
0.0
 10
202.9129590117114
 20
110.7979126310138
 30
0.0
 10
203.1358751160369
 20
110.7452199548032
 30
0.0
 10
203.5718836403636
 20
110.6218078243371
 30
0.0
 10
203.7858965226101
 20
110.5509827927138
 30
0.0
 10
204.4161205633229
 20
110.3114117315391
 30
0.0
 10
204.820633054087
 20
110.1158453797826
 30
0.0
 10
205.4026259293732
 20
109.7651273990572
 30
0.0
 10
205.5924743342465
 20
109.6383993023149
 30
0.0
 10
205.9553354932002
 20
109.3707175295622
 30
0.0
 10
206.1294475560881
 20
109.2291496627148
 30
0.0
 10
206.6297570132863
 20
108.7810607658755
 30
0.0
 10
206.9341990399669
 20
108.4514468951792
 30
0.0
 10
207.4787626481364
 20
107.7232024942822
 30
0.0
 10
207.7105481086168
 20
107.3348967249869
 30
0.0
 10
207.9917296864327
 20
106.7235096058864
 30
0.0
 10
208.0746025296419
 20
106.514446088795
 30
0.0
 10
208.2175791485159
 20
106.0852341766762
 30
0.0
 10
208.277957837406
 20
105.8634452124663
 30
0.0
 10
208.4191442548045
 20
105.1959434801427
 30
0.0
 10
208.4616871313449
 20
104.7470450242423
 30
0.0
 10
208.4481126247441
 20
104.0678407288944
 30
0.0
 10
208.4303536593685
 20
103.8389720943674
 30
0.0
 10
208.3687802767173
 20
103.3869958926929
 30
0.0
 10
208.3252778808362
 20
103.1646338529852
 30
0.0
 10
208.213895168606
 20
102.7268500628357
 30
0.0
 10
208.1460116996169
 20
102.5114292235713
 30
0.0
 10
207.9861072598467
 20
102.0874418485699
 30
0.0
 10
207.893427789256
 20
101.8777073377007
 30
0.0
 10
207.5845392606263
 20
101.2702851806345
 30
0.0
 10
207.3380904731869
 20
100.8928830825964
 30
0.0
 10
206.9116271502384
 20
100.3650322989235
 30
0.0
 10
206.7591013639109
 20
100.1947607329071
 30
0.0
 10
206.440428999899
 20
99.87266074275219
 30
0.0
 10
206.2740731140092
 20
99.72038034794981
 30
0.0
 10
205.7548691354337
 20
99.28855359997682
 30
0.0
 10
205.3802521328853
 20
99.03279854159173
 30
0.0
 10
204.5854660772114
 20
98.59118727715808
 30
0.0
 10
204.1729235781921
 20
98.40911903849499
 30
0.0
 10
203.5325416225082
 20
98.19064908195975
 30
0.0
 10
203.3154599691591
 20
98.12700037488327
 30
0.0
 10
202.8739497223125
 20
98.01825280686595
 30
0.0
 10
202.6493022415412
 20
97.9732353169355
 30
0.0
 10
201.9770664899734
 20
97.86844110757093
 30
0.0
 10
201.5269821924575
 20
97.83748847907479
 30
0.0
 10
200.623014671796
 20
97.85214526891976
 30
0.0
 10
200.1650417663224
 20
97.89893582465697
 30
0.0
 10
199.2762046760785
 20
98.06834760383393
 30
0.0
 10
198.8429600845689
 20
98.19027081435014
 30
0.0
 10
197.9990448884371
 20
98.50981838868452
 30
0.0
 10
197.5854320940023
 20
98.70988117214584
 30
0.0
 10
196.8141937597487
 20
99.17450745056895
 30
0.0
 10
196.4528524787951
 20
99.43977643769823
 30
0.0
 10
195.7810586592161
 20
100.0401680931666
 30
0.0
 10
195.4698186887122
 20
100.3780507703249
 30
0.0
 10
194.9319265300529
 20
101.0974804077579
 30
0.0
 10
194.7009248858411
 20
101.4821142130988
 30
0.0
 10
194.4162918968501
 20
102.1000467368565
 30
0.0
 10
194.3316656799005
 20
102.3138624682401
 30
0.0
 10
194.1886666926654
 20
102.7441691210692
 30
0.0
 10
194.129597631437
 20
102.9619234489665
 30
0.0
 10
194.0362638427451
 20
103.402633796776
 30
0.0
 10
194.0019976010734
 20
103.6255894870245
 30
0.0
 10
193.9590029277196
 20
104.0768632642822
 30
0.0
 10
193.9503593113655
 20
104.3068223333158
 30
0.0
 10
193.964544699481
 20
104.9910121874615
 30
0.0
 10
194.0260935884493
 20
105.4388562865091
 30
0.0
 10
194.1939285543999
 20
106.0986439936412
 30
0.0
 10
194.2631221827251
 20
106.3178559394379
 30
0.0
 10
194.4241112705365
 20
106.743506773754
 30
0.0
 10
194.5158261400659
 20
106.9503742183683
 30
0.0
 10
194.7206521775965
 20
107.3527871348835
 30
0.0
 10
194.8337667338375
 20
107.5483307477811
 30
0.0
 10
195.0810773746277
 20
107.9283092269756
 30
0.0
 10
195.2159048677997
 20
108.1134025593631
 30
0.0
 10
195.644539030653
 20
108.6426680816726
 30
0.0
 10
195.9643187785869
 20
108.9644233864038
 30
0.0
 10
196.3145636263832
 20
109.2548636181838
 30
0.0
  0
LINE
  5
A6
330
1F
100
AcDbEntity
  8
0
  6
Continuous
 62
     7
370
    15
100
AcDbLine
 10
122.2038176517
 20
124.2623573722
 30
0.0
 11
131.8618851389
 21
124.2623573722
 31
0.0
  0
LINE
  5
A7
330
1F
100
AcDbEntity
  8
0
  6
Continuous
 62
     7
370
    15
100
AcDbLine
 10
131.8618851389
 20
74.2254390003
 30
0.0
 11
131.8618851389
 21
124.2623573722
 31
0.0
  0
LINE
  5
A8
330
1F
100
AcDbEntity
  8
0
  6
Continuous
 62
     7
370
    15
100
AcDbLine
 10
131.8618851389
 20
74.2254390003
 30
0.0
 11
130.2038180317
 21
74.2254390003
 31
0.0
  0
SPLINE
  5
A9
330
1F
100
AcDbEntity
  8
0
  6
Continuous
 62
     7
370
    15
100
AcDbSpline
210
0.0
220
0.0
230
1.0
 70
     8
 71
     3
 72
    28
 73
    24
 74
     0
 42
0.000000001
 43
0.00000001
 40
0.0
 40
0.0
 40
0.0
 40
0.0
 40
0.1249999999999999
 40
0.1249999999999999
 40
0.1874999999999998
 40
0.1874999999999998
 40
0.2499999999999997
 40
0.2499999999999997
 40
0.3749999999999993
 40
0.3749999999999993
 40
0.4374999999999993
 40
0.4374999999999993
 40
0.4999999999999992
 40
0.4999999999999992
 40
0.6249999999999992
 40
0.6249999999999992
 40
0.7499999999999992
 40
0.7499999999999992
 40
0.8124999999999993
 40
0.8124999999999993
 40
0.8749999999999996
 40
0.8749999999999996
 40
1.0
 40
1.0
 40
1.0
 40
1.0
 10
130.2038176785319
 20
74.22543893689596
 30
0.0
 10
129.672109921039
 20
74.22543893689596
 30
0.0
 10
129.1498713557287
 20
74.20965422294573
 30
0.0
 10
128.3800008694537
 20
74.16465880886953
 30
0.0
 10
128.1256412972623
 20
74.1461038137938
 30
0.0
 10
127.6215197165638
 20
74.10225109134731
 30
0.0
 10
127.3717968991359
 20
74.07690648439511
 30
0.0
 10
126.6462069476895
 20
73.993504406645
 30
0.0
 10
126.1878466861079
 20
73.92763884749391
 30
0.0
 10
125.5373487427141
 20
73.81866850700214
 30
0.0
 10
125.3256666919216
 20
73.78042887123549
 30
0.0
 10
124.9215952027836
 20
73.70267013381613
 30
0.0
 10
124.7290886889627
 20
73.66316917164079
 30
0.0
 10
124.1792537179415
 20
73.54426142927477
 30
0.0
 10
123.8493249396327
 20
73.46444374785014
 30
0.0
 10
123.264853671064
 20
73.3111005860541
 30
0.0
 10
123.0185765330505
 20
73.23976683278484
 30
0.0
 10
122.7187337403525
 20
73.14582332571023
 30
0.0
 10
122.6302768832803
 20
73.11662953235029
 30
0.0
 10
122.4769155299752
 20
73.06316295808689
 30
0.0
 10
122.4118273157489
 20
73.03880362381172
 30
0.0
 10
122.2562332998081
 20
72.97521347836697
 30
0.0
 10
122.2038176785319
 20
72.9451105432777
 30
0.0
 10
122.2038176785319
 20
72.92823365028079
 30
0.0
  0
LINE
  5
AA
330
1F
100
AcDbEntity
  8
0
  6
Continuous
 62
     7
370
    15
100
AcDbLine
 10
122.2038176517
 20
72.9282333138
 30
0.0
 11
122.2038176517
 21
72.9123561265
 31
0.0
  0
SPLINE
  5
AB
330
1F
100
AcDbEntity
  8
0
  6
Continuous
 62
     7
370
    15
100
AcDbSpline
210
0.0
220
0.0
230
1.0
 70
     8
 71
     3
 72
    17
 73
    13
 74
     0
 42
0.000000001
 43
0.00000001
 40
0.0
 40
0.0
 40
0.0
 40
0.0
 40
0.1034797280380778
 40
0.2100239090909901
 40
0.3134862262879433
 40
0.4198361712144981
 40
0.5254127947779869
 40
0.6339610881168427
 40
0.7409508662120068
 40
0.8511696072047016
 40
0.9558996557845765
 40
1.0
 40
1.0
 40
1.0
 40
1.0
 10
130.2038180316895
 20
134.8795520695016
 30
0.0
 10
129.7685695399636
 20
134.8850000611392
 30
0.0
 10
128.8851830893866
 20
134.8960573814678
 30
0.0
 10
127.6043552271638
 20
134.9824161418429
 30
0.0
 10
126.3869390317219
 20
135.1102872849759
 30
0.0
 10
125.2791324153961
 20
135.2692316922944
 30
0.0
 10
124.2908939360672
 20
135.4437262652789
 30
0.0
 10
123.4661708362514
 20
135.6128926984659
 30
0.0
 10
122.8172171787528
 20
135.7607735069335
 30
0.0
 10
122.4001818752731
 20
135.8625642584561
 30
0.0
 10
122.2015851323952
 20
135.9129211580906
 30
0.0
 10
122.2248982493831
 20
135.9070115531151
 30
0.0
 10
122.2318062233835
 20
135.905260461764
 30
0.0
  0
LINE
  5
AC
330
1F
100
AcDbEntity
  8
0
  6
Continuous
 62
     7
370
    15
100
AcDbLine
 10
131.8618851389
 20
134.8795520695
 30
0.0
 11
130.2038180317
 21
134.8795520695
 31
0.0
  0
LINE
  5
AD
330
1F
100
AcDbEntity
  8
0
  6
Continuous
 62
     7
370
    15
100
AcDbLine
 10
131.8618851389
 20
128.8710462483
 30
0.0
 11
131.8618851389
 21
134.8795520695
 31
0.0
  0
LINE
  5
AE
330
1F
100
AcDbEntity
  8
0
  6
Continuous
 62
     7
370
    15
100
AcDbLine
 10
129.4494383643
 20
128.8710462483
 30
0.0
 11
131.8618851389
 21
128.8710462483
 31
0.0
  0
SPLINE
  5
AF
330
1F
100
AcDbEntity
  8
0
  6
Continuous
 62
     7
370
    15
100
AcDbSpline
210
0.0
220
0.0
230
1.0
 70
     8
 71
     3
 72
    20
 73
    16
 74
     0
 42
0.000000001
 43
0.00000001
 40
0.0
 40
0.0
 40
0.0
 40
0.0
 40
0.2499999999999995
 40
0.2499999999999995
 40
0.3749999999999996
 40
0.3749999999999996
 40
0.4999999999999997
 40
0.4999999999999997
 40
0.6249999999999998
 40
0.6249999999999998
 40
0.7499999999999998
 40
0.7499999999999998
 40
0.8749999999999999
 40
0.8749999999999999
 40
1.0
 40
1.0
 40
1.0
 40
1.0
 10
122.2038176785319
 20
124.2623566331431
 30
0.0
 10
122.45219141282
 20
124.9162190614405
 30
0.0
 10
122.7717615051653
 20
125.5200048434377
 30
0.0
 10
123.3940677383699
 20
126.3468435796063
 30
0.0
 10
123.6254919988007
 20
126.6092722175592
 30
0.0
 10
124.1467063384504
 20
127.1059348716642
 30
0.0
 10
124.4333268210855
 20
127.3365217506857
 30
0.0
 10
125.0528115623931
 20
127.7530759752683
 30
0.0
 10
125.3871119418801
 20
127.9405737772358
 30
0.0
 10
126.1123724145048
 20
128.2719707548722
 30
0.0
 10
126.4942874718953
 20
128.4114747423675
 30
0.0
 10
127.289075648067
 20
128.6369282498385
 30
0.0
 10
127.7032338422734
 20
128.7235543613821
 30
0.0
 10
128.5687801828548
 20
128.8415351502362
 30
0.0
 10
129.0066677978666
 20
128.8710462955106
 30
0.0
 10
129.4494380242212
 20
128.8710462955106
 30
0.0
  0
LINE
  5
B0
330
1F
100
AcDbEntity
  8
0
  6
Continuous
 62
     7
370
    15
100
AcDbLine
 10
142.6038183878
 20
74.2254390003
 30
0.0
 11
138.6457495998
 21
74.2254390003
 31
0.0
  0
LINE
  5
B1
330
1F
100
AcDbEntity
  8
0
  6
Continuous
 62
     7
370
    15
100
AcDbLine
 10
138.6457495998
 20
74.2254390003
 30
0.0
 11
138.6457495998
 21
124.2623573722
 31
0.0
  0
LINE
  5
B2
330
1F
100
AcDbEntity
  8
0
  6
Continuous
 62
     7
370
    15
100
AcDbLine
 10
138.6457495998
 20
124.2623573722
 30
0.0
 11
142.6038183878
 21
124.2623573722
 31
0.0
  0
LINE
  5
B3
330
1F
100
AcDbEntity
  8
0
  6
Continuous
 62
     7
370
    15
100
AcDbLine
 10
133.3438177268
 20
76.9145193132
 30
0.0
 11
133.3438177268
 21
124.2623573722
 31
0.0
  0
SPLINE
  5
B4
330
1F
100
AcDbEntity
  8
0
  6
Continuous
 62
     7
370
    15
100
AcDbSpline
210
0.0
220
0.0
230
1.0
 70
     8
 71
     3
 72
     8
 73
     4
 74
     0
 42
0.000000001
 43
0.00000001
 40
0.0
 40
0.0
 40
0.0
 40
0.0
 40
1.0
 40
1.0
 40
1.0
 40
1.0
 10
133.343817678532
 20
76.91451947408825
 30
0.0
 10
132.8514785557508
 20
76.01724943988155
 30
0.0
 10
132.3573645077086
 20
75.12096502482932
 30
0.0
 10
131.8618848470429
 20
74.22543893689596
 30
0.0
  0
SPLINE
  5
B5
330
1F
100
AcDbEntity
  8
0
  6
Continuous
 62
     7
370
    15
100
AcDbSpline
210
0.0
220
0.0
230
1.0
 70
    24
 71
     3
 72
     8
 73
     4
 74
     0
 42
0.000000001
 43
0.00000001
 40
0.0
 40
0.0
 40
0.0
 40
0.0
 40
1.0
 40
1.0
 40
1.0
 40
1.0
 10
131.8618848470429
 20
124.2623566331431
 30
0.0
 10
132.3685649551934
 20
124.2623566331431
 30
0.0
 10
132.8638656841671
 20
124.2623566331431
 30
0.0
 10
133.343817678532
 20
124.2623566331431
 30
0.0
  0
LINE
  5
B6
330
1F
100
AcDbEntity
  8
0
  6
Continuous
 62
     7
370
    15
100
AcDbLine
 10
117.2538176785
 20
73.2123574795
 30
0.0
 11
117.2538176785
 21
135.6123557868
 31
0.0
  0
LINE
  5
B7
330
1F
100
AcDbEntity
  8
0
  6
Continuous
 62
     7
370
    15
100
AcDbLine
 10
143.2038173686
 20
74.8520793947
 30
0.0
 11
143.2038173686
 21
124.2623573722
 31
0.0
  0
SPLINE
  5
B8
330
1F
100
AcDbEntity
  8
0
  6
Continuous
 62
     7
370
    15
100
AcDbSpline
210
0.0
220
0.0
230
1.0
 70
     8
 71
     3
 72
    10
 73
     6
 74
     0
 42
0.000000001
 43
0.00000001
 40
0.0
 40
0.0
 40
0.0
 40
0.0
 40
0.5
 40
0.5
 40
1.0
 40
1.0
 40
1.0
 40
1.0
 10
143.2038176785319
 20
74.85207923255027
 30
0.0
 10
143.2038176785319
 20
74.69219196435661
 30
0.0
 10
143.1425080272961
 20
74.53106470884201
 30
0.0
 10
142.923408389761
 20
74.29696571048717
 30
0.0
 10
142.7653601834475
 20
74.22543893689596
 30
0.0
 10
142.603817678532
 20
74.22543893689596
 30
0.0
  0
SPLINE
  5
B9
330
1F
100
AcDbEntity
  8
0
  6
Continuous
 62
     7
370
    15
100
AcDbSpline
210
0.0
220
0.0
230
1.0
 70
    24
 71
     3
 72
    12
 73
     8
 74
     0
 42
0.000000001
 43
0.00000001
 40
0.0
 40
0.0
 40
0.0
 40
0.0
 40
0.250000000000002
 40
0.250000000000002
 40
0.500000000000004
 40
0.500000000000004
 40
1.0
 40
1.0
 40
1.0
 40
1.0
 10
142.6038176785319
 20
124.2623566331431
 30
0.0
 10
142.694056746219
 20
124.2623566331431
 30
0.0
 10
142.7849548603255
 20
124.2623566331431
 30
0.0
 10
142.939551896814
 20
124.2623566331431
 30
0.0
 10
143.0045303129221
 20
124.2623566331431
 30
0.0
 10
143.1563653408584
 20
124.2623566331431
 30
0.0
 10
143.2038176785319
 20
124.2623566331431
 30
0.0
 10
143.2038176785319
 20
124.2623566331431
 30
0.0
  0
SPLINE
  5
BA
330
1F
100
AcDbEntity
  8
0
  6
Continuous
 62
     7
370
    15
100
AcDbSpline
210
0.0
220
0.0
230
1.0
 70
     8
 71
     3
 72
     8
 73
     4
 74
     0
 42
0.000000001
 43
0.00000001
 40
0.0
 40
0.0
 40
0.0
 40
0.0
 40
1.0
 40
1.0
 40
1.0
 40
1.0
 10
138.645750510021
 20
74.22543893689596
 30
0.0
 10
138.1502708493553
 20
75.12096502482932
 30
0.0
 10
137.6561568013131
 20
76.01724943988157
 30
0.0
 10
137.163817678532
 20
76.91451947408827
 30
0.0
  0
LINE
  5
BB
330
1F
100
AcDbEntity
  8
0
  6
Continuous
 62
     7
370
    15
100
AcDbLine
 10
137.1638179432
 20
76.9145193132
 30
0.0
 11
137.1638179432
 21
124.2623573722
 31
0.0
  0
SPLINE
  5
BC
330
1F
100
AcDbEntity
  8
0
  6
Continuous
 62
     7
370
    15
100
AcDbSpline
210
0.0
220
0.0
230
1.0
 70
    24
 71
     3
 72
     8
 73
     4
 74
     0
 42
0.000000001
 43
0.00000001
 40
0.0
 40
0.0
 40
0.0
 40
0.0
 40
1.0
 40
1.0
 40
1.0
 40
1.0
 10
137.163817678532
 20
124.2623566331431
 30
0.0
 10
137.6437696728968
 20
124.2623566331431
 30
0.0
 10
138.1390704018705
 20
124.2623566331431
 30
0.0
 10
138.645750510021
 20
124.2623566331431
 30
0.0
  0
SPLINE
  5
BD
330
1F
100
AcDbEntity
  8
0
  6
Continuous
 62
     7
370
    15
100
AcDbSpline
210
0.0
220
0.0
230
1.0
 70
    24
 71
     3
 72
    14
 73
    10
 74
     0
 42
0.000000001
 43
0.00000001
 40
0.0
 40
0.0
 40
0.0
 40
0.0
 40
0.5
 40
0.5
 40
0.75
 40
0.75
 40
0.875
 40
0.875
 40
1.0
 40
1.0
 40
1.0
 40
1.0
 10
137.0661428761997
 20
78.01235663314313
 30
0.0
 10
137.0193581711514
 20
78.01235663314313
 30
0.0
 10
136.9573069743718
 20
78.01235663314313
 30
0.0
 10
136.8139153358212
 20
78.01235663314311
 30
0.0
 10
136.7577716822701
 20
78.01235663314313
 30
0.0
 10
136.6448206601339
 20
78.01235663314311
 30
0.0
 10
136.6018198980958
 20
78.01235663314313
 30
0.0
 10
136.4977571877893
 20
78.01235663314311
 30
0.0
 10
136.4324249494324
 20
78.01235663314311
 30
0.0
 10
136.3638176785319
 20
78.01235663314313
 30
0.0
  0
SPLINE
  5
BE
330
1F
100
AcDbEntity
  8
0
  6
Continuous
 62
     7
370
    15
100
AcDbSpline
210
0.0
220
0.0
230
1.0
 70
    24
 71
     3
 72
    12
 73
     8
 74
     0
 42
0.000000001
 43
0.00000001
 40
0.0
 40
0.0
 40
0.0
 40
0.0
 40
0.5000000000000017
 40
0.5000000000000017
 40
0.7500000000000008
 40
0.7500000000000008
 40
1.0
 40
1.0
 40
1.0
 40
1.0
 10
136.769520146841
 20
130.8123566331431
 30
0.0
 10
136.72643459723
 20
130.8123566331431
 30
0.0
 10
136.6772823954807
 20
130.8123566331431
 30
0.0
 10
136.5808098011928
 20
130.8123566331431
 30
0.0
 10
136.5447082160582
 20
130.8123566331431
 30
0.0
 10
136.4616024581969
 20
130.8123566331431
 30
0.0
 10
136.4136058612306
 20
130.8123566331431
 30
0.0
 10
136.3638176785319
 20
130.8123566331431
 30
0.0
  0
SPLINE
  5
BF
330
1F
100
AcDbEntity
  8
0
  6
Continuous
 62
     7
370
    15
100
AcDbSpline
210
0.0
220
0.0
230
1.0
 70
     8
 71
     3
 72
    10
 73
     6
 74
     0
 42
0.000000001
 43
0.00000001
 40
0.0
 40
0.0
 40
0.0
 40
0.0
 40
0.5
 40
0.5
 40
1.0
 40
1.0
 40
1.0
 40
1.0
 10
137.163817678532
 20
131.5320104841789
 30
0.0
 10
137.163817678532
 20
131.3882404263609
 30
0.0
 10
137.1277686198131
 20
131.2458210638657
 30
0.0
 10
136.992259759039
 20
130.9959267705085
 30
0.0
 10
136.8923837659429
 20
130.8878964342603
 30
0.0
 10
136.769520146841
 20
130.8123566331431
 30
0.0
  0
SPLINE
  5
C0
330
1F
100
AcDbEntity
  8
0
  6
Continuous
 62
     7
370
    15
100
AcDbSpline
210
0.0
220
0.0
230
1.0
 70
     8
 71
     3
 72
    10
 73
     6
 74
     0
 42
0.000000001
 43
0.00000001
 40
0.0
 40
0.0
 40
0.0
 40
0.0
 40
0.5
 40
0.5
 40
1.0
 40
1.0
 40
1.0
 40
1.0
 10
137.1376700553718
 20
124.2623566331431
 30
0.0
 10
137.1463596982835
 20
124.3092354824613
 30
0.0
 10
137.152898763034
 20
124.3566579478626
 30
0.0
 10
137.161657397427
 20
124.4525947464494
 30
0.0
 10
137.163817678532
 20
124.5005100344599
 30
0.0
 10
137.163817678532
 20
124.5482232646045
 30
0.0
  0
SPLINE
  5
C1
330
1F
100
AcDbEntity
  8
0
  6
Continuous
 62
     7
370
    15
100
AcDbSpline
210
0.0
220
0.0
230
1.0
 70
     8
 71
     3
 72
    10
 73
     6
 74
     0
 42
0.000000001
 43
0.00000001
 40
0.0
 40
0.0
 40
0.0
 40
0.0
 40
0.5
 40
0.5
 40
1.0
 40
1.0
 40
1.0
 40
1.0
 10
133.7381152102229
 20
130.8123566331431
 30
0.0
 10
133.6165749465544
 20
130.8870828003549
 30
0.0
 10
133.5152405862055
 20
130.9960278162717
 30
0.0
 10
133.379601643317
 20
131.2464582970333
 30
0.0
 10
133.343817678532
 20
131.3888776591322
 30
0.0
 10
133.343817678532
 20
131.5320104841789
 30
0.0
  0
SPLINE
  5
C2
330
1F
100
AcDbEntity
  8
0
  6
Continuous
 62
     7
370
    15
100
AcDbSpline
210
0.0
220
0.0
230
1.0
 70
    24
 71
     3
 72
    12
 73
     8
 74
     0
 42
0.000000001
 43
0.00000001
 40
0.0
 40
0.0
 40
0.0
 40
0.0
 40
0.2500000000000046
 40
0.2500000000000046
 40
0.5000000000000091
 40
0.5000000000000091
 40
1.0
 40
1.0
 40
1.0
 40
1.0
 10
134.1438176785319
 20
130.8123566331431
 30
0.0
 10
134.0944743167223
 20
130.8123566331431
 30
0.0
 10
134.0457836184207
 20
130.8123566331431
 30
0.0
 10
133.9629325208503
 20
130.8123566331431
 30
0.0
 10
133.9267325532297
 20
130.8123566331431
 30
0.0
 10
133.8309826366803
 20
130.8123566331431
 30
0.0
 10
133.7811006668682
 20
130.8123566331431
 30
0.0
 10
133.7381152102229
 20
130.8123566331431
 30
0.0
  0
SPLINE
  5
C3
330
1F
100
AcDbEntity
  8
0
  6
Continuous
 62
     7
370
    15
100
AcDbSpline
210
0.0
220
0.0
230
1.0
 70
    24
 71
     3
 72
    14
 73
    10
 74
     0
 42
0.000000001
 43
0.00000001
 40
0.0
 40
0.0
 40
0.0
 40
0.0
 40
0.125000000000001
 40
0.125000000000001
 40
0.250000000000002
 40
0.250000000000002
 40
0.5000000000000013
 40
0.5000000000000013
 40
1.0
 40
1.0
 40
1.0
 40
1.0
 10
134.1438176785319
 20
78.01235663314313
 30
0.0
 10
134.0744709568008
 20
78.01235663314313
 30
0.0
 10
134.0092729034168
 20
78.01235663314313
 30
0.0
 10
133.9048937107899
 20
78.01235663314311
 30
0.0
 10
133.8619913397809
 20
78.01235663314311
 30
0.0
 10
133.7496656821762
 20
78.01235663314311
 30
0.0
 10
133.6944419878224
 20
78.01235663314313
 30
0.0
 10
133.5503846090548
 20
78.01235663314311
 30
0.0
 10
133.4883039122233
 20
78.01235663314313
 30
0.0
 10
133.4414924808642
 20
78.01235663314313
 30
0.0
  0
SPLINE
  5
C4
330
1F
100
AcDbEntity
  8
0
  6
Continuous
 62
     7
370
    15
100
AcDbSpline
210
0.0
220
0.0
230
1.0
 70
     8
 71
     3
 72
     9
 73
     5
 74
     0
 42
0.000000001
 43
0.00000001
 40
0.0
 40
0.0
 40
0.0
 40
0.0
 40
0.5
 40
1.0
 40
1.0
 40
1.0
 40
1.0
 10
133.343817678532
 20
124.5482232646045
 30
0.0
 10
133.343817678532
 20
124.4999912124818
 30
0.0
 10
133.3482236532371
 20
124.4041211990422
 30
0.0
 10
133.3612428333309
 20
124.3094125690589
 30
0.0
 10
133.369965301692
 20
124.2623566331431
 30
0.0
  0
LINE
  5
C5
330
1F
100
AcDbEntity
  8
0
  6
Continuous
 62
     7
370
    15
100
AcDbLine
 10
136.3638174395
 20
130.8123564901
 30
0.0
 11
134.1438182305
 21
130.8123564901
 31
0.0
  0
LINE
  5
C6
330
1F
100
AcDbEntity
  8
0
  6
Continuous
 62
     7
370
    15
100
AcDbLine
 10
136.3638174395
 20
78.0123567762
 30
0.0
 11
134.1438182305
 21
78.0123567762
 31
0.0
  0
LINE
  5
C7
330
1F
100
AcDbEntity
  8
0
  6
Continuous
 62
     7
370
    15
100
AcDbLine
 10
143.4038170288
 20
130.8123564901
 30
0.0
 11
143.3769390593
 21
130.8123564901
 31
0.0
  0
SPLINE
  5
C8
330
1F
100
AcDbEntity
  8
0
  6
Continuous
 62
     7
370
    15
100
AcDbSpline
210
0.0
220
0.0
230
1.0
 70
    24
 71
     3
 72
    10
 73
     6
 74
     0
 42
0.000000001
 43
0.00000001
 40
0.0
 40
0.0
 40
0.0
 40
0.0
 40
0.5
 40
0.5
 40
1.0
 40
1.0
 40
1.0
 40
1.0
 10
143.4038176785002
 20
78.01235663314313
 30
0.0
 10
143.4038164109912
 20
78.01235663314313
 30
0.0
 10
143.360611488051
 20
78.01235663314311
 30
0.0
 10
143.2596845264634
 20
78.01235663314313
 30
0.0
 10
143.2038176785319
 20
78.01235663314313
 30
0.0
 10
143.2038176785319
 20
78.01235663314313
 30
0.0
  0
LINE
  5
C9
330
1F
100
AcDbEntity
  8
0
  6
Continuous
 62
     7
370
    15
100
AcDbLine
 10
95.453817458
 20
81.1839106115
 30
0.0
 11
95.453817458
 21
82.4486187281
 31
0.0
  0
SPLINE
  5
CA
330
1F
100
AcDbEntity
  8
0
  6
Continuous
 62
     7
370
    15
100
AcDbSpline
210
0.0
220
0.0
230
1.0
 70
     8
 71
     3
 72
    14
 73
    10
 74
     0
 42
0.000000001
 43
0.00000001
 40
0.0
 40
0.0
 40
0.0
 40
0.0
 40
0.25
 40
0.25
 40
0.5
 40
0.5
 40
0.75
 40
0.75
 40
1.0
 40
1.0
 40
1.0
 40
1.0
 10
94.67553056061622
 20
83.57920530958317
 30
0.0
 10
94.7321572358183
 20
83.47150785574631
 30
0.0
 10
94.82667989610803
 20
83.36871827402699
 30
0.0
 10
95.00972487167027
 20
83.17036096180684
 30
0.0
 10
95.101351448625
 20
83.0743014531286
 30
0.0
 10
95.2602047663182
 20
82.88677241041935
 30
0.0
 10
95.32809537393987
 20
82.7953634376358
 30
0.0
 10
95.42501239964747
 20
82.61698721672565
 30
0.0
 10
95.45381767853253
 20
82.52976531047946
 30
0.0
 10
95.45381767853252
 20
82.4486191019452
 30
0.0
  0
SPLINE
  5
CB
330
1F
100
AcDbEntity
  8
0
  6
Continuous
 62
     7
370
    15
100
AcDbSpline
210
0.0
220
0.0
230
1.0
 70
     8
 71
     3
 72
    14
 73
    10
 74
     0
 42
0.000000001
 43
0.00000001
 40
0.0
 40
0.0
 40
0.0
 40
0.0
 40
0.125
 40
0.125
 40
0.25
 40
0.25
 40
0.5
 40
0.5
 40
1.0
 40
1.0
 40
1.0
 40
1.0
 10
94.05381767853196
 20
84.0258871718625
 30
0.0
 10
94.1023620871891
 20
84.03163548514279
 30
0.0
 10
94.15527744197402
 20
84.02853459648654
 30
0.0
 10
94.25057278695706
 20
84.00633975232422
 30
0.0
 10
94.29082378424201
 20
83.98910752522835
 30
0.0
 10
94.39509379775497
 20
83.93277960877629
 30
0.0
 10
94.4454157729083
 20
83.8885932628305
 30
0.0
 10
94.57309872043368
 20
83.75758536397987
 30
0.0
 10
94.62918416749595
 20
83.66735084374957
 30
0.0
 10
94.6755305606177
 20
83.5792053095837
 30
0.0
  0
SPLINE
  5
CC
330
1F
100
AcDbEntity
  8
0
  6
Continuous
 62
     7
370
    15
100
AcDbSpline
210
0.0
220
0.0
230
1.0
 70
     8
 71
     3
 72
     8
 73
     4
 74
     0
 42
0.000000001
 43
0.00000001
 40
0.0
 40
0.0
 40
0.0
 40
0.0
 40
1.0
 40
1.0
 40
1.0
 40
1.0
 10
91.78529258558568
 20
83.7160418852797
 30
0.0
 10
92.51986961206865
 20
83.83466689634865
 30
0.0
 10
93.28334468146431
 20
83.93465276848494
 30
0.0
 10
94.05381767853196
 20
84.0258871718625
 30
0.0
  0
SPLINE
  5
CD
330
1F
100
AcDbEntity
  8
0
  6
Continuous
 62
     7
370
    15
100
AcDbSpline
210
0.0
220
0.0
230
1.0
 70
     8
 71
     3
 72
    14
 73
    10
 74
     0
 42
0.000000001
 43
0.00000001
 40
0.0
 40
0.0
 40
0.0
 40
0.0
 40
0.5000000000000002
 40
0.5000000000000002
 40
0.7500000000000002
 40
0.7500000000000002
 40
0.8750000000000001
 40
0.8750000000000001
 40
1.0
 40
1.0
 40
1.0
 40
1.0
 10
86.50381767853195
 20
83.54241886774804
 30
0.0
 10
87.39596380908552
 20
83.5416966415474
 30
0.0
 10
88.2859402448791
 20
83.54628284800486
 30
0.0
 10
89.61253541195468
 20
83.57400785239639
 30
0.0
 10
90.05338234045341
 20
83.58661439002057
 30
0.0
 10
90.70982257787584
 20
83.61763053802801
 30
0.0
 10
90.92783623446772
 20
83.6299737106548
 30
0.0
 10
91.36054508815047
 20
83.66299776581806
 30
0.0
 10
91.57582155331528
 20
83.6822149309565
 30
0.0
 10
91.78529258558568
 20
83.7160418852797
 30
0.0
  0
SPLINE
  5
CE
330
1F
100
AcDbEntity
  8
0
  6
Continuous
 62
     7
370
    15
100
AcDbSpline
210
0.0
220
0.0
230
1.0
 70
     8
 71
     3
 72
     8
 73
     4
 74
     0
 42
0.000000001
 43
0.00000001
 40
0.0000005163856711
 40
0.0000005163856711
 40
0.0000005163856711
 40
0.0000005163856711
 40
0.000026289209185
 40
0.000026289209185
 40
0.000026289209185
 40
0.000026289209185
 10
86.49377274811324
 20
83.55240274085592
 30
0.0
 10
86.49710048632473
 20
83.54906849398311
 30
0.0
 10
86.50044893930404
 20
83.54574053670407
 30
0.0
 10
86.50381767853192
 20
83.54241886774804
 30
0.0
  0
SPLINE
  5
CF
330
1F
100
AcDbEntity
  8
0
  6
Continuous
 62
     7
370
    15
100
AcDbSpline
210
0.0
220
0.0
230
1.0
 70
     8
 71
     3
 72
     8
 73
     4
 74
     0
 42
0.000000001
 43
0.00000001
 40
0.0000005099763573
 40
0.0000005099763573
 40
0.0000005099763573
 40
0.0000005099763573
 40
0.0000262827998699
 40
0.0000262827998699
 40
0.0000262827998699
 40
0.0000262827998699
 10
86.50381767853193
 20
125.2822943985382
 30
0.0
 10
86.50044893930419
 20
125.2789727295823
 30
0.0
 10
86.49710048632505
 20
125.2756447723035
 30
0.0
 10
86.49377274811373
 20
125.2723105254308
 30
0.0
  0
SPLINE
  5
D0
330
1F
100
AcDbEntity
  8
0
  6
Continuous
 62
     7
370
    15
100
AcDbSpline
210
0.0
220
0.0
230
1.0
 70
     8
 71
     3
 72
    10
 73
     6
 74
     0
 42
0.000000001
 43
0.00000001
 40
0.0
 40
0.0
 40
0.0
 40
0.0
 40
0.5
 40
0.5
 40
1.0
 40
1.0
 40
1.0
 40
1.0
 10
90.05381767853196
 20
125.2354440249709
 30
0.0
 10
89.46623213144136
 20
125.2565095452073
 30
0.0
 10
88.87548573798097
 20
125.2672680310795
 30
0.0
 10
87.69146657268212
 20
125.2806328116152
 30
0.0
 10
87.09805258447666
 20
125.2827754542797
 30
0.0
 10
86.50381767853195
 20
125.2822943985382
 30
0.0
  0
SPLINE
  5
D1
330
1F
100
AcDbEntity
  8
0
  6
Continuous
 62
     7
370
    15
100
AcDbSpline
210
0.0
220
0.0
230
1.0
 70
     8
 71
     3
 72
    18
 73
    14
 74
     0
 42
0.000000001
 43
0.00000001
 40
0.0
 40
0.0
 40
0.0
 40
0.0
 40
0.2500000000000008
 40
0.2500000000000008
 40
0.5000000000000009
 40
0.5000000000000009
 40
0.7500000000000009
 40
0.7500000000000009
 40
0.875000000000001
 40
0.875000000000001
 40
0.9375000000000006
 40
0.9375000000000006
 40
1.0
 40
1.0
 40
1.0
 40
1.0
 10
91.45381767853196
 20
126.2564643055061
 30
0.0
 10
91.45381767853198
 20
126.1732573966489
 30
0.0
 10
91.4179685785937
 20
126.0845207413353
 30
0.0
 10
91.29309684255978
 20
125.9023955507751
 30
0.0
 10
91.2026964249119
 20
125.8072655021485
 30
0.0
 10
90.98045377016972
 20
125.6180839930242
 30
0.0
 10
90.85068898372396
 20
125.5231388249294
 30
0.0
 10
90.61005152641245
 20
125.3848601173495
 30
0.0
 10
90.52228422827501
 20
125.3391496840471
 30
0.0
 10
90.36776014106817
 20
125.2813263788257
 30
0.0
 10
90.31114925501343
 20
125.2636116147878
 30
0.0
 10
90.18710522410683
 20
125.2390723115549
 30
0.0
 10
90.11939054908855
 20
125.2330931730166
 30
0.0
 10
90.05381767853194
 20
125.2354440249709
 30
0.0
  0
LINE
  5
D2
330
1F
100
AcDbEntity
  8
0
  6
Continuous
 62
     7
370
    15
100
AcDbLine
 10
91.4538168023
 20
126.2564642908
 30
0.0
 11
91.4538168023
 21
127.4404025259
 31
0.0
  0
LINE
  5
D3
330
1F
100
AcDbEntity
  8
0
  6
Continuous
 62
     7
370
    15
100
AcDbLine
 10
115.2538175835
 20
80.1919254096
 30
0.0
 11
115.2538175835
 21
128.6327878567
 31
0.0
  0
SPLINE
  5
D4
330
1F
100
AcDbEntity
  8
0
  6
Continuous
 62
     7
370
    15
100
AcDbSpline
210
0.0
220
0.0
230
1.0
 70
     8
 71
     3
 72
    24
 73
    20
 74
     0
 42
0.000000001
 43
0.00000001
 40
0.0
 40
0.0
 40
0.0
 40
0.0
 40
0.0010489815523775
 40
0.0637843212772741
 40
0.1272220630088516
 40
0.1903789073370505
 40
0.2526748662763491
 40
0.3146354150030102
 40
0.3770891884518245
 40
0.4393540587943444
 40
0.5008133488401828
 40
0.5621845177353679
 40
0.6248438462901906
 40
0.6874304788646655
 40
0.7496743245911356
 40
0.811984857412469
 40
0.8750960476811308
 40
0.9384412548145236
 40
1.0
 40
1.0
 40
1.0
 40
1.0
 10
104.0227236832588
 20
80.75484843869656
 30
0.0
 10
104.0222770175081
 20
80.75478979373007
 30
0.0
 10
103.9951170815845
 20
80.75122383074938
 30
0.0
 10
104.0907470047163
 20
80.7640884402246
 30
0.0
 10
104.3243001807368
 20
80.79332292256466
 30
0.0
 10
104.7198561329712
 20
80.83994213330607
 30
0.0
 10
105.2468961333413
 20
80.89012293273123
 30
0.0
 10
105.8904265751775
 20
80.93450160617428
 30
0.0
 10
106.6291004094472
 20
80.96144480268508
 30
0.0
 10
107.4266150795661
 20
80.96491655098721
 30
0.0
 10
108.2531941293307
 20
80.93729110469378
 30
0.0
 10
109.0787169507494
 20
80.87880996171515
 30
0.0
 10
109.870843421665
 20
80.79336689831656
 30
0.0
 10
110.6034158005023
 20
80.69163172982405
 30
0.0
 10
111.2390559823231
 20
80.58378807877612
 30
0.0
 10
111.7609669128693
 20
80.4821566835013
 30
0.0
 10
112.1425957505082
 20
80.39967471920879
 30
0.0
 10
112.3934104264416
 20
80.34352261170189
 30
0.0
 10
112.4225317421489
 20
80.33667376078901
 30
0.0
 10
112.4368841434925
 20
80.3332983138129
 30
0.0
  0
SPLINE
  5
D5
330
1F
100
AcDbEntity
  8
0
  6
Continuous
 62
     7
370
    15
100
AcDbSpline
210
0.0
220
0.0
230
1.0
 70
     8
 71
     3
 72
    24
 73
    20
 74
     0
 42
0.000000001
 43
0.00000001
 40
0.0
 40
0.0
 40
0.0
 40
0.0
 40
0.061438429114026
 40
0.1250736777967296
 40
0.1884253375120635
 40
0.2508623992448768
 40
0.3129665476325514
 40
0.3753451442328022
 40
0.4377328732174486
 40
0.499092717251918
 40
0.560580729454827
 40
0.622946985474185
 40
0.6854686070210457
 40
0.7475477863222202
 40
0.8098225081553685
 40
0.873068419947611
 40
0.936404185690527
 40
0.9991757203144552
 40
1.0
 40
1.0
 40
1.0
 40
1.0
 10
112.4368296611219
 20
128.491385150151
 30
0.0
 10
112.4222288526697
 20
128.488016992278
 30
0.0
 10
112.3925051628187
 20
128.4811602431936
 30
0.0
 10
112.1397671628328
 20
128.4248224232975
 30
0.0
 10
111.7567718638116
 20
128.3419646104122
 30
0.0
 10
111.2344159069287
 20
128.2400578621912
 30
0.0
 10
110.599631562227
 20
128.1322192923022
 30
0.0
 10
109.8694078256129
 20
128.0307530390732
 30
0.0
 10
109.0789397307018
 20
127.945690960506
 30
0.0
 10
108.254456003244
 20
127.8874896035493
 30
0.0
 10
107.427419622764
 20
127.8599051558648
 30
0.0
 10
106.6290951637735
 20
127.863399084399
 30
0.0
 10
105.8892714127739
 20
127.8903527430726
 30
0.0
 10
105.2450165413143
 20
127.934708243686
 30
0.0
 10
104.7176096842167
 20
127.9849134274088
 30
0.0
 10
104.3229444439037
 20
128.031520887454
 30
0.0
 10
104.0904157583155
 20
128.0607240642923
 30
0.0
 10
103.9950365296492
 20
128.0734822030095
 30
0.0
 10
104.021969473976
 20
128.0699423730908
 30
0.0
 10
104.0223185579389
 20
128.0698964925572
 30
0.0
  0
SPLINE
  5
D6
330
1F
100
AcDbEntity
  8
0
  6
Continuous
 62
     7
370
    15
100
AcDbSpline
210
0.0
220
0.0
230
1.0
 70
     8
 71
     3
 72
     9
 73
     5
 74
     0
 42
0.000000001
 43
0.00000001
 40
0.0
 40
0.0
 40
0.0
 40
0.0
 40
0.7009339503679092
 40
0.9999999999999999
 40
0.9999999999999999
 40
0.9999999999999999
 40
0.9999999999999999
 10
85.37460124596053
 20
84.71107693334072
 30
0.0
 10
85.38374191691037
 20
84.69324764957982
 30
0.0
 10
85.39678261916917
 20
84.66781118191902
 30
0.0
 10
85.41194608243747
 20
84.72169054139258
 30
0.0
 10
85.41648095949584
 20
84.73780402858704
 30
0.0
  0
LINE
  5
D7
330
1F
100
AcDbEntity
  8
0
  6
Continuous
 62
     7
370
    15
100
AcDbLine
 10
85.3538178514
 20
84.7216791095
 30
0.0
 11
85.3538178514
 21
124.1030341568
 31
0.0
  0
SPLINE
  5
D8
330
1F
100
AcDbEntity
  8
0
  6
Continuous
 62
     7
370
    15
100
AcDbSpline
210
0.0
220
0.0
230
1.0
 70
     8
 71
     3
 72
    10
 73
     6
 74
     0
 42
0.000000001
 43
0.00000001
 40
0.0
 40
0.0
 40
0.0
 40
0.0
 40
0.5
 40
0.5
 40
1.0
 40
1.0
 40
1.0
 40
1.0
 10
85.41648105325537
 20
124.0869091779239
 30
0.0
 10
85.4075767641466
 20
124.132650697137
 30
0.0
 10
85.39106138395361
 20
124.149841536606
 30
0.0
 10
85.363953437892
 20
124.1495182596703
 30
0.0
 10
85.35381767853195
 20
124.1316407173739
 30
0.0
 10
85.35381767853195
 20
124.1030343796213
 30
0.0
  0
SPLINE
  5
D9
330
1F
100
AcDbEntity
  8
0
  6
Continuous
 62
     7
370
    15
100
AcDbSpline
210
0.0
220
0.0
230
1.0
 70
     8
 71
     3
 72
    26
 73
    22
 74
     0
 42
0.000000001
 43
0.00000001
 40
0.0
 40
0.0
 40
0.0
 40
0.0
 40
0.2500000000000165
 40
0.2500000000000165
 40
0.3750000000000256
 40
0.3750000000000256
 40
0.4375000000000291
 40
0.4375000000000291
 40
0.4687500000000291
 40
0.4687500000000291
 40
0.5000000000000292
 40
0.5000000000000292
 40
0.5312500000000293
 40
0.5312500000000293
 40
0.5625000000000293
 40
0.5625000000000293
 40
0.625000000000026
 40
0.625000000000026
 40
0.7500000000000173
 40
0.7500000000000173
 40
1.0
 40
1.0
 40
1.0
 40
1.0
 10
86.17797132463646
 20
124.802475966741
 30
0.0
 10
86.139370801768
 20
124.6847012703855
 30
0.0
 10
86.09307379921373
 20
124.5603115842236
 30
0.0
 10
85.9991344507798
 20
124.3550922518701
 30
0.0
 10
85.96382298386635
 20
124.2835193854237
 30
0.0
 10
85.89764300812067
 20
124.1675661528232
 30
0.0
 10
85.87310464145246
 20
124.126981618013
 30
0.0
 10
85.82973189589865
 20
124.0628399361412
 30
0.0
 10
85.81422349447345
 20
124.0409735108562
 30
0.0
 10
85.77918084988642
 20
123.995379242513
 30
0.0
 10
85.75963055916667
 20
123.9717089515456
 30
0.0
 10
85.71770327879605
 20
123.9270923922056
 30
0.0
 10
85.6950511685644
 20
123.9062123796877
 30
0.0
 10
85.65407745447779
 20
123.8753389659369
 30
0.0
 10
85.63647815458236
 20
123.8655000961045
 30
0.0
 10
85.59185116872621
 20
123.8465104804083
 30
0.0
 10
85.57129194607288
 20
123.8461861557549
 30
0.0
 10
85.5201665065762
 20
123.8554095966311
 30
0.0
 10
85.49925509358766
 20
123.8766564928481
 30
0.0
 10
85.44780518602674
 20
123.9506253716788
 30
0.0
 10
85.43013988672219
 20
124.0167434649936
 30
0.0
 10
85.41648105325537
 20
124.0869091779239
 30
0.0
  0
SPLINE
  5
DA
330
1F
100
AcDbEntity
  8
0
  6
Continuous
 62
     7
370
    15
100
AcDbSpline
210
0.0
220
0.0
230
1.0
 70
     8
 71
     3
 72
    10
 73
     6
 74
     0
 42
0.000000001
 43
0.00000001
 40
0.0
 40
0.0
 40
0.0
 40
0.0
 40
0.5
 40
0.5
 40
1.0
 40
1.0
 40
1.0
 40
1.0
 10
86.49377274811374
 20
125.2723105254308
 30
0.0
 10
86.42621349319552
 20
125.204619132621
 30
0.0
 10
86.36257683785901
 20
125.1299119678674
 30
0.0
 10
86.25235608328714
 20
124.9709458354407
 30
0.0
 10
86.20553979006452
 20
124.8865905694327
 30
0.0
 10
86.17797132463645
 20
124.8024759667409
 30
0.0
  0
SPLINE
  5
DB
330
1F
100
AcDbEntity
  8
0
  6
Continuous
 62
     7
370
    15
100
AcDbSpline
210
0.0
220
0.0
230
1.0
 70
     8
 71
     3
 72
    10
 73
     6
 74
     0
 42
0.000000001
 43
0.00000001
 40
0.0
 40
0.0
 40
0.0
 40
0.0
 40
0.5
 40
0.5
 40
1.0
 40
1.0
 40
1.0
 40
1.0
 10
86.1779713246365
 20
84.02223729954515
 30
0.0
 10
86.20544873938971
 20
83.93840050307956
 30
0.0
 10
86.25215736967735
 20
83.85409001549274
 30
0.0
 10
86.36243583241932
 20
83.69496878500989
 30
0.0
 10
86.42632337103095
 20
83.6199840409218
 30
0.0
 10
86.49377274811326
 20
83.55240274085594
 30
0.0
  0
SPLINE
  5
DC
330
1F
100
AcDbEntity
  8
0
  6
Continuous
 62
     7
370
    15
100
AcDbSpline
210
0.0
220
0.0
230
1.0
 70
     8
 71
     3
 72
    24
 73
    20
 74
     0
 42
0.000000001
 43
0.00000001
 40
0.0
 40
0.0
 40
0.0
 40
0.0
 40
0.249999999999999
 40
0.249999999999999
 40
0.3749999999999983
 40
0.3749999999999983
 40
0.4374999999999987
 40
0.4374999999999987
 40
0.4687499999999975
 40
0.4687499999999975
 40
0.4999999999999963
 40
0.4999999999999963
 40
0.5624999999999984
 40
0.5624999999999984
 40
0.6250000000000006
 40
0.6250000000000006
 40
0.7500000000000001
 40
0.7500000000000001
 40
1.0
 40
1.0
 40
1.0
 40
1.0
 10
85.41648105325537
 20
84.73780408836237
 30
0.0
 10
85.43023417192558
 20
84.80845414635266
 30
0.0
 10
85.44800673933145
 20
84.8750522591176
 30
0.0
 10
85.5002578308868
 20
84.94915027935079
 30
0.0
 10
85.52129290646837
 20
84.97040808651235
 30
0.0
 10
85.5741933140968
 20
84.97855401265859
 30
0.0
 10
85.59529898697471
 20
84.97761420926281
 30
0.0
 10
85.64135115565269
 20
84.95659821768547
 30
0.0
 10
85.65972162763607
 20
84.94568941157786
 30
0.0
 10
85.7012732627018
 20
84.91305450063048
 30
0.0
 10
85.72383993545871
 20
84.8915625202591
 30
0.0
 10
85.78662095191872
 20
84.8230965766728
 30
0.0
 10
85.81975071288662
 20
84.7770221184677
 30
0.0
 10
85.87666839937164
 20
84.69201423013304
 30
0.0
 10
85.90085442487538
 20
84.65173392895166
 30
0.0
 10
85.96606237525515
 20
84.53679770248571
 30
0.0
 10
86.0007784354464
 20
84.4662147173387
 30
0.0
 10
86.09399370577728
 20
84.26200895826011
 30
0.0
 10
86.13966624113796
 20
84.13911057593275
 30
0.0
 10
86.17797132463649
 20
84.02223729954517
 30
0.0
  0
SPLINE
  5
DD
330
1F
100
AcDbEntity
  8
0
  6
Continuous
 62
     7
370
    15
100
AcDbSpline
210
0.0
220
0.0
230
1.0
 70
     8
 71
     3
 72
    10
 73
     6
 74
     0
 42
0.000000001
 43
0.00000001
 40
0.0
 40
0.0
 40
0.0
 40
0.0
 40
0.5
 40
0.5
 40
1.0
 40
1.0
 40
1.0
 40
1.0
 10
143.2038176785319
 20
134.258796956907
 30
0.0
 10
143.2038176785319
 20
134.4192022232579
 30
0.0
 10
143.1415798474251
 20
134.5782640362464
 30
0.0
 10
142.9224449236825
 20
134.8091765018767
 30
0.0
 10
142.7648562286906
 20
134.8795521063074
 30
0.0
 10
142.603817678532
 20
134.8795521063074
 30
0.0
  0
SPLINE
  5
DE
330
1F
100
AcDbEntity
  8
0
  6
Continuous
 62
     7
370
    15
100
AcDbSpline
210
0.0
220
0.0
230
1.0
 70
     8
 71
     3
 72
    12
 73
     8
 74
     0
 42
0.000000001
 43
0.00000001
 40
0.0
 40
0.0
 40
0.0
 40
0.0
 40
0.2499999999999987
 40
0.2499999999999987
 40
0.4999999999999973
 40
0.4999999999999973
 40
1.0
 40
1.0
 40
1.0
 40
1.0
 10
142.603817678532
 20
128.8710462955106
 30
0.0
 10
142.6950174003576
 20
128.8710462955106
 30
0.0
 10
142.7856124094936
 20
128.8428265969227
 30
0.0
 10
142.9390251359403
 20
128.7483835896746
 30
0.0
 10
143.0042340032639
 20
128.6820966129692
 30
0.0
 10
143.1570185326039
 20
128.456471789681
 30
0.0
 10
143.2038176785319
 20
128.2740455266484
 30
0.0
 10
143.2038176785319
 20
128.0933088944015
 30
0.0
  0
LINE
  5
DF
330
1F
100
AcDbEntity
  8
0
  6
Continuous
 62
     7
370
    15
100
AcDbLine
 10
143.2038173686
 20
128.0933080794
 30
0.0
 11
143.2038173686
 21
134.2587976338
 31
0.0
  0
LINE
  5
E0
330
1F
100
AcDbEntity
  8
0
  6
Continuous
 62
     7
370
    15
100
AcDbLine
 10
142.6038183878
 20
134.8795520695
 30
0.0
 11
138.6457495998
 21
134.8795520695
 31
0.0
  0
LINE
  5
E1
330
1F
100
AcDbEntity
  8
0
  6
Continuous
 62
     7
370
    15
100
AcDbLine
 10
138.6457495998
 20
128.8710462483
 30
0.0
 11
142.6038183878
 21
128.8710462483
 31
0.0
  0
LINE
  5
E2
330
1F
100
AcDbEntity
  8
0
  6
Continuous
 62
     7
370
    15
100
AcDbLine
 10
138.6457495998
 20
128.8710462483
 30
0.0
 11
138.6457495998
 21
134.8795520695
 31
0.0
  0
SPLINE
  5
E3
330
1F
100
AcDbEntity
  8
0
  6
Continuous
 62
     7
370
    15
100
AcDbSpline
210
0.0
220
0.0
230
1.0
 70
     8
 71
     3
 72
     8
 73
     4
 74
     0
 42
0.000000001
 43
0.00000001
 40
0.0
 40
0.0
 40
0.0
 40
0.0
 40
1.0
 40
1.0
 40
1.0
 40
1.0
 10
138.645750510021
 20
134.8795521063074
 30
0.0
 10
138.1506104806567
 20
133.9928724581271
 30
0.0
 10
137.6565277753777
 20
133.1056098224411
 30
0.0
 10
137.163817678532
 20
132.2175908243147
 30
0.0
  0
SPLINE
  5
E4
330
1F
100
AcDbEntity
  8
0
  6
Continuous
 62
     7
370
    15
100
AcDbSpline
210
0.0
220
0.0
230
1.0
 70
     8
 71
     3
 72
     8
 73
     4
 74
     0
 42
0.000000001
 43
0.00000001
 40
0.0
 40
0.0
 40
0.0
 40
0.0
 40
1.0
 40
1.0
 40
1.0
 40
1.0
 10
137.163817678532
 20
125.4625003007264
 30
0.0
 10
137.6430958291218
 20
126.6035115305791
 30
0.0
 10
138.1386636682617
 20
127.7398959413469
 30
0.0
 10
138.645750510021
 20
128.8710462955106
 30
0.0
  0
LINE
  5
E5
330
1F
100
AcDbEntity
  8
0
  6
Continuous
 62
     7
370
    15
100
AcDbLine
 10
137.1638179432
 20
125.4625006201
 30
0.0
 11
137.1638179432
 21
132.2175900074
 31
0.0
  0
SPLINE
  5
E6
330
1F
100
AcDbEntity
  8
0
  6
Continuous
 62
     7
370
    15
100
AcDbSpline
210
0.0
220
0.0
230
1.0
 70
     8
 71
     3
 72
     8
 73
     4
 74
     0
 42
0.000000001
 43
0.00000001
 40
0.0
 40
0.0
 40
0.0
 40
0.0
 40
1.0
 40
1.0
 40
1.0
 40
1.0
 10
133.343817678532
 20
132.2175908243147
 30
0.0
 10
132.8511075816862
 20
133.1056098224411
 30
0.0
 10
132.3570248764072
 20
133.9928724581271
 30
0.0
 10
131.8618848470429
 20
134.8795521063074
 30
0.0
  0
LINE
  5
E7
330
1F
100
AcDbEntity
  8
0
  6
Continuous
 62
     7
370
    15
100
AcDbLine
 10
133.3438177268
 20
125.4625006201
 30
0.0
 11
133.3438177268
 21
132.2175900074
 31
0.0
  0
SPLINE
  5
E8
330
1F
100
AcDbEntity
  8
0
  6
Continuous
 62
     7
370
    15
100
AcDbSpline
210
0.0
220
0.0
230
1.0
 70
     8
 71
     3
 72
     8
 73
     4
 74
     0
 42
0.000000001
 43
0.00000001
 40
0.0
 40
0.0
 40
0.0
 40
0.0
 40
1.0
 40
1.0
 40
1.0
 40
1.0
 10
131.8618848470429
 20
128.8710462955106
 30
0.0
 10
132.3689716888022
 20
127.7398959413469
 30
0.0
 10
132.8645395279421
 20
126.6035115305791
 30
0.0
 10
133.343817678532
 20
125.4625003007264
 30
0.0
  0
LINE
  5
E9
330
1F
100
AcDbEntity
  8
0
  6
Continuous
 62
     7
370
    15
100
AcDbLine
 10
137.1638179432
 20
124.5482231112
 30
0.0
 11
137.1638179432
 21
125.4625006201
 31
0.0
  0
LINE
  5
EA
330
1F
100
AcDbEntity
  8
0
  6
Continuous
 62
     7
370
    15
100
AcDbLine
 10
143.2038173686
 20
128.0933080794
 30
0.0
 11
143.2038173686
 21
124.2623573722
 31
0.0
  0
LINE
  5
EB
330
1F
100
AcDbEntity
  8
0
  6
Continuous
 62
     7
370
    15
100
AcDbLine
 10
133.3438177268
 20
125.4625006201
 30
0.0
 11
133.3438177268
 21
124.5482231112
 31
0.0
  0
SPLINE
  5
EC
330
1F
100
AcDbEntity
  8
0
  6
Continuous
 62
     7
370
    15
100
AcDbSpline
210
0.0
220
0.0
230
1.0
 70
    24
 71
     3
 72
    11
 73
     7
 74
     0
 42
0.000000001
 43
0.00000001
 40
0.0
 40
0.0
 40
0.0
 40
0.0
 40
0.1336639888063557
 40
0.4825459052081235
 40
0.815634780835194
 40
1.0
 40
1.0
 40
1.0
 40
1.0
 10
202.9358670721858
 20
101.4123566070661
 30
0.0
 10
202.7907464111399
 20
101.4123566070661
 30
0.0
 10
202.2668402986997
 20
101.4123566070661
 30
0.0
 10
201.288116568535
 20
101.4123566070661
 30
0.0
 10
200.2369765740267
 20
101.4123566070661
 30
0.0
 10
199.6727826245763
 20
101.4123566070661
 30
0.0
 10
199.4717643271296
 20
101.4123566070661
 30
0.0
  0
SPLINE
  5
ED
330
1F
100
AcDbEntity
  8
0
  6
Continuous
 62
     7
370
    15
100
AcDbSpline
210
0.0
220
0.0
230
1.0
 70
     8
 71
     3
 72
    11
 73
     7
 74
     0
 42
0.000000001
 43
0.00000001
 40
0.0
 40
0.0
 40
0.0
 40
0.0
 40
0.2164549072977267
 40
0.4403109746912232
 40
0.7519002481007642
 40
1.0
 40
1.0
 40
1.0
 40
1.0
 10
204.6679184447139
 20
104.4123566331431
 30
0.0
 10
204.5492728298529
 20
104.2068535421523
 30
0.0
 10
204.30792479587
 20
103.7888206713532
 30
0.0
 10
203.860039461612
 20
103.0130670373686
 30
0.0
 10
203.3796087147829
 20
102.1809284354852
 30
0.0
 10
203.072155412086
 20
101.6484114834492
 30
0.0
 10
202.9358670721858
 20
101.4123566070661
 30
0.0
  0
SPLINE
  5
EE
330
1F
100
AcDbEntity
  8
0
  6
Continuous
 62
     7
370
    15
100
AcDbSpline
210
0.0
220
0.0
230
1.0
 70
    24
 71
     3
 72
    11
 73
     7
 74
     0
 42
0.000000001
 43
0.00000001
 40
0.0
 40
0.0
 40
0.0
 40
0.0
 40
0.184365219164806
 40
0.5174540947918765
 40
0.8663360111936443
 40
1.0
 40
1.0
 40
1.0
 40
1.0
 10
199.4717643271297
 20
107.4123566592202
 30
0.0
 10
199.6727826245764
 20
107.4123566592202
 30
0.0
 10
200.2369765740267
 20
107.4123566592202
 30
0.0
 10
201.2881165685349
 20
107.4123566592202
 30
0.0
 10
202.2668402986997
 20
107.4123566592202
 30
0.0
 10
202.7907464111399
 20
107.4123566592202
 30
0.0
 10
202.9358670721858
 20
107.4123566592202
 30
0.0
  0
SPLINE
  5
EF
330
1F
100
AcDbEntity
  8
0
  6
Continuous
 62
     7
370
    15
100
AcDbSpline
210
0.0
220
0.0
230
1.0
 70
     8
 71
     3
 72
    11
 73
     7
 74
     0
 42
0.000000001
 43
0.00000001
 40
0.0
 40
0.0
 40
0.0
 40
0.0
 40
0.2164548944971353
 40
0.4403110030898986
 40
0.7519002350104896
 40
0.9999999999999999
 40
0.9999999999999999
 40
0.9999999999999999
 40
0.9999999999999999
 10
199.4717643271296
 20
101.4123566070661
 30
0.0
 10
199.3531187011654
 20
101.6178596714539
 30
0.0
 10
199.1117706147572
 20
102.0358925398204
 30
0.0
 10
198.6638854541952
 20
102.8116462740571
 30
0.0
 10
198.1834545295379
 20
103.6437847746264
 30
0.0
 10
197.8760012834945
 20
104.1763017305877
 30
0.0
 10
197.7397129546016
 20
104.4123566331431
 30
0.0
  0
CIRCLE
  5
F0
330
1F
100
AcDbEntity
  8
0
  6
Continuous
 62
     7
370
    15
100
AcDbCircle
 10
201.2038176785
 20
104.4123566331
 30
0.0
 40
3.5
  0
SPLINE
  5
F1
330
1F
100
AcDbEntity
  8
0
  6
Continuous
 62
     7
370
    15
100
AcDbSpline
210
0.0
220
0.0
230
1.0
 70
     8
 71
     3
 72
    11
 73
     7
 74
     0
 42
0.000000001
 43
0.00000001
 40
0.0
 40
0.0
 40
0.0
 40
0.0
 40
0.216455862036536
 40
0.440311930516652
 40
0.7519012054386781
 40
1.0
 40
1.0
 40
1.0
 40
1.0
 10
197.7397129546016
 20
104.4123566331431
 30
0.0
 10
197.8583615799353
 20
104.6178594526308
 30
0.0
 10
198.0997151971684
 20
105.0358908347515
 30
0.0
 10
198.5475983331207
 20
105.8116467084377
 30
0.0
 10
199.0280317410247
 20
106.6437828130219
 30
0.0
 10
199.335478971895
 20
107.1763015148986
 30
0.0
 10
199.4717643271296
 20
107.4123566592202
 30
0.0
  0
SPLINE
  5
F2
330
1F
100
AcDbEntity
  8
0
  6
Continuous
 62
     7
370
    15
100
AcDbSpline
210
0.0
220
0.0
230
1.0
 70
     8
 71
     3
 72
    11
 73
     7
 74
     0
 42
0.000000001
 43
0.00000001
 40
0.0
 40
0.0
 40
0.0
 40
0.0
 40
0.2164558492359788
 40
0.4403119589153378
 40
0.7519011923483804
 40
1.0
 40
1.0
 40
1.0
 40
1.0
 10
202.9358670721858
 20
107.4123566592202
 30
0.0
 10
203.0545157086228
 20
107.2068538663355
 30
0.0
 10
203.2958693782817
 20
106.7888224866478
 30
0.0
 10
203.7437523405374
 20
106.013066512709
 30
0.0
 10
204.2241859262694
 20
105.1809305094386
 30
0.0
 10
204.5316331004865
 20
104.6484118036369
 30
0.0
 10
204.6679184447139
 20
104.4123566331431
 30
0.0
  0
CIRCLE
  5
F3
330
1F
100
AcDbEntity
  8
0
  6
Continuous
 62
     7
370
    15
100
AcDbCircle
 10
201.2038176785
 20
104.4123566331
 30
0.0
 40
5.5
  0
CIRCLE
  5
F4
330
1F
100
AcDbEntity
  8
0
  6
Continuous
 62
     7
370
    15
100
AcDbCircle
 10
201.2038176785
 20
104.4123566331
 30
0.0
 40
6.0
  0
ARC
  5
F5
330
1F
100
AcDbEntity
  8
0
  6
Continuous
 62
     7
370
    15
100
AcDbCircle
 10
201.2038176785
 20
104.4123566331
 30
0.0
 40
3.0
100
AcDbArc
 50
270.0
 51
330.0
  0
ARC
  5
F6
330
1F
100
AcDbEntity
  8
0
  6
Continuous
 62
     7
370
    15
100
AcDbCircle
 10
201.2038176785
 20
104.4123566331
 30
0.0
 40
3.000000000000007
100
AcDbArc
 50
150.0
 51
210.0
  0
ARC
  5
F7
330
1F
100
AcDbEntity
  8
0
  6
Continuous
 62
     7
370
    15
100
AcDbCircle
 10
201.2038176785
 20
104.4123566331
 30
0.0
 40
3.0
100
AcDbArc
 50
30.0
 51
90.0
  0
ARC
  5
F8
330
1F
100
AcDbEntity
  8
0
  6
Continuous
 62
     7
370
    15
100
AcDbCircle
 10
201.2038176785
 20
104.4123566331
 30
0.0
 40
3.0
100
AcDbArc
 50
330.0
 51
30.0
  0
ARC
  5
F9
330
1F
100
AcDbEntity
  8
0
  6
Continuous
 62
     7
370
    15
100
AcDbCircle
 10
201.2038176785
 20
104.4123566331
 30
0.0
 40
3.000000000000007
100
AcDbArc
 50
210.0
 51
270.0
  0
ARC
  5
FA
330
1F
100
AcDbEntity
  8
0
  6
Continuous
 62
     7
370
    15
100
AcDbCircle
 10
201.2038176785
 20
104.4123566331
 30
0.0
 40
3.0
100
AcDbArc
 50
90.0
 51
150.0
  0
LINE
  5
FB
330
1F
100
AcDbEntity
  8
0
  6
HIDDEN
 62
     7
370
     0
100
AcDbLine
 10
127.253817455
 20
87.6623562159
 30
0.0
 11
127.253817455
 21
87.6625592442
 31
0.0
  0
LINE
  5
FC
330
1F
100
AcDbEntity
  8
0
  6
HIDDEN
 62
     7
370
     0
100
AcDbLine
 10
127.253817455
 20
87.6625592442
 30
0.0
 11
130.0538173552
 21
87.6625592442
 31
0.0
  0
LINE
  5
FD
330
1F
100
AcDbEntity
  8
0
  6
HIDDEN
 62
     7
370
     0
100
AcDbLine
 10
130.0538173552
 20
87.6625592442
 30
0.0
 11
130.0538173552
 21
87.9645815672
 31
0.0
  0
LINE
  5
FE
330
1F
100
AcDbEntity
  8
0
  6
HIDDEN
 62
     7
370
     0
100
AcDbLine
 10
130.0538173552
 20
87.9645815672
 30
0.0
 11
127.253817455
 21
87.9645815672
 31
0.0
  0
LINE
  5
FF
330
1F
100
AcDbEntity
  8
0
  6
HIDDEN
 62
     7
370
     0
100
AcDbLine
 10
127.253817455
 20
87.9645815672
 30
0.0
 11
127.253817455
 21
121.1623570504
 31
0.0
  0
LINE
  5
100
330
1F
100
AcDbEntity
  8
0
  6
HIDDEN
 62
     7
370
     0
100
AcDbLine
 10
127.253817455
 20
121.1621540221
 30
0.0
 11
130.0538173552
 21
121.1621540221
 31
0.0
  0
LINE
  5
101
330
1F
100
AcDbEntity
  8
0
  6
HIDDEN
 62
     7
370
     0
100
AcDbLine
 10
130.0538173552
 20
120.860131699
 30
0.0
 11
127.253817455
 21
120.860131699
 31
0.0
  0
LINE
  5
102
330
1F
100
AcDbEntity
  8
0
  6
HIDDEN
 62
     7
370
     0
100
AcDbLine
 10
135.5414484303
 20
89.4123569684
 30
0.0
 11
135.5414484303
 21
119.4123562979
 31
0.0
  0
LINE
  5
103
330
1F
100
AcDbEntity
  8
0
  6
HIDDEN
 62
     7
370
     0
100
AcDbLine
 10
140.2538177232
 20
89.4123569684
 30
0.0
 11
140.2538177232
 21
119.4123562979
 31
0.0
  0
LINE
  5
104
330
1F
100
AcDbEntity
  8
0
  6
HIDDEN
 62
     7
370
     0
100
AcDbLine
 10
141.2538178871
 20
90.412356201
 30
0.0
 11
141.2538178871
 21
118.4123570653
 31
0.0
  0
LINE
  5
105
330
1F
100
AcDbEntity
  8
0
  6
HIDDEN
 62
     7
370
     0
100
AcDbLine
 10
139.1038168828
 20
94.9123569386
 30
0.0
 11
139.1038168828
 21
113.9123563277
 31
0.0
  0
LINE
  5
106
330
1F
100
AcDbEntity
  8
0
  6
HIDDEN
 62
     7
370
     0
100
AcDbLine
 10
136.1038182537
 20
94.9123569386
 30
0.0
 11
136.1038182537
 21
113.9123563277
 31
0.0
  0
LINE
  5
107
330
1F
100
AcDbEntity
  8
0
  6
HIDDEN
 62
     7
370
     0
100
AcDbLine
 10
130.0538173552
 20
112.5790674793
 30
0.0
 11
130.0538173552
 21
112.8810907336
 31
0.0
  0
LINE
  5
108
330
1F
100
AcDbEntity
  8
0
  6
HIDDEN
 62
     7
370
     0
100
AcDbLine
 10
130.0538173552
 20
112.8810907336
 30
0.0
 11
127.753817537
 21
112.8810907336
 31
0.0
  0
LINE
  5
109
330
1F
100
AcDbEntity
  8
0
  6
HIDDEN
 62
     7
370
     0
100
AcDbLine
 10
127.753817537
 20
96.245645787
 30
0.0
 11
130.0538173552
 21
96.245645787
 31
0.0
  0
LINE
  5
10A
330
1F
100
AcDbEntity
  8
0
  6
HIDDEN
 62
     7
370
     0
100
AcDbLine
 10
130.0538173552
 20
95.9436225327
 30
0.0
 11
127.753817537
 21
95.9436225327
 31
0.0
  0
LINE
  5
10B
330
1F
100
AcDbEntity
  8
0
  6
HIDDEN
 62
     7
370
     0
100
AcDbLine
 10
127.753817537
 20
96.245645787
 30
0.0
 11
127.753817537
 21
95.9436225327
 31
0.0
  0
LINE
  5
10C
330
1F
100
AcDbEntity
  8
0
  6
HIDDEN
 62
     7
370
     0
100
AcDbLine
 10
127.753817537
 20
112.5790674793
 30
0.0
 11
130.0538173552
 21
112.5790674793
 31
0.0
  0
LINE
  5
10D
330
1F
100
AcDbEntity
  8
0
  6
HIDDEN
 62
     7
370
     0
100
AcDbLine
 10
127.753817537
 20
96.245645787
 30
0.0
 11
127.753817537
 21
112.8810907336
 31
0.0
  0
LINE
  5
10E
330
1F
100
AcDbEntity
  8
0
  6
HIDDEN
 62
     7
370
     0
100
AcDbLine
 10
130.0538173552
 20
87.9645815672
 30
0.0
 11
130.0538173552
 21
96.245645787
 31
0.0
  0
LINE
  5
10F
330
1F
100
AcDbEntity
  8
0
  6
HIDDEN
 62
     7
370
     0
100
AcDbLine
 10
127.253817455
 20
95.740021448
 30
0.0
 11
127.753817537
 21
96.245645787
 31
0.0
  0
LINE
  5
110
330
1F
100
AcDbEntity
  8
0
  6
HIDDEN
 62
     7
370
     0
100
AcDbLine
 10
127.753817537
 20
112.8810907336
 30
0.0
 11
127.253817455
 21
113.3867150726
 31
0.0
  0
LINE
  5
111
330
1F
100
AcDbEntity
  8
0
  6
HIDDEN
 62
     7
370
     0
100
AcDbLine
 10
130.0538173552
 20
112.8810907336
 30
0.0
 11
130.0538173552
 21
121.1621540221
 31
0.0
  0
LINE
  5
112
330
1F
100
AcDbEntity
  8
0
  6
HIDDEN
 62
     7
370
     0
100
AcDbLine
 10
127.253817455
 20
87.9645815672
 30
0.0
 11
127.253817455
 21
87.6625592442
 31
0.0
  0
LINE
  5
113
330
1F
100
AcDbEntity
  8
0
  6
HIDDEN
 62
     7
370
     0
100
AcDbLine
 10
127.753817537
 20
95.9436225327
 30
0.0
 11
127.253817455
 21
95.4379981937
 31
0.0
  0
LINE
  5
114
330
1F
100
AcDbEntity
  8
0
  6
HIDDEN
 62
     7
370
     0
100
AcDbLine
 10
127.253817455
 20
113.0846918183
 30
0.0
 11
127.753817537
 21
112.5790674793
 31
0.0
  0
LINE
  5
115
330
1F
100
AcDbEntity
  8
0
  6
HIDDEN
 62
     7
370
     0
100
AcDbLine
 10
131.8618851389
 20
128.8710462483
 30
0.0
 11
131.8618851389
 21
124.2623573722
 31
0.0
  0
LINE
  5
116
330
1F
100
AcDbEntity
  8
0
  6
HIDDEN
 62
     7
370
     0
100
AcDbLine
 10
119.2538177735
 20
104.4123566331
 30
0.0
 11
119.5196805663
 21
102.8394649126
 31
0.0
  0
LINE
  5
117
330
1F
100
AcDbEntity
  8
0
  6
HIDDEN
 62
     7
370
     0
100
AcDbLine
 10
123.233420835
 20
99.5340377646
 30
0.0
 11
124.5136680688
 21
99.4594504679
 31
0.0
  0
LINE
  5
118
330
1F
100
AcDbEntity
  8
0
  6
HIDDEN
 62
     7
370
     0
100
AcDbLine
 10
119.2727010372
 20
104.5706231759
 30
0.0
 11
119.2538177735
 21
104.4123566331
 31
0.0
  0
LINE
  5
119
330
1F
100
AcDbEntity
  8
0
  6
HIDDEN
 62
     7
370
     0
100
AcDbLine
 10
105.2489681776
 20
80.8877574833
 30
0.0
 11
104.9973099168
 21
80.8642360004
 31
0.0
  0
SPLINE
  5
11A
330
1F
100
AcDbEntity
  8
0
  6
HIDDEN
 62
     7
370
     0
100
AcDbSpline
210
0.0
220
0.0
230
1.0
 70
     8
 71
     3
 72
    11
 73
     7
 74
     0
 42
0.000000001
 43
0.00000001
 40
0.0
 40
0.0
 40
0.0
 40
0.0
 40
0.246841603041277
 40
0.4995714577980938
 40
0.7516343799972385
 40
1.0
 40
1.0
 40
1.0
 40
1.0
 10
104.0223185579389
 20
128.0698964925572
 30
0.0
 10
104.0368617029594
 20
128.0678689519595
 30
0.0
 10
104.0662949106089
 20
128.0637655050539
 30
0.0
 10
104.320436316072
 20
128.0319086949152
 30
0.0
 10
104.697706855877
 20
127.9861696992305
 30
0.0
 10
105.0660594786313
 20
127.9532682174845
 30
0.0
 10
105.2488750453203
 20
127.93693901916
 30
0.0
  0
SPLINE
  5
11B
330
1F
100
AcDbEntity
  8
0
  6
HIDDEN
 62
     7
370
     0
100
AcDbSpline
210
0.0
220
0.0
230
1.0
 70
     8
 71
     3
 72
    15
 73
    11
 74
     0
 42
0.000000001
 43
0.00000001
 40
0.0
 40
0.0
 40
0.0
 40
0.0
 40
0.1409172263352446
 40
0.281889861653346
 40
0.4212989542022905
 40
0.5593768841673977
 40
0.6988856533029646
 40
0.840367202775075
 40
0.9813164473602943
 40
1.0
 40
1.0
 40
1.0
 40
1.0
 10
111.0088197189479
 20
84.57482816596477
 30
0.0
 10
110.6927779993353
 20
84.61518148773946
 30
0.0
 10
110.0605702917669
 20
84.69590399830929
 30
0.0
 10
108.8264071194527
 20
84.77246194469204
 30
0.0
 10
107.555684995637
 20
84.7677838766771
 30
0.0
 10
106.3671255291005
 20
84.68698741145388
 30
0.0
 10
105.3740028498101
 20
84.56259286459967
 30
0.0
 10
104.7345943184964
 20
84.45618591783844
 30
0.0
 10
104.453574330143
 20
84.40310885852888
 30
0.0
 10
104.5201348986318
 20
84.41536335049078
 30
0.0
 10
104.5279252017944
 20
84.41679762621372
 30
0.0
  0
SPLINE
  5
11C
330
1F
100
AcDbEntity
  8
0
  6
HIDDEN
 62
     7
370
     0
100
AcDbSpline
210
0.0
220
0.0
230
1.0
 70
     8
 71
     3
 72
    15
 73
    11
 74
     0
 42
0.000000001
 43
0.00000001
 40
0.0
 40
0.0
 40
0.0
 40
0.0
 40
0.1201202497733958
 40
0.2584739452442804
 40
0.3987302041697883
 40
0.5404022600041716
 40
0.680739511736143
 40
0.8190355942651634
 40
0.9577823154231621
 40
1.0
 40
1.0
 40
1.0
 40
1.0
 10
104.5279252017944
 20
124.4079156400725
 30
0.0
 10
104.5486344505979
 20
124.4038911359982
 30
0.0
 10
104.5931964728329
 20
124.3952312352096
 30
0.0
 10
105.1556359425614
 20
124.2959383164985
 30
0.0
 10
106.0490981980086
 20
124.1720223047872
 30
0.0
 10
107.2080770218608
 20
124.0723109292535
 30
0.0
 10
108.4811138906805
 20
124.0451738715554
 30
0.0
 10
109.7153992374076
 20
124.1005112336856
 30
0.0
 10
110.5433623151035
 20
124.1869909694769
 30
0.0
 10
110.9207726277498
 20
124.2379878886141
 30
0.0
 10
111.0088197189479
 20
124.2498851003215
 30
0.0
  0
SPLINE
  5
11D
330
1F
100
AcDbEntity
  8
0
  6
HIDDEN
 62
     7
370
     0
100
AcDbSpline
210
0.0
220
0.0
230
1.0
 70
     8
 71
     3
 72
    10
 73
     6
 74
     0
 42
0.000000001
 43
0.00000001
 40
0.0
 40
0.0
 40
0.0
 40
0.0
 40
0.4476968364146468
 40
0.8953770102668421
 40
1.0
 40
1.0
 40
1.0
 40
1.0
 10
111.0088197189479
 20
124.2498851003215
 30
0.0
 10
111.2555187721737
 20
124.2793965926069
 30
0.0
 10
111.7489076968798
 20
124.3384184788071
 30
0.0
 10
112.0379169764888
 20
124.3523600148637
 30
0.0
 10
111.9776062836344
 20
124.3484719546168
 30
0.0
 10
111.9661816070884
 20
124.347735437946
 30
0.0
  0
SPLINE
  5
11E
330
1F
100
AcDbEntity
  8
0
  6
HIDDEN
 62
     7
370
     0
100
AcDbSpline
210
0.0
220
0.0
230
1.0
 70
     8
 71
     3
 72
    10
 73
     6
 74
     0
 42
0.000000001
 43
0.00000001
 40
0.0
 40
0.0
 40
0.0
 40
0.0
 40
0.3457416419979006
 40
0.7967799505728519
 40
1.0
 40
1.0
 40
1.0
 40
1.0
 10
111.9661979052334
 20
84.47697782834022
 30
0.0
 10
111.9566385076045
 20
84.47753259827589
 30
0.0
 10
111.9346083687808
 20
84.47881109501513
 30
0.0
 10
111.5175524699275
 20
84.5087787024551
 30
0.0
 10
111.1293879967069
 20
84.55917462282855
 30
0.0
 10
111.0088197189479
 20
84.57482816596477
 30
0.0
  0
LINE
  5
11F
330
1F
100
AcDbEntity
  8
0
  6
HIDDEN
 62
     7
370
     0
100
AcDbLine
 10
98.2577931742
 20
87.4123557093
 30
0.0
 11
98.2577931742
 21
121.412357557
 31
0.0
  0
SPLINE
  5
120
330
1F
100
AcDbEntity
  8
0
  6
HIDDEN
 62
     7
370
     0
100
AcDbSpline
210
0.0
220
0.0
230
1.0
 70
     8
 71
     3
 72
    18
 73
    14
 74
     0
 42
0.000000001
 43
0.00000001
 40
0.0
 40
0.0
 40
0.0
 40
0.0
 40
0.2499999999999943
 40
0.2499999999999943
 40
0.4999999999999887
 40
0.4999999999999887
 40
0.6249999999999915
 40
0.6249999999999915
 40
0.7499999999999943
 40
0.7499999999999943
 40
0.8749999999999971
 40
0.8749999999999971
 40
1.0
 40
1.0
 40
1.0
 40
1.0
 10
217.253817678532
 20
121.4100578772458
 30
0.0
 10
217.2538176785319
 20
121.314738212228
 30
0.0
 10
217.2485596153689
 20
121.2177088260602
 30
0.0
 10
217.2210546255019
 20
121.0181246855351
 30
0.0
 10
217.1985711320283
 20
120.9131205158319
 30
0.0
 10
217.1402727799072
 20
120.7611117672475
 30
0.0
 10
217.1159459861993
 20
120.7100598670737
 30
0.0
 10
217.0571026270154
 20
120.6175089759963
 30
0.0
 10
217.0219799065622
 20
120.5756869993642
 30
0.0
 10
216.9470012345698
 20
120.5112147427626
 30
0.0
 10
216.9070144169161
 20
120.4880568570094
 30
0.0
 10
216.8284065723695
 20
120.4580700112146
 30
0.0
 10
216.7905572293674
 20
120.4510320547297
 30
0.0
 10
216.7537780985176
 20
120.4487727477544
 30
0.0
  0
SPLINE
  5
121
330
1F
100
AcDbEntity
  8
0
  6
HIDDEN
 62
     7
370
     0
100
AcDbSpline
210
0.0
220
0.0
230
1.0
 70
     8
 71
     3
 72
    10
 73
     6
 74
     0
 42
0.000000001
 43
0.00000001
 40
0.0
 40
0.0
 40
0.0
 40
0.0
 40
0.5
 40
0.5
 40
1.0
 40
1.0
 40
1.0
 40
1.0
 10
216.7537780985176
 20
120.4487727477547
 30
0.0
 10
216.6889566407848
 20
120.3879051433802
 30
0.0
 10
216.6141132444826
 20
120.3329333117599
 30
0.0
 10
216.4455025886313
 20
120.2531083035016
 30
0.0
 10
216.3512120365955
 20
120.2288015294745
 30
0.0
 10
216.253817678532
 20
120.2288015294745
 30
0.0
  0
SPLINE
  5
122
330
1F
100
AcDbEntity
  8
0
  6
HIDDEN
 62
     7
370
     0
100
AcDbSpline
210
0.0
220
0.0
230
1.0
 70
     8
 71
     3
 72
    10
 73
     6
 74
     0
 42
0.000000001
 43
0.00000001
 40
0.0
 40
0.0
 40
0.0
 40
0.0
 40
0.5
 40
0.5
 40
1.0
 40
1.0
 40
1.0
 40
1.0
 10
216.7537678722272
 20
88.3759501209316
 30
0.0
 10
216.6889471860605
 20
88.43681539101354
 30
0.0
 10
216.6141049034029
 20
88.49178493326356
 30
0.0
 10
216.4454976296821
 20
88.57160628057245
 30
0.0
 10
216.3512094757773
 20
88.59591173681176
 30
0.0
 10
216.253817678532
 20
88.59591173681176
 30
0.0
  0
SPLINE
  5
123
330
1F
100
AcDbEntity
  8
0
  6
HIDDEN
 62
     7
370
     0
100
AcDbSpline
210
0.0
220
0.0
230
1.0
 70
     8
 71
     3
 72
    18
 73
    14
 74
     0
 42
0.000000001
 43
0.00000001
 40
0.0
 40
0.0
 40
0.0
 40
0.0
 40
0.125
 40
0.125
 40
0.25
 40
0.25
 40
0.375
 40
0.375
 40
0.5
 40
0.5
 40
0.75
 40
0.75
 40
1.0
 40
1.0
 40
1.0
 40
1.0
 10
216.7537678722271
 20
88.37595012093158
 30
0.0
 10
216.7902547523227
 20
88.37371608464571
 30
0.0
 10
216.8285104443503
 20
88.3665725941947
 30
0.0
 10
216.9060574813386
 20
88.33711071346416
 30
0.0
 10
216.9460048965458
 20
88.31413763238383
 30
0.0
 10
217.020349806781
 20
88.25071269652658
 30
0.0
 10
217.0554930517827
 20
88.20932269820449
 30
0.0
 10
217.1144760123542
 20
88.11741542296475
 30
0.0
 10
217.1388936348621
 20
88.06673889822713
 30
0.0
 10
217.1979699499224
 20
87.91408788186759
 30
0.0
 10
217.2204588185095
 20
87.80986868030715
 30
0.0
 10
217.2484630799799
 20
87.60872743954086
 30
0.0
 10
217.253817678532
 20
87.51023318083415
 30
0.0
 10
217.253817678532
 20
87.41465538904045
 30
0.0
  0
LINE
  5
124
330
1F
100
AcDbEntity
  8
0
  6
HIDDEN
 62
     7
370
     0
100
AcDbLine
 10
176.7538190494
 20
104.4123566331
 30
0.0
 11
176.7538190494
 21
86.9123565586
 31
0.0
  0
LINE
  5
125
330
1F
100
AcDbEntity
  8
0
  6
HIDDEN
 62
     7
370
     0
100
AcDbLine
 10
176.7538190494
 20
121.9123567076
 30
0.0
 11
176.7538190494
 21
104.4123566331
 31
0.0
  0
LINE
  5
126
330
1F
100
AcDbEntity
  8
0
  6
HIDDEN
 62
     7
370
     0
100
AcDbLine
 10
181.6198453914
 20
104.4123566331
 30
0.0
 11
181.6198453914
 21
86.412357408
 31
0.0
  0
LINE
  5
127
330
1F
100
AcDbEntity
  8
0
  6
HIDDEN
 62
     7
370
     0
100
AcDbLine
 10
181.6198453914
 20
122.4123558583
 30
0.0
 11
181.6198453914
 21
104.4123566331
 31
0.0
  0
LINE
  5
128
330
1F
100
AcDbEntity
  8
0
  6
HIDDEN
 62
     7
370
     0
100
AcDbLine
 10
200.6538212906
 20
120.2288011642
 30
0.0
 11
216.2538171421
 21
120.2288011642
 31
0.0
  0
LINE
  5
129
330
1F
100
AcDbEntity
  8
0
  6
HIDDEN
 62
     7
370
     0
100
AcDbLine
 10
200.6538212906
 20
88.5959121021
 30
0.0
 11
216.2538171421
 21
88.5959121021
 31
0.0
  0
SPLINE
  5
12A
330
1F
100
AcDbEntity
  8
0
  6
HIDDEN
 62
     7
370
     0
100
AcDbSpline
210
0.0
220
0.0
230
1.0
 70
     8
 71
     3
 72
    11
 73
     7
 74
     0
 42
0.000000001
 43
0.00000001
 40
0.0
 40
0.0
 40
0.0
 40
0.0
 40
0.0005779865010846
 40
0.0005779865010846
 40
0.0005779865010846
 40
0.0011559733324422
 40
0.0011559733324422
 40
0.0011559733324422
 40
0.0011559733324422
 10
85.35381767853195
 20
106.4121972413031
 30
0.0
 10
85.52048493333791
 20
106.4102136019624
 30
0.0
 10
85.68715136301557
 20
106.4081759949541
 30
0.0
 10
85.8538177014674
 20
106.406064531548
 30
0.0
 10
86.02048413029381
 20
106.403953066997
 30
0.0
 10
86.18715050393149
 20
106.4017675038409
 30
0.0
 10
86.35381767853194
 20
106.3994849265096
 30
0.0
  0
SPLINE
  5
12B
330
1F
100
AcDbEntity
  8
0
  6
HIDDEN
 62
     7
370
     0
100
AcDbSpline
210
0.0
220
0.0
230
1.0
 70
     8
 71
     3
 72
    11
 73
     7
 74
     0
 42
0.000000001
 43
0.00000001
 40
0.0
 40
0.0
 40
0.0
 40
0.0
 40
0.0005782382535738
 40
0.0005782382535738
 40
0.0005782382535738
 40
0.0011564766069467
 40
0.0011564766069467
 40
0.0011564766069467
 40
0.0011564766069467
 10
86.35381767853195
 20
102.4156563309249
 30
0.0
 10
86.18716372456332
 20
102.4152187531633
 30
0.0
 10
86.02050305236135
 20
102.4147386884909
 30
0.0
 10
85.85383616369593
 20
102.4142191491215
 30
0.0
 10
85.68716924529988
 20
102.4136996096595
 30
0.0
 10
85.52049611546666
 20
102.4131407806376
 30
0.0
 10
85.35381767853194
 20
102.4125552370545
 30
0.0
  0
LINE
  5
12C
330
1F
100
AcDbEntity
  8
0
  6
HIDDEN
 62
     7
370
     0
100
AcDbLine
 10
131.2538181107
 20
87.8123568924
 30
0.0
 11
131.2538181107
 21
121.0122129502
 31
0.0
  0
SPLINE
  5
12D
330
1F
100
AcDbEntity
  8
0
  6
HIDDEN
 62
     7
370
     0
100
AcDbSpline
210
0.0
220
0.0
230
1.0
 70
     8
 71
     3
 72
    16
 73
    12
 74
     0
 42
0.000000001
 43
0.00000001
 40
0.0
 40
0.0
 40
0.0
 40
0.0
 40
0.124999999999998
 40
0.124999999999998
 40
0.249999999999996
 40
0.249999999999996
 40
0.4999999999999973
 40
0.4999999999999973
 40
0.7499999999999987
 40
0.7499999999999987
 40
1.0
 40
1.0
 40
1.0
 40
1.0
 10
94.05381767853196
 20
88.61086619711146
 30
0.0
 10
94.14893943319777
 20
88.61086619711146
 30
0.0
 10
94.24226950192585
 20
88.60705036371866
 30
0.0
 10
94.42553126266385
 20
88.59227981098886
 30
0.0
 10
94.51640897822087
 20
88.58112176301327
 30
0.0
 10
94.7732106757406
 20
88.53865049287154
 30
0.0
 10
94.9282780406126
 20
88.49760429566875
 30
0.0
 10
95.18202450216721
 20
88.40245817908686
 30
0.0
 10
95.28289495383507
 20
88.34769544500529
 30
0.0
 10
95.41814136852992
 20
88.2364343211014
 30
0.0
 10
95.45381767853195
 20
88.17926458377272
 30
0.0
 10
95.45381767853195
 20
88.124843010739
 30
0.0
  0
SPLINE
  5
12E
330
1F
100
AcDbEntity
  8
0
  6
HIDDEN
 62
     7
370
     0
100
AcDbSpline
210
0.0
220
0.0
230
1.0
 70
     8
 71
     3
 72
     8
 73
     4
 74
     0
 42
0.000000001
 43
0.00000001
 40
0.0
 40
0.0
 40
0.0
 40
0.0
 40
1.0
 40
1.0
 40
1.0
 40
1.0
 10
86.65381768181278
 20
90.75566914319369
 30
0.0
 10
86.65381768181472
 20
89.87177200087676
 30
0.0
 10
86.64033705590529
 20
89.1571887558148
 30
0.0
 10
86.638985687716
 20
88.61086619711145
 30
0.0
  0
SPLINE
  5
12F
330
1F
100
AcDbEntity
  8
0
  6
HIDDEN
 62
     7
370
     0
100
AcDbSpline
210
0.0
220
0.0
230
1.0
 70
     8
 71
     3
 72
    10
 73
     6
 74
     0
 42
0.000000001
 43
0.00000001
 40
0.0
 40
0.0
 40
0.0
 40
0.0
 40
0.5
 40
0.5
 40
1.0
 40
1.0
 40
1.0
 40
1.0
 10
86.35381767853194
 20
91.78057940884648
 30
0.0
 10
86.4452087942142
 20
91.60594062123718
 30
0.0
 10
86.51786062793968
 20
91.43233879399021
 30
0.0
 10
86.62535952093529
 20
91.08872537500059
 30
0.0
 10
86.65381768180717
 20
90.92039954847753
 30
0.0
 10
86.6538176818128
 20
90.75566914325317
 30
0.0
  0
LINE
  5
130
330
1F
100
AcDbEntity
  8
0
  6
HIDDEN
 62
     7
370
     0
100
AcDbLine
 10
86.3538180153
 20
94.811530094
 30
0.0
 11
86.3538180153
 21
91.7805789592
 31
0.0
  0
SPLINE
  5
131
330
1F
100
AcDbEntity
  8
0
  6
HIDDEN
 62
     7
370
     0
100
AcDbSpline
210
0.0
220
0.0
230
1.0
 70
     8
 71
     3
 72
    10
 73
     6
 74
     0
 42
0.000000001
 43
0.00000001
 40
0.0
 40
0.0
 40
0.0
 40
0.0
 40
0.5
 40
0.5
 40
1.0
 40
1.0
 40
1.0
 40
1.0
 10
86.65381768161716
 20
96.17937025750028
 30
0.0
 10
86.65381768161714
 20
95.93738628992898
 30
0.0
 10
86.62566765255683
 20
95.7030438609969
 30
0.0
 10
86.52207773845151
 20
95.24766883878083
 30
0.0
 10
86.44544902888647
 20
95.02606427570315
 30
0.0
 10
86.35381767853194
 20
94.81152984093036
 30
0.0
  0
LINE
  5
132
330
1F
100
AcDbEntity
  8
0
  6
HIDDEN
 62
     7
370
     0
100
AcDbLine
 10
86.6538175057
 20
108.0169903668
 30
0.0
 11
86.6538175057
 21
96.1793700786
 31
0.0
  0
SPLINE
  5
133
330
1F
100
AcDbEntity
  8
0
  6
HIDDEN
 62
     7
370
     0
100
AcDbSpline
210
0.0
220
0.0
230
1.0
 70
     8
 71
     3
 72
     8
 73
     4
 74
     0
 42
0.000000001
 43
0.00000001
 40
0.0
 40
0.0
 40
0.0
 40
0.0
 40
1.0
 40
1.0
 40
1.0
 40
1.0
 10
86.35381767853195
 20
114.0192959540237
 30
0.0
 10
86.53484914503126
 20
113.5871884684134
 30
0.0
 10
86.65381768162288
 20
113.1330430623737
 30
0.0
 10
86.65381768161717
 20
112.645343008755
 30
0.0
  0
LINE
  5
134
330
1F
100
AcDbEntity
  8
0
  6
HIDDEN
 62
     7
370
     0
100
AcDbLine
 10
86.3538180153
 20
117.0524985151
 30
0.0
 11
86.3538180153
 21
114.0192963736
 31
0.0
  0
SPLINE
  5
135
330
1F
100
AcDbEntity
  8
0
  6
HIDDEN
 62
     7
370
     0
100
AcDbSpline
210
0.0
220
0.0
230
1.0
 70
     8
 71
     3
 72
    10
 73
     6
 74
     0
 42
0.000000001
 43
0.00000001
 40
0.0
 40
0.0
 40
0.0
 40
0.0
 40
0.5
 40
0.5
 40
1.0
 40
1.0
 40
1.0
 40
1.0
 10
86.65381768192434
 20
118.069044123063
 30
0.0
 10
86.65381768192255
 20
117.9044077764578
 30
0.0
 10
86.62665901116753
 20
117.7372525526281
 30
0.0
 10
86.5208940158502
 20
117.3986295448283
 30
0.0
 10
86.44447922755178
 20
117.2263577675343
 30
0.0
 10
86.35381767853197
 20
117.0524989401911
 30
0.0
  0
SPLINE
  5
136
330
1F
100
AcDbEntity
  8
0
  6
HIDDEN
 62
     7
370
     0
100
AcDbSpline
210
0.0
220
0.0
230
1.0
 70
     8
 71
     3
 72
    18
 73
    14
 74
     0
 42
0.000000001
 43
0.00000001
 40
0.0
 40
0.0
 40
0.0
 40
0.0
 40
0.2500000000000033
 40
0.2500000000000033
 40
0.3750000000000029
 40
0.3750000000000029
 40
0.5000000000000026
 40
0.5000000000000026
 40
0.6250000000000022
 40
0.6250000000000022
 40
0.7500000000000018
 40
0.7500000000000018
 40
1.0
 40
1.0
 40
1.0
 40
1.0
 10
91.45381767853195
 20
120.6998702555473
 30
0.0
 10
91.45381767853195
 20
120.645395734995
 30
0.0
 10
91.41890698713978
 20
120.5890146756426
 30
0.0
 10
91.31689768580672
 20
120.5049378347891
 30
0.0
 10
91.27526133112862
 20
120.4776041307982
 30
0.0
 10
91.17685553563987
 20
120.4246502151992
 30
0.0
 10
91.11931232393557
 20
120.398762861482
 30
0.0
 10
90.99201415036264
 20
120.3509853166487
 30
0.0
 10
90.92242684560517
 20
120.3290373984709
 30
0.0
 10
90.77099260045021
 20
120.2896048335581
 30
0.0
 10
90.68830869735626
 20
120.2720485843323
 30
0.0
 10
90.43219723531821
 20
120.2296098189118
 30
0.0
 10
90.24428223143023
 20
120.2138470691748
 30
0.0
 10
90.05381767853194
 20
120.2138470691748
 30
0.0
  0
LINE
  5
137
330
1F
100
AcDbEntity
  8
0
  6
HIDDEN
 62
     7
370
     0
100
AcDbLine
 10
90.0538173179
 20
120.213847849
 30
0.0
 11
86.6538175057
 21
120.213847849
 31
0.0
  0
LINE
  5
138
330
1F
100
AcDbEntity
  8
0
  6
HIDDEN
 62
     7
370
     0
100
AcDbLine
 10
86.5848493437
 20
88.6108654173
 30
0.0
 11
94.0538179736
 21
88.6108654173
 31
0.0
  0
SPLINE
  5
139
330
1F
100
AcDbEntity
  8
0
  6
HIDDEN
 62
     7
370
     0
100
AcDbSpline
210
0.0
220
0.0
230
1.0
 70
     8
 71
     3
 72
    22
 73
    18
 74
     0
 42
0.000000001
 43
0.00000001
 40
0.0
 40
0.0
 40
0.0
 40
0.0
 40
0.125
 40
0.125
 40
0.25
 40
0.25
 40
0.5000000000000001
 40
0.5000000000000001
 40
0.5625000000000001
 40
0.5625000000000001
 40
0.6250000000000001
 40
0.6250000000000001
 40
0.75
 40
0.75
 40
0.875
 40
0.875
 40
1.0
 40
1.0
 40
1.0
 40
1.0
 10
86.58484869188985
 20
88.61086619711146
 30
0.0
 10
86.57176629916147
 20
88.86597190725914
 30
0.0
 10
86.55854673572163
 20
89.15913016636304
 30
0.0
 10
86.53609955792753
 20
89.82143063198785
 30
0.0
 10
86.52662109090308
 20
90.19170455259923
 30
0.0
 10
86.50742312996657
 20
91.41426135571301
 30
0.0
 10
86.50853690296344
 20
92.35140028184487
 30
0.0
 10
86.52744769591649
 20
93.67127151135988
 30
0.0
 10
86.5320772237755
 20
93.94277342033618
 30
0.0
 10
86.54255844352144
 20
94.50115825513848
 30
0.0
 10
86.54835370480588
 20
94.78828111107809
 30
0.0
 10
86.5666629257108
 20
95.66087036544978
 30
0.0
 10
86.58069785999118
 20
96.26132604180563
 30
0.0
 10
86.61015503212802
 20
97.4988005343017
 30
0.0
 10
86.62571072310958
 20
98.13581669094515
 30
0.0
 10
86.64950527310647
 20
99.44730528862972
 30
0.0
 10
86.65752432525183
 20
100.1234279002902
 30
0.0
 10
86.65381767853195
 20
100.807723011575
 30
0.0
  0
LINE
  5
13A
330
1F
100
AcDbEntity
  8
0
  6
HIDDEN
 62
     7
370
     0
100
AcDbLine
 10
86.6538175057
 20
108.0169903668
 30
0.0
 11
86.6538175057
 21
120.213847849
 31
0.0
  0
SPLINE
  5
13B
330
1F
100
AcDbEntity
  8
0
  6
HIDDEN
 62
     7
370
     0
100
AcDbSpline
210
0.0
220
0.0
230
1.0
 70
     8
 71
     3
 72
    10
 73
     6
 74
     0
 42
0.000000001
 43
0.00000001
 40
0.0
 40
0.0
 40
0.0
 40
0.0
 40
0.5
 40
0.5
 40
1.0
 40
1.0
 40
1.0
 40
1.0
 10
86.65381767853194
 20
100.8077230115599
 30
0.0
 10
86.65381767853177
 20
101.081638159634
 30
0.0
 10
86.62805844866294
 20
101.3525797383636
 30
0.0
 10
86.52485251592952
 20
101.8882708199658
 30
0.0
 10
86.44751435205511
 20
102.1540176234875
 30
0.0
 10
86.35381767853194
 20
102.4156563309249
 30
0.0
  0
SPLINE
  5
13C
330
1F
100
AcDbEntity
  8
0
  6
HIDDEN
 62
     7
370
     0
100
AcDbSpline
210
0.0
220
0.0
230
1.0
 70
     8
 71
     3
 72
    10
 73
     6
 74
     0
 42
0.000000001
 43
0.00000001
 40
0.0
 40
0.0
 40
0.0
 40
0.0
 40
0.5
 40
0.5
 40
1.0
 40
1.0
 40
1.0
 40
1.0
 10
86.35381767853195
 20
106.3994849265096
 30
0.0
 10
86.4470482599227
 20
106.6633787345794
 30
0.0
 10
86.52207787215923
 20
106.9295590452173
 30
0.0
 10
86.62714497133709
 20
107.4678816201749
 30
0.0
 10
86.65381768192316
 20
107.7406297364201
 30
0.0
 10
86.65381768192435
 20
108.0169902547102
 30
0.0
  0
LINE
  5
13D
330
1F
100
AcDbEntity
  8
0
  6
HIDDEN
 62
     7
370
     0
100
AcDbLine
 10
86.3538180153
 20
102.4156564469
 30
0.0
 11
86.3538180153
 21
106.3994849188
 31
0.0
  0
LINE
  5
13E
330
1F
100
AcDbEntity
  8
0
  6
HIDDEN
 62
     7
370
     0
100
AcDbLine
 10
132.2538173433
 20
90.412356201
 30
0.0
 11
132.2538173433
 21
118.4123570653
 31
0.0
  0
LINE
  5
13F
330
1F
100
AcDbEntity
  8
0
  6
HIDDEN
 62
     7
370
     0
100
AcDbLine
 10
156.7538194965
 20
104.4123566331
 30
0.0
 11
156.7538194965
 21
90.8123564528
 31
0.0
  0
LINE
  5
140
330
1F
100
AcDbEntity
  8
0
  6
HIDDEN
 62
     7
370
     0
100
AcDbLine
 10
156.7538194965
 20
118.0123568134
 30
0.0
 11
156.7538194965
 21
104.4123566331
 31
0.0
  0
LINE
  5
141
330
1F
100
AcDbEntity
  8
0
  6
HIDDEN
 62
     7
370
     0
100
AcDbLine
 10
86.5038168292
 20
86.4223560872
 30
0.0
 11
86.5038168292
 21
83.5424179765
 31
0.0
  0
LINE
  5
142
330
1F
100
AcDbEntity
  8
0
  6
HIDDEN
 62
     7
370
     0
100
AcDbLine
 10
157.7538177977
 20
104.4123566331
 30
0.0
 11
157.7538177977
 21
95.1623565139
 31
0.0
  0
LINE
  5
143
330
1F
100
AcDbEntity
  8
0
  6
HIDDEN
 62
     7
370
     0
100
AcDbLine
 10
157.7538177977
 20
113.6623567524
 30
0.0
 11
157.7538177977
 21
104.4123566331
 31
0.0
  0
LINE
  5
144
330
1F
100
AcDbEntity
  8
0
  6
HIDDEN
 62
     7
370
     0
100
AcDbLine
 10
95.453817458
 20
86.4223560872
 30
0.0
 11
95.453817458
 21
82.4486187281
 31
0.0
  0
LINE
  5
145
330
1F
100
AcDbEntity
  8
0
  6
HIDDEN
 62
     7
370
     0
100
AcDbLine
 10
86.5038168292
 20
122.4023571791
 30
0.0
 11
86.5038168292
 21
125.2822952898
 31
0.0
  0
LINE
  5
146
330
1F
100
AcDbEntity
  8
0
  6
HIDDEN
 62
     7
370
     0
100
AcDbLine
 10
91.4538168023
 20
122.4023571791
 30
0.0
 11
91.4538168023
 21
126.2564642908
 31
0.0
  0
LINE
  5
147
330
1F
100
AcDbEntity
  8
0
  6
HIDDEN
 62
     7
370
     0
100
AcDbLine
 10
216.7538181554
 20
127.3123568477
 30
0.0
 11
216.7506591092
 21
128.0585548462
 31
0.0
  0
SPLINE
  5
148
330
1F
100
AcDbEntity
  8
0
  6
HIDDEN
 62
     7
370
     0
100
AcDbSpline
210
0.0
220
0.0
230
1.0
 70
     8
 71
     3
 72
    11
 73
     7
 74
     0
 42
0.000000001
 43
0.00000001
 40
0.0
 40
0.0
 40
0.0
 40
0.0
 40
0.2580517623562307
 40
0.5832599238589978
 40
0.9088268328479826
 40
1.0
 40
1.0
 40
1.0
 40
1.0
 10
216.6825384507983
 20
129.8633071215913
 30
0.0
 10
216.6784604412498
 20
129.8409890208673
 30
0.0
 10
216.6692431450101
 20
129.7905446696641
 30
0.0
 10
216.6915351772101
 20
129.0227711250488
 30
0.0
 10
216.7796574623781
 20
128.0849386743376
 30
0.0
 10
216.7628823790689
 20
127.4510394533557
 30
0.0
 10
216.7592123757213
 20
127.3123568477199
 30
0.0
  0
SPLINE
  5
149
330
1F
100
AcDbEntity
  8
0
  6
HIDDEN
 62
     7
370
     0
100
AcDbSpline
210
0.0
220
0.0
230
1.0
 70
     8
 71
     3
 72
    14
 73
    10
 74
     0
 42
0.000000001
 43
0.00000001
 40
0.0
 40
0.0
 40
0.0
 40
0.0
 40
0.25
 40
0.25
 40
0.5
 40
0.5
 40
0.75
 40
0.75
 40
1.0
 40
1.0
 40
1.0
 40
1.0
 10
216.7592144085153
 20
127.3123566331431
 30
0.0
 10
216.7313964677965
 20
126.7405738389349
 30
0.0
 10
216.7484959111101
 20
126.168598890446
 30
0.0
 10
216.7611919927587
 20
125.024682646027
 30
0.0
 10
216.7600885447108
 20
124.4526841924916
 30
0.0
 10
216.7553411162256
 20
123.3087121438479
 30
0.0
 10
216.752588287716
 20
122.7367267087581
 30
0.0
 10
216.7524293075057
 20
121.592750338939
 30
0.0
 10
216.753576466516
 20
121.0207615642046
 30
0.0
 10
216.7537780985175
 20
120.4487727477546
 30
0.0
  0
SPLINE
  5
14A
330
1F
100
AcDbEntity
  8
0
  6
HIDDEN
 62
     7
370
     0
100
AcDbSpline
210
0.0
220
0.0
230
1.0
 70
     8
 71
     3
 72
    14
 73
    10
 74
     0
 42
0.000000001
 43
0.00000001
 40
0.0
 40
0.0
 40
0.0
 40
0.0
 40
0.25
 40
0.25
 40
0.5
 40
0.5
 40
0.75
 40
0.75
 40
1.0
 40
1.0
 40
1.0
 40
1.0
 10
216.7592034344983
 20
81.5123566331431
 30
0.0
 10
216.7314448107612
 20
82.08406441033253
 30
0.0
 10
216.7484530577009
 20
82.65605820420632
 30
0.0
 10
216.7612493252165
 20
83.79997980372164
 30
0.0
 10
216.7600378607475
 20
84.37199210852961
 30
0.0
 10
216.7552520691499
 20
85.5159752293178
 30
0.0
 10
216.7526556251797
 20
86.0879664680312
 30
0.0
 10
216.7523779447996
 20
87.23195775945672
 30
0.0
 10
216.7535189678676
 20
87.80395397821768
 30
0.0
 10
216.7537678722271
 20
88.37595012093155
 30
0.0
  0
LINE
  5
14B
330
1F
100
AcDbEntity
  8
0
  6
HIDDEN
 62
     7
370
     0
100
AcDbLine
 10
216.7538181554
 20
81.5123564186
 30
0.0
 11
216.7497054349
 21
80.6785228284
 31
0.0
  0
SPLINE
  5
14C
330
1F
100
AcDbEntity
  8
0
  6
HIDDEN
 62
     7
370
     0
100
AcDbSpline
210
0.0
220
0.0
230
1.0
 70
     8
 71
     3
 72
    12
 73
     8
 74
     0
 42
0.000000001
 43
0.00000001
 40
0.0
 40
0.0
 40
0.0
 40
0.0
 40
0.278918732736801
 40
0.6036600277307835
 40
0.7645119731402673
 40
0.929998746294737
 40
1.0
 40
1.0
 40
1.0
 40
1.0
 10
216.6817784915774
 20
78.94892455954998
 30
0.0
 10
216.677645811099
 20
78.98250075427025
 30
0.0
 10
216.6687015068292
 20
79.05516925680165
 30
0.0
 10
216.6958727681509
 20
79.7273641758604
 30
0.0
 10
216.7437733333128
 20
80.49347224025232
 30
0.0
 10
216.7748304635569
 20
81.04564084803067
 30
0.0
 10
216.762785434666
 20
81.40541101281977
 30
0.0
 10
216.7592049251407
 20
81.5123564185664
 30
0.0
  0
LINE
  5
14D
330
1F
100
AcDbEntity
  8
0
  6
HIDDEN
 62
     7
370
     0
100
AcDbLine
 10
143.2038173686
 20
78.0123567762
 30
0.0
 11
137.0661426942
 21
78.0123567762
 31
0.0
  0
LINE
  5
14E
330
1F
100
AcDbEntity
  8
0
  6
HIDDEN
 62
     7
370
     0
100
AcDbLine
 10
133.4414929758
 20
78.0123567762
 30
0.0
 11
130.2038180317
 21
78.0123567762
 31
0.0
  0
LINE
  5
14F
330
1F
100
AcDbEntity
  8
0
  6
HIDDEN
 62
     7
370
     0
100
AcDbLine
 10
122.2038176517
 20
72.9282333138
 30
0.0
 11
122.2038176517
 21
78.0123567762
 31
0.0
  0
LINE
  5
150
330
1F
100
AcDbEntity
  8
0
  6
HIDDEN
 62
     7
370
     0
100
AcDbLine
 10
130.2038180317
 20
78.0123567762
 30
0.0
 11
122.2038176517
 21
78.0123567762
 31
0.0
  0
LINE
  5
151
330
1F
100
AcDbEntity
  8
0
  6
HIDDEN
 62
     7
370
     0
100
AcDbLine
 10
200.6538212906
 20
81.5123564186
 30
0.0
 11
200.6538212906
 21
88.5959121021
 31
0.0
  0
LINE
  5
152
330
1F
100
AcDbEntity
  8
0
  6
HIDDEN
 62
     7
370
     0
100
AcDbLine
 10
200.6538212906
 20
127.3123568477
 30
0.0
 11
200.6538212906
 21
120.2288011642
 31
0.0
  0
LINE
  5
153
330
1F
100
AcDbEntity
  8
0
  6
HIDDEN
 62
     7
370
     0
100
AcDbLine
 10
133.7381154905
 20
130.8123564901
 30
0.0
 11
130.2038180317
 21
130.8123564901
 31
0.0
  0
LINE
  5
154
330
1F
100
AcDbEntity
  8
0
  6
HIDDEN
 62
     7
370
     0
100
AcDbLine
 10
143.2038173686
 20
130.8123564901
 30
0.0
 11
136.7695201795
 21
130.8123564901
 31
0.0
  0
LINE
  5
155
330
1F
100
AcDbEntity
  8
0
  6
HIDDEN
 62
     7
370
     0
100
AcDbLine
 10
130.2038180317
 20
130.8123564901
 30
0.0
 11
122.2038176517
 21
130.8123564901
 31
0.0
  0
SPLINE
  5
156
330
1F
100
AcDbEntity
  8
0
  6
HIDDEN
 62
     7
370
     0
100
AcDbSpline
210
0.0
220
0.0
230
1.0
 70
     8
 71
     3
 72
    11
 73
     7
 74
     0
 42
0.000000001
 43
0.00000001
 40
0.0
 40
0.0
 40
0.0
 40
0.0
 40
0.0008203708524183
 40
0.0008203708524183
 40
0.0008203708524183
 40
0.0016409967870154
 40
0.0016409967870154
 40
0.0016409967870154
 40
0.0016409967870154
 10
86.50381767853195
 20
88.5603238825004
 30
0.0
 10
86.31265937823329
 20
88.51914485388127
 30
0.0
 10
86.1212323081611
 20
88.48039088165126
 30
0.0
 10
85.92958668464047
 20
88.44402312237273
 30
0.0
 10
85.73788127956
 20
88.40764401860667
 30
0.0
 10
85.54594232750105
 20
88.37364976783913
 30
0.0
 10
85.35381768043024
 20
88.34200164244791
 30
0.0
  0
ELLIPSE
  5
157
330
1F
100
AcDbEntity
  8
0
  6
HIDDEN
 62
     7
370
     0
100
AcDbEllipse
 10
81.1113858099
 20
104.4123566331
 30
0.0
 11
20.19992453367506
 21
-1.421085471520200E-14
 31
0.0
210
0.0
220
0.0
230
1.0
 40
0.8164965809
 41
1.300566354717479
 42
1.359198697209065
  0
LINE
  5
158
330
1F
100
AcDbEntity
  8
0
  6
HIDDEN
 62
     7
370
     0
100
AcDbLine
 10
95.453817458
 20
86.4223560872
 30
0.0
 11
95.453817458
 21
88.1248435559
 31
0.0
  0
LINE
  5
159
330
1F
100
AcDbEntity
  8
0
  6
HIDDEN
 62
     7
370
     0
100
AcDbLine
 10
86.5038168292
 20
86.4223560872
 30
0.0
 11
86.5038168292
 21
88.5603244038
 31
0.0
  0
LINE
  5
15A
330
1F
100
AcDbEntity
  8
0
  6
HIDDEN
 62
     7
370
     0
100
AcDbLine
 10
86.5848493437
 20
88.6108654173
 30
0.0
 11
86.5038168292
 21
88.5603244038
 31
0.0
  0
LINE
  5
15B
330
1F
100
AcDbEntity
  8
0
  6
HIDDEN
 62
     7
370
     0
100
AcDbLine
 10
86.5038168292
 20
122.4023571791
 30
0.0
 11
86.5038168292
 21
120.3069819691
 31
0.0
  0
SPLINE
  5
15C
330
1F
100
AcDbEntity
  8
0
  6
HIDDEN
 62
     7
370
     0
100
AcDbSpline
210
0.0
220
0.0
230
1.0
 70
     8
 71
     3
 72
     8
 73
     4
 74
     0
 42
0.000000001
 43
0.00000001
 40
0.0
 40
0.0
 40
0.0
 40
0.0
 40
1.0
 40
1.0
 40
1.0
 40
1.0
 10
86.50381767853195
 20
120.3069810842013
 30
0.0
 10
86.5538231774754
 20
120.2759453099823
 30
0.0
 10
86.60382324813953
 20
120.2449006649549
 30
0.0
 10
86.65381768192437
 20
120.2138470691748
 30
0.0
  0
LINE
  5
15D
330
1F
100
AcDbEntity
  8
0
  6
HIDDEN
 62
     7
370
     0
100
AcDbLine
 10
91.4538168023
 20
122.4023571791
 30
0.0
 11
91.4538168023
 21
120.6998697104
 31
0.0
  0
LINE
  5
15E
330
1F
100
AcDbEntity
  8
0
  6
HIDDEN
 62
     7
370
     0
100
AcDbLine
 10
200.6538212906
 20
78.91235711
 30
0.0
 11
200.6538212906
 21
81.5123564186
 31
0.0
  0
LINE
  5
15F
330
1F
100
AcDbEntity
  8
0
  6
HIDDEN
 62
     7
370
     0
100
AcDbLine
 10
200.6538212906
 20
129.9123561563
 30
0.0
 11
200.6538212906
 21
127.3123568477
 31
0.0
  0
LWPOLYLINE
  5
160
330
1F
100
AcDbEntity
  8
0
  6
HIDDEN
 62
     7
370
     0
100
AcDbPolyline
 90
       17
 70
   128
 43
0.0
 10
112.002546494
 20
80.8123929979
 10
111.7737913179
 20
80.873470995
 10
111.4366800199
 20
80.9511563363
 10
110.9179887596
 20
81.0601564678
 10
110.176212215
 20
81.1902622314
 10
109.4460031624
 20
81.2908413442
 10
108.2745828341
 20
81.403419617
 10
106.9530025731
 20
81.429502237
 10
106.2644599612
 20
81.4083388629
 10
105.6143334742
 20
81.3643692615
 10
105.0336873765
 20
81.307392809
 10
104.6977099638
 20
81.2666306825
 10
104.5038374747
 20
81.2337419571
 10
104.6928363527
 20
81.2657906296
 10
105.0248239796
 20
81.3062081667
 10
105.5976749073
 20
81.3628847333
 10
105.5976749073
 20
81.3628847333
  0
SPLINE
  5
161
330
1F
100
AcDbEntity
  8
0
  6
HIDDEN
 62
     7
370
     0
100
AcDbSpline
210
0.0
220
0.0
230
1.0
 70
     8
 71
     3
 72
    27
 73
    23
 74
     0
 42
0.000000001
 43
0.00000001
 40
0.0
 40
0.0
 40
0.0
 40
0.0
 40
0.0007871889468533
 40
0.045669481126156
 40
0.1022508688785528
 40
0.170528623225499
 40
0.209120091254382
 40
0.2506471268995781
 40
0.321092540159283
 40
0.3861859727548979
 40
0.4266649460940087
 40
0.4647960210234582
 40
0.5006001092984322
 40
0.5451917205972274
 40
0.6016856951327552
 40
0.6700912944826821
 40
0.7088284723565893
 40
0.7505569904476287
 40
0.8222212478574498
 40
0.8877603372079498
 40
0.9472338051592818
 40
1.0
 40
1.0
 40
1.0
 40
1.0
 10
104.5044689114302
 20
127.590773868756
 30
0.0
 10
104.5042525347019
 20
127.5908206064045
 30
0.0
 10
104.4916992424497
 20
127.5935321334959
 30
0.0
 10
104.5407827295523
 20
127.5816886846112
 30
0.0
 10
104.6858790199226
 20
127.5582548869744
 30
0.0
 10
104.9589335762778
 20
127.5243451311218
 30
0.0
 10
105.2874590509148
 20
127.4907776380302
 30
0.0
 10
105.6801871082137
 20
127.4525945773375
 30
0.0
 10
106.2299148840711
 20
127.4136265048216
 30
0.0
 10
106.855937521444
 20
127.394164872854
 30
0.0
 10
107.3991293609684
 20
127.3919797172746
 30
0.0
 10
107.8441981105307
 20
127.4004944384498
 30
0.0
 10
108.3106459647302
 20
127.4202779885964
 30
0.0
 10
108.8478868916259
 20
127.4644378706205
 30
0.0
 10
109.4960998544417
 20
127.5368577042255
 30
0.0
 10
110.0816390262151
 20
127.6177553698652
 30
0.0
 10
110.5626080642086
 20
127.6959247066046
 30
0.0
 10
111.0080234372246
 20
127.7806953417356
 30
0.0
 10
111.4465224846591
 20
127.8744798724794
 30
0.0
 10
111.7855501773224
 20
127.9523828128657
 30
0.0
 10
111.9729101066392
 20
128.002579037292
 30
0.0
 10
111.9934012127725
 20
128.0092469918285
 30
0.0
 10
112.0030345070272
 20
128.0123817356393
 30
0.0
  0
SPLINE
  5
162
330
1F
100
AcDbEntity
  8
0
  6
HIDDEN
 62
     7
370
     0
100
AcDbSpline
210
0.0
220
0.0
230
1.0
 70
     8
 71
     3
 72
     8
 73
     4
 74
     0
 42
0.000000001
 43
0.00000001
 40
0.0
 40
0.0
 40
0.0
 40
0.0
 40
0.0001590976953043
 40
0.0001590976953043
 40
0.0001590976953043
 40
0.0001590976953043
 10
86.63898568771603
 20
88.61086619711146
 30
0.0
 10
86.593934217223
 20
88.58288731279397
 30
0.0
 10
86.5488781788195
 20
88.55491578242518
 30
0.0
 10
86.50381767853196
 20
88.52695144307894
 30
0.0
  0
SPLINE
  5
163
330
1F
100
AcDbEntity
  8
0
  6
HIDDEN
 62
     7
370
     0
100
AcDbSpline
210
0.0
220
0.0
230
1.0
 70
     8
 71
     3
 72
    11
 73
     7
 74
     0
 42
0.000000001
 43
0.00000001
 40
0.0
 40
0.0
 40
0.0
 40
0.0
 40
0.000821290931147
 40
0.000821290931147
 40
0.000821290931147
 40
0.0016428257243086
 40
0.0016428257243086
 40
0.0016428257243086
 40
0.0016428257243086
 10
86.50381767853193
 20
88.52695144307893
 30
0.0
 10
86.31267265704979
 20
88.48366525422333
 30
0.0
 10
86.12125432137333
 20
88.44272874458295
 30
0.0
 10
85.92960824671219
 20
88.40412697319323
 30
0.0
 10
85.73790516517059
 20
88.365513719353
 30
0.0
 10
85.54596004188504
 20
88.32923351006379
 30
0.0
 10
85.35381767853184
 20
88.29526660370905
 30
0.0
  0
LINE
  5
164
330
1F
100
AcDbEntity
  8
0
  6
HIDDEN
 62
     7
370
     0
100
AcDbLine
 10
133.3438177268
 20
124.5482231112
 30
0.0
 11
133.3438177268
 21
124.2623573722
 31
0.0
  0
LINE
  5
165
330
1F
100
AcDbEntity
  8
0
  6
HIDDEN
 62
     7
370
     0
100
AcDbLine
 10
137.1638179432
 20
124.5898737194
 30
0.0
 11
137.1638179432
 21
124.2623573722
 31
0.0
  0
LINE
  5
166
330
1F
100
AcDbEntity
  8
0
  6
HIDDEN
 62
     7
370
     0
100
AcDbLine
 10
138.6457495998
 20
128.8710462483
 30
0.0
 11
138.6457495998
 21
124.2623573722
 31
0.0
  0
SPLINE
  5
167
330
1F
100
AcDbEntity
  8
0
  6
HIDDEN
 62
     7
370
     0
100
AcDbSpline
210
0.0
220
0.0
230
1.0
 70
     8
 71
     3
 72
    24
 73
    20
 74
     0
 42
0.000000001
 43
0.00000001
 40
0.0
 40
0.0
 40
0.0
 40
0.0
 40
0.249999999999999
 40
0.249999999999999
 40
0.3749999999999983
 40
0.3749999999999983
 40
0.4374999999999987
 40
0.4374999999999987
 40
0.4687499999999975
 40
0.4687499999999975
 40
0.4999999999999963
 40
0.4999999999999963
 40
0.5624999999999984
 40
0.5624999999999984
 40
0.6250000000000006
 40
0.6250000000000006
 40
0.7500000000000001
 40
0.7500000000000001
 40
1.0
 40
1.0
 40
1.0
 40
1.0
 10
85.41648105325537
 20
84.73780408836237
 30
0.0
 10
85.43023417192558
 20
84.80845414635266
 30
0.0
 10
85.44800673933145
 20
84.8750522591176
 30
0.0
 10
85.5002578308868
 20
84.94915027935079
 30
0.0
 10
85.52129290646837
 20
84.97040808651235
 30
0.0
 10
85.5741933140968
 20
84.97855401265859
 30
0.0
 10
85.59529898697471
 20
84.97761420926281
 30
0.0
 10
85.64135115565269
 20
84.95659821768547
 30
0.0
 10
85.65972162763607
 20
84.94568941157786
 30
0.0
 10
85.7012732627018
 20
84.91305450063048
 30
0.0
 10
85.72383993545871
 20
84.8915625202591
 30
0.0
 10
85.78662095191872
 20
84.8230965766728
 30
0.0
 10
85.81975071288662
 20
84.7770221184677
 30
0.0
 10
85.87666839937164
 20
84.69201423013304
 30
0.0
 10
85.90085442487538
 20
84.65173392895166
 30
0.0
 10
85.96606237525515
 20
84.53679770248571
 30
0.0
 10
86.0007784354464
 20
84.4662147173387
 30
0.0
 10
86.09399370577728
 20
84.26200895826011
 30
0.0
 10
86.13966624113796
 20
84.13911057593275
 30
0.0
 10
86.17797132463649
 20
84.02223729954517
 30
0.0
  0
SPLINE
  5
168
330
1F
100
AcDbEntity
  8
0
  6
HIDDEN
 62
     7
370
     0
100
AcDbSpline
210
0.0
220
0.0
230
1.0
 70
     8
 71
     3
 72
    11
 73
     7
 74
     0
 42
0.000000001
 43
0.00000001
 40
0.0
 40
0.0
 40
0.0
 40
0.0
 40
0.0005781862223981
 40
0.0005781862223981
 40
0.0005781862223981
 40
0.0011563724723932
 40
0.0011563724723932
 40
0.0011563724723932
 40
0.0011563724723932
 10
86.35381767853222
 20
117.0524989401959
 30
0.0
 10
86.18715712425656
 20
117.1170284516093
 30
0.0
 10
86.02049382735005
 20
117.181531155448
 30
0.0
 10
85.85382724351976
 20
117.2460176038815
 30
0.0
 10
85.68716065126064
 20
117.3105040555762
 30
0.0
 10
85.5204907856347
 20
117.3749740643041
 30
0.0
 10
85.35381767853193
 20
117.4394298310365
 30
0.0
  0
SPLINE
  5
169
330
1F
100
AcDbEntity
  8
0
  6
HIDDEN
 62
     7
370
     0
100
AcDbSpline
210
0.0
220
0.0
230
1.0
 70
     8
 71
     3
 72
    11
 73
     7
 74
     0
 42
0.000000001
 43
0.00000001
 40
0.0
 40
0.0
 40
0.0
 40
0.0
 40
0.0005778746105124
 40
0.0005778746105124
 40
0.0005778746105124
 40
0.0011557494857259
 40
0.0011557494857259
 40
0.0011557494857259
 40
0.0011557494857259
 10
85.35381767853191
 20
91.38513477765326
 30
0.0
 10
85.52048455494524
 20
91.45094690433834
 30
0.0
 10
85.68715127450669
 20
91.51680538446732
 30
0.0
 10
85.85381792255534
 20
91.58271295738953
 30
0.0
 10
86.020484647074
 20
91.64862056055145
 30
0.0
 10
86.18715134149458
 20
91.71457766893174
 30
0.0
 10
86.35381767853194
 20
91.78057940884649
 30
0.0
  0
SPLINE
  5
16A
330
1F
100
AcDbEntity
  8
0
  6
HIDDEN
 62
     7
370
     0
100
AcDbSpline
210
0.0
220
0.0
230
1.0
 70
     8
 71
     3
 72
    11
 73
     7
 74
     0
 42
0.000000001
 43
0.00000001
 40
0.0000000000000006
 40
0.0000000000000006
 40
0.0000000000000006
 40
0.0000000000000006
 40
0.0005780486062825
 40
0.0005780486062825
 40
0.0005780486062825
 40
0.0011560973514241
 40
0.0011560973514241
 40
0.0011560973514241
 40
0.0011560973514241
 10
85.35381767853193
 20
114.3931711348349
 30
0.0
 10
85.5204875345768
 20
114.3307992732879
 30
0.0
 10
85.68715523866106
 20
114.2684454129584
 30
0.0
 10
85.85382154311472
 20
114.2061258527411
 30
0.0
 10
86.02048788380844
 20
114.1438062789729
 30
0.0
 10
86.18715284043726
 20
114.0815210746226
 30
0.0
 10
86.35381767853195
 20
114.0192959540237
 30
0.0
  0
SPLINE
  5
16B
330
1F
100
AcDbEntity
  8
0
  6
HIDDEN
 62
     7
370
     0
100
AcDbSpline
210
0.0
220
0.0
230
1.0
 70
     8
 71
     3
 72
    11
 73
     7
 74
     0
 42
0.000000001
 43
0.00000001
 40
0.0
 40
0.0
 40
0.0
 40
0.0
 40
0.0005782401583596
 40
0.0005782401583596
 40
0.0005782401583596
 40
0.0011564805961118
 40
0.0011564805961118
 40
0.0011564805961118
 40
0.0011564805961118
 10
86.35381767853195
 20
94.81152984093036
 30
0.0
 10
86.18716672818303
 20
94.74810438284044
 30
0.0
 10
86.02050713560034
 20
94.68474885915526
 30
0.0
 10
85.85384008317179
 20
94.62145127477447
 30
0.0
 10
85.68717294660797
 20
94.55815365844042
 30
0.0
 10
85.52049833916192
 20
94.49491386346803
 30
0.0
 10
85.35381767853188
 20
94.43171385679659
 30
0.0
  0
CIRCLE
  5
16C
330
1F
100
AcDbEntity
  8
0
  6
HIDDEN
 62
     7
370
     0
100
AcDbCircle
 10
124.2538176785
 20
104.4123566331
 30
0.0
 40
5.0
  0
CIRCLE
  5
16D
330
1F
100
AcDbEntity
  8
0
  6
HIDDEN
 62
     7
370
     0
100
AcDbCircle
 10
201.2038176785
 20
104.4123566331
 30
0.0
 40
4.080384757729334
  0
CIRCLE
  5
16E
330
1F
100
AcDbEntity
  8
0
  6
HIDDEN
 62
     7
370
     0
100
AcDbCircle
 10
201.2038176785
 20
104.4123566331
 30
0.0
 40
3.780384757729337
  0
LINE
  5
16F
330
1F
100
AcDbEntity
  8
0
  6
HIDDEN
 62
     7
370
     0
100
AcDbLine
 10
127.253817455
 20
87.6623562159
 30
0.0
 11
130.8538178588
 21
87.6623562159
 31
0.0
  0
LINE
  5
170
330
1F
100
AcDbEntity
  8
0
  6
HIDDEN
 62
     7
370
     0
100
AcDbLine
 10
130.8538178588
 20
121.1623570504
 30
0.0
 11
127.253817455
 21
121.1623570504
 31
0.0
  0
ARC
  5
171
330
1F
100
AcDbEntity
  8
0
  6
HIDDEN
 62
     7
370
     0
100
AcDbCircle
 10
130.8538176785
 20
88.0623566331
 30
0.0
 40
0.4000000000000341
100
AcDbArc
 50
270.0
 51
360.0
  0
ARC
  5
172
330
1F
100
AcDbEntity
  8
0
  6
HIDDEN
 62
     7
370
     0
100
AcDbCircle
 10
130.8538176785
 20
120.7623566331
 30
0.0
 40
0.4000000000000341
100
AcDbArc
 50
0.0
 51
90.0
  0
LINE
  5
173
330
1F
100
AcDbEntity
  8
0
  6
HIDDEN
 62
     7
370
     0
100
AcDbLine
 10
135.5414484303
 20
89.4123569684
 30
0.0
 11
140.2538177232
 21
89.4123569684
 31
0.0
  0
LINE
  5
174
330
1F
100
AcDbEntity
  8
0
  6
HIDDEN
 62
     7
370
     0
100
AcDbLine
 10
140.2538177232
 20
119.4123562979
 30
0.0
 11
135.5414484303
 21
119.4123562979
 31
0.0
  0
LINE
  5
175
330
1F
100
AcDbEntity
  8
0
  6
HIDDEN
 62
     7
370
     0
100
AcDbLine
 10
135.5414484303
 20
119.4123562979
 30
0.0
 11
133.9768712084
 21
118.0995211559
 31
0.0
  0
LINE
  5
176
330
1F
100
AcDbEntity
  8
0
  6
HIDDEN
 62
     7
370
     0
100
AcDbLine
 10
133.9768712084
 20
90.7251921104
 30
0.0
 11
135.5414484303
 21
89.4123569684
 31
0.0
  0
LINE
  5
177
330
1F
100
AcDbEntity
  8
0
  6
HIDDEN
 62
     7
370
     0
100
AcDbLine
 10
140.2538177232
 20
89.4123569684
 30
0.0
 11
141.2538178871
 21
90.412356201
 31
0.0
  0
LINE
  5
178
330
1F
100
AcDbEntity
  8
0
  6
HIDDEN
 62
     7
370
     0
100
AcDbLine
 10
141.2538178871
 20
118.4123570653
 30
0.0
 11
140.2538177232
 21
119.4123562979
 31
0.0
  0
ARC
  5
179
330
1F
100
AcDbEntity
  8
0
  6
HIDDEN
 62
     7
370
     0
100
AcDbCircle
 10
132.0538176785
 20
90.1123566331
 30
0.0
 40
0.7999999999999972
100
AcDbArc
 50
90.0
 51
180.0
  0
ARC
  5
17A
330
1F
100
AcDbEntity
  8
0
  6
HIDDEN
 62
     7
370
     0
100
AcDbCircle
 10
132.0538176785
 20
118.7123566331
 30
0.0
 40
0.7999999999999972
100
AcDbArc
 50
180.0
 51
270.0
  0
ARC
  5
17B
330
1F
100
AcDbEntity
  8
0
  6
HIDDEN
 62
     7
370
     0
100
AcDbCircle
 10
133.4626414911
 20
90.1123566331
 30
0.0
 40
0.8000000000000017
100
AcDbArc
 50
50.0
 51
90.0
  0
ARC
  5
17C
330
1F
100
AcDbEntity
  8
0
  6
HIDDEN
 62
     7
370
     0
100
AcDbCircle
 10
133.4626414911
 20
118.7123566331
 30
0.0
 40
0.8000000000000017
100
AcDbArc
 50
270.0
 51
310.0
  0
LINE
  5
17D
330
1F
100
AcDbEntity
  8
0
  6
HIDDEN
 62
     7
370
     0
100
AcDbLine
 10
132.053817683
 20
90.912356283
 30
0.0
 11
133.4626414488
 21
90.912356283
 31
0.0
  0
LINE
  5
17E
330
1F
100
AcDbEntity
  8
0
  6
HIDDEN
 62
     7
370
     0
100
AcDbLine
 10
133.4626414488
 20
117.9123569833
 30
0.0
 11
132.053817683
 21
117.9123569833
 31
0.0
  0
LINE
  5
17F
330
1F
100
AcDbEntity
  8
0
  6
HIDDEN
 62
     7
370
     0
100
AcDbLine
 10
136.1038182537
 20
94.9123569386
 30
0.0
 11
139.1038168828
 21
94.9123569386
 31
0.0
  0
LINE
  5
180
330
1F
100
AcDbEntity
  8
0
  6
HIDDEN
 62
     7
370
     0
100
AcDbLine
 10
139.1038168828
 20
113.9123563277
 30
0.0
 11
136.1038182537
 21
113.9123563277
 31
0.0
  0
LINE
  5
181
330
1F
100
AcDbEntity
  8
0
  6
HIDDEN
 62
     7
370
     0
100
AcDbLine
 10
130.0538173552
 20
95.9123561712
 30
0.0
 11
136.1038182537
 21
95.9123561712
 31
0.0
  0
LINE
  5
182
330
1F
100
AcDbEntity
  8
0
  6
HIDDEN
 62
     7
370
     0
100
AcDbLine
 10
136.1038182537
 20
112.9123570951
 30
0.0
 11
130.0538173552
 21
112.9123570951
 31
0.0
  0
LINE
  5
183
330
1F
100
AcDbEntity
  8
0
  6
HIDDEN
 62
     7
370
     0
100
AcDbLine
 10
139.1038168828
 20
100.2123567829
 30
0.0
 11
141.2538178871
 21
100.2123567829
 31
0.0
  0
LINE
  5
184
330
1F
100
AcDbEntity
  8
0
  6
HIDDEN
 62
     7
370
     0
100
AcDbLine
 10
141.2538178871
 20
108.6123564834
 30
0.0
 11
139.1038168828
 21
108.6123564834
 31
0.0
  0
LINE
  5
185
330
1F
100
AcDbEntity
  8
0
  6
HIDDEN
 62
     7
370
     0
100
AcDbLine
 10
117.2538176785
 20
79.0884255054
 30
0.0
 11
117.3479784508
 21
79.7584133776
 31
0.0
  0
LINE
  5
186
330
1F
100
AcDbEntity
  8
0
  6
HIDDEN
 62
     7
370
     0
100
AcDbLine
 10
117.3479784508
 20
129.0662998887
 30
0.0
 11
117.2538176785
 21
129.7362877609
 31
0.0
  0
ARC
  5
187
330
1F
100
AcDbEntity
  8
0
  6
HIDDEN
 62
     7
370
     0
100
AcDbCircle
 10
116.7538109259
 20
79.8419190188
 30
0.0
 40
0.6000067526677242
100
AcDbArc
 50
352.0
 51
0.0
  0
ARC
  5
188
330
1F
100
AcDbEntity
  8
0
  6
HIDDEN
 62
     7
370
     0
100
AcDbCircle
 10
116.7538109259
 20
79.8419190188
 30
0.0
 40
0.6000067526677321
100
AcDbArc
 50
0.0
 51
33.5571153394
  0
ARC
  5
189
330
1F
100
AcDbEntity
  8
0
  6
HIDDEN
 62
     7
370
     0
100
AcDbCircle
 10
116.7538109259
 20
128.9827942475
 30
0.0
 40
0.6000067526677308
100
AcDbArc
 50
348.75
 51
8.0
  0
LWPOLYLINE
  5
18A
330
1F
100
AcDbEntity
  8
0
  6
HIDDEN
 62
     7
370
     0
100
AcDbPolyline
 90
        3
 70
   128
 43
0.0
 10
117.3422887174
 20
128.8657395722
 10
117.3081448857
 20
128.7531817885
 10
117.2538176785
 20
128.6511293234
  0
LINE
  5
18B
330
1F
100
AcDbEntity
  8
0
  6
HIDDEN
 62
     7
370
     0
100
AcDbLine
 10
117.353817676
 20
79.8419194849
 30
0.0
 11
117.353817676
 21
128.9827937814
 31
0.0
  0
ARC
  5
18C
330
1F
100
AcDbEntity
  8
0
  6
HIDDEN
 62
     7
370
     0
100
AcDbCircle
 10
100.3362532438
 20
85.0123566331
 30
0.0
 40
0.6000000000000084
100
AcDbArc
 50
210.0
 51
270.0
  0
ARC
  5
18D
330
1F
100
AcDbEntity
  8
0
  6
HIDDEN
 62
     7
370
     0
100
AcDbCircle
 10
100.3362532438
 20
123.8123566331
 30
0.0
 40
0.6000000000000084
100
AcDbArc
 50
90.0
 51
150.0
  0
LINE
  5
18E
330
1F
100
AcDbEntity
  8
0
  6
HIDDEN
 62
     7
370
     0
100
AcDbLine
 10
100.3362537037
 20
84.4123570802
 30
0.0
 11
104.5279252018
 21
84.4123570802
 31
0.0
  0
LINE
  5
18F
330
1F
100
AcDbEntity
  8
0
  6
HIDDEN
 62
     7
370
     0
100
AcDbLine
 10
104.5279252018
 20
124.4123561861
 30
0.0
 11
100.3362537037
 21
124.4123561861
 31
0.0
  0
ARC
  5
190
330
1F
100
AcDbEntity
  8
0
  6
HIDDEN
 62
     7
370
     0
100
AcDbCircle
 10
111.0088196801
 20
92.4123566331
 30
0.0
 40
8.000000000000007
100
AcDbArc
 50
276.8757672654
 51
321.3178125465
  0
ARC
  5
191
330
1F
100
AcDbEntity
  8
0
  6
HIDDEN
 62
     7
370
     0
100
AcDbCircle
 10
111.0088196801
 20
116.4123566331
 30
0.0
 40
8.000000000000004
100
AcDbArc
 50
38.6821874535
 51
83.1175378788
  0
LINE
  5
192
330
1F
100
AcDbEntity
  8
0
  6
HIDDEN
 62
     7
370
     0
100
AcDbLine
 10
99.8166371743
 20
124.1123566957
 30
0.0
 11
98.2577931742
 21
121.412357557
 31
0.0
  0
LINE
  5
193
330
1F
100
AcDbEntity
  8
0
  6
HIDDEN
 62
     7
370
     0
100
AcDbLine
 10
98.2577931742
 20
87.4123557093
 30
0.0
 11
99.8166371743
 21
84.7123565706
 31
0.0
  0
LINE
  5
194
330
1F
100
AcDbEntity
  8
0
  6
HIDDEN
 62
     7
370
     0
100
AcDbLine
 10
179.6221659194
 20
122.9123568716
 30
0.0
 11
177.7538173507
 21
122.9123568716
 31
0.0
  0
LINE
  5
195
330
1F
100
AcDbEntity
  8
0
  6
HIDDEN
 62
     7
370
     0
100
AcDbLine
 10
177.7538173507
 20
85.9123563947
 30
0.0
 11
179.6221659194
 21
85.9123563947
 31
0.0
  0
ARC
  5
196
330
1F
100
AcDbEntity
  8
0
  6
HIDDEN
 62
     7
370
     0
100
AcDbCircle
 10
177.7538176785
 20
121.9123566331
 30
0.0
 40
1.0
100
AcDbArc
 50
90.0
 51
180.0
  0
ARC
  5
197
330
1F
100
AcDbEntity
  8
0
  6
HIDDEN
 62
     7
370
     0
100
AcDbCircle
 10
177.7538176785
 20
86.9123566331
 30
0.0
 40
1.0
100
AcDbArc
 50
180.0
 51
270.0
  0
ARC
  5
198
330
1F
100
AcDbEntity
  8
0
  6
HIDDEN
 62
     7
370
     0
100
AcDbCircle
 10
179.6221651809
 20
121.9123566331
 30
0.0
 40
1.00000000000001
100
AcDbArc
 50
75.0
 51
90.0
  0
ARC
  5
199
330
1F
100
AcDbEntity
  8
0
  6
HIDDEN
 62
     7
370
     0
100
AcDbCircle
 10
179.6221651809
 20
86.9123566331
 30
0.0
 40
1.00000000000001
100
AcDbArc
 50
270.0
 51
285.0
  0
LINE
  5
19A
330
1F
100
AcDbEntity
  8
0
  6
HIDDEN
 62
     7
370
     0
100
AcDbLine
 10
179.8809841882
 20
85.9464316251
 30
0.0
 11
181.6198453914
 21
86.412357408
 31
0.0
  0
LINE
  5
19B
330
1F
100
AcDbEntity
  8
0
  6
HIDDEN
 62
     7
370
     0
100
AcDbLine
 10
181.6198453914
 20
122.4123558583
 30
0.0
 11
179.8809841882
 21
122.8782816412
 31
0.0
  0
LINE
  5
19C
330
1F
100
AcDbEntity
  8
0
  6
HIDDEN
 62
     7
370
     0
100
AcDbLine
 10
200.6538212906
 20
122.4123558583
 30
0.0
 11
181.6198453914
 21
122.4123558583
 31
0.0
  0
LINE
  5
19D
330
1F
100
AcDbEntity
  8
0
  6
HIDDEN
 62
     7
370
     0
100
AcDbLine
 10
181.6198453914
 20
86.412357408
 30
0.0
 11
200.6538212906
 21
86.412357408
 31
0.0
  0
LINE
  5
19E
330
1F
100
AcDbEntity
  8
0
  6
HIDDEN
 62
     7
370
     0
100
AcDbLine
 10
117.2538176785
 20
87.4123557093
 30
0.0
 11
130.8538178588
 21
87.4123557093
 31
0.0
  0
LINE
  5
19F
330
1F
100
AcDbEntity
  8
0
  6
HIDDEN
 62
     7
370
     0
100
AcDbLine
 10
130.8538178588
 20
121.412357557
 30
0.0
 11
117.2538176785
 21
121.412357557
 31
0.0
  0
ARC
  5
1A0
330
1F
100
AcDbEntity
  8
0
  6
HIDDEN
 62
     7
370
     0
100
AcDbCircle
 10
130.8538176785
 20
87.8123566331
 30
0.0
 40
0.4000000000000341
100
AcDbArc
 50
270.0
 51
0.0
  0
ARC
  5
1A1
330
1F
100
AcDbEntity
  8
0
  6
HIDDEN
 62
     7
370
     0
100
AcDbCircle
 10
130.8538176785
 20
121.0123566331
 30
0.0
 40
0.4000000000000341
100
AcDbArc
 50
0.0
 51
90.0
  0
LINE
  5
1A2
330
1F
100
AcDbEntity
  8
0
  6
HIDDEN
 62
     7
370
     0
100
AcDbLine
 10
95.453817458
 20
87.4123557093
 30
0.0
 11
98.2577931742
 21
87.4123557093
 31
0.0
  0
LINE
  5
1A3
330
1F
100
AcDbEntity
  8
0
  6
HIDDEN
 62
     7
370
     0
100
AcDbLine
 10
98.2577931742
 20
121.412357557
 30
0.0
 11
91.4538168023
 21
121.412357557
 31
0.0
  0
LINE
  5
1A4
330
1F
100
AcDbEntity
  8
0
  6
HIDDEN
 62
     7
370
     0
100
AcDbLine
 10
131.2538181107
 20
89.4123569684
 30
0.0
 11
132.2538173433
 21
90.412356201
 31
0.0
  0
LINE
  5
1A5
330
1F
100
AcDbEntity
  8
0
  6
HIDDEN
 62
     7
370
     0
100
AcDbLine
 10
132.2538173433
 20
118.4123570653
 30
0.0
 11
131.2538181107
 21
119.4123562979
 31
0.0
  0
LINE
  5
1A6
330
1F
100
AcDbEntity
  8
0
  6
HIDDEN
 62
     7
370
     0
100
AcDbLine
 10
132.2538173433
 20
90.412356201
 30
0.0
 11
156.3538164507
 21
90.412356201
 31
0.0
  0
LINE
  5
1A7
330
1F
100
AcDbEntity
  8
0
  6
HIDDEN
 62
     7
370
     0
100
AcDbLine
 10
156.3538164507
 20
118.4123570653
 30
0.0
 11
132.2538173433
 21
118.4123570653
 31
0.0
  0
ARC
  5
1A8
330
1F
100
AcDbEntity
  8
0
  6
HIDDEN
 62
     7
370
     0
100
AcDbCircle
 10
156.3538176785
 20
118.0123566331
 30
0.0
 40
0.4000000000000057
100
AcDbArc
 50
0.0
 51
90.0
  0
ARC
  5
1A9
330
1F
100
AcDbEntity
  8
0
  6
HIDDEN
 62
     7
370
     0
100
AcDbCircle
 10
156.3538176785
 20
90.8123566331
 30
0.0
 40
0.4000000000000057
100
AcDbArc
 50
270.0
 51
0.0
  0
LINE
  5
1AA
330
1F
100
AcDbEntity
  8
0
  6
HIDDEN
 62
     7
370
     0
100
AcDbLine
 10
156.7538194965
 20
94.16235635
 30
0.0
 11
157.7538177977
 21
95.1623565139
 31
0.0
  0
LINE
  5
1AB
330
1F
100
AcDbEntity
  8
0
  6
HIDDEN
 62
     7
370
     0
100
AcDbLine
 10
157.7538177977
 20
113.6623567524
 30
0.0
 11
156.7538194965
 21
114.6623569163
 31
0.0
  0
LINE
  5
1AC
330
1F
100
AcDbEntity
  8
0
  6
HIDDEN
 62
     7
370
     0
100
AcDbLine
 10
217.2538191686
 20
130.4864382925
 30
0.0
 11
216.6670561443
 21
129.899686444
 31
0.0
  0
LINE
  5
1AD
330
1F
100
AcDbEntity
  8
0
  6
HIDDEN
 62
     7
370
     0
100
AcDbLine
 10
216.6668549786
 20
78.9252224
 30
0.0
 11
217.2538191686
 21
78.3382749738
 31
0.0
  0
LINE
  5
1AE
330
1F
100
AcDbEntity
  8
0
  6
HIDDEN
 62
     7
370
     0
100
AcDbLine
 10
176.7538190494
 20
113.6623567524
 30
0.0
 11
157.7538177977
 21
113.6623567524
 31
0.0
  0
LINE
  5
1AF
330
1F
100
AcDbEntity
  8
0
  6
HIDDEN
 62
     7
370
     0
100
AcDbLine
 10
157.7538177977
 20
95.1623565139
 30
0.0
 11
176.7538190494
 21
95.1623565139
 31
0.0
  0
LINE
  5
1B0
330
1F
100
AcDbEntity
  8
0
  6
HIDDEN
 62
     7
370
     0
100
AcDbLine
 10
122.2038176517
 20
135.9123571398
 30
0.0
 11
122.2038176517
 21
130.8123564901
 31
0.0
  0
LINE
  5
1B1
330
1F
100
AcDbEntity
  8
0
  6
HIDDEN
 62
     7
370
     0
100
AcDbLine
 10
200.6538212906
 20
78.91235711
 30
0.0
 11
216.6820467125
 21
78.91235711
 31
0.0
  0
LINE
  5
1B2
330
1F
100
AcDbEntity
  8
0
  6
HIDDEN
 62
     7
370
     0
100
AcDbLine
 10
216.6829184304
 20
129.9123561563
 30
0.0
 11
200.6538212906
 21
129.9123561563
 31
0.0
  0
LINE
  5
1B3
330
1F
100
AcDbEntity
  8
0
  6
HIDDEN
 62
     7
370
     0
100
AcDbLine
 10
112.438255516
 20
80.3329853894
 30
0.0
 11
112.0038233372
 21
80.8120521339
 31
0.0
  0
LINE
  5
1B4
330
1F
100
AcDbEntity
  8
0
  6
HIDDEN
 62
     7
370
     0
100
AcDbLine
 10
104.5038197796
 20
81.2337400945
 30
0.0
 11
104.021386304
 21
80.7546733501
 31
0.0
  0
LINE
  5
1B5
330
1F
100
AcDbEntity
  8
0
  6
HIDDEN
 62
     7
370
     0
100
AcDbLine
 10
104.0212643008
 20
128.0700343283
 30
0.0
 11
104.503815123
 21
127.5909135671
 31
0.0
  0
LINE
  5
1B6
330
1F
100
AcDbEntity
  8
0
  6
HIDDEN
 62
     7
370
     0
100
AcDbLine
 10
112.0038177493
 20
128.0126127036
 30
0.0
 11
112.4383598241
 21
128.4917316021
 31
0.0
  0
LINE
  5
1B7
330
1F
100
AcDbEntity
  8
0
  6
HIDDEN
 62
     7
370
     0
100
AcDbLine
 10
112.0038177493
 20
124.3477577897
 30
0.0
 11
112.0038177493
 21
128.0123202683
 31
0.0
  0
LINE
  5
1B8
330
1F
100
AcDbEntity
  8
0
  6
HIDDEN
 62
     7
370
     0
100
AcDbLine
 10
104.503817917
 20
127.5907701435
 30
0.0
 11
104.503817917
 21
124.40797897
 31
0.0
  0
LINE
  5
1B9
330
1F
100
AcDbEntity
  8
0
  6
HIDDEN
 62
     7
370
     0
100
AcDbLine
 10
112.0038177493
 20
80.812534559
 30
0.0
 11
112.0038177493
 21
84.4769554766
 31
0.0
  0
LINE
  5
1BA
330
1F
100
AcDbEntity
  8
0
  6
HIDDEN
 62
     7
370
     0
100
AcDbLine
 10
104.503817917
 20
84.4167342963
 30
0.0
 11
104.503817917
 21
81.2340623321
 31
0.0
  0
LINE
  5
1BB
330
1F
100
AcDbEntity
  8
VERMASSUNG
100
AcDbLine
 10
159.2538176785
 20
130.4123566331
 30
0.0
 11
159.2538176785
 21
78.4123566331
 31
0.0
  0
LINE
  5
1BC
330
1F
100
AcDbEntity
  8
VERMASSUNG
100
AcDbLine
 10
162.7179192937
 20
136.4123566331
 30
0.0
 11
162.7179192937
 21
72.4123566331
 31
0.0
  0
DIMENSION
  5
1BD
330
1F
100
AcDbEntity
  8
VERMASSUNG
100
AcDbDimension
  2
_D
 10
223.3265270516
 20
86.4123566331
 30
0.0
 11
223.3265270516
 21
104.4123566331
 31
0.0
 70
   160
  1
%%c<>
 71
     2
 42
-1.0
  3
SLDDIMSTYLE0
100
AcDbAlignedDimension
 13
200.6538176784
 23
122.4123566331
 33
0.0
 14
200.6538176784
 24
86.4123566331
 34
0.0
 50
90.0
100
AcDbRotatedDimension
  0
DIMENSION
  5
1C9
330
1F
100
AcDbEntity
  8
VERMASSUNG
100
AcDbDimension
  2
_D_1
 10
229.3265270516
 20
72.4123566331
 30
0.0
 11
229.3265270516
 21
104.4123566331
 31
0.0
 70
   160
  1
ST6 %%c<>
 71
     2
 42
-1.0
  3
SLDDIMSTYLE0
100
AcDbAlignedDimension
 13
216.6538176785
 23
136.4123566331
 33
0.0
 14
216.6538176785
 24
72.4123566331
 34
0.0
 50
90.0
100
AcDbRotatedDimension
  0
DIMENSION
  5
1D5
330
1F
100
AcDbEntity
  8
VERMASSUNG
100
AcDbDimension
  2
_D_2
 10
81.3913217131
 20
72.9123566331
 30
0.0
 11
81.3913217131
 21
104.4123566331
 31
0.0
 70
   160
  1
HSK A 63 %%c<>
 71
     2
 42
-1.0
  3
SLDDIMSTYLE0
100
AcDbAlignedDimension
 13
117.5538176785
 23
135.9123566331
 33
0.0
 14
117.5538176785
 24
72.9123566331
 34
0.0
 50
90.0
100
AcDbRotatedDimension
  0
DIMENSION
  5
1E2
330
1F
100
AcDbEntity
  8
VERMASSUNG
100
AcDbDimension
  2
_D_3
 10
217.2538176785
 20
155.2331064446
 30
0.0
 11
151.3038176785
 21
155.2331064446
 31
0.0
 70
   160
  1
(<>)
 71
     2
 42
-1.0
  3
SLDDIMSTYLE0
100
AcDbAlignedDimension
 13
85.3538176785
 23
124.1030343796
 33
0.0
 14
217.2538176785
 24
135.8123566331
 34
0.0
100
AcDbRotatedDimension
  0
DIMENSION
  5
1EE
330
1F
100
AcDbEntity
  8
VERMASSUNG
100
AcDbDimension
  2
_D_4
 10
217.2538176785
 20
149.2331064446
 30
0.0
 11
167.2538176785
 21
149.2331064446
 31
0.0
 70
   160
  1
<>
 71
     2
 42
-1.0
  3
SLDDIMSTYLE0
100
AcDbAlignedDimension
 13
117.2538176785
 23
135.6123566331
 33
0.0
 14
217.2538176785
 24
135.8123566331
 34
0.0
100
AcDbRotatedDimension
  0
DIMENSION
  5
1F8
330
1F
100
AcDbEntity
  8
VERMASSUNG
100
AcDbDimension
  2
_D_5
 10
217.2538176785
 20
143.2331064446
 30
0.0
 11
180.2288176785
 21
143.2331064446
 31
0.0
 70
   160
  1
(<>)
 71
     2
 42
-1.0
  3
SLDDIMSTYLE0
100
AcDbAlignedDimension
 13
143.2038176785
 23
134.2587969569
 33
0.0
 14
217.2538176785
 24
135.8123566331
 34
0.0
100
AcDbRotatedDimension
  0
LINE
  5
204
330
1F
100
AcDbEntity
  8
VERMASSUNG
  6
CENTERX2
370
     0
100
AcDbLine
 10
84.3716638564
 20
104.4123566331
 30
0.0
 11
218.7202691506
 21
104.4123566331
 31
0.0
  0
LINE
  5
205
330
1F
100
AcDbEntity
  8
0
  6
Continuous
 62
     7
370
    15
100
AcDbLine
 10
279.4872624549
 20
10.9170274163
 30
0.0
 11
279.6993609686
 21
11.0395075712
 31
0.0
  0
LINE
  5
206
330
1F
100
AcDbEntity
  8
0
  6
Continuous
 62
     7
370
    15
100
AcDbLine
 10
290.7991326955
 20
30.2669596584
 30
0.0
 11
290.7991326955
 21
30.5118831966
 31
0.0
  0
LINE
  5
207
330
1F
100
AcDbEntity
  8
0
  6
Continuous
 62
     7
370
    15
100
AcDbLine
 10
287.4847736757
 20
37.8373997612
 30
0.0
 11
268.6196783291
 21
48.7279874922
 31
0.0
  0
LINE
  5
208
330
1F
100
AcDbEntity
  8
0
  6
Continuous
 62
     7
370
    15
100
AcDbLine
 10
252.6209782958
 20
21.0144239534
 30
0.0
 11
271.4860736425
 21
10.1238362224
 31
0.0
  0
SPLINE
  5
209
330
1F
100
AcDbEntity
  8
0
  6
Continuous
 62
     7
370
    15
100
AcDbSpline
210
0.0
220
0.0
230
1.0
 70
     8
 71
     3
 72
    26
 73
    22
 74
     0
 42
0.000000001
 43
0.00000001
 40
0.0
 40
0.0
 40
0.0
 40
0.0
 40
0.0070192270632559
 40
0.0645153374682966
 40
0.1220655481505701
 40
0.1796388990307269
 40
0.2372144436129157
 40
0.294764203255604
 40
0.3522660669522187
 40
0.4096988094797743
 40
0.4670426251076313
 40
0.5242818671766726
 40
0.5814102513382442
 40
0.6384407474541577
 40
0.6954225542572122
 40
0.7524267127907572
 40
0.8096240797643548
 40
0.8673056656299544
 40
0.9258679722858927
 40
0.9856574852613438
 40
1.0
 40
1.0
 40
1.0
 40
1.0
 10
273.8983827613122
 20
24.14754047963674
 30
0.0
 10
273.9114330975818
 20
24.18441223878774
 30
0.0
 10
274.0313817530276
 20
24.52330909498565
 30
0.0
 10
274.3030840343708
 20
25.16359322268124
 30
0.0
 10
274.7376249845792
 20
26.05482143800164
 30
0.0
 10
275.2329993540477
 20
26.92151987841754
 30
0.0
 10
275.7788363779899
 20
27.75264211390459
 30
0.0
 10
276.3692899040337
 20
28.53777540182431
 30
0.0
 10
276.9964312934148
 20
29.26712145916398
 30
0.0
 10
277.6521468128089
 20
29.93170335721733
 30
0.0
 10
278.3277269020257
 20
30.52347114728695
 30
0.0
 10
279.0141287720945
 20
31.03545800572513
 30
0.0
 10
279.7020590937504
 20
31.46194417252973
 30
0.0
 10
280.3822392507304
 20
31.79863109095443
 30
0.0
 10
281.0454856783695
 20
32.04264484608839
 30
0.0
 10
281.6833606753796
 20
32.19296103631941
 30
0.0
 10
282.288225517018
 20
32.24919821615622
 30
0.0
 10
282.8562849207546
 20
32.21489526809709
 30
0.0
 10
283.3791570976913
 20
32.08124299742061
 30
0.0
 10
283.7466019257499
 20
31.93424008068479
 30
0.0
 10
283.9226924059615
 20
31.80154547154326
 30
0.0
 10
283.9567610856625
 20
31.77587270302419
 30
0.0
  0
LINE
  5
20A
330
1F
100
AcDbEntity
  8
0
  6
Continuous
 62
     7
370
    15
100
AcDbLine
 10
260.447446848
 20
48.001499145
 30
0.0
 11
260.3703487685
 21
47.9606125186
 31
0.0
  0
SPLINE
  5
20B
330
1F
100
AcDbEntity
  8
0
  6
Continuous
 62
     7
370
    15
100
AcDbSpline
210
0.0
220
0.0
230
1.0
 70
     8
 71
     3
 72
    15
 73
    11
 74
     0
 42
0.000000001
 43
0.00000001
 40
0.0
 40
0.0
 40
0.0
 40
0.0
 40
0.0612561246739023
 40
0.1954280970317663
 40
0.3304166924297706
 40
0.466278421686249
 40
0.6029078197864983
 40
0.7401128430393766
 40
0.8776873268607746
 40
1.0
 40
1.0
 40
1.0
 40
1.0
 10
267.0347605787791
 20
49.33781340414252
 30
0.0
 10
266.9156014480095
 20
49.36877685194187
 30
0.0
 10
266.5354428549836
 20
49.46756089538543
 30
0.0
 10
265.8511108594942
 20
49.52690194337767
 30
0.0
 10
264.9896585116956
 20
49.51955624318476
 30
0.0
 10
264.0952164059241
 20
49.40497829348646
 30
0.0
 10
263.176704385838
 20
49.19140905040129
 30
0.0
 10
262.2399920047929
 20
48.87544179718861
 30
0.0
 10
261.3274883523395
 20
48.48493932203706
 30
0.0
 10
260.7290802251049
 20
48.15621104097104
 30
0.0
 10
260.4474468480412
 20
48.00149914499328
 30
0.0
  0
SPLINE
  5
20C
330
1F
100
AcDbEntity
  8
0
  6
Continuous
 62
     7
370
    15
100
AcDbSpline
210
0.0
220
0.0
230
1.0
 70
     8
 71
     3
 72
    15
 73
    11
 74
     0
 42
0.000000001
 43
0.00000001
 40
0.0
 40
0.0
 40
0.0
 40
0.0
 40
0.0833137461037148
 40
0.2245821358781241
 40
0.3658343871670368
 40
0.5069363907640493
 40
0.6477036040595225
 40
0.787906239677449
 40
0.9273133535122496
 40
1.0
 40
1.0
 40
1.0
 40
1.0
 10
249.1722261470501
 20
28.28394086886561
 30
0.0
 10
249.1749486085653
 20
28.06899396818299
 30
0.0
 10
249.1822873281706
 20
27.48957896989936
 30
0.0
 10
249.2838351960335
 20
26.59835761795163
 30
0.0
 10
249.468242061169
 20
25.61423670006623
 30
0.0
 10
249.7360371934795
 20
24.69548647856121
 30
0.0
 10
250.0799217401531
 20
23.8452181768107
 30
0.0
 10
250.5030505997742
 20
23.07665523805597
 30
0.0
 10
250.9092537503924
 20
22.48532392484804
 30
0.0
 10
251.1998965346386
 20
22.18598595960986
 30
0.0
 10
251.2995027148515
 20
22.08339985416979
 30
0.0
  0
LINE
  5
20D
330
1F
100
AcDbEntity
  8
0
  6
Continuous
 62
     7
370
    15
100
AcDbLine
 10
260.3703487685
 20
47.9606125186
 30
0.0
 11
259.8689521602
 21
47.6583415506
 31
0.0
  0
SPLINE
  5
20E
330
1F
100
AcDbEntity
  8
0
  6
Continuous
 62
     7
370
    15
100
AcDbSpline
210
0.0
220
0.0
230
1.0
 70
     8
 71
     3
 72
    10
 73
     6
 74
     0
 42
0.000000001
 43
0.00000001
 40
0.0
 40
0.0
 40
0.0
 40
0.0
 40
0.3295826253931541
 40
0.7613182340319967
 40
1.0
 40
1.0
 40
1.0
 40
1.0
 10
274.7313813070879
 20
16.34858548373989
 30
0.0
 10
274.6173986807424
 20
16.42571293210647
 30
0.0
 10
274.3541049112479
 20
16.60387321199314
 30
0.0
 10
274.0566269810452
 20
16.92315059630629
 30
0.0
 10
273.8912876532524
 20
17.1900206683472
 30
0.0
 10
273.8324236019371
 20
17.28503166073994
 30
0.0
  0
LINE
  5
20F
330
1F
100
AcDbEntity
  8
0
  6
Continuous
 62
     7
370
    15
100
AcDbLine
 10
247.3710094531
 20
27.5091744398
 30
0.0
 11
249.3395353062
 21
26.3727686539
 31
0.0
  0
LINE
  5
210
330
1F
100
AcDbEntity
  8
0
  6
Continuous
 62
     7
370
    15
100
AcDbLine
 10
262.3339236839
 20
48.8926684252
 30
0.0
 11
260.3699523247
 21
50.0264449578
 31
0.0
  0
LINE
  5
211
330
1F
100
AcDbEntity
  8
0
  6
Continuous
 62
     7
370
    15
100
AcDbLine
 10
236.5739228416
 20
30.5668591509
 30
0.0
 11
241.6325886
 21
27.646553569
 31
0.0
  0
LINE
  5
212
330
1F
100
AcDbEntity
  8
0
  6
Continuous
 62
     7
370
    15
100
AcDbLine
 10
254.5159439041
 20
56.5812328015
 30
0.0
 11
252.3226433309
 21
57.8473982713
 31
0.0
  0
SPLINE
  5
213
330
1F
100
AcDbEntity
  8
0
  6
Continuous
 62
     7
370
    15
100
AcDbSpline
210
0.0
220
0.0
230
1.0
 70
     8
 71
     3
 72
    10
 73
     6
 74
     0
 42
0.000000001
 43
0.00000001
 40
0.0
 40
0.0
 40
0.0
 40
0.0
 40
0.3273840074620001
 40
0.9801749850441906
 40
1.0
 40
1.0
 40
1.0
 40
1.0
 10
248.3934735587583
 20
24.70288033717846
 30
0.0
 10
248.5344092438785
 20
24.70058375175837
 30
0.0
 10
248.9563652035655
 20
24.69370786433415
 30
0.0
 10
249.4028565969974
 20
24.73461333490221
 30
0.0
 10
249.7112412833194
 20
24.80286934449229
 30
0.0
 10
249.7203307654107
 20
24.80488115572776
 30
0.0
  0
LINE
  5
214
330
1F
100
AcDbEntity
  8
0
  6
Continuous
 62
     7
370
    15
100
AcDbLine
 10
244.0310468815
 20
26.2619530752
 30
0.0
 11
245.4304355217
 21
25.4541032088
 31
0.0
  0
LINE
  5
215
330
1F
100
AcDbEntity
  8
0
  6
Continuous
 62
     7
370
    15
100
AcDbLine
 10
245.1463492991
 20
57.4367208275
 30
0.0
 11
238.9559670453
 21
60.5209401471
 31
0.0
  0
LINE
  5
216
330
1F
100
AcDbEntity
  8
0
  6
Continuous
 62
     7
370
    15
100
AcDbLine
 10
227.5742692154
 20
40.8051247667
 30
0.0
 11
237.3697513861
 21
34.3189634418
 31
0.0
  0
SPLINE
  5
217
330
1F
100
AcDbEntity
  8
0
  6
Continuous
 62
     7
370
    15
100
AcDbSpline
210
0.0
220
0.0
230
1.0
 70
     8
 71
     3
 72
    10
 73
     6
 74
     0
 42
0.000000001
 43
0.00000001
 40
0.0
 40
0.0
 40
0.0
 40
0.0
 40
0.042826307326555
 40
0.6411294201045001
 40
1.0
 40
1.0
 40
1.0
 40
1.0
 10
262.8933394627472
 20
51.1931386259545
 30
0.0
 10
262.882375088931
 20
51.20968999111754
 30
0.0
 10
262.7182333950639
 20
51.45747150232758
 30
0.0
 10
262.4125391792053
 20
51.78657320265723
 30
0.0
 10
262.094230003968
 20
52.06256580321089
 30
0.0
 10
261.974887193799
 20
52.16604297288833
 30
0.0
  0
SPLINE
  5
218
330
1F
100
AcDbEntity
  8
0
  6
Continuous
 62
     7
370
    15
100
AcDbSpline
210
0.0
220
0.0
230
1.0
 70
     8
 71
     3
 72
    10
 73
     6
 74
     0
 42
0.000000001
 43
0.00000001
 40
0.0
 40
0.0
 40
0.0
 40
0.0
 40
0.2098433786665654
 40
0.6201658740619678
 40
1.0
 40
1.0
 40
1.0
 40
1.0
 10
263.8775013027021
 20
49.33852131751544
 30
0.0
 10
263.8253234249491
 20
49.48491531323317
 30
0.0
 10
263.6711182297748
 20
49.91756446751487
 30
0.0
 10
263.3473074310407
 20
50.54480019394743
 30
0.0
 10
263.0407188559969
 20
50.98265742154519
 30
0.0
 10
262.8933394627472
 20
51.1931386259545
 30
0.0
  0
SPLINE
  5
219
330
1F
100
AcDbEntity
  8
0
  6
Continuous
 62
     7
370
    15
100
AcDbSpline
210
0.0
220
0.0
230
1.0
 70
     8
 71
     3
 72
    27
 73
    23
 74
     0
 42
0.000000001
 43
0.00000001
 40
0.0
 40
0.0
 40
0.0
 40
0.0
 40
0.0006190121360041
 40
0.0535419763291819
 40
0.1065464497357057
 40
0.1599714067950196
 40
0.2140107073794877
 40
0.2686810205835849
 40
0.3238626782962798
 40
0.3793789918640715
 40
0.435065937725565
 40
0.4907993141818792
 40
0.5465012170344207
 40
0.6021476271352637
 40
0.6577341845944626
 40
0.7132674409620438
 40
0.7687596349673473
 40
0.8242258837291637
 40
0.8796824726463037
 40
0.9351460986031089
 40
0.9906287557731202
 40
1.0
 40
1.0
 40
1.0
 40
1.0
 10
238.8724402233249
 20
60.56071059740714
 30
0.0
 10
238.8701427540863
 20
60.56202696440597
 30
0.0
 10
238.6714212162758
 20
60.67588723723883
 30
0.0
 10
238.2281555468599
 20
60.81377986498449
 30
0.0
 10
237.5488534628876
 20
60.96334674342064
 30
0.0
 10
236.8262391022166
 20
61.00058881808691
 30
0.0
 10
236.0734459138057
 20
60.93990422717819
 30
0.0
 10
235.2941275324232
 20
60.77685896720304
 30
0.0
 10
234.4962342979761
 20
60.51326686691375
 30
0.0
 10
233.6879328530724
 20
60.15113640896208
 30
0.0
 10
232.8779457569803
 20
59.69446539782401
 30
0.0
 10
232.0747502848246
 20
59.14844222015339
 30
0.0
 10
231.2863279515215
 20
58.51916736355993
 30
0.0
 10
230.5201376309435
 20
57.81332945432647
 30
0.0
 10
229.7831601140524
 20
57.03807705918432
 30
0.0
 10
229.0821295866043
 20
56.20103301818556
 30
0.0
 10
228.4232566022199
 20
55.31028935124471
 30
0.0
 10
227.8131589794148
 20
54.3742970149864
 30
0.0
 10
227.2552911549143
 20
53.40202465672839
 30
0.0
 10
226.7630573354388
 20
52.4021380327141
 30
0.0
 10
226.4361044042488
 20
51.66753741526695
 30
0.0
 10
226.2958876920527
 20
51.26860178720749
 30
0.0
 10
226.2756266896091
 20
51.21095647796897
 30
0.0
  0
LINE
  5
21A
330
1F
100
AcDbEntity
  8
0
  6
Continuous
 62
     7
370
    15
100
AcDbLine
 10
226.3900830422
 20
49.3612651848
 30
0.0
 11
228.9436433725
 21
47.887126184
 31
0.0
  0
LINE
  5
21B
330
1F
100
AcDbEntity
  8
0
  6
Continuous
 62
     7
370
    15
100
AcDbLine
 10
226.0917906975
 20
50.4895748581
 30
0.0
 11
226.0917906975
 21
50.0241688887
 31
0.0
  0
LINE
  5
21C
330
1F
100
AcDbEntity
  8
0
  6
Continuous
 62
     7
370
    15
100
AcDbLine
 10
226.0917906975
 20
43.0182261933
 30
0.0
 11
226.0917906975
 21
42.5528202239
 31
0.0
  0
SPLINE
  5
21D
330
1F
100
AcDbEntity
  8
0
  6
Continuous
 62
     7
370
    15
100
AcDbSpline
210
0.0
220
0.0
230
1.0
 70
     8
 71
     3
 72
    11
 73
     7
 74
     0
 42
0.000000001
 43
0.00000001
 40
0.0
 40
0.0
 40
0.0
 40
0.0
 40
0.2451921498477681
 40
0.5738878302121677
 40
0.8983753344500764
 40
1.0
 40
1.0
 40
1.0
 40
1.0
 10
226.2079269970995
 20
42.26626396119396
 30
0.0
 10
226.3039930389778
 20
42.11002659346408
 30
0.0
 10
226.5288417234274
 20
41.74434309168709
 30
0.0
 10
226.972574122793
 20
41.27157249215357
 30
0.0
 10
227.3789619646838
 20
40.91492801887176
 30
0.0
 10
227.6431869385341
 20
40.76986986319849
 30
0.0
 10
227.7062026806352
 20
40.73527454393567
 30
0.0
  0
LINE
  5
21E
330
1F
100
AcDbEntity
  8
0
  6
Continuous
 62
     7
370
    15
100
AcDbLine
 10
276.144688944
 20
41.218925443
 30
0.0
 11
275.9678832438
 21
41.3210267564
 31
0.0
  0
LINE
  5
21F
330
1F
100
AcDbEntity
  8
0
  6
Continuous
 62
     7
370
    15
100
AcDbLine
 10
272.0781651924
 20
41.3210260594
 30
0.0
 11
271.9013594123
 21
41.21892508
 31
0.0
  0
LINE
  5
220
330
1F
100
AcDbEntity
  8
0
  6
Continuous
 62
     7
370
    15
100
AcDbLine
 10
277.0230244925
 20
39.6883091437
 30
0.0
 11
277.0230244925
 21
39.9945118082
 31
0.0
  0
LINE
  5
221
330
1F
100
AcDbEntity
  8
0
  6
Continuous
 62
     7
370
    15
100
AcDbLine
 10
271.023025151
 20
39.9945116181
 30
0.0
 11
271.023025151
 21
39.6883089536
 31
0.0
  0
LWPOLYLINE
  5
222
330
1F
100
AcDbEntity
  8
0
  6
Continuous
 62
     7
370
    15
100
AcDbPolyline
 90
       72
 70
   128
 43
0.0
 10
279.6975566502
 20
36.6778464851
 10
278.7163981848
 20
36.0612710643
 10
277.742918513
 20
35.3491877231
 10
276.7847365831
 20
34.5471727437
 10
275.8493514885
 20
33.6615012852
 10
274.9440839392
 20
32.6991059908
 10
274.0760185569
 20
31.6675178202
 10
273.2519495454
 20
30.5748103507
 10
272.4783257017
 20
29.4295360935
 10
271.7612023427
 20
28.2406584366
 10
271.1061915845
 20
27.0174818775
 10
270.5184201962
 20
25.7695797825
 10
270.0024881113
 20
24.5067175846
 10
269.562432866
 20
23.2387794015
 10
269.2016986481
 20
21.9756889508
 10
268.923108638
 20
20.7273312247
 10
268.7288439351
 20
19.503476826
 10
268.6204231429
 20
18.3137029769
 10
268.5986964425
 20
17.1673222976
 10
268.6638343969
 20
16.0733070695
 10
268.8153253169
 20
15.0402182757
 10
269.0519844811
 20
14.0761418626
 10
269.3719594038
 20
13.1886227468
 10
269.7727462986
 20
12.3846074212
 10
270.2512085181
 20
11.6703882501
 10
270.8036009198
 20
11.051554607
 10
271.4256008174
 20
10.5329506658
 10
272.1123395914
 20
10.1186335728
 10
272.8584435186
 20
9.8118479668
 10
273.6580726264
 20
9.6149928958
 10
274.5049687662
 20
9.529610025
 10
275.3925040168
 20
9.5563674726
 10
276.3137320509
 20
9.6950560028
 10
277.2614432877
 20
9.9445896855
 10
278.2282202112
 20
10.3030165383
 10
279.2064967623
 20
10.7675307589
 10
280.1886165381
 20
11.3344964373
 10
281.1668930892
 20
11.9994762806
 10
282.1336700127
 20
12.7572663044
 10
283.0813812495
 20
13.6019367249
 10
284.0026092836
 20
14.5268754429
 10
284.8901445342
 20
15.5248443837
 10
285.737040674
 20
16.5880327244
 10
286.5366697818
 20
17.7081199116
 10
287.282773709
 20
18.8763387759
 10
287.969512483
 20
20.0835475802
 10
288.5915123806
 20
21.320297317
 10
289.1439047823
 20
22.5769096515
 10
289.6223670018
 20
23.8435495427
 10
290.0231538966
 20
25.1103035674
 10
290.3431288193
 20
26.3672578653
 10
290.5797879835
 20
27.6045751332
 10
290.7312789035
 20
28.8125716204
 10
290.7964168579
 20
29.9817935297
 10
290.7746901575
 20
31.1030890947
 10
290.6662693653
 20
32.1676829617
 10
290.4720046624
 20
33.1672441086
 10
290.1934146523
 20
34.0939486556
 10
289.8326804344
 20
34.9405442437
 10
289.3926251891
 20
35.7004054553
 10
288.8766931042
 20
36.3675851473
 10
288.2889217159
 20
36.9368608424
 10
287.6339109577
 20
37.4037780776
 10
286.9167875987
 20
37.764682728
 10
286.143163755
 20
38.0167499078
 10
285.3190947435
 20
38.1580075488
 10
284.4510293612
 20
38.1873487624
 10
283.5457618119
 20
38.104544392
 10
282.6103767173
 20
37.9102432082
 10
281.6521947874
 20
37.6059648795
 10
280.6787151156
 20
37.1940925157
 10
279.6975566502
 20
36.6778464851
  0
LWPOLYLINE
  5
223
330
1F
100
AcDbEntity
  8
0
  6
Continuous
 62
     7
370
    15
100
AcDbPolyline
 90
       37
 70
   128
 43
0.0
 10
279.4854236591
 20
37.0452716025
 10
278.4855169255
 20
36.4169133327
 10
277.4934358409
 20
35.6912239189
 10
276.5169447273
 20
34.8738833379
 10
275.5636860762
 20
33.9712883141
 10
274.641120209
 20
32.9905030379
 10
273.7564677369
 20
31.9392031344
 10
272.9166516091
 20
30.825615592
 10
272.1282454169
 20
29.6584577405
 10
271.3974190637
 20
28.4468625405
 10
270.7298926672
 20
27.2003131881
 10
270.1308898024
 20
25.9285651715
 10
269.6050993061
 20
24.6415721296
 10
269.156635106
 20
23.3494060077
 10
268.7890079028
 20
22.062179872
 10
268.5050948774
 20
20.7899684455
 10
268.307117959
 20
19.54272826
 10
268.1966260444
 20
18.330220282
 10
268.174484461
 20
17.1619343891
 10
268.2408657474
 20
16.0470136582
 10
268.3952509705
 20
14.9941840217
 10
268.6364323599
 20
14.0116861115
 10
268.9625218683
 20
13.1072080994
 10
269.3709669772
 20
12.2878295641
 10
269.8585717701
 20
11.5599626483
 10
270.4215199817
 20
10.9293047179
 10
271.055404632
 20
10.4007904499
 10
271.7552662225
 20
9.9785568475
 10
272.5156269797
 20
9.665908636
 10
273.3305356371
 20
9.4652924027
 10
274.1936145204
 20
9.3782781513
 10
275.0981089385
 20
9.4055467498
 10
276.0369401965
 20
9.5468855524
 10
277.0027602549
 20
9.8011872542
 10
277.9880106689
 20
10.1664626233
 10
278.9849804587
 20
10.6398526149
 10
279.4872624549
 20
10.9170274163
  0
LWPOLYLINE
  5
224
330
1F
100
AcDbEntity
  8
0
  6
Continuous
 62
     7
370
    15
100
AcDbPolyline
 90
       19
 70
   128
 43
0.0
 10
290.7991326955
 20
30.5118831966
 10
290.7742212738
 20
31.3639885764
 10
290.6637293592
 20
32.4489253052
 10
290.4657524408
 20
33.4675862062
 10
290.1818394155
 20
34.411998631
 10
289.8142122122
 20
35.2747714326
 10
289.3657480121
 20
36.0491518105
 10
288.8399575159
 20
36.729080067
 10
288.240954651
 20
37.3092340969
 10
287.5734282545
 20
37.785073877
 10
286.8426019013
 20
38.1528749302
 10
286.0541957091
 20
38.4097583679
 10
285.2143795813
 20
38.5537148483
 10
284.3297271092
 20
38.5836167486
 10
283.407161242
 20
38.4992301473
 10
282.4539025909
 20
38.3012161597
 10
281.4774114774
 20
37.9911240991
 10
280.4853303928
 20
37.5713810738
 10
279.4854236591
 20
37.0452716025
  0
SPLINE
  5
225
330
1F
100
AcDbEntity
  8
0
  6
Continuous
 62
     7
370
    15
100
AcDbSpline
210
0.0
220
0.0
230
1.0
 70
    11
 71
     3
 72
    94
 73
    90
 74
     0
 42
0.000000001
 43
0.00000001
 40
0.0
 40
0.0
 40
0.0
 40
0.0
 40
0.0312500000000006
 40
0.0312500000000006
 40
0.0625000000000013
 40
0.0625000000000013
 40
0.0937500000000019
 40
0.0937500000000019
 40
0.1093750000000022
 40
0.1093750000000022
 40
0.1250000000000025
 40
0.1250000000000025
 40
0.1562500000000022
 40
0.1562500000000022
 40
0.171875000000002
 40
0.171875000000002
 40
0.1875000000000019
 40
0.1875000000000019
 40
0.2187500000000015
 40
0.2187500000000015
 40
0.2343750000000014
 40
0.2343750000000014
 40
0.2500000000000012
 40
0.2500000000000012
 40
0.2812500000000008
 40
0.2812500000000008
 40
0.3125000000000004
 40
0.3125000000000004
 40
0.3281250000000002
 40
0.3281250000000002
 40
0.3437500000000001
 40
0.3437500000000001
 40
0.3749999999999997
 40
0.3749999999999997
 40
0.3906249999999995
 40
0.3906249999999995
 40
0.4062499999999993
 40
0.4062499999999993
 40
0.4218749999999992
 40
0.4218749999999992
 40
0.4374999999999989
 40
0.4374999999999989
 40
0.4687499999999982
 40
0.4687499999999982
 40
0.4843749999999977
 40
0.4843749999999977
 40
0.4999999999999973
 40
0.4999999999999973
 40
0.5312499999999973
 40
0.5312499999999973
 40
0.5624999999999972
 40
0.5624999999999972
 40
0.5781249999999972
 40
0.5781249999999972
 40
0.5937499999999972
 40
0.5937499999999972
 40
0.6249999999999972
 40
0.6249999999999972
 40
0.6562499999999971
 40
0.6562499999999971
 40
0.6874999999999971
 40
0.6874999999999971
 40
0.7187499999999971
 40
0.7187499999999971
 40
0.749999999999997
 40
0.749999999999997
 40
0.781249999999997
 40
0.781249999999997
 40
0.812499999999997
 40
0.812499999999997
 40
0.8281249999999972
 40
0.8281249999999972
 40
0.8437499999999974
 40
0.8437499999999974
 40
0.8593749999999976
 40
0.8593749999999976
 40
0.8749999999999978
 40
0.8749999999999978
 40
0.9062499999999982
 40
0.9062499999999982
 40
0.9218749999999986
 40
0.9218749999999986
 40
0.9374999999999989
 40
0.9374999999999989
 40
0.9531249999999991
 40
0.9531249999999991
 40
0.9687499999999994
 40
0.9687499999999994
 40
1.0
 40
1.0
 40
1.0
 40
1.0
 10
274.0064966202659
 20
42.03446088321865
 30
0.0
 10
274.2330130024526
 20
42.0041013431926
 30
0.0
 10
274.4545490149701
 20
41.96212286719957
 30
0.0
 10
274.888565193282
 20
41.85841950195753
 30
0.0
 10
275.1023228839902
 20
41.79608661622458
 30
0.0
 10
275.507009493144
 20
41.65759001856635
 30
0.0
 10
275.699568634342
 20
41.5811550603228
 30
0.0
 10
275.9739007336536
 20
41.45653431531605
 30
0.0
 10
276.0633192191729
 20
41.41309456113095
 30
0.0
 10
276.234611159967
 20
41.32414098635251
 30
0.0
 10
276.3165444374354
 20
41.27863499054383
 30
0.0
 10
276.5514853994653
 20
41.1391267851554
 30
0.0
 10
276.6937270851115
 20
41.04218314600912
 30
0.0
 10
276.8849318915613
 20
40.89036779738406
 30
0.0
 10
276.9451149617298
 20
40.8384911182983
 30
0.0
 10
277.0556344766664
 20
40.73438171917113
 30
0.0
 10
277.106259026746
 20
40.6819487718131
 30
0.0
 10
277.244375712207
 20
40.52328192813538
 30
0.0
 10
277.3182493281046
 20
40.41571683602533
 30
0.0
 10
277.4000173512357
 20
40.25018893100446
 30
0.0
 10
277.4223337501907
 20
40.19427426929639
 30
0.0
 10
277.4559847448966
 20
40.08319455419876
 30
0.0
 10
277.4674908557508
 20
40.02772475655733
 30
0.0
 10
277.4859536119245
 20
39.86112649824513
 30
0.0
 10
277.4770540211252
 20
39.74982497136659
 30
0.0
 10
277.4121130540696
 20
39.52441481530317
 30
0.0
 10
277.3567747681914
 20
39.413576761248
 30
0.0
 10
277.2400294794775
 20
39.25108003336573
 30
0.0
 10
277.1954143388652
 20
39.19742325684915
 30
0.0
 10
277.094214880431
 20
39.09099245271074
 30
0.0
 10
277.0371477303151
 20
39.03784805704949
 30
0.0
 10
276.8510671662021
 20
38.88326389451574
 30
0.0
 10
276.707398773333
 20
38.78620513343382
 30
0.0
 10
276.4624644789728
 20
38.64932520462665
 30
0.0
 10
276.3752684548134
 20
38.60489604735319
 30
0.0
 10
276.1937012580372
 20
38.52060300635768
 30
0.0
 10
276.0997039853967
 20
38.48085133898947
 30
0.0
 10
275.9055443064801
 20
38.40603190776995
 30
0.0
 10
275.8053811077274
 20
38.37096463905125
 30
0.0
 10
275.5989441768752
 20
38.30561009763895
 30
0.0
 10
275.4920246883673
 20
38.27517381389245
 30
0.0
 10
275.1680599386027
 20
38.19295240646066
 30
0.0
 10
274.9474953428175
 20
38.1498465038054
 30
0.0
 10
274.6100943547305
 20
38.10288820587188
 30
0.0
 10
274.4959682563348
 20
38.09018110698905
 30
0.0
 10
274.2694210179206
 20
38.07131663500437
 30
0.0
 10
274.1567660805159
 20
38.06509313763868
 30
0.0
 10
273.8205259425862
 20
38.05597425329645
 30
0.0
 10
273.597655763108
 20
38.06263945775451
 30
0.0
 10
273.1605232984635
 20
38.10267453265879
 30
0.0
 10
272.9502966560727
 20
38.13555741707999
 30
0.0
 10
272.6466466504901
 20
38.20420604323639
 30
0.0
 10
272.5473934797192
 20
38.23032815175929
 30
0.0
 10
272.3528479635736
 20
38.28927175095112
 30
0.0
 10
272.2575069988578
 20
38.32216103985817
 30
0.0
 10
271.9827854215776
 20
38.42913834758244
 30
0.0
 10
271.8127131853855
 20
38.51200462042905
 30
0.0
 10
271.4982943612143
 20
38.7007525334682
 30
0.0
 10
271.3529194473129
 20
38.80781050609323
 30
0.0
 10
271.0985641893066
 20
39.03798566255317
 30
0.0
 10
270.9884954594922
 20
39.16138771176624
 30
0.0
 10
270.8031035088883
 20
39.42402428801617
 30
0.0
 10
270.7276021784475
 20
39.56452586075245
 30
0.0
 10
270.6191984465118
 20
39.84967938914122
 30
0.0
 10
270.5852317612881
 20
39.99530946740361
 30
0.0
 10
270.5599872840711
 20
40.29114361192887
 30
0.0
 10
270.5694069033433
 20
40.44215931262917
 30
0.0
 10
270.6335900944836
 20
40.73273420099623
 30
0.0
 10
270.6879072659549
 20
40.87403676997076
 30
0.0
 10
270.8057464465548
 20
41.07816781592432
 30
0.0
 10
270.8514218374121
 20
41.14513495402655
 30
0.0
 10
270.9530004367263
 20
41.27250537969608
 30
0.0
 10
271.0091041507943
 20
41.33335665958678
 30
0.0
 10
271.1319203110829
 20
41.44927772580218
 30
0.0
 10
271.1986321053964
 20
41.5043479982014
 30
0.0
 10
271.34298056689
 20
41.6084604259086
 30
0.0
 10
271.4212273955756
 20
41.65781361900535
 30
0.0
 10
271.6681403303834
 20
41.7934933011396
 30
0.0
 10
271.8482379484409
 20
41.86765963908522
 30
0.0
 10
272.1408467506412
 20
41.95571160114415
 30
0.0
 10
272.242813519238
 20
41.98128102022276
 30
0.0
 10
272.4502220527635
 20
42.02376986104844
 30
0.0
 10
272.5557868423002
 20
42.04079840289839
 30
0.0
 10
272.7704782334034
 20
42.06701084653171
 30
0.0
 10
272.8796053756367
 20
42.07619317960256
 30
0.0
 10
273.1013855708895
 20
42.08705909106961
 30
0.0
 10
273.2144946634875
 20
42.0887109014756
 30
0.0
 10
273.553163345025
 20
42.08287258955681
 30
0.0
 10
273.7799802380792
 20
42.0648204232447
 30
0.0
 10
274.0064966202659
 20
42.03446088321866
 30
0.0
  0
ARC
  5
226
330
1F
100
AcDbEntity
  8
0
  6
Continuous
 62
     7
370
    15
100
AcDbCircle
 10
255.375722027
 20
25.763257963
 30
0.0
 40
5.489994305671954
100
AcDbArc
 50
223.087062204
 51
239.8824751174
  0
ARC
  5
227
330
1F
100
AcDbEntity
  8
0
  6
Continuous
 62
     7
370
    15
100
AcDbCircle
 10
265.8765121821
 20
43.9463380641
 30
0.0
 40
5.512633831803807
100
AcDbArc
 50
60.1577028758
 51
76.868733229
  0
LINE
  5
228
330
1F
100
AcDbEntity
  8
0
  6
Continuous
 62
     7
370
    15
100
AcDbLine
 10
285.7075260263
 20
23.8623345352
 30
0.0
 11
287.8823178974
 21
26.5677547721
 31
0.0
  0
SPLINE
  5
229
330
1F
100
AcDbEntity
  8
0
  6
Continuous
 62
     7
370
    15
100
AcDbSpline
210
0.0
220
0.0
230
1.0
 70
     8
 71
     3
 72
    20
 73
    16
 74
     0
 42
0.000000001
 43
0.00000001
 40
0.0
 40
0.0
 40
0.0
 40
0.0
 40
0.0469163091108915
 40
0.097706241442932
 40
0.1516689633031468
 40
0.2078463383218478
 40
0.2651938476233356
 40
0.3192095203174411
 40
0.37289530681237
 40
0.4259306594990902
 40
0.4781535685998744
 40
0.5793596734499616
 40
0.6698058354121611
 40
0.8327057026614743
 40
0.9074992363787322
 40
0.9074992363787322
 40
0.9074992363787322
 40
0.9074992363787322
 10
287.8823171155605
 20
26.56775497804012
 30
0.0
 10
287.9826484598999
 20
26.69256621656622
 30
0.0
 10
288.1817011469324
 20
26.96806826219778
 30
0.0
 10
288.4476602702823
 20
27.42763758387218
 30
0.0
 10
288.674074474607
 20
27.93767964240935
 30
0.0
 10
288.8391015532173
 20
28.47421558659503
 30
0.0
 10
288.9220362975096
 20
28.99527229935127
 30
0.0
 10
288.9169986397176
 20
29.46901940787507
 30
0.0
 10
288.8282651659976
 20
29.87169666901422
 30
0.0
 10
288.6609942163352
 20
30.19172541483606
 30
0.0
 10
288.3584129304902
 20
30.49903185216996
 30
0.0
 10
287.8574010532574
 20
30.61730179267218
 30
0.0
 10
287.1454624787243
 20
30.65619768483625
 30
0.0
 10
286.6447676804606
 20
30.70965445957983
 30
0.0
 10
285.9400537370138
 20
30.77289247764067
 30
0.0
 10
285.7071510304982
 20
30.79359073938802
 30
0.0
  0
SPLINE
  5
22A
330
1F
100
AcDbEntity
  8
0
  6
Continuous
 62
     7
370
    15
100
AcDbSpline
210
0.0
220
0.0
230
1.0
 70
     8
 71
     3
 72
    20
 73
    16
 74
     0
 42
0.000000001
 43
0.00000001
 40
0.0
 40
0.0
 40
0.0
 40
0.0
 40
0.0469163091108914
 40
0.0977062414429319
 40
0.1516689633031467
 40
0.2078463383218478
 40
0.2651938476233355
 40
0.319209520317441
 40
0.3728953068123702
 40
0.4259306594990902
 40
0.4781535685998745
 40
0.5793596734499618
 40
0.6698058354121612
 40
0.8327057026614744
 40
0.9074992363787328
 40
0.9074992363787328
 40
0.9074992363787328
 40
0.9074992363787328
 10
271.5127951310878
 20
17.11783108368992
 30
0.0
 10
271.4124637867483
 20
17.12680221776762
 30
0.0
 10
271.2134110997158
 20
17.17248292283629
 30
0.0
 10
270.9474519763659
 20
17.32498237685678
 30
0.0
 10
270.7210377720412
 20
17.57361215939743
 30
0.0
 10
270.5560106934309
 20
17.91961189429692
 30
0.0
 10
270.4730759491386
 20
18.34491418948332
 30
0.0
 10
270.4781136069305
 20
18.82447765388908
 30
0.0
 10
270.5668470806505
 20
19.32960440308665
 30
0.0
 10
270.7341180303131
 20
19.84276007656664
 30
0.0
 10
271.036699316158
 20
20.49941943035118
 30
0.0
 10
271.5377111933909
 20
21.19614537152429
 30
0.0
 10
272.249649767924
 20
22.05702804536361
 30
0.0
 10
272.7503445661876
 20
22.68857472919276
 30
0.0
 10
273.4550585096343
 20
23.56545814742786
 30
0.0
 10
273.68796121615
 20
23.85506015034109
 30
0.0
  0
LINE
  5
22B
330
1F
100
AcDbEntity
  8
0
  6
Continuous
 62
     7
370
    15
100
AcDbLine
 10
273.6875872741
 20
16.9233715935
 30
0.0
 11
271.512795403
 21
17.1178305833
 31
0.0
  0
SPLINE
  5
22C
330
1F
100
AcDbEntity
  8
0
  6
Continuous
 62
     7
370
    15
100
AcDbSpline
210
0.0
220
0.0
230
1.0
 70
     8
 71
     3
 72
    18
 73
    14
 74
     0
 42
0.000000001
 43
0.00000001
 40
0.0
 40
0.0
 40
0.0
 40
0.0
 40
0.2499999999999943
 40
0.2499999999999943
 40
0.4999999999999887
 40
0.4999999999999887
 40
0.6249999999999915
 40
0.6249999999999915
 40
0.7499999999999943
 40
0.7499999999999943
 40
0.8749999999999971
 40
0.8749999999999971
 40
1.0
 40
1.0
 40
1.0
 40
1.0
 10
285.7071510305083
 20
30.79359073942112
 30
0.0
 10
285.673450439751
 20
30.7965857396037
 30
0.0
 10
285.637286365225
 20
30.7982230812407
 30
0.0
 10
285.556998233208
 20
30.7971097737277
 30
0.0
 10
285.511924537633
 20
30.79437189213283
 30
0.0
 10
285.4375697491127
 20
30.78349902031896
 30
0.0
 10
285.4109193563124
 20
30.77857367775711
 30
0.0
 10
285.3573934058162
 20
30.76569328033044
 30
0.0
 10
285.3301893472735
 20
30.75758604573158
 30
0.0
 10
285.2808859986477
 20
30.73950801133683
 30
0.0
 10
285.2585609746602
 20
30.72951798460354
 30
0.0
 10
285.2201669536896
 20
30.70939880061858
 30
0.0
 10
285.2042968967614
 20
30.69948257059863
 30
0.0
 10
285.1904947247048
 20
30.68970776679343
 30
0.0
  0
SPLINE
  5
22D
330
1F
100
AcDbEntity
  8
0
  6
Continuous
 62
     7
370
    15
100
AcDbSpline
210
0.0
220
0.0
230
1.0
 70
     8
 71
     3
 72
    10
 73
     6
 74
     0
 42
0.000000001
 43
0.00000001
 40
0.0
 40
0.0
 40
0.0
 40
0.0
 40
0.5
 40
0.5
 40
1.0
 40
1.0
 40
1.0
 40
1.0
 10
285.1904947247049
 20
30.68970776679342
 30
0.0
 10
285.1460569306365
 20
30.7048621653986
 30
0.0
 10
285.1001603166537
 20
30.72187567892093
 30
0.0
 10
285.0123250452635
 20
30.75881296376645
 30
0.0
 10
284.9703945585187
 20
30.7788262667212
 30
0.0
 10
284.9359604530007
 20
30.79870465271341
 30
0.0
  0
LINE
  5
22E
330
1F
100
AcDbEntity
  8
0
  6
Continuous
 62
     7
370
    15
100
AcDbLine
 10
283.9762819912
 20
31.7754707839
 30
0.0
 11
283.8436369686
 21
31.8566985759
 31
0.0
  0
SPLINE
  5
22F
330
1F
100
AcDbEntity
  8
0
  6
Continuous
 62
     7
370
    15
100
AcDbSpline
210
0.0
220
0.0
230
1.0
 70
     8
 71
     3
 72
    11
 73
     7
 74
     0
 42
0.000000001
 43
0.00000001
 40
0.0
 40
0.0
 40
0.0
 40
0.0
 40
0.1177652397711745
 40
0.3321875635201113
 40
0.7098935577009443
 40
1.0
 40
1.0
 40
1.0
 40
1.0
 10
273.8963333708033
 20
24.1482963327877
 30
0.0
 10
273.8936095018615
 20
24.14151710233273
 30
0.0
 10
273.8859261193212
 20
24.12239451529641
 30
0.0
 10
273.8420340304511
 20
24.05516971446089
 30
0.0
 10
273.7725457043319
 20
23.96128432959163
 30
0.0
 10
273.7135782277378
 20
23.88723012656158
 30
0.0
 10
273.6879619859435
 20
23.85506001381018
 30
0.0
  0
SPLINE
  5
230
330
1F
100
AcDbEntity
  8
0
  6
Continuous
 62
     7
370
    15
100
AcDbSpline
210
0.0
220
0.0
230
1.0
 70
     8
 71
     3
 72
    11
 73
     7
 74
     0
 42
0.000000001
 43
0.00000001
 40
0.0
 40
0.0
 40
0.0
 40
0.0
 40
0.3136101060375228
 40
0.6271965109080995
 40
0.9408214721126649
 40
1.0
 40
1.0
 40
1.0
 40
1.0
 10
271.4244068762047
 20
17.44769374376409
 30
0.0
 10
271.2544006100596
 20
17.48954570019731
 30
0.0
 10
270.9144009260379
 20
17.57324645009105
 30
0.0
 10
270.6001735270948
 20
18.03693509818459
 30
0.0
 10
270.4524864723033
 20
18.48752199471135
 30
0.0
 10
270.4902208566976
 20
18.78971376619623
 30
0.0
 10
270.4962107827163
 20
18.83768344646854
 30
0.0
  0
LINE
  5
231
330
1F
100
AcDbEntity
  8
0
  6
Continuous
 62
     7
370
    15
100
AcDbLine
 10
282.4700165165
 20
32.2222636942
 30
0.0
 11
284.9359601342
 21
30.798704745
 31
0.0
  0
ARC
  5
232
330
1F
100
AcDbEntity
  8
0
  6
Continuous
 62
     7
370
    15
100
AcDbCircle
 10
269.2816525971
 20
30.9634281988
 30
0.0
 40
10.89839989557031
100
AcDbArc
 50
338.4829850489
 51
3.7781041737
  0
LINE
  5
233
330
1F
100
AcDbEntity
  8
0
  6
Continuous
 62
     7
370
    15
100
AcDbLine
 10
279.4205287077
 20
26.9661401807
 30
0.0
 11
284.9359601342
 21
23.7821493913
 31
0.0
  0
LINE
  5
234
330
1F
100
AcDbEntity
  8
0
  6
Continuous
 62
     7
370
    15
100
AcDbLine
 10
274.7118636942
 20
16.348955466
 30
0.0
 11
274.8443681176
 21
16.2678187527
 31
0.0
  0
LINE
  5
235
330
1F
100
AcDbEntity
  8
0
  6
Continuous
 62
     7
370
    15
100
AcDbLine
 10
270.5562180168
 20
19.1707242033
 30
0.0
 11
273.752044952
 21
17.3258125836
 31
0.0
  0
LINE
  5
236
330
1F
100
AcDbEntity
  8
0
  6
Continuous
 62
     7
370
    15
100
AcDbLine
 10
273.8510373625
 20
17.2307166308
 30
0.0
 11
271.4244068762
 21
17.4476937438
 31
0.0
  0
SPLINE
  5
237
330
1F
100
AcDbEntity
  8
0
  6
Continuous
 62
     7
370
    15
100
AcDbSpline
210
0.0
220
0.0
230
1.0
 70
     8
 71
     3
 72
    18
 73
    14
 74
     0
 42
0.000000001
 43
0.00000001
 40
0.0
 40
0.0
 40
0.0
 40
0.0
 40
0.2499999999999982
 40
0.2499999999999982
 40
0.4999999999999964
 40
0.4999999999999964
 40
0.6249999999999973
 40
0.6249999999999973
 40
0.7499999999999982
 40
0.7499999999999982
 40
0.8749999999999991
 40
0.8749999999999991
 40
1.0
 40
1.0
 40
1.0
 40
1.0
 10
273.6875868025779
 20
16.9233719362335
 30
0.0
 10
273.721109528661
 20
16.92037449936717
 30
0.0
 10
273.7541316367054
 20
16.92085035440714
 30
0.0
 10
273.8152359926798
 20
16.93330419990132
 30
0.0
 10
273.8442683232648
 20
16.94513762388607
 30
0.0
 10
273.8775692545469
 20
16.98028688384502
 30
0.0
 10
273.8868416982893
 20
16.99513961934506
 30
0.0
 10
273.8985214845225
 20
17.03174671682667
 30
0.0
 10
273.9008494511899
 20
17.05416529221648
 30
0.0
 10
273.8971075520168
 20
17.1025286548937
 30
0.0
 10
273.8911443784243
 20
17.12881605781989
 30
0.0
 10
273.8741683096634
 20
17.18040196706969
 30
0.0
 10
273.8631632133308
 20
17.20608111865538
 30
0.0
 10
273.8510369970162
 20
17.23071656824034
 30
0.0
  0
SPLINE
  5
238
330
1F
100
AcDbEntity
  8
0
  6
Continuous
 62
     7
370
    15
100
AcDbSpline
210
0.0
220
0.0
230
1.0
 70
     8
 71
     3
 72
    10
 73
     6
 74
     0
 42
0.000000001
 43
0.00000001
 40
0.0
 40
0.0
 40
0.0
 40
0.0
 40
0.5
 40
0.5
 40
1.0
 40
1.0
 40
1.0
 40
1.0
 10
273.7520450125414
 20
17.32581245691273
 30
0.0
 10
273.7864832536746
 20
17.30593168348067
 30
0.0
 10
273.8113225210553
 20
17.28736767257728
 30
0.0
 10
273.84260120069
 20
17.25556676827285
 30
0.0
 10
273.8496419678625
 20
17.24201695846209
 30
0.0
 10
273.8510369970162
 20
17.23071656824033
 30
0.0
  0
LWPOLYLINE
  5
239
330
1F
100
AcDbEntity
  8
0
  6
Continuous
 62
     7
370
    15
100
AcDbPolyline
 90
       19
 70
   128
 43
0.0
 10
259.8244338517
 20
47.6133391702
 10
259.3298588179
 20
47.2899408193
 10
258.3532789655
 20
46.5755909717
 10
257.3920456697
 20
45.7710213134
 10
256.4536813197
 20
44.8825295776
 10
255.5455306625
 20
43.9170683673
 10
254.6747007104
 20
42.8821952565
 10
253.848007399
 20
41.7860085353
 10
253.0719199403
 20
40.637086949
 10
252.3525127489
 20
39.4444231617
 10
251.6954163803
 20
38.217351327
 10
251.10577275
 20
36.965474088
 10
250.5881975965
 20
35.6985903362
 10
250.1467409685
 20
34.4266142267
 10
249.7848575905
 20
33.1595010351
 10
249.5053805209
 20
31.9071675022
 10
249.3104967861
 20
30.6794152189
 10
249.2017315752
 20
29.4858528711
 10
249.1781780723
 20
28.4497693543
  0
SPLINE
  5
23A
330
1F
100
AcDbEntity
  8
0
  6
Continuous
 62
     7
370
    15
100
AcDbSpline
210
0.0
220
0.0
230
1.0
 70
     8
 71
     3
 72
    10
 73
     6
 74
     0
 42
0.000000001
 43
0.00000001
 40
0.0
 40
0.0
 40
0.0
 40
0.0
 40
0.5
 40
0.5
 40
1.0
 40
1.0
 40
1.0
 40
1.0
 10
284.9359604530007
 20
23.78214941369362
 30
0.0
 10
284.9703986941338
 20
23.76226864026157
 30
0.0
 10
285.0125564446361
 20
23.75370237685619
 30
0.0
 10
285.1001781354893
 20
23.75442760059015
 30
0.0
 10
285.1461030728362
 20
23.76332514441566
 30
0.0
 10
285.1905218590388
 20
23.77686184046595
 30
0.0
  0
SPLINE
  5
23B
330
1F
100
AcDbEntity
  8
0
  6
Continuous
 62
     7
370
    15
100
AcDbSpline
210
0.0
220
0.0
230
1.0
 70
     8
 71
     3
 72
    16
 73
    12
 74
     0
 42
0.000000001
 43
0.00000001
 40
0.0
 40
0.0
 40
0.0
 40
0.0
 40
0.2499999999999873
 40
0.2499999999999873
 40
0.3749999999999833
 40
0.3749999999999833
 40
0.4999999999999792
 40
0.4999999999999792
 40
0.7499999999999897
 40
0.7499999999999897
 40
1.0
 40
1.0
 40
1.0
 40
1.0
 10
285.1905218590388
 20
23.77686184046597
 30
0.0
 10
285.2182465347156
 20
23.72901367237344
 30
0.0
 10
285.2557598023379
 20
23.68543291765034
 30
0.0
 10
285.3299807819641
 20
23.65177540997908
 30
0.0
 10
285.3567467869021
 20
23.64649125330832
 30
0.0
 10
285.4102746234054
 20
23.64727978699214
 30
0.0
 10
285.4368645255394
 20
23.65319038308612
 30
0.0
 10
285.511648232192
 20
23.68062391913494
 30
0.0
 10
285.55660132313
 20
23.71148214253117
 30
0.0
 10
285.637264541092
 20
23.78086563443625
 30
0.0
 10
285.6739799634809
 20
23.8206045549936
 30
0.0
 10
285.7075254441515
 20
23.86233481403754
 30
0.0
  0
SPLINE
  5
23C
330
1F
100
AcDbEntity
  8
0
  6
Continuous
 62
     7
370
    15
100
AcDbSpline
210
0.0
220
0.0
230
1.0
 70
     8
 71
     3
 72
    32
 73
    28
 74
     0
 42
0.000000001
 43
0.00000001
 40
0.0
 40
0.0
 40
0.0
 40
0.0
 40
0.1250000000000011
 40
0.1250000000000011
 40
0.1875000000000012
 40
0.1875000000000012
 40
0.2500000000000014
 40
0.2500000000000014
 40
0.3750000000000013
 40
0.3750000000000013
 40
0.4375000000000012
 40
0.4375000000000012
 40
0.500000000000001
 40
0.500000000000001
 40
0.6250000000000008
 40
0.6250000000000008
 40
0.6875000000000007
 40
0.6875000000000007
 40
0.7500000000000006
 40
0.7500000000000006
 40
0.8125000000000004
 40
0.8125000000000004
 40
0.8750000000000002
 40
0.8750000000000002
 40
0.9375000000000001
 40
0.9375000000000001
 40
1.0
 40
1.0
 40
1.0
 40
1.0
 10
287.6171520726135
 20
26.79556675661188
 30
0.0
 10
287.7573714596916
 20
26.96999834109631
 30
0.0
 10
287.8842079212587
 20
27.15577008372216
 30
0.0
 10
288.053087552967
 20
27.45206554211758
 30
0.0
 10
288.105805064337
 20
27.55416473395194
 30
0.0
 10
288.2012367507927
 20
27.75852156631732
 30
0.0
 10
288.2443482280969
 20
27.86146899727028
 30
0.0
 10
288.3599871564112
 20
28.17260764056174
 30
0.0
 10
288.4189110525333
 20
28.38542084191747
 30
0.0
 10
288.4756511113414
 20
28.6913776010389
 30
0.0
 10
288.4895561209913
 20
28.79176578451698
 30
0.0
 10
288.5074492471329
 20
28.98918997521781
 30
0.0
 10
288.5114145881559
 20
29.08682919408692
 30
0.0
 10
288.5082026889181
 20
29.36680481739252
 30
0.0
 10
288.4865952136269
 20
29.53815161167767
 30
0.0
 10
288.4254342349822
 20
29.77133402683496
 30
0.0
 10
288.4004323371893
 20
29.84408450504378
 30
0.0
 10
288.3419861616876
 20
29.97775670306665
 30
0.0
 10
288.3083820121311
 20
30.03910901652165
 30
0.0
 10
288.231850604836
 20
30.15111926532216
 30
0.0
 10
288.1886036561832
 20
30.20206006981024
 30
0.0
 10
288.0956008782861
 20
30.29013186369214
 30
0.0
 10
288.0463941842566
 20
30.3270629938474
 30
0.0
 10
287.9408705043331
 20
30.38816761604877
 30
0.0
 10
287.8843501777891
 20
30.41246032151414
 30
0.0
 10
287.7601863786462
 20
30.45011768688813
 30
0.0
 10
287.6925484072769
 20
30.46338539550071
 30
0.0
 10
287.6190601048375
 20
30.471619721918
 30
0.0
  0
SPLINE
  5
23D
330
1F
100
AcDbEntity
  8
0
  6
Continuous
 62
     7
370
    15
100
AcDbSpline
210
0.0
220
0.0
230
1.0
 70
     8
 71
     3
 72
    14
 73
    10
 74
     0
 42
0.000000001
 43
0.00000001
 40
0.0
 40
0.0
 40
0.0
 40
0.0
 40
0.25
 40
0.25
 40
0.5
 40
0.5
 40
0.75
 40
0.75
 40
1.0
 40
1.0
 40
1.0
 40
1.0
 10
287.6190601048374
 20
30.47161972191786
 30
0.0
 10
287.4070692320017
 20
30.49537318997292
 30
0.0
 10
287.2108911157898
 20
30.50996500342992
 30
0.0
 10
286.8109443917349
 20
30.54353633258842
 30
0.0
 10
286.6083222712746
 20
30.56184413615203
 30
0.0
 10
286.2021886052952
 20
30.59897748524252
 30
0.0
 10
285.9989879434959
 20
30.61762151915108
 30
0.0
 10
285.5944750111955
 20
30.65381849324882
 30
0.0
 10
285.3926520224644
 20
30.67166663737178
 30
0.0
 10
285.1904947247049
 20
30.68970776679345
 30
0.0
  0
LINE
  5
23E
330
1F
100
AcDbEntity
  8
0
  6
Continuous
 62
     7
370
    15
100
AcDbLine
 10
260.2756770685
 20
50.0793131993
 30
0.0
 11
260.3699523247
 21
50.0264449578
 31
0.0
  0
SPLINE
  5
23F
330
1F
100
AcDbEntity
  8
0
  6
Continuous
 62
     7
370
    15
100
AcDbSpline
210
0.0
220
0.0
230
1.0
 70
     8
 71
     3
 72
    10
 73
     6
 74
     0
 42
0.000000001
 43
0.00000001
 40
0.0
 40
0.0
 40
0.0
 40
0.0
 40
0.5
 40
0.5
 40
1.0
 40
1.0
 40
1.0
 40
1.0
 10
243.0657912480751
 20
36.61303278606783
 30
0.0
 10
243.0092625622925
 20
36.58039947038521
 30
0.0
 10
242.9306192397178
 20
36.56002649492624
 30
0.0
 10
242.7703893253867
 20
36.55696509496489
 30
0.0
 10
242.689222312846
 20
36.57462429484513
 30
0.0
 10
242.6321084125082
 20
36.60759544769945
 30
0.0
  0
SPLINE
  5
240
330
1F
100
AcDbEntity
  8
0
  6
Continuous
 62
     7
370
    15
100
AcDbSpline
210
0.0
220
0.0
230
1.0
 70
     8
 71
     3
 72
    12
 73
     8
 74
     0
 42
0.000000001
 43
0.00000001
 40
0.0
 40
0.0
 40
0.0
 40
0.0
 40
0.250000000000002
 40
0.250000000000002
 40
0.500000000000004
 40
0.500000000000004
 40
1.0
 40
1.0
 40
1.0
 40
1.0
 10
260.3228303188529
 20
53.13155732595455
 30
0.0
 10
260.3547346471977
 20
53.11313934923879
 30
0.0
 10
260.3868719836386
 20
53.08322480860673
 30
0.0
 10
260.4415302900648
 20
53.01282738866382
 30
0.0
 10
260.4645036293952
 20
52.97244669198799
 30
0.0
 10
260.5181854183328
 20
52.84992286195261
 30
0.0
 10
260.5349623532089
 20
52.76512154034693
 30
0.0
 10
260.5349623532089
 20
52.69156894471332
 30
0.0
  0
LINE
  5
241
330
1F
100
AcDbEntity
  8
0
  6
Continuous
 62
     7
370
    15
100
AcDbLine
 10
242.6321086857
 20
36.6075951577
 30
0.0
 11
241.2327200455
 21
37.4154450241
 31
0.0
  0
LWPOLYLINE
  5
242
330
1F
100
AcDbEntity
  8
0
  6
Continuous
 62
     7
370
    15
100
AcDbPolyline
 90
       23
 70
   128
 43
0.0
 10
241.2327200455
 20
37.4154450241
 10
241.5586831133
 20
38.6871110555
 10
241.9669504152
 20
39.9684428321
 10
242.4542740097
 20
41.2492474143
 10
243.0167783623
 20
42.5193376245
 10
243.6499880045
 20
43.7686096123
 10
244.3488670465
 20
44.9871257409
 10
245.1078547385
 20
46.1651929116
 10
245.9209148614
 20
47.2934412671
 10
246.7815791913
 20
48.3628949102
 10
247.6830018285
 20
49.3650466148
 10
248.618011882
 20
50.2919255014
 10
249.5791720794
 20
51.1361582492
 10
250.5588365543
 20
51.891029833
 10
251.5492124614
 20
52.5505343014
 10
252.5424217974
 20
53.109425675
 10
253.5305639215
 20
53.5632601223
 10
254.5057784465
 20
53.9084254215
 10
255.4603080885
 20
54.142176483
 10
256.3865598293
 20
54.2626546875
 10
257.277165873
 20
54.2689002617
 10
258.1250412685
 20
54.1608650107
 10
258.9234421907
 20
53.9394071792
  0
LINE
  5
243
330
1F
100
AcDbEntity
  8
0
  6
Continuous
 62
     7
370
    15
100
AcDbLine
 10
258.9234421907
 20
53.9394071792
 30
0.0
 11
260.3228308309
 21
53.1315573128
 31
0.0
  0
LINE
  5
244
330
1F
100
AcDbEntity
  8
0
  6
Continuous
 62
     7
370
    15
100
AcDbLine
 10
244.1831179793
 20
35.8945874106
 30
0.0
 11
244.1831179793
 21
37.2580517467
 31
0.0
  0
LINE
  5
245
330
1F
100
AcDbEntity
  8
0
  6
Continuous
 62
     7
370
    15
100
AcDbLine
 10
244.1831179793
 20
37.2580517467
 30
0.0
 11
243.0657911958
 21
36.6130327242
 31
0.0
  0
LINE
  5
246
330
1F
100
AcDbEntity
  8
0
  6
Continuous
 62
     7
370
    15
100
AcDbLine
 10
260.5349625049
 20
52.6915688261
 30
0.0
 11
260.5349625049
 21
51.1275050257
 31
0.0
  0
LINE
  5
247
330
1F
100
AcDbEntity
  8
0
  6
Continuous
 62
     7
370
    15
100
AcDbLine
 10
261.8894081167
 20
51.9094098341
 30
0.0
 11
260.5349625049
 21
51.1275050257
 31
0.0
  0
ARC
  5
248
330
1F
100
AcDbEntity
  8
0
  6
Continuous
 62
     7
370
    15
100
AcDbCircle
 10
278.6643209873
 20
32.7402044925
 30
0.0
 40
4.207112173370848
100
AcDbArc
 50
320.8074228647
 51
350.2233370837
  0
SPLINE
  5
249
330
1F
100
AcDbEntity
  8
0
  6
Continuous
 62
     7
370
    15
100
AcDbSpline
210
0.0
220
0.0
230
1.0
 70
     8
 71
     3
 72
    20
 73
    16
 74
     0
 42
0.000000001
 43
0.00000001
 40
0.0
 40
0.0
 40
0.0
 40
0.0
 40
0.25
 40
0.25
 40
0.375
 40
0.375
 40
0.4375000000000001
 40
0.4375000000000001
 40
0.4687500000000001
 40
0.4687500000000001
 40
0.5
 40
0.5
 40
0.75
 40
0.75
 40
1.0
 40
1.0
 40
1.0
 40
1.0
 10
244.18311803827
 20
31.27264897508014
 30
0.0
 10
244.18311803827
 20
31.66503115160067
 30
0.0
 10
244.20356381758
 20
32.04520778606668
 30
0.0
 10
244.2307373932994
 20
32.61755920788485
 30
0.0
 10
244.2393177730934
 20
32.80862805625244
 30
0.0
 10
244.2481741508372
 20
33.09762768591413
 30
0.0
 10
244.2504659577597
 20
33.19435508724327
 30
0.0
 10
244.2526601914472
 20
33.34018850905174
 30
0.0
 10
244.2531859332757
 20
33.38892242836994
 30
0.0
 10
244.2538056657743
 20
33.48664801002722
 30
0.0
 10
244.2538947738224
 20
33.53589306303761
 30
0.0
 10
244.2528561679055
 20
33.96255575492034
 30
0.0
 10
244.2373429276335
 20
34.34981210130304
 30
0.0
 10
244.2022054487111
 20
35.12649436400467
 30
0.0
 10
244.18311803827
 20
35.51564822062245
 30
0.0
 10
244.18311803827
 20
35.89458734281076
 30
0.0
  0
LINE
  5
24A
330
1F
100
AcDbEntity
  8
0
  6
Continuous
 62
     7
370
    15
100
AcDbLine
 10
285.1905218309
 20
23.7768616758
 30
0.0
 11
287.6171523171
 21
26.7955667117
 31
0.0
  0
LINE
  5
24B
330
1F
100
AcDbEntity
  8
0
  6
Continuous
 62
     7
370
    15
100
AcDbLine
 10
279.4205287077
 20
26.9661401807
 30
0.0
 11
281.924943837
 21
30.0816087219
 31
0.0
  0
LWPOLYLINE
  5
24C
330
1F
100
AcDbEntity
  8
0
  6
Continuous
 62
     7
370
    15
100
AcDbPolyline
 90
       20
 70
   128
 43
0.0
 10
240.3089375173
 20
39.0464268167
 10
240.6576394684
 20
40.3040951553
 10
241.0921932329
 20
41.5679942757
 10
241.6086192263
 20
42.8265480248
 10
242.2021864647
 20
44.0682278488
 10
242.8674586634
 20
45.2816619154
 10
243.59834231
 20
46.4557362512
 10
244.3881432995
 20
47.5796966377
 10
245.2296278498
 20
48.6432491775
 10
246.115088356
 20
49.6366523037
 10
247.0364145132
 20
50.550806508
 10
247.9851675674
 20
51.3773390303
 10
248.9526581061
 20
52.1086799452
 10
249.9300244562
 20
52.7381302338
 10
250.9083146001
 20
53.2599258035
 10
251.8785683093
 20
53.669285663
 10
252.8318985772
 20
53.9624612135
 10
253.7595737619
 20
54.1367676996
 10
254.6530971578
 20
54.1906073305
 10
255.4240035176
 20
54.1352582772
  0
SPLINE
  5
24D
330
1F
100
AcDbEntity
  8
0
  6
Continuous
 62
     7
370
    15
100
AcDbSpline
210
0.0
220
0.0
230
1.0
 70
     8
 71
     3
 72
     8
 73
     4
 74
     0
 42
0.000000001
 43
0.00000001
 40
0.0
 40
0.0
 40
0.0
 40
0.0
 40
1.0
 40
1.0
 40
1.0
 40
1.0
 10
240.3089375571172
 20
39.04642701754611
 30
0.0
 10
239.8176365280646
 20
38.96377979734222
 30
0.0
 10
239.3260564371619
 20
38.88169600985178
 30
0.0
 10
238.83426163841
 20
38.80004572277003
 30
0.0
  0
LWPOLYLINE
  5
24E
330
1F
100
AcDbEntity
  8
0
  6
Continuous
 62
     7
370
    15
100
AcDbPolyline
 90
       23
 70
   128
 43
0.0
 10
238.834261764
 20
38.800045518
 10
239.1602248319
 20
40.0717115493
 10
239.5684921338
 20
41.353043326
 10
240.0558157282
 20
42.6338479082
 10
240.6183200808
 20
43.9039381184
 10
241.251529723
 20
45.1532101062
 10
241.950408765
 20
46.3717262348
 10
242.709396457
 20
47.5497934055
 10
243.52245658
 20
48.6780417609
 10
244.3831209098
 20
49.7474954041
 10
245.284543547
 20
50.7496471087
 10
246.2195536005
 20
51.6765259952
 10
247.1807137979
 20
52.5207587431
 10
248.1603782728
 20
53.2756303269
 10
249.1507541799
 20
53.9351347953
 10
250.1439635159
 20
54.4940261689
 10
251.13210564
 20
54.9478606161
 10
252.107320165
 20
55.2930259154
 10
253.061849807
 20
55.5267769769
 10
253.9881015478
 20
55.6472551814
 10
254.8787075915
 20
55.6535007556
 10
255.726582987
 20
55.5454655045
 10
256.5249839092
 20
55.324007673
  0
LINE
  5
24F
330
1F
100
AcDbEntity
  8
0
  6
Continuous
 62
     7
370
    15
100
AcDbLine
 10
256.5249839092
 20
55.324007673
 30
0.0
 11
256.8543174079
 21
54.259974183
 31
0.0
  0
LINE
  5
250
330
1F
100
AcDbEntity
  8
0
  6
Continuous
 62
     7
370
    15
100
AcDbLine
 10
253.1103414026
 20
57.2952388333
 30
0.0
 11
256.5249839092
 21
55.324007673
 31
0.0
  0
LINE
  5
251
330
1F
100
AcDbEntity
  8
0
  6
Continuous
 62
     7
370
    15
100
AcDbLine
 10
238.834261764
 20
38.800045518
 30
0.0
 11
238.2480465164
 21
39.138460377
 31
0.0
  0
SPLINE
  5
252
330
1F
100
AcDbEntity
  8
0
  6
Continuous
 62
     7
370
    15
100
AcDbSpline
210
0.0
220
0.0
230
1.0
 70
     8
 71
     3
 72
    28
 73
    24
 74
     0
 42
0.000000001
 43
0.00000001
 40
0.0
 40
0.0
 40
0.0
 40
0.0
 40
0.1249999999999999
 40
0.1249999999999999
 40
0.1874999999999998
 40
0.1874999999999998
 40
0.2499999999999997
 40
0.2499999999999997
 40
0.3749999999999993
 40
0.3749999999999993
 40
0.4374999999999993
 40
0.4374999999999993
 40
0.4999999999999992
 40
0.4999999999999992
 40
0.6249999999999992
 40
0.6249999999999992
 40
0.7499999999999992
 40
0.7499999999999992
 40
0.8124999999999993
 40
0.8124999999999993
 40
0.8749999999999996
 40
0.8749999999999996
 40
1.0
 40
1.0
 40
1.0
 40
1.0
 10
238.2480463691516
 20
39.13846059434984
 30
0.0
 10
238.0600592886852
 20
39.24698322593392
 30
0.0
 10
237.8698393340845
 20
39.32892694648183
 30
0.0
 10
237.5817407321365
 20
39.4140846765203
 30
0.0
 10
237.4852508615369
 20
39.43613460692409
 30
0.0
 10
237.291512688702
 20
39.46740843038306
 30
0.0
 10
237.1942616681707
 20
39.47653568170648
 30
0.0
 10
236.9082397932853
 20
39.48431852381488
 30
0.0
 10
236.7228979769287
 20
39.46401198017782
 30
0.0
 10
236.4543853901129
 20
39.39679132704468
 30
0.0
 10
236.3660247304472
 20
39.36800496943909
 30
0.0
 10
236.1956720201575
 20
39.29899307934394
 30
0.0
 10
236.113644990376
 20
39.25885318943381
 30
0.0
 10
235.8772087366234
 20
39.12223342167059
 30
0.0
 10
235.7323414865011
 20
39.00971893198152
 30
0.0
 10
235.471484693017
 20
38.74146196698207
 30
0.0
 10
235.3591922855146
 20
38.58930858060477
 30
0.0
 10
235.2199678040608
 20
38.33739219290646
 30
0.0
 10
235.178372017695
 20
38.2493499072301
 30
0.0
 10
235.1052473026338
 20
38.06500885217827
 30
0.0
 10
235.0736228185809
 20
37.96822008949649
 30
0.0
 10
234.9961295151587
 20
37.67020501059968
 30
0.0
 10
234.9669547997688
 20
37.46073213346315
 30
0.0
 10
234.9609879170271
 20
37.24035134077928
 30
0.0
  0
ARC
  5
253
330
1F
100
AcDbEntity
  8
0
  6
Continuous
 62
     7
370
    15
100
AcDbCircle
 10
249.8055377548
 20
36.8320808716
 30
0.0
 40
14.85016324623415
100
AcDbArc
 50
178.4245883564
 51
181.5754116436
  0
SPLINE
  5
254
330
1F
100
AcDbEntity
  8
0
  6
Continuous
 62
     7
370
    15
100
AcDbSpline
210
0.0
220
0.0
230
1.0
 70
     8
 71
     3
 72
    30
 73
    26
 74
     0
 42
0.000000001
 43
0.00000001
 40
0.0
 40
0.0
 40
0.0
 40
0.0
 40
0.125
 40
0.125
 40
0.1875000000000001
 40
0.1875000000000001
 40
0.2500000000000001
 40
0.2500000000000001
 40
0.3750000000000001
 40
0.3750000000000001
 40
0.4375000000000001
 40
0.4375000000000001
 40
0.5000000000000001
 40
0.5000000000000001
 40
0.6250000000000002
 40
0.6250000000000002
 40
0.6875000000000001
 40
0.6875000000000001
 40
0.75
 40
0.75
 40
0.8124999999999999
 40
0.8124999999999999
 40
0.8749999999999998
 40
0.8749999999999998
 40
1.0
 40
1.0
 40
1.0
 40
1.0
 10
234.9609879170271
 20
36.42381052889354
 30
0.0
 10
234.9669555157186
 20
36.21029333611882
 30
0.0
 10
234.996100735718
 20
35.99274343809969
 30
0.0
 10
235.0725353969769
 20
35.6604444085641
 30
0.0
 10
235.1035013805542
 20
35.54867010726453
 30
0.0
 10
235.1764713213699
 20
35.32296823372954
 30
0.0
 10
235.2186075199285
 20
35.20888046115703
 30
0.0
 10
235.3584993092929
 20
34.87071773379584
 30
0.0
 10
235.4703432338351
 20
34.64820751452307
 30
0.0
 10
235.6641298309797
 20
34.31759725857349
 30
0.0
 10
235.7334704685829
 20
34.20737061886734
 30
0.0
 10
235.8789628530296
 20
33.99064061841381
 30
0.0
 10
235.9548501437487
 20
33.88444368278308
 30
0.0
 10
236.1912380922201
 20
33.57180550953348
 30
0.0
 10
236.360383594471
 20
33.37126296169831
 30
0.0
 10
236.6302495918051
 20
33.08115812227597
 30
0.0
 10
236.7224410978559
 20
32.98681470590353
 30
0.0
 10
236.9080396928906
 20
32.80550967784313
 30
0.0
 10
237.0018685731775
 20
32.71809034434898
 30
0.0
 10
237.1913186236428
 20
32.54948279402433
 30
0.0
 10
237.2869400388485
 20
32.46829460825499
 30
0.0
 10
237.4798017282749
 20
32.31213192870684
 30
0.0
 10
237.5775366371733
 20
32.23680494901014
 30
0.0
 10
237.8687925922937
 20
32.0235147155663
 30
0.0
 10
238.0600499832668
 20
31.89812129086587
 30
0.0
 10
238.2480463691516
 20
31.7895932873781
 30
0.0
  0
LINE
  5
255
330
1F
100
AcDbEntity
  8
0
  6
Continuous
 62
     7
370
    15
100
AcDbLine
 10
238.2480465164
 20
31.7895933864
 30
0.0
 11
238.834261764
 21
31.4511785274
 31
0.0
  0
ARC
  5
256
330
1F
100
AcDbEntity
  8
0
  6
Continuous
 62
     7
370
    15
100
AcDbCircle
 10
244.625613599
 20
32.8142912511
 30
0.0
 40
5.949607749634532
100
AcDbArc
 50
193.2446605253
 51
253.3775175081
  0
LINE
  5
257
330
1F
100
AcDbEntity
  8
0
  6
Continuous
 62
     7
370
    15
100
AcDbLine
 10
258.1544014876
 20
54.3830591406
 30
0.0
 11
258.4887135827
 21
54.0757304201
 31
0.0
  0
LINE
  5
258
330
1F
100
AcDbEntity
  8
0
  6
Continuous
 62
     7
370
    15
100
AcDbLine
 10
257.3014727508
 20
54.8754444196
 30
0.0
 11
258.1544014876
 21
54.3830591406
 31
0.0
  0
SPLINE
  5
259
330
1F
100
AcDbEntity
  8
0
  6
Continuous
 62
     7
370
    15
100
AcDbSpline
210
0.0
220
0.0
230
1.0
 70
     8
 71
     3
 72
    20
 73
    16
 74
     0
 42
0.000000001
 43
0.00000001
 40
0.0
 40
0.0
 40
0.0
 40
0.0
 40
0.2499999999999995
 40
0.2499999999999995
 40
0.3749999999999996
 40
0.3749999999999996
 40
0.4999999999999997
 40
0.4999999999999997
 40
0.6249999999999998
 40
0.6249999999999998
 40
0.7499999999999998
 40
0.7499999999999998
 40
0.8749999999999999
 40
0.8749999999999999
 40
1.0
 40
1.0
 40
1.0
 40
1.0
 10
253.1103411507501
 20
57.29523869625029
 30
0.0
 10
253.4293298051481
 20
57.1613483069905
 30
0.0
 10
253.7557854052461
 20
57.00145195992851
 30
0.0
 10
254.2681355226292
 20
56.72353303245899
 30
0.0
 10
254.4427388893071
 20
56.62453401964869
 30
0.0
 10
254.8026127516559
 20
56.41359331474999
 30
0.0
 10
254.9854731680095
 20
56.30303749753995
 30
0.0
 10
255.3517682571867
 20
56.07761962852911
 30
0.0
 10
255.5362517734453
 20
55.96213902714965
 30
0.0
 10
255.9098365976808
 20
55.72730668285388
 30
0.0
 10
256.09418606892
 20
55.61097675757862
 30
0.0
 10
256.4548959753965
 20
55.38528207077925
 30
0.0
 10
256.6319499646503
 20
55.27547209668256
 30
0.0
 10
256.9796793160027
 20
55.06407733314665
 30
0.0
 10
257.1449297324609
 20
54.96581449800363
 30
0.0
 10
257.3014726472424
 20
54.87544419688626
 30
0.0
  0
LINE
  5
25A
330
1F
100
AcDbEntity
  8
0
  6
Continuous
 62
     7
370
    15
100
AcDbLine
 10
241.4435524112
 20
38.2721681505
 30
0.0
 11
240.9799245652
 21
38.5398148089
 31
0.0
  0
LINE
  5
25B
330
1F
100
AcDbEntity
  8
0
  6
Continuous
 62
     7
370
    15
100
AcDbLine
 10
240.5541063936
 20
39.1879597964
 30
0.0
 11
240.3089375173
 21
39.0464268167
 31
0.0
  0
SPLINE
  5
25C
330
1F
100
AcDbEntity
  8
0
  6
Continuous
 62
     7
370
    15
100
AcDbSpline
210
0.0
220
0.0
230
1.0
 70
     8
 71
     3
 72
    14
 73
    10
 74
     0
 42
0.000000001
 43
0.00000001
 40
0.0
 40
0.0
 40
0.0
 40
0.0
 40
0.125000000000001
 40
0.125000000000001
 40
0.250000000000002
 40
0.250000000000002
 40
0.5000000000000013
 40
0.5000000000000013
 40
1.0
 40
1.0
 40
1.0
 40
1.0
 10
240.9799243194949
 20
38.53981487672395
 30
0.0
 10
240.9554065509003
 20
38.55396868326135
 30
0.0
 10
240.9323555580663
 20
38.5814026613868
 30
0.0
 10
240.8954519406057
 20
38.63928660444745
 30
0.0
 10
240.880283661871
 20
38.67057370241671
 30
0.0
 10
240.8405705447742
 20
38.76355759613136
 30
0.0
 10
240.8210460203943
 20
38.8257885508722
 30
0.0
 10
240.7701140456911
 20
39.01233876321172
 30
0.0
 10
240.7481652048359
 20
39.13241509517886
 30
0.0
 10
240.7316148645604
 20
39.25056218283811
 30
0.0
  0
SPLINE
  5
25D
330
1F
100
AcDbEntity
  8
0
  6
Continuous
 62
     7
370
    15
100
AcDbSpline
210
0.0
220
0.0
230
1.0
 70
     8
 71
     3
 72
    10
 73
     6
 74
     0
 42
0.000000001
 43
0.00000001
 40
0.0
 40
0.0
 40
0.0
 40
0.0
 40
0.5
 40
0.5
 40
1.0
 40
1.0
 40
1.0
 40
1.0
 10
240.7316148645604
 20
39.25056218283812
 30
0.0
 10
240.6982248463726
 20
39.24441241363789
 30
0.0
 10
240.6659854949445
 20
39.23586580578981
 30
0.0
 10
240.6059976006822
 20
39.21462983202089
 30
0.0
 10
240.5787357274332
 20
39.2021781860127
 30
0.0
 10
240.5541061614833
 20
39.18795984023583
 30
0.0
  0
LWPOLYLINE
  5
25E
330
1F
100
AcDbEntity
  8
0
  6
Continuous
 62
     7
370
    15
100
AcDbPolyline
 90
       22
 70
   128
 43
0.0
 10
233.3113515768
 20
37.900376223
 10
233.3545171936
 20
39.0510841821
 10
233.4836762109
 20
40.2426243516
 10
233.6978184213
 20
41.4656713648
 10
233.995267829
 20
42.7106535276
 10
234.3736958207
 20
43.9678266772
 10
234.8301409217
 20
45.2273522226
 10
235.3610305281
 20
46.4793718581
 10
235.9622105411
 20
47.714087409
 10
236.6289756602
 20
48.9218357348
 10
237.3561069201
 20
50.0931636307
 10
238.1379144964
 20
51.2189050109
 10
238.9682788641
 20
52.2902495364
 10
239.8407015061
 20
53.2988106719
 10
240.748354633
 20
54.2366969741
 10
241.6841346896
 20
55.0965673155
 10
242.6407178381
 20
55.8716925721
 10
243.610617415
 20
56.5560062833
 10
244.5862428306
 20
57.1441515814
 10
245.5599583848
 20
57.6315273129
 10
246.5241434417
 20
58.0143174536
 10
246.5263447914
 20
58.0150749532
  0
LINE
  5
25F
330
1F
100
AcDbEntity
  8
0
  6
Continuous
 62
     7
370
    15
100
AcDbLine
 10
239.586924136
 20
32.5625109842
 30
0.0
 11
240.7316150901
 21
31.9016949622
 31
0.0
  0
ARC
  5
260
330
1F
100
AcDbEntity
  8
0
  6
Continuous
 62
     7
370
    15
100
AcDbCircle
 10
242.8993601662
 20
37.7409333165
 30
0.0
 40
6.147218094902255
100
AcDbArc
 50
182.6054747885
 51
237.394528727
  0
LINE
  5
261
330
1F
100
AcDbEntity
  8
0
  6
Continuous
 62
     7
370
    15
100
AcDbLine
 10
236.7584968769
 20
38.278031206
 30
0.0
 11
236.7584968769
 21
37.4614903554
 31
0.0
  0
ARC
  5
262
330
1F
100
AcDbEntity
  8
0
  6
Continuous
 62
     7
370
    15
100
AcDbCircle
 10
239.3094796122
 20
38.3711850617
 30
0.0
 40
2.552683011378448
100
AcDbArc
 50
154.4507885565
 51
182.0913321738
  0
LINE
  5
263
330
1F
100
AcDbEntity
  8
0
  6
Continuous
 62
     7
370
    15
100
AcDbLine
 10
244.1831179793
 20
29.9091847561
 30
0.0
 11
244.1831179793
 21
31.2726490922
 31
0.0
  0
LINE
  5
264
330
1F
100
AcDbEntity
  8
0
  6
Continuous
 62
     7
370
    15
100
AcDbLine
 10
242.0131222878
 20
31.1618966041
 30
0.0
 11
244.1831179793
 21
29.9091847561
 31
0.0
  0
SPLINE
  5
265
330
1F
100
AcDbEntity
  8
0
  6
Continuous
 62
     7
370
    15
100
AcDbSpline
210
0.0
220
0.0
230
1.0
 70
     8
 71
     3
 72
    14
 73
    10
 74
     0
 42
0.000000001
 43
0.00000001
 40
0.0
 40
0.0
 40
0.0
 40
0.0
 40
0.1249999999999983
 40
0.1249999999999983
 40
0.2499999999999966
 40
0.2499999999999966
 40
0.4999999999999968
 40
0.4999999999999968
 40
1.0
 40
1.0
 40
1.0
 40
1.0
 10
241.764812846612
 20
31.87264368566223
 30
0.0
 10
241.7892421952558
 20
31.85854092287591
 30
0.0
 10
241.8122207493219
 20
31.83125879301624
 30
0.0
 10
241.8491038628136
 20
31.77350538950974
 30
0.0
 10
241.8642290091305
 20
31.74235780783913
 30
0.0
 10
241.9039463695897
 20
31.64952070628315
 30
0.0
 10
241.9234084874788
 20
31.58757023646639
 30
0.0
 10
241.9742766086728
 20
31.40165553096889
 30
0.0
 10
241.996560836088
 20
31.2801228859956
 30
0.0
 10
242.0131223015465
 20
31.16189637954806
 30
0.0
  0
LINE
  5
266
330
1F
100
AcDbEntity
  8
0
  6
Continuous
 62
     7
370
    15
100
AcDbLine
 10
240.9799245652
 20
32.3257500886
 30
0.0
 11
241.7648128127
 21
31.872643748
 31
0.0
  0
SPLINE
  5
267
330
1F
100
AcDbEntity
  8
0
  6
Continuous
 62
     7
370
    15
100
AcDbSpline
210
0.0
220
0.0
230
1.0
 70
     8
 71
     3
 72
    14
 73
    10
 74
     0
 42
0.000000001
 43
0.00000001
 40
0.0
 40
0.0
 40
0.0
 40
0.0
 40
0.5000000000000033
 40
0.5000000000000033
 40
0.7500000000000034
 40
0.7500000000000034
 40
0.8750000000000017
 40
0.8750000000000017
 40
1.0
 40
1.0
 40
1.0
 40
1.0
 10
240.7316148645604
 20
31.90169487586617
 30
0.0
 10
240.7483048783941
 20
32.00156916437932
 30
0.0
 10
240.7706989513668
 20
32.09724052607776
 30
0.0
 10
240.8212793976523
 20
32.22364374331749
 30
0.0
 10
240.8411069017023
 20
32.26368919555356
 30
0.0
 10
240.8805052474947
 20
32.31022021951055
 30
0.0
 10
240.8953349704549
 20
32.32375750045494
 30
0.0
 10
240.9324568188849
 20
32.3391283144927
 30
0.0
 10
240.9556371711404
 20
32.33977086003036
 30
0.0
 10
240.9799243194949
 20
32.32575018772373
 30
0.0
  0
LINE
  5
268
330
1F
100
AcDbEntity
  8
0
  6
Continuous
 62
     7
370
    15
100
AcDbLine
 10
243.0657911958
 20
29.2641657336
 30
0.0
 11
244.1831179793
 21
29.9091847561
 31
0.0
  0
ARC
  5
269
330
1F
100
AcDbEntity
  8
0
  6
Continuous
 62
     7
370
    15
100
AcDbCircle
 10
248.2325081203
 20
30.3082131782
 30
0.0
 40
5.592138400761695
100
AcDbArc
 50
209.2926356064
 51
270.6304063638
  0
SPLINE
  5
26A
330
1F
100
AcDbEntity
  8
0
  6
Continuous
 62
     7
370
    15
100
AcDbSpline
210
0.0
220
0.0
230
1.0
 70
     8
 71
     3
 72
    12
 73
     8
 74
     0
 42
0.000000001
 43
0.00000001
 40
0.0
 40
0.0
 40
0.0
 40
0.0
 40
0.249999999999998
 40
0.249999999999998
 40
0.499999999999996
 40
0.499999999999996
 40
1.0
 40
1.0
 40
1.0
 40
1.0
 10
242.6321084125082
 20
29.2587281407277
 30
0.0
 10
242.6603506125805
 20
29.24242426566368
 30
0.0
 10
242.6948967444859
 20
29.22946847225367
 30
0.0
 10
242.7696208041836
 20
29.21275673406113
 30
0.0
 10
242.8099111954853
 20
29.20886982527368
 30
0.0
 10
242.9310242129216
 20
29.21113322316298
 30
0.0
 10
243.0091417753395
 20
29.23146243458973
 30
0.0
 10
243.0657912480751
 20
29.26416547909608
 30
0.0
  0
ARC
  5
26B
330
1F
100
AcDbEntity
  8
0
  6
Continuous
 62
     7
370
    15
100
AcDbCircle
 10
247.3734903939
 20
31.6517488318
 30
0.0
 40
6.342068032718572
100
AcDbArc
 50
194.4742818894
 51
238.1951738406
  0
LINE
  5
26C
330
1F
100
AcDbEntity
  8
0
  6
Continuous
 62
     7
370
    15
100
AcDbLine
 10
241.2327200455
 20
30.0665780335
 30
0.0
 11
242.6321086857
 21
29.2587281671
 31
0.0
  0
SPLINE
  5
26D
330
1F
100
AcDbEntity
  8
0
  6
Continuous
 62
     7
370
    15
100
AcDbSpline
210
0.0
220
0.0
230
1.0
 70
     8
 71
     3
 72
     8
 73
     4
 74
     0
 42
0.000000001
 43
0.00000001
 40
0.0
 40
0.0
 40
0.0
 40
0.0
 40
1.0
 40
1.0
 40
1.0
 40
1.0
 10
241.6595115091835
 20
30.91788996378368
 30
0.0
 10
241.5163468124929
 20
30.63426791677667
 30
0.0
 10
241.3741581156404
 20
30.35048477079265
 30
0.0
 10
241.2327203448852
 20
30.06657767660557
 30
0.0
  0
LINE
  5
26E
330
1F
100
AcDbEntity
  8
0
  6
Continuous
 62
     7
370
    15
100
AcDbLine
 10
241.9046804222
 20
31.0594230148
 30
0.0
 11
241.6595115459
 21
30.9178900351
 31
0.0
  0
SPLINE
  5
26F
330
1F
100
AcDbEntity
  8
0
  6
Continuous
 62
     7
370
    15
100
AcDbSpline
210
0.0
220
0.0
230
1.0
 70
     8
 71
     3
 72
    10
 73
     6
 74
     0
 42
0.000000001
 43
0.00000001
 40
0.0
 40
0.0
 40
0.0
 40
0.0
 40
0.5
 40
0.5
 40
1.0
 40
1.0
 40
1.0
 40
1.0
 10
242.0131223015465
 20
31.16189637954805
 30
0.0
 10
242.0024694345765
 20
31.14262073234194
 30
0.0
 10
241.9876646714244
 20
31.12400935091689
 30
0.0
 10
241.9508789000935
 20
31.08937907668538
 30
0.0
 10
241.9293096794995
 20
31.07364113225029
 30
0.0
 10
241.9046801135497
 20
31.05942278647344
 30
0.0
  0
SPLINE
  5
270
330
1F
100
AcDbEntity
  8
0
  6
Continuous
 62
     7
370
    15
100
AcDbSpline
210
0.0
220
0.0
230
1.0
 70
     8
 71
     3
 72
    14
 73
    10
 74
     0
 42
0.000000001
 43
0.00000001
 40
0.0
 40
0.0
 40
0.0
 40
0.0
 40
0.5000000000000002
 40
0.5000000000000002
 40
0.7500000000000002
 40
0.7500000000000002
 40
0.8750000000000001
 40
0.8750000000000001
 40
1.0
 40
1.0
 40
1.0
 40
1.0
 10
226.0918130448678
 20
42.55695572668487
 30
0.0
 10
226.4069789887077
 20
42.32986773578901
 30
0.0
 10
226.7232546439736
 20
42.10002136074088
 30
0.0
 10
227.2020791325446
 20
41.74471275875176
 30
0.0
 10
227.3623991429687
 20
41.62457444455622
 30
0.0
 10
227.6054516789224
 20
41.4383056103124
 30
0.0
 10
227.686895116939
 20
41.3752123690854
 30
0.0
 10
227.8515565659723
 20
41.24486712667326
 30
0.0
 10
227.9344625840386
 20
41.17834268469601
 30
0.0
 10
228.0204814121233
 20
41.10454921337246
 30
0.0
  0
SPLINE
  5
271
330
1F
100
AcDbEntity
  8
0
  6
Continuous
 62
     7
370
    15
100
AcDbSpline
210
0.0
220
0.0
230
1.0
 70
     8
 71
     3
 72
     8
 73
     4
 74
     0
 42
0.000000001
 43
0.00000001
 40
0.0
 40
0.0
 40
0.0
 40
0.0
 40
1.0
 40
1.0
 40
1.0
 40
1.0
 10
228.0204814121233
 20
41.10454921337245
 30
0.0
 10
228.3221338853608
 20
40.84576885529062
 30
0.0
 10
228.6274134288842
 20
40.59819383988595
 30
0.0
 10
228.9320730020109
 20
40.35722098331942
 30
0.0
  0
SPLINE
  5
272
330
1F
100
AcDbEntity
  8
0
  6
Continuous
 62
     7
370
    15
100
AcDbSpline
210
0.0
220
0.0
230
1.0
 70
     8
 71
     3
 72
    14
 73
    10
 74
     0
 42
0.000000001
 43
0.00000001
 40
0.0
 40
0.0
 40
0.0
 40
0.0
 40
0.1250000000000022
 40
0.1250000000000022
 40
0.2500000000000044
 40
0.2500000000000044
 40
0.500000000000003
 40
0.500000000000003
 40
1.0
 40
1.0
 40
1.0
 40
1.0
 10
228.9320730020109
 20
40.35722098331938
 30
0.0
 10
228.9512683779365
 20
40.34203825158318
 30
0.0
 10
228.9688804513369
 20
40.33067043308639
 30
0.0
 10
228.9947253812561
 20
40.31940196387394
 30
0.0
 10
229.0028637455038
 20
40.3190184936369
 30
0.0
 10
229.0198138364719
 20
40.32479428633128
 30
0.0
 10
229.0219831089816
 20
40.33745971194931
 30
0.0
 10
229.020807561167
 20
40.38189653899309
 30
0.0
 10
229.0087340405628
 20
40.42237980976653
 30
0.0
 10
228.9939558125228
 20
40.46638347964902
 30
0.0
  0
SPLINE
  5
273
330
1F
100
AcDbEntity
  8
0
  6
Continuous
 62
     7
370
    15
100
AcDbSpline
210
0.0
220
0.0
230
1.0
 70
     8
 71
     3
 72
    14
 73
    10
 74
     0
 42
0.000000001
 43
0.00000001
 40
0.0
 40
0.0
 40
0.0
 40
0.0
 40
0.25
 40
0.25
 40
0.5
 40
0.5
 40
0.75
 40
0.75
 40
1.0
 40
1.0
 40
1.0
 40
1.0
 10
228.9939558125221
 20
40.46638347964972
 30
0.0
 10
228.9758995655755
 20
40.5201477826365
 30
0.0
 10
228.9729767674743
 20
40.56469839173354
 30
0.0
 10
228.967563038931
 20
40.65695974157826
 30
0.0
 10
228.9659957608899
 20
40.70425414449851
 30
0.0
 10
228.9558573610827
 20
40.8090151993263
 30
0.0
 10
228.9475423633385
 20
40.86627640636131
 30
0.0
 10
228.9187421886797
 20
40.99589776373573
 30
0.0
 10
228.8980887920091
 20
41.06869196334878
 30
0.0
 10
228.8693992748481
 20
41.14837866230853
 30
0.0
  0
ARC
  5
274
330
1F
100
AcDbEntity
  8
0
  6
Continuous
 62
     7
370
    15
100
AcDbCircle
 10
239.2243696032
 20
44.234940129
 30
0.0
 40
10.80519673566385
100
AcDbArc
 50
163.4019784234
 51
196.5980215766
  0
SPLINE
  5
275
330
1F
100
AcDbEntity
  8
0
  6
Continuous
 62
     7
370
    15
100
AcDbSpline
210
0.0
220
0.0
230
1.0
 70
     8
 71
     3
 72
    14
 73
    10
 74
     0
 42
0.000000001
 43
0.00000001
 40
0.0
 40
0.0
 40
0.0
 40
0.0
 40
0.25
 40
0.25
 40
0.5
 40
0.5
 40
0.75
 40
0.75
 40
1.0
 40
1.0
 40
1.0
 40
1.0
 10
228.9939558125221
 20
48.78270667457272
 30
0.0
 10
228.9758995655755
 20
48.66186459562815
 30
0.0
 10
228.9729767674743
 20
48.53677032906205
 30
0.0
 10
228.967563038931
 20
48.28881901841068
 30
0.0
 10
228.9659957608899
 20
48.16491039409693
 30
0.0
 10
228.9558573610827
 20
47.91875465485673
 30
0.0
 10
228.9475423633385
 20
47.79646671299531
 30
0.0
 10
228.9187421886797
 20
47.55446953578654
 30
0.0
 10
228.8980887920091
 20
47.43431256860694
 30
0.0
 10
228.8693992748481
 20
47.32150165820166
 30
0.0
  0
SPLINE
  5
276
330
1F
100
AcDbEntity
  8
0
  6
Continuous
 62
     7
370
    15
100
AcDbSpline
210
0.0
220
0.0
230
1.0
 70
     8
 71
     3
 72
    14
 73
    10
 74
     0
 42
0.000000001
 43
0.00000001
 40
0.0
 40
0.0
 40
0.0
 40
0.0
 40
0.125
 40
0.125
 40
0.25
 40
0.25
 40
0.5
 40
0.5
 40
1.0
 40
1.0
 40
1.0
 40
1.0
 10
228.932073002011
 20
49.32799223886673
 30
0.0
 10
228.9512683779365
 20
49.32570543089291
 30
0.0
 10
228.968880451337
 20
49.31420719162008
 30
0.0
 10
228.9947253812562
 20
49.27751568909357
 30
0.0
 10
229.0028637455038
 20
49.25443427399149
 30
0.0
 10
229.0198138364719
 20
49.1831017549144
 30
0.0
 10
229.0219831089816
 20
49.13185764930633
 30
0.0
 10
229.020807561167
 20
48.98182216954474
 30
0.0
 10
229.0087340405628
 20
48.88161049466166
 30
0.0
 10
228.9939558125228
 20
48.78270667457303
 30
0.0
  0
SPLINE
  5
277
330
1F
100
AcDbEntity
  8
0
  6
Continuous
 62
     7
370
    15
100
AcDbSpline
210
0.0
220
0.0
230
1.0
 70
     8
 71
     3
 72
     8
 73
     4
 74
     0
 42
0.000000001
 43
0.00000001
 40
0.0
 40
0.0
 40
0.0
 40
0.0
 40
1.0
 40
1.0
 40
1.0
 40
1.0
 10
228.0204814121233
 20
49.38020505000282
 30
0.0
 10
228.3221338853608
 20
49.38755129714593
 30
0.0
 10
228.6274134288843
 20
49.36428733117598
 30
0.0
 10
228.932073002011
 20
49.32799223886673
 30
0.0
  0
SPLINE
  5
278
330
1F
100
AcDbEntity
  8
0
  6
Continuous
 62
     7
370
    15
100
AcDbSpline
210
0.0
220
0.0
230
1.0
 70
     8
 71
     3
 72
    14
 73
    10
 74
     0
 42
0.000000001
 43
0.00000001
 40
0.0
 40
0.0
 40
0.0
 40
0.0
 40
0.5000000000000002
 40
0.5000000000000002
 40
0.7500000000000002
 40
0.7500000000000002
 40
0.8750000000000001
 40
0.8750000000000001
 40
1.0
 40
1.0
 40
1.0
 40
1.0
 10
226.0918130448678
 20
50.01284439498781
 30
0.0
 10
226.4069789887077
 20
49.87545990126169
 30
0.0
 10
226.7232546439736
 20
49.74388639363053
 30
0.0
 10
227.2020791325446
 20
49.56899092710977
 30
0.0
 10
227.3623991429687
 20
49.51431977684526
 30
0.0
 10
227.6054516789224
 20
49.44528796112521
 30
0.0
 10
227.686895116939
 20
49.42442567661641
 30
0.0
 10
227.8515565659723
 20
49.39161796318677
 30
0.0
 10
227.9344625840386
 20
49.37811020369413
 30
0.0
 10
228.0204814121233
 20
49.38020505000282
 30
0.0
  0
SPLINE
  5
279
330
1F
100
AcDbEntity
  8
0
  6
Continuous
 62
     7
370
    15
100
AcDbSpline
210
0.0
220
0.0
230
1.0
 70
     8
 71
     3
 72
     8
 73
     4
 74
     0
 42
0.000000001
 43
0.00000001
 40
0.0000005163856711
 40
0.0000005163856711
 40
0.0000005163856711
 40
0.0000005163856711
 40
0.000026289209185
 40
0.000026289209185
 40
0.000026289209185
 40
0.000026289209185
 10
226.0917914578485
 20
50.02572350619329
 30
0.0
 10
226.0917891566892
 20
50.021430671162
 30
0.0
 10
226.0917964030135
 20
50.0171376034817
 30
0.0
 10
226.0918130448678
 20
50.01284439498781
 30
0.0
  0
LINE
  5
27A
330
1F
100
AcDbEntity
  8
0
  6
Continuous
 62
     7
370
    15
100
AcDbLine
 10
238.8802699883
 20
60.5576182915
 30
0.0
 11
238.9559670453
 21
60.5209401471
 31
0.0
  0
SPLINE
  5
27B
330
1F
100
AcDbEntity
  8
0
  6
Continuous
 62
     7
370
    15
100
AcDbSpline
210
0.0
220
0.0
230
1.0
 70
     8
 71
     3
 72
     8
 73
     4
 74
     0
 42
0.000000001
 43
0.00000001
 40
0.0000005163856715
 40
0.0000005163856715
 40
0.0000005163856715
 40
0.0000005163856715
 40
0.0000262892091854
 40
0.0000262892091854
 40
0.0000262892091854
 40
0.0000262892091854
 10
226.0917914578485
 20
42.55225245431398
 30
0.0
 10
226.0917891566892
 20
42.55382584001345
 30
0.0
 10
226.0917964030135
 20
42.55539356994736
 30
0.0
 10
226.0918130448678
 20
42.55695572668487
 30
0.0
  0
SPLINE
  5
27C
330
1F
100
AcDbEntity
  8
0
  6
Continuous
 62
     7
370
    15
100
AcDbSpline
210
0.0
220
0.0
230
1.0
 70
     8
 71
     3
 72
    18
 73
    14
 74
     0
 42
0.000000001
 43
0.00000001
 40
0.0
 40
0.0
 40
0.0
 40
0.0
 40
0.1239695152552984
 40
0.2486160343086151
 40
0.3732397908054267
 40
0.4971544460465762
 40
0.6200119787858762
 40
0.6818105660868384
 40
0.7428096058416713
 40
0.8037211843588634
 40
0.8659112758922359
 40
0.9892046432299976
 40
1.0
 40
1.0
 40
1.0
 40
1.0
 10
231.780660027645
 20
40.67928135799198
 30
0.0
 10
231.6476131493065
 20
40.92421611015654
 30
0.0
 10
231.3807928168922
 20
41.41542321556557
 30
0.0
 10
231.2560974698127
 20
42.16744429201233
 30
0.0
 10
231.3919238268016
 20
42.79213124487781
 30
0.0
 10
231.7590004179192
 20
43.20899675363142
 30
0.0
 10
232.2016381512285
 20
43.30297922517025
 30
0.0
 10
232.5778677211736
 20
43.22103722792709
 30
0.0
 10
232.8600785715471
 20
43.07875737682199
 30
0.0
 10
233.1325060065529
 20
42.86208702979634
 30
0.0
 10
233.4585213809928
 20
42.48420384169128
 30
0.0
 10
233.7098755819487
 20
42.11029200041654
 30
0.0
 10
233.7995188274482
 20
41.82469900112459
 30
0.0
 10
233.806735920635
 20
41.80170617798539
 30
0.0
  0
SPLINE
  5
27D
330
1F
100
AcDbEntity
  8
0
  6
Continuous
 62
     7
370
    15
100
AcDbSpline
210
0.0
220
0.0
230
1.0
 70
     8
 71
     3
 72
    13
 73
     9
 74
     0
 42
0.000000001
 43
0.00000001
 40
0.0
 40
0.0
 40
0.0
 40
0.0
 40
0.0386296514070581
 40
0.2001909284161664
 40
0.359089001296935
 40
0.5181057012375543
 40
0.6794178501870664
 40
1.0
 40
1.0
 40
1.0
 40
1.0
 10
233.4179049013417
 20
39.34982718150722
 30
0.0
 10
233.4018257073422
 20
39.34680213836656
 30
0.0
 10
233.3184982980157
 20
39.33112541924619
 30
0.0
 10
233.1195028310032
 20
39.4168805030171
 30
0.0
 10
232.8524048097806
 20
39.55279801789792
 30
0.0
 10
232.5693019741914
 20
39.76403594164671
 30
0.0
 10
232.1896651617217
 20
40.11197538238613
 30
0.0
 10
231.944053913409
 20
40.4526477046501
 30
0.0
 10
231.780660027645
 20
40.67928135799198
 30
0.0
  0
ARC
  5
27E
330
1F
100
AcDbEntity
  8
0
  6
Continuous
 62
     7
370
    15
100
AcDbCircle
 10
246.550482688
 20
33.7282998643
 30
0.0
 40
6.563595906304721
100
AcDbArc
 50
198.0227400511
 51
217.4462887124
  0
SPLINE
  5
27F
330
1F
100
AcDbEntity
  8
0
  6
Continuous
 62
     7
370
    15
100
AcDbSpline
210
0.0
220
0.0
230
1.0
 70
     8
 71
     3
 72
     8
 73
     4
 74
     0
 42
0.000000001
 43
0.00000001
 40
0.0
 40
0.0
 40
0.0
 40
0.0
 40
1.0
 40
1.0
 40
1.0
 40
1.0
 10
238.83426163841
 20
31.45117841579828
 30
0.0
 10
239.3260564371619
 20
31.53282870288003
 30
0.0
 10
239.8176365280646
 20
31.61491249037047
 30
0.0
 10
240.3089375571172
 20
31.69755971057436
 30
0.0
  0
SPLINE
  5
280
330
1F
100
AcDbEntity
  8
0
  6
Continuous
 62
     7
370
    15
100
AcDbSpline
210
0.0
220
0.0
230
1.0
 70
     8
 71
     3
 72
    10
 73
     6
 74
     0
 42
0.000000001
 43
0.00000001
 40
0.0
 40
0.0
 40
0.0
 40
0.0
 40
0.5
 40
0.5
 40
1.0
 40
1.0
 40
1.0
 40
1.0
 10
240.5541061614834
 20
31.83909253326413
 30
0.0
 10
240.5789384648353
 20
31.85342791685198
 30
0.0
 10
240.6066134623287
 20
31.86602335698808
 30
0.0
 10
240.6667384717832
 20
31.88722125512836
 30
0.0
 10
240.698432871978
 20
31.89558342079501
 30
0.0
 10
240.7316148645597
 20
31.90169487586625
 30
0.0
  0
LINE
  5
281
330
1F
100
AcDbEntity
  8
0
  6
Continuous
 62
     7
370
    15
100
AcDbLine
 10
240.3089375173
 20
31.6975598261
 30
0.0
 11
240.5541063936
 21
31.8390928057
 31
0.0
  0
SPLINE
  5
282
330
1F
100
AcDbEntity
  8
0
  6
Continuous
 62
     7
370
    15
100
AcDbSpline
210
0.0
220
0.0
230
1.0
 70
     8
 71
     3
 72
    12
 73
     8
 74
     0
 42
0.000000001
 43
0.00000001
 40
0.0
 40
0.0
 40
0.0
 40
0.0
 40
0.0824816069528843
 40
0.3398874549635278
 40
0.5964513948960489
 40
0.8565434601470046
 40
0.9999999999999999
 40
0.9999999999999999
 40
0.9999999999999999
 40
0.9999999999999999
 10
232.8001326948456
 20
43.00073169600402
 30
0.0
 10
232.7864015233463
 20
42.9534896999374
 30
0.0
 10
232.7298185698008
 20
42.75881645818482
 30
0.0
 10
232.8079196154958
 20
42.32469831061758
 30
0.0
 10
233.031360897503
 20
41.77658395958156
 30
0.0
 10
233.3358182142382
 20
41.31727855095919
 30
0.0
 10
233.5644241045586
 20
41.10105195633979
 30
0.0
 10
233.6456906722052
 20
41.02418607526381
 30
0.0
  0
LINE
  5
283
330
1F
100
AcDbEntity
  8
0
  6
Continuous
 62
     7
370
    15
100
AcDbLine
 10
260.4578515529
 20
52.9774101737
 30
0.0
 11
260.552859769
 21
52.9984586467
 31
0.0
  0
LINE
  5
284
330
1F
100
AcDbEntity
  8
0
  6
Continuous
 62
     7
370
    15
100
AcDbLine
 10
260.552859769
 20
52.9984586467
 30
0.0
 11
261.9522484092
 21
52.1906087803
 31
0.0
  0
SPLINE
  5
285
330
1F
100
AcDbEntity
  8
0
  6
Continuous
 62
     7
370
    15
100
AcDbSpline
210
0.0
220
0.0
230
1.0
 70
     8
 71
     3
 72
    12
 73
     8
 74
     0
 42
0.000000001
 43
0.00000001
 40
0.0
 40
0.0
 40
0.0
 40
0.0
 40
0.2499999999999987
 40
0.2499999999999987
 40
0.4999999999999973
 40
0.4999999999999973
 40
1.0
 40
1.0
 40
1.0
 40
1.0
 10
261.9522481751752
 20
52.19060863294254
 30
0.0
 10
261.9844921460477
 20
52.17199458476892
 30
0.0
 10
262.0065451485813
 20
52.14774426197152
 30
0.0
 10
262.0273940927464
 20
52.09715640408398
 30
0.0
 10
262.0270129235191
 20
52.07031783564992
 30
0.0
 10
262.0012599906217
 20
51.9930837193811
 30
0.0
 10
261.9533085635131
 20
51.94629834855327
 30
0.0
 10
261.8894085143778
 20
51.90940963538581
 30
0.0
  0
SPLINE
  5
286
330
1F
100
AcDbEntity
  8
0
  6
Continuous
 62
     7
370
    15
100
AcDbSpline
210
0.0
220
0.0
230
1.0
 70
     8
 71
     3
 72
    12
 73
     8
 74
     0
 42
0.000000001
 43
0.00000001
 40
0.0
 40
0.0
 40
0.0
 40
0.0
 40
0.1943374576828103
 40
0.3735890620577228
 40
0.6860460834262655
 40
0.9656130502879839
 40
1.0
 40
1.0
 40
1.0
 40
1.0
 10
232.071929324442
 20
40.86220451625327
 30
0.0
 10
232.1514828601885
 20
40.74780472050851
 30
0.0
 10
232.3044144213875
 20
40.52788565343069
 30
0.0
 10
232.6292746304894
 20
40.1739383208107
 30
0.0
 10
233.0137824918221
 20
39.87047442654222
 30
0.0
 10
233.3063711220952
 20
39.70495259508832
 30
0.0
 10
233.429204646431
 20
39.68836718763296
 30
0.0
 10
233.4426584369439
 20
39.68655061028828
 30
0.0
  0
SPLINE
  5
287
330
1F
100
AcDbEntity
  8
0
  6
Continuous
 62
     7
370
    15
100
AcDbSpline
210
0.0
220
0.0
230
1.0
 70
     8
 71
     3
 72
    16
 73
    12
 74
     0
 42
0.000000001
 43
0.00000001
 40
0.0
 40
0.0
 40
0.0
 40
0.0
 40
0.1460145305940865
 40
0.2335492376918717
 40
0.3282846220578448
 40
0.4359414424096519
 40
0.5278790444194154
 40
0.6640995049404618
 40
0.8013222617505614
 40
0.8930413283347031
 40
1.0
 40
1.0
 40
1.0
 40
1.0
 10
233.0115366771647
 20
42.9441735236375
 30
0.0
 10
232.8646757906355
 20
43.01764431699007
 30
0.0
 10
232.6297728124451
 20
43.13516034577361
 30
0.0
 10
232.3129228530725
 20
43.12519076702621
 30
0.0
 10
232.0597930592807
 20
43.03745529101359
 30
0.0
 10
231.851069401674
 20
42.85566277624457
 30
0.0
 10
231.6880390728292
 20
42.56379787247146
 30
0.0
 10
231.6110114414292
 20
42.15391425825068
 30
0.0
 10
231.686409771838
 20
41.68934477372772
 30
0.0
 10
231.8451534700054
 20
41.24740076179894
 30
0.0
 10
231.9925682163755
 20
40.99700546737529
 30
0.0
 10
232.071929324442
 20
40.86220451625327
 30
0.0
  0
SPLINE
  5
288
330
1F
100
AcDbEntity
  8
0
  6
Continuous
 62
     7
370
    15
100
AcDbSpline
210
0.0
220
0.0
230
1.0
 70
     8
 71
     3
 72
     9
 73
     5
 74
     0
 42
0.000000001
 43
0.00000001
 40
0.0
 40
0.0
 40
0.0
 40
0.0
 40
0.9264632945584099
 40
1.0
 40
1.0
 40
1.0
 40
1.0
 10
258.1544014875598
 20
54.38305914055703
 30
0.0
 10
258.1029477843726
 20
54.30440222730243
 30
0.0
 10
258.0474100167251
 20
54.2195020335046
 30
0.0
 10
257.9893322264963
 20
54.13517431611309
 30
0.0
 10
257.9850613771436
 20
54.12897313359871
 30
0.0
  0
LINE
  5
289
330
1F
100
AcDbEntity
  8
0
  6
Continuous
 62
     7
370
    15
100
AcDbLine
 10
227.9315684651
 20
44.7319369469
 30
0.0
 11
228.4319516557
 21
44.4430718796
 31
0.0
  0
SPLINE
  5
28A
330
1F
100
AcDbEntity
  8
0
  6
Continuous
 62
     7
370
    15
100
AcDbSpline
210
0.0
220
0.0
230
1.0
 70
     8
 71
     3
 72
     9
 73
     5
 74
     0
 42
0.000000001
 43
0.00000001
 40
0.0
 40
0.0
 40
0.0
 40
0.0
 40
0.7009339503679092
 40
0.9999999999999999
 40
0.9999999999999999
 40
0.9999999999999999
 40
0.9999999999999999
 10
226.105757767953
 20
50.48931554022306
 30
0.0
 10
226.1026858794341
 20
50.54331952457706
 30
0.0
 10
226.0983033145472
 20
50.62036527806875
 30
0.0
 10
226.1227136386237
 20
50.70999801848303
 30
0.0
 10
226.1300139378155
 20
50.73680412807642
 30
0.0
  0
SPLINE
  5
28B
330
1F
100
AcDbEntity
  8
0
  6
Continuous
 62
     7
370
    15
100
AcDbSpline
210
0.0
220
0.0
230
1.0
 70
     8
 71
     3
 72
    10
 73
     6
 74
     0
 42
0.000000001
 43
0.00000001
 40
0.0
 40
0.0
 40
0.0
 40
0.0
 40
0.5
 40
0.5
 40
1.0
 40
1.0
 40
1.0
 40
1.0
 10
226.1462503950666
 20
50.54166568530065
 30
0.0
 10
226.1263243445704
 20
50.45770521128494
 30
0.0
 10
226.1130300804297
 20
50.37225934877355
 30
0.0
 10
226.0957615542889
 20
50.19984587784108
 30
0.0
 10
226.0918380996667
 20
50.11273427157719
 30
0.0
 10
226.0917914578485
 20
50.02572350619329
 30
0.0
  0
SPLINE
  5
28C
330
1F
100
AcDbEntity
  8
0
  6
Continuous
 62
     7
370
    15
100
AcDbSpline
210
0.0
220
0.0
230
1.0
 70
     8
 71
     3
 72
    24
 73
    20
 74
     0
 42
0.000000001
 43
0.00000001
 40
0.0
 40
0.0
 40
0.0
 40
0.0
 40
0.249999999999999
 40
0.249999999999999
 40
0.3749999999999983
 40
0.3749999999999983
 40
0.4374999999999987
 40
0.4374999999999987
 40
0.4687499999999975
 40
0.4687499999999975
 40
0.4999999999999963
 40
0.4999999999999963
 40
0.5624999999999984
 40
0.5624999999999984
 40
0.6250000000000006
 40
0.6250000000000006
 40
0.7500000000000001
 40
0.7500000000000001
 40
1.0
 40
1.0
 40
1.0
 40
1.0
 10
226.1300139920983
 20
50.73680403601689
 30
0.0
 10
226.1598550213834
 20
50.84408309257314
 30
0.0
 10
226.1896845614245
 20
50.94996766594382
 30
0.0
 10
226.2343557182958
 20
51.09991570919411
 30
0.0
 10
226.2493085103876
 20
51.14891597195705
 30
0.0
 10
226.2708916486769
 20
51.2120662538598
 30
0.0
 10
226.2780213602066
 20
51.2317064380883
 30
0.0
 10
226.286872985508
 20
51.2494163675763
 30
0.0
 10
226.2895110827778
 20
51.25313273406199
 30
0.0
 10
226.2926636208229
 20
51.25098438567978
 30
0.0
 10
226.2930435819596
 20
51.24482197661318
 30
0.0
 10
226.2910336566988
 20
51.21617689326044
 30
0.0
 10
226.2864570151004
 20
51.18787588827225
 30
0.0
 10
226.276525628994
 20
51.13149687812297
 30
0.0
 10
226.2708354432591
 20
51.10202713016692
 30
0.0
 10
226.2532538426404
 20
51.01417270960059
 30
0.0
 10
226.2405729697122
 20
50.95494771655126
 30
0.0
 10
226.2013319060918
 20
50.77645440942148
 30
0.0
 10
226.1740284460553
 20
50.65871137524777
 30
0.0
 10
226.1462503950666
 20
50.54166568530067
 30
0.0
  0
ARC
  5
28D
330
1F
100
AcDbEntity
  8
0
  6
Continuous
 62
     7
370
    15
100
AcDbCircle
 10
226.8089284224
 20
49.9470568543
 30
0.0
 40
0.7201273031244325
100
AcDbArc
 50
174.7584203609
 51
234.4349513408
  0
ARC
  5
28E
330
1F
100
AcDbEntity
  8
0
  6
Continuous
 62
     7
370
    15
100
AcDbCircle
 10
228.3042631899
 20
42.4471591181
 30
0.0
 40
2.215173511102273
100
AcDbArc
 50
122.6235856257
 51
177.1589283586
  0
LINE
  5
28F
330
1F
100
AcDbEntity
  8
0
  6
Continuous
 62
     7
370
    15
100
AcDbLine
 10
227.1100243132
 20
44.3128459057
 30
0.0
 11
227.8541111186
 21
44.7423980752
 31
0.0
  0
SPLINE
  5
290
330
1F
100
AcDbEntity
  8
0
  6
Continuous
 62
     7
370
    15
100
AcDbSpline
210
0.0
220
0.0
230
1.0
 70
     8
 71
     3
 72
     8
 73
     4
 74
     0
 42
0.000000001
 43
0.00000001
 40
0.0
 40
0.0
 40
0.0
 40
0.0
 40
0.0001590976953043
 40
0.0001590976953043
 40
0.0001590976953043
 40
0.0001590976953043
 10
227.9315688911544
 20
44.73193692929491
 30
0.0
 10
227.9057487615949
 20
44.73542147875579
 30
0.0
 10
227.8799296170487
 20
44.73890846149229
 30
0.0
 10
227.8541114373986
 20
44.74239782261068
 30
0.0
  0
ARC
  5
291
330
1F
100
AcDbEntity
  8
0
  6
Continuous
 62
     7
370
    15
100
AcDbCircle
 10
227.4388831399
 20
42.941817875
 30
0.0
 40
1.353479563765729
100
AcDbArc
 50
122.9135810547
 51
170.975405912
  0
LINE
  5
292
330
1F
100
AcDbEntity
  8
0
  6
Continuous
 62
     7
370
    15
100
AcDbLine
 10
227.1100243132
 20
44.3128459057
 30
0.0
 11
226.7034382754
 21
44.0780519094
 31
0.0
  0
SPLINE
  5
293
330
1F
100
AcDbEntity
  8
0
  6
Continuous
 62
     7
370
    15
100
AcDbSpline
210
0.0
220
0.0
230
1.0
 70
     8
 71
     3
 72
    10
 73
     6
 74
     0
 42
0.000000001
 43
0.00000001
 40
0.0
 40
0.0
 40
0.0
 40
0.0
 40
0.5
 40
0.5
 40
1.0
 40
1.0
 40
1.0
 40
1.0
 10
226.1462503950666
 20
42.35701006959668
 30
0.0
 10
226.1263243445704
 20
42.3955316311123
 30
0.0
 10
226.1130300804297
 20
42.42749495830539
 30
0.0
 10
226.0957615542889
 20
42.48993838180223
 30
0.0
 10
226.0918380996667
 20
42.52036175901443
 30
0.0
 10
226.0917914578485
 20
42.55225245431397
 30
0.0
  0
LINE
  5
294
330
1F
100
AcDbEntity
  8
0
  6
Continuous
 62
     7
370
    15
100
AcDbLine
 10
226.1021581637
 20
43.1541225323
 30
0.0
 11
226.105757768
 21
43.0184862716
 31
0.0
  0
LINE
  5
295
330
1F
100
AcDbEntity
  8
0
  6
Continuous
 62
     7
370
    15
100
AcDbLine
 10
226.2013988454
 20
42.2613049109
 30
0.0
 11
226.1462503527
 21
42.3570102473
 31
0.0
  0
LWPOLYLINE
  5
296
330
1F
100
AcDbEntity
  8
0
  6
Continuous
 62
     7
370
    15
100
AcDbPolyline
 90
       30
 70
   128
 43
0.0
 10
272.078479867
 20
39.0760869425
 10
271.7059244459
 20
39.3436482528
 10
271.4417109563
 20
39.6511901997
 10
271.298198303
 20
39.9843298247
 10
271.2820955727
 20
40.3274907217
 10
271.3941561403
 20
40.6646266901
 10
271.6291384856
 20
40.9799746604
 10
271.9760558943
 20
41.2587888678
 10
272.4186880757
 20
41.488031578
 10
272.9363383033
 20
41.6569835335
 10
273.5047987794
 20
41.7577465019
 10
274.0974918823
 20
41.7856070923
 10
274.6867041659
 20
41.7392625109
 10
275.2448822104
 20
41.6208812927
 10
275.7459265796
 20
41.4359987081
 10
276.1664098822
 20
41.1932588644
 10
276.4866732473
 20
40.9040105862
 10
276.6917377509
 20
40.58178126
 10
276.772014985
 20
40.2416377695
 10
276.7237537977
 20
39.8994833241
 10
276.5492109387
 20
39.5713165558
 10
276.2565432226
 20
39.2724849609
 10
275.8594401743
 20
39.0169588416
 10
275.3764674702
 20
38.8166876845
 10
274.8302122095
 20
38.6810337433
 10
274.2462096715
 20
38.6163440753
 10
273.6517731542
 20
38.6256399836
 10
273.0746958702
 20
38.7084880749
 10
272.5419625039
 20
38.8610137552
 10
272.078479867
 20
39.0760869425
  0
ARC
  5
297
330
1F
100
AcDbEntity
  8
0
  6
Continuous
 62
     7
370
    15
100
AcDbCircle
 10
272.3700114991
 20
39.9944784406
 30
0.0
 40
1.311069926113578
100
AcDbArc
 50
110.9441486989
 51
249.071934682
  0
LWPOLYLINE
  5
298
330
1F
100
AcDbEntity
  8
0
  6
Continuous
 62
     7
370
    15
100
AcDbPolyline
 90
       17
 70
   128
 43
0.0
 10
276.144688944
 20
41.218925443
 10
276.3480718542
 20
41.0889488604
 10
276.682103574
 20
40.7963593661
 10
276.9072742646
 20
40.4709408917
 10
277.0143638091
 20
40.1260173381
 10
276.9989857247
 20
39.7757109149
 10
276.8617723788
 20
39.4343617163
 10
276.6083403741
 20
39.1159450878
 10
276.2490648838
 20
38.833497314
 10
275.7986550859
 20
38.5985815934
 10
275.275551122
 20
38.4208152144
 10
274.7011686845
 20
38.3074760438
 10
274.0990236568
 20
38.2632040047
 10
273.4937644545
 20
38.2898135043
 10
272.9101766349
 20
38.3862115074
 10
272.3721454426
 20
38.5484555595
 10
271.9017031427
 20
38.7699002951
  0
LWPOLYLINE
  5
299
330
1F
100
AcDbEntity
  8
0
  6
Continuous
 62
     7
370
    15
100
AcDbPolyline
 90
       24
 70
   128
 43
0.0
 10
272.7855865994
 20
39.4842909703
 10
272.4976184216
 20
39.7035120936
 10
272.322780617
 20
39.9594562748
 10
272.2740437136
 20
40.233139267
 10
272.3550195811
 20
40.5042648104
 10
272.5597062242
 20
40.7527226789
 10
272.8729168658
 20
40.9600894234
 10
273.2714285922
 20
41.1109818592
 10
273.725681522
 20
41.194211332
 10
274.2019861852
 20
41.2036048489
 10
274.6650202709
 20
41.138464062
 10
275.080436979
 20
41.0036233513
 10
275.4174326429
 20
40.8090798954
 10
275.6510115475
 20
40.5692634138
 10
275.7638482922
 20
40.3019610465
 10
275.7475791148
 20
40.0269946966
 10
275.6034058178
 20
39.764760062
 10
275.3420214971
 20
39.5347056599
 10
274.982815473
 20
39.3538914846
 10
274.5524245535
 20
39.2357299213
 10
274.0827704491
 20
39.1889835481
 10
273.6086862334
 20
39.2171187635
 10
273.1653325033
 20
39.3180489591
 10
272.7855865994
 20
39.4842909703
  0
SPLINE
  5
29A
330
1F
100
AcDbEntity
  8
0
  6
Continuous
 62
     7
370
    15
100
AcDbSpline
210
0.0
220
0.0
230
1.0
 70
     8
 71
     3
 72
     9
 73
     5
 74
     0
 42
0.000000001
 43
0.00000001
 40
0.0
 40
0.0
 40
0.0
 40
0.0
 40
0.631175782276032
 40
1.0
 40
1.0
 40
1.0
 40
1.0
 10
272.9625319110992
 20
39.38672963339128
 30
0.0
 10
272.8275644544415
 20
39.47966423021482
 30
0.0
 10
272.6137294809718
 20
39.62690466534117
 30
0.0
 10
272.4210540524612
 20
39.84482554053194
 30
0.0
 10
272.3499906882661
 20
39.9252000368499
 30
0.0
  0
SPLINE
  5
29B
330
1F
100
AcDbEntity
  8
0
  6
Continuous
 62
     7
370
    15
100
AcDbSpline
210
0.0
220
0.0
230
1.0
 70
     8
 71
     3
 72
    10
 73
     6
 74
     0
 42
0.000000001
 43
0.00000001
 40
0.0
 40
0.0
 40
0.0
 40
0.0
 40
0.4391286083742686
 40
0.751376636101468
 40
1.0
 40
1.0
 40
1.0
 40
1.0
 10
275.696056321143
 20
40.44278181991591
 30
0.0
 10
275.6318794255309
 20
40.22062381377967
 30
0.0
 10
275.5220687253833
 20
39.84049750875106
 30
0.0
 10
275.3624396348658
 20
39.56039352693389
 30
0.0
 10
275.2829880955122
 20
39.50258564237809
 30
0.0
 10
275.2477687755826
 20
39.47696053307011
 30
0.0
  0
SPLINE
  5
29C
330
1F
100
AcDbEntity
  8
0
  6
Continuous
 62
     7
370
    15
100
AcDbSpline
210
0.0
220
0.0
230
1.0
 70
     8
 71
     3
 72
    11
 73
     7
 74
     0
 42
0.000000001
 43
0.00000001
 40
0.0
 40
0.0
 40
0.0
 40
0.0
 40
0.184365219164806
 40
0.5174540947918765
 40
0.8663360111936443
 40
1.0
 40
1.0
 40
1.0
 40
1.0
 10
274.471311050265
 20
41.14981221522871
 30
0.0
 10
274.5423817508986
 20
41.07067806372997
 30
0.0
 10
274.7418544346789
 20
40.8485738571101
 30
0.0
 10
275.1134885437255
 20
40.5544509870841
 30
0.0
 10
275.4595196369793
 20
40.45012487636902
 30
0.0
 10
275.6447484193851
 20
40.44437462494077
 30
0.0
 10
275.696056321143
 20
40.44278181991591
 30
0.0
  0
SPLINE
  5
29D
330
1F
100
AcDbEntity
  8
0
  6
Continuous
 62
     7
370
    15
100
AcDbSpline
210
0.0
220
0.0
230
1.0
 70
     8
 71
     3
 72
    10
 73
     6
 74
     0
 42
0.000000001
 43
0.00000001
 40
0.0
 40
0.0
 40
0.0
 40
0.0
 40
0.4391285807270809
 40
0.751376649579183
 40
1.0
 40
1.0
 40
1.0
 40
1.0
 10
272.7982782338265
 20
40.8910213236957
 30
0.0
 10
273.0377931472811
 20
40.8441808626153
 30
0.0
 10
273.4476182442899
 20
40.76403388458657
 30
0.0
 10
274.0433597224811
 20
40.91999610032126
 30
0.0
 10
274.3398726557082
 20
41.07922787718462
 30
0.0
 10
274.471311050265
 20
41.14981221522871
 30
0.0
  0
SPLINE
  5
29E
330
1F
100
AcDbEntity
  8
0
  6
Continuous
 62
     7
370
    15
100
AcDbSpline
210
0.0
220
0.0
230
1.0
 70
     8
 71
     3
 72
    10
 73
     6
 74
     0
 42
0.000000001
 43
0.00000001
 40
0.0
 40
0.0
 40
0.0
 40
0.0
 40
0.4391276311440558
 40
0.7513756681469644
 40
1.0
 40
1.0
 40
1.0
 40
1.0
 10
272.3499906882661
 20
39.9252000368499
 30
0.0
 10
272.4141686293021
 20
39.97957954347271
 30
0.0
 10
272.5239812211459
 20
40.07262638276126
 30
0.0
 10
272.6836111038077
 20
40.48035115078559
 30
0.0
 10
272.7630600067955
 20
40.76489036199774
 30
0.0
 10
272.7982782338265
 20
40.8910213236957
 30
0.0
  0
LINE
  5
29F
330
1F
100
AcDbEntity
  8
0
  6
Continuous
 62
     7
370
    15
100
AcDbLine
 10
272.7982782338
 20
39.5138998345
 30
0.0
 11
272.7982782338
 21
40.8910213237
 31
0.0
  0
LINE
  5
2A0
330
1F
100
AcDbEntity
  8
0
  6
Continuous
 62
     7
370
    15
100
AcDbLine
 10
274.4713110503
 20
39.2221026649
 30
0.0
 11
274.4713110503
 21
41.1498122152
 31
0.0
  0
LWPOLYLINE
  5
2A1
330
1F
100
AcDbEntity
  8
0
  6
Continuous
 62
     7
370
     0
100
AcDbPolyline
 90
       26
 70
   128
 43
0.0
 10
260.6203283124
 20
47.9358593335
 10
259.6204215788
 20
47.3075010637
 10
258.6283404942
 20
46.5818116499
 10
257.6518493806
 20
45.7644710688
 10
256.6985907295
 20
44.8618760451
 10
255.7760248623
 20
43.8810907689
 10
254.8913723902
 20
42.8297908653
 10
254.0515562624
 20
41.7162033229
 10
253.2631500702
 20
40.5490454715
 10
252.532323717
 20
39.3374502715
 10
251.8647973205
 20
38.0909009191
 10
251.2657944557
 20
36.8191529024
 10
250.7400039594
 20
35.5321598606
 10
250.2915397593
 20
34.2399937386
 10
249.9239125561
 20
32.952767603
 10
249.6399995307
 20
31.6805561764
 10
249.4420226123
 20
30.433315991
 10
249.3315306977
 20
29.220808013
 10
249.3093891143
 20
28.0525221201
 10
249.3757704007
 20
26.9376013891
 10
249.5301556239
 20
25.8847717527
 10
249.7713370132
 20
24.9022738425
 10
250.0974265216
 20
23.9977958304
 10
250.5058716305
 20
23.1784172951
 10
250.9934764234
 20
22.4505503793
 10
251.3662883476
 20
22.0129940994
  0
ARC
  5
2A2
330
1F
100
AcDbEntity
  8
0
  6
Continuous
 62
     7
370
     0
100
AcDbCircle
 10
265.6836094799
 20
40.0870852638
 30
0.0
 40
9.340239321212852
100
AcDbArc
 50
81.0984716449
 51
122.8262529372
  0
LWPOLYLINE
  5
2A3
330
1F
100
AcDbEntity
  8
0
  6
Continuous
 62
     7
370
     0
100
AcDbPolyline
 90
       20
 70
   128
 43
0.0
 10
273.6875872741
 20
16.9233715935
 10
274.0775035748
 20
16.3646160761
 10
274.5437409033
 20
15.9076232943
 10
275.0799670251
 20
15.5585994095
 10
275.6789004135
 20
15.3222835492
 10
276.3324073853
 20
15.2018856302
 10
277.03161323
 20
15.1990398642
 10
277.7670227237
 20
15.3137861161
 10
278.5286488742
 20
15.5445651383
 10
279.306148952
 20
15.8882427266
 10
280.0889643484
 20
16.3401524357
 10
280.8664644262
 20
16.8941573295
 10
281.6280905767
 20
17.5427331432
 10
282.3635000704
 20
18.2770726194
 10
283.0627059151
 20
19.0872042701
 10
283.7162128869
 20
19.9621252783
 10
284.3151462753
 20
20.8899549095
 10
284.8513723971
 20
21.8580922963
 10
285.3176097256
 20
22.8533912396
 10
285.7075260263
 20
23.8623345352
  0
LWPOLYLINE
  5
2A4
330
1F
100
AcDbEntity
  8
0
  6
Continuous
 62
     7
370
     0
100
AcDbPolyline
 90
       20
 70
   128
 43
0.0
 10
285.7071513145
 20
30.7935903224
 10
285.3171987939
 20
31.3521834844
 10
284.8509479651
 20
31.8090300685
 10
284.3147297459
 20
32.1579277157
 10
283.7158240163
 20
32.3941393899
 10
283.0623621549
 20
32.5144580265
 10
282.3632167316
 20
32.5172504593
 10
281.6278793485
 20
32.4024773943
 10
280.8663341167
 20
32.1716986973
 10
280.0889203082
 20
31.8280473369
 10
279.3061929922
 20
31.3761884754
 10
278.5287791837
 20
30.8222569582
 10
277.7672339519
 20
30.1737742461
 10
277.0318965688
 20
29.4395448401
 10
276.3327511455
 20
28.6295362837
 10
275.6792892841
 20
27.7547466412
 10
275.0803835545
 20
26.8270531303
 10
274.5441653353
 20
25.8590511051
 10
274.0779145065
 20
24.8638827726
 10
273.6879619859
 20
23.8550600138
  0
ARC
  5
2A5
330
1F
100
AcDbEntity
  8
0
  6
Continuous
 62
     7
370
     0
100
AcDbCircle
 10
282.2175350924
 20
29.0876644213
 30
0.0
 40
3.212085568168645
100
AcDbArc
 50
32.1872713958
 51
56.8015567671
  0
LINE
  5
2A6
330
1F
100
AcDbEntity
  8
0
  6
Continuous
 62
     7
370
     0
100
AcDbLine
 10
271.4244068762
 20
17.4476937438
 30
0.0
 11
271.512795403
 21
17.1178305833
 31
0.0
  0
LWPOLYLINE
  5
2A7
330
1F
100
AcDbEntity
  8
0
  6
Continuous
 62
     7
370
     0
100
AcDbPolyline
 90
       17
 70
   128
 43
0.0
 10
274.8443681176
 20
16.2678187527
 10
275.1697121536
 20
16.1053849103
 10
275.7707591406
 20
15.9183576836
 10
276.4225469819
 20
15.8469749912
 10
277.1158198345
 20
15.892250638
 10
277.8407331166
 20
16.0535410554
 10
278.5869930365
 20
16.3285562675
 10
279.3440025431
 20
16.7133916737
 10
280.1010120497
 20
17.2025808397
 10
280.8472719696
 20
17.7891789912
 10
281.5721852517
 20
18.4648556338
 10
282.2654581043
 20
19.2200157849
 10
282.9172459456
 20
20.0439367008
 10
283.5182929326
 20
20.9249180073
 10
284.060064987
 20
21.8504501304
 10
284.534868004
 20
22.8073901415
 10
284.9359601342
 20
23.7821493913
  0
LINE
  5
2A8
330
1F
100
AcDbEntity
  8
0
  6
Continuous
 62
     7
370
     0
100
AcDbLine
 10
270.8207533701
 20
17.7961754952
 30
0.0
 11
271.4244068762
 21
17.4476937438
 31
0.0
  0
LINE
  5
2A9
330
1F
100
AcDbEntity
  8
0
  6
Continuous
 62
     7
370
     0
100
AcDbLine
 10
287.8823178974
 20
26.5677547721
 30
0.0
 11
287.6171523171
 21
26.7955667117
 31
0.0
  0
LWPOLYLINE
  5
2AA
330
1F
100
AcDbEntity
  8
0
  6
Continuous
 62
     7
370
     0
100
AcDbPolyline
 90
       25
 70
   128
 43
0.0
 10
244.6780925438
 20
33.4611568625
 10
244.7223566129
 20
34.5271649321
 10
244.8547220834
 20
35.6340126189
 10
245.0739140131
 20
36.771040539
 10
245.3778217668
 20
37.9272981298
 10
245.7635181142
 20
39.0916503981
 10
246.2272895229
 20
40.2528842866
 10
246.7646684268
 20
41.3998157067
 10
247.3704806419
 20
42.5213998005
 10
248.0388914637
 20
43.6068347402
 10
248.7634636197
 20
44.6456666662
 10
249.5372191722
 20
45.627892344
 10
250.352706361
 20
46.5440509836
 10
251.2020713842
 20
47.3853204314
 10
252.0771349543
 20
48.1435986278
 10
252.9694692657
 20
48.8115830206
 10
253.8704808889
 20
49.3828404724
 10
254.771492512
 20
49.8518688976
 10
255.6638268235
 20
50.2141517709
 10
256.5388903936
 20
50.4662004672
 10
257.3882554168
 20
50.6055870012
 10
258.2037426055
 20
50.6309698285
 10
258.9774981581
 20
50.5421032961
 10
259.7020703141
 20
50.3398445744
 10
260.2756770685
 20
50.0793131993
  0
LWPOLYLINE
  5
2AB
330
1F
100
AcDbEntity
  8
0
  6
Continuous
 62
     7
370
     0
100
AcDbPolyline
 90
       10
 70
   128
 43
0.0
 10
247.3710094531
 20
27.5091744398
 10
247.3704806419
 20
27.5094790548
 10
246.7646684268
 20
27.9316072535
 10
246.2272895229
 20
28.4580941976
 10
245.7635181142
 20
29.0838690152
 10
245.3778217668
 20
29.8029057595
 10
245.0739140131
 20
30.6082789267
 10
244.8547220834
 20
31.4922332317
 10
244.7223566129
 20
32.4462549992
 10
244.6780925438
 20
33.4611568625
  0
LWPOLYLINE
  5
2AC
330
1F
100
AcDbEntity
  8
0
  6
Continuous
 62
     7
370
     0
100
AcDbPolyline
 90
       23
 70
   128
 43
0.0
 10
243.0657911958
 20
36.6130327242
 10
243.3927506415
 20
37.8678293138
 10
243.8010712855
 20
39.1314981941
 10
244.2874729176
 20
40.3938848318
 10
244.8480451006
 20
41.6448434979
 10
245.4782840486
 20
42.8743220561
 10
246.1731248956
 20
44.0724391465
 10
246.9269831844
 20
45.2295663121
 10
247.7338003055
 20
46.3364051811
 10
248.5870932174
 20
47.3840595164
 10
249.4800041668
 20
48.3641110669
 10
250.4053569944
 20
49.268683251
 10
251.3557159094
 20
50.0905062661
 10
252.323442948
 20
50.8229768739
 10
253.3007613992
 20
51.4602071836
 10
254.2798170085
 20
51.9970774741
 10
255.2527417743
 20
52.4292722626
 10
256.2117167563
 20
52.7533188448
 10
257.1490355023
 20
52.9666125029
 10
258.0571654153
 20
53.0674397654
 10
258.9288080114
 20
53.0549896179
 10
259.7569586818
 20
52.9293629086
 10
260.5349625049
 20
52.6915688261
  0
LWPOLYLINE
  5
2AD
330
1F
100
AcDbEntity
  8
0
  6
Continuous
 62
     7
370
     0
100
AcDbPolyline
 90
       23
 70
   128
 43
0.0
 10
242.6321086857
 20
36.6075951577
 10
242.9580717535
 20
37.879261189
 10
243.3663390554
 20
39.1605929657
 10
243.8536626499
 20
40.4413975479
 10
244.4161670025
 20
41.7114877581
 10
245.0493766447
 20
42.9607597459
 10
245.7482556867
 20
44.1792758745
 10
246.5072433787
 20
45.3573430452
 10
247.3203035016
 20
46.4855914006
 10
248.1809678315
 20
47.5550450438
 10
249.0823904687
 20
48.5571967484
 10
250.0174005222
 20
49.4840756349
 10
250.9785607196
 20
50.3283083828
 10
251.9582251945
 20
51.0831799666
 10
252.9486011016
 20
51.742684435
 10
253.9418104376
 20
52.3015758086
 10
254.9299525617
 20
52.7554102558
 10
255.9051670867
 20
53.1005755551
 10
256.8596967287
 20
53.3343266166
 10
257.7859484695
 20
53.4548048211
 10
258.6765545132
 20
53.4610503953
 10
259.5244299087
 20
53.3530151442
 10
260.3228308309
 20
53.1315573128
  0
LWPOLYLINE
  5
2AE
330
1F
100
AcDbEntity
  8
0
  6
Continuous
 62
     7
370
     0
100
AcDbPolyline
 90
       26
 70
   128
 43
0.0
 10
244.1831179793
 20
35.8945874106
 10
244.4211396721
 20
37.0661805947
 10
244.7448755424
 20
38.255732052
 10
245.1512758706
 20
39.4520328457
 10
245.6365105619
 20
40.6438094727
 10
246.1960066831
 20
41.8198303253
 10
246.8244925856
 20
42.9690140527
 10
247.5160446614
 20
44.0805306982
 10
248.2641466126
 20
45.1439058771
 10
249.0617483911
 20
46.1491183006
 10
249.9013340283
 20
47.086695968
 10
250.7749916059
 20
47.9478037082
 10
251.6744878359
 20
48.7243265389
 10
252.5913465094
 20
49.4089468932
 10
253.5169274404
 20
49.9952130066
 10
254.4425083713
 20
50.4775998891
 10
255.3593670448
 20
50.8515620268
 10
256.2588632748
 20
51.1135754373
 10
257.1325208524
 20
51.2611712653
 10
257.9721064896
 20
51.2929585411
 10
258.7697082681
 20
51.2086375293
 10
259.5178102193
 20
51.0090024781
 10
260.2093622951
 20
50.6959348639
 10
260.8378481976
 20
50.2723855139
 10
261.3973443188
 20
49.7423451328
 10
261.8365744079
 20
49.1797819133
  0
ARC
  5
2AF
330
1F
100
AcDbEntity
  8
0
  6
Continuous
 62
     7
370
     0
100
AcDbCircle
 10
257.7896163714
 20
47.0214682205
 30
0.0
 40
6.379675977048317
100
AcDbArc
 50
21.1063487533
 51
50.0115461504
  0
LINE
  5
2B0
330
1F
100
AcDbEntity
  8
0
  6
Continuous
 62
     7
370
     0
100
AcDbLine
 10
281.924943837
 20
30.0816087219
 30
0.0
 11
287.6171523171
 21
26.7955667117
 31
0.0
  0
LWPOLYLINE
  5
2B1
330
1F
100
AcDbEntity
  8
0
  6
Continuous
 62
     7
370
     0
100
AcDbPolyline
 90
       10
 70
   128
 43
0.0
 10
248.8376312071
 20
26.6625119657
 10
248.2641466126
 20
26.7351859912
 10
247.5160446614
 20
26.9348210424
 10
246.8244925856
 20
27.2478886566
 10
246.1960066831
 20
27.6714380065
 10
245.6365105619
 20
28.2014783876
 10
245.1512758706
 20
28.8330149652
 10
244.7448755424
 20
29.5600959275
 10
244.4211396721
 20
30.3758699051
 10
244.1831179793
 20
31.2726490922
  0
LWPOLYLINE
  5
2B2
330
1F
100
AcDbEntity
  8
0
  6
Continuous
 62
     7
370
     0
100
AcDbPolyline
 90
       28
 70
   128
 43
0.0
 10
233.3113511034
 20
37.7779147271
 10
233.3549322619
 20
38.9396874774
 10
233.4853332941
 20
40.1426847593
 10
233.7015347732
 20
41.3774919478
 10
234.0018435811
 20
42.6344450492
 10
234.3839106898
 20
43.9037065557
 10
234.8447443314
 20
45.175342441
 10
235.3807389748
 20
46.4394004855
 10
235.9876996915
 20
47.6859886011
 10
236.6608757413
 20
48.9053497344
 10
237.3949987683
 20
50.0879405703
 10
238.1843236302
 20
51.2245068146
 10
239.0226721915
 20
52.3061518213
 10
239.9034837027
 20
53.3244113035
 10
240.8198641907
 20
54.2713160667
 10
241.7646422702
 20
55.1394546473
 10
242.7304233098
 20
55.9220327178
 10
243.7096488648
 20
56.6129256492
 10
244.6946552675
 20
57.2067275425
 10
245.677733493
 20
57.6987888313
 10
246.6511895395
 20
58.0852595029
 10
247.6074050555
 20
58.3631149725
 10
248.5388958471
 20
58.5301814939
 10
249.4383721561
 20
58.5851496635
 10
250.2987944708
 20
58.5275914311
 10
251.1134285152
 20
58.357955341
 10
251.8758985905
 20
58.07756995
 10
252.3226433309
 20
57.8473982713
  0
LWPOLYLINE
  5
2B3
330
1F
100
AcDbEntity
  8
0
  6
Continuous
 62
     7
370
     0
100
AcDbPolyline
 90
       10
 70
   128
 43
0.0
 10
236.5739228416
 20
30.5668591509
 10
235.9876996915
 20
30.9598871594
 10
235.3807389748
 20
31.5056933481
 10
234.8447443314
 20
32.1509051498
 10
234.3839106898
 20
32.8904738379
 10
234.0018435811
 20
33.7186100504
 10
233.7015347732
 20
34.6288339824
 10
233.4853332941
 20
35.6140202565
 10
233.3549322619
 20
36.6664597113
 10
233.3113511034
 20
37.7779147271
  0
LWPOLYLINE
  5
2B4
330
1F
100
AcDbEntity
  8
0
  6
Continuous
 62
     7
370
     0
100
AcDbPolyline
 90
       17
 70
   128
 43
0.0
 10
240.9799245652
 20
38.5398148089
 10
241.2792547761
 20
39.7269111205
 10
241.6610321251
 20
40.9239921781
 10
242.1217735705
 20
42.1201346395
 10
242.657273647
 20
43.304421694
 10
243.2626452958
 20
44.4660461016
 10
243.9323646455
 20
45.5944071475
 10
244.6603197446
 20
46.6792068367
 10
245.4398671961
 20
47.7105468471
 10
246.2638927437
 20
48.6790129353
 10
247.1248767969
 20
49.5757697986
 10
248.0149620965
 20
50.3926320763
 10
248.9260254961
 20
51.1221445722
 10
249.8497531182
 20
51.7576514971
 10
250.7777149344
 20
52.2933524509
 10
251.7014425565
 20
52.724358737
 10
252.1259875969
 20
52.887555207
  0
LWPOLYLINE
  5
2B5
330
1F
100
AcDbEntity
  8
0
  6
Continuous
 62
     7
370
     0
100
AcDbPolyline
 90
       19
 70
   128
 43
0.0
 10
240.5541063936
 20
39.1879597964
 10
240.9045113409
 20
40.4268540476
 10
241.3397210157
 20
41.6709285993
 10
241.8556912962
 20
42.9086232743
 10
242.44762732
 20
44.1284372816
 10
243.1100289231
 20
45.3190352972
 10
243.8367413488
 20
46.469355445
 10
244.6210108937
 20
47.5687064406
 10
245.4555504336
 20
48.6068746203
 10
246.3326052777
 20
49.5742121487
 10
247.2440256084
 20
50.4617313093
 10
248.181342214
 20
51.2611839657
 10
249.135845185
 20
51.9651419731
 10
250.0986651409
 20
52.5670630816
 10
251.0608553225
 20
53.061355057
 10
252.0134749384
 20
53.4434253166
 10
252.9476716895
 20
53.709721725
 10
253.8547650535
 20
53.8577715489
 10
254.4453836589
 20
53.8901013921
  0
LINE
  5
2B6
330
1F
100
AcDbEntity
  8
0
  6
Continuous
 62
     7
370
     0
100
AcDbLine
 10
234.9609877886
 20
37.240351297
 30
0.0
 11
236.7584968769
 21
38.278031206
 31
0.0
  0
ARC
  5
2B7
330
1F
100
AcDbEntity
  8
0
  6
Continuous
 62
     7
370
     0
100
AcDbCircle
 10
248.6832657608
 20
30.6437876561
 30
0.0
 40
5.784408106066214
100
AcDbArc
 50
193.7984400422
 51
279.6236638128
  0
LWPOLYLINE
  5
2B8
330
1F
100
AcDbEntity
  8
0
  6
Continuous
 62
     7
370
     0
100
AcDbPolyline
 90
        3
 70
   128
 43
0.0
 10
243.3554243388
 20
27.5721456203
 10
242.9591702058
 20
28.3608603875
 10
242.6321086857
 20
29.2587281671
  0
LWPOLYLINE
  5
2B9
330
1F
100
AcDbEntity
  8
0
  6
Continuous
 62
     7
370
     0
100
AcDbPolyline
 90
       20
 70
   128
 43
0.0
 10
226.0917920146
 20
50.0257235749
 10
226.4724024228
 20
51.119163536
 10
226.930366786
 20
52.2062707084
 10
227.4606202384
 20
53.2750226491
 10
228.0572987703
 20
54.3135998434
 10
228.7138031074
 20
55.3105164989
 10
229.4228727964
 20
56.2547473453
 10
230.1766665479
 20
57.1358493013
 10
230.9668478468
 20
57.9440797184
 10
231.7846776431
 20
58.6704977989
 10
232.6211114863
 20
59.3070723823
 10
233.466899131
 20
59.8467614996
 10
234.3126867758
 20
60.283598011
 10
235.149120619
 20
60.6127493869
 10
235.9669504152
 20
60.8305774903
 10
236.7571317141
 20
60.9346709816
 10
237.5109254656
 20
60.9238807659
 10
238.2199951546
 20
60.7983243564
 10
238.8764994917
 20
60.5593914744
 10
238.8802699883
 20
60.5576182915
  0
ARC
  5
2BA
330
1F
100
AcDbEntity
  8
0
  6
Continuous
 62
     7
370
     0
100
AcDbCircle
 10
229.9683451509
 20
44.33907362
 30
0.0
 40
4.268535355723725
100
AcDbArc
 50
204.74641238
 51
235.8842981422
  0
LINE
  5
2BB
330
1F
100
AcDbEntity
  8
0
  6
Continuous
 62
     7
370
     0
100
AcDbLine
 10
234.9609877886
 20
36.4238104463
 30
0.0
 11
236.7584968769
 21
37.4614903554
 31
0.0
  0
LINE
  5
2BC
330
1F
100
AcDbEntity
  8
0
  6
Continuous
 62
     7
370
     0
100
AcDbLine
 10
238.2480465164
 20
31.7895933864
 30
0.0
 11
239.586924136
 21
32.5625109842
 31
0.0
  0
LINE
  5
2BD
330
1F
100
AcDbEntity
  8
0
  6
Continuous
 62
     7
370
     0
100
AcDbLine
 10
241.9738684253
 20
31.2533662715
 30
0.0
 11
241.7648128127
 21
31.872643748
 31
0.0
  0
LWPOLYLINE
  5
2BE
330
1F
100
AcDbEntity
  8
0
  6
Continuous
 62
     7
370
     0
100
AcDbPolyline
 90
        3
 70
   128
 43
0.0
 10
241.6028892305
 20
30.8281877283
 10
241.2792547761
 20
31.4842530822
 10
240.9799245652
 20
32.3257500886
  0
ARC
  5
2BF
330
1F
100
AcDbEntity
  8
0
  6
Continuous
 62
     7
370
     0
100
AcDbCircle
 10
246.7083436131
 20
33.9229378539
 30
0.0
 40
6.497464577698824
100
AcDbArc
 50
198.7062701376
 51
214.0853098539
  0
LINE
  5
2C0
330
1F
100
AcDbEntity
  8
0
  6
Continuous
 62
     7
370
     0
100
AcDbLine
 10
257.3014727508
 20
54.8754444196
 30
0.0
 11
256.7604837058
 21
54.5631380916
 31
0.0
  0
ARC
  5
2C1
330
1F
100
AcDbEntity
  8
0
  6
Continuous
 62
     7
370
     0
100
AcDbCircle
 10
229.8542310876
 20
48.5296326063
 30
0.0
 40
1.102097410650232
100
AcDbArc
 50
159.4112025223
 51
213.191486534
  0
ARC
  5
2C2
330
1F
100
AcDbEntity
  8
0
  6
Continuous
 62
     7
370
     0
100
AcDbCircle
 10
228.5224064303
 20
48.3581348213
 30
0.0
 40
0.6345234148783724
100
AcDbArc
 50
41.9991509505
 51
61.7717641965
  0
LINE
  5
2C3
330
1F
100
AcDbEntity
  8
0
  6
Continuous
 62
     7
370
     0
100
AcDbLine
 10
228.8225265008
 20
48.9171946636
 30
0.0
 11
228.9320734041
 21
49.327992522
 31
0.0
  0
LINE
  5
2C4
330
1F
100
AcDbEntity
  8
0
  6
Continuous
 62
     7
370
     0
100
AcDbLine
 10
228.8225265008
 20
48.9171946636
 30
0.0
 11
228.0204818518
 21
49.380205184
 31
0.0
  0
LINE
  5
2C5
330
1F
100
AcDbEntity
  8
0
  6
Continuous
 62
     7
370
     0
100
AcDbLine
 10
226.1462503527
 20
50.5416654994
 30
0.0
 11
226.1300139378
 21
50.7368041281
 31
0.0
  0
ARC
  5
2C6
330
1F
100
AcDbEntity
  8
0
  6
Continuous
 62
     7
370
     0
100
AcDbCircle
 10
228.6125628497
 20
40.264572855
 30
0.0
 40
0.4314949854781918
100
AcDbArc
 50
27.885175929
 51
60.8829215863
  0
ARC
  5
2C7
330
1F
100
AcDbEntity
  8
0
  6
Continuous
 62
     7
370
     0
100
AcDbCircle
 10
230.0622615399
 20
41.0366335877
 30
0.0
 40
1.301169858631101
100
AcDbArc
 50
165.9701496118
 51
197.6767200265
  0
LINE
  5
2C8
330
1F
100
AcDbEntity
  8
0
  6
Continuous
 62
     7
370
     0
100
AcDbLine
 10
228.4307550803
 20
43.5504042629
 30
0.0
 11
227.1100243132
 21
44.3128459057
 31
0.0
  0
LINE
  5
2C9
330
1F
100
AcDbEntity
  8
0
  6
Continuous
 62
     7
370
     0
100
AcDbLine
 10
228.8225265008
 20
40.6415386196
 30
0.0
 11
228.0204818518
 21
41.10454914
 31
0.0
  0
LINE
  5
2CA
330
1F
100
AcDbEntity
  8
0
  6
Continuous
 62
     7
370
     0
100
AcDbLine
 10
228.8225265008
 20
40.6415386196
 30
0.0
 11
228.9320734041
 21
40.3572209235
 31
0.0
  0
OLE2FRAME
  5
2CB
330
1F
100
AcDbEntity
  8
0
100
AcDbOle2Frame
 70
     2
  3
Paintbrush-Bild
 10
13.8511154363
 20
38.264191557
 30
0.0
 11
51.6290888628
 21
31.9806341108
 31
0.0
 71
     2
 72
     0
 73
     1
 90
    12928
310
80552BED0767C5B32B40DDAF6807D121434000000000000000006FFBDDFB85D0
310
4940DDAF6807D121434000000000000000006FFBDDFB85D04940416F4BD60AFB
310
3F4000000000000000002BED0767C5B32B40416F4BD60AFB3F40000000000000
310
0000000000000100000000010000010000000100000000000100000000320000
310
D0CF11E0A1B11AE1000000000000000000000000000000003E000300FEFF0900
310
0600000000000000000000000100000001000000000000000010000002000000
310
01000000FEFFFFFF0000000000000000FFFFFFFFFFFFFFFFFFFFFFFFFFFFFFFF
310
FFFFFFFFFFFFFFFFFFFFFFFFFFFFFFFFFFFFFFFFFFFFFFFFFFFFFFFFFFFFFFFF
310
FFFFFFFFFFFFFFFFFFFFFFFFFFFFFFFFFFFFFFFFFFFFFFFFFFFFFFFFFFFFFFFF
310
FFFFFFFFFFFFFFFFFFFFFFFFFFFFFFFFFFFFFFFFFFFFFFFFFFFFFFFFFFFFFFFF
310
FFFFFFFFFFFFFFFFFFFFFFFFFFFFFFFFFFFFFFFFFFFFFFFFFFFFFFFFFFFFFFFF
310
FFFFFFFFFFFFFFFFFFFFFFFFFFFFFFFFFFFFFFFFFFFFFFFFFFFFFFFFFFFFFFFF
310
FFFFFFFFFFFFFFFFFFFFFFFFFFFFFFFFFFFFFFFFFFFFFFFFFFFFFFFFFFFFFFFF
310
FFFFFFFFFFFFFFFFFFFFFFFFFFFFFFFFFFFFFFFFFFFFFFFFFFFFFFFFFFFFFFFF
310
FFFFFFFFFFFFFFFFFFFFFFFFFFFFFFFFFFFFFFFFFFFFFFFFFFFFFFFFFFFFFFFF
310
FFFFFFFFFFFFFFFFFFFFFFFFFFFFFFFFFFFFFFFFFFFFFFFFFFFFFFFFFFFFFFFF
310
FFFFFFFFFFFFFFFFFFFFFFFFFFFFFFFFFFFFFFFFFFFFFFFFFFFFFFFFFFFFFFFF
310
FFFFFFFFFFFFFFFFFFFFFFFFFFFFFFFFFFFFFFFFFFFFFFFFFFFFFFFFFFFFFFFF
310
FFFFFFFFFFFFFFFFFFFFFFFFFFFFFFFFFFFFFFFFFFFFFFFFFFFFFFFFFFFFFFFF
310
FFFFFFFFFFFFFFFFFFFFFFFFFFFFFFFFFFFFFFFFFFFFFFFFFFFFFFFFFFFFFFFF
310
FDFFFFFFFEFFFFFFFEFFFFFFFEFFFFFF05000000060000000700000008000000
310
090000000A0000000B0000000C0000000D0000000E0000000F00000010000000
310
11000000120000001300000014000000150000001600000017000000FEFFFFFF
310
FFFFFFFFFFFFFFFFFFFFFFFFFFFFFFFFFFFFFFFFFFFFFFFFFFFFFFFFFFFFFFFF
310
FFFFFFFFFFFFFFFFFFFFFFFFFFFFFFFFFFFFFFFFFFFFFFFFFFFFFFFFFFFFFFFF
310
FFFFFFFFFFFFFFFFFFFFFFFFFFFFFFFFFFFFFFFFFFFFFFFFFFFFFFFFFFFFFFFF
310
FFFFFFFFFFFFFFFFFFFFFFFFFFFFFFFFFFFFFFFFFFFFFFFFFFFFFFFFFFFFFFFF
310
FFFFFFFFFFFFFFFFFFFFFFFFFFFFFFFFFFFFFFFFFFFFFFFFFFFFFFFFFFFFFFFF
310
FFFFFFFFFFFFFFFFFFFFFFFFFFFFFFFFFFFFFFFFFFFFFFFFFFFFFFFFFFFFFFFF
310
FFFFFFFFFFFFFFFFFFFFFFFFFFFFFFFFFFFFFFFFFFFFFFFFFFFFFFFFFFFFFFFF
310
FFFFFFFFFFFFFFFFFFFFFFFFFFFFFFFFFFFFFFFFFFFFFFFFFFFFFFFFFFFFFFFF
310
FFFFFFFFFFFFFFFFFFFFFFFFFFFFFFFFFFFFFFFFFFFFFFFFFFFFFFFFFFFFFFFF
310
FFFFFFFFFFFFFFFFFFFFFFFFFFFFFFFFFFFFFFFFFFFFFFFFFFFFFFFFFFFFFFFF
310
FFFFFFFFFFFFFFFFFFFFFFFFFFFFFFFFFFFFFFFFFFFFFFFFFFFFFFFFFFFFFFFF
310
FFFFFFFFFFFFFFFFFFFFFFFFFFFFFFFFFFFFFFFFFFFFFFFFFFFFFFFFFFFFFFFF
310
FFFFFFFFFFFFFFFFFFFFFFFFFFFFFFFFFFFFFFFFFFFFFFFFFFFFFFFFFFFFFFFF
310
52006F006F007400200045006E00740072007900000000000000000000000000
310
0000000000000000000000000000000000000000000000000000000000000000
310
16000500FFFFFFFFFFFFFFFF020000000A00030000000000C000000000000046
310
0000000000000000000000004039BC8FD81FD20103000000C000000000000000
310
01004F006C006500000000000000000000000000000000000000000000000000
310
0000000000000000000000000000000000000000000000000000000000000000
310
0A000200FFFFFFFFFFFFFFFFFFFFFFFF00000000000000000000000000000000
310
0000000000000000000000000000000000000000000000001400000000000000
310
010043006F006D0070004F0062006A0000000000000000000000000000000000
310
0000000000000000000000000000000000000000000000000000000000000000
310
120002010100000003000000FFFFFFFF00000000000000000000000000000000
310
0000000000000000000000000000000000000000010000004D00000000000000
310
01004F006C006500310030004E00610074006900760065000000000000000000
310
0000000000000000000000000000000000000000000000000000000000000000
310
1A000200FFFFFFFFFFFFFFFFFFFFFFFF00000000000000000000000000000000
310
0000000000000000000000000000000000000000040000002426000000000000
310
FEFFFFFF02000000FEFFFFFFFFFFFFFFFFFFFFFFFFFFFFFFFFFFFFFFFFFFFFFF
310
FFFFFFFFFFFFFFFFFFFFFFFFFFFFFFFFFFFFFFFFFFFFFFFFFFFFFFFFFFFFFFFF
310
FFFFFFFFFFFFFFFFFFFFFFFFFFFFFFFFFFFFFFFFFFFFFFFFFFFFFFFFFFFFFFFF
310
FFFFFFFFFFFFFFFFFFFFFFFFFFFFFFFFFFFFFFFFFFFFFFFFFFFFFFFFFFFFFFFF
310
FFFFFFFFFFFFFFFFFFFFFFFFFFFFFFFFFFFFFFFFFFFFFFFFFFFFFFFFFFFFFFFF
310
FFFFFFFFFFFFFFFFFFFFFFFFFFFFFFFFFFFFFFFFFFFFFFFFFFFFFFFFFFFFFFFF
310
FFFFFFFFFFFFFFFFFFFFFFFFFFFFFFFFFFFFFFFFFFFFFFFFFFFFFFFFFFFFFFFF
310
FFFFFFFFFFFFFFFFFFFFFFFFFFFFFFFFFFFFFFFFFFFFFFFFFFFFFFFFFFFFFFFF
310
FFFFFFFFFFFFFFFFFFFFFFFFFFFFFFFFFFFFFFFFFFFFFFFFFFFFFFFFFFFFFFFF
310
FFFFFFFFFFFFFFFFFFFFFFFFFFFFFFFFFFFFFFFFFFFFFFFFFFFFFFFFFFFFFFFF
310
FFFFFFFFFFFFFFFFFFFFFFFFFFFFFFFFFFFFFFFFFFFFFFFFFFFFFFFFFFFFFFFF
310
FFFFFFFFFFFFFFFFFFFFFFFFFFFFFFFFFFFFFFFFFFFFFFFFFFFFFFFFFFFFFFFF
310
FFFFFFFFFFFFFFFFFFFFFFFFFFFFFFFFFFFFFFFFFFFFFFFFFFFFFFFFFFFFFFFF
310
FFFFFFFFFFFFFFFFFFFFFFFFFFFFFFFFFFFFFFFFFFFFFFFFFFFFFFFFFFFFFFFF
310
FFFFFFFFFFFFFFFFFFFFFFFFFFFFFFFFFFFFFFFFFFFFFFFFFFFFFFFFFFFFFFFF
310
FFFFFFFFFFFFFFFFFFFFFFFFFFFFFFFFFFFFFFFFFFFFFFFFFFFFFFFFFFFFFFFF
310
0100000200000000000000000000000000000000000000000000000000000000
310
0000000000000000000000000000000000000000000000000000000000000000
310
0100FEFF030A0000FFFFFFFF0A00030000000000C00000000000004607000000
310
5042727573680007000000504272757368000700000050427275736800F439B2
310
7100000000000000000000000000000000000000000000000000000000000000
310
0000000000000000000000000000000000000000000000000000000000000000
310
0000000000000000000000000000000000000000000000000000000000000000
310
0000000000000000000000000000000000000000000000000000000000000000
310
0000000000000000000000000000000000000000000000000000000000000000
310
0000000000000000000000000000000000000000000000000000000000000000
310
0000000000000000000000000000000000000000000000000000000000000000
310
0000000000000000000000000000000000000000000000000000000000000000
310
0000000000000000000000000000000000000000000000000000000000000000
310
0000000000000000000000000000000000000000000000000000000000000000
310
0000000000000000000000000000000000000000000000000000000000000000
310
0000000000000000000000000000000000000000000000000000000000000000
310
20260000424D0E260000000000003E00000028000000B40200006E0000000100
310
01000000000000000000130B0000130B00000200000002000000000000FFFFFF
310
FFFFFFFFFFFFFFFFFFFFFFFFFFFFFFFFFFFFFFFFFFFFFFFFFFFFFFFFFFFFFFFF
310
FFFFFFFFFFFFFFFFFFFFFFFFFFFFFFFFFFFFFFFFFFFFFFFFFFFFFFFFFFFFFFFF
310
FFFFFFFFFFFFFFFFFFFFFFFFFFFFFFFFFFFFFFFFFFFFFFFFF000FFFFFFFFFFFF
310
FFFFFFFFFFFFFFFFFFFFFFFFFFFFFFFFFFFFFFFFFFFFFFFFFFFFFFFFFFFFFFFF
310
FFFFFFFFFFFFFFFFFFFFFFFFFFFFFFFFFFFFFFFFFFFFFFFFFFFFFFFFFFFFFFFF
310
FFFFFFFFFFFFFFFFFFFFFFFFFFFFFFFFF000FFFFFFFFFFFFFFFFFFFFFFFFFFFF
310
FFFFFFFFFFFFFFFFFFFFFFFFFFFFFFFFFFFFFFFFFFFFFFFFFFFFFFFFFFFFFFFF
310
FFFFFFFFFFFFFFFFFFFFFFFFFFFFFFFFFFFFFFFFFFFFFFFFFFFFFFFFFFFFFFFF
310
FFFFFFFFFFFFFFFFF000FFFFFFFFFFFFFFFFFFFFFFFFFFFFFFFFFFFFFFFFFFFF
310
FFFFFFFFFFFFFFFFFFFFFFFFFFFFFFFFFFFFFFFFFFFFFFFFFFFFFFFFFFFFFFFF
310
FFFFFFFFFFFFFFFFFFFFFFFFFFFFFFFFFFFFFFFFFFFFFFFFFFFFFFFFFFFFFFFF
310
F000FFFFFFFFFFFFFFFFFFFFFFFFFFFFFFFFFFFFFFFFFFFFFFFFFFFFFFFFFFFF
310
FFFFFFFFFFFFFFFFFFFFFFFFFFFFFFFFFFFFFFFFFFFFFFFFFFFFFFFFFFFFFFFF
310
FFFFFFFFFFFFFFFFFFFFFFFFFFFFFFFFFFFFFFFFFFFFFFFFF000FFFFFFFFFFFF
310
FFFFFFFFFFFFFFFFFFFFFFFFFFFFFFFFFFFFFFFFFFFFFFFFFFFFFFFFFFFFFFFF
310
FFFFFFFFFFFFFFFFFFFFFFFFFFFFFFFFFFFFFFFFFFFFFFFFFFFFFFFFFFFFFFFF
310
FFFFFFFFFFFFFFFFFFFFFFFFFFFFFFFFF000FFFFFFFFFFFFFFFFFFFFFFFFFFFF
310
FFFFFFFFFFFFFFFFFFFFFFFFFFFFFFFFFFFFFFFFFFFFFFFFFFFFFFFFFFFFFFFF
310
FFFFFFFFFFFFFFFFFFFFFFFFFFFFFFFFFFFFFFFFFFFFFFFFFFFFFFFFFFFFFFFF
310
FFFFFFFFFFFFFFFFF000FFFFFFFFFFFFFFFFFFFFFFFFFFFFFFFFFFFFFFFFFFFF
310
FFFFFFFFFFFFFFFFFFFFFFFFFFFFFFFFFFFFFFFFFFFFFFFFFFFFFFFFFFFFFFFF
310
FFFFFFFFFFFFFFFFFFFFFFFFFFFFFFFFFFFFFFFFFFFFFFFFFFFFFFFFFFFFFFFF
310
F000FFFFFFFFFFFFFFFFFFFFFFFFFFFFFFFFFFFFFFFFFFFFFFFFFFFFFFFFFFFF
310
FFFFFFFFFFFFFFFFFFFFFFFFFFFFFFFFFFFFFFFFFFFFFFFFFFFFFFFFFFFFFFFF
310
FFFFFFFFFFFFFFFFFFFFFFFFFFFFFFFFFFFFFFFFFFFFFFFFF000FFFFFFFFFFFF
310
FFFFFFFFFFFFFFFFFFFFFFFFFFFFFFFFFFFFFFFFFFFFFFFFFFFFFFFFFFFFFFFF
310
FFFFFFFFFFFFFFFFFFFFFFFFFFFFFFFFFFFFFFFFFFFFFFFFFFFFFFFFFFFFFFFF
310
FFFFFFFFFFFFFFFFFFFFFFFFFFFFFFFFF000FFFFFFFFFFFFFFFFFFFFFFFFFFFF
310
FFFFFFFFFFFFFFFFFFFFFFFFFFFFFFFFFFFFFFFFFFFFFFFFFFFFFFFFFFFFFFFF
310
FFFFFFFFFFFFFFFFFFFFFFFFFFFFFFFFFFFFFFFFFFFFFFFFFFFFFFFFFFFFFFFF
310
FFFFFFFFFFFFFFFFF000FFFFFFFFFFFFFFFFFFFFFFFFFFFFFFFFFFFFFFFFFFFF
310
FFFFFFFFFFFFFFFFFFFFFFFFFFFFFFFFFFFFFFFFFFFFFFFFFFFFFFFFFFFFFFFF
310
FFFFFFFFFFFFFFFFFFFFFFFFFFFFFFFFFFFFFFFFFFFFFFFFFFFFFFFFFFFFFFFF
310
F000FFFFFFFFFFFFFFFFFFFFFFFFFFFFFFFFFFFFFFFFFFFFFFFFFFFFFFFFFFFF
310
FFFFFFFFFFFFFFFFFFFFFFFFFFFFFFFFFFFFFFFFFFFFFFFFFFFFFFFFFFFFFFFF
310
FFFFFFFFFFFFFFFFFFFFFFFFFFFFFFFFFFFFFFFFFFFFFFFFF000FFFFFFFFFFFF
310
FFFFFFFFFFFFFFFFFFFFFFFFFFFFFFFFFFFFFFFFFFFFFFFFFFFFFFFFFFFFFFFF
310
FFFFFFFFFFFFFFFFFFFFFFFFFFFFFFFFFFFFFFFFFFFFFFFFFFFFFFFFFFFFFFFF
310
FFFFFFFFFFFFFFFFFFFFFFFFFFFFFFFFF000FFFFFFFFFFFFFFFFFFFFFFFFFFFF
310
FFFFFFFFFFFFFFFFFFFFFFFFFFFFFFFFFFFFFFFFFFFFFFFFFFFFFFFFFFFFFFFF
310
FFFFFFFFFFFFFFFFFFFFFFFFFFFFFFFFFFFFFFFFFFFFFFFFFFFFFFFFFFFFFFFF
310
FFFFFFFFFFFFFFFFF000FFFFFFFFFFFFFFFFFFFFFFFFFFFFFFFFFFFFFFFFFFFF
310
FFFFFFFFFFFFFFFFFFFFFFFFFFFFFFFFFFFFFFFFFFFFFFFFFFFFFFFFFFFFFFFF
310
FFFFFFFFFFFFFFFFFFFFFFFFFFFFFFFFFFFFFFFFFFFFFFFFFFFFFFFFFFFFFFFF
310
F000FFFFFFFFFFFFFFFFFFFFFFFFFFFFFFFFFFFFFFFFFFFFFFFFFFFFFFFFFFFF
310
FFFFFFFFFFFFFFFFFFFFFFFFFFFFFFFFFFFFFFFFFFFFFFFFFFFFFFFFFFFFFFFF
310
FFFFFFFFFFFFFFFFFFFFFFFFFFFFFFFFFFFFFFFFFFFFFFFFF000FFFFFFFFFFFF
310
FFFFFFFFFFFFFFFFFFFFFFFFFFFFFFFFFFFFFFFFFFFFFFFFFFFFFFFFFFFFFFFF
310
FFFFFFFFFFFFFFFFFFFFFFFFFFFFFFFFFFFFFFFFFFFFFFFFFFFFFFFFFFFFFFFF
310
FFFFFFFFFFFFFFFFFFFFFFFFFFFFFFFFF000FFFFFFFFFFFFFFFFFFFFFFFFFFFF
310
FFFFFFFFFFFFFFFFFFFFFFFFFFFFFFFFFFFFFFFFFFFFFFFFFFFFFFFFFFFFFFFF
310
FFFFFFFFFFFFFFFFFFFFFFFFFFFFFFFFFFFFFFFFFFFFFFFFFFFFFFFFFFFFFFFF
310
FFFFFFFFFFFFFFFFF000FFFFF80003FFFFFFFFFFFFFFFFFFFFFFFFFFFFFFFFFF
310
FFFFF00007FFFFFFFFFF00007FFFFFF800000000000000007FFFFFFFFFFFFFFF
310
FFFFFFFC001FFFFFFFFFFFFFFC001FFFFFFFFFFFFFFFFFFFFFFFFFFE0007FFFF
310
F000FFFF8000007FFFFFFFF8000FFFFFC0007FFFFF80007FFFFF0000007FFFFF
310
FFF8000007FFFFF800000000000000007FFFFFF0001FFFFFFFFFFFC00001FFFF
310
FFFFFFFFC00001FFFFFFFF000000000003FFFFE000007FFFF000FFFE0000000F
310
FFFFFFF0000FFFFF80007FFFFF80007FFFFC0000001FFFFFFFC0000001FFFFF8
310
00000000000000007FFFFFF0001FFFFFFFFFFE0000003FFFFFFFFFFE0000003F
310
FFFFFF000000000003FFFF0000000FFFF000FFF800000003FFFFFFF00007FFFF
310
80007FFFFF80007FFFF000000007FFFFFF000000003FFFF80000000000000000
310
7FFFFFF0001FFFFFFFFFF80000000FFFFFFFFFF80000000FFFFFFF0000000000
310
03FFFC00000003FFF000FFE000000000FFFFFFF00007FFFF80003FFFFF80007F
310
FFC000000001FFFFFC000000001FFFF800000000000000007FFFFFF0001FFFFF
310
FFFFE000000003FFFFFFFFE000000003FFFFFF000000000003FFF000000000FF
310
F000FF80000000007FFFFFF00007FFFF80003FFFFF80007FFF8000000000FFFF
310
F80000000007FFF800000000000000007FFFFFF0001FFFFFFFFFC000000001FF
310
FFFFFFC000000001FFFFFF000000000003FFC0000000007FF000FF0000000000
310
3FFFFFE00007FFFF00003FFFFF80007FFE00000000003FFFF00000000003FFF8
310
00000000000000007FFFFFF0001FFFFFFFFF8000000000FFFFFFFF8000000000
310
FFFFFF000000000003FF80000000003FF000FE00000000001FFFFFE00003FFFF
310
00003FFFFF80007FFC00000000001FFFE00000000001FFF8000001FFFE000000
310
7FFFFFF0001FFFFFFFFE00000000003FFFFFFE00000000003FFFFF0000000000
310
03FF00000000001FF000FC00000000000FFFFFE00003FFFF00001FFFFF80007F
310
F800000000001FFFC00000000000FFF8000001FFFE0000007FFFFFF0001FFFFF
310
FFFC00000000001FFFFFFC00000000001FFFFF000000000003FE00000000000F
310
F000F8000000000007FFFFE00003FFFF00001FFFFF80007FF800000000000FFF
310
800000000000FFF8000001FFFE0000007FFFFFF0001FFFFFFFF800000000000F
310
FFFFF800000000000FFFFF000000000003FC000000000007F000F80000000000
310
03FFFFC00003FFFE00001FFFFF80007FF0000000000007FF0000000000007FF8
310
000001FFFE0000007FFFFFF0001FFFFFFFF0000000000007FFFFF00000000000
310
07FFFF000000000003F8000000000003F000F0000000000003FFFFC00001FFFE
310
00001FFFFF80007FE0000000000007FE0000000000003FF8000001FFFE000000
310
7FFFFFF0001FFFFFFFF0000000000007FFFFF0000000000007FFFF0000000000
310
03F800001F800003F000E00001FFF00001FFFFC00001FFFE00000FFFFF80007F
310
E00001FFE00003FE00001FFF00003FF8000001FFFE0000007FFFFFF0001FFFFF
310
FFE000003E000003FFFFE000003E000003FFFF000000000003F00001FFF80001
310
F000E00007FFFC0001FFFFC00001FFFE00000FFFFF80007FC0000FFFFC0003FC
310
0000FFFFC0001FF8000001FFFE0000007FFFFFF0001FFFFFFFC00003FFE00001
310
FFFFC00003FFE00001FFFF0001FFFFFFFFF00007FFFE0001F000E0000FFFFF00
310
00FFFF800001FFFC00000FFFFF80007FC0001FFFFE0001FC0001FFFFE0001FF8
310
000001FFFE0000007FFFFFF0001FFFFFFF80000FFFF80000FFFF80000FFFF800
310
00FFFF0003FFFFFFFFE0000FFFFF8000F000C0003FFFFF8000FFFF800000FFFC
310
000007FFFF80007F80003FFFFF0001FC0003FFFFF0001FF8000001FFFE000000
310
7FFFFFF0001FFFFFFF80003FFFFE0000FFFF80003FFFFE0000FFFF0003FFFFFF
310
FFE0003FFFFF8000F000C0003FFFFF8000FFFF800000FFFC000007FFFF80007F
310
80007FFFFF8001F80007FFFFF8000FF8000001FFFE0000007FFFFFF0001FFFFF
310
FF00007FFFFF00007FFF00007FFFFF00007FFF0003FFFFFFFFE0003FFFFFC000
310
F000C0007FFFFFC000FFFF000000FFFC000007FFFF80007F8000FFFFFF8000F8
310
000FFFFFF8000FF8000001FFFE0000007FFFFFF0001FFFFFFF0000FFFFFF8000
310
7FFF0000FFFFFF80007FFF0003FFFFFFFFC0007FFFFFC00070008000FFFFFFC0
310
00FFFF000000FFF8000007FFFF80007F8000FFFFFF8000F8000FFFFFF8000FF8
310
000001FFFE0000007FFFFFF0001FFFFFFE0001FFFFFFC0003FFE0001FFFFFFC0
310
003FFF0003FFFFFFFFC0007FFFFFE00070008000FFFFFFC0007FFF0000007FF8
310
000003FFFF80007F0001FFFFFF8000F8000FFFFFF8000FF8000001FFFE000000
310
7FFFFFF0001FFFFFFE0001FFFFFFC0003FFE0001FFFFFFC0003FFF0003FFFFFF
310
FFC000FFFFFFE00070008000FFFFFFC0007FFF0000007FF8000003FFFF80007F
310
0001FFFFFF8000F8001FFFFFF8000FF8000001FFFE0000007FFFFFF0001FFFFF
310
FE0003FFFFFFE0003FFE0003FFFFFFE0003FFF0003FFFFFFFFC000FFFFFFE000
310
70008000FFFFFFC0007FFE0000007FF8000003FFFF80007F0001FFFFFF8000F0
310
001FFFFFF8000FF8000001FFFE0000007FFFFFF0001FFFFFFC0003FFFFFFE000
310
1FFC0003FFFFFFE0001FFF0003FFFFFFFFC000FFFFFFC00070008000FFFFFF80
310
007FFE0000007FF0000003FFFF80007F0001FFFFFF0000F0001FFFFFF8000FF8
310
000001FFFE0000007FFFFFF0001FFFFFFC0007FFFFFFF0001FFC0007FFFFFFF0
310
001FFF0003FFFFFFFFC000FFFFFFC00070008001FFFFFF0000FFFE0000003FF0
310
000001FFFF80007F0001FFFFFF0000F8001FFFFFF0000FF8000001FFFE000000
310
7FFFFFF0001FFFFFFC0007FFFFFFF0001FFC0007FFFFFFF0001FFF0003FFFFFF
310
FFC001FFFFFF80007000FFFFFFFFFE0000FFFE0008003FF0008001FFFF80007F
310
FFFFFFFFFC0000FFFFFFFFFFE0000FF8000001FFFE0000007FFFFFF0001FFFFF
310
F8000FFFFFFFF8000FF8000FFFFFFFF8000FFF0003FFFFFFFFFFFFFFFFFF0000
310
7000FFFFFFFFFC0000FFFC0008003FF0008001FFFF80007FFFFFFFFFF80001FF
310
FFFFFFFF80000FF8000001FFFE0000007FFFFFF0001FFFFFF8000FFFFFFFF800
310
0FF8000FFFFFFFF8000FFF0003FFFFFFFFFFFFFFFFFE0000F000FFFFFFFFE000
310
00FFFC000C003FE000C001FFFF80007FFFFFFFFFC00001FFFFFFFFFE00001FF8
310
000001FFFE0000007FFFFFF0001FFFFFF8000FFFFFFFF8000FF8000FFFFFFFF8
310
000FFF0003FFFFFFFFFFFFFFFFF00000F000FFFFFFFE000001FFFC000C001FE0
310
00C000FFFF80007FFFFFFFFE000001FFFFFFFFE000001FF80FFFFFFFFFFFFFC0
310
7FFFFFF0001FFFFFF8000FFFFFFFF8000FF8000FFFFFFFF8000FFF0003FFFFFF
310
FFFFFFFFFF800000F000FFFFFFC0000001FFFC001C001FE001C000FFFF80007F
310
FFFFFF80000003FFFFFFF80000001FF80FFFFFFFFFFFFFC07FFFFFF0001FFFFF
310
F8001FFFFFFFFC000FF8001FFFFFFFFC000FFF0003FFFFFFFFFFFFFFF0000001
310
F000FFFFF800000001FFF8001C001FE001C000FFFF80007FFFFFF800000003FF
310
FFFF800000003FF80FFFFFFFFFFFFFC07FFFFFF0001FFFFFF8001FFFFFFFFC00
310
0FF8001FFFFFFFFC000FFF0003FFFFFFFFFFFFFE00000001F000FFFFC0000000
310
03FFF8001E001FC001E000FFFF80007FFFFF8000000007FFFFFC000000003FF8
310
0FFFFFFFFFFFFFC07FFFFFF0001FFFFFF8001FFFFFFFFC000FF8001FFFFFFFFC
310
000FFF0003FFFFFFFFFFFFE000000003F000FFFE0000000007FFF8001E000FC0
310
01E0007FFF80007FFFFE0000000007FFFFE0000000007FF80FFFFFFFFFFFFFC0
310
7FFFFFF0001FFFFFF0001FFFFFFFFC0007F0001FFFFFFFFC0007FF0003FFFFFF
310
FFFFFF0000000003F000FFF80000000007FFF8001E000FC003E0007FFF80007F
310
FFF0000000000FFFFF8000000000FFF80FFFFFFFFFFFFFC07FFFFFF0001FFFFF
310
F0001FFFFFFFFC0007F0001FFFFFFFFC0007FF0003FFFFFFFFFFFC0000000007
310
F000FFE0000000000FFFF0003E000FC003E0007FFF80007FFFC0000000001FFF
310
FE0000000001FFF80FFFFFFFFFFFFFC07FFFFFF0001FFFFFF0001FFFFFFFFC00
310
07F0001FFFFFFFFC0007FF0003FFFFFFFFFFF0000000000FF000FFC000000000
310
1FFFF0003F000F8003F0003FFF80007FFF80000000003FFFF80000000003FFF8
310
0FFFFFFFFFFFFFC07FFFFFF0001FFFFFF0001FFFFFFFFC0007F0001FFFFFFFFC
310
0007FF0003FFFFFFFFFFE0000000001FF000FF00000000007FFFF0003F000780
310
03F0003FFF80007FFF00000000007FFFF00000000007FFF80FFFFFFFFFFFFFC0
310
7FFFFFF0001FFFFFF0001FFFFFFFFC0007F0001FFFFFFFFC0007FF0003FFFFFF
310
FFFF80000000007FF000FE0000000000FFFFE0003F00078007F0003FFF80007F
310
FE0000000001FFFFE0000000001FFFF80FFFFFFFFFFFFFC07FFFFFF0001FFFFF
310
F0001FFFFFFFFC0007F0001FFFFFFFFC0007FF0003FFFFFFFFFF0000000000FF
310
F000FC0000000003FFFFE0007F00078007F0003FFF80007FFC0000000007FFFF
310
C0000000007FFFF80FFFFFFFFFFFFFC07FFFFFF0001FFFFFF8001FFFFFFFFC00
310
0FF8001FFFFFFFFC000FFF0003FFFFFFFFFE0000000003FFF000FC000000000F
310
FFFFE0007F80070007F8001FFF80007FF8000000001FFFFF8000000001FFFFF8
310
0FFFFFFFFFFFFFC07FFFFFF0001FFFFFF8001FFFFFFFFC000FF8001FFFFFFFFC
310
000FFF0003FFFFFFFFFC000000000FFFF000F8000000007FFFFFE0007F800700
310
07F8001FFF80007FF000000000FFFFFF800000000FFFFFF80FFFFFFFFFFFFFC0
310
7FFFFFF0001FFFFFF8000FFFFFFFF8000FF8000FFFFFFFF8000FFF0003FFFFFF
310
FFFC000000007FFFF000F800000007FFFFFFC0007F8003000FF8001FFF80007F
310
F000000007FFFFFF000000007FFFFFF80FFFFFFFFFFFFFC07FFFFFF0001FFFFF
310
F8000FFFFFFFF8000FF8000FFFFFFFF8000FFF0003FFFFFFFFF80000000FFFFF
310
F000F0000000FFFFFFFFC000FF8003000FF8001FFF80007FE0000000FFFFFFFF
310
0000000FFFFFFFF8000001FFFE0000007FFFFFF0001FFFFFF8000FFFFFFFF800
310
0FF8000FFFFFFFF8000FFF0003FFFFFFFFF8000000FFFFFFF000F000000FFFFF
310
FFFFC000FFC002000FF8000FFF80007FE000001FFFFFFFFE000001FFFFFFFFF8
310
000001FFFE0000007FFFFFF0001FFFFFF8000FFFFFFFF8000FF8000FFFFFFFF8
310
000FFF0003FFFFFFFFF000001FFFFFFFF000E00000FFFFFFFFFFC000FFC00200
310
0FFC000FFF80007FE00001FFFFFFFFFE00001FFFFFFFFFF8000001FFFE000000
310
7FFFFFF0001FFFFFFC000FFFFFFFF8001FFC000FFFFFFFF8001FFF0003FFFFFF
310
FFF00001FFFFFFFFF000E00007FFFFFFFFFF8000FFC000001FFC000FFF80007F
310
C0000FFFFFFFFFFE0000FFFFFFFFFFF8000001FFFE0000007FFFFFF0001FFFFF
310
FC0007FFFFFFF0001FFC0007FFFFFFF0001FFF0003FFFFFFFFF00007FFFFFFFF
310
F000E0001FFFFFFFFFFF8000FFC000001FFC000FFF80007FC0003FFFFFFFFFFE
310
0001FFFFFFFFFFF8000001FFFE0000007FFFFFF0001FFFFFFC0007FFFFFFF000
310
1FFC0007FFFFFFF0001FFF0003FFFFFFFFF0001FFFFFFFFFF000E0003FFFFF00
310
03FF8001FFE000001FFC0007FF80007FC0007FFFFF0007FC0003FFFFF0003FF8
310
000001FFFE0000007FFFFFF0001FFFFFFC0003FFFFFFE0001FFC0003FFFFFFE0
310
001FFF0003FFFFFFFFF0003FFFFFFFFFF000E0003FFFFF0001FF8001FFE00000
310
1FFE0007FF80007FC0007FFFFE0003FC0007FFFFE0003FF8000001FFFE000000
310
7FFFFFF0001FFFFFFE0003FFFFFFE0003FFE0003FFFFFFE0003FFF0003FFFFFF
310
FFF0003FFFFF8001F000E0003FFFFF0001FF0001FFE000001FFE0007FF80007F
310
C0007FFFFE0003FC0007FFFFE0003FF8000001FFFE0000007FFFFFF0001FFFFF
310
FE0001FFFFFFC0003FFE0001FFFFFFC0003FFF0003FFFFFFFFF0003FFFFF0001
310
F000E0003FFFFF0003FF0001FFE000003FFE0007FF80007FC0007FFFFE0003FC
310
0007FFFFE0003FF8000001FFFE0000007FFFFFF0001FFFFFFF0001FFFFFFC000
310
7FFF0001FFFFFFC0007FFF0003FFFFFFFFF0003FFFFF0001F000E0003FFFFE00
310
03FF0003FFF000003FFE0003FF80007FC0007FFFFC0003FE0007FFFFE0003FF8
310
000001FFFE0000007FFFFFF0001FFFFFFF0000FFFFFF80007FFF0000FFFFFF80
310
007FFF0003FFFFFFFFF0003FFFFF0001F000E0003FFFFE0003FF0003FFF00000
310
3FFF0003FF80007FC0007FFFFC0007FE0007FFFFC0003FF8000001FFFE000000
310
7FFFFFF0001FFFFFFF80007FFFFF0000FFFF80007FFFFF0000FFFF0003FFFFFF
310
FFF0003FFFFF0003F000E0003FFFFC0003FE0003FFF000003FFF0003FF80007F
310
E0003FFFF80007FE0003FFFFC0007FF8000001FFFE0000007FFFFFF0001FFFFF
310
FF80003FFFFE0000FFFF80003FFFFE0000FFFF0003FFFFFFFFF0001FFFFE0003
310
F000F0001FFFF80003FE0003FFF000007FFF0001FF80007FE0003FFFF00007FE
310
0001FFFF80007FF8000001FFFE0000007FFFFFF0001FFFFFFFC0000FFFF80001
310
FFFFC0000FFFF80001FFFF0003FFFFFFFFF0001FFFFC0003F000F0000FFFF000
310
07FE0007FFF800007FFF0001FF80007FE0001FFFE00007FF0000FFFE00007FF8
310
000001FFFE0000007FFFFFF0001FFFFFFFC00003FFE00001FFFFC00003FFE000
310
01FFFF0003FFFFFFFFF8000FFFF80003F000F00003FFC00007FC0007FFF80000
310
7FFF8001FF80007FF00007FF80000FFF00007FF80000FFF8000001FFFE000000
310
7F80000000000001FFE000003E000003FFFFE000003E000003FFFF0003FFFFFF
310
FFF80003FFE00007F000F800000000000FFC0007FFF800007FFF8001FF80007F
310
F000000000000FFF000000000000FFF8000001FFFE0000007F80000000000001
310
FFF0000000000007FFFFF0000000000007FFFF0003FFFFFFFFFC00007E000007
310
F000F800000000000FFC0007FFF80000FFFF8000FF80007FF800000000001FFF
310
800000000001FFF8000001FFFE0000007F80000000000001FFF800000000000F
310
FFFFF800000000000FFFFF0003FFFFFFFFFC00000000000FF000FC0000000000
310
1FFC0007FFFC0000FFFF8000FF80007FF800000000003FFFC00000000001FFF8
310
000001FFFE0000007F80000000000001FFF800000000000FFFFFF80000000000
310
0FFFFF0003FFFFFFFFFE00000000001FF000FE00000000003FF8000FFFFC0000
310
FFFF8000FF80007FFC00000000003FFFC00000000003FFF8000001FFFE000000
310
7F80000000000001FFFC00000000001FFFFFFC00000000001FFFFF0003FFFFFF
310
FFFF00000000001FF000FF00000000003FF8000FFFFC0000FFFFC000FF80007F
310
FE00000000007FFFE00000000007FFF8000001FFFE0000007F80000000000001
310
FFFE00000000003FFFFFFE00000000003FFFFF0003FFFFFFFFFF80000000003F
310
F000FF80000000007FF8000FFFFC0001FFFFC0007F80007FFF0000000000FFFF
310
F0000000000FFFF800000000000000007F80000000000001FFFF8000000000FF
310
FFFFFF8000000000FFFFFF0003FFFFFFFFFFC0000000007FF000FFC000000000
310
FFF8000FFFFE0001FFFFC0007F80007FFF8000000001FFFFF8000000001FFFF8
310
00000000000000007F80000000000001FFFFC000000001FFFFFFFFC000000001
310
FFFFFF0003FFFFFFFFFFE000000000FFF000FFE000000003FFF0001FFFFE0001
310
FFFFC0007F80007FFFC000000007FFFFFE000000003FFFF80000000000000000
310
7F80000000000001FFFFE000000003FFFFFFFFE000000003FFFFFF0003FFFFFF
310
FFFFF000000003FFF000FFF80000000FFFF0001FFFFE0001FFFFE0007F80007F
310
FFF00000000FFFFFFF00000000FFFFF800000000000000007F80000000000001
310
FFFFF80000000FFFFFFFFFF80000000FFFFFFF0003FFFFFFFFFFFC0000000FFF
310
F000FFFE0000003FFFF0001FFFFE0003FFFFE0003F80007FFFFC0000003FFFFF
310
FFC0000003FFFFF800000000000000007F80000000000001FFFFFE0000003FFF
310
FFFFFFFE0000003FFFFFFF0003FFFFFFFFFFFF0000003FFFF000FFFF800000FF
310
FFF0001FFFFF0003FFFFE0003F80007FFFFF000001FFFFFFFFF800001FFFFFF8
310
00000000000000007F80000000000001FFFFFFC00001FFFFFFFFFFFFC00001FF
310
FFFFFF0003FFFFFFFFFFFFC00000FFFFF000FFFFF8000FFFFFFFFFFFFFFFFFFF
310
FFFFFFFFFFFFFFFFFFFFF0001FFFFFFFFFFF0000FFFFFFF80000000000000000
310
7FFFFFFFFFFFFFFFFFFFFFFC001FFFFFFFFFFFFFFC001FFFFFFFFFFFFFFFFFFF
310
FFFFFFFC001FFFFFF000FFFFFFFFFFFFFFFFFFFFFFFFFFFFFFFFFFFFFFFFFFFF
310
FFFFFFFFFFFFFFFFFFFFFFFFFFFFFFFFFFFFFFFFFFFFFFFFFFFFFFFFFFFFFFFF
310
FFFFFFFFFFFFFFFFFFFFFFFFFFFFFFFFFFFFFFFFFFFFFFFFFFFFFFFFFFFFFFFF
310
F000FFFFFFFFFFFFFFFFFFFFFFFFFFFFFFFFFFFFFFFFFFFFFFFFFFFFFFFFFFFF
310
FFFFFFFFFFFFFFFFFFFFFFFFFFFFFFFFFFFFFFFFFFFFFFFFFFFFFFFFFFFFFFFF
310
FFFFFFFFFFFFFFFFFFFFFFFFFFFFFFFFFFFFFFFFFFFFFFFFF000FFFFFFFFFFFF
310
FFFFFFFFFFFFFFFFFFFFFFFFFFFFFFFFFFFFFFFFFFFFFFFFFFFFFFFFFFFFFFFF
310
FFFFFFFFFFFFFFFFFFFFFFFFFFFFFFFFFFFFFFFFFFFFFFFFFFFFFFFFFFFFFFFF
310
FFFFFFFFFFFFFFFFFFFFFFFFFFFFFFFFF000FFFFFFFFFFFFFFFFFFFFFFFFFFFF
310
FFFFFFFFFFFFFFFFFFFFFFFFFFFFFFFFFFFFFFFFFFFFFFFFFFFFFFFFFFFFFFFF
310
FFFFFFFFFFFFFFFFFFFFFFFFFFFFFFFFFFFFFFFFFFFFFFFFFFFFFFFFFFFFFFFF
310
FFFFFFFFFFFFFFFFF000FFFFFFFFFFFFFFFFFFFFFFFFFFFFFFFFFFFFFFFFFFFF
310
FFFFFFFFFFFFFFFFFFFFFFFFFFFFFFFFFFFFFFFFFFFFFFFFFFFFFFFFFFFFFFFF
310
FFFFFFFFFFFFFFFFFFFFFFFFFFFFFFFFFFFFFFFFFFFFFFFFFFFFFFFFFFFFFFFF
310
F000FFFFFFFFFFFFFFFFFFFFFFFFFFFFFFFFFFFFFFFFFFFFFFFFFFFFFFFFFFFF
310
FFFFFFFFFFFFFFFFFFFFFFFFFFFFFFFFFFFFFFFFFFFFFFFFFFFFFFFFFFFFFFFF
310
FFFFFFFFFFFFFFFFFFFFFFFFFFFFFFFFFFFFFFFFFFFFFFFFF000FFFFFFFFFFFF
310
FFFFFFFFFFFFFFFFFFFFFFFFFFFFFFFFFFFFFFFFFFFFFFFFFFFFFFFFFFFFFFFF
310
FFFFFFFFFFFFFFFFFFFFFFFFFFFFFFFFFFFFFFFFFFFFFFFFFFFFFFFFFFFFFFFF
310
FFFFFFFFFFFFFFFFFFFFFFFFFFFFFFFFF000FFFFFFFFFFFFFFFFFFFFFFFFFFFF
310
FFFFFFFFFFFFFFFFFFFFFFFFFFFFFFFFFFFFFFFFFFFFFFFFFFFFFFFFFFFFFFFF
310
FFFFFFFFFFFFFFFFFFFFFFFFFFFFFFFFFFFFFFFFFFFFFFFFFFFFFFFFFFFFFFFF
310
FFFFFFFFFFFFFFFFF000FFFFFFFFFFFFFFFFFFFFFFFFFFFFFFFFFFFFFFFFFFFF
310
FFFFFFFFFFFFFFFFFFFFFFFFFFFFFFFFFFFFFFFFFFFFFFFFFFFFFFFFFFFFFFFF
310
FFFFFFFFFFFFFFFFFFFFFFFFFFFFFFFFFFFFFFFFFFFFFFFFFFFFFFFFFFFFFFFF
310
F000FFFFFFFFFFFFFFFFFFFFFFFFFFFFFFFFFFFFFFFFFFFFFFFFFFFFFFFFFFFF
310
FFFFFFFFFFFFFFFFFFFFFFFFFFFFFFFFFFFFFFFFFFFFFFFFFFFFFFFFFFFFFFFF
310
FFFFFFFFFFFFFFFFFFFFFFFFFFFFFFFFFFFFFFFFFFFFFFFFF000FFFFFFFFFFFF
310
FFFFFFFFFFFFFFFFFFFFFFFFFFFFFFFFFFFFFFFFFFFFFFFFFFFFFFFFFFFFFFFF
310
FFFFFFFFFFFFFFFFFFFFFFFFFFFFFFFFFFFFFFFFFFFFFFFFFFFFFFFFFFFFFFFF
310
FFFFFFFFFFFFFFFFFFFFFFFFFFFFFFFFF000FFFFFFFFFFFFFFFFFFFFFFFFFFFF
310
FFFFFFFFFFFFFFFFFFFFFFFFFFFFFFFFFFFFFFFFFFFFFFFFFFFFFFFFFFFFFFFF
310
FFFFFFFFFFFFFFFFFFFFFFFFFFFFFFFFFFFFFFFFFFFFFFFFFFFFFFFFFFFFFFFF
310
FFFFFFFFFFFFFFFFF000FFFFFFFFFFFFFFFFFFFFFFFFFFFFFFFFFFFFFFFFFFFF
310
FFFFFFFFFFFFFFFFFFFFFFFFFFFFFFFFFFFFFFFFFFFFFFFFFFFFFFFFFFFFFFFF
310
FFFFFFFFFFFFFFFFFFFFFFFFFFFFFFFFFFFFFFFFFFFFFFFFFFFFFFFFFFFFFFFF
310
F000FFFFFFFFFFFFFFFFFFFFFFFFFFFFFFFFFFFFFFFFFFFFFFFFFFFFFFFFFFFF
310
FFFFFFFFFFFFFFFFFFFFFFFFFFFFFFFFFFFFFFFFFFFFFFFFFFFFFFFFFFFFFFFF
310
FFFFFFFFFFFFFFFFFFFFFFFFFFFFFFFFFFFFFFFFFFFFFFFFF000FFFFFFFFFFFF
310
FFFFFFFFFFFFFFFFFFFFFFFFFFFFFFFFFFFFFFFFFFFFFFFFFFFFFFFFFFFFFFFF
310
FFFFFFFFFFFFFFFFFFFFFFFFFFFFFFFFFFFFFFFFFFFFFFFFFFFFFFFFFFFFFFFF
310
FFFFFFFFFFFFFFFFFFFFFFFFFFFFFFFFF000FFFFFFFFFFFFFFFFFFFFFFFFFFFF
310
FFFFFFFFFFFFFFFFFFFFFFFFFFFFFFFFFFFFFFFFFFFFFFFFFFFFFFFFFFFFFFFF
310
FFFFFFFFFFFFFFFFFFFFFFFFFFFFFFFFFFFFFFFFFFFFFFFFFFFFFFFFFFFFFFFF
310
FFFFFFFFFFFFFFFFF000FFFFFFFFFFFFFFFFFFFFFFFFFFFFFFFFFFFFFFFFFFFF
310
FFFFFFFFFFFFFFFFFFFFFFFFFFFFFFFFFFFFFFFFFFFFFFFFFFFFFFFFFFFFFFFF
310
FFFFFFFFFFFFFFFFFFFFFFFFFFFFFFFFFFFFFFFFFFFFFFFFFFFFFFFFFFFFFFFF
310
F000FFFFFFFFFFFFFFFFFFFFFFFFFFFFFFFFFFFFFFFFFFFFFFFFFFFFFFFFFFFF
310
FFFFFFFFFFFFFFFFFFFFFFFFFFFFFFFFFFFFFFFFFFFFFFFFFFFFFFFFFFFFFFFF
310
FFFFFFFFFFFFFFFFFFFFFFFFFFFFFFFFFFFFFFFFFFFFFFFFF000FFFFFFFFFFFF
310
FFFFFFFFFFFFFFFFFFFFFFFFFFFFFFFFFFFFFFFFFFFFFFFFFFFFFFFFFFFFFFFF
310
FFFFFFFFFFFFFFFFFFFFFFFFFFFFFFFFFFFFFFFFFFFFFFFFFFFFFFFFFFFFFFFF
310
FFFFFFFFFFFFFFFFFFFFFFFFFFFFFFFFF000FFFFFFFFFFFFFFFFFFFFFFFFFFFF
310
FFFFFFFFFFFFFFFFFFFFFFFFFFFFFFFFFFFFFFFFFFFFFFFFFFFFFFFFFFFFFFFF
310
FFFFFFFFFFFFFFFFFFFFFFFFFFFFFFFFFFFFFFFFFFFFFFFFFFFFFFFFFFFFFFFF
310
FFFFFFFFFFFFFFFFF000FFFFFFFFFFFFFFFFFFFFFFFFFFFFFFFFFFFFFFFFFFFF
310
FFFFFFFFFFFFFFFFFFFFFFFFFFFFFFFFFFFFFFFFFFFFFFFFFFFFFFFFFFFFFFFF
310
FFFFFFFFFFFFFFFFFFFFFFFFFFFFFFFFFFFFFFFFFFFFFFFFFFFFFFFFFFFFFFFF
310
F000FFFFFFFFFFFFFFFFFFFFFFFFFFFFFFFFFFFFFFFFFFFFFFFFFFFFFFFFFFFF
310
FFFFFFFFFFFFFFFFFFFFFFFFFFFFFFFFFFFFFFFFFFFFFFFFFFFFFFFFFFFFFFFF
310
FFFFFFFFFFFFFFFFFFFFFFFFFFFFFFFFFFFFFFFFFFFFFFFFF000FFFFFFFFFFFF
310
FFFFFFFFFFFFFFFFFFFFFFFFFFFFFFFFFFFFFFFFFFFFFFFFFFFFFFFFFFFFFFFF
310
FFFFFFFFFFFFFFFFFFFFFFFFFFFFFFFFFFFFFFFFFFFFFFFFFFFFFFFFFFFFFFFF
310
FFFFFFFFFFFFFFFFFFFFFFFFFFFFFFFFF0000000000000000000000000000000
310
0000000000000000000000000000000000000000000000000000000000000000
310
0000000000000000000000000000000000000000000000000000000000000000
310
0000000000000000000000000000000000000000000000000000000000000000
310
0000000000000000000000000000000000000000000000000000000000000000
310
0000000000000000000000000000000000000000000000000000000000000000
310
0000000000000000000000000000000000000000000000000000000000000000
310
0000000000000000000000000000000000000000000000000000000000000000
310
0000000000000000000000000000000000000000000000000000000000000000
310
0000000000000000000000000000000000000000000000000000000000000000
310
0000000000000000000000000000000000000000000000000000000000000000
310
0000000000000000000000000000000000000000000000000000000000000000
310
0000000000000000000000000000000000000000000000000000000000000000
310
0000000000000000000000000000000000000000000000000000000000000000
310
0000000000000000000000000000000000000000000000000000000000000000
310
0000000000000000000000000000000000000000000000000000000000000000
  1
OLE
  0
ENDSEC
  0
SECTION
  2
OBJECTS
  0
DICTIONARY
  5
C
330
0
100
AcDbDictionary
281
     1
  3
ACAD_GROUP
350
D
  3
ACAD_LAYOUT
350
1A
  3
ACAD_MLINESTYLE
350
17
  3
ACAD_PLOTSETTINGS
350
19
  3
ACAD_PLOTSTYLENAME
350
E
  3
ACAD_SCALELIST
350
47
  0
DICTIONARY
  5
D
102
{ACAD_REACTORS
330
C
102
}
330
C
100
AcDbDictionary
281
     1
  0
DICTIONARY
  5
1A
102
{ACAD_REACTORS
330
C
102
}
330
C
100
AcDbDictionary
281
     1
  3
Layout1
350
1E
  3
Layout2
350
26
  3
Model
350
22
  0
DICTIONARY
  5
17
102
{ACAD_REACTORS
330
C
102
}
330
C
100
AcDbDictionary
281
     1
  3
Standard
350
18
  0
DICTIONARY
  5
19
102
{ACAD_REACTORS
330
C
102
}
330
C
100
AcDbDictionary
281
     1
  0
ACDBDICTIONARYWDFLT
  5
E
102
{ACAD_REACTORS
330
C
102
}
330
C
100
AcDbDictionary
281
     1
  3
Normal
350
F
100
AcDbDictionaryWithDefault
340
F
  0
DICTIONARY
  5
47
102
{ACAD_REACTORS
330
C
102
}
330
C
100
AcDbDictionary
281
     1
  3
A0
350
48
  3
A1
350
49
  3
A2
350
4A
  3
A3
350
4B
  3
A4
350
4C
  3
A5
350
4D
  3
A6
350
4E
  3
A7
350
4F
  3
A8
350
50
  3
A9
350
51
  3
B0
350
52
  3
B1
350
53
  3
B2
350
54
  3
B3
350
55
  3
B4
350
56
  3
B5
350
57
  3
B6
350
58
  3
B7
350
59
  3
B8
350
5A
  3
B9
350
5B
  3
C0
350
5C
  3
C1
350
5D
  3
C2
350
5E
  3
C3
350
5F
  3
C4
350
60
  3
C5
350
61
  3
C6
350
62
  3
C7
350
63
  3
C8
350
64
  3
C9
350
65
  3
D0
350
66
  3
D1
350
67
  3
D2
350
68
  0
LAYOUT
  5
1E
102
{ACAD_REACTORS
330
1A
102
}
330
1A
100
AcDbPlotSettings
  1

  2
none_device
  4

  6

 40
0.0
 41
0.0
 42
0.0
 43
0.0
 44
0.0
 45
0.0
 46
0.0
 47
0.0
 48
0.0
 49
0.0
140
0.0
141
0.0
142
1.0
143
1.0
 70
   688
 72
     1
 73
     0
 74
     5
  7

 75
    16
147
1.0
148
0.0
149
0.0
100
AcDbLayout
  1
Layout1
 70
     1
 71
     1
 10
0.0
 20
0.0
 11
420.0
 21
297.0
 12
0.0
 22
0.0
 32
0.0
 14
1.0000000000E+20
 24
1.0000000000E+20
 34
1.0000000000E+20
 15
-1.0000000000E+20
 25
-1.0000000000E+20
 35
-1.0000000000E+20
146
0.0
 13
0.0
 23
0.0
 33
0.0
 16
1.0
 26
0.0
 36
0.0
 17
0.0
 27
1.0
 37
0.0
 76
     0
330
1B
  0
LAYOUT
  5
26
102
{ACAD_REACTORS
330
1A
102
}
330
1A
100
AcDbPlotSettings
  1

  2
none_device
  4

  6

 40
0.0
 41
0.0
 42
0.0
 43
0.0
 44
0.0
 45
0.0
 46
0.0
 47
0.0
 48
0.0
 49
0.0
140
0.0
141
0.0
142
1.0
143
1.0
 70
   688
 72
     1
 73
     0
 74
     5
  7

 75
    16
147
1.0
148
0.0
149
0.0
100
AcDbLayout
  1
Layout2
 70
     1
 71
     2
 10
0.0
 20
0.0
 11
0.0
 21
0.0
 12
0.0
 22
0.0
 32
0.0
 14
0.0
 24
0.0
 34
0.0
 15
0.0
 25
0.0
 35
0.0
146
0.0
 13
0.0
 23
0.0
 33
0.0
 16
1.0
 26
0.0
 36
0.0
 17
0.0
 27
1.0
 37
0.0
 76
     0
330
23
  0
LAYOUT
  5
22
102
{ACAD_REACTORS
330
1A
102
}
330
1A
100
AcDbPlotSettings
  1

  2
none_device
  4
Letter_(8.50_x_11.00_Inches)
  6

 40
6.35
 41
6.35
 42
6.35000508
 43
6.35000508
 44
215.9
 45
279.4
 46
0.0
 47
0.0
 48
0.0
 49
0.0
140
0.0
141
0.0
142
1.0
143
1.0
 70
  1712
 72
     1
 73
     0
 74
     0
  7

 75
     0
147
1.0
148
0.0
149
0.0
100
AcDbLayout
  1
Model
 70
     1
 71
     0
 10
0.0
 20
0.0
 11
297.0
 21
210.0
 12
0.0
 22
0.0
 32
0.0
 14
0.0
 24
0.0
 34
0.0
 15
297.0
 25
210.0
 35
0.0
146
0.0
 13
0.0
 23
0.0
 33
0.0
 16
1.0
 26
0.0
 36
0.0
 17
0.0
 27
1.0
 37
0.0
 76
     0
330
1F
331
29
  0
MLINESTYLE
  5
18
102
{ACAD_REACTORS
330
17
102
}
330
17
100
AcDbMlineStyle
  2
Standard
 70
     0
  3

 62
   256
 51
90.0
 52
90.0
 71
     2
 49
0.5
 62
   256
  6
BYLAYER
 49
-0.5
 62
   256
  6
BYLAYER
  0
ACDBPLACEHOLDER
  5
F
102
{ACAD_REACTORS
330
E
102
}
330
E
  0
SCALE
  5
48
102
{ACAD_REACTORS
330
47
102
}
330
47
100
AcDbScale
 70
     0
300
1:1
140
1.0
141
1.0
290
     1
  0
SCALE
  5
49
102
{ACAD_REACTORS
330
47
102
}
330
47
100
AcDbScale
 70
     0
300
1:2
140
1.0
141
2.0
290
     0
  0
SCALE
  5
4A
102
{ACAD_REACTORS
330
47
102
}
330
47
100
AcDbScale
 70
     0
300
1:4
140
1.0
141
4.0
290
     0
  0
SCALE
  5
4B
102
{ACAD_REACTORS
330
47
102
}
330
47
100
AcDbScale
 70
     0
300
1:5
140
1.0
141
5.0
290
     0
  0
SCALE
  5
4C
102
{ACAD_REACTORS
330
47
102
}
330
47
100
AcDbScale
 70
     0
300
1:8
140
1.0
141
8.0
290
     0
  0
SCALE
  5
4D
102
{ACAD_REACTORS
330
47
102
}
330
47
100
AcDbScale
 70
     0
300
1:10
140
1.0
141
10.0
290
     0
  0
SCALE
  5
4E
102
{ACAD_REACTORS
330
47
102
}
330
47
100
AcDbScale
 70
     0
300
1:16
140
1.0
141
16.0
290
     0
  0
SCALE
  5
4F
102
{ACAD_REACTORS
330
47
102
}
330
47
100
AcDbScale
 70
     0
300
1:20
140
1.0
141
20.0
290
     0
  0
SCALE
  5
50
102
{ACAD_REACTORS
330
47
102
}
330
47
100
AcDbScale
 70
     0
300
1:30
140
1.0
141
30.0
290
     0
  0
SCALE
  5
51
102
{ACAD_REACTORS
330
47
102
}
330
47
100
AcDbScale
 70
     0
300
1:40
140
1.0
141
40.0
290
     0
  0
SCALE
  5
52
102
{ACAD_REACTORS
330
47
102
}
330
47
100
AcDbScale
 70
     0
300
1:50
140
1.0
141
50.0
290
     0
  0
SCALE
  5
53
102
{ACAD_REACTORS
330
47
102
}
330
47
100
AcDbScale
 70
     0
300
1:100
140
1.0
141
100.0
290
     0
  0
SCALE
  5
54
102
{ACAD_REACTORS
330
47
102
}
330
47
100
AcDbScale
 70
     0
300
2:1
140
2.0
141
1.0
290
     0
  0
SCALE
  5
55
102
{ACAD_REACTORS
330
47
102
}
330
47
100
AcDbScale
 70
     0
300
4:1
140
4.0
141
1.0
290
     0
  0
SCALE
  5
56
102
{ACAD_REACTORS
330
47
102
}
330
47
100
AcDbScale
 70
     0
300
8:1
140
8.0
141
1.0
290
     0
  0
SCALE
  5
57
102
{ACAD_REACTORS
330
47
102
}
330
47
100
AcDbScale
 70
     0
300
10:1
140
10.0
141
1.0
290
     0
  0
SCALE
  5
58
102
{ACAD_REACTORS
330
47
102
}
330
47
100
AcDbScale
 70
     0
300
100:1
140
100.0
141
1.0
290
     0
  0
SCALE
  5
59
102
{ACAD_REACTORS
330
47
102
}
330
47
100
AcDbScale
 70
     0
300
1/128" = 1'-0"
140
0.0078125
141
12.0
290
     0
  0
SCALE
  5
5A
102
{ACAD_REACTORS
330
47
102
}
330
47
100
AcDbScale
 70
     0
300
1/64" = 1'-0"
140
0.015625
141
12.0
290
     0
  0
SCALE
  5
5B
102
{ACAD_REACTORS
330
47
102
}
330
47
100
AcDbScale
 70
     0
300
1/32" = 1'-0"
140
0.03125
141
12.0
290
     0
  0
SCALE
  5
5C
102
{ACAD_REACTORS
330
47
102
}
330
47
100
AcDbScale
 70
     0
300
1/16" = 1'-0"
140
0.0625
141
12.0
290
     0
  0
SCALE
  5
5D
102
{ACAD_REACTORS
330
47
102
}
330
47
100
AcDbScale
 70
     0
300
3/32" = 1'-0"
140
0.09375
141
12.0
290
     0
  0
SCALE
  5
5E
102
{ACAD_REACTORS
330
47
102
}
330
47
100
AcDbScale
 70
     0
300
1/8" = 1'-0"
140
0.125
141
12.0
290
     0
  0
SCALE
  5
5F
102
{ACAD_REACTORS
330
47
102
}
330
47
100
AcDbScale
 70
     0
300
3/16" = 1'-0"
140
0.1875
141
12.0
290
     0
  0
SCALE
  5
60
102
{ACAD_REACTORS
330
47
102
}
330
47
100
AcDbScale
 70
     0
300
1/4" = 1'-0"
140
0.25
141
12.0
290
     0
  0
SCALE
  5
61
102
{ACAD_REACTORS
330
47
102
}
330
47
100
AcDbScale
 70
     0
300
3/8" = 1'-0"
140
0.375
141
12.0
290
     0
  0
SCALE
  5
62
102
{ACAD_REACTORS
330
47
102
}
330
47
100
AcDbScale
 70
     0
300
1/2" = 1'-0"
140
0.5
141
12.0
290
     0
  0
SCALE
  5
63
102
{ACAD_REACTORS
330
47
102
}
330
47
100
AcDbScale
 70
     0
300
3/4" = 1'-0"
140
0.75
141
12.0
290
     0
  0
SCALE
  5
64
102
{ACAD_REACTORS
330
47
102
}
330
47
100
AcDbScale
 70
     0
300
1" = 1'-0"
140
1.0
141
12.0
290
     0
  0
SCALE
  5
65
102
{ACAD_REACTORS
330
47
102
}
330
47
100
AcDbScale
 70
     0
300
1-1/2" = 1'-0"
140
1.5
141
12.0
290
     0
  0
SCALE
  5
66
102
{ACAD_REACTORS
330
47
102
}
330
47
100
AcDbScale
 70
     0
300
3" = 1'-0"
140
3.0
141
12.0
290
     0
  0
SCALE
  5
67
102
{ACAD_REACTORS
330
47
102
}
330
47
100
AcDbScale
 70
     0
300
6" = 1'-0"
140
6.0
141
12.0
290
     0
  0
SCALE
  5
68
102
{ACAD_REACTORS
330
47
102
}
330
47
100
AcDbScale
 70
     0
300
1'-0" = 1'-0"
140
12.0
141
12.0
290
     0
  0
ENDSEC
  0
EOF
