  0
SECTION
  2
HEADER
  9
$ACADVER
  1
AC1015
  9
$ACADMAINTVER
 70
     6
  9
$DWGCODEPAGE
  3
ANSI_1252
  9
$INSBASE
 10
0.0
 20
0.0
 30
0.0
  9
$EXTMIN
 10
0.0
 20
0.0
 30
0.0
  9
$EXTMAX
 10
297.0
 20
210.0
 30
0.0
  9
$LIMMIN
 10
0.0
 20
0.0
  9
$LIMMAX
 10
297.0
 20
210.0
  9
$ORTHOMODE
 70
     0
  9
$REGENMODE
 70
     1
  9
$FILLMODE
 70
     1
  9
$QTEXTMODE
 70
     0
  9
$MIRRTEXT
 70
     1
  9
$LTSCALE
 40
1.0
  9
$ATTMODE
 70
     1
  9
$TEXTSIZE
 40
2.0
  9
$TRACEWID
 40
1.0
  9
$TEXTSTYLE
  7
Standard
  9
$CLAYER
  8
0
  9
$CELTYPE
  6
ByLayer
  9
$CECOLOR
 62
   256
  9
$CELTSCALE
 40
1.0
  9
$DISPSILH
 70
     0
  9
$DIMSCALE
 40
1.0
  9
$DIMASZ
 40
3.0
  9
$DIMEXO
 40
0.0
  9
$DIMDLI
 40
3.75
  9
$DIMRND
 40
0.0
  9
$DIMDLE
 40
0.0
  9
$DIMEXE
 40
1.0
  9
$DIMTP
 40
0.0
  9
$DIMTM
 40
0.0
  9
$DIMTXT
 40
2.0
  9
$DIMCEN
 40
2.5
  9
$DIMTSZ
 40
0.0
  9
$DIMTOL
 70
     0
  9
$DIMLIM
 70
     0
  9
$DIMTIH
 70
     1
  9
$DIMTOH
 70
     1
  9
$DIMSE1
 70
     0
  9
$DIMSE2
 70
     0
  9
$DIMTAD
 70
     1
  9
$DIMZIN
 70
     0
  9
$DIMBLK
  1

  9
$DIMASO
 70
     1
  9
$DIMSHO
 70
     1
  9
$DIMPOST
  1

  9
$DIMAPOST
  1

  9
$DIMALT
 70
     0
  9
$DIMALTD
 70
     3
  9
$DIMALTF
 40
0.0393700787
  9
$DIMLFAC
 40
1.0
  9
$DIMTOFL
 70
     1
  9
$DIMTVP
 40
0.0
  9
$DIMTIX
 70
     0
  9
$DIMSOXD
 70
     0
  9
$DIMSAH
 70
     0
  9
$DIMBLK1
  1

  9
$DIMBLK2
  1

  9
$DIMSTYLE
  2
ISO-25
  9
$DIMCLRD
 70
     0
  9
$DIMCLRE
 70
     0
  9
$DIMCLRT
 70
     0
  9
$DIMTFAC
 40
1.0
  9
$DIMGAP
 40
1.524
  9
$DIMJUST
 70
     0
  9
$DIMSD1
 70
     0
  9
$DIMSD2
 70
     0
  9
$DIMTOLJ
 70
     0
  9
$DIMTZIN
 70
     0
  9
$DIMALTZ
 70
     0
  9
$DIMALTTZ
 70
     0
  9
$DIMUPT
 70
     0
  9
$DIMDEC
 70
     2
  9
$DIMTDEC
 70
     3
  9
$DIMALTU
 70
     2
  9
$DIMALTTD
 70
     3
  9
$DIMTXSTY
  7
Standard
  9
$DIMAUNIT
 70
     0
  9
$DIMADEC
 70
     2
  9
$DIMALTRND
 40
0.0
  9
$DIMAZIN
 70
     0
  9
$DIMDSEP
 70
    44
  9
$DIMATFIT
 70
     3
  9
$DIMFRAC
 70
     0
  9
$DIMLDRBLK
  1

  9
$DIMLUNIT
 70
     2
  9
$DIMLWD
 70
    -2
  9
$DIMLWE
 70
    -2
  9
$DIMTMOVE
 70
     0
  9
$LUNITS
 70
     2
  9
$LUPREC
 70
     2
  9
$SKETCHINC
 40
1.0
  9
$FILLETRAD
 40
10.0
  9
$AUNITS
 70
     0
  9
$AUPREC
 70
     2
  9
$MENU
  1
.
  9
$ELEVATION
 40
0.0
  9
$PELEVATION
 40
0.0
  9
$THICKNESS
 40
0.0
  9
$LIMCHECK
 70
     0
  9
$CHAMFERA
 40
0.0
  9
$CHAMFERB
 40
0.0
  9
$CHAMFERC
 40
0.0
  9
$CHAMFERD
 40
0.0
  9
$SKPOLY
 70
     0
  9
$TDCREATE
 40
2457668.663261806
  9
$TDUCREATE
 40
2457668.579928472
  9
$TDUPDATE
 40
2457668.663263322
  9
$TDUUPDATE
 40
2457668.579929988
  9
$TDINDWG
 40
0.0000000116
  9
$TDUSRTIMER
 40
0.0000000116
  9
$USRTIMER
 70
     1
  9
$ANGBASE
 50
0.0
  9
$ANGDIR
 70
     0
  9
$PDMODE
 70
     0
  9
$PDSIZE
 40
-1.0
  9
$PLINEWID
 40
0.0
  9
$SPLFRAME
 70
     0
  9
$SPLINETYPE
 70
     6
  9
$SPLINESEGS
 70
     8
  9
$HANDSEED
  5
25A
  9
$SURFTAB1
 70
     6
  9
$SURFTAB2
 70
     6
  9
$SURFTYPE
 70
     6
  9
$SURFU
 70
     6
  9
$SURFV
 70
     6
  9
$UCSBASE
  2

  9
$UCSNAME
  2

  9
$UCSORG
 10
0.0
 20
0.0
 30
0.0
  9
$UCSXDIR
 10
1.0
 20
0.0
 30
0.0
  9
$UCSYDIR
 10
0.0
 20
1.0
 30
0.0
  9
$UCSORTHOREF
  2

  9
$UCSORTHOVIEW
 70
     0
  9
$UCSORGTOP
 10
0.0
 20
0.0
 30
0.0
  9
$UCSORGBOTTOM
 10
0.0
 20
0.0
 30
0.0
  9
$UCSORGLEFT
 10
0.0
 20
0.0
 30
0.0
  9
$UCSORGRIGHT
 10
0.0
 20
0.0
 30
0.0
  9
$UCSORGFRONT
 10
0.0
 20
0.0
 30
0.0
  9
$UCSORGBACK
 10
0.0
 20
0.0
 30
0.0
  9
$PUCSBASE
  2

  9
$PUCSNAME
  2

  9
$PUCSORG
 10
0.0
 20
0.0
 30
0.0
  9
$PUCSXDIR
 10
1.0
 20
0.0
 30
0.0
  9
$PUCSYDIR
 10
0.0
 20
1.0
 30
0.0
  9
$PUCSORTHOREF
  2

  9
$PUCSORTHOVIEW
 70
     0
  9
$PUCSORGTOP
 10
0.0
 20
0.0
 30
0.0
  9
$PUCSORGBOTTOM
 10
0.0
 20
0.0
 30
0.0
  9
$PUCSORGLEFT
 10
0.0
 20
0.0
 30
0.0
  9
$PUCSORGRIGHT
 10
0.0
 20
0.0
 30
0.0
  9
$PUCSORGFRONT
 10
0.0
 20
0.0
 30
0.0
  9
$PUCSORGBACK
 10
0.0
 20
0.0
 30
0.0
  9
$USERI1
 70
     0
  9
$USERI2
 70
     0
  9
$USERI3
 70
     0
  9
$USERI4
 70
     0
  9
$USERI5
 70
     0
  9
$USERR1
 40
0.0
  9
$USERR2
 40
0.0
  9
$USERR3
 40
0.0
  9
$USERR4
 40
0.0
  9
$USERR5
 40
0.0
  9
$WORLDVIEW
 70
     1
  9
$SHADEDGE
 70
     3
  9
$SHADEDIF
 70
    70
  9
$TILEMODE
 70
     1
  9
$MAXACTVP
 70
    64
  9
$PINSBASE
 10
0.0
 20
0.0
 30
0.0
  9
$PLIMCHECK
 70
     0
  9
$PEXTMIN
 10
1.0000000000E+20
 20
1.0000000000E+20
 30
1.0000000000E+20
  9
$PEXTMAX
 10
-1.0000000000E+20
 20
-1.0000000000E+20
 30
-1.0000000000E+20
  9
$PLIMMIN
 10
0.0
 20
0.0
  9
$PLIMMAX
 10
420.0
 20
297.0
  9
$UNITMODE
 70
     0
  9
$VISRETAIN
 70
     1
  9
$PLINEGEN
 70
     0
  9
$PSLTSCALE
 70
     1
  9
$TREEDEPTH
 70
  3020
  9
$CMLSTYLE
  2
Standard
  9
$CMLJUST
 70
     0
  9
$CMLSCALE
 40
20.0
  9
$PROXYGRAPHICS
 70
     1
  9
$MEASUREMENT
 70
     1
  9
$CELWEIGHT
370
    -1
  9
$ENDCAPS
280
     0
  9
$JOINSTYLE
280
     0
  9
$LWDISPLAY
290
     1
  9
$INSUNITS
 70
     4
  9
$HYPERLINKBASE
  1

  9
$STYLESHEET
  1

  9
$XEDIT
290
     1
  9
$CEPSNTYPE
380
     0
  9
$PSTYLEMODE
290
     1
  9
$FINGERPRINTGUID
  2
{03E0E3FC-0B6A-4266-A1FC-478543131897}
  9
$VERSIONGUID
  2
{FAEB1C32-E019-11D5-929B-00C0DF256EC4}
  9
$EXTNAMES
290
     1
  9
$PSVPSCALE
 40
0.0
  9
$OLESTARTUP
290
     0
  0
ENDSEC
  0
SECTION
  2
CLASSES
  0
CLASS
  1
ACDBDICTIONARYWDFLT
  2
AcDbDictionaryWithDefault
  3
ObjectDBX Classes
 90
        0
280
     0
281
     0
  0
CLASS
  1
VISUALSTYLE
  2
AcDbVisualStyle
  3
ObjectDBX Classes
 90
     4095
280
     0
281
     0
  0
CLASS
  1
MATERIAL
  2
AcDbMaterial
  3
ObjectDBX Classes
 90
     1153
280
     0
281
     0
  0
CLASS
  1
SCALE
  2
AcDbScale
  3
ObjectDBX Classes
 90
     1153
280
     0
281
     0
  0
CLASS
  1
TABLESTYLE
  2
AcDbTableStyle
  3
ObjectDBX Classes
 90
     4095
280
     0
281
     0
  0
CLASS
  1
MLEADERSTYLE
  2
AcDbMLeaderStyle
  3
ACDB_MLEADERSTYLE_CLASS
 90
     4095
280
     0
281
     0
  0
CLASS
  1
SUN
  2
AcDbSun
  3
SCENEOE
 90
     1153
280
     0
281
     0
  0
CLASS
  1
ACDBPLACEHOLDER
  2
AcDbPlaceHolder
  3
ObjectDBX Classes
 90
        0
280
     0
281
     0
  0
CLASS
  1
LAYOUT
  2
AcDbLayout
  3
ObjectDBX Classes
 90
        0
280
     0
281
     0
  0
ENDSEC
  0
SECTION
  2
TABLES
  0
TABLE
  2
VPORT
  5
8
330
0
100
AcDbSymbolTable
 70
     1
  0
VPORT
  5
29
330
8
100
AcDbSymbolTableRecord
100
AcDbViewportTableRecord
  2
*Active
 70
     0
 10
0.0
 20
0.0
 11
1.0
 21
1.0
 12
148.5
 22
105.0
 13
0.0
 23
0.0
 14
10.0
 24
10.0
 15
10.0
 25
10.0
 16
0.0
 26
0.0
 36
1.0
 17
0.0
 27
0.0
 37
0.0
 40
210.0
 41
1.4142857143
 42
50.0
 43
0.0
 44
0.0
 50
0.0
 51
0.0
 71
     0
 72
  2000
 73
     1
 74
     3
 75
     0
 76
     0
 77
     0
 78
     0
281
     0
 65
     1
110
0.0
120
0.0
130
0.0
111
1.0
121
0.0
131
0.0
112
0.0
122
1.0
132
0.0
 79
     0
146
0.0
  0
ENDTAB
  0
TABLE
  2
LTYPE
  5
5
330
0
100
AcDbSymbolTable
 70
     6
  0
LTYPE
  5
14
330
5
100
AcDbSymbolTableRecord
100
AcDbLinetypeTableRecord
  2
ByBlock
 70
     0
  3

 72
    65
 73
     0
 40
0.0
  0
LTYPE
  5
15
330
5
100
AcDbSymbolTableRecord
100
AcDbLinetypeTableRecord
  2
ByLayer
 70
     0
  3

 72
    65
 73
     0
 40
0.0
  0
LTYPE
  5
16
330
5
100
AcDbSymbolTableRecord
100
AcDbLinetypeTableRecord
  2
Continuous
 70
     0
  3
Solid line
 72
    65
 73
     0
 40
0.0
  0
LTYPE
  5
6E
330
5
100
AcDbSymbolTableRecord
100
AcDbLinetypeTableRecord
  2
HIDDEN
 70
     0
  3
Hidden __ __ __ __ __ __ __ __ __ __ __ __ __ __
 72
    65
 73
     2
 40
1.905
 49
1.27
 74
     0
 49
-0.635
 74
     0
  0
LTYPE
  5
6F
330
5
100
AcDbSymbolTableRecord
100
AcDbLinetypeTableRecord
  2
PHANTOM
 70
     0
  3
Phantom ______  __  __  ______  __  __  ______
 72
    65
 73
     6
 40
12.7
 49
6.35
 74
     0
 49
-1.27
 74
     0
 49
1.27
 74
     0
 49
-1.27
 74
     0
 49
1.27
 74
     0
 49
-1.27
 74
     0
  0
LTYPE
  5
70
330
5
100
AcDbSymbolTableRecord
100
AcDbLinetypeTableRecord
  2
CENTER
 70
     0
  3
Center ____ _ ____ _ ____ _ ____ _ ____ _ ____
 72
    65
 73
     4
 40
10.16
 49
6.35
 74
     0
 49
-1.27
 74
     0
 49
1.27
 74
     0
 49
-1.27
 74
     0
  0
LTYPE
  5
71
330
5
100
AcDbSymbolTableRecord
100
AcDbLinetypeTableRecord
  2
CENTERX2
 70
     0
  3
Center (2x) ________  __  ________  __  _____
 72
    65
 73
     4
 40
20.32
 49
12.7
 74
     0
 49
-2.54
 74
     0
 49
2.54
 74
     0
 49
-2.54
 74
     0
  0
LTYPE
  5
72
330
5
100
AcDbSymbolTableRecord
100
AcDbLinetypeTableRecord
  2
DOT2
 70
     0
  3
Dot (.5x) ........................................
 72
    65
 73
     2
 40
0.635
 49
0.0
 74
     0
 49
-0.635
 74
     0
  0
ENDTAB
  0
TABLE
  2
LAYER
  5
2
330
0
100
AcDbSymbolTable
 70
     5
  0
LAYER
  5
10
330
2
100
AcDbSymbolTableRecord
100
AcDbLayerTableRecord
  2
0
 70
     0
 62
     7
  6
Continuous
370
    -3
390
F
  0
LAYER
  5
73
330
2
100
AcDbSymbolTableRecord
100
AcDbLayerTableRecord
  2
FORMAT
 70
     0
 62
     7
  6
Continuous
370
    -3
390
F
  0
LAYER
  5
74
330
2
100
AcDbSymbolTableRecord
100
AcDbLayerTableRecord
  2
VERMASSUNG
 70
     0
 62
     7
  6
Continuous
370
    -3
390
F
  0
LAYER
  5
75
330
2
100
AcDbSymbolTableRecord
100
AcDbLayerTableRecord
  2
KOPF_DÜNN
 70
     0
 62
     7
  6
Continuous
370
    -3
390
F
  0
LAYER
  5
76
330
2
100
AcDbSymbolTableRecord
100
AcDbLayerTableRecord
  2
KOPF_DICK
 70
     0
 62
     7
  6
Continuous
370
    15
390
F
  0
ENDTAB
  0
TABLE
  2
STYLE
  5
3
330
0
100
AcDbSymbolTable
 70
     3
  0
STYLE
  5
11
330
3
100
AcDbSymbolTableRecord
100
AcDbTextStyleTableRecord
  2
Standard
 70
     0
 40
0.0
 41
1.0
 50
0.0
 71
     0
 42
2.0
  3
txt
  4

  0
STYLE
  5
77
330
3
100
AcDbSymbolTableRecord
100
AcDbTextStyleTableRecord
  2
SLDTEXTSTYLE0
 70
     0
 40
0.0
 41
0.7
 50
0.0
 71
     0
 42
2.0
  3
TXT
  4

  0
STYLE
  5
187
330
3
100
AcDbSymbolTableRecord
100
AcDbTextStyleTableRecord
  2
SLDTEXTSTYLE1
 70
     0
 40
0.0
 41
0.65
 50
0.0
 71
     0
 42
2.0
  3
TXT
  4

  0
ENDTAB
  0
TABLE
  2
VIEW
  5
6
330
0
100
AcDbSymbolTable
 70
     0
  0
ENDTAB
  0
TABLE
  2
UCS
  5
7
330
0
100
AcDbSymbolTable
 70
     0
  0
ENDTAB
  0
TABLE
  2
APPID
  5
9
330
0
100
AcDbSymbolTable
 70
     1
  0
APPID
  5
12
330
9
100
AcDbSymbolTableRecord
100
AcDbRegAppTableRecord
  2
ACAD
 70
     0
  0
ENDTAB
  0
TABLE
  2
DIMSTYLE
  5
A
330
0
100
AcDbSymbolTable
 70
     2
100
AcDbDimStyleTable
  0
DIMSTYLE
105
27
330
A
100
AcDbSymbolTableRecord
100
AcDbDimStyleTableRecord
  2
ISO-25
 70
     0
 41
2.5
 42
0.625
 43
3.75
 44
1.25
 73
     0
 74
     0
 77
     1
 78
     8
140
2.5
141
2.5
143
0.0393700787
147
0.625
171
     3
172
     1
178
     0
271
     2
272
     2
274
     3
278
    44
283
     0
284
     8
340
11
  0
DIMSTYLE
105
17E
102
{ACAD_REACTORS
330
17D
330
18B
330
196
330
1A2
330
1AE
330
1B8
102
}
330
A
100
AcDbSymbolTableRecord
100
AcDbDimStyleTableRecord
  2
SLDDIMSTYLE0
 70
     0
 41
3.0
 44
0.0
 45
0.000000001
 73
     0
 74
     0
 77
     1
 78
    12
 79
     3
140
2.0
147
0.5
173
     1
178
     0
271
     2
272
     3
276
     2
284
    12
340
77
  0
ENDTAB
  0
TABLE
  2
BLOCK_RECORD
  5
1
330
0
100
AcDbSymbolTable
 70
     7
  0
BLOCK_RECORD
  5
1F
330
1
100
AcDbSymbolTableRecord
100
AcDbBlockTableRecord
  2
*Model_Space
340
22
  0
BLOCK_RECORD
  5
1B
330
1
100
AcDbSymbolTableRecord
100
AcDbBlockTableRecord
  2
*Paper_Space
340
1E
  0
BLOCK_RECORD
  5
23
330
1
100
AcDbSymbolTableRecord
100
AcDbBlockTableRecord
  2
*Paper_Space0
340
26
  0
BLOCK_RECORD
  5
17F
330
1
100
AcDbSymbolTableRecord
100
AcDbBlockTableRecord
  2
_D
340
0
  0
BLOCK_RECORD
  5
18C
330
1
100
AcDbSymbolTableRecord
100
AcDbBlockTableRecord
  2
_D_1
340
0
  0
BLOCK_RECORD
  5
197
330
1
100
AcDbSymbolTableRecord
100
AcDbBlockTableRecord
  2
_D_2
340
0
  0
BLOCK_RECORD
  5
1A3
330
1
100
AcDbSymbolTableRecord
100
AcDbBlockTableRecord
  2
_D_3
340
0
  0
BLOCK_RECORD
  5
1AF
330
1
100
AcDbSymbolTableRecord
100
AcDbBlockTableRecord
  2
_D_4
340
0
  0
BLOCK_RECORD
  5
1B9
330
1
100
AcDbSymbolTableRecord
100
AcDbBlockTableRecord
  2
_D_5
340
0
  0
ENDTAB
  0
ENDSEC
  0
SECTION
  2
BLOCKS
  0
BLOCK
  5
20
330
1F
100
AcDbEntity
  8
0
100
AcDbBlockBegin
  2
*Model_Space
 70
     0
 10
0.0
 20
0.0
 30
0.0
  3
*Model_Space
  1

  0
ENDBLK
  5
21
330
1F
100
AcDbEntity
  8
0
100
AcDbBlockEnd
  0
BLOCK
  5
1C
330
1B
100
AcDbEntity
 67
     1
  8
0
100
AcDbBlockBegin
  2
*Paper_Space
 70
     0
 10
0.0
 20
0.0
 30
0.0
  3
*Paper_Space
  1

  0
ENDBLK
  5
1D
330
1B
100
AcDbEntity
 67
     1
  8
0
100
AcDbBlockEnd
  0
BLOCK
  5
24
330
23
100
AcDbEntity
  8
0
100
AcDbBlockBegin
  2
*Paper_Space0
 70
     0
 10
0.0
 20
0.0
 30
0.0
  3
*Paper_Space0
  1

  0
ENDBLK
  5
25
330
23
100
AcDbEntity
  8
0
100
AcDbBlockEnd
  0
BLOCK
  5
180
330
17F
100
AcDbEntity
  8
0
100
AcDbBlockBegin
  2
_D
 70
     0
 10
0.0
 20
0.0
 30
0.0
  3
_D
  1

  0
SOLID
  5
182
330
17F
100
AcDbEntity
  8
VERMASSUNG
100
AcDbTrace
 10
109.5167345281
 20
135.9123566331
 30
0.0
 11
109.0667345281
 21
132.9123566331
 31
0.0
 12
109.9667345281
 22
132.9123566331
 32
0.0
 13
109.9667345281
 23
132.9123566331
 33
0.0
  0
SOLID
  5
183
330
17F
100
AcDbEntity
  8
VERMASSUNG
100
AcDbTrace
 10
109.5167345281
 20
72.9123566331
 30
0.0
 11
109.9667345281
 21
75.9123566331
 31
0.0
 12
109.0667345281
 22
75.9123566331
 32
0.0
 13
109.0667345281
 23
75.9123566331
 33
0.0
  0
LINE
  5
184
330
17F
100
AcDbEntity
  8
VERMASSUNG
100
AcDbLine
 10
146.7465430713
 20
135.9123566331
 30
0.0
 11
108.5167345281
 21
135.9123566331
 31
0.0
  0
LINE
  5
185
330
17F
100
AcDbEntity
  8
VERMASSUNG
100
AcDbLine
 10
146.7465430713
 20
72.9123566331
 30
0.0
 11
108.5167345281
 21
72.9123566331
 31
0.0
  0
LINE
  5
186
330
17F
100
AcDbEntity
  8
VERMASSUNG
100
AcDbLine
 10
109.5167345281
 20
135.9123566331
 30
0.0
 11
109.5167345281
 21
72.9123566331
 31
0.0
  0
MTEXT
  5
188
330
17F
100
AcDbEntity
  8
VERMASSUNG
100
AcDbMText
 10
106.7385992719
 20
94.7082804231
 30
0.0
 40
2.0
 41
0.0
 71
     1
 72
     1
  1
HSK A 63
  7
SLDTEXTSTYLE1
 11
-7.044195017643634E-15
 21
1.0
 31
0.0
 73
     1
 44
1.0
  0
MTEXT
  5
189
330
17F
100
AcDbEntity
  8
VERMASSUNG
100
AcDbMText
 10
106.9385992232
 20
107.7082806913
 30
0.0
 40
2.0
 41
0.0
 71
     1
 72
     1
  1
%%c
  7
SLDTEXTSTYLE0
 11
-7.044195017643634E-15
 21
1.0
 31
0.0
 73
     1
 44
1.0
  0
MTEXT
  5
18A
330
17F
100
AcDbEntity
  8
VERMASSUNG
100
AcDbMText
 10
106.9385989321
 20
111.3170528226
 30
0.0
 40
2.0
 41
0.0
 71
     1
 72
     1
  1
63
  7
SLDTEXTSTYLE0
 11
-7.044195017643634E-15
 21
1.0
 31
0.0
 73
     1
 44
1.0
  0
ENDBLK
  5
181
330
17F
100
AcDbEntity
  8
0
100
AcDbBlockEnd
  0
BLOCK
  5
18D
330
18C
100
AcDbEntity
  8
0
100
AcDbBlockBegin
  2
_D_1
 70
     0
 10
0.0
 20
0.0
 30
0.0
  3
_D_1
  1

  0
SOLID
  5
18F
330
18C
100
AcDbEntity
  8
VERMASSUNG
100
AcDbTrace
 10
196.9877505916
 20
113.4123566331
 30
0.0
 11
196.5377505916
 21
110.4123566331
 31
0.0
 12
197.4377505916
 22
110.4123566331
 32
0.0
 13
197.4377505916
 23
110.4123566331
 33
0.0
  0
SOLID
  5
190
330
18C
100
AcDbEntity
  8
VERMASSUNG
100
AcDbTrace
 10
196.9877505916
 20
95.4123566331
 30
0.0
 11
197.4377505916
 21
98.4123566331
 31
0.0
 12
196.5377505916
 22
98.4123566331
 32
0.0
 13
196.5377505916
 23
98.4123566331
 33
0.0
  0
LINE
  5
191
330
18C
100
AcDbEntity
  8
VERMASSUNG
100
AcDbLine
 10
181.5465430713
 20
113.4123566331
 30
0.0
 11
197.9877505916
 21
113.4123566331
 31
0.0
  0
LINE
  5
192
330
18C
100
AcDbEntity
  8
VERMASSUNG
100
AcDbLine
 10
181.5465430713
 20
95.4123566331
 30
0.0
 11
197.9877505916
 21
95.4123566331
 31
0.0
  0
LINE
  5
193
330
18C
100
AcDbEntity
  8
VERMASSUNG
100
AcDbLine
 10
196.9877505916
 20
113.4123566331
 30
0.0
 11
196.9877505916
 21
95.4123566331
 31
0.0
  0
MTEXT
  5
194
330
18C
100
AcDbEntity
  8
VERMASSUNG
100
AcDbMText
 10
194.4096150539
 20
101.4089240894
 30
0.0
 40
2.0
 41
0.0
 71
     1
 72
     1
  1
%%c
  7
SLDTEXTSTYLE0
 11
-7.044195017643634E-15
 21
1.0
 31
0.0
 73
     1
 44
1.0
  0
MTEXT
  5
195
330
18C
100
AcDbEntity
  8
VERMASSUNG
100
AcDbMText
 10
194.4096149957
 20
105.017896283
 30
0.0
 40
2.0
 41
0.0
 71
     1
 72
     1
  1
18
  7
SLDTEXTSTYLE0
 11
-7.044195017643634E-15
 21
1.0
 31
0.0
 73
     1
 44
1.0
  0
ENDBLK
  5
18E
330
18C
100
AcDbEntity
  8
0
100
AcDbBlockEnd
  0
BLOCK
  5
198
330
197
100
AcDbEntity
  8
0
100
AcDbBlockBegin
  2
_D_2
 70
     0
 10
0.0
 20
0.0
 30
0.0
  3
_D_2
  1

  0
SOLID
  5
19A
330
197
100
AcDbEntity
  8
VERMASSUNG
100
AcDbTrace
 10
203.0877505916
 20
120.4123566331
 30
0.0
 11
202.6377505916
 21
117.4123566331
 31
0.0
 12
203.5377505916
 22
117.4123566331
 32
0.0
 13
203.5377505916
 23
117.4123566331
 33
0.0
  0
SOLID
  5
19B
330
197
100
AcDbEntity
  8
VERMASSUNG
100
AcDbTrace
 10
203.0877505916
 20
88.4123566331
 30
0.0
 11
203.5377505916
 21
91.4123566331
 31
0.0
 12
202.6377505916
 22
91.4123566331
 32
0.0
 13
202.6377505916
 23
91.4123566331
 33
0.0
  0
LINE
  5
19C
330
197
100
AcDbEntity
  8
VERMASSUNG
100
AcDbLine
 10
190.1465430713
 20
120.4123566331
 30
0.0
 11
204.0877505916
 21
120.4123566331
 31
0.0
  0
LINE
  5
19D
330
197
100
AcDbEntity
  8
VERMASSUNG
100
AcDbLine
 10
190.1465430713
 20
88.4123566331
 30
0.0
 11
204.0877505916
 21
88.4123566331
 31
0.0
  0
LINE
  5
19E
330
197
100
AcDbEntity
  8
VERMASSUNG
100
AcDbLine
 10
203.0877505916
 20
120.4123566331
 30
0.0
 11
203.0877505916
 21
88.4123566331
 31
0.0
  0
MTEXT
  5
19F
330
197
100
AcDbEntity
  8
VERMASSUNG
100
AcDbMText
 10
200.3096153354
 20
98.3084287238
 30
0.0
 40
2.0
 41
0.0
 71
     1
 72
     1
  1
ST3
  7
SLDTEXTSTYLE0
 11
-7.044195017643634E-15
 21
1.0
 31
0.0
 73
     1
 44
1.0
  0
MTEXT
  5
1A0
330
197
100
AcDbEntity
  8
VERMASSUNG
100
AcDbMText
 10
200.5096152867
 20
104.10842865
 30
0.0
 40
2.0
 41
0.0
 71
     1
 72
     1
  1
%%c
  7
SLDTEXTSTYLE0
 11
-7.044195017643634E-15
 21
1.0
 31
0.0
 73
     1
 44
1.0
  0
MTEXT
  5
1A1
330
197
100
AcDbEntity
  8
VERMASSUNG
100
AcDbMText
 10
200.5096149957
 20
107.7169045219
 30
0.0
 40
2.0
 41
0.0
 71
     1
 72
     1
  1
32
  7
SLDTEXTSTYLE0
 11
-7.044195017643634E-15
 21
1.0
 31
0.0
 73
     1
 44
1.0
  0
ENDBLK
  5
199
330
197
100
AcDbEntity
  8
0
100
AcDbBlockEnd
  0
BLOCK
  5
1A4
330
1A3
100
AcDbEntity
  8
0
100
AcDbBlockBegin
  2
_D_3
 70
     0
 10
0.0
 20
0.0
 30
0.0
  3
_D_3
  1

  0
ARC
  5
1A6
330
1A3
100
AcDbEntity
  8
VERMASSUNG
100
AcDbCircle
 10
180.7329771599
 20
140.7779658972
 30
0.0
 40
4.247059938537297
100
AcDbArc
 50
153.4349488229
 51
206.5650511771
  0
ARC
  5
1A7
330
1A3
100
AcDbEntity
  8
VERMASSUNG
100
AcDbCircle
 10
182.1101089827
 20
140.7779658972
 30
0.0
 40
4.247059938537323
100
AcDbArc
 50
333.4349488229
 51
26.5650511771
  0
SOLID
  5
1A8
330
1A3
100
AcDbEntity
  8
VERMASSUNG
100
AcDbTrace
 10
172.3965430713
 20
138.8786229518
 30
0.0
 11
175.3965430713
 21
138.4286229518
 31
0.0
 12
175.3965430713
 22
139.3286229518
 32
0.0
 13
175.3965430713
 23
139.3286229518
 33
0.0
  0
SOLID
  5
1A9
330
1A3
100
AcDbEntity
  8
VERMASSUNG
100
AcDbTrace
 10
190.4465430713
 20
138.8786229518
 30
0.0
 11
187.4465430713
 21
139.3286229518
 31
0.0
 12
187.4465430713
 22
138.4286229518
 32
0.0
 13
187.4465430713
 23
138.4286229518
 33
0.0
  0
LINE
  5
1AA
330
1A3
100
AcDbEntity
  8
VERMASSUNG
100
AcDbLine
 10
172.3965430713
 20
134.2587969569
 30
0.0
 11
172.3965430713
 21
139.8786229518
 31
0.0
  0
LINE
  5
1AB
330
1A3
100
AcDbEntity
  8
VERMASSUNG
100
AcDbLine
 10
190.4465430713
 20
120.1123566331
 30
0.0
 11
190.4465430713
 21
139.8786229518
 31
0.0
  0
LINE
  5
1AC
330
1A3
100
AcDbEntity
  8
VERMASSUNG
100
AcDbLine
 10
172.3965430713
 20
138.8786229518
 30
0.0
 11
190.4465430713
 21
138.8786229518
 31
0.0
  0
MTEXT
  5
1AD
330
1A3
100
AcDbEntity
  8
VERMASSUNG
100
AcDbMText
 10
178.521791269
 20
141.4567585477
 30
0.0
 40
2.0
 41
0.0
 71
     1
 72
     1
  1
18.05
  7
SLDTEXTSTYLE0
 73
     1
 44
1.0
  0
ENDBLK
  5
1A5
330
1A3
100
AcDbEntity
  8
0
100
AcDbBlockEnd
  0
BLOCK
  5
1B0
330
1AF
100
AcDbEntity
  8
0
100
AcDbBlockBegin
  2
_D_4
 70
     0
 10
0.0
 20
0.0
 30
0.0
  3
_D_4
  1

  0
SOLID
  5
1B2
330
1AF
100
AcDbEntity
  8
VERMASSUNG
100
AcDbTrace
 10
146.4465430713
 20
144.8786229518
 30
0.0
 11
149.4465430713
 21
144.4286229518
 31
0.0
 12
149.4465430713
 22
145.3286229518
 32
0.0
 13
149.4465430713
 23
145.3286229518
 33
0.0
  0
SOLID
  5
1B3
330
1AF
100
AcDbEntity
  8
VERMASSUNG
100
AcDbTrace
 10
190.4465430713
 20
144.8786229518
 30
0.0
 11
187.4465430713
 21
145.3286229518
 31
0.0
 12
187.4465430713
 22
144.4286229518
 32
0.0
 13
187.4465430713
 23
144.4286229518
 33
0.0
  0
LINE
  5
1B4
330
1AF
100
AcDbEntity
  8
VERMASSUNG
100
AcDbLine
 10
146.4465430713
 20
135.6123566331
 30
0.0
 11
146.4465430713
 21
145.8786229518
 31
0.0
  0
LINE
  5
1B5
330
1AF
100
AcDbEntity
  8
VERMASSUNG
100
AcDbLine
 10
190.4465430713
 20
120.1123566331
 30
0.0
 11
190.4465430713
 21
145.8786229518
 31
0.0
  0
LINE
  5
1B6
330
1AF
100
AcDbEntity
  8
VERMASSUNG
100
AcDbLine
 10
146.4465430713
 20
144.8786229518
 30
0.0
 11
190.4465430713
 21
144.8786229518
 31
0.0
  0
MTEXT
  5
1B7
330
1AF
100
AcDbEntity
  8
VERMASSUNG
100
AcDbMText
 10
166.8472124843
 20
147.4567585477
 30
0.0
 40
2.0
 41
0.0
 71
     1
 72
     1
  1
44
  7
SLDTEXTSTYLE0
 73
     1
 44
1.0
  0
ENDBLK
  5
1B1
330
1AF
100
AcDbEntity
  8
0
100
AcDbBlockEnd
  0
BLOCK
  5
1BA
330
1B9
100
AcDbEntity
  8
0
100
AcDbBlockBegin
  2
_D_5
 70
     0
 10
0.0
 20
0.0
 30
0.0
  3
_D_5
  1

  0
ARC
  5
1BC
330
1B9
100
AcDbEntity
  8
VERMASSUNG
100
AcDbCircle
 10
152.3087330816
 20
152.7779658972
 30
0.0
 40
4.24705993853726
100
AcDbArc
 50
153.4349488229
 51
206.5650511771
  0
ARC
  5
1BD
330
1B9
100
AcDbEntity
  8
VERMASSUNG
100
AcDbCircle
 10
152.684353061
 20
152.7779658972
 30
0.0
 40
4.24705993853726
100
AcDbArc
 50
333.4349488229
 51
26.5650511771
  0
SOLID
  5
1BE
330
1B9
100
AcDbEntity
  8
VERMASSUNG
100
AcDbTrace
 10
114.5465430713
 20
150.8786229518
 30
0.0
 11
117.5465430713
 21
150.4286229518
 31
0.0
 12
117.5465430713
 22
151.3286229518
 32
0.0
 13
117.5465430713
 23
151.3286229518
 33
0.0
  0
SOLID
  5
1BF
330
1B9
100
AcDbEntity
  8
VERMASSUNG
100
AcDbTrace
 10
190.4465430713
 20
150.8786229518
 30
0.0
 11
187.4465430713
 21
151.3286229518
 31
0.0
 12
187.4465430713
 22
150.4286229518
 32
0.0
 13
187.4465430713
 23
150.4286229518
 33
0.0
  0
LINE
  5
1C0
330
1B9
100
AcDbEntity
  8
VERMASSUNG
100
AcDbLine
 10
114.5465430713
 20
124.1030343796
 30
0.0
 11
114.5465430713
 21
151.8786229518
 31
0.0
  0
LINE
  5
1C1
330
1B9
100
AcDbEntity
  8
VERMASSUNG
100
AcDbLine
 10
190.4465430713
 20
120.1123566331
 30
0.0
 11
190.4465430713
 21
151.8786229518
 31
0.0
  0
LINE
  5
1C2
330
1B9
100
AcDbEntity
  8
VERMASSUNG
100
AcDbLine
 10
114.5465430713
 20
150.8786229518
 30
0.0
 11
190.4465430713
 21
150.8786229518
 31
0.0
  0
MTEXT
  5
1C3
330
1B9
100
AcDbEntity
  8
VERMASSUNG
100
AcDbMText
 10
150.0975471907
 20
153.4567585477
 30
0.0
 40
2.0
 41
0.0
 71
     1
 72
     1
  1
75.9
  7
SLDTEXTSTYLE0
 73
     1
 44
1.0
  0
ENDBLK
  5
1BB
330
1B9
100
AcDbEntity
  8
0
100
AcDbBlockEnd
  0
ENDSEC
  0
SECTION
  2
ENTITIES
  0
MTEXT
  5
78
330
1F
100
AcDbEntity
  8
KOPF_DÜNN
100
AcDbMText
 10
13.8892156294
 20
23.8442973028
 30
0.0
 40
3.0
 41
0.0
 71
     1
 72
     1
  1
144.806.032.044
  7
SLDTEXTSTYLE0
 73
     1
 44
1.0
  0
MTEXT
  5
79
330
1F
100
AcDbEntity
  8
VERMASSUNG
100
AcDbMText
 10
13.9329988022
 20
28.8834360957
 30
0.0
 40
3.0
 41
0.0
 71
     1
 72
     1
  1
Aufnahme_Master shank ST3
  7
SLDTEXTSTYLE0
 73
     1
 44
1.0
  0
MTEXT
  5
7A
330
1F
100
AcDbEntity
  8
VERMASSUNG
100
AcDbMText
 10
98.8601118557
 20
13.8365368761
 30
0.0
 40
2.0
 41
0.0
 71
     1
 72
     1
  1
Datum: 10.06.2008
  7
SLDTEXTSTYLE0
 73
     1
 44
1.0
  0
MTEXT
  5
7B
330
1F
100
AcDbEntity
  8
VERMASSUNG
100
AcDbMText
 10
13.933048693
 20
18.0482802738
 30
0.0
 40
2.0
 41
0.0
 71
     1
 72
     1
  1
DIN 69893 HSK A 63
  7
SLDTEXTSTYLE0
 73
     1
 44
1.0
  0
MTEXT
  5
7C
330
1F
100
AcDbEntity
  8
VERMASSUNG
100
AcDbMText
 10
13.9808475933
 20
13.9090974274
 30
0.0
 40
2.0
 41
0.0
 71
     1
 72
     1
  1
Gewicht: 711g
  7
SLDTEXTSTYLE0
 73
     1
 44
1.0
  0
ARC
  5
7D
330
1F
100
AcDbEntity
  8
0
  6
Continuous
 62
     7
370
    15
100
AcDbCircle
 10
146.7465430713
 20
73.2123566331
 30
0.0
 40
0.3000000000000114
100
AcDbArc
 50
180.0
 51
270.0
  0
ARC
  5
7E
330
1F
100
AcDbEntity
  8
0
  6
Continuous
 62
     7
370
    15
100
AcDbCircle
 10
146.7465430713
 20
135.6123566331
 30
0.0
 40
0.3000000000000114
100
AcDbArc
 50
90.0
 51
180.0
  0
LINE
  5
7F
330
1F
100
AcDbEntity
  8
0
  6
Continuous
 62
     7
370
    15
100
AcDbLine
 10
146.7465430713
 20
72.9123566331
 30
0.0
 11
151.3965430713
 21
72.9123566331
 31
0.0
  0
LINE
  5
80
330
1F
100
AcDbEntity
  8
0
  6
Continuous
 62
     7
370
    15
100
AcDbLine
 10
151.4007472687
 20
135.9123566331
 30
0.0
 11
146.7465430713
 21
135.9123566331
 31
0.0
  0
ARC
  5
81
330
1F
100
AcDbEntity
  8
0
  6
Continuous
 62
     7
370
    15
100
AcDbCircle
 10
145.9465363186
 20
79.8419190188
 30
0.0
 40
0.6000067526677282
100
AcDbArc
 50
33.5571153394
 51
90.0
  0
ARC
  5
82
330
1F
100
AcDbEntity
  8
0
  6
Continuous
 62
     7
370
    15
100
AcDbCircle
 10
145.9465363186
 20
128.9827942475
 30
0.0
 40
0.6000067526677282
100
AcDbArc
 50
270.0
 51
326.4428846606
  0
LINE
  5
83
330
1F
100
AcDbEntity
  8
0
  6
Continuous
 62
     7
370
    15
100
AcDbLine
 10
133.2150342725
 20
128.0700866532
 30
0.0
 11
120.6465430713
 21
127.4404027253
 31
0.0
  0
LINE
  5
84
330
1F
100
AcDbEntity
  8
0
  6
Continuous
 62
     7
370
    15
100
AcDbLine
 10
144.4465430713
 20
128.6327874949
 30
0.0
 11
141.6295414139
 21
128.4916551473
 31
0.0
  0
LINE
  5
85
330
1F
100
AcDbEntity
  8
0
  6
Continuous
 62
     7
370
    15
100
AcDbLine
 10
141.629597504
 20
80.3330553089
 30
0.0
 11
144.4465430713
 21
80.1919257714
 31
0.0
  0
LINE
  5
86
330
1F
100
AcDbEntity
  8
0
  6
Continuous
 62
     7
370
    15
100
AcDbLine
 10
124.6465430713
 20
81.1839097394
 30
0.0
 11
133.2154367911
 21
80.7546064468
 31
0.0
  0
LINE
  5
87
330
1F
100
AcDbEntity
  8
0
  6
Continuous
 62
     7
370
    15
100
AcDbLine
 10
144.4465430713
 20
80.1919257714
 30
0.0
 11
145.3032558447
 21
80.4214812672
 31
0.0
  0
LINE
  5
88
330
1F
100
AcDbEntity
  8
0
  6
Continuous
 62
     7
370
    15
100
AcDbLine
 10
145.3032558447
 20
128.4032319991
 30
0.0
 11
144.4465430713
 21
128.6327874949
 31
0.0
  0
ARC
  5
89
330
1F
100
AcDbEntity
  8
0
  6
Continuous
 62
     7
370
    15
100
AcDbCircle
 10
145.4585472717
 20
79.8419257714
 30
0.0
 40
0.6000000000000085
100
AcDbArc
 50
90.0
 51
105.0
  0
ARC
  5
8A
330
1F
100
AcDbEntity
  8
0
  6
Continuous
 62
     7
370
    15
100
AcDbCircle
 10
145.4585472717
 20
128.9827874949
 30
0.0
 40
0.6000000000000008
100
AcDbArc
 50
255.0
 51
270.0
  0
LINE
  5
8B
330
1F
100
AcDbEntity
  8
0
  6
Continuous
 62
     7
370
    15
100
AcDbLine
 10
145.4585472717
 20
80.4419257714
 30
0.0
 11
145.9465363186
 21
80.4419257714
 31
0.0
  0
LINE
  5
8C
330
1F
100
AcDbEntity
  8
0
  6
Continuous
 62
     7
370
    15
100
AcDbLine
 10
145.9465363186
 20
128.3827874949
 30
0.0
 11
145.4585472717
 21
128.3827874949
 31
0.0
  0
ARC
  5
8D
330
1F
100
AcDbEntity
  8
0
  6
Continuous
 62
     7
370
    15
100
AcDbCircle
 10
176.3965430713
 20
84.4123566331
 30
0.0
 40
4.0
100
AcDbArc
 50
90.0
 51
180.0
  0
ARC
  5
8E
330
1F
100
AcDbEntity
  8
0
  6
Continuous
 62
     7
370
    15
100
AcDbCircle
 10
176.3965430713
 20
124.4123566331
 30
0.0
 40
4.0
100
AcDbArc
 50
180.0
 51
270.0
  0
LINE
  5
8F
330
1F
100
AcDbEntity
  8
0
  6
Continuous
 62
     7
370
    15
100
AcDbLine
 10
190.1465430713
 20
120.4123566331
 30
0.0
 11
176.3965430713
 21
120.4123566331
 31
0.0
  0
LINE
  5
90
330
1F
100
AcDbEntity
  8
0
  6
Continuous
 62
     7
370
    15
100
AcDbLine
 10
176.3965430713
 20
88.4123566331
 30
0.0
 11
190.1465430713
 21
88.4123566331
 31
0.0
  0
LINE
  5
91
330
1F
100
AcDbEntity
  8
0
  6
Continuous
 62
     7
370
    15
100
AcDbLine
 10
190.1465430713
 20
88.4123566331
 30
0.0
 11
190.4465430713
 21
88.7123566331
 31
0.0
  0
LINE
  5
92
330
1F
100
AcDbEntity
  8
0
  6
Continuous
 62
     7
370
    15
100
AcDbLine
 10
190.4465430713
 20
120.1123566331
 30
0.0
 11
190.1465430713
 21
120.4123566331
 31
0.0
  0
LINE
  5
93
330
1F
100
AcDbEntity
  8
0
  6
Continuous
 62
     7
370
    15
100
AcDbLine
 10
115.8298797113
 20
83.5423566331
 30
0.0
 11
123.2465430713
 21
83.5423566331
 31
0.0
  0
ARC
  5
94
330
1F
100
AcDbEntity
  8
0
  6
Continuous
 62
     7
370
    15
100
AcDbCircle
 10
123.2465430713
 20
82.1423566331
 30
0.0
 40
1.399999999999991
100
AcDbArc
 50
42.2465410162
 51
90.0
  0
LINE
  5
95
330
1F
100
AcDbEntity
  8
0
  6
Continuous
 62
     7
370
    15
100
AcDbLine
 10
114.5475755655
 20
84.691324139
 30
0.0
 11
115.6877065295
 21
83.551193175
 31
0.0
  0
LINE
  5
96
330
1F
100
AcDbEntity
  8
0
  6
Continuous
 62
     7
370
    15
100
AcDbLine
 10
115.6877065295
 20
125.2735200913
 30
0.0
 11
114.5564438447
 21
124.1422574065
 31
0.0
  0
ARC
  5
97
330
1F
100
AcDbEntity
  8
0
  6
Continuous
 62
     7
370
    15
100
AcDbCircle
 10
119.2465430713
 20
126.6823566331
 30
0.0
 40
1.400000000000006
100
AcDbArc
 50
270.0
 51
301.7485287426
  0
LINE
  5
98
330
1F
100
AcDbEntity
  8
0
  6
Continuous
 62
     7
370
    15
100
AcDbLine
 10
119.2465430713
 20
125.2823566331
 30
0.0
 11
115.8374314727
 21
125.2823566331
 31
0.0
  0
SPLINE
  5
99
330
1F
100
AcDbEntity
  8
0
  6
Continuous
 62
     7
370
    15
100
AcDbSpline
210
0.0
220
0.0
230
1.0
 70
    24
 71
     3
 72
    11
 73
     7
 74
     0
 42
0.000000001
 43
0.00000001
 40
0.0
 40
0.0
 40
0.0
 40
0.0
 40
0.1183358584681203
 40
0.4755396850857865
 40
0.8141708872487081
 40
0.9999999999999999
 40
0.9999999999999999
 40
0.9999999999999999
 40
0.9999999999999999
 10
180.7329318133143
 20
104.8944329573483
 30
0.0
 10
180.7792015110419
 20
104.9388654713055
 30
0.0
 10
180.9651390431745
 20
105.1174201711938
 30
0.0
 10
181.3164643247348
 20
105.4547957375608
 30
0.0
 10
181.7029674610972
 20
105.8259523874717
 30
0.0
 10
181.9091664442715
 20
106.0239640375978
 30
0.0
 10
181.9822277856235
 20
106.0941244066685
 30
0.0
  0
SPLINE
  5
9A
330
1F
100
AcDbEntity
  8
0
  6
Continuous
 62
     7
370
    15
100
AcDbSpline
210
0.0
220
0.0
230
1.0
 70
    24
 71
     3
 72
    10
 73
     6
 74
     0
 42
0.000000001
 43
0.00000001
 40
0.0
 40
0.0
 40
0.0
 40
0.0
 40
0.4391165375904125
 40
0.7513669429073432
 40
1.0
 40
1.0
 40
1.0
 40
1.0
 10
181.1472470989741
 20
103.2126651838228
 30
0.0
 10
181.0879346717858
 20
103.4534232057144
 30
0.0
 10
180.9864459022272
 20
103.8653813156998
 30
0.0
 10
180.8389140507107
 20
104.4642351886722
 30
0.0
 10
180.7654829559366
 20
104.7623029960645
 30
0.0
 10
180.7329318133143
 20
104.8944329573483
 30
0.0
  0
SPLINE
  5
9B
330
1F
100
AcDbEntity
  8
0
  6
Continuous
 62
     7
370
    15
100
AcDbSpline
210
0.0
220
0.0
230
1.0
 70
    24
 71
     3
 72
    10
 73
     6
 74
     0
 42
0.000000001
 43
0.00000001
 40
0.0
 40
0.0
 40
0.0
 40
0.0
 40
0.4391165375904075
 40
0.751366942907343
 40
1.0
 40
1.0
 40
1.0
 40
1.0
 10
182.810858356943
 20
102.7305888596177
 30
0.0
 10
182.5726995802259
 20
102.7996018018583
 30
0.0
 10
182.1651890069042
 20
102.9176890042144
 30
0.0
 10
181.5728004139971
 20
103.0893496094199
 30
0.0
 10
181.277950573358
 20
103.174790319614
 30
0.0
 10
181.1472470989741
 20
103.2126651838228
 30
0.0
  0
SPLINE
  5
9C
330
1F
100
AcDbEntity
  8
0
  6
Continuous
 62
     7
370
    15
100
AcDbSpline
210
0.0
220
0.0
230
1.0
 70
    24
 71
     3
 72
    11
 73
     7
 74
     0
 42
0.000000001
 43
0.00000001
 40
0.0
 40
0.0
 40
0.0
 40
0.0
 40
0.1858291127512959
 40
0.5244603149142155
 40
0.881664141531877
 40
0.9999999999999999
 40
0.9999999999999999
 40
0.9999999999999999
 40
0.9999999999999999
 10
184.0601543292522
 20
103.930280308938
 30
0.0
 10
183.9870929879002
 20
103.8601199398673
 30
0.0
 10
183.7808940047259
 20
103.6621082897412
 30
0.0
 10
183.3943908683634
 20
103.2909516398303
 30
0.0
 10
183.0430655868032
 20
102.9535760734632
 30
0.0
 10
182.8571280546706
 20
102.775021373575
 30
0.0
 10
182.810858356943
 20
102.7305888596177
 30
0.0
  0
SPLINE
  5
9D
330
1F
100
AcDbEntity
  8
0
  6
Continuous
 62
     7
370
    15
100
AcDbSpline
210
0.0
220
0.0
230
1.0
 70
    24
 71
     3
 72
    10
 73
     6
 74
     0
 42
0.000000001
 43
0.00000001
 40
0.0
 40
0.0
 40
0.0
 40
0.0
 40
0.4391165375904087
 40
0.7513669429073415
 40
1.0
 40
1.0
 40
1.0
 40
1.0
 10
181.9822277856235
 20
106.0941244066685
 30
0.0
 10
182.2203865623406
 20
106.025111464428
 30
0.0
 10
182.6278971356623
 20
105.9070242620719
 30
0.0
 10
183.2202857285693
 20
105.7353636568664
 30
0.0
 10
183.5151355692085
 20
105.6499229466722
 30
0.0
 10
183.6458390435924
 20
105.6120480824634
 30
0.0
  0
CIRCLE
  5
9E
330
1F
100
AcDbEntity
  8
0
  6
Continuous
 62
     7
370
    15
100
AcDbCircle
 10
182.3965430713
 20
104.4123566331
 30
0.0
 40
1.900000000000011
  0
SPLINE
  5
9F
330
1F
100
AcDbEntity
  8
0
  6
Continuous
 62
     7
370
    15
100
AcDbSpline
210
0.0
220
0.0
230
1.0
 70
    24
 71
     3
 72
    10
 73
     6
 74
     0
 42
0.000000001
 43
0.00000001
 40
0.0
 40
0.0
 40
0.0
 40
0.0
 40
0.4391165375904129
 40
0.7513669429073463
 40
0.9999999999999999
 40
0.9999999999999999
 40
0.9999999999999999
 40
0.9999999999999999
 10
183.6458390435924
 20
105.6120480824634
 30
0.0
 10
183.7051514707807
 20
105.3712900605719
 30
0.0
 10
183.8066402403393
 20
104.9593319505865
 30
0.0
 10
183.9541720918559
 20
104.3604780776141
 30
0.0
 10
184.0276031866299
 20
104.0624102702217
 30
0.0
 10
184.0601543292522
 20
103.930280308938
 30
0.0
  0
CIRCLE
  5
A0
330
1F
100
AcDbEntity
  8
0
  6
Continuous
 62
     7
370
    15
100
AcDbCircle
 10
182.3965430713
 20
104.4123566331
 30
0.0
 40
2.599999999999999
  0
CIRCLE
  5
A1
330
1F
100
AcDbEntity
  8
0
  6
Continuous
 62
     7
370
    15
100
AcDbCircle
 10
182.3965430713
 20
104.4123566331
 30
0.0
 40
3.0
  0
ARC
  5
A2
330
1F
100
AcDbEntity
  8
0
  6
Continuous
 62
     7
370
    15
100
AcDbCircle
 10
182.3965430713
 20
104.4123566331
 30
0.0
 40
1.499999999999994
100
AcDbArc
 50
13.8396260419
 51
73.8396260419
  0
ARC
  5
A3
330
1F
100
AcDbEntity
  8
0
  6
Continuous
 62
     7
370
    15
100
AcDbCircle
 10
182.3965430713
 20
104.4123566331
 30
0.0
 40
1.500000000000021
100
AcDbArc
 50
193.8396260419
 51
253.8396260419
  0
ARC
  5
A4
330
1F
100
AcDbEntity
  8
0
  6
Continuous
 62
     7
370
    15
100
AcDbCircle
 10
182.3965430713
 20
104.4123566331
 30
0.0
 40
1.50000000000001
100
AcDbArc
 50
253.8396260419
 51
313.8396260419
  0
ARC
  5
A5
330
1F
100
AcDbEntity
  8
0
  6
Continuous
 62
     7
370
    15
100
AcDbCircle
 10
182.3965430713
 20
104.4123566331
 30
0.0
 40
1.49999999999999
100
AcDbArc
 50
73.8396260419
 51
133.8396260419
  0
ARC
  5
A6
330
1F
100
AcDbEntity
  8
0
  6
Continuous
 62
     7
370
    15
100
AcDbCircle
 10
182.3965430713
 20
104.4123566331
 30
0.0
 40
1.50000000000001
100
AcDbArc
 50
313.8396260419
 51
13.8396260419
  0
ARC
  5
A7
330
1F
100
AcDbEntity
  8
0
  6
Continuous
 62
     7
370
    15
100
AcDbCircle
 10
182.3965430713
 20
104.4123566331
 30
0.0
 40
1.500000000000021
100
AcDbArc
 50
133.8396260419
 51
193.8396260419
  0
LINE
  5
A8
330
1F
100
AcDbEntity
  8
0
  6
Continuous
 62
     7
370
    15
100
AcDbLine
 10
162.5365430713
 20
76.9145194741
 30
0.0
 11
162.5365430713
 21
124.2623566331
 31
0.0
  0
SPLINE
  5
A9
330
1F
100
AcDbEntity
  8
0
  6
Continuous
 62
     7
370
    15
100
AcDbSpline
210
0.0
220
0.0
230
1.0
 70
     8
 71
     3
 72
     8
 73
     4
 74
     0
 42
0.000000001
 43
0.00000001
 40
0.0
 40
0.0
 40
0.0
 40
0.0
 40
1.0
 40
1.0
 40
1.0
 40
1.0
 10
162.5365430712833
 20
76.91451947408827
 30
0.0
 10
162.0442039485021
 20
76.01724943988157
 30
0.0
 10
161.5500899004599
 20
75.12096502482932
 30
0.0
 10
161.0546102397942
 20
74.22543893689597
 30
0.0
  0
LINE
  5
AA
330
1F
100
AcDbEntity
  8
0
  6
Continuous
 62
     7
370
    15
100
AcDbLine
 10
161.0546102398
 20
74.2254389369
 30
0.0
 11
161.0546102398
 21
124.2623566331
 31
0.0
  0
SPLINE
  5
AB
330
1F
100
AcDbEntity
  8
0
  6
Continuous
 62
     7
370
    15
100
AcDbSpline
210
0.0
220
0.0
230
1.0
 70
    24
 71
     3
 72
     8
 73
     4
 74
     0
 42
0.000000001
 43
0.00000001
 40
0.0
 40
0.0
 40
0.0
 40
0.0
 40
1.0
 40
1.0
 40
1.0
 40
1.0
 10
161.0546102397942
 20
124.2623566331431
 30
0.0
 10
161.5612903479447
 20
124.2623566331431
 30
0.0
 10
162.0565910769184
 20
124.2623566331431
 30
0.0
 10
162.5365430712833
 20
124.2623566331431
 30
0.0
  0
LINE
  5
AC
330
1F
100
AcDbEntity
  8
0
  6
Continuous
 62
     7
370
    15
100
AcDbLine
 10
171.7965430713
 20
74.2254389369
 30
0.0
 11
167.8384759028
 21
74.2254389369
 31
0.0
  0
LINE
  5
AD
330
1F
100
AcDbEntity
  8
0
  6
Continuous
 62
     7
370
    15
100
AcDbLine
 10
167.8384759028
 20
74.2254389369
 30
0.0
 11
167.8384759028
 21
124.2623566331
 31
0.0
  0
LINE
  5
AE
330
1F
100
AcDbEntity
  8
0
  6
Continuous
 62
     7
370
    15
100
AcDbLine
 10
167.8384759028
 20
124.2623566331
 30
0.0
 11
171.7965430713
 21
124.2623566331
 31
0.0
  0
SPLINE
  5
AF
330
1F
100
AcDbEntity
  8
0
  6
Continuous
 62
     7
370
    15
100
AcDbSpline
210
0.0
220
0.0
230
1.0
 70
     8
 71
     3
 72
     8
 73
     4
 74
     0
 42
0.000000001
 43
0.00000001
 40
0.0
 40
0.0
 40
0.0
 40
0.0
 40
1.0
 40
1.0
 40
1.0
 40
1.0
 10
167.8384759027723
 20
74.22543893689597
 30
0.0
 10
167.3429962421066
 20
75.12096502482933
 30
0.0
 10
166.8488821940644
 20
76.01724943988158
 30
0.0
 10
166.3565430712833
 20
76.91451947408828
 30
0.0
  0
LINE
  5
B0
330
1F
100
AcDbEntity
  8
0
  6
Continuous
 62
     7
370
    15
100
AcDbLine
 10
166.3565430713
 20
76.9145194741
 30
0.0
 11
166.3565430713
 21
124.2623566331
 31
0.0
  0
SPLINE
  5
B1
330
1F
100
AcDbEntity
  8
0
  6
Continuous
 62
     7
370
    15
100
AcDbSpline
210
0.0
220
0.0
230
1.0
 70
    24
 71
     3
 72
     8
 73
     4
 74
     0
 42
0.000000001
 43
0.00000001
 40
0.0
 40
0.0
 40
0.0
 40
0.0
 40
1.0
 40
1.0
 40
1.0
 40
1.0
 10
166.3565430712833
 20
124.2623566331431
 30
0.0
 10
166.8364950656482
 20
124.2623566331431
 30
0.0
 10
167.3317957946218
 20
124.2623566331431
 30
0.0
 10
167.8384759027723
 20
124.2623566331431
 30
0.0
  0
LINE
  5
B2
330
1F
100
AcDbEntity
  8
0
  6
Continuous
 62
     7
370
    15
100
AcDbLine
 10
146.4465430713
 20
73.2123566331
 30
0.0
 11
146.4465430713
 21
135.6123566331
 31
0.0
  0
LINE
  5
B3
330
1F
100
AcDbEntity
  8
0
  6
Continuous
 62
     7
370
    15
100
AcDbLine
 10
151.3965430713
 20
124.2623566331
 30
0.0
 11
161.0546102398
 21
124.2623566331
 31
0.0
  0
LINE
  5
B4
330
1F
100
AcDbEntity
  8
0
  6
Continuous
 62
     7
370
    15
100
AcDbLine
 10
161.0546102398
 20
74.2254389369
 30
0.0
 11
159.3965430713
 21
74.2254389369
 31
0.0
  0
SPLINE
  5
B5
330
1F
100
AcDbEntity
  8
0
  6
Continuous
 62
     7
370
    15
100
AcDbSpline
210
0.0
220
0.0
230
1.0
 70
     8
 71
     3
 72
    28
 73
    24
 74
     0
 42
0.000000001
 43
0.00000001
 40
0.0
 40
0.0
 40
0.0
 40
0.0
 40
0.1249999999999999
 40
0.1249999999999999
 40
0.1874999999999998
 40
0.1874999999999998
 40
0.2499999999999997
 40
0.2499999999999997
 40
0.3749999999999993
 40
0.3749999999999993
 40
0.4374999999999993
 40
0.4374999999999993
 40
0.4999999999999992
 40
0.4999999999999992
 40
0.6249999999999992
 40
0.6249999999999992
 40
0.7499999999999992
 40
0.7499999999999992
 40
0.8124999999999993
 40
0.8124999999999993
 40
0.8749999999999996
 40
0.8749999999999996
 40
1.0
 40
1.0
 40
1.0
 40
1.0
 10
159.3965430712832
 20
74.22543893689597
 30
0.0
 10
158.8648353137903
 20
74.22543893689597
 30
0.0
 10
158.34259674848
 20
74.20965422294576
 30
0.0
 10
157.572726262205
 20
74.16465880886955
 30
0.0
 10
157.3183666900136
 20
74.14610381379383
 30
0.0
 10
156.8142451093151
 20
74.10225109134733
 30
0.0
 10
156.5645222918872
 20
74.07690648439512
 30
0.0
 10
155.8389323404408
 20
73.99350440664502
 30
0.0
 10
155.3805720788593
 20
73.92763884749392
 30
0.0
 10
154.7300741354654
 20
73.81866850700214
 30
0.0
 10
154.5183920846729
 20
73.78042887123549
 30
0.0
 10
154.1143205955349
 20
73.70267013381614
 30
0.0
 10
153.9218140817141
 20
73.66316917164079
 30
0.0
 10
153.3719791106928
 20
73.54426142927478
 30
0.0
 10
153.042050332384
 20
73.46444374785015
 30
0.0
 10
152.4575790638153
 20
73.31110058605411
 30
0.0
 10
152.2113019258018
 20
73.23976683278485
 30
0.0
 10
151.9114591331038
 20
73.14582332571024
 30
0.0
 10
151.8230022760316
 20
73.11662953235032
 30
0.0
 10
151.6696409227265
 20
73.0631629580869
 30
0.0
 10
151.6045527085002
 20
73.03880362381172
 30
0.0
 10
151.4489586925594
 20
72.97521347836698
 30
0.0
 10
151.3965430712832
 20
72.94511054327774
 30
0.0
 10
151.3965430712832
 20
72.92823365028082
 30
0.0
  0
LINE
  5
B6
330
1F
100
AcDbEntity
  8
0
  6
Continuous
 62
     7
370
    15
100
AcDbLine
 10
151.3965430713
 20
72.9282336503
 30
0.0
 11
151.3965430713
 21
72.9123566331
 31
0.0
  0
SPLINE
  5
B7
330
1F
100
AcDbEntity
  8
0
  6
Continuous
 62
     7
370
    15
100
AcDbSpline
210
0.0
220
0.0
230
1.0
 70
     8
 71
     3
 72
    23
 73
    19
 74
     0
 42
0.000000001
 43
0.00000001
 40
0.0
 40
0.0
 40
0.0
 40
0.0
 40
0.1038035146324083
 40
0.1565103724816373
 40
0.209997340277169
 40
0.3137613544584514
 40
0.3664029152074512
 40
0.4197768754505554
 40
0.4724008945937178
 40
0.525753854346054
 40
0.5794766981554431
 40
0.6339611138166611
 40
0.6872821437292166
 40
0.7409829035365931
 40
0.7958991837351522
 40
0.8512439231136122
 40
0.9563115427747287
 40
1.0
 40
1.0
 40
1.0
 40
1.0
 10
159.3965430712832
 20
134.8795521063074
 30
0.0
 10
158.9595432284303
 20
134.8847943513198
 30
0.0
 10
158.3006540913762
 20
134.8926983777146
 30
0.0
 10
157.4366939927766
 20
134.9404666181998
 30
0.0
 10
156.5919545116044
 20
135.0032750554301
 30
0.0
 10
155.7831155735088
 20
135.0890044603294
 30
0.0
 10
155.0288836578538
 20
135.1893775727838
 30
0.0
 10
154.4888109712698
 20
135.2708481988447
 30
0.0
 10
153.9805328910695
 20
135.355949455637
 30
0.0
 10
153.508534409104
 20
135.4422179549995
 30
0.0
 10
153.0724065243159
 20
135.5280988754732
 30
0.0
 10
152.6811314589341
 20
135.6101742872559
 30
0.0
 10
152.3372849113591
 20
135.686169326942
 30
0.0
 10
152.0423030556
 20
135.754210265048
 30
0.0
 10
151.7965992420903
 20
135.8129017383162
 30
0.0
 10
151.5498571619846
 20
135.873467320044
 30
0.0
 10
151.4105423299445
 20
135.9088048553511
 30
0.0
 10
151.4029709281543
 20
135.9107257346283
 30
0.0
 10
151.4007472686563
 20
135.9112898813435
 30
0.0
  0
LINE
  5
B8
330
1F
100
AcDbEntity
  8
0
  6
Continuous
 62
     7
370
    15
100
AcDbLine
 10
161.0546102398
 20
134.8795521063
 30
0.0
 11
159.3965430713
 21
134.8795521063
 31
0.0
  0
LINE
  5
B9
330
1F
100
AcDbEntity
  8
0
  6
Continuous
 62
     7
370
    15
100
AcDbLine
 10
161.0546102398
 20
128.8710462955
 30
0.0
 11
161.0546102398
 21
134.8795521063
 31
0.0
  0
LINE
  5
BA
330
1F
100
AcDbEntity
  8
0
  6
Continuous
 62
     7
370
    15
100
AcDbLine
 10
158.642163417
 20
128.8710462955
 30
0.0
 11
161.0546102398
 21
128.8710462955
 31
0.0
  0
SPLINE
  5
BB
330
1F
100
AcDbEntity
  8
0
  6
Continuous
 62
     7
370
    15
100
AcDbSpline
210
0.0
220
0.0
230
1.0
 70
     8
 71
     3
 72
    20
 73
    16
 74
     0
 42
0.000000001
 43
0.00000001
 40
0.0
 40
0.0
 40
0.0
 40
0.0
 40
0.2499999999999995
 40
0.2499999999999995
 40
0.3749999999999996
 40
0.3749999999999996
 40
0.4999999999999997
 40
0.4999999999999997
 40
0.6249999999999998
 40
0.6249999999999998
 40
0.7499999999999998
 40
0.7499999999999998
 40
0.8749999999999999
 40
0.8749999999999999
 40
1.0
 40
1.0
 40
1.0
 40
1.0
 10
151.3965430712832
 20
124.2623566331431
 30
0.0
 10
151.6449168055713
 20
124.9162190614405
 30
0.0
 10
151.9644868979166
 20
125.5200048434377
 30
0.0
 10
152.5867931311213
 20
126.3468435796063
 30
0.0
 10
152.818217391552
 20
126.6092722175592
 30
0.0
 10
153.3394317312017
 20
127.1059348716642
 30
0.0
 10
153.6260522138368
 20
127.3365217506857
 30
0.0
 10
154.2455369551444
 20
127.7530759752683
 30
0.0
 10
154.5798373346314
 20
127.9405737772359
 30
0.0
 10
155.3050978072562
 20
128.2719707548723
 30
0.0
 10
155.6870128646466
 20
128.4114747423675
 30
0.0
 10
156.4818010408183
 20
128.6369282498385
 30
0.0
 10
156.8959592350247
 20
128.7235543613821
 30
0.0
 10
157.7615055756061
 20
128.8415351502362
 30
0.0
 10
158.1993931906179
 20
128.8710462955106
 30
0.0
 10
158.6421634169726
 20
128.8710462955106
 30
0.0
  0
LINE
  5
BC
330
1F
100
AcDbEntity
  8
0
  6
Continuous
 62
     7
370
    15
100
AcDbLine
 10
172.3965430713
 20
74.8520792326
 30
0.0
 11
172.3965430713
 21
124.2623566331
 31
0.0
  0
SPLINE
  5
BD
330
1F
100
AcDbEntity
  8
0
  6
Continuous
 62
     7
370
    15
100
AcDbSpline
210
0.0
220
0.0
230
1.0
 70
     8
 71
     3
 72
    10
 73
     6
 74
     0
 42
0.000000001
 43
0.00000001
 40
0.0
 40
0.0
 40
0.0
 40
0.0
 40
0.5
 40
0.5
 40
1.0
 40
1.0
 40
1.0
 40
1.0
 10
172.3965430712833
 20
74.85207923255028
 30
0.0
 10
172.3965430712833
 20
74.69219196435662
 30
0.0
 10
172.3352334200474
 20
74.53106470884202
 30
0.0
 10
172.1161337825123
 20
74.29696571048719
 30
0.0
 10
171.9580855761988
 20
74.22543893689597
 30
0.0
 10
171.7965430712833
 20
74.22543893689597
 30
0.0
  0
SPLINE
  5
BE
330
1F
100
AcDbEntity
  8
0
  6
Continuous
 62
     7
370
    15
100
AcDbSpline
210
0.0
220
0.0
230
1.0
 70
    24
 71
     3
 72
    12
 73
     8
 74
     0
 42
0.000000001
 43
0.00000001
 40
0.0
 40
0.0
 40
0.0
 40
0.0
 40
0.250000000000002
 40
0.250000000000002
 40
0.500000000000004
 40
0.500000000000004
 40
1.0
 40
1.0
 40
1.0
 40
1.0
 10
171.7965430712833
 20
124.2623566331431
 30
0.0
 10
171.8867821389703
 20
124.2623566331431
 30
0.0
 10
171.9776802530768
 20
124.2623566331431
 30
0.0
 10
172.1322772895653
 20
124.2623566331431
 30
0.0
 10
172.1972557056734
 20
124.2623566331431
 30
0.0
 10
172.3490907336097
 20
124.2623566331431
 30
0.0
 10
172.3965430712833
 20
124.2623566331431
 30
0.0
 10
172.3965430712832
 20
124.2623566331431
 30
0.0
  0
SPLINE
  5
BF
330
1F
100
AcDbEntity
  8
0
  6
Continuous
 62
     7
370
    15
100
AcDbSpline
210
0.0
220
0.0
230
1.0
 70
     8
 71
     3
 72
    10
 73
     6
 74
     0
 42
0.000000001
 43
0.00000001
 40
0.0
 40
0.0
 40
0.0
 40
0.0
 40
0.5
 40
0.5
 40
1.0
 40
1.0
 40
1.0
 40
1.0
 10
162.9308406029742
 20
130.8123566331431
 30
0.0
 10
162.8093003393057
 20
130.8870828003549
 30
0.0
 10
162.7079659789568
 20
130.9960278162717
 30
0.0
 10
162.5723270360683
 20
131.2464582970333
 30
0.0
 10
162.5365430712833
 20
131.3888776591322
 30
0.0
 10
162.5365430712833
 20
131.5320104841789
 30
0.0
  0
SPLINE
  5
C0
330
1F
100
AcDbEntity
  8
0
  6
Continuous
 62
     7
370
    15
100
AcDbSpline
210
0.0
220
0.0
230
1.0
 70
    24
 71
     3
 72
    12
 73
     8
 74
     0
 42
0.000000001
 43
0.00000001
 40
0.0
 40
0.0
 40
0.0
 40
0.0
 40
0.2499999999999992
 40
0.2499999999999992
 40
0.4999999999999983
 40
0.4999999999999983
 40
1.0
 40
1.0
 40
1.0
 40
1.0
 10
163.3365430712832
 20
130.8123566331431
 30
0.0
 10
163.2866663889659
 20
130.8123566331431
 30
0.0
 10
163.2386631955622
 20
130.8123566331431
 30
0.0
 10
163.1556150928503
 20
130.8123566331431
 30
0.0
 10
163.1194855133824
 20
130.8123566331431
 30
0.0
 10
163.0235734824382
 20
130.8123566331431
 30
0.0
 10
162.9738148144694
 20
130.8123566331431
 30
0.0
 10
162.9308406029742
 20
130.8123566331431
 30
0.0
  0
SPLINE
  5
C1
330
1F
100
AcDbEntity
  8
0
  6
Continuous
 62
     7
370
    15
100
AcDbSpline
210
0.0
220
0.0
230
1.0
 70
    24
 71
     3
 72
    14
 73
    10
 74
     0
 42
0.000000001
 43
0.00000001
 40
0.0
 40
0.0
 40
0.0
 40
0.0
 40
0.1250000000000012
 40
0.1250000000000012
 40
0.2500000000000024
 40
0.2500000000000024
 40
0.5000000000000013
 40
0.5000000000000013
 40
1.0
 40
1.0
 40
1.0
 40
1.0
 10
163.3365430712832
 20
78.01235663314313
 30
0.0
 10
163.2681052233968
 20
78.01235663314313
 30
0.0
 10
163.2025551846318
 20
78.01235663314313
 30
0.0
 10
163.0981285452238
 20
78.01235663314314
 30
0.0
 10
163.0555839354624
 20
78.01235663314313
 30
0.0
 10
162.9429744749221
 20
78.01235663314313
 30
0.0
 10
162.8874354279027
 20
78.01235663314313
 30
0.0
 10
162.7448237324389
 20
78.01235663314313
 30
0.0
 10
162.6814183774431
 20
78.01235663314313
 30
0.0
 10
162.6342178736155
 20
78.01235663314313
 30
0.0
  0
SPLINE
  5
C2
330
1F
100
AcDbEntity
  8
0
  6
Continuous
 62
     7
370
    15
100
AcDbSpline
210
0.0
220
0.0
230
1.0
 70
     8
 71
     3
 72
    10
 73
     6
 74
     0
 42
0.000000001
 43
0.00000001
 40
0.0
 40
0.0
 40
0.0
 40
0.0
 40
0.5
 40
0.5
 40
1.0
 40
1.0
 40
1.0
 40
1.0
 10
162.5365430712833
 20
124.5482232646045
 30
0.0
 10
162.5365430712833
 20
124.5004517566112
 30
0.0
 10
162.5387043148804
 20
124.4527420345495
 30
0.0
 10
162.5473756887406
 20
124.3574469170013
 30
0.0
 10
162.5539048716966
 20
124.3097543530346
 30
0.0
 10
162.5626906944434
 20
124.2623566331431
 30
0.0
  0
SPLINE
  5
C3
330
1F
100
AcDbEntity
  8
0
  6
Continuous
 62
     7
370
    15
100
AcDbSpline
210
0.0
220
0.0
230
1.0
 70
    24
 71
     3
 72
    14
 73
    10
 74
     0
 42
0.000000001
 43
0.00000001
 40
0.0
 40
0.0
 40
0.0
 40
0.0
 40
0.4999999999999984
 40
0.4999999999999984
 40
0.7499999999999992
 40
0.7499999999999992
 40
0.8749999999999996
 40
0.8749999999999996
 40
1.0
 40
1.0
 40
1.0
 40
1.0
 10
166.258868268951
 20
78.01235663314313
 30
0.0
 10
166.2120835639028
 20
78.01235663314314
 30
0.0
 10
166.1500323671231
 20
78.01235663314314
 30
0.0
 10
166.0066407285725
 20
78.01235663314313
 30
0.0
 10
165.9504970750214
 20
78.01235663314313
 30
0.0
 10
165.8375460528852
 20
78.01235663314314
 30
0.0
 10
165.7945452908471
 20
78.01235663314314
 30
0.0
 10
165.6904825805406
 20
78.01235663314313
 30
0.0
 10
165.6251503421837
 20
78.01235663314316
 30
0.0
 10
165.5565430712832
 20
78.01235663314313
 30
0.0
  0
SPLINE
  5
C4
330
1F
100
AcDbEntity
  8
0
  6
Continuous
 62
     7
370
    15
100
AcDbSpline
210
0.0
220
0.0
230
1.0
 70
    24
 71
     3
 72
    12
 73
     8
 74
     0
 42
0.000000001
 43
0.00000001
 40
0.0
 40
0.0
 40
0.0
 40
0.0
 40
0.5000000000000017
 40
0.5000000000000017
 40
0.7500000000000008
 40
0.7500000000000008
 40
1.0
 40
1.0
 40
1.0
 40
1.0
 10
165.9622455395923
 20
130.8123566331431
 30
0.0
 10
165.9191599899813
 20
130.8123566331431
 30
0.0
 10
165.870007788232
 20
130.8123566331431
 30
0.0
 10
165.7735351939441
 20
130.8123566331431
 30
0.0
 10
165.7374336088095
 20
130.8123566331431
 30
0.0
 10
165.6543278509482
 20
130.8123566331431
 30
0.0
 10
165.606331253982
 20
130.8123566331431
 30
0.0
 10
165.5565430712832
 20
130.8123566331431
 30
0.0
  0
SPLINE
  5
C5
330
1F
100
AcDbEntity
  8
0
  6
Continuous
 62
     7
370
    15
100
AcDbSpline
210
0.0
220
0.0
230
1.0
 70
     8
 71
     3
 72
    10
 73
     6
 74
     0
 42
0.000000001
 43
0.00000001
 40
0.0
 40
0.0
 40
0.0
 40
0.0
 40
0.5
 40
0.5
 40
1.0
 40
1.0
 40
1.0
 40
1.0
 10
166.3565430712833
 20
131.5320104841789
 30
0.0
 10
166.3565430712833
 20
131.3882404263609
 30
0.0
 10
166.3204940125644
 20
131.2458210638657
 30
0.0
 10
166.1849851517904
 20
130.9959267705085
 30
0.0
 10
166.0851091586942
 20
130.8878964342603
 30
0.0
 10
165.9622455395923
 20
130.8123566331431
 30
0.0
  0
SPLINE
  5
C6
330
1F
100
AcDbEntity
  8
0
  6
Continuous
 62
     7
370
    15
100
AcDbSpline
210
0.0
220
0.0
230
1.0
 70
     8
 71
     3
 72
    10
 73
     6
 74
     0
 42
0.000000001
 43
0.00000001
 40
0.0
 40
0.0
 40
0.0
 40
0.0
 40
0.5
 40
0.5
 40
1.0
 40
1.0
 40
1.0
 40
1.0
 10
166.3303954481231
 20
124.2623566331431
 30
0.0
 10
166.3390850910348
 20
124.3092354824613
 30
0.0
 10
166.3456241557853
 20
124.3566579478625
 30
0.0
 10
166.3543827901783
 20
124.4525947464493
 30
0.0
 10
166.3565430712833
 20
124.5005100344598
 30
0.0
 10
166.3565430712833
 20
124.5482232646043
 30
0.0
  0
LINE
  5
C7
330
1F
100
AcDbEntity
  8
0
  6
Continuous
 62
     7
370
    15
100
AcDbLine
 10
165.5565430713
 20
130.8123566331
 30
0.0
 11
163.3365430713
 21
130.8123566331
 31
0.0
  0
LINE
  5
C8
330
1F
100
AcDbEntity
  8
0
  6
Continuous
 62
     7
370
    15
100
AcDbLine
 10
165.5565430713
 20
78.0123566331
 30
0.0
 11
163.3365430713
 21
78.0123566331
 31
0.0
  0
LINE
  5
C9
330
1F
100
AcDbEntity
  8
0
  6
Continuous
 62
     7
370
    15
100
AcDbLine
 10
124.6465430713
 20
81.1839097394
 30
0.0
 11
124.6465430713
 21
82.4486191019
 31
0.0
  0
SPLINE
  5
CA
330
1F
100
AcDbEntity
  8
0
  6
Continuous
 62
     7
370
    15
100
AcDbSpline
210
0.0
220
0.0
230
1.0
 70
     8
 71
     3
 72
    14
 73
    10
 74
     0
 42
0.000000001
 43
0.00000001
 40
0.0
 40
0.0
 40
0.0
 40
0.0
 40
0.25
 40
0.25
 40
0.5
 40
0.5
 40
0.75
 40
0.75
 40
1.0
 40
1.0
 40
1.0
 40
1.0
 10
123.8682559533676
 20
83.57920530958319
 30
0.0
 10
123.9248826285696
 20
83.47150785574632
 30
0.0
 10
124.0194052888593
 20
83.368718274027
 30
0.0
 10
124.2024502644216
 20
83.17036096180685
 30
0.0
 10
124.2940768413763
 20
83.07430145312861
 30
0.0
 10
124.4529301590695
 20
82.88677241041937
 30
0.0
 10
124.5208207666912
 20
82.7953634376358
 30
0.0
 10
124.6177377923988
 20
82.61698721672565
 30
0.0
 10
124.6465430712838
 20
82.52976531047948
 30
0.0
 10
124.6465430712838
 20
82.44861910194523
 30
0.0
  0
SPLINE
  5
CB
330
1F
100
AcDbEntity
  8
0
  6
Continuous
 62
     7
370
    15
100
AcDbSpline
210
0.0
220
0.0
230
1.0
 70
     8
 71
     3
 72
    14
 73
    10
 74
     0
 42
0.000000001
 43
0.00000001
 40
0.0
 40
0.0
 40
0.0
 40
0.0
 40
0.125
 40
0.125
 40
0.25
 40
0.25
 40
0.5
 40
0.5
 40
1.0
 40
1.0
 40
1.0
 40
1.0
 10
123.2465430712833
 20
84.02588717186251
 30
0.0
 10
123.2950874799404
 20
84.0316354851428
 30
0.0
 10
123.3480028347253
 20
84.02853459648655
 30
0.0
 10
123.4432981797084
 20
84.00633975232422
 30
0.0
 10
123.4835491769933
 20
83.98910752522836
 30
0.0
 10
123.5878191905063
 20
83.9327796087763
 30
0.0
 10
123.6381411656596
 20
83.88859326283051
 30
0.0
 10
123.765824113185
 20
83.75758536397989
 30
0.0
 10
123.8219095602473
 20
83.6673508437496
 30
0.0
 10
123.868255953369
 20
83.57920530958371
 30
0.0
  0
SPLINE
  5
CC
330
1F
100
AcDbEntity
  8
0
  6
Continuous
 62
     7
370
    15
100
AcDbSpline
210
0.0
220
0.0
230
1.0
 70
     8
 71
     3
 72
     8
 73
     4
 74
     0
 42
0.000000001
 43
0.00000001
 40
0.0
 40
0.0
 40
0.0
 40
0.0
 40
1.0
 40
1.0
 40
1.0
 40
1.0
 10
120.978017978337
 20
83.71604188527971
 30
0.0
 10
121.71259500482
 20
83.83466689634866
 30
0.0
 10
122.4760700742156
 20
83.93465276848495
 30
0.0
 10
123.2465430712833
 20
84.02588717186251
 30
0.0
  0
SPLINE
  5
CD
330
1F
100
AcDbEntity
  8
0
  6
Continuous
 62
     7
370
    15
100
AcDbSpline
210
0.0
220
0.0
230
1.0
 70
     8
 71
     3
 72
    14
 73
    10
 74
     0
 42
0.000000001
 43
0.00000001
 40
0.0
 40
0.0
 40
0.0
 40
0.0
 40
0.5000000000000002
 40
0.5000000000000002
 40
0.7500000000000002
 40
0.7500000000000002
 40
0.8750000000000001
 40
0.8750000000000001
 40
1.0
 40
1.0
 40
1.0
 40
1.0
 10
115.6965430712833
 20
83.54241886774805
 30
0.0
 10
116.5886892018368
 20
83.54169664154742
 30
0.0
 10
117.4786656376304
 20
83.54628284800488
 30
0.0
 10
118.805260804706
 20
83.5740078523964
 30
0.0
 10
119.2461077332047
 20
83.58661439002057
 30
0.0
 10
119.9025479706271
 20
83.61763053802802
 30
0.0
 10
120.120561627219
 20
83.62997371065481
 30
0.0
 10
120.5532704809018
 20
83.66299776581806
 30
0.0
 10
120.7685469460666
 20
83.68221493095652
 30
0.0
 10
120.978017978337
 20
83.71604188527971
 30
0.0
  0
SPLINE
  5
CE
330
1F
100
AcDbEntity
  8
0
  6
Continuous
 62
     7
370
    15
100
AcDbSpline
210
0.0
220
0.0
230
1.0
 70
     8
 71
     3
 72
     8
 73
     4
 74
     0
 42
0.000000001
 43
0.00000001
 40
0.0000005163856998
 40
0.0000005163856998
 40
0.0000005163856998
 40
0.0000005163856998
 40
0.000026289209185
 40
0.000026289209185
 40
0.000026289209185
 40
0.000026289209185
 10
115.6864981408756
 20
83.55240274084484
 30
0.0
 10
115.6898258790835
 20
83.54906849397572
 30
0.0
 10
115.6931743320591
 20
83.54574053670041
 30
0.0
 10
115.6965430712832
 20
83.54241886774804
 30
0.0
  0
SPLINE
  5
CF
330
1F
100
AcDbEntity
  8
0
  6
Continuous
 62
     7
370
    15
100
AcDbSpline
210
0.0
220
0.0
230
1.0
 70
     8
 71
     3
 72
     8
 73
     4
 74
     0
 42
0.000000001
 43
0.00000001
 40
0.0000005099763573
 40
0.0000005099763573
 40
0.0000005099763573
 40
0.0000005099763573
 40
0.0000262827998699
 40
0.0000262827998699
 40
0.0000262827998699
 40
0.0000262827998699
 10
115.6965430712832
 20
125.2822943985382
 30
0.0
 10
115.6931743320555
 20
125.2789727295823
 30
0.0
 10
115.6898258790764
 20
125.2756447723035
 30
0.0
 10
115.686498140865
 20
125.2723105254308
 30
0.0
  0
SPLINE
  5
D0
330
1F
100
AcDbEntity
  8
0
  6
Continuous
 62
     7
370
    15
100
AcDbSpline
210
0.0
220
0.0
230
1.0
 70
     8
 71
     3
 72
    10
 73
     6
 74
     0
 42
0.000000001
 43
0.00000001
 40
0.0
 40
0.0
 40
0.0
 40
0.0
 40
0.5
 40
0.5
 40
1.0
 40
1.0
 40
1.0
 40
1.0
 10
119.2465430712833
 20
125.2354440249709
 30
0.0
 10
118.6589575241927
 20
125.2565095452073
 30
0.0
 10
118.0682111307323
 20
125.2672680310795
 30
0.0
 10
116.8841919654334
 20
125.2806328116152
 30
0.0
 10
116.290777977228
 20
125.2827754542798
 30
0.0
 10
115.6965430712833
 20
125.2822943985382
 30
0.0
  0
SPLINE
  5
D1
330
1F
100
AcDbEntity
  8
0
  6
Continuous
 62
     7
370
    15
100
AcDbSpline
210
0.0
220
0.0
230
1.0
 70
     8
 71
     3
 72
    18
 73
    14
 74
     0
 42
0.000000001
 43
0.00000001
 40
0.0
 40
0.0
 40
0.0
 40
0.0
 40
0.2500000000000008
 40
0.2500000000000008
 40
0.5000000000000009
 40
0.5000000000000009
 40
0.7500000000000009
 40
0.7500000000000009
 40
0.875000000000001
 40
0.875000000000001
 40
0.9375000000000006
 40
0.9375000000000006
 40
1.0
 40
1.0
 40
1.0
 40
1.0
 10
120.6465430712833
 20
126.2564643055061
 30
0.0
 10
120.6465430712833
 20
126.1732573966489
 30
0.0
 10
120.610693971345
 20
126.0845207413354
 30
0.0
 10
120.4858222353111
 20
125.9023955507751
 30
0.0
 10
120.3954218176632
 20
125.8072655021485
 30
0.0
 10
120.173179162921
 20
125.6180839930242
 30
0.0
 10
120.0434143764753
 20
125.5231388249295
 30
0.0
 10
119.8027769191638
 20
125.3848601173495
 30
0.0
 10
119.7150096210263
 20
125.3391496840471
 30
0.0
 10
119.5604855338195
 20
125.2813263788257
 30
0.0
 10
119.5038746477647
 20
125.2636116147878
 30
0.0
 10
119.3798306168582
 20
125.2390723115549
 30
0.0
 10
119.3121159418398
 20
125.2330931730166
 30
0.0
 10
119.2465430712833
 20
125.2354440249709
 30
0.0
  0
LINE
  5
D2
330
1F
100
AcDbEntity
  8
0
  6
Continuous
 62
     7
370
    15
100
AcDbLine
 10
120.6465430713
 20
126.2564643055
 30
0.0
 11
120.6465430713
 21
127.4404027253
 31
0.0
  0
LINE
  5
D3
330
1F
100
AcDbEntity
  8
0
  6
Continuous
 62
     7
370
    15
100
AcDbLine
 10
144.4465430713
 20
80.1919257714
 30
0.0
 11
144.4465430713
 21
128.6327874949
 31
0.0
  0
SPLINE
  5
D4
330
1F
100
AcDbEntity
  8
0
  6
Continuous
 62
     7
370
    15
100
AcDbSpline
210
0.0
220
0.0
230
1.0
 70
     8
 71
     3
 72
    24
 73
    20
 74
     0
 42
0.000000001
 43
0.00000001
 40
0.0
 40
0.0
 40
0.0
 40
0.0
 40
0.0010489762969682
 40
0.0637843125639767
 40
0.1272220590447889
 40
0.19037889244876
 40
0.2526748653693632
 40
0.3146354154433589
 40
0.3770891997149993
 40
0.4393540298512636
 40
0.5008133242537819
 40
0.5621845104587263
 40
0.6248438451115537
 40
0.6874304766616293
 40
0.7496743174679374
 40
0.8119848426977089
 40
0.875096052541316
 40
0.9384412526965075
 40
0.9999999999999999
 40
0.9999999999999999
 40
0.9999999999999999
 40
0.9999999999999999
 10
133.215448903259
 20
80.75484820456299
 30
0.0
 10
133.2150024431547
 20
80.7547899187441
 30
0.0
 10
133.187854879461
 20
80.7512457768015
 30
0.0
 10
133.2834666570747
 20
80.76407952148436
 30
0.0
 10
133.5170269149691
 20
80.79332620668447
 30
0.0
 10
133.9125812222862
 20
80.83994052974738
 30
0.0
 10
134.4396215261269
 20
80.89012367140678
 30
0.0
 10
135.0831519381148
 20
80.93450013385706
 30
0.0
 10
135.8218257933597
 20
80.96144491479468
 30
0.0
 10
136.6193402987904
 20
80.96491676550056
 30
0.0
 10
137.4459191812326
 20
80.93728952147096
 30
0.0
 10
138.2714421988397
 20
80.87881063249769
 30
0.0
 10
139.0635687468408
 20
80.79336560313766
 30
0.0
 10
139.7961410208463
 20
80.6916313633013
 30
0.0
 10
140.4317812575744
 20
80.58378824132842
 30
0.0
 10
140.9536923645842
 20
80.4821580845893
 30
0.0
 10
141.3353211416996
 20
80.39967292791106
 30
0.0
 10
141.5861356119335
 20
80.34352372156144
 30
0.0
 10
141.6152571679178
 20
80.33667426294768
 30
0.0
 10
141.629609688734
 20
80.33329851621951
 30
0.0
  0
SPLINE
  5
D5
330
1F
100
AcDbEntity
  8
0
  6
Continuous
 62
     7
370
    15
100
AcDbSpline
210
0.0
220
0.0
230
1.0
 70
     8
 71
     3
 72
    24
 73
    20
 74
     0
 42
0.000000001
 43
0.00000001
 40
0.0
 40
0.0
 40
0.0
 40
0.0
 40
0.061438427625136
 40
0.1250736755369643
 40
0.1884253490730172
 40
0.2508623904037476
 40
0.3129665632512369
 40
0.3753451453465166
 40
0.4377328972325402
 40
0.4990927322917273
 40
0.5605807588448041
 40
0.6229469893028856
 40
0.6854686282026866
 40
0.7475477813740222
 40
0.8098225060807238
 40
0.8730684085990468
 40
0.9364041844533111
 40
0.9991757196257863
 40
1.0
 40
1.0
 40
1.0
 40
1.0
 10
141.629554917931
 20
128.4913856076005
 30
0.0
 10
141.6149541936273
 20
128.4880175507479
 30
0.0
 10
141.5852306748988
 20
128.4811610072741
 30
0.0
 10
141.3324928592506
 20
128.4248223867481
 30
0.0
 10
140.9494969428016
 20
128.3419653046181
 30
0.0
 10
140.4271413583636
 20
128.2400582746668
 30
0.0
 10
139.7923568803636
 20
128.132219135623
 30
0.0
 10
139.062133276191
 20
128.0307521836479
 30
0.0
 10
138.2716646909574
 20
127.9456924699573
 30
0.0
 10
137.447181176129
 20
127.8874881760709
 30
0.0
 10
136.6201447172458
 20
127.8599047372443
 30
0.0
 10
135.8218204495938
 20
127.8633977147371
 30
0.0
 10
135.0819964853046
 20
127.8903536345902
 30
0.0
 10
134.4377422523291
 20
127.9347075765896
 30
0.0
 10
133.9103349971134
 20
127.9849130263473
 30
0.0
 10
133.5156703949635
 20
128.0315228815457
 30
0.0
 10
133.2831411157786
 20
128.060718474093
 30
0.0
 10
133.1877610832264
 20
128.0734965430348
 30
0.0
 10
133.2146947201279
 20
128.0699422845265
 30
0.0
 10
133.2150438133522
 20
128.0698962169432
 30
0.0
  0
SPLINE
  5
D6
330
1F
100
AcDbEntity
  8
0
  6
Continuous
 62
     7
370
    15
100
AcDbSpline
210
0.0
220
0.0
230
1.0
 70
     8
 71
     3
 72
     9
 73
     5
 74
     0
 42
0.000000001
 43
0.00000001
 40
0.0
 40
0.0
 40
0.0
 40
0.0
 40
0.7009329310330167
 40
1.0
 40
1.0
 40
1.0
 40
1.0
 10
114.5673277555187
 20
84.71107632904051
 30
0.0
 10
114.576467032194
 20
84.69324704349899
 30
0.0
 10
114.5895057642476
 20
84.6678105363067
 30
0.0
 10
114.6046710180129
 20
84.7216903964985
 30
0.0
 10
114.6092064460067
 20
84.7378040883624
 30
0.0
  0
LINE
  5
D7
330
1F
100
AcDbEntity
  8
0
  6
Continuous
 62
     7
370
    15
100
AcDbLine
 10
114.5465430713
 20
84.7216788867
 30
0.0
 11
114.5465430713
 21
124.1030343796
 31
0.0
  0
SPLINE
  5
D8
330
1F
100
AcDbEntity
  8
0
  6
Continuous
 62
     7
370
    15
100
AcDbSpline
210
0.0
220
0.0
230
1.0
 70
     8
 71
     3
 72
     9
 73
     5
 74
     0
 42
0.000000001
 43
0.00000001
 40
0.0
 40
0.0
 40
0.0
 40
0.0
 40
0.8063521891319351
 40
1.0
 40
1.0
 40
1.0
 40
1.0
 10
114.6092064460067
 20
124.0869091779239
 30
0.0
 10
114.5930215859096
 20
124.123237609444
 30
0.0
 10
114.57294988484
 20
124.1682904188862
 30
0.0
 10
114.5637146516964
 20
124.1418877928922
 30
0.0
 10
114.5619262690153
 20
124.1367749821673
 30
0.0
  0
SPLINE
  5
D9
330
1F
100
AcDbEntity
  8
0
  6
Continuous
 62
     7
370
    15
100
AcDbSpline
210
0.0
220
0.0
230
1.0
 70
     8
 71
     3
 72
    26
 73
    22
 74
     0
 42
0.000000001
 43
0.00000001
 40
0.0
 40
0.0
 40
0.0
 40
0.0
 40
0.2500000000000165
 40
0.2500000000000165
 40
0.3750000000000256
 40
0.3750000000000256
 40
0.4375000000000291
 40
0.4375000000000291
 40
0.4687500000000291
 40
0.4687500000000291
 40
0.5000000000000292
 40
0.5000000000000292
 40
0.5312500000000293
 40
0.5312500000000293
 40
0.5625000000000293
 40
0.5625000000000293
 40
0.625000000000026
 40
0.625000000000026
 40
0.7500000000000173
 40
0.7500000000000173
 40
1.0
 40
1.0
 40
1.0
 40
1.0
 10
115.3706967173878
 20
124.802475966741
 30
0.0
 10
115.3320961945193
 20
124.6847012703855
 30
0.0
 10
115.2857991919651
 20
124.5603115842236
 30
0.0
 10
115.1918598435311
 20
124.3550922518701
 30
0.0
 10
115.1565483766176
 20
124.2835193854237
 30
0.0
 10
115.090368400872
 20
124.1675661528232
 30
0.0
 10
115.0658300342038
 20
124.126981618013
 30
0.0
 10
115.02245728865
 20
124.0628399361412
 30
0.0
 10
115.0069488872248
 20
124.0409735108562
 30
0.0
 10
114.9719062426377
 20
123.995379242513
 30
0.0
 10
114.952355951918
 20
123.9717089515456
 30
0.0
 10
114.9104286715474
 20
123.9270923922056
 30
0.0
 10
114.8877765613157
 20
123.9062123796877
 30
0.0
 10
114.8468028472291
 20
123.8753389659369
 30
0.0
 10
114.8292035473337
 20
123.8655000961045
 30
0.0
 10
114.7845765614775
 20
123.8465104804083
 30
0.0
 10
114.7640173388242
 20
123.8461861557549
 30
0.0
 10
114.7128918993275
 20
123.8554095966311
 30
0.0
 10
114.691980486339
 20
123.8766564928481
 30
0.0
 10
114.640530578778
 20
123.9506253716788
 30
0.0
 10
114.6228652794735
 20
124.0167434649936
 30
0.0
 10
114.6092064460067
 20
124.0869091779239
 30
0.0
  0
SPLINE
  5
DA
330
1F
100
AcDbEntity
  8
0
  6
Continuous
 62
     7
370
    15
100
AcDbSpline
210
0.0
220
0.0
230
1.0
 70
     8
 71
     3
 72
    10
 73
     6
 74
     0
 42
0.000000001
 43
0.00000001
 40
0.0
 40
0.0
 40
0.0
 40
0.0
 40
0.5
 40
0.5
 40
1.0
 40
1.0
 40
1.0
 40
1.0
 10
115.686498140865
 20
125.2723105254308
 30
0.0
 10
115.6189388859468
 20
125.204619132621
 30
0.0
 10
115.5553022306103
 20
125.1299119678674
 30
0.0
 10
115.4450814760385
 20
124.9709458354407
 30
0.0
 10
115.3982651828158
 20
124.8865905694328
 30
0.0
 10
115.3706967173878
 20
124.802475966741
 30
0.0
  0
SPLINE
  5
DB
330
1F
100
AcDbEntity
  8
0
  6
Continuous
 62
     7
370
    15
100
AcDbSpline
210
0.0
220
0.0
230
1.0
 70
     8
 71
     3
 72
    10
 73
     6
 74
     0
 42
0.000000001
 43
0.00000001
 40
0.0
 40
0.0
 40
0.0
 40
0.0
 40
0.5
 40
0.5
 40
1.0
 40
1.0
 40
1.0
 40
1.0
 10
115.3706967173878
 20
84.02223729954517
 30
0.0
 10
115.3981741321418
 20
83.93840050307728
 30
0.0
 10
115.4448827624312
 20
83.85409001548813
 30
0.0
 10
115.5551612251772
 20
83.69496878500144
 30
0.0
 10
115.6190487637911
 20
83.61998404091179
 30
0.0
 10
115.6864981408757
 20
83.55240274084484
 30
0.0
  0
SPLINE
  5
DC
330
1F
100
AcDbEntity
  8
0
  6
Continuous
 62
     7
370
    15
100
AcDbSpline
210
0.0
220
0.0
230
1.0
 70
     8
 71
     3
 72
    24
 73
    20
 74
     0
 42
0.000000001
 43
0.00000001
 40
0.0
 40
0.0
 40
0.0
 40
0.0
 40
0.249999999999999
 40
0.249999999999999
 40
0.3749999999999983
 40
0.3749999999999983
 40
0.4374999999999987
 40
0.4374999999999987
 40
0.4687499999999975
 40
0.4687499999999975
 40
0.4999999999999963
 40
0.4999999999999963
 40
0.5624999999999984
 40
0.5624999999999984
 40
0.6250000000000006
 40
0.6250000000000006
 40
0.7500000000000001
 40
0.7500000000000001
 40
1.0
 40
1.0
 40
1.0
 40
1.0
 10
114.6092064460067
 20
84.7378040883624
 30
0.0
 10
114.6229595646769
 20
84.80845414635269
 30
0.0
 10
114.6407321320828
 20
84.8750522591176
 30
0.0
 10
114.6929832236381
 20
84.9491502793508
 30
0.0
 10
114.7140182992197
 20
84.97040808651236
 30
0.0
 10
114.7669187068481
 20
84.9785540126586
 30
0.0
 10
114.788024379726
 20
84.97761420926282
 30
0.0
 10
114.834076548404
 20
84.95659821768548
 30
0.0
 10
114.8524470203874
 20
84.94568941157787
 30
0.0
 10
114.8939986554531
 20
84.9130545006305
 30
0.0
 10
114.91656532821
 20
84.89156252025911
 30
0.0
 10
114.97934634467
 20
84.82309657667281
 30
0.0
 10
115.0124761056379
 20
84.77702211846771
 30
0.0
 10
115.0693937921229
 20
84.69201423013305
 30
0.0
 10
115.0935798176267
 20
84.65173392895167
 30
0.0
 10
115.1587877680065
 20
84.53679770248573
 30
0.0
 10
115.1935038281977
 20
84.46621471733872
 30
0.0
 10
115.2867190985286
 20
84.26200895826013
 30
0.0
 10
115.3323916338893
 20
84.13911057593276
 30
0.0
 10
115.3706967173878
 20
84.0222372995452
 30
0.0
  0
SPLINE
  5
DD
330
1F
100
AcDbEntity
  8
0
  6
Continuous
 62
     7
370
    15
100
AcDbSpline
210
0.0
220
0.0
230
1.0
 70
     8
 71
     3
 72
    10
 73
     6
 74
     0
 42
0.000000001
 43
0.00000001
 40
0.0
 40
0.0
 40
0.0
 40
0.0
 40
0.5
 40
0.5
 40
1.0
 40
1.0
 40
1.0
 40
1.0
 10
172.3965430712832
 20
134.258796956907
 30
0.0
 10
172.3965430712832
 20
134.4192022232579
 30
0.0
 10
172.3343052401764
 20
134.5782640362464
 30
0.0
 10
172.1151703164338
 20
134.8091765018768
 30
0.0
 10
171.957581621442
 20
134.8795521063074
 30
0.0
 10
171.7965430712833
 20
134.8795521063074
 30
0.0
  0
SPLINE
  5
DE
330
1F
100
AcDbEntity
  8
0
  6
Continuous
 62
     7
370
    15
100
AcDbSpline
210
0.0
220
0.0
230
1.0
 70
     8
 71
     3
 72
    12
 73
     8
 74
     0
 42
0.000000001
 43
0.00000001
 40
0.0
 40
0.0
 40
0.0
 40
0.0
 40
0.250000000000002
 40
0.250000000000002
 40
0.500000000000004
 40
0.500000000000004
 40
1.0
 40
1.0
 40
1.0
 40
1.0
 10
171.7965430712833
 20
128.8710462955106
 30
0.0
 10
171.8877427931089
 20
128.8710462955106
 30
0.0
 10
171.9783378022449
 20
128.8428265969227
 30
0.0
 10
172.1317505286916
 20
128.7483835896746
 30
0.0
 10
172.1969593960152
 20
128.6820966129692
 30
0.0
 10
172.3497439253552
 20
128.456471789681
 30
0.0
 10
172.3965430712833
 20
128.2740455266484
 30
0.0
 10
172.3965430712833
 20
128.0933088944015
 30
0.0
  0
LINE
  5
DF
330
1F
100
AcDbEntity
  8
0
  6
Continuous
 62
     7
370
    15
100
AcDbLine
 10
172.3965430713
 20
128.0933088944
 30
0.0
 11
172.3965430713
 21
134.2587969569
 31
0.0
  0
SPLINE
  5
E0
330
1F
100
AcDbEntity
  8
0
  6
Continuous
 62
     7
370
    15
100
AcDbSpline
210
0.0
220
0.0
230
1.0
 70
     8
 71
     3
 72
     8
 73
     4
 74
     0
 42
0.000000001
 43
0.00000001
 40
0.0
 40
0.0
 40
0.0
 40
0.0
 40
1.0
 40
1.0
 40
1.0
 40
1.0
 10
161.0546102397942
 20
128.8710462955106
 30
0.0
 10
161.5616970815535
 20
127.7398959413469
 30
0.0
 10
162.0572649206934
 20
126.6035115305791
 30
0.0
 10
162.5365430712833
 20
125.4625003007265
 30
0.0
  0
LINE
  5
E1
330
1F
100
AcDbEntity
  8
0
  6
Continuous
 62
     7
370
    15
100
AcDbLine
 10
162.5365430713
 20
125.4625003007
 30
0.0
 11
162.5365430713
 21
124.5482232646
 31
0.0
  0
SPLINE
  5
E2
330
1F
100
AcDbEntity
  8
0
  6
Continuous
 62
     7
370
    15
100
AcDbSpline
210
0.0
220
0.0
230
1.0
 70
     8
 71
     3
 72
     8
 73
     4
 74
     0
 42
0.000000001
 43
0.00000001
 40
0.0
 40
0.0
 40
0.0
 40
0.0
 40
1.0
 40
1.0
 40
1.0
 40
1.0
 10
167.8384759027723
 20
134.8795521063074
 30
0.0
 10
167.343335873408
 20
133.9928724581271
 30
0.0
 10
166.849253168129
 20
133.1056098224411
 30
0.0
 10
166.3565430712833
 20
132.2175908243147
 30
0.0
  0
LINE
  5
E3
330
1F
100
AcDbEntity
  8
0
  6
Continuous
 62
     7
370
    15
100
AcDbLine
 10
167.8384759028
 20
128.8710462955
 30
0.0
 11
167.8384759028
 21
134.8795521063
 31
0.0
  0
SPLINE
  5
E4
330
1F
100
AcDbEntity
  8
0
  6
Continuous
 62
     7
370
    15
100
AcDbSpline
210
0.0
220
0.0
230
1.0
 70
     8
 71
     3
 72
     8
 73
     4
 74
     0
 42
0.000000001
 43
0.00000001
 40
0.0
 40
0.0
 40
0.0
 40
0.0
 40
1.0
 40
1.0
 40
1.0
 40
1.0
 10
166.3565430712833
 20
125.4625003007264
 30
0.0
 10
166.8358212218731
 20
126.6035115305791
 30
0.0
 10
167.331389061013
 20
127.7398959413469
 30
0.0
 10
167.8384759027723
 20
128.8710462955106
 30
0.0
  0
LINE
  5
E5
330
1F
100
AcDbEntity
  8
0
  6
Continuous
 62
     7
370
    15
100
AcDbLine
 10
166.3565430713
 20
125.4625003007
 30
0.0
 11
166.3565430713
 21
132.2175908243
 31
0.0
  0
SPLINE
  5
E6
330
1F
100
AcDbEntity
  8
0
  6
Continuous
 62
     7
370
    15
100
AcDbSpline
210
0.0
220
0.0
230
1.0
 70
     8
 71
     3
 72
     8
 73
     4
 74
     0
 42
0.000000001
 43
0.00000001
 40
0.0
 40
0.0
 40
0.0
 40
0.0
 40
1.0
 40
1.0
 40
1.0
 40
1.0
 10
162.5365430712833
 20
132.2175908243148
 30
0.0
 10
162.0438329744375
 20
133.1056098224411
 30
0.0
 10
161.5497502691585
 20
133.9928724581271
 30
0.0
 10
161.0546102397942
 20
134.8795521063074
 30
0.0
  0
LINE
  5
E7
330
1F
100
AcDbEntity
  8
0
  6
Continuous
 62
     7
370
    15
100
AcDbLine
 10
162.5365430713
 20
125.4625003007
 30
0.0
 11
162.5365430713
 21
132.2175908243
 31
0.0
  0
LINE
  5
E8
330
1F
100
AcDbEntity
  8
0
  6
Continuous
 62
     7
370
    15
100
AcDbLine
 10
171.7965430713
 20
134.8795521063
 30
0.0
 11
167.8384759028
 21
134.8795521063
 31
0.0
  0
LINE
  5
E9
330
1F
100
AcDbEntity
  8
0
  6
Continuous
 62
     7
370
    15
100
AcDbLine
 10
167.8384759028
 20
128.8710462955
 30
0.0
 11
171.7965430713
 21
128.8710462955
 31
0.0
  0
LINE
  5
EA
330
1F
100
AcDbEntity
  8
0
  6
Continuous
 62
     7
370
    15
100
AcDbLine
 10
166.3565430713
 20
124.5482232646
 30
0.0
 11
166.3565430713
 21
125.4625003007
 31
0.0
  0
LINE
  5
EB
330
1F
100
AcDbEntity
  8
0
  6
Continuous
 62
     7
370
    15
100
AcDbLine
 10
172.3965430713
 20
128.0933088944
 30
0.0
 11
172.3965430713
 21
124.2623566331
 31
0.0
  0
SPLINE
  5
EC
330
1F
100
AcDbEntity
  8
0
  6
Continuous
 62
     7
370
    15
100
AcDbSpline
210
0.0
220
0.0
230
1.0
 70
    11
 71
     3
 72
    66
 73
    62
 74
     0
 42
0.000000001
 43
0.00000001
 40
0.0
 40
0.0
 40
0.0
 40
0.0
 40
0.0312499999999996
 40
0.0312499999999996
 40
0.0624999999999993
 40
0.0624999999999993
 40
0.0937499999999989
 40
0.0937499999999989
 40
0.1249999999999986
 40
0.1249999999999986
 40
0.1562499999999982
 40
0.1562499999999982
 40
0.1874999999999979
 40
0.1874999999999979
 40
0.2187499999999975
 40
0.2187499999999975
 40
0.2499999999999972
 40
0.2499999999999972
 40
0.2812499999999968
 40
0.2812499999999968
 40
0.3124999999999964
 40
0.3124999999999964
 40
0.3437499999999961
 40
0.3437499999999961
 40
0.3749999999999958
 40
0.3749999999999958
 40
0.4062499999999954
 40
0.4062499999999954
 40
0.4374999999999951
 40
0.4374999999999951
 40
0.4687499999999947
 40
0.4687499999999947
 40
0.4999999999999943
 40
0.4999999999999943
 40
0.531249999999994
 40
0.531249999999994
 40
0.5624999999999937
 40
0.5624999999999937
 40
0.6249999999999937
 40
0.6249999999999937
 40
0.6562499999999942
 40
0.6562499999999942
 40
0.6874999999999948
 40
0.6874999999999948
 40
0.7187499999999953
 40
0.7187499999999953
 40
0.7499999999999958
 40
0.7499999999999958
 40
0.7812499999999963
 40
0.7812499999999963
 40
0.8124999999999969
 40
0.8124999999999969
 40
0.8437499999999974
 40
0.8437499999999974
 40
0.874999999999998
 40
0.874999999999998
 40
0.9062499999999986
 40
0.9062499999999986
 40
0.937499999999999
 40
0.937499999999999
 40
1.0
 40
1.0
 40
1.0
 40
1.0
 10
179.8798834796679
 20
106.9194737914701
 30
0.0
 10
180.0616683846126
 20
107.0684588945787
 30
0.0
 10
180.2547226868538
 20
107.1977867198757
 30
0.0
 10
180.6615874014178
 20
107.4206637403791
 30
0.0
 10
180.8770282644305
 20
107.5146941014607
 30
0.0
 10
181.321907140874
 20
107.6637227694368
 30
0.0
 10
181.5483997569095
 20
107.7180700159343
 30
0.0
 10
182.0092100220471
 20
107.7880789443615
 30
0.0
 10
182.2458275176256
 20
107.8035821581931
 30
0.0
 10
182.7141629006243
 20
107.7940960500051
 30
0.0
 10
182.9456078724771
 20
107.7696053414042
 30
0.0
 10
183.4031033235997
 20
107.6813818296599
 30
0.0
 10
183.6313138324594
 20
107.6166547501009
 30
0.0
 10
184.0671037889306
 20
107.4503163116962
 30
0.0
 10
184.2755479972417
 20
107.3490080752658
 30
0.0
 10
184.6731677829247
 20
107.1090207114009
 30
0.0
 10
184.8639726920092
 20
106.9685413531864
 30
0.0
 10
185.2096279515437
 20
106.6584256907012
 30
0.0
 10
185.3661040695141
 20
106.4883353731647
 30
0.0
 10
185.6443541038481
 20
106.1158904243124
 30
0.0
 10
185.7662992031451
 20
105.911737325045
 30
0.0
 10
185.9596389716511
 20
105.4894145963978
 30
0.0
 10
186.0331010282989
 20
105.2690958723164
 30
0.0
 10
186.1297112797066
 20
104.8084936716593
 30
0.0
 10
186.1512267510739
 20
104.573230993577
 30
0.0
 10
186.1401425130198
 20
104.1070488581065
 30
0.0
 10
186.1069946417968
 20
103.8708885465094
 30
0.0
 10
185.9893422073583
 20
103.4174777894074
 30
0.0
 10
185.9057017628317
 20
103.1997104552161
 30
0.0
 10
185.6903834706512
 20
102.7813682503293
 30
0.0
 10
185.560991333929
 20
102.5857650125673
 30
0.0
 10
185.266361592499
 20
102.225146723667
 30
0.0
 10
185.0986812495125
 20
102.0578435200064
 30
0.0
 10
184.7386863863963
 20
101.7616373244569
 30
0.0
 10
184.5459125767285
 20
101.6315265196738
 30
0.0
 10
184.1355622986054
 20
101.4058238372244
 30
0.0
 10
183.9193315465891
 20
101.3114432418528
 30
0.0
 10
183.2572183676555
 20
101.0886725902985
 30
0.0
 10
182.7838148147081
 20
101.0168848710906
 30
0.0
 10
182.0849203168332
 20
101.0302273337465
 30
0.0
 10
181.8514296135484
 20
101.054425797275
 30
0.0
 10
181.3886909331199
 20
101.1435011715288
 30
0.0
 10
181.1645411619862
 20
101.2072419252619
 30
0.0
 10
180.7303400560574
 20
101.3724972942355
 30
0.0
 10
180.5188887525411
 20
101.4748481513768
 30
0.0
 10
180.1175663866576
 20
101.7171540833569
 30
0.0
 10
179.9309274208504
 20
101.8547959844863
 30
0.0
 10
179.5859745424247
 20
102.1637815568425
 30
0.0
 10
179.4260528256138
 20
102.3373220545239
 30
0.0
 10
179.1465194810327
 20
102.7120874540738
 30
0.0
 10
179.0277700552326
 20
102.9111491309706
 30
0.0
 10
178.8339935983058
 20
103.333786937297
 30
0.0
 10
178.7586855874819
 20
103.5605637064833
 30
0.0
 10
178.6632801675427
 20
104.0179387637073
 30
0.0
 10
178.6417277319357
 20
104.2500858070905
 30
0.0
 10
178.653136274363
 20
104.7216034097906
 30
0.0
 10
178.6864763890037
 20
104.9557033082289
 30
0.0
 10
178.8040232128146
 20
105.4079142192032
 30
0.0
 10
178.8897900126813
 20
105.6303579565665
 30
0.0
 10
179.2115615620856
 20
106.2534653311137
 30
0.0
 10
179.5163136697785
 20
106.6215035852528
 30
0.0
 10
179.8798834796679
 20
106.9194737914701
 30
0.0
  0
LINE
  5
ED
330
1F
100
AcDbEntity
  8
0
  6
Continuous
 62
     7
370
    15
100
AcDbLine
 10
190.1465430713
 20
104.4123566331
 30
0.0
 11
190.1465430713
 21
88.4123566331
 31
0.0
  0
LINE
  5
EE
330
1F
100
AcDbEntity
  8
0
  6
Continuous
 62
     7
370
    15
100
AcDbLine
 10
190.1465430713
 20
120.4123566331
 30
0.0
 11
190.1465430713
 21
104.4123566331
 31
0.0
  0
LINE
  5
EF
330
1F
100
AcDbEntity
  8
0
  6
Continuous
 62
     7
370
    15
100
AcDbLine
 10
190.4465430713
 20
104.4123566331
 30
0.0
 11
190.4465430713
 21
88.7123566331
 31
0.0
  0
LINE
  5
F0
330
1F
100
AcDbEntity
  8
0
  6
Continuous
 62
     7
370
    15
100
AcDbLine
 10
190.4465430713
 20
120.1123566331
 30
0.0
 11
190.4465430713
 21
104.4123566331
 31
0.0
  0
CIRCLE
  5
F1
330
1F
100
AcDbEntity
  8
0
  6
HIDDEN
 62
     7
370
     0
100
AcDbCircle
 10
182.3965430713
 20
104.4123566331
 30
0.0
 40
2.153589838486232
  0
CIRCLE
  5
F2
330
1F
100
AcDbEntity
  8
0
  6
HIDDEN
 62
     7
370
     0
100
AcDbCircle
 10
182.3965430713
 20
104.4123566331
 30
0.0
 40
1.953589838486211
  0
LINE
  5
F3
330
1F
100
AcDbEntity
  8
0
  6
HIDDEN
 62
     7
370
     0
100
AcDbLine
 10
161.0546102398
 20
128.8710462955
 30
0.0
 11
161.0546102398
 21
124.2623566331
 31
0.0
  0
LINE
  5
F4
330
1F
100
AcDbEntity
  8
0
  6
HIDDEN
 62
     7
370
     0
100
AcDbLine
 10
134.4416932759
 20
80.8877570103
 30
0.0
 11
134.1900356817
 21
80.8642353889
 31
0.0
  0
SPLINE
  5
F5
330
1F
100
AcDbEntity
  8
0
  6
HIDDEN
 62
     7
370
     0
100
AcDbSpline
210
0.0
220
0.0
230
1.0
 70
     8
 71
     3
 72
    32
 73
    28
 74
     0
 42
0.000000001
 43
0.00000001
 40
0.0
 40
0.0
 40
0.0
 40
0.0
 40
0.0346246159901393
 40
0.0694870388940024
 40
0.105100760954932
 40
0.1409753874086759
 40
0.175600572118933
 40
0.2104692408125612
 40
0.2461122854708171
 40
0.2820258067991323
 40
0.3162663828049038
 40
0.3859338563640314
 40
0.4214461814158482
 40
0.4553763558770599
 40
0.5243713305904969
 40
0.559512463821912
 40
0.5937987343035772
 40
0.6635059787021125
 40
0.6990055363805019
 40
0.7337623601246064
 40
0.7687606633024605
 40
0.8045245907686109
 40
0.8405553812432469
 40
0.8751701211305551
 40
0.9456085132854554
 40
0.9815233266320909
 40
1.0
 40
1.0
 40
1.0
 40
1.0
 10
140.2015450728848
 20
84.57482815732666
 30
0.0
 10
140.1295467710385
 20
84.58461610023498
 30
0.0
 10
139.9850556725053
 20
84.60425921107142
 30
0.0
 10
139.7437357382468
 20
84.63370842969314
 30
0.0
 10
139.4844374872612
 20
84.66225881178356
 30
0.0
 10
139.2104500681286
 20
84.68869003073839
 30
0.0
 10
138.925822287107
 20
84.7121425080897
 30
0.0
 10
138.6312373281389
 20
84.73213996454831
 30
0.0
 10
138.3243064191705
 20
84.74829564305205
 30
0.0
 10
138.0125749534181
 20
84.75973763074754
 30
0.0
 10
137.5953094047327
 20
84.7684287584454
 30
0.0
 10
137.1746664113751
 20
84.76714070198518
 30
0.0
 10
136.7612628582096
 20
84.75591289061772
 30
0.0
 10
136.3564188951424
 20
84.73861461853686
 30
0.0
 10
135.9657808105802
 20
84.71289897476863
 30
0.0
 10
135.5969997325389
 20
84.68080566387172
 30
0.0
 10
135.2435819502905
 20
84.64524745536927
 30
0.0
 10
134.9181408599696
 20
84.60599899903367
 30
0.0
 10
134.6287636542523
 20
84.56636748166136
 30
0.0
 10
134.4308497772769
 20
84.53723173851908
 30
0.0
 10
134.2535228132394
 20
84.50949750620634
 30
0.0
 10
134.0969134847269
 20
84.48371696195196
 30
0.0
 10
133.9652659650242
 20
84.46111032521779
 30
0.0
 10
133.8234047694525
 20
84.43592427991112
 30
0.0
 10
133.7345861816369
 20
84.41947873078752
 30
0.0
 10
133.6977632430865
 20
84.41258589997132
 30
0.0
 10
133.6991793902597
 20
84.41285088588054
 30
0.0
 10
133.6996604524688
 20
84.41294090103526
 30
0.0
  0
SPLINE
  5
F6
330
1F
100
AcDbEntity
  8
0
  6
HIDDEN
 62
     7
370
     0
100
AcDbSpline
210
0.0
220
0.0
230
1.0
 70
     8
 71
     3
 72
    22
 73
    18
 74
     0
 42
0.000000001
 43
0.00000001
 40
0.0
 40
0.0
 40
0.0
 40
0.0
 40
0.0499040281125885
 40
0.1203075863893545
 40
0.1885125365560132
 40
0.2586444168297191
 40
0.3277839407293159
 40
0.39888732146551
 40
0.4686969488930338
 40
0.5405663748364755
 40
0.6097087891223015
 40
0.6809159691092502
 40
0.7490773369981714
 40
0.8192056085539695
 40
0.8876078379088254
 40
0.9579332867310426
 40
1.0
 40
1.0
 40
1.0
 40
1.0
 10
133.7065152129447
 20
124.4104918250615
 30
0.0
 10
133.7077661469702
 20
124.4102527946657
 30
0.0
 10
133.7107818725345
 20
124.4096765451911
 30
0.0
 10
133.835675199588
 20
124.3864785103676
 30
0.0
 10
134.0601570274656
 20
124.3467984740499
 30
0.0
 10
134.379185189643
 20
124.2945870526507
 30
0.0
 10
134.7867204206397
 20
124.2352572409785
 30
0.0
 10
135.2685069744727
 20
124.1757824644625
 30
0.0
 10
135.8189266562679
 20
124.1221761081005
 30
0.0
 10
136.4118215422162
 20
124.0817021896261
 30
0.0
 10
137.0387741125333
 20
124.0585029412598
 30
0.0
 10
137.6669850863614
 20
124.0555248380449
 30
0.0
 10
138.2912451788384
 20
124.0726591637442
 30
0.0
 10
138.8838634686667
 20
124.1073450194343
 30
0.0
 10
139.4406895521948
 20
124.1563013830981
 30
0.0
 10
139.8784963968277
 20
124.2062015477213
 30
0.0
 10
140.1135631036006
 20
124.237987936713
 30
0.0
 10
140.2015450728848
 20
124.2498851089596
 30
0.0
  0
SPLINE
  5
F7
330
1F
100
AcDbEntity
  8
0
  6
HIDDEN
 62
     7
370
     0
100
AcDbSpline
210
0.0
220
0.0
230
1.0
 70
     8
 71
     3
 72
    10
 73
     6
 74
     0
 42
0.000000001
 43
0.00000001
 40
0.0
 40
0.0
 40
0.0
 40
0.0
 40
0.4477502370838397
 40
0.895483708876157
 40
1.0
 40
1.0
 40
1.0
 40
1.0
 10
140.2015450728848
 20
124.2498851089596
 30
0.0
 10
140.448241275304
 20
124.2793970976976
 30
0.0
 10
140.9416244429974
 20
124.3384199701445
 30
0.0
 10
141.2306320874759
 20
124.3523581300098
 30
0.0
 10
141.1703463800091
 20
124.3484723005757
 30
0.0
 10
141.158936979815
 20
124.3477368860809
 30
0.0
  0
SPLINE
  5
F8
330
1F
100
AcDbEntity
  8
0
  6
HIDDEN
 62
     7
370
     0
100
AcDbSpline
210
0.0
220
0.0
230
1.0
 70
     8
 71
     3
 72
    13
 73
     9
 74
     0
 42
0.000000001
 43
0.00000001
 40
0.0
 40
0.0
 40
0.0
 40
0.0
 40
0.1181061628048711
 40
0.3464583215955477
 40
0.5686818670228055
 40
0.7974023686648172
 40
0.8984032829147061
 40
1.0
 40
1.0
 40
1.0
 40
1.0
 10
141.1837388314477
 20
84.47528383023393
 30
0.0
 10
141.1858711211484
 20
84.47514703571481
 30
0.0
 10
141.1921260827298
 20
84.4747457560663
 30
0.0
 10
141.0871300939913
 20
84.48147116047906
 30
0.0
 10
140.878512762842
 20
84.49745491405815
 30
0.0
 10
140.6247412912377
 20
84.52206894567736
 30
0.0
 10
140.3886627008301
 20
84.54965836393686
 30
0.0
 10
140.2640397799915
 20
84.56642179346291
 30
0.0
 10
140.2015450728848
 20
84.57482815732666
 30
0.0
  0
LINE
  5
F9
330
1F
100
AcDbEntity
  8
0
  6
HIDDEN
 62
     7
370
     0
100
AcDbLine
 10
127.4505176675
 20
87.4123566331
 30
0.0
 11
127.4505176675
 21
121.4123566331
 31
0.0
  0
SPLINE
  5
FA
330
1F
100
AcDbEntity
  8
0
  6
HIDDEN
 62
     7
370
     0
100
AcDbSpline
210
0.0
220
0.0
230
1.0
 70
     8
 71
     3
 72
    11
 73
     7
 74
     0
 42
0.000000001
 43
0.00000001
 40
0.0
 40
0.0
 40
0.0
 40
0.0
 40
0.0005779865010846
 40
0.0005779865010846
 40
0.0005779865010846
 40
0.0011559733324422
 40
0.0011559733324422
 40
0.0011559733324422
 40
0.0011559733324422
 10
114.5465430712833
 20
106.4121972413031
 30
0.0
 10
114.7132103260892
 20
106.4102136019624
 30
0.0
 10
114.8798767557669
 20
106.4081759949541
 30
0.0
 10
115.0465430942187
 20
106.406064531548
 30
0.0
 10
115.2132095230451
 20
106.403953066997
 30
0.0
 10
115.3798758966828
 20
106.4017675038409
 30
0.0
 10
115.5465430712833
 20
106.3994849265096
 30
0.0
  0
SPLINE
  5
FB
330
1F
100
AcDbEntity
  8
0
  6
HIDDEN
 62
     7
370
     0
100
AcDbSpline
210
0.0
220
0.0
230
1.0
 70
     8
 71
     3
 72
    11
 73
     7
 74
     0
 42
0.000000001
 43
0.00000001
 40
0.0
 40
0.0
 40
0.0
 40
0.0
 40
0.0005782382535738
 40
0.0005782382535738
 40
0.0005782382535738
 40
0.0011564766069467
 40
0.0011564766069467
 40
0.0011564766069467
 40
0.0011564766069467
 10
115.5465430712833
 20
102.4156563309249
 30
0.0
 10
115.3798891173146
 20
102.4152187531633
 30
0.0
 10
115.2132284451127
 20
102.4147386884909
 30
0.0
 10
115.0465615564473
 20
102.4142191491215
 30
0.0
 10
114.8798946380512
 20
102.4136996096595
 30
0.0
 10
114.713221508218
 20
102.4131407806375
 30
0.0
 10
114.5465430712833
 20
102.4125552370544
 30
0.0
  0
LINE
  5
FC
330
1F
100
AcDbEntity
  8
0
  6
HIDDEN
 62
     7
370
     0
100
AcDbLine
 10
154.1063690398
 20
87.4123566331
 30
0.0
 11
154.1063690398
 21
121.4123566331
 31
0.0
  0
LINE
  5
FD
330
1F
100
AcDbEntity
  8
0
  6
HIDDEN
 62
     7
370
     0
100
AcDbLine
 10
156.3965430713
 20
88.6873566331
 30
0.0
 11
156.3965430713
 21
120.1373566199
 31
0.0
  0
SPLINE
  5
FE
330
1F
100
AcDbEntity
  8
0
  6
HIDDEN
 62
     7
370
     0
100
AcDbSpline
210
0.0
220
0.0
230
1.0
 70
     8
 71
     3
 72
    16
 73
    12
 74
     0
 42
0.000000001
 43
0.00000001
 40
0.0
 40
0.0
 40
0.0
 40
0.0
 40
0.124999999999998
 40
0.124999999999998
 40
0.249999999999996
 40
0.249999999999996
 40
0.4999999999999973
 40
0.4999999999999973
 40
0.7499999999999987
 40
0.7499999999999987
 40
1.0
 40
1.0
 40
1.0
 40
1.0
 10
123.2465430712833
 20
88.61086619711148
 30
0.0
 10
123.3416648259491
 20
88.61086619711148
 30
0.0
 10
123.4349948946772
 20
88.60705036371867
 30
0.0
 10
123.6182566554152
 20
88.59227981098886
 30
0.0
 10
123.7091343709722
 20
88.58112176301327
 30
0.0
 10
123.9659360684919
 20
88.53865049287155
 30
0.0
 10
124.1210034333639
 20
88.49760429566876
 30
0.0
 10
124.3747498949185
 20
88.40245817908688
 30
0.0
 10
124.4756203465864
 20
88.34769544500529
 30
0.0
 10
124.6108667612812
 20
88.23643432110143
 30
0.0
 10
124.6465430712833
 20
88.17926458377273
 30
0.0
 10
124.6465430712833
 20
88.124843010739
 30
0.0
  0
SPLINE
  5
FF
330
1F
100
AcDbEntity
  8
0
  6
HIDDEN
 62
     7
370
     0
100
AcDbSpline
210
0.0
220
0.0
230
1.0
 70
     8
 71
     3
 72
     8
 73
     4
 74
     0
 42
0.000000001
 43
0.00000001
 40
0.0
 40
0.0
 40
0.0
 40
0.0
 40
1.0
 40
1.0
 40
1.0
 40
1.0
 10
115.8465430745641
 20
90.7556691431937
 30
0.0
 10
115.846543074566
 20
89.87177200087677
 30
0.0
 10
115.8330624486566
 20
89.15718875581481
 30
0.0
 10
115.8317110804673
 20
88.61086619711146
 30
0.0
  0
SPLINE
  5
100
330
1F
100
AcDbEntity
  8
0
  6
HIDDEN
 62
     7
370
     0
100
AcDbSpline
210
0.0
220
0.0
230
1.0
 70
     8
 71
     3
 72
    10
 73
     6
 74
     0
 42
0.000000001
 43
0.00000001
 40
0.0
 40
0.0
 40
0.0
 40
0.0
 40
0.5
 40
0.5
 40
1.0
 40
1.0
 40
1.0
 40
1.0
 10
115.5465430712833
 20
91.78057940884649
 30
0.0
 10
115.6379341869655
 20
91.6059406212372
 30
0.0
 10
115.710586020691
 20
91.43233879399021
 30
0.0
 10
115.8180849136866
 20
91.0887253750006
 30
0.0
 10
115.8465430745585
 20
90.92039954847755
 30
0.0
 10
115.8465430745641
 20
90.7556691432532
 30
0.0
  0
LINE
  5
101
330
1F
100
AcDbEntity
  8
0
  6
HIDDEN
 62
     7
370
     0
100
AcDbLine
 10
115.5465430713
 20
94.8115298409
 30
0.0
 11
115.5465430713
 21
91.7805794088
 31
0.0
  0
SPLINE
  5
102
330
1F
100
AcDbEntity
  8
0
  6
HIDDEN
 62
     7
370
     0
100
AcDbSpline
210
0.0
220
0.0
230
1.0
 70
     8
 71
     3
 72
    10
 73
     6
 74
     0
 42
0.000000001
 43
0.00000001
 40
0.0
 40
0.0
 40
0.0
 40
0.0
 40
0.5
 40
0.5
 40
1.0
 40
1.0
 40
1.0
 40
1.0
 10
115.8465430743685
 20
96.1793702575003
 30
0.0
 10
115.8465430743685
 20
95.937386289929
 30
0.0
 10
115.8183930453081
 20
95.70304386099691
 30
0.0
 10
115.7148031312028
 20
95.24766883878084
 30
0.0
 10
115.6381744216378
 20
95.02606427570316
 30
0.0
 10
115.5465430712833
 20
94.81152984093039
 30
0.0
  0
LINE
  5
103
330
1F
100
AcDbEntity
  8
0
  6
HIDDEN
 62
     7
370
     0
100
AcDbLine
 10
115.8465430744
 20
108.0169902547
 30
0.0
 11
115.8465430744
 21
96.1793702575
 31
0.0
  0
SPLINE
  5
104
330
1F
100
AcDbEntity
  8
0
  6
HIDDEN
 62
     7
370
     0
100
AcDbSpline
210
0.0
220
0.0
230
1.0
 70
     8
 71
     3
 72
     8
 73
     4
 74
     0
 42
0.000000001
 43
0.00000001
 40
0.0
 40
0.0
 40
0.0
 40
0.0
 40
1.0
 40
1.0
 40
1.0
 40
1.0
 10
115.5465430712833
 20
114.0192959540237
 30
0.0
 10
115.7275745377826
 20
113.5871884684134
 30
0.0
 10
115.8465430743742
 20
113.1330430623738
 30
0.0
 10
115.8465430743685
 20
112.645343008755
 30
0.0
  0
LINE
  5
105
330
1F
100
AcDbEntity
  8
0
  6
HIDDEN
 62
     7
370
     0
100
AcDbLine
 10
115.5465430713
 20
117.0524989402
 30
0.0
 11
115.5465430713
 21
114.019295954
 31
0.0
  0
SPLINE
  5
106
330
1F
100
AcDbEntity
  8
0
  6
HIDDEN
 62
     7
370
     0
100
AcDbSpline
210
0.0
220
0.0
230
1.0
 70
     8
 71
     3
 72
    10
 73
     6
 74
     0
 42
0.000000001
 43
0.00000001
 40
0.0
 40
0.0
 40
0.0
 40
0.0
 40
0.5
 40
0.5
 40
1.0
 40
1.0
 40
1.0
 40
1.0
 10
115.8465430746757
 20
118.069044123063
 30
0.0
 10
115.8465430746739
 20
117.9044077764572
 30
0.0
 10
115.8193844039186
 20
117.7372525526269
 30
0.0
 10
115.7136194086005
 20
117.3986295448257
 30
0.0
 10
115.6372046203034
 20
117.2263577675349
 30
0.0
 10
115.5465430712833
 20
117.0524989401912
 30
0.0
  0
SPLINE
  5
107
330
1F
100
AcDbEntity
  8
0
  6
HIDDEN
 62
     7
370
     0
100
AcDbSpline
210
0.0
220
0.0
230
1.0
 70
     8
 71
     3
 72
    18
 73
    14
 74
     0
 42
0.000000001
 43
0.00000001
 40
0.0
 40
0.0
 40
0.0
 40
0.0
 40
0.2500000000000033
 40
0.2500000000000033
 40
0.3750000000000029
 40
0.3750000000000029
 40
0.5000000000000026
 40
0.5000000000000026
 40
0.6250000000000022
 40
0.6250000000000022
 40
0.7500000000000018
 40
0.7500000000000018
 40
1.0
 40
1.0
 40
1.0
 40
1.0
 10
120.6465430712833
 20
120.6998702555473
 30
0.0
 10
120.6465430712832
 20
120.6453957349951
 30
0.0
 10
120.6116323798911
 20
120.5890146756426
 30
0.0
 10
120.509623078558
 20
120.5049378347891
 30
0.0
 10
120.4679867238799
 20
120.4776041307982
 30
0.0
 10
120.3695809283912
 20
120.4246502151992
 30
0.0
 10
120.3120377166869
 20
120.398762861482
 30
0.0
 10
120.1847395431139
 20
120.3509853166488
 30
0.0
 10
120.1151522383565
 20
120.3290373984709
 30
0.0
 10
119.9637179932015
 20
120.2896048335582
 30
0.0
 10
119.8810340901076
 20
120.2720485843323
 30
0.0
 10
119.6249226280695
 20
120.2296098189118
 30
0.0
 10
119.4370076241815
 20
120.2138470691748
 30
0.0
 10
119.2465430712833
 20
120.2138470691748
 30
0.0
  0
LINE
  5
108
330
1F
100
AcDbEntity
  8
0
  6
HIDDEN
 62
     7
370
     0
100
AcDbLine
 10
119.2465430713
 20
120.2138470692
 30
0.0
 11
115.8465430747
 21
120.2138470692
 31
0.0
  0
LINE
  5
109
330
1F
100
AcDbEntity
  8
0
  6
HIDDEN
 62
     7
370
     0
100
AcDbLine
 10
115.7775740846
 20
88.6108661971
 30
0.0
 11
123.2465430713
 21
88.6108661971
 31
0.0
  0
SPLINE
  5
10A
330
1F
100
AcDbEntity
  8
0
  6
HIDDEN
 62
     7
370
     0
100
AcDbSpline
210
0.0
220
0.0
230
1.0
 70
     8
 71
     3
 72
    22
 73
    18
 74
     0
 42
0.000000001
 43
0.00000001
 40
0.0
 40
0.0
 40
0.0
 40
0.0
 40
0.125
 40
0.125
 40
0.25
 40
0.25
 40
0.5000000000000001
 40
0.5000000000000001
 40
0.5625000000000001
 40
0.5625000000000001
 40
0.6250000000000001
 40
0.6250000000000001
 40
0.75
 40
0.75
 40
0.875
 40
0.875
 40
1.0
 40
1.0
 40
1.0
 40
1.0
 10
115.7775740846411
 20
88.61086619711148
 30
0.0
 10
115.7644916919128
 20
88.86597190725915
 30
0.0
 10
115.7512721284729
 20
89.15913016636306
 30
0.0
 10
115.7288249506788
 20
89.82143063198785
 30
0.0
 10
115.7193464836544
 20
90.19170455259925
 30
0.0
 10
115.7001485227179
 20
91.41426135571302
 30
0.0
 10
115.7012622957147
 20
92.35140028184489
 30
0.0
 10
115.7201730886678
 20
93.67127151135989
 30
0.0
 10
115.7248026165268
 20
93.9427734203362
 30
0.0
 10
115.7352838362728
 20
94.50115825513849
 30
0.0
 10
115.7410790975572
 20
94.7882811110781
 30
0.0
 10
115.7593883184621
 20
95.6608703654498
 30
0.0
 10
115.7734232527425
 20
96.26132604180565
 30
0.0
 10
115.8028804248793
 20
97.49880053430171
 30
0.0
 10
115.8184361158609
 20
98.13581669094516
 30
0.0
 10
115.8422306658578
 20
99.44730528862974
 30
0.0
 10
115.8502497180031
 20
100.1234279002903
 30
0.0
 10
115.8465430712833
 20
100.807723011575
 30
0.0
  0
LINE
  5
10B
330
1F
100
AcDbEntity
  8
0
  6
HIDDEN
 62
     7
370
     0
100
AcDbLine
 10
115.8465430747
 20
108.0169902547
 30
0.0
 11
115.8465430747
 21
120.2138470692
 31
0.0
  0
SPLINE
  5
10C
330
1F
100
AcDbEntity
  8
0
  6
HIDDEN
 62
     7
370
     0
100
AcDbSpline
210
0.0
220
0.0
230
1.0
 70
     8
 71
     3
 72
    10
 73
     6
 74
     0
 42
0.000000001
 43
0.00000001
 40
0.0
 40
0.0
 40
0.0
 40
0.0
 40
0.5
 40
0.5
 40
1.0
 40
1.0
 40
1.0
 40
1.0
 10
115.8465430712833
 20
100.80772301156
 30
0.0
 10
115.8465430712831
 20
101.0816381596341
 30
0.0
 10
115.8207838414142
 20
101.3525797383637
 30
0.0
 10
115.7175779086808
 20
101.8882708199658
 30
0.0
 10
115.6402397448064
 20
102.1540176234875
 30
0.0
 10
115.5465430712833
 20
102.4156563309249
 30
0.0
  0
SPLINE
  5
10D
330
1F
100
AcDbEntity
  8
0
  6
HIDDEN
 62
     7
370
     0
100
AcDbSpline
210
0.0
220
0.0
230
1.0
 70
     8
 71
     3
 72
    10
 73
     6
 74
     0
 42
0.000000001
 43
0.00000001
 40
0.0
 40
0.0
 40
0.0
 40
0.0
 40
0.5
 40
0.5
 40
1.0
 40
1.0
 40
1.0
 40
1.0
 10
115.5465430712833
 20
106.3994849265096
 30
0.0
 10
115.639773652674
 20
106.6633787345794
 30
0.0
 10
115.7148032649106
 20
106.9295590452173
 30
0.0
 10
115.8198703640884
 20
107.4678816201749
 30
0.0
 10
115.8465430746745
 20
107.7406297364201
 30
0.0
 10
115.8465430746757
 20
108.0169902547103
 30
0.0
  0
LINE
  5
10E
330
1F
100
AcDbEntity
  8
0
  6
HIDDEN
 62
     7
370
     0
100
AcDbLine
 10
115.5465430713
 20
102.4156563309
 30
0.0
 11
115.5465430713
 21
106.3994849265
 31
0.0
  0
CIRCLE
  5
10F
330
1F
100
AcDbEntity
  8
0
  6
HIDDEN
 62
     7
370
     0
100
AcDbCircle
 10
182.3965430713
 20
104.4123566331
 30
0.0
 40
2.624999999999986
  0
LINE
  5
110
330
1F
100
AcDbEntity
  8
0
  6
HIDDEN
 62
     7
370
     0
100
AcDbLine
 10
115.6965430713
 20
86.4223566331
 30
0.0
 11
115.6965430713
 21
83.5424188677
 31
0.0
  0
LINE
  5
111
330
1F
100
AcDbEntity
  8
0
  6
HIDDEN
 62
     7
370
     0
100
AcDbLine
 10
124.6465430713
 20
86.4223566331
 30
0.0
 11
124.6465430713
 21
82.4486191019
 31
0.0
  0
LINE
  5
112
330
1F
100
AcDbEntity
  8
0
  6
HIDDEN
 62
     7
370
     0
100
AcDbLine
 10
115.6965430713
 20
122.4023566331
 30
0.0
 11
115.6965430713
 21
125.2822943985
 31
0.0
  0
LINE
  5
113
330
1F
100
AcDbEntity
  8
0
  6
HIDDEN
 62
     7
370
     0
100
AcDbLine
 10
120.6465430713
 20
122.4023566331
 30
0.0
 11
120.6465430713
 21
126.2564643055
 31
0.0
  0
SPLINE
  5
114
330
1F
100
AcDbEntity
  8
0
  6
HIDDEN
 62
     7
370
     0
100
AcDbSpline
210
0.0
220
0.0
230
1.0
 70
     8
 71
     3
 72
    16
 73
    12
 74
     0
 42
0.000000001
 43
0.00000001
 40
0.0
 40
0.0
 40
0.0
 40
0.0
 40
0.2499999999999967
 40
0.2499999999999967
 40
0.4999999999999934
 40
0.4999999999999934
 40
0.6249999999999917
 40
0.6249999999999917
 40
0.74999999999999
 40
0.74999999999999
 40
1.0
 40
1.0
 40
1.0
 40
1.0
 10
190.4465430712833
 20
113.0211198899481
 30
0.0
 10
190.4465430712833
 20
112.9475940794268
 30
0.0
 10
190.4423299213015
 20
112.872646567546
 30
0.0
 10
190.4197817290633
 20
112.7179888129532
 30
0.0
 10
190.4016333540113
 20
112.6370445588369
 30
0.0
 10
190.3518209744034
 20
112.5205715603185
 30
0.0
 10
190.3308544279816
 20
112.4821467802828
 30
0.0
 10
190.2796710978208
 20
112.4159257863067
 30
0.0
 10
190.2501012563083
 20
112.3894861479724
 30
0.0
 10
190.159562174966
 20
112.3360294048827
 30
0.0
 10
190.10010268756
 20
112.3328068799903
 30
0.0
 10
190.0465430712437
 20
112.3405624203345
 30
0.0
  0
SPLINE
  5
115
330
1F
100
AcDbEntity
  8
0
  6
HIDDEN
 62
     7
370
     0
100
AcDbSpline
210
0.0
220
0.0
230
1.0
 70
     8
 71
     3
 72
    10
 73
     6
 74
     0
 42
0.000000001
 43
0.00000001
 40
0.0
 40
0.0
 40
0.0
 40
0.0
 40
0.5
 40
0.5
 40
1.0
 40
1.0
 40
1.0
 40
1.0
 10
190.0465430712578
 20
112.3405624203473
 30
0.0
 10
190.0053470093465
 20
112.3076741761097
 30
0.0
 10
189.9599095449987
 20
112.279198649273
 30
0.0
 10
189.858236613729
 20
112.2377263293574
 30
0.0
 10
189.8030753257295
 20
112.2256726311225
 30
0.0
 10
189.7465430712834
 20
112.2256726311225
 30
0.0
  0
SPLINE
  5
116
330
1F
100
AcDbEntity
  8
0
  6
HIDDEN
 62
     7
370
     0
100
AcDbSpline
210
0.0
220
0.0
230
1.0
 70
     8
 71
     3
 72
    10
 73
     6
 74
     0
 42
0.000000001
 43
0.00000001
 40
0.0
 40
0.0
 40
0.0
 40
0.0
 40
0.5
 40
0.5
 40
1.0
 40
1.0
 40
1.0
 40
1.0
 10
190.046543071316
 20
96.48415084589247
 30
0.0
 10
190.0053470093988
 20
96.51703909014232
 30
0.0
 10
189.959909545045
 20
96.54551461698959
 30
0.0
 10
189.8582366137545
 20
96.5869869369233
 30
0.0
 10
189.8030753257428
 20
96.59904063516379
 30
0.0
 10
189.7465430712834
 20
96.5990406351638
 30
0.0
  0
SPLINE
  5
117
330
1F
100
AcDbEntity
  8
0
  6
HIDDEN
 62
     7
370
     0
100
AcDbSpline
210
0.0
220
0.0
230
1.0
 70
     8
 71
     3
 72
    16
 73
    12
 74
     0
 42
0.000000001
 43
0.00000001
 40
0.0
 40
0.0
 40
0.0
 40
0.0
 40
0.2499999999999865
 40
0.2499999999999865
 40
0.3749999999999876
 40
0.3749999999999876
 40
0.4999999999999888
 40
0.4999999999999888
 40
0.7499999999999944
 40
0.7499999999999944
 40
1.0
 40
1.0
 40
1.0
 40
1.0
 10
190.0465430712975
 20
96.48415084590044
 30
0.0
 10
190.0997976979401
 20
96.4918623781701
 30
0.0
 10
190.1593345024791
 20
96.48862693691848
 30
0.0
 10
190.249429316447
 20
96.43572637694922
 30
0.0
 10
190.2790785730494
 20
96.40933254207752
 30
0.0
 10
190.3298623942616
 20
96.34408227407881
 30
0.0
 10
190.3508587285467
 20
96.30613046259379
 30
0.0
 10
190.4016646064944
 20
96.18813110241837
 30
0.0
 10
190.4196553435696
 20
96.10740340355346
 30
0.0
 10
190.4423204901421
 20
95.95233158775035
 30
0.0
 10
190.4465430712833
 20
95.8772390652771
 30
0.0
 10
190.4465430712833
 20
95.80359841908928
 30
0.0
  0
LINE
  5
118
330
1F
100
AcDbEntity
  8
0
  6
HIDDEN
 62
     7
370
     0
100
AcDbLine
 10
165.2465430713
 20
94.9123566331
 30
0.0
 11
165.2465430713
 21
113.9123566331
 31
0.0
  0
LINE
  5
119
330
1F
100
AcDbEntity
  8
0
  6
HIDDEN
 62
     7
370
     0
100
AcDbLine
 10
168.2465430713
 20
94.9123566331
 30
0.0
 11
168.2465430713
 21
113.9123566331
 31
0.0
  0
LINE
  5
11A
330
1F
100
AcDbEntity
  8
0
  6
HIDDEN
 62
     7
370
     0
100
AcDbLine
 10
173.3125684751
 20
104.4123566331
 30
0.0
 11
173.3125684751
 21
95.4123566331
 31
0.0
  0
LINE
  5
11B
330
1F
100
AcDbEntity
  8
0
  6
HIDDEN
 62
     7
370
     0
100
AcDbLine
 10
173.3125684751
 20
113.4123566331
 30
0.0
 11
173.3125684751
 21
104.4123566331
 31
0.0
  0
LINE
  5
11C
330
1F
100
AcDbEntity
  8
0
  6
HIDDEN
 62
     7
370
     0
100
AcDbLine
 10
181.5465430713
 20
112.2256726311
 30
0.0
 11
189.7465430713
 21
112.2256726311
 31
0.0
  0
LINE
  5
11D
330
1F
100
AcDbEntity
  8
0
  6
HIDDEN
 62
     7
370
     0
100
AcDbLine
 10
181.5465430713
 20
96.5990406352
 30
0.0
 11
189.7465430713
 21
96.5990406352
 31
0.0
  0
LINE
  5
11E
330
1F
100
AcDbEntity
  8
0
  6
HIDDEN
 62
     7
370
     0
100
AcDbLine
 10
156.8965430713
 20
95.9123566331
 30
0.0
 11
156.8965430713
 21
112.9123566331
 31
0.0
  0
LINE
  5
11F
330
1F
100
AcDbEntity
  8
0
  6
HIDDEN
 62
     7
370
     0
100
AcDbLine
 10
151.3965430713
 20
72.9282336503
 30
0.0
 11
151.3965430713
 21
78.0123566331
 31
0.0
  0
LINE
  5
120
330
1F
100
AcDbEntity
  8
0
  6
HIDDEN
 62
     7
370
     0
100
AcDbLine
 10
159.3965430713
 20
78.0123566331
 30
0.0
 11
151.3965430713
 21
78.0123566331
 31
0.0
  0
LINE
  5
121
330
1F
100
AcDbEntity
  8
0
  6
HIDDEN
 62
     7
370
     0
100
AcDbLine
 10
162.6342178736
 20
78.0123566331
 30
0.0
 11
159.3965430713
 21
78.0123566331
 31
0.0
  0
LINE
  5
122
330
1F
100
AcDbEntity
  8
0
  6
HIDDEN
 62
     7
370
     0
100
AcDbLine
 10
172.3965430713
 20
78.0123566331
 30
0.0
 11
166.258868269
 21
78.0123566331
 31
0.0
  0
LINE
  5
123
330
1F
100
AcDbEntity
  8
0
  6
HIDDEN
 62
     7
370
     0
100
AcDbLine
 10
162.930840603
 20
130.8123566331
 30
0.0
 11
159.3965430713
 21
130.8123566331
 31
0.0
  0
LINE
  5
124
330
1F
100
AcDbEntity
  8
0
  6
HIDDEN
 62
     7
370
     0
100
AcDbLine
 10
172.3965430713
 20
130.8123566331
 30
0.0
 11
165.9622455396
 21
130.8123566331
 31
0.0
  0
LINE
  5
125
330
1F
100
AcDbEntity
  8
0
  6
HIDDEN
 62
     7
370
     0
100
AcDbLine
 10
159.3965430713
 20
130.8123566331
 30
0.0
 11
151.3965430713
 21
130.8123566331
 31
0.0
  0
SPLINE
  5
126
330
1F
100
AcDbEntity
  8
0
  6
HIDDEN
 62
     7
370
     0
100
AcDbSpline
210
0.0
220
0.0
230
1.0
 70
     8
 71
     3
 72
    11
 73
     7
 74
     0
 42
0.000000001
 43
0.00000001
 40
0.0
 40
0.0
 40
0.0
 40
0.0
 40
0.0008203708524183
 40
0.0008203708524183
 40
0.0008203708524183
 40
0.0016409967870154
 40
0.0016409967870154
 40
0.0016409967870154
 40
0.0016409967870154
 10
115.6965430712833
 20
88.5603238825004
 30
0.0
 10
115.5053847709846
 20
88.51914485388127
 30
0.0
 10
115.3139577009124
 20
88.48039088165127
 30
0.0
 10
115.1223120773918
 20
88.44402312237273
 30
0.0
 10
114.9306066723113
 20
88.4076440186067
 30
0.0
 10
114.7386677202524
 20
88.37364976783914
 30
0.0
 10
114.5465430731815
 20
88.34200164244793
 30
0.0
  0
ELLIPSE
  5
127
330
1F
100
AcDbEntity
  8
0
  6
HIDDEN
 62
     7
370
     0
100
AcDbEllipse
 10
110.3041112027
 20
104.4123566331
 30
0.0
 11
20.19992453367506
 21
-1.421085471520200E-14
 31
0.0
210
0.0
220
0.0
230
1.0
 40
0.8164965809
 41
1.300566354717478
 42
1.359198697209065
  0
LINE
  5
128
330
1F
100
AcDbEntity
  8
0
  6
HIDDEN
 62
     7
370
     0
100
AcDbLine
 10
115.6965430713
 20
86.4223566331
 30
0.0
 11
115.6965430713
 21
88.5603238825
 31
0.0
  0
LINE
  5
129
330
1F
100
AcDbEntity
  8
0
  6
HIDDEN
 62
     7
370
     0
100
AcDbLine
 10
115.7775740846
 20
88.6108661971
 30
0.0
 11
115.6965430713
 21
88.5603238825
 31
0.0
  0
LINE
  5
12A
330
1F
100
AcDbEntity
  8
0
  6
HIDDEN
 62
     7
370
     0
100
AcDbLine
 10
124.6465430713
 20
86.4223566331
 30
0.0
 11
124.6465430713
 21
88.1248430107
 31
0.0
  0
LINE
  5
12B
330
1F
100
AcDbEntity
  8
0
  6
HIDDEN
 62
     7
370
     0
100
AcDbLine
 10
120.6465430713
 20
122.4023566331
 30
0.0
 11
120.6465430713
 21
120.6998702555
 31
0.0
  0
LINE
  5
12C
330
1F
100
AcDbEntity
  8
0
  6
HIDDEN
 62
     7
370
     0
100
AcDbLine
 10
115.6965430713
 20
122.4023566331
 30
0.0
 11
115.6965430713
 21
120.3069810842
 31
0.0
  0
SPLINE
  5
12D
330
1F
100
AcDbEntity
  8
0
  6
HIDDEN
 62
     7
370
     0
100
AcDbSpline
210
0.0
220
0.0
230
1.0
 70
     8
 71
     3
 72
     8
 73
     4
 74
     0
 42
0.000000001
 43
0.00000001
 40
0.0
 40
0.0
 40
0.0
 40
0.0
 40
1.0
 40
1.0
 40
1.0
 40
1.0
 10
115.6965430712833
 20
120.3069810842013
 30
0.0
 10
115.7465485702267
 20
120.2759453099823
 30
0.0
 10
115.7965486408908
 20
120.244900664955
 30
0.0
 10
115.8465430746757
 20
120.2138470691748
 30
0.0
  0
SPLINE
  5
12E
330
1F
100
AcDbEntity
  8
0
  6
HIDDEN
 62
     7
370
     0
100
AcDbSpline
210
0.0
220
0.0
230
1.0
 70
     8
 71
     3
 72
    14
 73
    10
 74
     0
 42
0.000000001
 43
0.00000001
 40
0.0
 40
0.0
 40
0.0
 40
0.0
 40
0.25
 40
0.25
 40
0.5
 40
0.5
 40
0.75
 40
0.75
 40
1.0
 40
1.0
 40
1.0
 40
1.0
 10
190.0465430712832
 20
116.2123566331431
 30
0.0
 10
190.0465430712832
 20
116.3966209338807
 30
0.0
 10
190.0466951407996
 20
116.5635817831634
 30
0.0
 10
190.0434666915282
 20
116.8639849128467
 30
0.0
 10
190.0406194910163
 20
116.9967213698774
 30
0.0
 10
190.0329695706582
 20
117.2128803018512
 30
0.0
 10
190.027842035937
 20
117.2993643346056
 30
0.0
 10
190.0178040152202
 20
117.4190206836138
 30
0.0
 10
190.0128674203052
 20
117.4531598546828
 30
0.0
 10
190.0092645160398
 20
117.4607605866044
 30
0.0
  0
SPLINE
  5
12F
330
1F
100
AcDbEntity
  8
0
  6
HIDDEN
 62
     7
370
     0
100
AcDbSpline
210
0.0
220
0.0
230
1.0
 70
     8
 71
     3
 72
    18
 73
    14
 74
     0
 42
0.000000001
 43
0.00000001
 40
0.0
 40
0.0
 40
0.0
 40
0.0
 40
0.0314591996687115
 40
0.112279268362115
 40
0.1948686527766749
 40
0.2780708594931927
 40
0.3580625259418859
 40
0.5207591050800459
 40
0.6036546992944871
 40
0.6837824569547325
 40
0.8467500582749476
 40
0.9297902526742924
 40
1.0
 40
1.0
 40
1.0
 40
1.0
 10
190.0074690089511
 20
117.4600436890818
 30
0.0
 10
190.0070635826015
 20
117.460164317922
 30
0.0
 10
190.0056165981142
 20
117.4605948475624
 30
0.0
 10
190.0044054723244
 20
117.443124506592
 30
0.0
 10
190.0039501194424
 20
117.40741389767
 30
0.0
 10
190.0053365198045
 20
117.3529991320314
 30
0.0
 10
190.0091008636641
 20
117.2587396971504
 30
0.0
 10
190.0159142392261
 20
117.1316145650738
 30
0.0
 10
190.0241828859155
 20
116.9744219662589
 30
0.0
 10
190.032959231346
 20
116.7982475285709
 30
0.0
 10
190.0412222838119
 20
116.5947798221338
 30
0.0
 10
190.0457908133598
 20
116.3768089381762
 30
0.0
 10
190.0463067081569
 20
116.2640266002524
 30
0.0
 10
190.04654305959
 20
116.2123566331431
 30
0.0
  0
LINE
  5
130
330
1F
100
AcDbEntity
  8
0
  6
HIDDEN
 62
     7
370
     0
100
AcDbLine
 10
190.0465430596
 20
116.2123566331
 30
0.0
 11
190.0465430713
 21
112.3405624203
 31
0.0
  0
LINE
  5
131
330
1F
100
AcDbEntity
  8
0
  6
HIDDEN
 62
     7
370
     0
100
AcDbLine
 10
190.046543076
 20
92.6123566331
 30
0.0
 11
190.0465430713
 21
96.4841508459
 31
0.0
  0
SPLINE
  5
132
330
1F
100
AcDbEntity
  8
0
  6
HIDDEN
 62
     7
370
     0
100
AcDbSpline
210
0.0
220
0.0
230
1.0
 70
     8
 71
     3
 72
    19
 73
    15
 74
     0
 42
0.000000001
 43
0.00000001
 40
0.0
 40
0.0
 40
0.0
 40
0.0
 40
0.0312820762817405
 40
0.1121113766980121
 40
0.1947101695679959
 40
0.2779218495662316
 40
0.3579229953486981
 40
0.5206389165018513
 40
0.6035443537201077
 40
0.6836816129603047
 40
0.846668457564137
 40
0.9297184423073489
 40
0.964835703256471
 40
1.0
 40
1.0
 40
1.0
 40
1.0
 10
190.0074642280345
 20
91.36467010954834
 30
0.0
 10
190.0070615026459
 20
91.36454970954775
 30
0.0
 10
190.0056181810029
 20
91.36411820974257
 30
0.0
 10
190.0044082610262
 20
91.38157263992943
 30
0.0
 10
190.0039500308006
 20
91.41726784603092
 30
0.0
 10
190.0053327530832
 20
91.47167209041169
 30
0.0
 10
190.009095340578
 20
91.56591578940146
 30
0.0
 10
190.0159187062423
 20
91.69303254310407
 30
0.0
 10
190.0241823021649
 20
91.85020127719159
 30
0.0
 10
190.032921308808
 20
92.02641229851874
 30
0.0
 10
190.0412936332106
 20
92.22957564049572
 30
0.0
 10
190.0452229364667
 20
92.42394371484785
 30
0.0
 10
190.0463277984722
 20
92.53429157307178
 30
0.0
 10
190.0464712848036
 20
92.58632333906695
 30
0.0
 10
190.0465430759832
 20
92.61235663314312
 30
0.0
  0
LINE
  5
133
330
1F
100
AcDbEntity
  8
0
  6
HIDDEN
 62
     7
370
     0
100
AcDbLine
 10
181.5465430713
 20
92.6123566331
 30
0.0
 11
181.5465430713
 21
96.5990406352
 31
0.0
  0
LINE
  5
134
330
1F
100
AcDbEntity
  8
0
  6
HIDDEN
 62
     7
370
     0
100
AcDbLine
 10
181.5465430713
 20
116.2123566331
 30
0.0
 11
181.5465430713
 21
112.2256726311
 31
0.0
  0
SPLINE
  5
135
330
1F
100
AcDbEntity
  8
0
  6
HIDDEN
 62
     7
370
     0
100
AcDbSpline
210
0.0
220
0.0
230
1.0
 70
     8
 71
     3
 72
    27
 73
    23
 74
     0
 42
0.000000001
 43
0.00000001
 40
0.0
 40
0.0
 40
0.0
 40
0.0
 40
0.0524587436496697
 40
0.1118258378004951
 40
0.1772244984590309
 40
0.2122573491764874
 40
0.2488256762609799
 40
0.3294255719657916
 40
0.398071451632816
 40
0.4372202670156252
 40
0.4710435057653276
 40
0.4995503291181109
 40
0.5540443077340089
 40
0.6137844963012286
 40
0.6788305408895821
 40
0.7134092756289079
 40
0.7493363660393688
 40
0.8293348837389146
 40
0.8976526415810729
 40
0.954275813136514
 40
0.9992017034942112
 40
1.0
 40
1.0
 40
1.0
 40
1.0
 10
141.1956118944579
 20
80.8123266783704
 30
0.0
 10
141.185979085137
 20
80.81543514560389
 30
0.0
 10
141.1654449110845
 20
80.82206143759021
 30
0.0
 10
140.9790583734456
 20
80.87183773087516
 30
0.0
 10
140.7041688959935
 20
80.9355462750472
 30
0.0
 10
140.3960269453932
 20
81.00143421692815
 30
0.0
 10
140.0029080207634
 20
81.08391706452615
 30
0.0
 10
139.4265445075339
 20
81.18627246561874
 30
0.0
 10
138.7533311101843
 20
81.27881498536604
 30
0.0
 10
138.2174755298159
 20
81.34039791452555
 30
0.0
 10
137.8237424570977
 20
81.37861139688982
 30
0.0
 10
137.3655658320166
 20
81.4124352378748
 30
0.0
 10
136.803156084561
 20
81.43201357711926
 30
0.0
 10
136.1178106225308
 20
81.43294220800783
 30
0.0
 10
135.55113824892
 20
81.41475468638214
 30
0.0
 10
135.1150489176613
 20
81.38990216846615
 30
0.0
 10
134.6716003773944
 20
81.35391889174592
 30
0.0
 10
134.2215047219636
 20
81.30843717972033
 30
0.0
 10
133.8796917004667
 20
81.26658467734437
 30
0.0
 10
133.7339248934052
 20
81.24296248434781
 30
0.0
 10
133.6845057538247
 20
81.23114154615482
 30
0.0
 10
133.6969882086449
 20
81.23383337112439
 30
0.0
 10
133.6972061392578
 20
81.2338803675745
 30
0.0
  0
SPLINE
  5
136
330
1F
100
AcDbEntity
  8
0
  6
HIDDEN
 62
     7
370
     0
100
AcDbSpline
210
0.0
220
0.0
230
1.0
 70
     8
 71
     3
 72
    27
 73
    23
 74
     0
 42
0.000000001
 43
0.00000001
 40
0.0
 40
0.0
 40
0.0
 40
0.0
 40
0.000841272363995
 40
0.0457241184226616
 40
0.1023062057407701
 40
0.1705848046871918
 40
0.2091767643440744
 40
0.2507043127478311
 40
0.3211506150757943
 40
0.3862448345752666
 40
0.4267242860343236
 40
0.4648558230766028
 40
0.5006604066407521
 40
0.545252503421619
 40
0.6017471806458087
 40
0.6701536651755677
 40
0.70889128390782
 40
0.7506203403391343
 40
0.8222854598896485
 40
0.8878253731570283
 40
0.9472995716207891
 40
1.0
 40
1.0
 40
1.0
 40
1.0
 10
133.6972380630743
 20
127.5907650676858
 30
0.0
 10
133.6970065823628
 20
127.5908149695149
 30
0.0
 10
133.6844253400432
 20
127.5935271911912
 30
0.0
 10
133.7334923625417
 20
127.5816972444044
 30
0.0
 10
133.8786095568132
 20
127.5582500978098
 30
0.0
 10
134.1516577882017
 20
127.524346862333
 30
0.0
 10
134.4801849032135
 20
127.4907779177088
 30
0.0
 10
134.8729124976593
 20
127.4525946185825
 30
0.0
 10
135.4226405454049
 20
127.4136259288993
 30
0.0
 10
136.0486631706017
 20
127.3941648289199
 30
0.0
 10
136.5918546839134
 20
127.3919791502173
 30
0.0
 10
137.036923579847
 20
127.4004940313976
 30
0.0
 10
137.5033713771089
 20
127.4202774282059
 30
0.0
 10
138.0406120261792
 20
127.4644398133829
 30
0.0
 10
138.6888254621138
 20
127.5368554344165
 30
0.0
 10
139.2743640747944
 20
127.6177575230688
 30
0.0
 10
139.7553337304564
 20
127.6959235220803
 30
0.0
 10
140.2007484498449
 20
127.7806956155147
 30
0.0
 10
140.6392493013081
 20
127.8744789479764
 30
0.0
 10
140.9782704444369
 20
127.9523816591094
 30
0.0
 10
141.165582333049
 20
128.0025653560307
 30
0.0
 10
141.186070571453
 20
128.0092308926787
 30
0.0
 10
141.1956960899059
 20
128.0123624086606
 30
0.0
  0
LINE
  5
137
330
1F
100
AcDbEntity
  8
0
  6
HIDDEN
 62
     7
370
     0
100
AcDbLine
 10
181.5465430713
 20
117.4623566331
 30
0.0
 11
181.5465430713
 21
116.2123566331
 31
0.0
  0
LINE
  5
138
330
1F
100
AcDbEntity
  8
0
  6
HIDDEN
 62
     7
370
     0
100
AcDbLine
 10
181.5465430713
 20
91.3623566331
 30
0.0
 11
181.5465430713
 21
92.6123566331
 31
0.0
  0
SPLINE
  5
139
330
1F
100
AcDbEntity
  8
0
  6
HIDDEN
 62
     7
370
     0
100
AcDbSpline
210
0.0
220
0.0
230
1.0
 70
     8
 71
     3
 72
     8
 73
     4
 74
     0
 42
0.000000001
 43
0.00000001
 40
0.0
 40
0.0
 40
0.0
 40
0.0
 40
0.0001590976953043
 40
0.0001590976953043
 40
0.0001590976953043
 40
0.0001590976953043
 10
115.8317110804673
 20
88.61086619711148
 30
0.0
 10
115.7866596099743
 20
88.58288731279399
 30
0.0
 10
115.7416035715708
 20
88.5549157824252
 30
0.0
 10
115.6965430712833
 20
88.52695144307896
 30
0.0
  0
SPLINE
  5
13A
330
1F
100
AcDbEntity
  8
0
  6
HIDDEN
 62
     7
370
     0
100
AcDbSpline
210
0.0
220
0.0
230
1.0
 70
     8
 71
     3
 72
    11
 73
     7
 74
     0
 42
0.000000001
 43
0.00000001
 40
0.0
 40
0.0
 40
0.0
 40
0.0
 40
0.000821290931147
 40
0.000821290931147
 40
0.000821290931147
 40
0.0016428257243086
 40
0.0016428257243086
 40
0.0016428257243086
 40
0.0016428257243086
 10
115.6965430712833
 20
88.52695144307896
 30
0.0
 10
115.5053980498011
 20
88.48366525422334
 30
0.0
 10
115.3139797141246
 20
88.44272874458298
 30
0.0
 10
115.1223336394635
 20
88.40412697319324
 30
0.0
 10
114.9306305579219
 20
88.36551371935302
 30
0.0
 10
114.7386854346364
 20
88.3292335100638
 30
0.0
 10
114.5465430712832
 20
88.29526660370907
 30
0.0
  0
LINE
  5
13B
330
1F
100
AcDbEntity
  8
0
  6
HIDDEN
 62
     7
370
     0
100
AcDbLine
 10
162.5365430713
 20
124.5482232646
 30
0.0
 11
162.5365430713
 21
124.2623566331
 31
0.0
  0
LINE
  5
13C
330
1F
100
AcDbEntity
  8
0
  6
HIDDEN
 62
     7
370
     0
100
AcDbLine
 10
166.3565430713
 20
124.5482232646
 30
0.0
 11
166.3565430713
 21
124.2623566331
 31
0.0
  0
LINE
  5
13D
330
1F
100
AcDbEntity
  8
0
  6
HIDDEN
 62
     7
370
     0
100
AcDbLine
 10
167.8384759028
 20
128.8710462955
 30
0.0
 11
167.8384759028
 21
124.2623566331
 31
0.0
  0
SPLINE
  5
13E
330
1F
100
AcDbEntity
  8
0
  6
HIDDEN
 62
     7
370
     0
100
AcDbSpline
210
0.0
220
0.0
230
1.0
 70
     8
 71
     3
 72
    11
 73
     7
 74
     0
 42
0.000000001
 43
0.00000001
 40
0.0000000000000004
 40
0.0000000000000004
 40
0.0000000000000004
 40
0.0000000000000004
 40
0.0005781862223981
 40
0.0005781862223981
 40
0.0005781862223981
 40
0.0011563724723932
 40
0.0011563724723932
 40
0.0011563724723932
 40
0.0011563724723932
 10
115.5465430712836
 20
117.0524989401959
 30
0.0
 10
115.3798825170079
 20
117.1170284516093
 30
0.0
 10
115.2132192201014
 20
117.181531155448
 30
0.0
 10
115.0465526362711
 20
117.2460176038815
 30
0.0
 10
114.879886044012
 20
117.3105040555762
 30
0.0
 10
114.713216178386
 20
117.3749740643041
 30
0.0
 10
114.5465430712832
 20
117.4394298310365
 30
0.0
  0
SPLINE
  5
13F
330
1F
100
AcDbEntity
  8
0
  6
HIDDEN
 62
     7
370
     0
100
AcDbSpline
210
0.0
220
0.0
230
1.0
 70
     8
 71
     3
 72
    11
 73
     7
 74
     0
 42
0.000000001
 43
0.00000001
 40
0.0000000000000001
 40
0.0000000000000001
 40
0.0000000000000001
 40
0.0000000000000001
 40
0.0005778746105124
 40
0.0005778746105124
 40
0.0005778746105124
 40
0.0011557494857259
 40
0.0011557494857259
 40
0.0011557494857259
 40
0.0011557494857259
 10
114.5465430712832
 20
91.38513477765325
 30
0.0
 10
114.7132099476965
 20
91.45094690433832
 30
0.0
 10
114.879876667258
 20
91.51680538446732
 30
0.0
 10
115.0465433153066
 20
91.58271295738952
 30
0.0
 10
115.2132100398253
 20
91.64862056055145
 30
0.0
 10
115.3798767342459
 20
91.71457766893174
 30
0.0
 10
115.5465430712833
 20
91.78057940884649
 30
0.0
  0
SPLINE
  5
140
330
1F
100
AcDbEntity
  8
0
  6
HIDDEN
 62
     7
370
     0
100
AcDbSpline
210
0.0
220
0.0
230
1.0
 70
     8
 71
     3
 72
    11
 73
     7
 74
     0
 42
0.000000001
 43
0.00000001
 40
0.0000000000000006
 40
0.0000000000000006
 40
0.0000000000000006
 40
0.0000000000000006
 40
0.0005780486062825
 40
0.0005780486062825
 40
0.0005780486062825
 40
0.0011560973514241
 40
0.0011560973514241
 40
0.0011560973514241
 40
0.0011560973514241
 10
114.5465430712832
 20
114.3931711348349
 30
0.0
 10
114.7132129273281
 20
114.3307992732879
 30
0.0
 10
114.8798806314124
 20
114.2684454129584
 30
0.0
 10
115.046546935866
 20
114.2061258527411
 30
0.0
 10
115.2132132765598
 20
114.1438062789729
 30
0.0
 10
115.3798782331886
 20
114.0815210746226
 30
0.0
 10
115.5465430712833
 20
114.0192959540237
 30
0.0
  0
SPLINE
  5
141
330
1F
100
AcDbEntity
  8
0
  6
HIDDEN
 62
     7
370
     0
100
AcDbSpline
210
0.0
220
0.0
230
1.0
 70
     8
 71
     3
 72
    11
 73
     7
 74
     0
 42
0.000000001
 43
0.00000001
 40
0.0
 40
0.0
 40
0.0
 40
0.0
 40
0.0005782401583596
 40
0.0005782401583596
 40
0.0005782401583596
 40
0.0011564805961119
 40
0.0011564805961119
 40
0.0011564805961119
 40
0.0011564805961119
 10
115.5465430712833
 20
94.81152984093039
 30
0.0
 10
115.3798921209343
 20
94.74810438284044
 30
0.0
 10
115.2132325283517
 20
94.68474885915528
 30
0.0
 10
115.0465654759231
 20
94.62145127477449
 30
0.0
 10
114.8798983393593
 20
94.55815365844043
 30
0.0
 10
114.7132237319132
 20
94.49491386346806
 30
0.0
 10
114.5465430712832
 20
94.4317138567966
 30
0.0
  0
CIRCLE
  5
142
330
1F
100
AcDbEntity
  8
0
  6
HIDDEN
 62
     7
370
     0
100
AcDbCircle
 10
153.4465430713
 20
104.4123566331
 30
0.0
 40
5.0
  0
ARC
  5
143
330
1F
100
AcDbEntity
  8
0
  6
HIDDEN
 62
     7
370
     0
100
AcDbCircle
 10
170.6965430713
 20
95.6623566331
 30
0.0
 40
0.75
100
AcDbArc
 50
180.0
 51
0.0
  0
ARC
  5
144
330
1F
100
AcDbEntity
  8
0
  6
HIDDEN
 62
     7
370
     0
100
AcDbCircle
 10
170.6965430713
 20
95.6623566331
 30
0.0
 40
0.75
100
AcDbArc
 50
0.0
 51
180.0
  0
ARC
  5
145
330
1F
100
AcDbEntity
  8
0
  6
HIDDEN
 62
     7
370
     0
100
AcDbCircle
 10
170.6965430713
 20
113.1623566331
 30
0.0
 40
0.75
100
AcDbArc
 50
0.0
 51
180.0
  0
ARC
  5
146
330
1F
100
AcDbEntity
  8
0
  6
HIDDEN
 62
     7
370
     0
100
AcDbCircle
 10
170.6965430713
 20
113.1623566331
 30
0.0
 40
0.75
100
AcDbArc
 50
180.0
 51
0.0
  0
LINE
  5
147
330
1F
100
AcDbEntity
  8
0
  6
HIDDEN
 62
     7
370
     0
100
AcDbLine
 10
171.4465430713
 20
95.6623566331
 30
0.0
 11
171.4465430713
 21
113.1623566331
 31
0.0
  0
LINE
  5
148
330
1F
100
AcDbEntity
  8
0
  6
HIDDEN
 62
     7
370
     0
100
AcDbLine
 10
169.9465430713
 20
113.1623566331
 30
0.0
 11
169.9465430713
 21
95.6623566331
 31
0.0
  0
LINE
  5
149
330
1F
100
AcDbEntity
  8
0
  6
HIDDEN
 62
     7
370
     0
100
AcDbLine
 10
146.4465430713
 20
79.0884254872
 30
0.0
 11
146.5407038468
 21
79.7584142184
 31
0.0
  0
LINE
  5
14A
330
1F
100
AcDbEntity
  8
0
  6
HIDDEN
 62
     7
370
     0
100
AcDbLine
 10
146.5407038468
 20
129.0662990479
 30
0.0
 11
146.4465430713
 21
129.7362877791
 31
0.0
  0
ARC
  5
14B
330
1F
100
AcDbEntity
  8
0
  6
HIDDEN
 62
     7
370
     0
100
AcDbCircle
 10
145.9465363186
 20
79.8419190188
 30
0.0
 40
0.6000067526677664
100
AcDbArc
 50
352.0
 51
0.0
  0
ARC
  5
14C
330
1F
100
AcDbEntity
  8
0
  6
HIDDEN
 62
     7
370
     0
100
AcDbCircle
 10
145.9465363186
 20
79.8419190188
 30
0.0
 40
0.6000067526677282
100
AcDbArc
 50
0.0
 51
33.5571153394
  0
ARC
  5
14D
330
1F
100
AcDbEntity
  8
0
  6
HIDDEN
 62
     7
370
     0
100
AcDbCircle
 10
145.9465363186
 20
128.9827942475
 30
0.0
 40
0.6000067526677645
100
AcDbArc
 50
348.75
 51
8.0
  0
LWPOLYLINE
  5
14E
330
1F
100
AcDbEntity
  8
0
  6
HIDDEN
 62
     7
370
     0
100
AcDbPolyline
 90
        3
 70
   128
 43
0.0
 10
146.5350141098
 20
128.8657387369
 10
146.5008702768
 20
128.753181604
 10
146.4465430713
 20
128.6511297325
  0
LINE
  5
14F
330
1F
100
AcDbEntity
  8
0
  6
HIDDEN
 62
     7
370
     0
100
AcDbLine
 10
146.5465430713
 20
79.8419190188
 30
0.0
 11
146.5465430713
 21
128.9827942475
 31
0.0
  0
LINE
  5
150
330
1F
100
AcDbEntity
  8
0
  6
HIDDEN
 62
     7
370
     0
100
AcDbLine
 10
129.5289786366
 20
84.4123566331
 30
0.0
 11
133.6996604525
 21
84.4123566331
 31
0.0
  0
LINE
  5
151
330
1F
100
AcDbEntity
  8
0
  6
HIDDEN
 62
     7
370
     0
100
AcDbLine
 10
133.7065152129
 20
124.4123566331
 30
0.0
 11
129.5289786366
 21
124.4123566331
 31
0.0
  0
ARC
  5
152
330
1F
100
AcDbEntity
  8
0
  6
HIDDEN
 62
     7
370
     0
100
AcDbCircle
 10
140.2015450729
 20
92.4123566331
 30
0.0
 40
8.000000000000007
100
AcDbArc
 50
277.0526284347
 51
321.3178125465
  0
ARC
  5
153
330
1F
100
AcDbEntity
  8
0
  6
HIDDEN
 62
     7
370
     0
100
AcDbCircle
 10
140.2015450729
 20
116.4123566331
 30
0.0
 40
8.000000000000007
100
AcDbArc
 50
38.6821874535
 51
83.1151785578
  0
ARC
  5
154
330
1F
100
AcDbEntity
  8
0
  6
HIDDEN
 62
     7
370
     0
100
AcDbCircle
 10
129.5289786366
 20
85.0123566331
 30
0.0
 40
0.6000000000000013
100
AcDbArc
 50
210.0
 51
270.0
  0
ARC
  5
155
330
1F
100
AcDbEntity
  8
0
  6
HIDDEN
 62
     7
370
     0
100
AcDbCircle
 10
129.5289786366
 20
123.8123566331
 30
0.0
 40
0.6000000000000013
100
AcDbArc
 50
90.0
 51
150.0
  0
LINE
  5
156
330
1F
100
AcDbEntity
  8
0
  6
HIDDEN
 62
     7
370
     0
100
AcDbLine
 10
129.0093633943
 20
124.1123566331
 30
0.0
 11
127.4505176675
 21
121.4123566331
 31
0.0
  0
LINE
  5
157
330
1F
100
AcDbEntity
  8
0
  6
HIDDEN
 62
     7
370
     0
100
AcDbLine
 10
127.4505176675
 20
87.4123566331
 30
0.0
 11
129.0093633943
 21
84.7123566331
 31
0.0
  0
ARC
  5
158
330
1F
100
AcDbEntity
  8
0
  6
HIDDEN
 62
     7
370
     0
100
AcDbCircle
 10
154.8965430713
 20
88.6873566331
 30
0.0
 40
1.5
100
AcDbArc
 50
238.2116693829
 51
0.0
  0
ARC
  5
159
330
1F
100
AcDbEntity
  8
0
  6
HIDDEN
 62
     7
370
     0
100
AcDbCircle
 10
154.8965430713
 20
120.1373566331
 30
0.0
 40
1.5
100
AcDbArc
 50
0.0
 51
121.7883306171
  0
LINE
  5
15A
330
1F
100
AcDbEntity
  8
0
  6
HIDDEN
 62
     7
370
     0
100
AcDbLine
 10
146.4465430713
 20
87.4123566331
 30
0.0
 11
154.1063690398
 21
87.4123566331
 31
0.0
  0
LINE
  5
15B
330
1F
100
AcDbEntity
  8
0
  6
HIDDEN
 62
     7
370
     0
100
AcDbLine
 10
154.1063690398
 20
121.4123566331
 30
0.0
 11
146.4465430713
 21
121.4123566331
 31
0.0
  0
LINE
  5
15C
330
1F
100
AcDbEntity
  8
0
  6
HIDDEN
 62
     7
370
     0
100
AcDbLine
 10
124.6465430713
 20
87.4123566331
 30
0.0
 11
127.4505176675
 21
87.4123566331
 31
0.0
  0
LINE
  5
15D
330
1F
100
AcDbEntity
  8
0
  6
HIDDEN
 62
     7
370
     0
100
AcDbLine
 10
127.4505176675
 20
121.4123566331
 30
0.0
 11
120.6465430713
 21
121.4123566331
 31
0.0
  0
ARC
  5
15E
330
1F
100
AcDbEntity
  8
0
  6
HIDDEN
 62
     7
370
     0
100
AcDbCircle
 10
170.7465430713
 20
113.1123566331
 30
0.0
 40
0.8000000000000114
100
AcDbArc
 50
90.0
 51
180.0
  0
ARC
  5
15F
330
1F
100
AcDbEntity
  8
0
  6
HIDDEN
 62
     7
370
     0
100
AcDbCircle
 10
170.7465430713
 20
95.7123566331
 30
0.0
 40
0.8000000000000114
100
AcDbArc
 50
180.0
 51
270.0
  0
LINE
  5
160
330
1F
100
AcDbEntity
  8
0
  6
HIDDEN
 62
     7
370
     0
100
AcDbLine
 10
171.3412210732
 20
113.9123566331
 30
0.0
 11
170.7465430713
 21
113.9123566331
 31
0.0
  0
LINE
  5
161
330
1F
100
AcDbEntity
  8
0
  6
HIDDEN
 62
     7
370
     0
100
AcDbLine
 10
170.7465430713
 20
94.9123566331
 30
0.0
 11
171.3412210732
 21
94.9123566331
 31
0.0
  0
ARC
  5
162
330
1F
100
AcDbEntity
  8
0
  6
HIDDEN
 62
     7
370
     0
100
AcDbCircle
 10
171.3412210732
 20
113.1123566331
 30
0.0
 40
0.7999999999999845
100
AcDbArc
 50
75.0
 51
90.0
  0
ARC
  5
163
330
1F
100
AcDbEntity
  8
0
  6
HIDDEN
 62
     7
370
     0
100
AcDbCircle
 10
171.3412210732
 20
95.7123566331
 30
0.0
 40
0.7999999999999845
100
AcDbArc
 50
270.0
 51
285.0
  0
LINE
  5
164
330
1F
100
AcDbEntity
  8
0
  6
HIDDEN
 62
     7
370
     0
100
AcDbLine
 10
165.2465430713
 20
94.9123566331
 30
0.0
 11
168.2465430713
 21
94.9123566331
 31
0.0
  0
LINE
  5
165
330
1F
100
AcDbEntity
  8
0
  6
HIDDEN
 62
     7
370
     0
100
AcDbLine
 10
168.2465430713
 20
113.9123566331
 30
0.0
 11
165.2465430713
 21
113.9123566331
 31
0.0
  0
LINE
  5
166
330
1F
100
AcDbEntity
  8
0
  6
HIDDEN
 62
     7
370
     0
100
AcDbLine
 10
171.5482763093
 20
94.9396159721
 30
0.0
 11
173.3125684751
 21
95.4123566331
 31
0.0
  0
LINE
  5
167
330
1F
100
AcDbEntity
  8
0
  6
HIDDEN
 62
     7
370
     0
100
AcDbLine
 10
173.3125684751
 20
113.4123566331
 30
0.0
 11
171.5482763093
 21
113.8850972942
 31
0.0
  0
LINE
  5
168
330
1F
100
AcDbEntity
  8
0
  6
HIDDEN
 62
     7
370
     0
100
AcDbLine
 10
181.5465430713
 20
113.4123566331
 30
0.0
 11
173.3125684751
 21
113.4123566331
 31
0.0
  0
LINE
  5
169
330
1F
100
AcDbEntity
  8
0
  6
HIDDEN
 62
     7
370
     0
100
AcDbLine
 10
173.3125684751
 20
95.4123566331
 30
0.0
 11
181.5465430713
 21
95.4123566331
 31
0.0
  0
LINE
  5
16A
330
1F
100
AcDbEntity
  8
0
  6
HIDDEN
 62
     7
370
     0
100
AcDbLine
 10
156.3965430713
 20
95.4123566331
 30
0.0
 11
156.8965430713
 21
95.9123566331
 31
0.0
  0
LINE
  5
16B
330
1F
100
AcDbEntity
  8
0
  6
HIDDEN
 62
     7
370
     0
100
AcDbLine
 10
156.8965430713
 20
112.9123566331
 30
0.0
 11
156.3965430713
 21
113.4123566331
 31
0.0
  0
LINE
  5
16C
330
1F
100
AcDbEntity
  8
0
  6
HIDDEN
 62
     7
370
     0
100
AcDbLine
 10
156.8965430713
 20
95.9123566331
 30
0.0
 11
165.2465430713
 21
95.9123566331
 31
0.0
  0
LINE
  5
16D
330
1F
100
AcDbEntity
  8
0
  6
HIDDEN
 62
     7
370
     0
100
AcDbLine
 10
165.2465430713
 20
112.9123566331
 30
0.0
 11
156.8965430713
 21
112.9123566331
 31
0.0
  0
LINE
  5
16E
330
1F
100
AcDbEntity
  8
0
  6
HIDDEN
 62
     7
370
     0
100
AcDbLine
 10
151.3965430713
 20
135.9123566331
 30
0.0
 11
151.3965430713
 21
130.8123566331
 31
0.0
  0
LINE
  5
16F
330
1F
100
AcDbEntity
  8
0
  6
HIDDEN
 62
     7
370
     0
100
AcDbLine
 10
190.4465430713
 20
117.9013056799
 30
0.0
 11
190.000120293
 21
117.4548831478
 31
0.0
  0
LINE
  5
170
330
1F
100
AcDbEntity
  8
0
  6
HIDDEN
 62
     7
370
     0
100
AcDbLine
 10
190.0001200197
 20
91.3698308583
 30
0.0
 11
190.4465430713
 21
90.9234080892
 31
0.0
  0
LINE
  5
171
330
1F
100
AcDbEntity
  8
0
  6
HIDDEN
 62
     7
370
     0
100
AcDbLine
 10
141.6309809018
 20
80.3329852996
 30
0.0
 11
141.1965487523
 21
80.8120513187
 31
0.0
  0
LINE
  5
172
330
1F
100
AcDbEntity
  8
0
  6
HIDDEN
 62
     7
370
     0
100
AcDbLine
 10
133.6965454272
 20
81.2337392778
 30
0.0
 11
133.2141116839
 21
80.7546733024
 31
0.0
  0
LINE
  5
173
330
1F
100
AcDbEntity
  8
0
  6
HIDDEN
 62
     7
370
     0
100
AcDbLine
 10
133.2139897556
 20
128.0700346735
 30
0.0
 11
133.6965405066
 21
127.5909144156
 31
0.0
  0
LINE
  5
174
330
1F
100
AcDbEntity
  8
0
  6
HIDDEN
 62
     7
370
     0
100
AcDbLine
 10
141.1965429533
 20
128.0126121932
 30
0.0
 11
141.6310853436
 21
128.4917324438
 31
0.0
  0
LINE
  5
175
330
1F
100
AcDbEntity
  8
0
  6
HIDDEN
 62
     7
370
     0
100
AcDbLine
 10
141.1965430713
 20
124.3477569714
 30
0.0
 11
141.1965430713
 21
128.0123208872
 31
0.0
  0
LINE
  5
176
330
1F
100
AcDbEntity
  8
0
  6
HIDDEN
 62
     7
370
     0
100
AcDbLine
 10
133.6965430713
 20
127.5907706364
 30
0.0
 11
133.6965430713
 21
124.4104943876
 31
0.0
  0
LINE
  5
177
330
1F
100
AcDbEntity
  8
0
  6
HIDDEN
 62
     7
370
     0
100
AcDbLine
 10
141.1965430713
 20
80.8123062848
 30
0.0
 11
141.1965430713
 21
84.4752838071
 31
0.0
  0
LINE
  5
178
330
1F
100
AcDbEntity
  8
0
  6
HIDDEN
 62
     7
370
     0
100
AcDbLine
 10
133.6965430713
 20
84.4129408944
 30
0.0
 11
133.6965430713
 21
81.2339207028
 31
0.0
  0
LINE
  5
179
330
1F
100
AcDbEntity
  8
0
  6
HIDDEN
 62
     7
370
     0
100
AcDbLine
 10
168.2465430713
 20
101.0123566331
 30
0.0
 11
169.9465430713
 21
101.0123566331
 31
0.0
  0
LINE
  5
17A
330
1F
100
AcDbEntity
  8
0
  6
HIDDEN
 62
     7
370
     0
100
AcDbLine
 10
169.9465430713
 20
107.8123566331
 30
0.0
 11
168.2465430713
 21
107.8123566331
 31
0.0
  0
LINE
  5
17B
330
1F
100
AcDbEntity
  8
0
  6
HIDDEN
 62
     7
370
     0
100
AcDbLine
 10
190.0079910039
 20
117.4623566331
 30
0.0
 11
181.5465430713
 21
117.4623566331
 31
0.0
  0
LINE
  5
17C
330
1F
100
AcDbEntity
  8
0
  6
HIDDEN
 62
     7
370
     0
100
AcDbLine
 10
181.5465430713
 20
91.3623566331
 30
0.0
 11
190.0079904658
 21
91.3623566331
 31
0.0
  0
DIMENSION
  5
17D
330
1F
100
AcDbEntity
  8
VERMASSUNG
100
AcDbDimension
  2
_D
 10
109.5167345281
 20
72.9123566331
 30
0.0
 11
109.5167345281
 21
104.4123566331
 31
0.0
 70
   160
  1
HSK A 63 %%c<>
 71
     2
 42
-1.0
  3
SLDDIMSTYLE0
100
AcDbAlignedDimension
 13
146.7465430713
 23
135.9123566331
 33
0.0
 14
146.7465430713
 24
72.9123566331
 34
0.0
 50
90.0
100
AcDbRotatedDimension
  0
DIMENSION
  5
18B
330
1F
100
AcDbEntity
  8
VERMASSUNG
100
AcDbDimension
  2
_D_1
 10
196.9877505916
 20
95.4123566331
 30
0.0
 11
196.9877505916
 21
104.4123566331
 31
0.0
 70
   160
  1
%%c<>
 71
     2
 42
-1.0
  3
SLDDIMSTYLE0
100
AcDbAlignedDimension
 13
181.5465430713
 23
113.4123566331
 33
0.0
 14
181.5465430713
 24
95.4123566331
 34
0.0
 50
90.0
100
AcDbRotatedDimension
  0
DIMENSION
  5
196
330
1F
100
AcDbEntity
  8
VERMASSUNG
100
AcDbDimension
  2
_D_2
 10
203.0877505916
 20
88.4123566331
 30
0.0
 11
203.0877505916
 21
104.4123566331
 31
0.0
 70
   160
  1
ST3 %%c<>
 71
     2
 42
-1.0
  3
SLDDIMSTYLE0
100
AcDbAlignedDimension
 13
190.1465430713
 23
120.4123566331
 33
0.0
 14
190.1465430713
 24
88.4123566331
 34
0.0
 50
90.0
100
AcDbRotatedDimension
  0
DIMENSION
  5
1A2
330
1F
100
AcDbEntity
  8
VERMASSUNG
100
AcDbDimension
  2
_D_3
 10
190.4465430713
 20
138.8786229518
 30
0.0
 11
181.4215430713
 21
138.8786229518
 31
0.0
 70
   160
  1
(<>)
 71
     2
 42
-1.0
  3
SLDDIMSTYLE0
100
AcDbAlignedDimension
 13
172.3965430713
 23
134.2587969569
 33
0.0
 14
190.4465430713
 24
120.1123566331
 34
0.0
100
AcDbRotatedDimension
  0
DIMENSION
  5
1AE
330
1F
100
AcDbEntity
  8
VERMASSUNG
100
AcDbDimension
  2
_D_4
 10
190.4465430713
 20
144.8786229518
 30
0.0
 11
168.4465430713
 21
144.8786229518
 31
0.0
 70
   160
  1
<>
 71
     2
 42
-1.0
  3
SLDDIMSTYLE0
100
AcDbAlignedDimension
 13
146.4465430713
 23
135.6123566331
 33
0.0
 14
190.4465430713
 24
120.1123566331
 34
0.0
100
AcDbRotatedDimension
  0
DIMENSION
  5
1B8
330
1F
100
AcDbEntity
  8
VERMASSUNG
100
AcDbDimension
  2
_D_5
 10
190.4465430713
 20
150.8786229518
 30
0.0
 11
152.4965430713
 21
150.8786229518
 31
0.0
 70
   160
  1
(<>)
 71
     2
 42
-1.0
  3
SLDDIMSTYLE0
100
AcDbAlignedDimension
 13
114.5465430713
 23
124.1030343796
 33
0.0
 14
190.4465430713
 24
120.1123566331
 34
0.0
100
AcDbRotatedDimension
  0
LINE
  5
1C4
330
1F
100
AcDbEntity
  8
VERMASSUNG
  6
CENTERX2
370
     0
100
AcDbLine
 10
112.9148554088
 20
104.4123566331
 30
0.0
 11
191.4845926375
 21
104.4123566331
 31
0.0
  0
LINE
  5
1C5
330
1F
100
AcDbEntity
  8
0
  6
Continuous
 62
     7
370
    15
100
AcDbLine
 10
252.3674459702
 20
47.5157541063
 30
0.0
 11
252.2260016346
 21
47.5974347254
 31
0.0
  0
LINE
  5
1C6
330
1F
100
AcDbEntity
  8
0
  6
Continuous
 62
     7
370
    15
100
AcDbLine
 10
250.387225272
 20
47.5974347254
 30
0.0
 11
250.2457809364
 21
47.5157541063
 31
0.0
  0
LINE
  5
1C7
330
1F
100
AcDbEntity
  8
0
  6
Continuous
 62
     7
370
    15
100
AcDbLine
 10
252.8066134533
 20
46.7606528892
 30
0.0
 11
252.8066134533
 21
46.9035475313
 31
0.0
  0
LINE
  5
1C8
330
1F
100
AcDbEntity
  8
0
  6
Continuous
 62
     7
370
    15
100
AcDbLine
 10
249.8066134533
 20
46.9035475313
 30
0.0
 11
249.8066134533
 21
46.7606528892
 31
0.0
  0
LINE
  5
1C9
330
1F
100
AcDbEntity
  8
0
  6
Continuous
 62
     7
370
    15
100
AcDbLine
 10
230.8280750591
 20
34.1704969127
 30
0.0
 11
235.8867407194
 21
31.2501913875
 31
0.0
  0
LINE
  5
1CA
330
1F
100
AcDbEntity
  8
0
  6
Continuous
 62
     7
370
    15
100
AcDbLine
 10
248.7599716655
 20
60.1907150721
 30
0.0
 11
246.5767950982
 21
61.4510360777
 31
0.0
  0
LINE
  5
1CB
330
1F
100
AcDbEntity
  8
0
  6
Continuous
 62
     7
370
    15
100
AcDbLine
 10
254.0475716283
 20
32.4209428303
 30
0.0
 11
254.1536204068
 21
32.4821833903
 31
0.0
  0
LINE
  5
1CC
330
1F
100
AcDbEntity
  8
0
  6
Continuous
 62
     7
370
    15
100
AcDbLine
 10
259.7035064799
 20
42.0959097125
 30
0.0
 11
259.7035064799
 21
42.2183709292
 31
0.0
  0
LINE
  5
1CD
330
1F
100
AcDbEntity
  8
0
  6
Continuous
 62
     7
370
    15
100
AcDbLine
 10
258.0463271609
 20
45.881129381
 30
0.0
 11
253.1849680403
 21
48.6875322654
 31
0.0
  0
LINE
  5
1CE
330
1F
100
AcDbEntity
  8
0
  6
Continuous
 62
     7
370
    15
100
AcDbLine
 10
245.1856181792
 20
34.8307504673
 30
0.0
 11
250.0469772999
 21
32.0243475829
 31
0.0
  0
SPLINE
  5
1CF
330
1F
100
AcDbEntity
  8
0
  6
Continuous
 62
     7
370
    15
100
AcDbSpline
210
0.0
220
0.0
230
1.0
 70
     8
 71
     3
 72
    15
 73
    11
 74
     0
 42
0.000000001
 43
0.00000001
 40
0.0
 40
0.0
 40
0.0
 40
0.0
 40
0.0084212988274791
 40
0.1684588259823662
 40
0.3285200570464574
 40
0.4886092090555503
 40
0.6487297999163417
 40
0.8088841071329173
 40
0.9606478298090012
 40
1.0
 40
1.0
 40
1.0
 40
1.0
 10
228.673363711069
 20
47.79593473717651
 30
0.0
 10
228.6665842212463
 20
47.7774724390077
 30
0.0
 10
228.5309679796541
 20
47.40815445870929
 30
0.0
 10
228.3160051264911
 20
46.68722443690326
 30
0.0
 10
228.0349948009629
 20
45.64015022060678
 30
0.0
 10
227.8171191897785
 20
44.60438391099115
 30
0.0
 10
227.6558227669681
 20
43.58553952332874
 30
0.0
 10
227.5564673834379
 20
42.60681052416695
 30
0.0
 10
227.523795157702
 20
41.89753007318174
 30
0.0
 10
227.5219493562592
 20
41.52043075128157
 30
0.0
 10
227.521569292145
 20
41.44278322301113
 30
0.0
  0
SPLINE
  5
1D0
330
1F
100
AcDbEntity
  8
0
  6
Continuous
 62
     7
370
    15
100
AcDbSpline
210
0.0
220
0.0
230
1.0
 70
     8
 71
     3
 72
    15
 73
    11
 74
     0
 42
0.000000001
 43
0.00000001
 40
0.0
 40
0.0
 40
0.0
 40
0.0
 40
0.100675601595924
 40
0.2443121515090572
 40
0.3879834876292789
 40
0.5316607144595267
 40
0.6753259377695287
 40
0.8189715845336062
 40
0.962594525851679
 40
1.0
 40
1.0
 40
1.0
 40
1.0
 10
240.6844884360965
 20
61.63790108921471
 30
0.0
 10
240.4958856089175
 20
61.56946929764397
 30
0.0
 10
240.0381981279552
 20
61.40340405477242
 30
0.0
 10
239.3021901974483
 20
61.05464645593356
 30
0.0
 10
238.4830839107318
 20
60.60636156596144
 30
0.0
 10
237.6651406536283
 20
60.08636979755845
 30
0.0
 10
236.8526583336484
 20
59.50243440706732
 30
0.0
 10
236.0518514709199
 20
58.85145284444166
 30
0.0
 10
235.4547896996874
 20
58.32837221329603
 30
0.0
 10
235.1326083735419
 20
58.00639091529873
 30
0.0
 10
235.0660368066684
 20
57.9398606797694
 30
0.0
  0
SPLINE
  5
1D1
330
1F
100
AcDbEntity
  8
0
  6
Continuous
 62
     7
370
    15
100
AcDbSpline
210
0.0
220
0.0
230
1.0
 70
     8
 71
     3
 72
    11
 73
     7
 74
     0
 42
0.000000001
 43
0.00000001
 40
0.0
 40
0.0
 40
0.0
 40
0.0
 40
0.2004192397426437
 40
0.5811879044395467
 40
0.9620543349287431
 40
1.0
 40
1.0
 40
1.0
 40
1.0
 10
227.521569292145
 20
41.44278322301113
 30
0.0
 10
227.5231277412189
 20
41.27770131974435
 30
0.0
 10
227.5276470266556
 20
40.79898677345766
 30
0.0
 10
227.5861387036172
 20
40.03795176411545
 30
0.0
 10
227.6581037602787
 20
39.42002762872589
 30
0.0
 10
227.7254641204941
 20
39.11970851142141
 30
0.0
 10
227.7315671764824
 20
39.09249867493262
 30
0.0
  0
SPLINE
  5
1D2
330
1F
100
AcDbEntity
  8
0
  6
Continuous
 62
     7
370
    15
100
AcDbSpline
210
0.0
220
0.0
230
1.0
 70
     8
 71
     3
 72
    22
 73
    18
 74
     0
 42
0.000000001
 43
0.00000001
 40
0.0
 40
0.0
 40
0.0
 40
0.0
 40
0.0066839231110635
 40
0.079911054271215
 40
0.1532355425068395
 40
0.2265836046836422
 40
0.2998865768158683
 40
0.3730794113512469
 40
0.4461053977134845
 40
0.5189142713364481
 40
0.5914760012581515
 40
0.6638114556676431
 40
0.7360512549763251
 40
0.8084088192213664
 40
0.881468741584915
 40
0.9562348421055153
 40
1.0
 40
1.0
 40
1.0
 40
1.0
 10
251.2614589585888
 20
39.17055175905736
 30
0.0
 10
251.2677635879553
 20
39.18761487660824
 30
0.0
 10
251.343139915764
 20
39.39161658189229
 30
0.0
 10
251.5209524035623
 20
39.78105028073281
 30
0.0
 10
251.8119869870277
 20
40.32534508314045
 30
0.0
 10
252.1462239886881
 20
40.84491094186088
 30
0.0
 10
252.5136717476055
 20
41.32962725800953
 30
0.0
 10
252.9078006294026
 20
41.77014251853595
 30
0.0
 10
253.3202268863506
 20
42.15814227039159
 30
0.0
 10
253.7423212520002
 20
42.48656201060798
 30
0.0
 10
254.1649864010754
 20
42.74981161373226
 30
0.0
 10
254.5791311646033
 20
42.94417123403282
 30
0.0
 10
254.9756619262319
 20
43.06752545414462
 30
0.0
 10
255.3473495205436
 20
43.1211865930391
 30
0.0
 10
255.6866560102299
 20
43.10336043679101
 30
0.0
 10
255.9532813231944
 20
43.04100670328886
 30
0.0
 10
256.0915693403437
 20
42.95809562148813
 30
0.0
 10
256.1426292631555
 20
42.92748245973881
 30
0.0
  0
SPLINE
  5
1D3
330
1F
100
AcDbEntity
  8
0
  6
Continuous
 62
     7
370
    15
100
AcDbSpline
210
0.0
220
0.0
230
1.0
 70
     8
 71
     3
 72
    10
 73
     6
 74
     0
 42
0.000000001
 43
0.00000001
 40
0.0
 40
0.0
 40
0.0
 40
0.0
 40
0.2212381554980614
 40
0.7452661298767042
 40
1.0
 40
1.0
 40
1.0
 40
1.0
 10
251.667839046119
 20
35.1412690675988
 30
0.0
 10
251.6268318032136
 20
35.16214021888022
 30
0.0
 10
251.4886941969393
 20
35.23244708844602
 30
0.0
 10
251.3337689674262
 20
35.38128558317784
 30
0.0
 10
251.2328782658186
 20
35.5327645626861
 30
0.0
 10
251.19987680451
 20
35.58231350626223
 30
0.0
  0
SPLINE
  5
1D4
330
1F
100
AcDbEntity
  8
0
  6
Continuous
 62
     7
370
    15
100
AcDbSpline
210
0.0
220
0.0
230
1.0
 70
     8
 71
     3
 72
    19
 73
    15
 74
     0
 42
0.000000001
 43
0.00000001
 40
0.0
 40
0.0
 40
0.0
 40
0.0
 40
0.0224206868378565
 40
0.1125222412067035
 40
0.20295392803635
 40
0.2936982367633826
 40
0.384700521496611
 40
0.4758915108165112
 40
0.5672044637522509
 40
0.6585844137213358
 40
0.7499908791626112
 40
0.8413906634500716
 40
0.9327698160570314
 40
1.0
 40
1.0
 40
1.0
 40
1.0
 10
241.8024039822348
 20
28.35756344702284
 30
0.0
 10
241.8602194083886
 20
28.34763129838161
 30
0.0
 10
242.1503765018889
 20
28.29778502769459
 30
0.0
 10
242.7022242326505
 20
28.28488284331043
 30
0.0
 10
243.454769807991
 20
28.32198319952097
 30
0.0
 10
244.2320877027717
 20
28.44289126702778
 30
0.0
 10
245.0269151814849
 20
28.63919514172068
 30
0.0
 10
245.8356051289659
 20
28.91204566591323
 30
0.0
 10
246.6533942022889
 20
29.25928882818675
 30
0.0
 10
247.4757282353982
 20
29.67925120302833
 30
0.0
 10
248.298236805162
 20
30.16876685440079
 30
0.0
 10
249.1157944032189
 20
30.72756751766103
 30
0.0
 10
249.8552116702011
 20
31.28886420530022
 30
0.0
 10
250.3141506125959
 20
31.68953375711391
 30
0.0
 10
250.5086823481604
 20
31.85936668280869
 30
0.0
  0
LINE
  5
1D5
330
1F
100
AcDbEntity
  8
0
  6
Continuous
 62
     7
370
    15
100
AcDbLine
 10
238.2851994259
 20
29.8655906483
 30
0.0
 11
239.6845874935
 21
29.0577411124
 31
0.0
  0
LINE
  5
1D6
330
1F
100
AcDbEntity
  8
0
  6
Continuous
 62
     7
370
    15
100
AcDbLine
 10
239.3486337364
 20
61.0662004578
 30
0.0
 11
233.2101188515
 21
64.1245778784
 31
0.0
  0
LINE
  5
1D7
330
1F
100
AcDbEntity
  8
0
  6
Continuous
 62
     7
370
    15
100
AcDbLine
 10
221.8284210383
 20
44.40876274
 30
0.0
 11
227.5524403849
 21
40.6185548682
 31
0.0
  0
SPLINE
  5
1D8
330
1F
100
AcDbEntity
  8
0
  6
Continuous
 62
     7
370
    15
100
AcDbSpline
210
0.0
220
0.0
230
1.0
 70
     8
 71
     3
 72
    10
 73
     6
 74
     0
 42
0.000000001
 43
0.00000001
 40
0.0
 40
0.0
 40
0.0
 40
0.0
 40
0.0341400840390891
 40
0.7611786101596506
 40
1.0
 40
1.0
 40
1.0
 40
1.0
 10
256.910923205722
 20
55.09591700224608
 30
0.0
 10
256.9041448546923
 20
55.104830913147
 30
0.0
 10
256.7530164681862
 20
55.30357319810711
 30
0.0
 10
256.5232692845375
 20
55.52660262564601
 30
0.0
 10
256.289803342663
 20
55.7234067005492
 30
0.0
 10
256.2320758608642
 20
55.77206906029509
 30
0.0
  0
SPLINE
  5
1D9
330
1F
100
AcDbEntity
  8
0
  6
Continuous
 62
     7
370
    15
100
AcDbSpline
210
0.0
220
0.0
230
1.0
 70
     8
 71
     3
 72
    12
 73
     8
 74
     0
 42
0.000000001
 43
0.00000001
 40
0.0
 40
0.0
 40
0.0
 40
0.0
 40
0.1183135826729468
 40
0.3420299097466238
 40
0.5654636135077667
 40
0.7883062354812798
 40
1.0
 40
1.0
 40
1.0
 40
1.0
 10
258.4233047957409
 20
52.04894552825277
 30
0.0
 10
258.3849165387505
 20
52.18954881126677
 30
0.0
 10
258.2739408436773
 20
52.59601548324892
 30
0.0
 10
258.0452462407104
 20
53.22938826232091
 30
0.0
 10
257.7180318066728
 20
53.92538788026545
 30
0.0
 10
257.3443708257054
 20
54.55528171762412
 30
0.0
 10
257.0529131117214
 20
54.91881428047701
 30
0.0
 10
256.910923205722
 20
55.09591700224608
 30
0.0
  0
SPLINE
  5
1DA
330
1F
100
AcDbEntity
  8
0
  6
Continuous
 62
     7
370
    15
100
AcDbSpline
210
0.0
220
0.0
230
1.0
 70
     8
 71
     3
 72
    29
 73
    25
 74
     0
 42
0.000000001
 43
0.00000001
 40
0.0
 40
0.0
 40
0.0
 40
0.0
 40
0.0232494535431042
 40
0.0692910795133437
 40
0.1154928773058576
 40
0.1620607360815607
 40
0.2091068223676519
 40
0.2566384792953889
 40
0.3045804087160114
 40
0.3528161477821652
 40
0.4012278804842846
 40
0.4497205221625057
 40
0.498220480095306
 40
0.5466897165861331
 40
0.5951144187417979
 40
0.6434918345707202
 40
0.6918258207860053
 40
0.7401239644390355
 40
0.7883958545733171
 40
0.836652110645533
 40
0.8849038751540613
 40
0.9331616561266745
 40
0.9814341250159356
 40
1.0
 40
1.0
 40
1.0
 40
1.0
 10
233.1971863499926
 20
64.11922689299706
 30
0.0
 10
233.1082854991716
 20
64.16551207212335
 30
0.0
 10
232.8433314901829
 20
64.30345725097158
 30
0.0
 10
232.3608946097225
 20
64.45167410772038
 30
0.0
 10
231.7587940021903
 20
64.56699735068614
 30
0.0
 10
231.1260248977411
 20
64.60118543901507
 30
0.0
 10
230.4686207338237
 20
64.55863556400357
 30
0.0
 10
229.7899864749622
 20
64.4376364809356
 30
0.0
 10
229.0952775970919
 20
64.23885742289879
 30
0.0
 10
228.3900261919412
 20
63.96345211247774
 30
0.0
 10
227.680083971975
 20
63.61368175410839
 30
0.0
 10
226.971256190081
 20
63.19262233481529
 30
0.0
 10
226.2691051844457
 20
62.7039931597094
 30
0.0
 10
225.578875825663
 20
62.15195913225057
 30
0.0
 10
224.9054926782729
 20
61.54098932651217
 30
0.0
 10
224.2536543956413
 20
60.87583570638552
 30
0.0
 10
223.6278765620272
 20
60.16153974570827
 30
0.0
 10
223.0325278623895
 20
59.40341412656016
 30
0.0
 10
222.471683578578
 20
58.60703352041637
 30
0.0
 10
221.9496023817703
 20
57.77816800725023
 30
0.0
 10
221.4688485035135
 20
56.92290399996161
 30
0.0
 10
221.0372009594132
 20
56.04706301458119
 30
0.0
 10
220.7229374049725
 20
55.34069278740476
 30
0.0
 10
220.5721674094932
 20
54.92698047456242
 30
0.0
 10
220.5302876033041
 20
54.81206244047473
 30
0.0
  0
LINE
  5
1DB
330
1F
100
AcDbEntity
  8
0
  6
Continuous
 62
     7
370
    15
100
AcDbLine
 10
220.6442353165
 20
52.9649028329
 30
0.0
 11
223.1977952151
 21
51.4907640813
 31
0.0
  0
LINE
  5
1DC
330
1F
100
AcDbEntity
  8
0
  6
Continuous
 62
     7
370
    15
100
AcDbLine
 10
220.3459430391
 20
54.0890782836
 30
0.0
 11
220.3459430391
 21
53.6278064664
 31
0.0
  0
LINE
  5
1DD
330
1F
100
AcDbEntity
  8
0
  6
Continuous
 62
     7
370
    15
100
AcDbLine
 10
220.3459430391
 20
46.6177298549
 30
0.0
 11
220.3459430391
 21
46.1564580377
 31
0.0
  0
SPLINE
  5
1DE
330
1F
100
AcDbEntity
  8
0
  6
Continuous
 62
     7
370
    15
100
AcDbSpline
210
0.0
220
0.0
230
1.0
 70
     8
 71
     3
 72
    11
 73
     7
 74
     0
 42
0.000000001
 43
0.00000001
 40
0.0
 40
0.0
 40
0.0
 40
0.0
 40
0.1974921069682285
 40
0.5112925280716194
 40
0.8215309102294482
 40
1.0
 40
1.0
 40
1.0
 40
1.0
 10
220.4618485777837
 20
45.86891372023569
 30
0.0
 10
220.5316869050045
 20
45.75208200226779
 30
0.0
 10
220.7124931935658
 20
45.44961328412117
 30
0.0
 10
221.0705287079379
 20
45.03453205568849
 30
0.0
 10
221.4520375666739
 20
44.667230518076
 30
0.0
 10
221.7182548310284
 20
44.4933571855145
 30
0.0
 10
221.8154736287339
 20
44.42986109187964
 30
0.0
  0
LWPOLYLINE
  5
1DF
330
1F
100
AcDbEntity
  8
0
  6
Continuous
 62
     7
370
    15
100
AcDbPolyline
 90
       24
 70
   128
 43
0.0
 10
251.3329397035
 20
47.8171758184
 10
251.6826273313
 20
47.7852515898
 10
252.0044277298
 20
47.7000472241
 10
252.2744744357
 20
47.5678819392
 10
252.4727393203
 20
47.3985578298
 10
252.584517984
 20
47.2046328903
 10
252.6015203146
 20
47.0004896465
 10
252.5224853272
 20
46.8012684687
 10
252.3532746851
 20
46.6217446805
 10
252.1064379676
 20
46.4752327399
 10
251.8002819248
 20
46.3725987672
 10
251.4575127499
 20
46.3214546548
 10
251.1035520645
 20
46.3255935275
 10
250.7646515133
 20
46.3847084239
 10
250.4659457999
 20
46.4944150628
 10
250.2295885606
 20
46.6465770045
 10
250.0731093305
 20
46.8299090939
 10
250.0081134583
 20
47.0308144287
 10
250.0394213905
 20
47.2343927792
 10
250.1647111609
 20
47.4255456706
 10
250.3746906005
 20
47.5900961672
 10
250.6537864949
 20
47.7158403116
 10
250.9812995783
 20
47.7934522358
 10
251.3329397035
 20
47.8171758184
  0
LWPOLYLINE
  5
1E0
330
1F
100
AcDbEntity
  8
0
  6
Continuous
 62
     7
370
    15
100
AcDbPolyline
 90
       20
 70
   128
 43
0.0
 10
252.3674459702
 20
47.5157541063
 10
252.5891221317
 20
47.3526356273
 10
252.7422925125
 20
47.1544025505
 10
252.8052538979
 20
46.9404073303
 10
252.7740501926
 20
46.7240960734
 10
252.6506420401
 20
46.5190604115
 10
252.4427836285
 20
46.3381834894
 10
252.1635354663
 20
46.1928304694
 10
251.8304437424
 20
46.0921344162
 10
251.464437835
 20
46.0424224331
 10
251.0885152412
 20
46.046818107
 10
250.7262965602
 20
46.1050452415
 10
250.4005413238
 20
46.2134452115
 10
250.1317179317
 20
46.3652068483
 10
249.9367175461
 20
46.55079441
 10
249.8277927585
 20
46.7585467478
 10
249.8117877139
 20
46.975410018
 10
249.8897080681
 20
47.1877579039
 10
250.0566577986
 20
47.3822478068
 10
250.2457809364
 20
47.5157541063
  0
LWPOLYLINE
  5
1E1
330
1F
100
AcDbEntity
  8
0
  6
Continuous
 62
     7
370
    15
100
AcDbPolyline
 90
       20
 70
   128
 43
0.0
 10
251.3258518669
 20
47.615166554
 10
251.633210715
 20
47.5818514145
 10
251.9051776821
 20
47.4927284977
 10
252.1122809273
 20
47.3574556544
 10
252.2320776005
 20
47.1906917963
 10
252.2515858733
 20
47.0105083749
 10
252.1686917216
 20
46.8364310599
 10
251.992378013
 20
46.6873238293
 10
251.7417510737
 20
46.5793447653
 10
251.4439702213
 20
46.5241950749
 10
251.1313046318
 20
46.5278510828
 10
250.8376364733
 20
46.5899166038
 10
250.5947892475
 20
46.7036658756
 10
250.4290792195
 20
46.8567723998
 10
250.3584636421
 20
47.0326447086
 10
250.3905948088
 20
47.2122243084
 10
250.5219908091
 20
47.3760509633
 10
250.7384128476
 20
47.506371513
 10
251.0164082382
 20
47.5890637039
 10
251.3258518669
 20
47.615166554
  0
SPLINE
  5
1E2
330
1F
100
AcDbEntity
  8
0
  6
Continuous
 62
     7
370
    15
100
AcDbSpline
210
0.0
220
0.0
230
1.0
 70
     8
 71
     3
 72
    11
 73
     7
 74
     0
 42
0.000000001
 43
0.00000001
 40
0.0
 40
0.0
 40
0.0
 40
0.0
 40
0.1183358584681204
 40
0.475539685085787
 40
0.8141708872487089
 40
1.0
 40
1.0
 40
1.0
 40
1.0
 10
250.8888777713688
 20
47.43622619560375
 30
0.0
 10
250.9209458458442
 20
47.4233897205586
 30
0.0
 10
251.0498133103202
 20
47.37180558216129
 30
0.0
 10
251.2933058302093
 20
47.31861550690456
 30
0.0
 10
251.5611790165624
 20
47.35499407745338
 30
0.0
 10
251.7040890564796
 20
47.40749828676623
 30
0.0
 10
251.7547255778061
 20
47.42610181186596
 30
0.0
  0
SPLINE
  5
1E3
330
1F
100
AcDbEntity
  8
0
  6
Continuous
 62
     7
370
    15
100
AcDbSpline
210
0.0
220
0.0
230
1.0
 70
     8
 71
     3
 72
    10
 73
     6
 74
     0
 42
0.000000001
 43
0.00000001
 40
0.0
 40
0.0
 40
0.0
 40
0.0
 40
0.4391165375904132
 40
0.7513669429073436
 40
1.0
 40
1.0
 40
1.0
 40
1.0
 10
250.440765646868
 20
47.00841139246051
 30
0.0
 10
250.5049163520835
 20
47.02771290743543
 30
0.0
 10
250.6146838400667
 20
47.06073949390783
 30
0.0
 10
250.7742502710019
 20
47.24497912539854
 30
0.0
 10
250.8536713423998
 20
47.37748700674276
 30
0.0
 10
250.8888777713688
 20
47.43622619560375
 30
0.0
  0
SPLINE
  5
1E4
330
1F
100
AcDbEntity
  8
0
  6
Continuous
 62
     7
370
    15
100
AcDbSpline
210
0.0
220
0.0
230
1.0
 70
     8
 71
     3
 72
     9
 73
     5
 74
     0
 42
0.000000001
 43
0.00000001
 40
0.0
 40
0.0
 40
0.0
 40
0.0
 40
0.5530559905440063
 40
1.0
 40
1.0
 40
1.0
 40
1.0
 10
250.6738906225459
 20
46.67125328803308
 30
0.0
 10
250.6288155928367
 20
46.72141680567626
 30
0.0
 10
250.5473138453105
 20
46.81211922731326
 30
0.0
 10
250.4736771339062
 20
46.94777904819399
 30
0.0
 10
250.440765646868
 20
47.00841139246051
 30
0.0
  0
SPLINE
  5
1E5
330
1F
100
AcDbEntity
  8
0
  6
Continuous
 62
     7
370
    15
100
AcDbSpline
210
0.0
220
0.0
230
1.0
 70
     8
 71
     3
 72
     9
 73
     5
 74
     0
 42
0.000000001
 43
0.00000001
 40
0.0
 40
0.0
 40
0.0
 40
0.0
 40
0.6213979844432457
 40
1.0
 40
1.0
 40
1.0
 40
1.0
 10
252.1724612597427
 20
46.98816262498493
 30
0.0
 10
252.107928612609
 20
46.88216890062419
 30
0.0
 10
252.0040778619642
 20
46.71159589103242
 30
0.0
 10
251.8942381977845
 20
46.63895105235947
 30
0.0
 10
251.8526526795381
 20
46.61144757001809
 30
0.0
  0
SPLINE
  5
1E6
330
1F
100
AcDbEntity
  8
0
  6
Continuous
 62
     7
370
    15
100
AcDbSpline
210
0.0
220
0.0
230
1.0
 70
     8
 71
     3
 72
    10
 73
     6
 74
     0
 42
0.000000001
 43
0.00000001
 40
0.0
 40
0.0
 40
0.0
 40
0.0
 40
0.4391165375904092
 40
0.7513669429073413
 40
1.0
 40
1.0
 40
1.0
 40
1.0
 10
251.7547255778061
 20
47.42610181186596
 30
0.0
 10
251.8145276610901
 20
47.32146396888421
 30
0.0
 10
251.9168542752119
 20
47.14241943408932
 30
0.0
 10
252.0656040817813
 20
47.018376234782
 30
0.0
 10
252.1396413898713
 20
46.99744236417329
 30
0.0
 10
252.1724612597427
 20
46.98816262498493
 30
0.0
  0
LINE
  5
1E7
330
1F
100
AcDbEntity
  8
0
  6
Continuous
 62
     7
370
    15
100
AcDbLine
 10
251.7547255778
 20
46.583277547
 30
0.0
 11
251.7547255778
 21
47.4261018119
 31
0.0
  0
LINE
  5
1E8
330
1F
100
AcDbEntity
  8
0
  6
Continuous
 62
     7
370
    15
100
AcDbLine
 10
250.8888777714
 20
46.5742980326
 30
0.0
 11
250.8888777714
 21
47.4362261956
 31
0.0
  0
SPLINE
  5
1E9
330
1F
100
AcDbEntity
  8
0
  6
Continuous
 62
     7
370
    15
100
AcDbSpline
210
0.0
220
0.0
230
1.0
 70
     8
 71
     3
 72
    10
 73
     6
 74
     0
 42
0.000000001
 43
0.00000001
 40
0.0
 40
0.0
 40
0.0
 40
0.0
 40
0.5
 40
0.5
 40
1.0
 40
1.0
 40
1.0
 40
1.0
 10
237.3199432455153
 20
40.21667056725764
 30
0.0
 10
237.2634145597328
 20
40.18403725157501
 30
0.0
 10
237.1847712371581
 20
40.16366427611605
 30
0.0
 10
237.0245413228269
 20
40.16060287615469
 30
0.0
 10
236.9433743102863
 20
40.17826207603493
 30
0.0
 10
236.8862604099484
 20
40.21123322888926
 30
0.0
  0
SPLINE
  5
1EA
330
1F
100
AcDbEntity
  8
0
  6
Continuous
 62
     7
370
    15
100
AcDbSpline
210
0.0
220
0.0
230
1.0
 70
     8
 71
     3
 72
    12
 73
     8
 74
     0
 42
0.000000001
 43
0.00000001
 40
0.0
 40
0.0
 40
0.0
 40
0.0
 40
0.250000000000002
 40
0.250000000000002
 40
0.500000000000004
 40
0.500000000000004
 40
1.0
 40
1.0
 40
1.0
 40
1.0
 10
254.5769823162932
 20
56.73519510714436
 30
0.0
 10
254.6088866446379
 20
56.7167771304286
 30
0.0
 10
254.6410239810788
 20
56.68686258979653
 30
0.0
 10
254.695682287505
 20
56.61646516985362
 30
0.0
 10
254.7186556268354
 20
56.57608447317779
 30
0.0
 10
254.7723374157731
 20
56.45356064314242
 30
0.0
 10
254.7891143506492
 20
56.36875932153674
 30
0.0
 10
254.7891143506492
 20
56.29520672590313
 30
0.0
  0
LINE
  5
1EB
330
1F
100
AcDbEntity
  8
0
  6
Continuous
 62
     7
370
    15
100
AcDbLine
 10
236.8862604099
 20
40.2112332289
 30
0.0
 11
235.4868723423
 21
41.0190827648
 31
0.0
  0
LWPOLYLINE
  5
1EC
330
1F
100
AcDbEntity
  8
0
  6
Continuous
 62
     7
370
    15
100
AcDbPolyline
 90
       26
 70
   128
 43
0.0
 10
235.4868723423
 20
41.0190827648
 10
235.7693168222
 20
42.1374380236
 10
236.1157754051
 20
43.2642241077
 10
236.5241135659
 20
44.3924989078
 10
236.9918155402
 20
45.5153111424
 10
237.5159998243
 20
46.6257431852
 10
238.0934369281
 20
47.7169536836
 10
238.7205692717
 20
48.7822197089
 10
239.3935331035
 20
49.8149781758
 10
240.1081823054
 20
50.8088662774
 10
240.8601139359
 20
51.7577606864
 10
241.6446953576
 20
52.655815281
 10
242.4570927779
 20
53.4974971627
 10
243.2923010307
 20
54.2776207439
 10
244.1451744123
 20
54.991379697
 10
245.0104583849
 20
55.6343765656
 10
245.8828219491
 20
56.2026498572
 10
246.7568904881
 20
56.6926984499
 10
247.627278881
 20
57.101503163
 10
248.4886246802
 20
57.4265453578
 10
249.3356211492
 20
57.6658224551
 10
250.1630499575
 20
57.8178602727
 10
250.9658133309
 20
57.8817221083
 10
251.7389654581
 20
57.8570145104
 10
252.4777429625
 20
57.743889702
 10
253.1775942487
 20
57.543044643
  0
LINE
  5
1ED
330
1F
100
AcDbEntity
  8
0
  6
Continuous
 62
     7
370
    15
100
AcDbLine
 10
253.1775942487
 20
57.543044643
 30
0.0
 11
254.5769823163
 21
56.7351951071
 31
0.0
  0
LINE
  5
1EE
330
1F
100
AcDbEntity
  8
0
  6
Continuous
 62
     7
370
    15
100
AcDbLine
 10
257.104889059
 20
51.2300062637
 30
0.0
 11
258.323389721
 21
51.933431723
 31
0.0
  0
LINE
  5
1EF
330
1F
100
AcDbEntity
  8
0
  6
Continuous
 62
     7
370
    15
100
AcDbLine
 10
257.104889059
 20
46.4246100289
 30
0.0
 11
257.104889059
 21
51.2300062637
 31
0.0
  0
LINE
  5
1F0
330
1F
100
AcDbEntity
  8
0
  6
Continuous
 62
     7
370
    15
100
AcDbLine
 10
237.3199432455
 20
32.8678032603
 30
0.0
 11
238.4372700357
 21
33.5128222866
 31
0.0
  0
LINE
  5
1F1
330
1F
100
AcDbEntity
  8
0
  6
Continuous
 62
     7
370
    15
100
AcDbLine
 10
238.4372700357
 20
33.5128222866
 30
0.0
 11
238.4372700357
 21
40.8616895936
 31
0.0
  0
LINE
  5
1F2
330
1F
100
AcDbEntity
  8
0
  6
Continuous
 62
     7
370
    15
100
AcDbLine
 10
238.4372700357
 20
40.8616895936
 30
0.0
 11
237.3199432455
 21
40.2166705673
 31
0.0
  0
LINE
  5
1F3
330
1F
100
AcDbEntity
  8
0
  6
Continuous
 62
     7
370
    15
100
AcDbLine
 10
254.7891143506
 20
56.2952067259
 30
0.0
 11
254.7891143506
 21
54.7311422911
 31
0.0
  0
LINE
  5
1F4
330
1F
100
AcDbEntity
  8
0
  6
Continuous
 62
     7
370
    15
100
AcDbLine
 10
256.1435605118
 20
55.5130474166
 30
0.0
 11
254.7891143506
 21
54.7311422911
 31
0.0
  0
LWPOLYLINE
  5
1F5
330
1F
100
AcDbEntity
  8
0
  6
Continuous
 62
     7
370
    15
100
AcDbPolyline
 90
       23
 70
   128
 43
0.0
 10
234.5630895546
 20
42.6500647987
 10
234.8634356208
 20
43.749946597
 10
235.229862959
 20
44.8557063026
 10
235.6598015209
 20
45.9595883379
 10
236.1502358036
 20
47.053850295
 10
236.6977259988
 20
48.1308172392
 10
237.2984321199
 20
49.1829355397
 10
237.9481409341
 20
50.2028258489
 10
238.6422955137
 20
51.18333486
 10
239.3760271972
 20
52.1175854789
 10
240.1441897372
 20
52.9990250584
 10
240.9413953952
 20
53.8214713575
 10
241.7620527301
 20
54.5791559021
 10
242.6004058152
 20
55.2667644444
 10
243.4505746097
 20
55.8794742355
 10
244.3065961995
 20
56.4129878513
 10
245.1624666202
 20
56.8635633339
 10
246.0121829679
 20
57.2280404371
 10
246.8497855019
 20
57.5038627912
 10
247.6693994454
 20
57.6890958333
 10
248.46527619
 20
57.782440376
 10
249.2318336152
 20
57.7832417193
 10
249.6781556023
 20
57.7388963049
  0
SPLINE
  5
1F6
330
1F
100
AcDbEntity
  8
0
  6
Continuous
 62
     7
370
    15
100
AcDbSpline
210
0.0
220
0.0
230
1.0
 70
     8
 71
     3
 72
     8
 73
     4
 74
     0
 42
0.000000001
 43
0.00000001
 40
0.0
 40
0.0
 40
0.0
 40
0.0
 40
1.0
 40
1.0
 40
1.0
 40
1.0
 10
234.5630895545574
 20
42.65006479873591
 30
0.0
 10
234.0717885255049
 20
42.56741757853202
 30
0.0
 10
233.5802084346022
 20
42.48533379104158
 30
0.0
 10
233.0884136358503
 20
42.40368350395984
 30
0.0
  0
LWPOLYLINE
  5
1F7
330
1F
100
AcDbEntity
  8
0
  6
Continuous
 62
     7
370
    15
100
AcDbPolyline
 90
       26
 70
   128
 43
0.0
 10
233.0884136359
 20
42.403683504
 10
233.3708581157
 20
43.5220387628
 10
233.7173166987
 20
44.6488248469
 10
234.1256548594
 20
45.777099647
 10
234.5933568337
 20
46.8999118816
 10
235.1175411178
 20
48.0103439244
 10
235.6949782216
 20
49.1015544228
 10
236.3221105652
 20
50.1668204481
 10
236.9950743971
 20
51.199578915
 10
237.7097235989
 20
52.1934670166
 10
238.4616552295
 20
53.1423614256
 10
239.2462366511
 20
54.0404160202
 10
240.0586340715
 20
54.8820979019
 10
240.8938423242
 20
55.6622214831
 10
241.7467157058
 20
56.3759804362
 10
242.6119996785
 20
57.0189773048
 10
243.4843632426
 20
57.5872505964
 10
244.3584317816
 20
58.0772991891
 10
245.2288201746
 20
58.4861039022
 10
246.0901659737
 20
58.811146097
 10
246.9371624427
 20
59.0504231942
 10
247.7645912511
 20
59.2024610119
 10
248.5673546244
 20
59.2663228475
 10
249.3405067516
 20
59.2416152496
 10
250.079284256
 20
59.1284904412
 10
250.7791355422
 20
58.9276453822
  0
LINE
  5
1F8
330
1F
100
AcDbEntity
  8
0
  6
Continuous
 62
     7
370
    15
100
AcDbLine
 10
250.7791355422
 20
58.9276453822
 30
0.0
 11
251.1134854034
 21
57.8474052896
 31
0.0
  0
LINE
  5
1F9
330
1F
100
AcDbEntity
  8
0
  6
Continuous
 62
     7
370
    15
100
AcDbLine
 10
247.3644931482
 20
60.8988764774
 30
0.0
 11
250.7791355422
 21
58.9276453822
 31
0.0
  0
LINE
  5
1FA
330
1F
100
AcDbEntity
  8
0
  6
Continuous
 62
     7
370
    15
100
AcDbLine
 10
233.0884136359
 20
42.403683504
 30
0.0
 11
232.5021983666
 21
42.7420983755
 31
0.0
  0
SPLINE
  5
1FB
330
1F
100
AcDbEntity
  8
0
  6
Continuous
 62
     7
370
    15
100
AcDbSpline
210
0.0
220
0.0
230
1.0
 70
     8
 71
     3
 72
    28
 73
    24
 74
     0
 42
0.000000001
 43
0.00000001
 40
0.0
 40
0.0
 40
0.0
 40
0.0
 40
0.1249999999999999
 40
0.1249999999999999
 40
0.1874999999999998
 40
0.1874999999999998
 40
0.2499999999999997
 40
0.2499999999999997
 40
0.3749999999999993
 40
0.3749999999999993
 40
0.4374999999999993
 40
0.4374999999999993
 40
0.4999999999999992
 40
0.4999999999999992
 40
0.6249999999999992
 40
0.6249999999999992
 40
0.7499999999999992
 40
0.7499999999999992
 40
0.8124999999999993
 40
0.8124999999999993
 40
0.8749999999999996
 40
0.8749999999999996
 40
1.0
 40
1.0
 40
1.0
 40
1.0
 10
232.5021983665918
 20
42.74209837553965
 30
0.0
 10
232.3142112861254
 20
42.85062100712373
 30
0.0
 10
232.1239913315248
 20
42.93256472767164
 30
0.0
 10
231.8358927295768
 20
43.0177224577101
 30
0.0
 10
231.7394028589772
 20
43.0397723881139
 30
0.0
 10
231.5456646861423
 20
43.07104621157286
 30
0.0
 10
231.4484136656109
 20
43.08017346289629
 30
0.0
 10
231.1623917907256
 20
43.08795630500469
 30
0.0
 10
230.977049974369
 20
43.06764976136763
 30
0.0
 10
230.7085373875532
 20
43.00042910823449
 30
0.0
 10
230.6201767278874
 20
42.9716427506289
 30
0.0
 10
230.4498240175977
 20
42.90263086053375
 30
0.0
 10
230.3677969878163
 20
42.86249097062362
 30
0.0
 10
230.1313607340637
 20
42.7258712028604
 30
0.0
 10
229.9864934839413
 20
42.61335671317133
 30
0.0
 10
229.7256366904572
 20
42.34509974817187
 30
0.0
 10
229.6133442829549
 20
42.19294636179458
 30
0.0
 10
229.4741198015011
 20
41.94102997409628
 30
0.0
 10
229.4325240151353
 20
41.85298768841991
 30
0.0
 10
229.359399300074
 20
41.66864663336808
 30
0.0
 10
229.3277748160211
 20
41.57185787068629
 30
0.0
 10
229.2502815125989
 20
41.27384279178948
 30
0.0
 10
229.221106797209
 20
41.06436991465296
 30
0.0
 10
229.2151399144673
 20
40.8439891219691
 30
0.0
  0
ARC
  5
1FC
330
1F
100
AcDbEntity
  8
0
  6
Continuous
 62
     7
370
    15
100
AcDbCircle
 10
244.0585063768
 20
40.435718716
 30
0.0
 40
14.84898018918646
100
AcDbArc
 50
178.4244628824
 51
181.5755371176
  0
SPLINE
  5
1FD
330
1F
100
AcDbEntity
  8
0
  6
Continuous
 62
     7
370
    15
100
AcDbSpline
210
0.0
220
0.0
230
1.0
 70
     8
 71
     3
 72
    30
 73
    26
 74
     0
 42
0.000000001
 43
0.00000001
 40
0.0
 40
0.0
 40
0.0
 40
0.0
 40
0.1250000000000001
 40
0.1250000000000001
 40
0.1875000000000002
 40
0.1875000000000002
 40
0.2500000000000003
 40
0.2500000000000003
 40
0.3750000000000004
 40
0.3750000000000004
 40
0.4375000000000004
 40
0.4375000000000004
 40
0.5000000000000004
 40
0.5000000000000004
 40
0.6250000000000007
 40
0.6250000000000007
 40
0.6875000000000006
 40
0.6875000000000006
 40
0.7500000000000004
 40
0.7500000000000004
 40
0.8125000000000004
 40
0.8125000000000004
 40
0.8750000000000003
 40
0.8750000000000003
 40
1.0
 40
1.0
 40
1.0
 40
1.0
 10
229.2151399144673
 20
40.02744831008335
 30
0.0
 10
229.2211075131588
 20
39.81393111730863
 30
0.0
 10
229.2502527331582
 20
39.5963812192895
 30
0.0
 10
229.3266873944171
 20
39.26408218975391
 30
0.0
 10
229.3576533779945
 20
39.15230788845435
 30
0.0
 10
229.4306233188101
 20
38.92660601491934
 30
0.0
 10
229.4727595173687
 20
38.81251824234683
 30
0.0
 10
229.6126513067331
 20
38.47435551498565
 30
0.0
 10
229.7244952312754
 20
38.25184529571287
 30
0.0
 10
229.9182818284199
 20
37.9212350397633
 30
0.0
 10
229.9876224660232
 20
37.81100840005715
 30
0.0
 10
230.1331148504699
 20
37.59427839960361
 30
0.0
 10
230.2090021411889
 20
37.4880814639729
 30
0.0
 10
230.4453900896603
 20
37.17544329072328
 30
0.0
 10
230.6145355919112
 20
36.97490074288812
 30
0.0
 10
230.8844015892453
 20
36.68479590346578
 30
0.0
 10
230.9765930952962
 20
36.59045248709333
 30
0.0
 10
231.1621916903309
 20
36.40914745903293
 30
0.0
 10
231.2560205706177
 20
36.32172812553878
 30
0.0
 10
231.4454706210831
 20
36.15312057521413
 30
0.0
 10
231.5410920362887
 20
36.07193238944479
 30
0.0
 10
231.7339537257151
 20
35.91576970989665
 30
0.0
 10
231.8316886346135
 20
35.84044273019994
 30
0.0
 10
232.1229445897339
 20
35.6271524967561
 30
0.0
 10
232.3142019807071
 20
35.50175907205568
 30
0.0
 10
232.5021983665918
 20
35.39323106856791
 30
0.0
  0
LINE
  5
1FE
330
1F
100
AcDbEntity
  8
0
  6
Continuous
 62
     7
370
    15
100
AcDbLine
 10
232.5021983666
 20
35.3932310686
 30
0.0
 11
233.0884136359
 21
35.054816197
 31
0.0
  0
ARC
  5
1FF
330
1F
100
AcDbEntity
  8
0
  6
Continuous
 62
     7
370
    15
100
AcDbCircle
 10
238.909643162
 20
36.4460946909
 30
0.0
 40
5.985179115443919
100
AcDbArc
 50
193.4415888918
 51
253.1805824648
  0
LINE
  5
200
330
1F
100
AcDbEntity
  8
0
  6
Continuous
 62
     7
370
    15
100
AcDbLine
 10
252.4085533985
 20
57.9866966892
 30
0.0
 11
252.7428658023
 21
57.679368579
 31
0.0
  0
LINE
  5
201
330
1F
100
AcDbEntity
  8
0
  6
Continuous
 62
     7
370
    15
100
AcDbLine
 10
251.5556246447
 20
58.4790819781
 30
0.0
 11
252.4085533985
 21
57.9866966892
 31
0.0
  0
SPLINE
  5
202
330
1F
100
AcDbEntity
  8
0
  6
Continuous
 62
     7
370
    15
100
AcDbSpline
210
0.0
220
0.0
230
1.0
 70
     8
 71
     3
 72
    20
 73
    16
 74
     0
 42
0.000000001
 43
0.00000001
 40
0.0
 40
0.0
 40
0.0
 40
0.0
 40
0.2499999999999995
 40
0.2499999999999995
 40
0.3749999999999996
 40
0.3749999999999996
 40
0.4999999999999997
 40
0.4999999999999997
 40
0.6249999999999998
 40
0.6249999999999998
 40
0.7499999999999998
 40
0.7499999999999998
 40
0.8749999999999999
 40
0.8749999999999999
 40
1.0
 40
1.0
 40
1.0
 40
1.0
 10
247.3644931481904
 20
60.8988764774401
 30
0.0
 10
247.6834818025884
 20
60.7649860881803
 30
0.0
 10
248.0099374026863
 20
60.60508974111831
 30
0.0
 10
248.5222875200695
 20
60.32717081364879
 30
0.0
 10
248.6968908867473
 20
60.2281718008385
 30
0.0
 10
249.0567647490962
 20
60.01723109593979
 30
0.0
 10
249.2396251654497
 20
59.90667527872976
 30
0.0
 10
249.6059202546269
 20
59.68125740971892
 30
0.0
 10
249.7904037708855
 20
59.56577680833946
 30
0.0
 10
250.1639885951211
 20
59.33094446404369
 30
0.0
 10
250.3483380663603
 20
59.21461453876843
 30
0.0
 10
250.7090479728368
 20
58.98891985196905
 30
0.0
 10
250.8861019620905
 20
58.87910987787236
 30
0.0
 10
251.2338313134429
 20
58.66771511433646
 30
0.0
 10
251.3990817299012
 20
58.56945227919344
 30
0.0
 10
251.5556246446827
 20
58.47908197807607
 30
0.0
  0
ARC
  5
203
330
1F
100
AcDbEntity
  8
0
  6
Continuous
 62
     7
370
    15
100
AcDbCircle
 10
243.4693680165
 20
55.3510669495
 30
0.0
 40
6.845854689740393
100
AcDbArc
 50
63.0049398757
 51
113.3474565952
  0
ARC
  5
204
330
1F
100
AcDbEntity
  8
0
  6
Continuous
 62
     7
370
    15
100
AcDbCircle
 10
234.5562790564
 20
39.9046968247
 30
0.0
 40
6.839631106710901
100
AcDbArc
 50
187.3098643026
 51
236.9692910111
  0
LWPOLYLINE
  5
205
330
1F
100
AcDbEntity
  8
0
  6
Continuous
 62
     7
370
    15
100
AcDbPolyline
 90
       58
 70
   128
 43
0.0
 10
254.1527182476
 20
45.3013532469
 10
253.542085909
 20
44.9099392813
 10
252.9388658199
 20
44.4454697112
 10
252.3503802549
 20
43.9135825681
 10
251.7837726316
 20
43.3207342412
 10
251.245920799
 20
42.6741211062
 10
250.7433535498
 20
41.9815921706
 10
250.2821713696
 20
41.2515537976
 10
249.8679723853
 20
40.4928676641
 10
249.5057844116
 20
39.7147431919
 10
249.2000039196
 20
38.9266257582
 10
248.9543426705
 20
38.138082041
 10
248.771782659
 20
37.3586838927
 10
248.6545399163
 20
36.5978921512
 10
248.6040376106
 20
35.8649417975
 10
248.6208887713
 20
35.168729856
 10
248.7048888482
 20
34.5177073967
 10
248.8550181943
 20
33.9197769503
 10
249.0694544425
 20
33.3821965824
 10
249.3455946274
 20
32.9114917905
 10
249.6800867811
 20
32.5133762931
 10
250.068870622
 20
32.192682673
 10
250.5072268409
 20
31.9533037163
 10
250.9898343873
 20
31.7981451595
 10
251.5108350591
 20
31.729090417
 10
252.0639046141
 20
31.74697772
 10
252.6423295369
 20
31.8515899408
 10
253.2390885327
 20
32.0416572288
 10
253.8469377557
 20
32.3148724245
 10
254.4584987395
 20
32.6679190657
 10
255.0663479624
 20
33.0965116443
 10
255.6631069582
 20
33.595447627
 10
256.2415318811
 20
34.1586706069
 10
256.7946014361
 20
34.7793438199
 10
257.3156021079
 20
35.4499331341
 10
257.7982096542
 20
36.1622985035
 10
258.2365658732
 20
36.9077927775
 10
258.6253497141
 20
37.6773666657
 10
258.9598418678
 20
38.4616785833
 10
259.2359820526
 20
39.2512080463
 10
259.4504183009
 20
40.0363712365
 10
259.6005476469
 20
40.8076373363
 10
259.6845477239
 20
41.5556442201
 10
259.7013988846
 20
42.2713120975
 10
259.6508965788
 20
42.9459537301
 10
259.5336538362
 20
43.5713798823
 10
259.3510938246
 20
44.1399987279
 10
259.1054325755
 20
44.6449080042
 10
258.7996520836
 20
45.0799787968
 10
258.4374641098
 20
45.4399299354
 10
258.0232651255
 20
45.720392101
 10
257.5620829453
 20
45.9179608626
 10
257.0595156961
 20
46.0302380033
 10
256.5216638636
 20
46.0558606306
 10
255.9550562403
 20
45.9945177205
 10
255.3665706753
 20
45.8469538928
 10
254.7633505861
 20
45.6149603726
 10
254.1527182476
 20
45.3013532469
  0
LWPOLYLINE
  5
206
330
1F
100
AcDbEntity
  8
0
  6
Continuous
 62
     7
370
    15
100
AcDbPolyline
 90
       31
 70
   128
 43
0.0
 10
254.0466522304
 20
45.485064977
 10
253.4350387016
 20
45.0936952245
 10
252.8305957822
 20
44.6303283689
 10
252.2404100128
 20
44.1003969629
 10
251.6714007819
 20
43.5101139678
 10
251.1302392026
 20
42.866399912
 10
250.6232698995
 20
42.1768017542
 10
250.1564366242
 20
41.4494044023
 10
249.7352125701
 20
40.6927359253
 10
249.3645362039
 20
39.9156675691
 10
249.0487533673
 20
39.1273097497
 10
248.7915663252
 20
38.3369052419
 10
248.5959903606
 20
37.5537208158
 10
248.4643184229
 20
36.7869385926
 10
248.398094245
 20
36.0455483929
 10
248.398094245
 20
35.338242339
 10
248.4643184229
 20
34.6733129476
 10
248.5959903606
 20
34.0585559078
 10
248.7915663252
 20
33.501178684
 10
249.0487533673
 20
33.0077160143
 10
249.3645362039
 20
32.5839532975
 10
249.7352125701
 20
32.234858764
 10
250.1564366242
 20
31.9645252279
 10
250.6232698995
 20
31.7761221029
 10
251.1302392026
 20
31.6718582432
 10
251.6714007819
 20
31.6529560474
 10
252.2404100128
 20
31.7196371264
 10
252.8305957822
 20
31.8711197055
 10
253.4350387016
 20
32.1056277899
 10
254.0466522304
 20
32.4204119869
 10
254.0475716283
 20
32.4209428303
  0
LWPOLYLINE
  5
207
330
1F
100
AcDbEntity
  8
0
  6
Continuous
 62
     7
370
    15
100
AcDbPolyline
 90
       16
 70
   128
 43
0.0
 10
259.7035064799
 20
42.2183709292
 10
259.6952102158
 20
42.5672346249
 10
259.628986038
 20
43.2321640163
 10
259.4973141002
 20
43.8469210561
 10
259.3017381356
 20
44.4042982799
 10
259.0445510935
 20
44.8977609496
 10
258.7287682569
 20
45.3215236664
 10
258.3580918908
 20
45.6706181999
 10
257.9368678366
 20
45.940951736
 10
257.4700345613
 20
46.129354861
 10
256.9630652582
 20
46.2336187207
 10
256.4219036789
 20
46.2525209165
 10
255.852894448
 20
46.1858398375
 10
255.2627086786
 20
46.0343572584
 10
254.6582657592
 20
45.799849174
 10
254.0466522304
 20
45.485064977
  0
SPLINE
  5
208
330
1F
100
AcDbEntity
  8
0
  6
Continuous
 62
     7
370
    15
100
AcDbSpline
210
0.0
220
0.0
230
1.0
 70
    11
 71
     3
 72
    66
 73
    62
 74
     0
 42
0.000000001
 43
0.00000001
 40
0.0
 40
0.0
 40
0.0
 40
0.0
 40
0.0312499999999996
 40
0.0312499999999996
 40
0.0624999999999993
 40
0.0624999999999993
 40
0.0937499999999989
 40
0.0937499999999989
 40
0.1249999999999986
 40
0.1249999999999986
 40
0.1562499999999982
 40
0.1562499999999982
 40
0.1874999999999979
 40
0.1874999999999979
 40
0.2187499999999975
 40
0.2187499999999975
 40
0.2499999999999972
 40
0.2499999999999972
 40
0.2812499999999968
 40
0.2812499999999968
 40
0.3124999999999964
 40
0.3124999999999964
 40
0.3437499999999961
 40
0.3437499999999961
 40
0.3749999999999958
 40
0.3749999999999958
 40
0.4062499999999954
 40
0.4062499999999954
 40
0.4374999999999951
 40
0.4374999999999951
 40
0.4687499999999947
 40
0.4687499999999947
 40
0.4999999999999943
 40
0.4999999999999943
 40
0.531249999999994
 40
0.531249999999994
 40
0.5624999999999937
 40
0.5624999999999937
 40
0.6249999999999937
 40
0.6249999999999937
 40
0.6562499999999942
 40
0.6562499999999942
 40
0.6874999999999948
 40
0.6874999999999948
 40
0.7187499999999953
 40
0.7187499999999953
 40
0.7499999999999958
 40
0.7499999999999958
 40
0.7812499999999963
 40
0.7812499999999963
 40
0.8124999999999969
 40
0.8124999999999969
 40
0.8437499999999974
 40
0.8437499999999974
 40
0.874999999999998
 40
0.874999999999998
 40
0.9062499999999986
 40
0.9062499999999986
 40
0.937499999999999
 40
0.937499999999999
 40
1.0
 40
1.0
 40
1.0
 40
1.0
 10
251.3032396936617
 20
48.01152542597781
 30
0.0
 10
251.4201845515155
 20
47.99518055783799
 30
0.0
 10
251.5341638457734
 20
47.97293428456055
 30
0.0
 10
251.7568111714046
 20
47.91863029865505
 30
0.0
 10
251.8662257719741
 20
47.88629026696403
 30
0.0
 10
252.0762037980026
 20
47.81358045422494
 30
0.0
 10
252.1754956836149
 20
47.77374145923117
 30
0.0
 10
252.3631686092917
 20
47.68787571918795
 30
0.0
 10
252.4523067409424
 20
47.64135997923024
 30
0.0
 10
252.6145344578231
 20
47.54467436424667
 30
0.0
 10
252.6877038392935
 20
47.49461758853381
 30
0.0
 10
252.8182611855117
 20
47.39085898182057
 30
0.0
 10
252.8760613062467
 20
47.33659561723982
 30
0.0
 10
252.9713268040597
 20
47.2272069180603
 30
0.0
 10
253.0092050901725
 20
47.17194589090603
 30
0.0
 10
253.0649365673738
 20
47.0593310865534
 30
0.0
 10
253.0827293365173
 20
47.00138510053089
 30
0.0
 10
253.0952944815544
 20
46.88675914022073
 30
0.0
 10
253.0904811351376
 20
46.82970794062707
 30
0.0
 10
253.057178203733
 20
46.71498593269045
 30
0.0
 10
253.0281132866096
 20
46.65693731545238
 30
0.0
 10
252.9471555846636
 20
46.54520689122377
 30
0.0
 10
252.8952339119613
 20
46.49079627180311
 30
0.0
 10
252.7665433241554
 20
46.38443634537938
 30
0.0
 10
252.6909722744915
 20
46.33371491677593
 30
0.0
 10
252.5222331299157
 20
46.23996944873407
 30
0.0
 10
252.4270183087652
 20
46.19594616009724
 30
0.0
 10
252.225116981153
 20
46.11851945655006
 30
0.0
 10
252.1185532390361
 20
46.08490154254598
 30
0.0
 10
251.894520421813
 20
46.02822605624578
 30
0.0
 10
251.7796172052369
 20
46.00589114480849
 30
0.0
 10
251.5479520424341
 20
45.97380851720247
 30
0.0
 10
251.429517473724
 20
45.96395638367781
 30
0.0
 10
251.1975153645219
 20
45.95782462719914
 30
0.0
 10
251.0833584143124
 20
45.96134468667947
 30
0.0
 10
250.858479733505
 20
45.98208682601214
 30
0.0
 10
250.7486620384794
 20
45.99936828017634
 30
0.0
 10
250.4358083599292
 20
46.07062373698722
 30
0.0
 10
250.2430541371368
 20
46.14600154462929
 30
0.0
 10
250.000674890657
 20
46.29255026948837
 30
0.0
 10
249.9266789096663
 20
46.34730056991929
 30
0.0
 10
249.794568980828
 20
46.46762491250784
 30
0.0
 10
249.7378558288442
 20
46.53182539776729
 30
0.0
 10
249.6427691516581
 20
46.66760073069467
 30
0.0
 10
249.604196318927
 20
46.73969811169687
 30
0.0
 10
249.5479755195604
 20
46.88875338610185
 30
0.0
 10
249.5306524412145
 20
46.96441060875482
 30
0.0
 10
249.5179360782031
 20
47.11704479020005
 30
0.0
 10
249.5227510443556
 20
47.19491027662666
 30
0.0
 10
249.556420660283
 20
47.34663226542278
 30
0.0
 10
249.5848153289644
 20
47.41978927387291
 30
0.0
 10
249.6657300350204
 20
47.55955678461588
 30
0.0
 10
249.7192823281083
 20
47.62690281227313
 30
0.0
 10
249.8472579206622
 20
47.74700408416542
 30
0.0
 10
249.9217143582821
 20
47.8004745083406
 30
0.0
 10
250.0924545342981
 20
47.89349950839861
 30
0.0
 10
250.1870088577025
 20
47.93187239327509
 30
0.0
 10
250.3884486366526
 20
47.99128900319
 30
0.0
 10
250.4974175171068
 20
48.01278903486403
 30
0.0
 10
250.8314826643699
 20
48.05153339488928
 30
0.0
 10
251.0693499779541
 20
48.04421516225744
 30
0.0
 10
251.3032396936618
 20
48.01152542597781
 30
0.0
  0
LINE
  5
209
330
1F
100
AcDbEntity
  8
0
  6
Continuous
 62
     7
370
    15
100
AcDbLine
 10
257.1964816332
 20
38.8239798683
 30
0.0
 11
258.3953589347
 21
40.3153718339
 31
0.0
  0
SPLINE
  5
20A
330
1F
100
AcDbEntity
  8
0
  6
Continuous
 62
     7
370
    15
100
AcDbSpline
210
0.0
220
0.0
230
1.0
 70
     8
 71
     3
 72
    22
 73
    18
 74
     0
 42
0.000000001
 43
0.00000001
 40
0.0
 40
0.0
 40
0.0
 40
0.0
 40
0.0416666666666666
 40
0.0833333333333336
 40
0.1250000000000033
 40
0.166666666666668
 40
0.2083333333333338
 40
0.2499999999998967
 40
0.2968749999997768
 40
0.34375
 40
0.3906249999999999
 40
0.4374999999999999
 40
0.4847037825276519
 40
0.4847037825276519
 40
0.53125
 40
0.6249999999999851
 40
0.8414337678077792
 40
0.8414337678077792
 40
0.8414337678077792
 40
0.8414337678077792
 10
258.3953589346995
 20
40.31537183387104
 30
0.0
 10
258.4408382625126
 20
40.37194768530674
 30
0.0
 10
258.5301086724543
 20
40.49386829389984
 30
0.0
 10
258.6546013819711
 20
40.70077596624105
 30
0.0
 10
258.7642430300264
 20
40.92974833842577
 30
0.0
 10
258.8512486258015
 20
41.17315270755981
 30
0.0
 10
258.9079242324549
 20
41.42012157263357
 30
0.0
 10
258.9291936764327
 20
41.66816790815231
 30
0.0
 10
258.9059601438349
 20
41.90053076118127
 30
0.0
 10
258.8328750200835
 20
42.09866140849635
 30
0.0
 10
258.7180084576939
 20
42.2439992950405
 30
0.0
 10
258.5687048574562
 20
42.33463892573278
 30
0.0
 10
258.4577814778495
 20
42.36044252591466
 30
0.0
 10
258.347299694317
 20
42.37085200735933
 30
0.0
 10
258.1990660248785
 20
42.38321174138358
 30
0.0
 10
257.9179706298194
 20
42.4091064984551
 30
0.0
 10
257.5009724598135
 20
42.44632438175275
 30
0.0
 10
257.1963756858383
 20
42.47346477032068
 30
0.0
  0
SPLINE
  5
20B
330
1F
100
AcDbEntity
  8
0
  6
Continuous
 62
     7
370
    15
100
AcDbSpline
210
0.0
220
0.0
230
1.0
 70
     8
 71
     3
 72
    22
 73
    18
 74
     0
 42
0.000000001
 43
0.00000001
 40
0.0
 40
0.0
 40
0.0
 40
0.0
 40
0.0416666666666666
 40
0.0833333333333336
 40
0.1250000000000033
 40
0.166666666666668
 40
0.2083333333333338
 40
0.2499999999998967
 40
0.2968749999997768
 40
0.34375
 40
0.3906249999999999
 40
0.4374999999999999
 40
0.4847037825276519
 40
0.4847037825276519
 40
0.53125
 40
0.6249999999999851
 40
0.8393173095866422
 40
0.8393173095866422
 40
0.8393173095866422
 40
0.8393173095866422
 10
249.910077560463
 20
35.41692316293603
 30
0.0
 10
249.8654049036225
 20
35.42091757163016
 30
0.0
 10
249.7749534455973
 20
35.43987436248859
 30
0.0
 10
249.6509354266206
 20
35.50300336657381
 30
0.0
 10
249.5411665885302
 20
35.60539756235175
 30
0.0
 10
249.4541950623556
 20
35.74834435058394
 30
0.0
 10
249.3975103673351
 20
35.9298778101801
 30
0.0
 10
249.3762433023861
 20
36.15336658276787
 30
0.0
 10
249.3994766261291
 20
36.41255504452037
 30
0.0
 10
249.4725598841838
 20
36.69506537977325
 30
0.0
 10
249.5874341262478
 20
36.97303500403848
 30
0.0
 10
249.7367088060259
 20
37.23602090725479
 30
0.0
 10
249.8477045795229
 20
37.38998397193727
 30
0.0
 10
249.9582151002561
 20
37.5279887554799
 30
0.0
 10
250.1064277262179
 20
37.71146926825883
 30
0.0
 10
250.3843248442832
 20
38.05792671746789
 30
0.0
 10
250.8062682680747
 20
38.58275769587445
 30
0.0
 10
251.1090625922049
 20
38.95933768696171
 30
0.0
  0
LINE
  5
20C
330
1F
100
AcDbEntity
  8
0
  6
Continuous
 62
     7
370
    15
100
AcDbLine
 10
251.108954862
 20
35.3097254663
 30
0.0
 11
249.9100775605
 21
35.4169231629
 31
0.0
  0
LINE
  5
20D
330
1F
100
AcDbEntity
  8
0
  6
Continuous
 62
     7
370
    15
100
AcDbLine
 10
235.6977041094
 20
41.8758060303
 30
0.0
 11
235.2340763169
 21
42.1434526579
 31
0.0
  0
LINE
  5
20E
330
1F
100
AcDbEntity
  8
0
  6
Continuous
 62
     7
370
    15
100
AcDbLine
 10
234.8082581589
 20
42.7915976214
 30
0.0
 11
234.5630895546
 21
42.6500647987
 31
0.0
  0
SPLINE
  5
20F
330
1F
100
AcDbEntity
  8
0
  6
Continuous
 62
     7
370
    15
100
AcDbSpline
210
0.0
220
0.0
230
1.0
 70
     8
 71
     3
 72
    14
 73
    10
 74
     0
 42
0.000000001
 43
0.00000001
 40
0.0
 40
0.0
 40
0.0
 40
0.0
 40
0.1250000000000012
 40
0.1250000000000012
 40
0.2500000000000024
 40
0.2500000000000024
 40
0.5000000000000013
 40
0.5000000000000013
 40
1.0
 40
1.0
 40
1.0
 40
1.0
 10
235.2340763169352
 20
42.14345265791393
 30
0.0
 10
235.20987988377
 20
42.15742096145648
 30
0.0
 10
235.1867044453111
 20
42.18478613745402
 30
0.0
 10
235.1497840528801
 20
42.24258790657956
 30
0.0
 10
235.1347422618475
 20
42.27355838569589
 30
0.0
 10
235.0949288052607
 20
42.36658485862513
 30
0.0
 10
235.0752927868766
 20
42.42919591290985
 30
0.0
 10
235.0248719384071
 20
42.61352666382484
 30
0.0
 10
235.0024547601666
 20
42.73507089872557
 30
0.0
 10
234.9857668620006
 20
42.85419996402792
 30
0.0
  0
SPLINE
  5
210
330
1F
100
AcDbEntity
  8
0
  6
Continuous
 62
     7
370
    15
100
AcDbSpline
210
0.0
220
0.0
230
1.0
 70
     8
 71
     3
 72
    10
 73
     6
 74
     0
 42
0.000000001
 43
0.00000001
 40
0.0
 40
0.0
 40
0.0
 40
0.0
 40
0.5
 40
0.5
 40
1.0
 40
1.0
 40
1.0
 40
1.0
 10
234.9857668620006
 20
42.85419996402792
 30
0.0
 10
234.9523768438129
 20
42.84805019482769
 30
0.0
 10
234.9201374923848
 20
42.83950358697962
 30
0.0
 10
234.8601495981225
 20
42.81826761321072
 30
0.0
 10
234.8328877248734
 20
42.80581596720254
 30
0.0
 10
234.8082581589236
 20
42.79159762142569
 30
0.0
  0
ARC
  5
211
330
1F
100
AcDbEntity
  8
0
  6
Continuous
 62
     7
370
    15
100
AcDbCircle
 10
253.3589990474
 20
39.3303863147
 30
0.0
 40
26.06835463431545
100
AcDbArc
 50
134.6632928056
 51
160.9031688105
  0
SPLINE
  5
212
330
1F
100
AcDbEntity
  8
0
  6
Continuous
 62
     7
370
    15
100
AcDbSpline
210
0.0
220
0.0
230
1.0
 70
     8
 71
     3
 72
    17
 73
    13
 74
     0
 42
0.000000001
 43
0.00000001
 40
0.0
 40
0.0
 40
0.0
 40
0.0
 40
0.0937704657699451
 40
0.1881914700265637
 40
0.2846652278223877
 40
0.381848428600137
 40
0.4756190803264909
 40
0.6663472981769571
 40
0.7635315146487679
 40
0.8573189765643441
 40
0.9517563417028903
 40
1.0
 40
1.0
 40
1.0
 40
1.0
 10
249.8393668823433
 20
35.68081339697064
 30
0.0
 10
249.8185590459694
 20
35.68343946699868
 30
0.0
 10
249.776799017552
 20
35.68870982558025
 30
0.0
 10
249.7177027723739
 20
35.70681603390438
 30
0.0
 10
249.6614328593074
 20
35.73266407242145
 30
0.0
 10
249.6096428070429
 20
35.76658349038807
 30
0.0
 10
249.5467741995368
 20
35.82175469055616
 30
0.0
 10
249.4933557876726
 20
35.89178608894863
 30
0.0
 10
249.4508901686249
 20
35.97480319199371
 30
0.0
 10
249.4252051547004
 20
36.04317046865399
 30
0.0
 10
249.4077739395269
 20
36.10358472149397
 30
0.0
 10
249.4013558220036
 20
36.1431726375931
 30
0.0
 10
249.3991857123335
 20
36.15655820107585
 30
0.0
  0
SPLINE
  5
213
330
1F
100
AcDbEntity
  8
0
  6
Continuous
 62
     7
370
    15
100
AcDbSpline
210
0.0
220
0.0
230
1.0
 70
     8
 71
     3
 72
    12
 73
     8
 74
     0
 42
0.000000001
 43
0.00000001
 40
0.0
 40
0.0
 40
0.0
 40
0.0
 40
0.0184946410485664
 40
0.1856857304109645
 40
0.4510926986544153
 40
0.7222495786188781
 40
1.0
 40
1.0
 40
1.0
 40
1.0
 10
251.2602594685499
 20
39.17098205999278
 30
0.0
 10
251.2601727900838
 20
39.17045160433734
 30
0.0
 10
251.2593025404674
 20
39.16512584291431
 30
0.0
 10
251.2423044634615
 20
39.1368014102224
 30
0.0
 10
251.2089437172639
 20
39.08804468702651
 30
0.0
 10
251.1612113711138
 20
39.024818974708
 30
0.0
 10
251.1265841672391
 20
38.9813388789473
 30
0.0
 10
251.1090625922048
 20
38.95933768696166
 30
0.0
  0
SPLINE
  5
214
330
1F
100
AcDbEntity
  8
0
  6
Continuous
 62
     7
370
    15
100
AcDbSpline
210
0.0
220
0.0
230
1.0
 70
     8
 71
     3
 72
    16
 73
    12
 74
     0
 42
0.000000001
 43
0.00000001
 40
0.0
 40
0.0
 40
0.0
 40
0.0
 40
0.2499999999999967
 40
0.2499999999999967
 40
0.4999999999999934
 40
0.4999999999999934
 40
0.6249999999999917
 40
0.6249999999999917
 40
0.74999999999999
 40
0.74999999999999
 40
1.0
 40
1.0
 40
1.0
 40
1.0
 10
257.1963756858394
 20
42.47346477032058
 30
0.0
 10
257.1703803862335
 20
42.47578102115619
 30
0.0
 10
257.1423928658304
 20
42.47701266993607
 30
0.0
 10
257.079741102495
 20
42.4758433964588
 30
0.0
 10
257.0447065674697
 20
42.47353083219138
 30
0.0
 10
256.9859158082271
 20
42.46386346593202
 30
0.0
 10
256.9649178033862
 20
42.45946153872761
 30
0.0
 10
256.9234091065173
 20
42.44785134243109
 30
0.0
 10
256.9036067650121
 20
42.44077362442135
 30
0.0
 10
256.8526965530529
 20
42.41824175466451
 30
0.0
 10
256.8305351150756
 20
42.4024464385968
 30
0.0
 10
256.8143409287127
 20
42.38788300614826
 30
0.0
  0
SPLINE
  5
215
330
1F
100
AcDbEntity
  8
0
  6
Continuous
 62
     7
370
    15
100
AcDbSpline
210
0.0
220
0.0
230
1.0
 70
     8
 71
     3
 72
    10
 73
     6
 74
     0
 42
0.000000001
 43
0.00000001
 40
0.0
 40
0.0
 40
0.0
 40
0.0
 40
0.5
 40
0.5
 40
1.0
 40
1.0
 40
1.0
 40
1.0
 10
256.8143409287222
 20
42.38788300614409
 30
0.0
 10
256.7881481710935
 20
42.39733090201593
 30
0.0
 10
256.7620159824513
 20
42.40750497748767
 30
0.0
 10
256.7114064935474
 20
42.42956769343141
 30
0.0
 10
256.6876424072656
 20
42.4412072777489
 30
0.0
 10
256.6676552370282
 20
42.45274562552627
 30
0.0
  0
LINE
  5
216
330
1F
100
AcDbEntity
  8
0
  6
Continuous
 62
     7
370
    15
100
AcDbLine
 10
236.267274299
 20
34.7655341607
 30
0.0
 11
238.4372700357
 21
33.5128222866
 31
0.0
  0
SPLINE
  5
217
330
1F
100
AcDbEntity
  8
0
  6
Continuous
 62
     7
370
    15
100
AcDbSpline
210
0.0
220
0.0
230
1.0
 70
     8
 71
     3
 72
    14
 73
    10
 74
     0
 42
0.000000001
 43
0.00000001
 40
0.0
 40
0.0
 40
0.0
 40
0.0
 40
0.1249999999999983
 40
0.1249999999999983
 40
0.2499999999999966
 40
0.2499999999999966
 40
0.4999999999999968
 40
0.4999999999999968
 40
1.0
 40
1.0
 40
1.0
 40
1.0
 10
236.0189648440522
 20
35.47628146685203
 30
0.0
 10
236.043394192696
 20
35.46217870406572
 30
0.0
 10
236.0663727467621
 20
35.43489657420604
 30
0.0
 10
236.1032558602538
 20
35.37714317069954
 30
0.0
 10
236.1183810065707
 20
35.34599558902895
 30
0.0
 10
236.15809836703
 20
35.25315848747296
 30
0.0
 10
236.177560484919
 20
35.19120801765619
 30
0.0
 10
236.228428606113
 20
35.00529331215869
 30
0.0
 10
236.2507128335282
 20
34.88376066718541
 30
0.0
 10
236.2672742989868
 20
34.76553416073787
 30
0.0
  0
LINE
  5
218
330
1F
100
AcDbEntity
  8
0
  6
Continuous
 62
     7
370
    15
100
AcDbLine
 10
235.2340763169
 20
35.9293879689
 30
0.0
 11
236.0189648441
 21
35.4762814669
 31
0.0
  0
SPLINE
  5
219
330
1F
100
AcDbEntity
  8
0
  6
Continuous
 62
     7
370
    15
100
AcDbSpline
210
0.0
220
0.0
230
1.0
 70
     8
 71
     3
 72
    14
 73
    10
 74
     0
 42
0.000000001
 43
0.00000001
 40
0.0
 40
0.0
 40
0.0
 40
0.0
 40
0.5
 40
0.5
 40
0.75
 40
0.75
 40
0.875
 40
0.875
 40
1.0
 40
1.0
 40
1.0
 40
1.0
 10
234.9857668620006
 20
35.50533265705593
 30
0.0
 10
235.0023909434544
 20
35.60481240128605
 30
0.0
 10
235.0248083450587
 20
35.70064753468204
 30
0.0
 10
235.0752394029074
 20
35.82686348425568
 30
0.0
 10
235.0947740968386
 20
35.86669703294994
 30
0.0
 10
235.134717254174
 20
35.91395736442179
 30
0.0
 10
235.1497342213397
 20
35.92755997802705
 30
0.0
 10
235.1867955888613
 20
35.94278037960276
 30
0.0
 10
235.2097792512098
 20
35.94341436639663
 30
0.0
 10
235.2340763169352
 20
35.92938796891359
 30
0.0
  0
LINE
  5
21A
330
1F
100
AcDbEntity
  8
0
  6
Continuous
 62
     7
370
    15
100
AcDbLine
 10
233.841075958
 20
36.1661486501
 30
0.0
 11
234.985766862
 21
35.5053326571
 31
0.0
  0
ARC
  5
21B
330
1F
100
AcDbEntity
  8
0
  6
Continuous
 62
     7
370
    15
100
AcDbCircle
 10
237.1096873102
 20
41.3192686186
 30
0.0
 40
6.102332798378916
100
AcDbArc
 50
182.3868561234
 51
237.6131440222
  0
LINE
  5
21C
330
1F
100
AcDbEntity
  8
0
  6
Continuous
 62
     7
370
    15
100
AcDbLine
 10
231.0126488333
 20
41.8816689331
 30
0.0
 11
231.0126488333
 21
41.0651281213
 31
0.0
  0
ARC
  5
21D
330
1F
100
AcDbEntity
  8
0
  6
Continuous
 62
     7
370
    15
100
AcDbCircle
 10
233.6245455323
 20
41.9598220871
 30
0.0
 40
2.613065686505673
100
AcDbArc
 50
153.8428364781
 51
181.7138925212
  0
LINE
  5
21E
330
1F
100
AcDbEntity
  8
0
  6
Continuous
 62
     7
370
    15
100
AcDbLine
 10
255.5457960046
 20
43.1003811751
 30
0.0
 11
256.667655237
 21
42.4527456255
 31
0.0
  0
ARC
  5
21F
330
1F
100
AcDbEntity
  8
0
  6
Continuous
 62
     7
370
    15
100
AcDbCircle
 10
248.5638714446
 20
42.6021279157
 30
0.0
 40
5.621003968768701
100
AcDbArc
 50
337.80873577
 51
1.5245582493
  0
LINE
  5
220
330
1F
100
AcDbEntity
  8
0
  6
Continuous
 62
     7
370
    15
100
AcDbLine
 10
253.7685174342
 20
40.4790768705
 30
0.0
 11
256.667655237
 21
38.8054402412
 31
0.0
  0
LINE
  5
221
330
1F
100
AcDbEntity
  8
0
  6
Continuous
 62
     7
370
    15
100
AcDbLine
 10
249.4606974551
 20
36.5870738493
 30
0.0
 11
251.1428065113
 21
35.6160129607
 31
0.0
  0
LINE
  5
222
330
1F
100
AcDbEntity
  8
0
  6
Continuous
 62
     7
370
    15
100
AcDbLine
 10
251.2082528539
 20
35.5584143634
 30
0.0
 11
249.8393668823
 21
35.680813397
 31
0.0
  0
SPLINE
  5
223
330
1F
100
AcDbEntity
  8
0
  6
Continuous
 62
     7
370
    15
100
AcDbSpline
210
0.0
220
0.0
230
1.0
 70
     8
 71
     3
 72
    16
 73
    12
 74
     0
 42
0.000000001
 43
0.00000001
 40
0.0
 40
0.0
 40
0.0
 40
0.0
 40
0.2500000000000041
 40
0.2500000000000041
 40
0.5000000000000082
 40
0.5000000000000082
 40
0.6250000000000102
 40
0.6250000000000102
 40
0.7500000000000123
 40
0.7500000000000123
 40
1.0
 40
1.0
 40
1.0
 40
1.0
 10
251.1089548619728
 20
35.30972546629047
 30
0.0
 10
251.1345123473354
 20
35.30744024197311
 30
0.0
 10
251.1595118845214
 20
35.30779482390377
 30
0.0
 10
251.2069103030992
 20
35.31824913658862
 30
0.0
 10
251.2291623181781
 20
35.32802299132948
 30
0.0
 10
251.2527617620262
 20
35.35833538661744
 30
0.0
 10
251.2588344136788
 20
35.37134080125276
 30
0.0
 10
251.2640012638695
 20
35.40372809397249
 30
0.0
 10
251.2628469754229
 20
35.42293792972089
 30
0.0
 10
251.2496273797846
 20
35.48234786005847
 30
0.0
 10
251.2299171944735
 20
35.52201090208754
 30
0.0
 10
251.2082528539492
 20
35.55841436335701
 30
0.0
  0
SPLINE
  5
224
330
1F
100
AcDbEntity
  8
0
  6
Continuous
 62
     7
370
    15
100
AcDbSpline
210
0.0
220
0.0
230
1.0
 70
     8
 71
     3
 72
     8
 73
     4
 74
     0
 42
0.000000001
 43
0.00000001
 40
0.0
 40
0.0
 40
0.0
 40
0.0
 40
1.0
 40
1.0
 40
1.0
 40
1.0
 10
251.1428065113033
 20
35.616012960742
 30
0.0
 10
251.1828408110123
 20
35.592901651458
 30
0.0
 10
251.2024042517034
 20
35.57308636708682
 30
0.0
 10
251.2082528539488
 20
35.55841436335825
 30
0.0
  0
SPLINE
  5
225
330
1F
100
AcDbEntity
  8
0
  6
Continuous
 62
     7
370
    15
100
AcDbSpline
210
0.0
220
0.0
230
1.0
 70
     8
 71
     3
 72
     8
 73
     4
 74
     0
 42
0.000000001
 43
0.00000001
 40
0.0
 40
0.0
 40
0.0
 40
0.0
 40
1.0
 40
1.0
 40
1.0
 40
1.0
 10
256.6676552370287
 20
38.80544024123472
 30
0.0
 10
256.7076895367384
 20
38.7823289319503
 30
0.0
 10
256.7621864813892
 20
38.7826803301549
 30
0.0
 10
256.8143409287355
 20
38.79474012180084
 30
0.0
  0
SPLINE
  5
226
330
1F
100
AcDbEntity
  8
0
  6
Continuous
 62
     7
370
    15
100
AcDbSpline
210
0.0
220
0.0
230
1.0
 70
     8
 71
     3
 72
    16
 73
    12
 74
     0
 42
0.000000001
 43
0.00000001
 40
0.0
 40
0.0
 40
0.0
 40
0.0
 40
0.2500000000000075
 40
0.2500000000000075
 40
0.3750000000000104
 40
0.3750000000000104
 40
0.5000000000000134
 40
0.5000000000000134
 40
0.7500000000000067
 40
0.7500000000000067
 40
1.0
 40
1.0
 40
1.0
 40
1.0
 10
256.8143409287387
 20
38.79474012179938
 30
0.0
 10
256.8304089953695
 20
38.75545690521955
 30
0.0
 10
256.8526645625615
 20
38.71656606922455
 30
0.0
 10
256.9031809750775
 20
38.67902307829177
 30
0.0
 10
256.9227941844849
 20
38.6706406921102
 30
0.0
 10
256.9641206824597
 20
38.66498073544757
 30
0.0
 10
256.9851145524638
 20
38.66758122307058
 30
0.0
 10
257.0441910674556
 20
38.68499616249876
 30
0.0
 10
257.0793524836301
 20
38.70836223238787
 30
0.0
 10
257.1422433009165
 20
38.76125418447963
 30
0.0
 10
257.1706992927494
 20
38.79190688190035
 30
0.0
 10
257.1964816331924
 20
38.82397986830374
 30
0.0
  0
ARC
  5
227
330
1F
100
AcDbEntity
  8
0
  6
Continuous
 62
     7
370
    15
100
AcDbCircle
 10
242.4038374983
 20
33.7682481488
 30
0.0
 40
5.435496269275142
100
AcDbArc
 50
217.0870013773
 51
262.8503998712
  0
SPLINE
  5
228
330
1F
100
AcDbEntity
  8
0
  6
Continuous
 62
     7
370
    15
100
AcDbSpline
210
0.0
220
0.0
230
1.0
 70
     8
 71
     3
 72
    12
 73
     8
 74
     0
 42
0.000000001
 43
0.00000001
 40
0.0
 40
0.0
 40
0.0
 40
0.0
 40
0.2499999999999999
 40
0.2499999999999999
 40
0.4999999999999998
 40
0.4999999999999998
 40
1.0
 40
1.0
 40
1.0
 40
1.0
 10
236.8862604099484
 20
32.86236592191751
 30
0.0
 10
236.9145026100207
 20
32.84606204685348
 30
0.0
 10
236.9490487419262
 20
32.83310625344348
 30
0.0
 10
237.0237728016238
 20
32.81639451525094
 30
0.0
 10
237.0640631929255
 20
32.81250760646349
 30
0.0
 10
237.1851762103618
 20
32.81477100435278
 30
0.0
 10
237.2632937727797
 20
32.83510021577952
 30
0.0
 10
237.3199432455153
 20
32.86780326028587
 30
0.0
  0
ARC
  5
229
330
1F
100
AcDbEntity
  8
0
  6
Continuous
 62
     7
370
    15
100
AcDbCircle
 10
241.6861690362
 20
35.2984332043
 30
0.0
 40
6.409553223800227
100
AcDbArc
 50
194.716105919
 51
237.9533567894
  0
LINE
  5
22A
330
1F
100
AcDbEntity
  8
0
  6
Continuous
 62
     7
370
    15
100
AcDbLine
 10
235.4868723423
 20
33.6702154578
 30
0.0
 11
236.8862604099
 21
32.8623659219
 31
0.0
  0
SPLINE
  5
22B
330
1F
100
AcDbEntity
  8
0
  6
Continuous
 62
     7
370
    15
100
AcDbSpline
210
0.0
220
0.0
230
1.0
 70
     8
 71
     3
 72
     8
 73
     4
 74
     0
 42
0.000000001
 43
0.00000001
 40
0.0
 40
0.0
 40
0.0
 40
0.0
 40
1.0
 40
1.0
 40
1.0
 40
1.0
 10
235.9136635066237
 20
34.52152774497348
 30
0.0
 10
235.7704988099332
 20
34.23790569796648
 30
0.0
 10
235.6283101130806
 20
33.95412255198246
 30
0.0
 10
235.4868723423254
 20
33.67021545779537
 30
0.0
  0
LINE
  5
22C
330
1F
100
AcDbEntity
  8
0
  6
Continuous
 62
     7
370
    15
100
AcDbLine
 10
236.158832111
 20
34.6630605677
 30
0.0
 11
235.9136635066
 21
34.521527745
 31
0.0
  0
SPLINE
  5
22D
330
1F
100
AcDbEntity
  8
0
  6
Continuous
 62
     7
370
    15
100
AcDbSpline
210
0.0
220
0.0
230
1.0
 70
     8
 71
     3
 72
    10
 73
     6
 74
     0
 42
0.000000001
 43
0.00000001
 40
0.0
 40
0.0
 40
0.0
 40
0.0
 40
0.5
 40
0.5
 40
1.0
 40
1.0
 40
1.0
 40
1.0
 10
236.2672742989868
 20
34.76553416073786
 30
0.0
 10
236.2566214320168
 20
34.74625851353174
 30
0.0
 10
236.2418166688646
 20
34.72764713210669
 30
0.0
 10
236.2050308975337
 20
34.69301685787515
 30
0.0
 10
236.1834616769397
 20
34.67727891344006
 30
0.0
 10
236.1588321109898
 20
34.6630605676632
 30
0.0
  0
SPLINE
  5
22E
330
1F
100
AcDbEntity
  8
0
  6
Continuous
 62
     7
370
    15
100
AcDbSpline
210
0.0
220
0.0
230
1.0
 70
     8
 71
     3
 72
    14
 73
    10
 74
     0
 42
0.000000001
 43
0.00000001
 40
0.0
 40
0.0
 40
0.0
 40
0.0
 40
0.5000000000000002
 40
0.5000000000000002
 40
0.7500000000000002
 40
0.7500000000000002
 40
0.8750000000000001
 40
0.8750000000000001
 40
1.0
 40
1.0
 40
1.0
 40
1.0
 10
220.345965042308
 20
46.16059350787467
 30
0.0
 10
220.6611309861479
 20
45.93350551697881
 30
0.0
 10
220.9774066414138
 20
45.70365914193069
 30
0.0
 10
221.4562311299849
 20
45.34835053994156
 30
0.0
 10
221.6165511404089
 20
45.22821222574602
 30
0.0
 10
221.8596036763626
 20
45.04194339150222
 30
0.0
 10
221.9410471143792
 20
44.97885015027521
 30
0.0
 10
222.1057085634126
 20
44.84850490786307
 30
0.0
 10
222.1886145814788
 20
44.78198046588582
 30
0.0
 10
222.2746334095635
 20
44.70818699456226
 30
0.0
  0
SPLINE
  5
22F
330
1F
100
AcDbEntity
  8
0
  6
Continuous
 62
     7
370
    15
100
AcDbSpline
210
0.0
220
0.0
230
1.0
 70
     8
 71
     3
 72
     8
 73
     4
 74
     0
 42
0.000000001
 43
0.00000001
 40
0.0
 40
0.0
 40
0.0
 40
0.0
 40
1.0
 40
1.0
 40
1.0
 40
1.0
 10
222.2746334095635
 20
44.70818699456226
 30
0.0
 10
222.576285882801
 20
44.44940663648043
 30
0.0
 10
222.8815654263244
 20
44.20183162107575
 30
0.0
 10
223.1862249994511
 20
43.96085876450923
 30
0.0
  0
SPLINE
  5
230
330
1F
100
AcDbEntity
  8
0
  6
Continuous
 62
     7
370
    15
100
AcDbSpline
210
0.0
220
0.0
230
1.0
 70
     8
 71
     3
 72
    14
 73
    10
 74
     0
 42
0.000000001
 43
0.00000001
 40
0.0
 40
0.0
 40
0.0
 40
0.0
 40
0.1250000000000022
 40
0.1250000000000022
 40
0.2500000000000044
 40
0.2500000000000044
 40
0.500000000000003
 40
0.500000000000003
 40
1.0
 40
1.0
 40
1.0
 40
1.0
 10
223.1862249994512
 20
43.96085876450918
 30
0.0
 10
223.2054203753767
 20
43.94567603277298
 30
0.0
 10
223.2230324487771
 20
43.9343082142762
 30
0.0
 10
223.2488773786964
 20
43.92303974506376
 30
0.0
 10
223.257015742944
 20
43.9226562748267
 30
0.0
 10
223.2739658339121
 20
43.92843206752109
 30
0.0
 10
223.2761351064218
 20
43.94109749313913
 30
0.0
 10
223.2749595586072
 20
43.98553432018289
 30
0.0
 10
223.2628860380031
 20
44.02601759095634
 30
0.0
 10
223.248107809963
 20
44.07002126083883
 30
0.0
  0
SPLINE
  5
231
330
1F
100
AcDbEntity
  8
0
  6
Continuous
 62
     7
370
    15
100
AcDbSpline
210
0.0
220
0.0
230
1.0
 70
     8
 71
     3
 72
    14
 73
    10
 74
     0
 42
0.000000001
 43
0.00000001
 40
0.0
 40
0.0
 40
0.0
 40
0.0
 40
0.25
 40
0.25
 40
0.5
 40
0.5
 40
0.75
 40
0.75
 40
1.0
 40
1.0
 40
1.0
 40
1.0
 10
223.2481078099623
 20
44.07002126083953
 30
0.0
 10
223.2300515630158
 20
44.1237855638263
 30
0.0
 10
223.2271287649145
 20
44.16833617292335
 30
0.0
 10
223.2217150363712
 20
44.26059752276807
 30
0.0
 10
223.2201477583301
 20
44.30789192568832
 30
0.0
 10
223.210009358523
 20
44.4126529805161
 30
0.0
 10
223.2016943607788
 20
44.46991418755111
 30
0.0
 10
223.1728941861199
 20
44.59953554492553
 30
0.0
 10
223.1522407894494
 20
44.67232974453858
 30
0.0
 10
223.1235512722883
 20
44.75201644349834
 30
0.0
  0
ARC
  5
232
330
1F
100
AcDbEntity
  8
0
  6
Continuous
 62
     7
370
    15
100
AcDbCircle
 10
233.4785185496
 20
47.8385779414
 30
0.0
 40
10.80519362138017
100
AcDbArc
 50
163.4019732888
 51
196.5980267112
  0
SPLINE
  5
233
330
1F
100
AcDbEntity
  8
0
  6
Continuous
 62
     7
370
    15
100
AcDbSpline
210
0.0
220
0.0
230
1.0
 70
     8
 71
     3
 72
    14
 73
    10
 74
     0
 42
0.000000001
 43
0.00000001
 40
0.0
 40
0.0
 40
0.0
 40
0.0
 40
0.25
 40
0.25
 40
0.5
 40
0.5
 40
0.75
 40
0.75
 40
1.0
 40
1.0
 40
1.0
 40
1.0
 10
223.2481078099623
 20
52.38634445576252
 30
0.0
 10
223.2300515630158
 20
52.26550237681796
 30
0.0
 10
223.2271287649145
 20
52.14040811025185
 30
0.0
 10
223.2217150363712
 20
51.8924567996005
 30
0.0
 10
223.2201477583301
 20
51.76854817528674
 30
0.0
 10
223.210009358523
 20
51.52239243604653
 30
0.0
 10
223.2016943607788
 20
51.40010449418512
 30
0.0
 10
223.1728941861199
 20
51.15810731697634
 30
0.0
 10
223.1522407894494
 20
51.03795034979674
 30
0.0
 10
223.1235512722883
 20
50.92513943939147
 30
0.0
  0
SPLINE
  5
234
330
1F
100
AcDbEntity
  8
0
  6
Continuous
 62
     7
370
    15
100
AcDbSpline
210
0.0
220
0.0
230
1.0
 70
     8
 71
     3
 72
    14
 73
    10
 74
     0
 42
0.000000001
 43
0.00000001
 40
0.0
 40
0.0
 40
0.0
 40
0.0
 40
0.125
 40
0.125
 40
0.25
 40
0.25
 40
0.5
 40
0.5
 40
1.0
 40
1.0
 40
1.0
 40
1.0
 10
223.1862249994513
 20
52.93163002005654
 30
0.0
 10
223.2054203753768
 20
52.92934321208271
 30
0.0
 10
223.2230324487772
 20
52.9178449728099
 30
0.0
 10
223.2488773786964
 20
52.88115347028338
 30
0.0
 10
223.257015742944
 20
52.8580720551813
 30
0.0
 10
223.2739658339121
 20
52.78673953610421
 30
0.0
 10
223.2761351064218
 20
52.73549543049614
 30
0.0
 10
223.2749595586072
 20
52.58545995073455
 30
0.0
 10
223.2628860380031
 20
52.48524827585148
 30
0.0
 10
223.248107809963
 20
52.38634445576285
 30
0.0
  0
SPLINE
  5
235
330
1F
100
AcDbEntity
  8
0
  6
Continuous
 62
     7
370
    15
100
AcDbSpline
210
0.0
220
0.0
230
1.0
 70
     8
 71
     3
 72
     8
 73
     4
 74
     0
 42
0.000000001
 43
0.00000001
 40
0.0
 40
0.0
 40
0.0
 40
0.0
 40
1.0
 40
1.0
 40
1.0
 40
1.0
 10
222.2746334095635
 20
52.98384283119263
 30
0.0
 10
222.5762858828011
 20
52.99118907833574
 30
0.0
 10
222.8815654263246
 20
52.9679251123658
 30
0.0
 10
223.1862249994513
 20
52.93163002005654
 30
0.0
  0
SPLINE
  5
236
330
1F
100
AcDbEntity
  8
0
  6
Continuous
 62
     7
370
    15
100
AcDbSpline
210
0.0
220
0.0
230
1.0
 70
     8
 71
     3
 72
    14
 73
    10
 74
     0
 42
0.000000001
 43
0.00000001
 40
0.0
 40
0.0
 40
0.0
 40
0.0
 40
0.5000000000000002
 40
0.5000000000000002
 40
0.7500000000000002
 40
0.7500000000000002
 40
0.8750000000000001
 40
0.8750000000000001
 40
1.0
 40
1.0
 40
1.0
 40
1.0
 10
220.345965042308
 20
53.61648217617761
 30
0.0
 10
220.6611309861479
 20
53.4790976824515
 30
0.0
 10
220.9774066414138
 20
53.34752417482034
 30
0.0
 10
221.4562311299849
 20
53.17262870829958
 30
0.0
 10
221.6165511404089
 20
53.11795755803507
 30
0.0
 10
221.8596036763626
 20
53.04892574231501
 30
0.0
 10
221.9410471143792
 20
53.02806345780622
 30
0.0
 10
222.1057085634126
 20
52.99525574437658
 30
0.0
 10
222.1886145814788
 20
52.98174798488393
 30
0.0
 10
222.2746334095635
 20
52.98384283119263
 30
0.0
  0
SPLINE
  5
237
330
1F
100
AcDbEntity
  8
0
  6
Continuous
 62
     7
370
    15
100
AcDbSpline
210
0.0
220
0.0
230
1.0
 70
     8
 71
     3
 72
     8
 73
     4
 74
     0
 42
0.000000001
 43
0.00000001
 40
0.0000005163856998
 40
0.0000005163856998
 40
0.0000005163856998
 40
0.0000005163856998
 40
0.000026289209185
 40
0.000026289209185
 40
0.000026289209185
 40
0.000026289209185
 10
220.3459434552888
 20
53.62936128736879
 30
0.0
 10
220.3459411541295
 20
53.62506845234227
 30
0.0
 10
220.3459484004538
 20
53.62077538466674
 30
0.0
 10
220.345965042308
 20
53.61648217617761
 30
0.0
  0
SPLINE
  5
238
330
1F
100
AcDbEntity
  8
0
  6
Continuous
 62
     7
370
    15
100
AcDbSpline
210
0.0
220
0.0
230
1.0
 70
     8
 71
     3
 72
     8
 73
     4
 74
     0
 42
0.000000001
 43
0.00000001
 40
0.000000516385691
 40
0.000000516385691
 40
0.000000516385691
 40
0.000000516385691
 40
0.0000262892091854
 40
0.0000262892091854
 40
0.0000262892091854
 40
0.0000262892091854
 10
220.3459434552888
 20
46.15589023550736
 30
0.0
 10
220.3459411541295
 20
46.15746362120562
 30
0.0
 10
220.3459484004538
 20
46.15903135113835
 30
0.0
 10
220.345965042308
 20
46.16059350787468
 30
0.0
  0
SPLINE
  5
239
330
1F
100
AcDbEntity
  8
0
  6
Continuous
 62
     7
370
    15
100
AcDbSpline
210
0.0
220
0.0
230
1.0
 70
     8
 71
     3
 72
    17
 73
    13
 74
     0
 42
0.000000001
 43
0.00000001
 40
0.0
 40
0.0
 40
0.0
 40
0.0
 40
0.1261345980641453
 40
0.2529580304069202
 40
0.3797583073058594
 40
0.5058371042907098
 40
0.6308403234703771
 40
0.6937181664815503
 40
0.7557825430575702
 40
0.8177579439887048
 40
0.8810341755123877
 40
1.0
 40
1.0
 40
1.0
 40
1.0
 10
226.0348117537426
 20
44.28291912025277
 30
0.0
 10
225.9017650871046
 20
44.52785394601804
 30
0.0
 10
225.6349451720178
 20
45.0190612123395
 30
0.0
 10
225.5102484629581
 20
45.77108146426178
 30
0.0
 10
225.6460821632816
 20
46.39577180328521
 30
0.0
 10
226.0131290520885
 20
46.81262497541281
 30
0.0
 10
226.4558583028494
 20
46.90664491600155
 30
0.0
 10
226.8319012651277
 20
46.82462637871759
 30
0.0
 10
227.1146752538438
 20
46.68257775386247
 30
0.0
 10
227.384980592166
 20
46.46503602092066
 30
0.0
 10
227.7130420488306
 20
46.1012222043543
 30
0.0
 10
227.8973344294615
 20
45.74367639267301
 30
0.0
 10
228.0176386857259
 20
45.51027399802421
 30
0.0
  0
SPLINE
  5
23A
330
1F
100
AcDbEntity
  8
0
  6
Continuous
 62
     7
370
    15
100
AcDbSpline
210
0.0
220
0.0
230
1.0
 70
     8
 71
     3
 72
    12
 73
     8
 74
     0
 42
0.000000001
 43
0.00000001
 40
0.0
 40
0.0
 40
0.0
 40
0.0
 40
0.1557451538487644
 40
0.32347333943488
 40
0.4913265890520163
 40
0.6616028968654707
 40
1.0
 40
1.0
 40
1.0
 40
1.0
 10
227.6010301030853
 20
42.95352323284183
 30
0.0
 10
227.5261525215242
 20
42.9729626383138
 30
0.0
 10
227.370636277469
 20
43.01333711706484
 30
0.0
 10
227.1052358394381
 20
43.15951289853397
 30
0.0
 10
226.8238047299279
 20
43.3668577657141
 30
0.0
 10
226.443622728486
 20
43.71606583928513
 30
0.0
 10
226.1981280860702
 20
44.05646629844782
 30
0.0
 10
226.0348117537426
 20
44.28291912025277
 30
0.0
  0
SPLINE
  5
23B
330
1F
100
AcDbEntity
  8
0
  6
Continuous
 62
     7
370
    15
100
AcDbSpline
210
0.0
220
0.0
230
1.0
 70
     8
 71
     3
 72
    22
 73
    18
 74
     0
 42
0.000000001
 43
0.00000001
 40
0.0
 40
0.0
 40
0.0
 40
0.0
 40
0.125
 40
0.125
 40
0.2500000000000001
 40
0.2500000000000001
 40
0.3750000000000001
 40
0.3750000000000001
 40
0.5000000000000001
 40
0.5000000000000001
 40
0.6250000000000001
 40
0.6250000000000001
 40
0.7500000000000002
 40
0.7500000000000002
 40
0.8750000000000001
 40
0.8750000000000001
 40
1.0
 40
1.0
 40
1.0
 40
1.0
 10
258.1832269003446
 20
40.49762125672463
 30
0.0
 10
258.2506562582728
 20
40.58150273694837
 30
0.0
 10
258.3115890124976
 20
40.67069540572052
 30
0.0
 10
258.4193862820629
 20
40.86022163385937
 30
0.0
 10
258.4659943117955
 20
40.96016992759175
 30
0.0
 10
258.5398672160387
 20
41.15967480848592
 30
0.0
 10
258.5680519287441
 20
41.26204719607756
 30
0.0
 10
258.6041742793164
 20
41.45859578105127
 30
0.0
 10
258.6126242685338
 20
41.55443657005618
 30
0.0
 10
258.6103517598991
 20
41.73458820068002
 30
0.0
 10
258.5998986073437
 20
41.81695255756397
 30
0.0
 10
258.5609440225176
 20
41.96596583609512
 30
0.0
 10
258.5326058625241
 20
42.03091521273125
 30
0.0
 10
258.4599286870366
 20
42.13800526975097
 30
0.0
 10
258.4147170840944
 20
42.18092653331783
 30
0.0
 10
258.3106444366829
 20
42.2411482301179
 30
0.0
 10
258.2506633161884
 20
42.25945414329431
 30
0.0
 10
258.1832268962104
 20
42.26548397491084
 30
0.0
  0
LINE
  5
23C
330
1F
100
AcDbEntity
  8
0
  6
Continuous
 62
     7
370
    15
100
AcDbLine
 10
258.1832268962
 20
42.2654839749
 30
0.0
 11
256.8143409287
 21
42.3878830061
 31
0.0
  0
ARC
  5
23D
330
1F
100
AcDbEntity
  8
0
  6
Continuous
 62
     7
370
    15
100
AcDbCircle
 10
240.8584413497
 20
37.360228312
 30
0.0
 40
6.623523393473014
100
AcDbArc
 50
198.1114510494
 51
217.3575801744
  0
SPLINE
  5
23E
330
1F
100
AcDbEntity
  8
0
  6
Continuous
 62
     7
370
    15
100
AcDbSpline
210
0.0
220
0.0
230
1.0
 70
     8
 71
     3
 72
     8
 73
     4
 74
     0
 42
0.000000001
 43
0.00000001
 40
0.0
 40
0.0
 40
0.0
 40
0.0
 40
1.0
 40
1.0
 40
1.0
 40
1.0
 10
233.0884136358503
 20
35.05481619698809
 30
0.0
 10
233.5802084346022
 20
35.13646648406984
 30
0.0
 10
234.0717885255049
 20
35.21855027156028
 30
0.0
 10
234.5630895545574
 20
35.30119749176416
 30
0.0
  0
LINE
  5
23F
330
1F
100
AcDbEntity
  8
0
  6
Continuous
 62
     7
370
    15
100
AcDbLine
 10
234.5630895546
 20
35.3011974918
 30
0.0
 11
234.8082581589
 21
35.4427303145
 31
0.0
  0
SPLINE
  5
240
330
1F
100
AcDbEntity
  8
0
  6
Continuous
 62
     7
370
    15
100
AcDbSpline
210
0.0
220
0.0
230
1.0
 70
     8
 71
     3
 72
    10
 73
     6
 74
     0
 42
0.000000001
 43
0.00000001
 40
0.0
 40
0.0
 40
0.0
 40
0.0
 40
0.5
 40
0.5
 40
1.0
 40
1.0
 40
1.0
 40
1.0
 10
234.8082581589236
 20
35.44273031445394
 30
0.0
 10
234.8330904622755
 20
35.45706569804178
 30
0.0
 10
234.8607654597689
 20
35.46966113817787
 30
0.0
 10
234.9208904692235
 20
35.49085903631814
 30
0.0
 10
234.9525848694182
 20
35.4992212019848
 30
0.0
 10
234.9857668619999
 20
35.50533265705604
 30
0.0
  0
ARC
  5
241
330
1F
100
AcDbEntity
  8
0
  6
Continuous
 62
     7
370
    15
100
AcDbCircle
 10
253.5661235602
 20
43.5347140237
 30
0.0
 40
2.072199650650806
100
AcDbArc
 50
321.0658596266
 51
347.226892773
  0
SPLINE
  5
242
330
1F
100
AcDbEntity
  8
0
  6
Continuous
 62
     7
370
    15
100
AcDbSpline
210
0.0
220
0.0
230
1.0
 70
     8
 71
     3
 72
    20
 73
    16
 74
     0
 42
0.000000001
 43
0.00000001
 40
0.0
 40
0.0
 40
0.0
 40
0.0
 40
0.02843800551852
 40
0.0964570363655866
 40
0.1610218407027443
 40
0.292364270733429
 40
0.3592971951829818
 40
0.4236783045157132
 40
0.5545785595953259
 40
0.6212414435082005
 40
0.6865049004809088
 40
0.8192051642267264
 40
0.8867960755093217
 40
0.9526873454937002
 40
1.0
 40
1.0
 40
1.0
 40
1.0
 10
227.0429446239519
 20
46.63535723181781
 30
0.0
 10
227.0385966756383
 20
46.61919447622727
 30
0.0
 10
227.023849150242
 20
46.56437306820866
 30
0.0
 10
227.0182198346235
 20
46.46198911598298
 30
0.0
 10
227.0161415970541
 20
46.29225853091319
 30
0.0
 10
227.0379615475613
 20
46.11385511096698
 30
0.0
 10
227.0803221398649
 20
45.93223678655635
 30
0.0
 10
227.1362934583702
 20
45.74934938468807
 30
0.0
 10
227.211700790699
 20
45.56581251787883
 30
0.0
 10
227.3046200681434
 20
45.38486597269458
 30
0.0
 10
227.4088946503333
 20
45.20570387386967
 30
0.0
 10
227.5284447368585
 20
45.03154828309502
 30
0.0
 10
227.6598050441874
 20
44.86686895217101
 30
0.0
 10
227.7530807210653
 20
44.75904642822378
 30
0.0
 10
227.8142099714827
 20
44.69599460440306
 30
0.0
 10
227.839758441805
 20
44.66964261024878
 30
0.0
  0
LINE
  5
243
330
1F
100
AcDbEntity
  8
0
  6
Continuous
 62
     7
370
    15
100
AcDbLine
 10
256.8143409287
 20
38.7947401218
 30
0.0
 11
258.1832269003
 21
40.4976212567
 31
0.0
  0
LINE
  5
244
330
1F
100
AcDbEntity
  8
0
  6
Continuous
 62
     7
370
    15
100
AcDbLine
 10
253.7685174342
 20
40.4790768705
 30
0.0
 11
255.1780230803
 21
42.2324884943
 31
0.0
  0
LINE
  5
245
330
1F
100
AcDbEntity
  8
0
  6
Continuous
 62
     7
370
    15
100
AcDbLine
 10
254.7120037897
 20
56.5810474287
 30
0.0
 11
254.807012105
 21
56.60209595
 31
0.0
  0
LINE
  5
246
330
1F
100
AcDbEntity
  8
0
  6
Continuous
 62
     7
370
    15
100
AcDbLine
 10
254.807012105
 20
56.60209595
 30
0.0
 11
256.2064001726
 21
55.7942464141
 31
0.0
  0
SPLINE
  5
247
330
1F
100
AcDbEntity
  8
0
  6
Continuous
 62
     7
370
    15
100
AcDbSpline
210
0.0
220
0.0
230
1.0
 70
     8
 71
     3
 72
    12
 73
     8
 74
     0
 42
0.000000001
 43
0.00000001
 40
0.0
 40
0.0
 40
0.0
 40
0.0
 40
0.250000000000002
 40
0.250000000000002
 40
0.500000000000004
 40
0.500000000000004
 40
1.0
 40
1.0
 40
1.0
 40
1.0
 10
256.2064001726154
 20
55.79424641413235
 30
0.0
 10
256.238644143488
 20
55.77563236595874
 30
0.0
 10
256.2606971460216
 20
55.75138204316132
 30
0.0
 10
256.2815460901866
 20
55.70079418527379
 30
0.0
 10
256.2811649209593
 20
55.67395561683972
 30
0.0
 10
256.255411988062
 20
55.59672150057091
 30
0.0
 10
256.2074605609533
 20
55.54993612974307
 30
0.0
 10
256.143560511818
 20
55.5130474165756
 30
0.0
  0
SPLINE
  5
248
330
1F
100
AcDbEntity
  8
0
  6
Continuous
 62
     7
370
    15
100
AcDbSpline
210
0.0
220
0.0
230
1.0
 70
     8
 71
     3
 72
    11
 73
     7
 74
     0
 42
0.000000001
 43
0.00000001
 40
0.0
 40
0.0
 40
0.0
 40
0.0
 40
0.2042706383305347
 40
0.3926843736951194
 40
0.7211118967202923
 40
1.0
 40
1.0
 40
1.0
 40
1.0
 10
226.3260811057115
 20
44.46584220217161
 30
0.0
 10
226.4057007135069
 20
44.35125696293854
 30
0.0
 10
226.5587593032116
 20
44.13098138505476
 30
0.0
 10
226.8825103100915
 20
43.78015628697942
 30
0.0
 10
227.2668156491949
 20
43.46287272950529
 30
0.0
 10
227.520474734639
 20
43.35530685770095
 30
0.0
 10
227.6369586486947
 20
43.30591105646385
 30
0.0
  0
SPLINE
  5
249
330
1F
100
AcDbEntity
  8
0
  6
Continuous
 62
     7
370
    15
100
AcDbSpline
210
0.0
220
0.0
230
1.0
 70
     8
 71
     3
 72
    16
 73
    12
 74
     0
 42
0.000000001
 43
0.00000001
 40
0.0
 40
0.0
 40
0.0
 40
0.0
 40
0.1460145433272634
 40
0.2335492811860072
 40
0.328284659647779
 40
0.4359414636891987
 40
0.5278790605354984
 40
0.6640995323892502
 40
0.8013223013367583
 40
0.893041357694521
 40
1.0
 40
1.0
 40
1.0
 40
1.0
 10
227.2656885740076
 20
46.54781112412091
 30
0.0
 10
227.1188279677281
 20
46.6212820238131
 30
0.0
 10
226.8839254145335
 20
46.73879823432333
 30
0.0
 10
226.5670743247675
 20
46.72882829987897
 30
0.0
 10
226.3139451662549
 20
46.64109295686274
 30
0.0
 10
226.105221891397
 20
46.45930074160543
 30
0.0
 10
225.9421909753751
 20
46.16743536658641
 30
0.0
 10
225.8651631695934
 20
45.75755199222562
 30
0.0
 10
225.9405625104834
 20
45.29298282948095
 30
0.0
 10
226.0993050481407
 20
44.85103816295847
 30
0.0
 10
226.2467199304394
 20
44.60064304704736
 30
0.0
 10
226.3260811057115
 20
44.46584220217161
 30
0.0
  0
SPLINE
  5
24A
330
1F
100
AcDbEntity
  8
0
  6
Continuous
 62
     7
370
    15
100
AcDbSpline
210
0.0
220
0.0
230
1.0
 70
     8
 71
     3
 72
    13
 73
     9
 74
     0
 42
0.000000001
 43
0.00000001
 40
0.0
 40
0.0
 40
0.0
 40
0.0
 40
0.1648371875494379
 40
0.3335451188611306
 40
0.5157544609383065
 40
0.7034559658551527
 40
0.8819289083980497
 40
1.0
 40
1.0
 40
1.0
 40
1.0
 10
258.3233897209792
 20
51.93343172304643
 30
0.0
 10
258.3342572313176
 20
51.9402742714975
 30
0.0
 10
258.3562474453066
 20
51.95412004665513
 30
0.0
 10
258.3826395786627
 20
51.97897583379459
 30
0.0
 10
258.4031948900931
 20
52.00698160560562
 30
0.0
 10
258.4148361418942
 20
52.03717590670925
 30
0.0
 10
258.4182771160756
 20
52.06456399308759
 30
0.0
 10
258.4138578441739
 20
52.08107053481861
 30
0.0
 10
258.4120982800031
 20
52.08764273043325
 30
0.0
  0
LINE
  5
24B
330
1F
100
AcDbEntity
  8
0
  6
Continuous
 62
     7
370
    15
100
AcDbLine
 10
252.4085533985
 20
57.9866966892
 30
0.0
 11
252.268516592
 21
57.7760440764
 31
0.0
  0
LINE
  5
24C
330
1F
100
AcDbEntity
  8
0
  6
Continuous
 62
     7
370
    15
100
AcDbLine
 10
222.1857208886
 20
48.3355747105
 30
0.0
 11
222.6861037229
 21
48.0467098489
 31
0.0
  0
SPLINE
  5
24D
330
1F
100
AcDbEntity
  8
0
  6
Continuous
 62
     7
370
    15
100
AcDbSpline
210
0.0
220
0.0
230
1.0
 70
     8
 71
     3
 72
    10
 73
     6
 74
     0
 42
0.000000001
 43
0.00000001
 40
0.0
 40
0.0
 40
0.0
 40
0.0
 40
0.0840381716605808
 40
0.7011125076932897
 40
1.0
 40
1.0
 40
1.0
 40
1.0
 10
220.347630568779
 20
54.08915365566032
 30
0.0
 10
220.3470892539657
 20
54.09559962912417
 30
0.0
 10
220.3425731801541
 20
54.14937700826574
 30
0.0
 10
220.3569119066127
 20
54.2321770105068
 30
0.0
 10
220.3774607098282
 20
54.31380559489529
 30
0.0
 10
220.3841659895385
 20
54.34044181720671
 30
0.0
  0
SPLINE
  5
24E
330
1F
100
AcDbEntity
  8
0
  6
Continuous
 62
     7
370
    15
100
AcDbSpline
210
0.0
220
0.0
230
1.0
 70
     8
 71
     3
 72
    10
 73
     6
 74
     0
 42
0.000000001
 43
0.00000001
 40
0.0
 40
0.0
 40
0.0
 40
0.0
 40
0.5
 40
0.5
 40
1.0
 40
1.0
 40
1.0
 40
1.0
 10
220.4004023925069
 20
54.14530346649045
 30
0.0
 10
220.3804763420102
 20
54.06134299247244
 30
0.0
 10
220.3671820778692
 20
53.97589712995867
 30
0.0
 10
220.3499135517285
 20
53.8034836590214
 30
0.0
 10
220.3459900971065
 20
53.71637205275508
 30
0.0
 10
220.3459434552888
 20
53.6293612873688
 30
0.0
  0
SPLINE
  5
24F
330
1F
100
AcDbEntity
  8
0
  6
Continuous
 62
     7
370
    15
100
AcDbSpline
210
0.0
220
0.0
230
1.0
 70
     8
 71
     3
 72
    24
 73
    20
 74
     0
 42
0.000000001
 43
0.00000001
 40
0.0
 40
0.0
 40
0.0
 40
0.0
 40
0.249999999999999
 40
0.249999999999999
 40
0.3749999999999983
 40
0.3749999999999983
 40
0.4374999999999987
 40
0.4374999999999987
 40
0.4687499999999975
 40
0.4687499999999975
 40
0.4999999999999963
 40
0.4999999999999963
 40
0.5624999999999984
 40
0.5624999999999984
 40
0.6250000000000006
 40
0.6250000000000006
 40
0.7500000000000001
 40
0.7500000000000001
 40
1.0
 40
1.0
 40
1.0
 40
1.0
 10
220.3841659895385
 20
54.34044181720671
 30
0.0
 10
220.4140070188237
 20
54.44772087376295
 30
0.0
 10
220.4438365588647
 20
54.55360544713363
 30
0.0
 10
220.488507715736
 20
54.70355349038392
 30
0.0
 10
220.5034605078278
 20
54.75255375314686
 30
0.0
 10
220.5250436461171
 20
54.8157040350496
 30
0.0
 10
220.5321733576468
 20
54.83534421927812
 30
0.0
 10
220.5410249829482
 20
54.85305414876611
 30
0.0
 10
220.5436630802181
 20
54.85677051525179
 30
0.0
 10
220.5468156182631
 20
54.85462216686959
 30
0.0
 10
220.5471955793999
 20
54.84845975780299
 30
0.0
 10
220.5451856541391
 20
54.81981467445025
 30
0.0
 10
220.5406090125407
 20
54.79151366946207
 30
0.0
 10
220.5306776264343
 20
54.73513465931278
 30
0.0
 10
220.5249874406993
 20
54.70566491135673
 30
0.0
 10
220.5074058400807
 20
54.6178104907904
 30
0.0
 10
220.4947249671524
 20
54.55858549774108
 30
0.0
 10
220.4554839035321
 20
54.38009219061129
 30
0.0
 10
220.4281804434955
 20
54.26234915643757
 30
0.0
 10
220.4004023925069
 20
54.14530346649047
 30
0.0
  0
ARC
  5
250
330
1F
100
AcDbEntity
  8
0
  6
Continuous
 62
     7
370
    15
100
AcDbCircle
 10
221.0630804295
 20
53.5506940326
 30
0.0
 40
0.7201267655271361
100
AcDbArc
 50
174.7583590299
 51
234.4349468916
  0
ARC
  5
251
330
1F
100
AcDbEntity
  8
0
  6
Continuous
 62
     7
370
    15
100
AcDbCircle
 10
222.5584143746
 20
46.0507976553
 30
0.0
 40
2.215172042338734
100
AcDbArc
 50
122.6235698331
 51
177.1589486026
  0
LINE
  5
252
330
1F
100
AcDbEntity
  8
0
  6
Continuous
 62
     7
370
    15
100
AcDbLine
 10
221.364176804
 20
47.9164835351
 30
0.0
 11
222.1082634348
 21
48.3460356038
 31
0.0
  0
SPLINE
  5
253
330
1F
100
AcDbEntity
  8
0
  6
Continuous
 62
     7
370
    15
100
AcDbSpline
210
0.0
220
0.0
230
1.0
 70
     8
 71
     3
 72
     8
 73
     4
 74
     0
 42
0.000000001
 43
0.00000001
 40
0.0
 40
0.0
 40
0.0
 40
0.0
 40
0.0001590976953043
 40
0.0001590976953043
 40
0.0001590976953043
 40
0.0001590976953043
 10
222.1857208885947
 20
48.33557471048472
 30
0.0
 10
222.1599007590352
 20
48.3390592599456
 30
0.0
 10
222.1340816144889
 20
48.3425462426821
 30
0.0
 10
222.1082634348389
 20
48.34603560380049
 30
0.0
  0
SPLINE
  5
254
330
1F
100
AcDbEntity
  8
0
  6
Continuous
 62
     7
370
    15
100
AcDbSpline
210
0.0
220
0.0
230
1.0
 70
     8
 71
     3
 72
    10
 73
     6
 74
     0
 42
0.000000001
 43
0.00000001
 40
0.0
 40
0.0
 40
0.0
 40
0.0
 40
0.5
 40
0.5
 40
1.0
 40
1.0
 40
1.0
 40
1.0
 10
220.4004023925069
 20
45.96064785078649
 30
0.0
 10
220.3804763420103
 20
45.99916941230283
 30
0.0
 10
220.3671820778694
 20
46.03113273949641
 30
0.0
 10
220.3499135517287
 20
46.09357616299433
 30
0.0
 10
220.3459900971066
 20
46.12399954020711
 30
0.0
 10
220.3459434552888
 20
46.15589023550735
 30
0.0
  0
LINE
  5
255
330
1F
100
AcDbEntity
  8
0
  6
Continuous
 62
     7
370
    15
100
AcDbLine
 10
220.3563100212
 20
46.757760412
 30
0.0
 11
220.3476305688
 21
46.6176544828
 31
0.0
  0
ARC
  5
256
330
1F
100
AcDbEntity
  8
0
  6
Continuous
 62
     7
370
    15
100
AcDbCircle
 10
221.6930356199
 20
46.5454552701
 30
0.0
 40
1.353480254557366
100
AcDbArc
 50
122.9135798094
 51
170.9753897871
  0
LINE
  5
257
330
1F
100
AcDbEntity
  8
0
  6
Continuous
 62
     7
370
    15
100
AcDbLine
 10
221.364176804
 20
47.9164835351
 30
0.0
 11
220.9575904048
 21
47.6816899004
 31
0.0
  0
LINE
  5
258
330
1F
100
AcDbEntity
  8
0
  6
Continuous
 62
     7
370
    15
100
AcDbLine
 10
220.4557155738
 20
45.8646571759
 30
0.0
 11
220.4004023925
 21
45.9606478508
 31
0.0
  0
OLE2FRAME
  5
259
330
1F
100
AcDbEntity
  8
0
100
AcDbOle2Frame
 70
     2
  3
Paintbrush-Bild
 10
13.8511154363
 20
38.264191557
 30
0.0
 11
51.6290888628
 21
31.9806341108
 31
0.0
 71
     2
 72
     0
 73
     1
 90
    12928
310
80552BED0767C5B32B40DDAF6807D121434000000000000000006FFBDDFB85D0
310
4940DDAF6807D121434000000000000000006FFBDDFB85D04940416F4BD60AFB
310
3F4000000000000000002BED0767C5B32B40416F4BD60AFB3F40000000000000
310
0000000000000100000000010000010000000100000000000100000000320000
310
D0CF11E0A1B11AE1000000000000000000000000000000003E000300FEFF0900
310
0600000000000000000000000100000001000000000000000010000002000000
310
01000000FEFFFFFF0000000000000000FFFFFFFFFFFFFFFFFFFFFFFFFFFFFFFF
310
FFFFFFFFFFFFFFFFFFFFFFFFFFFFFFFFFFFFFFFFFFFFFFFFFFFFFFFFFFFFFFFF
310
FFFFFFFFFFFFFFFFFFFFFFFFFFFFFFFFFFFFFFFFFFFFFFFFFFFFFFFFFFFFFFFF
310
FFFFFFFFFFFFFFFFFFFFFFFFFFFFFFFFFFFFFFFFFFFFFFFFFFFFFFFFFFFFFFFF
310
FFFFFFFFFFFFFFFFFFFFFFFFFFFFFFFFFFFFFFFFFFFFFFFFFFFFFFFFFFFFFFFF
310
FFFFFFFFFFFFFFFFFFFFFFFFFFFFFFFFFFFFFFFFFFFFFFFFFFFFFFFFFFFFFFFF
310
FFFFFFFFFFFFFFFFFFFFFFFFFFFFFFFFFFFFFFFFFFFFFFFFFFFFFFFFFFFFFFFF
310
FFFFFFFFFFFFFFFFFFFFFFFFFFFFFFFFFFFFFFFFFFFFFFFFFFFFFFFFFFFFFFFF
310
FFFFFFFFFFFFFFFFFFFFFFFFFFFFFFFFFFFFFFFFFFFFFFFFFFFFFFFFFFFFFFFF
310
FFFFFFFFFFFFFFFFFFFFFFFFFFFFFFFFFFFFFFFFFFFFFFFFFFFFFFFFFFFFFFFF
310
FFFFFFFFFFFFFFFFFFFFFFFFFFFFFFFFFFFFFFFFFFFFFFFFFFFFFFFFFFFFFFFF
310
FFFFFFFFFFFFFFFFFFFFFFFFFFFFFFFFFFFFFFFFFFFFFFFFFFFFFFFFFFFFFFFF
310
FFFFFFFFFFFFFFFFFFFFFFFFFFFFFFFFFFFFFFFFFFFFFFFFFFFFFFFFFFFFFFFF
310
FFFFFFFFFFFFFFFFFFFFFFFFFFFFFFFFFFFFFFFFFFFFFFFFFFFFFFFFFFFFFFFF
310
FDFFFFFFFEFFFFFFFEFFFFFFFEFFFFFF05000000060000000700000008000000
310
090000000A0000000B0000000C0000000D0000000E0000000F00000010000000
310
11000000120000001300000014000000150000001600000017000000FEFFFFFF
310
FFFFFFFFFFFFFFFFFFFFFFFFFFFFFFFFFFFFFFFFFFFFFFFFFFFFFFFFFFFFFFFF
310
FFFFFFFFFFFFFFFFFFFFFFFFFFFFFFFFFFFFFFFFFFFFFFFFFFFFFFFFFFFFFFFF
310
FFFFFFFFFFFFFFFFFFFFFFFFFFFFFFFFFFFFFFFFFFFFFFFFFFFFFFFFFFFFFFFF
310
FFFFFFFFFFFFFFFFFFFFFFFFFFFFFFFFFFFFFFFFFFFFFFFFFFFFFFFFFFFFFFFF
310
FFFFFFFFFFFFFFFFFFFFFFFFFFFFFFFFFFFFFFFFFFFFFFFFFFFFFFFFFFFFFFFF
310
FFFFFFFFFFFFFFFFFFFFFFFFFFFFFFFFFFFFFFFFFFFFFFFFFFFFFFFFFFFFFFFF
310
FFFFFFFFFFFFFFFFFFFFFFFFFFFFFFFFFFFFFFFFFFFFFFFFFFFFFFFFFFFFFFFF
310
FFFFFFFFFFFFFFFFFFFFFFFFFFFFFFFFFFFFFFFFFFFFFFFFFFFFFFFFFFFFFFFF
310
FFFFFFFFFFFFFFFFFFFFFFFFFFFFFFFFFFFFFFFFFFFFFFFFFFFFFFFFFFFFFFFF
310
FFFFFFFFFFFFFFFFFFFFFFFFFFFFFFFFFFFFFFFFFFFFFFFFFFFFFFFFFFFFFFFF
310
FFFFFFFFFFFFFFFFFFFFFFFFFFFFFFFFFFFFFFFFFFFFFFFFFFFFFFFFFFFFFFFF
310
FFFFFFFFFFFFFFFFFFFFFFFFFFFFFFFFFFFFFFFFFFFFFFFFFFFFFFFFFFFFFFFF
310
FFFFFFFFFFFFFFFFFFFFFFFFFFFFFFFFFFFFFFFFFFFFFFFFFFFFFFFFFFFFFFFF
310
52006F006F007400200045006E00740072007900000000000000000000000000
310
0000000000000000000000000000000000000000000000000000000000000000
310
16000500FFFFFFFFFFFFFFFF020000000A00030000000000C000000000000046
310
000000000000000000000000D090393ED91FD20103000000C000000000000000
310
01004F006C006500000000000000000000000000000000000000000000000000
310
0000000000000000000000000000000000000000000000000000000000000000
310
0A000200FFFFFFFFFFFFFFFFFFFFFFFF00000000000000000000000000000000
310
0000000000000000000000000000000000000000000000001400000000000000
310
010043006F006D0070004F0062006A0000000000000000000000000000000000
310
0000000000000000000000000000000000000000000000000000000000000000
310
120002010100000003000000FFFFFFFF00000000000000000000000000000000
310
0000000000000000000000000000000000000000010000004D00000000000000
310
01004F006C006500310030004E00610074006900760065000000000000000000
310
0000000000000000000000000000000000000000000000000000000000000000
310
1A000200FFFFFFFFFFFFFFFFFFFFFFFF00000000000000000000000000000000
310
0000000000000000000000000000000000000000040000002426000000000000
310
FEFFFFFF02000000FEFFFFFFFFFFFFFFFFFFFFFFFFFFFFFFFFFFFFFFFFFFFFFF
310
FFFFFFFFFFFFFFFFFFFFFFFFFFFFFFFFFFFFFFFFFFFFFFFFFFFFFFFFFFFFFFFF
310
FFFFFFFFFFFFFFFFFFFFFFFFFFFFFFFFFFFFFFFFFFFFFFFFFFFFFFFFFFFFFFFF
310
FFFFFFFFFFFFFFFFFFFFFFFFFFFFFFFFFFFFFFFFFFFFFFFFFFFFFFFFFFFFFFFF
310
FFFFFFFFFFFFFFFFFFFFFFFFFFFFFFFFFFFFFFFFFFFFFFFFFFFFFFFFFFFFFFFF
310
FFFFFFFFFFFFFFFFFFFFFFFFFFFFFFFFFFFFFFFFFFFFFFFFFFFFFFFFFFFFFFFF
310
FFFFFFFFFFFFFFFFFFFFFFFFFFFFFFFFFFFFFFFFFFFFFFFFFFFFFFFFFFFFFFFF
310
FFFFFFFFFFFFFFFFFFFFFFFFFFFFFFFFFFFFFFFFFFFFFFFFFFFFFFFFFFFFFFFF
310
FFFFFFFFFFFFFFFFFFFFFFFFFFFFFFFFFFFFFFFFFFFFFFFFFFFFFFFFFFFFFFFF
310
FFFFFFFFFFFFFFFFFFFFFFFFFFFFFFFFFFFFFFFFFFFFFFFFFFFFFFFFFFFFFFFF
310
FFFFFFFFFFFFFFFFFFFFFFFFFFFFFFFFFFFFFFFFFFFFFFFFFFFFFFFFFFFFFFFF
310
FFFFFFFFFFFFFFFFFFFFFFFFFFFFFFFFFFFFFFFFFFFFFFFFFFFFFFFFFFFFFFFF
310
FFFFFFFFFFFFFFFFFFFFFFFFFFFFFFFFFFFFFFFFFFFFFFFFFFFFFFFFFFFFFFFF
310
FFFFFFFFFFFFFFFFFFFFFFFFFFFFFFFFFFFFFFFFFFFFFFFFFFFFFFFFFFFFFFFF
310
FFFFFFFFFFFFFFFFFFFFFFFFFFFFFFFFFFFFFFFFFFFFFFFFFFFFFFFFFFFFFFFF
310
FFFFFFFFFFFFFFFFFFFFFFFFFFFFFFFFFFFFFFFFFFFFFFFFFFFFFFFFFFFFFFFF
310
0100000200000000000000000000000000000000000000000000000000000000
310
0000000000000000000000000000000000000000000000000000000000000000
310
0100FEFF030A0000FFFFFFFF0A00030000000000C00000000000004607000000
310
5042727573680007000000504272757368000700000050427275736800F439B2
310
7100000000000000000000000000000000000000000000000000000000000000
310
0000000000000000000000000000000000000000000000000000000000000000
310
0000000000000000000000000000000000000000000000000000000000000000
310
0000000000000000000000000000000000000000000000000000000000000000
310
0000000000000000000000000000000000000000000000000000000000000000
310
0000000000000000000000000000000000000000000000000000000000000000
310
0000000000000000000000000000000000000000000000000000000000000000
310
0000000000000000000000000000000000000000000000000000000000000000
310
0000000000000000000000000000000000000000000000000000000000000000
310
0000000000000000000000000000000000000000000000000000000000000000
310
0000000000000000000000000000000000000000000000000000000000000000
310
0000000000000000000000000000000000000000000000000000000000000000
310
20260000424D0E260000000000003E00000028000000B40200006E0000000100
310
01000000000000000000130B0000130B00000200000002000000000000FFFFFF
310
FFFFFFFFFFFFFFFFFFFFFFFFFFFFFFFFFFFFFFFFFFFFFFFFFFFFFFFFFFFFFFFF
310
FFFFFFFFFFFFFFFFFFFFFFFFFFFFFFFFFFFFFFFFFFFFFFFFFFFFFFFFFFFFFFFF
310
FFFFFFFFFFFFFFFFFFFFFFFFFFFFFFFFFFFFFFFFFFFFFFFFF000FFFFFFFFFFFF
310
FFFFFFFFFFFFFFFFFFFFFFFFFFFFFFFFFFFFFFFFFFFFFFFFFFFFFFFFFFFFFFFF
310
FFFFFFFFFFFFFFFFFFFFFFFFFFFFFFFFFFFFFFFFFFFFFFFFFFFFFFFFFFFFFFFF
310
FFFFFFFFFFFFFFFFFFFFFFFFFFFFFFFFF000FFFFFFFFFFFFFFFFFFFFFFFFFFFF
310
FFFFFFFFFFFFFFFFFFFFFFFFFFFFFFFFFFFFFFFFFFFFFFFFFFFFFFFFFFFFFFFF
310
FFFFFFFFFFFFFFFFFFFFFFFFFFFFFFFFFFFFFFFFFFFFFFFFFFFFFFFFFFFFFFFF
310
FFFFFFFFFFFFFFFFF000FFFFFFFFFFFFFFFFFFFFFFFFFFFFFFFFFFFFFFFFFFFF
310
FFFFFFFFFFFFFFFFFFFFFFFFFFFFFFFFFFFFFFFFFFFFFFFFFFFFFFFFFFFFFFFF
310
FFFFFFFFFFFFFFFFFFFFFFFFFFFFFFFFFFFFFFFFFFFFFFFFFFFFFFFFFFFFFFFF
310
F000FFFFFFFFFFFFFFFFFFFFFFFFFFFFFFFFFFFFFFFFFFFFFFFFFFFFFFFFFFFF
310
FFFFFFFFFFFFFFFFFFFFFFFFFFFFFFFFFFFFFFFFFFFFFFFFFFFFFFFFFFFFFFFF
310
FFFFFFFFFFFFFFFFFFFFFFFFFFFFFFFFFFFFFFFFFFFFFFFFF000FFFFFFFFFFFF
310
FFFFFFFFFFFFFFFFFFFFFFFFFFFFFFFFFFFFFFFFFFFFFFFFFFFFFFFFFFFFFFFF
310
FFFFFFFFFFFFFFFFFFFFFFFFFFFFFFFFFFFFFFFFFFFFFFFFFFFFFFFFFFFFFFFF
310
FFFFFFFFFFFFFFFFFFFFFFFFFFFFFFFFF000FFFFFFFFFFFFFFFFFFFFFFFFFFFF
310
FFFFFFFFFFFFFFFFFFFFFFFFFFFFFFFFFFFFFFFFFFFFFFFFFFFFFFFFFFFFFFFF
310
FFFFFFFFFFFFFFFFFFFFFFFFFFFFFFFFFFFFFFFFFFFFFFFFFFFFFFFFFFFFFFFF
310
FFFFFFFFFFFFFFFFF000FFFFFFFFFFFFFFFFFFFFFFFFFFFFFFFFFFFFFFFFFFFF
310
FFFFFFFFFFFFFFFFFFFFFFFFFFFFFFFFFFFFFFFFFFFFFFFFFFFFFFFFFFFFFFFF
310
FFFFFFFFFFFFFFFFFFFFFFFFFFFFFFFFFFFFFFFFFFFFFFFFFFFFFFFFFFFFFFFF
310
F000FFFFFFFFFFFFFFFFFFFFFFFFFFFFFFFFFFFFFFFFFFFFFFFFFFFFFFFFFFFF
310
FFFFFFFFFFFFFFFFFFFFFFFFFFFFFFFFFFFFFFFFFFFFFFFFFFFFFFFFFFFFFFFF
310
FFFFFFFFFFFFFFFFFFFFFFFFFFFFFFFFFFFFFFFFFFFFFFFFF000FFFFFFFFFFFF
310
FFFFFFFFFFFFFFFFFFFFFFFFFFFFFFFFFFFFFFFFFFFFFFFFFFFFFFFFFFFFFFFF
310
FFFFFFFFFFFFFFFFFFFFFFFFFFFFFFFFFFFFFFFFFFFFFFFFFFFFFFFFFFFFFFFF
310
FFFFFFFFFFFFFFFFFFFFFFFFFFFFFFFFF000FFFFFFFFFFFFFFFFFFFFFFFFFFFF
310
FFFFFFFFFFFFFFFFFFFFFFFFFFFFFFFFFFFFFFFFFFFFFFFFFFFFFFFFFFFFFFFF
310
FFFFFFFFFFFFFFFFFFFFFFFFFFFFFFFFFFFFFFFFFFFFFFFFFFFFFFFFFFFFFFFF
310
FFFFFFFFFFFFFFFFF000FFFFFFFFFFFFFFFFFFFFFFFFFFFFFFFFFFFFFFFFFFFF
310
FFFFFFFFFFFFFFFFFFFFFFFFFFFFFFFFFFFFFFFFFFFFFFFFFFFFFFFFFFFFFFFF
310
FFFFFFFFFFFFFFFFFFFFFFFFFFFFFFFFFFFFFFFFFFFFFFFFFFFFFFFFFFFFFFFF
310
F000FFFFFFFFFFFFFFFFFFFFFFFFFFFFFFFFFFFFFFFFFFFFFFFFFFFFFFFFFFFF
310
FFFFFFFFFFFFFFFFFFFFFFFFFFFFFFFFFFFFFFFFFFFFFFFFFFFFFFFFFFFFFFFF
310
FFFFFFFFFFFFFFFFFFFFFFFFFFFFFFFFFFFFFFFFFFFFFFFFF000FFFFFFFFFFFF
310
FFFFFFFFFFFFFFFFFFFFFFFFFFFFFFFFFFFFFFFFFFFFFFFFFFFFFFFFFFFFFFFF
310
FFFFFFFFFFFFFFFFFFFFFFFFFFFFFFFFFFFFFFFFFFFFFFFFFFFFFFFFFFFFFFFF
310
FFFFFFFFFFFFFFFFFFFFFFFFFFFFFFFFF000FFFFFFFFFFFFFFFFFFFFFFFFFFFF
310
FFFFFFFFFFFFFFFFFFFFFFFFFFFFFFFFFFFFFFFFFFFFFFFFFFFFFFFFFFFFFFFF
310
FFFFFFFFFFFFFFFFFFFFFFFFFFFFFFFFFFFFFFFFFFFFFFFFFFFFFFFFFFFFFFFF
310
FFFFFFFFFFFFFFFFF000FFFFFFFFFFFFFFFFFFFFFFFFFFFFFFFFFFFFFFFFFFFF
310
FFFFFFFFFFFFFFFFFFFFFFFFFFFFFFFFFFFFFFFFFFFFFFFFFFFFFFFFFFFFFFFF
310
FFFFFFFFFFFFFFFFFFFFFFFFFFFFFFFFFFFFFFFFFFFFFFFFFFFFFFFFFFFFFFFF
310
F000FFFFFFFFFFFFFFFFFFFFFFFFFFFFFFFFFFFFFFFFFFFFFFFFFFFFFFFFFFFF
310
FFFFFFFFFFFFFFFFFFFFFFFFFFFFFFFFFFFFFFFFFFFFFFFFFFFFFFFFFFFFFFFF
310
FFFFFFFFFFFFFFFFFFFFFFFFFFFFFFFFFFFFFFFFFFFFFFFFF000FFFFFFFFFFFF
310
FFFFFFFFFFFFFFFFFFFFFFFFFFFFFFFFFFFFFFFFFFFFFFFFFFFFFFFFFFFFFFFF
310
FFFFFFFFFFFFFFFFFFFFFFFFFFFFFFFFFFFFFFFFFFFFFFFFFFFFFFFFFFFFFFFF
310
FFFFFFFFFFFFFFFFFFFFFFFFFFFFFFFFF000FFFFFFFFFFFFFFFFFFFFFFFFFFFF
310
FFFFFFFFFFFFFFFFFFFFFFFFFFFFFFFFFFFFFFFFFFFFFFFFFFFFFFFFFFFFFFFF
310
FFFFFFFFFFFFFFFFFFFFFFFFFFFFFFFFFFFFFFFFFFFFFFFFFFFFFFFFFFFFFFFF
310
FFFFFFFFFFFFFFFFF000FFFFF80003FFFFFFFFFFFFFFFFFFFFFFFFFFFFFFFFFF
310
FFFFF00007FFFFFFFFFF00007FFFFFF800000000000000007FFFFFFFFFFFFFFF
310
FFFFFFFC001FFFFFFFFFFFFFFC001FFFFFFFFFFFFFFFFFFFFFFFFFFE0007FFFF
310
F000FFFF8000007FFFFFFFF8000FFFFFC0007FFFFF80007FFFFF0000007FFFFF
310
FFF8000007FFFFF800000000000000007FFFFFF0001FFFFFFFFFFFC00001FFFF
310
FFFFFFFFC00001FFFFFFFF000000000003FFFFE000007FFFF000FFFE0000000F
310
FFFFFFF0000FFFFF80007FFFFF80007FFFFC0000001FFFFFFFC0000001FFFFF8
310
00000000000000007FFFFFF0001FFFFFFFFFFE0000003FFFFFFFFFFE0000003F
310
FFFFFF000000000003FFFF0000000FFFF000FFF800000003FFFFFFF00007FFFF
310
80007FFFFF80007FFFF000000007FFFFFF000000003FFFF80000000000000000
310
7FFFFFF0001FFFFFFFFFF80000000FFFFFFFFFF80000000FFFFFFF0000000000
310
03FFFC00000003FFF000FFE000000000FFFFFFF00007FFFF80003FFFFF80007F
310
FFC000000001FFFFFC000000001FFFF800000000000000007FFFFFF0001FFFFF
310
FFFFE000000003FFFFFFFFE000000003FFFFFF000000000003FFF000000000FF
310
F000FF80000000007FFFFFF00007FFFF80003FFFFF80007FFF8000000000FFFF
310
F80000000007FFF800000000000000007FFFFFF0001FFFFFFFFFC000000001FF
310
FFFFFFC000000001FFFFFF000000000003FFC0000000007FF000FF0000000000
310
3FFFFFE00007FFFF00003FFFFF80007FFE00000000003FFFF00000000003FFF8
310
00000000000000007FFFFFF0001FFFFFFFFF8000000000FFFFFFFF8000000000
310
FFFFFF000000000003FF80000000003FF000FE00000000001FFFFFE00003FFFF
310
00003FFFFF80007FFC00000000001FFFE00000000001FFF8000001FFFE000000
310
7FFFFFF0001FFFFFFFFE00000000003FFFFFFE00000000003FFFFF0000000000
310
03FF00000000001FF000FC00000000000FFFFFE00003FFFF00001FFFFF80007F
310
F800000000001FFFC00000000000FFF8000001FFFE0000007FFFFFF0001FFFFF
310
FFFC00000000001FFFFFFC00000000001FFFFF000000000003FE00000000000F
310
F000F8000000000007FFFFE00003FFFF00001FFFFF80007FF800000000000FFF
310
800000000000FFF8000001FFFE0000007FFFFFF0001FFFFFFFF800000000000F
310
FFFFF800000000000FFFFF000000000003FC000000000007F000F80000000000
310
03FFFFC00003FFFE00001FFFFF80007FF0000000000007FF0000000000007FF8
310
000001FFFE0000007FFFFFF0001FFFFFFFF0000000000007FFFFF00000000000
310
07FFFF000000000003F8000000000003F000F0000000000003FFFFC00001FFFE
310
00001FFFFF80007FE0000000000007FE0000000000003FF8000001FFFE000000
310
7FFFFFF0001FFFFFFFF0000000000007FFFFF0000000000007FFFF0000000000
310
03F800001F800003F000E00001FFF00001FFFFC00001FFFE00000FFFFF80007F
310
E00001FFE00003FE00001FFF00003FF8000001FFFE0000007FFFFFF0001FFFFF
310
FFE000003E000003FFFFE000003E000003FFFF000000000003F00001FFF80001
310
F000E00007FFFC0001FFFFC00001FFFE00000FFFFF80007FC0000FFFFC0003FC
310
0000FFFFC0001FF8000001FFFE0000007FFFFFF0001FFFFFFFC00003FFE00001
310
FFFFC00003FFE00001FFFF0001FFFFFFFFF00007FFFE0001F000E0000FFFFF00
310
00FFFF800001FFFC00000FFFFF80007FC0001FFFFE0001FC0001FFFFE0001FF8
310
000001FFFE0000007FFFFFF0001FFFFFFF80000FFFF80000FFFF80000FFFF800
310
00FFFF0003FFFFFFFFE0000FFFFF8000F000C0003FFFFF8000FFFF800000FFFC
310
000007FFFF80007F80003FFFFF0001FC0003FFFFF0001FF8000001FFFE000000
310
7FFFFFF0001FFFFFFF80003FFFFE0000FFFF80003FFFFE0000FFFF0003FFFFFF
310
FFE0003FFFFF8000F000C0003FFFFF8000FFFF800000FFFC000007FFFF80007F
310
80007FFFFF8001F80007FFFFF8000FF8000001FFFE0000007FFFFFF0001FFFFF
310
FF00007FFFFF00007FFF00007FFFFF00007FFF0003FFFFFFFFE0003FFFFFC000
310
F000C0007FFFFFC000FFFF000000FFFC000007FFFF80007F8000FFFFFF8000F8
310
000FFFFFF8000FF8000001FFFE0000007FFFFFF0001FFFFFFF0000FFFFFF8000
310
7FFF0000FFFFFF80007FFF0003FFFFFFFFC0007FFFFFC00070008000FFFFFFC0
310
00FFFF000000FFF8000007FFFF80007F8000FFFFFF8000F8000FFFFFF8000FF8
310
000001FFFE0000007FFFFFF0001FFFFFFE0001FFFFFFC0003FFE0001FFFFFFC0
310
003FFF0003FFFFFFFFC0007FFFFFE00070008000FFFFFFC0007FFF0000007FF8
310
000003FFFF80007F0001FFFFFF8000F8000FFFFFF8000FF8000001FFFE000000
310
7FFFFFF0001FFFFFFE0001FFFFFFC0003FFE0001FFFFFFC0003FFF0003FFFFFF
310
FFC000FFFFFFE00070008000FFFFFFC0007FFF0000007FF8000003FFFF80007F
310
0001FFFFFF8000F8001FFFFFF8000FF8000001FFFE0000007FFFFFF0001FFFFF
310
FE0003FFFFFFE0003FFE0003FFFFFFE0003FFF0003FFFFFFFFC000FFFFFFE000
310
70008000FFFFFFC0007FFE0000007FF8000003FFFF80007F0001FFFFFF8000F0
310
001FFFFFF8000FF8000001FFFE0000007FFFFFF0001FFFFFFC0003FFFFFFE000
310
1FFC0003FFFFFFE0001FFF0003FFFFFFFFC000FFFFFFC00070008000FFFFFF80
310
007FFE0000007FF0000003FFFF80007F0001FFFFFF0000F0001FFFFFF8000FF8
310
000001FFFE0000007FFFFFF0001FFFFFFC0007FFFFFFF0001FFC0007FFFFFFF0
310
001FFF0003FFFFFFFFC000FFFFFFC00070008001FFFFFF0000FFFE0000003FF0
310
000001FFFF80007F0001FFFFFF0000F8001FFFFFF0000FF8000001FFFE000000
310
7FFFFFF0001FFFFFFC0007FFFFFFF0001FFC0007FFFFFFF0001FFF0003FFFFFF
310
FFC001FFFFFF80007000FFFFFFFFFE0000FFFE0008003FF0008001FFFF80007F
310
FFFFFFFFFC0000FFFFFFFFFFE0000FF8000001FFFE0000007FFFFFF0001FFFFF
310
F8000FFFFFFFF8000FF8000FFFFFFFF8000FFF0003FFFFFFFFFFFFFFFFFF0000
310
7000FFFFFFFFFC0000FFFC0008003FF0008001FFFF80007FFFFFFFFFF80001FF
310
FFFFFFFF80000FF8000001FFFE0000007FFFFFF0001FFFFFF8000FFFFFFFF800
310
0FF8000FFFFFFFF8000FFF0003FFFFFFFFFFFFFFFFFE0000F000FFFFFFFFE000
310
00FFFC000C003FE000C001FFFF80007FFFFFFFFFC00001FFFFFFFFFE00001FF8
310
000001FFFE0000007FFFFFF0001FFFFFF8000FFFFFFFF8000FF8000FFFFFFFF8
310
000FFF0003FFFFFFFFFFFFFFFFF00000F000FFFFFFFE000001FFFC000C001FE0
310
00C000FFFF80007FFFFFFFFE000001FFFFFFFFE000001FF80FFFFFFFFFFFFFC0
310
7FFFFFF0001FFFFFF8000FFFFFFFF8000FF8000FFFFFFFF8000FFF0003FFFFFF
310
FFFFFFFFFF800000F000FFFFFFC0000001FFFC001C001FE001C000FFFF80007F
310
FFFFFF80000003FFFFFFF80000001FF80FFFFFFFFFFFFFC07FFFFFF0001FFFFF
310
F8001FFFFFFFFC000FF8001FFFFFFFFC000FFF0003FFFFFFFFFFFFFFF0000001
310
F000FFFFF800000001FFF8001C001FE001C000FFFF80007FFFFFF800000003FF
310
FFFF800000003FF80FFFFFFFFFFFFFC07FFFFFF0001FFFFFF8001FFFFFFFFC00
310
0FF8001FFFFFFFFC000FFF0003FFFFFFFFFFFFFE00000001F000FFFFC0000000
310
03FFF8001E001FC001E000FFFF80007FFFFF8000000007FFFFFC000000003FF8
310
0FFFFFFFFFFFFFC07FFFFFF0001FFFFFF8001FFFFFFFFC000FF8001FFFFFFFFC
310
000FFF0003FFFFFFFFFFFFE000000003F000FFFE0000000007FFF8001E000FC0
310
01E0007FFF80007FFFFE0000000007FFFFE0000000007FF80FFFFFFFFFFFFFC0
310
7FFFFFF0001FFFFFF0001FFFFFFFFC0007F0001FFFFFFFFC0007FF0003FFFFFF
310
FFFFFF0000000003F000FFF80000000007FFF8001E000FC003E0007FFF80007F
310
FFF0000000000FFFFF8000000000FFF80FFFFFFFFFFFFFC07FFFFFF0001FFFFF
310
F0001FFFFFFFFC0007F0001FFFFFFFFC0007FF0003FFFFFFFFFFFC0000000007
310
F000FFE0000000000FFFF0003E000FC003E0007FFF80007FFFC0000000001FFF
310
FE0000000001FFF80FFFFFFFFFFFFFC07FFFFFF0001FFFFFF0001FFFFFFFFC00
310
07F0001FFFFFFFFC0007FF0003FFFFFFFFFFF0000000000FF000FFC000000000
310
1FFFF0003F000F8003F0003FFF80007FFF80000000003FFFF80000000003FFF8
310
0FFFFFFFFFFFFFC07FFFFFF0001FFFFFF0001FFFFFFFFC0007F0001FFFFFFFFC
310
0007FF0003FFFFFFFFFFE0000000001FF000FF00000000007FFFF0003F000780
310
03F0003FFF80007FFF00000000007FFFF00000000007FFF80FFFFFFFFFFFFFC0
310
7FFFFFF0001FFFFFF0001FFFFFFFFC0007F0001FFFFFFFFC0007FF0003FFFFFF
310
FFFF80000000007FF000FE0000000000FFFFE0003F00078007F0003FFF80007F
310
FE0000000001FFFFE0000000001FFFF80FFFFFFFFFFFFFC07FFFFFF0001FFFFF
310
F0001FFFFFFFFC0007F0001FFFFFFFFC0007FF0003FFFFFFFFFF0000000000FF
310
F000FC0000000003FFFFE0007F00078007F0003FFF80007FFC0000000007FFFF
310
C0000000007FFFF80FFFFFFFFFFFFFC07FFFFFF0001FFFFFF8001FFFFFFFFC00
310
0FF8001FFFFFFFFC000FFF0003FFFFFFFFFE0000000003FFF000FC000000000F
310
FFFFE0007F80070007F8001FFF80007FF8000000001FFFFF8000000001FFFFF8
310
0FFFFFFFFFFFFFC07FFFFFF0001FFFFFF8001FFFFFFFFC000FF8001FFFFFFFFC
310
000FFF0003FFFFFFFFFC000000000FFFF000F8000000007FFFFFE0007F800700
310
07F8001FFF80007FF000000000FFFFFF800000000FFFFFF80FFFFFFFFFFFFFC0
310
7FFFFFF0001FFFFFF8000FFFFFFFF8000FF8000FFFFFFFF8000FFF0003FFFFFF
310
FFFC000000007FFFF000F800000007FFFFFFC0007F8003000FF8001FFF80007F
310
F000000007FFFFFF000000007FFFFFF80FFFFFFFFFFFFFC07FFFFFF0001FFFFF
310
F8000FFFFFFFF8000FF8000FFFFFFFF8000FFF0003FFFFFFFFF80000000FFFFF
310
F000F0000000FFFFFFFFC000FF8003000FF8001FFF80007FE0000000FFFFFFFF
310
0000000FFFFFFFF8000001FFFE0000007FFFFFF0001FFFFFF8000FFFFFFFF800
310
0FF8000FFFFFFFF8000FFF0003FFFFFFFFF8000000FFFFFFF000F000000FFFFF
310
FFFFC000FFC002000FF8000FFF80007FE000001FFFFFFFFE000001FFFFFFFFF8
310
000001FFFE0000007FFFFFF0001FFFFFF8000FFFFFFFF8000FF8000FFFFFFFF8
310
000FFF0003FFFFFFFFF000001FFFFFFFF000E00000FFFFFFFFFFC000FFC00200
310
0FFC000FFF80007FE00001FFFFFFFFFE00001FFFFFFFFFF8000001FFFE000000
310
7FFFFFF0001FFFFFFC000FFFFFFFF8001FFC000FFFFFFFF8001FFF0003FFFFFF
310
FFF00001FFFFFFFFF000E00007FFFFFFFFFF8000FFC000001FFC000FFF80007F
310
C0000FFFFFFFFFFE0000FFFFFFFFFFF8000001FFFE0000007FFFFFF0001FFFFF
310
FC0007FFFFFFF0001FFC0007FFFFFFF0001FFF0003FFFFFFFFF00007FFFFFFFF
310
F000E0001FFFFFFFFFFF8000FFC000001FFC000FFF80007FC0003FFFFFFFFFFE
310
0001FFFFFFFFFFF8000001FFFE0000007FFFFFF0001FFFFFFC0007FFFFFFF000
310
1FFC0007FFFFFFF0001FFF0003FFFFFFFFF0001FFFFFFFFFF000E0003FFFFF00
310
03FF8001FFE000001FFC0007FF80007FC0007FFFFF0007FC0003FFFFF0003FF8
310
000001FFFE0000007FFFFFF0001FFFFFFC0003FFFFFFE0001FFC0003FFFFFFE0
310
001FFF0003FFFFFFFFF0003FFFFFFFFFF000E0003FFFFF0001FF8001FFE00000
310
1FFE0007FF80007FC0007FFFFE0003FC0007FFFFE0003FF8000001FFFE000000
310
7FFFFFF0001FFFFFFE0003FFFFFFE0003FFE0003FFFFFFE0003FFF0003FFFFFF
310
FFF0003FFFFF8001F000E0003FFFFF0001FF0001FFE000001FFE0007FF80007F
310
C0007FFFFE0003FC0007FFFFE0003FF8000001FFFE0000007FFFFFF0001FFFFF
310
FE0001FFFFFFC0003FFE0001FFFFFFC0003FFF0003FFFFFFFFF0003FFFFF0001
310
F000E0003FFFFF0003FF0001FFE000003FFE0007FF80007FC0007FFFFE0003FC
310
0007FFFFE0003FF8000001FFFE0000007FFFFFF0001FFFFFFF0001FFFFFFC000
310
7FFF0001FFFFFFC0007FFF0003FFFFFFFFF0003FFFFF0001F000E0003FFFFE00
310
03FF0003FFF000003FFE0003FF80007FC0007FFFFC0003FE0007FFFFE0003FF8
310
000001FFFE0000007FFFFFF0001FFFFFFF0000FFFFFF80007FFF0000FFFFFF80
310
007FFF0003FFFFFFFFF0003FFFFF0001F000E0003FFFFE0003FF0003FFF00000
310
3FFF0003FF80007FC0007FFFFC0007FE0007FFFFC0003FF8000001FFFE000000
310
7FFFFFF0001FFFFFFF80007FFFFF0000FFFF80007FFFFF0000FFFF0003FFFFFF
310
FFF0003FFFFF0003F000E0003FFFFC0003FE0003FFF000003FFF0003FF80007F
310
E0003FFFF80007FE0003FFFFC0007FF8000001FFFE0000007FFFFFF0001FFFFF
310
FF80003FFFFE0000FFFF80003FFFFE0000FFFF0003FFFFFFFFF0001FFFFE0003
310
F000F0001FFFF80003FE0003FFF000007FFF0001FF80007FE0003FFFF00007FE
310
0001FFFF80007FF8000001FFFE0000007FFFFFF0001FFFFFFFC0000FFFF80001
310
FFFFC0000FFFF80001FFFF0003FFFFFFFFF0001FFFFC0003F000F0000FFFF000
310
07FE0007FFF800007FFF0001FF80007FE0001FFFE00007FF0000FFFE00007FF8
310
000001FFFE0000007FFFFFF0001FFFFFFFC00003FFE00001FFFFC00003FFE000
310
01FFFF0003FFFFFFFFF8000FFFF80003F000F00003FFC00007FC0007FFF80000
310
7FFF8001FF80007FF00007FF80000FFF00007FF80000FFF8000001FFFE000000
310
7F80000000000001FFE000003E000003FFFFE000003E000003FFFF0003FFFFFF
310
FFF80003FFE00007F000F800000000000FFC0007FFF800007FFF8001FF80007F
310
F000000000000FFF000000000000FFF8000001FFFE0000007F80000000000001
310
FFF0000000000007FFFFF0000000000007FFFF0003FFFFFFFFFC00007E000007
310
F000F800000000000FFC0007FFF80000FFFF8000FF80007FF800000000001FFF
310
800000000001FFF8000001FFFE0000007F80000000000001FFF800000000000F
310
FFFFF800000000000FFFFF0003FFFFFFFFFC00000000000FF000FC0000000000
310
1FFC0007FFFC0000FFFF8000FF80007FF800000000003FFFC00000000001FFF8
310
000001FFFE0000007F80000000000001FFF800000000000FFFFFF80000000000
310
0FFFFF0003FFFFFFFFFE00000000001FF000FE00000000003FF8000FFFFC0000
310
FFFF8000FF80007FFC00000000003FFFC00000000003FFF8000001FFFE000000
310
7F80000000000001FFFC00000000001FFFFFFC00000000001FFFFF0003FFFFFF
310
FFFF00000000001FF000FF00000000003FF8000FFFFC0000FFFFC000FF80007F
310
FE00000000007FFFE00000000007FFF8000001FFFE0000007F80000000000001
310
FFFE00000000003FFFFFFE00000000003FFFFF0003FFFFFFFFFF80000000003F
310
F000FF80000000007FF8000FFFFC0001FFFFC0007F80007FFF0000000000FFFF
310
F0000000000FFFF800000000000000007F80000000000001FFFF8000000000FF
310
FFFFFF8000000000FFFFFF0003FFFFFFFFFFC0000000007FF000FFC000000000
310
FFF8000FFFFE0001FFFFC0007F80007FFF8000000001FFFFF8000000001FFFF8
310
00000000000000007F80000000000001FFFFC000000001FFFFFFFFC000000001
310
FFFFFF0003FFFFFFFFFFE000000000FFF000FFE000000003FFF0001FFFFE0001
310
FFFFC0007F80007FFFC000000007FFFFFE000000003FFFF80000000000000000
310
7F80000000000001FFFFE000000003FFFFFFFFE000000003FFFFFF0003FFFFFF
310
FFFFF000000003FFF000FFF80000000FFFF0001FFFFE0001FFFFE0007F80007F
310
FFF00000000FFFFFFF00000000FFFFF800000000000000007F80000000000001
310
FFFFF80000000FFFFFFFFFF80000000FFFFFFF0003FFFFFFFFFFFC0000000FFF
310
F000FFFE0000003FFFF0001FFFFE0003FFFFE0003F80007FFFFC0000003FFFFF
310
FFC0000003FFFFF800000000000000007F80000000000001FFFFFE0000003FFF
310
FFFFFFFE0000003FFFFFFF0003FFFFFFFFFFFF0000003FFFF000FFFF800000FF
310
FFF0001FFFFF0003FFFFE0003F80007FFFFF000001FFFFFFFFF800001FFFFFF8
310
00000000000000007F80000000000001FFFFFFC00001FFFFFFFFFFFFC00001FF
310
FFFFFF0003FFFFFFFFFFFFC00000FFFFF000FFFFF8000FFFFFFFFFFFFFFFFFFF
310
FFFFFFFFFFFFFFFFFFFFF0001FFFFFFFFFFF0000FFFFFFF80000000000000000
310
7FFFFFFFFFFFFFFFFFFFFFFC001FFFFFFFFFFFFFFC001FFFFFFFFFFFFFFFFFFF
310
FFFFFFFC001FFFFFF000FFFFFFFFFFFFFFFFFFFFFFFFFFFFFFFFFFFFFFFFFFFF
310
FFFFFFFFFFFFFFFFFFFFFFFFFFFFFFFFFFFFFFFFFFFFFFFFFFFFFFFFFFFFFFFF
310
FFFFFFFFFFFFFFFFFFFFFFFFFFFFFFFFFFFFFFFFFFFFFFFFFFFFFFFFFFFFFFFF
310
F000FFFFFFFFFFFFFFFFFFFFFFFFFFFFFFFFFFFFFFFFFFFFFFFFFFFFFFFFFFFF
310
FFFFFFFFFFFFFFFFFFFFFFFFFFFFFFFFFFFFFFFFFFFFFFFFFFFFFFFFFFFFFFFF
310
FFFFFFFFFFFFFFFFFFFFFFFFFFFFFFFFFFFFFFFFFFFFFFFFF000FFFFFFFFFFFF
310
FFFFFFFFFFFFFFFFFFFFFFFFFFFFFFFFFFFFFFFFFFFFFFFFFFFFFFFFFFFFFFFF
310
FFFFFFFFFFFFFFFFFFFFFFFFFFFFFFFFFFFFFFFFFFFFFFFFFFFFFFFFFFFFFFFF
310
FFFFFFFFFFFFFFFFFFFFFFFFFFFFFFFFF000FFFFFFFFFFFFFFFFFFFFFFFFFFFF
310
FFFFFFFFFFFFFFFFFFFFFFFFFFFFFFFFFFFFFFFFFFFFFFFFFFFFFFFFFFFFFFFF
310
FFFFFFFFFFFFFFFFFFFFFFFFFFFFFFFFFFFFFFFFFFFFFFFFFFFFFFFFFFFFFFFF
310
FFFFFFFFFFFFFFFFF000FFFFFFFFFFFFFFFFFFFFFFFFFFFFFFFFFFFFFFFFFFFF
310
FFFFFFFFFFFFFFFFFFFFFFFFFFFFFFFFFFFFFFFFFFFFFFFFFFFFFFFFFFFFFFFF
310
FFFFFFFFFFFFFFFFFFFFFFFFFFFFFFFFFFFFFFFFFFFFFFFFFFFFFFFFFFFFFFFF
310
F000FFFFFFFFFFFFFFFFFFFFFFFFFFFFFFFFFFFFFFFFFFFFFFFFFFFFFFFFFFFF
310
FFFFFFFFFFFFFFFFFFFFFFFFFFFFFFFFFFFFFFFFFFFFFFFFFFFFFFFFFFFFFFFF
310
FFFFFFFFFFFFFFFFFFFFFFFFFFFFFFFFFFFFFFFFFFFFFFFFF000FFFFFFFFFFFF
310
FFFFFFFFFFFFFFFFFFFFFFFFFFFFFFFFFFFFFFFFFFFFFFFFFFFFFFFFFFFFFFFF
310
FFFFFFFFFFFFFFFFFFFFFFFFFFFFFFFFFFFFFFFFFFFFFFFFFFFFFFFFFFFFFFFF
310
FFFFFFFFFFFFFFFFFFFFFFFFFFFFFFFFF000FFFFFFFFFFFFFFFFFFFFFFFFFFFF
310
FFFFFFFFFFFFFFFFFFFFFFFFFFFFFFFFFFFFFFFFFFFFFFFFFFFFFFFFFFFFFFFF
310
FFFFFFFFFFFFFFFFFFFFFFFFFFFFFFFFFFFFFFFFFFFFFFFFFFFFFFFFFFFFFFFF
310
FFFFFFFFFFFFFFFFF000FFFFFFFFFFFFFFFFFFFFFFFFFFFFFFFFFFFFFFFFFFFF
310
FFFFFFFFFFFFFFFFFFFFFFFFFFFFFFFFFFFFFFFFFFFFFFFFFFFFFFFFFFFFFFFF
310
FFFFFFFFFFFFFFFFFFFFFFFFFFFFFFFFFFFFFFFFFFFFFFFFFFFFFFFFFFFFFFFF
310
F000FFFFFFFFFFFFFFFFFFFFFFFFFFFFFFFFFFFFFFFFFFFFFFFFFFFFFFFFFFFF
310
FFFFFFFFFFFFFFFFFFFFFFFFFFFFFFFFFFFFFFFFFFFFFFFFFFFFFFFFFFFFFFFF
310
FFFFFFFFFFFFFFFFFFFFFFFFFFFFFFFFFFFFFFFFFFFFFFFFF000FFFFFFFFFFFF
310
FFFFFFFFFFFFFFFFFFFFFFFFFFFFFFFFFFFFFFFFFFFFFFFFFFFFFFFFFFFFFFFF
310
FFFFFFFFFFFFFFFFFFFFFFFFFFFFFFFFFFFFFFFFFFFFFFFFFFFFFFFFFFFFFFFF
310
FFFFFFFFFFFFFFFFFFFFFFFFFFFFFFFFF000FFFFFFFFFFFFFFFFFFFFFFFFFFFF
310
FFFFFFFFFFFFFFFFFFFFFFFFFFFFFFFFFFFFFFFFFFFFFFFFFFFFFFFFFFFFFFFF
310
FFFFFFFFFFFFFFFFFFFFFFFFFFFFFFFFFFFFFFFFFFFFFFFFFFFFFFFFFFFFFFFF
310
FFFFFFFFFFFFFFFFF000FFFFFFFFFFFFFFFFFFFFFFFFFFFFFFFFFFFFFFFFFFFF
310
FFFFFFFFFFFFFFFFFFFFFFFFFFFFFFFFFFFFFFFFFFFFFFFFFFFFFFFFFFFFFFFF
310
FFFFFFFFFFFFFFFFFFFFFFFFFFFFFFFFFFFFFFFFFFFFFFFFFFFFFFFFFFFFFFFF
310
F000FFFFFFFFFFFFFFFFFFFFFFFFFFFFFFFFFFFFFFFFFFFFFFFFFFFFFFFFFFFF
310
FFFFFFFFFFFFFFFFFFFFFFFFFFFFFFFFFFFFFFFFFFFFFFFFFFFFFFFFFFFFFFFF
310
FFFFFFFFFFFFFFFFFFFFFFFFFFFFFFFFFFFFFFFFFFFFFFFFF000FFFFFFFFFFFF
310
FFFFFFFFFFFFFFFFFFFFFFFFFFFFFFFFFFFFFFFFFFFFFFFFFFFFFFFFFFFFFFFF
310
FFFFFFFFFFFFFFFFFFFFFFFFFFFFFFFFFFFFFFFFFFFFFFFFFFFFFFFFFFFFFFFF
310
FFFFFFFFFFFFFFFFFFFFFFFFFFFFFFFFF000FFFFFFFFFFFFFFFFFFFFFFFFFFFF
310
FFFFFFFFFFFFFFFFFFFFFFFFFFFFFFFFFFFFFFFFFFFFFFFFFFFFFFFFFFFFFFFF
310
FFFFFFFFFFFFFFFFFFFFFFFFFFFFFFFFFFFFFFFFFFFFFFFFFFFFFFFFFFFFFFFF
310
FFFFFFFFFFFFFFFFF000FFFFFFFFFFFFFFFFFFFFFFFFFFFFFFFFFFFFFFFFFFFF
310
FFFFFFFFFFFFFFFFFFFFFFFFFFFFFFFFFFFFFFFFFFFFFFFFFFFFFFFFFFFFFFFF
310
FFFFFFFFFFFFFFFFFFFFFFFFFFFFFFFFFFFFFFFFFFFFFFFFFFFFFFFFFFFFFFFF
310
F000FFFFFFFFFFFFFFFFFFFFFFFFFFFFFFFFFFFFFFFFFFFFFFFFFFFFFFFFFFFF
310
FFFFFFFFFFFFFFFFFFFFFFFFFFFFFFFFFFFFFFFFFFFFFFFFFFFFFFFFFFFFFFFF
310
FFFFFFFFFFFFFFFFFFFFFFFFFFFFFFFFFFFFFFFFFFFFFFFFF000FFFFFFFFFFFF
310
FFFFFFFFFFFFFFFFFFFFFFFFFFFFFFFFFFFFFFFFFFFFFFFFFFFFFFFFFFFFFFFF
310
FFFFFFFFFFFFFFFFFFFFFFFFFFFFFFFFFFFFFFFFFFFFFFFFFFFFFFFFFFFFFFFF
310
FFFFFFFFFFFFFFFFFFFFFFFFFFFFFFFFF000FFFFFFFFFFFFFFFFFFFFFFFFFFFF
310
FFFFFFFFFFFFFFFFFFFFFFFFFFFFFFFFFFFFFFFFFFFFFFFFFFFFFFFFFFFFFFFF
310
FFFFFFFFFFFFFFFFFFFFFFFFFFFFFFFFFFFFFFFFFFFFFFFFFFFFFFFFFFFFFFFF
310
FFFFFFFFFFFFFFFFF000FFFFFFFFFFFFFFFFFFFFFFFFFFFFFFFFFFFFFFFFFFFF
310
FFFFFFFFFFFFFFFFFFFFFFFFFFFFFFFFFFFFFFFFFFFFFFFFFFFFFFFFFFFFFFFF
310
FFFFFFFFFFFFFFFFFFFFFFFFFFFFFFFFFFFFFFFFFFFFFFFFFFFFFFFFFFFFFFFF
310
F000FFFFFFFFFFFFFFFFFFFFFFFFFFFFFFFFFFFFFFFFFFFFFFFFFFFFFFFFFFFF
310
FFFFFFFFFFFFFFFFFFFFFFFFFFFFFFFFFFFFFFFFFFFFFFFFFFFFFFFFFFFFFFFF
310
FFFFFFFFFFFFFFFFFFFFFFFFFFFFFFFFFFFFFFFFFFFFFFFFF000FFFFFFFFFFFF
310
FFFFFFFFFFFFFFFFFFFFFFFFFFFFFFFFFFFFFFFFFFFFFFFFFFFFFFFFFFFFFFFF
310
FFFFFFFFFFFFFFFFFFFFFFFFFFFFFFFFFFFFFFFFFFFFFFFFFFFFFFFFFFFFFFFF
310
FFFFFFFFFFFFFFFFFFFFFFFFFFFFFFFFF0000000000000000000000000000000
310
0000000000000000000000000000000000000000000000000000000000000000
310
0000000000000000000000000000000000000000000000000000000000000000
310
0000000000000000000000000000000000000000000000000000000000000000
310
0000000000000000000000000000000000000000000000000000000000000000
310
0000000000000000000000000000000000000000000000000000000000000000
310
0000000000000000000000000000000000000000000000000000000000000000
310
0000000000000000000000000000000000000000000000000000000000000000
310
0000000000000000000000000000000000000000000000000000000000000000
310
0000000000000000000000000000000000000000000000000000000000000000
310
0000000000000000000000000000000000000000000000000000000000000000
310
0000000000000000000000000000000000000000000000000000000000000000
310
0000000000000000000000000000000000000000000000000000000000000000
310
0000000000000000000000000000000000000000000000000000000000000000
310
0000000000000000000000000000000000000000000000000000000000000000
310
0000000000000000000000000000000000000000000000000000000000000000
  1
OLE
  0
ENDSEC
  0
SECTION
  2
OBJECTS
  0
DICTIONARY
  5
C
330
0
100
AcDbDictionary
281
     1
  3
ACAD_GROUP
350
D
  3
ACAD_LAYOUT
350
1A
  3
ACAD_MLINESTYLE
350
17
  3
ACAD_PLOTSETTINGS
350
19
  3
ACAD_PLOTSTYLENAME
350
E
  3
ACAD_SCALELIST
350
47
  0
DICTIONARY
  5
D
102
{ACAD_REACTORS
330
C
102
}
330
C
100
AcDbDictionary
281
     1
  0
DICTIONARY
  5
1A
102
{ACAD_REACTORS
330
C
102
}
330
C
100
AcDbDictionary
281
     1
  3
Layout1
350
1E
  3
Layout2
350
26
  3
Model
350
22
  0
DICTIONARY
  5
17
102
{ACAD_REACTORS
330
C
102
}
330
C
100
AcDbDictionary
281
     1
  3
Standard
350
18
  0
DICTIONARY
  5
19
102
{ACAD_REACTORS
330
C
102
}
330
C
100
AcDbDictionary
281
     1
  0
ACDBDICTIONARYWDFLT
  5
E
102
{ACAD_REACTORS
330
C
102
}
330
C
100
AcDbDictionary
281
     1
  3
Normal
350
F
100
AcDbDictionaryWithDefault
340
F
  0
DICTIONARY
  5
47
102
{ACAD_REACTORS
330
C
102
}
330
C
100
AcDbDictionary
281
     1
  3
A0
350
48
  3
A1
350
49
  3
A2
350
4A
  3
A3
350
4B
  3
A4
350
4C
  3
A5
350
4D
  3
A6
350
4E
  3
A7
350
4F
  3
A8
350
50
  3
A9
350
51
  3
B0
350
52
  3
B1
350
53
  3
B2
350
54
  3
B3
350
55
  3
B4
350
56
  3
B5
350
57
  3
B6
350
58
  3
B7
350
59
  3
B8
350
5A
  3
B9
350
5B
  3
C0
350
5C
  3
C1
350
5D
  3
C2
350
5E
  3
C3
350
5F
  3
C4
350
60
  3
C5
350
61
  3
C6
350
62
  3
C7
350
63
  3
C8
350
64
  3
C9
350
65
  3
D0
350
66
  3
D1
350
67
  3
D2
350
68
  0
LAYOUT
  5
1E
102
{ACAD_REACTORS
330
1A
102
}
330
1A
100
AcDbPlotSettings
  1

  2
none_device
  4

  6

 40
0.0
 41
0.0
 42
0.0
 43
0.0
 44
0.0
 45
0.0
 46
0.0
 47
0.0
 48
0.0
 49
0.0
140
0.0
141
0.0
142
1.0
143
1.0
 70
   688
 72
     1
 73
     0
 74
     5
  7

 75
    16
147
1.0
148
0.0
149
0.0
100
AcDbLayout
  1
Layout1
 70
     1
 71
     1
 10
0.0
 20
0.0
 11
420.0
 21
297.0
 12
0.0
 22
0.0
 32
0.0
 14
1.0000000000E+20
 24
1.0000000000E+20
 34
1.0000000000E+20
 15
-1.0000000000E+20
 25
-1.0000000000E+20
 35
-1.0000000000E+20
146
0.0
 13
0.0
 23
0.0
 33
0.0
 16
1.0
 26
0.0
 36
0.0
 17
0.0
 27
1.0
 37
0.0
 76
     0
330
1B
  0
LAYOUT
  5
26
102
{ACAD_REACTORS
330
1A
102
}
330
1A
100
AcDbPlotSettings
  1

  2
none_device
  4

  6

 40
0.0
 41
0.0
 42
0.0
 43
0.0
 44
0.0
 45
0.0
 46
0.0
 47
0.0
 48
0.0
 49
0.0
140
0.0
141
0.0
142
1.0
143
1.0
 70
   688
 72
     1
 73
     0
 74
     5
  7

 75
    16
147
1.0
148
0.0
149
0.0
100
AcDbLayout
  1
Layout2
 70
     1
 71
     2
 10
0.0
 20
0.0
 11
0.0
 21
0.0
 12
0.0
 22
0.0
 32
0.0
 14
0.0
 24
0.0
 34
0.0
 15
0.0
 25
0.0
 35
0.0
146
0.0
 13
0.0
 23
0.0
 33
0.0
 16
1.0
 26
0.0
 36
0.0
 17
0.0
 27
1.0
 37
0.0
 76
     0
330
23
  0
LAYOUT
  5
22
102
{ACAD_REACTORS
330
1A
102
}
330
1A
100
AcDbPlotSettings
  1

  2
none_device
  4
Letter_(8.50_x_11.00_Inches)
  6

 40
6.35
 41
6.35
 42
6.35000508
 43
6.35000508
 44
215.9
 45
279.4
 46
0.0
 47
0.0
 48
0.0
 49
0.0
140
0.0
141
0.0
142
1.0
143
1.0
 70
  1712
 72
     1
 73
     0
 74
     0
  7

 75
     0
147
1.0
148
0.0
149
0.0
100
AcDbLayout
  1
Model
 70
     1
 71
     0
 10
0.0
 20
0.0
 11
297.0
 21
210.0
 12
0.0
 22
0.0
 32
0.0
 14
0.0
 24
0.0
 34
0.0
 15
297.0
 25
210.0
 35
0.0
146
0.0
 13
0.0
 23
0.0
 33
0.0
 16
1.0
 26
0.0
 36
0.0
 17
0.0
 27
1.0
 37
0.0
 76
     0
330
1F
331
29
  0
MLINESTYLE
  5
18
102
{ACAD_REACTORS
330
17
102
}
330
17
100
AcDbMlineStyle
  2
Standard
 70
     0
  3

 62
   256
 51
90.0
 52
90.0
 71
     2
 49
0.5
 62
   256
  6
BYLAYER
 49
-0.5
 62
   256
  6
BYLAYER
  0
ACDBPLACEHOLDER
  5
F
102
{ACAD_REACTORS
330
E
102
}
330
E
  0
SCALE
  5
48
102
{ACAD_REACTORS
330
47
102
}
330
47
100
AcDbScale
 70
     0
300
1:1
140
1.0
141
1.0
290
     1
  0
SCALE
  5
49
102
{ACAD_REACTORS
330
47
102
}
330
47
100
AcDbScale
 70
     0
300
1:2
140
1.0
141
2.0
290
     0
  0
SCALE
  5
4A
102
{ACAD_REACTORS
330
47
102
}
330
47
100
AcDbScale
 70
     0
300
1:4
140
1.0
141
4.0
290
     0
  0
SCALE
  5
4B
102
{ACAD_REACTORS
330
47
102
}
330
47
100
AcDbScale
 70
     0
300
1:5
140
1.0
141
5.0
290
     0
  0
SCALE
  5
4C
102
{ACAD_REACTORS
330
47
102
}
330
47
100
AcDbScale
 70
     0
300
1:8
140
1.0
141
8.0
290
     0
  0
SCALE
  5
4D
102
{ACAD_REACTORS
330
47
102
}
330
47
100
AcDbScale
 70
     0
300
1:10
140
1.0
141
10.0
290
     0
  0
SCALE
  5
4E
102
{ACAD_REACTORS
330
47
102
}
330
47
100
AcDbScale
 70
     0
300
1:16
140
1.0
141
16.0
290
     0
  0
SCALE
  5
4F
102
{ACAD_REACTORS
330
47
102
}
330
47
100
AcDbScale
 70
     0
300
1:20
140
1.0
141
20.0
290
     0
  0
SCALE
  5
50
102
{ACAD_REACTORS
330
47
102
}
330
47
100
AcDbScale
 70
     0
300
1:30
140
1.0
141
30.0
290
     0
  0
SCALE
  5
51
102
{ACAD_REACTORS
330
47
102
}
330
47
100
AcDbScale
 70
     0
300
1:40
140
1.0
141
40.0
290
     0
  0
SCALE
  5
52
102
{ACAD_REACTORS
330
47
102
}
330
47
100
AcDbScale
 70
     0
300
1:50
140
1.0
141
50.0
290
     0
  0
SCALE
  5
53
102
{ACAD_REACTORS
330
47
102
}
330
47
100
AcDbScale
 70
     0
300
1:100
140
1.0
141
100.0
290
     0
  0
SCALE
  5
54
102
{ACAD_REACTORS
330
47
102
}
330
47
100
AcDbScale
 70
     0
300
2:1
140
2.0
141
1.0
290
     0
  0
SCALE
  5
55
102
{ACAD_REACTORS
330
47
102
}
330
47
100
AcDbScale
 70
     0
300
4:1
140
4.0
141
1.0
290
     0
  0
SCALE
  5
56
102
{ACAD_REACTORS
330
47
102
}
330
47
100
AcDbScale
 70
     0
300
8:1
140
8.0
141
1.0
290
     0
  0
SCALE
  5
57
102
{ACAD_REACTORS
330
47
102
}
330
47
100
AcDbScale
 70
     0
300
10:1
140
10.0
141
1.0
290
     0
  0
SCALE
  5
58
102
{ACAD_REACTORS
330
47
102
}
330
47
100
AcDbScale
 70
     0
300
100:1
140
100.0
141
1.0
290
     0
  0
SCALE
  5
59
102
{ACAD_REACTORS
330
47
102
}
330
47
100
AcDbScale
 70
     0
300
1/128" = 1'-0"
140
0.0078125
141
12.0
290
     0
  0
SCALE
  5
5A
102
{ACAD_REACTORS
330
47
102
}
330
47
100
AcDbScale
 70
     0
300
1/64" = 1'-0"
140
0.015625
141
12.0
290
     0
  0
SCALE
  5
5B
102
{ACAD_REACTORS
330
47
102
}
330
47
100
AcDbScale
 70
     0
300
1/32" = 1'-0"
140
0.03125
141
12.0
290
     0
  0
SCALE
  5
5C
102
{ACAD_REACTORS
330
47
102
}
330
47
100
AcDbScale
 70
     0
300
1/16" = 1'-0"
140
0.0625
141
12.0
290
     0
  0
SCALE
  5
5D
102
{ACAD_REACTORS
330
47
102
}
330
47
100
AcDbScale
 70
     0
300
3/32" = 1'-0"
140
0.09375
141
12.0
290
     0
  0
SCALE
  5
5E
102
{ACAD_REACTORS
330
47
102
}
330
47
100
AcDbScale
 70
     0
300
1/8" = 1'-0"
140
0.125
141
12.0
290
     0
  0
SCALE
  5
5F
102
{ACAD_REACTORS
330
47
102
}
330
47
100
AcDbScale
 70
     0
300
3/16" = 1'-0"
140
0.1875
141
12.0
290
     0
  0
SCALE
  5
60
102
{ACAD_REACTORS
330
47
102
}
330
47
100
AcDbScale
 70
     0
300
1/4" = 1'-0"
140
0.25
141
12.0
290
     0
  0
SCALE
  5
61
102
{ACAD_REACTORS
330
47
102
}
330
47
100
AcDbScale
 70
     0
300
3/8" = 1'-0"
140
0.375
141
12.0
290
     0
  0
SCALE
  5
62
102
{ACAD_REACTORS
330
47
102
}
330
47
100
AcDbScale
 70
     0
300
1/2" = 1'-0"
140
0.5
141
12.0
290
     0
  0
SCALE
  5
63
102
{ACAD_REACTORS
330
47
102
}
330
47
100
AcDbScale
 70
     0
300
3/4" = 1'-0"
140
0.75
141
12.0
290
     0
  0
SCALE
  5
64
102
{ACAD_REACTORS
330
47
102
}
330
47
100
AcDbScale
 70
     0
300
1" = 1'-0"
140
1.0
141
12.0
290
     0
  0
SCALE
  5
65
102
{ACAD_REACTORS
330
47
102
}
330
47
100
AcDbScale
 70
     0
300
1-1/2" = 1'-0"
140
1.5
141
12.0
290
     0
  0
SCALE
  5
66
102
{ACAD_REACTORS
330
47
102
}
330
47
100
AcDbScale
 70
     0
300
3" = 1'-0"
140
3.0
141
12.0
290
     0
  0
SCALE
  5
67
102
{ACAD_REACTORS
330
47
102
}
330
47
100
AcDbScale
 70
     0
300
6" = 1'-0"
140
6.0
141
12.0
290
     0
  0
SCALE
  5
68
102
{ACAD_REACTORS
330
47
102
}
330
47
100
AcDbScale
 70
     0
300
1'-0" = 1'-0"
140
12.0
141
12.0
290
     0
  0
ENDSEC
  0
EOF
