  0
SECTION
  2
HEADER
  9
$ACADVER
  1
AC1015
  9
$ACADMAINTVER
 70
    13
  9
$DWGCODEPAGE
  3
ANSI_1252
  9
$INSBASE
 10
0.0
 20
0.0
 30
0.0
  9
$EXTMIN
 10
-35.07575319733518
 20
-56.89840330226286
 30
-0.0000000000000053
  9
$EXTMAX
 10
121.3900446332231
 20
31.41938882248007
 30
0.0000000000000099
  9
$LIMMIN
 10
0.0
 20
0.0
  9
$LIMMAX
 10
420.0
 20
297.0
  9
$ORTHOMODE
 70
     0
  9
$REGENMODE
 70
     1
  9
$FILLMODE
 70
     1
  9
$QTEXTMODE
 70
     0
  9
$MIRRTEXT
 70
     1
  9
$LTSCALE
 40
1.0
  9
$ATTMODE
 70
     1
  9
$TEXTSIZE
 40
2.5
  9
$TRACEWID
 40
1.0
  9
$TEXTSTYLE
  7
STANDARD
  9
$CLAYER
  8
3
  9
$CELTYPE
  6
ByLayer
  9
$CECOLOR
 62
     0
  9
$CELTSCALE
 40
1.0
  9
$DISPSILH
 70
     0
  9
$DIMSCALE
 40
1.0
  9
$DIMASZ
 40
4.57
  9
$DIMEXO
 40
0.0
  9
$DIMDLI
 40
2.299999999999998
  9
$DIMRND
 40
0.0
  9
$DIMDLE
 40
0.0
  9
$DIMEXE
 40
2.5
  9
$DIMTP
 40
0.1
  9
$DIMTM
 40
0.1
  9
$DIMTXT
 40
4.57
  9
$DIMCEN
 40
2.0
  9
$DIMTSZ
 40
0.0
  9
$DIMTOL
 70
     0
  9
$DIMLIM
 70
     0
  9
$DIMTIH
 70
     0
  9
$DIMTOH
 70
     0
  9
$DIMSE1
 70
     0
  9
$DIMSE2
 70
     0
  9
$DIMTAD
 70
     1
  9
$DIMZIN
 70
     8
  9
$DIMBLK
  1

  9
$DIMASO
 70
     1
  9
$DIMSHO
 70
     1
  9
$DIMPOST
  1

  9
$DIMAPOST
  1

  9
$DIMALT
 70
     0
  9
$DIMALTD
 70
     2
  9
$DIMALTF
 40
25.4
  9
$DIMLFAC
 40
1.0
  9
$DIMTOFL
 70
     1
  9
$DIMTVP
 40
0.0
  9
$DIMTIX
 70
     0
  9
$DIMSOXD
 70
     0
  9
$DIMSAH
 70
     0
  9
$DIMBLK1
  1

  9
$DIMBLK2
  1

  9
$DIMSTYLE
  2
GEN-ISO_TDM
  9
$DIMCLRD
 70
     0
  9
$DIMCLRE
 70
     0
  9
$DIMCLRT
 70
     7
  9
$DIMTFAC
 40
0.7
  9
$DIMGAP
 40
1.5
  9
$DIMJUST
 70
     0
  9
$DIMSD1
 70
     0
  9
$DIMSD2
 70
     0
  9
$DIMTOLJ
 70
     1
  9
$DIMTZIN
 70
     8
  9
$DIMALTZ
 70
     8
  9
$DIMALTTZ
 70
     8
  9
$DIMUPT
 70
     0
  9
$DIMDEC
 70
     2
  9
$DIMTDEC
 70
     2
  9
$DIMALTU
 70
     2
  9
$DIMALTTD
 70
     2
  9
$DIMTXSTY
  7
GENPRESET
  9
$DIMAUNIT
 70
     0
  9
$DIMADEC
 70
     1
  9
$DIMALTRND
 40
0.0
  9
$DIMAZIN
 70
     0
  9
$DIMDSEP
 70
    46
  9
$DIMATFIT
 70
     3
  9
$DIMFRAC
 70
     0
  9
$DIMLDRBLK
  1

  9
$DIMLUNIT
 70
     2
  9
$DIMLWD
 70
    -2
  9
$DIMLWE
 70
    -2
  9
$DIMTMOVE
 70
     0
  9
$LUNITS
 70
     2
  9
$LUPREC
 70
     0
  9
$SKETCHINC
 40
1.0
  9
$FILLETRAD
 40
10.0
  9
$AUNITS
 70
     0
  9
$AUPREC
 70
     0
  9
$MENU
  1
.
  9
$ELEVATION
 40
0.0
  9
$PELEVATION
 40
0.0
  9
$THICKNESS
 40
0.0
  9
$LIMCHECK
 70
     0
  9
$CHAMFERA
 40
10.0
  9
$CHAMFERB
 40
10.0
  9
$CHAMFERC
 40
20.0
  9
$CHAMFERD
 40
0.0
  9
$SKPOLY
 70
     0
  9
$TDCREATE
 40
2454355.550041180
  9
$TDUCREATE
 40
2454355.508374514
  9
$TDUPDATE
 40
2454448.470952037
  9
$TDUUPDATE
 40
2454448.429285370
  9
$TDINDWG
 40
0.3204612963
  9
$TDUSRTIMER
 40
0.3204611111
  9
$USRTIMER
 70
     1
  9
$ANGBASE
 50
0.0
  9
$ANGDIR
 70
     0
  9
$PDMODE
 70
     0
  9
$PDSIZE
 40
-1.0
  9
$PLINEWID
 40
0.0
  9
$SPLFRAME
 70
     0
  9
$SPLINETYPE
 70
     6
  9
$SPLINESEGS
 70
     8
  9
$HANDSEED
  5
24FF
  9
$SURFTAB1
 70
     6
  9
$SURFTAB2
 70
     6
  9
$SURFTYPE
 70
     6
  9
$SURFU
 70
     6
  9
$SURFV
 70
     6
  9
$UCSBASE
  2

  9
$UCSNAME
  2

  9
$UCSORG
 10
0.0
 20
0.0
 30
0.0
  9
$UCSXDIR
 10
1.0
 20
0.0
 30
0.0
  9
$UCSYDIR
 10
0.0
 20
1.0
 30
0.0
  9
$UCSORTHOREF
  2

  9
$UCSORTHOVIEW
 70
     0
  9
$UCSORGTOP
 10
0.0
 20
0.0
 30
0.0
  9
$UCSORGBOTTOM
 10
0.0
 20
0.0
 30
0.0
  9
$UCSORGLEFT
 10
0.0
 20
0.0
 30
0.0
  9
$UCSORGRIGHT
 10
0.0
 20
0.0
 30
0.0
  9
$UCSORGFRONT
 10
0.0
 20
0.0
 30
0.0
  9
$UCSORGBACK
 10
0.0
 20
0.0
 30
0.0
  9
$PUCSBASE
  2

  9
$PUCSNAME
  2

  9
$PUCSORG
 10
0.0
 20
0.0
 30
0.0
  9
$PUCSXDIR
 10
1.0
 20
0.0
 30
0.0
  9
$PUCSYDIR
 10
0.0
 20
1.0
 30
0.0
  9
$PUCSORTHOREF
  2

  9
$PUCSORTHOVIEW
 70
     0
  9
$PUCSORGTOP
 10
0.0
 20
0.0
 30
0.0
  9
$PUCSORGBOTTOM
 10
0.0
 20
0.0
 30
0.0
  9
$PUCSORGLEFT
 10
0.0
 20
0.0
 30
0.0
  9
$PUCSORGRIGHT
 10
0.0
 20
0.0
 30
0.0
  9
$PUCSORGFRONT
 10
0.0
 20
0.0
 30
0.0
  9
$PUCSORGBACK
 10
0.0
 20
0.0
 30
0.0
  9
$USERI1
 70
     0
  9
$USERI2
 70
     0
  9
$USERI3
 70
     0
  9
$USERI4
 70
     0
  9
$USERI5
 70
     0
  9
$USERR1
 40
0.0
  9
$USERR2
 40
0.0
  9
$USERR3
 40
0.0
  9
$USERR4
 40
0.0
  9
$USERR5
 40
0.0
  9
$WORLDVIEW
 70
     1
  9
$SHADEDGE
 70
     3
  9
$SHADEDIF
 70
    70
  9
$TILEMODE
 70
     1
  9
$MAXACTVP
 70
    64
  9
$PINSBASE
 10
0.0
 20
0.0
 30
0.0
  9
$PLIMCHECK
 70
     0
  9
$PEXTMIN
 10
1.000000000000000E+20
 20
1.000000000000000E+20
 30
1.000000000000000E+20
  9
$PEXTMAX
 10
-1.000000000000000E+20
 20
-1.000000000000000E+20
 30
-1.000000000000000E+20
  9
$PLIMMIN
 10
0.0
 20
0.0
  9
$PLIMMAX
 10
420.0
 20
297.0
  9
$UNITMODE
 70
     0
  9
$VISRETAIN
 70
     1
  9
$PLINEGEN
 70
     0
  9
$PSLTSCALE
 70
     1
  9
$TREEDEPTH
 70
  3020
  9
$CMLSTYLE
  2
Standard
  9
$CMLJUST
 70
     0
  9
$CMLSCALE
 40
20.0
  9
$PROXYGRAPHICS
 70
     1
  9
$MEASUREMENT
 70
     1
  9
$CELWEIGHT
370
    -1
  9
$ENDCAPS
280
     0
  9
$JOINSTYLE
280
     0
  9
$LWDISPLAY
290
     1
  9
$INSUNITS
 70
     4
  9
$HYPERLINKBASE
  1

  9
$STYLESHEET
  1

  9
$XEDIT
290
     1
  9
$CEPSNTYPE
380
     0
  9
$PSTYLEMODE
290
     1
  9
$FINGERPRINTGUID
  2
{245634DB-B981-41E4-8F20-D13C5AF96EA0}
  9
$VERSIONGUID
  2
{40343DBC-8187-4FEB-95F4-8954ADB5E5DD}
  9
$EXTNAMES
290
     1
  9
$PSVPSCALE
 40
0.0
  9
$OLESTARTUP
290
     0
  0
ENDSEC
  0
SECTION
  2
CLASSES
  0
CLASS
  1
ACDBDICTIONARYWDFLT
  2
AcDbDictionaryWithDefault
  3
AutoCAD 2000
 90
        0
280
     0
281
     0
  0
CLASS
  1
ACDBPLACEHOLDER
  2
AcDbPlaceHolder
  3
AutoCAD 2000
 90
        0
280
     0
281
     0
  0
CLASS
  1
LAYOUT
  2
AcDbLayout
  3
AutoCAD 2000
 90
        0
280
     0
281
     0
  0
CLASS
  1
DICTIONARYVAR
  2
AcDbDictionaryVar
  3
AutoCAD 2000
 90
        0
280
     0
281
     0
  0
ENDSEC
  0
SECTION
  2
TABLES
  0
TABLE
  2
VPORT
  5
8
330
0
100
AcDbSymbolTable
 70
     3
  0
VPORT
  5
24FE
330
8
100
AcDbSymbolTableRecord
100
AcDbViewportTableRecord
  2
*Active
 70
     0
 10
0.0
 20
0.0
 11
1.0
 21
1.0
 12
-55.66327852995602
 22
-88.2456430830914
 13
0.0
 23
0.0
 14
10.0
 24
10.0
 15
10.0
 25
10.0
 16
0.0
 26
0.0
 36
1.0
 17
98.8204242479
 27
75.5061358432
 37
0.0
 40
100.9014578084133
 41
1.558227848101265
 42
50.0
 43
0.0
 44
0.0
 50
0.0
 51
0.0
 71
     0
 72
  2000
 73
     1
 74
     3
 75
     0
 76
     0
 77
     0
 78
     0
281
     0
 65
     1
110
0.0
120
0.0
130
0.0
111
1.0
121
0.0
131
0.0
112
0.0
122
1.0
132
0.0
 79
     0
146
0.0
  0
ENDTAB
  0
TABLE
  2
LTYPE
  5
5
330
0
100
AcDbSymbolTable
 70
    10
  0
LTYPE
  5
14
330
5
100
AcDbSymbolTableRecord
100
AcDbLinetypeTableRecord
  2
ByBlock
 70
     0
  3

 72
    65
 73
     0
 40
0.0
  0
LTYPE
  5
15
330
5
100
AcDbSymbolTableRecord
100
AcDbLinetypeTableRecord
  2
ByLayer
 70
     0
  3

 72
    65
 73
     0
 40
0.0
  0
LTYPE
  5
16
330
5
100
AcDbSymbolTableRecord
100
AcDbLinetypeTableRecord
  2
Continuous
 70
     0
  3
Solid line
 72
    65
 73
     0
 40
0.0
  0
LTYPE
  5
2A
330
5
100
AcDbSymbolTableRecord
100
AcDbLinetypeTableRecord
  2
SLD-Durchgehend
 70
     0
  3
SolidWorks Line Style
 72
    65
 73
     0
 40
0.0
  0
LTYPE
  5
2B
330
5
100
AcDbSymbolTableRecord
100
AcDbLinetypeTableRecord
  2
SLD-Gestrichelt
 70
     0
  3
SolidWorks Line Style
 72
    65
 73
     2
 40
1.905
 49
1.27
 74
     0
 49
-0.635
 74
     0
  0
LTYPE
  5
2C
330
5
100
AcDbSymbolTableRecord
100
AcDbLinetypeTableRecord
  2
SLD-Phantom
 70
     0
  3
SolidWorks Line Style
 72
    65
 73
     6
 40
12.7
 49
6.349999999999997
 74
     0
 49
-1.27
 74
     0
 49
1.27
 74
     0
 49
-1.27
 74
     0
 49
1.27
 74
     0
 49
-1.27
 74
     0
  0
LTYPE
  5
2D
330
5
100
AcDbSymbolTableRecord
100
AcDbLinetypeTableRecord
  2
SLD-Kette
 70
     0
  3
SolidWorks Line Style
 72
    65
 73
     4
 40
10.16
 49
6.349999999999997
 74
     0
 49
-1.27
 74
     0
 49
1.27
 74
     0
 49
-1.27
 74
     0
  0
LTYPE
  5
2E
330
5
100
AcDbSymbolTableRecord
100
AcDbLinetypeTableRecord
  2
SLD-Punktstrich
 70
     0
  3
SolidWorks Line Style
 72
    65
 73
     4
 40
19.05
 49
15.24
 74
     0
 49
-1.27
 74
     0
 49
1.27
 74
     0
 49
-1.27
 74
     0
  0
LTYPE
  5
2F
330
5
100
AcDbSymbolTableRecord
100
AcDbLinetypeTableRecord
  2
SLD-Naht
 70
     0
  3
SolidWorks Line Style
 72
    65
 73
     2
 40
0.635
 49
0.0
 74
     0
 49
-0.635
 74
     0
  0
LTYPE
  5
30
330
5
100
AcDbSymbolTableRecord
100
AcDbLinetypeTableRecord
  2
SLD-Dicke-Dünne-Kette
 70
     0
  3
SolidWorks Line Style
 72
    65
 73
     4
 40
10.16
 49
6.349999999999997
 74
     0
 49
-1.27
 74
     0
 49
1.27
 74
     0
 49
-1.27
 74
     0
  0
LTYPE
  5
205
330
5
100
AcDbSymbolTableRecord
100
AcDbLinetypeTableRecord
  2
GEN3A
 70
     0
  3
 - - - - -
 72
    65
 73
     2
 40
3.1
 49
2.5
 74
     0
 49
-0.6
 74
     0
  0
LTYPE
  5
207
330
5
100
AcDbSymbolTableRecord
100
AcDbLinetypeTableRecord
  2
GEN7A
 70
     0
  3
__ . __ . __
 72
    65
 73
     4
 40
7.5
 49
5.0
 74
     0
 49
-1.25
 74
     0
 49
0.0
 74
     0
 49
-1.25
 74
     0
  0
ENDTAB
  0
TABLE
  2
LAYER
  5
2
102
{ACAD_XDICTIONARY
360
268
102
}
330
0
100
AcDbSymbolTable
 70
    16
  0
LAYER
  5
10
330
2
100
AcDbSymbolTableRecord
100
AcDbLayerTableRecord
  2
0
 70
     0
 62
     7
  6
Continuous
370
    -3
390
F
  0
LAYER
  5
31
330
2
100
AcDbSymbolTableRecord
100
AcDbLayerTableRecord
  2
FORMAT
 70
     0
 62
     7
  6
SLD-Durchgehend
370
     0
390
F
  0
LAYER
  5
32
330
2
100
AcDbSymbolTableRecord
100
AcDbLayerTableRecord
  2
VERMASSUNG
 70
     0
 62
     7
  6
SLD-Durchgehend
370
     0
390
F
  0
LAYER
  5
33
330
2
100
AcDbSymbolTableRecord
100
AcDbLayerTableRecord
  2
KOPF__DÜNN
 70
     0
 62
     7
  6
SLD-Durchgehend
370
     0
390
F
  0
LAYER
  5
34
330
2
100
AcDbSymbolTableRecord
100
AcDbLayerTableRecord
  2
KOPF__DICK
 70
     0
 62
     7
  6
SLD-Durchgehend
370
    15
390
F
  0
LAYER
  5
1C4
330
2
100
AcDbSymbolTableRecord
100
AcDbLayerTableRecord
  2
Defpoints
 70
     0
 62
     7
  6
Continuous
290
     0
370
    -3
390
F
  0
LAYER
  5
203
330
2
100
AcDbSymbolTableRecord
100
AcDbLayerTableRecord
  2
1
 70
     0
 62
     4
  6
Continuous
370
    -3
390
F
  0
LAYER
  5
204
330
2
100
AcDbSymbolTableRecord
100
AcDbLayerTableRecord
  2
3
 70
     0
 62
     1
  6
GEN3A
370
    -3
390
F
  0
LAYER
  5
206
330
2
100
AcDbSymbolTableRecord
100
AcDbLayerTableRecord
  2
4
 70
     0
 62
     2
  6
GEN7A
370
    -3
390
F
  0
LAYER
  5
208
330
2
100
AcDbSymbolTableRecord
100
AcDbLayerTableRecord
  2
SK1
 70
     0
 62
     4
  6
Continuous
370
    -3
390
F
  0
LAYER
  5
212
330
2
100
AcDbSymbolTableRecord
100
AcDbLayerTableRecord
  2
SK4
 70
     0
 62
     2
  6
GEN7A
370
    -3
390
F
  0
LAYER
  5
238
330
2
100
AcDbSymbolTableRecord
100
AcDbLayerTableRecord
  2
SK2
 70
     0
 62
     7
  6
Continuous
370
    -3
390
F
  0
LAYER
  5
251
330
2
100
AcDbSymbolTableRecord
100
AcDbLayerTableRecord
  2
2
 70
     0
 62
     7
  6
Continuous
370
    -3
390
F
  0
LAYER
  5
267
330
2
100
AcDbSymbolTableRecord
100
AcDbLayerTableRecord
  2
5
 70
     0
 62
     7
  6
Continuous
370
    -3
390
F
  0
LAYER
  5
28C
330
2
100
AcDbSymbolTableRecord
100
AcDbLayerTableRecord
  2
SK3
 70
     0
 62
     1
  6
GEN3A
370
    -3
390
F
  0
LAYER
  5
400
330
2
100
AcDbSymbolTableRecord
100
AcDbLayerTableRecord
  2
1L
 70
     0
 62
     4
  6
Continuous
370
    -3
390
F
  0
ENDTAB
  0
TABLE
  2
STYLE
  5
3
330
0
100
AcDbSymbolTable
 70
     3
  0
STYLE
  5
11
330
3
100
AcDbSymbolTableRecord
100
AcDbTextStyleTableRecord
  2
STANDARD
 70
     0
 40
0.0
 41
1.0
 50
0.0
 71
     0
 42
2.5
  3
ISOCPEUR.TTF
  4

1001
ACAD
1000
ISOCPEUR
1071
       34
  0
STYLE
  5
35
330
3
100
AcDbSymbolTableRecord
100
AcDbTextStyleTableRecord
  2
SLDTEXTSTYLE0
 70
     0
 40
0.0
 41
1.0
 50
0.0
 71
     0
 42
0.2
  3
ISOCPEUR.TTF
  4

1001
ACAD
1000
ISOCPEUR
1071
       34
  0
STYLE
  5
23A
330
3
100
AcDbSymbolTableRecord
100
AcDbTextStyleTableRecord
  2
GENPRESET
 70
     0
 40
0.0
 41
1.0
 50
0.0
 71
     0
 42
3.5
  3
simplex.shx
  4

  0
ENDTAB
  0
TABLE
  2
VIEW
  5
6
330
0
100
AcDbSymbolTable
 70
     0
  0
ENDTAB
  0
TABLE
  2
UCS
  5
7
330
0
100
AcDbSymbolTable
 70
     0
  0
ENDTAB
  0
TABLE
  2
APPID
  5
9
330
0
100
AcDbSymbolTable
 70
     1
  0
APPID
  5
12
330
9
100
AcDbSymbolTableRecord
100
AcDbRegAppTableRecord
  2
ACAD
 70
     0
  0
ENDTAB
  0
TABLE
  2
DIMSTYLE
  5
A
330
0
100
AcDbSymbolTable
 70
     3
100
AcDbDimStyleTable
 71
     1
340
239
  0
DIMSTYLE
105
27
330
A
100
AcDbSymbolTableRecord
100
AcDbDimStyleTableRecord
  2
ISO-25
 70
     0
 41
2.5
 42
0.625
 43
3.75
 44
1.25
 73
     0
 74
     0
 77
     1
 78
     8
140
2.5
141
2.5
143
0.0393700787
147
0.625
171
     3
172
     1
271
     2
272
     2
274
     3
278
    44
283
     0
284
     8
340
11
  0
DIMSTYLE
105
1D2
102
{ACAD_REACTORS
330
499
330
49B
102
}
330
A
100
AcDbSymbolTableRecord
100
AcDbDimStyleTableRecord
  2
SLDDIMSTYLE0
 70
     0
 41
3.0
 44
0.0
 73
     0
 74
     0
 77
     2
 78
    12
140
2.0
144
0.5
147
0.5
173
     1
271
     0
272
     3
284
    12
340
35
  0
DIMSTYLE
105
239
102
{ACAD_REACTORS
330
21A0
330
21A5
102
}
330
A
100
AcDbSymbolTableRecord
100
AcDbDimStyleTableRecord
  2
GEN-ISO_TDM
 70
     0
 41
4.57
 42
0.0
 43
2.299999999999998
 44
2.5
 47
0.1
 48
0.1
 73
     0
 74
     0
 77
     1
 78
     8
140
4.57
141
2.0
146
0.7
147
1.5
172
     1
178
     7
179
     1
271
     2
272
     2
284
     8
285
     8
286
     8
340
23A
  0
ENDTAB
  0
TABLE
  2
BLOCK_RECORD
  5
1
330
0
100
AcDbSymbolTable
 70
    34
  0
BLOCK_RECORD
  5
1F
330
1
100
AcDbSymbolTableRecord
100
AcDbBlockTableRecord
  2
*Model_Space
340
22
  0
BLOCK_RECORD
  5
1B
330
1
100
AcDbSymbolTableRecord
100
AcDbBlockTableRecord
  2
*Paper_Space
340
1E
  0
BLOCK_RECORD
  5
23
330
1
100
AcDbSymbolTableRecord
100
AcDbBlockTableRecord
  2
*Paper_Space0
340
26
  0
BLOCK_RECORD
  5
1C5
330
1
100
AcDbSymbolTableRecord
100
AcDbBlockTableRecord
  2
*D1
340
0
  0
BLOCK_RECORD
  5
1DC
330
1
100
AcDbSymbolTableRecord
100
AcDbBlockTableRecord
  2
*D2
340
0
  0
BLOCK_RECORD
  5
2A0
330
1
100
AcDbSymbolTableRecord
100
AcDbBlockTableRecord
  2
A$C31AB3320
340
0
102
{BLKREFS
331
320
102
}
  0
BLOCK_RECORD
  5
374
330
1
100
AcDbSymbolTableRecord
100
AcDbBlockTableRecord
  2
A$C44845C43
340
0
  0
BLOCK_RECORD
  5
38E
330
1
100
AcDbSymbolTableRecord
100
AcDbBlockTableRecord
  2
*D5
340
0
  0
BLOCK_RECORD
  5
484
330
1
100
AcDbSymbolTableRecord
100
AcDbBlockTableRecord
  2
*D6
340
0
  0
BLOCK_RECORD
  5
48F
330
1
100
AcDbSymbolTableRecord
100
AcDbBlockTableRecord
  2
*D7
340
0
  0
BLOCK_RECORD
  5
498
330
1
100
AcDbSymbolTableRecord
100
AcDbBlockTableRecord
  2
A$C3FCB2D76
340
0
  0
BLOCK_RECORD
  5
BDE
330
1
100
AcDbSymbolTableRecord
100
AcDbBlockTableRecord
  2
*D9
340
0
  0
BLOCK_RECORD
  5
105F
330
1
100
AcDbSymbolTableRecord
100
AcDbBlockTableRecord
  2
*D10
340
0
  0
BLOCK_RECORD
  5
1074
330
1
100
AcDbSymbolTableRecord
100
AcDbBlockTableRecord
  2
*D11
340
0
  0
BLOCK_RECORD
  5
1083
330
1
100
AcDbSymbolTableRecord
100
AcDbBlockTableRecord
  2
*D12
340
0
  0
BLOCK_RECORD
  5
1098
330
1
100
AcDbSymbolTableRecord
100
AcDbBlockTableRecord
  2
*D13
340
0
  0
BLOCK_RECORD
  5
10A7
330
1
100
AcDbSymbolTableRecord
100
AcDbBlockTableRecord
  2
*D14
340
0
  0
BLOCK_RECORD
  5
10BC
330
1
100
AcDbSymbolTableRecord
100
AcDbBlockTableRecord
  2
*D15
340
0
  0
BLOCK_RECORD
  5
10CB
330
1
100
AcDbSymbolTableRecord
100
AcDbBlockTableRecord
  2
*D16
340
0
  0
BLOCK_RECORD
  5
11E5
330
1
100
AcDbSymbolTableRecord
100
AcDbBlockTableRecord
  2
*D17
340
0
  0
BLOCK_RECORD
  5
14CC
330
1
100
AcDbSymbolTableRecord
100
AcDbBlockTableRecord
  2
*D18
340
0
  0
BLOCK_RECORD
  5
14D7
330
1
100
AcDbSymbolTableRecord
100
AcDbBlockTableRecord
  2
*D19
340
0
  0
BLOCK_RECORD
  5
169C
330
1
100
AcDbSymbolTableRecord
100
AcDbBlockTableRecord
  2
*D20
340
0
  0
BLOCK_RECORD
  5
16A8
330
1
100
AcDbSymbolTableRecord
100
AcDbBlockTableRecord
  2
*D21
340
0
  0
BLOCK_RECORD
  5
16C6
330
1
100
AcDbSymbolTableRecord
100
AcDbBlockTableRecord
  2
*D22
340
0
  0
BLOCK_RECORD
  5
16D1
330
1
100
AcDbSymbolTableRecord
100
AcDbBlockTableRecord
  2
*D23
340
0
  0
BLOCK_RECORD
  5
1ABA
330
1
100
AcDbSymbolTableRecord
100
AcDbBlockTableRecord
  2
*D24
340
0
  0
BLOCK_RECORD
  5
1AC6
330
1
100
AcDbSymbolTableRecord
100
AcDbBlockTableRecord
  2
*D25
340
0
  0
BLOCK_RECORD
  5
1F56
330
1
100
AcDbSymbolTableRecord
100
AcDbBlockTableRecord
  2
*D26
340
0
  0
BLOCK_RECORD
  5
1F61
330
1
100
AcDbSymbolTableRecord
100
AcDbBlockTableRecord
  2
*D27
340
0
  0
BLOCK_RECORD
  5
23D0
330
1
100
AcDbSymbolTableRecord
100
AcDbBlockTableRecord
  2
*D29
340
0
  0
BLOCK_RECORD
  5
23DC
330
1
100
AcDbSymbolTableRecord
100
AcDbBlockTableRecord
  2
*D30
340
0
  0
ENDTAB
  0
ENDSEC
  0
SECTION
  2
BLOCKS
  0
BLOCK
  5
20
330
1F
100
AcDbEntity
  8
0
100
AcDbBlockBegin
  2
*Model_Space
 70
     0
 10
0.0
 20
0.0
 30
0.0
  3
*Model_Space
  1

  0
ENDBLK
  5
21
330
1F
100
AcDbEntity
  8
0
100
AcDbBlockEnd
  0
BLOCK
  5
1C
330
1B
100
AcDbEntity
 67
     1
  8
0
100
AcDbBlockBegin
  2
*Paper_Space
 70
     0
 10
0.0
 20
0.0
 30
0.0
  3
*Paper_Space
  1

  0
ENDBLK
  5
1D
330
1B
100
AcDbEntity
 67
     1
  8
0
100
AcDbBlockEnd
  0
BLOCK
  5
24
330
23
100
AcDbEntity
  8
0
100
AcDbBlockBegin
  2
*Paper_Space0
 70
     0
 10
0.0
 20
0.0
 30
0.0
  3
*Paper_Space0
  1

  0
ENDBLK
  5
25
330
23
100
AcDbEntity
  8
0
100
AcDbBlockEnd
  0
BLOCK
  5
1D0
330
1C5
100
AcDbEntity
  8
0
100
AcDbBlockBegin
  2
*D1
 70
     1
 10
0.0
 20
0.0
 30
0.0
  3
*D1
  1

  0
LINE
  5
47B
330
1C5
100
AcDbEntity
  8
SK2
 62
     0
370
    -2
100
AcDbLine
 10
-62.31679969333526
 20
-28.82836833438853
 30
0.0
 11
-78.97402244213523
 21
-28.82836833438853
 31
0.0
  0
LINE
  5
47C
330
1C5
100
AcDbEntity
  8
SK2
 62
     0
370
    -2
100
AcDbLine
 10
-62.31679969333526
 20
-48.82836833438854
 30
0.0
 11
-78.97402244213525
 21
-48.82836833438854
 31
0.0
  0
LINE
  5
47D
330
1C5
100
AcDbEntity
  8
SK2
 62
     0
370
    -2
100
AcDbLine
 10
-76.47402244213525
 20
-33.39836833438853
 30
0.0
 11
-76.47402244213525
 21
-44.25836833438854
 31
0.0
  0
SOLID
  5
47E
330
1C5
100
AcDbEntity
  8
SK2
 62
     0
100
AcDbTrace
 10
-77.23568910880192
 20
-33.39836833438853
 30
0.0
 11
-75.71235577546858
 21
-33.39836833438853
 31
0.0
 12
-76.47402244213523
 22
-28.82836833438853
 32
0.0
 13
-76.47402244213523
 23
-28.82836833438853
 33
0.0
  0
SOLID
  5
47F
330
1C5
100
AcDbEntity
  8
SK2
 62
     0
100
AcDbTrace
 10
-77.23568910880192
 20
-44.25836833438854
 30
0.0
 11
-75.71235577546858
 21
-44.25836833438854
 31
0.0
 12
-76.47402244213525
 22
-48.82836833438854
 32
0.0
 13
-76.47402244213525
 23
-48.82836833438854
 33
0.0
  0
MTEXT
  5
480
330
1C5
100
AcDbEntity
  8
SK2
 62
     7
100
AcDbMText
 10
-80.25902244213524
 20
-38.82836833438853
 30
0.0
 40
4.57
 41
0.0
 71
     5
 72
     1
  1
\A1;MBM %%c20
  7
GENPRESET
 11
0.0000000000000001
 21
1.0
 31
0.0
 73
     1
 44
1.0
  0
POINT
  5
481
330
1C5
100
AcDbEntity
  8
Defpoints
 62
     0
100
AcDbPoint
 10
-62.31679969333526
 20
-28.82836833438853
 30
0.0
  0
POINT
  5
482
330
1C5
100
AcDbEntity
  8
Defpoints
 62
     0
100
AcDbPoint
 10
-62.31679969333526
 20
-48.82836833438854
 30
0.0
  0
POINT
  5
483
330
1C5
100
AcDbEntity
  8
Defpoints
 62
     0
100
AcDbPoint
 10
-76.47402244213525
 20
-48.82836833438854
 30
0.0
  0
ENDBLK
  5
1D1
330
1C5
100
AcDbEntity
  8
0
100
AcDbBlockEnd
  0
BLOCK
  5
1E6
330
1DC
100
AcDbEntity
  8
0
100
AcDbBlockBegin
  2
*D2
 70
     1
 10
0.0
 20
0.0
 30
0.0
  3
*D2
  1

  0
LINE
  5
290
330
1DC
100
AcDbEntity
  8
2
 62
     0
370
    -2
100
AcDbLine
 10
0.0
 20
9.799999999999997
 30
0.0
 11
0.0000000000000004
 21
15.8969279116
 31
0.0
  0
LINE
  5
291
330
1DC
100
AcDbEntity
  8
2
 62
     0
370
    -2
100
AcDbLine
 10
25.32261682625
 20
9.693581069650006
 30
0.0
 11
25.32261682625
 21
15.8969279116
 31
0.0
  0
LINE
  5
292
330
1DC
100
AcDbEntity
  8
2
 62
     0
370
    -2
100
AcDbLine
 10
4.57
 20
13.3969279116
 30
0.0
 11
20.75261682624998
 21
13.3969279116
 31
0.0
  0
SOLID
  5
293
330
1DC
100
AcDbEntity
  8
2
 62
     0
100
AcDbTrace
 10
4.57
 20
14.15859457826668
 30
0.0
 11
4.57
 21
12.63526124493335
 31
0.0
 12
0.0000000000000002
 22
13.3969279116
 32
0.0
 13
0.0000000000000002
 23
13.3969279116
 33
0.0
  0
SOLID
  5
294
330
1DC
100
AcDbEntity
  8
2
 62
     0
100
AcDbTrace
 10
20.75261682624998
 20
14.15859457826668
 30
0.0
 11
20.75261682624998
 21
12.63526124493335
 31
0.0
 12
25.32261682625
 22
13.3969279116
 32
0.0
 13
25.32261682625
 23
13.3969279116
 33
0.0
  0
MTEXT
  5
295
330
1DC
100
AcDbEntity
  8
2
 62
     7
100
AcDbMText
 10
5.468459072990476
 20
19.46692791160001
 30
0.0
 40
4.57
 41
0.0
 71
     1
 72
     1
  1
\A1;25.3
  7
GENPRESET
 73
     1
 44
1.0
  0
POINT
  5
296
330
1DC
100
AcDbEntity
  8
Defpoints
 62
     0
100
AcDbPoint
 10
0.0
 20
9.799999999999997
 30
0.0
  0
POINT
  5
297
330
1DC
100
AcDbEntity
  8
Defpoints
 62
     0
100
AcDbPoint
 10
25.32261682625
 20
9.693581069650006
 30
0.0
  0
POINT
  5
298
330
1DC
100
AcDbEntity
  8
Defpoints
 62
     0
100
AcDbPoint
 10
25.32261682625
 20
13.3969279116
 30
0.0
  0
ENDBLK
  5
1E7
330
1DC
100
AcDbEntity
  8
0
100
AcDbBlockEnd
  0
BLOCK
  5
2DE
330
2A0
100
AcDbEntity
  8
0
100
AcDbBlockBegin
  2
A$C31AB3320
 70
     0
 10
0.0
 20
0.0
 30
0.0
  3
A$C31AB3320
  1

  0
LINE
  5
2A1
330
2A0
100
AcDbEntity
  8
0
  6
SLD-Durchgehend
 62
     7
370
    15
100
AcDbLine
 10
39.99411425280001
 20
20.0
 30
0.0
 11
0.4000000000000057
 21
20.0
 31
0.0
  0
LINE
  5
2A2
330
2A0
100
AcDbEntity
  8
0
  6
SLD-Durchgehend
 62
     7
370
    15
100
AcDbLine
 10
42.95281331090001
 20
20.0
 30
0.0
 11
41.47589540960001
 21
20.0
 31
0.0
  0
LINE
  5
2A3
330
2A0
100
AcDbEntity
  8
0
  6
SLD-Durchgehend
 62
     7
370
    15
100
AcDbLine
 10
45.88735441639999
 20
20.0
 30
0.0
 11
45.5463962403
 21
20.0
 31
0.0
  0
ELLIPSE
  5
2A4
330
2A0
100
AcDbEntity
  8
0
  6
SLD-Durchgehend
 62
     7
370
    15
100
AcDbEllipse
 10
68.44807653610001
 20
0.0
 30
0.0
 11
74.64101615137959
 21
0.0
 31
0.0
210
0.0
220
0.0
230
1.0
 40
0.2679491924
 41
2.111407825341649
 42
2.14349425706625
  0
LINE
  5
2A5
330
2A0
100
AcDbEntity
  8
0
  6
SLD-Durchgehend
 62
     7
370
    15
100
AcDbLine
 10
28.0
 20
14.2546501681
 30
0.0
 11
28.0
 21
16.80884046529999
 31
0.0
  0
ELLIPSE
  5
2A6
330
2A0
100
AcDbEntity
  8
0
  6
SLD-Durchgehend
 62
     7
370
    15
100
AcDbEllipse
 10
31.75898384859998
 20
0.0
 30
0.0
 11
0.0
 21
20.00000000000001
 31
0.0
210
0.0
220
0.0
230
1.0
 40
0.2679491924
 41
0.7774101950689281
 42
2.364182458520864
  0
LINE
  5
2A7
330
2A0
100
AcDbEntity
  8
0
  6
SLD-Durchgehend
 62
     7
370
    15
100
AcDbLine
 10
28.0
 20
14.2546501681
 30
0.0
 11
28.0
 21
-14.2546501681
 31
0.0
  0
LWPOLYLINE
  5
2A8
330
2A0
100
AcDbEntity
  8
0
  6
SLD-Durchgehend
 62
     7
370
    15
100
AcDbPolyline
 90
       26
 70
   128
 43
0.0
 10
26.55223489089999
 20
0.0
 10
26.5684974433
 20
-0.4973797743999884
 10
26.61626326480001
 20
-0.9635073481999969
 10
26.69253105300001
 20
-1.369094211899991
 10
26.79250862220001
 20
-1.688655850999975
 10
26.9099140143
 20
-1.902113032599999
 10
27.03737021649998
 20
-1.996053456899985
 10
27.1668686869
 20
-1.964574501499994
 10
27.29027256040001
 20
-1.809654105000004
 10
27.39982791779999
 20
-1.541026485599999
 10
27.48865099300002
 20
-1.175570504599988
 10
27.55116070559997
 20
-0.7362491053999918
 10
27.5834293403
 20
-0.2506664671999914
 10
27.5834293403
 20
0.2506664671000038
 10
27.55116070559997
 20
0.7362491053000042
 10
27.48865099300002
 20
1.175570504600002
 10
27.39982791779999
 20
1.541026485500012
 10
27.29027256040001
 20
1.809654104899989
 10
27.1668686869
 20
1.964574501400008
 10
27.03737021649998
 20
1.996053456799995
 10
26.9099140143
 20
1.902113032599999
 10
26.79250862220001
 20
1.688655851000004
 10
26.69253105300001
 20
1.369094211800003
 10
26.61626326480001
 20
0.9635073482000107
 10
26.5684974433
 20
0.4973797743000006
 10
26.55223489089999
 20
0.0
  0
LINE
  5
2A9
330
2A0
100
AcDbEntity
  8
0
  6
SLD-Durchgehend
 62
     7
370
    15
100
AcDbLine
 10
28.0
 20
-16.80884046529999
 30
0.0
 11
28.0
 21
-14.2546501681
 31
0.0
  0
ELLIPSE
  5
2AA
330
2A0
100
AcDbEntity
  8
0
  6
SLD-Durchgehend
 62
     7
370
    15
100
AcDbEllipse
 10
68.44807653610001
 20
0.0
 30
0.0
 11
74.64101615137959
 21
0.0
 31
0.0
210
0.0
220
0.0
230
1.0
 40
0.2679491924
 41
4.139691050113353
 42
4.171777481837953
  0
ELLIPSE
  5
2AB
330
2A0
100
AcDbEntity
  8
0
  6
SLD-Durchgehend
 62
     7
370
    15
100
AcDbEllipse
 10
32.79135924870002
 20
0.0
 30
0.0
 11
0.0
 21
20.00000000000001
 31
0.0
210
0.0
220
0.0
230
1.0
 40
0.2679491924
 41
2.600981155043037
 42
2.727882188683329
  0
ARC
  5
2AC
330
2A0
100
AcDbEntity
  8
0
  6
SLD-Durchgehend
 62
     7
370
    15
100
AcDbCircle
 10
23.1059231844
 20
0.0
 30
0.0
 40
19.99999999999995
100
AcDbArc
 50
293.3676760770996
 51
298.6263915198997
  0
ELLIPSE
  5
2AD
330
2A0
100
AcDbEntity
  8
0
  6
SLD-Durchgehend
 62
     7
370
    15
100
AcDbEllipse
 10
68.44807653610001
 20
0.0
 30
0.0
 11
74.64101615137234
 21
0.0
 31
0.0
210
0.0
220
0.0
230
1.0
 40
0.2679491924
 41
4.212764195397959
 42
4.220881740161178
  0
LINE
  5
2AE
330
2A0
100
AcDbEntity
  8
0
  6
SLD-Durchgehend
 62
     7
370
    15
100
AcDbLine
 10
32.6878476386
 20
-16.55524775539999
 30
0.0
 11
32.6878476386
 21
-17.55524775539998
 31
0.0
  0
LINE
  5
2AF
330
2A0
100
AcDbEntity
  8
0
  6
SLD-Durchgehend
 62
     7
370
    15
100
AcDbLine
 10
33.22085779490001
 20
-16.6324502076
 30
0.0
 11
33.22085779490001
 21
-17.6324502076
 31
0.0
  0
LINE
  5
2B0
330
2A0
100
AcDbEntity
  8
0
  6
SLD-Durchgehend
 62
     7
370
    15
100
AcDbLine
 10
30.03330256809999
 20
17.1478825522
 30
0.0
 11
30.03330256809999
 21
-17.14788255219998
 31
0.0
  0
ARC
  5
2B1
330
2A0
100
AcDbEntity
  8
0
  6
SLD-Durchgehend
 62
     7
370
    15
100
AcDbCircle
 10
30.8747269204
 20
-18.01939469389999
 30
0.0
 40
0.3775571019692143
100
AcDbArc
 50
230.9754271568999
 51
295.7112097526001
  0
ARC
  5
2B2
330
2A0
100
AcDbEntity
  8
0
  6
SLD-Durchgehend
 62
     7
370
    15
100
AcDbCircle
 10
27.14758126000001
 20
0.0
 30
0.0
 40
19.99999999999996
100
AcDbArc
 50
290.7275699381999
 51
295.8738435549999
  0
ARC
  5
2B3
330
2A0
100
AcDbEntity
  8
0
  6
SLD-Durchgehend
 62
     7
370
    15
100
AcDbCircle
 10
34.06233237309999
 20
-18.32302838679999
 30
0.0
 40
0.4160287584363235
100
AcDbArc
 50
235.1417530788999
 51
293.1784604144997
  0
ELLIPSE
  5
2B4
330
2A0
100
AcDbEntity
  8
0
  6
SLD-Durchgehend
 62
     7
370
    15
100
AcDbEllipse
 10
35.7500583069
 20
0.0
 30
0.0
 11
0.0
 21
20.00000000000001
 31
0.0
210
0.0
220
0.0
230
1.0
 40
0.2679491924
 41
2.650085413366265
 42
2.77407026621315
  0
ARC
  5
2B5
330
2A0
100
AcDbEntity
  8
0
  6
SLD-Durchgehend
 62
     7
370
    15
100
AcDbCircle
 10
31.1892393356
 20
0.0
 30
0.0
 40
19.99999999999998
100
AcDbArc
 50
288.1327556642998
 51
293.1840445404001
  0
ARC
  5
2B6
330
2A0
100
AcDbEntity
  8
0
  6
SLD-Durchgehend
 62
     7
370
    15
100
AcDbCircle
 10
37.24989234439997
 20
-18.57107995479998
 30
0.0
 40
0.4654332800627607
100
AcDbArc
 50
239.2768748912995
 51
290.5978750330003
  0
ELLIPSE
  5
2B7
330
2A0
100
AcDbEntity
  8
0
  6
SLD-Durchgehend
 62
     7
370
    15
100
AcDbEllipse
 10
38.708757365
 20
0.0
 30
0.0
 11
0.0
 21
20.00000000000001
 31
0.0
210
0.0
220
0.0
230
1.0
 40
0.2679491924
 41
2.697930325922373
 42
2.819450509897253
  0
ELLIPSE
  5
2B8
330
2A0
100
AcDbEntity
  8
0
  6
SLD-Durchgehend
 62
     7
370
    15
100
AcDbEllipse
 10
68.44807653610001
 20
0.0
 30
0.0
 11
74.64101615137233
 21
0.0
 31
0.0
210
0.0
220
0.0
230
1.0
 40
0.2679491924
 41
4.260805220204373
 42
4.268726652717287
  0
LINE
  5
2B9
330
2A0
100
AcDbEntity
  8
0
  6
SLD-Durchgehend
 62
     7
370
    15
100
AcDbLine
 10
35.87540286540003
 20
-16.9951418451
 30
0.0
 11
35.87540286540003
 21
-17.9951418451
 31
0.0
  0
LINE
  5
2BA
330
2A0
100
AcDbEntity
  8
0
  6
SLD-Durchgehend
 62
     7
370
    15
100
AcDbLine
 10
36.4084130216
 20
-17.06371338539999
 30
0.0
 11
36.4084130216
 21
-18.06371338539999
 31
0.0
  0
ARC
  5
2BB
330
2A0
100
AcDbEntity
  8
0
  6
SLD-Durchgehend
 62
     7
370
    15
100
AcDbCircle
 10
35.23089741119999
 20
0.0
 30
0.0
 40
19.99999999999999
100
AcDbArc
 50
285.5758984239002
 51
290.5473166738999
  0
ARC
  5
2BC
330
2A0
100
AcDbEntity
  8
0
  6
SLD-Durchgehend
 62
     7
370
    15
100
AcDbCircle
 10
40.43742667979997
 20
-18.76027612599997
 30
0.0
 40
0.5311137844315037
100
AcDbArc
 50
243.4056393987003
 51
287.9592107037002
  0
ELLIPSE
  5
2BD
330
2A0
100
AcDbEntity
  8
0
  6
SLD-Durchgehend
 62
     7
370
    15
100
AcDbEllipse
 10
41.66745642320001
 20
0.0
 30
0.0
 11
0.0
 21
20.00000000000001
 31
0.0
210
0.0
220
0.0
230
1.0
 40
0.2679491924
 41
2.744710252465837
 42
2.864153017737922
  0
ELLIPSE
  5
2BE
330
2A0
100
AcDbEntity
  8
0
  6
SLD-Durchgehend
 62
     7
370
    15
100
AcDbEllipse
 10
68.44807653610001
 20
0.0
 30
0.0
 11
74.64101615137233
 21
0.0
 31
0.0
210
0.0
220
0.0
230
1.0
 40
0.2679491924
 41
4.307751069225161
 42
4.315506579260746
  0
LINE
  5
2BF
330
2A0
100
AcDbEntity
  8
0
  6
SLD-Durchgehend
 62
     7
370
    15
100
AcDbLine
 10
39.06295809210002
 20
-17.38490013419999
 30
0.0
 11
39.06295809210002
 21
-18.38490013419998
 31
0.0
  0
LINE
  5
2C0
330
2A0
100
AcDbEntity
  8
0
  6
SLD-Durchgehend
 62
     7
370
    15
100
AcDbLine
 10
39.5959682484
 20
-17.44541132269998
 30
0.0
 11
39.5959682484
 21
-18.44541132269998
 31
0.0
  0
ELLIPSE
  5
2C1
330
2A0
100
AcDbEntity
  8
0
  6
SLD-Durchgehend
 62
     7
370
    15
100
AcDbEllipse
 10
44.6261554813
 20
0.0
 30
0.0
 11
0.0
 21
20.00000000000001
 31
0.0
210
0.0
220
0.0
230
1.0
 40
0.2679491924
 41
2.790589666699016
 42
2.908293089774283
  0
ARC
  5
2C2
330
2A0
100
AcDbEntity
  8
0
  6
SLD-Durchgehend
 62
     7
370
    15
100
AcDbCircle
 10
39.2725554868
 20
0.0
 30
0.0
 40
19.99999999999998
100
AcDbArc
 50
283.0504841283998
 51
287.9553440187993
  0
ARC
  5
2C3
330
2A0
100
AcDbEntity
  8
0
  6
SLD-Durchgehend
 62
     7
370
    15
100
AcDbCircle
 10
43.6249521762
 20
-18.88294387029998
 30
0.0
 40
0.6224237501524714
100
AcDbArc
 50
247.5454975120998
 51
285.2572897326996
  0
ELLIPSE
  5
2C4
330
2A0
100
AcDbEntity
  8
0
  6
SLD-Durchgehend
 62
     7
370
    15
100
AcDbEllipse
 10
68.44807653610001
 20
0.0
 30
0.0
 11
74.64101615137237
 21
0.0
 31
0.0
210
0.0
220
0.0
230
1.0
 40
0.2679491924
 41
4.353770651974881
 42
4.36138599349393
  0
LINE
  5
2C5
330
2A0
100
AcDbEntity
  8
0
  6
SLD-Durchgehend
 62
     7
370
    15
100
AcDbLine
 10
42.7835234751
 20
-17.78056636809997
 30
0.0
 11
42.7835234751
 21
-18.78056636809996
 31
0.0
  0
LINE
  5
2C6
330
2A0
100
AcDbEntity
  8
0
  6
SLD-Durchgehend
 62
     7
370
    15
100
AcDbLine
 10
42.25051331889999
 20
-17.72765315009999
 30
0.0
 11
42.25051331889999
 21
-18.72765315009998
 31
0.0
  0
ARC
  5
2C7
330
2A0
100
AcDbEntity
  8
0
  6
SLD-Durchgehend
 62
     7
370
    15
100
AcDbCircle
 10
43.31421356239999
 20
0.0
 30
0.0
 40
19.99999999999995
100
AcDbArc
 50
280.5506322361999
 51
285.4008553724998
  0
ARC
  5
2C8
330
2A0
100
AcDbEntity
  8
0
  6
SLD-Durchgehend
 62
     7
370
    15
100
AcDbCircle
 10
46.81248476229995
 20
-18.92244745219999
 30
0.0
 40
0.7573511961178385
100
AcDbArc
 50
251.7072233264
 51
282.4918727109997
  0
ELLIPSE
  5
2C9
330
2A0
100
AcDbEntity
  8
0
  6
SLD-Durchgehend
 62
     7
370
    15
100
AcDbEllipse
 10
47.5848545395
 20
0.0
 30
0.0
 11
0.0
 21
20.00000000000001
 31
0.0
210
0.0
220
0.0
230
1.0
 40
0.2679491924
 41
2.835710318445196
 42
2.951974599548689
  0
ELLIPSE
  5
2CA
330
2A0
100
AcDbEntity
  8
0
  6
SLD-Durchgehend
 62
     7
370
    15
100
AcDbEllipse
 10
68.44807653610001
 20
0.0
 30
0.0
 11
74.64101615134492
 21
0.0
 31
0.0
210
0.0
220
0.0
230
1.0
 40
0.2679491924
 41
4.39900910892815
 42
4.40650664524009
  0
LINE
  5
2CB
330
2A0
100
AcDbEntity
  8
0
  6
SLD-Durchgehend
 62
     7
370
    15
100
AcDbLine
 10
45.4380685456
 20
-18.02594146739998
 30
0.0
 11
45.4380685456
 21
-19.0259414674
 31
0.0
  0
LINE
  5
2CC
330
2A0
100
AcDbEntity
  8
0
  6
SLD-Durchgehend
 62
     7
370
    15
100
AcDbLine
 10
45.9710787019
 20
-18.07163244179998
 30
0.0
 11
45.9710787019
 21
-19.07163244179998
 31
0.0
  0
ELLIPSE
  5
2CD
330
2A0
100
AcDbEntity
  8
0
  6
SLD-Durchgehend
 62
     7
370
    15
100
AcDbEllipse
 10
68.44807653610001
 20
0.0
 30
0.0
 11
74.64101615138531
 21
0.0
 31
0.0
210
0.0
220
0.0
230
1.0
 40
0.2679491924
 41
4.443593346511213
 42
4.450992828118821
  0
LINE
  5
2CE
330
2A0
100
AcDbEntity
  8
0
  6
SLD-Durchgehend
 62
     7
370
    15
100
AcDbLine
 10
48.62562377240003
 20
-18.2818287925
 30
0.0
 11
48.62562377240003
 21
-19.2818287925
 31
0.0
  0
LINE
  5
2CF
330
2A0
100
AcDbEntity
  8
0
  6
SLD-Durchgehend
 62
     7
370
    15
100
AcDbLine
 10
49.1586339286
 20
-18.3206022559
 30
0.0
 11
49.1586339286
 21
-19.32060225589999
 31
0.0
  0
ELLIPSE
  5
2D0
330
2A0
100
AcDbEntity
  8
0
  6
SLD-Durchgehend
 62
     7
370
    15
100
AcDbEllipse
 10
50.54355359760001
 20
0.0
 30
0.0
 11
0.0
 21
20.00000000000001
 31
0.0
210
0.0
220
0.0
230
1.0
 40
0.2679491924
 41
2.880196501323913
 42
2.995292652286758
  0
ELLIPSE
  5
2D1
330
2A0
100
AcDbEntity
  8
0
  6
SLD-Durchgehend
 62
     7
370
    15
100
AcDbEllipse
 10
60.179751463
 20
0.0
 30
0.0
 11
74.64101615137528
 21
0.0
 31
0.0
210
0.0
220
0.0
230
1.0
 40
0.2679491924
 41
4.574660577400869
 42
4.578284064409112
  0
LINE
  5
2D2
330
2A0
100
AcDbEntity
  8
0
  6
SLD-Durchgehend
 62
     7
370
    15
100
AcDbLine
 10
50.19999999999999
 20
-19.82042807769998
 30
0.0
 11
50.64523365240001
 21
-19.38716213939999
 31
0.0
  0
LINE
  5
2D3
330
2A0
100
AcDbEntity
  8
0
  6
SLD-Durchgehend
 62
     7
370
    15
100
AcDbLine
 10
50.64523365240001
 20
-19.38716213939999
 30
0.0
 11
50.80000000000001
 21
-19.25097400139996
 31
0.0
  0
LINE
  5
2D4
330
2A0
100
AcDbEntity
  8
0
  6
SLD-Durchgehend
 62
     7
370
    15
100
AcDbLine
 10
50.64523365240001
 20
-18.31555791479998
 30
0.0
 11
50.64523365240001
 21
-19.38716213939999
 31
0.0
  0
LINE
  5
2D5
330
2A0
100
AcDbEntity
  8
0
  6
SLD-Durchgehend
 62
     7
370
    15
100
AcDbLine
 10
50.19999999999999
 20
-20.0
 30
0.0
 11
50.80000000000001
 21
-19.39999999999998
 31
0.0
  0
LINE
  5
2D6
330
2A0
100
AcDbEntity
  8
0
  6
SLD-Durchgehend
 62
     7
370
    15
100
AcDbLine
 10
50.19999999999999
 20
-19.82042807769998
 30
0.0
 11
50.19999999999999
 21
-20.0
 31
0.0
  0
ARC
  5
2D7
330
2A0
100
AcDbEntity
  8
0
  6
SLD-Durchgehend
 62
     7
370
    15
100
AcDbCircle
 10
49.9080917777
 20
-19.3724568601
 30
0.0
 40
0.4388053186748643
100
AcDbArc
 50
250.5986673819995
 51
273.1277037893995
  0
LINE
  5
2D8
330
2A0
100
AcDbEntity
  8
0
  6
SLD-Durchgehend
 62
     7
370
    15
100
AcDbLine
 10
0.4000000000000057
 20
-20.0
 30
0.0
 11
50.19999999999999
 21
-20.0
 31
0.0
  0
LINE
  5
2D9
330
2A0
100
AcDbEntity
  8
0
  6
SLD-Durchgehend
 62
     7
370
    15
100
AcDbLine
 10
39.5959682484
 20
0.201717850700021
 30
0.0
 11
39.5959682484
 21
-3.709960361199988
 31
0.0
  0
LINE
  5
2DA
330
2A0
100
AcDbEntity
  8
0
  6
SLD-Durchgehend
 62
     7
370
    15
100
AcDbLine
 10
39.06295809210002
 20
0.5067328673000162
 30
0.0
 11
39.06295809210002
 21
-3.069442679700002
 31
0.0
  0
LINE
  5
2DB
330
2A0
100
AcDbEntity
  8
0
  6
SLD-Durchgehend
 62
     7
370
    15
100
AcDbLine
 10
42.25051331889999
 20
-0.5722074336999869
 30
0.0
 11
42.25051331889999
 21
-4.844022210600002
 31
0.0
  0
LINE
  5
2DC
330
2A0
100
AcDbEntity
  8
0
  6
SLD-Durchgehend
 62
     7
370
    15
100
AcDbLine
 10
42.7835234751
 20
-0.5993738952999906
 30
0.0
 11
42.7835234751
 21
-4.6584085992
 31
0.0
  0
LINE
  5
2DD
330
2A0
100
AcDbEntity
  8
0
  6
SLD-Durchgehend
 62
     7
370
    15
100
AcDbLine
 10
45.4380685456
 20
-0.1952915882999946
 30
0.0
 11
45.4380685456
 21
-1.410156087799989
 31
0.0
  0
ENDBLK
  5
2DF
330
2A0
100
AcDbEntity
  8
0
100
AcDbBlockEnd
  0
BLOCK
  5
378
330
374
100
AcDbEntity
  8
0
 62
     0
100
AcDbBlockBegin
  2
A$C44845C43
 70
     0
 10
0.0
 20
0.0
 30
0.0
  3
A$C44845C43
  1

  0
LINE
  5
375
330
374
100
AcDbEntity
  8
0
  6
SLD-Durchgehend
 62
     7
370
    15
100
AcDbLine
 10
-2.254766347590788
 20
-7.315557914812287
 30
0.0
 11
-2.254766347590788
 21
-8.387162139412282
 31
0.0
  0
LINE
  5
376
330
374
100
AcDbEntity
  8
0
  6
SLD-Durchgehend
 62
     7
370
    15
100
AcDbLine
 10
-2.099999999990784
 20
-7.259748394212294
 30
0.0
 11
-2.099999999990784
 21
-8.250974001412284
 31
0.0
  0
LINE
  5
377
330
374
100
AcDbEntity
  8
0
  6
SLD-Durchgehend
 62
     7
370
    15
100
AcDbLine
 10
-2.099999999990784
 20
-8.28600528881229
 30
0.0
 11
-2.099999999990784
 21
-9.813082026112283
 31
0.0
  0
ENDBLK
  5
379
330
374
100
AcDbEntity
  8
0
 62
     0
100
AcDbBlockEnd
  0
BLOCK
  5
398
330
38E
100
AcDbEntity
  8
0
 62
     0
100
AcDbBlockBegin
  2
*D5
 70
     1
 10
0.0
 20
0.0
 30
0.0
  3
*D5
  1

  0
LINE
  5
472
330
38E
100
AcDbEntity
  8
2
 62
     0
370
    -2
100
AcDbLine
 10
-62.51679969333526
 20
-29.02836833558854
 30
0.0
 11
-62.51679969333526
 21
-22.43543669795835
 31
0.0
  0
LINE
  5
473
330
38E
100
AcDbEntity
  8
2
 62
     0
370
    -2
100
AcDbLine
 10
-37.11679969333526
 20
-29.20288133373853
 30
0.0
 11
-37.11679969333526
 21
-22.43543669795835
 31
0.0
  0
LINE
  5
474
330
38E
100
AcDbEntity
  8
2
 62
     0
370
    -2
100
AcDbLine
 10
-57.94679969333524
 20
-24.93543669795835
 30
0.0
 11
-41.68679969333526
 21
-24.93543669795835
 31
0.0
  0
SOLID
  5
475
330
38E
100
AcDbEntity
  8
2
 62
     0
100
AcDbTrace
 10
-57.94679969333524
 20
-24.17377003129168
 30
0.0
 11
-57.94679969333524
 21
-25.69710336462502
 31
0.0
 12
-62.51679969333526
 22
-24.93543669795835
 32
0.0
 13
-62.51679969333526
 23
-24.93543669795835
 33
0.0
  0
SOLID
  5
476
330
38E
100
AcDbEntity
  8
2
 62
     0
100
AcDbTrace
 10
-41.68679969333526
 20
-24.17377003129168
 30
0.0
 11
-41.68679969333526
 21
-25.69710336462502
 31
0.0
 12
-37.11679969333526
 22
-24.93543669795835
 32
0.0
 13
-37.11679969333526
 23
-24.93543669795835
 33
0.0
  0
MTEXT
  5
477
330
38E
100
AcDbEntity
  8
2
 62
     7
100
AcDbMText
 10
-49.81679969333526
 20
-21.15043669795835
 30
0.0
 40
4.57
 41
0.0
 71
     5
 72
     1
  1
\A1;25.4
  7
GENPRESET
 73
     1
 44
1.0
  0
POINT
  5
478
330
38E
100
AcDbEntity
  8
Defpoints
 62
     0
100
AcDbPoint
 10
-62.51679969333526
 20
-29.02836833558854
 30
0.0
  0
POINT
  5
479
330
38E
100
AcDbEntity
  8
Defpoints
 62
     0
100
AcDbPoint
 10
-37.11679969333526
 20
-29.20288133373853
 30
0.0
  0
POINT
  5
47A
330
38E
100
AcDbEntity
  8
Defpoints
 62
     0
100
AcDbPoint
 10
-37.11679969333526
 20
-24.93543669795835
 30
0.0
  0
ENDBLK
  5
399
330
38E
100
AcDbEntity
  8
0
 62
     0
100
AcDbBlockEnd
  0
BLOCK
  5
48D
330
484
100
AcDbEntity
  8
0
100
AcDbBlockBegin
  2
*D6
 70
     1
 10
0.0
 20
0.0
 30
0.0
  3
*D6
  1

  0
SOLID
  5
485
330
484
100
AcDbEntity
  8
VERMASSUNG
100
AcDbTrace
 10
81.1245196267
 20
83.7205338809
 30
0.0
 11
81.5745196267
 21
86.72053388090002
 31
0.0
 12
80.6745196267
 22
86.72053388090002
 32
0.0
 13
80.6745196267
 23
86.72053388090002
 33
0.0
  0
SOLID
  5
486
330
484
100
AcDbEntity
  8
VERMASSUNG
100
AcDbTrace
 10
81.1245196267
 20
138.7205338808996
 30
0.0
 11
80.6745196267
 21
135.7205338809
 31
0.0
 12
81.5745196267
 22
135.7205338809
 32
0.0
 13
81.5745196267
 23
135.7205338809
 33
0.0
  0
LINE
  5
487
330
484
100
AcDbEntity
  8
VERMASSUNG
100
AcDbLine
 10
117.2859342916
 20
83.7205338809
 30
0.0
 11
80.12451962670002
 21
83.7205338809
 31
0.0
  0
LINE
  5
488
330
484
100
AcDbEntity
  8
VERMASSUNG
100
AcDbLine
 10
117.2859342916
 20
138.7205338808996
 30
0.0
 11
80.12451962670002
 21
138.7205338808996
 31
0.0
  0
LINE
  5
489
330
484
100
AcDbEntity
  8
VERMASSUNG
100
AcDbLine
 10
81.1245196267
 20
83.7205338809
 30
0.0
 11
81.1245196267
 21
138.7205338808996
 31
0.0
  0
MTEXT
  5
48A
330
484
100
AcDbEntity
  8
VERMASSUNG
100
AcDbMText
 10
78.3245198501
 20
104.8164942504999
 30
0.0
 40
2.0
 41
0.0
 71
     1
 72
     1
  1
{MBM }
  7
SLDTEXTSTYLE0
 11
0.0000000000000001
 21
1.0
 31
0.0
 73
     1
 44
1.0
  0
MTEXT
  5
48B
330
484
100
AcDbEntity
  8
VERMASSUNG
100
AcDbMText
 10
78.5245198013
 20
111.2164940887999
 30
0.0
 40
2.0
 41
0.0
 71
     1
 72
     1
  1
{%%c}
  7
SLDTEXTSTYLE0
 11
0.0000000000000001
 21
1.0
 31
0.0
 73
     1
 44
1.0
  0
MTEXT
  5
48C
330
484
100
AcDbEntity
  8
VERMASSUNG
100
AcDbMText
 10
78.52451951029998
 20
114.8253332649
 30
0.0
 40
2.0
 41
0.0
 71
     1
 72
     1
  1
{55}
  7
SLDTEXTSTYLE0
 11
0.0000000000000001
 21
1.0
 31
0.0
 73
     1
 44
1.0
  0
ENDBLK
  5
48E
330
484
100
AcDbEntity
  8
0
100
AcDbBlockEnd
  0
BLOCK
  5
496
330
48F
100
AcDbEntity
  8
0
100
AcDbBlockBegin
  2
*D7
 70
     1
 10
0.0
 20
0.0
 30
0.0
  3
*D7
  1

  0
SOLID
  5
490
330
48F
100
AcDbEntity
  8
VERMASSUNG
100
AcDbTrace
 10
116.8859342915999
 20
144.3929717519999
 30
0.0
 11
119.8859342915999
 21
143.942971752
 31
0.0
 12
119.8859342915999
 22
144.842971752
 32
0.0
 13
119.8859342915999
 23
144.842971752
 33
0.0
  0
SOLID
  5
491
330
48F
100
AcDbEntity
  8
VERMASSUNG
100
AcDbTrace
 10
194.8859342915999
 20
144.3929717519999
 30
0.0
 11
191.8859342915999
 21
144.842971752
 31
0.0
 12
191.8859342915999
 22
143.942971752
 32
0.0
 13
191.8859342915999
 23
143.942971752
 33
0.0
  0
LINE
  5
492
330
48F
100
AcDbEntity
  8
VERMASSUNG
100
AcDbLine
 10
116.8859342915999
 20
138.3205338808999
 30
0.0
 11
116.8859342915999
 21
145.3929717519999
 31
0.0
  0
LINE
  5
493
330
48F
100
AcDbEntity
  8
VERMASSUNG
100
AcDbLine
 10
194.8859342915999
 20
137.8920542724999
 30
0.0
 11
194.8859342915999
 21
145.3929717519999
 31
0.0
  0
LINE
  5
494
330
48F
100
AcDbEntity
  8
VERMASSUNG
100
AcDbLine
 10
116.8859342915999
 20
144.3929717519999
 30
0.0
 11
194.8859342915999
 21
144.3929717519999
 31
0.0
  0
MTEXT
  5
495
330
48F
100
AcDbEntity
  8
VERMASSUNG
100
AcDbMText
 10
154.4863141684
 20
146.9929718683999
 30
0.0
 40
2.0
 41
0.0
 71
     1
 72
     1
  1
{78}
  7
SLDTEXTSTYLE0
 73
     1
 44
1.0
  0
ENDBLK
  5
497
330
48F
100
AcDbEntity
  8
0
100
AcDbBlockEnd
  0
BLOCK
  5
59B
330
498
100
AcDbEntity
  8
0
 62
     0
100
AcDbBlockBegin
  2
A$C3FCB2D76
 70
     0
 10
0.0
 20
0.0
 30
0.0
  3
A$C3FCB2D76
  1

  0
DIMENSION
  5
499
330
498
100
AcDbEntity
  8
VERMASSUNG
100
AcDbDimension
  2
*D6
 10
-35.76141466489998
 20
27.5
 30
0.0
 11
-35.76141466489998
 21
0.0
 31
0.0
 12
-116.8859342915999
 22
-111.2205338809
 32
0.0
 70
   128
  1
MBM %%c<>
 71
     5
 42
55.0
  3
SLDDIMSTYLE0
100
AcDbAlignedDimension
 13
0.4000000000000057
 23
-27.5
 33
0.0
 14
0.4000000000000057
 24
27.5
 34
0.0
 50
90.0
100
AcDbRotatedDimension
1001
ACAD
1000
DSTYLE
1002
{
1070
   143
1040
0.0394
1070
    41
1040
3.0
1070
    44
1040
1.0
1070
    42
1040
0.0
1070
   147
1040
1.524
1070
    73
1070
     1
1070
    74
1070
     1
1070
   140
1040
2.0
1070
   284
1070
     0
1070
    78
1070
     0
1002
}
  0
LINE
  5
49A
330
498
100
AcDbEntity
  8
VERMASSUNG
  6
SLD-Punktstrich
370
     0
100
AcDbLine
 10
-31.00929299789999
 20
0.0
 30
0.0
 11
81.25625161900002
 21
0.0
 31
0.0
  0
DIMENSION
  5
49B
330
498
100
AcDbEntity
  8
VERMASSUNG
100
AcDbDimension
  2
*D7
 10
78.0
 20
33.17243787109998
 30
0.0
 11
39.0
 21
33.17243787109998
 31
0.0
 12
-116.8859342915999
 22
-111.2205338809
 32
0.0
 70
   128
 71
     5
 42
78.0
  3
SLDDIMSTYLE0
100
AcDbAlignedDimension
 13
0.0
 23
27.09999999999999
 33
0.0
 14
78.0
 24
26.67152039159998
 34
0.0
100
AcDbRotatedDimension
1001
ACAD
1000
DSTYLE
1002
{
1070
   143
1040
0.0394
1070
    41
1040
3.0
1070
    44
1040
1.0
1070
    42
1040
0.0
1070
   147
1040
1.524
1070
    73
1070
     1
1070
    74
1070
     1
1070
   140
1040
2.0
1070
   284
1070
     0
1070
    78
1070
     0
1002
}
  0
LINE
  5
49C
330
498
100
AcDbEntity
  8
0
  6
SLD-Durchgehend
 62
     7
370
    15
100
AcDbLine
 10
77.59999999999998
 20
27.5
 30
0.0
 11
0.4000000000000057
 21
27.5
 31
0.0
  0
LINE
  5
49D
330
498
100
AcDbEntity
  8
0
  6
SLD-Durchgehend
 62
     7
370
    15
100
AcDbLine
 10
0.4000000000000057
 20
-27.5
 30
0.0
 11
77.59999999999998
 21
-27.5
 31
0.0
  0
LINE
  5
49E
330
498
100
AcDbEntity
  8
0
  6
SLD-Durchgehend
 62
     7
370
     0
100
AcDbLine
 10
-28.119731976
 20
-14.72186089049999
 30
0.0
 11
-28.119731976
 21
14.72186089049998
 31
0.0
  0
LINE
  5
49F
330
498
100
AcDbEntity
  8
0
  6
SLD-Durchgehend
 62
     7
370
     0
100
AcDbLine
 10
-29.06108145789998
 20
-14.88784620239998
 30
0.0
 11
-29.06108145789998
 21
14.88784620239998
 31
0.0
  0
LINE
  5
4A0
330
498
100
AcDbEntity
  8
0
  6
SLD-Durchgehend
 62
     7
370
     0
100
AcDbLine
 10
-27.99460346459998
 20
-14.7196767642
 30
0.0
 11
-27.99460346459998
 21
14.71967676419998
 31
0.0
  0
LINE
  5
4A1
330
498
100
AcDbEntity
  8
0
  6
SLD-Durchgehend
 62
     7
370
     0
100
AcDbLine
 10
-4.957055236100003
 20
-14.77725933899999
 30
0.0
 11
-4.957055236100003
 21
14.77725933899999
 31
0.0
  0
LINE
  5
4A2
330
498
100
AcDbEntity
  8
0
  6
SLD-Durchgehend
 62
     7
370
     0
100
AcDbLine
 10
0.4000000000000057
 20
-27.5
 30
0.0
 11
0.4000000000000057
 21
27.5
 31
0.0
  0
LINE
  5
4A3
330
498
100
AcDbEntity
  8
0
  6
SLD-Durchgehend
 62
     7
370
    15
100
AcDbLine
 10
-30.0
 20
-14.10000000000001
 30
0.0
 11
-30.0
 21
14.09999997989999
 31
0.0
  0
LINE
  5
4A4
330
498
100
AcDbEntity
  8
0
  6
SLD-Durchgehend
 62
     7
370
    15
100
AcDbLine
 10
-26.0
 20
-15.0
 30
0.0
 11
-26.0
 21
15.0
 31
0.0
  0
LINE
  5
4A5
330
498
100
AcDbEntity
  8
0
  6
SLD-Durchgehend
 62
     7
370
    15
100
AcDbLine
 10
-5.788334699999992
 20
-15.0
 30
0.0
 11
-5.788334699999992
 21
15.0
 31
0.0
  0
LINE
  5
4A6
330
498
100
AcDbEntity
  8
0
  6
SLD-Durchgehend
 62
     7
370
    15
100
AcDbLine
 10
-3.950000000000001
 20
-13.64003757329999
 30
0.0
 11
-3.950000000000001
 21
13.64003757329999
 31
0.0
  0
LINE
  5
4A7
330
498
100
AcDbEntity
  8
0
  6
SLD-Durchgehend
 62
     7
370
    15
100
AcDbLine
 10
-0.1499999999999915
 20
12.7860318127
 30
0.0
 11
-0.1499999999999915
 21
-12.7860318127
 31
0.0
  0
LINE
  5
4A8
330
498
100
AcDbEntity
  8
0
  6
SLD-Durchgehend
 62
     7
370
    15
100
AcDbLine
 10
0.0
 20
-27.1
 30
0.0
 11
0.0
 21
27.09999999489999
 31
0.0
  0
LINE
  5
4A9
330
498
100
AcDbEntity
  8
0
  6
SLD-Durchgehend
 62
     7
370
    15
100
AcDbLine
 10
-5.788334699999992
 20
-15.0
 30
0.0
 11
-4.957055236100003
 21
-14.77725933899999
 31
0.0
  0
LINE
  5
4AA
330
498
100
AcDbEntity
  8
0
  6
SLD-Durchgehend
 62
     7
370
    15
100
AcDbLine
 10
-26.0
 20
-15.0
 30
0.0
 11
-5.788334699999992
 21
-15.0
 31
0.0
  0
ARC
  5
4AB
330
498
100
AcDbEntity
  8
0
  6
SLD-Durchgehend
 62
     7
370
    15
100
AcDbCircle
 10
-29.19999999999999
 20
-14.10000000000001
 30
0.0
 40
0.8000000000000161
100
AcDbArc
 50
180.0
 51
280.0
  0
LINE
  5
4AC
330
498
100
AcDbEntity
  8
0
  6
SLD-Durchgehend
 62
     7
370
    15
100
AcDbLine
 10
-27.99460346459998
 20
-14.7196767642
 30
0.0
 11
-26.0
 21
-15.0
 31
0.0
  0
ARC
  5
4AD
330
498
100
AcDbEntity
  8
0
  6
SLD-Durchgehend
 62
     7
370
    15
100
AcDbCircle
 10
-28.050272705
 20
-15.1157839917
 30
0.0
 40
0.4000000000000015
100
AcDbArc
 50
82.00000000000008
 51
100.0000000000001
  0
LINE
  5
4AE
330
498
100
AcDbEntity
  8
0
  6
SLD-Durchgehend
 62
     7
370
    15
100
AcDbLine
 10
-29.06108145789998
 20
-14.88784620239998
 30
0.0
 11
-28.119731976
 21
-14.72186089049999
 31
0.0
  0
LINE
  5
4AF
330
498
100
AcDbEntity
  8
0
  6
SLD-Durchgehend
 62
     7
370
    15
100
AcDbLine
 10
-3.950000000000001
 20
-21.025
 30
0.0
 11
-3.950000000000001
 21
-13.64003757329999
 31
0.0
  0
LINE
  5
4B0
330
498
100
AcDbEntity
  8
0
  6
SLD-Durchgehend
 62
     7
370
    15
100
AcDbLine
 10
-1.606834536399985
 20
-21.025
 30
0.0
 11
-1.606834536399985
 21
-13.64003757329999
 31
0.0
  0
LINE
  5
4B1
330
498
100
AcDbEntity
  8
0
  6
SLD-Durchgehend
 62
     7
370
    15
100
AcDbLine
 10
-1.606834536399985
 20
-21.025
 30
0.0
 11
-0.5880946094000024
 21
-20.5499537704
 31
0.0
  0
ARC
  5
4B2
330
498
100
AcDbEntity
  8
0
  6
SLD-Durchgehend
 62
     7
370
    15
100
AcDbCircle
 10
0.4000000000000057
 20
-27.1
 30
0.0
 40
0.3999999999999915
100
AcDbArc
 50
180.0
 51
270.0
  0
LINE
  5
4B3
330
498
100
AcDbEntity
  8
0
  6
SLD-Durchgehend
 62
     7
370
    15
100
AcDbLine
 10
-3.950000000000001
 20
-21.025
 30
0.0
 11
-1.606834536399985
 21
-21.025
 31
0.0
  0
LINE
  5
4B4
330
498
100
AcDbEntity
  8
0
  6
SLD-Durchgehend
 62
     7
370
     0
100
AcDbLine
 10
-0.5880946094000024
 20
-20.5499537704
 30
0.0
 11
-0.5880946094000024
 21
-12.8957589914
 31
0.0
  0
ARC
  5
4B5
330
498
100
AcDbEntity
  8
0
  6
SLD-Durchgehend
 62
     7
370
    15
100
AcDbCircle
 10
-4.75
 20
-15.55000000000001
 30
0.0
 40
0.7999999999999972
100
AcDbArc
 50
0.0
 51
105.0000000000002
  0
ARC
  5
4B6
330
498
100
AcDbEntity
  8
0
  6
SLD-Durchgehend
 62
     7
370
    15
100
AcDbCircle
 10
-0.25
 20
-21.27499999999999
 30
0.0
 40
0.8000000000000115
100
AcDbArc
 50
71.79004313569997
 51
114.9999999999996
  0
LWPOLYLINE
  5
4B7
330
498
100
AcDbEntity
  8
0
  6
SLD-Durchgehend
 62
     7
370
    15
100
AcDbPolyline
 90
        3
 70
   128
 43
0.0
 10
-1.606834536399985
 20
-13.64003757329999
 10
-0.8737795698999946
 20
-13.10700410569999
 10
-0.5880946094000024
 20
-12.8957589914
  0
LINE
  5
4B8
330
498
100
AcDbEntity
  8
0
  6
SLD-Durchgehend
 62
     7
370
    15
100
AcDbLine
 10
-1.606834536399985
 20
-13.64003757329999
 30
0.0
 11
-3.950000000000001
 21
-13.64003757329999
 31
0.0
  0
ARC
  5
4B9
330
498
100
AcDbEntity
  8
0
  6
SLD-Durchgehend
 62
     7
370
    15
100
AcDbCircle
 10
-0.2491211378999907
 20
-13.31971029360001
 30
0.0
 40
0.5428054172534368
100
AcDbArc
 50
79.47823807240006
 51
128.6443478603997
  0
LINE
  5
4BA
330
498
100
AcDbEntity
  8
0
  6
SLD-Durchgehend
 62
     7
370
    15
100
AcDbLine
 10
-4.957055236100003
 20
14.77725933899999
 30
0.0
 11
-5.788334699999992
 21
15.0
 31
0.0
  0
CIRCLE
  5
4BB
330
498
100
AcDbEntity
  8
0
  6
SLD-Durchgehend
 62
     7
370
    15
100
AcDbCircle
 10
-14.19999999999999
 20
0.0
 30
0.0
 40
4.0
  0
CIRCLE
  5
4BC
330
498
100
AcDbEntity
  8
0
  6
SLD-Durchgehend
 62
     7
370
    15
100
AcDbCircle
 10
-14.19999999999999
 20
0.0
 30
0.0
 40
4.942344702964476
  0
LWPOLYLINE
  5
4BD
330
498
100
AcDbEntity
  8
0
  6
SLD-Durchgehend
 62
     7
370
    15
100
AcDbPolyline
 90
       17
 70
   128
 43
0.0
 10
-20.95
 20
0.0
 10
-20.90063933879999
 20
0.6767369768000009
 10
-20.4561218859
 20
2.106737529299989
 10
-19.56836317909997
 20
3.406654401099997
 10
-18.64420103779998
 20
4.235854434999993
 10
-17.63263297299998
 20
4.8516662395
 10
-16.52821761889998
 20
5.295072258399997
 10
-15.35360711809998
 20
5.561713012599994
 10
-14.14818960759999
 20
5.6464416469
 10
-12.91131613529999
 20
5.54055707789999
 10
-11.7107588844
 20
5.242960059099996
 10
-10.580185732
 20
4.754787970699993
 10
-9.555473373299989
 20
4.082530322599993
 10
-8.834776801700002
 20
3.409524616699997
 10
-8.234052702499994
 20
2.62606167839999
 10
-7.585777725300004
 20
1.118966402899985
 10
-7.450000000000001
 20
0.0
  0
LWPOLYLINE
  5
4BE
330
498
100
AcDbEntity
  8
0
  6
SLD-Durchgehend
 62
     7
370
    15
100
AcDbPolyline
 90
       17
 70
   128
 43
0.0
 10
-7.450000000000001
 20
0.0
 10
-7.480888330699997
 20
-0.5356843696999932
 10
-7.88567064419999
 20
-1.982905565300015
 10
-8.730205990000001
 20
-3.29235696639999
 10
-10.10061297549998
 20
-4.473194231300011
 10
-11.05387813989999
 20
-4.986920057100021
 10
-12.07741448309998
 20
-5.355942475300011
 10
-13.27273556989999
 20
-5.591681761599998
 10
-14.49335345289997
 20
-5.641189766700009
 10
-15.72541346099999
 20
-5.497724631500003
 10
-16.91451420679999
 20
-5.163268941600009
 10
-18.02788078459998
 20
-4.638678717100018
 10
-19.0280286353
 20
-3.930759756800012
 10
-19.70702479799999
 20
-3.248246645700007
 10
-20.26584749769998
 20
-2.4622338283
 10
-20.8514107009
 20
-0.9547501941000009
 10
-20.95
 20
0.0
  0
LINE
  5
4BF
330
498
100
AcDbEntity
  8
0
  6
SLD-Durchgehend
 62
     7
370
    15
100
AcDbLine
 10
-5.788334699999992
 20
15.0
 30
0.0
 11
-26.0
 21
15.0
 31
0.0
  0
ARC
  5
4C0
330
498
100
AcDbEntity
  8
0
  6
SLD-Durchgehend
 62
     7
370
    15
100
AcDbCircle
 10
-29.19999999999999
 20
14.09999999999999
 30
0.0
 40
0.8000000000000021
100
AcDbArc
 50
79.9999999999998
 51
180.0
  0
ARC
  5
4C1
330
498
100
AcDbEntity
  8
0
  6
SLD-Durchgehend
 62
     7
370
    15
100
AcDbCircle
 10
-28.050272705
 20
15.1157839917
 30
0.0
 40
0.3999999999999916
100
AcDbArc
 50
259.9999999999998
 51
277.9999999999999
  0
LINE
  5
4C2
330
498
100
AcDbEntity
  8
0
  6
SLD-Durchgehend
 62
     7
370
    15
100
AcDbLine
 10
-28.119731976
 20
14.72186089049998
 30
0.0
 11
-29.06108145789998
 21
14.88784620239998
 31
0.0
  0
LINE
  5
4C3
330
498
100
AcDbEntity
  8
0
  6
SLD-Durchgehend
 62
     7
370
    15
100
AcDbLine
 10
-26.0
 20
15.0
 30
0.0
 11
-27.99460346459998
 21
14.71967676419998
 31
0.0
  0
LINE
  5
4C4
330
498
100
AcDbEntity
  8
0
  6
SLD-Durchgehend
 62
     7
370
     0
100
AcDbLine
 10
-0.5880946094000024
 20
12.89575899139998
 30
0.0
 11
-0.5880946094000024
 21
20.54995377039998
 31
0.0
  0
LINE
  5
4C5
330
498
100
AcDbEntity
  8
0
  6
SLD-Durchgehend
 62
     7
370
    15
100
AcDbLine
 10
-1.606834536399985
 20
13.64003757329999
 30
0.0
 11
-1.606834536399985
 21
21.025
 31
0.0
  0
LINE
  5
4C6
330
498
100
AcDbEntity
  8
0
  6
SLD-Durchgehend
 62
     7
370
    15
100
AcDbLine
 10
-3.950000000000001
 20
13.64003757329999
 30
0.0
 11
-3.950000000000001
 21
21.025
 31
0.0
  0
LINE
  5
4C7
330
498
100
AcDbEntity
  8
0
  6
SLD-Durchgehend
 62
     7
370
    15
100
AcDbLine
 10
-0.5880946094000024
 20
12.89575899139998
 30
0.0
 11
-1.606834536399985
 21
13.64003757329999
 31
0.0
  0
LINE
  5
4C8
330
498
100
AcDbEntity
  8
0
  6
SLD-Durchgehend
 62
     7
370
    15
100
AcDbLine
 10
-1.606834536399985
 20
13.64003757329999
 30
0.0
 11
-3.950000000000001
 21
13.64003757329999
 31
0.0
  0
ARC
  5
4C9
330
498
100
AcDbEntity
  8
0
  6
SLD-Durchgehend
 62
     7
370
    15
100
AcDbCircle
 10
-0.2490740635000037
 20
13.3198982419
 30
0.0
 40
0.5429816151344861
100
AcDbArc
 50
231.3641575190001
 51
280.5132565493002
  0
ARC
  5
4CA
330
498
100
AcDbEntity
  8
0
  6
SLD-Durchgehend
 62
     7
370
    15
100
AcDbCircle
 10
-4.75
 20
15.54999999999999
 30
0.0
 40
0.8000000000000081
100
AcDbArc
 50
254.9999999999995
 51
0.0
  0
LINE
  5
4CB
330
498
100
AcDbEntity
  8
0
  6
SLD-Durchgehend
 62
     7
370
    15
100
AcDbLine
 10
-0.5880946094000024
 20
20.54995377039998
 30
0.0
 11
-1.606834536399985
 21
21.025
 31
0.0
  0
LINE
  5
4CC
330
498
100
AcDbEntity
  8
0
  6
SLD-Durchgehend
 62
     7
370
    15
100
AcDbLine
 10
-1.606834536399985
 20
21.025
 30
0.0
 11
-3.950000000000001
 21
21.025
 31
0.0
  0
ARC
  5
4CD
330
498
100
AcDbEntity
  8
0
  6
SLD-Durchgehend
 62
     7
370
    15
100
AcDbCircle
 10
-0.25
 20
21.27499999999999
 30
0.0
 40
0.8000000000000115
100
AcDbArc
 50
245.0000000000003
 51
288.2099568642999
  0
ARC
  5
4CE
330
498
100
AcDbEntity
  8
0
  6
SLD-Durchgehend
 62
     7
370
    15
100
AcDbCircle
 10
0.4000000000000057
 20
27.09999999999999
 30
0.0
 40
0.4000000000000057
100
AcDbArc
 50
90.0
 51
180.0
  0
LINE
  5
4CF
330
498
100
AcDbEntity
  8
0
  6
SLD-Durchgehend
 62
     7
370
     0
100
AcDbLine
 10
77.4731565326
 20
-2.562827085499999
 30
0.0
 11
77.4731565326
 21
-26.99277736
 31
0.0
  0
LINE
  5
4D0
330
498
100
AcDbEntity
  8
0
  6
SLD-Durchgehend
 62
     7
370
     0
100
AcDbLine
 10
77.23274022700002
 20
-2.568705470900013
 30
0.0
 11
77.23274022700002
 21
-26.94483834140001
 31
0.0
  0
LINE
  5
4D1
330
498
100
AcDbEntity
  8
0
  6
SLD-Durchgehend
 62
     7
370
     0
100
AcDbLine
 10
73.26171992999999
 20
2.159756774099987
 30
0.0
 11
73.26171992999999
 21
-26.705664304
 31
0.0
  0
LINE
  5
4D2
330
498
100
AcDbEntity
  8
0
  6
SLD-Durchgehend
 62
     7
370
     0
100
AcDbLine
 10
72.69288884339998
 20
1.472134495699988
 30
0.0
 11
72.69288884339998
 21
-26.6677520181
 31
0.0
  0
LINE
  5
4D3
330
498
100
AcDbEntity
  8
0
  6
SLD-Durchgehend
 62
     7
370
     0
100
AcDbLine
 10
68.7218685464
 20
-0.9606947246000171
 30
0.0
 11
68.7218685464
 21
-26.37704511
 31
0.0
  0
LINE
  5
4D4
330
498
100
AcDbEntity
  8
0
  6
SLD-Durchgehend
 62
     7
370
     0
100
AcDbLine
 10
68.15303745990002
 20
-1.094456682500009
 30
0.0
 11
68.15303745990002
 21
-26.33161945889999
 31
0.0
  0
LINE
  5
4D5
330
498
100
AcDbEntity
  8
0
  6
SLD-Durchgehend
 62
     7
370
     0
100
AcDbLine
 10
64.18201716279998
 20
-0.9238265924000046
 30
0.0
 11
64.18201716279998
 21
-25.9874010382
 31
0.0
  0
LINE
  5
4D6
330
498
100
AcDbEntity
  8
0
  6
SLD-Durchgehend
 62
     7
370
     0
100
AcDbLine
 10
63.61318607630003
 20
-0.735682994100003
 30
0.0
 11
63.61318607630003
 21
-25.93414486969999
 31
0.0
  0
LINE
  5
4D7
330
498
100
AcDbEntity
  8
0
  6
SLD-Durchgehend
 62
     7
370
     0
100
AcDbLine
 10
50.56246301219999
 20
24.42084215789998
 30
0.0
 11
50.56246301219999
 21
-24.42084215790001
 31
0.0
  0
LINE
  5
4D8
330
498
100
AcDbEntity
  8
0
  6
SLD-Durchgehend
 62
     7
370
     0
100
AcDbLine
 10
49.9936319256
 20
24.34132160609999
 30
0.0
 11
49.9936319256
 21
-24.34132160610001
 31
0.0
  0
LINE
  5
4D9
330
498
100
AcDbEntity
  8
0
  6
SLD-Durchgehend
 62
     7
370
    15
100
AcDbLine
 10
78.0
 20
-2.552369869500009
 30
0.0
 11
78.0
 21
-26.67152039159998
 31
0.0
  0
LINE
  5
4DA
330
498
100
AcDbEntity
  8
0
  6
SLD-Durchgehend
 62
     7
370
    15
100
AcDbLine
 10
77.56805501689999
 20
-2.5622207266
 30
0.0
 11
77.56805501689999
 21
-26.9977175275
 31
0.0
  0
LINE
  5
4DB
330
498
100
AcDbEntity
  8
0
  6
SLD-Durchgehend
 62
     7
370
    15
100
AcDbLine
 10
77.2073122548
 20
-26.9253011828
 30
0.0
 11
77.2073122548
 21
-2.571098207199995
 31
0.0
  0
LINE
  5
4DC
330
498
100
AcDbEntity
  8
0
  6
SLD-Durchgehend
 62
     7
370
    15
100
AcDbLine
 10
77.09999999999998
 20
-2.581647507200003
 30
0.0
 11
77.09999999999998
 21
-26.838997059
 31
0.0
  0
LINE
  5
4DD
330
498
100
AcDbEntity
  8
0
  6
SLD-Durchgehend
 62
     7
370
    15
100
AcDbLine
 10
76.37143005670004
 20
-2.672574892800013
 30
0.0
 11
76.37143005670004
 21
-26.0834589208
 31
0.0
  0
LINE
  5
4DE
330
498
100
AcDbEntity
  8
0
  6
SLD-Durchgehend
 62
     7
370
    15
100
AcDbLine
 10
75.61486307619998
 20
-2.680702814099999
 30
0.0
 11
75.61486307619998
 21
-26.01486911929999
 31
0.0
  0
LINE
  5
4DF
330
498
100
AcDbEntity
  8
0
  6
SLD-Durchgehend
 62
     7
370
    15
100
AcDbLine
 10
71.07501169259998
 20
0.0988885284999981
 30
0.0
 11
71.07501169259998
 21
-25.5656890861
 31
0.0
  0
LINE
  5
4E0
330
498
100
AcDbEntity
  8
0
  6
SLD-Durchgehend
 62
     7
370
    15
100
AcDbLine
 10
71.8315786732
 20
0.6552073755999857
 30
0.0
 11
71.8315786732
 21
-25.6450984282
 31
0.0
  0
LINE
  5
4E1
330
498
100
AcDbEntity
  8
0
  6
SLD-Durchgehend
 62
     7
370
    15
100
AcDbLine
 10
67.2917272896
 20
-1.21772828840001
 30
0.0
 11
67.2917272896
 21
-25.14032256520001
 31
0.0
  0
LINE
  5
4E2
330
498
100
AcDbEntity
  8
0
  6
SLD-Durchgehend
 62
     7
370
    15
100
AcDbLine
 10
66.53516030910001
 20
-1.25
 30
0.0
 11
66.53516030910001
 21
-25.04947110760001
 31
0.0
  0
LINE
  5
4E3
330
498
100
AcDbEntity
  8
0
  6
SLD-Durchgehend
 62
     7
370
    15
100
AcDbLine
 10
62.75187590599998
 20
-0.3587682442000073
 30
0.0
 11
62.75187590599998
 21
-24.5650374546
 31
0.0
  0
ELLIPSE
  5
4E4
330
498
100
AcDbEntity
  8
0
  6
SLD-Durchgehend
 62
     7
370
    15
100
AcDbEllipse
 10
57.93467112150003
 20
-7.5
 30
0.0
 11
4.740259054514268
 21
0.0
 31
0.0
210
0.0
220
0.0
230
1.0
 40
0.8965754721999999
 41
5.741086702161187
 42
6.825283912198016
  0
LINE
  5
4E5
330
498
100
AcDbEntity
  8
0
  6
SLD-Durchgehend
 62
     7
370
    15
100
AcDbLine
 10
52.91560615840001
 20
23.05067553809999
 30
0.0
 11
52.91560615840001
 21
-23.05067553809999
 31
0.0
  0
ELLIPSE
  5
4E6
330
498
100
AcDbEntity
  8
0
  6
SLD-Durchgehend
 62
     7
370
    15
100
AcDbEllipse
 10
57.93467112150003
 20
-7.5
 30
0.0
 11
4.74025905451424
 21
0.0
 31
0.0
210
0.0
220
0.0
230
1.0
 40
0.8965754722000001
 41
2.68876148222489
 42
3.594423824954711
  0
LINE
  5
4E7
330
498
100
AcDbEntity
  8
0
  6
SLD-Durchgehend
 62
     7
370
    15
100
AcDbLine
 10
49.1323217554
 20
22.35843938079999
 30
0.0
 11
49.1323217554
 21
-22.35843938079999
 31
0.0
  0
LINE
  5
4E8
330
498
100
AcDbEntity
  8
0
  6
SLD-Durchgehend
 62
     7
370
    15
100
AcDbLine
 10
48.0
 20
18.00959887069998
 30
0.0
 11
48.0
 21
-18.0095988707
 31
0.0
  0
ELLIPSE
  5
4E9
330
498
100
AcDbEntity
  8
0
  6
SLD-Durchgehend
 62
     7
370
    15
100
AcDbEllipse
 10
53.56860279180001
 20
0.0
 30
0.0
 11
0.0
 21
27.5
 31
0.0
210
0.0
220
0.0
230
1.0
 40
0.2679491924
 41
0.8567533108677761
 42
2.284839342722018
  0
ARC
  5
4EA
330
498
100
AcDbEntity
  8
0
  6
SLD-Durchgehend
 62
     7
370
    15
100
AcDbCircle
 10
60.1513284671
 20
-7.5
 30
0.0
 40
4.184252510249616
100
AcDbArc
 50
95.86431172879994
 51
264.1356882711999
  0
ELLIPSE
  5
4EB
330
498
100
AcDbEntity
  8
0
  6
SLD-Durchgehend
 62
     7
370
    15
100
AcDbEllipse
 10
59.02271574180001
 20
-7.5
 30
0.0
 11
0.0
 21
4.250000000000013
 31
0.0
210
0.0
220
0.0
230
1.0
 40
0.8164965808999998
 41
3.321064754170042
 42
4.170290375366294
  0
ARC
  5
4EC
330
498
100
AcDbEntity
  8
0
  6
SLD-Durchgehend
 62
     7
370
    15
100
AcDbCircle
 10
49.43099630069999
 20
0.0
 30
0.0
 40
27.50000000000019
100
AcDbArc
 50
291.7967552762003
 51
297.1862259202003
  0
LINE
  5
4ED
330
498
100
AcDbEntity
  8
0
  6
SLD-Durchgehend
 62
     7
370
     0
100
AcDbLine
 10
59.6421657793
 20
-11.6817367775
 30
0.0
 11
59.6421657793
 21
-25.5339385501
 31
0.0
  0
LINE
  5
4EE
330
498
100
AcDbEntity
  8
0
  6
SLD-Durchgehend
 62
     7
370
     0
100
AcDbLine
 10
59.0733346927
 20
-11.74271895110001
 30
0.0
 11
59.0733346927
 21
-25.4724568523
 31
0.0
  0
LINE
  5
4EF
330
498
100
AcDbEntity
  8
0
  6
SLD-Durchgehend
 62
     7
370
     0
100
AcDbLine
 10
55.1023143957
 20
-10.16373172790001
 30
0.0
 11
55.1023143957
 21
-25.01318700620001
 31
0.0
  0
LINE
  5
4F0
330
498
100
AcDbEntity
  8
0
  6
SLD-Durchgehend
 62
     7
370
     0
100
AcDbLine
 10
54.53348330919999
 20
-9.359430707000015
 30
0.0
 11
54.53348330919999
 21
-24.94298994159999
 31
0.0
  0
LINE
  5
4F1
330
498
100
AcDbEntity
  8
0
  6
SLD-Durchgehend
 62
     7
370
    15
100
AcDbLine
 10
58.2120245225
 20
-11.74271895110001
 30
0.0
 11
58.2120245225
 21
-23.91415507130001
 31
0.0
  0
LINE
  5
4F2
330
498
100
AcDbEntity
  8
0
  6
SLD-Durchgehend
 62
     7
370
    15
100
AcDbLine
 10
57.45545754200001
 20
-11.72822656639999
 30
0.0
 11
57.45545754200001
 21
-23.7979115665
 31
0.0
  0
LINE
  5
4F3
330
498
100
AcDbEntity
  8
0
  6
SLD-Durchgehend
 62
     7
370
    15
100
AcDbLine
 10
53.67217313890001
 20
-9.359430707000015
 30
0.0
 11
53.67217313890001
 21
-23.1813084526
 31
0.0
  0
LINE
  5
4F4
330
498
100
AcDbEntity
  8
0
  6
SLD-Durchgehend
 62
     7
370
    15
100
AcDbLine
 10
48.0
 20
-22.13802539639999
 30
0.0
 11
48.0
 21
-18.0095988707
 31
0.0
  0
ARC
  5
4F5
330
498
100
AcDbEntity
  8
0
  6
SLD-Durchgehend
 62
     7
370
    15
100
AcDbCircle
 10
37.91839450959999
 20
0.0
 30
0.0
 40
27.50000000000027
100
AcDbArc
 50
297.3731902453998
 51
303.0488000289001
  0
ARC
  5
4F6
330
498
100
AcDbEntity
  8
0
  6
SLD-Durchgehend
 62
     7
370
    15
100
AcDbCircle
 10
50.33012210040002
 20
-24.0085785663
 30
0.0
 40
0.4732267620314758
100
AcDbArc
 50
224.6791958832
 51
299.4044636119001
  0
ELLIPSE
  5
4F7
330
498
100
AcDbEntity
  8
0
  6
SLD-Durchgehend
 62
     7
370
    15
100
AcDbEllipse
 10
53.42244010449999
 20
0.0
 30
0.0
 11
0.0
 21
27.5
 31
0.0
210
0.0
220
0.0
230
1.0
 40
0.2679491924
 41
2.520141037206201
 42
2.657588898028585
  0
ELLIPSE
  5
4F8
330
498
100
AcDbEntity
  8
0
  6
SLD-Durchgehend
 62
     7
370
    15
100
AcDbEllipse
 10
108.8859620036
 20
0.0
 30
0.0
 11
102.6313972081432
 21
0.0
 31
0.0
210
0.0
220
0.0
230
1.0
 40
0.2679491924
 41
4.077300325667915
 42
4.090937364001113
  0
ARC
  5
4F9
330
498
100
AcDbEntity
  8
0
  6
SLD-Durchgehend
 62
     7
370
    15
100
AcDbCircle
 10
43.67469540510001
 20
0.0
 30
0.0
 40
27.50000000000022
100
AcDbArc
 50
294.5539436115002
 51
300.0740351490996
  0
ARC
  5
4FA
330
498
100
AcDbEntity
  8
0
  6
SLD-Durchgehend
 62
     7
370
    15
100
AcDbCircle
 10
54.8702128236
 20
-24.5541702765
 30
0.0
 40
0.5143612523261938
100
AcDbArc
 50
229.106453196
 51
296.8234187934998
  0
ELLIPSE
  5
4FB
330
498
100
AcDbEntity
  8
0
  6
SLD-Durchgehend
 62
     7
370
    15
100
AcDbEllipse
 10
57.6363448237
 20
0.0
 30
0.0
 11
0.0
 21
27.5
 31
0.0
210
0.0
220
0.0
230
1.0
 40
0.2679491924
 41
2.573551974805392
 42
2.70694345072497
  0
ELLIPSE
  5
4FC
330
498
100
AcDbEntity
  8
0
  6
SLD-Durchgehend
 62
     7
370
    15
100
AcDbEllipse
 10
108.8859620036
 20
0.0
 30
0.0
 11
102.6313972081432
 21
0.0
 31
0.0
210
0.0
220
0.0
230
1.0
 40
0.2679491924
 41
4.135578606046896
 42
4.144348301600301
  0
ARC
  5
4FD
330
498
100
AcDbEntity
  8
0
  6
SLD-Durchgehend
 62
     7
370
    15
100
AcDbCircle
 10
59.4101770297
 20
-25.01814294350001
 30
0.0
 40
0.5655651047614742
100
AcDbArc
 50
233.4456225547003
 51
294.2167263445996
  0
ELLIPSE
  5
4FE
330
498
100
AcDbEntity
  8
0
  6
SLD-Durchgehend
 62
     7
370
    15
100
AcDbEllipse
 10
61.8502495429
 20
0.0
 30
0.0
 11
0.0
 21
27.5
 31
0.0
210
0.0
220
0.0
230
1.0
 40
0.2679491924
 41
2.625199373813681
 42
2.755191105186957
  0
ELLIPSE
  5
4FF
330
498
100
AcDbEntity
  8
0
  6
SLD-Durchgehend
 62
     7
370
    15
100
AcDbEllipse
 10
108.8859620036
 20
0.0
 30
0.0
 11
102.6313972081432
 21
0.0
 31
0.0
210
0.0
220
0.0
230
1.0
 40
0.2679491924
 41
4.187498047672733
 42
4.195995700608595
  0
ELLIPSE
  5
500
330
498
100
AcDbEntity
  8
0
  6
SLD-Durchgehend
 62
     7
370
    15
100
AcDbEllipse
 10
57.80626622990002
 20
-7.5
 30
0.0
 11
0.0
 21
4.250000000000013
 31
0.0
210
0.0
220
0.0
230
1.0
 40
0.8164965808999998
 41
2.248185026420109
 42
3.040325271894996
  0
LINE
  5
501
330
498
100
AcDbEntity
  8
0
  6
SLD-Durchgehend
 62
     7
370
    15
100
AcDbLine
 10
53.67217313890001
 20
-9.359430707000015
 30
0.0
 11
54.53348330919999
 21
-9.359430707000015
 31
0.0
  0
ARC
  5
502
330
498
100
AcDbEntity
  8
0
  6
SLD-Durchgehend
 62
     7
370
    15
100
AcDbCircle
 10
52.1209942195
 20
-11.66893077029999
 30
0.0
 40
3.339744623542478
100
AcDbArc
 50
26.78814556020016
 51
43.75054750309987
  0
ELLIPSE
  5
503
330
498
100
AcDbEntity
  8
0
  6
SLD-Durchgehend
 62
     7
370
    15
100
AcDbEllipse
 10
57.93467112150003
 20
-7.5
 30
0.0
 11
4.74025905451424
 21
0.0
 31
0.0
210
0.0
220
0.0
230
1.0
 40
0.8965754722000001
 41
4.611121598689901
 42
4.77093259426591
  0
LINE
  5
504
330
498
100
AcDbEntity
  8
0
  6
SLD-Durchgehend
 62
     7
370
    15
100
AcDbLine
 10
58.2120245225
 20
-11.74271895110001
 30
0.0
 11
59.0733346927
 21
-11.74271895110001
 31
0.0
  0
ARC
  5
505
330
498
100
AcDbEntity
  8
0
  6
SLD-Durchgehend
 62
     7
370
    15
100
AcDbCircle
 10
59.02803549310002
 20
-8.636706208800021
 30
0.0
 40
3.10634305462091
100
AcDbArc
 50
270.8355628816004
 51
281.4026112887998
  0
ELLIPSE
  5
506
330
498
100
AcDbEntity
  8
0
  6
SLD-Durchgehend
 62
     7
370
    15
100
AcDbEllipse
 10
78.70586841959998
 20
0.0
 30
0.0
 11
0.0
 21
27.5
 31
0.0
210
0.0
220
0.0
230
1.0
 40
0.2679491924
 41
2.819229550890116
 42
2.921895659608308
  0
LINE
  5
507
330
498
100
AcDbEntity
  8
0
  6
SLD-Durchgehend
 62
     7
370
    15
100
AcDbLine
 10
61.99530892549997
 20
-9.692723112100011
 30
0.0
 11
61.99530892549997
 21
-24.46197147130002
 31
0.0
  0
ARC
  5
508
330
498
100
AcDbEntity
  8
0
  6
SLD-Durchgehend
 62
     7
370
    15
100
AcDbCircle
 10
68.48988957759999
 20
-25.6977087055
 30
0.0
 40
0.7178524865907738
100
AcDbArc
 50
242.0143911885002
 51
288.8539473687998
  0
ARC
  5
509
330
498
100
AcDbEntity
  8
0
  6
SLD-Durchgehend
 62
     7
370
    15
100
AcDbCircle
 10
55.18729719620001
 20
0.0
 30
0.0
 40
27.50000000000016
100
AcDbArc
 50
289.0916829028997
 51
294.3713855335999
  0
ARC
  5
50A
330
498
100
AcDbEntity
  8
0
  6
SLD-Durchgehend
 62
     7
370
    15
100
AcDbCircle
 10
63.95005795970002
 20
-25.400484864
 30
0.0
 40
0.631090855154883
100
AcDbArc
 50
237.7379071105001
 51
291.5647703206999
  0
ELLIPSE
  5
50B
330
498
100
AcDbEntity
  8
0
  6
SLD-Durchgehend
 62
     7
370
    15
100
AcDbEllipse
 10
66.064154262
 20
0.0
 30
0.0
 11
0.0
 21
27.5
 31
0.0
210
0.0
220
0.0
230
1.0
 40
0.2679491924
 41
2.675373242038153
 42
2.80250886191846
  0
ELLIPSE
  5
50C
330
498
100
AcDbEntity
  8
0
  6
SLD-Durchgehend
 62
     7
370
    15
100
AcDbEllipse
 10
108.8859620036
 20
0.0
 30
0.0
 11
102.6313972081432
 21
0.0
 31
0.0
210
0.0
220
0.0
230
1.0
 40
0.2679491924
 41
4.23789982688593
 42
4.246169568833058
  0
ELLIPSE
  5
50D
330
498
100
AcDbEntity
  8
0
  6
SLD-Durchgehend
 62
     7
370
    15
100
AcDbEllipse
 10
70.27805898119999
 20
0.0
 30
0.0
 11
0.0
 21
27.5
 31
0.0
210
0.0
220
0.0
230
1.0
 40
0.2679491924
 41
2.724309885471869
 42
2.849049076202071
  0
ELLIPSE
  5
50E
330
498
100
AcDbEntity
  8
0
  6
SLD-Durchgehend
 62
     7
370
    15
100
AcDbEllipse
 10
108.8859620036
 20
0.0
 30
0.0
 11
102.6313972081432
 21
0.0
 31
0.0
210
0.0
220
0.0
230
1.0
 40
0.2679491924
 41
4.287028059550633
 42
4.295106212266769
  0
ARC
  5
50F
330
498
100
AcDbEntity
  8
0
  6
SLD-Durchgehend
 62
     7
370
    15
100
AcDbCircle
 10
66.69989898729999
 20
0.0
 30
0.0
 40
27.5000000000001
100
AcDbArc
 50
283.8046145243998
 51
288.9159339754
  0
ELLIPSE
  5
510
330
498
100
AcDbEntity
  8
0
  6
SLD-Durchgehend
 62
     7
370
    15
100
AcDbEllipse
 10
74.49196370040002
 20
0.0
 30
0.0
 11
0.0
 21
27.5
 31
0.0
210
0.0
220
0.0
230
1.0
 40
0.2679491924
 41
2.772206188349358
 42
2.894945317480673
  0
ARC
  5
511
330
498
100
AcDbEntity
  8
0
  6
SLD-Durchgehend
 62
     7
370
    15
100
AcDbCircle
 10
73.0296998119
 20
-25.90057390480001
 30
0.0
 40
0.8378567216336474
100
AcDbArc
 50
246.2972873601995
 51
286.0765257671001
  0
ELLIPSE
  5
512
330
498
100
AcDbEntity
  8
0
  6
SLD-Durchgehend
 62
     7
370
    15
100
AcDbEllipse
 10
108.8859620036
 20
0.0
 30
0.0
 11
102.6313972081432
 21
0.0
 31
0.0
210
0.0
220
0.0
230
1.0
 40
0.2679491924
 41
4.335085415548687
 42
4.343002515144259
  0
ARC
  5
513
330
498
100
AcDbEntity
  8
0
  6
SLD-Durchgehend
 62
     7
370
    15
100
AcDbCircle
 10
60.94359809180001
 20
0.0
 30
0.0
 40
27.50000000000012
100
AcDbArc
 50
286.4301484182996
 51
291.6179018602993
  0
ELLIPSE
  5
514
330
498
100
AcDbEntity
  8
0
  6
SLD-Durchgehend
 62
     7
370
    15
100
AcDbEllipse
 10
108.8859620036
 20
0.0
 30
0.0
 11
102.6313972081412
 21
0.0
 31
0.0
210
0.0
220
0.0
230
1.0
 40
0.2679491924
 41
4.382243651423392
 42
4.39002587768502
  0
LINE
  5
515
330
498
100
AcDbEntity
  8
0
  6
SLD-Durchgehend
 62
     7
370
    15
100
AcDbLine
 10
78.0
 20
-26.67152039159998
 30
0.0
 11
78.0
 21
-27.1
 31
0.0
  0
LINE
  5
516
330
498
100
AcDbEntity
  8
0
  6
SLD-Durchgehend
 62
     7
370
    15
100
AcDbLine
 10
77.59999999999998
 20
-27.00388860890001
 30
0.0
 11
78.0
 21
-26.67152039159998
 31
0.0
  0
LINE
  5
517
330
498
100
AcDbEntity
  8
0
  6
SLD-Durchgehend
 62
     7
370
    15
100
AcDbLine
 10
77.59999999999998
 20
-27.00388860890001
 30
0.0
 11
77.59999999999998
 21
-27.5
 31
0.0
  0
ARC
  5
518
330
498
100
AcDbEntity
  8
0
  6
SLD-Durchgehend
 62
     7
370
    15
100
AcDbCircle
 10
82.80000000000002
 20
0.0
 30
0.0
 40
27.50000000000003
100
AcDbArc
 50
259.0324772103999
 51
259.1002645458995
  0
ELLIPSE
  5
519
330
498
100
AcDbEntity
  8
0
  6
SLD-Durchgehend
 62
     7
370
    15
100
AcDbEllipse
 10
97.09393951630005
 20
0.0
 30
0.0
 11
102.6313972081419
 21
0.0
 31
0.0
210
0.0
220
0.0
230
1.0
 40
0.2679491924
 41
4.520027654438329
 42
4.520969596918976
  0
ARC
  5
51A
330
498
100
AcDbEntity
  8
0
  6
SLD-Durchgehend
 62
     7
370
    15
100
AcDbCircle
 10
77.4425668884
 20
-26.5193670536
 30
0.0
 40
0.474397559589808
100
AcDbArc
 50
243.7491938788997
 51
273.6970559474995
  0
ELLIPSE
  5
51B
330
498
100
AcDbEntity
  8
0
  6
SLD-Durchgehend
 62
     7
370
    15
100
AcDbEllipse
 10
78.70586841959998
 20
0.0
 30
0.0
 11
0.0
 21
27.5
 31
0.0
210
0.0
220
0.0
230
1.0
 40
0.2679491924
 41
2.936793552551801
 42
2.940316780334101
  0
ARC
  5
51C
330
498
100
AcDbEntity
  8
0
  6
SLD-Durchgehend
 62
     7
370
    15
100
AcDbCircle
 10
82.80000000000002
 20
0.0
 30
0.0
 40
27.50000000000005
100
AcDbArc
 50
258.0374252062998
 51
258.2658758624003
  0
LINE
  5
51D
330
498
100
AcDbEntity
  8
0
  6
SLD-Durchgehend
 62
     7
370
    15
100
AcDbLine
 10
77.09999999999998
 20
-26.9027879596
 30
0.0
 11
77.09999999999998
 21
-26.838997059
 31
0.0
  0
LINE
  5
51E
330
498
100
AcDbEntity
  8
0
  6
SLD-Durchgehend
 62
     7
370
    15
100
AcDbLine
 10
77.59999999999998
 20
-27.5
 30
0.0
 11
78.0
 21
-27.1
 31
0.0
  0
ELLIPSE
  5
51F
330
498
100
AcDbEntity
  8
0
  6
SLD-Durchgehend
 62
     7
370
    15
100
AcDbEllipse
 10
59.02271574180001
 20
-7.5
 30
0.0
 11
0.0
 21
4.250000000000013
 31
0.0
210
0.0
220
0.0
230
1.0
 40
0.8164965808999998
 41
5.254487585403111
 42
6.10371320659937
  0
ARC
  5
520
330
498
100
AcDbEntity
  8
0
  6
SLD-Durchgehend
 62
     7
370
    15
100
AcDbCircle
 10
49.43099630069999
 20
0.0
 30
0.0
 40
27.50000000000019
100
AcDbArc
 50
62.81377407979958
 51
68.20324472379964
  0
ARC
  5
521
330
498
100
AcDbEntity
  8
0
  6
SLD-Durchgehend
 62
     7
370
    15
100
AcDbCircle
 10
66.7435435461
 20
7.493713559500007
 30
0.0
 40
8.760616043469244
100
AcDbArc
 50
91.80140859369991
 51
209.3463129404002
  0
ARC
  5
522
330
498
100
AcDbEntity
  8
0
  6
SLD-Durchgehend
 62
     7
370
    15
100
AcDbCircle
 10
66.52113163230001
 20
7.150550173199987
 30
0.0
 40
8.400717242801134
100
AcDbArc
 50
208.0494832056994
 51
269.6386492716998
  0
LWPOLYLINE
  5
523
330
498
100
AcDbEntity
  8
0
  6
SLD-Durchgehend
 62
     7
370
    15
100
AcDbPolyline
 90
       46
 70
   128
 43
0.0
 10
59.20549869459998
 20
3.200247798899993
 10
59.85515499799999
 20
2.181500236000005
 10
60.63544003509996
 20
1.266271221299985
 10
61.5311664452
 20
0.4723746465999882
 10
62.52489993250001
 20
-0.1847371945000162
 10
63.59729860519999
 20
-0.6922743673000014
 10
64.72748944279999
 20
-1.040358238199998
 10
65.89347456630003
 20
-1.222213750400015
 10
67.07255940159999
 20
-1.234301293400008
 10
68.2417944035
 20
-1.076385596800008
 10
69.37842174279999
 20
-0.7515403101000118
 10
70.460318261
 20
-0.2660881772000039
 10
71.46642607320001
 20
0.3705220282999875
 10
72.37716243520002
 20
1.145899412800004
 10
73.17480089970001
 20
2.044952137599989
 10
73.84381634119998
 20
3.05018116389999
 10
74.37118713520002
 20
4.142020852399991
 10
74.74664860909999
 20
5.299219785299996
 10
74.96289283240002
 20
6.499254401699999
 10
75.01571085710001
 20
7.718767392800002
 10
74.90407464060002
 20
8.934022325599983
 10
74.63015705480001
 20
10.12136564489999
 10
74.19928959400002
 20
11.25768706369999
 10
73.61985860310003
 20
12.32086937809998
 10
72.90314204730001
 20
13.29021895369997
 10
72.06308999920003
 20
14.14686850369997
 10
71.11605311619998
 20
14.87414431889997
 10
70.08046439410001
 20
15.45789080299998
 10
68.97648038939999
 20
15.8867459945
 10
67.82558889500001
 20
16.15236271499999
 10
66.65019070470001
 20
16.24957103719998
 10
65.4731636072
 20
16.1764789117
 10
64.31741709619998
 20
15.9345089934
 10
63.2054464629
 20
15.5283709518
 10
62.15889495080002
 20
14.96596980169999
 10
61.19813249470002
 20
14.25825204179999
 10
60.34185924279999
 20
13.41899259329998
 10
59.60674158009999
 20
12.46452668679999
 10
59.00708773569999
 20
11.41343191529998
 10
58.55456928959998
 20
10.28616664309998
 10
58.25799399849998
 20
9.104671806399991
 10
58.1231343632
 20
7.891943858299995
 10
58.15261527310003
 20
6.671587168799987
 10
58.34586291580001
 20
5.467354592700003
 10
58.69911594580003
 20
4.302685147399998
 10
59.20549869459998
 20
3.200247798899993
  0
LINE
  5
524
330
498
100
AcDbEntity
  8
0
  6
SLD-Durchgehend
 62
     7
370
     0
100
AcDbLine
 10
59.6421657793
 20
25.5339385501
 30
0.0
 11
59.6421657793
 21
12.6597603127
 31
0.0
  0
LINE
  5
525
330
498
100
AcDbEntity
  8
0
  6
SLD-Durchgehend
 62
     7
370
     0
100
AcDbLine
 10
59.0733346927
 20
25.47245685229998
 30
0.0
 11
59.0733346927
 21
11.73711128299999
 31
0.0
  0
LINE
  5
526
330
498
100
AcDbEntity
  8
0
  6
SLD-Durchgehend
 62
     7
370
     0
100
AcDbLine
 10
55.1023143957
 20
25.01318700619998
 30
0.0
 11
55.1023143957
 21
-4.836268272100013
 31
0.0
  0
LINE
  5
527
330
498
100
AcDbEntity
  8
0
  6
SLD-Durchgehend
 62
     7
370
     0
100
AcDbLine
 10
54.53348330919999
 20
24.94298994159999
 30
0.0
 11
54.53348330919999
 21
-5.640569292999995
 31
0.0
  0
LINE
  5
528
330
498
100
AcDbEntity
  8
0
  6
SLD-Durchgehend
 62
     7
370
    15
100
AcDbLine
 10
58.2120245225
 20
23.91415507129996
 30
0.0
 11
58.2120245225
 21
9.372152042399987
 31
0.0
  0
LINE
  5
529
330
498
100
AcDbEntity
  8
0
  6
SLD-Durchgehend
 62
     7
370
    15
100
AcDbLine
 10
57.45545754200001
 20
23.79791156649996
 30
0.0
 11
57.45545754200001
 21
-3.271773433600016
 31
0.0
  0
LINE
  5
52A
330
498
100
AcDbEntity
  8
0
  6
SLD-Durchgehend
 62
     7
370
    15
100
AcDbLine
 10
53.67217313890001
 20
23.1813084526
 30
0.0
 11
53.67217313890001
 21
-5.640569292999995
 31
0.0
  0
LINE
  5
52B
330
498
100
AcDbEntity
  8
0
  6
SLD-Durchgehend
 62
     7
370
     0
100
AcDbLine
 10
59.0733346927
 20
3.262888716999995
 30
0.0
 11
59.0733346927
 21
-3.257281048899996
 31
0.0
  0
LINE
  5
52C
330
498
100
AcDbEntity
  8
0
  6
SLD-Durchgehend
 62
     7
370
    15
100
AcDbLine
 10
58.2120245225
 20
5.627847957599996
 30
0.0
 11
58.2120245225
 21
-3.257281048899996
 31
0.0
  0
LWPOLYLINE
  5
52D
330
498
100
AcDbEntity
  8
0
  6
SLD-Durchgehend
 62
     7
370
    15
100
AcDbPolyline
 90
       23
 70
   128
 43
0.0
 10
46.66128947689999
 20
0.0
 10
46.68330585559999
 20
-0.5916383694000161
 10
46.74757135589999
 20
-1.1353457167
 10
46.8488795689
 20
-1.587074106100003
 10
46.97902310590001
 20
-1.910227190200004
 10
47.12745851149999
 20
-2.078625027900014
 10
47.28216043169999
 20
-2.078625027900014
 10
47.4305958373
 20
-1.910227190200004
 10
47.5607393743
 20
-1.587074106100003
 10
47.66204758729999
 20
-1.1353457167
 10
47.72631308750002
 20
-0.5916383694000161
 10
47.74832946630001
 20
0.0
 10
47.72631308750002
 20
0.5916383694000018
 10
47.66204758729999
 20
1.1353457167
 10
47.5607393743
 20
1.587074106100003
 10
47.4305958373
 20
1.910227190200004
 10
47.28216043169999
 20
2.07862502799999
 10
47.12745851149999
 20
2.07862502799999
 10
46.97902310590001
 20
1.910227190200004
 10
46.8488795689
 20
1.587074106100003
 10
46.74757135589999
 20
1.1353457167
 10
46.68330585559999
 20
0.5916383694000018
 10
46.66128947689999
 20
0.0
  0
ELLIPSE
  5
52E
330
498
100
AcDbEntity
  8
0
  6
SLD-Durchgehend
 62
     7
370
    15
100
AcDbEllipse
 10
57.80626622990002
 20
-7.5
 30
0.0
 11
0.0
 21
4.250000000000013
 31
0.0
210
0.0
220
0.0
230
1.0
 40
0.8164965808999998
 41
0.1012673816947972
 42
0.8934076271696802
  0
ARC
  5
52F
330
498
100
AcDbEntity
  8
0
  6
SLD-Durchgehend
 62
     7
370
    15
100
AcDbCircle
 10
53.04288976410001
 20
-3.983067462500001
 30
0.0
 40
2.229166085039858
100
AcDbArc
 50
311.9650872609001
 51
337.4962196758995
  0
LINE
  5
530
330
498
100
AcDbEntity
  8
0
  6
SLD-Durchgehend
 62
     7
370
    15
100
AcDbLine
 10
54.53348330919999
 20
-5.640569292999995
 30
0.0
 11
53.67217313890001
 21
-5.640569292999995
 31
0.0
  0
LINE
  5
531
330
498
100
AcDbEntity
  8
0
  6
SLD-Durchgehend
 62
     7
370
     0
100
AcDbLine
 10
59.6421657793
 20
2.340239687299983
 30
0.0
 11
59.6421657793
 21
-3.318263222500006
 31
0.0
  0
ARC
  5
532
330
498
100
AcDbEntity
  8
0
  6
SLD-Durchgehend
 62
     7
370
    15
100
AcDbCircle
 10
59.00577395869999
 20
-6.570945504300012
 30
0.0
 40
3.314353115779055
100
AcDbArc
 50
78.92984049569967
 51
88.8319853339002
  0
LINE
  5
533
330
498
100
AcDbEntity
  8
0
  6
SLD-Durchgehend
 62
     7
370
    15
100
AcDbLine
 10
59.0733346927
 20
-3.257281048899996
 30
0.0
 11
58.2120245225
 21
-3.257281048899996
 31
0.0
  0
ELLIPSE
  5
534
330
498
100
AcDbEntity
  8
0
  6
SLD-Durchgehend
 62
     7
370
    15
100
AcDbEllipse
 10
57.93467112150003
 20
-7.5
 30
0.0
 11
4.74025905451424
 21
0.0
 31
0.0
210
0.0
220
0.0
230
1.0
 40
0.8965754722000001
 41
1.512252712913688
 42
1.672063708489698
  0
ARC
  5
535
330
498
100
AcDbEntity
  8
0
  6
SLD-Durchgehend
 62
     7
370
    15
100
AcDbCircle
 10
37.91839450959999
 20
0.0
 30
0.0
 40
27.50000000000026
100
AcDbArc
 50
56.95119997109976
 51
62.62680975470013
  0
LINE
  5
536
330
498
100
AcDbEntity
  8
0
  6
SLD-Durchgehend
 62
     7
370
    15
100
AcDbLine
 10
48.0
 20
18.00959887069998
 30
0.0
 11
48.0
 21
22.13802539639999
 31
0.0
  0
ELLIPSE
  5
537
330
498
100
AcDbEntity
  8
0
  6
SLD-Durchgehend
 62
     7
370
    15
100
AcDbEllipse
 10
108.8859620036
 20
0.0
 30
0.0
 11
102.6313972081432
 21
0.0
 31
0.0
210
0.0
220
0.0
230
1.0
 40
0.2679491924
 41
2.19224794317849
 42
2.205884981511688
  0
ELLIPSE
  5
538
330
498
100
AcDbEntity
  8
0
  6
SLD-Durchgehend
 62
     7
370
    15
100
AcDbEllipse
 10
53.42244010449999
 20
0.0
 30
0.0
 11
0.0
 21
27.5
 31
0.0
210
0.0
220
0.0
230
1.0
 40
0.2679491924
 41
0.4840037555612029
 42
0.6214516163835923
  0
ARC
  5
539
330
498
100
AcDbEntity
  8
0
  6
SLD-Durchgehend
 62
     7
370
    15
100
AcDbCircle
 10
50.33819461870002
 20
23.9508337538
 30
0.0
 40
0.5207727069075096
100
AcDbArc
 50
64.49147139919985
 51
131.4248691056997
  0
ARC
  5
53A
330
498
100
AcDbEntity
  8
0
  6
SLD-Durchgehend
 62
     7
370
    15
100
AcDbCircle
 10
43.67469540510001
 20
0.0
 30
0.0
 40
27.50000000000019
100
AcDbArc
 50
59.92596485090039
 51
65.44605638849971
  0
ELLIPSE
  5
53B
330
498
100
AcDbEntity
  8
0
  6
SLD-Durchgehend
 62
     7
370
    15
100
AcDbEllipse
 10
108.8859620036
 20
0.0
 30
0.0
 11
102.6313972081432
 21
0.0
 31
0.0
210
0.0
220
0.0
230
1.0
 40
0.2679491924
 41
2.138837005579301
 42
2.147606701132706
  0
ELLIPSE
  5
53C
330
498
100
AcDbEntity
  8
0
  6
SLD-Durchgehend
 62
     7
370
    15
100
AcDbEllipse
 10
57.6363448237
 20
0.0
 30
0.0
 11
0.0
 21
27.5
 31
0.0
210
0.0
220
0.0
230
1.0
 40
0.2679491924
 41
0.4346492028648224
 42
0.5680406787844002
  0
ARC
  5
53D
330
498
100
AcDbEntity
  8
0
  6
SLD-Durchgehend
 62
     7
370
    15
100
AcDbCircle
 10
54.87927027880002
 20
24.48077458590001
 30
0.0
 40
0.5772448903366172
100
AcDbArc
 50
67.26967455270008
 51
126.8004534577999
  0
ELLIPSE
  5
53E
330
498
100
AcDbEntity
  8
0
  6
SLD-Durchgehend
 62
     7
370
    15
100
AcDbEllipse
 10
108.8859620036
 20
0.0
 30
0.0
 11
102.6313972081432
 21
0.0
 31
0.0
210
0.0
220
0.0
230
1.0
 40
0.2679491924
 41
2.087189606571004
 42
2.095687259506866
  0
ELLIPSE
  5
53F
330
498
100
AcDbEntity
  8
0
  6
SLD-Durchgehend
 62
     7
370
    15
100
AcDbEllipse
 10
61.8502495429
 20
0.0
 30
0.0
 11
0.0
 21
27.5
 31
0.0
210
0.0
220
0.0
230
1.0
 40
0.2679491924
 41
0.386401548402836
 42
0.5163932797761098
  0
ARC
  5
540
330
498
100
AcDbEntity
  8
0
  6
SLD-Durchgehend
 62
     7
370
    15
100
AcDbCircle
 10
59.42013285450002
 20
24.92603126099998
 30
0.0
 40
0.6471861337961129
100
AcDbArc
 50
69.9357123494002
 51
122.4019387512999
  0
LINE
  5
541
330
498
100
AcDbEntity
  8
0
  6
SLD-Durchgehend
 62
     7
370
     0
100
AcDbLine
 10
77.4731565326
 20
26.99277735999999
 30
0.0
 11
77.4731565326
 21
2.562827085499989
 31
0.0
  0
LINE
  5
542
330
498
100
AcDbEntity
  8
0
  6
SLD-Durchgehend
 62
     7
370
     0
100
AcDbLine
 10
77.23274022700002
 20
26.94483834139997
 30
0.0
 11
77.23274022700002
 21
2.568705470899999
 31
0.0
  0
LINE
  5
543
330
498
100
AcDbEntity
  8
0
  6
SLD-Durchgehend
 62
     7
370
     0
100
AcDbLine
 10
73.26171992999999
 20
26.70566430399998
 30
0.0
 11
73.26171992999999
 21
12.84024322589998
 31
0.0
  0
LINE
  5
544
330
498
100
AcDbEntity
  8
0
  6
SLD-Durchgehend
 62
     7
370
     0
100
AcDbLine
 10
72.69288884339998
 20
26.6677520181
 30
0.0
 11
72.69288884339998
 21
13.52786550429999
 31
0.0
  0
LINE
  5
545
330
498
100
AcDbEntity
  8
0
  6
SLD-Durchgehend
 62
     7
370
    15
100
AcDbLine
 10
78.0
 20
26.67152039159998
 30
0.0
 11
78.0
 21
2.552369869599985
 31
0.0
  0
LINE
  5
546
330
498
100
AcDbEntity
  8
0
  6
SLD-Durchgehend
 62
     7
370
    15
100
AcDbLine
 10
77.56805501689999
 20
26.99771752749998
 30
0.0
 11
77.56805501689999
 21
2.56222072669999
 31
0.0
  0
LINE
  5
547
330
498
100
AcDbEntity
  8
0
  6
SLD-Durchgehend
 62
     7
370
    15
100
AcDbLine
 10
77.2073122548
 20
2.571098207199979
 30
0.0
 11
77.2073122548
 21
26.92530118280001
 31
0.0
  0
LINE
  5
548
330
498
100
AcDbEntity
  8
0
  6
SLD-Durchgehend
 62
     7
370
    15
100
AcDbLine
 10
77.09999999999998
 20
26.83899705899998
 30
0.0
 11
77.09999999999998
 21
2.581647507199988
 31
0.0
  0
LINE
  5
549
330
498
100
AcDbEntity
  8
0
  6
SLD-Durchgehend
 62
     7
370
    15
100
AcDbLine
 10
75.61486307619998
 20
26.01486911929999
 30
0.0
 11
75.61486307619998
 21
2.680702814099984
 31
0.0
  0
LINE
  5
54A
330
498
100
AcDbEntity
  8
0
  6
SLD-Durchgehend
 62
     7
370
    15
100
AcDbLine
 10
76.37143005670004
 20
26.08345892079998
 30
0.0
 11
76.37143005670004
 21
2.6725748928
 31
0.0
  0
ELLIPSE
  5
54B
330
498
100
AcDbEntity
  8
0
  6
SLD-Durchgehend
 62
     7
370
    15
100
AcDbEllipse
 10
78.70586841959998
 20
-222.5
 30
0.0
 11
0.0
 21
220.0
 31
0.0
210
0.0
220
0.0
230
1.0
 40
0.2679491924
 41
0.0272451093140951
 42
0.039611460656775
  0
ELLIPSE
  5
54C
330
498
100
AcDbEntity
  8
0
  6
SLD-Durchgehend
 62
     7
370
    15
100
AcDbEllipse
 10
78.70586841959998
 20
222.5
 30
0.0
 11
0.0
 21
220.0
 31
0.0
210
0.0
220
0.0
230
1.0
 40
0.2679491924
 41
3.101981192933015
 42
3.114347544275698
  0
LINE
  5
54D
330
498
100
AcDbEntity
  8
0
  6
SLD-Durchgehend
 62
     7
370
    15
100
AcDbLine
 10
78.0
 20
-2.5
 30
0.0
 11
75.0
 21
-2.5
 31
0.0
  0
LINE
  5
54E
330
498
100
AcDbEntity
  8
0
  6
SLD-Durchgehend
 62
     7
370
    15
100
AcDbLine
 10
75.0
 20
2.5
 30
0.0
 11
78.0
 21
2.5
 31
0.0
  0
LINE
  5
54F
330
498
100
AcDbEntity
  8
0
  6
SLD-Durchgehend
 62
     7
370
    15
100
AcDbLine
 10
75.0
 20
-2.656627747900017
 30
0.0
 11
75.0
 21
2.656627747899989
 31
0.0
  0
LINE
  5
550
330
498
100
AcDbEntity
  8
0
  6
SLD-Durchgehend
 62
     7
370
    15
100
AcDbLine
 10
61.99530892549997
 20
0.0757291265999953
 30
0.0
 11
61.99530892549997
 21
-5.307276887900016
 31
0.0
  0
LINE
  5
551
330
498
100
AcDbEntity
  8
0
  6
SLD-Durchgehend
 62
     7
370
    15
100
AcDbLine
 10
66.46815067630001
 20
-1.25
 30
0.0
 11
66.56650191349999
 21
-1.25
 31
0.0
  0
ARC
  5
552
330
498
100
AcDbEntity
  8
0
  6
SLD-Durchgehend
 62
     7
370
    15
100
AcDbCircle
 10
66.69989898729999
 20
-222.5
 30
0.0
 40
220.0
100
AcDbArc
 50
87.67759221359991
 51
87.83784705769999
  0
ELLIPSE
  5
553
330
498
100
AcDbEntity
  8
0
  6
SLD-Durchgehend
 62
     7
370
    15
100
AcDbEllipse
 10
108.8859620036
 20
-222.5
 30
0.0
 11
821.0511776651305
 21
0.0
 31
0.0
210
0.0
220
0.0
230
1.0
 40
0.2679491924
 41
1.610407787451672
 42
1.611329989241444
  0
ARC
  5
554
330
498
100
AcDbEntity
  8
0
  6
SLD-Durchgehend
 62
     7
370
    15
100
AcDbCircle
 10
67.06240986570001
 20
7.382797634400005
 30
0.0
 40
2.884104759707066
100
AcDbArc
 50
274.1402211141998
 51
330.7678732218001
  0
ARC
  5
555
330
498
100
AcDbEntity
  8
0
  6
SLD-Durchgehend
 62
     7
370
    15
100
AcDbCircle
 10
67.06386399180002
 20
7.616692626199977
 30
0.0
 40
2.883576132799283
100
AcDbArc
 50
28.08444799420048
 51
89.02694791580014
  0
LINE
  5
556
330
498
100
AcDbEntity
  8
0
  6
SLD-Durchgehend
 62
     7
370
    15
100
AcDbLine
 10
67.11283330349999
 20
10.499852927
 30
0.0
 11
68.78578389170002
 21
10.4827024545
 31
0.0
  0
LINE
  5
557
330
498
100
AcDbEntity
  8
0
  6
SLD-Durchgehend
 62
     7
370
    15
100
AcDbLine
 10
66.24739813599997
 20
10.51700339959998
 30
0.0
 11
69.59329931240003
 21
10.4827024545
 31
0.0
  0
LINE
  5
558
330
498
100
AcDbEntity
  8
0
  6
SLD-Durchgehend
 62
     7
370
    15
100
AcDbLine
 10
69.53591271279998
 20
4.482996600399985
 30
0.0
 11
66.19001153639999
 21
4.517297545499983
 31
0.0
  0
LWPOLYLINE
  5
559
330
498
100
AcDbEntity
  8
0
  6
SLD-Durchgehend
 62
     7
370
    15
100
AcDbPolyline
 90
       32
 70
   128
 43
0.0
 10
64.21115381490003
 20
5.350123899400003
 10
64.7045146028
 20
4.627117062499991
 10
65.32835731029999
 20
4.021726390499991
 10
66.0571417438
 20
3.558736648899993
 10
66.86103138290002
 20
3.2571026918
 10
67.70711489140001
 20
3.129173449099992
 10
68.560753511
 20
3.180186358999989
 10
69.38699917630001
 20
3.408052946799998
 10
70.15202529270002
 20
3.803444327800006
 10
70.8245116011
 20
4.350173132399986
 10
71.37692643310001
 20
5.025856218999988
 10
71.78665386040002
 20
5.802831042699992
 10
72.03691959420002
 20
6.649288162899977
 10
72.11747772570001
 20
7.530573525699992
 10
72.02503019580001
 20
8.410607204699985
 10
71.763361817
 20
9.253360517800004
 10
71.3431853237
 20
10.0243310453
 10
70.7817027907
 20
10.69195516319999
 10
70.10190137900004
 20
11.22890026169999
 10
69.33161223819999
 20
11.61318374529999
 10
68.5023710962
 20
11.82907300309999
 10
67.64812718290001
 20
11.86772950349997
 10
66.8038533445
 20
11.72757064489999
 10
66.00411425090001
 20
11.41433454739998
 10
65.2816513148
 20
10.9408451335
 10
64.6660422537
 20
10.32648711559998
 10
64.1824901747
 20
9.596412383099988
 10
63.85079175680002
 20
8.780510281399982
 10
63.68452677229999
 20
7.912183938199987
 10
63.6905021291
 20
7.026982736199982
 10
63.86847319540001
 20
6.161146916499987
 10
64.21115381490003
 20
5.350123899400003
  0
LINE
  5
55A
330
498
100
AcDbEntity
  8
0
  6
SLD-Durchgehend
 62
     7
370
    15
100
AcDbLine
 10
64.54575424800001
 20
7.5343009451
 30
0.0
 11
66.24739813599997
 21
10.51700339959998
 31
0.0
  0
ARC
  5
55B
330
498
100
AcDbEntity
  8
0
  6
SLD-Durchgehend
 62
     7
370
    15
100
AcDbCircle
 10
67.08533881550001
 20
7.310637684199988
 30
0.0
 40
2.810699370738845
100
AcDbArc
 50
249.5397300935003
 51
265.0009446247995
  0
LINE
  5
55C
330
498
100
AcDbEntity
  8
0
  6
SLD-Durchgehend
 62
     7
370
    15
100
AcDbLine
 10
66.19001153639999
 20
4.517297545499983
 30
0.0
 11
64.54575424800001
 21
7.5343009451
 31
0.0
  0
ARC
  5
55D
330
498
100
AcDbEntity
  8
0
  6
SLD-Durchgehend
 62
     7
370
    15
100
AcDbCircle
 10
67.08528750759999
 20
7.688670129099987
 30
0.0
 40
2.811317750532227
100
AcDbArc
 50
89.43859668579969
 51
109.5313074730997
  0
LINE
  5
55E
330
498
100
AcDbEntity
  8
0
  6
SLD-Durchgehend
 62
     7
370
    15
100
AcDbLine
 10
66.24270276479997
 20
10.5087731845
 30
0.0
 11
67.11283330349999
 21
10.499852927
 31
0.0
  0
ARC
  5
55F
330
498
100
AcDbEntity
  8
0
  6
SLD-Durchgehend
 62
     7
370
    15
100
AcDbCircle
 10
66.89005563380002
 20
7.500133102299982
 30
0.0
 40
3.091863771902108
100
AcDbArc
 50
330.4301673993996
 51
28.47380896990017
  0
LINE
  5
560
330
498
100
AcDbEntity
  8
0
  6
SLD-Durchgehend
 62
     7
370
    15
100
AcDbLine
 10
69.6079125359
 20
8.974200754699991
 30
0.0
 11
70.43004118009998
 21
7.465699054899985
 31
0.0
  0
LINE
  5
561
330
498
100
AcDbEntity
  8
0
  6
SLD-Durchgehend
 62
     7
370
    15
100
AcDbLine
 10
69.59329931240003
 20
10.4827024545
 30
0.0
 11
71.23755660080002
 21
7.465699054899985
 31
0.0
  0
LINE
  5
562
330
498
100
AcDbEntity
  8
0
  6
SLD-Durchgehend
 62
     7
370
    15
100
AcDbLine
 10
70.43004118009998
 20
7.465699054899985
 30
0.0
 11
69.5792192361
 21
5.974347827599999
 31
0.0
  0
LINE
  5
563
330
498
100
AcDbEntity
  8
0
  6
SLD-Durchgehend
 62
     7
370
    15
100
AcDbLine
 10
69.5792192361
 20
5.974347827599999
 30
0.0
 11
68.73309266330003
 21
4.491226815499985
 31
0.0
  0
LINE
  5
564
330
498
100
AcDbEntity
  8
0
  6
SLD-Durchgehend
 62
     7
370
    15
100
AcDbLine
 10
70.43004118009998
 20
7.465699054899985
 30
0.0
 11
71.23755660080002
 21
7.465699054899985
 31
0.0
  0
LINE
  5
565
330
498
100
AcDbEntity
  8
0
  6
SLD-Durchgehend
 62
     7
370
    15
100
AcDbLine
 10
71.23755660080002
 20
7.465699054899985
 30
0.0
 11
69.53591271279998
 21
4.482996600399985
 31
0.0
  0
ARC
  5
566
330
498
100
AcDbEntity
  8
0
  6
SLD-Durchgehend
 62
     7
370
    15
100
AcDbCircle
 10
66.69989898729999
 20
222.5
 30
0.0
 40
220.0000000000001
100
AcDbArc
 50
272.1621529422999
 51
272.3224077863999
  0
ELLIPSE
  5
567
330
498
100
AcDbEntity
  8
0
  6
SLD-Durchgehend
 62
     7
370
    15
100
AcDbEllipse
 10
108.8859620036
 20
222.5
 30
0.0
 11
821.0511776651308
 21
0.0
 31
0.0
210
0.0
220
0.0
230
1.0
 40
0.2679491924
 41
4.671855317938143
 42
4.672777519727913
  0
LINE
  5
568
330
498
100
AcDbEntity
  8
0
  6
SLD-Durchgehend
 62
     7
370
    15
100
AcDbLine
 10
68.78578389170002
 20
10.4827024545
 30
0.0
 11
69.6079125359
 21
8.974200754699991
 31
0.0
  0
LINE
  5
569
330
498
100
AcDbEntity
  8
0
  6
SLD-Durchgehend
 62
     7
370
    15
100
AcDbLine
 10
68.78578389170002
 20
10.4827024545
 30
0.0
 11
69.59329931240003
 21
10.4827024545
 31
0.0
  0
LINE
  5
56A
330
498
100
AcDbEntity
  8
0
  6
SLD-Durchgehend
 62
     7
370
    15
100
AcDbLine
 10
77.09999999999998
 20
-2.5738533052
 30
0.0
 11
77.09999999999998
 21
-2.581647507200003
 31
0.0
  0
ARC
  5
56B
330
498
100
AcDbEntity
  8
0
  6
SLD-Durchgehend
 62
     7
370
    15
100
AcDbCircle
 10
82.80000000000002
 20
-222.5
 30
0.0
 40
220.0000000000001
100
AcDbArc
 50
91.4566905789999
 51
91.48464769429962
  0
ELLIPSE
  5
56C
330
498
100
AcDbEntity
  8
0
  6
SLD-Durchgehend
 62
     7
370
    15
100
AcDbEllipse
 10
78.70586841959998
 20
-222.5
 30
0.0
 11
0.0
 21
220.0
 31
0.0
210
0.0
220
0.0
230
1.0
 40
0.2679491924
 41
0.0249925529450352
 42
0.0254240467859909
  0
ARC
  5
56D
330
498
100
AcDbEntity
  8
0
  6
SLD-Durchgehend
 62
     7
370
    15
100
AcDbCircle
 10
77.47328900920002
 20
-7.48750034290002
 30
0.0
 40
4.924673259186698
100
AcDbArc
 50
90.00154129070031
 51
92.7997626911002
  0
ELLIPSE
  5
56E
330
498
100
AcDbEntity
  8
0
  6
SLD-Durchgehend
 62
     7
370
    15
100
AcDbEllipse
 10
97.09393951630005
 20
-222.5
 30
0.0
 11
821.0511776651358
 21
0.0
 31
0.0
210
0.0
220
0.0
230
1.0
 40
0.2679491924
 41
1.594580137133136
 42
1.594695751682534
  0
ARC
  5
56F
330
498
100
AcDbEntity
  8
0
  6
SLD-Durchgehend
 62
     7
370
    15
100
AcDbCircle
 10
82.80000000000002
 20
-222.5
 30
0.0
 40
220.0
100
AcDbArc
 50
91.25018893679971
 51
91.36271195310028
  0
LINE
  5
570
330
498
100
AcDbEntity
  8
0
  6
SLD-Durchgehend
 62
     7
370
    15
100
AcDbLine
 10
78.0
 20
-2.552369869500009
 30
0.0
 11
78.0
 21
-2.5
 31
0.0
  0
LINE
  5
571
330
498
100
AcDbEntity
  8
0
  6
SLD-Durchgehend
 62
     7
370
    15
100
AcDbLine
 10
78.0
 20
2.5
 30
0.0
 11
78.0
 21
2.552369869599985
 31
0.0
  0
ARC
  5
572
330
498
100
AcDbEntity
  8
0
  6
SLD-Durchgehend
 62
     7
370
    15
100
AcDbCircle
 10
82.80000000000002
 20
222.5
 30
0.0
 40
220.0000000000001
100
AcDbArc
 50
268.6372880468997
 51
268.7498110632001
  0
ELLIPSE
  5
573
330
498
100
AcDbEntity
  8
0
  6
SLD-Durchgehend
 62
     7
370
    15
100
AcDbEllipse
 10
97.09393951630005
 20
222.5
 30
0.0
 11
821.0511776651358
 21
0.0
 31
0.0
210
0.0
220
0.0
230
1.0
 40
0.2679491924
 41
4.688489555497054
 42
4.688605170046454
  0
ARC
  5
574
330
498
100
AcDbEntity
  8
0
  6
SLD-Durchgehend
 62
     7
370
    15
100
AcDbCircle
 10
77.43712577380001
 20
6.008483418599992
 30
0.0
 40
3.445844712290633
100
AcDbArc
 50
266.5995836951997
 51
270.5991123228999
  0
ELLIPSE
  5
575
330
498
100
AcDbEntity
  8
0
  6
SLD-Durchgehend
 62
     7
370
    15
100
AcDbEllipse
 10
78.70586841959998
 20
222.5
 30
0.0
 11
0.0
 21
220.0
 31
0.0
210
0.0
220
0.0
230
1.0
 40
0.2679491924
 41
3.116168606803801
 42
3.116600100644758
  0
ARC
  5
576
330
498
100
AcDbEntity
  8
0
  6
SLD-Durchgehend
 62
     7
370
    15
100
AcDbCircle
 10
82.80000000000002
 20
222.5
 30
0.0
 40
220.0000000000001
100
AcDbArc
 50
268.5153523056996
 51
268.5433094210001
  0
LINE
  5
577
330
498
100
AcDbEntity
  8
0
  6
SLD-Durchgehend
 62
     7
370
    15
100
AcDbLine
 10
77.09999999999998
 20
2.581647507199988
 30
0.0
 11
77.09999999999998
 21
2.573853305300005
 31
0.0
  0
ELLIPSE
  5
578
330
498
100
AcDbEntity
  8
0
  6
SLD-Durchgehend
 62
     7
370
    15
100
AcDbEllipse
 10
78.70586841959998
 20
0.0
 30
0.0
 11
0.0
 21
27.5
 31
0.0
210
0.0
220
0.0
230
1.0
 40
0.2679491924
 41
0.2196969939814834
 42
0.3223631026996744
  0
LINE
  5
579
330
498
100
AcDbEntity
  8
0
  6
SLD-Durchgehend
 62
     7
370
     0
100
AcDbLine
 10
68.7218685464
 20
26.37704510999998
 30
0.0
 11
68.7218685464
 21
15.96069472459999
 31
0.0
  0
LINE
  5
57A
330
498
100
AcDbEntity
  8
0
  6
SLD-Durchgehend
 62
     7
370
     0
100
AcDbLine
 10
68.15303745990002
 20
26.33161945889998
 30
0.0
 11
68.15303745990002
 21
16.09445668249999
 31
0.0
  0
LINE
  5
57B
330
498
100
AcDbEntity
  8
0
  6
SLD-Durchgehend
 62
     7
370
     0
100
AcDbLine
 10
64.18201716279998
 20
25.9874010382
 30
0.0
 11
64.18201716279998
 21
15.92382659239999
 31
0.0
  0
LINE
  5
57C
330
498
100
AcDbEntity
  8
0
  6
SLD-Durchgehend
 62
     7
370
     0
100
AcDbLine
 10
63.61318607630003
 20
25.93414486969999
 30
0.0
 11
63.61318607630003
 21
15.73568299419999
 31
0.0
  0
ELLIPSE
  5
57D
330
498
100
AcDbEntity
  8
0
  6
SLD-Durchgehend
 62
     7
370
    15
100
AcDbEllipse
 10
66.064154262
 20
0.0
 30
0.0
 11
0.0
 21
27.5
 31
0.0
210
0.0
220
0.0
230
1.0
 40
0.2679491924
 41
0.3390837916713305
 42
0.4662194115516403
  0
ARC
  5
57E
330
498
100
AcDbEntity
  8
0
  6
SLD-Durchgehend
 62
     7
370
    15
100
AcDbCircle
 10
55.18729719620001
 20
0.0
 30
0.0
 40
27.50000000000012
100
AcDbArc
 50
65.62861446640008
 51
70.90831709710027
  0
ELLIPSE
  5
57F
330
498
100
AcDbEntity
  8
0
  6
SLD-Durchgehend
 62
     7
370
    15
100
AcDbEllipse
 10
70.27805898119999
 20
0.0
 30
0.0
 11
0.0
 21
27.5
 31
0.0
210
0.0
220
0.0
230
1.0
 40
0.2679491924
 41
0.2925435773877222
 42
0.4172827681179249
  0
ARC
  5
580
330
498
100
AcDbEntity
  8
0
  6
SLD-Durchgehend
 62
     7
370
    15
100
AcDbCircle
 10
60.94359809180001
 20
0.0
 30
0.0
 40
27.5000000000001
100
AcDbArc
 50
68.38209813970036
 51
73.56985158170037
  0
ELLIPSE
  5
581
330
498
100
AcDbEntity
  8
0
  6
SLD-Durchgehend
 62
     7
370
    15
100
AcDbEllipse
 10
74.49196370040002
 20
0.0
 30
0.0
 11
0.0
 21
27.5
 31
0.0
210
0.0
220
0.0
230
1.0
 40
0.2679491924
 41
0.2466473361091183
 42
0.3693864652404357
  0
LINE
  5
582
330
498
100
AcDbEntity
  8
0
  6
SLD-Durchgehend
 62
     7
370
    15
100
AcDbLine
 10
66.53516030910001
 20
25.04947110759998
 30
0.0
 11
66.53516030910001
 21
16.25
 31
0.0
  0
LINE
  5
583
330
498
100
AcDbEntity
  8
0
  6
SLD-Durchgehend
 62
     7
370
    15
100
AcDbLine
 10
67.2917272896
 20
25.14032256519999
 30
0.0
 11
67.2917272896
 21
16.21772828839999
 31
0.0
  0
LINE
  5
584
330
498
100
AcDbEntity
  8
0
  6
SLD-Durchgehend
 62
     7
370
    15
100
AcDbLine
 10
61.99530892549997
 20
24.46197147139997
 30
0.0
 11
61.99530892549997
 21
14.92427087339999
 31
0.0
  0
LINE
  5
585
330
498
100
AcDbEntity
  8
0
  6
SLD-Durchgehend
 62
     7
370
    15
100
AcDbLine
 10
62.75187590599998
 20
24.56503745459996
 30
0.0
 11
62.75187590599998
 21
15.35876824419999
 31
0.0
  0
LINE
  5
586
330
498
100
AcDbEntity
  8
0
  6
SLD-Durchgehend
 62
     7
370
    15
100
AcDbLine
 10
66.56650191349999
 20
16.25
 30
0.0
 11
66.46815067630001
 21
16.25
 31
0.0
  0
ELLIPSE
  5
587
330
498
100
AcDbEntity
  8
0
  6
SLD-Durchgehend
 62
     7
370
    15
100
AcDbEllipse
 10
108.8859620036
 20
0.0
 30
0.0
 11
102.6313972081432
 21
0.0
 31
0.0
210
0.0
220
0.0
230
1.0
 40
0.2679491924
 41
2.037015738346533
 42
2.045285480293668
  0
ELLIPSE
  5
588
330
498
100
AcDbEntity
  8
0
  6
SLD-Durchgehend
 62
     7
370
    15
100
AcDbEllipse
 10
108.8859620036
 20
0.0
 30
0.0
 11
102.6313972081432
 21
0.0
 31
0.0
210
0.0
220
0.0
230
1.0
 40
0.2679491924
 41
1.988079094912828
 42
1.996157247628964
  0
LINE
  5
589
330
498
100
AcDbEntity
  8
0
  6
SLD-Durchgehend
 62
     7
370
    15
100
AcDbLine
 10
71.07501169259998
 20
25.5656890861
 30
0.0
 11
71.07501169259998
 21
14.90111147149996
 31
0.0
  0
LINE
  5
58A
330
498
100
AcDbEntity
  8
0
  6
SLD-Durchgehend
 62
     7
370
    15
100
AcDbLine
 10
71.8315786732
 20
25.64509842819998
 30
0.0
 11
71.8315786732
 21
14.3447926244
 31
0.0
  0
ELLIPSE
  5
58B
330
498
100
AcDbEntity
  8
0
  6
SLD-Durchgehend
 62
     7
370
    15
100
AcDbEllipse
 10
108.8859620036
 20
0.0
 30
0.0
 11
102.6313972081432
 21
0.0
 31
0.0
210
0.0
220
0.0
230
1.0
 40
0.2679491924
 41
1.940182792035331
 42
1.94809989163091
  0
ARC
  5
58C
330
498
100
AcDbEntity
  8
0
  6
SLD-Durchgehend
 62
     7
370
    15
100
AcDbCircle
 10
68.50140096540002
 20
25.55356029799998
 30
0.0
 40
0.8524864749176501
100
AcDbArc
 50
75.0119783604001
 51
114.1196830824003
  0
ARC
  5
58D
330
498
100
AcDbEntity
  8
0
  6
SLD-Durchgehend
 62
     7
370
    15
100
AcDbCircle
 10
63.96083026099996
 20
25.285425519
 30
0.0
 40
0.7359981489170231
100
AcDbArc
 50
72.51077507170015
 51
118.1865474971997
  0
ARC
  5
58E
330
498
100
AcDbEntity
  8
0
  6
SLD-Durchgehend
 62
     7
370
    15
100
AcDbCircle
 10
73.0418798734
 20
25.71782581989998
 30
0.0
 40
1.012005198183004
100
AcDbArc
 50
77.45348482029989
 51
110.1727020525
  0
ARC
  5
58F
330
498
100
AcDbEntity
  8
0
  6
SLD-Durchgehend
 62
     7
370
    15
100
AcDbCircle
 10
66.69989898729999
 20
0.0
 30
0.0
 40
27.50000000000005
100
AcDbArc
 50
71.08406602459997
 51
76.19538547559996
  0
ELLIPSE
  5
590
330
498
100
AcDbEntity
  8
0
  6
SLD-Durchgehend
 62
     7
370
    15
100
AcDbEllipse
 10
108.8859620036
 20
0.0
 30
0.0
 11
102.6313972081412
 21
0.0
 31
0.0
210
0.0
220
0.0
230
1.0
 40
0.2679491924
 41
1.893159429494575
 42
1.900941655756199
  0
LINE
  5
591
330
498
100
AcDbEntity
  8
0
  6
SLD-Durchgehend
 62
     7
370
    15
100
AcDbLine
 10
78.0
 20
27.09999999999999
 30
0.0
 11
78.0
 21
26.67152039159998
 31
0.0
  0
LINE
  5
592
330
498
100
AcDbEntity
  8
0
  6
SLD-Durchgehend
 62
     7
370
    15
100
AcDbLine
 10
78.0
 20
26.67152039159998
 30
0.0
 11
77.59999999999998
 21
27.00388860889998
 31
0.0
  0
LINE
  5
593
330
498
100
AcDbEntity
  8
0
  6
SLD-Durchgehend
 62
     7
370
    15
100
AcDbLine
 10
77.09999999999998
 20
26.83899705899998
 30
0.0
 11
77.09999999999998
 21
26.90278795959996
 31
0.0
  0
ARC
  5
594
330
498
100
AcDbEntity
  8
0
  6
SLD-Durchgehend
 62
     7
370
    15
100
AcDbCircle
 10
82.80000000000002
 20
0.0
 30
0.0
 40
27.50000000000005
100
AcDbArc
 50
101.7341241375996
 51
101.9625747936999
  0
ELLIPSE
  5
595
330
498
100
AcDbEntity
  8
0
  6
SLD-Durchgehend
 62
     7
370
    15
100
AcDbEllipse
 10
78.70586841959998
 20
0.0
 30
0.0
 11
0.0
 21
27.5
 31
0.0
210
0.0
220
0.0
230
1.0
 40
0.2679491924
 41
0.2012758732556922
 42
0.2047991010379932
  0
ARC
  5
596
330
498
100
AcDbEntity
  8
0
  6
SLD-Durchgehend
 62
     7
370
    15
100
AcDbCircle
 10
77.47732509599998
 20
26.34505310049998
 30
0.0
 40
0.6477376732413341
100
AcDbArc
 50
90.36873374700016
 51
112.1850164266995
  0
ELLIPSE
  5
597
330
498
100
AcDbEntity
  8
0
  6
SLD-Durchgehend
 62
     7
370
    15
100
AcDbEllipse
 10
97.09393951630005
 20
0.0
 30
0.0
 11
102.6313972081419
 21
0.0
 31
0.0
210
0.0
220
0.0
230
1.0
 40
0.2679491924
 41
1.762215710260615
 42
1.763157652741263
  0
ARC
  5
598
330
498
100
AcDbEntity
  8
0
  6
SLD-Durchgehend
 62
     7
370
    15
100
AcDbCircle
 10
82.80000000000002
 20
0.0
 30
0.0
 40
27.50000000000003
100
AcDbArc
 50
100.8997354541002
 51
100.9675227896
  0
LINE
  5
599
330
498
100
AcDbEntity
  8
0
  6
SLD-Durchgehend
 62
     7
370
    15
100
AcDbLine
 10
77.59999999999998
 20
27.5
 30
0.0
 11
77.59999999999998
 21
27.00388860889998
 31
0.0
  0
LINE
  5
59A
330
498
100
AcDbEntity
  8
0
  6
SLD-Durchgehend
 62
     7
370
    15
100
AcDbLine
 10
78.0
 20
27.09999999999999
 30
0.0
 11
77.59999999999998
 21
27.5
 31
0.0
  0
ENDBLK
  5
59C
330
498
100
AcDbEntity
  8
0
 62
     0
100
AcDbBlockEnd
  0
BLOCK
  5
BE7
330
BDE
100
AcDbEntity
  8
0
100
AcDbBlockBegin
  2
*D9
 70
     1
 10
0.0
 20
0.0
 30
0.0
  3
*D9
  1

  0
SOLID
  5
BDF
330
BDE
100
AcDbEntity
  8
VERMASSUNG
100
AcDbTrace
 10
105.9531674968
 20
123.7115945607
 30
0.0
 11
105.5031674967999
 21
120.7115945606999
 31
0.0
 12
106.4031674968
 22
120.7115945606999
 32
0.0
 13
106.4031674968
 23
120.7115945606999
 33
0.0
  0
SOLID
  5
BE0
330
BDE
100
AcDbEntity
  8
VERMASSUNG
100
AcDbTrace
 10
105.9531674968
 20
98.7115945607
 30
0.0
 11
106.4031674968
 21
101.7115945607
 31
0.0
 12
105.5031674967999
 22
101.7115945607
 32
0.0
 13
105.5031674967999
 23
101.7115945607
 33
0.0
  0
LINE
  5
BE1
330
BDE
100
AcDbEntity
  8
VERMASSUNG
100
AcDbLine
 10
127.1576804564999
 20
123.7115945607
 30
0.0
 11
104.9531674968
 21
123.7115945607
 31
0.0
  0
LINE
  5
BE2
330
BDE
100
AcDbEntity
  8
VERMASSUNG
100
AcDbLine
 10
127.1576804564999
 20
98.7115945607
 30
0.0
 11
104.9531674968
 21
98.7115945607
 31
0.0
  0
LINE
  5
BE3
330
BDE
100
AcDbEntity
  8
VERMASSUNG
100
AcDbLine
 10
105.9531674968
 20
123.7115945607
 30
0.0
 11
105.9531674968
 21
98.7115945607
 31
0.0
  0
MTEXT
  5
BE4
330
BDE
100
AcDbEntity
  8
VERMASSUNG
100
AcDbMText
 10
103.1531677202
 20
105.0544898519
 30
0.0
 40
2.0
 41
0.0
 71
     1
 72
     1
  1
{MBM}
  7
SLDTEXTSTYLE0
 11
-0.000000000000007
 21
1.0
 31
0.0
 73
     1
 44
1.0
  0
MTEXT
  5
BE5
330
BDE
100
AcDbEntity
  8
VERMASSUNG
100
AcDbMText
 10
103.3531676715
 20
110.2544898661
 30
0.0
 40
2.0
 41
0.0
 71
     1
 72
     1
  1
{%%c}
  7
SLDTEXTSTYLE0
 11
-0.000000000000007
 21
1.0
 31
0.0
 73
     1
 44
1.0
  0
MTEXT
  5
BE6
330
BDE
100
AcDbEntity
  8
VERMASSUNG
100
AcDbMText
 10
103.3531673804
 20
113.8634686428
 30
0.0
 40
2.0
 41
0.0
 71
     1
 72
     1
  1
{25}
  7
SLDTEXTSTYLE0
 11
-0.000000000000007
 21
1.0
 31
0.0
 73
     1
 44
1.0
  0
ENDBLK
  5
BE8
330
BDE
100
AcDbEntity
  8
0
100
AcDbBlockEnd
  0
BLOCK
  5
1069
330
105F
100
AcDbEntity
  8
0
 62
     0
100
AcDbBlockBegin
  2
*D10
 70
     1
 10
0.0
 20
0.0
 30
0.0
  3
*D10
  1

  0
LINE
  5
14C2
330
105F
100
AcDbEntity
  8
SK2
 62
     0
370
    -2
100
AcDbLine
 10
-71.61113140067083
 20
-30.69591496137629
 30
0.0
 11
-91.19282386949107
 21
-30.69591496137628
 31
0.0
  0
LINE
  5
14C3
330
105F
100
AcDbEntity
  8
SK2
 62
     0
370
    -2
100
AcDbLine
 10
-71.61113140067083
 20
-55.69591496137629
 30
0.0
 11
-91.19282386949107
 21
-55.69591496137629
 31
0.0
  0
LINE
  5
14C4
330
105F
100
AcDbEntity
  8
SK2
 62
     0
370
    -2
100
AcDbLine
 10
-88.69282386949107
 20
-35.26591496137628
 30
0.0
 11
-88.69282386949107
 21
-51.12591496137628
 31
0.0
  0
SOLID
  5
14C5
330
105F
100
AcDbEntity
  8
SK2
 62
     0
100
AcDbTrace
 10
-89.45449053615773
 20
-35.26591496137628
 30
0.0
 11
-87.93115720282441
 21
-35.26591496137628
 31
0.0
 12
-88.69282386949107
 22
-30.69591496137628
 32
0.0
 13
-88.69282386949107
 23
-30.69591496137628
 33
0.0
  0
SOLID
  5
14C6
330
105F
100
AcDbEntity
  8
SK2
 62
     0
100
AcDbTrace
 10
-89.45449053615773
 20
-51.12591496137628
 30
0.0
 11
-87.93115720282441
 21
-51.12591496137628
 31
0.0
 12
-88.69282386949107
 22
-55.69591496137629
 32
0.0
 13
-88.69282386949107
 23
-55.69591496137629
 33
0.0
  0
MTEXT
  5
14C7
330
105F
100
AcDbEntity
  8
SK2
 62
     7
100
AcDbMText
 10
-92.47782386949106
 20
-43.19591496137628
 30
0.0
 40
4.57
 41
0.0
 71
     5
 72
     1
  1
\A1;MBM%%c25
  7
GENPRESET
 11
0.0000000000000001
 21
1.0
 31
0.0
 73
     1
 44
1.0
  0
POINT
  5
14C8
330
105F
100
AcDbEntity
  8
Defpoints
 62
     0
100
AcDbPoint
 10
-71.61113140067083
 20
-30.69591496137629
 30
0.0
  0
POINT
  5
14C9
330
105F
100
AcDbEntity
  8
Defpoints
 62
     0
100
AcDbPoint
 10
-71.61113140067083
 20
-55.69591496137629
 30
0.0
  0
POINT
  5
14CA
330
105F
100
AcDbEntity
  8
Defpoints
 62
     0
100
AcDbPoint
 10
-88.69282386949107
 20
-55.69591496137629
 30
0.0
  0
ENDBLK
  5
106A
330
105F
100
AcDbEntity
  8
0
 62
     0
100
AcDbBlockEnd
  0
BLOCK
  5
107B
330
1074
100
AcDbEntity
  8
0
100
AcDbBlockBegin
  2
*D11
 70
     1
 10
0.0
 20
0.0
 30
0.0
  3
*D11
  1

  0
SOLID
  5
1075
330
1074
100
AcDbEntity
  8
VERMASSUNG
100
AcDbTrace
 10
126.9576804564999
 20
127.1266100962999
 30
0.0
 11
129.9576804564999
 21
126.6766100963
 31
0.0
 12
129.9576804564999
 22
127.5766100962999
 32
0.0
 13
129.9576804564999
 23
127.5766100962999
 33
0.0
  0
SOLID
  5
1076
330
1074
100
AcDbEntity
  8
VERMASSUNG
100
AcDbTrace
 10
160.7576804565
 20
127.1266100962999
 30
0.0
 11
157.7576804565
 21
127.5766100962999
 31
0.0
 12
157.7576804565
 22
126.6766100963
 32
0.0
 13
157.7576804565
 23
126.6766100963
 33
0.0
  0
LINE
  5
1077
330
1074
100
AcDbEntity
  8
VERMASSUNG
100
AcDbLine
 10
126.9576804564999
 20
123.5115945606999
 30
0.0
 11
126.9576804564999
 21
128.1266100962999
 31
0.0
  0
LINE
  5
1078
330
1074
100
AcDbEntity
  8
VERMASSUNG
100
AcDbLine
 10
160.7576804565
 20
123.1915517012
 30
0.0
 11
160.7576804565
 21
128.1266100962999
 31
0.0
  0
LINE
  5
1079
330
1074
100
AcDbEntity
  8
VERMASSUNG
100
AcDbLine
 10
126.9576804564999
 20
127.1266100962999
 30
0.0
 11
160.7576804565
 21
127.1266100962999
 31
0.0
  0
MTEXT
  5
107A
330
1074
100
AcDbEntity
  8
VERMASSUNG
100
AcDbMText
 10
141.2353683079
 20
129.7266102126999
 30
0.0
 40
2.0
 41
0.0
 71
     1
 72
     1
  1
{33.8}
  7
SLDTEXTSTYLE0
 73
     1
 44
1.0
  0
ENDBLK
  5
107C
330
1074
100
AcDbEntity
  8
0
100
AcDbBlockEnd
  0
BLOCK
  5
108D
330
1083
100
AcDbEntity
  8
0
 62
     0
100
AcDbBlockBegin
  2
*D12
 70
     1
 10
0.0
 20
0.0
 30
0.0
  3
*D12
  1

  0
LINE
  5
108F
330
1083
100
AcDbEntity
  8
VERMASSUNG
 62
     0
370
    -2
100
AcDbLine
 10
126.9576804564999
 20
123.5115945606999
 30
0.0
 11
126.9576804564999
 21
128.1266100962999
 31
0.0
  0
LINE
  5
1090
330
1083
100
AcDbEntity
  8
VERMASSUNG
 62
     0
370
    -2
100
AcDbLine
 10
160.7576804565
 20
123.1915517012
 30
0.0
 11
160.7576804565
 21
128.1266100962999
 31
0.0
  0
LINE
  5
1091
330
1083
100
AcDbEntity
  8
VERMASSUNG
 62
     0
370
    -2
100
AcDbLine
 10
129.9576804564999
 20
127.1266100962999
 30
0.0
 11
157.7576804565
 21
127.1266100962999
 31
0.0
  0
SOLID
  5
1092
330
1083
100
AcDbEntity
  8
VERMASSUNG
 62
     0
100
AcDbTrace
 10
129.9576804564999
 20
127.6266100963
 30
0.0
 11
129.9576804564999
 21
126.6266100963
 31
0.0
 12
126.9576804564999
 22
127.1266100962999
 32
0.0
 13
126.9576804564999
 23
127.1266100962999
 33
0.0
  0
SOLID
  5
1093
330
1083
100
AcDbEntity
  8
VERMASSUNG
 62
     0
100
AcDbTrace
 10
157.7576804565
 20
127.6266100963
 30
0.0
 11
157.7576804565
 21
126.6266100963
 31
0.0
 12
160.7576804565
 22
127.1266100962999
 32
0.0
 13
160.7576804565
 23
127.1266100962999
 33
0.0
  0
MTEXT
  5
1094
330
1083
100
AcDbEntity
  8
VERMASSUNG
 62
     0
100
AcDbMText
 10
142.6342688033999
 20
130.6506100963
 30
0.0
 40
2.0
 41
0.0
 71
     1
 72
     1
  1
\A1;17
  7
SLDTEXTSTYLE0
 73
     1
 44
1.0
  0
POINT
  5
1095
330
1083
100
AcDbEntity
  8
Defpoints
 62
     0
100
AcDbPoint
 10
126.9576804564999
 20
123.5115945606999
 30
0.0
  0
POINT
  5
1096
330
1083
100
AcDbEntity
  8
Defpoints
 62
     0
100
AcDbPoint
 10
160.7576804565
 20
123.1915517012
 30
0.0
  0
POINT
  5
1097
330
1083
100
AcDbEntity
  8
Defpoints
 62
     0
100
AcDbPoint
 10
160.7576804565
 20
127.1266100962999
 30
0.0
  0
ENDBLK
  5
108E
330
1083
100
AcDbEntity
  8
0
 62
     0
100
AcDbBlockEnd
  0
BLOCK
  5
109F
330
1098
100
AcDbEntity
  8
0
100
AcDbBlockBegin
  2
*D13
 70
     1
 10
0.0
 20
0.0
 30
0.0
  3
*D13
  1

  0
SOLID
  5
1099
330
1098
100
AcDbEntity
  8
VERMASSUNG
100
AcDbTrace
 10
126.9576804564999
 20
127.1266100962999
 30
0.0
 11
129.9576804564999
 21
126.6766100963
 31
0.0
 12
129.9576804564999
 22
127.5766100962999
 32
0.0
 13
129.9576804564999
 23
127.5766100962999
 33
0.0
  0
SOLID
  5
109A
330
1098
100
AcDbEntity
  8
VERMASSUNG
100
AcDbTrace
 10
160.7576804565
 20
127.1266100962999
 30
0.0
 11
157.7576804565
 21
127.5766100962999
 31
0.0
 12
157.7576804565
 22
126.6766100963
 32
0.0
 13
157.7576804565
 23
126.6766100963
 33
0.0
  0
LINE
  5
109B
330
1098
100
AcDbEntity
  8
VERMASSUNG
100
AcDbLine
 10
126.9576804564999
 20
123.5115945606999
 30
0.0
 11
126.9576804564999
 21
128.1266100962999
 31
0.0
  0
LINE
  5
109C
330
1098
100
AcDbEntity
  8
VERMASSUNG
100
AcDbLine
 10
160.7576804565
 20
123.1915517012
 30
0.0
 11
160.7576804565
 21
128.1266100962999
 31
0.0
  0
LINE
  5
109D
330
1098
100
AcDbEntity
  8
VERMASSUNG
100
AcDbLine
 10
126.9576804564999
 20
127.1266100962999
 30
0.0
 11
160.7576804565
 21
127.1266100962999
 31
0.0
  0
MTEXT
  5
109E
330
1098
100
AcDbEntity
  8
VERMASSUNG
100
AcDbMText
 10
141.2353683079
 20
129.7266102126999
 30
0.0
 40
2.0
 41
0.0
 71
     1
 72
     1
  1
{33.8}
  7
SLDTEXTSTYLE0
 73
     1
 44
1.0
  0
ENDBLK
  5
10A0
330
1098
100
AcDbEntity
  8
0
100
AcDbBlockEnd
  0
BLOCK
  5
10B1
330
10A7
100
AcDbEntity
  8
0
 62
     0
100
AcDbBlockBegin
  2
*D14
 70
     1
 10
0.0
 20
0.0
 30
0.0
  3
*D14
  1

  0
LINE
  5
10B3
330
10A7
100
AcDbEntity
  8
VERMASSUNG
 62
     0
370
    -2
100
AcDbLine
 10
126.9576804564999
 20
123.5115945606999
 30
0.0
 11
126.9576804564999
 21
128.1266100962999
 31
0.0
  0
LINE
  5
10B4
330
10A7
100
AcDbEntity
  8
VERMASSUNG
 62
     0
370
    -2
100
AcDbLine
 10
160.7576804565
 20
123.1915517012
 30
0.0
 11
160.7576804565
 21
128.1266100962999
 31
0.0
  0
LINE
  5
10B5
330
10A7
100
AcDbEntity
  8
VERMASSUNG
 62
     0
370
    -2
100
AcDbLine
 10
129.9576804564999
 20
127.1266100962999
 30
0.0
 11
157.7576804565
 21
127.1266100962999
 31
0.0
  0
SOLID
  5
10B6
330
10A7
100
AcDbEntity
  8
VERMASSUNG
 62
     0
100
AcDbTrace
 10
129.9576804564999
 20
127.6266100963
 30
0.0
 11
129.9576804564999
 21
126.6266100963
 31
0.0
 12
126.9576804564999
 22
127.1266100962999
 32
0.0
 13
126.9576804564999
 23
127.1266100962999
 33
0.0
  0
SOLID
  5
10B7
330
10A7
100
AcDbEntity
  8
VERMASSUNG
 62
     0
100
AcDbTrace
 10
157.7576804565
 20
127.6266100963
 30
0.0
 11
157.7576804565
 21
126.6266100963
 31
0.0
 12
160.7576804565
 22
127.1266100962999
 32
0.0
 13
160.7576804565
 23
127.1266100962999
 33
0.0
  0
MTEXT
  5
10B8
330
10A7
100
AcDbEntity
  8
VERMASSUNG
 62
     0
100
AcDbMText
 10
142.6342688033999
 20
130.6506100963
 30
0.0
 40
2.0
 41
0.0
 71
     1
 72
     1
  1
\A1;17
  7
SLDTEXTSTYLE0
 73
     1
 44
1.0
  0
POINT
  5
10B9
330
10A7
100
AcDbEntity
  8
Defpoints
 62
     0
100
AcDbPoint
 10
126.9576804564999
 20
123.5115945606999
 30
0.0
  0
POINT
  5
10BA
330
10A7
100
AcDbEntity
  8
Defpoints
 62
     0
100
AcDbPoint
 10
160.7576804565
 20
123.1915517012
 30
0.0
  0
POINT
  5
10BB
330
10A7
100
AcDbEntity
  8
Defpoints
 62
     0
100
AcDbPoint
 10
160.7576804565
 20
127.1266100962999
 30
0.0
  0
ENDBLK
  5
10B2
330
10A7
100
AcDbEntity
  8
0
 62
     0
100
AcDbBlockEnd
  0
BLOCK
  5
10C3
330
10BC
100
AcDbEntity
  8
0
100
AcDbBlockBegin
  2
*D15
 70
     1
 10
0.0
 20
0.0
 30
0.0
  3
*D15
  1

  0
SOLID
  5
10BD
330
10BC
100
AcDbEntity
  8
VERMASSUNG
100
AcDbTrace
 10
126.9576804564999
 20
127.1266100962999
 30
0.0
 11
129.9576804564999
 21
126.6766100963
 31
0.0
 12
129.9576804564999
 22
127.5766100962999
 32
0.0
 13
129.9576804564999
 23
127.5766100962999
 33
0.0
  0
SOLID
  5
10BE
330
10BC
100
AcDbEntity
  8
VERMASSUNG
100
AcDbTrace
 10
160.7576804565
 20
127.1266100962999
 30
0.0
 11
157.7576804565
 21
127.5766100962999
 31
0.0
 12
157.7576804565
 22
126.6766100963
 32
0.0
 13
157.7576804565
 23
126.6766100963
 33
0.0
  0
LINE
  5
10BF
330
10BC
100
AcDbEntity
  8
VERMASSUNG
100
AcDbLine
 10
126.9576804564999
 20
123.5115945606999
 30
0.0
 11
126.9576804564999
 21
128.1266100962999
 31
0.0
  0
LINE
  5
10C0
330
10BC
100
AcDbEntity
  8
VERMASSUNG
100
AcDbLine
 10
160.7576804565
 20
123.1915517012
 30
0.0
 11
160.7576804565
 21
128.1266100962999
 31
0.0
  0
LINE
  5
10C1
330
10BC
100
AcDbEntity
  8
VERMASSUNG
100
AcDbLine
 10
126.9576804564999
 20
127.1266100962999
 30
0.0
 11
160.7576804565
 21
127.1266100962999
 31
0.0
  0
MTEXT
  5
10C2
330
10BC
100
AcDbEntity
  8
VERMASSUNG
100
AcDbMText
 10
141.2353683079
 20
129.7266102126999
 30
0.0
 40
2.0
 41
0.0
 71
     1
 72
     1
  1
{33.8}
  7
SLDTEXTSTYLE0
 73
     1
 44
1.0
  0
ENDBLK
  5
10C4
330
10BC
100
AcDbEntity
  8
0
100
AcDbBlockEnd
  0
BLOCK
  5
10D5
330
10CB
100
AcDbEntity
  8
0
 62
     0
100
AcDbBlockBegin
  2
*D16
 70
     1
 10
0.0
 20
0.0
 30
0.0
  3
*D16
  1

  0
LINE
  5
10D7
330
10CB
100
AcDbEntity
  8
VERMASSUNG
 62
     0
370
    -2
100
AcDbLine
 10
110.4019750842718
 20
139.9283070962312
 30
0.0
 11
110.4019750842718
 21
144.5433226318313
 31
0.0
  0
LINE
  5
10D8
330
10CB
100
AcDbEntity
  8
VERMASSUNG
 62
     0
370
    -2
100
AcDbLine
 10
144.2019750842718
 20
139.6082642367312
 30
0.0
 11
144.2019750842718
 21
144.5433226318313
 31
0.0
  0
LINE
  5
10D9
330
10CB
100
AcDbEntity
  8
VERMASSUNG
 62
     0
370
    -2
100
AcDbLine
 10
113.4019750842717
 20
143.5433226318313
 30
0.0
 11
141.2019750842718
 21
143.5433226318313
 31
0.0
  0
SOLID
  5
10DA
330
10CB
100
AcDbEntity
  8
VERMASSUNG
 62
     0
100
AcDbTrace
 10
113.4019750842717
 20
144.0433226318313
 30
0.0
 11
113.4019750842717
 21
143.0433226318313
 31
0.0
 12
110.4019750842718
 22
143.5433226318313
 32
0.0
 13
110.4019750842718
 23
143.5433226318313
 33
0.0
  0
SOLID
  5
10DB
330
10CB
100
AcDbEntity
  8
VERMASSUNG
 62
     0
100
AcDbTrace
 10
141.2019750842718
 20
144.0433226318313
 30
0.0
 11
141.2019750842718
 21
143.0433226318313
 31
0.0
 12
144.2019750842718
 22
143.5433226318313
 32
0.0
 13
144.2019750842718
 23
143.5433226318313
 33
0.0
  0
MTEXT
  5
10DC
330
10CB
100
AcDbEntity
  8
VERMASSUNG
 62
     0
100
AcDbMText
 10
126.0785634311718
 20
147.0673226318313
 30
0.0
 40
2.0
 41
0.0
 71
     1
 72
     1
  1
\A1;17
  7
SLDTEXTSTYLE0
 73
     1
 44
1.0
  0
POINT
  5
10DD
330
10CB
100
AcDbEntity
  8
Defpoints
 62
     0
100
AcDbPoint
 10
110.4019750842718
 20
139.9283070962312
 30
0.0
  0
POINT
  5
10DE
330
10CB
100
AcDbEntity
  8
Defpoints
 62
     0
100
AcDbPoint
 10
144.2019750842718
 20
139.6082642367312
 30
0.0
  0
POINT
  5
10DF
330
10CB
100
AcDbEntity
  8
Defpoints
 62
     0
100
AcDbPoint
 10
144.2019750842718
 20
143.5433226318313
 30
0.0
  0
ENDBLK
  5
10D6
330
10CB
100
AcDbEntity
  8
0
 62
     0
100
AcDbBlockEnd
  0
BLOCK
  5
11EF
330
11E5
100
AcDbEntity
  8
0
 62
     0
100
AcDbBlockBegin
  2
*D17
 70
     1
 10
0.0
 20
0.0
 30
0.0
  3
*D17
  1

  0
LINE
  5
14B9
330
11E5
100
AcDbEntity
  8
2
 62
     0
370
    -2
100
AcDbLine
 10
-71.81113096847083
 20
-30.8959149613763
 30
0.0
 11
-71.81113096847083
 21
-24.33980063421055
 31
0.0
  0
LINE
  5
14BA
330
11E5
100
AcDbEntity
  8
2
 62
     0
370
    -2
100
AcDbLine
 10
-38.01113064367082
 20
-31.21595785027629
 30
0.0
 11
-38.01113064367082
 21
-24.33980063421055
 31
0.0
  0
LINE
  5
14BB
330
11E5
100
AcDbEntity
  8
2
 62
     0
370
    -2
100
AcDbLine
 10
-67.24113096847083
 20
-26.83980063421055
 30
0.0
 11
-42.58113064367083
 21
-26.83980063421055
 31
0.0
  0
SOLID
  5
14BC
330
11E5
100
AcDbEntity
  8
2
 62
     0
100
AcDbTrace
 10
-67.24113096847083
 20
-26.07813396754387
 30
0.0
 11
-67.24113096847083
 21
-27.60146730087722
 31
0.0
 12
-71.81113096847083
 22
-26.83980063421055
 32
0.0
 13
-71.81113096847083
 23
-26.83980063421055
 33
0.0
  0
SOLID
  5
14BD
330
11E5
100
AcDbEntity
  8
2
 62
     0
100
AcDbTrace
 10
-42.58113064367083
 20
-26.07813396754387
 30
0.0
 11
-42.58113064367083
 21
-27.60146730087722
 31
0.0
 12
-38.01113064367082
 22
-26.83980063421055
 32
0.0
 13
-38.01113064367082
 23
-26.83980063421055
 33
0.0
  0
MTEXT
  5
14BE
330
11E5
100
AcDbEntity
  8
2
 62
     7
100
AcDbMText
 10
-54.91113080607082
 20
-23.05480063421053
 30
0.0
 40
4.57
 41
0.0
 71
     5
 72
     1
  1
\A1;33.8
  7
GENPRESET
 73
     1
 44
1.0
  0
POINT
  5
14BF
330
11E5
100
AcDbEntity
  8
Defpoints
 62
     0
100
AcDbPoint
 10
-71.81113096847083
 20
-30.8959149613763
 30
0.0
  0
POINT
  5
14C0
330
11E5
100
AcDbEntity
  8
Defpoints
 62
     0
100
AcDbPoint
 10
-38.01113064367082
 20
-31.21595785027629
 30
0.0
  0
POINT
  5
14C1
330
11E5
100
AcDbEntity
  8
Defpoints
 62
     0
100
AcDbPoint
 10
-38.01113064367082
 20
-26.83980063421055
 30
0.0
  0
ENDBLK
  5
11F0
330
11E5
100
AcDbEntity
  8
0
 62
     0
100
AcDbBlockEnd
  0
BLOCK
  5
14D5
330
14CC
100
AcDbEntity
  8
0
100
AcDbBlockBegin
  2
*D18
 70
     1
 10
0.0
 20
0.0
 30
0.0
  3
*D18
  1

  0
SOLID
  5
14CD
330
14CC
100
AcDbEntity
  8
VERMASSUNG
100
AcDbTrace
 10
114.5756814937
 20
124.1347265840999
 30
0.0
 11
114.1256814937
 21
121.1347265841
 31
0.0
 12
115.0256814937
 22
121.1347265841
 32
0.0
 13
115.0256814937
 23
121.1347265841
 33
0.0
  0
SOLID
  5
14CE
330
14CC
100
AcDbEntity
  8
VERMASSUNG
100
AcDbTrace
 10
114.5756814937
 20
92.13472658409999
 30
0.0
 11
115.0256814937
 21
95.1347265841
 31
0.0
 12
114.1256814937
 22
95.1347265841
 32
0.0
 13
114.1256814937
 23
95.1347265841
 33
0.0
  0
LINE
  5
14CF
330
14CC
100
AcDbEntity
  8
VERMASSUNG
100
AcDbLine
 10
136.3849106761
 20
124.1347265840999
 30
0.0
 11
113.5756814937
 21
124.1347265840999
 31
0.0
  0
LINE
  5
14D0
330
14CC
100
AcDbEntity
  8
VERMASSUNG
100
AcDbLine
 10
136.3849106761
 20
92.13472658409999
 30
0.0
 11
113.5756814937
 21
92.13472658409999
 31
0.0
  0
LINE
  5
14D1
330
14CC
100
AcDbEntity
  8
VERMASSUNG
100
AcDbLine
 10
114.5756814937
 20
124.1347265840999
 30
0.0
 11
114.5756814937
 21
92.13472658409999
 31
0.0
  0
MTEXT
  5
14D2
330
14CC
100
AcDbEntity
  8
VERMASSUNG
100
AcDbMText
 10
111.775681717
 20
102.1889793797999
 30
0.0
 40
2.0
 41
0.0
 71
     1
 72
     1
  1
{MBM}
  7
SLDTEXTSTYLE0
 11
-0.000000000000007
 21
1.0
 31
0.0
 73
     1
 44
1.0
  0
MTEXT
  5
14D3
330
14CC
100
AcDbEntity
  8
VERMASSUNG
100
AcDbMText
 10
111.9756816683
 20
107.388979394
 30
0.0
 40
2.0
 41
0.0
 71
     1
 72
     1
  1
{%%c}
  7
SLDTEXTSTYLE0
 11
-0.000000000000007
 21
1.0
 31
0.0
 73
     1
 44
1.0
  0
MTEXT
  5
14D4
330
14CC
100
AcDbEntity
  8
VERMASSUNG
100
AcDbMText
 10
111.9756813772999
 20
110.9979581706999
 30
0.0
 40
2.0
 41
0.0
 71
     1
 72
     1
  1
{32}
  7
SLDTEXTSTYLE0
 11
-0.000000000000007
 21
1.0
 31
0.0
 73
     1
 44
1.0
  0
ENDBLK
  5
14D6
330
14CC
100
AcDbEntity
  8
0
100
AcDbBlockEnd
  0
BLOCK
  5
14DE
330
14D7
100
AcDbEntity
  8
0
100
AcDbBlockBegin
  2
*D19
 70
     1
 10
0.0
 20
0.0
 30
0.0
  3
*D19
  1

  0
SOLID
  5
14D8
330
14D7
100
AcDbEntity
  8
VERMASSUNG
100
AcDbTrace
 10
136.0849106761
 20
127.5351377513999
 30
0.0
 11
139.0849106761
 21
127.0851377514
 31
0.0
 12
139.0849106761
 22
127.9851377513999
 32
0.0
 13
139.0849106761
 23
127.9851377513999
 33
0.0
  0
SOLID
  5
14D9
330
14D7
100
AcDbEntity
  8
VERMASSUNG
100
AcDbTrace
 10
179.8849106761
 20
127.5351377513999
 30
0.0
 11
176.8849106761
 21
127.9851377513999
 31
0.0
 12
176.8849106761
 22
127.0851377514
 32
0.0
 13
176.8849106761
 23
127.0851377514
 33
0.0
  0
LINE
  5
14DA
330
14D7
100
AcDbEntity
  8
VERMASSUNG
100
AcDbLine
 10
136.0849106761
 20
123.8347265840999
 30
0.0
 11
136.0849106761
 21
128.5351377513999
 31
0.0
  0
LINE
  5
14DB
330
14D7
100
AcDbEntity
  8
VERMASSUNG
100
AcDbLine
 10
179.8849106761
 20
123.6344040001
 30
0.0
 11
179.8849106761
 21
128.5351377513999
 31
0.0
  0
LINE
  5
14DC
330
14D7
100
AcDbEntity
  8
VERMASSUNG
100
AcDbLine
 10
136.0849106761
 20
127.5351377513999
 30
0.0
 11
179.8849106761
 21
127.5351377513999
 31
0.0
  0
MTEXT
  5
14DD
330
14D7
100
AcDbEntity
  8
VERMASSUNG
100
AcDbMText
 10
154.4105395906998
 20
130.1351378678
 30
0.0
 40
2.0
 41
0.0
 71
     1
 72
     1
  1
{43.8}
  7
SLDTEXTSTYLE0
 73
     1
 44
1.0
  0
ENDBLK
  5
14DF
330
14D7
100
AcDbEntity
  8
0
100
AcDbBlockEnd
  0
BLOCK
  5
16A6
330
169C
100
AcDbEntity
  8
0
 62
     0
100
AcDbBlockBegin
  2
*D20
 70
     1
 10
0.0
 20
0.0
 30
0.0
  3
*D20
  1

  0
LINE
  5
16B4
330
169C
100
AcDbEntity
  8
VERMASSUNG
 62
     0
370
    -2
100
AcDbLine
 10
0.0000007749000019
 20
15.7
 30
0.0
 11
0.0000007749000022
 21
20.40041116729998
 31
0.0
  0
LINE
  5
16B5
330
169C
100
AcDbEntity
  8
VERMASSUNG
 62
     0
370
    -2
100
AcDbLine
 10
43.8000007749
 20
15.49967741599999
 30
0.0
 11
43.8000007749
 21
20.40041116729998
 31
0.0
  0
LINE
  5
16B6
330
169C
100
AcDbEntity
  8
VERMASSUNG
 62
     0
370
    -2
100
AcDbLine
 10
3.000000774900001
 20
19.40041116729998
 30
0.0
 11
40.80000077490001
 21
19.40041116729998
 31
0.0
  0
SOLID
  5
16B7
330
169C
100
AcDbEntity
  8
VERMASSUNG
 62
     0
100
AcDbTrace
 10
3.000000774900001
 20
19.90041116729998
 30
0.0
 11
3.000000774900001
 21
18.90041116729999
 31
0.0
 12
0.0000007749000022
 22
19.40041116729998
 32
0.0
 13
0.0000007749000022
 23
19.40041116729998
 33
0.0
  0
SOLID
  5
16B8
330
169C
100
AcDbEntity
  8
VERMASSUNG
 62
     0
100
AcDbTrace
 10
40.80000077490001
 20
19.90041116729998
 30
0.0
 11
40.80000077490001
 21
18.90041116729999
 31
0.0
 12
43.8000007749
 22
19.40041116729998
 32
0.0
 13
43.8000007749
 23
19.40041116729998
 33
0.0
  0
MTEXT
  5
16B9
330
169C
100
AcDbEntity
  8
VERMASSUNG
 62
     0
100
AcDbMText
 10
19.62510986789998
 20
22.9244111673
 30
0.0
 40
2.0
 41
0.0
 71
     1
 72
     1
  1
\A1;22
  7
SLDTEXTSTYLE0
 73
     1
 44
1.0
  0
POINT
  5
16BA
330
169C
100
AcDbEntity
  8
Defpoints
 62
     0
100
AcDbPoint
 10
0.0000007749000019
 20
15.7
 30
0.0
  0
POINT
  5
16BB
330
169C
100
AcDbEntity
  8
Defpoints
 62
     0
100
AcDbPoint
 10
43.8000007749
 20
15.49967741599999
 30
0.0
  0
POINT
  5
16BC
330
169C
100
AcDbEntity
  8
Defpoints
 62
     0
100
AcDbPoint
 10
43.8000007749
 20
19.40041116729998
 30
0.0
  0
ENDBLK
  5
16A7
330
169C
100
AcDbEntity
  8
0
 62
     0
100
AcDbBlockEnd
  0
BLOCK
  5
16B2
330
16A8
100
AcDbEntity
  8
0
 62
     0
100
AcDbBlockBegin
  2
*D21
 70
     1
 10
0.0
 20
0.0
 30
0.0
  3
*D21
  1

  0
LINE
  5
16BD
330
16A8
100
AcDbEntity
  8
VERMASSUNG
 62
     0
370
    -2
100
AcDbLine
 10
0.3000007749000133
 20
16.0
 30
0.0
 11
-22.50922840749999
 21
16.0
 31
0.0
  0
LINE
  5
16BE
330
16A8
100
AcDbEntity
  8
VERMASSUNG
 62
     0
370
    -2
100
AcDbLine
 10
0.3000007749000133
 20
-16.0
 30
0.0
 11
-22.50922840749999
 21
-15.99999999999999
 31
0.0
  0
LINE
  5
16BF
330
16A8
100
AcDbEntity
  8
VERMASSUNG
 62
     0
370
    -2
100
AcDbLine
 10
-21.5092284075
 20
13.0
 30
0.0
 11
-21.5092284075
 21
-12.99999999999999
 31
0.0
  0
SOLID
  5
16C0
330
16A8
100
AcDbEntity
  8
VERMASSUNG
 62
     0
100
AcDbTrace
 10
-22.0092284075
 20
13.0
 30
0.0
 11
-21.0092284075
 21
13.0
 31
0.0
 12
-21.5092284075
 22
16.0
 32
0.0
 13
-21.5092284075
 23
16.0
 33
0.0
  0
SOLID
  5
16C1
330
16A8
100
AcDbEntity
  8
VERMASSUNG
 62
     0
100
AcDbTrace
 10
-22.0092284075
 20
-12.99999999999999
 30
0.0
 11
-21.0092284075
 21
-12.99999999999999
 31
0.0
 12
-21.5092284075
 22
-15.99999999999999
 32
0.0
 13
-21.5092284075
 23
-15.99999999999999
 33
0.0
  0
MTEXT
  5
16C2
330
16A8
100
AcDbEntity
  8
VERMASSUNG
 62
     0
100
AcDbMText
 10
-32.03322840749999
 20
0.8578506153000098
 30
0.0
 40
2.0
 41
0.0
 71
     1
 72
     1
  1
\A1;MBM%%c16
  7
SLDTEXTSTYLE0
 73
     1
 44
1.0
  0
POINT
  5
16C3
330
16A8
100
AcDbEntity
  8
Defpoints
 62
     0
100
AcDbPoint
 10
0.3000007749000133
 20
16.0
 30
0.0
  0
POINT
  5
16C4
330
16A8
100
AcDbEntity
  8
Defpoints
 62
     0
100
AcDbPoint
 10
0.3000007749000133
 20
-16.0
 30
0.0
  0
POINT
  5
16C5
330
16A8
100
AcDbEntity
  8
Defpoints
 62
     0
100
AcDbPoint
 10
-21.5092284075
 20
-15.99999999999999
 30
0.0
  0
ENDBLK
  5
16B3
330
16A8
100
AcDbEntity
  8
0
 62
     0
100
AcDbBlockEnd
  0
BLOCK
  5
16CF
330
16C6
100
AcDbEntity
  8
0
100
AcDbBlockBegin
  2
*D22
 70
     1
 10
0.0
 20
0.0
 30
0.0
  3
*D22
  1

  0
SOLID
  5
16C7
330
16C6
100
AcDbEntity
  8
VERMASSUNG
100
AcDbTrace
 10
114.5756814937
 20
124.1347265840999
 30
0.0
 11
114.1256814937
 21
121.1347265841
 31
0.0
 12
115.0256814937
 22
121.1347265841
 32
0.0
 13
115.0256814937
 23
121.1347265841
 33
0.0
  0
SOLID
  5
16C8
330
16C6
100
AcDbEntity
  8
VERMASSUNG
100
AcDbTrace
 10
114.5756814937
 20
92.13472658409999
 30
0.0
 11
115.0256814937
 21
95.1347265841
 31
0.0
 12
114.1256814937
 22
95.1347265841
 32
0.0
 13
114.1256814937
 23
95.1347265841
 33
0.0
  0
LINE
  5
16C9
330
16C6
100
AcDbEntity
  8
VERMASSUNG
100
AcDbLine
 10
136.3849106761
 20
124.1347265840999
 30
0.0
 11
113.5756814937
 21
124.1347265840999
 31
0.0
  0
LINE
  5
16CA
330
16C6
100
AcDbEntity
  8
VERMASSUNG
100
AcDbLine
 10
136.3849106761
 20
92.13472658409999
 30
0.0
 11
113.5756814937
 21
92.13472658409999
 31
0.0
  0
LINE
  5
16CB
330
16C6
100
AcDbEntity
  8
VERMASSUNG
100
AcDbLine
 10
114.5756814937
 20
124.1347265840999
 30
0.0
 11
114.5756814937
 21
92.13472658409999
 31
0.0
  0
MTEXT
  5
16CC
330
16C6
100
AcDbEntity
  8
VERMASSUNG
100
AcDbMText
 10
111.775681717
 20
102.1889793797999
 30
0.0
 40
2.0
 41
0.0
 71
     1
 72
     1
  1
{MBM}
  7
SLDTEXTSTYLE0
 11
-0.000000000000007
 21
1.0
 31
0.0
 73
     1
 44
1.0
  0
MTEXT
  5
16CD
330
16C6
100
AcDbEntity
  8
VERMASSUNG
100
AcDbMText
 10
111.9756816683
 20
107.388979394
 30
0.0
 40
2.0
 41
0.0
 71
     1
 72
     1
  1
{%%c}
  7
SLDTEXTSTYLE0
 11
-0.000000000000007
 21
1.0
 31
0.0
 73
     1
 44
1.0
  0
MTEXT
  5
16CE
330
16C6
100
AcDbEntity
  8
VERMASSUNG
100
AcDbMText
 10
111.9756813772999
 20
110.9979581706999
 30
0.0
 40
2.0
 41
0.0
 71
     1
 72
     1
  1
{32}
  7
SLDTEXTSTYLE0
 11
-0.000000000000007
 21
1.0
 31
0.0
 73
     1
 44
1.0
  0
ENDBLK
  5
16D0
330
16C6
100
AcDbEntity
  8
0
100
AcDbBlockEnd
  0
BLOCK
  5
16D8
330
16D1
100
AcDbEntity
  8
0
100
AcDbBlockBegin
  2
*D23
 70
     1
 10
0.0
 20
0.0
 30
0.0
  3
*D23
  1

  0
SOLID
  5
16D2
330
16D1
100
AcDbEntity
  8
VERMASSUNG
100
AcDbTrace
 10
136.0849106761
 20
127.5351377513999
 30
0.0
 11
139.0849106761
 21
127.0851377514
 31
0.0
 12
139.0849106761
 22
127.9851377513999
 32
0.0
 13
139.0849106761
 23
127.9851377513999
 33
0.0
  0
SOLID
  5
16D3
330
16D1
100
AcDbEntity
  8
VERMASSUNG
100
AcDbTrace
 10
179.8849106761
 20
127.5351377513999
 30
0.0
 11
176.8849106761
 21
127.9851377513999
 31
0.0
 12
176.8849106761
 22
127.0851377514
 32
0.0
 13
176.8849106761
 23
127.0851377514
 33
0.0
  0
LINE
  5
16D4
330
16D1
100
AcDbEntity
  8
VERMASSUNG
100
AcDbLine
 10
136.0849106761
 20
123.8347265840999
 30
0.0
 11
136.0849106761
 21
128.5351377513999
 31
0.0
  0
LINE
  5
16D5
330
16D1
100
AcDbEntity
  8
VERMASSUNG
100
AcDbLine
 10
179.8849106761
 20
123.6344040001
 30
0.0
 11
179.8849106761
 21
128.5351377513999
 31
0.0
  0
LINE
  5
16D6
330
16D1
100
AcDbEntity
  8
VERMASSUNG
100
AcDbLine
 10
136.0849106761
 20
127.5351377513999
 30
0.0
 11
179.8849106761
 21
127.5351377513999
 31
0.0
  0
MTEXT
  5
16D7
330
16D1
100
AcDbEntity
  8
VERMASSUNG
100
AcDbMText
 10
154.4105395906998
 20
130.1351378678
 30
0.0
 40
2.0
 41
0.0
 71
     1
 72
     1
  1
{43.8}
  7
SLDTEXTSTYLE0
 73
     1
 44
1.0
  0
ENDBLK
  5
16D9
330
16D1
100
AcDbEntity
  8
0
100
AcDbBlockEnd
  0
BLOCK
  5
1AC4
330
1ABA
100
AcDbEntity
  8
0
 62
     0
100
AcDbBlockBegin
  2
*D24
 70
     1
 10
0.0
 20
0.0
 30
0.0
  3
*D24
  1

  0
LINE
  5
1F4D
330
1ABA
100
AcDbEntity
  8
2
 62
     0
370
    -2
100
AcDbLine
 10
-83.52279407822015
 20
-32.17225730638185
 30
0.0
 11
-83.52279407822015
 21
-25.97184613908187
 31
0.0
  0
LINE
  5
1F4E
330
1ABA
100
AcDbEntity
  8
2
 62
     0
370
    -2
100
AcDbLine
 10
-39.72279475172019
 20
-32.17225789948186
 30
0.0
 11
-39.72279475172019
 21
-25.97184613908187
 31
0.0
  0
LINE
  5
1F4F
330
1ABA
100
AcDbEntity
  8
2
 62
     0
370
    -2
100
AcDbLine
 10
-78.95279407822016
 20
-28.47184613908187
 30
0.0
 11
-44.29279475172019
 21
-28.47184613908187
 31
0.0
  0
SOLID
  5
1F50
330
1ABA
100
AcDbEntity
  8
2
 62
     0
100
AcDbTrace
 10
-78.95279407822016
 20
-27.7101794724152
 30
0.0
 11
-78.95279407822016
 21
-29.23351280574854
 31
0.0
 12
-83.52279407822015
 22
-28.47184613908187
 32
0.0
 13
-83.52279407822015
 23
-28.47184613908187
 33
0.0
  0
SOLID
  5
1F51
330
1ABA
100
AcDbEntity
  8
2
 62
     0
100
AcDbTrace
 10
-44.29279475172019
 20
-27.7101794724152
 30
0.0
 11
-44.29279475172019
 21
-29.23351280574854
 31
0.0
 12
-39.72279475172019
 22
-28.47184613908187
 32
0.0
 13
-39.72279475172019
 23
-28.47184613908187
 33
0.0
  0
MTEXT
  5
1F52
330
1ABA
100
AcDbEntity
  8
2
 62
     7
100
AcDbMText
 10
-62.6976849852202
 20
-24.68684613908187
 30
0.0
 40
4.57
 41
0.0
 71
     5
 72
     1
  1
\A1;43.8
  7
GENPRESET
 73
     1
 44
1.0
  0
POINT
  5
1F53
330
1ABA
100
AcDbEntity
  8
Defpoints
 62
     0
100
AcDbPoint
 10
-83.52279407822015
 20
-32.17225730638185
 30
0.0
  0
POINT
  5
1F54
330
1ABA
100
AcDbEntity
  8
Defpoints
 62
     0
100
AcDbPoint
 10
-39.72279475172019
 20
-32.17225789948186
 30
0.0
  0
POINT
  5
1F55
330
1ABA
100
AcDbEntity
  8
Defpoints
 62
     0
100
AcDbPoint
 10
-39.72279475172019
 20
-28.47184613908187
 30
0.0
  0
ENDBLK
  5
1AC5
330
1ABA
100
AcDbEntity
  8
0
 62
     0
100
AcDbBlockEnd
  0
BLOCK
  5
1AD0
330
1AC6
100
AcDbEntity
  8
0
 62
     0
100
AcDbBlockBegin
  2
*D25
 70
     1
 10
0.0
 20
0.0
 30
0.0
  3
*D25
  1

  0
LINE
  5
1F44
330
1AC6
100
AcDbEntity
  8
SK2
 62
     0
370
    -2
100
AcDbLine
 10
-83.22279407822014
 20
-31.87225730638185
 30
0.0
 11
-107.5320232606201
 21
-31.87225730638184
 31
0.0
  0
LINE
  5
1F45
330
1AC6
100
AcDbEntity
  8
SK2
 62
     0
370
    -2
100
AcDbLine
 10
-83.22279407822014
 20
-63.87225730638185
 30
0.0
 11
-107.5320232606201
 21
-63.87225730638185
 31
0.0
  0
LINE
  5
1F46
330
1AC6
100
AcDbEntity
  8
SK2
 62
     0
370
    -2
100
AcDbLine
 10
-105.0320232606201
 20
-36.44225730638185
 30
0.0
 11
-105.0320232606201
 21
-59.30225730638185
 31
0.0
  0
SOLID
  5
1F47
330
1AC6
100
AcDbEntity
  8
SK2
 62
     0
100
AcDbTrace
 10
-105.7936899272868
 20
-36.44225730638185
 30
0.0
 11
-104.2703565939535
 21
-36.44225730638185
 31
0.0
 12
-105.0320232606201
 22
-31.87225730638184
 32
0.0
 13
-105.0320232606201
 23
-31.87225730638184
 33
0.0
  0
SOLID
  5
1F48
330
1AC6
100
AcDbEntity
  8
SK2
 62
     0
100
AcDbTrace
 10
-105.7936899272868
 20
-59.30225730638185
 30
0.0
 11
-104.2703565939535
 21
-59.30225730638185
 31
0.0
 12
-105.0320232606201
 22
-63.87225730638185
 32
0.0
 13
-105.0320232606201
 23
-63.87225730638185
 33
0.0
  0
MTEXT
  5
1F49
330
1AC6
100
AcDbEntity
  8
SK2
 62
     7
100
AcDbMText
 10
-108.8170232606201
 20
-48.01440669108185
 30
0.0
 40
4.57
 41
0.0
 71
     5
 72
     1
  1
\A1;MBM%%c32
  7
GENPRESET
 11
0.0000000000000001
 21
1.0
 31
0.0
 73
     1
 44
1.0
  0
POINT
  5
1F4A
330
1AC6
100
AcDbEntity
  8
Defpoints
 62
     0
100
AcDbPoint
 10
-83.22279407822014
 20
-31.87225730638185
 30
0.0
  0
POINT
  5
1F4B
330
1AC6
100
AcDbEntity
  8
Defpoints
 62
     0
100
AcDbPoint
 10
-83.22279407822014
 20
-63.87225730638185
 30
0.0
  0
POINT
  5
1F4C
330
1AC6
100
AcDbEntity
  8
Defpoints
 62
     0
100
AcDbPoint
 10
-105.0320232606201
 20
-63.87225730638185
 30
0.0
  0
ENDBLK
  5
1AD1
330
1AC6
100
AcDbEntity
  8
0
 62
     0
100
AcDbBlockEnd
  0
BLOCK
  5
1F5F
330
1F56
100
AcDbEntity
  8
0
100
AcDbBlockBegin
  2
*D26
 70
     1
 10
0.0
 20
0.0
 30
0.0
  3
*D26
  1

  0
SOLID
  5
1F57
330
1F56
100
AcDbEntity
  8
VERMASSUNG
100
AcDbTrace
 10
83.39407882489998
 20
138.4410677618
 30
0.0
 11
82.9440788249
 21
135.4410677618
 31
0.0
 12
83.8440788249
 22
135.4410677618
 32
0.0
 13
83.8440788249
 23
135.4410677618
 33
0.0
  0
SOLID
  5
1F58
330
1F56
100
AcDbEntity
  8
VERMASSUNG
100
AcDbTrace
 10
83.39407882489998
 20
96.44106776180001
 30
0.0
 11
83.8440788249
 21
99.44106776179999
 31
0.0
 12
82.9440788249
 22
99.44106776179999
 32
0.0
 13
82.9440788249
 23
99.44106776179999
 33
0.0
  0
LINE
  5
1F59
330
1F56
100
AcDbEntity
  8
VERMASSUNG
100
AcDbLine
 10
112.6897330595
 20
138.4410677618
 30
0.0
 11
82.39407882489999
 21
138.4410677618
 31
0.0
  0
LINE
  5
1F5A
330
1F56
100
AcDbEntity
  8
VERMASSUNG
100
AcDbLine
 10
112.6897330595
 20
96.44106776180001
 30
0.0
 11
82.39407882489999
 21
96.44106776180001
 31
0.0
  0
LINE
  5
1F5B
330
1F56
100
AcDbEntity
  8
VERMASSUNG
100
AcDbLine
 10
83.39407882489998
 20
138.4410677618
 30
0.0
 11
83.39407882489998
 21
96.44106776180001
 31
0.0
  0
MTEXT
  5
1F5C
330
1F56
100
AcDbEntity
  8
VERMASSUNG
100
AcDbMText
 10
80.5940790482
 20
110.9374995893
 30
0.0
 40
2.0
 41
0.0
 71
     1
 72
     1
  1
{MBM }
  7
SLDTEXTSTYLE0
 11
-0.000000000000007
 21
1.0
 31
0.0
 73
     1
 44
1.0
  0
MTEXT
  5
1F5D
330
1F56
100
AcDbEntity
  8
VERMASSUNG
100
AcDbMText
 10
80.7940789995
 20
117.3374994276
 30
0.0
 40
2.0
 41
0.0
 71
     1
 72
     1
  1
{%%c}
  7
SLDTEXTSTYLE0
 11
-0.000000000000007
 21
1.0
 31
0.0
 73
     1
 44
1.0
  0
MTEXT
  5
1F5E
330
1F56
100
AcDbEntity
  8
VERMASSUNG
100
AcDbMText
 10
80.79407870850001
 20
120.9463386037
 30
0.0
 40
2.0
 41
0.0
 71
     1
 72
     1
  1
{42}
  7
SLDTEXTSTYLE0
 11
-0.000000000000007
 21
1.0
 31
0.0
 73
     1
 44
1.0
  0
ENDBLK
  5
1F60
330
1F56
100
AcDbEntity
  8
0
100
AcDbBlockEnd
  0
BLOCK
  5
1F68
330
1F61
100
AcDbEntity
  8
0
100
AcDbBlockBegin
  2
*D27
 70
     1
 10
0.0
 20
0.0
 30
0.0
  3
*D27
  1

  0
SOLID
  5
1F62
330
1F61
100
AcDbEntity
  8
VERMASSUNG
100
AcDbTrace
 10
112.3897330594999
 20
142.7854210973
 30
0.0
 11
115.3897330594999
 21
142.3354210972999
 31
0.0
 12
115.3897330594999
 22
143.2354210972999
 32
0.0
 13
115.3897330594999
 23
143.2354210972999
 33
0.0
  0
SOLID
  5
1F63
330
1F61
100
AcDbEntity
  8
VERMASSUNG
100
AcDbTrace
 10
174.5897330595
 20
142.7854210973
 30
0.0
 11
171.5897330595
 21
143.2354210972999
 31
0.0
 12
171.5897330595
 22
142.3354210972999
 32
0.0
 13
171.5897330595
 23
142.3354210972999
 33
0.0
  0
LINE
  5
1F64
330
1F61
100
AcDbEntity
  8
VERMASSUNG
100
AcDbLine
 10
112.3897330594999
 20
138.1410677617999
 30
0.0
 11
112.3897330594999
 21
143.7854210973
 31
0.0
  0
LINE
  5
1F65
330
1F61
100
AcDbEntity
  8
VERMASSUNG
100
AcDbLine
 10
174.5897330595
 20
137.6971880659
 30
0.0
 11
174.5897330595
 21
143.7854210973
 31
0.0
  0
LINE
  5
1F66
330
1F61
100
AcDbEntity
  8
VERMASSUNG
100
AcDbLine
 10
112.3897330594999
 20
142.7854210973
 30
0.0
 11
174.5897330595
 21
142.7854210973
 31
0.0
  0
MTEXT
  5
1F67
330
1F61
100
AcDbEntity
  8
VERMASSUNG
100
AcDbMText
 10
141.090162115
 20
145.3854212136999
 30
0.0
 40
2.0
 41
0.0
 71
     1
 72
     1
  1
{62.2}
  7
SLDTEXTSTYLE0
 73
     1
 44
1.0
  0
ENDBLK
  5
1F69
330
1F61
100
AcDbEntity
  8
0
100
AcDbBlockEnd
  0
BLOCK
  5
23DA
330
23D0
100
AcDbEntity
  8
0
 62
     0
100
AcDbBlockBegin
  2
*D29
 70
     1
 10
0.0
 20
0.0
 30
0.0
  3
*D29
  1

  0
LINE
  5
24EC
330
23D0
100
AcDbEntity
  8
2
 62
     0
370
    -2
100
AcDbLine
 10
-0.0000002086999871
 20
20.7
 30
0.0
 11
-0.0000002086999866
 21
27.8443533355
 31
0.0
  0
LINE
  5
24ED
330
23D0
100
AcDbEntity
  8
2
 62
     0
370
    -2
100
AcDbLine
 10
62.19999864689999
 20
20.70000022649999
 30
0.0
 11
62.19999864689999
 21
27.8443533355
 31
0.0
  0
LINE
  5
24EE
330
23D0
100
AcDbEntity
  8
2
 62
     0
370
    -2
100
AcDbLine
 10
4.569999791300013
 20
25.3443533355
 30
0.0
 11
57.62999864689998
 21
25.3443533355
 31
0.0
  0
SOLID
  5
24EF
330
23D0
100
AcDbEntity
  8
2
 62
     0
100
AcDbTrace
 10
4.569999791300013
 20
26.10602000216667
 30
0.0
 11
4.569999791300013
 21
24.58268666883333
 31
0.0
 12
-0.0000002086999868
 22
25.3443533355
 32
0.0
 13
-0.0000002086999868
 23
25.3443533355
 33
0.0
  0
SOLID
  5
24F0
330
23D0
100
AcDbEntity
  8
2
 62
     0
100
AcDbTrace
 10
57.62999864689998
 20
26.10602000216667
 30
0.0
 11
57.62999864689998
 21
24.58268666883333
 31
0.0
 12
62.19999864689999
 22
25.3443533355
 32
0.0
 13
62.19999864689999
 23
25.3443533355
 33
0.0
  0
MTEXT
  5
24F1
330
23D0
100
AcDbEntity
  8
2
 62
     7
100
AcDbMText
 10
24.13619026749048
 20
31.4143533355
 30
0.0
 40
4.57
 41
0.0
 71
     1
 72
     1
  1
\A1;62.2
  7
GENPRESET
 73
     1
 44
1.0
  0
POINT
  5
24F2
330
23D0
100
AcDbEntity
  8
Defpoints
 62
     0
100
AcDbPoint
 10
-0.0000002086999871
 20
20.7
 30
0.0
  0
POINT
  5
24F3
330
23D0
100
AcDbEntity
  8
Defpoints
 62
     0
100
AcDbPoint
 10
62.19999864689999
 20
20.70000022649999
 30
0.0
  0
POINT
  5
24F4
330
23D0
100
AcDbEntity
  8
Defpoints
 62
     0
100
AcDbPoint
 10
62.19999864689999
 20
25.3443533355
 30
0.0
  0
ENDBLK
  5
23DB
330
23D0
100
AcDbEntity
  8
0
 62
     0
100
AcDbBlockEnd
  0
BLOCK
  5
23E6
330
23DC
100
AcDbEntity
  8
0
 62
     0
100
AcDbBlockBegin
  2
*D30
 70
     1
 10
0.0
 20
0.0
 30
0.0
  3
*D30
  1

  0
LINE
  5
24F5
330
23DC
100
AcDbEntity
  8
SK2
 62
     0
370
    -2
100
AcDbLine
 10
0.2999997913000243
 20
21.00000000000001
 30
0.0
 11
-31.49565444329999
 21
21.00000000000002
 31
0.0
  0
LINE
  5
24F6
330
23DC
100
AcDbEntity
  8
SK2
 62
     0
370
    -2
100
AcDbLine
 10
0.2999997913000243
 20
-21.0
 30
0.0
 11
-31.4956544433
 21
-20.99999999999999
 31
0.0
  0
LINE
  5
24F7
330
23DC
100
AcDbEntity
  8
SK2
 62
     0
370
    -2
100
AcDbLine
 10
-28.99565444329999
 20
16.43000000000002
 30
0.0
 11
-28.9956544433
 21
-16.42999999999998
 31
0.0
  0
SOLID
  5
24F8
330
23DC
100
AcDbEntity
  8
SK2
 62
     0
100
AcDbTrace
 10
-29.75732110996666
 20
16.43000000000002
 30
0.0
 11
-28.23398777663332
 21
16.43000000000002
 31
0.0
 12
-28.99565444329999
 22
21.00000000000002
 32
0.0
 13
-28.99565444329999
 23
21.00000000000002
 33
0.0
  0
SOLID
  5
24F9
330
23DC
100
AcDbEntity
  8
SK2
 62
     0
100
AcDbTrace
 10
-29.75732110996666
 20
-16.42999999999998
 30
0.0
 11
-28.23398777663333
 21
-16.42999999999998
 31
0.0
 12
-28.9956544433
 22
-20.99999999999999
 32
0.0
 13
-28.9956544433
 23
-20.99999999999999
 33
0.0
  0
MTEXT
  5
24FA
330
23DC
100
AcDbEntity
  8
SK2
 62
     7
100
AcDbMText
 10
-35.0656544433
 20
-15.34214285714285
 30
0.0
 40
4.57
 41
0.0
 71
     1
 72
     1
  1
\A1;MBM %%c42
  7
GENPRESET
 11
0.0000000000000001
 21
1.0
 31
0.0
 73
     1
 44
1.0
  0
POINT
  5
24FB
330
23DC
100
AcDbEntity
  8
Defpoints
 62
     0
100
AcDbPoint
 10
0.2999997913000243
 20
21.00000000000001
 30
0.0
  0
POINT
  5
24FC
330
23DC
100
AcDbEntity
  8
Defpoints
 62
     0
100
AcDbPoint
 10
0.2999997913000243
 20
-21.0
 30
0.0
  0
POINT
  5
24FD
330
23DC
100
AcDbEntity
  8
Defpoints
 62
     0
100
AcDbPoint
 10
-28.9956544433
 20
-20.99999999999999
 30
0.0
  0
ENDBLK
  5
23E7
330
23DC
100
AcDbEntity
  8
0
 62
     0
100
AcDbBlockEnd
  0
ENDSEC
  0
SECTION
  2
ENTITIES
  0
MTEXT
  5
36
330
1F
100
AcDbEntity
  8
5
100
AcDbMText
 10
-29.49333884817717
 20
-52.31612644115728
 30
0.0
 40
4.57
 41
0.0
 71
     1
 72
     1
  1
142.420.000
  7
GENPRESET
 73
     1
 44
1.0
  0
MTEXT
  5
37
330
1F
100
AcDbEntity
  8
5
100
AcDbMText
 10
-29.44955567537716
 20
-44.27698764825726
 30
0.0
 40
4.57
 41
0.0
 71
     1
 72
     1
  1
{Zweischneiderkopf_Twin cutter boring head}
  7
GENPRESET
 73
     1
 44
1.0
  0
REGION
  5
27D
330
1F
100
AcDbEntity
  8
5
100
AcDbModelerGeometry
 70
     1
  1
koo mi n o          
  1
h J1410(1 nl ^ \VL kqoqm QK mk K7* [:< nl nnengeno mooh 
  1
rn fqfffffffffffffffj:rooh n:rono 
  1
=0;& {rn {n {rn {rn |
  1
3*2/ {rn {rn {m {o |
  1
,7:33 {rn {rn {rn {l {rn {n |
  1
9><: {rn {rn {k {m {rn {j 90-(>-; ;0*=3: 0*+ |
  1
300/ {rn {rn {i {l |
  1
/3>1:r,*-9><: {rn noqkhmmlfnihikignf rlkqhjhhnkifommkjng o o o n m o o 90-(>-;@) V V V V |
  1
<0:;8: {rn {h {g {rn {f -:):-,:; {k {rn |
  1
<0:;8: {rn {no {i {rn {nn -:):-,:; {k {rn |
  1
<0:;8: {rn {i {no {rn {nm -:):-,:; {k {rn |
  1
:;8: {rn {nl {nk {i {nj 90-(>-; |
  1
<0:;8: {rn {g {h {rn {ni -:):-,:; {k {rn |
  1
:;8: {rn {nh {nl {h {ng 90-(>-; |
  1
:;8: {rn {nk {nf {g {mo 90-(>-; |
  1
):-+:' {rn {f {mn |
  1
):-+:' {rn {f {mm |
  1
,+->687+r<*-): {rn joqlhhngifnknngign rkoqhggjhnnkihhjffl o rm o o V V |
  1
:;8: {rn {nf {nh {no {ml 90-(>-; |
  1
):-+:' {rn {ni {mk |
  1
,+->687+r<*-): {rn joqlhhngifnknngign rmgqhmigjgmllihlokm o mqljiljhikkijlllgm:ronj rm o V V |
  1
):-+:' {rn {nm {mj |
  1
,+->687+r<*-): {rn rmfqklmhogjhggmjokl rkoqhggjhnnkihhjffl o o m o V V |
  1
/061+ {rn joqlhhngifnknngign rkoqhggjhnnkihhjffl o |
  1
/061+ {rn rmfqklmhogjhggmjokl rkoqhggjhnnkihhjffl o |
  1
,+->687+r<*-): {rn rmfqklmhogjhggmjokl rmgqhmigjgmllihlokm o m o o V V |
  1
/061+ {rn joqlhhngifnknngign rmgqhmigjgmllihlokm o |
  1
/061+ {rn rmfqklmhogjhggmjokl rmgqhmigjgmllihlokm o |
  0
REGION
  5
27E
330
1F
100
AcDbEntity
  8
5
100
AcDbModelerGeometry
 70
     1
  1
koo hn n o          
  1
h J1410(1 nl ^ \VL kqoqm QK mk K7* [:< nl nnengeno mooh 
  1
rn fqfffffffffffffffj:rooh n:rono 
  1
=0;& {rn {n {rn {rn |
  1
3*2/ {rn {rn {m {o |
  1
,7:33 {rn {rn {rn {l {rn {n |
  1
9><: {rn {rn {k {m {rn {j 90-(>-; ;0*=3: 0*+ |
  1
300/ {rn {rn {i {l |
  1
/3>1:r,*-9><: {rn rnhqjiikmnmhiihkmim rlkqkgjlfhnhlmfngnj o o o n m o o 90-(>-;@) V V V V |
  1
<0:;8: {rn {h {g {rn {f -:):-,:; {k {rn |
  1
<0:;8: {rn {no {i {rn {nn -:):-,:; {k {rn |
  1
<0:;8: {rn {i {nm {rn {nl -:):-,:; {k {rn |
  1
:;8: {rn {nk {nj {i {ni 90-(>-; |
  1
<0:;8: {rn {nh {h {rn {ng -:):-,:; {k {rn |
  1
:;8: {rn {nf {nk {h {mo 90-(>-; |
  1
<0:;8: {rn {g {mn {rn {mm -:):-,:; {k {rn |
  1
:;8: {rn {nj {ml {g {mk 90-(>-; |
  1
):-+:' {rn {f {mj |
  1
):-+:' {rn {f {mi |
  1
,+->687+r<*-): {rn rmoqjmjhkhiikknijkm rlgqjhionfngglmknlf o roqjlmonliifjkjgkgfk nqfmhfkmmgjmfngkfh o V V |
  1
<0:;8: {rn {mh {no {rn {mg -:):-,:; {k {rn |
  1
:;8: {rn {mf {nf {no {lo 90-(>-; |
  1
):-+:' {rn {ng {ln |
  1
,+->687+r<*-): {rn rngqgmhlngigijifohm rlgqjhionfngglmknlf o rm o o V V |
  1
<0:;8: {rn {nm {lm {rn {ll -:):-,:; {k {rn |
  1
:;8: {rn {ml {lk {nm {lj 90-(>-; |
  1
):-+:' {rn {nl {li |
  1
,+->687+r<*-): {rn rmmqjnfmfnknjohiig rlnqljnifgimnfhgigk o m o o V V |
  1
/061+ {rn rmoqjmjhkhiikknijkm rlgqjhionfngglmknlf o |
  1
/061+ {rn rmmqjnfmfnknjohiig rlnqljnifgimnfhgigk o |
  1
<0:;8: {rn {lh {nh {rn {lg -:):-,:; {k {rn |
  1
:;8: {rn {lf {mf {nh {ko 90-(>-; |
  1
):-+:' {rn {mg {kn |
  1
,+->687+r<*-): {rn rnhqjfoojlglkoikgok rllqhhjljlioogfhfon o roqkffnkkjioljfmlmll rnqflihnmlkjnjnfokk o V V |
  1
/061+ {rn rngqgmhlngigijifohm rlgqjhionfngglmknlf o |
  1
<0:;8: {rn {mn {km {rn {kl -:):-,:; {k {rn |
  1
:;8: {rn {lk {kk {mn {kj 90-(>-; |
  1
):-+:' {rn {mm {ki |
  1
,+->687+r<*-): {rn rmoqgoliomninmjilhf rlnqljnifgimnfhgigk o oqkjfngfjmfijlloohl rnqfkijhmimmgojhloj o V V |
  1
/061+ {rn rmoqgoliomninmjilhf rlnqljnifgimnfhgigk o |
  1
<0:;8: {rn {kh {mh {rn {kg -:):-,:; {k {rn |
  1
:;8: {rn {kf {lf {mh {jo 90-(>-; |
  1
):-+:' {rn {lg {jn |
  1
,+->687+r<*-): {rn rniqmkologhnofjnjmk rlgqjhionfngglmknlf o roqjknlmigjnonmjgikf nqfmjlkgogmfnnfifg o V V |
  1
/061+ {rn rnhqjfoojlglkoikgok rllqhhjljlioogfhfon o |
  1
<0:;8: {rn {lm {jm {rn {jl -:):-,:; {k {rn |
  1
:;8: {rn {kk {jk {lm {jj 90-(>-; |
  1
):-+:' {rn {ll {ji |
  1
,+->687+r<*-): {rn rnfqifmgiigjnfkinmn rliqoiomhojgllilkhi o oqjkiffiokfiomonjof nqfmlhkjnmfofjhflm o V V |
  1
/061+ {rn rnfqifmgiigjnfkinmn rliqoiomhojgllilkhi o |
  1
<0:;8: {rn {jm {lh {rn {jh -:):-,:; {k {rn |
  1
:;8: {rn {jg {kf {lh {jf 90-(>-; |
  1
):-+:' {rn {kg {io |
  1
,+->687+r<*-): {rn rnkqjgighnjlfmhhilg rlgqjhionfngglmknlf o rm o o V V |
  1
/061+ {rn rniqmkologhnofjnjmk rlgqjhionfngglmknlf o |
  1
<0:;8: {rn {km {kh {rn {in -:):-,:; {k {rn |
  1
:;8: {rn {jk {im {km {il 90-(>-; |
  1
):-+:' {rn {kl {ik |
  1
,+->687+r<*-): {rn rngqljkoljjnjjnmgim rlnqljnifgimnfhgigk o m o o V V |
  1
/061+ {rn rngqljkoljjnjjnmgim rlnqljnifgimnfhgigk o |
  1
:;8: {rn {ij {jg {kh {ii 90-(>-; |
  1
):-+:' {rn {jh {ih |
  1
,+->687+r<*-): {rn rnmqimohnokmgokjfmj rlnqljnifgimnfhgigk o roqjmjmnllmokmjomhkk rnqfmfgojfkojnjmfli o V V |
  1
/061+ {rn rnkqjgighnjlfmhhilg rlgqjhionfngglmknlf o |
  1
:;8: {rn {im {ij {jm {ig 90-(>-; |
  1
):-+:' {rn {jl {if |
  1
,+->687+r<*-): {rn rniqhhhnggnhjljinni rlnqljnifgimnfhgigk o oqjojlgfiiloigogfgi rnqfljofmoimonmjlkh o V V |
  1
/061+ {rn rniqhhhnggnhjljinni rlnqljnifgimnfhgigk o |
  1
):-+:' {rn {in {ho |
  1
,+->687+r<*-): {rn rnkqmhgoljmlfhjhigj rlnqljnifgimnfhgigk o m o o V V |
  1
/061+ {rn rnmqimohnokmgokjfmj rlnqljnifgimnfhgigk o |
  1
,+->687+r<*-): {rn rnjqjkhkkilhkjllghh rliqoiomhojgllilkhi o oqjmoioknljjlnghihf nqflnojkkinhokokh o V V |
  1
/061+ {rn rnjqjkhkkilhkjllghh rliqoiomhojgllilkhi o |
  1
/061+ {rn rnkqmhgoljmlfhjhigj rlnqljnifgimnfhgigk o |
  0
REGION
  5
27F
330
1F
100
AcDbEntity
  8
5
100
AcDbModelerGeometry
 70
     1
  1
koo mi n o          
  1
h J1410(1 nl ^ \VL kqoqm QK mk K7* [:< nl nnengeno mooh 
  1
rn fqfffffffffffffffj:rooh n:rono 
  1
=0;& {rn {n {rn {rn |
  1
3*2/ {rn {rn {m {o |
  1
,7:33 {rn {rn {rn {l {rn {n |
  1
9><: {rn {rn {k {m {rn {j -:):-,:; ;0*=3: 0*+ |
  1
300/ {rn {rn {i {l |
  1
/3>1:r,*-9><: {rn rmiqnlkokgjnglijgl rlkqfimfjjomihfjijj o o o rn rm o o 90-(>-;@) V V V V |
  1
<0:;8: {rn {h {g {rn {f -:):-,:; {k {rn |
  1
<0:;8: {rn {no {i {rn {nn 90-(>-; {k {rn |
  1
<0:;8: {rn {i {no {rn {nm 90-(>-; {k {rn |
  1
:;8: {rn {nl {nk {i {nj 90-(>-; |
  1
<0:;8: {rn {g {h {rn {ni 90-(>-; {k {rn |
  1
:;8: {rn {nl {nh {h {ng 90-(>-; |
  1
:;8: {rn {nf {nk {g {mo 90-(>-; |
  1
):-+:' {rn {f {mn |
  1
):-+:' {rn {f {mm |
  1
61+<*-):r<*-): {rn 90-(>-; $ :'><+<*- 1*=, l 0/:1 mk 
  1
 o l oqligokiljfljmjmjj n oqikiffjgmifofigklg n nqoigjglohkoojklhk n nqiohihjljnioiinng n 
  1
 nqfhmmojknmiffgfof n mqnfkhjgmkmhhogjlf n mqioinmmijimmmlmmg n lqnlhnlfiiikkokmkj n lqifnmlfgjmonggmhk n 
  1
 kqokoilfionkiiffnk n kqlffkggihjloikjmk n kqgnjjkihfkomhonmj n jqljoknhiinlnnjjjf n jqgnogkngnofmjifjk n 
  1
 iqmmhnfffmkgnlkoni n iqinkmilhmmmoihgkk n hqkgfigmoofjhoomml n hqgihgfiogmnmng n gqmjlnglnofmnkimnl n 
  1
 gqjjhhkmomokmlmfin n gqhimgololoifolglj n fqnknnhijkkiknoojg n fqmjiilgghlkomkimn l 
  1
 rmkqhfmkkniignggnll rllqijniinikkoohiok o 
  1
 rmkqgngmggnhjkjmnlf rllqlflkkokjnjoigoj o 
  1
 rmkqgilhmkmjnknnnff rlmqflfjogknljlgill o 
  1
 rmjqjmonlifnojjimng rlmqjnjfkiokiomjmfm o 
  1
 rmiqlnnomognhfhlljg rlmqkhjnjgfniifmkj o 
  1
 rmhqlfkigoionknmnf rlmqjofolgikfjhkioi o 
  1
 rmhqjnkmjjgmmgmhimm rllqkioohkmmjnmhjnk o 
  1
 rmhqoogknijmijghnif rllqfjimklijmnlhnok o 
  1
 rmiqmojnigfnliiolom rlkqokmniinmkhfgngi o 
  1
 rmjqmkgnioinflnhgjg rlkqmhjofkikknglkmi o 
  1
 rmkqloonglgmlmmjijm rlkqkhmnooiliikhhn o 
  1
 rmlqjinffjhnlhgghok rlkqgfjmmiofllgoool o 
  1
 rmlqokjofggonmojggm rljqkhmhgmioililfli o 
  1
 rmmqgjgjimmooghijfn rliqljnfomnmmoohkkj o 
  1
 rmmqffjoinljfhhijkl rlhqlmfojnkmiggklim o 
  1
 rmlqiimfinignhkkhf rlgqojokjlhlimmijhm o 
  1
 rmkqkofoljlkmllnlfl rlgqkkgjmghloigimhh o 
  1
 rmjqkgmlkfjihogljhk rlgqgojnojgingfkmoj o 
  1
 rmiqiolnmklhkjkfljl rlgqifngholihliihkh o 
  1
 rmhqihigfnkogoflmfh rlgqkfihghfgliljffh o 
  1
 rmgqllomjihnjingmim rlgqnhmoohimhknhljg o 
  1
 rmgqhkjkfiflihijjm rlhqhlkolnmlkiiglfl o 
  1
 rmfqnmhnijmmnjlkinn rlhqmfmmmijogjfoknh o 
  1
 rmfqmmloimhmngfok rliqhmkfjnnnmmglnog o 
  1
 rmfqmhjfoknmmfhioni rliqjmgmkkhjjnkflni o 
  1
 rmfqlonoglnnjginnok rliqoflgjfgomfnohmg o 
  1
 o 
  1
 1*33@,*-9><: 
  1
 1*33@,*-9><: 
  1
 1*33=, 
  1
 1*33=, 
  1
 V V 
  1
 o 
  1
 o 
  3
 mm oqligokiljfljmjmjj oqikiffjgmifofigklg nqoigjglohkoojklhk nqiohihjljnioiinng nqfhmmojknmiffgfof mqnfkhjgmkmhhogjlf mqioinmmijimmmlmmg lqnlhnlfiiikkokmkj lqifnmlfgjmonggmhk kqokoilfionkiiffnk kqlffkggihjloikjmk kqgnjjkihfkomhonmj jqljoknhiinlnnjjjf jqg
  1
nogkngnofmjifjk iqmmhnfffmkgnlkoni iqinkmilhmmmoihgkk hqkgfigmoofjhoomml hqgihgfiogmnmng gqmjlnglnofmnkimnl gqjjhhkmomokmlmfin gqhimgololoifolglj fqnknnhijkkiknoojg 
  1
 Y n Y o " V V |
  1
:;8: {rn {nh {nf {no {ml 90-(>-; |
  1
):-+:' {rn {ni {mk |
  1
,+->687+r<*-): {rn rmkqhfmkkniignggnll rllqijniinikkoohiok o nqfffffggjlnomnhjn roqoomnkngiioojnojinfi o V V |
  1
):-+:' {rn {nm {mj |
  1
,+->687+r<*-): {rn rmhqhnjflikokmfkglh rliqofnhknflflmkjfm o rnqfffffgmnkfmjoklf roqoomihmnlllkfklhngfk o V V |
  1
/061+ {rn rmkqhfmkkniignggnll rllqijniinikkoohiok o |
  1
/061+ {rn rmfqlonoglnnjginnok rliqoflgjfgomfnohmg o |
  1
61+<*-):r<*-): {rn 90-(>-; $ :'><+<*- 1*=, l 0/:1 mg 
  1
 o l oqlfigjomnhmmhnoggk n oqhmihgjfojjnjijimj n nqongknlhimogofofh n nqmhjijkomimihfkmn n 
  1
 nqjjhhfooifjkllfmm n nqginnnojigjoifhom n mqjkkgnlhjikjngfjl n mqgnmoofmlhlingolh n lqokfffiohonmmmllj n 
  1
 lqlloonlmhgjlffngk n lqjhjiljhgilhmngkg n lqflkijnjffnhfgkfk n kqklfnimomimokiofi n kqihhohhmgmkfjfon n 
  1
 kqfjglhmkoiilonmjg n jqlmoknigoglljkill n jqijoooimimfnhomng n iqnnmooijfhfmfnkjk n iqillkinjnnhkjhlfi n 
  1
 iqfknhinkfmmgkfnmf n hqmokikooliljffifi n hqkfmhhkhgfkhifngl n hqhnffflnfkkoglkjn n gqmmhonmnijoikjmjg n 
  1
 gqhgfgkommjlomnifh n fqnlnohigkhjkjhkmm n fqlggifigilfmffjgm l 
  1
 rmlqmnnmhhhkgigghon rllqijlljkfijiomkhj o 
  1
 rmlqmomfomlgjjfiigh rllqlgmfogknngnmklh o 
  1
 rmlqnghjilgilkkmkil rlmqgghinilfhkjnhij o 
  1
 rmlqjlfnhnijijifhoh rlmqmgjmnmiifhkooim o 
  1
 rmlqfmhghfmjkfmkkm rlnqglnihgihimloojj o 
  1
 rmkqkkkhmhngkkhfofm rlnqinogjgmhggohkh o 
  1
 rmkqfjnkininihhllmf rlnqliliiomnilikhhg o 
  1
 rmjqhfhimgiofljihhg rlnqmkjgflkfmiflifi o 
  1
 rmiqilffifgffngngoh rlnqmlonhlofmkihilg o 
  1
 rmhqknfkmfnfknoklfi rlnqlfjiokjjmjmklng o 
  1
 rmhqfonhggmjolmlnmm rlnqinnlioofmlljlki o 
  1
 rmgqloholjihilhhgog rlnqfmoggklgfjhfflf o 
  1
 rmgqhioikglljghkiil rlmqlohnfkoojikinlf o 
  1
 rmfqoghlkhlgkifjmhg rlmqffmjhfhkginklng o 
  1
 rmfqnmffofmnmglhmnf rllqhifihfgkogkfnj o 
  1
 rmgqglkkongjmimnjmj rlkqlfmhonlilniflof o 
  1
 rmgqkikhloioikhingn rlkqgijlmkjmmllfgin o 
  1
 rmhqgiimhlhgnooihnn rljqnjmnollgfikigmj o 
  1
 rmhqnkfkmlflmlimnmi rljqkmmhmhflljjgihi o 
  1
 rmiqmgkmlhmolhhigjk rljqioojngnmghhofmf o 
  1
 rmjqkkhkjhkknhmgohi rljqhmjflkhhkflhhgk o 
  1
 rmkqhmhjognngmogkoj rliqonlimomnjgjkook o 
  1
 rmkqkffhhhfiffjhlik rliqjfloljhlfoghlnl o 
  1
 rmkqihkolokioifhfmn rlhqnjjjkfikoomjlnl o 
  1
 rmjqllggnjlkhgkgmig rlhqklnimlnikhhkhfn o 
  1
 rmiqngnngjmlkggmofl rlhqjnngjojfmgnjoof o 
  1
 rmhqmomffolifkhkkil rlhqlilfjofffnifhnh o 
  1
 rmhqijgknhjlhlffnol rliqiingghjlkilofoh o 
  1
 rmhqifgiljmhhmljogk rliqmilmlilonkmlghl o 
  1
 rmhqhnjflikokmfkglh rliqofnhknflflmkjfm o 
  1
 o 
  1
 1*33@,*-9><: 
  1
 1*33@,*-9><: 
  1
 1*33=, 
  1
 1*33=, 
  1
 V V 
  1
 o 
  1
 o 
  3
 mi oqlfigjomnhmmhnoggk oqhmihgjfojjnjijimj nqongknlhimogofofh nqmhjijkomimihfkmn nqjjhhfooifjkllfmm nqginnnojigjoifhom mqjkkgnlhjikjngfjl mqgnmoofmlhlingolh lqokfffiohonmmmllj lqlloonlmhgjlffngk lqjhjiljhgilhmngkg lqflkijnjffnhfgkfk kqklfnimomimokiofi kq
  1
ihhohhmgmkfjfon kqfjglhmkoiilonmjg jqlmoknigoglljkill jqijoooimimfnhomng iqnnmooijfhfmfnkjk iqillkinjnnhkjhlfi iqfknhinkfmmgkfnmf hqmokikooliljffifi hqkfmhhkhgfkhifngl hqhnffflnfkkoglkjn gqmmhonmnijoikjmjg gqhgfgkommjlomnifh fqnlnohigkhjkjhkmm 
  1
 Y n Y o " V V |
  1
/061+ {rn rmlqmnnmhhhkgigghon rllqijlljkfijiomkhj o |
  1
/061+ {rn rmhqhnjflikokmfkglh rliqofnhknflflmkjfm o |
  0
REGION
  5
280
330
1F
100
AcDbEntity
  8
5
100
AcDbModelerGeometry
 70
     1
  1
koo mi n o          
  1
h J1410(1 nl ^ \VL kqoqm QK mk K7* [:< nl nnengeno mooh 
  1
rn fqfffffffffffffffj:rooh n:rono 
  1
=0;& {rn {n {rn {rn |
  1
3*2/ {rn {rn {m {o |
  1
,7:33 {rn {rn {rn {l {rn {n |
  1
9><: {rn {rn {k {m {rn {j -:):-,:; ;0*=3: 0*+ |
  1
300/ {rn {rn {i {l |
  1
/3>1:r,*-9><: {rn nqoimgfhfkfikfmif rlkqfimfjjomihfjijj o o o rn rm o o 90-(>-;@) V V V V |
  1
<0:;8: {rn {h {g {rn {f -:):-,:; {k {rn |
  1
<0:;8: {rn {no {i {rn {nn 90-(>-; {k {rn |
  1
<0:;8: {rn {i {no {rn {nm 90-(>-; {k {rn |
  1
:;8: {rn {nl {nk {i {nj 90-(>-; |
  1
<0:;8: {rn {g {h {rn {ni 90-(>-; {k {rn |
  1
:;8: {rn {nl {nh {h {ng 90-(>-; |
  1
:;8: {rn {nf {nk {g {mo 90-(>-; |
  1
):-+:' {rn {f {mn |
  1
):-+:' {rn {f {mm |
  1
61+<*-):r<*-): {rn 90-(>-; $ :'><+<*- 1*=, l 0/:1 mk 
  1
 o l oqligokiljfljmjmjj n oqikiffjgmifofigklg n nqoigjglohkoojklhk n nqiohihjljnioiinng n 
  1
 nqfhmmojknmiffgfof n mqnfkhjgmkmhhogjlf n mqioinmmijimmmlmmg n lqnlhnlfiiikkokmkj n lqifnmlfgjmonggmhk n 
  1
 kqokoilfionkiiffnk n kqlffkggihjloikjmk n kqgnjjkihfkomhonmj n jqljoknhiinlnnjjjf n jqgnogkngnofmjifjk n 
  1
 iqmmhnfffmkgnlkoni n iqinkmilhmmmoihgkk n hqkgfigmoofjhoomml n hqgihgfiogmnmng n gqmjlnglnofmnkimnl n 
  1
 gqjjhhkmomokmlmfin n gqhimgololoifolglj n fqnknnhijkkiknoojg n fqmjiilgghlkomkimn l 
  1
 mqkokjokhffgmifjmk rllqijniinikkoohiok o 
  1
 mqlhgijgmfmjimfki rllqlflkkokjnjoigoj o 
  1
 mqlllmmmmniiolggin rlmqflfjogknljlgill o 
  1
 nqihigofjjhkjggihn rlmqjnjfkiokiomjmfm o 
  1
 oqggjfmjijooknhmhkn rlmqkhjnjgfniifmkj o 
  1
 roqnfhhlknlllfhnojkk rlmqjofolgikfjhkioi o 
  1
 roqlnhlofljkgnmjlijl rllqkioohkmmjnmhjnk o 
  1
 oqnggjmffknkmhfnion rllqfjimklijmnlhnok o 
  1
 oqffnhhhjjkljkhgllm rlkqokmniinmkhfgngi o 
  1
 nqfkghgjgkgifhmmhm rlkqmhjofkikknglkmi o 
  1
 mqgfihimikkhgfkllm rlkqkhmnooiliikhhn o 
  1
 lqilkfjohjkmmilfj rlkqgfjmmiofllgoool o 
  1
 kqnjngkhiiigofmolj rljqkhmhgmioililfli o 
  1
 kqllglgkmihnlgjogm rliqljnfomnmmoohkkj o 
  1
 kqmonggjnogmlgjkmk rlhqlmfojnkmiggklim o 
  1
 lqjllfgkhgimhomfjl rlgqojokjlhlimmijhm o 
  1
 mqhghfnnnmjiglifmn rlgqkkgjmghloigimhh o 
  1
 nqhnkjfifooflnjnn rlgqgojnojgingfkmoj o 
  1
 oqjflgmmoflkijhlmlk rlgqifngholihliihkh o 
  1
 roqkhffkkfkoohgmnmln rlgqkfihghfgliljffh o 
  1
 rnqnlllnomkhiolnhif rlgqnhmoohimhknhljg o 
  1
 rnqjkgjjokighjoklki rlhqhlkolnmlkiiglfl o 
  1
 rnqflomnghjljnfjmjf rlhqmfmmmijogjfoknh o 
  1
 rmqominnimjlghjlnjj rliqhmkfjnnnmmglnog o 
  1
 rmqohgfjhijkfioflog rliqjmgmkkhjjnkflni o 
  1
 rmqnoknliikhgkionfn rliqoflgjfgomfnohmg o 
  1
 o 
  1
 1*33@,*-9><: 
  1
 1*33@,*-9><: 
  1
 1*33=, 
  1
 1*33=, 
  1
 V V 
  1
 o 
  1
 o 
  3
 mm oqligokiljfljmjmjj oqikiffjgmifofigklg nqoigjglohkoojklhk nqiohihjljnioiinng nqfhmmojknmiffgfof mqnfkhjgmkmhhogjlf mqioinmmijimmmlmmg lqnlhnlfiiikkokmkj lqifnmlfgjmonggmhk kqokoilfionkiiffnk kqlffkggihjloikjmk kqgnjjkihfkomhonmj jqljoknhiinlnnjjjf jqg
  1
nogkngnofmjifjk iqmmhnfffmkgnlkoni iqinkmilhmmmoihgkk hqkgfigmoofjhoomml hqgihgfiogmnmng gqmjlnglnofmnkimnl gqjjhhkmomokmlmfin gqhimgololoifolglj fqnknnhijkkiknoojg 
  1
 Y n Y o " V V |
  1
:;8: {rn {nh {nf {no {ml 90-(>-; |
  1
):-+:' {rn {ni {mk |
  1
,+->687+r<*-): {rn mqkokjokhffgmifjmk rllqijniinikkoohiok o nqfffffggjlnomnhjn roqoomnkngiioojnojinfi o V V |
  1
):-+:' {rn {nm {mj |
  1
,+->687+r<*-): {rn roqjngfgfflimhfhjngh rliqofnhknflflmkjfm o rnqfffffgmnkfmjoklf roqoomihmnlllkfklhngfk o V V |
  1
/061+ {rn mqkokjokhffgmifjmk rllqijniinikkoohiok o |
  1
/061+ {rn rmqnoknliikhgkionfn rliqoflgjfgomfnohmg o |
  1
61+<*-):r<*-): {rn 90-(>-; $ :'><+<*- 1*=, l 0/:1 mg 
  1
 o l oqlfigjomnhmmhnoggk n oqhmihgjfojjnjijimj n nqongknlhimogofofh n nqmhjijkomimihfkmn n 
  1
 nqjjhhfooifjkllfmm n nqginnnojigjoifhom n mqjkkgnlhjikjngfjl n mqgnmoofmlhlingolh n lqokfffiohonmmmllj n 
  1
 lqlloonlmhgjlffngk n lqjhjiljhgilhmngkg n lqflkijnjffnhfgkfk n kqklfnimomimokiofi n kqihhohhmgmkfjfon n 
  1
 kqfjglhmkoiilonmjg n jqlmoknigoglljkill n jqijoooimimfnhomng n iqnnmooijfhfmfnkjk n iqillkinjnnhkjhlfi n 
  1
 iqfknhinkfmmgkfnmf n hqmokikooliljffifi n hqkfmhhkhgfkhifngl n hqhnffflnfkkoglkjn n gqmmhonmnijoikjmjg n 
  1
 gqhgfgkommjlomnifh n fqnlnohigkhjkjhkmm n fqlggifigilfmffjgm l 
  1
 lqfgjiighnflmilglg rllqijlljkfijiomkhj o 
  1
 lqffkokkogmknglglg rllqlgmfogknngnmklh o 
  1
 kqooflgmiokjhmimnh rlmqgghinilfhkjnhij o 
  1
 lqijhhhkgnnkkjlikn rlmqmgjmnmiifhkooim o 
  1
 lqmifoihmnlofoiikg rlnqglnihgihimloojj o 
  1
 mqhjmmnfmgljljffln rlnqinogjgmhggohkh o 
  1
 mqmkjkgkgjnmknhjji rlnqliliiomnilikhhg o 
  1
 nqlfflnhgjgijgloh rlnqmkjgflkfmiflifi o 
  1
 oqjjifhijiggllmhhfj rlnqmlonhlofmkihilg o 
  1
 roqmmmkgmhmiogflnohj rlnqlfjiokjjmjmklng o 
  1
 roqhokgknhgmlogolhoh rlnqinnlioofmlljlki o 
  1
 rnqnnoogfmoglimhml rlnqfmoggklgfjhfflf o 
  1
 rnqjilhongihgjfjhg rlmqlohnfkoojikinlf o 
  1
 rnqgfokoofniigonfmh rlmqffmjhfhkginklng o 
  1
 rnqflmfimhkkgmmnlkj rllqhifihfgkogkfnj o 
  1
 rnqilhkjjlgkioikkon rlkqlfmhonlilniflof o 
  1
 rnqmihhgknlgkinofjh rlkqgijlmkjmmllfgin o 
  1
 roqiiflmhlnmffnimik rljqnjmnollgfikigmj o 
  1
 oqokhjmmjljijmfjfnik rljqkmmhmhflljjgihi o 
  1
 oqfnmhofmikmlgmlogk rljqioojngnmghhofmf o 
  1
 nqhkfkgfomimghoogi rljqhmjflkhhkflhhgk o 
  1
 mqkifklglkfgoiihff rliqonlimomnjgjkook o 
  1
 mqifhnigkfgojhhmof rliqjfloljhlfoghlnl o 
  1
 mqjmmfnioohlnhnikn rlhqnjjjkfikoomjlnl o 
  1
 nqgjgnlnnmoniignhn rlhqklnimlnikhhkhfn o 
  1
 nqonjhinmllnlmffnj rlhqjnngjojfmgnjoof o 
  1
 roqooioklfonkjflhgmhjg rlhqlilfjofffnifhnh o 
  1
 roqkinkhnoiflgkongoj rliqiingghjlkilofoh o 
  1
 roqjonigggofmnffffnk rliqmilmlilonkmlghl o 
  1
 roqjngfgfflimhfhjngh rliqofnhknflflmkjfm o 
  1
 o 
  1
 1*33@,*-9><: 
  1
 1*33@,*-9><: 
  1
 1*33=, 
  1
 1*33=, 
  1
 V V 
  1
 o 
  1
 o 
  3
 mi oqlfigjomnhmmhnoggk oqhmihgjfojjnjijimj nqongknlhimogofofh nqmhjijkomimihfkmn nqjjhhfooifjkllfmm nqginnnojigjoifhom mqjkkgnlhjikjngfjl mqgnmoofmlhlingolh lqokfffiohonmmmllj lqlloonlmhgjlffngk lqjhjiljhgilhmngkg lqflkijnjffnhfgkfk kqklfnimomimokiofi kq
  1
ihhohhmgmkfjfon kqfjglhmkoiilonmjg jqlmoknigoglljkill jqijoooimimfnhomng iqnnmooijfhfmfnkjk iqillkinjnnhkjhlfi iqfknhinkfmmgkfnmf hqmokikooliljffifi hqkfmhhkhgfkhifngl hqhnffflnfkkoglkjn gqmmhonmnijoikjmjg gqhgfgkommjlomnifh fqnlnohigkhjkjhkmm 
  1
 Y n Y o " V V |
  1
/061+ {rn lqfgjiighnflmilglg rllqijlljkfijiomkhj o |
  1
/061+ {rn roqjngfgfflimhfhjngh rliqofnhknflflmkjfm o |
  0
REGION
  5
281
330
1F
100
AcDbEntity
  8
5
100
AcDbModelerGeometry
 70
     1
  1
koo mi n o          
  1
h J1410(1 nl ^ \VL kqoqm QK mk K7* [:< nl nnengeno mooh 
  1
rn fqfffffffffffffffj:rooh n:rono 
  1
=0;& {rn {n {rn {rn |
  1
3*2/ {rn {rn {m {o |
  1
,7:33 {rn {rn {rn {l {rn {n |
  1
9><: {rn {rn {k {m {rn {j 90-(>-; ;0*=3: 0*+ |
  1
300/ {rn {rn {i {l |
  1
/3>1:r,*-9><: {rn rjqfkjokgfhgflgknik rlkqfimfjjomihfjijj o o o n m o o 90-(>-;@) V V V V |
  1
<0:;8: {rn {h {g {rn {f 90-(>-; {k {rn |
  1
<0:;8: {rn {no {i {rn {nn -:):-,:; {k {rn |
  1
<0:;8: {rn {i {no {rn {nm 90-(>-; {k {rn |
  1
:;8: {rn {nl {nk {i {nj 90-(>-; |
  1
<0:;8: {rn {g {h {rn {ni 90-(>-; {k {rn |
  1
:;8: {rn {nh {nk {h {ng 90-(>-; |
  1
:;8: {rn {nf {nl {g {mo 90-(>-; |
  1
):-+:' {rn {f {mn |
  1
):-+:' {rn {f {mm |
  1
,+->687+r<*-): {rn rhqjmifligikgihkmln rliqofnhknflflmkjfm o rnqfffffgmnkfmjoklf roqoomihmnlllkfklhngfk o V V |
  1
:;8: {rn {nh {nf {no {ml 90-(>-; |
  1
):-+:' {rn {nn {mk |
  1
61+<*-):r<*-): {rn 90-(>-; $ :'><+<*- 1*=, l 0/:1 mk 
  1
 o l oqligokiljfljmjmjj n oqikiffjgmifofigklg n nqoigjglohkoojklhk n nqiohihjljnioiinng n 
  1
 nqfhmmojknmiffgfof n mqnfkhjgmkmhhogjlf n mqioinmmijimmmlmmg n lqnlhnlfiiikkokmkj n lqifnmlfgjmonggmhk n 
  1
 kqokoilfionkiiffnk n kqlffkggihjloikjmk n kqgnjjkihfkomhonmj n jqljoknhiinlnnjjjf n jqgnogkngnofmjifjk n 
  1
 iqmmhnfffmkgnlkoni n iqinkmilhmmmoihgkk n hqkgfigmoofjhoomml n hqgihgfiogmnmng n gqmjlnglnofmnkimnl n 
  1
 gqjjhhkmomokmlmfin n gqhimgololoifolglj n fqnknnhijkkiknoojg n fqmjiilgghlkomkimn l 
  1
 rkqiolkkmnmghiohngg rllqijniinikkoohiok o 
  1
 rkqimfmggiliomkhmjm rllqlflkkokjnjoigoj o 
  1
 rkqihkhmkhnnfglhgjn rlmqflfjogknljlgill o 
  1
 rjqllnnlhlhnnmggokn rlmqjnjfkiokiomjmfm o 
  1
 riqnmmomnmhgjkjfklg rlmqkhjnjgfniifmkj o 
  1
 rhqmojignoinfgkhhii rlmqjofolgikfjhkioi o 
  1
 rhqlmjmjimglkoomohh rllqkioohkmmjnmhjnk o 
  1
 riqgnfknifghnjfhjjm rllqfjimklijmnlhnok o 
  1
 riqoniniflhkmlmgghf rlkqokmniinmkhfgngi o 
  1
 rjqojfninohfgfokkkn rlkqmhjofkikknglkmi o 
  1
 rkqnnnngkmglhfgmlg rlkqkhmnooiliikhhn o 
  1
 rlqlhmffinhklinmfok rlkqgfjmmiofllgoool o 
  1
 rmqgjioffminhhgkihh rljqkhmhgmioililfli o 
  1
 rmqiifjimiinkkfnhhm rliqljnfomnmmoohkkj o 
  1
 rmqgoioingmolkfnmgg rlhqlmfojnkmiggklim o 
  1
 rlqkhlfimnkmlnhlhjf rlgqojokjlhlimmijhm o 
  1
 rkqmmooljgomfolfhfn rlgqkkgjmghloigimhh o 
  1
 rjqmflljoomhijiniol rlgqgojnojgingfkmoj o 
  1
 riqknknmkgljnmnflgf rlgqifngholihliihkh o 
  1
 rhqkghgfngigiijgglj rlgqkfihghfgliljffh o 
  1
 rgqnknmjhnhinfogkgn rlgqnhmoohimhknhljg o 
  1
 rgqjjikfhlfhllgnojg rlhqhlkolnmlkiiglfl o 
  1
 rgqflgnijigmnohnfhn rlhqmfmmmijogjfoknh o 
  1
 rfqolkoilngmkimfgih rliqhmkfjnnnmmglnog o 
  1
 rfqogifokjgljkgiom rliqjmgmkkhjjnkflni o 
  1
 rfqnnmogljhikllifol rliqoflgjfgomfnohmg o 
  1
 o 
  1
 1*33@,*-9><: 
  1
 1*33@,*-9><: 
  1
 1*33=, 
  1
 1*33=, 
  1
 V V 
  1
 o 
  1
 o 
  3
 mm oqligokiljfljmjmjj oqikiffjgmifofigklg nqoigjglohkoojklhk nqiohihjljnioiinng nqfhmmojknmiffgfof mqnfkhjgmkmhhogjlf mqioinmmijimmmlmmg lqnlhnlfiiikkokmkj lqifnmlfgjmonggmhk kqokoilfionkiiffnk kqlffkggihjloikjmk kqgnjjkihfkomhonmj jqljoknhiinlnnjjjf jqg
  1
nogkngnofmjifjk iqmmhnfffmkgnlkoni iqinkmilhmmmoihgkk hqkgfigmoofjhoomml hqgihgfiogmnmng gqmjlnglnofmnkimnl gqjjhhkmomokmlmfin gqhimgololoifolglj fqnknnhijkkiknoojg 
  1
 Y n Y o " V V |
  1
):-+:' {rn {ni {mj |
  1
61+<*-):r<*-): {rn 90-(>-; $ :'><+<*- 1*=, l 0/:1 mg 
  1
 o l oqlfigjomnhmmhnoggk n oqhmihgjfojjnjijimj n nqongknlhimogofofh n nqmhjijkomimihfkmn n 
  1
 nqjjhhfooifjkllfmm n nqginnnojigjoifhom n mqjkkgnlhjikjngfjl n mqgnmoofmlhlingolh n lqokfffiohonmmmllj n 
  1
 lqlloonlmhgjlffngk n lqjhjiljhgilhmngkg n lqflkijnjffnhfgkfk n kqklfnimomimokiofi n kqihhohhmgmkfjfon n 
  1
 kqfjglhmkoiilonmjg n jqlmoknigoglljkill n jqijoooimimfnhomng n iqnnmooijfhfmfnkjk n iqillkinjnnhkjhlfi n 
  1
 iqfknhinkfmmgkfnmf n hqmokikooliljffifi n hqkfmhhkhgfkhifngl n hqhnffflnfkkoglkjn n gqmmhonmnijoikjmjg n 
  1
 gqhgfgkommjlomnifh n fqnlnohigkhjkjhkmm n fqlggifigilfmffjgm l 
  1
 rlqommmhgmofminmghk rllqijlljkfijiomkhj o 
  1
 rlqonlfomgkinifmhlm rllqlgmfogknngnmklh o 
  1
 rmqffgjiklmkonjokfj rlmqgghinilfhkjnhij o 
  1
 rlqljonhmnnhnkmmfmf rlmqmgjmnmiifhkooim o 
  1
 rlqhlgghfhnjkfhooik rlnqglnihgihimloojj o 
  1
 rkqmjjhmhikjojnihgn rlnqinogjgmhggohkh o 
  1
 rkqhimkimohhlkjfnji rlnqliliiomnilikhhg o 
  1
 rjqiogimfoiffmflikm rlnqmkjgflkfmiflifi o 
  1
 riqkjofholjfhjklfll rlnqmlonhlofmkihilg o 
  1
 rhqmlokmfijkihifgm rlnqlfjiokjjmjmklng o 
  1
 rhqhnmhgghnogfjhogl rlnqinnlioofmlljlki o 
  1
 rgqnngolinlifjolfkm rlnqfmoggklgfjhfflf o 
  1
 rgqjhnikghfikkhmkfm rlmqlohnfkoojikinlf o 
  1
 rgqgfglkhgkjmihgilf rlmqffmjhfhkginklng o 
  1
 rgqfkofofihlkofgojh rllqhifihfgkogkfnj o 
  1
 rgqikjkomlnlnfknnnl rlkqlfmhonlilniflof o 
  1
 rgqmhjhlnoihokghiif rlkqgijlmkjmmllfgin o 
  1
 rhqihhmhkmknjhfmfhi rljqnjmnollgfikigmj o 
  1
 riqfiokmklfmflkhnm rljqkmmhmhflljjgihi o 
  1
 riqofjmlhiiklkfkkok rljqioojngnmghhofmf o 
  1
 rjqmjgkjhfomlooiimi rljqhmjflkhhkflhhgk o 
  1
 rkqjlgjogjhghgoffnl rliqonlimomnjgjkook o 
  1
 rkqlnohhgklojmffjok rliqjfloljhlfoghlnl o 
  1
 rkqkgjolofmnmhojohn rlhqnjjjkfikoomjlnl o 
  1
 rjqnkfgnjgogkmogjkn rlhqklnimlnikhhkhfn o 
  1
 rjqffmngjifjkjkihfh rlhqjnngjojfmgnjoof o 
  1
 rhqonlffoglookhokfj rlhqlilfjofffnifhnh o 
  1
 rhqkifknhffhfhnigfl rliqiingghjlkilofoh o 
  1
 rhqjofiljhlhgohihok rliqmilmlilonkmlghl o 
  1
 rhqjmifligikgihkmln rliqofnhknflflmkjfm o 
  1
 o 
  1
 1*33@,*-9><: 
  1
 1*33@,*-9><: 
  1
 1*33=, 
  1
 1*33=, 
  1
 V V 
  1
 o 
  1
 o 
  3
 mi oqlfigjomnhmmhnoggk oqhmihgjfojjnjijimj nqongknlhimogofofh nqmhjijkomimihfkmn nqjjhhfooifjkllfmm nqginnnojigjoifhom mqjkkgnlhjikjngfjl mqgnmoofmlhlingolh lqokfffiohonmmmllj lqlloonlmhgjlffngk lqjhjiljhgilhmngkg lqflkijnjffnhfgkfk kqklfnimomimokiofi kq
  1
ihhohhmgmkfjfon kqfjglhmkoiilonmjg jqlmoknigoglljkill jqijoooimimfnhomng iqnnmooijfhfmfnkjk iqillkinjnnhkjhlfi iqfknhinkfmmgkfnmf hqmokikooliljffifi hqkfmhhkhgfkhifngl hqhnffflnfkkoglkjn gqmmhonmnijoikjmjg gqhgfgkommjlomnifh fqnlnohigkhjkjhkmm 
  1
 Y n Y o " V V |
  1
/061+ {rn rhqjmifligikgihkmln rliqofnhknflflmkjfm o |
  1
/061+ {rn rfqnnmogljhikllifol rliqoflgjfgomfnohmg o |
  1
,+->687+r<*-): {rn rkqiolkkmnmghiohngg rllqijniinikkoohiok o nqfffffggjlnomnhjn roqoomnkngiioojnojinfi o V V |
  1
/061+ {rn rkqiolkkmnmghiohngg rllqijniinikkoohiok o |
  1
/061+ {rn rlqommmhgmofminmghk rllqijlljkfijiomkhj o |
  0
REGION
  5
282
330
1F
100
AcDbEntity
  8
5
100
AcDbModelerGeometry
 70
     1
  1
koo mi n o          
  1
h J1410(1 nl ^ \VL kqoqm QK mk K7* [:< nl nnengeno mooh 
  1
rn fqfffffffffffffffj:rooh n:rono 
  1
=0;& {rn {n {rn {rn |
  1
3*2/ {rn {rn {m {o |
  1
,7:33 {rn {rn {rn {l {rn {n |
  1
9><: {rn {rn {k {m {rn {j 90-(>-; ;0*=3: 0*+ |
  1
300/ {rn {rn {i {l |
  1
/3>1:r,*-9><: {rn rnoqghlgmllfnjklmmi rlkqfihhlkjkhojonkm o o o n m o o 90-(>-;@) V V V V |
  1
<0:;8: {rn {h {g {rn {f -:):-,:; {k {rn |
  1
<0:;8: {rn {no {i {rn {nn -:):-,:; {k {rn |
  1
<0:;8: {rn {i {no {rn {nm -:):-,:; {k {rn |
  1
:;8: {rn {nl {nk {i {nj 90-(>-; |
  1
<0:;8: {rn {g {h {rn {ni -:):-,:; {k {rn |
  1
:;8: {rn {nh {nl {h {ng 90-(>-; |
  1
:;8: {rn {nk {nf {g {mo 90-(>-; |
  1
):-+:' {rn {f {mn |
  1
):-+:' {rn {f {mm |
  1
,+->687+r<*-): {rn rnnqhholjilgomffgom rlgqjjgmjjlokjfgofm o o m o V V |
  1
:;8: {rn {nf {nh {no {ml 90-(>-; |
  1
):-+:' {rn {ni {mk |
  1
,+->687+r<*-): {rn rfqfhhmfokomhgiijom rlgqjjgmjjlokjfgofm o rm o o V V |
  1
):-+:' {rn {nm {mj |
  1
,+->687+r<*-): {rn rnnqhholjilgomffgom rlnqlhhmnlhgfjomnfl o m o o V V |
  1
/061+ {rn rnnqhholjilgomffgom rlgqjjgmjjlokjfgofm o |
  1
/061+ {rn rnnqhholjilgomffgom rlnqlhhmnlhgfjomnfl o |
  1
,+->687+r<*-): {rn rfqfhhmfokomhgiijom rlnqlhhmnlhgfjomnfl o o rm o V V |
  1
/061+ {rn rfqfhhmfokomhgiijom rlgqjjgmjjlokjfgofm o |
  1
/061+ {rn rfqfhhmfokomhgiijom rlnqlhhmnlhgfjomnfl o |
  0
REGION
  5
283
330
1F
100
AcDbEntity
  8
5
100
AcDbModelerGeometry
 70
     1
  1
koo ki n o          
  1
h J1410(1 nl ^ \VL kqoqm QK mk K7* [:< nl nnengeno mooh 
  1
rn fqfffffffffffffffj:rooh n:rono 
  1
=0;& {rn {n {rn {rn |
  1
3*2/ {rn {rn {m {o |
  1
,7:33 {rn {rn {rn {l {rn {n |
  1
9><: {rn {rn {k {m {rn {j -:):-,:; ;0*=3: 0*+ |
  1
300/ {rn {rn {i {l |
  1
/3>1:r,*-9><: {rn nhqnmgmkkhfkgjfflg rllqgnjmfonnofmmjll o o o rn rm o o 90-(>-;@) V V V V |
  1
<0:;8: {rn {h {g {rn {f -:):-,:; {k {rn |
  1
<0:;8: {rn {no {i {rn {nn -:):-,:; {k {rn |
  1
<0:;8: {rn {i {nm {rn {nl -:):-,:; {k {rn |
  1
:;8: {rn {nk {nj {i {ni 90-(>-; |
  1
<0:;8: {rn {nh {h {rn {ng -:):-,:; {k {rn |
  1
:;8: {rn {nf {nk {h {mo 90-(>-; |
  1
<0:;8: {rn {g {mn {rn {mm -:):-,:; {k {rn |
  1
:;8: {rn {nj {ml {g {mk 90-(>-; |
  1
):-+:' {rn {f {mj |
  1
):-+:' {rn {f {mi |
  1
,+->687+r<*-): {rn moqmilglohiomhjffk rlmqijjmnomnfmlkhng o rm o o V V |
  1
<0:;8: {rn {mh {no {rn {mg -:):-,:; {k {rn |
  1
:;8: {rn {mf {nf {no {lo 90-(>-; |
  1
):-+:' {rn {ng {ln |
  1
,+->687+r<*-): {rn moqmilglohiomhjffk rlnqliglfgmkmfokfkj o o rm o V V |
  1
<0:;8: {rn {nm {mh {rn {lm -:):-,:; {k {rn |
  1
:;8: {rn {ml {ll {nm {lk 90-(>-; |
  1
):-+:' {rn {nl {lj |
  1
,+->687+r<*-): {rn nhqfkminfihokhnkom rlmqijjmnomnfmlkhng o o rm o V V |
  1
/061+ {rn moqmilglohiomhjffk rlmqijjmnomnfmlkhng o |
  1
/061+ {rn nhqfkminfihokhnkom rlmqijjmnomnfmlkhng o |
  1
<0:;8: {rn {mn {nh {rn {li -:):-,:; {k {rn |
  1
:;8: {rn {lh {mf {nh {lg 90-(>-; |
  1
):-+:' {rn {mg {lf |
  1
,+->687+r<*-): {rn nkqoiofmggffglogfg rlnqliglfgmkmfokfkj o m o o V V |
  1
/061+ {rn moqmilglohiomhjffk rlnqliglfgmkmfokfkj o |
  1
:;8: {rn {ll {ko {mn {kn 90-(>-; |
  1
):-+:' {rn {mm {km |
  1
,+->687+r<*-): {rn nhqfkminfihokhnkom rlgqjgmlknhimlnjhj o rm o o V V |
  1
/061+ {rn nhqfkminfihokhnkom rlgqjgmlknhimlnjhj o |
  1
:;8: {rn {ko {lh {mh {kl 90-(>-; |
  1
):-+:' {rn {li {kk |
  1
,+->687+r<*-): {rn nkqoiofmggffglogfg rlmqijjmnomnfmlkhng o o m o V V |
  1
/061+ {rn nkqoiofmggffglogfg rlnqliglfgmkmfokfkj o |
  1
):-+:' {rn {lm {kj |
  1
,+->687+r<*-): {rn niqmkjjffgkgginkkj rlgqjgmlknhimlnjhj o o m o V V |
  1
/061+ {rn niqmkjjffgkgginkkj rlgqjgmlknhimlnjhj o |
  1
,+->687+r<*-): {rn niqmkjjffgkgginkkj rlmqijjmnomnfmlkhng o rm o o V V |
  1
/061+ {rn nkqoiofmggffglogfg rlmqijjmnomnfmlkhng o |
  1
/061+ {rn niqmkjjffgkgginkkj rlmqijjmnomnfmlkhng o |
  0
REGION
  5
284
330
1F
100
AcDbEntity
  8
5
100
AcDbModelerGeometry
 70
     1
  1
koo mi n o          
  1
h J1410(1 nl ^ \VL kqoqm QK mk K7* [:< nl nnengeno mooh 
  1
rn fqfffffffffffffffj:rooh n:rono 
  1
=0;& {rn {n {rn {rn |
  1
3*2/ {rn {rn {m {o |
  1
,7:33 {rn {rn {rn {l {rn {n |
  1
9><: {rn {rn {k {m {rn {j -:):-,:; ;0*=3: 0*+ |
  1
300/ {rn {rn {i {l |
  1
/3>1:r,*-9><: {rn fqnfkjlkhomgjfjgkh rlkqfiknkllghojikn o o o rn rm o o 90-(>-;@) V V V V |
  1
<0:;8: {rn {h {g {rn {f 90-(>-; {k {rn |
  1
<0:;8: {rn {no {i {rn {nn 90-(>-; {k {rn |
  1
<0:;8: {rn {i {no {rn {nm 90-(>-; {k {rn |
  1
:;8: {rn {nl {nk {i {nj 90-(>-; |
  1
<0:;8: {rn {g {h {rn {ni 90-(>-; {k {rn |
  1
:;8: {rn {nk {nh {h {ng 90-(>-; |
  1
:;8: {rn {nf {nl {g {mo 90-(>-; |
  1
):-+:' {rn {f {mn |
  1
):-+:' {rn {f {mm |
  1
,+->687+r<*-): {rn nlqofkhholongimfij rlgqihmkkljlolgkflf o o m o V V |
  1
:;8: {rn {nh {nf {no {ml 90-(>-; |
  1
):-+:' {rn {nn {mk |
  1
,+->687+r<*-): {rn nlqofkhholongimfij rlnqmjjgklmklhmhggn o rm o o V V |
  1
):-+:' {rn {ni {mj |
  1
,+->687+r<*-): {rn jqmfkmffnolgjinf rlgqihmkkljlolgkflf o m o o V V |
  1
/061+ {rn nlqofkhholongimfij rlgqihmkkljlolgkflf o |
  1
/061+ {rn nlqofkhholongimfij rlnqmjjgklmklhmhggn o |
  1
,+->687+r<*-): {rn jqmfkmffnolgjinf rlnqmjjgklmklhmhggn o o rm o V V |
  1
/061+ {rn jqmfkmffnolgjinf rlnqmjjgklmklhmhggn o |
  1
/061+ {rn jqmfkmffnolgjinf rlgqihmkkljlolgkflf o |
  0
REGION
  5
285
330
1F
100
AcDbEntity
  8
5
100
AcDbModelerGeometry
 70
     1
  1
koo ii n o          
  1
h J1410(1 nl ^ \VL kqoqm QK mk K7* [:< nl nnengeno mooh 
  1
rn fqfffffffffffffffj:rooh n:rono 
  1
=0;& {rn {n {rn {rn |
  1
3*2/ {rn {rn {m {o |
  1
,7:33 {rn {rn {rn {l {rn {n |
  1
9><: {rn {rn {k {m {rn {j -:):-,:; ;0*=3: 0*+ |
  1
300/ {rn {rn {i {l |
  1
/3>1:r,*-9><: {rn fqmohnfnkllojlnjkn rlkqfhjlhooominolnf o o o rn rm o o 90-(>-;@) V V V V |
  1
<0:;8: {rn {h {g {rn {f 90-(>-; {k {rn |
  1
<0:;8: {rn {no {i {rn {nn 90-(>-; {k {rn |
  1
<0:;8: {rn {i {nm {rn {nl 90-(>-; {k {rn |
  1
:;8: {rn {nk {nj {i {ni 90-(>-; |
  1
<0:;8: {rn {nh {h {rn {ng 90-(>-; {k {rn |
  1
:;8: {rn {nj {nf {h {mo 90-(>-; |
  1
<0:;8: {rn {g {mn {rn {mm 90-(>-; {k {rn |
  1
:;8: {rn {ml {nk {g {mk 90-(>-; |
  1
):-+:' {rn {f {mj |
  1
):-+:' {rn {f {mi |
  1
,+->687+r<*-): {rn nmqlkkkomfnmmfimgf rljqhhkhjmjmkkhmhi o o m o V V |
  1
<0:;8: {rn {mh {no {rn {mg 90-(>-; {k {rn |
  1
:;8: {rn {nf {mf {no {lo 90-(>-; |
  1
):-+:' {rn {nn {ln |
  1
,+->687+r<*-): {rn nmqlkkkomfnmmfimgf rlkqnhjfghkgohkhgmn o rm o o V V |
  1
<0:;8: {rn {nm {lm {rn {ll 90-(>-; {k {rn |
  1
:;8: {rn {lk {ml {nm {lj 90-(>-; |
  1
):-+:' {rn {mm {li |
  1
,+->687+r<*-): {rn noqnkommhlohifohli rljqhhkhjmjmkkhmhi o m o o V V |
  1
/061+ {rn nmqlkkkomfnmmfimgf rljqhhkhjmjmkkhmhi o |
  1
/061+ {rn nmqlkkkomfnmmfimgf rlkqnhjfghkgohkhgmn o |
  1
<0:;8: {rn {lh {nh {rn {lg 90-(>-; {k {rn |
  1
:;8: {rn {mf {lf {nh {ko 90-(>-; |
  1
):-+:' {rn {ng {kn |
  1
,+->687+r<*-): {rn noqnkommhlohifohli rlkqnhjfghkgohkhgmn o o m o V V |
  1
/061+ {rn noqnkommhlohifohli rlkqnhjfghkgohkhgmn o |
  1
<0:;8: {rn {mn {km {rn {kl 90-(>-; {k {rn |
  1
:;8: {rn {kk {lk {mn {kj 90-(>-; |
  1
):-+:' {rn {ll {ki |
  1
,+->687+r<*-): {rn noqnkommhlohifohli rlhqflgfljhhknjogil o o m o V V |
  1
/061+ {rn noqnkommhlohifohli rljqhhkhjmjmkkhmhi o |
  1
<0:;8: {rn {kh {mh {rn {kg 90-(>-; {k {rn |
  1
:;8: {rn {lf {kf {mh {jo 90-(>-; |
  1
):-+:' {rn {mg {jn |
  1
,+->687+r<*-): {rn noqnkommhlohifohli rlmqonngokmlnoifgln o rm o o V V |
  1
/061+ {rn noqnkommhlohifohli rlmqonngokmlnoifgln o |
  1
<0:;8: {rn {lm {kh {rn {jm 90-(>-; {k {rn |
  1
:;8: {rn {jl {kk {lm {jk 90-(>-; |
  1
):-+:' {rn {kl {jj |
  1
,+->687+r<*-): {rn gqmihijljolnohmgln rlhqflgfljhhknjogil o m o o V V |
  1
/061+ {rn noqnkommhlohifohli rlhqflgfljhhknjogil o |
  1
<0:;8: {rn {km {lh {rn {ji 90-(>-; {k {rn |
  1
:;8: {rn {kf {jh {lh {jg 90-(>-; |
  1
):-+:' {rn {lg {jf |
  1
,+->687+r<*-): {rn gqmihijljolnohmgln rlmqonngokmlnoifgln o o rm o V V |
  1
/061+ {rn gqmihijljolnohmgln rlmqonngokmlnoifgln o |
  1
:;8: {rn {io {jl {km {in 90-(>-; |
  1
):-+:' {rn {jm {im |
  1
,+->687+r<*-): {rn gqmihijljolnohmgln rljqhjjmjjjhgfnfggi o o rm o V V |
  1
/061+ {rn gqmihijljolnohmgln rlhqflgfljhhknjogil o |
  1
:;8: {rn {jh {io {kh {il 90-(>-; |
  1
):-+:' {rn {kg {ik |
  1
,+->687+r<*-): {rn gqmihijljolnohmgln rlkqnfjkgkkmiloogog o rm o o V V |
  1
/061+ {rn gqmihijljolnohmgln rlkqnfjkgkkmiloogog o |
  1
):-+:' {rn {ji {ij |
  1
,+->687+r<*-): {rn iqogmfgkoikkmiimjj rljqhjjmjjjhgfnfggi o m o o V V |
  1
/061+ {rn gqmihijljolnohmgln rljqhjjmjjjhgfnfggi o |
  1
,+->687+r<*-): {rn iqogmfgkoikkmiimjj rlkqnfjkgkkmiloogog o o rm o V V |
  1
/061+ {rn iqogmfgkoikkmiimjj rlkqnfjkgkkmiloogog o |
  1
/061+ {rn iqogmfgkoikkmiimjj rljqhjjmjjjhgfnfggi o |
  0
REGION
  5
286
330
1F
100
AcDbEntity
  8
5
100
AcDbModelerGeometry
 70
     1
  1
koo li n o          
  1
h J1410(1 nl ^ \VL kqoqm QK mk K7* [:< nl nnengeno mooh 
  1
rn fqfffffffffffffffj:rooh n:rono 
  1
=0;& {rn {n {rn {rn |
  1
3*2/ {rn {rn {m {o |
  1
,7:33 {rn {rn {rn {l {rn {n |
  1
9><: {rn {rn {k {m {rn {j -:):-,:; ;0*=3: 0*+ |
  1
300/ {rn {rn {i {l |
  1
/3>1:r,*-9><: {rn koqmlgghfmooiklhlh rljqhkfkhljlihomlmj o o o rn rm o o 90-(>-;@) V V V V |
  1
<0:;8: {rn {h {g {rn {f 90-(>-; {k {rn |
  1
<0:;8: {rn {no {i {rn {nn 90-(>-; {k {rn |
  1
<0:;8: {rn {i {nm {rn {nl 90-(>-; {k {rn |
  1
:;8: {rn {nk {nj {i {ni 90-(>-; |
  1
<0:;8: {rn {nh {h {rn {ng 90-(>-; {k {rn |
  1
:;8: {rn {nj {nf {h {mo 90-(>-; |
  1
<0:;8: {rn {g {nh {rn {mn 90-(>-; {k {rn |
  1
:;8: {rn {mm {nk {g {ml 90-(>-; |
  1
):-+:' {rn {f {mk |
  1
):-+:' {rn {f {mj |
  1
,+->687+r<*-): {rn lfqjkmkikonglilggh rlhqmghfnlmlnmihhg o o m o V V |
  1
<0:;8: {rn {nm {no {rn {mi 90-(>-; {k {rn |
  1
:;8: {rn {nf {mh {no {mg 90-(>-; |
  1
):-+:' {rn {nn {mf |
  1
,+->687+r<*-): {rn lfqjkmkikonglilggh rlnqlhlfghohijnkjgn o rm o o V V |
  1
:;8: {rn {lo {mm {nm {ln 90-(>-; |
  1
):-+:' {rn {mn {lm |
  1
,+->687+r<*-): {rn klqmmflifjmlhkjnoi rlhqmghfnlmlnmihhg o rm o o V V |
  1
/061+ {rn lfqjkmkikonglilggh rlhqmghfnlmlnmihhg o |
  1
/061+ {rn lfqjkmkikonglilggh rlnqlhlfghohijnkjgn o |
  1
:;8: {rn {mh {lo {nh {ll 90-(>-; |
  1
):-+:' {rn {ng {lk |
  1
,+->687+r<*-): {rn lhqfkkgokojfgmmnin rlnqlhlfghohijnkjgn o o rm o V V |
  1
/061+ {rn lhqfkkgokojfgmmnin rlnqlhlfghohijnkjgn o |
  1
):-+:' {rn {mi {lj |
  1
,+->687+r<*-): {rn klqmmflifjmlhkjnoi rlgqjgijmolomlmkinj o o m o V V |
  1
/061+ {rn klqmmflifjmlhkjnoi rlhqmghfnlmlnmihhg o |
  1
,+->687+r<*-): {rn lhqfkkgokojfgmmnin rlgqjgijmolomlmkinj o m o o V V |
  1
/061+ {rn lhqfkkgokojfgmmnin rlgqjgijmolomlmkinj o |
  1
/061+ {rn klqmmflifjmlhkjnoi rlgqjgijmolomlmkinj o |
  0
REGION
  5
287
330
1F
100
AcDbEntity
  8
5
100
AcDbModelerGeometry
 70
     1
  1
koo nn n o          
  1
h J1410(1 nl ^ \VL kqoqm QK mk K7* [:< nl nnengeno mooh 
  1
rn fqfffffffffffffffj:rooh n:rono 
  1
=0;& {rn {n {rn {rn |
  1
3*2/ {rn {rn {m {o |
  1
,7:33 {rn {rn {rn {l {rn {n |
  1
9><: {rn {rn {k {m {rn {j 90-(>-; ;0*=3: 0*+ |
  1
300/ {rn {rn {i {l |
  1
/3>1:r,*-9><: {rn lmqfmnonnkmgjjikgl rljqooogjifljknnmj o o o n m o o 90-(>-;@) V V V V |
  1
<0:;8: {rn {i {i {rn {h 90-(>-; {k {rn |
  1
:;8: {rn {g {g {i {f 90-(>-; |
  1
):-+:' {rn {h {no |
  1
61+<*-):r<*-): {rn 90-(>-; $ :'><+<*- 1*=, l <30,:; mg 
  1
 o l oqjmgoifhjffkokifih n oqflmofglijffhhnlml n nqloihiinnoohnkhhg n nqhiljkmjkiinmjogl n 
  1
 mqnnnognoonkmogkkg n mqjillgijfimjkjnik n lqoflnkgomngmkggl n lqjiofnfmlfomimlli n lqfhkfokkklhhjkhig n 
  1
 kqmmmiimiinffogokn n kqimoijkgflgjimkgi n jqnhnhjmjiknoghohf n jqgjhnohgjlmjimmmm n iqmifnifjjikfnhhif n 
  1
 iqinofhklnkknfofok n hqojhfikfhomnjoklj n hqkjfhiggmgmmilljf n hqflgljnffjgoflgkm n gqlkmoookkglnihffl n 
  1
 gqjgkiohmfjkmmgjfi n fqnjglfmnhjohhikfk n fqijimfofkfkhflmmn n noqnoogkffjggjfkfl n noqjokghfmojlgjmoi n 
  1
 noqgklkglgogmlgfkh n nnqoiggghmhoijglhi n nnqhjkmognioiokmgh l 
  1
 lmqmnmlmomlhnngfkj rlnqlmnnjkginngffmj o 
  1
 lnqgihkfholomjhomh rlnqlffinhhgoinjhff o 
  1
 lnqmjggkhfffmglii rlnqjlgnnloknnjfiim o 
  1
 loqkfimiijnmlhfjhh rlnqffghoonghmliijn o 
  1
 mfqfhiiifgmmnjlhgn rlmqikffgolhflngfin o 
  1
 mfqjfhmnkofoofijkl rllqllfffjloomknlfg o 
  1
 mfqlojmohmikijnhji rlkqnlmlfigooljkjgk o 
  1
 mfqmlilfmfinhkjogm rljqommoklgfhfiofmh o 
  1
 mfqmhiohligonljjfi rljqfffnlfojggofgol o 
  1
 mfqilfhnmiijjhongh rliqggnfgnofimgjml o 
  1
 loqohkhnhmkmimogik rlhqjohlinglknngngi o 
  1
 loqinlkofoikfnoojf rlhqfihghnnjnfmgfhj o 
  1
 lnqmgmklmkjlomfml rlgqknkgkoglgihmjgf o 
  1
 lmqljlmkmihmfmijif rlgqhokkhojohkfkiim o 
  1
 llqkinnoiiojkikhkf rlgqhnjffhgngohonfl o 
  1
 lkqknmjoklfoflgmlg rlgqjogmgnilijjkhnl o 
  1
 ljqnolmoimngjlgnoj rlgqofinkmlngofklg o 
  1
 ljqhiolojgimmofoof rlhqilommhhfhgjmlmg o 
  1
 liqmlnlojkjmkojghh rliqgimihffklnglonn o 
  1
 liqjmgijojigioimmk rliqojjmfingmjkmojn o 
  1
 liqilmkknjnfihgflj rljqlohoffimigjolom o 
  1
 liqilmjlhjjiiiflhi rlkqkfljljfjoogfhog o 
  1
 liqkhgjmgjjihnnkn rllqinijjihogjokfni o 
  1
 liqooioolkhfgofgil rlmqhogjkhoojhkmlhj o 
  1
 ljqkoomligffofmkhh rlmqolmggjfflmninfg o 
  1
 lkqhmonkhmjikflloi rlnqiojffooigkmoilg o 
  1
 lkqnonnffjhigjfknj rlnqknmlilnioghgoom o 
  1
 llqmgmljomlhgfoojh rlnqmkifflmmgkkloln o 
  1
 lmqihnhhhogmihjnlj rlnqmgflnogmgfkfnmh o 
  1
 lmqmnmlmomlhnngfkj rlnqlmnnjkginngffmj o 
  1
 o 
  1
 1*33@,*-9><: 
  1
 1*33@,*-9><: 
  1
 1*33=, 
  1
 1*33=, 
  1
 V V 
  1
 o 
  1
 o 
  3
 mi oqjmgoifhjffkokifih oqflmofglijffhhnlml nqloihiinnoohnkhhg nqhiljkmjkiinmjogl mqnnnognoonkmogkkg mqjillgijfimjkjnik lqoflnkgomngmkggl lqjiofnfmlfomimlli lqfhkfokkklhhjkhig kqmmmiimiinffogokn kqimoijkgflgjimkgi jqnhnhjmjiknoghohf jqgjhnohgjlmjimmmm iqm
  1
ifnifjjikfnhhif iqinofhklnkknfofok hqojhfikfhomnjoklj hqkjfhiggmgmmilljf hqflgljnffjgoflgkm gqlkmoookkglnihffl gqjgkiohmfjkmmgjfi fqnjglfmnhjohhikfk fqijimfofkfkhflmmn noqnoogkffjggjfkfl noqjokghfmojlgjmoi noqgklkglgogmlgfkh nnqoiggghmhoijglhi 
  1
 Y n Y o " V V |
  1
/061+ {rn lmqmnmlmomlhnngfkj rlnqlmnnjkginngffmj o |
  0
REGION
  5
288
330
1F
100
AcDbEntity
  8
5
100
AcDbModelerGeometry
 70
     1
  1
koo nn n o          
  1
h J1410(1 nl ^ \VL kqoqm QK mk K7* [:< nl nnengeno mooh 
  1
rn fqfffffffffffffffj:rooh n:rono 
  1
=0;& {rn {n {rn {rn |
  1
3*2/ {rn {rn {m {o |
  1
,7:33 {rn {rn {rn {l {rn {n |
  1
9><: {rn {rn {k {m {rn {j 90-(>-; ;0*=3: 0*+ |
  1
300/ {rn {rn {i {l |
  1
/3>1:r,*-9><: {rn mkqjfjiiijljilmfnj rljqooogjifljknnmj o o o n m o o 90-(>-;@) V V V V |
  1
<0:;8: {rn {i {i {rn {h 90-(>-; {k {rn |
  1
:;8: {rn {g {g {i {f 90-(>-; |
  1
):-+:' {rn {h {no |
  1
61+<*-):r<*-): {rn 90-(>-; $ :'><+<*- 1*=, l <30,:; mg 
  1
 o l oqjmgoifhjffkokifih n oqflmofglijffhhnlml n nqloihiinnoohnkhhg n nqhiljkmjkiinmjogl n 
  1
 mqnnnognoonkmogkkg n mqjillgijfimjkjnik n lqoflnkgomngmkggl n lqjiofnfmlfomimlli n lqfhkfokkklhhjkhig n 
  1
 kqmmmiimiinffogokn n kqimoijkgflgjimkgi n jqnhnhjmjiknoghohf n jqgjhnohgjlmjimmmm n iqmifnifjjikfnhhif n 
  1
 iqinofhklnkknfofok n hqojhfikfhomnjoklj n hqkjfhiggmgmmilljf n hqflgljnffjgoflgkm n gqlkmoookkglnihffl n 
  1
 gqjgkiohmfjkmmgjfi n fqnjglfmnhjohhikfk n fqijimfofkfkhflmmn n noqnoogkffjggjfkfl n noqjokghfmojlgjmoi n 
  1
 noqgklkglgogmlgfkh n nnqoiggghmhoijglhi n nnqhjkmognioiokmgh l 
  1
 mlqggifhjlkknfjlhg rlnqlmnnjkginngffmj o 
  1
 mlqjkmnjmnlhlllki rlnqlffinhhgoinjhff o 
  1
 mmqflljolnoilioofm rlnqjlgnnloknnjfiim o 
  1
 mmqnhofmninfkjion rlnqffghoonghmliijn o 
  1
 mnqijnlmkfmfmlomnl rlmqikffgolhflngfin o 
  1
 mnqmhngifnfhnhmfhj rllqllfffjloomknlfg o 
  1
 moqfhfgimlhnhmgngg rlkqnlmlfigooljkjgk o 
  1
 moqfnnokgoiggmnjnj rljqommoklgfhfiofmh o 
  1
 moqfjohmghghmnmomf rljqfffnlfojggofgol o 
  1
 mnqlnklihhhmikiinf rliqggnfgnofimgjml o 
  1
 mnqhkflhmlkfifhmfi rlhqjohlinglknngngi o 
  1
 mmqmggoiknhnfgikfn rlhqfihghnnjnfmgfhj o 
  1
 mmqfjhoghjionojiil rlgqknkgkoglgihmjgf o 
  1
 mkqomhgfhhgoooloom rlgqhokkhojohkfkiim o 
  1
 mjqnljhinhnmjknngm rlgqhnjffhgngohonfl o 
  1
 miqoghnjfkfgonkihn rlgqjogmgnilijjkhnl o 
  1
 miqhhhginlmjinkjlg rlgqofinkmlngofklg o 
  1
 mhqklkfiofifmgjkkn rlhqilommhhfhgjmlmg o 
  1
 mhqfojfiojjfkgmln rliqgimihffklnglonn o 
  1
 mgqmollojihjigmijh rliqojjmfingmjkmojn o 
  1
 mgqlohofiimihjjlih rljqlohoffimigjolom o 
  1
 mgqlohnfmiilhkjgof rlkqkfljljfjoogfhog o 
  1
 mgqnjlngliilhghgkl rllqinijjihogjokfni o 
  1
 mhqigoijgjgiggimfj rlmqhogjkhoojhkmlhj o 
  1
 mhqohkgfmooinigfof rlmqolmggjfflmninfg o 
  1
 miqlfkgomliljifhlg rlnqiojffooigkmoilg o 
  1
 mjqhhjgjkiglfljgkh rlnqknmlilnioghgoom o 
  1
 mkqfjhoojlkkfiikf rlnqmkifflmmgkkloln o 
  1
 mkqlkiklmngfhjnjih rlnqmgflnogmgfkfnmh o 
  1
 mlqggifhjlkknfjlhg rlnqlmnnjkginngffmj o 
  1
 o 
  1
 1*33@,*-9><: 
  1
 1*33@,*-9><: 
  1
 1*33=, 
  1
 1*33=, 
  1
 V V 
  1
 o 
  1
 o 
  3
 mi oqjmgoifhjffkokifih oqflmofglijffhhnlml nqloihiinnoohnkhhg nqhiljkmjkiinmjogl mqnnnognoonkmogkkg mqjillgijfimjkjnik lqoflnkgomngmkggl lqjiofnfmlfomimlli lqfhkfokkklhhjkhig kqmmmiimiinffogokn kqimoijkgflgjimkgi jqnhnhjmjiknoghohf jqgjhnohgjlmjimmmm iqm
  1
ifnifjjikfnhhif iqinofhklnkknfofok hqojhfikfhomnjoklj hqkjfhiggmgmmilljf hqflgljnffjgoflgkm gqlkmoookkglnihffl gqjgkiohmfjkmmgjfi fqnjglfmnhjohhikfk fqijimfofkfkhflmmn noqnoogkffjggjfkfl noqjokghfmojlgjmoi noqgklkglgogmlgfkh nnqoiggghmhoijglhi 
  1
 Y n Y o " V V |
  1
/061+ {rn mlqggifhjlkknfjlhg rlnqlmnnjkginngffmj o |
  0
REGION
  5
289
330
1F
100
AcDbEntity
  8
5
100
AcDbModelerGeometry
 70
     1
  1
koo nn n o          
  1
h J1410(1 nl ^ \VL kqoqm QK mk K7* [:< nl nnengeno mooh 
  1
rn fqfffffffffffffffj:rooh n:rono 
  1
=0;& {rn {n {rn {rn |
  1
3*2/ {rn {rn {m {o |
  1
,7:33 {rn {rn {rn {l {rn {n |
  1
9><: {rn {rn {k {m {rn {j 90-(>-; ;0*=3: 0*+ |
  1
300/ {rn {rn {i {l |
  1
/3>1:r,*-9><: {rn mkqioogjojkllnhmmm rlkqfilgflggommlhmm o o o n m o o 90-(>-;@) V V V V |
  1
<0:;8: {rn {i {i {rn {h 90-(>-; {k {rn |
  1
:;8: {rn {g {g {i {f 90-(>-; |
  1
):-+:' {rn {h {no |
  1
61+<*-):r<*-): {rn 90-(>-; $ :'><+<*- 1*=, l <30,:; ml 
  1
 o l oqkoojgnkjmnohkngg n oqhmihiglnghjgffgin n nqojhklkhohmkfhol n nqklknomhhhhofhofh n 
  1
 nqgoifmlifgglhonh n mqljmfhomjhfinmnjn n mqhnlhonofgokhfhml n mqfgjifgglmmmggjih n lqljjojkfjnhjoihji n 
  1
 lqiffhngmihljfiggf n lqfhllnfokkkifnlfj n kqnfhlimgmimnjgnhi n kqljfofhlmhgfkhkg n kqjfkhggnfmglimhhf n 
  1
 kqfllohoihkgffhinh n jqlmjlmjimoogggkon n jqiklmikikjnoglgmn n iqonjoofjlkgojjgji n iqlkmfomgffhhgnjij n 
  1
 iqikfhmnlikhffhogm n iqfngojijnjjghhmfg n hqofnjnggkhoiliojh l 
  1
 mkqjgnfinmlmmkmoog rlmqioikffljihjjgim o 
  1
 mkqlnjnmgfgjlkfhom rlmqimghhfmjfhnhlkg o 
  1
 mlqglnonfikmigngfj rlmqiifmonlmoolojmk o 
  1
 mlqnhognljfnkmfkik rllqooggilgjhgkjmff o 
  1
 mmqgkglkgigoimlikk rllqikhgmfnlnghnggh o 
  1
 mmqikfhffjgmlhgoml rlkqllmmnhoionjihog o 
  1
 mmqkhohmjjlfhokooi rljqnfkfgnlhogoljhj o 
  1
 mmqhnimnigfjkgokkl rliqolnilkonomijlik o 
  1
 mlqolomnmmfnjjmhkl rliqhhkkfmoiihkonlh o 
  1
 mlqjfinglhninjimkh rlhqnifihflnflnlkgg o 
  1
 mkqmlmjnmhomholllm rlhqlinlngokjiiofml o 
  1
 mkqgffkjmmkkjfjfmn rlhqlgmohfonikokkok o 
  1
 mjqkjolollfjfmnjlh rlhqmknijlknklminfk o 
  1
 mjqglgjggjflnihkjg rlhqomgoolkmljlokmn o 
  1
 miqnjlgnggkkklolin rliqhjmolmgiiliklln o 
  1
 miqlfooilhhgnnlhji rliqlnnnjiljlhiofj o 
  1
 miqjilggiljhkmflk rljqifnhfknmjmkmgmm o 
  1
 miqhonilgginmmjofm rlkqffgimmmohfkfig o 
  1
 miqioolnjkkngllhkl rlkqmhmhnlojlggjnnl o 
  1
 miqlkghhiiflnmhhng rllqiklkkfnhmmnimjn o 
  1
 miqonhnfgkgfkillfh rllqokngoonffmkohnn o 
  1
 mjqkgkfllfnlniomoj rlmqhnjgogohfofmjjk o 
  1
 mkqffmfkogmjfliihn rlmqiooliomlhoflmgk o 
  1
 mkqifhglonlllkjif rlmqiokhigjllkhkm o 
  1
 mkqjgnfinmlmmkmoog rlmqioikffljihjjgim o 
  1
 o 
  1
 1*33@,*-9><: 
  1
 1*33@,*-9><: 
  1
 1*33=, 
  1
 1*33=, 
  1
 V V 
  1
 o 
  1
 o 
  3
 mn oqkoojgnkjmnohkngg oqhmihiglnghjgffgin nqojhklkhohmkfhol nqklknomhhhhofhofh nqgoifmlifgglhonh mqljmfhomjhfinmnjn mqhnlhonofgokhfhml mqfgjifgglmmmggjih lqljjojkfjnhjoihji lqiffhngmihljfiggf lqfhllnfokkkifnlfj kqnfhlimgmimnjgnhi kqljfofhlmhgfkhkg kqjfkh
  1
ggnfmglimhhf kqfllohoihkgffhinh jqlmjlmjimoogggkon jqiklmikikjnoglgmn iqonjoofjlkgojjgji iqlkmfomgffhhgnjij iqikfhmnlikhffhogm iqfngojijnjjghhmfg 
  1
 Y n Y o " V V |
  1
/061+ {rn mkqjgnfinmlmmkmoog rlmqioikffljihjjgim o |
  0
REGION
  5
28A
330
1F
100
AcDbEntity
  8
5
100
AcDbModelerGeometry
 70
     1
  1
koo nn n o          
  1
h J1410(1 nl ^ \VL kqoqm QK mk K7* [:< nl nnengeno mooh 
  1
rn fqfffffffffffffffj:rooh n:rono 
  1
=0;& {rn {n {rn {rn |
  1
3*2/ {rn {rn {m {o |
  1
,7:33 {rn {rn {rn {l {rn {n |
  1
9><: {rn {rn {k {m {rn {j 90-(>-; ;0*=3: 0*+ |
  1
300/ {rn {rn {i {l |
  1
/3>1:r,*-9><: {rn lmqfminfjklimkohgf rlkqfilgflggommlhmm o o o n m o o 90-(>-;@) V V V V |
  1
<0:;8: {rn {i {i {rn {h 90-(>-; {k {rn |
  1
:;8: {rn {g {g {i {f 90-(>-; |
  1
):-+:' {rn {h {no |
  1
61+<*-):r<*-): {rn 90-(>-; $ :'><+<*- 1*=, l <30,:; ml 
  1
 o l oqkoojgnkjmnohkngg n oqhmihiglnghjgffgin n nqojhklkhohmkfhol n nqklknomhhhhofhofh n 
  1
 nqgoifmlifgglhonh n mqljmfhomjhfinmnjn n mqhnlhonofgokhfhml n mqfgjifgglmmmggjih n lqljjojkfjnhjoihji n 
  1
 lqiffhngmihljfiggf n lqfhllnfokkkifnlfj n kqnfhlimgmimnjgnhi n kqljfofhlmhgfkhkg n kqjfkhggnfmglimhhf n 
  1
 kqfllohoihkgffhinh n jqlmjlmjimoogggkon n jqiklmikikjnoglgmn n iqonjoofjlkgojjgji n iqlkmfomgffhhgnjij n 
  1
 iqikfhmnlikhffhogm n iqfngojijnjjghhmfg n hqofnjnggkhoiliojh l 
  1
 lmqfohloinmjnijjhi rlmqioikffljihjjgim o 
  1
 lmqikokhlghgmhlmif rlmqimghhfmjfhnhlkg o 
  1
 lmqnjilikjljiojkim rlmqiifmonlmoolojmk o 
  1
 lnqkfinjgkgkljlolm rllqooggilgjhgkjmff o 
  1
 lnqnhlifljhljkhmnm rllqikhgmfnlnghnggh o 
  1
 loqfhjnkkkhjlonjf rlkqllmmnhoionjihog o 
  1
 loqhfiohoklmimhjhl rljqnfkfgnlhogoljhj o 
  1
 lnqoknjinhggkokon rliqolnilkonomijlik o 
  1
 lnqljjjjhngkkhilnn rliqhhkkfmoiihkonlh o 
  1
 lnqfmnjmgiofohfgnk rlhqnifihflnflnlkgg o 
  1
 lmqjjhgjhjfjimigff rlhqlinlngokjiiofml o 
  1
 llqmmkhfhnlhjnfkgg rlhqlgmohfonikokkok o 
  1
 llqhhjikgmgggkjnoj rlhqmknijlknklminfk o 
  1
 lkqnilfllkgiofnomj rlhqomgoolkmljlokmn o 
  1
 lkqkhfnilhlhljlfmf rliqhjmolmgiiliklln o 
  1
 lkqhnjkogihnolhlmk rliqlnnnjiljlhiofj o 
  1
 lkqggfmlnmjoljmfoh rljqifnhfknmjmkmgmm o 
  1
 ljqomifglhjknkgii rlkqffgimmmohfkfig o 
  1
 lkqfmjiiollkhjhln rlkqmhmhnlojlggjnnl o 
  1
 lkqihknmnjgiojnmgj rllqiklkkfnhmmnimjn o 
  1
 lkqlkmjkllgmlgifik rllqokngoonffmkohnn o 
  1
 llqgnomhggoioglhhm rlmqhnjgogohfofmjjk o 
  1
 llqlngmgjhnggiomlg rlmqiooliomlhoflmgk o 
  1
 llqomlnhjomimifmjh rlmqiokhigjllkhkm o 
  1
 lmqfohloinmjnijjhi rlmqioikffljihjjgim o 
  1
 o 
  1
 1*33@,*-9><: 
  1
 1*33@,*-9><: 
  1
 1*33=, 
  1
 1*33=, 
  1
 V V 
  1
 o 
  1
 o 
  3
 mn oqkoojgnkjmnohkngg oqhmihiglnghjgffgin nqojhklkhohmkfhol nqklknomhhhhofhofh nqgoifmlifgglhonh mqljmfhomjhfinmnjn mqhnlhonofgokhfhml mqfgjifgglmmmggjih lqljjojkfjnhjoihji lqiffhngmihljfiggf lqfhllnfokkkifnlfj kqnfhlimgmimnjgnhi kqljfofhlmhgfkhkg kqjfkh
  1
ggnfmglimhhf kqfllohoihkgffhinh jqlmjlmjimoogggkon jqiklmikikjnoglgmn iqonjoofjlkgojjgji iqlkmfomgffhhgnjij iqikfhmnlikhffhogm iqfngojijnjjghhmfg 
  1
 Y n Y o " V V |
  1
/061+ {rn lmqfohloinmjnijjhi rlmqioikffljihjjgim o |
  0
REGION
  5
28B
330
1F
100
AcDbEntity
  8
5
100
AcDbModelerGeometry
 70
     1
  1
koo mi n o          
  1
h J1410(1 nl ^ \VL kqoqm QK mk K7* [:< nl nnengeno mooh 
  1
rn fqfffffffffffffffj:rooh n:rono 
  1
=0;& {rn {n {rn {rn |
  1
3*2/ {rn {rn {m {o |
  1
,7:33 {rn {rn {rn {l {rn {n |
  1
9><: {rn {rn {k {m {rn {j 90-(>-; ;0*=3: 0*+ |
  1
300/ {rn {rn {i {l |
  1
/3>1:r,*-9><: {rn kiqgjhngoogihmonhh rlkqfimfjjomihfjijj o o o n m o o 90-(>-;@) V V V V |
  1
<0:;8: {rn {h {g {rn {f 90-(>-; {k {rn |
  1
<0:;8: {rn {no {i {rn {nn -:):-,:; {k {rn |
  1
<0:;8: {rn {i {no {rn {nm 90-(>-; {k {rn |
  1
:;8: {rn {nl {nk {i {nj 90-(>-; |
  1
<0:;8: {rn {g {h {rn {ni 90-(>-; {k {rn |
  1
:;8: {rn {nh {nk {h {ng 90-(>-; |
  1
:;8: {rn {nf {nl {g {mo 90-(>-; |
  1
):-+:' {rn {f {mn |
  1
):-+:' {rn {f {mm |
  1
,+->687+r<*-): {rn kjqmhjmfmmoohfnnhn rliqofnhknflflmkjfm o rnqfffffgmnkfmjoklf roqoomihmnlllkfklhngfk o V V |
  1
:;8: {rn {nh {nf {no {ml 90-(>-; |
  1
):-+:' {rn {nn {mk |
  1
61+<*-):r<*-): {rn 90-(>-; $ :'><+<*- 1*=, l 0/:1 mk 
  1
 o l oqligokiljfljmjmjj n oqikiffjgmifofigklg n nqoigjglohkoojklhk n nqiohihjljnioiinng n 
  1
 nqfhmmojknmiffgfof n mqnfkhjgmkmhhogjlf n mqioinmmijimmmlmmg n lqnlhnlfiiikkokmkj n lqifnmlfgjmonggmhk n 
  1
 kqokoilfionkiiffnk n kqlffkggihjloikjmk n kqgnjjkihfkomhonmj n jqljoknhiinlnnjjjf n jqgnogkngnofmjifjk n 
  1
 iqmmhnfffmkgnlkoni n iqinkmilhmmmoihgkk n hqkgfigmoofjhoomml n hqgihgfiogmnmng n gqmjlnglnofmnkimnl n 
  1
 gqjjhhkmomokmlmfin n gqhimgololoifolglj n fqnknnhijkkiknoojg n fqmjiilgghlkomkimn l 
  1
 kgqnfghgifligfhghj rllqijniinikkoohiok o 
  1
 kgqnhmfkokmfillfnn rllqlflkkokjnjoigoj o 
  1
 kgqnmhjokljlihkhfk rlmqflfjogknljlgill o 
  1
 khqkhnofnifkjmfhhj rlmqjnjfkiokiomjmfm o 
  1
 kiqigomohhghnnmifl rlmqkhjnjgfniifmkj o 
  1
 kjqjfijkgoolihlgln rlmqjofolgikfjhkioi o 
  1
 kjqkhifhmhgmmjglhm rllqkioohkmmjnmhjnk o 
  1
 kjqfgmgnmohgkfggjl rllqfjimklijmnlhnok o 
  1
 kiqhgiojfifnkmjhkg rlkqokmniinmkhfgngi o 
  1
 khqhkloihfgjhignik rlkqmhjofkikknglkmi o 
  1
 kgqifnokkhgngiolkm rlkqkhmnooiliikhhn o 
  1
 kfqkmfmlmgfnmfhlng rlkqgfjmmiofllgoool o 
  1
 kfqfkinmfgolggonmi rljqkhmhgmioililfli o 
  1
 joqnlmiiikokmofkln rliqljnfomnmmoohkkj o 
  1
 kfqffinihmkjlofkfl rlhqlmfojnkmiggklim o 
  1
 kfqlmgmiifmllknmlm rlgqojokjlhlimmijhm o 
  1
 kgqjgmnflmimhjkimf rlgqkkgjmghloigimhh o 
  1
 khqjogghfolgoomkhi rlgqgojnojgingfkmoj o 
  1
 kiqlggnokmlojliiif rlgqifngholihliihkh o 
  1
 kjqlnkllhnfiffmhn rlgqkfihghfgliljffh o 
  1
 kkqiiofhnggfkihhi rlgqnhmoohimhknhljg o 
  1
 kkqmkjhlniiglmojom rlhqhlkolnmlkiiglfl o 
  1
 klqgikoillgljjnknn rlhqmfmmmijogjfoknh o 
  1
 klqhignijgglnfjjfl rliqhmkfjnnnmmglnog o 
  1
 klqhnjlmkkgmnnoom rliqjmgmkkhjjnkflni o 
  1
 klqifonkjkgfmmkfol rliqoflgjfgomfnohmg o 
  1
 o 
  1
 1*33@,*-9><: 
  1
 1*33@,*-9><: 
  1
 1*33=, 
  1
 1*33=, 
  1
 V V 
  1
 o 
  1
 o 
  3
 mm oqligokiljfljmjmjj oqikiffjgmifofigklg nqoigjglohkoojklhk nqiohihjljnioiinng nqfhmmojknmiffgfof mqnfkhjgmkmhhogjlf mqioinmmijimmmlmmg lqnlhnlfiiikkokmkj lqifnmlfgjmonggmhk kqokoilfionkiiffnk kqlffkggihjloikjmk kqgnjjkihfkomhonmj jqljoknhiinlnnjjjf jqg
  1
nogkngnofmjifjk iqmmhnfffmkgnlkoni iqinkmilhmmmoihgkk hqkgfigmoofjhoomml hqgihgfiogmnmng gqmjlnglnofmnkimnl gqjjhhkmomokmlmfin gqhimgololoifolglj fqnknnhijkkiknoojg 
  1
 Y n Y o " V V |
  1
):-+:' {rn {ni {mj |
  1
61+<*-):r<*-): {rn 90-(>-; $ :'><+<*- 1*=, l 0/:1 mg 
  1
 o l oqlfigjomnhmmhnoggk n oqhmihgjfojjnjijimj n nqongknlhimogofofh n nqmhjijkomimihfkmn n 
  1
 nqjjhhfooifjkllfmm n nqginnnojigjoifhom n mqjkkgnlhjikjngfjl n mqgnmoofmlhlingolh n lqokfffiohonmmmllj n 
  1
 lqlloonlmhgjlffngk n lqjhjiljhgilhmngkg n lqflkijnjffnhfgkfk n kqklfnimomimokiofi n kqihhohhmgmkfjfon n 
  1
 kqfjglhmkoiilonmjg n jqlmoknigoglljkill n jqijoooimimfnhomng n iqnnmooijfhfmfnkjk n iqillkinjnnhkjhlfi n 
  1
 iqfknhinkfmmgkfnmf n hqmokikooliljffifi n hqkfmhhkhgfkhifngl n hqhnffflnfkkoglkjn n gqmmhonmnijoikjmjg n 
  1
 gqhgfgkommjlomnifh n fqnlnohigkhjkjhkmm n fqlggifigilfmffjgm l 
  1
 kfqhhffjogjilfhloi rllqijlljkfijiomkhj o 
  1
 kfqhgglmimnfkgfloi rllqlgmfogknngnmklh o 
  1
 kfqgoliikhknikljjf rlmqgghinilfhkjnhij o 
  1
 kfqkjmojifkgjnilnj rlmqmgjmnmiifhkooim o 
  1
 kfqoillkfljoninini rlnqglnihgihimloojj o 
  1
 kgqjkijonkmoioifkk rlnqinogjgmhggohkh o 
  1
 kgqolfhiifgglnmifm rlnqliliiomnilikhhg o 
  1
 khqnfljffffjhmfmkk rlnqmkjgflkfmiflifi o 
  1
 kiqljnmjghojfokmmf rlnqmlonhlofmkihilg o 
  1
 kjqjhnhffknofgninm rlnqlfjiokjjmjmklng o 
  1
 kjqogfkkoljkhimghn rlnqinnlioofmlljlki o 
  1
 kkqigknfmfmghogmmg rlnqfmoggklgfjhfflf o 
  1
 kkqmlojgomifmnnlhl rlmqlohnfkoojikinlf o 
  1
 klqfolggnmmolfohjg rlmqffmjhfhkginklng o 
  1
 klqginlnflfmmkghgg rllqhifihfgkogkfnj o 
  1
 kkqnjigmihjmkikkfh rlkqlfmhonlilniflof o 
  1
 kkqjmikfhffgiofgkn rlkqgijlmkjmmllfgin o 
  1
 kjqnmkfjkgmkohfmgm rljqnjmnollgfikigmj o 
  1
 kjqgkngokihmhmlgih rljqkmmhmhflljjgihi o 
  1
 kiqhoiffnkonlofnjl rljqioojngnmghhofmf o 
  1
 khqjklhhnnilljhfnh rljqhmjflkhhkflhhgk o 
  1
 kgqmilhmokgighhinh rliqonlimomnjgjkook o 
  1
 kgqkfnkjoiljnmgihm rliqjfloljhlfoghlnl o 
  1
 kgqlnhnfgnkklggnon rlhqnjjjkfikoomjlnl o 
  1
 khqijmknlmjhmlhhjk rlhqklnimlnikhhkhfn o 
  1
 kiqgnookllhomolfnk rlhqjnngjojfmgnjoof o 
  1
 kjqhggmlgmljinnjhl rlhqlilfjofffnifhnh o 
  1
 kjqllmgnnoihigifnf rliqiingghjlkilofoh o 
  1
 kjqmfmjfllmhgjofii rliqmilmlilonkmlghl o 
  1
 kjqmhjmfmmoohfnnhn rliqofnhknflflmkjfm o 
  1
 o 
  1
 1*33@,*-9><: 
  1
 1*33@,*-9><: 
  1
 1*33=, 
  1
 1*33=, 
  1
 V V 
  1
 o 
  1
 o 
  3
 mi oqlfigjomnhmmhnoggk oqhmihgjfojjnjijimj nqongknlhimogofofh nqmhjijkomimihfkmn nqjjhhfooifjkllfmm nqginnnojigjoifhom mqjkkgnlhjikjngfjl mqgnmoofmlhlingolh lqokfffiohonmmmllj lqlloonlmhgjlffngk lqjhjiljhgilhmngkg lqflkijnjffnhfgkfk kqklfnimomimokiofi kq
  1
ihhohhmgmkfjfon kqfjglhmkoiilonmjg jqlmoknigoglljkill jqijoooimimfnhomng iqnnmooijfhfmfnkjk iqillkinjnnhkjhlfi iqfknhinkfmmgkfnmf hqmokikooliljffifi hqkfmhhkhgfkhifngl hqhnffflnfkkoglkjn gqmmhonmnijoikjmjg gqhgfgkommjlomnifh fqnlnohigkhjkjhkmm 
  1
 Y n Y o " V V |
  1
/061+ {rn kjqmhjmfmmoohfnnhn rliqofnhknflflmkjfm o |
  1
/061+ {rn klqifonkjkgfmmkfol rliqoflgjfgomfnohmg o |
  1
,+->687+r<*-): {rn kgqnfghgifligfhghj rllqijniinikkoohiok o nqfffffggjlnomnhjn roqoomnkngiioojnojinfi o V V |
  1
/061+ {rn kgqnfghgifligfhghj rllqijniinikkoohiok o |
  1
/061+ {rn kfqhhffjogjilfhloi rllqijlljkfijiomkhj o |
  0
DIMENSION
  5
21A0
330
1F
100
AcDbEntity
  8
2
100
AcDbDimension
  2
*D29
 10
62.19999864689999
 20
25.3443533355
 30
0.0
 11
31.0999997913
 21
25.3443533355
 31
0.0
 70
   160
 42
62.19999885559997
  3
GEN-ISO_TDM
100
AcDbAlignedDimension
 13
-0.0000002086999871
 23
20.7
 33
0.0
 14
62.19999864689999
 24
20.70000022649999
 34
0.0
100
AcDbRotatedDimension
  0
LINE
  5
21A1
330
1F
100
AcDbEntity
  8
3
100
AcDbLine
 10
26.20000019670001
 20
-1.649999991100003
 30
0.0
 11
38.5698713362
 21
-1.649999991100003
 31
0.0
  0
LINE
  5
21A2
330
1F
100
AcDbEntity
  8
3
100
AcDbLine
 10
38.5698713362
 20
1.649999991100003
 30
0.0
 11
26.20000019670001
 21
1.649999991100003
 31
0.0
  0
LINE
  5
21A3
330
1F
100
AcDbEntity
  8
1
100
AcDbLine
 10
39.9000011384
 20
20.99999971690001
 30
0.0
 11
0.29999949030001
 21
20.9999997169
 31
0.0
  0
LINE
  5
21A4
330
1F
100
AcDbEntity
  8
1
100
AcDbLine
 10
0.29999949030001
 20
-20.9999997169
 30
0.0
 11
61.90000101920003
 21
-20.9999997169
 31
0.0
  0
DIMENSION
  5
21A5
330
1F
100
AcDbEntity
  8
SK2
100
AcDbDimension
  2
*D30
 10
-28.9956544433
 20
-20.99999999999999
 30
0.0
 11
-28.99565444329999
 21
0.0
 31
0.0
 70
   160
  1
MBM %%c<>
 42
42.00000000000001
  3
GEN-ISO_TDM
100
AcDbAlignedDimension
 13
0.2999997913000243
 23
21.00000000000001
 33
0.0
 14
0.2999997913000243
 24
-21.0
 34
0.0
 50
90.0
100
AcDbRotatedDimension
  0
LINE
  5
21B1
330
1F
100
AcDbEntity
  8
3
100
AcDbLine
 10
28.00000086420002
 20
5.100000183999995
 30
0.0
 11
0.0
 21
5.100000183999995
 31
0.0
  0
LINE
  5
21B2
330
1F
100
AcDbEntity
  8
3
100
AcDbLine
 10
0.0
 20
-5.100000183999995
 30
0.0
 11
28.00000086420002
 21
-5.100000183999995
 31
0.0
  0
LINE
  5
21E0
330
1F
100
AcDbEntity
  8
3
100
AcDbLine
 10
28.00000086420002
 20
-5.100000183999995
 30
0.0
 11
31.06438741080001
 21
0.0
 31
0.0
  0
LINE
  5
21E1
330
1F
100
AcDbEntity
  8
3
100
AcDbLine
 10
28.00000086420002
 20
5.100000183999995
 30
0.0
 11
28.00000086420002
 21
-5.100000183999995
 31
0.0
  0
LINE
  5
21E2
330
1F
100
AcDbEntity
  8
3
100
AcDbLine
 10
31.06438741080001
 20
0.0
 30
0.0
 11
28.00000086420002
 21
5.100000183999995
 31
0.0
  0
ARC
  5
21EB
330
1F
100
AcDbEntity
  8
3
100
AcDbCircle
 10
26.19999979130003
 20
0.0
 30
0.0
 40
1.649999999999996
100
AcDbArc
 50
45.22601232429987
 51
314.7739876757001
  0
ARC
  5
21EC
330
1F
100
AcDbEntity
  8
3
100
AcDbCircle
 10
26.19999979130003
 20
0.0
 30
0.0
 40
1.649999999999996
100
AcDbArc
 50
314.7739876757001
 51
45.22601232429987
  0
LINE
  5
21F4
330
1F
100
AcDbEntity
  8
SK1
100
AcDbLine
 10
62.19999864689999
 20
-2.499999944099997
 30
0.0
 11
62.19999864689998
 21
-14.54467428561446
 31
0.0
  0
LINE
  5
21F5
330
1F
100
AcDbEntity
  8
SK1
100
AcDbLine
 10
61.09895184630002
 20
-2.499999944099997
 30
0.0
 11
61.09895184630002
 21
-15.24884079756327
 31
0.0
  0
LINE
  5
21F6
330
1F
100
AcDbEntity
  8
SK1
100
AcDbLine
 10
60.656633228
 20
-2.499999944099996
 30
0.0
 11
60.656633228
 21
-15.21048466779571
 31
0.0
  0
LINE
  5
21F7
330
1F
100
AcDbEntity
  8
SK1
100
AcDbLine
 10
58.00033733250001
 20
0.8415791671999954
 30
0.0
 11
58.0003373325
 21
-14.9635895417818
 31
0.0
  0
LINE
  5
21F8
330
1F
100
AcDbEntity
  8
SK1
100
AcDbLine
 10
58.44265595070002
 20
1.302556483999993
 30
0.0
 11
58.44265595070002
 21
-15.00669552955202
 31
0.0
  0
LINE
  5
21F9
330
1F
100
AcDbEntity
  8
SK1
100
AcDbLine
 10
55.78636005520002
 20
-0.5405572320083727
 30
0.0
 11
55.78636005520002
 21
-14.73556444439951
 31
0.0
  0
LINE
  5
21FA
330
1F
100
AcDbEntity
  8
SK1
100
AcDbLine
 10
55.3440414369
 20
-0.699905646800893
 30
0.0
 11
55.3440414369
 21
-14.68751768686503
 31
0.0
  0
LINE
  5
21FB
330
1F
100
AcDbEntity
  8
SK1
100
AcDbLine
 10
53.13006415960001
 20
-0.9934856812353789
 30
0.0
 11
53.13006415960001
 21
-14.43421860897717
 31
0.0
  0
LINE
  5
21FC
330
1F
100
AcDbEntity
  8
SK1
100
AcDbLine
 10
52.68774554130001
 20
-0.9606824053508473
 30
0.0
 11
52.68774554130001
 21
-14.38100603178058
 31
0.0
  0
LINE
  5
21FD
330
1F
100
AcDbEntity
  8
SK1
100
AcDbLine
 10
50.47376826399999
 20
-0.346542194989838
 30
0.0
 11
50.473768264
 21
-14.10120908656774
 31
0.0
  0
LINE
  5
21FE
330
1F
100
AcDbEntity
  8
SK1
100
AcDbLine
 10
50.03144964570001
 20
-6.823885720199996
 30
0.0
 11
50.03144964570001
 21
-14.04256519218389
 31
0.0
  0
LINE
  5
21FF
330
1F
100
AcDbEntity
  8
SK1
100
AcDbLine
 10
47.81747236840002
 20
-9.135965257900011
 30
0.0
 11
47.81747236840002
 21
-13.73482466427442
 31
0.0
  0
LINE
  5
2200
330
1F
100
AcDbEntity
  8
SK1
100
AcDbLine
 10
47.3751537501
 20
-9.273977950200006
 30
0.0
 11
47.3751537501
 21
-13.67043533617392
 31
0.0
  0
LINE
  5
2201
330
1F
100
AcDbEntity
  8
SK1
100
AcDbLine
 10
45.16117647290002
 20
-9.227938018700001
 30
0.0
 11
45.16117647290002
 21
-13.33303680773122
 31
0.0
  0
LINE
  5
2202
330
1F
100
AcDbEntity
  8
SK1
100
AcDbLine
 10
44.7188578546
 20
-9.068439714600003
 30
0.0
 11
44.71885785460001
 21
-13.26252858982276
 31
0.0
  0
LINE
  5
2203
330
1F
100
AcDbEntity
  8
SK1
100
AcDbLine
 10
42.50488057730001
 20
17.64342375100001
 30
0.0
 11
42.50488057730001
 21
-12.89342699039957
 31
0.0
  0
LINE
  5
2204
330
1F
100
AcDbEntity
  8
SK1
100
AcDbLine
 10
42.06256195899999
 20
17.56635308270001
 30
0.0
 11
42.06256195899999
 21
-12.81635281388009
 31
0.0
  0
LINE
  5
2205
330
1F
100
AcDbEntity
  8
1
100
AcDbLine
 10
39.8485846817
 20
17.16308481989999
 30
0.0
 11
39.8485846817
 21
-17.16308481989999
 31
0.0
  0
LINE
  5
2206
330
1F
100
AcDbEntity
  8
1
100
AcDbLine
 10
39.19999673960001
 20
-17.03923009339999
 30
0.0
 11
39.19999673960001
 21
-13.4250251576
 31
0.0
  0
ARC
  5
2207
330
1F
100
AcDbEntity
  8
1
100
AcDbCircle
 10
48.5191540897
 20
-19.12204499639999
 30
0.0
 40
0.3258623065011433
100
AcDbArc
 50
232.5593665817998
 51
294.7646607597003
  0
ELLIPSE
  5
2209
330
1F
100
AcDbEntity
  8
1
100
AcDbEllipse
 10
43.09097329900001
 20
0.0
 30
0.0
 11
0.0
 21
21.0
 31
0.0
210
0.0
220
0.0
230
1.0
 40
0.2679491924
 41
2.527488104969116
 42
2.633246787148741
  0
ELLIPSE
  5
220B
330
1F
100
AcDbEntity
  8
1
100
AcDbEllipse
 10
85.00925327270001
 20
0.0
 30
0.0
 11
78.37306695894724
 21
0.0
 31
0.0
210
0.0
220
0.0
230
1.0
 40
0.2679491924
 41
4.088122203430866
 42
4.098284431764029
  0
ARC
  5
220D
330
1F
100
AcDbEntity
  8
1
100
AcDbCircle
 10
33.92308026329999
 20
0.0
 30
0.0
 40
20.99999999999983
100
AcDbArc
 50
296.6520099065994
 51
300.9362944598998
  0
ARC
  5
220F
330
1F
100
AcDbEntity
  8
1
100
AcDbCircle
 10
40.54995600090001
 20
-18.16399336319999
 30
0.0
 40
0.267824025589355
100
AcDbArc
 50
222.3943063505003
 51
300.7188826927997
  0
ARC
  5
2210
330
1F
100
AcDbEntity
  8
1
100
AcDbCircle
 10
30.55503186700002
 20
0.0
 30
0.0
 40
20.99999999999982
100
AcDbArc
 50
298.8464234679002
 51
303.2283828075002
  0
ELLIPSE
  5
2211
330
1F
100
AcDbEntity
  8
1
100
AcDbEllipse
 10
85.00925327270001
 20
0.0
 30
0.0
 11
78.37306695894818
 21
0.0
 31
0.0
210
0.0
220
0.0
230
1.0
 40
0.2679491924
 41
4.132444295279936
 42
4.13917639284724
  0
ELLIPSE
  5
2212
330
1F
100
AcDbEntity
  8
1
100
AcDbEllipse
 10
45.55655584740001
 20
0.0
 30
0.0
 11
0.0
 21
21.0
 31
0.0
210
0.0
220
0.0
230
1.0
 40
0.2679491924
 41
2.568380066052327
 42
2.671644597184934
  0
ARC
  5
2213
330
1F
100
AcDbEntity
  8
1
100
AcDbCircle
 10
43.20640925970002
 20
-18.51951751380001
 30
0.0
 40
0.2841906772971988
100
AcDbArc
 50
225.8495956113999
 51
298.7411838158001
  0
ELLIPSE
  5
2219
330
1F
100
AcDbEntity
  8
1
100
AcDbEllipse
 10
85.00925327270001
 20
0.0
 30
0.0
 11
78.37306695894816
 21
0.0
 31
0.0
210
0.0
220
0.0
230
1.0
 40
0.2679491924
 41
4.172448783692308
 42
4.179015676588158
  0
ELLIPSE
  5
221A
330
1F
100
AcDbEntity
  8
1
100
AcDbEllipse
 10
48.02213839590002
 20
0.0
 30
0.0
 11
0.0
 21
21.0
 31
0.0
210
0.0
220
0.0
230
1.0
 40
0.2679491924
 41
2.608219349793246
 42
2.709307318525741
  0
ARC
  5
221B
330
1F
100
AcDbEntity
  8
1
100
AcDbCircle
 10
45.8628036108
 20
-18.8385357803
 30
0.0
 40
0.3032830082493175
100
AcDbArc
 50
229.2303201808998
 51
296.7602652309995
  0
ARC
  5
221C
330
1F
100
AcDbEntity
  8
1
100
AcDbCircle
 10
37.29112865960002
 20
0.0
 30
0.0
 40
20.99999999999988
100
AcDbArc
 50
294.4990148300998
 51
298.6979247358998
  0
ELLIPSE
  5
221D
330
1F
100
AcDbEntity
  8
1
100
AcDbEllipse
 10
85.00925327270001
 20
0.0
 30
0.0
 11
78.37306695894816
 21
0.0
 31
0.0
210
0.0
220
0.0
230
1.0
 40
0.2679491924
 41
4.211515705254419
 42
4.217938522630462
  0
ELLIPSE
  5
221E
330
1F
100
AcDbEntity
  8
1
100
AcDbEllipse
 10
50.48772094440002
 20
0.0
 30
0.0
 11
0.0
 21
21.0
 31
0.0
210
0.0
220
0.0
230
1.0
 40
0.2679491924
 41
2.647142195835546
 42
2.746326284268766
  0
ARC
  5
2225
330
1F
100
AcDbEntity
  8
1
100
AcDbCircle
 10
56.48805160550001
 20
-19.7599730017
 30
0.0
 40
0.4278501804081281
100
AcDbArc
 50
242.4161728495998
 51
288.6034643535001
  0
ARC
  5
2227
330
1F
100
AcDbEntity
  8
1
100
AcDbCircle
 10
44.0272254523
 20
0.0
 30
0.0
 40
20.99999999999992
100
AcDbArc
 50
290.2973123221002
 51
294.3560523967998
  0
ARC
  5
2229
330
1F
100
AcDbEntity
  8
1
100
AcDbCircle
 10
40.65917705590002
 20
0.0
 30
0.0
 40
20.99999999999988
100
AcDbArc
 50
292.3822926716001
 51
296.5064628145
  0
ELLIPSE
  5
222A
330
1F
100
AcDbEntity
  8
1
100
AcDbEllipse
 10
85.00925327270001
 20
0.0
 30
0.0
 11
78.37306695894818
 21
0.0
 31
0.0
210
0.0
220
0.0
230
1.0
 40
0.2679491924
 41
4.24976393121353
 42
4.256060743320535
  0
ELLIPSE
  5
222B
330
1F
100
AcDbEntity
  8
1
100
AcDbEllipse
 10
52.95330349280002
 20
0.0
 30
0.0
 11
0.0
 21
21.0
 31
0.0
210
0.0
220
0.0
230
1.0
 40
0.2679491924
 41
2.685264416525625
 42
2.782781803406134
  0
ARC
  5
222C
330
1F
100
AcDbEntity
  8
1
100
AcDbCircle
 10
51.17547423460002
 20
-19.37043561829999
 30
0.0
 40
0.3530223807390385
100
AcDbArc
 50
235.858718759
 51
292.7428322885001
  0
ELLIPSE
  5
2231
330
1F
100
AcDbEntity
  8
1
100
AcDbEllipse
 10
85.00925327270001
 20
0.0
 30
0.0
 11
78.37306695894811
 21
0.0
 31
0.0
210
0.0
220
0.0
230
1.0
 40
0.2679491924
 41
4.287295673272544
 42
4.293482138320708
  0
ELLIPSE
  5
2232
330
1F
100
AcDbEntity
  8
1
100
AcDbEllipse
 10
55.41888604130003
 20
0.0
 30
0.0
 11
0.0
 21
21.0
 31
0.0
210
0.0
220
0.0
230
1.0
 40
0.2679491924
 41
2.722685811525801
 42
2.818745297827939
  0
ARC
  5
2233
330
1F
100
AcDbEntity
  8
1
100
AcDbCircle
 10
53.83176840500002
 20
-19.5834925247
 30
0.0
 40
0.3862473951356755
100
AcDbArc
 50
239.1392380282001
 51
290.6920528979999
  0
ARC
  5
2234
330
1F
100
AcDbEntity
  8
1
100
AcDbCircle
 10
47.39527384860003
 20
0.0
 30
0.0
 40
20.99999999999992
100
AcDbArc
 50
288.2400384753001
 51
292.2415934503002
  0
ELLIPSE
  5
2235
330
1F
100
AcDbEntity
  8
1
100
AcDbEllipse
 10
85.00925327270001
 20
0.0
 30
0.0
 11
78.37306695894816
 21
0.0
 31
0.0
210
0.0
220
0.0
230
1.0
 40
0.2679491924
 41
4.324199943787633
 42
4.330289796031714
  0
ELLIPSE
  5
2236
330
1F
100
AcDbEntity
  8
1
100
AcDbEllipse
 10
57.88446858970002
 20
0.0
 30
0.0
 11
0.0
 21
21.0
 31
0.0
210
0.0
220
0.0
230
1.0
 40
0.2679491924
 41
2.759493469236805
 42
2.854280980043776
  0
ELLIPSE
  5
223D
330
1F
100
AcDbEntity
  8
1
100
AcDbEllipse
 10
85.00925327270001
 20
0.0
 30
0.0
 11
78.37306695894645
 21
0.0
 31
0.0
210
0.0
220
0.0
230
1.0
 40
0.2679491924
 41
4.396431312930401
 42
4.402363241207063
  0
ARC
  5
223F
330
1F
100
AcDbEntity
  8
1
100
AcDbCircle
 10
50.76332224489999
 20
0.0
 30
0.0
 40
20.99999999999995
100
AcDbArc
 50
286.2068382770999
 51
290.1585914845002
  0
ELLIPSE
  5
2240
330
1F
100
AcDbEntity
  8
1
100
AcDbEllipse
 10
85.00925327270001
 20
0.0
 30
0.0
 11
78.37306695894952
 21
0.0
 31
0.0
210
0.0
220
0.0
230
1.0
 40
0.2679491924
 41
4.360555186415182
 42
4.366560611425585
  0
ELLIPSE
  5
2241
330
1F
100
AcDbEntity
  8
1
100
AcDbEllipse
 10
60.3500511382
 20
0.0
 30
0.0
 11
0.0
 21
21.0
 31
0.0
210
0.0
220
0.0
230
1.0
 40
0.2679491924
 41
2.795764284630676
 42
2.889447192299281
  0
ARC
  5
2242
330
1F
100
AcDbEntity
  8
1
100
AcDbCircle
 10
59.14432372270002
 20
-19.89732120479999
 30
0.0
 40
0.4813000387647639
100
AcDbArc
 50
245.6962639121996
 51
286.4774666736997
  0
ARC
  5
2243
330
1F
100
AcDbEntity
  8
1
100
AcDbCircle
 10
54.13137064120002
 20
0.0
 30
0.0
 40
21.0
100
AcDbArc
 50
284.1944066611999
 51
288.1030408499002
  0
ELLIPSE
  5
2249
330
1F
100
AcDbEntity
  8
1
100
AcDbEllipse
 10
62.81563368670004
 20
0.0
 30
0.0
 11
0.0
 21
21.0
 31
0.0
210
0.0
220
0.0
230
1.0
 40
0.2679491924
 41
2.831566914412158
 42
2.924297492954746
  0
ARC
  5
224A
330
1F
100
AcDbEntity
  8
1
100
AcDbCircle
 10
61.7269005496
 20
-20.2744219571
 30
0.0
 40
0.2630102210559991
100
AcDbArc
 50
241.7788065647998
 51
273.7164605773003
  0
ELLIPSE
  5
224B
330
1F
100
AcDbEntity
  8
1
100
AcDbEllipse
 10
78.11254287290001
 20
0.0
 30
0.0
 11
78.37306695894437
 21
0.0
 31
0.0
210
0.0
220
0.0
230
1.0
 40
0.2679491924
 41
4.501985159789159
 42
4.504020745805473
  0
LINE
  5
224D
330
1F
100
AcDbEntity
  8
1
100
AcDbLine
 10
61.90000101920003
 20
-20.54576575759999
 30
0.0
 11
62.19999864689999
 21
-20.25612071159998
 31
0.0
  0
LINE
  5
224E
330
1F
100
AcDbEntity
  8
1
100
AcDbLine
 10
61.90000101920003
 20
-20.54576575759999
 30
0.0
 11
61.90000101920003
 21
-20.9999997169
 31
0.0
  0
LINE
  5
2252
330
1F
100
AcDbEntity
  8
1
100
AcDbLine
 10
61.90000101920003
 20
-20.9999997169
 30
0.0
 11
62.19999864689999
 21
-20.70000022649999
 31
0.0
  0
LINE
  5
226C
330
1F
100
AcDbEntity
  8
SK1
100
AcDbLine
 10
62.19999864689998
 20
20.70000022649999
 30
0.0
 11
62.19999864689999
 21
2.499999944099997
 31
0.0
  0
LINE
  5
226D
330
1F
100
AcDbEntity
  8
SK1
100
AcDbLine
 10
61.09895184630002
 20
19.9988409877
 30
0.0
 11
61.09895184630001
 21
2.499999944099996
 31
0.0
  0
LINE
  5
226E
330
1F
100
AcDbEntity
  8
SK1
100
AcDbLine
 10
60.656633228
 20
19.96048353609999
 30
0.0
 11
60.65663322800001
 21
2.499999944099997
 31
0.0
  0
LINE
  5
226F
330
1F
100
AcDbEntity
  8
SK1
100
AcDbLine
 10
45.16117647290002
 20
18.0830340833
 30
0.0
 11
45.16117647290002
 21
-2.7720616199
 31
0.0
  0
LINE
  5
2270
330
1F
100
AcDbEntity
  8
SK1
100
AcDbLine
 10
44.7188578546
 20
18.0125273764
 30
0.0
 11
44.7188578546
 21
-2.931560156900005
 31
0.0
  0
LINE
  5
2271
330
1F
100
AcDbEntity
  8
1
100
AcDbLine
 10
39.19999673960001
 20
13.42502515760001
 30
0.0
 11
39.19999673960001
 21
-13.4250251576
 31
0.0
  0
ELLIPSE
  5
2272
330
1F
100
AcDbEntity
  8
1
100
AcDbEllipse
 10
43.5269328324
 20
0.0
 30
0.0
 11
0.0
 21
21.0
 31
0.0
210
0.0
220
0.0
230
1.0
 40
0.2679491924
 41
0.8772257260923549
 42
2.264366927497437
  0
ARC
  5
2274
330
1F
100
AcDbEntity
  8
1
100
AcDbCircle
 10
53.7303822682
 20
6.03905079350001
 30
0.0
 40
2.4764299608605
100
AcDbArc
 50
9.857560568299708
 51
69.53046261829976
  0
LINE
  5
2275
330
1F
100
AcDbEntity
  8
1
100
AcDbLine
 10
55.91204389930002
 20
7.881418801900011
 30
0.0
 11
56.17025122040002
 21
6.463014055100003
 31
0.0
  0
LINE
  5
2276
330
1F
100
AcDbEntity
  8
1
100
AcDbLine
 10
51.83889344330001
 20
6.955390796100004
 30
0.0
 11
53.95371839399999
 21
8.836809545800008
 31
0.0
  0
LINE
  5
2277
330
1F
100
AcDbEntity
  8
1
100
AcDbLine
 10
56.58497288820001
 20
7.881418801900011
 30
0.0
 11
57.10139498110001
 21
5.044608842599998
 31
0.0
  0
LWPOLYLINE
  5
2278
330
1F
100
AcDbEntity
  8
1
100
AcDbPolyline
 90
       38
 70
   128
 43
0.0
 10
46.78518697620001
 20
4.703560844099996
 10
47.09239676590001
 20
3.559669479699991
 10
47.58191481229999
 20
2.485981909599999
 10
48.23966696850002
 20
1.513386261700006
 10
49.04672876000001
 20
0.6698623765000065
 10
49.9798767268
 20
-0.0203232084000007
 10
51.01226642720002
 20
-0.5373150342999935
 10
52.1142072975
 20
-0.866240239700005
 10
53.25398966669999
 20
-0.9976362344000051
 10
54.39883098000001
 20
-0.9277228963999846
 10
55.51578477020001
 20
-0.6585115915999893
 10
56.57273158430001
 20
-0.1977470964999952
 10
57.5392507016
 20
0.4413153219999942
 10
58.38755145670001
 20
1.240291050599992
 10
59.09322574730001
 20
2.176194917399996
 10
59.63596329090001
 20
3.222102532199997
 10
60.00016257160002
 20
4.347925540100007
 10
60.17534062260003
 20
5.521275103099995
 10
60.1564608514
 20
6.708397529999999
 10
59.9440596997
 20
7.875139825100006
 10
59.54425409430001
 20
8.987938053899995
 10
58.96854773160001
 20
10.01477893440001
 10
58.2334958017
 20
10.92612184580001
 10
57.36024305220002
 20
11.6957491264
 10
56.3739202916
 20
12.30152044449998
 10
55.30289933080002
 20
12.72600796069998
 10
54.17798087
 20
12.957001105
 10
53.03154513239999
 20
12.98785302789998
 10
51.8965534866
 20
12.81767804179999
 10
50.8056767285
 20
12.45137024669999
 10
49.79028180240002
 20
11.899468489
 10
48.87958988540001
 20
11.17784995590001
 10
48.09979721900001
 20
10.30727382749999
 10
47.47333005070001
 20
9.312785230599999
 10
47.01822623610001
 20
8.222994394599993
 10
46.74756154409999
 20
7.069251500100008
 10
46.66912928220003
 20
5.884748417899999
 10
46.78518697620001
 20
4.703560844099996
  0
LWPOLYLINE
  5
2279
330
1F
100
AcDbEntity
  8
1
100
AcDbPolyline
 90
       27
 70
   128
 43
0.0
 10
51.14788934579999
 20
5.351780448100001
 10
51.3942725956
 20
4.547502379899995
 10
51.81941762560001
 20
3.827638225599997
 10
52.39860340950002
 20
3.234023926800006
 10
53.0981905758
 20
2.801157999799997
 10
53.87749895450003
 20
2.554197330000008
 10
54.69125881790001
 20
2.507493831199994
 10
55.49216642970001
 20
2.663762308699986
 10
56.23367801309999
 20
3.013920970299992
 10
56.87269940970003
 20
3.537619486500005
 10
57.3720894754
 20
4.204422701199987
 10
57.70283564920001
 20
4.975578281999986
 10
57.84570053220003
 20
5.806269589799995
 10
57.7923990786
 20
6.648219656199998
 10
57.54601582880003
 20
7.452497724499991
 10
57.12087824940002
 20
8.172362111499992
 10
56.5416850149
 20
8.765975944700002
 10
55.84210529919999
 20
9.198841638899992
 10
55.0627894699
 20
9.445802308600008
 10
54.24902960650001
 20
9.492506273100005
 10
53.44812199470002
 20
9.3362377957
 10
52.706617862
 20
8.986079134099995
 10
52.06759646530002
 20
8.462380617899995
 10
51.5681989491
 20
7.795577403199999
 10
51.23746022579999
 20
7.024421822299999
 10
51.09458789230001
 20
6.193730514499989
 10
51.14788934579999
 20
5.351780448100001
  0
ARC
  5
227B
330
1F
100
AcDbEntity
  8
1
100
AcDbCircle
 10
53.42631171851612
 20
5.999618277155525
 30
0.0
 40
6.999376085696945
100
AcDbArc
 50
93.2332121760742
 51
268.589256549302
  0
LINE
  5
227C
330
1F
100
AcDbEntity
  8
SK3
100
AcDbLine
 10
47.1999980509
 20
-1.649999991100003
 30
0.0
 11
58.95000323650001
 21
-1.649999991100003
 31
0.0
  0
LINE
  5
227D
330
1F
100
AcDbEntity
  8
SK3
100
AcDbLine
 10
58.95000323650001
 20
1.649999991100003
 30
0.0
 11
47.1999980509
 21
1.649999991100003
 31
0.0
  0
ARC
  5
2290
330
1F
100
AcDbEntity
  8
SK1
100
AcDbCircle
 10
48.09340684380001
 20
-3.857914798400003
 30
0.0
 40
1.019616667181632
100
AcDbArc
 50
56.53474867069991
 51
77.09923458149983
  0
ARC
  5
2291
330
1F
100
AcDbEntity
  8
SK1
100
AcDbCircle
 10
48.067927542
 20
-8.082592107699994
 30
0.0
 40
1.083358574212039
100
AcDbArc
 50
283.5118073724997
 51
302.8543441345998
  0
ELLIPSE
  5
2297
330
1F
100
AcDbEntity
  8
SK1
100
AcDbEllipse
 10
45.91459482470003
 20
-6.0
 30
0.0
 11
0.0
 21
3.40000000000002
 31
0.0
210
0.0
220
0.0
230
1.0
 40
0.8164965808999999
 41
0.4452980618834606
 42
1.184511475874925
  0
ARC
  5
2298
330
1F
100
AcDbEntity
  8
SK1
100
AcDbCircle
 10
48.2418911803
 20
-5.999999819300001
 30
0.0
 40
3.333834063986552
100
AcDbArc
 50
103.1911529519003
 51
256.8088470480996
  0
ELLIPSE
  5
2299
330
1F
100
AcDbEntity
  8
SK1
100
AcDbEllipse
 10
45.91459482470003
 20
-6.0
 30
0.0
 11
0.0
 21
3.40000000000002
 31
0.0
210
0.0
220
0.0
230
1.0
 40
0.8164965808999999
 41
1.957081177714855
 42
2.69629459170633
  0
ARC
  5
229A
330
1F
100
AcDbEntity
  8
SK1
100
AcDbCircle
 10
46.47431718970003
 20
-5.999999819300001
 30
0.0
 40
3.383131645017498
100
AcDbArc
 50
157.7512692883999
 51
202.2487307116
  0
ELLIPSE
  5
22A1
330
1F
100
AcDbEntity
  8
SK1
100
AcDbEllipse
 10
46.35226454979999
 20
-6.0
 30
0.0
 11
3.792207243611414
 21
0.0
 31
0.0
210
0.0
220
0.0
230
1.0
 40
0.8965754721999999
 41
4.267090918501237
 42
4.392892353942676
  0
LINE
  5
22A2
330
1F
100
AcDbEntity
  8
SK1
100
AcDbLine
 10
45.16117647290002
 20
-9.227938018700001
 30
0.0
 11
45.66475376479999
 21
-9.227938018700001
 31
0.0
  0
ARC
  5
22A3
330
1F
100
AcDbEntity
  8
SK1
100
AcDbCircle
 10
44.72316365510002
 20
-13.67618157800001
 30
0.0
 40
4.546807967901169
100
AcDbArc
 50
73.6992377799999
 51
78.04823448959985
  0
ELLIPSE
  5
22A4
330
1F
100
AcDbEntity
  8
SK1
100
AcDbEllipse
 10
46.62634719870001
 20
-6.0
 30
0.0
 11
0.0
 21
3.40000000000002
 31
0.0
210
0.0
220
0.0
230
1.0
 40
0.8164965808999999
 41
2.913773663791852
 42
3.414710296072448
  0
ELLIPSE
  5
22A5
330
1F
100
AcDbEntity
  8
SK1
100
AcDbEllipse
 10
46.35226454979999
 20
-6.0
 30
0.0
 11
3.792207243611414
 21
0.0
 31
0.0
210
0.0
220
0.0
230
1.0
 40
0.8965754721999999
 41
4.985506622867339
 42
5.109084965291585
  0
LINE
  5
22A6
330
1F
100
AcDbEntity
  8
SK1
100
AcDbLine
 10
47.81747236840002
 20
-9.135965257900011
 30
0.0
 11
48.32104966040001
 21
-9.135965257900011
 31
0.0
  0
LWPOLYLINE
  5
22A7
330
1F
100
AcDbEntity
  8
1
100
AcDbPolyline
 90
       18
 70
   128
 43
0.0
 10
38.14282268280001
 20
0.0
 10
38.17166015500001
 20
-0.5960487761000053
 10
38.25427964330001
 20
-1.111597754099989
 10
38.3795201778
 20
-1.477019395699997
 10
38.530472666
 20
-1.642961404299995
 10
38.68674114340001
 20
-1.587012317000002
 10
38.82722929120001
 20
-1.316728419600011
 10
38.93296048040003
 20
-0.8686130749999989
 10
38.98965194819999
 20
-0.3031867090999896
 10
38.98965194819999
 20
0.3031867091000038
 10
38.93296048040003
 20
0.8686130749999989
 10
38.82722929120001
 20
1.316728419599996
 10
38.68674114340001
 20
1.587012316999988
 10
38.530472666
 20
1.64296140430001
 10
38.3795201778
 20
1.477019395699997
 10
38.25427964330001
 20
1.111597754100003
 10
38.17166015500001
 20
0.5960487761000053
 10
38.14282268280001
 20
0.0
  0
LINE
  5
22A9
330
1F
100
AcDbEntity
  8
SK1
100
AcDbLine
 10
47.3751537501
 20
2.481841588634732
 30
0.0
 11
47.3751537501
 21
-2.726022154099993
 31
0.0
  0
LINE
  5
22AA
330
1F
100
AcDbEntity
  8
SK3
100
AcDbLine
 10
46.2085790932
 20
0.0
 30
0.0
 11
47.1999980509
 21
-1.649999991100003
 31
0.0
  0
LINE
  5
22AB
330
1F
100
AcDbEntity
  8
SK3
100
AcDbLine
 10
47.1999980509
 20
1.649999991100003
 30
0.0
 11
46.2085790932
 21
0.0
 31
0.0
  0
LINE
  5
22AE
330
1F
100
AcDbEntity
  8
SK3
100
AcDbLine
 10
47.1999980509
 20
1.649999991100003
 30
0.0
 11
47.1999980509
 21
-1.649999991100003
 31
0.0
  0
LINE
  5
22AF
330
1F
100
AcDbEntity
  8
SK1
100
AcDbLine
 10
47.81747236840002
 20
1.812472861288596
 30
0.0
 11
47.81747236840002
 21
-2.864035079199993
 31
0.0
  0
LINE
  5
22B0
330
1F
100
AcDbEntity
  8
SK1
100
AcDbLine
 10
48.32104966040001
 20
-2.864035079199993
 30
0.0
 11
47.81747236840002
 21
-2.864035079199993
 31
0.0
  0
ELLIPSE
  5
22B1
330
1F
100
AcDbEntity
  8
SK1
100
AcDbEllipse
 10
46.35226454979999
 20
-6.0
 30
0.0
 11
3.792207243611414
 21
0.0
 31
0.0
210
0.0
220
0.0
230
1.0
 40
0.8965754721999999
 41
1.174100341888014
 42
1.29767868431226
  0
ELLIPSE
  5
22B2
330
1F
100
AcDbEntity
  8
SK1
100
AcDbEllipse
 10
46.62634719870001
 20
-6.0
 30
0.0
 11
0.0
 21
3.40000000000002
 31
0.0
210
0.0
220
0.0
230
1.0
 40
0.8164965808999999
 41
6.010067664696965
 42
6.51100429697754
  0
ARC
  5
22B3
330
1F
100
AcDbEntity
  8
SK1
100
AcDbCircle
 10
44.9535263523
 20
0.7608551567000035
 30
0.0
 40
3.603795968534586
100
AcDbArc
 50
281.3823332874002
 51
286.8701194555999
  0
LINE
  5
22B4
330
1F
100
AcDbEntity
  8
SK1
100
AcDbLine
 10
45.66475376479999
 20
-2.7720616199
 30
0.0
 11
45.16117647290002
 21
-2.7720616199
 31
0.0
  0
ELLIPSE
  5
22B5
330
1F
100
AcDbEntity
  8
SK1
100
AcDbEllipse
 10
46.35226454979999
 20
-6.0
 30
0.0
 11
3.792207243611414
 21
0.0
 31
0.0
210
0.0
220
0.0
230
1.0
 40
0.8965754721999999
 41
1.890292953236919
 42
2.016094388678359
  0
LINE
  5
22CE
330
1F
100
AcDbEntity
  8
SK1
100
AcDbLine
 10
50.03144964570001
 20
-0.121343828231252
 30
0.0
 11
50.03144964570001
 21
-5.176114384099989
 31
0.0
  0
ELLIPSE
  5
22CF
330
1F
100
AcDbEntity
  8
SK1
100
AcDbEllipse
 10
47.3380995727
 20
-6.0
 30
0.0
 11
0.0
 21
3.40000000000002
 31
0.0
210
0.0
220
0.0
230
1.0
 40
0.8164965808999999
 41
4.957144681393714
 42
5.788666323531034
  0
ELLIPSE
  5
22E6
330
1F
100
AcDbEntity
  8
SK1
100
AcDbEllipse
 10
47.3380995727
 20
-6.0
 30
0.0
 11
0.0
 21
3.40000000000002
 31
0.0
210
0.0
220
0.0
230
1.0
 40
0.8164965808999999
 41
3.636111637238381
 42
4.467633279375696
  0
ELLIPSE
  5
22E7
330
1F
100
AcDbEntity
  8
SK1
100
AcDbEllipse
 10
46.35226454979999
 20
-6.0
 30
0.0
 11
3.792207243611414
 21
0.0
 31
0.0
210
0.0
220
0.0
230
1.0
 40
0.8965754721999999
 41
6.038429606170601
 42
6.52794100818861
  0
LINE
  5
22F5
330
1F
100
AcDbEntity
  8
1
100
AcDbLine
 10
56.42846599220002
 20
5.044608842599998
 30
0.0
 11
57.10139498110001
 21
5.044608842599998
 31
0.0
  0
LINE
  5
22F6
330
1F
100
AcDbEntity
  8
1
100
AcDbLine
 10
57.10139498110001
 20
5.044608842599998
 30
0.0
 11
54.9865700304
 21
3.163190092899995
 31
0.0
  0
LINE
  5
231A
330
1F
100
AcDbEntity
  8
1
100
AcDbLine
 10
54.9865700304
 20
3.163190092899995
 30
0.0
 11
52.35532298680002
 21
4.118580836800006
 31
0.0
  0
LINE
  5
2321
330
1F
100
AcDbEntity
  8
1
100
AcDbLine
 10
52.35532298680002
 20
4.118580836800006
 30
0.0
 11
51.83889344330001
 21
6.955390796100004
 31
0.0
  0
ARC
  5
232B
330
1F
100
AcDbEntity
  8
1
100
AcDbCircle
 10
53.78722129210001
 20
5.875813459599996
 30
0.0
 40
2.376597465117042
100
AcDbArc
 50
275.8041114366004
 51
311.7921281038996
  0
ARC
  5
232C
330
1F
100
AcDbEntity
  8
1
100
AcDbCircle
 10
53.66251449349999
 20
5.997628337899996
 30
0.0
 40
2.550554323561103
100
AcDbArc
 50
312.0571205984
 51
10.51334522060026
  0
LINE
  5
232D
330
1F
100
AcDbEntity
  8
1
100
AcDbLine
 10
56.17025122040002
 20
6.463014055100003
 30
0.0
 11
56.42846599220002
 21
5.044608842599998
 31
0.0
  0
LINE
  5
232E
330
1F
100
AcDbEntity
  8
1
100
AcDbLine
 10
56.42846599220002
 20
5.044608842599998
 30
0.0
 11
55.37105724210002
 21
4.103899467700003
 31
0.0
  0
LINE
  5
232F
330
1F
100
AcDbEntity
  8
1
100
AcDbLine
 10
55.37105724210002
 20
4.103899467700003
 30
0.0
 11
54.50868234030003
 21
3.3367073629
 31
0.0
  0
LINE
  5
2330
330
1F
100
AcDbEntity
  8
SK1
100
AcDbLine
 10
59.20000001780002
 20
-2.499999944099997
 30
0.0
 11
59.20000001780002
 21
2.381959239211836
 31
0.0
  0
LINE
  5
2333
330
1F
100
AcDbEntity
  8
SK1
100
AcDbLine
 10
62.19999864689999
 20
-2.499999944099997
 30
0.0
 11
59.20000001780002
 21
-2.499999944099997
 31
0.0
  0
LINE
  5
2334
330
1F
100
AcDbEntity
  8
SK3
100
AcDbLine
 10
58.95000323650001
 20
-1.649999991100003
 30
0.0
 11
59.20000001780002
 21
-1.900000032000008
 31
0.0
  0
LINE
  5
2335
330
1F
100
AcDbEntity
  8
SK3
100
AcDbLine
 10
59.20000001780002
 20
1.900000031999994
 30
0.0
 11
58.95000323650001
 21
1.649999991100003
 31
0.0
  0
LINE
  5
2336
330
1F
100
AcDbEntity
  8
SK3
100
AcDbLine
 10
58.95000323650001
 20
1.649999991100003
 30
0.0
 11
58.95000323650001
 21
-1.649999991100003
 31
0.0
  0
LINE
  5
2345
330
1F
100
AcDbEntity
  8
SK1
100
AcDbLine
 10
59.26125315460605
 20
2.499999944099997
 30
0.0
 11
62.19999864689999
 21
2.499999944099997
 31
0.0
  0
ARC
  5
2356
330
1F
100
AcDbEntity
  8
SK1
100
AcDbCircle
 10
48.5248570615
 20
19.07070024350001
 30
0.0
 40
0.3710571487220942
100
AcDbArc
 50
69.35961005199986
 51
123.3163626065001
  0
ELLIPSE
  5
2358
330
1F
100
AcDbEntity
  8
SK1
100
AcDbEllipse
 10
43.09097329900001
 20
0.0
 30
0.0
 11
0.0
 21
21.0
 31
0.0
210
0.0
220
0.0
230
1.0
 40
0.2679491924
 41
0.5083458664410521
 42
0.6029673682482402
  0
LINE
  5
235A
330
1F
100
AcDbEntity
  8
1
100
AcDbLine
 10
39.19999673960001
 20
13.42502515760001
 30
0.0
 11
39.19999673960001
 21
17.0392300934
 31
0.0
  0
ELLIPSE
  5
235B
330
1F
100
AcDbEntity
  8
1
100
AcDbEllipse
 10
85.00925327270001
 20
0.0
 30
0.0
 11
78.37306695894724
 21
0.0
 31
0.0
210
0.0
220
0.0
230
1.0
 40
0.2679491924
 41
2.184900875415578
 42
2.19506310374874
  0
LINE
  5
235D
330
1F
100
AcDbEntity
  8
SK1
100
AcDbLine
 10
47.81747236840002
 20
18.48482154310001
 30
0.0
 11
47.81747236840002
 21
10.18676369302245
 31
0.0
  0
LINE
  5
235E
330
1F
100
AcDbEntity
  8
SK1
100
AcDbLine
 10
47.3751537501
 20
18.42043548819999
 30
0.0
 11
47.3751537501
 21
9.517394965676315
 31
0.0
  0
ARC
  5
2367
330
1F
100
AcDbEntity
  8
SK1
100
AcDbCircle
 10
33.92308026329999
 20
0.0
 30
0.0
 40
20.99999999999985
100
AcDbArc
 50
59.06370554010012
 51
63.34799009340052
  0
ARC
  5
2369
330
1F
100
AcDbEntity
  8
SK1
100
AcDbCircle
 10
43.2112715865
 20
18.4835767498
 30
0.0
 40
0.3141053099854756
100
AcDbArc
 50
65.19201617330013
 51
130.2172043994999
  0
ELLIPSE
  5
236A
330
1F
100
AcDbEntity
  8
SK1
100
AcDbEllipse
 10
45.55655584740001
 20
0.0
 30
0.0
 11
0.0
 21
21.0
 31
0.0
210
0.0
220
0.0
230
1.0
 40
0.2679491924
 41
0.4699480564048592
 42
0.5732125875374655
  0
ELLIPSE
  5
236B
330
1F
100
AcDbEntity
  8
SK1
100
AcDbEllipse
 10
85.00925327270001
 20
0.0
 30
0.0
 11
78.37306695894818
 21
0.0
 31
0.0
210
0.0
220
0.0
230
1.0
 40
0.2679491924
 41
2.144008914332365
 42
2.150741011899668
  0
ARC
  5
236C
330
1F
100
AcDbEntity
  8
SK1
100
AcDbCircle
 10
30.55503186700002
 20
0.0
 30
0.0
 40
20.99999999999982
100
AcDbArc
 50
56.77161719249975
 51
61.15357653209974
  0
ARC
  5
236D
330
1F
100
AcDbEntity
  8
0
  6
SLD-Gestrichelt
 62
     7
370
     0
100
AcDbCircle
 10
40.55435202360001
 20
18.13437881619999
 30
0.0
 40
0.2916510698728058
100
AcDbArc
 50
62.9980796250002
 51
133.8887313316999
  0
ELLIPSE
  5
2373
330
1F
100
AcDbEntity
  8
SK1
100
AcDbEllipse
 10
50.48772094440002
 20
0.0
 30
0.0
 11
0.0
 21
21.0
 31
0.0
210
0.0
220
0.0
230
1.0
 40
0.2679491924
 41
0.395266369321027
 42
0.4944504577542457
  0
ELLIPSE
  5
2374
330
1F
100
AcDbEntity
  8
SK1
100
AcDbEllipse
 10
85.00925327270001
 20
0.0
 30
0.0
 11
78.37306695894816
 21
0.0
 31
0.0
210
0.0
220
0.0
230
1.0
 40
0.2679491924
 41
2.065246784549138
 42
2.07166960192518
  0
ARC
  5
2375
330
1F
100
AcDbEntity
  8
SK1
100
AcDbCircle
 10
37.29112865960002
 20
0.0
 30
0.0
 40
20.99999999999987
100
AcDbArc
 50
61.30207526410016
 51
65.50098516990016
  0
ARC
  5
2376
330
1F
100
AcDbEntity
  8
SK1
100
AcDbCircle
 10
45.86810087720002
 20
18.79542229109999
 30
0.0
 40
0.3402513989704233
100
AcDbArc
 50
67.30850726979979
 51
126.7009073182003
  0
ELLIPSE
  5
2377
330
1F
100
AcDbEntity
  8
SK1
100
AcDbEllipse
 10
48.02213839590002
 20
0.0
 30
0.0
 11
0.0
 21
21.0
 31
0.0
210
0.0
220
0.0
230
1.0
 40
0.2679491924
 41
0.4322853350640511
 42
0.5333733037965467
  0
ELLIPSE
  5
2378
330
1F
100
AcDbEntity
  8
SK1
100
AcDbEllipse
 10
85.00925327270001
 20
0.0
 30
0.0
 11
78.37306695894816
 21
0.0
 31
0.0
210
0.0
220
0.0
230
1.0
 40
0.2679491924
 41
2.104169630591444
 42
2.110736523487294
  0
ELLIPSE
  5
237F
330
1F
100
AcDbEntity
  8
SK1
100
AcDbEllipse
 10
85.00925327270001
 20
0.0
 30
0.0
 11
78.37306695894816
 21
0.0
 31
0.0
210
0.0
220
0.0
230
1.0
 40
0.2679491924
 41
1.952895511147881
 42
1.958985363391964
  0
ARC
  5
2380
330
1F
100
AcDbEntity
  8
SK1
100
AcDbCircle
 10
47.39527384860003
 20
0.0
 30
0.0
 40
20.99999999999989
100
AcDbArc
 50
67.75840654969977
 51
71.75996152469988
  0
ELLIPSE
  5
2381
330
1F
100
AcDbEntity
  8
SK1
100
AcDbEllipse
 10
55.41888604130003
 20
0.0
 30
0.0
 11
0.0
 21
21.0
 31
0.0
210
0.0
220
0.0
230
1.0
 40
0.2679491924
 41
0.3228473557618537
 42
0.4189068420639925
  0
ARC
  5
2382
330
1F
100
AcDbEntity
  8
SK1
100
AcDbCircle
 10
44.0272254523
 20
0.0
 30
0.0
 40
20.99999999999989
100
AcDbArc
 50
65.64394760320017
 51
69.70268767789966
  0
ELLIPSE
  5
2383
330
1F
100
AcDbEntity
  8
SK1
100
AcDbEllipse
 10
52.95330349280002
 20
0.0
 30
0.0
 11
0.0
 21
21.0
 31
0.0
210
0.0
220
0.0
230
1.0
 40
0.2679491924
 41
0.3588108501836588
 42
0.4563282370641675
  0
LINE
  5
2384
330
1F
100
AcDbEntity
  8
SK1
100
AcDbLine
 10
58.00033733250001
 20
19.713588059
 30
0.0
 11
58.00033733250001
 21
11.13161231657378
 31
0.0
  0
LINE
  5
2385
330
1F
100
AcDbEntity
  8
SK1
100
AcDbLine
 10
58.44265595070002
 20
19.7566952556
 30
0.0
 11
58.44265595070002
 21
10.66679782883639
 31
0.0
  0
LINE
  5
2386
330
1F
100
AcDbEntity
  8
SK1
100
AcDbLine
 10
55.78636005520002
 20
19.4855630398
 30
0.0
 11
55.78636005520002
 21
12.53439355762843
 31
0.0
  0
LINE
  5
238C
330
1F
100
AcDbEntity
  8
SK1
100
AcDbLine
 10
55.3440414369
 20
19.43751797080001
 30
0.0
 11
55.3440414369
 21
12.70970173414717
 31
0.0
  0
LINE
  5
238D
330
1F
100
AcDbEntity
  8
SK1
100
AcDbLine
 10
53.13006415960001
 20
19.18421685699998
 30
0.0
 11
53.13006415960001
 21
12.98520176596556
 31
0.0
  0
LINE
  5
238E
330
1F
100
AcDbEntity
  8
SK1
100
AcDbLine
 10
52.68774554130001
 20
19.13100481029998
 30
0.0
 11
52.68774554130001
 21
12.9599189596619
 31
0.0
  0
LINE
  5
238F
330
1F
100
AcDbEntity
  8
SK1
100
AcDbLine
 10
50.473768264
 20
18.85120756920001
 30
0.0
 11
50.473768264
 21
12.34577874930089
 31
0.0
  0
LINE
  5
2390
330
1F
100
AcDbEntity
  8
SK1
100
AcDbLine
 10
50.03144964570001
 20
18.79256404940001
 30
0.0
 11
50.0314496457
 21
12.1205803825423
 31
0.0
  0
ARC
  5
23A5
330
1F
100
AcDbEntity
  8
1
100
AcDbCircle
 10
53.7972657798
 20
6.162765342999989
 30
0.0
 40
2.337217660948204
100
AcDbArc
 50
70.00595762180012
 51
95.78372061609988
  0
LINE
  5
23A6
330
1F
100
AcDbEntity
  8
1
100
AcDbLine
 10
53.75867709510001
 20
8.663292974200004
 30
0.0
 11
54.5964129269
 21
8.359114639499992
 31
0.0
  0
LINE
  5
23A7
330
1F
100
AcDbEntity
  8
1
100
AcDbLine
 10
54.5964129269
 20
8.359114639499992
 30
0.0
 11
55.91204389930002
 21
7.881418801900011
 31
0.0
  0
LINE
  5
23A8
330
1F
100
AcDbEntity
  8
1
100
AcDbLine
 10
55.91204389930002
 20
7.881418801900011
 30
0.0
 11
56.58497288820001
 21
7.881418801900011
 31
0.0
  0
LINE
  5
23A9
330
1F
100
AcDbEntity
  8
1
100
AcDbLine
 10
53.95371839399999
 20
8.836809545800008
 30
0.0
 11
56.58497288820001
 21
7.881418801900011
 31
0.0
  0
ELLIPSE
  5
23AC
330
1F
100
AcDbEntity
  8
SK1
100
AcDbEllipse
 10
85.00925327270001
 20
0.0
 30
0.0
 11
78.37306695894818
 21
0.0
 31
0.0
210
0.0
220
0.0
230
1.0
 40
0.2679491924
 41
2.027124563859064
 42
2.033421375966069
  0
ARC
  5
23AD
330
1F
100
AcDbEntity
  8
SK1
100
AcDbCircle
 10
40.65917705590002
 20
0.0
 30
0.0
 40
20.99999999999984
100
AcDbArc
 50
63.49353718549996
 51
67.61770732839981
  0
ELLIPSE
  5
23B0
330
1F
100
AcDbEntity
  8
SK1
100
AcDbEllipse
 10
85.00925327270001
 20
0.0
 30
0.0
 11
78.37306695894811
 21
0.0
 31
0.0
210
0.0
220
0.0
230
1.0
 40
0.2679491924
 41
1.989703168858889
 42
1.995889633907053
  0
ARC
  5
23B2
330
1F
100
AcDbEntity
  8
SK1
100
AcDbCircle
 10
56.49479434580001
 20
19.6741102479
 30
0.0
 40
0.508199542163518
100
AcDbArc
 50
75.20802753339996
 51
113.7723352635
  0
ARC
  5
23B4
330
1F
100
AcDbEntity
  8
SK1
100
AcDbCircle
 10
51.18155032130002
 20
19.30955274139999
 30
0.0
 40
0.4078649257250638
100
AcDbArc
 50
71.35426912709964
 51
120.0441798254998
  0
ELLIPSE
  5
23B6
330
1F
100
AcDbEntity
  8
SK1
100
AcDbEllipse
 10
57.88446858970002
 20
0.0
 30
0.0
 11
0.0
 21
21.0
 31
0.0
210
0.0
220
0.0
230
1.0
 40
0.2679491924
 41
0.287311673546017
 42
0.3820991843529882
  0
ARC
  5
23B7
330
1F
100
AcDbEntity
  8
SK1
100
AcDbCircle
 10
53.83819195760001
 20
19.5112953783
 30
0.0
 40
0.4526164248786401
100
AcDbArc
 50
73.30119244580001
 51
116.8675166280001
  0
ELLIPSE
  5
23BA
330
1F
100
AcDbEntity
  8
SK1
100
AcDbEllipse
 10
85.00925327270001
 20
0.0
 30
0.0
 11
78.37306695894645
 21
0.0
 31
0.0
210
0.0
220
0.0
230
1.0
 40
0.2679491924
 41
1.880822065972532
 42
1.886753994249195
  0
ARC
  5
23C0
330
1F
100
AcDbEntity
  8
SK1
100
AcDbCircle
 10
50.76332224489999
 20
0.0
 30
0.0
 40
20.99999999999992
100
AcDbArc
 50
69.84140851549973
 51
73.79316172290001
  0
ELLIPSE
  5
23C2
330
1F
100
AcDbEntity
  8
SK1
100
AcDbEllipse
 10
85.00925327270001
 20
0.0
 30
0.0
 11
78.37306695894952
 21
0.0
 31
0.0
210
0.0
220
0.0
230
1.0
 40
0.2679491924
 41
1.916624695754011
 42
1.922630120764413
  0
ELLIPSE
  5
23C3
330
1F
100
AcDbEntity
  8
SK1
100
AcDbEllipse
 10
60.3500511382
 20
0.0
 30
0.0
 11
0.0
 21
21.0
 31
0.0
210
0.0
220
0.0
230
1.0
 40
0.2679491924
 41
0.2521454612905119
 42
0.3458283689591166
  0
ARC
  5
23C4
330
1F
100
AcDbEntity
  8
SK1
100
AcDbCircle
 10
59.15136112430002
 20
19.79444044119999
 30
0.0
 40
0.5790752625755508
100
AcDbArc
 50
77.07979213510039
 51
110.7464772789995
  0
ARC
  5
23C5
330
1F
100
AcDbEntity
  8
SK1
100
AcDbCircle
 10
54.13137064120002
 20
0.0
 30
0.0
 40
20.99999999999999
100
AcDbArc
 50
71.89695915009977
 51
75.80559333880007
  0
ELLIPSE
  5
23C6
330
1F
100
AcDbEntity
  8
SK1
100
AcDbEllipse
 10
78.11254287290001
 20
0.0
 30
0.0
 11
78.37306695894437
 21
0.0
 31
0.0
210
0.0
220
0.0
230
1.0
 40
0.2679491924
 41
1.779164561374119
 42
1.781200147390434
  0
ARC
  5
23C7
330
1F
100
AcDbEntity
  8
SK1
100
AcDbCircle
 10
61.74720156510002
 20
20.18093977019999
 30
0.0
 40
0.3559541715606452
100
AcDbArc
 50
90.52361591910026
 51
113.9811169387996
  0
ELLIPSE
  5
23C8
330
1F
100
AcDbEntity
  8
SK1
100
AcDbEllipse
 10
62.81563368670004
 20
0.0
 30
0.0
 11
0.0
 21
21.0
 31
0.0
210
0.0
220
0.0
230
1.0
 40
0.2679491924
 41
0.2172951606350466
 42
0.3100257391776359
  0
LINE
  5
23CA
330
1F
100
AcDbEntity
  8
SK1
100
AcDbLine
 10
62.19999864689999
 20
20.25612071159998
 30
0.0
 11
61.90000101920003
 21
20.54576575759999
 31
0.0
  0
LINE
  5
23CE
330
1F
100
AcDbEntity
  8
SK1
100
AcDbLine
 10
61.90000101920003
 20
20.9999997169
 30
0.0
 11
61.90000101920003
 21
20.54576575759999
 31
0.0
  0
LINE
  5
23CF
330
1F
100
AcDbEntity
  8
SK1
100
AcDbLine
 10
62.19999864689999
 20
20.70000022649999
 30
0.0
 11
61.90000101920003
 21
20.9999997169
 31
0.0
  0
LINE
  5
2433
330
1F
100
AcDbEntity
  8
SK1
100
AcDbLine
 10
-1.606834536400014
 20
10.50026785369998
 30
0.0
 11
-1.606834536400014
 21
16.325
 31
0.0
  0
LINE
  5
2434
330
1F
100
AcDbEntity
  8
SK1
100
AcDbLine
 10
-24.0
 20
-11.1
 30
0.0
 11
-24.0
 21
11.09999999999999
 31
0.0
  0
LINE
  5
2435
330
1F
100
AcDbEntity
  8
SK1
100
AcDbLine
 10
-20.0
 20
-12.00000000000001
 30
0.0
 11
-20.0
 21
11.99999999999998
 31
0.0
  0
LINE
  5
2436
330
1F
100
AcDbEntity
  8
SK1
100
AcDbLine
 10
-5.288334699949983
 20
-12.00000000000001
 30
0.0
 11
-5.288334699949983
 21
11.99999999999998
 31
0.0
  0
LINE
  5
2437
330
1F
100
AcDbEntity
  8
1
100
AcDbLine
 10
0.0
 20
-20.69999999999998
 30
0.0
 11
0.0
 21
20.69999999999998
 31
0.0
  0
LINE
  5
2438
330
1F
100
AcDbEntity
  8
3
100
AcDbLine
 10
0.5500000000000114
 20
-16.57499999999999
 30
0.0
 11
0.5500000000000114
 21
16.57499999999999
 31
0.0
  0
LINE
  5
2439
330
1F
100
AcDbEntity
  8
SK1
100
AcDbLine
 10
-3.449999999999988
 20
-16.325
 30
0.0
 11
-3.449999999999988
 21
16.325
 31
0.0
  0
LINE
  5
243A
330
1F
100
AcDbEntity
  8
SK3
100
AcDbLine
 10
0.0
 20
-5.100000000000006
 30
0.0
 11
-20.15879540709998
 21
-5.100000000000006
 31
0.0
  0
LINE
  5
243B
330
1F
100
AcDbEntity
  8
SK3
100
AcDbLine
 10
-20.15879540709998
 20
5.100000000000006
 30
0.0
 11
0.0
 21
5.100000000000006
 31
0.0
  0
LINE
  5
243C
330
1F
100
AcDbEntity
  8
SK4
100
AcDbLine
 10
0.0
 20
0.0
 30
0.0
 11
-24.0
 21
0.0
 31
0.0
  0
CIRCLE
  5
243D
330
1F
100
AcDbEntity
  8
SK1
100
AcDbCircle
 10
-12.19999999999999
 20
0.0
 30
0.0
 40
4.0
  0
CIRCLE
  5
243E
330
1F
100
AcDbEntity
  8
SK1
100
AcDbCircle
 10
-12.19999999999999
 20
0.0
 30
0.0
 40
5.013555400104165
  0
LWPOLYLINE
  5
243F
330
1F
100
AcDbEntity
  8
SK1
100
AcDbPolyline
 90
       21
 70
   128
 43
0.0
 10
-5.449999999999986
 20
0.0
 10
-5.475685177350013
 20
-0.4706607895499957
 10
-5.605190180300011
 20
-1.14995326475001
 10
-5.835078305400003
 20
-1.799257244749995
 10
-6.171748965200009
 20
-2.432681925349996
 10
-6.590916841500017
 20
-3.010930168900002
 10
-7.334048871550009
 20
-3.755756422600001
 10
-8.191827579250002
 20
-4.366648745250001
 10
-9.150564467000007
 20
-4.847616908400011
 10
-10.1750134195
 20
-5.188973005800007
 10
-11.39746620080001
 20
-5.404128120750002
 10
-12.6426642315
 20
-5.432100254100004
 10
-13.86988459335
 20
-5.271318959600007
 10
-15.05054422905002
 20
-4.926768466700011
 10
-16.15957459385001
 20
-4.395165125350002
 10
-17.15280417589999
 20
-3.681630755200004
 10
-17.79070190365001
 20
-3.0324460522
 10
-18.31683293494998
 20
-2.286376557549999
 10
-18.64180955204998
 20
-1.612760121249991
 10
-18.85717174090001
 20
-0.8926537578999925
 10
-18.94999999999998
 20
0.0
  0
LINE
  5
2440
330
1F
100
AcDbEntity
  8
SK1
100
AcDbLine
 10
-20.0
 20
-12.00000000000001
 30
0.0
 11
-5.288334699949983
 21
-12.00000000000001
 31
0.0
  0
LWPOLYLINE
  5
2441
330
1F
100
AcDbEntity
  8
SK1
100
AcDbPolyline
 90
       21
 70
   128
 43
0.0
 10
-18.94999999999998
 20
0.0
 10
-18.90547313830001
 20
0.6192857085499952
 10
-18.75416728295
 20
1.290436012499995
 10
-18.50555914930001
 20
1.92882552799999
 10
-18.14571581469998
 20
2.560184330149994
 10
-17.70416786674998
 20
3.133557992000007
 10
-17.19528443725001
 20
3.644105188399989
 10
-16.63047500145
 20
4.091720355299997
 10
-15.5943564975
 20
4.694596492799988
 10
-14.46571743135001
 20
5.122877964699995
 10
-13.26610378695
 20
5.373917414550006
 10
-12.03700931505
 20
5.442420996699993
 10
-10.80137475989999
 20
5.323231843249999
 10
-9.604997572450002
 20
5.01886315035
 10
-8.478313919349997
 20
4.529108495049996
 10
-7.458504382949994
 20
3.858150365050008
 10
-6.769317753350009
 20
3.214967350249991
 10
-6.19282382175001
 20
2.466421130599981
 10
-5.833433457150023
 20
1.794356970399986
 10
-5.58379811825
 20
1.070139511850001
 10
-5.449999999999986
 20
0.0
  0
ARC
  5
2443
330
1F
100
AcDbEntity
  8
SK1
100
AcDbCircle
 10
-23.19999999999999
 20
-11.1
 30
0.0
 40
0.8000000000000062
100
AcDbArc
 50
180.0
 51
280.0
  0
LINE
  5
2444
330
1F
100
AcDbEntity
  8
SK1
100
AcDbLine
 10
-23.06108145785001
 20
-11.88784620245
 30
0.0
 11
-22.11973197599998
 21
-11.72186089049999
 31
0.0
  0
ARC
  5
2445
330
1F
100
AcDbEntity
  8
SK1
100
AcDbCircle
 10
-22.05027270495
 20
-12.11578399169999
 30
0.0
 40
0.3999999999999999
100
AcDbArc
 50
81.99999999999922
 51
100.0
  0
LINE
  5
2446
330
1F
100
AcDbEntity
  8
SK1
100
AcDbLine
 10
-21.99460346455001
 20
-11.7196767642
 30
0.0
 11
-20.0
 21
-12.00000000000001
 31
0.0
  0
ARC
  5
2449
330
1F
100
AcDbEntity
  8
3
100
AcDbCircle
 10
-0.25
 20
-16.57499999999999
 30
0.0
 40
0.8000000000000115
100
AcDbArc
 50
335.0
 51
0.0
  0
LINE
  5
244A
330
1F
100
AcDbEntity
  8
3
100
AcDbLine
 10
0.0
 20
-17.9318345364
 30
0.0
 11
0.4750462296499907
 21
-16.9130946094
 31
0.0
  0
ARC
  5
244B
330
1F
100
AcDbEntity
  8
1
100
AcDbCircle
 10
0.3000000000000114
 20
-20.69999999999998
 30
0.0
 40
0.3000000000000114
100
AcDbArc
 50
180.0
 51
270.0
  0
LINE
  5
244C
330
1F
100
AcDbEntity
  8
SK1
100
AcDbLine
 10
-0.1500000000000057
 20
9.633204462249992
 30
0.0
 11
-0.1500000000000057
 21
-9.633204462250006
 31
0.0
  0
LINE
  5
244D
330
1F
100
AcDbEntity
  8
SK1
100
AcDbLine
 10
-1.606834536400014
 20
-10.50026785375
 30
0.0
 11
-3.449999999999988
 21
-10.50026785375
 31
0.0
  0
LINE
  5
244E
330
1F
100
AcDbEntity
  8
SK1
100
AcDbLine
 10
-3.449999999999988
 20
-16.325
 30
0.0
 11
-1.606834536400014
 21
-16.325
 31
0.0
  0
ARC
  5
244F
330
1F
100
AcDbEntity
  8
SK1
100
AcDbCircle
 10
-4.25
 20
-12.54999999999999
 30
0.0
 40
0.8000000000000049
100
AcDbArc
 50
0.0
 51
104.9999999999994
  0
LINE
  5
2450
330
1F
100
AcDbEntity
  8
SK1
100
AcDbLine
 10
-5.288334699949983
 20
-12.00000000000001
 30
0.0
 11
-4.457055236049995
 21
-11.77725933899999
 31
0.0
  0
LWPOLYLINE
  5
2451
330
1F
100
AcDbEntity
  8
SK1
100
AcDbPolyline
 90
        3
 70
   128
 43
0.0
 10
-1.606834536400014
 20
-10.50026785375
 10
-0.9873007807499899
 20
-10.0452335453
 10
-0.5880946094000024
 20
-9.745308333900011
  0
ARC
  5
2452
330
1F
100
AcDbEntity
  8
3
100
AcDbCircle
 10
-0.25
 20
-16.57499999999999
 30
0.0
 40
0.8000000000000115
100
AcDbArc
 50
0.0
 51
71.79004313569997
  0
LINE
  5
2453
330
1F
100
AcDbEntity
  8
SK1
100
AcDbLine
 10
-1.606834536400014
 20
-16.325
 30
0.0
 11
-0.5880946094000024
 21
-15.8499537704
 31
0.0
  0
ARC
  5
2454
330
1F
100
AcDbEntity
  8
SK1
100
AcDbCircle
 10
-0.25
 20
-16.57499999999999
 30
0.0
 40
0.8
100
AcDbArc
 50
71.79004313569997
 51
114.9999999999996
  0
LINE
  5
2455
330
1F
100
AcDbEntity
  8
SK1
100
AcDbLine
 10
-1.606834536400014
 20
-16.325
 30
0.0
 11
-1.606834536400014
 21
-10.50026785375
 31
0.0
  0
ARC
  5
2456
330
1F
100
AcDbEntity
  8
SK1
100
AcDbCircle
 10
-0.250267148450007
 20
-10.1534414915
 30
0.0
 40
0.5298113510098621
100
AcDbArc
 50
79.09094311859937
 51
129.6158610901002
  0
LINE
  5
2457
330
1F
100
AcDbEntity
  8
SK1
100
AcDbLine
 10
-1.606834536400014
 20
10.50026785369998
 30
0.0
 11
-3.449999999999988
 21
10.50026785369998
 31
0.0
  0
LINE
  5
2458
330
1F
100
AcDbEntity
  8
SK1
100
AcDbLine
 10
-0.5880946094000024
 20
9.745308333899984
 30
0.0
 11
-1.606834536400014
 21
10.50026785369998
 31
0.0
  0
ARC
  5
2459
330
1F
100
AcDbEntity
  8
SK1
100
AcDbCircle
 10
-0.2416361714500113
 20
10.18717078609999
 30
0.0
 40
0.5614943240023546
100
AcDbArc
 50
231.9004802497999
 51
279.3927155423995
  0
LINE
  5
245A
330
1F
100
AcDbEntity
  8
SK1
100
AcDbLine
 10
-5.288334699949983
 20
11.99999999999998
 30
0.0
 11
-20.0
 21
11.99999999999998
 31
0.0
  0
ARC
  5
245B
330
1F
100
AcDbEntity
  8
SK1
100
AcDbCircle
 10
-23.19999999999999
 20
11.09999999999999
 30
0.0
 40
0.8000000000000044
100
AcDbArc
 50
79.9999999999998
 51
180.0
  0
LINE
  5
245C
330
1F
100
AcDbEntity
  8
SK1
100
AcDbLine
 10
-22.11973197599998
 20
11.72186089045
 30
0.0
 11
-23.06108145785001
 21
11.88784620239998
 31
0.0
  0
ARC
  5
245D
330
1F
100
AcDbEntity
  8
SK1
100
AcDbCircle
 10
-22.05027270495
 20
12.11578399164999
 30
0.0
 40
0.3999999999999995
100
AcDbArc
 50
259.9999999999998
 51
278.0000000000006
  0
LINE
  5
245E
330
1F
100
AcDbEntity
  8
SK1
100
AcDbLine
 10
-20.0
 20
11.99999999999998
 30
0.0
 11
-21.99460346455001
 21
11.71967676414997
 31
0.0
  0
LINE
  5
245F
330
1F
100
AcDbEntity
  8
SK1
100
AcDbLine
 10
-1.606834536400014
 20
16.325
 30
0.0
 11
-3.449999999999988
 21
16.325
 31
0.0
  0
ARC
  5
2460
330
1F
100
AcDbEntity
  8
SK1
100
AcDbCircle
 10
-4.25
 20
12.54999999999999
 30
0.0
 40
0.7999999999999984
100
AcDbArc
 50
255.0000000000004
 51
0.0
  0
LINE
  5
2461
330
1F
100
AcDbEntity
  8
SK1
100
AcDbLine
 10
-4.457055236049995
 20
11.77725933894997
 30
0.0
 11
-5.288334699949983
 21
11.99999999999998
 31
0.0
  0
LINE
  5
2462
330
1F
100
AcDbEntity
  8
3
100
AcDbLine
 10
0.4750462296499907
 20
16.91309460939995
 30
0.0
 11
0.0
 21
17.93183453639999
 31
0.0
  0
ARC
  5
2463
330
1F
100
AcDbEntity
  8
3
100
AcDbCircle
 10
-0.25
 20
16.57499999999999
 30
0.0
 40
0.800000000000015
100
AcDbArc
 50
288.2099568642999
 51
345.6249999999998
  0
ARC
  5
2464
330
1F
100
AcDbEntity
  8
3
100
AcDbCircle
 10
-0.25
 20
16.57499999999999
 30
0.0
 40
0.800000000000015
100
AcDbArc
 50
345.6249999999998
 51
25.00000000000003
  0
LINE
  5
2465
330
1F
100
AcDbEntity
  8
SK1
100
AcDbLine
 10
-0.5880946094000024
 20
15.84995377034998
 30
0.0
 11
-1.606834536400014
 21
16.325
 31
0.0
  0
ARC
  5
2466
330
1F
100
AcDbEntity
  8
SK1
100
AcDbCircle
 10
-0.25
 20
16.57499999999999
 30
0.0
 40
0.8000000000000071
100
AcDbArc
 50
245.0000000000003
 51
288.2099568642999
  0
ARC
  5
2467
330
1F
100
AcDbEntity
  8
1
100
AcDbCircle
 10
0.3000000000000114
 20
20.69999999999998
 30
0.0
 40
0.3000000000000114
100
AcDbArc
 50
90.0
 51
180.0
  0
LINE
  5
2474
330
1F
100
AcDbEntity
  8
SK3
100
AcDbLine
 10
-20.15879540709998
 20
-5.100000183999995
 30
0.0
 11
-20.15879540709998
 21
5.100000183999995
 31
0.0
  0
LINE
  5
2475
330
1F
100
AcDbEntity
  8
SK3
100
AcDbLine
 10
-21.00000018259998
 20
-6.500000134099991
 30
0.0
 11
-21.00000018259998
 21
6.500000134100005
 31
0.0
  0
LINE
  5
2476
330
1F
100
AcDbEntity
  8
SK3
100
AcDbLine
 10
-23.50000018489998
 20
-6.500000134099991
 30
0.0
 11
-21.00000018259998
 21
-6.500000134099991
 31
0.0
  0
ARC
  5
2477
330
1F
100
AcDbEntity
  8
SK3
100
AcDbCircle
 10
-23.50000020869998
 20
-7.0
 30
0.0
 40
0.5
100
AcDbArc
 50
90.0
 51
180.0
  0
LINE
  5
2478
330
1F
100
AcDbEntity
  8
SK3
100
AcDbLine
 10
-21.00000018259998
 20
-6.500000134099991
 30
0.0
 11
-20.15879540709998
 21
-5.100000183999995
 31
0.0
  0
LINE
  5
2479
330
1F
100
AcDbEntity
  8
SK3
100
AcDbLine
 10
-21.00000018259998
 20
6.500000134100005
 30
0.0
 11
-23.50000018489998
 21
6.500000134100005
 31
0.0
  0
ARC
  5
247A
330
1F
100
AcDbEntity
  8
SK3
100
AcDbCircle
 10
-23.50000020869998
 20
7.0
 30
0.0
 40
0.5
100
AcDbArc
 50
180.0
 51
270.0
  0
LINE
  5
247B
330
1F
100
AcDbEntity
  8
SK3
100
AcDbLine
 10
-20.15879540709998
 20
5.100000183999995
 30
0.0
 11
-21.00000018259998
 21
6.500000134100005
 31
0.0
  0
LINE
  5
247C
330
1F
100
AcDbEntity
  8
SK3
100
AcDbLine
 10
59.20000001780002
 20
2.381959239211836
 30
0.0
 11
59.20000001780002
 21
2.499999944099997
 31
0.0
  0
LINE
  5
247D
330
1F
100
AcDbEntity
  8
SK3
100
AcDbLine
 10
59.20000001780002
 20
2.499999944099997
 30
0.0
 11
59.26125315460605
 21
2.499999944099997
 31
0.0
  0
LINE
  5
24D7
330
1F
100
AcDbEntity
  8
1
100
AcDbLine
 10
39.9000011384
 20
17.29678611298479
 30
0.0
 11
39.8485846817
 21
17.16308481989999
 31
0.0
  0
LINE
  5
24D8
330
1F
100
AcDbEntity
  8
SK1
100
AcDbLine
 10
39.9000011384
 20
20.99999971690001
 30
0.0
 11
61.90000101920003
 21
20.9999997169
 31
0.0
  0
LINE
  5
24D9
330
1F
100
AcDbEntity
  8
1
100
AcDbLine
 10
42.06256195899999
 20
-12.81635281388009
 30
0.0
 11
42.06256287630844
 21
-17.56635221092518
 31
0.0
  0
LINE
  5
24DA
330
1F
100
AcDbEntity
  8
1
100
AcDbLine
 10
42.50488057730001
 20
-12.89342699039957
 30
0.0
 11
42.50487908137738
 21
-17.64342338523088
 31
0.0
  0
LINE
  5
24DB
330
1F
100
AcDbEntity
  8
1
100
AcDbLine
 10
44.71885785460002
 20
-13.26252858982275
 30
0.0
 11
44.71885889855863
 21
-18.0125279641278
 31
0.0
  0
LINE
  5
24DC
330
1F
100
AcDbEntity
  8
1
100
AcDbLine
 10
45.16117647290002
 20
-13.33303680773122
 30
0.0
 11
45.16117510367233
 21
-18.08303378902873
 31
0.0
  0
LINE
  5
24DD
330
1F
100
AcDbEntity
  8
1
100
AcDbLine
 10
47.3751537501
 20
-13.67043533617392
 30
0.0
 11
47.37515492085143
 21
-18.42043469526131
 31
0.0
  0
LINE
  5
24DE
330
1F
100
AcDbEntity
  8
1
100
AcDbLine
 10
47.81747236840002
 20
-13.73482466427442
 30
0.0
 11
47.81747112596729
 21
-18.4848221629572
 31
0.0
  0
LINE
  5
24DF
330
1F
100
AcDbEntity
  8
1
100
AcDbLine
 10
50.03144964570001
 20
-14.04256519218389
 30
0.0
 11
50.03145094319343
 21
-18.79256454295587
 31
0.0
  0
LINE
  5
24E0
330
1F
100
AcDbEntity
  8
1
100
AcDbLine
 10
50.473768264
 20
-14.10120908656774
 30
0.0
 11
50.47376714826238
 21
-18.85120704075759
 31
0.0
  0
LINE
  5
24E1
330
1F
100
AcDbEntity
  8
1
100
AcDbLine
 10
52.68774554130001
 20
-14.38100603178058
 30
0.0
 11
52.68774696547971
 21
-19.13100538706076
 31
0.0
  0
LINE
  5
24E2
330
1F
100
AcDbEntity
  8
1
100
AcDbLine
 10
53.13006415960001
 20
-14.43421860897717
 30
0.0
 11
53.13006317055729
 21
-19.18421696361924
 31
0.0
  0
LINE
  5
24E3
330
1F
100
AcDbEntity
  8
1
100
AcDbLine
 10
55.3440414369
 20
-14.68751768686503
 30
0.0
 11
55.34404298778335
 21
-19.43751705040696
 31
0.0
  0
LINE
  5
24E4
330
1F
100
AcDbEntity
  8
1
100
AcDbLine
 10
55.78636005520002
 20
-14.73556444439951
 30
0.0
 11
55.78635919285229
 21
-19.48556314909274
 31
0.0
  0
LINE
  5
24E5
330
1F
100
AcDbEntity
  8
1
100
AcDbLine
 10
58.0003373325
 20
-14.9635895417818
 30
0.0
 11
58.00033901007789
 21
-19.71358892366526
 31
0.0
  0
LINE
  5
24E6
330
1F
100
AcDbEntity
  8
1
100
AcDbLine
 10
58.44265595070002
 20
-15.00669552955202
 30
0.0
 11
58.4426552153203
 21
-19.75669454069566
 31
0.0
  0
LINE
  5
24E7
330
1F
100
AcDbEntity
  8
1
100
AcDbLine
 10
60.656633228
 20
-15.21048466779571
 30
0.0
 11
60.656633228
 21
-19.96048466779573
 31
0.0
  0
LINE
  5
24E8
330
1F
100
AcDbEntity
  8
1
100
AcDbLine
 10
61.09895184630002
 20
-15.24884079756327
 30
0.0
 11
61.098951237631
 21
-19.99884006984819
 31
0.0
  0
LINE
  5
24E9
330
1F
100
AcDbEntity
  8
1
100
AcDbLine
 10
62.19999864689998
 20
-14.54467428561446
 30
0.0
 11
62.19999864689999
 21
-20.70000022649999
 31
0.0
  0
LINE
  5
24EA
330
1F
100
AcDbEntity
  8
4
100
AcDbLine
 10
0.0
 20
0.0
 30
0.0
 11
39.9000011384
 21
0.0
 31
0.0
  0
LINE
  5
24EB
330
1F
100
AcDbEntity
  8
SK4
100
AcDbLine
 10
39.9000011384
 20
0.0
 30
0.0
 11
59.20000001780002
 21
0.0
 31
0.0
  0
ENDSEC
  0
SECTION
  2
OBJECTS
  0
DICTIONARY
  5
C
330
0
100
AcDbDictionary
281
     1
  3
ACAD_GROUP
350
D
  3
ACAD_LAYOUT
350
1A
  3
ACAD_MLINESTYLE
350
17
  3
ACAD_PLOTSETTINGS
350
19
  3
ACAD_PLOTSTYLENAME
350
E
  3
AcDbVariableDictionary
350
28D
  0
DICTIONARY
  5
268
330
2
100
AcDbDictionary
280
     1
281
     1
  3
ACAD_LAYERSTATES
360
269
  0
DICTIONARY
  5
D
102
{ACAD_REACTORS
330
C
102
}
330
C
100
AcDbDictionary
281
     1
  0
DICTIONARY
  5
1A
102
{ACAD_REACTORS
330
C
102
}
330
C
100
AcDbDictionary
281
     1
  3
Layout1
350
1E
  3
Layout2
350
26
  3
Model
350
22
  0
DICTIONARY
  5
17
102
{ACAD_REACTORS
330
C
102
}
330
C
100
AcDbDictionary
281
     1
  3
Standard
350
18
  0
DICTIONARY
  5
19
102
{ACAD_REACTORS
330
C
102
}
330
C
100
AcDbDictionary
281
     1
  0
ACDBDICTIONARYWDFLT
  5
E
102
{ACAD_REACTORS
330
C
102
}
330
C
100
AcDbDictionary
281
     1
  3
Normal
350
F
100
AcDbDictionaryWithDefault
340
F
  0
DICTIONARY
  5
28D
102
{ACAD_REACTORS
330
C
102
}
330
C
100
AcDbDictionary
281
     1
  3
DIMASSOC
350
28E
  0
DICTIONARY
  5
269
102
{ACAD_REACTORS
330
268
102
}
330
268
100
AcDbDictionary
281
     1
  0
LAYOUT
  5
1E
102
{ACAD_REACTORS
330
1A
102
}
330
1A
100
AcDbPlotSettings
  1

  2

  4

  6

 40
0.0
 41
0.0
 42
0.0
 43
0.0
 44
0.0
 45
0.0
 46
0.0
 47
0.0
 48
0.0
 49
0.0
140
0.0
141
0.0
142
1.0
143
1.0
 70
   688
 72
     0
 73
     0
 74
     5
  7

 75
    16
147
1.0
148
0.0
149
0.0
100
AcDbLayout
  1
Layout1
 70
     1
 71
     1
 10
0.0
 20
0.0
 11
420.0
 21
297.0
 12
0.0
 22
0.0
 32
0.0
 14
1.000000000000000E+20
 24
1.000000000000000E+20
 34
1.000000000000000E+20
 15
-1.000000000000000E+20
 25
-1.000000000000000E+20
 35
-1.000000000000000E+20
146
0.0
 13
0.0
 23
0.0
 33
0.0
 16
1.0
 26
0.0
 36
0.0
 17
0.0
 27
1.0
 37
0.0
 76
     0
330
1B
  0
LAYOUT
  5
26
102
{ACAD_REACTORS
330
1A
102
}
330
1A
100
AcDbPlotSettings
  1

  2

  4

  6

 40
0.0
 41
0.0
 42
0.0
 43
0.0
 44
0.0
 45
0.0
 46
0.0
 47
0.0
 48
0.0
 49
0.0
140
0.0
141
0.0
142
1.0
143
1.0
 70
   688
 72
     0
 73
     0
 74
     5
  7

 75
    16
147
1.0
148
0.0
149
0.0
100
AcDbLayout
  1
Layout2
 70
     1
 71
     2
 10
0.0
 20
0.0
 11
0.0
 21
0.0
 12
0.0
 22
0.0
 32
0.0
 14
0.0
 24
0.0
 34
0.0
 15
0.0
 25
0.0
 35
0.0
146
0.0
 13
0.0
 23
0.0
 33
0.0
 16
1.0
 26
0.0
 36
0.0
 17
0.0
 27
1.0
 37
0.0
 76
     0
330
23
  0
LAYOUT
  5
22
102
{ACAD_REACTORS
330
1A
102
}
330
1A
100
AcDbPlotSettings
  1

  2

  4

  6

 40
0.0
 41
0.0
 42
0.0
 43
0.0
 44
0.0
 45
0.0
 46
0.0
 47
0.0
 48
0.0
 49
0.0
140
0.0
141
0.0
142
1.0
143
1.0
 70
  1712
 72
     0
 73
     0
 74
     0
  7

 75
     0
147
1.0
148
0.0
149
0.0
100
AcDbLayout
  1
Model
 70
     1
 71
     0
 10
0.0
 20
0.0
 11
0.0
 21
0.0
 12
0.0
 22
0.0
 32
0.0
 14
0.0
 24
0.0
 34
0.0
 15
297.0
 25
210.0
 35
0.0
146
0.0
 13
0.0
 23
0.0
 33
0.0
 16
1.0
 26
0.0
 36
0.0
 17
0.0
 27
1.0
 37
0.0
 76
     0
330
1F
  0
MLINESTYLE
  5
18
102
{ACAD_REACTORS
330
17
102
}
330
17
100
AcDbMlineStyle
  2
STANDARD
 70
     0
  3

 62
   256
 51
90.0
 52
90.0
 71
     2
 49
0.5
 62
   256
  6
BYLAYER
 49
-0.5
 62
   256
  6
BYLAYER
  0
ACDBPLACEHOLDER
  5
F
102
{ACAD_REACTORS
330
E
102
}
330
E
  0
DICTIONARYVAR
  5
28E
102
{ACAD_REACTORS
330
28D
102
}
330
28D
100
DictionaryVariables
280
     0
  1
1
  0
ENDSEC
  0
EOF
