  0
SECTION
  2
HEADER
  9
$ACADVER
  1
AC1015
  9
$ACADMAINTVER
 70
     6
  9
$DWGCODEPAGE
  3
ANSI_1252
  9
$INSBASE
 10
0.0
 20
0.0
 30
0.0
  9
$EXTMIN
 10
0.0
 20
0.0
 30
0.0
  9
$EXTMAX
 10
297.0
 20
210.0
 30
0.0
  9
$LIMMIN
 10
0.0
 20
0.0
  9
$LIMMAX
 10
297.0
 20
210.0
  9
$ORTHOMODE
 70
     0
  9
$REGENMODE
 70
     1
  9
$FILLMODE
 70
     1
  9
$QTEXTMODE
 70
     0
  9
$MIRRTEXT
 70
     1
  9
$LTSCALE
 40
1.0
  9
$ATTMODE
 70
     1
  9
$TEXTSIZE
 40
2.0
  9
$TRACEWID
 40
1.0
  9
$TEXTSTYLE
  7
Standard
  9
$CLAYER
  8
0
  9
$CELTYPE
  6
ByLayer
  9
$CECOLOR
 62
   256
  9
$CELTSCALE
 40
1.0
  9
$DISPSILH
 70
     0
  9
$DIMSCALE
 40
1.0
  9
$DIMASZ
 40
3.0
  9
$DIMEXO
 40
0.0
  9
$DIMDLI
 40
3.75
  9
$DIMRND
 40
0.0
  9
$DIMDLE
 40
0.0
  9
$DIMEXE
 40
1.0
  9
$DIMTP
 40
0.0
  9
$DIMTM
 40
0.0
  9
$DIMTXT
 40
2.0
  9
$DIMCEN
 40
2.5
  9
$DIMTSZ
 40
0.0
  9
$DIMTOL
 70
     0
  9
$DIMLIM
 70
     0
  9
$DIMTIH
 70
     1
  9
$DIMTOH
 70
     1
  9
$DIMSE1
 70
     0
  9
$DIMSE2
 70
     0
  9
$DIMTAD
 70
     1
  9
$DIMZIN
 70
     0
  9
$DIMBLK
  1

  9
$DIMASO
 70
     1
  9
$DIMSHO
 70
     1
  9
$DIMPOST
  1

  9
$DIMAPOST
  1

  9
$DIMALT
 70
     0
  9
$DIMALTD
 70
     3
  9
$DIMALTF
 40
0.0393700787
  9
$DIMLFAC
 40
1.0
  9
$DIMTOFL
 70
     1
  9
$DIMTVP
 40
0.0
  9
$DIMTIX
 70
     0
  9
$DIMSOXD
 70
     0
  9
$DIMSAH
 70
     0
  9
$DIMBLK1
  1

  9
$DIMBLK2
  1

  9
$DIMSTYLE
  2
ISO-25
  9
$DIMCLRD
 70
     0
  9
$DIMCLRE
 70
     0
  9
$DIMCLRT
 70
     0
  9
$DIMTFAC
 40
1.0
  9
$DIMGAP
 40
1.524
  9
$DIMJUST
 70
     0
  9
$DIMSD1
 70
     0
  9
$DIMSD2
 70
     0
  9
$DIMTOLJ
 70
     0
  9
$DIMTZIN
 70
     0
  9
$DIMALTZ
 70
     0
  9
$DIMALTTZ
 70
     0
  9
$DIMUPT
 70
     0
  9
$DIMDEC
 70
     2
  9
$DIMTDEC
 70
     3
  9
$DIMALTU
 70
     2
  9
$DIMALTTD
 70
     3
  9
$DIMTXSTY
  7
Standard
  9
$DIMAUNIT
 70
     0
  9
$DIMADEC
 70
     2
  9
$DIMALTRND
 40
0.0
  9
$DIMAZIN
 70
     0
  9
$DIMDSEP
 70
    44
  9
$DIMATFIT
 70
     3
  9
$DIMFRAC
 70
     0
  9
$DIMLDRBLK
  1

  9
$DIMLUNIT
 70
     2
  9
$DIMLWD
 70
    -2
  9
$DIMLWE
 70
    -2
  9
$DIMTMOVE
 70
     0
  9
$LUNITS
 70
     2
  9
$LUPREC
 70
     2
  9
$SKETCHINC
 40
1.0
  9
$FILLETRAD
 40
10.0
  9
$AUNITS
 70
     0
  9
$AUPREC
 70
     2
  9
$MENU
  1
.
  9
$ELEVATION
 40
0.0
  9
$PELEVATION
 40
0.0
  9
$THICKNESS
 40
0.0
  9
$LIMCHECK
 70
     0
  9
$CHAMFERA
 40
0.0
  9
$CHAMFERB
 40
0.0
  9
$CHAMFERC
 40
0.0
  9
$CHAMFERD
 40
0.0
  9
$SKPOLY
 70
     0
  9
$TDCREATE
 40
2457672.517054826
  9
$TDUCREATE
 40
2457672.433721493
  9
$TDUPDATE
 40
2457672.517056192
  9
$TDUUPDATE
 40
2457672.433722859
  9
$TDINDWG
 40
0.0000000116
  9
$TDUSRTIMER
 40
0.0000000116
  9
$USRTIMER
 70
     1
  9
$ANGBASE
 50
0.0
  9
$ANGDIR
 70
     0
  9
$PDMODE
 70
     0
  9
$PDSIZE
 40
-1.0
  9
$PLINEWID
 40
0.0
  9
$SPLFRAME
 70
     0
  9
$SPLINETYPE
 70
     6
  9
$SPLINESEGS
 70
     8
  9
$HANDSEED
  5
278
  9
$SURFTAB1
 70
     6
  9
$SURFTAB2
 70
     6
  9
$SURFTYPE
 70
     6
  9
$SURFU
 70
     6
  9
$SURFV
 70
     6
  9
$UCSBASE
  2

  9
$UCSNAME
  2

  9
$UCSORG
 10
0.0
 20
0.0
 30
0.0
  9
$UCSXDIR
 10
1.0
 20
0.0
 30
0.0
  9
$UCSYDIR
 10
0.0
 20
1.0
 30
0.0
  9
$UCSORTHOREF
  2

  9
$UCSORTHOVIEW
 70
     0
  9
$UCSORGTOP
 10
0.0
 20
0.0
 30
0.0
  9
$UCSORGBOTTOM
 10
0.0
 20
0.0
 30
0.0
  9
$UCSORGLEFT
 10
0.0
 20
0.0
 30
0.0
  9
$UCSORGRIGHT
 10
0.0
 20
0.0
 30
0.0
  9
$UCSORGFRONT
 10
0.0
 20
0.0
 30
0.0
  9
$UCSORGBACK
 10
0.0
 20
0.0
 30
0.0
  9
$PUCSBASE
  2

  9
$PUCSNAME
  2

  9
$PUCSORG
 10
0.0
 20
0.0
 30
0.0
  9
$PUCSXDIR
 10
1.0
 20
0.0
 30
0.0
  9
$PUCSYDIR
 10
0.0
 20
1.0
 30
0.0
  9
$PUCSORTHOREF
  2

  9
$PUCSORTHOVIEW
 70
     0
  9
$PUCSORGTOP
 10
0.0
 20
0.0
 30
0.0
  9
$PUCSORGBOTTOM
 10
0.0
 20
0.0
 30
0.0
  9
$PUCSORGLEFT
 10
0.0
 20
0.0
 30
0.0
  9
$PUCSORGRIGHT
 10
0.0
 20
0.0
 30
0.0
  9
$PUCSORGFRONT
 10
0.0
 20
0.0
 30
0.0
  9
$PUCSORGBACK
 10
0.0
 20
0.0
 30
0.0
  9
$USERI1
 70
     0
  9
$USERI2
 70
     0
  9
$USERI3
 70
     0
  9
$USERI4
 70
     0
  9
$USERI5
 70
     0
  9
$USERR1
 40
0.0
  9
$USERR2
 40
0.0
  9
$USERR3
 40
0.0
  9
$USERR4
 40
0.0
  9
$USERR5
 40
0.0
  9
$WORLDVIEW
 70
     1
  9
$SHADEDGE
 70
     3
  9
$SHADEDIF
 70
    70
  9
$TILEMODE
 70
     1
  9
$MAXACTVP
 70
    64
  9
$PINSBASE
 10
0.0
 20
0.0
 30
0.0
  9
$PLIMCHECK
 70
     0
  9
$PEXTMIN
 10
1.0000000000E+20
 20
1.0000000000E+20
 30
1.0000000000E+20
  9
$PEXTMAX
 10
-1.0000000000E+20
 20
-1.0000000000E+20
 30
-1.0000000000E+20
  9
$PLIMMIN
 10
0.0
 20
0.0
  9
$PLIMMAX
 10
420.0
 20
297.0
  9
$UNITMODE
 70
     0
  9
$VISRETAIN
 70
     1
  9
$PLINEGEN
 70
     0
  9
$PSLTSCALE
 70
     1
  9
$TREEDEPTH
 70
  3020
  9
$CMLSTYLE
  2
Standard
  9
$CMLJUST
 70
     0
  9
$CMLSCALE
 40
20.0
  9
$PROXYGRAPHICS
 70
     1
  9
$MEASUREMENT
 70
     1
  9
$CELWEIGHT
370
    -1
  9
$ENDCAPS
280
     0
  9
$JOINSTYLE
280
     0
  9
$LWDISPLAY
290
     1
  9
$INSUNITS
 70
     4
  9
$HYPERLINKBASE
  1

  9
$STYLESHEET
  1

  9
$XEDIT
290
     1
  9
$CEPSNTYPE
380
     0
  9
$PSTYLEMODE
290
     1
  9
$FINGERPRINTGUID
  2
{D8029A95-6BDA-47E7-96E7-0C374A24D597}
  9
$VERSIONGUID
  2
{FAEB1C32-E019-11D5-929B-00C0DF256EC4}
  9
$EXTNAMES
290
     1
  9
$PSVPSCALE
 40
0.0
  9
$OLESTARTUP
290
     0
  0
ENDSEC
  0
SECTION
  2
CLASSES
  0
CLASS
  1
ACDBDICTIONARYWDFLT
  2
AcDbDictionaryWithDefault
  3
ObjectDBX Classes
 90
        0
280
     0
281
     0
  0
CLASS
  1
VISUALSTYLE
  2
AcDbVisualStyle
  3
ObjectDBX Classes
 90
     4095
280
     0
281
     0
  0
CLASS
  1
MATERIAL
  2
AcDbMaterial
  3
ObjectDBX Classes
 90
     1153
280
     0
281
     0
  0
CLASS
  1
SCALE
  2
AcDbScale
  3
ObjectDBX Classes
 90
     1153
280
     0
281
     0
  0
CLASS
  1
TABLESTYLE
  2
AcDbTableStyle
  3
ObjectDBX Classes
 90
     4095
280
     0
281
     0
  0
CLASS
  1
MLEADERSTYLE
  2
AcDbMLeaderStyle
  3
ACDB_MLEADERSTYLE_CLASS
 90
     4095
280
     0
281
     0
  0
CLASS
  1
SUN
  2
AcDbSun
  3
SCENEOE
 90
     1153
280
     0
281
     0
  0
CLASS
  1
ACDBPLACEHOLDER
  2
AcDbPlaceHolder
  3
ObjectDBX Classes
 90
        0
280
     0
281
     0
  0
CLASS
  1
LAYOUT
  2
AcDbLayout
  3
ObjectDBX Classes
 90
        0
280
     0
281
     0
  0
ENDSEC
  0
SECTION
  2
TABLES
  0
TABLE
  2
VPORT
  5
8
330
0
100
AcDbSymbolTable
 70
     1
  0
VPORT
  5
29
330
8
100
AcDbSymbolTableRecord
100
AcDbViewportTableRecord
  2
*Active
 70
     0
 10
0.0
 20
0.0
 11
1.0
 21
1.0
 12
148.5
 22
105.0
 13
0.0
 23
0.0
 14
10.0
 24
10.0
 15
10.0
 25
10.0
 16
0.0
 26
0.0
 36
1.0
 17
0.0
 27
0.0
 37
0.0
 40
210.0
 41
1.4142857143
 42
50.0
 43
0.0
 44
0.0
 50
0.0
 51
0.0
 71
     0
 72
  2000
 73
     1
 74
     3
 75
     0
 76
     0
 77
     0
 78
     0
281
     0
 65
     1
110
0.0
120
0.0
130
0.0
111
1.0
121
0.0
131
0.0
112
0.0
122
1.0
132
0.0
 79
     0
146
0.0
  0
ENDTAB
  0
TABLE
  2
LTYPE
  5
5
330
0
100
AcDbSymbolTable
 70
     6
  0
LTYPE
  5
14
330
5
100
AcDbSymbolTableRecord
100
AcDbLinetypeTableRecord
  2
ByBlock
 70
     0
  3

 72
    65
 73
     0
 40
0.0
  0
LTYPE
  5
15
330
5
100
AcDbSymbolTableRecord
100
AcDbLinetypeTableRecord
  2
ByLayer
 70
     0
  3

 72
    65
 73
     0
 40
0.0
  0
LTYPE
  5
16
330
5
100
AcDbSymbolTableRecord
100
AcDbLinetypeTableRecord
  2
Continuous
 70
     0
  3
Solid line
 72
    65
 73
     0
 40
0.0
  0
LTYPE
  5
6E
330
5
100
AcDbSymbolTableRecord
100
AcDbLinetypeTableRecord
  2
HIDDEN
 70
     0
  3
Hidden __ __ __ __ __ __ __ __ __ __ __ __ __ __
 72
    65
 73
     2
 40
1.905
 49
1.27
 74
     0
 49
-0.635
 74
     0
  0
LTYPE
  5
6F
330
5
100
AcDbSymbolTableRecord
100
AcDbLinetypeTableRecord
  2
PHANTOM
 70
     0
  3
Phantom ______  __  __  ______  __  __  ______
 72
    65
 73
     6
 40
12.7
 49
6.35
 74
     0
 49
-1.27
 74
     0
 49
1.27
 74
     0
 49
-1.27
 74
     0
 49
1.27
 74
     0
 49
-1.27
 74
     0
  0
LTYPE
  5
70
330
5
100
AcDbSymbolTableRecord
100
AcDbLinetypeTableRecord
  2
CENTER
 70
     0
  3
Center ____ _ ____ _ ____ _ ____ _ ____ _ ____
 72
    65
 73
     4
 40
10.16
 49
6.35
 74
     0
 49
-1.27
 74
     0
 49
1.27
 74
     0
 49
-1.27
 74
     0
  0
LTYPE
  5
71
330
5
100
AcDbSymbolTableRecord
100
AcDbLinetypeTableRecord
  2
CENTERX2
 70
     0
  3
Center (2x) ________  __  ________  __  _____
 72
    65
 73
     4
 40
20.32
 49
12.7
 74
     0
 49
-2.54
 74
     0
 49
2.54
 74
     0
 49
-2.54
 74
     0
  0
LTYPE
  5
72
330
5
100
AcDbSymbolTableRecord
100
AcDbLinetypeTableRecord
  2
DOT2
 70
     0
  3
Dot (.5x) ........................................
 72
    65
 73
     2
 40
0.635
 49
0.0
 74
     0
 49
-0.635
 74
     0
  0
ENDTAB
  0
TABLE
  2
LAYER
  5
2
330
0
100
AcDbSymbolTable
 70
     5
  0
LAYER
  5
10
330
2
100
AcDbSymbolTableRecord
100
AcDbLayerTableRecord
  2
0
 70
     0
 62
     7
  6
Continuous
370
    -3
390
F
  0
LAYER
  5
73
330
2
100
AcDbSymbolTableRecord
100
AcDbLayerTableRecord
  2
FORMAT
 70
     0
 62
     7
  6
Continuous
370
    -3
390
F
  0
LAYER
  5
74
330
2
100
AcDbSymbolTableRecord
100
AcDbLayerTableRecord
  2
VERMASSUNG
 70
     0
 62
     7
  6
Continuous
370
    -3
390
F
  0
LAYER
  5
75
330
2
100
AcDbSymbolTableRecord
100
AcDbLayerTableRecord
  2
KOPF_DÜNN
 70
     0
 62
     7
  6
Continuous
370
    -3
390
F
  0
LAYER
  5
76
330
2
100
AcDbSymbolTableRecord
100
AcDbLayerTableRecord
  2
KOPF_DICK
 70
     0
 62
     7
  6
Continuous
370
    15
390
F
  0
ENDTAB
  0
TABLE
  2
STYLE
  5
3
330
0
100
AcDbSymbolTable
 70
     3
  0
STYLE
  5
11
330
3
100
AcDbSymbolTableRecord
100
AcDbTextStyleTableRecord
  2
Standard
 70
     0
 40
0.0
 41
1.0
 50
0.0
 71
     0
 42
2.0
  3
txt
  4

  0
STYLE
  5
77
330
3
100
AcDbSymbolTableRecord
100
AcDbTextStyleTableRecord
  2
SLDTEXTSTYLE0
 70
     0
 40
0.0
 41
0.7
 50
0.0
 71
     0
 42
2.0
  3
TXT
  4

  0
STYLE
  5
7B
330
3
100
AcDbSymbolTableRecord
100
AcDbTextStyleTableRecord
  2
SLDTEXTSTYLE1
 70
     0
 40
0.0
 41
0.6454545455
 50
0.0
 71
     0
 42
2.0
  3
TXT
  4

  0
ENDTAB
  0
TABLE
  2
VIEW
  5
6
330
0
100
AcDbSymbolTable
 70
     0
  0
ENDTAB
  0
TABLE
  2
UCS
  5
7
330
0
100
AcDbSymbolTable
 70
     0
  0
ENDTAB
  0
TABLE
  2
APPID
  5
9
330
0
100
AcDbSymbolTable
 70
     1
  0
APPID
  5
12
330
9
100
AcDbSymbolTableRecord
100
AcDbRegAppTableRecord
  2
ACAD
 70
     0
  0
ENDTAB
  0
TABLE
  2
DIMSTYLE
  5
A
330
0
100
AcDbSymbolTable
 70
     2
100
AcDbDimStyleTable
  0
DIMSTYLE
105
27
330
A
100
AcDbSymbolTableRecord
100
AcDbDimStyleTableRecord
  2
ISO-25
 70
     0
 41
2.5
 42
0.625
 43
3.75
 44
1.25
 73
     0
 74
     0
 77
     1
 78
     8
140
2.5
141
2.5
143
0.0393700787
147
0.625
171
     3
172
     1
178
     0
271
     2
272
     2
274
     3
278
    44
283
     0
284
     8
340
11
  0
DIMSTYLE
105
19E
102
{ACAD_REACTORS
330
19D
330
1AA
330
1B5
330
1C1
330
1CB
330
1D7
102
}
330
A
100
AcDbSymbolTableRecord
100
AcDbDimStyleTableRecord
  2
SLDDIMSTYLE0
 70
     0
 41
3.0
 44
0.0
 45
0.000000001
 73
     0
 74
     0
 77
     1
 78
    12
 79
     3
140
2.0
147
0.5
173
     1
178
     0
271
     2
272
     3
276
     2
284
    12
340
77
  0
ENDTAB
  0
TABLE
  2
BLOCK_RECORD
  5
1
330
0
100
AcDbSymbolTable
 70
     7
  0
BLOCK_RECORD
  5
1F
330
1
100
AcDbSymbolTableRecord
100
AcDbBlockTableRecord
  2
*Model_Space
340
22
  0
BLOCK_RECORD
  5
1B
330
1
100
AcDbSymbolTableRecord
100
AcDbBlockTableRecord
  2
*Paper_Space
340
1E
  0
BLOCK_RECORD
  5
23
330
1
100
AcDbSymbolTableRecord
100
AcDbBlockTableRecord
  2
*Paper_Space0
340
26
  0
BLOCK_RECORD
  5
19F
330
1
100
AcDbSymbolTableRecord
100
AcDbBlockTableRecord
  2
_D
340
0
  0
BLOCK_RECORD
  5
1AB
330
1
100
AcDbSymbolTableRecord
100
AcDbBlockTableRecord
  2
_D_1
340
0
  0
BLOCK_RECORD
  5
1B6
330
1
100
AcDbSymbolTableRecord
100
AcDbBlockTableRecord
  2
_D_2
340
0
  0
BLOCK_RECORD
  5
1C2
330
1
100
AcDbSymbolTableRecord
100
AcDbBlockTableRecord
  2
_D_3
340
0
  0
BLOCK_RECORD
  5
1CC
330
1
100
AcDbSymbolTableRecord
100
AcDbBlockTableRecord
  2
_D_4
340
0
  0
BLOCK_RECORD
  5
1D8
330
1
100
AcDbSymbolTableRecord
100
AcDbBlockTableRecord
  2
_D_5
340
0
  0
ENDTAB
  0
ENDSEC
  0
SECTION
  2
BLOCKS
  0
BLOCK
  5
20
330
1F
100
AcDbEntity
  8
0
100
AcDbBlockBegin
  2
*Model_Space
 70
     0
 10
0.0
 20
0.0
 30
0.0
  3
*Model_Space
  1

  0
ENDBLK
  5
21
330
1F
100
AcDbEntity
  8
0
100
AcDbBlockEnd
  0
BLOCK
  5
1C
330
1B
100
AcDbEntity
 67
     1
  8
0
100
AcDbBlockBegin
  2
*Paper_Space
 70
     0
 10
0.0
 20
0.0
 30
0.0
  3
*Paper_Space
  1

  0
ENDBLK
  5
1D
330
1B
100
AcDbEntity
 67
     1
  8
0
100
AcDbBlockEnd
  0
BLOCK
  5
24
330
23
100
AcDbEntity
  8
0
100
AcDbBlockBegin
  2
*Paper_Space0
 70
     0
 10
0.0
 20
0.0
 30
0.0
  3
*Paper_Space0
  1

  0
ENDBLK
  5
25
330
23
100
AcDbEntity
  8
0
100
AcDbBlockEnd
  0
BLOCK
  5
1A0
330
19F
100
AcDbEntity
  8
0
100
AcDbBlockBegin
  2
_D
 70
     0
 10
0.0
 20
0.0
 30
0.0
  3
_D
  1

  0
SOLID
  5
1A2
330
19F
100
AcDbEntity
  8
VERMASSUNG
100
AcDbTrace
 10
240.1172968136
 20
123.0826119851
 30
0.0
 11
239.6672968136
 21
120.0826119851
 31
0.0
 12
240.5672968136
 22
120.0826119851
 32
0.0
 13
240.5672968136
 23
120.0826119851
 33
0.0
  0
SOLID
  5
1A3
330
19F
100
AcDbEntity
  8
VERMASSUNG
100
AcDbTrace
 10
240.1172968136
 20
98.0826119851
 30
0.0
 11
240.5672968136
 21
101.0826119851
 31
0.0
 12
239.6672968136
 22
101.0826119851
 32
0.0
 13
239.6672968136
 23
101.0826119851
 33
0.0
  0
LINE
  5
1A4
330
19F
100
AcDbEntity
  8
VERMASSUNG
100
AcDbLine
 10
228.455058962
 20
123.0826119851
 30
0.0
 11
241.1172968136
 21
123.0826119851
 31
0.0
  0
LINE
  5
1A5
330
19F
100
AcDbEntity
  8
VERMASSUNG
100
AcDbLine
 10
228.455058962
 20
98.0826119851
 30
0.0
 11
241.1172968136
 21
98.0826119851
 31
0.0
  0
LINE
  5
1A6
330
19F
100
AcDbEntity
  8
VERMASSUNG
100
AcDbLine
 10
240.1172968136
 20
123.0826119851
 30
0.0
 11
240.1172968136
 21
98.0826119851
 31
0.0
  0
MTEXT
  5
1A7
330
19F
100
AcDbEntity
  8
VERMASSUNG
100
AcDbMText
 10
237.3391615574
 20
104.4786840758
 30
0.0
 40
2.0
 41
0.0
 71
     1
 72
     1
  1
ST2
  7
SLDTEXTSTYLE0
 11
-7.044195017643634E-15
 21
1.0
 31
0.0
 73
     1
 44
1.0
  0
MTEXT
  5
1A8
330
19F
100
AcDbEntity
  8
VERMASSUNG
100
AcDbMText
 10
237.5391615087
 20
110.278684002
 30
0.0
 40
2.0
 41
0.0
 71
     1
 72
     1
  1
%%c
  7
SLDTEXTSTYLE0
 11
-7.044195017643634E-15
 21
1.0
 31
0.0
 73
     1
 44
1.0
  0
MTEXT
  5
1A9
330
19F
100
AcDbEntity
  8
VERMASSUNG
100
AcDbMText
 10
237.5391612177
 20
113.8871598739
 30
0.0
 40
2.0
 41
0.0
 71
     1
 72
     1
  1
25
  7
SLDTEXTSTYLE0
 11
-7.044195017643634E-15
 21
1.0
 31
0.0
 73
     1
 44
1.0
  0
ENDBLK
  5
1A1
330
19F
100
AcDbEntity
  8
0
100
AcDbBlockEnd
  0
BLOCK
  5
1AC
330
1AB
100
AcDbEntity
  8
0
100
AcDbBlockBegin
  2
_D_1
 70
     0
 10
0.0
 20
0.0
 30
0.0
  3
_D_1
  1

  0
SOLID
  5
1AE
330
1AB
100
AcDbEntity
  8
VERMASSUNG
100
AcDbTrace
 10
233.9172968136
 20
117.5826119851
 30
0.0
 11
233.4672968136
 21
114.5826119851
 31
0.0
 12
234.3672968136
 22
114.5826119851
 32
0.0
 13
234.3672968136
 23
114.5826119851
 33
0.0
  0
SOLID
  5
1AF
330
1AB
100
AcDbEntity
  8
VERMASSUNG
100
AcDbTrace
 10
233.9172968136
 20
103.5826119851
 30
0.0
 11
234.3672968136
 21
106.5826119851
 31
0.0
 12
233.4672968136
 22
106.5826119851
 32
0.0
 13
233.4672968136
 23
106.5826119851
 33
0.0
  0
LINE
  5
1B0
330
1AB
100
AcDbEntity
  8
VERMASSUNG
100
AcDbLine
 10
221.755058962
 20
117.5826119851
 30
0.0
 11
234.9172968136
 21
117.5826119851
 31
0.0
  0
LINE
  5
1B1
330
1AB
100
AcDbEntity
  8
VERMASSUNG
100
AcDbLine
 10
221.755058962
 20
103.5826119851
 30
0.0
 11
234.9172968136
 21
103.5826119851
 31
0.0
  0
LINE
  5
1B2
330
1AB
100
AcDbEntity
  8
VERMASSUNG
100
AcDbLine
 10
233.9172968136
 20
117.5826119851
 30
0.0
 11
233.9172968136
 21
103.5826119851
 31
0.0
  0
MTEXT
  5
1B3
330
1AB
100
AcDbEntity
  8
VERMASSUNG
100
AcDbMText
 10
231.3391612759
 20
107.4788076597
 30
0.0
 40
2.0
 41
0.0
 71
     1
 72
     1
  1
%%c
  7
SLDTEXTSTYLE0
 11
-7.044195017643634E-15
 21
1.0
 31
0.0
 73
     1
 44
1.0
  0
MTEXT
  5
1B4
330
1AB
100
AcDbEntity
  8
VERMASSUNG
100
AcDbMText
 10
231.3391612177
 20
111.0877798533
 30
0.0
 40
2.0
 41
0.0
 71
     1
 72
     1
  1
14
  7
SLDTEXTSTYLE0
 11
-7.044195017643634E-15
 21
1.0
 31
0.0
 73
     1
 44
1.0
  0
ENDBLK
  5
1AD
330
1AB
100
AcDbEntity
  8
0
100
AcDbBlockEnd
  0
BLOCK
  5
1B7
330
1B6
100
AcDbEntity
  8
0
100
AcDbBlockBegin
  2
_D_2
 70
     0
 10
0.0
 20
0.0
 30
0.0
  3
_D_2
  1

  0
ARC
  5
1B9
330
1B6
100
AcDbEntity
  8
VERMASSUNG
100
AcDbCircle
 10
216.9665548425
 20
167.3817032956
 30
0.0
 40
4.24705993853731
100
AcDbArc
 50
153.4349488229
 51
206.5650511771
  0
ARC
  5
1BA
330
1B6
100
AcDbEntity
  8
VERMASSUNG
100
AcDbCircle
 10
215.3435630814
 20
167.3817032956
 30
0.0
 40
4.24705993853731
100
AcDbArc
 50
333.4349488229
 51
26.5650511771
  0
SOLID
  5
1BB
330
1B6
100
AcDbEntity
  8
VERMASSUNG
100
AcDbTrace
 10
228.655058962
 20
165.4823603501
 30
0.0
 11
225.655058962
 21
165.9323603501
 31
0.0
 12
225.655058962
 22
165.0323603501
 32
0.0
 13
225.655058962
 23
165.0323603501
 33
0.0
  0
SOLID
  5
1BC
330
1B6
100
AcDbEntity
  8
VERMASSUNG
100
AcDbTrace
 10
203.655058962
 20
165.4823603501
 30
0.0
 11
206.655058962
 21
165.0323603501
 31
0.0
 12
206.655058962
 22
165.9323603501
 32
0.0
 13
206.655058962
 23
165.9323603501
 33
0.0
  0
LINE
  5
1BD
330
1B6
100
AcDbEntity
  8
VERMASSUNG
100
AcDbLine
 10
228.655058962
 20
122.8826119851
 30
0.0
 11
228.655058962
 21
166.4823603501
 31
0.0
  0
LINE
  5
1BE
330
1B6
100
AcDbEntity
  8
VERMASSUNG
100
AcDbLine
 10
203.655058962
 20
159.5826119851
 30
0.0
 11
203.655058962
 21
166.4823603501
 31
0.0
  0
LINE
  5
1BF
330
1B6
100
AcDbEntity
  8
VERMASSUNG
100
AcDbLine
 10
228.655058962
 20
165.4823603501
 30
0.0
 11
203.655058962
 21
165.4823603501
 31
0.0
  0
MTEXT
  5
1C0
330
1B6
100
AcDbEntity
  8
VERMASSUNG
100
AcDbMText
 10
214.7553689517
 20
168.0604959461
 30
0.0
 40
2.0
 41
0.0
 71
     1
 72
     1
  1
25
  7
SLDTEXTSTYLE0
 73
     1
 44
1.0
  0
ENDBLK
  5
1B8
330
1B6
100
AcDbEntity
  8
0
100
AcDbBlockEnd
  0
BLOCK
  5
1C3
330
1C2
100
AcDbEntity
  8
0
100
AcDbBlockBegin
  2
_D_3
 70
     0
 10
0.0
 20
0.0
 30
0.0
  3
_D_3
  1

  0
SOLID
  5
1C5
330
1C2
100
AcDbEntity
  8
VERMASSUNG
100
AcDbTrace
 10
165.655058962
 20
171.4823603501
 30
0.0
 11
168.655058962
 21
171.0323603501
 31
0.0
 12
168.655058962
 22
171.9323603501
 32
0.0
 13
168.655058962
 23
171.9323603501
 33
0.0
  0
SOLID
  5
1C6
330
1C2
100
AcDbEntity
  8
VERMASSUNG
100
AcDbTrace
 10
228.655058962
 20
171.4823603501
 30
0.0
 11
225.655058962
 21
171.9323603501
 31
0.0
 12
225.655058962
 22
171.0323603501
 32
0.0
 13
225.655058962
 23
171.0323603501
 33
0.0
  0
LINE
  5
1C7
330
1C2
100
AcDbEntity
  8
VERMASSUNG
100
AcDbLine
 10
165.655058962
 20
145.5076119851
 30
0.0
 11
165.655058962
 21
172.4823603501
 31
0.0
  0
LINE
  5
1C8
330
1C2
100
AcDbEntity
  8
VERMASSUNG
100
AcDbLine
 10
228.655058962
 20
122.8826119851
 30
0.0
 11
228.655058962
 21
172.4823603501
 31
0.0
  0
LINE
  5
1C9
330
1C2
100
AcDbEntity
  8
VERMASSUNG
100
AcDbLine
 10
165.655058962
 20
171.4823603501
 30
0.0
 11
228.655058962
 21
171.4823603501
 31
0.0
  0
MTEXT
  5
1CA
330
1C2
100
AcDbEntity
  8
VERMASSUNG
100
AcDbMText
 10
195.7553689517
 20
174.0604959461
 30
0.0
 40
2.0
 41
0.0
 71
     1
 72
     1
  1
63
  7
SLDTEXTSTYLE0
 73
     1
 44
1.0
  0
ENDBLK
  5
1C4
330
1C2
100
AcDbEntity
  8
0
100
AcDbBlockEnd
  0
BLOCK
  5
1CD
330
1CC
100
AcDbEntity
  8
0
100
AcDbBlockBegin
  2
_D_4
 70
     0
 10
0.0
 20
0.0
 30
0.0
  3
_D_4
  1

  0
ARC
  5
1CF
330
1CC
100
AcDbEntity
  8
VERMASSUNG
100
AcDbCircle
 10
145.4672242555
 20
179.3817032956
 30
0.0
 40
4.247059938537323
100
AcDbArc
 50
153.4349488229
 51
206.5650511771
  0
ARC
  5
1D0
330
1CC
100
AcDbEntity
  8
VERMASSUNG
100
AcDbCircle
 10
147.0428936685
 20
179.3817032956
 30
0.0
 40
4.247059938537297
100
AcDbArc
 50
333.4349488229
 51
26.5650511771
  0
SOLID
  5
1D1
330
1CC
100
AcDbEntity
  8
VERMASSUNG
100
AcDbTrace
 10
228.655058962
 20
177.4823603501
 30
0.0
 11
225.655058962
 21
177.9323603501
 31
0.0
 12
225.655058962
 22
177.0323603501
 32
0.0
 13
225.655058962
 23
177.0323603501
 33
0.0
  0
SOLID
  5
1D2
330
1CC
100
AcDbEntity
  8
VERMASSUNG
100
AcDbTrace
 10
63.855058962
 20
177.4823603501
 30
0.0
 11
66.855058962
 21
177.0323603501
 31
0.0
 12
66.855058962
 22
177.9323603501
 32
0.0
 13
66.855058962
 23
177.9323603501
 33
0.0
  0
LINE
  5
1D3
330
1CC
100
AcDbEntity
  8
VERMASSUNG
100
AcDbLine
 10
228.655058962
 20
122.8826119851
 30
0.0
 11
228.655058962
 21
178.4823603501
 31
0.0
  0
LINE
  5
1D4
330
1CC
100
AcDbEntity
  8
VERMASSUNG
100
AcDbLine
 10
63.855058962
 20
128.9322898459
 30
0.0
 11
63.855058962
 21
178.4823603501
 31
0.0
  0
LINE
  5
1D5
330
1CC
100
AcDbEntity
  8
VERMASSUNG
100
AcDbLine
 10
228.655058962
 20
177.4823603501
 30
0.0
 11
63.855058962
 21
177.4823603501
 31
0.0
  0
MTEXT
  5
1D6
330
1CC
100
AcDbEntity
  8
VERMASSUNG
100
AcDbMText
 10
143.2560383647
 20
180.0604959461
 30
0.0
 40
2.0
 41
0.0
 71
     1
 72
     1
  1
164.8
  7
SLDTEXTSTYLE0
 73
     1
 44
1.0
  0
ENDBLK
  5
1CE
330
1CC
100
AcDbEntity
  8
0
100
AcDbBlockEnd
  0
BLOCK
  5
1D9
330
1D8
100
AcDbEntity
  8
0
100
AcDbBlockBegin
  2
_D_5
 70
     0
 10
0.0
 20
0.0
 30
0.0
  3
_D_5
  1

  0
SOLID
  5
1DB
330
1D8
100
AcDbEntity
  8
VERMASSUNG
100
AcDbTrace
 10
58.7648266993
 20
160.5826119851
 30
0.0
 11
58.3148266993
 21
157.5826119851
 31
0.0
 12
59.2148266993
 22
157.5826119851
 32
0.0
 13
59.2148266993
 23
157.5826119851
 33
0.0
  0
SOLID
  5
1DC
330
1D8
100
AcDbEntity
  8
VERMASSUNG
100
AcDbTrace
 10
58.7648266993
 20
60.5826119851
 30
0.0
 11
59.2148266993
 21
63.5826119851
 31
0.0
 12
58.3148266993
 22
63.5826119851
 32
0.0
 13
58.3148266993
 23
63.5826119851
 33
0.0
  0
LINE
  5
1DD
330
1D8
100
AcDbEntity
  8
VERMASSUNG
100
AcDbLine
 10
199.6550608705
 20
160.5826119851
 30
0.0
 11
57.7648266993
 21
160.5826119851
 31
0.0
  0
LINE
  5
1DE
330
1D8
100
AcDbEntity
  8
VERMASSUNG
100
AcDbLine
 10
199.655061024
 20
60.5826119851
 30
0.0
 11
57.7648266993
 21
60.5826119851
 31
0.0
  0
LINE
  5
1DF
330
1D8
100
AcDbEntity
  8
VERMASSUNG
100
AcDbLine
 10
58.7648266993
 20
160.5826119851
 30
0.0
 11
58.7648266993
 21
60.5826119851
 31
0.0
  0
MTEXT
  5
1E0
330
1D8
100
AcDbEntity
  8
VERMASSUNG
100
AcDbMText
 10
55.9866914431
 20
99.4788457647
 30
0.0
 40
2.0
 41
0.0
 71
     1
 72
     1
  1
MAS BT 50
  7
SLDTEXTSTYLE0
 11
-7.044195017643634E-15
 21
1.0
 31
0.0
 73
     1
 44
1.0
  0
MTEXT
  5
1E1
330
1D8
100
AcDbEntity
  8
VERMASSUNG
100
AcDbMText
 10
56.1866913944
 20
114.2788457692
 30
0.0
 40
2.0
 41
0.0
 71
     1
 72
     1
  1
%%c
  7
SLDTEXTSTYLE0
 11
-7.044195017643634E-15
 21
1.0
 31
0.0
 73
     1
 44
1.0
  0
MTEXT
  5
1E2
330
1D8
100
AcDbEntity
  8
VERMASSUNG
100
AcDbMText
 10
56.1866911034
 20
117.8876923147
 30
0.0
 40
2.0
 41
0.0
 71
     1
 72
     1
  1
100
  7
SLDTEXTSTYLE0
 11
-7.044195017643634E-15
 21
1.0
 31
0.0
 73
     1
 44
1.0
  0
ENDBLK
  5
1DA
330
1D8
100
AcDbEntity
  8
0
100
AcDbBlockEnd
  0
ENDSEC
  0
SECTION
  2
ENTITIES
  0
MTEXT
  5
78
330
1F
100
AcDbEntity
  8
KOPF_DÜNN
100
AcDbMText
 10
13.8892156294
 20
23.8442973028
 30
0.0
 40
3.0
 41
0.0
 71
     1
 72
     1
  1
134.650.025.063
  7
SLDTEXTSTYLE0
 73
     1
 44
1.0
  0
MTEXT
  5
79
330
1F
100
AcDbEntity
  8
VERMASSUNG
100
AcDbMText
 10
13.9329988022
 20
28.8834360957
 30
0.0
 40
3.0
 41
0.0
 71
     1
 72
     1
  1
Aufnahme_Master shank ST2
  7
SLDTEXTSTYLE0
 73
     1
 44
1.0
  0
MTEXT
  5
7A
330
1F
100
AcDbEntity
  8
VERMASSUNG
100
AcDbMText
 10
98.8601118557
 20
13.8365368761
 30
0.0
 40
2.0
 41
0.0
 71
     1
 72
     1
  1
Datum: 06.06.2008
  7
SLDTEXTSTYLE0
 73
     1
 44
1.0
  0
MTEXT
  5
7C
330
1F
100
AcDbEntity
  8
VERMASSUNG
100
AcDbMText
 10
13.933048693
 20
18.0482802738
 30
0.0
 40
2.0
 41
0.0
 71
     1
 72
     1
  1
MAS BT 50 B
  7
SLDTEXTSTYLE1
 73
     1
 44
1.0
  0
MTEXT
  5
7D
330
1F
100
AcDbEntity
  8
VERMASSUNG
100
AcDbMText
 10
13.9808475933
 20
13.9090974274
 30
0.0
 40
2.0
 41
0.0
 71
     1
 72
     1
  1
Gewicht: 3739g
  7
SLDTEXTSTYLE0
 73
     1
 44
1.0
  0
LINE
  5
7E
330
1F
100
AcDbEntity
  8
0
  6
Continuous
 62
     7
370
    15
100
AcDbLine
 10
199.6547717353
 20
60.5826119851
 30
0.0
 11
202.655058962
 21
60.5826119851
 31
0.0
  0
LINE
  5
7F
330
1F
100
AcDbEntity
  8
0
  6
Continuous
 62
     7
370
    15
100
AcDbLine
 10
202.655058962
 20
160.5826119851
 30
0.0
 11
199.6546247811
 21
160.5826119851
 31
0.0
  0
ARC
  5
80
330
1F
100
AcDbEntity
  8
0
  6
Continuous
 62
     7
370
    15
100
AcDbCircle
 10
202.655058962
 20
61.5826119851
 30
0.0
 40
1.0
100
AcDbArc
 50
270.0
 51
0.0
  0
ARC
  5
81
330
1F
100
AcDbEntity
  8
0
  6
Continuous
 62
     7
370
    15
100
AcDbCircle
 10
202.655058962
 20
159.5826119851
 30
0.0
 40
1.0
100
AcDbArc
 50
0.0
 51
90.0
  0
ARC
  5
82
330
1F
100
AcDbEntity
  8
0
  6
Continuous
 62
     7
370
    15
100
AcDbCircle
 10
167.655058962
 20
74.6576119851
 30
0.0
 40
1.0
100
AcDbArc
 50
38.722340444
 51
90.0
  0
ARC
  5
83
330
1F
100
AcDbEntity
  8
0
  6
Continuous
 62
     7
370
    15
100
AcDbCircle
 10
167.655058962
 20
146.5076119851
 30
0.0
 40
1.0
100
AcDbArc
 50
270.0
 51
321.290895072
  0
LINE
  5
84
330
1F
100
AcDbEntity
  8
0
  6
Continuous
 62
     7
370
    15
100
AcDbLine
 10
165.655058962
 20
75.6576119851
 30
0.0
 11
167.655058962
 21
75.6576119851
 31
0.0
  0
LINE
  5
85
330
1F
100
AcDbEntity
  8
0
  6
Continuous
 62
     7
370
    15
100
AcDbLine
 10
167.655058962
 20
145.5076119851
 30
0.0
 11
165.655058962
 21
145.5076119851
 31
0.0
  0
LINE
  5
86
330
1F
100
AcDbEntity
  8
0
  6
Continuous
 62
     7
370
    15
100
AcDbLine
 10
165.655058962
 20
145.5076119851
 30
0.0
 11
65.5664451758
 21
130.911355808
 31
0.0
  0
LINE
  5
87
330
1F
100
AcDbEntity
  8
0
  6
Continuous
 62
     7
370
    15
100
AcDbLine
 10
65.5664451758
 20
90.2538681623
 30
0.0
 11
165.655058962
 21
75.6576119851
 31
0.0
  0
ARC
  5
88
330
1F
100
AcDbEntity
  8
0
  6
Continuous
 62
     7
370
    15
100
AcDbCircle
 10
65.855058962
 20
92.2329341244
 30
0.0
 40
2.000000000000008
100
AcDbArc
 50
180.0
 51
261.7028550302
  0
ARC
  5
89
330
1F
100
AcDbEntity
  8
0
  6
Continuous
 62
     7
370
    15
100
AcDbCircle
 10
65.855058962
 20
128.9322898459
 30
0.0
 40
2.000000000000022
100
AcDbArc
 50
98.2971449698
 51
180.0
  0
ARC
  5
8A
330
1F
100
AcDbEntity
  8
0
  6
Continuous
 62
     7
370
    15
100
AcDbCircle
 10
207.655058962
 20
94.0826119851
 30
0.0
 40
4.0
100
AcDbArc
 50
90.0
 51
180.0
  0
ARC
  5
8B
330
1F
100
AcDbEntity
  8
0
  6
Continuous
 62
     7
370
    15
100
AcDbCircle
 10
207.655058962
 20
127.0826119851
 30
0.0
 40
4.0
100
AcDbArc
 50
180.0
 51
270.0
  0
LINE
  5
8C
330
1F
100
AcDbEntity
  8
0
  6
Continuous
 62
     7
370
    15
100
AcDbLine
 10
228.455058962
 20
123.0826119851
 30
0.0
 11
207.655058962
 21
123.0826119851
 31
0.0
  0
LINE
  5
8D
330
1F
100
AcDbEntity
  8
0
  6
Continuous
 62
     7
370
    15
100
AcDbLine
 10
207.655058962
 20
98.0826119851
 30
0.0
 11
228.455058962
 21
98.0826119851
 31
0.0
  0
LINE
  5
8E
330
1F
100
AcDbEntity
  8
0
  6
Continuous
 62
     7
370
    15
100
AcDbLine
 10
228.455058962
 20
98.0826119851
 30
0.0
 11
228.655058962
 21
98.2826119851
 31
0.0
  0
LINE
  5
8F
330
1F
100
AcDbEntity
  8
0
  6
Continuous
 62
     7
370
    15
100
AcDbLine
 10
228.655058962
 20
122.8826119851
 30
0.0
 11
228.455058962
 21
123.0826119851
 31
0.0
  0
LWPOLYLINE
  5
90
330
1F
100
AcDbEntity
  8
0
  6
Continuous
 62
     7
370
    15
100
AcDbPolyline
 90
       22
 70
   128
 43
0.0
 10
187.154683312
 20
94.3951427501
 10
187.7482908722
 20
93.9975504948
 10
188.4402396342
 20
93.782039132
 10
189.1690469138
 20
93.767757792
 10
189.8699549861
 20
93.9559754345
 10
190.4806850927
 20
94.3299680961
 10
190.9469711838
 20
94.8565048876
 10
191.2273816937
 20
95.4888007042
 10
191.2970009181
 20
96.1706732881
 10
191.1496428835
 20
96.8415352676
 10
190.7984009978
 20
97.4417776119
 10
190.274484644
 20
97.9180661546
 10
189.6244460893
 20
98.2280805686
 10
188.906044112
 20
98.3442747126
 10
188.1831118803
 20
98.256324227
 10
187.5198850956
 20
97.9720438986
 10
186.9752943683
 20
97.5166932819
 10
186.5977289743
 20
96.9307322775
 10
186.4207372559
 20
96.2662260922
 10
186.4600457039
 20
95.5822190167
 10
186.7121615902
 20
94.9394880812
 10
187.154683312
 20
94.3951427501
  0
LINE
  5
91
330
1F
100
AcDbEntity
  8
0
  6
Continuous
 62
     7
370
    15
100
AcDbLine
 10
190.5352812082
 20
95.6515783282
 30
0.0
 11
190.0593676996
 21
97.2165280792
 31
0.0
  0
LINE
  5
92
330
1F
100
AcDbEntity
  8
0
  6
Continuous
 62
     7
370
    15
100
AcDbLine
 10
188.3791454533
 20
97.6117056448
 30
0.0
 11
190.0593676996
 21
97.2165280792
 31
0.0
  0
LINE
  5
93
330
1F
100
AcDbEntity
  8
0
  6
Continuous
 62
     7
370
    15
100
AcDbLine
 10
187.1748367157
 20
96.4419334594
 30
0.0
 11
188.3791454533
 21
97.6117056448
 31
0.0
  0
LINE
  5
94
330
1F
100
AcDbEntity
  8
0
  6
Continuous
 62
     7
370
    15
100
AcDbLine
 10
187.1748367157
 20
96.4419334594
 30
0.0
 11
187.6507502244
 21
94.8769837084
 31
0.0
  0
LINE
  5
95
330
1F
100
AcDbEntity
  8
0
  6
Continuous
 62
     7
370
    15
100
AcDbLine
 10
189.3309724707
 20
94.4818061428
 30
0.0
 11
187.6507502244
 21
94.8769837084
 31
0.0
  0
LINE
  5
96
330
1F
100
AcDbEntity
  8
0
  6
Continuous
 62
     7
370
    15
100
AcDbLine
 10
189.3309724707
 20
94.4818061428
 30
0.0
 11
190.5352812082
 21
95.6515783282
 31
0.0
  0
LINE
  5
97
330
1F
100
AcDbEntity
  8
0
  6
Continuous
 62
     7
370
    15
100
AcDbLine
 10
187.3354235168
 20
96.5979150341
 30
0.0
 11
187.6507502244
 21
95.5610239951
 31
0.0
  0
LINE
  5
98
330
1F
100
AcDbEntity
  8
0
  6
Continuous
 62
     7
370
    15
100
AcDbLine
 10
187.6507502244
 20
95.5610239951
 30
0.0
 11
187.6507502244
 21
94.8769837084
 31
0.0
  0
LINE
  5
99
330
1F
100
AcDbEntity
  8
0
  6
Continuous
 62
     7
370
    15
100
AcDbLine
 10
189.3309724707
 20
95.1658464295
 30
0.0
 11
189.3309724707
 21
94.4818061428
 31
0.0
  0
LINE
  5
9A
330
1F
100
AcDbEntity
  8
0
  6
Continuous
 62
     7
370
    15
100
AcDbLine
 10
189.3309724707
 20
95.1658464295
 30
0.0
 11
190.3746944071
 21
96.1796370402
 31
0.0
  0
LINE
  5
9B
330
1F
100
AcDbEntity
  8
0
  6
Continuous
 62
     7
370
    15
100
AcDbLine
 10
189.3309724707
 20
95.1658464295
 30
0.0
 11
187.6507502244
 21
95.5610239951
 31
0.0
  0
SPLINE
  5
9C
330
1F
100
AcDbEntity
  8
0
  6
Continuous
 62
     7
370
    15
100
AcDbSpline
210
0.0
220
0.0
230
1.0
 70
    24
 71
     3
 72
    11
 73
     7
 74
     0
 42
0.000000001
 43
0.00000001
 40
0.0
 40
0.0
 40
0.0
 40
0.0
 40
0.1285561766306785
 40
0.4801535797842837
 40
0.8150691831754945
 40
1.0
 40
1.0
 40
1.0
 40
1.0
 10
223.544533568545
 20
110.6886600421324
 30
0.0
 10
223.5192463062629
 20
110.6363194835163
 30
0.0
 10
223.4247991172916
 20
110.4408290197665
 30
0.0
 10
223.2476894846877
 20
110.0742406163488
 30
0.0
 10
223.0559171119223
 20
109.677302703271
 30
0.0
 10
222.9531832495517
 20
109.4646601607414
 30
0.0
 10
222.9166365766404
 20
109.3890144362496
 30
0.0
  0
SPLINE
  5
9D
330
1F
100
AcDbEntity
  8
0
  6
Continuous
 62
     7
370
    15
100
AcDbSpline
210
0.0
220
0.0
230
1.0
 70
    24
 71
     3
 72
    10
 73
     6
 74
     0
 42
0.000000001
 43
0.00000001
 40
0.0
 40
0.0
 40
0.0
 40
0.0
 40
0.4391119879276848
 40
0.7513633230734771
 40
1.0
 40
1.0
 40
1.0
 40
1.0
 10
222.732955953886
 20
111.8822575910231
 30
0.0
 10
222.8491382379555
 20
111.7113868240316
 30
0.0
 10
223.0479374268656
 20
111.4190103213797
 30
0.0
 10
223.3369290636023
 20
110.9939866353781
 30
0.0
 10
223.4807701096593
 20
110.7824377743666
 30
0.0
 10
223.544533568545
 20
110.6886600421324
 30
0.0
  0
SPLINE
  5
9E
330
1F
100
AcDbEntity
  8
0
  6
Continuous
 62
     7
370
    15
100
AcDbSpline
210
0.0
220
0.0
230
1.0
 70
    24
 71
     3
 72
    10
 73
     6
 74
     0
 42
0.000000001
 43
0.00000001
 40
0.0
 40
0.0
 40
0.0
 40
0.0
 40
0.4391119879276862
 40
0.7513633230734734
 40
1.0
 40
1.0
 40
1.0
 40
1.0
 10
221.2934813473223
 20
111.7762095340309
 30
0.0
 10
221.4995509143359
 20
111.7913909600091
 30
0.0
 10
221.8521559875572
 20
111.817367856531
 30
0.0
 10
222.3647331152129
 20
111.8551301124254
 30
0.0
 10
222.6198603260191
 20
111.873925681912
 30
0.0
 10
222.732955953886
 20
111.8822575910231
 30
0.0
  0
SPLINE
  5
9F
330
1F
100
AcDbEntity
  8
0
  6
Continuous
 62
     7
370
    15
100
AcDbSpline
210
0.0
220
0.0
230
1.0
 70
    24
 71
     3
 72
    11
 73
     7
 74
     0
 42
0.000000001
 43
0.00000001
 40
0.0
 40
0.0
 40
0.0
 40
0.0
 40
0.1849308168245034
 40
0.5198464202157138
 40
0.871443823369321
 40
0.9999999999999999
 40
0.9999999999999999
 40
0.9999999999999999
 40
0.9999999999999999
 10
220.6655843554177
 20
110.4765639281481
 30
0.0
 10
220.702131028329
 20
110.5522096526398
 30
0.0
 10
220.8048648906996
 20
110.7648521951695
 30
0.0
 10
220.9966372634652
 20
111.1617901082472
 30
0.0
 10
221.1737468960689
 20
111.5283785116649
 30
0.0
 10
221.2681940850403
 20
111.7238689754148
 30
0.0
 10
221.2934813473223
 20
111.7762095340309
 30
0.0
  0
SPLINE
  5
A0
330
1F
100
AcDbEntity
  8
0
  6
Continuous
 62
     7
370
    15
100
AcDbSpline
210
0.0
220
0.0
230
1.0
 70
    24
 71
     3
 72
    10
 73
     6
 74
     0
 42
0.000000001
 43
0.00000001
 40
0.0
 40
0.0
 40
0.0
 40
0.0
 40
0.4391119879276901
 40
0.7513633230734758
 40
0.9999999999999999
 40
0.9999999999999999
 40
0.9999999999999999
 40
0.9999999999999999
 10
222.9166365766404
 20
109.3890144362496
 30
0.0
 10
222.7105670096269
 20
109.3738330102715
 30
0.0
 10
222.3579619364056
 20
109.3478561137495
 30
0.0
 10
221.8453848087498
 20
109.3100938578551
 30
0.0
 10
221.5902575979437
 20
109.2912982883686
 30
0.0
 10
221.4771619700767
 20
109.2829663792575
 30
0.0
  0
CIRCLE
  5
A1
330
1F
100
AcDbEntity
  8
0
  6
Continuous
 62
     7
370
    15
100
AcDbCircle
 10
222.105058962
 20
110.5826119851
 30
0.0
 40
1.500000000000038
  0
SPLINE
  5
A2
330
1F
100
AcDbEntity
  8
0
  6
Continuous
 62
     7
370
    15
100
AcDbSpline
210
0.0
220
0.0
230
1.0
 70
    24
 71
     3
 72
    10
 73
     6
 74
     0
 42
0.000000001
 43
0.00000001
 40
0.0
 40
0.0
 40
0.0
 40
0.0
 40
0.4391119879276928
 40
0.7513633230734783
 40
1.0
 40
1.0
 40
1.0
 40
1.0
 10
221.4771619700767
 20
109.2829663792575
 30
0.0
 10
221.3609796860072
 20
109.4538371462489
 30
0.0
 10
221.1621804970971
 20
109.7462136489009
 30
0.0
 10
220.8731888603604
 20
110.1712373349024
 30
0.0
 10
220.7293478143034
 20
110.3827861959139
 30
0.0
 10
220.6655843554177
 20
110.4765639281481
 30
0.0
  0
CIRCLE
  5
A3
330
1F
100
AcDbEntity
  8
0
  6
Continuous
 62
     7
370
    15
100
AcDbCircle
 10
222.105058962
 20
110.5826119851
 30
0.0
 40
2.250000000000016
  0
CIRCLE
  5
A4
330
1F
100
AcDbEntity
  8
0
  6
Continuous
 62
     7
370
    15
100
AcDbCircle
 10
222.105058962
 20
110.5826119851
 30
0.0
 40
2.500000000000011
  0
ARC
  5
A5
330
1F
100
AcDbEntity
  8
0
  6
Continuous
 62
     7
370
    15
100
AcDbCircle
 10
222.105058962
 20
110.5826119851
 30
0.0
 40
1.250000000000037
100
AcDbArc
 50
274.2134464166
 51
334.2134464166
  0
ARC
  5
A6
330
1F
100
AcDbEntity
  8
0
  6
Continuous
 62
     7
370
    15
100
AcDbCircle
 10
222.105058962
 20
110.5826119851
 30
0.0
 40
1.250000000000006
100
AcDbArc
 50
214.2134464166
 51
274.2134464166
  0
ARC
  5
A7
330
1F
100
AcDbEntity
  8
0
  6
Continuous
 62
     7
370
    15
100
AcDbCircle
 10
222.105058962
 20
110.5826119851
 30
0.0
 40
1.250000000000037
100
AcDbArc
 50
334.2134464166
 51
34.2134464166
  0
ARC
  5
A8
330
1F
100
AcDbEntity
  8
0
  6
Continuous
 62
     7
370
    15
100
AcDbCircle
 10
222.105058962
 20
110.5826119851
 30
0.0
 40
1.249999999999999
100
AcDbArc
 50
94.2134464166
 51
154.2134464166
  0
ARC
  5
A9
330
1F
100
AcDbEntity
  8
0
  6
Continuous
 62
     7
370
    15
100
AcDbCircle
 10
222.105058962
 20
110.5826119851
 30
0.0
 40
1.250000000000029
100
AcDbArc
 50
34.2134464166
 51
94.2134464166
  0
ARC
  5
AA
330
1F
100
AcDbEntity
  8
0
  6
Continuous
 62
     7
370
    15
100
AcDbCircle
 10
222.105058962
 20
110.5826119851
 30
0.0
 40
1.250000000000005
100
AcDbArc
 50
154.2134464166
 51
214.2134464166
  0
SPLINE
  5
AB
330
1F
100
AcDbEntity
  8
0
  6
Continuous
 62
     7
370
    15
100
AcDbSpline
210
0.0
220
0.0
230
1.0
 70
     8
 71
     3
 72
    12
 73
     8
 74
     0
 42
0.000000001
 43
0.00000001
 40
0.0
 40
0.0
 40
0.0
 40
0.0
 40
0.5000000000000001
 40
0.5000000000000001
 40
0.75
 40
0.75
 40
1.0
 40
1.0
 40
1.0
 40
1.0
 10
195.7393386268248
 20
158.7886589368412
 30
0.0
 10
195.2004419317272
 20
157.7309591193402
 30
0.0
 10
194.6381111210076
 20
156.6285906843815
 30
0.0
 10
193.7694448784171
 20
154.9286260780188
 30
0.0
 10
193.4751161560746
 20
154.3531076625802
 30
0.0
 10
192.8815851571068
 20
153.1936789941217
 30
0.0
 10
192.5823588989884
 20
152.6097193250404
 30
0.0
 10
192.280872050735
 20
152.0220093644516
 30
0.0
  0
SPLINE
  5
AC
330
1F
100
AcDbEntity
  8
0
  6
Continuous
 62
     7
370
    15
100
AcDbSpline
210
0.0
220
0.0
230
1.0
 70
     8
 71
     3
 72
     9
 73
     5
 74
     0
 42
0.000000001
 43
0.00000001
 40
0.0
 40
0.0
 40
0.0
 40
0.0
 40
0.504794330390352
 40
1.0
 40
1.0
 40
1.0
 40
1.0
 10
196.3800353673934
 20
159.7427172352277
 30
0.0
 10
196.2716529328927
 20
159.5818756739384
 30
0.0
 10
196.0569468080896
 20
159.2632477662816
 30
0.0
 10
195.8445193792781
 20
158.9458735396939
 30
0.0
 10
195.73932411215
 20
158.7887080232996
 30
0.0
  0
LINE
  5
AD
330
1F
100
AcDbEntity
  8
0
  6
Continuous
 62
     7
370
    15
100
AcDbLine
 10
196.380058962
 20
61.4224506998
 30
0.0
 11
196.380058962
 21
159.7427732705
 31
0.0
  0
SPLINE
  5
AE
330
1F
100
AcDbEntity
  8
0
  6
Continuous
 62
     7
370
    15
100
AcDbSpline
210
0.0
220
0.0
230
1.0
 70
     8
 71
     3
 72
     9
 73
     5
 74
     0
 42
0.000000001
 43
0.00000001
 40
0.0
 40
0.0
 40
0.0
 40
0.0
 40
0.4952056715554214
 40
1.0
 40
1.0
 40
1.0
 40
1.0
 10
195.73932411215
 20
62.37651594698086
 30
0.0
 10
195.8445193796949
 20
62.21935042996254
 30
0.0
 10
196.0569468085134
 20
61.90197620336154
 30
0.0
 10
196.2716529333126
 20
61.58334829571631
 30
0.0
 10
196.3800353673934
 20
61.42250673505284
 30
0.0
  0
SPLINE
  5
AF
330
1F
100
AcDbEntity
  8
0
  6
Continuous
 62
     7
370
    15
100
AcDbSpline
210
0.0
220
0.0
230
1.0
 70
     8
 71
     3
 72
    12
 73
     8
 74
     0
 42
0.000000001
 43
0.00000001
 40
0.0
 40
0.0
 40
0.0
 40
0.0
 40
0.2499999999999993
 40
0.2499999999999993
 40
0.4999999999999986
 40
0.4999999999999986
 40
1.0
 40
1.0
 40
1.0
 40
1.0
 10
195.7393385945859
 20
62.37656509671504
 30
0.0
 10
195.470001073217
 20
62.90519748539969
 30
0.0
 10
195.1942309558229
 20
63.44612213934639
 30
0.0
 10
194.6319706692172
 20
64.54817889370945
 30
0.0
 10
194.3448852958125
 20
65.11047573294626
 30
0.0
 10
193.4744588550932
 20
66.81387096826626
 30
0.0
 10
192.8824488589239
 20
67.97051773934834
 30
0.0
 10
192.280872050735
 20
69.14321460582899
 30
0.0
  0
SPLINE
  5
B0
330
1F
100
AcDbEntity
  8
0
  6
Continuous
 62
     7
370
    15
100
AcDbSpline
210
0.0
220
0.0
230
1.0
 70
     8
 71
     3
 72
    12
 73
     8
 74
     0
 42
0.000000001
 43
0.00000001
 40
0.0
 40
0.0
 40
0.0
 40
0.0
 40
0.000512515335492
 40
0.2509311781568301
 40
0.5009716914398246
 40
0.7506335204405247
 40
1.0
 40
1.0
 40
1.0
 40
1.0
 10
199.6546247810512
 20
160.5824869429566
 30
0.0
 10
199.6547692377381
 20
160.582528616274
 30
0.0
 10
199.7254962660321
 20
160.6029321708629
 30
0.0
 10
199.4822327057756
 20
160.5313205394742
 30
0.0
 10
198.8767080915437
 20
160.3629673310034
 30
0.0
 10
197.8515444071205
 20
160.0856337405465
 30
0.0
 10
196.8703605398987
 20
159.8570149912227
 30
0.0
 10
196.3800589626684
 20
159.7427732704581
 30
0.0
  0
SPLINE
  5
B1
330
1F
100
AcDbEntity
  8
0
  6
Continuous
 62
     7
370
    15
100
AcDbSpline
210
0.0
220
0.0
230
1.0
 70
     8
 71
     3
 72
    13
 73
     9
 74
     0
 42
0.000000001
 43
0.00000001
 40
0.0
 40
0.0
 40
0.0
 40
0.0
 40
0.249249238042121
 40
0.4988437701386194
 40
0.6658825660857411
 40
0.8320256711231946
 40
0.9994886337290221
 40
0.9999999999999999
 40
0.9999999999999999
 40
0.9999999999999999
 40
0.9999999999999999
 10
196.3800589626684
 20
61.42245069982246
 30
0.0
 10
196.871243686088
 20
61.30796317613248
 30
0.0
 10
197.854293589028
 20
61.078829525013
 30
0.0
 10
198.7533370138381
 20
60.8356197738628
 30
0.0
 10
199.3116619145237
 20
60.68168256647741
 30
0.0
 10
199.5773331392328
 20
60.60542900762714
 30
0.0
 10
199.6862273852487
 20
60.57351482330463
 30
0.0
 10
199.6548672054303
 20
60.58266773724753
 30
0.0
 10
199.6547717352574
 20
60.58269560157361
 30
0.0
  0
LINE
  5
B2
330
1F
100
AcDbEntity
  8
0
  6
Continuous
 62
     7
370
    15
100
AcDbLine
 10
203.655058962
 20
61.5826119851
 30
0.0
 11
203.655058962
 21
159.5826119851
 31
0.0
  0
SPLINE
  5
B3
330
1F
100
AcDbEntity
  8
0
  6
Continuous
 62
     7
370
    15
100
AcDbSpline
210
0.0
220
0.0
230
1.0
 70
     8
 71
     3
 72
     8
 73
     4
 74
     0
 42
0.000000001
 43
0.00000001
 40
0.0
 40
0.0
 40
0.0
 40
0.0
 40
0.0012417047560384
 40
0.0012417047560384
 40
0.0012417047560384
 40
0.0012417047560384
 10
181.8876279985091
 20
157.9031821390613
 30
0.0
 10
181.7022394472146
 20
158.1648552246098
 30
0.0
 10
181.5163732016067
 20
158.4263593334874
 30
0.0
 10
181.3300589619813
 20
158.6877034806047
 30
0.0
  0
SPLINE
  5
B4
330
1F
100
AcDbEntity
  8
0
  6
Continuous
 62
     7
370
    15
100
AcDbSpline
210
0.0
220
0.0
230
1.0
 70
     8
 71
     3
 72
     8
 73
     4
 74
     0
 42
0.000000001
 43
0.00000001
 40
0.0
 40
0.0
 40
0.0
 40
0.0
 40
1.0
 40
1.0
 40
1.0
 40
1.0
 10
185.4292458732276
 20
151.5128880653233
 30
0.0
 10
184.2542583973247
 20
153.6459648202592
 30
0.0
 10
183.0730118632284
 20
155.7756833861353
 30
0.0
 10
181.8876279985091
 20
157.9031821390613
 30
0.0
  0
SPLINE
  5
B5
330
1F
100
AcDbEntity
  8
0
  6
Continuous
 62
     7
370
    15
100
AcDbSpline
210
0.0
220
0.0
230
1.0
 70
     8
 71
     3
 72
     8
 73
     4
 74
     0
 42
0.000000001
 43
0.00000001
 40
0.0
 40
0.0
 40
0.0
 40
0.0
 40
1.0
 40
1.0
 40
1.0
 40
1.0
 10
185.4292458732276
 20
69.65233590495728
 30
0.0
 10
184.2542090754007
 20
67.51916961081194
 30
0.0
 10
183.0729618679617
 20
65.38945085383025
 30
0.0
 10
181.8876279985091
 20
63.26204183121929
 30
0.0
  0
SPLINE
  5
B6
330
1F
100
AcDbEntity
  8
0
  6
Continuous
 62
     7
370
    15
100
AcDbSpline
210
0.0
220
0.0
230
1.0
 70
     8
 71
     3
 72
     8
 73
     4
 74
     0
 42
0.000000001
 43
0.00000001
 40
0.0
 40
0.0
 40
0.0
 40
0.0
 40
0.0012417047560385
 40
0.0012417047560385
 40
0.0012417047560385
 40
0.0012417047560385
 10
181.3300589619813
 20
62.4775204896759
 30
0.0
 10
181.5163732016067
 20
62.73886463679315
 30
0.0
 10
181.7022394472146
 20
63.00036874567073
 30
0.0
 10
181.8876279985091
 20
63.26204183121929
 30
0.0
  0
LINE
  5
B7
330
1F
100
AcDbEntity
  8
0
  6
Continuous
 62
     7
370
    15
100
AcDbLine
 10
181.330058962
 20
62.4775204897
 30
0.0
 11
181.330058962
 21
158.6877034806
 31
0.0
  0
LINE
  5
B8
330
1F
100
AcDbEntity
  8
0
  6
Continuous
 62
     7
370
    15
100
AcDbLine
 10
181.330058962
 20
158.6877034806
 30
0.0
 11
169.655058962
 21
158.6877034806
 31
0.0
  0
LINE
  5
B9
330
1F
100
AcDbEntity
  8
0
  6
Continuous
 62
     7
370
    15
100
AcDbLine
 10
169.655058962
 20
62.4775204897
 30
0.0
 11
181.330058962
 21
62.4775204897
 31
0.0
  0
LINE
  5
BA
330
1F
100
AcDbEntity
  8
0
  6
Continuous
 62
     7
370
    15
100
AcDbLine
 10
168.655058962
 20
63.5807237252
 30
0.0
 11
168.655058962
 21
157.5845002451
 31
0.0
  0
SPLINE
  5
BB
330
1F
100
AcDbEntity
  8
0
  6
Continuous
 62
     7
370
    15
100
AcDbSpline
210
0.0
220
0.0
230
1.0
 70
     8
 71
     3
 72
    12
 73
     8
 74
     0
 42
0.000000001
 43
0.00000001
 40
0.0
 40
0.0
 40
0.0
 40
0.0
 40
0.2500000000000004
 40
0.2500000000000004
 40
0.5000000000000009
 40
0.5000000000000009
 40
1.0
 40
1.0
 40
1.0
 40
1.0
 10
169.0411953820311
 20
158.5170457190115
 30
0.0
 10
168.9895652599213
 20
158.4608414482969
 30
0.0
 10
168.9410330269308
 20
158.3995520377765
 30
0.0
 10
168.851207889973
 20
158.2650899637318
 30
0.0
 10
168.8094976167605
 20
158.190970893489
 30
0.0
 10
168.7033662365984
 20
157.9546632483205
 30
0.0
 10
168.6550589619814
 20
157.7728397056706
 30
0.0
 10
168.6550589619814
 20
157.5845002450815
 30
0.0
  0
SPLINE
  5
BC
330
1F
100
AcDbEntity
  8
0
  6
Continuous
 62
     7
370
    15
100
AcDbSpline
210
0.0
220
0.0
230
1.0
 70
     8
 71
     3
 72
     8
 73
     4
 74
     0
 42
0.000000001
 43
0.00000001
 40
0.0
 40
0.0
 40
0.0
 40
0.0
 40
1.0
 40
1.0
 40
1.0
 40
1.0
 10
169.6550589619814
 20
158.6877034806046
 30
0.0
 10
169.4281647182816
 20
158.6877034806046
 30
0.0
 10
169.2103150723552
 20
158.6236913136358
 30
0.0
 10
169.0411953820311
 20
158.5170457190115
 30
0.0
  0
SPLINE
  5
BD
330
1F
100
AcDbEntity
  8
0
  6
Continuous
 62
     7
370
    15
100
AcDbSpline
210
0.0
220
0.0
230
1.0
 70
     8
 71
     3
 72
    10
 73
     6
 74
     0
 42
0.000000001
 43
0.00000001
 40
0.0
 40
0.0
 40
0.0
 40
0.0
 40
0.5
 40
0.5
 40
1.0
 40
1.0
 40
1.0
 40
1.0
 10
169.041195382031
 20
62.64817825126902
 30
0.0
 10
169.1258060227618
 20
62.59482342265632
 30
0.0
 10
169.2210406448684
 20
62.55225396070612
 30
0.0
 10
169.4310780040483
 20
62.49297162602517
 30
0.0
 10
169.5415099088324
 20
62.47752048967591
 30
0.0
 10
169.6550589619814
 20
62.47752048967591
 30
0.0
  0
SPLINE
  5
BE
330
1F
100
AcDbEntity
  8
0
  6
Continuous
 62
     7
370
    15
100
AcDbSpline
210
0.0
220
0.0
230
1.0
 70
     8
 71
     3
 72
    12
 73
     8
 74
     0
 42
0.000000001
 43
0.00000001
 40
0.0
 40
0.0
 40
0.0
 40
0.0
 40
0.2500000000000039
 40
0.2500000000000039
 40
0.5000000000000079
 40
0.5000000000000079
 40
1.0
 40
1.0
 40
1.0
 40
1.0
 10
169.041195382031
 20
62.64817825126902
 30
0.0
 10
168.9895652599213
 20
62.70438252198365
 30
0.0
 10
168.9410330269308
 20
62.76567193250407
 30
0.0
 10
168.851207889973
 20
62.90013400654876
 30
0.0
 10
168.8094976167605
 20
62.97425307679158
 30
0.0
 10
168.7033662365984
 20
63.21056072196004
 30
0.0
 10
168.6550589619814
 20
63.39238426460994
 30
0.0
 10
168.6550589619814
 20
63.58072372519904
 30
0.0
  0
SPLINE
  5
BF
330
1F
100
AcDbEntity
  8
0
  6
Continuous
 62
     7
370
    15
100
AcDbSpline
210
0.0
220
0.0
230
1.0
 70
     8
 71
     3
 72
    12
 73
     8
 74
     0
 42
0.000000001
 43
0.00000001
 40
0.0
 40
0.0
 40
0.0
 40
0.0
 40
0.2499999999999951
 40
0.2499999999999951
 40
0.4999999999999902
 40
0.4999999999999902
 40
1.0
 40
1.0
 40
1.0
 40
1.0
 10
192.280872050735
 20
152.0220093644516
 30
0.0
 10
192.2446516293481
 20
151.9514022963518
 30
0.0
 10
192.2017259547003
 20
151.8876677050261
 30
0.0
 10
192.1041993714412
 20
151.7718935287776
 30
0.0
 10
192.0487678518245
 20
151.7193456847661
 30
0.0
 10
191.8702799489204
 20
151.5851970815518
 30
0.0
 10
191.7334431202725
 20
151.5246749794879
 30
0.0
 10
191.5880517277081
 20
151.5041283955595
 30
0.0
  0
SPLINE
  5
C0
330
1F
100
AcDbEntity
  8
0
  6
Continuous
 62
     7
370
    15
100
AcDbSpline
210
0.0
220
0.0
230
1.0
 70
     8
 71
     3
 72
    12
 73
     8
 74
     0
 42
0.000000001
 43
0.00000001
 40
0.0
 40
0.0
 40
0.0
 40
0.0
 40
0.2499999999999957
 40
0.2499999999999957
 40
0.4999999999999913
 40
0.4999999999999913
 40
1.0
 40
1.0
 40
1.0
 40
1.0
 10
192.280872050735
 20
69.14321460582897
 30
0.0
 10
192.244651629348
 20
69.21382167392889
 30
0.0
 10
192.2017259547002
 20
69.27755626525462
 30
0.0
 10
192.1041993714411
 20
69.39333044150302
 30
0.0
 10
192.0487678518245
 20
69.44587828551447
 30
0.0
 10
191.8702799489203
 20
69.58002688872884
 30
0.0
 10
191.7334431202725
 20
69.64054899079264
 30
0.0
 10
191.5880517277081
 20
69.66109557472106
 30
0.0
  0
SPLINE
  5
C1
330
1F
100
AcDbEntity
  8
0
  6
Continuous
 62
     7
370
    15
100
AcDbSpline
210
0.0
220
0.0
230
1.0
 70
     8
 71
     3
 72
    10
 73
     6
 74
     0
 42
0.000000001
 43
0.00000001
 40
0.0
 40
0.0
 40
0.0
 40
0.0
 40
0.5
 40
0.5
 40
1.0
 40
1.0
 40
1.0
 40
1.0
 10
185.8050589619813
 20
70.0030807709911
 30
0.0
 10
185.7260588937301
 20
69.9673165363832
 30
0.0
 10
185.6523016434535
 20
69.91782693282376
 30
0.0
 10
185.5242465203202
 20
69.79753844132081
 30
0.0
 10
185.4713964859086
 20
69.72885628833147
 30
0.0
 10
185.4292458732276
 20
69.65233590495727
 30
0.0
  0
SPLINE
  5
C2
330
1F
100
AcDbEntity
  8
0
  6
Continuous
 62
     7
370
    15
100
AcDbSpline
210
0.0
220
0.0
230
1.0
 70
     8
 71
     3
 72
    10
 73
     6
 74
     0
 42
0.000000001
 43
0.00000001
 40
0.0
 40
0.0
 40
0.0
 40
0.0
 40
0.5
 40
0.5
 40
1.0
 40
1.0
 40
1.0
 40
1.0
 10
185.8050589619813
 20
151.1621431992894
 30
0.0
 10
185.7257725142986
 20
151.1980370811419
 30
0.0
 10
185.6522602951779
 20
151.2475387909929
 30
0.0
 10
185.5253078423073
 20
151.3665864876615
 30
0.0
 10
185.4712419935707
 20
151.4366481479298
 30
0.0
 10
185.4292458732276
 20
151.5128880653233
 30
0.0
  0
SPLINE
  5
C3
330
1F
100
AcDbEntity
  8
0
  6
Continuous
 62
     7
370
    15
100
AcDbSpline
210
0.0
220
0.0
230
1.0
 70
     8
 71
     3
 72
     8
 73
     4
 74
     0
 42
0.000000001
 43
0.00000001
 40
0.0
 40
0.0
 40
0.0
 40
0.0
 40
1.0
 40
1.0
 40
1.0
 40
1.0
 10
186.1220661962552
 20
151.0946841808029
 30
0.0
 10
186.0123644109535
 20
151.0938257636036
 30
0.0
 10
185.905017389969
 20
151.1168908754784
 30
0.0
 10
185.8050589619813
 20
151.1621431992893
 30
0.0
  0
SPLINE
  5
C4
330
1F
100
AcDbEntity
  8
0
  6
Continuous
 62
     7
370
    15
100
AcDbSpline
210
0.0
220
0.0
230
1.0
 70
     8
 71
     3
 72
     8
 73
     4
 74
     0
 42
0.000000001
 43
0.00000001
 40
0.0
 40
0.0
 40
0.0
 40
0.0
 40
1.0
 40
1.0
 40
1.0
 40
1.0
 10
186.1220661962552
 20
70.07053978947762
 30
0.0
 10
186.0123644109535
 20
70.07139820667696
 30
0.0
 10
185.905017389969
 20
70.04833309480216
 30
0.0
 10
185.8050589619812
 20
70.00308077099123
 30
0.0
  0
SPLINE
  5
C5
330
1F
100
AcDbEntity
  8
0
  6
Continuous
 62
     7
370
    15
100
AcDbSpline
210
0.0
220
0.0
230
1.0
 70
    11
 71
     3
 72
    66
 73
    62
 74
     0
 42
0.000000001
 43
0.00000001
 40
0.0
 40
0.0
 40
0.0
 40
0.0
 40
0.0312500000000001
 40
0.0312500000000001
 40
0.0625000000000003
 40
0.0625000000000003
 40
0.0937500000000004
 40
0.0937500000000004
 40
0.1250000000000006
 40
0.1250000000000006
 40
0.1562500000000007
 40
0.1562500000000007
 40
0.1875000000000009
 40
0.1875000000000009
 40
0.218750000000001
 40
0.218750000000001
 40
0.2500000000000012
 40
0.2500000000000012
 40
0.2812500000000013
 40
0.2812500000000013
 40
0.3125000000000014
 40
0.3125000000000014
 40
0.3437500000000016
 40
0.3437500000000016
 40
0.3750000000000018
 40
0.3750000000000018
 40
0.4062500000000019
 40
0.4062500000000019
 40
0.4375000000000021
 40
0.4375000000000021
 40
0.4687500000000022
 40
0.4687500000000022
 40
0.5000000000000023
 40
0.5000000000000023
 40
0.5312500000000024
 40
0.5312500000000024
 40
0.5625000000000027
 40
0.5625000000000027
 40
0.6250000000000022
 40
0.6250000000000022
 40
0.6562500000000021
 40
0.6562500000000021
 40
0.6875000000000019
 40
0.6875000000000019
 40
0.7187500000000017
 40
0.7187500000000017
 40
0.7500000000000014
 40
0.7500000000000014
 40
0.7812500000000013
 40
0.7812500000000013
 40
0.8125000000000011
 40
0.8125000000000011
 40
0.8437500000000009
 40
0.8437500000000009
 40
0.8750000000000008
 40
0.8750000000000008
 40
0.9062500000000006
 40
0.9062500000000006
 40
0.9375000000000003
 40
0.9375000000000003
 40
1.0
 40
1.0
 40
1.0
 40
1.0
 10
188.8550589619813
 20
93.72269467429696
 30
0.0
 10
189.0202592526452
 20
93.72269467429695
 30
0.0
 10
189.1826917939418
 20
93.73760070365476
 30
0.0
 10
189.5022499495318
 20
93.7960358823972
 30
0.0
 10
189.6610332875088
 20
93.84027693477294
 30
0.0
 10
189.9637713039882
 20
93.95586848019543
 30
0.0
 10
190.1073504691225
 20
94.02664445041411
 30
0.0
 10
190.3790801989905
 20
94.19408298232672
 30
0.0
 10
190.5077087625283
 20
94.29162225464738
 30
0.0
 10
190.7382745241954
 20
94.50504061484882
 30
0.0
 10
190.8417485254448
 20
94.62165526687495
 30
0.0
 10
191.0245090633706
 20
94.87538063089468
 30
0.0
 10
191.1021533195992
 20
95.01067348996342
 30
0.0
 10
191.2268459702893
 20
95.29101984535501
 30
0.0
 10
191.2748499508677
 20
95.43814072119106
 30
0.0
 10
191.339081693186
 20
95.74013082556836
 30
0.0
 10
191.3549711372282
 20
95.89225459313757
 30
0.0
 10
191.3551460675833
 20
96.19873723596379
 30
0.0
 10
191.3389154162485
 20
96.35472315702948
 30
0.0
 10
191.2751341935389
 20
96.65730262599881
 30
0.0
 10
191.2279420821426
 20
96.804681137391
 30
0.0
 10
191.1027754644846
 20
97.09146984276872
 30
0.0
 10
191.0245159771096
 20
97.23042694430663
 30
0.0
 10
190.8435957937543
 20
97.48802060457461
 30
0.0
 10
190.7403105648304
 20
97.60831314827563
 30
0.0
 10
190.5070588227817
 20
97.8310339659223
 30
0.0
 10
190.3806449545161
 20
97.93001186991415
 30
0.0
 10
190.1099726838215
 20
98.10322872452332
 30
0.0
 10
189.9638909116572
 20
98.17820976200007
 30
0.0
 10
189.6610064661843
 20
98.29853793209584
 30
0.0
 10
189.5051761065446
 20
98.34392161958502
 30
0.0
 10
189.1848306172792
 20
98.40534788000603
 30
0.0
 10
189.0191205313075
 20
98.42110150152577
 30
0.0
 10
188.692789142611
 20
98.42121374678123
 30
0.0
 10
188.5306020567841
 20
98.40608151687523
 30
0.0
 10
188.2082264755755
 20
98.34482940369476
 30
0.0
 10
188.050211001538
 20
98.29882266031953
 30
0.0
 10
187.5988001264625
 20
98.11994193107756
 30
0.0
 10
187.3197206694103
 20
97.94178982377865
 30
0.0
 10
186.9736469649119
 20
97.61229340749159
 30
0.0
 10
186.8680049489973
 20
97.48992056765158
 30
0.0
 10
186.6862214730265
 20
97.23151786353701
 30
0.0
 10
186.6093336496425
 20
97.09528629798872
 30
0.0
 10
186.4836790922722
 20
96.8088508361026
 30
0.0
 10
186.4353710163575
 20
96.6585437515271
 30
0.0
 10
186.3715531309172
 20
96.35697582144257
 30
0.0
 10
186.3552249538743
 20
96.20410975897806
 30
0.0
 10
186.3548954638146
 20
95.89409464223459
 30
0.0
 10
186.3709919756493
 20
95.74122564188195
 30
0.0
 10
186.4342207129105
 20
95.44219287610709
 30
0.0
 10
186.482057306321
 20
95.29412727968423
 30
0.0
 10
186.6074006242345
 20
95.01157024153872
 30
0.0
 10
186.6840972987596
 20
94.87795390941501
 30
0.0
 10
186.8651486654114
 20
94.62566403948283
 30
0.0
 10
186.9706242757723
 20
94.50632073041498
 30
0.0
 10
187.2011508444486
 20
94.29263695093016
 30
0.0
 10
187.3268702820789
 20
94.19697697627038
 30
0.0
 10
187.5996371312757
 20
94.02825590726657
 30
0.0
 10
187.7453565076817
 20
93.95638869861334
 30
0.0
 10
188.1964256127898
 20
93.78373762134487
 30
0.0
 10
188.5246583806535
 20
93.72269467429696
 30
0.0
 10
188.8550589619813
 20
93.72269467429695
 30
0.0
  0
SPLINE
  5
C6
330
1F
100
AcDbEntity
  8
0
  6
Continuous
 62
     7
370
    15
100
AcDbSpline
210
0.0
220
0.0
230
1.0
 70
     8
 71
     3
 72
    10
 73
     6
 74
     0
 42
0.000000001
 43
0.00000001
 40
0.0
 40
0.0
 40
0.0
 40
0.0
 40
0.5
 40
0.5
 40
1.0
 40
1.0
 40
1.0
 40
1.0
 10
191.5880517277075
 20
151.5041283955623
 30
0.0
 10
190.7404873609392
 20
151.3843513435013
 30
0.0
 10
189.8597739252173
 20
151.2856611638375
 30
0.0
 10
188.0322176740017
 20
151.1443887576003
 30
0.0
 10
187.0787852709004
 20
151.1021705139227
 30
0.0
 10
186.1220661962552
 20
151.0946841808029
 30
0.0
  0
SPLINE
  5
C7
330
1F
100
AcDbEntity
  8
0
  6
Continuous
 62
     7
370
    15
100
AcDbSpline
210
0.0
220
0.0
230
1.0
 70
     8
 71
     3
 72
    10
 73
     6
 74
     0
 42
0.000000001
 43
0.00000001
 40
0.0
 40
0.0
 40
0.0
 40
0.0
 40
0.5
 40
0.5
 40
1.0
 40
1.0
 40
1.0
 40
1.0
 10
191.5880517277075
 20
69.66109557471822
 30
0.0
 10
190.7404873609392
 20
69.78087262677926
 30
0.0
 10
189.8597739252173
 20
69.87956280644309
 30
0.0
 10
188.0322176740017
 20
70.02083521268021
 30
0.0
 10
187.0787852709004
 20
70.06305345635782
 30
0.0
 10
186.1220661962552
 20
70.07053978947764
 30
0.0
  0
SPLINE
  5
C8
330
1F
100
AcDbEntity
  8
0
  6
Continuous
 62
     7
370
    15
100
AcDbSpline
210
0.0
220
0.0
230
1.0
 70
    24
 71
     3
 72
    20
 73
    16
 74
     0
 42
0.000000001
 43
0.00000001
 40
0.0
 40
0.0
 40
0.0
 40
0.0
 40
0.5
 40
0.5
 40
0.75
 40
0.75
 40
0.875
 40
0.875
 40
0.9375
 40
0.9375
 40
0.96875
 40
0.984375
 40
0.9921875
 40
0.9921875
 40
1.0
 40
1.0
 40
1.0
 40
1.0
 10
168.6550589619814
 20
145.8826119851403
 30
0.0
 10
168.6550589619814
 20
145.8826119851403
 30
0.0
 10
168.5942949706767
 20
145.8826119851403
 30
0.0
 10
168.5112917336094
 20
145.8826119851403
 30
0.0
 10
168.4846504764312
 20
145.8826119851403
 30
0.0
 10
168.4561974629643
 20
145.8826119851403
 30
0.0
 10
168.4486128375023
 20
145.8826119851403
 30
0.0
 10
168.4409173393884
 20
145.8826119851403
 30
0.0
 10
168.4389614079955
 20
145.8826119851403
 30
0.0
 10
168.4369986759785
 20
145.8826119851403
 30
0.0
 10
168.4362595534203
 20
145.8826119851403
 30
0.0
 10
168.4358276622531
 20
145.8826119851403
 30
0.0
 10
168.4357350920001
 20
145.8826119851403
 30
0.0
 10
168.4356939611403
 20
145.8826119851403
 30
0.0
 10
168.4356836917689
 20
145.8826119851403
 30
0.0
 10
168.4356837118158
 20
145.8826119851403
 30
0.0
  0
LINE
  5
C9
330
1F
100
AcDbEntity
  8
0
  6
Continuous
 62
     7
370
    15
100
AcDbLine
 10
165.655058962
 20
75.6576119851
 30
0.0
 11
165.655058962
 21
145.5076119851
 31
0.0
  0
LINE
  5
CA
330
1F
100
AcDbEntity
  8
0
  6
Continuous
 62
     7
370
    15
100
AcDbLine
 10
63.855058962
 20
92.2329341244
 30
0.0
 11
63.855058962
 21
128.9322898376
 31
0.0
  0
SPLINE
  5
CB
330
1F
100
AcDbEntity
  8
0
  6
Continuous
 62
     7
370
    15
100
AcDbSpline
210
0.0
220
0.0
230
1.0
 70
    11
 71
     3
 72
    64
 73
    60
 74
     0
 42
0.000000001
 43
0.00000001
 40
0.0
 40
0.0
 40
0.0
 40
0.0
 40
0.03125
 40
0.03125
 40
0.0625
 40
0.0625
 40
0.0937499999999999
 40
0.0937499999999999
 40
0.1249999999999999
 40
0.1249999999999999
 40
0.1562499999999999
 40
0.1562499999999999
 40
0.1874999999999999
 40
0.1874999999999999
 40
0.2187499999999999
 40
0.2187499999999999
 40
0.2499999999999998
 40
0.2499999999999998
 40
0.2812499999999998
 40
0.2812499999999998
 40
0.3124999999999998
 40
0.3124999999999998
 40
0.3437499999999998
 40
0.3437499999999998
 40
0.3749999999999998
 40
0.3749999999999998
 40
0.4062499999999997
 40
0.4062499999999997
 40
0.4374999999999997
 40
0.4374999999999997
 40
0.4687499999999997
 40
0.4687499999999997
 40
0.4999999999999997
 40
0.4999999999999997
 40
0.5312499999999997
 40
0.5312499999999997
 40
0.5624999999999997
 40
0.5624999999999997
 40
0.6249999999999996
 40
0.6249999999999996
 40
0.6874999999999996
 40
0.6874999999999996
 40
0.7187499999999996
 40
0.7187499999999996
 40
0.7499999999999996
 40
0.7499999999999996
 40
0.7812499999999994
 40
0.7812499999999994
 40
0.8124999999999994
 40
0.8124999999999994
 40
0.8437499999999994
 40
0.8437499999999994
 40
0.8749999999999994
 40
0.8749999999999994
 40
0.9062499999999994
 40
0.9062499999999994
 40
0.9374999999999993
 40
0.9374999999999993
 40
1.0
 40
1.0
 40
1.0
 40
1.0
 10
220.0868562870883
 20
112.5798800265322
 30
0.0
 10
220.2319828057361
 20
112.6990952433657
 30
0.0
 10
220.3861304890468
 20
112.8026181812291
 30
0.0
 10
220.7110297544864
 20
112.9811368155384
 30
0.0
 10
220.8830690189564
 20
113.0565142178901
 30
0.0
 10
221.2384285828931
 20
113.1761865596309
 30
0.0
 10
221.4193679018927
 20
113.2199437914741
 30
0.0
 10
221.7875379857544
 20
113.2766322976874
 30
0.0
 10
221.9765995658021
 20
113.2894442403442
 30
0.0
 10
222.3509715818439
 20
113.2827870500766
 30
0.0
 10
222.5360111134728
 20
113.2637117729585
 30
0.0
 10
222.901840411845
 20
113.1942900772267
 30
0.0
 10
223.0843689138068
 20
113.143158435734
 30
0.0
 10
223.4331645918585
 20
113.0114144562433
 30
0.0
 10
223.6000473514466
 20
112.9310686061554
 30
0.0
 10
223.9185067577461
 20
112.7405756139189
 30
0.0
 10
224.0714349021261
 20
112.6289752732119
 30
0.0
 10
224.3487758692028
 20
112.3823229422373
 30
0.0
 10
224.47441274149
 20
112.246975292497
 30
0.0
 10
224.6980424871198
 20
111.9504812607834
 30
0.0
 10
224.7962751268436
 20
111.7877574753229
 30
0.0
 10
224.9523175390606
 20
111.4509036555485
 30
0.0
 10
225.0117685095507
 20
111.2751248575047
 30
0.0
 10
225.0904359862216
 20
110.9075444729375
 30
0.0
 10
225.1083689915271
 20
110.7193437542313
 30
0.0
 10
225.1007331395513
 20
110.3467366570995
 30
0.0
 10
225.0747921184784
 20
110.1579604013574
 30
0.0
 10
224.981615456441
 20
109.7952424279984
 30
0.0
 10
224.9151101090341
 20
109.6210648130357
 30
0.0
 10
224.7436357561544
 20
109.2864869459949
 30
0.0
 10
224.640413304757
 20
109.1299513029228
 30
0.0
 10
224.4053306070266
 20
108.8414513490897
 30
0.0
 10
224.271495461627
 20
108.7076019824021
 30
0.0
 10
223.9840897184853
 20
108.4705450180564
 30
0.0
 10
223.8301599345414
 20
108.3663794725394
 30
0.0
 10
223.5024615735158
 20
108.1855695145834
 30
0.0
 10
223.3297762872773
 20
108.1098970789106
 30
0.0
 10
222.8008999213766
 20
107.930993284178
 30
0.0
 10
222.4226600833273
 20
107.8728586962341
 30
0.0
 10
221.6778060768597
 20
107.8852238350041
 30
0.0
 10
221.3016925546993
 20
107.9559921790449
 30
0.0
 10
220.7804754642349
 20
108.1522902882037
 30
0.0
 10
220.6112490252705
 20
108.2334198787496
 30
0.0
 10
220.2896964940345
 20
108.4258242964793
 30
0.0
 10
220.1400788759499
 20
108.5352044771371
 30
0.0
 10
219.863373388679
 20
108.7808997170111
 30
0.0
 10
219.7350183386378
 20
108.9189181532478
 30
0.0
 10
219.5102025484244
 20
109.2174697524604
 30
0.0
 10
219.4145812456528
 20
109.3761180716427
 30
0.0
 10
219.2582558177322
 20
109.7130933379838
 30
0.0
 10
219.1972788986829
 20
109.8940554456965
 30
0.0
 10
219.1195428575912
 20
110.2593914561225
 30
0.0
 10
219.1016460888283
 20
110.4448558131782
 30
0.0
 10
219.1095312704102
 20
110.8216189351052
 30
0.0
 10
219.1356699621264
 20
111.0089735116779
 30
0.0
 10
219.228766847403
 20
111.3706380793877
 30
0.0
 10
219.296967146702
 20
111.5485586186402
 30
0.0
 10
219.5533418614919
 20
112.0470461058178
 30
0.0
 10
219.7966032497927
 20
112.3414495928654
 30
0.0
 10
220.0868562870884
 20
112.5798800265323
 30
0.0
  0
LINE
  5
CC
330
1F
100
AcDbEntity
  8
0
  6
Continuous
 62
     7
370
    15
100
AcDbLine
 10
228.455058962
 20
110.5826119851
 30
0.0
 11
228.455058962
 21
98.0826119851
 31
0.0
  0
LINE
  5
CD
330
1F
100
AcDbEntity
  8
0
  6
Continuous
 62
     7
370
    15
100
AcDbLine
 10
228.455058962
 20
123.0826119851
 30
0.0
 11
228.455058962
 21
110.5826119851
 31
0.0
  0
LINE
  5
CE
330
1F
100
AcDbEntity
  8
0
  6
Continuous
 62
     7
370
    15
100
AcDbLine
 10
228.655058962
 20
110.5826119851
 30
0.0
 11
228.655058962
 21
98.2826119851
 31
0.0
  0
LINE
  5
CF
330
1F
100
AcDbEntity
  8
0
  6
Continuous
 62
     7
370
    15
100
AcDbLine
 10
228.655058962
 20
122.8826119851
 30
0.0
 11
228.655058962
 21
110.5826119851
 31
0.0
  0
LWPOLYLINE
  5
D0
330
1F
100
AcDbEntity
  8
0
  6
HIDDEN
 62
     7
370
     0
100
AcDbPolyline
 90
       24
 70
   128
 43
0.0
 10
190.9409828835
 20
125.7764923615
 10
191.4453496309
 20
125.1725228762
 10
191.7576063693
 20
124.4630801161
 10
191.8545944447
 20
123.7007802052
 10
191.7291206953
 20
122.9421594407
 10
191.3904909351
 20
122.2434812542
 10
190.8638197843
 20
121.6565634106
 10
190.1881680328
 20
121.2249349212
 10
189.4136456801
 20
120.9806076968
 10
188.5976955058
 20
120.9417023696
 10
187.8008328017
 20
121.1111043699
 10
187.0821572292
 20
121.4762499263
 10
186.4949696677
 20
122.0100578633
 10
186.0828191325
 20
122.6729380882
 10
185.8762729433
 20
123.4157278072
 10
185.890649686
 20
124.1833377049
 10
186.1248831035
 20
124.9188376668
 10
186.5616011746
 20
125.5676790253
 10
187.168414518
 20
126.0817401851
 10
187.9003185639
 20
126.4228955818
 10
188.7030313375
 20
126.5658432802
 10
189.5170193045
 20
126.4999815035
 10
190.2819127012
 20
126.2301949183
 10
190.9409828835
 20
125.7764923615
  0
LWPOLYLINE
  5
D1
330
1F
100
AcDbEntity
  8
0
  6
HIDDEN
 62
     7
370
     0
100
AcDbPolyline
 90
       19
 70
   128
 43
0.0
 10
190.2456749096
 20
124.7591039321
 10
190.653438413
 20
124.2307091989
 10
190.8442908133
 20
123.6031279035
 10
190.7952124943
 20
122.9520556121
 10
190.5121230258
 20
122.356021252
 10
190.0291671755
 20
121.8869153634
 10
189.4045965467
 20
121.6013190399
 10
188.7137435748
 20
121.5336794129
 10
188.0399353242
 20
121.6921548198
 10
187.4644430143
 20
122.0576307876
 10
187.056679511
 20
122.5860255208
 10
186.8658271107
 20
123.2136068162
 10
186.9149054296
 20
123.8646791076
 10
187.1979948982
 20
124.4607134677
 10
187.6809507484
 20
124.9298193563
 10
188.3055213773
 20
125.2154156798
 10
188.9963743491
 20
125.2830553068
 10
189.6701825997
 20
125.1245798999
 10
190.2456749096
 20
124.7591039321
  0
LWPOLYLINE
  5
D2
330
1F
100
AcDbEntity
  8
0
  6
HIDDEN
 62
     7
370
     0
100
AcDbPolyline
 90
       24
 70
   128
 43
0.0
 10
190.9409828835
 20
127.0350783584
 10
191.4453496309
 20
126.4311088731
 10
191.7576063693
 20
125.721666113
 10
191.8545944447
 20
124.9593662021
 10
191.7291206953
 20
124.2007454376
 10
191.3904909351
 20
123.5020672511
 10
190.8638197843
 20
122.9151494075
 10
190.1881680328
 20
122.4835209181
 10
189.4136456801
 20
122.2391936937
 10
188.5976955058
 20
122.2002883665
 10
187.8008328017
 20
122.3696903668
 10
187.0821572292
 20
122.7348359232
 10
186.4949696677
 20
123.2686438602
 10
186.0828191325
 20
123.9315240851
 10
185.8762729433
 20
124.6743138041
 10
185.890649686
 20
125.4419237018
 10
186.1248831035
 20
126.1774236637
 10
186.5616011746
 20
126.8262650222
 10
187.168414518
 20
127.340326182
 10
187.9003185639
 20
127.6814815787
 10
188.7030313375
 20
127.8244292771
 10
189.5170193045
 20
127.7585675004
 10
190.2819127012
 20
127.4887809152
 10
190.9409828835
 20
127.0350783584
  0
LINE
  5
D3
330
1F
100
AcDbEntity
  8
0
  6
HIDDEN
 62
     7
370
     0
100
AcDbLine
 10
188.3791454533
 20
125.9993775408
 30
0.0
 11
190.0593676996
 21
125.6041999752
 31
0.0
  0
LINE
  5
D4
330
1F
100
AcDbEntity
  8
0
  6
HIDDEN
 62
     7
370
     0
100
AcDbLine
 10
188.3791454533
 20
125.9993775408
 30
0.0
 11
188.3791454533
 21
126.6834178274
 31
0.0
  0
LINE
  5
D5
330
1F
100
AcDbEntity
  8
0
  6
HIDDEN
 62
     7
370
     0
100
AcDbLine
 10
188.3791454533
 20
125.9993775408
 30
0.0
 11
187.1748367157
 21
124.8296053554
 31
0.0
  0
LINE
  5
D6
330
1F
100
AcDbEntity
  8
0
  6
HIDDEN
 62
     7
370
     0
100
AcDbLine
 10
190.0593676996
 20
125.6041999752
 30
0.0
 11
190.0593676996
 21
126.2882402618
 31
0.0
  0
LINE
  5
D7
330
1F
100
AcDbEntity
  8
0
  6
HIDDEN
 62
     7
370
     0
100
AcDbLine
 10
190.5352812082
 20
124.0392502242
 30
0.0
 11
190.0593676996
 21
125.6041999752
 31
0.0
  0
LINE
  5
D8
330
1F
100
AcDbEntity
  8
0
  6
HIDDEN
 62
     7
370
     0
100
AcDbLine
 10
187.6507502244
 20
123.2646556045
 30
0.0
 11
187.6507502244
 21
123.9486958911
 31
0.0
  0
LINE
  5
D9
330
1F
100
AcDbEntity
  8
0
  6
HIDDEN
 62
     7
370
     0
100
AcDbLine
 10
187.1748367157
 20
125.5136456421
 30
0.0
 11
187.6507502244
 21
123.9486958911
 31
0.0
  0
LINE
  5
DA
330
1F
100
AcDbEntity
  8
0
  6
HIDDEN
 62
     7
370
     0
100
AcDbLine
 10
187.1748367157
 20
124.8296053554
 30
0.0
 11
187.1748367157
 21
125.5136456421
 31
0.0
  0
LINE
  5
DB
330
1F
100
AcDbEntity
  8
0
  6
HIDDEN
 62
     7
370
     0
100
AcDbLine
 10
187.1748367157
 20
124.8296053554
 30
0.0
 11
187.6507502244
 21
123.2646556045
 31
0.0
  0
LINE
  5
DC
330
1F
100
AcDbEntity
  8
0
  6
HIDDEN
 62
     7
370
     0
100
AcDbLine
 10
189.3309724707
 20
122.8694780389
 30
0.0
 11
189.3309724707
 21
123.5535183255
 31
0.0
  0
LINE
  5
DD
330
1F
100
AcDbEntity
  8
0
  6
HIDDEN
 62
     7
370
     0
100
AcDbLine
 10
190.5352812082
 20
124.7232905109
 30
0.0
 11
189.3309724707
 21
123.5535183255
 31
0.0
  0
LINE
  5
DE
330
1F
100
AcDbEntity
  8
0
  6
HIDDEN
 62
     7
370
     0
100
AcDbLine
 10
190.5352812082
 20
124.0392502242
 30
0.0
 11
190.5352812082
 21
124.7232905109
 31
0.0
  0
LINE
  5
DF
330
1F
100
AcDbEntity
  8
0
  6
HIDDEN
 62
     7
370
     0
100
AcDbLine
 10
190.5352812082
 20
124.0392502242
 30
0.0
 11
189.3309724707
 21
122.8694780389
 31
0.0
  0
LINE
  5
E0
330
1F
100
AcDbEntity
  8
0
  6
HIDDEN
 62
     7
370
     0
100
AcDbLine
 10
189.3309724707
 20
123.5535183255
 30
0.0
 11
187.6507502244
 21
123.9486958911
 31
0.0
  0
LINE
  5
E1
330
1F
100
AcDbEntity
  8
0
  6
HIDDEN
 62
     7
370
     0
100
AcDbLine
 10
189.3309724707
 20
122.8694780389
 30
0.0
 11
187.6507502244
 21
123.2646556045
 31
0.0
  0
LWPOLYLINE
  5
E2
330
1F
100
AcDbEntity
  8
0
  6
HIDDEN
 62
     7
370
     0
100
AcDbPolyline
 90
       22
 70
   128
 43
0.0
 10
190.555434612
 20
126.7700812202
 10
190.9979563337
 20
126.225735889
 10
191.2500722201
 20
125.5830049536
 10
191.289380668
 20
124.898997878
 10
191.1123889496
 20
124.2344916928
 10
190.7348235557
 20
123.6485306884
 10
190.1902328283
 20
123.1931800717
 10
189.5270060437
 20
122.9088997432
 10
188.804073812
 20
122.8209492577
 10
188.0856718347
 20
122.9371434017
 10
187.43563328
 20
123.2471578156
 10
186.9117169262
 20
123.7234463584
 10
186.5604750405
 20
124.3236887027
 10
186.4131170059
 20
124.9945506822
 10
186.4827362303
 20
125.676423266
 10
186.7631467402
 20
126.3087190827
 10
187.2294328312
 20
126.8352558741
 10
187.8401629379
 20
127.2092485358
 10
188.5410710101
 20
127.3974661783
 10
189.2698782898
 20
127.3831848383
 10
189.9618270518
 20
127.1676734755
 10
190.555434612
 20
126.7700812202
  0
LINE
  5
E3
330
1F
100
AcDbEntity
  8
0
  6
HIDDEN
 62
     7
370
     0
100
AcDbLine
 10
190.5352812082
 20
124.7232905109
 30
0.0
 11
190.0593676996
 21
126.2882402618
 31
0.0
  0
LINE
  5
E4
330
1F
100
AcDbEntity
  8
0
  6
HIDDEN
 62
     7
370
     0
100
AcDbLine
 10
188.3791454533
 20
126.6834178274
 30
0.0
 11
187.1748367157
 21
125.5136456421
 31
0.0
  0
LINE
  5
E5
330
1F
100
AcDbEntity
  8
0
  6
HIDDEN
 62
     7
370
     0
100
AcDbLine
 10
188.3791454533
 20
126.6834178274
 30
0.0
 11
190.0593676996
 21
126.2882402618
 31
0.0
  0
LWPOLYLINE
  5
E6
330
1F
100
AcDbEntity
  8
0
  6
HIDDEN
 62
     7
370
     0
100
AcDbPolyline
 90
       24
 70
   128
 43
0.0
 10
186.7691350405
 20
94.1301456119
 10
187.4282052227
 20
93.6764430551
 10
188.1930986194
 20
93.4066564699
 10
189.0070865864
 20
93.3407946932
 10
189.80979936
 20
93.4837423916
 10
190.5417034059
 20
93.8248977882
 10
191.1485167493
 20
94.3389589481
 10
191.5852348205
 20
94.9878003066
 10
191.819468238
 20
95.7233002685
 10
191.8338449807
 20
96.4909101661
 10
191.6272987915
 20
97.2336998851
 10
191.2151482563
 20
97.89658011
 10
190.6279606948
 20
98.430388047
 10
189.9092851222
 20
98.7955336034
 10
189.1124224182
 20
98.9649356038
 10
188.2964722439
 20
98.9260302766
 10
187.5219498912
 20
98.6817030521
 10
186.8462981396
 20
98.2500745628
 10
186.3196269888
 20
97.6631567192
 10
185.9809972287
 20
96.9644785326
 10
185.8555234793
 20
96.2058577681
 10
185.9525115547
 20
95.4435578573
 10
186.264768293
 20
94.7341150972
 10
186.7691350405
 20
94.1301456119
  0
LWPOLYLINE
  5
E7
330
1F
100
AcDbEntity
  8
0
  6
HIDDEN
 62
     7
370
     0
100
AcDbPolyline
 90
       24
 70
   128
 43
0.0
 10
186.7691350405
 20
95.3887316088
 10
187.4282052227
 20
94.935029052
 10
188.1930986194
 20
94.6652424668
 10
189.0070865864
 20
94.5993806901
 10
189.80979936
 20
94.7423283885
 10
190.5417034059
 20
95.0834837851
 10
191.1485167493
 20
95.597544945
 10
191.5852348205
 20
96.2463863035
 10
191.819468238
 20
96.9818862654
 10
191.8338449807
 20
97.749496163
 10
191.6272987915
 20
98.4922858821
 10
191.2151482563
 20
99.155166107
 10
190.6279606948
 20
99.6889740439
 10
189.9092851222
 20
100.0541196004
 10
189.1124224182
 20
100.2235216007
 10
188.2964722439
 20
100.1846162735
 10
187.5219498912
 20
99.940289049
 10
186.8462981396
 20
99.5086605597
 10
186.3196269888
 20
98.9217427161
 10
185.9809972287
 20
98.2230645296
 10
185.8555234793
 20
97.4644437651
 10
185.9525115547
 20
96.7021438542
 10
186.264768293
 20
95.9927010941
 10
186.7691350405
 20
95.3887316088
  0
LINE
  5
E8
330
1F
100
AcDbEntity
  8
0
  6
HIDDEN
 62
     7
370
     0
100
AcDbLine
 10
188.3791454533
 20
98.2957459314
 30
0.0
 11
188.3791454533
 21
97.6117056448
 31
0.0
  0
LINE
  5
E9
330
1F
100
AcDbEntity
  8
0
  6
HIDDEN
 62
     7
370
     0
100
AcDbLine
 10
190.0593676996
 20
97.9005683658
 30
0.0
 11
190.0593676996
 21
97.2165280792
 31
0.0
  0
LINE
  5
EA
330
1F
100
AcDbEntity
  8
0
  6
HIDDEN
 62
     7
370
     0
100
AcDbLine
 10
187.1748367157
 20
97.125973746
 30
0.0
 11
187.3354235168
 21
96.5979150341
 31
0.0
  0
LINE
  5
EB
330
1F
100
AcDbEntity
  8
0
  6
HIDDEN
 62
     7
370
     0
100
AcDbLine
 10
187.1748367157
 20
97.125973746
 30
0.0
 11
187.1748367157
 21
96.4419334594
 31
0.0
  0
LINE
  5
EC
330
1F
100
AcDbEntity
  8
0
  6
HIDDEN
 62
     7
370
     0
100
AcDbLine
 10
190.3746944071
 20
96.1796370402
 30
0.0
 11
190.5352812082
 21
96.3356186149
 31
0.0
  0
LINE
  5
ED
330
1F
100
AcDbEntity
  8
0
  6
HIDDEN
 62
     7
370
     0
100
AcDbLine
 10
190.5352812082
 20
96.3356186149
 30
0.0
 11
190.5352812082
 21
95.6515783282
 31
0.0
  0
LINE
  5
EE
330
1F
100
AcDbEntity
  8
0
  6
HIDDEN
 62
     7
370
     0
100
AcDbLine
 10
190.5352812082
 20
96.3356186149
 30
0.0
 11
190.0593676996
 21
97.9005683658
 31
0.0
  0
LINE
  5
EF
330
1F
100
AcDbEntity
  8
0
  6
HIDDEN
 62
     7
370
     0
100
AcDbLine
 10
187.1748367157
 20
97.125973746
 30
0.0
 11
188.3791454533
 21
98.2957459314
 31
0.0
  0
LINE
  5
F0
330
1F
100
AcDbEntity
  8
0
  6
HIDDEN
 62
     7
370
     0
100
AcDbLine
 10
188.3791454533
 20
98.2957459314
 30
0.0
 11
190.0593676996
 21
97.9005683658
 31
0.0
  0
LWPOLYLINE
  5
F1
330
1F
100
AcDbEntity
  8
0
  6
HIDDEN
 62
     7
370
     0
100
AcDbPolyline
 90
       19
 70
   128
 43
0.0
 10
187.4644430143
 20
96.4061200382
 10
188.0399353242
 20
96.0406440704
 10
188.7137435748
 20
95.8821686635
 10
189.4045965467
 20
95.9498082905
 10
190.0291671755
 20
96.235404614
 10
190.5121230258
 20
96.7045105026
 10
190.7952124943
 20
97.3005448627
 10
190.8442908133
 20
97.951617154
 10
190.653438413
 20
98.5791984495
 10
190.2456749096
 20
99.1075931827
 10
189.6701825997
 20
99.4730691505
 10
188.9963743491
 20
99.6315445574
 10
188.3055213773
 20
99.5639049304
 10
187.6809507484
 20
99.2783086069
 10
187.1979948982
 20
98.8092027183
 10
186.9149054296
 20
98.2131683582
 10
186.8658271107
 20
97.5620960668
 10
187.056679511
 20
96.9345147714
 10
187.4644430143
 20
96.4061200382
  0
CIRCLE
  5
F2
330
1F
100
AcDbEntity
  8
0
  6
HIDDEN
 62
     7
370
     0
100
AcDbCircle
 10
222.105058962
 20
110.5826119851
 30
0.0
 40
1.77679491924313
  0
CIRCLE
  5
F3
330
1F
100
AcDbEntity
  8
0
  6
HIDDEN
 62
     7
370
     0
100
AcDbCircle
 10
222.105058962
 20
110.5826119851
 30
0.0
 40
1.67679491924312
  0
SPLINE
  5
F4
330
1F
100
AcDbEntity
  8
0
  6
HIDDEN
 62
     7
370
     0
100
AcDbSpline
210
0.0
220
0.0
230
1.0
 70
     8
 71
     3
 72
     9
 73
     5
 74
     0
 42
0.000000001
 43
0.00000001
 40
0.0
 40
0.0
 40
0.0
 40
0.0
 40
0.326715502844845
 40
1.0
 40
1.0
 40
1.0
 40
1.0
 10
198.279026435713
 20
60.9588515447374
 30
0.0
 10
198.1222335575956
 20
61.00093377375729
 30
0.0
 10
197.642327104574
 20
61.12973766782859
 30
0.0
 10
196.8881155636484
 20
61.30476431594811
 30
0.0
 10
196.3803166255677
 20
61.42260704471602
 30
0.0
  0
LWPOLYLINE
  5
F5
330
1F
100
AcDbEntity
  8
0
  6
HIDDEN
 62
     7
370
     0
100
AcDbPolyline
 90
       24
 70
   128
 43
0.0
 10
168.9244460738
 20
96.5534571826
 10
169.0991592008
 20
95.7559897706
 10
169.3670166677
 20
95.0176668685
 10
169.7081527115
 20
94.3932465082
 10
170.0972668326
 20
93.9290390913
 10
170.5055002165
 20
93.6594727583
 10
170.9025760609
 20
93.6045400109
 10
171.2590450667
 20
93.7683149598
 10
171.5484695586
 20
94.1386511662
 10
171.7493842461
 20
94.6880824878
 10
171.8468882058
 20
95.3758601169
 10
171.8337500152
 20
96.1509747333
 10
171.7109440737
 20
96.9559396318
 10
171.4875783363
 20
97.7310542482
 10
171.1802188178
 20
98.4188318773
 10
170.8116609676
 20
98.9682631989
 10
170.4092390355
 20
99.3385994053
 10
170.0027988152
 20
99.5023743542
 10
169.6224841185
 20
99.4474416068
 10
169.2965011467
 20
99.1778752739
 10
169.0490265654
 20
98.7136678569
 10
168.8984144323
 20
98.0892474966
 10
168.8558349602
 20
97.3509245945
 10
168.9244460738
 20
96.5534571826
  0
LWPOLYLINE
  5
F6
330
1F
100
AcDbEntity
  8
0
  6
HIDDEN
 62
     7
370
     0
100
AcDbPolyline
 90
       20
 70
   128
 43
0.0
 10
169.6373166625
 20
96.6094755008
 10
169.7940708041
 20
95.9376510347
 10
170.0423585755
 20
95.3386291739
 10
170.3552741439
 20
94.8773232318
 10
170.6989082523
 20
94.6037228652
 10
171.0360228129
 20
94.5474769191
 10
171.3300862322
 20
94.7146805146
 10
171.5492321759
 20
95.0872145475
 10
171.6697127806
 20
95.6247091751
 10
171.6784721032
 20
96.2689185143
 10
171.5745609353
 20
96.9500324873
 10
171.3692396643
 20
97.5942418265
 10
171.0847580358
 20
98.1317364541
 10
170.7519440483
 20
98.5042704871
 10
170.4068632617
 20
98.6714740825
 10
170.0869105336
 20
98.6152281364
 10
169.8267577066
 20
98.3416277698
 10
169.6545963763
 20
97.8803218278
 10
169.5890828941
 20
97.281299967
 10
169.6373166625
 20
96.6094755008
  0
SPLINE
  5
F7
330
1F
100
AcDbEntity
  8
0
  6
HIDDEN
 62
     7
370
     0
100
AcDbSpline
210
0.0
220
0.0
230
1.0
 70
    11
 71
     3
 72
    66
 73
    62
 74
     0
 42
0.000000001
 43
0.00000001
 40
0.0
 40
0.0
 40
0.0
 40
0.0
 40
0.0312499999999993
 40
0.0312499999999993
 40
0.0624999999999986
 40
0.0624999999999986
 40
0.0937499999999979
 40
0.0937499999999979
 40
0.1249999999999972
 40
0.1249999999999972
 40
0.1562499999999965
 40
0.1562499999999965
 40
0.1874999999999958
 40
0.1874999999999958
 40
0.2187499999999951
 40
0.2187499999999951
 40
0.2343749999999949
 40
0.2343749999999949
 40
0.2499999999999947
 40
0.2499999999999947
 40
0.2812499999999948
 40
0.2812499999999948
 40
0.312499999999995
 40
0.312499999999995
 40
0.3749999999999953
 40
0.3749999999999953
 40
0.4374999999999956
 40
0.4374999999999956
 40
0.4687499999999956
 40
0.4687499999999956
 40
0.4999999999999956
 40
0.4999999999999956
 40
0.5312499999999956
 40
0.5312499999999956
 40
0.5624999999999954
 40
0.5624999999999954
 40
0.5937499999999954
 40
0.5937499999999954
 40
0.6249999999999954
 40
0.6249999999999954
 40
0.6874999999999954
 40
0.6874999999999954
 40
0.7499999999999956
 40
0.7499999999999956
 40
0.7812499999999956
 40
0.7812499999999956
 40
0.8124999999999954
 40
0.8124999999999954
 40
0.8437499999999954
 40
0.8437499999999954
 40
0.8593749999999958
 40
0.8593749999999958
 40
0.8749999999999961
 40
0.8749999999999961
 40
0.9062499999999971
 40
0.9062499999999971
 40
0.937499999999998
 40
0.937499999999998
 40
0.968749999999999
 40
0.968749999999999
 40
1.0
 40
1.0
 40
1.0
 40
1.0
 10
186.4360839017617
 20
99.9266511597296
 30
0.0
 10
186.3964936141217
 20
100.0802646794206
 30
0.0
 10
186.3712326234402
 20
100.2325081070206
 30
0.0
 10
186.3500877174253
 20
100.534613023769
 30
0.0
 10
186.3547354295189
 20
100.6850931676109
 30
0.0
 10
186.3934290973046
 20
100.9675374409095
 30
0.0
 10
186.4277260563993
 20
101.1029841358827
 30
0.0
 10
186.5220368423486
 20
101.3521275344597
 30
0.0
 10
186.5811833826419
 20
101.4646189514825
 30
0.0
 10
186.7195195673341
 20
101.6657858867177
 30
0.0
 10
186.7981560832849
 20
101.7530400429095
 30
0.0
 10
186.9627096352998
 20
101.8952496618588
 30
0.0
 10
187.0506443315616
 20
101.9517125897359
 30
0.0
 10
187.2182228779124
 20
102.0266215052824
 30
0.0
 10
187.2988197547198
 20
102.0454314243935
 30
0.0
 10
187.3936621201813
 20
102.0408635479202
 30
0.0
 10
187.4205864256033
 20
102.0339892924413
 30
0.0
 10
187.4631151006546
 20
102.0098991246151
 30
0.0
 10
187.4786013897267
 20
101.9924914726654
 30
0.0
 10
187.5060257164148
 20
101.9285990963789
 30
0.0
 10
187.4996631128826
 20
101.8694293256459
 30
0.0
 10
187.4570129773471
 20
101.7360095175906
 30
0.0
 10
187.4215173700503
 20
101.6614541068286
 30
0.0
 10
187.2929800228802
 20
101.4190973755569
 30
0.0
 10
187.1818066034414
 20
101.2379053993976
 30
0.0
 10
186.9530807878191
 20
100.8342069563606
 30
0.0
 10
186.8320156042122
 20
100.6081822910475
 30
0.0
 10
186.6639016296598
 20
100.2296505541163
 30
0.0
 10
186.6095614130341
 20
100.095572049923
 30
0.0
 10
186.5109363387931
 20
99.8133921035726
 30
0.0
 10
186.466933497231
 20
99.66669343080237
 30
0.0
 10
186.396147069679
 20
99.35627664940966
 30
0.0
 10
186.3709569232234
 20
99.19777221967215
 30
0.0
 10
186.3500429488585
 20
98.88640864507263
 30
0.0
 10
186.3550047906114
 20
98.7386902664434
 30
0.0
 10
186.3931789089693
 20
98.47518826747141
 30
0.0
 10
186.4260152346686
 20
98.360649348433
 30
0.0
 10
186.5067476969807
 20
98.16968365196442
 30
0.0
 10
186.5548494039226
 20
98.09149996399799
 30
0.0
 10
186.71129180064
 20
97.89770478605851
 30
0.0
 10
186.8280812603843
 20
97.82392963203068
 30
0.0
 10
187.0631382324676
 20
97.74088067525004
 30
0.0
 10
187.178935819427
 20
97.73373728233439
 30
0.0
 10
187.3296365231359
 20
97.76551129976423
 30
0.0
 10
187.3759563108913
 20
97.78340875176285
 30
0.0
 10
187.4520395217515
 20
97.83700827215428
 30
0.0
 10
187.4814256772539
 20
97.87252744271869
 30
0.0
 10
187.5048867104818
 20
97.96663681752162
 30
0.0
 10
187.4978470666757
 20
98.02575729133595
 30
0.0
 10
187.4488493697959
 20
98.13566452075341
 30
0.0
 10
187.4259963252182
 20
98.17630774606054
 30
0.0
 10
187.3706538075464
 20
98.26261522991463
 30
0.0
 10
187.3380646721193
 20
98.30865673317129
 30
0.0
 10
187.2292661972591
 20
98.456435541371
 30
0.0
 10
187.1446454756069
 20
98.56490414368923
 30
0.0
 10
186.9744572468023
 20
98.7989510063345
 30
0.0
 10
186.8878271718565
 20
98.92596197107547
 30
0.0
 10
186.7287111705158
 20
99.1916479325484
 30
0.0
 10
186.6543972762269
 20
99.33322484512341
 30
0.0
 10
186.5280684544815
 20
99.62395567094104
 30
0.0
 10
186.4756741894016
 20
99.77303764003862
 30
0.0
 10
186.4360839017617
 20
99.9266511597296
 30
0.0
  0
ELLIPSE
  5
F8
330
1F
100
AcDbEntity
  8
0
  6
HIDDEN
 62
     7
370
     0
100
AcDbEllipse
 10
188.855058962
 20
110.5826119851
 30
0.0
 11
2.047880110722474
 21
2.047880110722474
 31
0.0
210
0.0
220
0.0
230
1.0
 40
0.7002075382
 41
0.9599310885968769
 42
4.101523742186683
  0
ELLIPSE
  5
F9
330
1F
100
AcDbEntity
  8
0
  6
HIDDEN
 62
     7
370
     0
100
AcDbEllipse
 10
188.855058962
 20
110.5826119851
 30
0.0
 11
-2.047880110722474
 21
2.047880110722474
 31
0.0
210
0.0
220
0.0
230
1.0
 40
0.7002075382
 41
2.181661564992914
 42
5.32325421858272
  0
LINE
  5
FA
330
1F
100
AcDbEntity
  8
0
  6
HIDDEN
 62
     7
370
     0
100
AcDbLine
 10
168.655058962
 20
145.8826119851
 30
0.0
 11
168.8266318372
 21
145.8826119851
 31
0.0
  0
ELLIPSE
  5
FB
330
1F
100
AcDbEntity
  8
0
  6
HIDDEN
 62
     7
370
     0
100
AcDbEllipse
 10
168.8266318372
 20
147.8826119851
 30
0.0
 11
0.0
 21
2.0
 31
0.0
210
0.0
220
0.0
230
1.0
 40
0.4142135624
 41
3.141592653589793
 42
4.712388980384695
  0
ELLIPSE
  5
FC
330
1F
100
AcDbEntity
  8
0
  6
HIDDEN
 62
     7
370
     0
100
AcDbEllipse
 10
168.8266318372
 20
73.2826119851
 30
0.0
 11
0.0
 21
2.0
 31
0.0
210
0.0
220
0.0
230
1.0
 40
0.4142135624
 41
4.712388980384695
 42
6.283185307179586
  0
LINE
  5
FD
330
1F
100
AcDbEntity
  8
0
  6
HIDDEN
 62
     7
370
     0
100
AcDbLine
 10
168.8266318372
 20
75.2826119851
 30
0.0
 11
168.655058962
 21
75.2826119851
 31
0.0
  0
LINE
  5
FE
330
1F
100
AcDbEntity
  8
0
  6
HIDDEN
 62
     7
370
     0
100
AcDbLine
 10
169.655058962
 20
63.2620418312
 30
0.0
 11
169.041195382
 21
62.6481782513
 31
0.0
  0
LINE
  5
FF
330
1F
100
AcDbEntity
  8
0
  6
HIDDEN
 62
     7
370
     0
100
AcDbLine
 10
169.041195382
 20
158.517045719
 30
0.0
 11
169.655058962
 21
157.9031821391
 31
0.0
  0
LINE
  5
100
330
1F
100
AcDbEntity
  8
0
  6
HIDDEN
 62
     7
370
     0
100
AcDbLine
 10
168.8266318372
 20
145.8826119851
 30
0.0
 11
185.805058962
 21
145.8826119851
 31
0.0
  0
LINE
  5
101
330
1F
100
AcDbEntity
  8
0
  6
HIDDEN
 62
     7
370
     0
100
AcDbLine
 10
185.805058962
 20
75.2826119851
 30
0.0
 11
168.8266318372
 21
75.2826119851
 31
0.0
  0
SPLINE
  5
102
330
1F
100
AcDbEntity
  8
0
  6
HIDDEN
 62
     7
370
     0
100
AcDbSpline
210
0.0
220
0.0
230
1.0
 70
     8
 71
     3
 72
    13
 73
     9
 74
     0
 42
0.000000001
 43
0.00000001
 40
0.0
 40
0.0
 40
0.0
 40
0.0
 40
0.0005825290635647
 40
0.1623661983773396
 40
0.3287385494553315
 40
0.4998718252132767
 40
0.7262528256169377
 40
1.0
 40
1.0
 40
1.0
 40
1.0
 10
198.6546248045877
 20
61.58274479179947
 30
0.0
 10
198.6547695906225
 20
61.58270044960618
 30
0.0
 10
198.6951252733399
 20
61.57034111201417
 30
0.0
 10
198.580970666449
 20
61.60597019802164
 30
0.0
 10
198.3568535587484
 20
61.67381816093008
 30
0.0
 10
197.8775446677795
 20
61.81291133507352
 30
0.0
 10
197.084037010151
 20
62.04315791584595
 30
0.0
 10
196.2150191376749
 20
62.25864348660416
 30
0.0
 10
195.7393586988681
 20
62.37659038319827
 30
0.0
  0
LINE
  5
103
330
1F
100
AcDbEntity
  8
0
  6
HIDDEN
 62
     7
370
     0
100
AcDbLine
 10
169.655058962
 20
157.9031821391
 30
0.0
 11
181.8876279985
 21
157.9031821391
 31
0.0
  0
LINE
  5
104
330
1F
100
AcDbEntity
  8
0
  6
HIDDEN
 62
     7
370
     0
100
AcDbLine
 10
169.655058962
 20
157.9031821391
 30
0.0
 11
169.655058962
 21
147.8826119851
 31
0.0
  0
LINE
  5
105
330
1F
100
AcDbEntity
  8
0
  6
HIDDEN
 62
     7
370
     0
100
AcDbLine
 10
196.655058962
 20
75.2826119851
 30
0.0
 11
185.805058962
 21
75.2826119851
 31
0.0
  0
LINE
  5
106
330
1F
100
AcDbEntity
  8
0
  6
HIDDEN
 62
     7
370
     0
100
AcDbLine
 10
185.805058962
 20
145.8826119851
 30
0.0
 11
196.655058962
 21
145.8826119851
 31
0.0
  0
SPLINE
  5
107
330
1F
100
AcDbEntity
  8
0
  6
HIDDEN
 62
     7
370
     0
100
AcDbSpline
210
0.0
220
0.0
230
1.0
 70
     8
 71
     3
 72
    14
 73
    10
 74
     0
 42
0.000000001
 43
0.00000001
 40
0.0
 40
0.0
 40
0.0
 40
0.0
 40
0.1878282877623173
 40
0.3545816313016879
 40
0.5003024319338173
 40
0.6713282049188825
 40
0.8376422060211013
 40
0.9994166164999629
 40
1.0
 40
1.0
 40
1.0
 40
1.0
 10
195.739358698868
 20
158.7886335870822
 30
0.0
 10
196.0723616212574
 20
158.8701815245358
 30
0.0
 10
196.7010034560723
 20
159.0241274558759
 30
0.0
 10
197.4004400279771
 20
159.215106173994
 30
0.0
 10
197.9483171274067
 20
159.3724784610698
 30
0.0
 10
198.3544327215239
 20
159.4908038970934
 30
0.0
 10
198.5875606142229
 20
159.5611809117084
 30
0.0
 10
198.68155000082
 20
159.5908152629827
 30
0.0
 10
198.6548671076762
 20
159.5825527373792
 30
0.0
 10
198.6547712307908
 20
159.582523048499
 30
0.0
  0
LINE
  5
108
330
1F
100
AcDbEntity
  8
0
  6
HIDDEN
 62
     7
370
     0
100
AcDbLine
 10
196.2386930638
 20
158.912947625
 30
0.0
 11
195.7393544105
 21
158.7886782415
 31
0.0
  0
LINE
  5
109
330
1F
100
AcDbEntity
  8
0
  6
HIDDEN
 62
     7
370
     0
100
AcDbLine
 10
181.8876279985
 20
63.2620418312
 30
0.0
 11
169.655058962
 21
63.2620418312
 31
0.0
  0
LINE
  5
10A
330
1F
100
AcDbEntity
  8
0
  6
HIDDEN
 62
     7
370
     0
100
AcDbLine
 10
169.655058962
 20
63.2620418312
 30
0.0
 11
169.655058962
 21
73.2826119851
 31
0.0
  0
LINE
  5
10B
330
1F
100
AcDbEntity
  8
0
  6
HIDDEN
 62
     7
370
     0
100
AcDbLine
 10
73.855058962
 20
98.0826119851
 30
0.0
 11
73.855058962
 21
123.0826119851
 31
0.0
  0
LINE
  5
10C
330
1F
100
AcDbEntity
  8
0
  6
HIDDEN
 62
     7
370
     0
100
AcDbLine
 10
77.1396633109
 20
100.0826119851
 30
0.0
 11
77.1396633109
 21
121.0826119851
 31
0.0
  0
LINE
  5
10D
330
1F
100
AcDbEntity
  8
0
  6
HIDDEN
 62
     7
370
     0
100
AcDbLine
 10
126.855058962
 20
100.0826119851
 30
0.0
 11
126.855058962
 21
121.0826119851
 31
0.0
  0
LINE
  5
10E
330
1F
100
AcDbEntity
  8
0
  6
HIDDEN
 62
     7
370
     0
100
AcDbLine
 10
131.6619439142
 20
108.0826119851
 30
0.0
 11
131.6619439142
 21
113.0826119851
 31
0.0
  0
SPLINE
  5
10F
330
1F
100
AcDbEntity
  8
0
  6
HIDDEN
 62
     7
370
     0
100
AcDbSpline
210
0.0
220
0.0
230
1.0
 70
     8
 71
     3
 72
     9
 73
     5
 74
     0
 42
0.000000001
 43
0.00000001
 40
0.0
 40
0.0
 40
0.0
 40
0.0
 40
0.4951995003022724
 40
1.0
 40
1.0
 40
1.0
 40
1.0
 10
195.7393431764184
 20
158.788624149553
 30
0.0
 10
195.8445393980541
 20
158.945779909673
 30
0.0
 10
196.0569714008559
 20
159.2631383884762
 30
0.0
 10
196.2716897843698
 20
159.5817649365789
 30
0.0
 10
196.3800797316619
 20
159.7426077772781
 30
0.0
  0
SPLINE
  5
110
330
1F
100
AcDbEntity
  8
0
  6
HIDDEN
 62
     7
370
     0
100
AcDbSpline
210
0.0
220
0.0
230
1.0
 70
     8
 71
     3
 72
     9
 73
     5
 74
     0
 42
0.000000001
 43
0.00000001
 40
0.0
 40
0.0
 40
0.0
 40
0.0
 40
0.5048005003628353
 40
1.0
 40
1.0
 40
1.0
 40
1.0
 10
196.3800797316619
 20
61.42261619300244
 30
0.0
 10
196.27168978423
 20
61.58345903390705
 30
0.0
 10
196.0569714007222
 20
61.90208558199684
 30
0.0
 10
195.8445393979154
 20
62.21944406081241
 30
0.0
 10
195.7393431764185
 20
62.3765998207275
 30
0.0
  0
SPLINE
  5
111
330
1F
100
AcDbEntity
  8
0
  6
HIDDEN
 62
     7
370
     0
100
AcDbSpline
210
0.0
220
0.0
230
1.0
 70
     8
 71
     3
 72
    16
 73
    12
 74
     0
 42
0.000000001
 43
0.00000001
 40
0.0
 40
0.0
 40
0.0
 40
0.0
 40
0.2500000000000077
 40
0.2500000000000077
 40
0.5000000000000153
 40
0.5000000000000153
 40
0.6250000000000191
 40
0.6250000000000191
 40
0.750000000000023
 40
0.750000000000023
 40
1.0
 40
1.0
 40
1.0
 40
1.0
 10
228.6550589619813
 20
117.4234491004964
 30
0.0
 10
228.6550589619813
 20
117.3549781783119
 30
0.0
 10
228.6505137518059
 20
117.2850499366584
 30
0.0
 10
228.6248437866813
 20
117.1398807065688
 30
0.0
 10
228.6031169067978
 20
117.0615299844957
 30
0.0
 10
228.5441574763339
 20
116.9593584356364
 30
0.0
 10
228.5195073493483
 20
116.9281701063703
 30
0.0
 10
228.4651903565512
 20
116.8819621892781
 30
0.0
 10
228.4364204248366
 20
116.8672251728081
 30
0.0
 10
228.3537180548292
 20
116.8420275241032
 30
0.0
 10
228.3024285782254
 20
116.8476043616838
 30
0.0
 10
228.2550589619738
 20
116.860157714935
 30
0.0
  0
SPLINE
  5
112
330
1F
100
AcDbEntity
  8
0
  6
HIDDEN
 62
     7
370
     0
100
AcDbSpline
210
0.0
220
0.0
230
1.0
 70
     8
 71
     3
 72
     8
 73
     4
 74
     0
 42
0.000000001
 43
0.00000001
 40
0.0
 40
0.0
 40
0.0
 40
0.0
 40
1.0
 40
1.0
 40
1.0
 40
1.0
 10
228.2550589619762
 20
116.8601577149443
 30
0.0
 10
228.1961636373481
 20
116.827205858272
 30
0.0
 10
228.1265540080686
 20
116.8055399023156
 30
0.0
 10
228.0550589619815
 20
116.8055399023155
 30
0.0
  0
SPLINE
  5
113
330
1F
100
AcDbEntity
  8
0
  6
HIDDEN
 62
     7
370
     0
100
AcDbSpline
210
0.0
220
0.0
230
1.0
 70
     8
 71
     3
 72
     8
 73
     4
 74
     0
 42
0.000000001
 43
0.00000001
 40
0.0
 40
0.0
 40
0.0
 40
0.0
 40
1.0
 40
1.0
 40
1.0
 40
1.0
 10
228.2550589619911
 20
104.305066255328
 30
0.0
 10
228.1961636373597
 20
104.3380181120048
 30
0.0
 10
228.1265540080746
 20
104.359684067965
 30
0.0
 10
228.0550589619815
 20
104.359684067965
 30
0.0
  0
SPLINE
  5
114
330
1F
100
AcDbEntity
  8
0
  6
HIDDEN
 62
     7
370
     0
100
AcDbSpline
210
0.0
220
0.0
230
1.0
 70
     8
 71
     3
 72
    16
 73
    12
 74
     0
 42
0.000000001
 43
0.00000001
 40
0.0
 40
0.0
 40
0.0
 40
0.0
 40
0.2499999999999897
 40
0.2499999999999897
 40
0.3749999999999841
 40
0.3749999999999841
 40
0.4999999999999785
 40
0.4999999999999785
 40
0.7499999999999892
 40
0.7499999999999892
 40
1.0
 40
1.0
 40
1.0
 40
1.0
 10
228.2550589619911
 20
104.3050662553277
 30
0.0
 10
228.3024409267558
 20
104.3176229460121
 30
0.0
 10
228.3536221452833
 20
104.323247703779
 30
0.0
 10
228.436577207197
 20
104.297947053133
 30
0.0
 10
228.4652595683576
 20
104.283202496398
 30
0.0
 10
228.5193673732635
 20
104.2371909290297
 30
0.0
 10
228.5437631273829
 20
104.2064581134859
 30
0.0
 10
228.6030746901246
 20
104.1039761729826
 30
0.0
 10
228.6246022440259
 20
104.0263186141696
 30
0.0
 10
228.6504324987746
 20
103.8810324936187
 30
0.0
 10
228.6550589619813
 20
103.8103002268045
 30
0.0
 10
228.6550589619813
 20
103.741779353599
 30
0.0
  0
LINE
  5
115
330
1F
100
AcDbEntity
  8
0
  6
HIDDEN
 62
     7
370
     0
100
AcDbLine
 10
212.155058962
 20
110.5826119851
 30
0.0
 11
212.155058962
 21
103.8826119851
 31
0.0
  0
LINE
  5
116
330
1F
100
AcDbEntity
  8
0
  6
HIDDEN
 62
     7
370
     0
100
AcDbLine
 10
212.155058962
 20
117.2826119851
 30
0.0
 11
212.155058962
 21
110.5826119851
 31
0.0
  0
LINE
  5
117
330
1F
100
AcDbEntity
  8
0
  6
HIDDEN
 62
     7
370
     0
100
AcDbLine
 10
215.5210843658
 20
110.5826119851
 30
0.0
 11
215.5210843658
 21
103.5826119851
 31
0.0
  0
LINE
  5
118
330
1F
100
AcDbEntity
  8
0
  6
HIDDEN
 62
     7
370
     0
100
AcDbLine
 10
215.5210843658
 20
117.5826119851
 30
0.0
 11
215.5210843658
 21
110.5826119851
 31
0.0
  0
LINE
  5
119
330
1F
100
AcDbEntity
  8
0
  6
HIDDEN
 62
     7
370
     0
100
AcDbLine
 10
221.755058962
 20
116.8055399023
 30
0.0
 11
228.055058962
 21
116.8055399023
 31
0.0
  0
LINE
  5
11A
330
1F
100
AcDbEntity
  8
0
  6
HIDDEN
 62
     7
370
     0
100
AcDbLine
 10
221.755058962
 20
104.359684068
 30
0.0
 11
228.055058962
 21
104.359684068
 31
0.0
  0
SPLINE
  5
11B
330
1F
100
AcDbEntity
  8
0
  6
HIDDEN
 62
     7
370
     0
100
AcDbSpline
210
0.0
220
0.0
230
1.0
 70
    11
 71
     3
 72
    22
 73
    18
 74
     0
 42
0.000000001
 43
0.00000001
 40
0.0
 40
0.0
 40
0.0
 40
0.0
 40
0.125
 40
0.125
 40
0.2499999999999999
 40
0.2499999999999999
 40
0.3749999999999999
 40
0.3749999999999999
 40
0.4999999999999999
 40
0.4999999999999999
 40
0.6249999999999999
 40
0.6249999999999999
 40
0.7499999999999998
 40
0.7499999999999998
 40
0.8749999999999999
 40
0.8749999999999999
 40
1.0
 40
1.0
 40
1.0
 40
1.0
 10
228.2550589619813
 20
119.6576119851403
 30
0.0
 10
228.2550589619813
 20
119.7949292333506
 30
0.0
 10
228.2552246310635
 20
119.9189150320726
 30
0.0
 10
228.2526065020793
 20
120.1410006167074
 30
0.0
 10
228.2504201228108
 20
120.2381058534967
 30
0.0
 10
228.2445384681153
 20
120.3944671478795
 30
0.0
 10
228.2406144965405
 20
120.4557842728355
 30
0.0
 10
228.2331867784654
 20
120.5368006261687
 30
0.0
 10
228.2296043484106
 20
120.5576017621835
 30
0.0
 10
228.2249797187976
 20
120.5576222005371
 30
0.0
 10
228.2240531292962
 20
120.5372633369186
 30
0.0
 10
228.2261075841371
 20
120.4558746041533
 30
0.0
 10
228.2290528830836
 20
120.3952099787135
 30
0.0
 10
228.2373166856281
 20
120.2389017790163
 30
0.0
 10
228.2426599266947
 20
120.1414810770446
 30
0.0
 10
228.2516088019734
 20
119.9205603012913
 30
0.0
 10
228.2550589471757
 20
119.7949439042104
 30
0.0
 10
228.2550589505774
 20
119.6576119851403
 30
0.0
  0
LWPOLYLINE
  5
11C
330
1F
100
AcDbEntity
  8
0
  6
HIDDEN
 62
     7
370
     0
100
AcDbPolyline
 90
        4
 70
   128
 43
0.0
 10
228.2550589506
 20
119.6576119851
 10
228.2550589657
 20
119.1769518774
 10
228.2550589609
 20
117.2543114466
 10
228.255058962
 20
116.8601577149
  0
LINE
  5
11D
330
1F
100
AcDbEntity
  8
0
  6
HIDDEN
 62
     7
370
     0
100
AcDbLine
 10
228.2550589666
 20
101.5076119851
 30
0.0
 11
228.255058962
 21
104.3050662553
 31
0.0
  0
SPLINE
  5
11E
330
1F
100
AcDbEntity
  8
0
  6
HIDDEN
 62
     7
370
     0
100
AcDbSpline
210
0.0
220
0.0
230
1.0
 70
     8
 71
     3
 72
    11
 73
     7
 74
     0
 42
0.000000001
 43
0.00000001
 40
0.0
 40
0.0
 40
0.0
 40
0.0
 40
0.2797265398714737
 40
0.6044327312512904
 40
0.929677791050638
 40
1.0
 40
1.0
 40
1.0
 40
1.0
 10
228.2279357934866
 20
100.6201021783086
 30
0.0
 10
228.2261647183076
 20
100.6318069623987
 30
0.0
 10
228.2223377814421
 20
100.657098644123
 30
0.0
 10
228.2384310370307
 20
100.9379822360588
 30
0.0
 10
228.2539306542786
 20
101.2612379732245
 30
0.0
 10
228.2548886570483
 20
101.4704238416534
 30
0.0
 10
228.2550589665665
 20
101.5076119851402
 30
0.0
  0
LINE
  5
11F
330
1F
100
AcDbEntity
  8
0
  6
HIDDEN
 62
     7
370
     0
100
AcDbLine
 10
221.755058962
 20
119.6576119851
 30
0.0
 11
221.755058962
 21
116.8055399023
 31
0.0
  0
LINE
  5
120
330
1F
100
AcDbEntity
  8
0
  6
HIDDEN
 62
     7
370
     0
100
AcDbLine
 10
221.755058962
 20
101.5076119851
 30
0.0
 11
221.755058962
 21
104.359684068
 31
0.0
  0
ELLIPSE
  5
121
330
1F
100
AcDbEntity
  8
0
  6
HIDDEN
 62
     7
370
     0
100
AcDbEllipse
 10
188.855058962
 20
110.5826119851
 30
0.0
 11
2.047880110722474
 21
2.047880110722474
 31
0.0
210
0.0
220
0.0
230
1.0
 40
0.7002075382
 41
4.101523742186686
 42
7.243116395776465
  0
ELLIPSE
  5
122
330
1F
100
AcDbEntity
  8
0
  6
HIDDEN
 62
     7
370
     0
100
AcDbEllipse
 10
188.855058962
 20
110.5826119851
 30
0.0
 11
-2.047880110722474
 21
2.047880110722474
 31
0.0
210
0.0
220
0.0
230
1.0
 40
0.7002075382
 41
5.323254218582722
 42
8.464846872172501
  0
LINE
  5
123
330
1F
100
AcDbEntity
  8
0
  6
HIDDEN
 62
     7
370
     0
100
AcDbLine
 10
221.755058962
 20
120.5576119851
 30
0.0
 11
221.755058962
 21
119.6576119851
 31
0.0
  0
LINE
  5
124
330
1F
100
AcDbEntity
  8
0
  6
HIDDEN
 62
     7
370
     0
100
AcDbLine
 10
221.755058962
 20
100.6076119851
 30
0.0
 11
221.755058962
 21
101.5076119851
 31
0.0
  0
SPLINE
  5
125
330
1F
100
AcDbEntity
  8
0
  6
HIDDEN
 62
     7
370
     0
100
AcDbSpline
210
0.0
220
0.0
230
1.0
 70
    11
 71
     3
 72
    66
 73
    62
 74
     0
 42
0.000000001
 43
0.00000001
 40
0.0
 40
0.0
 40
0.0
 40
0.0
 40
0.0312500000000001
 40
0.0312500000000001
 40
0.0625000000000003
 40
0.0625000000000003
 40
0.0937500000000004
 40
0.0937500000000004
 40
0.1250000000000006
 40
0.1250000000000006
 40
0.1562500000000007
 40
0.1562500000000007
 40
0.1875000000000008
 40
0.1875000000000008
 40
0.218750000000001
 40
0.218750000000001
 40
0.2500000000000011
 40
0.2500000000000011
 40
0.2812500000000012
 40
0.2812500000000012
 40
0.3125000000000014
 40
0.3125000000000014
 40
0.3437500000000016
 40
0.3437500000000016
 40
0.3750000000000017
 40
0.3750000000000017
 40
0.4062500000000018
 40
0.4062500000000018
 40
0.4375000000000019
 40
0.4375000000000019
 40
0.4687500000000021
 40
0.4687500000000021
 40
0.5000000000000022
 40
0.5000000000000022
 40
0.5312500000000023
 40
0.5312500000000023
 40
0.5625000000000024
 40
0.5625000000000024
 40
0.6250000000000026
 40
0.6250000000000026
 40
0.6562500000000023
 40
0.6562500000000023
 40
0.6875000000000021
 40
0.6875000000000021
 40
0.718750000000002
 40
0.718750000000002
 40
0.7500000000000018
 40
0.7500000000000018
 40
0.7812500000000016
 40
0.7812500000000016
 40
0.8125000000000013
 40
0.8125000000000013
 40
0.8437500000000012
 40
0.8437500000000012
 40
0.875000000000001
 40
0.875000000000001
 40
0.9062500000000008
 40
0.9062500000000008
 40
0.9375000000000006
 40
0.9375000000000006
 40
1.0
 40
1.0
 40
1.0
 40
1.0
 10
188.8550589619814
 20
122.744066192054
 30
0.0
 10
188.6898586713175
 20
122.744066192054
 30
0.0
 10
188.5274261300209
 20
122.759631783336
 30
0.0
 10
188.2078679744309
 20
122.8205780551656
 30
0.0
 10
188.0490846364539
 20
122.8667000991509
 30
0.0
 10
187.7463466199745
 20
122.9869632867389
 30
0.0
 10
187.6027674548402
 20
123.0605069361596
 30
0.0
 10
187.3310377249722
 20
123.2340238590919
 30
0.0
 10
187.2024091614344
 20
123.3348965158785
 30
0.0
 10
186.9718433997672
 20
123.5548813047767
 30
0.0
 10
186.8683693985179
 20
123.6747604683655
 30
0.0
 10
186.6856088605921
 20
123.934601834963
 30
0.0
 10
186.6079646043635
 20
124.0726912655352
 30
0.0
 10
186.4832719536734
 20
124.3576736977834
 30
0.0
 10
186.435267973095
 20
124.5066688071259
 30
0.0
 10
186.3710362307767
 20
124.8111938945206
 30
0.0
 10
186.3551467867345
 20
124.9639632419571
 30
0.0
 10
186.3549718563793
 20
125.2704529235711
 30
0.0
 10
186.3712025077142
 20
125.4257796938662
 30
0.0
 10
186.4349837304238
 20
125.7258418997647
 30
0.0
 10
186.4821758418201
 20
125.8713766122639
 30
0.0
 10
186.607342459478
 20
126.1535098925858
 30
0.0
 10
186.685601946853
 20
126.2896497339405
 30
0.0
 10
186.8665221302084
 20
126.5411862837101
 30
0.0
 10
186.9698073591323
 20
126.6582131275533
 30
0.0
 10
187.203059101181
 20
126.8742884211748
 30
0.0
 10
187.3294729694466
 20
126.9699923450602
 30
0.0
 10
187.6001452401412
 20
127.1371453418318
 30
0.0
 10
187.7462270123055
 20
127.2093065274549
 30
0.0
 10
188.0491114577783
 20
127.3249605694113
 30
0.0
 10
188.204941817418
 20
127.368493376594
 30
0.0
 10
188.5252873066835
 20
127.4273892795274
 30
0.0
 10
188.6909973926551
 20
127.4424753825473
 30
0.0
 10
189.0173287813516
 20
127.4425829142141
 30
0.0
 10
189.1795158671786
 20
127.4280922570243
 30
0.0
 10
189.5018914483871
 20
127.3693641927472
 30
0.0
 10
189.6599069224247
 20
127.3252333856179
 30
0.0
 10
190.1113177975002
 20
127.15330378702
 30
0.0
 10
190.3903972545524
 20
126.9817300943489
 30
0.0
 10
190.7364709590508
 20
126.6620792759826
 30
0.0
 10
190.8421129749655
 20
126.5430381465942
 30
0.0
 10
191.0238964509362
 20
126.2907183857358
 30
0.0
 10
191.1007842743202
 20
126.1572540743644
 30
0.0
 10
191.2264388316906
 20
125.8754886618121
 30
0.0
 10
191.2747469076052
 20
125.7270679301811
 30
0.0
 10
191.3385647930455
 20
125.4280183324045
 30
0.0
 10
191.3548929700883
 20
125.2758152625373
 30
0.0
 10
191.3552224601481
 20
124.9658134036975
 30
0.0
 10
191.3391259483134
 20
124.8122907365995
 30
0.0
 10
191.2758972110522
 20
124.5107620190204
 30
0.0
 10
191.2280606176416
 20
124.3608271937186
 30
0.0
 10
191.1027172997282
 20
124.0736080976277
 30
0.0
 10
191.026020625203
 20
123.9372291833115
 30
0.0
 10
190.8449692585512
 20
123.6788736252973
 30
0.0
 10
190.7394936481904
 20
123.5561984489229
 30
0.0
 10
190.5089670795142
 20
123.3359447648709
 30
0.0
 10
190.3832476418838
 20
123.2370191934371
 30
0.0
 10
190.110480792687
 20
123.0621805125154
 30
0.0
 10
189.964761416281
 20
122.987503667535
 30
0.0
 10
189.5136923111729
 20
122.8078774520423
 30
0.0
 10
189.1854595433091
 20
122.744066192054
 30
0.0
 10
188.8550589619814
 20
122.744066192054
 30
0.0
  0
SPLINE
  5
126
330
1F
100
AcDbEntity
  8
0
  6
HIDDEN
 62
     7
370
     0
100
AcDbSpline
210
0.0
220
0.0
230
1.0
 70
    11
 71
     3
 72
    60
 73
    56
 74
     0
 42
0.000000001
 43
0.00000001
 40
0.0
 40
0.0
 40
0.0
 40
0.0
 40
0.0312500000000003
 40
0.0312500000000003
 40
0.0625000000000007
 40
0.0625000000000007
 40
0.093750000000001
 40
0.093750000000001
 40
0.1250000000000014
 40
0.1250000000000014
 40
0.1562500000000017
 40
0.1562500000000017
 40
0.1875000000000021
 40
0.1875000000000021
 40
0.2187500000000024
 40
0.2187500000000024
 40
0.2500000000000027
 40
0.2500000000000027
 40
0.3125000000000031
 40
0.3125000000000031
 40
0.3750000000000034
 40
0.3750000000000034
 40
0.4062500000000036
 40
0.4062500000000036
 40
0.4375000000000038
 40
0.4375000000000038
 40
0.4531250000000037
 40
0.4531250000000037
 40
0.4687500000000036
 40
0.4687500000000036
 40
0.500000000000003
 40
0.500000000000003
 40
0.5625000000000031
 40
0.5625000000000031
 40
0.6250000000000026
 40
0.6250000000000026
 40
0.687500000000002
 40
0.687500000000002
 40
0.7187500000000018
 40
0.7187500000000018
 40
0.7500000000000016
 40
0.7500000000000016
 40
0.7812500000000014
 40
0.7812500000000014
 40
0.8125000000000012
 40
0.8125000000000012
 40
0.843750000000001
 40
0.843750000000001
 40
0.8750000000000008
 40
0.8750000000000008
 40
0.9062500000000006
 40
0.9062500000000006
 40
0.9375000000000003
 40
0.9375000000000003
 40
1.0
 40
1.0
 40
1.0
 40
1.0
 10
186.4360839017616
 20
120.0520871854174
 30
0.0
 10
186.4756739846084
 20
119.9206066540634
 30
0.0
 10
186.5279856055286
 20
119.8014228033837
 30
0.0
 10
186.6537057111312
 20
119.5862293160558
 30
0.0
 10
186.7281287415754
 20
119.4896414104475
 30
0.0
 10
186.8868390497684
 20
119.3290804986925
 30
0.0
 10
186.9717176495739
 20
119.2638012619905
 30
0.0
 10
187.1434908691157
 20
119.1662990874332
 30
0.0
 10
187.2275011054118
 20
119.135823990636
 30
0.0
 10
187.3728970286904
 20
119.1160750222786
 30
0.0
 10
187.4311632771997
 20
119.1278515717748
 30
0.0
 10
187.4977680020097
 20
119.1922719145581
 30
0.0
 10
187.5049288864075
 20
119.242985052638
 30
0.0
 10
187.4817835670253
 20
119.3660085650129
 30
0.0
 10
187.4528754810557
 20
119.4364797912983
 30
0.0
 10
187.3774547232105
 20
119.5901014539627
 30
0.0
 10
187.3305092504341
 20
119.6737367221467
 30
0.0
 10
187.1788673588127
 20
119.9371169611568
 30
0.0
 10
187.0629402215495
 20
120.1306658865804
 30
0.0
 10
186.8293146505671
 20
120.5675353584763
 30
0.0
 10
186.7106318838652
 20
120.8105404926637
 30
0.0
 10
186.5541605749096
 20
121.2216150311935
 30
0.0
 10
186.5061739263575
 20
121.3652865966768
 30
0.0
 10
186.4255649165672
 20
121.6657495246357
 30
0.0
 10
186.3928653876721
 20
121.82424877891
 30
0.0
 10
186.3644447783282
 20
122.0594593007393
 30
0.0
 10
186.3582987063546
 20
122.1387069085358
 30
0.0
 10
186.3538205045897
 20
122.2903844789953
 30
0.0
 10
186.3553367150019
 20
122.3635925513036
 30
0.0
 10
186.3710996546783
 20
122.5753482825306
 30
0.0
 10
186.3965737093638
 20
122.7012464283921
 30
0.0
 10
186.5029384531126
 20
123.0229767944112
 30
0.0
 10
186.6088164823832
 20
123.1609905107713
 30
0.0
 10
186.8319867033282
 20
123.3468023619015
 30
0.0
 10
186.9528731354554
 20
123.3957263966577
 30
0.0
 10
187.1819556091372
 20
123.4317777224487
 30
0.0
 10
187.2921184273876
 20
123.419899539247
 30
0.0
 10
187.4201015947387
 20
123.3552919776975
 30
0.0
 10
187.4564429401512
 20
123.3252847639341
 30
0.0
 10
187.4995329433113
 20
123.2447566403841
 30
0.0
 10
187.5060177519132
 20
123.1931762231324
 30
0.0
 10
187.4699769992123
 20
123.0636290135067
 30
0.0
 10
187.4257577840871
 20
122.9837701890133
 30
0.0
 10
187.3001078092749
 20
122.8016407137083
 30
0.0
 10
187.2189836777935
 20
122.6975882736882
 30
0.0
 10
187.0520383076991
 20
122.4746243780089
 30
0.0
 10
186.9641501429691
 20
122.3528209959636
 30
0.0
 10
186.7985106457201
 20
122.095259772904
 30
0.0
 10
186.7205645575827
 20
121.9597809125901
 30
0.0
 10
186.5813088239111
 20
121.673026591242
 30
0.0
 10
186.5222831050121
 20
121.5265745533509
 30
0.0
 10
186.4284981513089
 20
121.2263298234489
 30
0.0
 10
186.3936850931994
 20
121.0706279673238
 30
0.0
 10
186.3353674885228
 20
120.6148649800621
 30
0.0
 10
186.3569037360679
 20
120.3150482481253
 30
0.0
 10
186.4360839017616
 20
120.0520871854174
 30
0.0
  0
LWPOLYLINE
  5
127
330
1F
100
AcDbEntity
  8
0
  6
HIDDEN
 62
     7
370
     0
100
AcDbPolyline
 90
       20
 70
   128
 43
0.0
 10
169.6373166625
 20
123.3692628443
 10
169.7940708041
 20
122.8831595144
 10
170.0423585755
 20
122.5783071506
 10
170.3552741439
 20
122.4877412369
 10
170.6989082523
 20
122.6212759952
 10
171.0360228129
 20
122.9644408626
 10
171.3300862322
 20
123.4800486009
 10
171.5492321759
 20
124.1122251111
 10
171.6697127806
 20
124.7924642592
 10
171.6784721032
 20
125.4470515784
 10
171.5745609353
 20
126.0050523758
 10
171.3692396643
 20
126.4059986067
 10
171.0847580358
 20
126.6064415256
 10
170.7519440483
 20
126.5846600321
 10
170.4068632617
 20
126.343014489
 10
170.0869105336
 20
125.9076909404
 10
169.8267577066
 20
125.3258634475
 10
169.6545963763
 20
124.6605820471
 10
169.5890828941
 20
123.983940302
 10
169.6373166625
 20
123.3692628443
  0
LWPOLYLINE
  5
128
330
1F
100
AcDbEntity
  8
0
  6
HIDDEN
 62
     7
370
     0
100
AcDbPolyline
 90
       24
 70
   128
 43
0.0
 10
168.9244460738
 20
122.9167873233
 10
169.0991592008
 20
122.3263187192
 10
169.3670166677
 20
121.9053513431
 10
169.7081527115
 20
121.6851064196
 10
170.0972668326
 20
121.681918507
 10
170.5055002165
 20
121.8960240382
 10
170.9025760609
 20
122.3115437854
 10
171.2590450667
 20
122.8976605499
 10
171.5484695586
 20
123.6109047325
 10
171.7493842461
 20
124.3983782752
 10
171.8468882058
 20
125.2016778676
 10
171.8337500152
 20
125.9612264539
 10
171.7109440737
 20
126.6206917901
 10
171.4875783363
 20
127.1311643491
 10
171.1802188178
 20
127.4547847165
 10
170.8116609676
 20
127.56755145
 10
170.4092390355
 20
127.461101157
 10
170.0027988152
 20
127.1433287686
 10
169.6224841185
 20
126.6378020092
 10
169.2965011467
 20
125.9820134859
 10
169.0490265654
 20
125.2246000335
 10
168.8984144323
 20
124.4217355428
 10
168.8558349602
 20
123.6329648002
 10
168.9244460738
 20
122.9167873233
  0
LWPOLYLINE
  5
129
330
1F
100
AcDbEntity
  8
0
  6
HIDDEN
 62
     7
370
     0
100
AcDbPolyline
 90
       22
 70
   128
 43
0.0
 10
174.2091397693
 20
121.6612394854
 10
173.8365541458
 20
121.4477842244
 10
173.4816605669
 20
121.4508839689
 10
173.1759928844
 20
121.670263293
 10
172.9467110132
 20
122.086429381
 10
172.8141876539
 20
122.6624040497
 10
172.7901980885
 20
123.3470094221
 10
172.8768738951
 20
124.0794153066
 10
173.066513548
 20
124.7945442262
 10
173.3422667318
 20
125.4288538382
 10
173.6796315659
 20
125.9259829498
 10
174.0486317044
 20
126.2417594579
 10
174.4164798656
 20
126.348125234
 10
174.7504911262
 20
126.2356292121
 10
175.0209871198
 20
125.9142671574
 10
175.2039330903
 20
125.4125934988
 10
175.2830734855
 20
124.7751841424
 10
175.2513763339
 20
124.0586757067
 10
175.1116580666
 20
123.3267331106
 10
174.8763332646
 20
122.6443926658
 10
174.5663115695
 20
122.0722833153
 10
174.2091397693
 20
121.6612394854
  0
LWPOLYLINE
  5
12A
330
1F
100
AcDbEntity
  8
0
  6
HIDDEN
 62
     7
370
     0
100
AcDbPolyline
 90
       18
 70
   128
 43
0.0
 10
174.8066169698
 20
122.200102281
 10
174.4853891655
 20
122.0373394539
 10
174.1911450282
 20
122.1067880148
 10
173.9636238592
 20
122.3990685506
 10
173.833553653
 20
122.8747069555
 10
173.8185011118
 20
123.4694656271
 10
173.9204991646
 20
124.1030191114
 10
174.1257724092
 20
124.6898024995
 10
174.4065975565
 20
125.1505674434
 10
174.7250476143
 20
125.4230850843
 10
175.0381141375
 20
125.4705504047
 10
175.3035157576
 20
125.2865529501
 10
175.485408515
 20
124.8959425962
 10
175.559226785
 20
124.3514734358
 10
175.5150010012
 20
123.726679046
 10
175.3587041008
 20
123.1059413713
 10
175.1114448461
 20
122.5730944743
 10
174.8066169698
 20
122.200102281
  0
LWPOLYLINE
  5
12B
330
1F
100
AcDbEntity
  8
0
  6
HIDDEN
 62
     7
370
     0
100
AcDbPolyline
 90
       22
 70
   128
 43
0.0
 10
170.7510318032
 20
122.3440962337
 10
170.3784461798
 20
122.1306409726
 10
170.0235526008
 20
122.1337407171
 10
169.7178849183
 20
122.3531200412
 10
169.4886030471
 20
122.7692861292
 10
169.3560796878
 20
123.3452607979
 10
169.3320901224
 20
124.0298661703
 10
169.4187659291
 20
124.7622720548
 10
169.6084055819
 20
125.4774009744
 10
169.8841587657
 20
126.1117105864
 10
170.2215235998
 20
126.608839698
 10
170.5905237383
 20
126.9246162061
 10
170.9583718995
 20
127.0309819822
 10
171.2923831601
 20
126.9184859603
 10
171.5628791537
 20
126.5971239057
 10
171.7458251242
 20
126.095450247
 10
171.8249655194
 20
125.4580408906
 10
171.7932683678
 20
124.7415324549
 10
171.6535501005
 20
124.0095898588
 10
171.4182252986
 20
123.327249414
 10
171.1082036034
 20
122.7551400635
 10
170.7510318032
 20
122.3440962337
  0
LWPOLYLINE
  5
12C
330
1F
100
AcDbEntity
  8
0
  6
HIDDEN
 62
     7
370
     0
100
AcDbPolyline
 90
       20
 70
   128
 43
0.0
 10
170.4976536375
 20
122.7838570306
 10
170.1595271255
 20
122.6001539787
 10
169.8425895221
 20
122.6344403881
 10
169.5811859342
 20
122.8830007943
 10
169.4036434968
 20
123.3188998204
 10
169.3292016878
 20
123.8949010433
 10
169.3659274322
 20
124.5485857929
 10
169.5098409258
 20
125.2091171837
 10
169.7453469086
 20
125.8049163903
 10
170.046924653
 20
126.2714193238
 10
170.381893531
 20
126.5580731528
 10
170.7139544671
 20
126.6338144871
 10
171.0071235063
 20
126.4904355779
 10
171.2296312343
 20
126.1434737548
 10
171.3573654863
 20
125.6305277148
 10
171.3764842739
 20
125.0071831207
 10
171.28491578
 20
124.3409890315
 10
171.0925828716
 20
123.7041379136
 10
170.8203278037
 20
123.1656424676
 10
170.4976536375
 20
122.7838570306
  0
LINE
  5
12D
330
1F
100
AcDbEntity
  8
0
  6
HIDDEN
 62
     7
370
     0
100
AcDbLine
 10
171.4180803001
 20
124.3820073948
 30
0.0
 11
171.986955178
 21
125.5536203553
 31
0.0
  0
LINE
  5
12E
330
1F
100
AcDbEntity
  8
0
  6
HIDDEN
 62
     7
370
     0
100
AcDbLine
 10
169.6860294925
 20
124.7240275382
 30
0.0
 11
170.2549043704
 21
125.8956404986
 31
0.0
  0
LINE
  5
12F
330
1F
100
AcDbEntity
  8
0
  6
HIDDEN
 62
     7
370
     0
100
AcDbLine
 10
169.7861840841
 20
123.4401538273
 30
0.0
 11
169.6860294925
 21
124.7240275382
 31
0.0
  0
LINE
  5
130
330
1F
100
AcDbEntity
  8
0
  6
HIDDEN
 62
     7
370
     0
100
AcDbLine
 10
171.4180803001
 20
124.3820073948
 30
0.0
 11
169.6860294925
 21
124.7240275382
 31
0.0
  0
LINE
  5
131
330
1F
100
AcDbEntity
  8
0
  6
HIDDEN
 62
     7
370
     0
100
AcDbLine
 10
171.5182348916
 20
123.098133684
 30
0.0
 11
171.4180803001
 21
124.3820073948
 31
0.0
  0
LINE
  5
132
330
1F
100
AcDbEntity
  8
0
  6
HIDDEN
 62
     7
370
     0
100
AcDbLine
 10
170.9239338399
 20
125.7833797482
 30
0.0
 11
170.2549043704
 21
125.8956404986
 31
0.0
  0
LINE
  5
133
330
1F
100
AcDbEntity
  8
0
  6
HIDDEN
 62
     7
370
     0
100
AcDbLine
 10
171.986955178
 20
125.5536203553
 30
0.0
 11
170.2549043704
 21
125.8956404986
 31
0.0
  0
LINE
  5
134
330
1F
100
AcDbEntity
  8
0
  6
HIDDEN
 62
     7
370
     0
100
AcDbLine
 10
172.6559846475
 20
125.4413596048
 30
0.0
 11
171.986955178
 21
125.5536203553
 31
0.0
  0
LINE
  5
135
330
1F
100
AcDbEntity
  8
0
  6
HIDDEN
 62
     7
370
     0
100
AcDbLine
 10
172.1872643611
 20
122.9858729335
 30
0.0
 11
170.4552135536
 21
123.3278930769
 31
0.0
  0
LINE
  5
136
330
1F
100
AcDbEntity
  8
0
  6
HIDDEN
 62
     7
370
     0
100
AcDbLine
 10
171.5182348916
 20
123.098133684
 30
0.0
 11
169.7861840841
 21
123.4401538273
 31
0.0
  0
LINE
  5
137
330
1F
100
AcDbEntity
  8
0
  6
HIDDEN
 62
     7
370
     0
100
AcDbLine
 10
169.7861840841
 20
123.4401538273
 30
0.0
 11
170.4552135536
 21
123.3278930769
 31
0.0
  0
LINE
  5
138
330
1F
100
AcDbEntity
  8
0
  6
HIDDEN
 62
     7
370
     0
100
AcDbLine
 10
171.5182348916
 20
123.098133684
 30
0.0
 11
172.1872643611
 21
122.9858729335
 31
0.0
  0
LINE
  5
139
330
1F
100
AcDbEntity
  8
0
  6
HIDDEN
 62
     7
370
     0
100
AcDbLine
 10
172.756139239
 20
124.157485894
 30
0.0
 11
171.0240884315
 21
124.4995060373
 31
0.0
  0
LINE
  5
13A
330
1F
100
AcDbEntity
  8
0
  6
HIDDEN
 62
     7
370
     0
100
AcDbLine
 10
171.0240884315
 20
124.4995060373
 30
0.0
 11
170.4552135536
 21
123.3278930769
 31
0.0
  0
LINE
  5
13B
330
1F
100
AcDbEntity
  8
0
  6
HIDDEN
 62
     7
370
     0
100
AcDbLine
 10
172.756139239
 20
124.157485894
 30
0.0
 11
172.1872643611
 21
122.9858729335
 31
0.0
  0
LINE
  5
13C
330
1F
100
AcDbEntity
  8
0
  6
HIDDEN
 62
     7
370
     0
100
AcDbLine
 10
172.6559846475
 20
125.4413596048
 30
0.0
 11
170.9239338399
 21
125.7833797482
 31
0.0
  0
LINE
  5
13D
330
1F
100
AcDbEntity
  8
0
  6
HIDDEN
 62
     7
370
     0
100
AcDbLine
 10
171.0240884315
 20
124.4995060373
 30
0.0
 11
170.9239338399
 21
125.7833797482
 31
0.0
  0
LINE
  5
13E
330
1F
100
AcDbEntity
  8
0
  6
HIDDEN
 62
     7
370
     0
100
AcDbLine
 10
172.756139239
 20
124.157485894
 30
0.0
 11
172.6559846475
 21
125.4413596048
 31
0.0
  0
LWPOLYLINE
  5
13F
330
1F
100
AcDbEntity
  8
0
  6
HIDDEN
 62
     7
370
     0
100
AcDbPolyline
 90
       20
 70
   128
 43
0.0
 10
170.2124642865
 20
98.5503120461
 10
169.8897901202
 20
98.5508285512
 10
169.6175350524
 20
98.3348988761
 10
169.425202144
 20
97.9259223516
 10
169.3336336501
 20
97.36821793
 10
169.3527524377
 20
96.7222215391
 10
169.4804866896
 20
96.0579369115
 10
169.7029944177
 20
95.4473495941
 10
169.9961634569
 20
94.9566261969
 10
170.328224393
 20
94.6389442144
 10
170.6631932709
 20
94.5287294188
 10
170.9647710154
 20
94.6379252932
 10
171.2002769981
 20
94.9546987703
 10
171.3441904918
 20
95.4447225288
 10
171.3809162362
 20
96.0548948907
 10
171.3064744272
 20
96.719094213
 10
171.1289319897
 20
97.3653441929
 10
170.8675284019
 20
97.9236136175
 10
170.5505907984
 20
98.3334053322
 10
170.2124642865
 20
98.5503120461
  0
LWPOLYLINE
  5
140
330
1F
100
AcDbEntity
  8
0
  6
HIDDEN
 62
     7
370
     0
100
AcDbPolyline
 90
       22
 70
   128
 43
0.0
 10
170.4040861208
 20
99.0266570632
 10
170.0469143205
 20
99.0387877145
 10
169.7368926254
 20
98.8339897528
 10
169.5015678235
 20
98.4304603757
 10
169.3618495561
 20
97.8640549392
 10
169.3301524045
 20
97.1851010519
 10
169.4092927997
 20
96.4539267464
 10
169.5922387703
 20
95.7355000683
 10
169.8627347639
 20
95.0936563808
 10
170.1967460244
 20
94.5854263122
 10
170.5645941856
 20
94.2559683343
 10
170.9335943241
 20
94.1345562345
 10
171.2709591583
 20
94.2319780104
 10
171.546712342
 20
94.5395773099
 10
171.7363519949
 20
95.0300225852
 10
171.8230278015
 20
95.6597356214
 10
171.7990382361
 20
96.3727636518
 10
171.6665148768
 20
97.1057510067
 10
171.4372330057
 20
97.7935685431
 10
171.1315653231
 20
98.3751006544
 10
170.7766717442
 20
98.7986756605
 10
170.4040861208
 20
99.0266570632
  0
LWPOLYLINE
  5
141
330
1F
100
AcDbEntity
  8
0
  6
HIDDEN
 62
     7
370
     0
100
AcDbPolyline
 90
       22
 70
   128
 43
0.0
 10
173.8621940868
 20
99.7095138114
 10
173.5050222866
 20
99.7216444628
 10
173.1950005915
 20
99.516846501
 10
172.9596757896
 20
99.1133171239
 10
172.8199575222
 20
98.5469116874
 10
172.7882603706
 20
97.8679578002
 10
172.8674007658
 20
97.1367834946
 10
173.0503467364
 20
96.4183568165
 10
173.32084273
 20
95.776513129
 10
173.6548539905
 20
95.2682830604
 10
174.0227021517
 20
94.9388250825
 10
174.3917022902
 20
94.8174129827
 10
174.7290671244
 20
94.9148347586
 10
175.0048203081
 20
95.2224340581
 10
175.194459961
 20
95.7128793334
 10
175.2811357676
 20
96.3425923696
 10
175.2571462022
 20
97.0556204
 10
175.1246228429
 20
97.7886077549
 10
174.8953409718
 20
98.4764252913
 10
174.5896732892
 20
99.0579574026
 10
174.2347797103
 20
99.4815324087
 10
173.8621940868
 20
99.7095138114
  0
LINE
  5
142
330
1F
100
AcDbEntity
  8
0
  6
HIDDEN
 62
     7
370
     0
100
AcDbLine
 10
169.7861840841
 20
96.0558429285
 30
0.0
 11
170.4552135536
 21
95.1509210597
 31
0.0
  0
LINE
  5
143
330
1F
100
AcDbEntity
  8
0
  6
HIDDEN
 62
     7
370
     0
100
AcDbLine
 10
171.0240884315
 20
95.6485353137
 30
0.0
 11
170.4552135536
 21
95.1509210597
 31
0.0
  0
LINE
  5
144
330
1F
100
AcDbEntity
  8
0
  6
HIDDEN
 62
     7
370
     0
100
AcDbLine
 10
170.9239338399
 20
97.0510714366
 30
0.0
 11
171.0240884315
 21
95.6485353137
 31
0.0
  0
LINE
  5
145
330
1F
100
AcDbEntity
  8
0
  6
HIDDEN
 62
     7
370
     0
100
AcDbLine
 10
170.9239338399
 20
97.0510714366
 30
0.0
 11
170.2549043704
 21
97.9559933055
 31
0.0
  0
LINE
  5
146
330
1F
100
AcDbEntity
  8
0
  6
HIDDEN
 62
     7
370
     0
100
AcDbLine
 10
169.6860294925
 20
97.4583790514
 30
0.0
 11
170.2549043704
 21
97.9559933055
 31
0.0
  0
LINE
  5
147
330
1F
100
AcDbEntity
  8
0
  6
HIDDEN
 62
     7
370
     0
100
AcDbLine
 10
169.6860294925
 20
97.4583790514
 30
0.0
 11
169.7861840841
 21
96.0558429285
 31
0.0
  0
LINE
  5
148
330
1F
100
AcDbEntity
  8
0
  6
HIDDEN
 62
     7
370
     0
100
AcDbLine
 10
172.6559846475
 20
97.3930915799
 30
0.0
 11
170.9239338399
 21
97.0510714366
 31
0.0
  0
LINE
  5
149
330
1F
100
AcDbEntity
  8
0
  6
HIDDEN
 62
     7
370
     0
100
AcDbLine
 10
172.756139239
 20
95.990555457
 30
0.0
 11
171.0240884315
 21
95.6485353137
 31
0.0
  0
LWPOLYLINE
  5
14A
330
1F
100
AcDbEntity
  8
0
  6
HIDDEN
 62
     7
370
     0
100
AcDbPolyline
 90
       18
 70
   128
 43
0.0
 10
174.563754992
 20
99.1089922179
 10
174.2589271157
 20
99.0971578157
 10
174.011667861
 20
98.8572618368
 10
173.8553709606
 20
98.4217035624
 10
173.8111451768
 20
97.8493075509
 10
173.8849634468
 20
97.2173790556
 10
174.0668562042
 20
96.6112635213
 10
174.3322578243
 20
96.1128202094
 10
174.6453243476
 20
95.7893666514
 10
174.9637744053
 20
95.6845870425
 10
175.2445995526
 20
95.8126324494
 10
175.4498727972
 20
96.1562096305
 10
175.55187085
 20
96.6689165836
 10
175.5368183088
 20
97.2815093937
 10
175.4067481026
 20
97.9112540073
 10
175.1792269336
 20
98.4730999248
 10
174.8849827963
 20
98.8911667417
 10
174.563754992
 20
99.1089922179
  0
LINE
  5
14B
330
1F
100
AcDbEntity
  8
0
  6
HIDDEN
 62
     7
370
     0
100
AcDbLine
 10
171.5182348916
 20
96.3978630718
 30
0.0
 11
172.1872643611
 21
95.492941203
 31
0.0
  0
LINE
  5
14C
330
1F
100
AcDbEntity
  8
0
  6
HIDDEN
 62
     7
370
     0
100
AcDbLine
 10
171.4180803001
 20
97.8003991947
 30
0.0
 11
171.5182348916
 21
96.3978630718
 31
0.0
  0
LINE
  5
14D
330
1F
100
AcDbEntity
  8
0
  6
HIDDEN
 62
     7
370
     0
100
AcDbLine
 10
171.4180803001
 20
97.8003991947
 30
0.0
 11
171.986955178
 21
98.2980134488
 31
0.0
  0
LINE
  5
14E
330
1F
100
AcDbEntity
  8
0
  6
HIDDEN
 62
     7
370
     0
100
AcDbLine
 10
172.756139239
 20
95.990555457
 30
0.0
 11
172.1872643611
 21
95.492941203
 31
0.0
  0
LINE
  5
14F
330
1F
100
AcDbEntity
  8
0
  6
HIDDEN
 62
     7
370
     0
100
AcDbLine
 10
172.6559846475
 20
97.3930915799
 30
0.0
 11
172.756139239
 21
95.990555457
 31
0.0
  0
LINE
  5
150
330
1F
100
AcDbEntity
  8
0
  6
HIDDEN
 62
     7
370
     0
100
AcDbLine
 10
172.6559846475
 20
97.3930915799
 30
0.0
 11
171.986955178
 21
98.2980134488
 31
0.0
  0
LINE
  5
151
330
1F
100
AcDbEntity
  8
0
  6
HIDDEN
 62
     7
370
     0
100
AcDbLine
 10
171.4180803001
 20
97.8003991947
 30
0.0
 11
169.6860294925
 21
97.4583790514
 31
0.0
  0
LINE
  5
152
330
1F
100
AcDbEntity
  8
0
  6
HIDDEN
 62
     7
370
     0
100
AcDbLine
 10
171.986955178
 20
98.2980134488
 30
0.0
 11
170.2549043704
 21
97.9559933055
 31
0.0
  0
LINE
  5
153
330
1F
100
AcDbEntity
  8
0
  6
HIDDEN
 62
     7
370
     0
100
AcDbLine
 10
171.5182348916
 20
96.3978630718
 30
0.0
 11
169.7861840841
 21
96.0558429285
 31
0.0
  0
LINE
  5
154
330
1F
100
AcDbEntity
  8
0
  6
HIDDEN
 62
     7
370
     0
100
AcDbLine
 10
172.1872643611
 20
95.492941203
 30
0.0
 11
170.4552135536
 21
95.1509210597
 31
0.0
  0
LINE
  5
155
330
1F
100
AcDbEntity
  8
0
  6
HIDDEN
 62
     7
370
     0
100
AcDbLine
 10
185.855058962
 20
125.0089735001
 30
0.0
 11
185.855058962
 21
123.7503875032
 31
0.0
  0
LINE
  5
156
330
1F
100
AcDbEntity
  8
0
  6
HIDDEN
 62
     7
370
     0
100
AcDbLine
 10
191.855058962
 20
123.7503875032
 30
0.0
 11
191.855058962
 21
125.0089735001
 31
0.0
  0
LINE
  5
157
330
1F
100
AcDbEntity
  8
0
  6
HIDDEN
 62
     7
370
     0
100
AcDbLine
 10
191.855058962
 20
96.1562504702
 30
0.0
 11
191.855058962
 21
97.4148364671
 31
0.0
  0
LINE
  5
158
330
1F
100
AcDbEntity
  8
0
  6
HIDDEN
 62
     7
370
     0
100
AcDbLine
 10
185.855058962
 20
97.4148364671
 30
0.0
 11
185.855058962
 21
96.1562504702
 31
0.0
  0
LINE
  5
159
330
1F
100
AcDbEntity
  8
0
  6
HIDDEN
 62
     7
370
     0
100
AcDbLine
 10
168.655058962
 20
93.1598363823
 30
0.0
 11
170.9362328406
 21
93.6102893445
 31
0.0
  0
LINE
  5
15A
330
1F
100
AcDbEntity
  8
0
  6
HIDDEN
 62
     7
370
     0
100
AcDbLine
 10
169.7738850834
 20
99.4966250206
 30
0.0
 11
168.655058962
 21
99.2756955486
 31
0.0
  0
LINE
  5
15B
330
1F
100
AcDbEntity
  8
0
  6
HIDDEN
 62
     7
370
     0
100
AcDbLine
 10
191.355058962
 20
96.0469170759
 30
0.0
 11
191.355058962
 21
109.7275616268
 31
0.0
  0
LINE
  5
15C
330
1F
100
AcDbEntity
  8
0
  6
HIDDEN
 62
     7
370
     0
100
AcDbLine
 10
186.355058962
 20
98.8866678695
 30
0.0
 11
186.355058962
 21
96.0467885477
 31
0.0
  0
LINE
  5
15D
330
1F
100
AcDbEntity
  8
0
  6
HIDDEN
 62
     7
370
     0
100
AcDbLine
 10
186.355058962
 20
109.7275616268
 30
0.0
 11
186.355058962
 21
100.5420770181
 31
0.0
  0
LINE
  5
15E
330
1F
100
AcDbEntity
  8
0
  6
HIDDEN
 62
     7
370
     0
100
AcDbLine
 10
171.0455673992
 20
94.5492580142
 30
0.0
 11
187.2732079335
 21
97.7536558974
 31
0.0
  0
LINE
  5
15F
330
1F
100
AcDbEntity
  8
0
  6
HIDDEN
 62
     7
370
     0
100
AcDbLine
 10
187.2726932027
 20
102.0346556722
 30
0.0
 11
170.2319239691
 21
98.6696929874
 31
0.0
  0
ARC
  5
160
330
1F
100
AcDbEntity
  8
0
  6
HIDDEN
 62
     7
370
     0
100
AcDbCircle
 10
65.055058962
 20
96.8826119851
 30
0.0
 40
1.20000000000001
100
AcDbArc
 50
90.0
 51
180.0
  0
ARC
  5
161
330
1F
100
AcDbEntity
  8
0
  6
HIDDEN
 62
     7
370
     0
100
AcDbCircle
 10
65.055058962
 20
124.2826119851
 30
0.0
 40
1.20000000000001
100
AcDbArc
 50
180.0
 51
270.0
  0
LINE
  5
162
330
1F
100
AcDbEntity
  8
0
  6
HIDDEN
 62
     7
370
     0
100
AcDbLine
 10
198.655058962
 20
61.482396598
 30
0.0
 11
198.655058962
 21
73.2826119851
 31
0.0
  0
ARC
  5
163
330
1F
100
AcDbEntity
  8
0
  6
HIDDEN
 62
     7
370
     0
100
AcDbCircle
 10
196.655058962
 20
73.2826119851
 30
0.0
 40
2.0
100
AcDbArc
 50
0.0
 51
90.0
  0
ARC
  5
164
330
1F
100
AcDbEntity
  8
0
  6
HIDDEN
 62
     7
370
     0
100
AcDbCircle
 10
196.655058962
 20
147.8826119851
 30
0.0
 40
2.0
100
AcDbArc
 50
270.0
 51
0.0
  0
LINE
  5
165
330
1F
100
AcDbEntity
  8
0
  6
HIDDEN
 62
     7
370
     0
100
AcDbLine
 10
198.655058962
 20
147.8826119851
 30
0.0
 11
198.655058962
 21
159.6827153357
 31
0.0
  0
ARC
  5
166
330
1F
100
AcDbEntity
  8
0
  6
HIDDEN
 62
     7
370
     0
100
AcDbCircle
 10
75.6241188543
 20
98.2576119851
 30
0.0
 40
0.4000000000000057
100
AcDbArc
 50
270.0
 51
330.0
  0
ARC
  5
167
330
1F
100
AcDbEntity
  8
0
  6
HIDDEN
 62
     7
370
     0
100
AcDbCircle
 10
75.6241188543
 20
122.9076119851
 30
0.0
 40
0.3999999999999927
100
AcDbArc
 50
30.0
 51
90.0
  0
ARC
  5
168
330
1F
100
AcDbEntity
  8
0
  6
HIDDEN
 62
     7
370
     0
100
AcDbCircle
 10
74.7474313927
 20
98.2576119851
 30
0.0
 40
0.4000000000000057
100
AcDbArc
 50
255.0
 51
270.0
  0
ARC
  5
169
330
1F
100
AcDbEntity
  8
0
  6
HIDDEN
 62
     7
370
     0
100
AcDbCircle
 10
74.7474313927
 20
122.9076119851
 30
0.0
 40
0.3999999999999915
100
AcDbArc
 50
90.0
 51
105.0
  0
LINE
  5
16A
330
1F
100
AcDbEntity
  8
0
  6
HIDDEN
 62
     7
370
     0
100
AcDbLine
 10
74.7474313927
 20
97.8576119851
 30
0.0
 11
75.6241188543
 21
97.8576119851
 31
0.0
  0
LINE
  5
16B
330
1F
100
AcDbEntity
  8
0
  6
HIDDEN
 62
     7
370
     0
100
AcDbLine
 10
75.6241188543
 20
123.3076119851
 30
0.0
 11
74.7474313927
 21
123.3076119851
 31
0.0
  0
LINE
  5
16C
330
1F
100
AcDbEntity
  8
0
  6
HIDDEN
 62
     7
370
     0
100
AcDbLine
 10
74.6439037747
 20
123.2939823157
 30
0.0
 11
73.855058962
 21
123.0826119851
 31
0.0
  0
LINE
  5
16D
330
1F
100
AcDbEntity
  8
0
  6
HIDDEN
 62
     7
370
     0
100
AcDbLine
 10
73.855058962
 20
98.0826119851
 30
0.0
 11
74.6439037747
 21
97.8712416546
 31
0.0
  0
LINE
  5
16E
330
1F
100
AcDbEntity
  8
0
  6
HIDDEN
 62
     7
370
     0
100
AcDbLine
 10
75.9705290158
 20
98.0576119851
 30
0.0
 11
77.1396633109
 21
100.0826119851
 31
0.0
  0
LINE
  5
16F
330
1F
100
AcDbEntity
  8
0
  6
HIDDEN
 62
     7
370
     0
100
AcDbLine
 10
77.1396633109
 20
121.0826119851
 30
0.0
 11
75.9705290158
 21
123.1076119851
 31
0.0
  0
LINE
  5
170
330
1F
100
AcDbEntity
  8
0
  6
HIDDEN
 62
     7
370
     0
100
AcDbLine
 10
65.055058962
 20
98.0826119851
 30
0.0
 11
73.855058962
 21
98.0826119851
 31
0.0
  0
LINE
  5
171
330
1F
100
AcDbEntity
  8
0
  6
HIDDEN
 62
     7
370
     0
100
AcDbLine
 10
73.855058962
 20
123.0826119851
 30
0.0
 11
65.055058962
 21
123.0826119851
 31
0.0
  0
LINE
  5
172
330
1F
100
AcDbEntity
  8
0
  6
HIDDEN
 62
     7
370
     0
100
AcDbLine
 10
77.1396633109
 20
100.0826119851
 30
0.0
 11
126.855058962
 21
100.0826119851
 31
0.0
  0
LINE
  5
173
330
1F
100
AcDbEntity
  8
0
  6
HIDDEN
 62
     7
370
     0
100
AcDbLine
 10
126.855058962
 20
121.0826119851
 30
0.0
 11
77.1396633109
 21
121.0826119851
 31
0.0
  0
LINE
  5
174
330
1F
100
AcDbEntity
  8
0
  6
HIDDEN
 62
     7
370
     0
100
AcDbLine
 10
126.855058962
 20
100.0826119851
 30
0.0
 11
131.6619439142
 21
108.0826119851
 31
0.0
  0
LINE
  5
175
330
1F
100
AcDbEntity
  8
0
  6
HIDDEN
 62
     7
370
     0
100
AcDbLine
 10
131.6619439142
 20
113.0826119851
 30
0.0
 11
126.855058962
 21
121.0826119851
 31
0.0
  0
LINE
  5
176
330
1F
100
AcDbEntity
  8
0
  6
HIDDEN
 62
     7
370
     0
100
AcDbLine
 10
198.6550632824
 20
159.5826125088
 30
0.0
 11
199.6550631317
 21
160.5826122877
 31
0.0
  0
LINE
  5
177
330
1F
100
AcDbEntity
  8
0
  6
HIDDEN
 62
     7
370
     0
100
AcDbLine
 10
199.6550631324
 20
60.5826116819
 30
0.0
 11
198.6550632831
 21
61.5826114607
 31
0.0
  0
ARC
  5
178
330
1F
100
AcDbEntity
  8
0
  6
HIDDEN
 62
     7
370
     0
100
AcDbCircle
 10
213.5497369639
 20
117.2826119851
 30
0.0
 40
0.8000000000000114
100
AcDbArc
 50
75.0
 51
90.0
  0
ARC
  5
179
330
1F
100
AcDbEntity
  8
0
  6
HIDDEN
 62
     7
370
     0
100
AcDbCircle
 10
213.5497369639
 20
103.8826119851
 30
0.0
 40
0.8000000000000114
100
AcDbArc
 50
270.0
 51
285.0
  0
LINE
  5
17A
330
1F
100
AcDbEntity
  8
0
  6
HIDDEN
 62
     7
370
     0
100
AcDbLine
 10
213.5497369639
 20
118.0826119851
 30
0.0
 11
212.955058962
 21
118.0826119851
 31
0.0
  0
LINE
  5
17B
330
1F
100
AcDbEntity
  8
0
  6
HIDDEN
 62
     7
370
     0
100
AcDbLine
 10
212.955058962
 20
103.0826119851
 30
0.0
 11
213.5497369639
 21
103.0826119851
 31
0.0
  0
ARC
  5
17C
330
1F
100
AcDbEntity
  8
0
  6
HIDDEN
 62
     7
370
     0
100
AcDbCircle
 10
212.955058962
 20
117.2826119851
 30
0.0
 40
0.8000000000000114
100
AcDbArc
 50
90.0
 51
180.0
  0
ARC
  5
17D
330
1F
100
AcDbEntity
  8
0
  6
HIDDEN
 62
     7
370
     0
100
AcDbCircle
 10
212.955058962
 20
103.8826119851
 30
0.0
 40
0.8000000000000114
100
AcDbArc
 50
180.0
 51
270.0
  0
LINE
  5
17E
330
1F
100
AcDbEntity
  8
0
  6
HIDDEN
 62
     7
370
     0
100
AcDbLine
 10
213.7567922
 20
103.1098713241
 30
0.0
 11
215.5210843658
 21
103.5826119851
 31
0.0
  0
LINE
  5
17F
330
1F
100
AcDbEntity
  8
0
  6
HIDDEN
 62
     7
370
     0
100
AcDbLine
 10
215.5210843658
 20
117.5826119851
 30
0.0
 11
213.7567922
 21
118.0553526462
 31
0.0
  0
LINE
  5
180
330
1F
100
AcDbEntity
  8
0
  6
HIDDEN
 62
     7
370
     0
100
AcDbLine
 10
221.755058962
 20
117.5826119851
 30
0.0
 11
215.5210843658
 21
117.5826119851
 31
0.0
  0
LINE
  5
181
330
1F
100
AcDbEntity
  8
0
  6
HIDDEN
 62
     7
370
     0
100
AcDbLine
 10
215.5210843658
 20
103.5826119851
 30
0.0
 11
221.755058962
 21
103.5826119851
 31
0.0
  0
LINE
  5
182
330
1F
100
AcDbEntity
  8
0
  6
HIDDEN
 62
     7
370
     0
100
AcDbLine
 10
228.655058962
 20
120.9855604001
 30
0.0
 11
228.2210752317
 21
120.5515768179
 31
0.0
  0
LINE
  5
183
330
1F
100
AcDbEntity
  8
0
  6
HIDDEN
 62
     7
370
     0
100
AcDbLine
 10
228.2210746974
 20
100.6136481102
 30
0.0
 11
228.655058962
 21
100.1796639376
 31
0.0
  0
LINE
  5
184
330
1F
100
AcDbEntity
  8
0
  6
HIDDEN
 62
     7
370
     0
100
AcDbLine
 10
189.7101093203
 20
108.0826119851
 30
0.0
 11
212.155058962
 21
108.0826119851
 31
0.0
  0
LINE
  5
185
330
1F
100
AcDbEntity
  8
0
  6
HIDDEN
 62
     7
370
     0
100
AcDbLine
 10
212.155058962
 20
113.0826119851
 30
0.0
 11
189.7101093203
 21
113.0826119851
 31
0.0
  0
LINE
  5
186
330
1F
100
AcDbEntity
  8
0
  6
HIDDEN
 62
     7
370
     0
100
AcDbLine
 10
131.6619439142
 20
108.0826119851
 30
0.0
 11
188.0000086037
 21
108.0826119851
 31
0.0
  0
LINE
  5
187
330
1F
100
AcDbEntity
  8
0
  6
HIDDEN
 62
     7
370
     0
100
AcDbLine
 10
188.0000086037
 20
113.0826119851
 30
0.0
 11
131.6619439142
 21
113.0826119851
 31
0.0
  0
LINE
  5
188
330
1F
100
AcDbEntity
  8
0
  6
HIDDEN
 62
     7
370
     0
100
AcDbLine
 10
228.2280314332
 20
120.5576119851
 30
0.0
 11
221.755058962
 21
120.5576119851
 31
0.0
  0
LINE
  5
189
330
1F
100
AcDbEntity
  8
0
  6
HIDDEN
 62
     7
370
     0
100
AcDbLine
 10
221.755058962
 20
100.6076119851
 30
0.0
 11
228.2280307063
 21
100.6076119851
 31
0.0
  0
LINE
  5
18A
330
1F
100
AcDbEntity
  8
0
  6
HIDDEN
 62
     7
370
     0
100
AcDbLine
 10
191.355058962
 20
111.4376623435
 30
0.0
 11
191.355058962
 21
125.1184354226
 31
0.0
  0
LINE
  5
18B
330
1F
100
AcDbEntity
  8
0
  6
HIDDEN
 62
     7
370
     0
100
AcDbLine
 10
186.355058962
 20
120.6246924631
 30
0.0
 11
186.355058962
 21
111.4376623435
 31
0.0
  0
LINE
  5
18C
330
1F
100
AcDbEntity
  8
0
  6
HIDDEN
 62
     7
370
     0
100
AcDbLine
 10
186.355058962
 20
125.1183068944
 30
0.0
 11
186.355058962
 21
122.2812902444
 31
0.0
  0
LINE
  5
18D
330
1F
100
AcDbEntity
  8
0
  6
HIDDEN
 62
     7
370
     0
100
AcDbLine
 10
170.2319239691
 20
122.4955309828
 30
0.0
 11
187.2698626865
 21
119.1311272271
 31
0.0
  0
LINE
  5
18E
330
1F
100
AcDbEntity
  8
0
  6
HIDDEN
 62
     7
370
     0
100
AcDbLine
 10
187.2714420527
 20
123.4119167733
 30
0.0
 11
171.0455673992
 21
126.6159659561
 31
0.0
  0
LINE
  5
18F
330
1F
100
AcDbEntity
  8
0
  6
HIDDEN
 62
     7
370
     0
100
AcDbLine
 10
168.655058962
 20
121.8895284217
 30
0.0
 11
169.7738850834
 21
121.6685989497
 31
0.0
  0
LINE
  5
190
330
1F
100
AcDbEntity
  8
0
  6
HIDDEN
 62
     7
370
     0
100
AcDbLine
 10
170.9362328406
 20
127.5549346258
 30
0.0
 11
168.655058962
 21
128.0053875879
 31
0.0
  0
LINE
  5
191
330
1F
100
AcDbEntity
  8
0
  6
HIDDEN
 62
     7
370
     0
100
AcDbLine
 10
174.2390064494
 20
121.6874911464
 30
0.0
 11
174.8275236458
 21
122.2184784437
 31
0.0
  0
LINE
  5
192
330
1F
100
AcDbEntity
  8
0
  6
HIDDEN
 62
     7
370
     0
100
AcDbLine
 10
175.4015387065
 20
125.125392755
 30
0.0
 11
175.0590279647
 21
125.8402258768
 31
0.0
  0
LINE
  5
193
330
1F
100
AcDbEntity
  8
0
  6
HIDDEN
 62
     7
370
     0
100
AcDbLine
 10
170.0932473965
 20
122.1151908664
 30
0.0
 11
173.5513553626
 21
121.4323341181
 31
0.0
  0
LINE
  5
194
330
1F
100
AcDbEntity
  8
0
  6
HIDDEN
 62
     7
370
     0
100
AcDbLine
 10
174.5199784936
 20
126.3376138482
 30
0.0
 11
171.0618705275
 21
127.0204705964
 31
0.0
  0
LINE
  5
195
330
1F
100
AcDbEntity
  8
0
  6
HIDDEN
 62
     7
370
     0
100
AcDbLine
 10
169.70285127
 20
125.7278823638
 30
0.0
 11
169.6360492391
 21
125.5653292296
 31
0.0
  0
LINE
  5
196
330
1F
100
AcDbEntity
  8
0
  6
HIDDEN
 62
     7
370
     0
100
AcDbLine
 10
169.327558962
 20
124.003079625
 30
0.0
 11
169.327558962
 21
123.8273353996
 31
0.0
  0
LINE
  5
197
330
1F
100
AcDbEntity
  8
0
  6
HIDDEN
 62
     7
370
     0
100
AcDbLine
 10
169.327558962
 20
97.3378885707
 30
0.0
 11
169.327558962
 21
97.1621443453
 31
0.0
  0
LINE
  5
198
330
1F
100
AcDbEntity
  8
0
  6
HIDDEN
 62
     7
370
     0
100
AcDbLine
 10
169.6360492391
 20
95.5998947407
 30
0.0
 11
169.70285127
 21
95.4373416065
 31
0.0
  0
LINE
  5
199
330
1F
100
AcDbEntity
  8
0
  6
HIDDEN
 62
     7
370
     0
100
AcDbLine
 10
171.0618705275
 20
94.1447533739
 30
0.0
 11
174.5199784936
 21
94.8276101221
 31
0.0
  0
LINE
  5
19A
330
1F
100
AcDbEntity
  8
0
  6
HIDDEN
 62
     7
370
     0
100
AcDbLine
 10
173.5513553626
 20
99.7328898521
 30
0.0
 11
170.0932473965
 21
99.0500331039
 31
0.0
  0
LINE
  5
19B
330
1F
100
AcDbEntity
  8
0
  6
HIDDEN
 62
     7
370
     0
100
AcDbLine
 10
175.0590279647
 20
95.3249980935
 30
0.0
 11
175.4015387065
 21
96.0398312153
 31
0.0
  0
LINE
  5
19C
330
1F
100
AcDbEntity
  8
0
  6
HIDDEN
 62
     7
370
     0
100
AcDbLine
 10
174.8275236458
 20
98.9467455266
 30
0.0
 11
174.2390064494
 21
99.4777328239
 31
0.0
  0
DIMENSION
  5
19D
330
1F
100
AcDbEntity
  8
VERMASSUNG
100
AcDbDimension
  2
_D
 10
240.1172968136
 20
98.0826119851
 30
0.0
 11
240.1172968136
 21
110.5826119851
 31
0.0
 70
   160
  1
ST2 %%c<>
 71
     2
 42
-1.0
  3
SLDDIMSTYLE0
100
AcDbAlignedDimension
 13
228.455058962
 23
123.0826119851
 33
0.0
 14
228.455058962
 24
98.0826119851
 34
0.0
 50
90.0
100
AcDbRotatedDimension
  0
DIMENSION
  5
1AA
330
1F
100
AcDbEntity
  8
VERMASSUNG
100
AcDbDimension
  2
_D_1
 10
233.9172968136
 20
103.5826119851
 30
0.0
 11
233.9172968136
 21
110.5826119851
 31
0.0
 70
   160
  1
%%c<>
 71
     2
 42
-1.0
  3
SLDDIMSTYLE0
100
AcDbAlignedDimension
 13
221.755058962
 23
117.5826119851
 33
0.0
 14
221.755058962
 24
103.5826119851
 34
0.0
 50
90.0
100
AcDbRotatedDimension
  0
DIMENSION
  5
1B5
330
1F
100
AcDbEntity
  8
VERMASSUNG
100
AcDbDimension
  2
_D_2
 10
203.655058962
 20
165.4823603501
 30
0.0
 11
216.155058962
 21
165.4823603501
 31
0.0
 70
   160
  1
(<>)
 71
     2
 42
-1.0
  3
SLDDIMSTYLE0
100
AcDbAlignedDimension
 13
228.655058962
 23
122.8826119851
 33
0.0
 14
203.655058962
 24
159.5826119851
 34
0.0
100
AcDbRotatedDimension
  0
DIMENSION
  5
1C1
330
1F
100
AcDbEntity
  8
VERMASSUNG
100
AcDbDimension
  2
_D_3
 10
228.655058962
 20
171.4823603501
 30
0.0
 11
197.155058962
 21
171.4823603501
 31
0.0
 70
   160
  1
<>
 71
     2
 42
-1.0
  3
SLDDIMSTYLE0
100
AcDbAlignedDimension
 13
165.655058962
 23
145.5076119851
 33
0.0
 14
228.655058962
 24
122.8826119851
 34
0.0
100
AcDbRotatedDimension
  0
DIMENSION
  5
1CB
330
1F
100
AcDbEntity
  8
VERMASSUNG
100
AcDbDimension
  2
_D_4
 10
63.855058962
 20
177.4823603501
 30
0.0
 11
146.255058962
 21
177.4823603501
 31
0.0
 70
   160
  1
(<>)
 71
     2
 42
-1.0
  3
SLDDIMSTYLE0
100
AcDbAlignedDimension
 13
228.655058962
 23
122.8826119851
 33
0.0
 14
63.855058962
 24
128.9322898459
 34
0.0
100
AcDbRotatedDimension
  0
DIMENSION
  5
1D7
330
1F
100
AcDbEntity
  8
VERMASSUNG
100
AcDbDimension
  2
_D_5
 10
58.7648266993
 20
60.5826119851
 30
0.0
 11
58.7648266993
 21
110.5826119851
 31
0.0
 70
   160
  1
MAS BT 50 %%c<>
 71
     2
 42
-1.0
  3
SLDDIMSTYLE0
100
AcDbAlignedDimension
 13
199.6550608705
 23
160.5826119851
 33
0.0
 14
199.655061024
 24
60.5826119851
 34
0.0
 50
90.0
100
AcDbRotatedDimension
  0
LINE
  5
1E3
330
1F
100
AcDbEntity
  8
VERMASSUNG
  6
CENTERX2
370
     0
100
AcDbLine
 10
185.4281516371
 20
121.6353521845
 30
0.0
 11
168.6766337921
 21
124.9431977219
 31
0.0
  0
LINE
  5
1E4
330
1F
100
AcDbEntity
  8
VERMASSUNG
  6
CENTERX2
370
     0
100
AcDbLine
 10
62.2514682959
 20
110.5826119851
 30
0.0
 11
230.9051145838
 21
110.5826119851
 31
0.0
  0
LINE
  5
1E5
330
1F
100
AcDbEntity
  8
VERMASSUNG
  6
CENTERX2
370
     0
100
AcDbLine
 10
168.6766337921
 20
96.2220262484
 30
0.0
 11
189.2353947538
 21
100.2816706537
 31
0.0
  0
LINE
  5
1E6
330
1F
100
AcDbEntity
  8
VERMASSUNG
  6
CENTERX2
370
     0
100
AcDbLine
 10
188.855058962
 20
99.5491167564
 30
0.0
 11
188.855058962
 21
125.1529006874
 31
0.0
  0
LINE
  5
1E7
330
1F
100
AcDbEntity
  8
0
  6
Continuous
 62
     7
370
    15
100
AcDbLine
 10
279.126802943
 20
38.5688594107
 30
0.0
 11
279.0384002333
 21
38.6199097976
 31
0.0
  0
LINE
  5
1E8
330
1F
100
AcDbEntity
  8
0
  6
Continuous
 62
     7
370
    15
100
AcDbLine
 10
277.4471514579
 20
38.6199097976
 30
0.0
 11
277.3587487482
 21
38.5688594107
 31
0.0
  0
LINE
  5
1E9
330
1F
100
AcDbEntity
  8
0
  6
Continuous
 62
     7
370
    15
100
AcDbLine
 10
279.4927758456
 20
37.9566196633
 30
0.0
 11
279.4927758456
 21
38.0586872648
 31
0.0
  0
LINE
  5
1EA
330
1F
100
AcDbEntity
  8
0
  6
Continuous
 62
     7
370
    15
100
AcDbLine
 10
276.9927758456
 20
38.0586872648
 30
0.0
 11
276.9927758456
 21
37.9566196633
 31
0.0
  0
SPLINE
  5
1EB
330
1F
100
AcDbEntity
  8
0
  6
Continuous
 62
     7
370
    15
100
AcDbSpline
210
0.0
220
0.0
230
1.0
 70
     8
 71
     3
 72
    42
 73
    38
 74
     0
 42
0.000000001
 43
0.00000001
 40
0.0
 40
0.0
 40
0.0
 40
0.0
 40
0.0045125025583418
 40
0.0341557782870357
 40
0.0639204828194334
 40
0.093795638777502
 40
0.1237572948031462
 40
0.1537780621136242
 40
0.1838335036121604
 40
0.2139048971977777
 40
0.2439778698920886
 40
0.2740444805964031
 40
0.3041015187222614
 40
0.3341479328870743
 40
0.3641840395561032
 40
0.3942109839503881
 40
0.4242303925832424
 40
0.454244159916901
 40
0.4842543240028211
 40
0.5142629985413053
 40
0.5442723385368105
 40
0.5742838289145521
 40
0.6042996356438947
 40
0.6343219523542409
 40
0.6643529381917849
 40
0.6943946509357548
 40
0.7244489233495549
 40
0.7545171490859045
 40
0.7845999307716738
 40
0.8146965282208847
 40
0.8448040374990257
 40
0.8749150476621973
 40
0.9050150415917362
 40
0.9350848505641729
 40
0.9650987378823523
 40
0.9950268001511433
 40
1.0
 40
1.0
 40
1.0
 40
1.0
 10
262.586176805405
 20
14.21981131702921
 30
0.0
 10
262.6468947500652
 20
14.21092201032905
 30
0.0
 10
263.1064775711372
 20
14.14363757450869
 30
0.0
 10
264.0149219842398
 20
14.1532241455265
 30
0.0
 10
265.3063523103313
 20
14.25761923698932
 30
0.0
 10
266.6406321080263
 20
14.51619121517361
 30
0.0
 10
268.0031136417213
 20
14.91059698898037
 30
0.0
 10
269.386699760882
 20
15.44303044073474
 30
0.0
 10
270.7820260192726
 20
16.10877832469357
 30
0.0
 10
272.1803261725115
 20
16.90373340194629
 30
0.0
 10
273.5728183049044
 20
17.82253296824915
 30
0.0
 10
274.9509551527692
 20
18.85920421039757
 30
0.0
 10
276.3064027727357
 20
20.00711626841216
 30
0.0
 10
277.6310359287959
 20
21.25905502387309
 30
0.0
 10
278.9169315668879
 20
22.60723361500498
 30
0.0
 10
280.1563987635292
 20
24.04333163785788
 30
0.0
 10
281.342013713223
 20
25.55853453992174
 30
0.0
 10
282.4666587203911
 20
27.14357889751988
 30
0.0
 10
283.5235624500363
 20
28.78880250921271
 30
0.0
 10
284.5063397319469
 20
30.48419914770203
 30
0.0
 10
285.4090225612614
 20
32.21946378539682
 30
0.0
 10
286.2261048567469
 20
33.98406599933826
 30
0.0
 10
286.9525748455928
 20
35.76731547582109
 30
0.0
 10
287.5839462445783
 20
37.55844166861305
 30
0.0
 10
288.1162735828682
 20
39.34664574170039
 30
0.0
 10
288.5461691253586
 20
41.12116339506494
 30
0.0
 10
288.8708142780113
 20
42.87132417609758
 30
0.0
 10
289.0879687061037
 20
44.58660795764979
 30
0.0
 10
289.1959675854083
 20
46.25668253560366
 30
0.0
 10
289.1937516712757
 20
47.8714686650474
 30
0.0
 10
289.0807827304433
 20
49.42102461025609
 30
0.0
 10
288.8574428594633
 20
50.89594707743917
 30
0.0
 10
288.523764726086
 20
52.28581057497517
 30
0.0
 10
288.0845337691479
 20
53.58517725031202
 30
0.0
 10
287.5307616326878
 20
54.77147496177574
 30
0.0
 10
287.0811885653084
 20
55.57885499515891
 30
0.0
 10
286.7881163070377
 20
55.95275545224888
 30
0.0
 10
286.7463554416104
 20
56.00603380334172
 30
0.0
  0
LINE
  5
1EC
330
1F
100
AcDbEntity
  8
0
  6
Continuous
 62
     7
370
    15
100
AcDbLine
 10
256.6486307146
 20
16.6566779017
 30
0.0
 11
258.8671782406
 21
15.3759376762
 31
0.0
  0
LINE
  5
1ED
330
1F
100
AcDbEntity
  8
0
  6
Continuous
 62
     7
370
    15
100
AcDbLine
 10
283.8651465565
 20
58.6783807953
 30
0.0
 11
281.6465990305
 21
59.9591210207
 31
0.0
  0
LINE
  5
1EE
330
1F
100
AcDbEntity
  8
0
  6
Continuous
 62
     7
370
    15
100
AcDbLine
 10
276.3256205021
 20
63.0308565414
 30
0.0
 11
272.1978846669
 21
65.4137477178
 31
0.0
  0
SPLINE
  5
1EF
330
1F
100
AcDbEntity
  8
0
  6
Continuous
 62
     7
370
    15
100
AcDbSpline
210
0.0
220
0.0
230
1.0
 70
     8
 71
     3
 72
    31
 73
    27
 74
     0
 42
0.000000001
 43
0.00000001
 40
0.0
 40
0.0
 40
0.0
 40
0.0
 40
0.0188957672977165
 40
0.0616803156432558
 40
0.1046383261413208
 40
0.1477474040253081
 40
0.1909704505608899
 40
0.234268458916481
 40
0.2776082353498653
 40
0.3209651911498996
 40
0.3643198848087177
 40
0.4076637576007974
 40
0.4509931641633053
 40
0.4943072214539977
 40
0.5376067745020237
 40
0.580893703268152
 40
0.6241704818586946
 40
0.6674399114777462
 40
0.7107049672376519
 40
0.7539687161697246
 40
0.7972340337707005
 40
0.8405032699298886
 40
0.8837795909505106
 40
0.9270661522012319
 40
0.9703660390557107
 40
0.9999999999999999
 40
0.9999999999999999
 40
0.9999999999999999
 40
0.9999999999999999
 10
268.4982672944167
 20
66.55944296625759
 30
0.0
 10
268.3203552936286
 20
66.58116114405003
 30
0.0
 10
267.7396078599608
 20
66.65205448435881
 30
0.0
 10
266.7032021554893
 20
66.62238281746751
 30
0.0
 10
265.3990866083151
 20
66.47552722305309
 30
0.0
 10
264.0563442565318
 20
66.17995166436971
 30
0.0
 10
262.6872252906859
 20
65.74767750399927
 30
0.0
 10
261.2995670215003
 20
65.17859868139918
 30
0.0
 10
259.9025509632701
 20
64.47721919163637
 30
0.0
 10
258.5049696733204
 20
63.64801684842762
 30
0.0
 10
257.1155410420082
 20
62.69652542811723
 30
0.0
 10
255.7427615931606
 20
61.6289101290561
 30
0.0
 10
254.3949006137988
 20
60.45195807315542
 30
0.0
 10
253.0800307836781
 20
59.17304277184884
 30
0.0
 10
251.8060151434212
 20
57.8000999366194
 30
0.0
 10
250.5804757587397
 20
56.34158860979716
 30
0.0
 10
249.4107566617995
 20
54.80645003931254
 30
0.0
 10
248.3038869679876
 20
53.2040616856129
 30
0.0
 10
247.2665306772392
 20
51.54418353279753
 30
0.0
 10
246.3049860247049
 20
49.83691384895013
 30
0.0
 10
245.4250131569811
 20
48.09260601467542
 30
0.0
 10
244.6323070122745
 20
46.32191360665342
 30
0.0
 10
243.930543032003
 20
44.53528247791593
 30
0.0
 10
243.3285265786322
 20
42.74451677658131
 30
0.0
 10
242.8676423644077
 20
41.14491821642082
 30
0.0
 10
242.6505038725095
 20
40.15455378099479
 30
0.0
 10
242.562277708902
 20
39.75215596590895
 30
0.0
  0
LINE
  5
1F0
330
1F
100
AcDbEntity
  8
0
  6
Continuous
 62
     7
370
    15
100
AcDbLine
 10
280.4885581555
 20
26.6583615616
 30
0.0
 11
280.5592573411
 21
26.6991886017
 31
0.0
  0
LINE
  5
1F1
330
1F
100
AcDbEntity
  8
0
  6
Continuous
 62
     7
370
    15
100
AcDbLine
 10
284.9072572583
 20
34.2309614528
 30
0.0
 11
284.9072572583
 21
34.312602264
 31
0.0
  0
LINE
  5
1F2
330
1F
100
AcDbEntity
  8
0
  6
Continuous
 62
     7
370
    15
100
AcDbLine
 10
283.6125859154
 20
37.1741323044
 30
0.0
 11
276.258675391
 21
41.4194544859
 31
0.0
  0
LINE
  5
1F3
330
1F
100
AcDbEntity
  8
0
  6
Continuous
 62
     7
370
    15
100
AcDbLine
 10
270.009183312
 20
30.5938437061
 30
0.0
 11
277.3630938364
 21
26.3485215246
 31
0.0
  0
SPLINE
  5
1F4
330
1F
100
AcDbEntity
  8
0
  6
Continuous
 62
     7
370
    15
100
AcDbSpline
210
0.0
220
0.0
230
1.0
 70
     8
 71
     3
 72
    14
 73
    10
 74
     0
 42
0.000000001
 43
0.00000001
 40
0.0
 40
0.0
 40
0.0
 40
0.0
 40
0.0778683086171381
 40
0.2411401184195217
 40
0.403573358551368
 40
0.5650233916352463
 40
0.7259749124460002
 40
0.887736993353261
 40
1.0
 40
1.0
 40
1.0
 40
1.0
 10
279.2578174315988
 20
33.57527249233542
 30
0.0
 10
279.3278750021524
 20
33.6653386887627
 30
0.0
 10
279.5448270736624
 20
33.94425284084553
 30
0.0
 10
279.9556261659468
 20
34.32145089085445
 30
0.0
 10
280.4579008124656
 20
34.6838072245401
 30
0.0
 10
280.9522588420847
 20
34.91912263977402
 30
0.0
 10
281.4064510624394
 20
35.0222167531609
 30
0.0
 10
281.7676045664962
 20
35.01690022077295
 30
0.0
 10
281.9441638201222
 20
34.9335577401942
 30
0.0
 10
282.0164968785304
 20
34.89941386842434
 30
0.0
  0
SPLINE
  5
1F5
330
1F
100
AcDbEntity
  8
0
  6
Continuous
 62
     7
370
    15
100
AcDbSpline
210
0.0
220
0.0
230
1.0
 70
     8
 71
     3
 72
    11
 73
     7
 74
     0
 42
0.000000001
 43
0.00000001
 40
0.0
 40
0.0
 40
0.0
 40
0.0
 40
0.083868058495072
 40
0.4463320883335527
 40
0.8095767676841221
 40
1.0
 40
1.0
 40
1.0
 40
1.0
 10
278.2674244344854
 20
31.85057300560175
 30
0.0
 10
278.2857351361719
 20
31.9019909364001
 30
0.0
 10
278.3831816953179
 20
32.17562875326178
 30
0.0
 10
278.6252381851726
 20
32.66616494701456
 30
0.0
 10
278.9454458186113
 20
33.20201513574691
 30
0.0
 10
279.1778772082675
 20
33.47975076371106
 30
0.0
 10
279.2578174315988
 20
33.57527249233542
 30
0.0
  0
LINE
  5
1F6
330
1F
100
AcDbEntity
  8
0
  6
Continuous
 62
     7
370
    15
100
AcDbLine
 10
257.7780778689
 20
63.1289488376
 30
0.0
 11
227.4285366548
 21
74.0657204769
 31
0.0
  0
LINE
  5
1F7
330
1F
100
AcDbEntity
  8
0
  6
Continuous
 62
     7
370
    15
100
AcDbLine
 10
217.3191819794
 20
56.553907106
 30
0.0
 11
246.782919306
 21
31.6749708806
 31
0.0
  0
SPLINE
  5
1F8
330
1F
100
AcDbEntity
  8
0
  6
Continuous
 62
     7
370
    15
100
AcDbSpline
210
0.0
220
0.0
230
1.0
 70
     8
 71
     3
 72
    10
 73
     6
 74
     0
 42
0.000000001
 43
0.00000001
 40
0.0
 40
0.0
 40
0.0
 40
0.0
 40
0.1745384406885501
 40
0.7423441441524374
 40
1.0
 40
1.0
 40
1.0
 40
1.0
 10
278.6763637104191
 20
28.78650136163077
 30
0.0
 10
278.6390800602842
 20
28.79963900799396
 30
0.0
 10
278.480505827347
 20
28.85551583837691
 30
0.0
 10
278.3205746579628
 20
29.02425702963385
 30
0.0
 10
278.2115156402664
 20
29.20692596564378
 30
0.0
 10
278.1774744493405
 20
29.26394342516506
 30
0.0
  0
LINE
  5
1F9
330
1F
100
AcDbEntity
  8
0
  6
Continuous
 62
     7
370
    15
100
AcDbLine
 10
247.199916351
 20
22.1113045988
 30
0.0
 11
251.3276521862
 21
19.7284134224
 31
0.0
  0
SPLINE
  5
1FA
330
1F
100
AcDbEntity
  8
0
  6
Continuous
 62
     7
370
    15
100
AcDbSpline
210
0.0
220
0.0
230
1.0
 70
     8
 71
     3
 72
    11
 73
     7
 74
     0
 42
0.000000001
 43
0.00000001
 40
0.0
 40
0.0
 40
0.0
 40
0.0
 40
0.1014726037306065
 40
0.4117955914088775
 40
0.7216513978100001
 40
1.0
 40
1.0
 40
1.0
 40
1.0
 10
242.5442777775468
 20
28.58562807198861
 30
0.0
 10
242.5856779337995
 20
28.43874919536058
 30
0.0
 10
242.7536878320549
 20
27.84268610401539
 30
0.0
 10
243.1271387618019
 20
26.86664316398456
 30
0.0
 10
243.6741256365706
 20
25.73020097903153
 30
0.0
 10
244.1161237212
 20
25.07712332997279
 30
0.0
 10
244.3252849366386
 20
24.76807557704546
 30
0.0
  0
SPLINE
  5
1FB
330
1F
100
AcDbEntity
  8
0
  6
Continuous
 62
     7
370
    15
100
AcDbSpline
210
0.0
220
0.0
230
1.0
 70
     8
 71
     3
 72
    26
 73
    22
 74
     0
 42
0.000000001
 43
0.00000001
 40
0.0
 40
0.0
 40
0.0
 40
0.0
 40
0.0421920351105311
 40
0.0943866687806325
 40
0.1475688754593389
 40
0.2020148164085846
 40
0.2575861961548137
 40
0.3138882453083718
 40
0.3705111500257444
 40
0.4271372314316711
 40
0.483654841022328
 40
0.5400491660923309
 40
0.5963451602113885
 40
0.6525853448007237
 40
0.7088195399200122
 40
0.765092176039975
 40
0.8214487758007444
 40
0.8779441984350076
 40
0.9346295486659488
 40
0.9884815046005885
 40
0.9999999999999999
 40
0.9999999999999999
 40
0.9999999999999999
 40
0.9999999999999999
 10
227.3865666549828
 20
74.06859402977999
 30
0.0
 10
227.1818323350235
 20
74.13477722273277
 30
0.0
 10
226.7238266854878
 20
74.28283386649771
 30
0.0
 10
225.9529618207493
 20
74.34434446044416
 30
0.0
 10
225.0983424913736
 20
74.28558344444205
 30
0.0
 10
224.209551010203
 20
74.08193332814366
 30
0.0
 10
223.2994173769918
 20
73.73895826255034
 30
0.0
 10
222.3817427276903
 20
73.25888473187791
 30
0.0
 10
221.4729089004241
 20
72.6503713925348
 30
0.0
 10
220.5883052573743
 20
71.92478627514767
 30
0.0
 10
219.7415954483088
 20
71.09524780111602
 30
0.0
 10
218.9446432399812
 20
70.1753118610456
 30
0.0
 10
218.2082913196279
 20
69.17908940830569
 30
0.0
 10
217.5426040962128
 20
68.12127750701946
 30
0.0
 10
216.9569154040975
 20
67.01714899503716
 30
0.0
 10
216.4597167536917
 20
65.8823995514328
 30
0.0
 10
216.0586644788999
 20
64.73294363054602
 30
0.0
 10
215.7601189506705
 20
63.5843881203504
 30
0.0
 10
215.574282608374
 20
62.47312002740869
 30
0.0
 10
215.5158705123615
 20
61.68497483592665
 30
0.0
 10
215.5129775000347
 20
61.27529684830309
 30
0.0
 10
215.5124677414435
 20
61.20311019639261
 30
0.0
  0
SPLINE
  5
1FC
330
1F
100
AcDbEntity
  8
0
  6
Continuous
 62
     7
370
    15
100
AcDbSpline
210
0.0
220
0.0
230
1.0
 70
     8
 71
     3
 72
    14
 73
    10
 74
     0
 42
0.000000001
 43
0.00000001
 40
0.0
 40
0.0
 40
0.0
 40
0.0
 40
0.0970300021355376
 40
0.2799955097663701
 40
0.4629570220838163
 40
0.6442072974506324
 40
0.8219817389873184
 40
0.9951059531953558
 40
1.0
 40
1.0
 40
1.0
 40
1.0
 10
215.5124677414435
 20
61.20311019639261
 30
0.0
 10
215.5158351436948
 20
61.01520655420408
 30
0.0
 10
215.5255523186839
 20
60.4729806970095
 30
0.0
 10
215.633846406902
 20
59.62091198540647
 30
0.0
 10
215.8796076329689
 20
58.68598562730018
 30
0.0
 10
216.2454673630382
 20
57.84217964998854
 30
0.0
 10
216.7365978923505
 20
57.12917072361855
 30
0.0
 10
217.1145317186225
 20
56.69012510216934
 30
0.0
 10
217.3475806166443
 20
56.53204667146977
 30
0.0
 10
217.3539875560684
 20
56.52770080698235
 30
0.0
  0
LWPOLYLINE
  5
1FD
330
1F
100
AcDbEntity
  8
0
  6
Continuous
 62
     7
370
    15
100
AcDbPolyline
 90
        6
 70
   128
 43
0.0
 10
260.1628173989
 20
52.9465644064
 10
260.2746463147
 20
52.6115448495
 10
260.54987209
 20
52.3633778166
 10
260.9465940955
 20
52.2398444888
 10
261.4044150021
 20
52.2597516955
 10
261.482145602
 20
52.2772128077
  0
LWPOLYLINE
  5
1FE
330
1F
100
AcDbEntity
  8
0
  6
Continuous
 62
     7
370
    15
100
AcDbPolyline
 90
        9
 70
   128
 43
0.0
 10
262.5328842516
 20
53.419852526
 10
262.4212024895
 20
53.7525326397
 10
262.1459767142
 20
54.0006996726
 10
261.7492547087
 20
54.1242330004
 10
261.2914338021
 20
54.1043257938
 10
260.8422130773
 20
53.9440087444
 10
260.4699823173
 20
53.6676886699
 10
260.2314102813
 20
53.3174327967
 10
260.1628173989
 20
52.9465644064
  0
LINE
  5
1FF
330
1F
100
AcDbEntity
  8
0
  6
Continuous
 62
     7
370
    15
100
AcDbLine
 10
261.802256306
 20
52.6997227295
 30
0.0
 11
262.187288762
 21
53.3488158935
 31
0.0
  0
LINE
  5
200
330
1F
100
AcDbEntity
  8
0
  6
Continuous
 62
     7
370
    15
100
AcDbLine
 10
261.732956858
 20
53.8311319086
 30
0.0
 11
262.187288762
 21
53.3488158935
 31
0.0
  0
LINE
  5
201
330
1F
100
AcDbEntity
  8
0
  6
Continuous
 62
     7
370
    15
100
AcDbLine
 10
260.8935924982
 20
53.6643547597
 30
0.0
 11
261.732956858
 21
53.8311319086
 31
0.0
  0
LINE
  5
202
330
1F
100
AcDbEntity
  8
0
  6
Continuous
 62
     7
370
    15
100
AcDbLine
 10
260.8935924982
 20
53.6643547597
 30
0.0
 11
260.5085600422
 21
53.0152615957
 31
0.0
  0
LINE
  5
203
330
1F
100
AcDbEntity
  8
0
  6
Continuous
 62
     7
370
    15
100
AcDbLine
 10
260.9628919462
 20
52.5329455806
 30
0.0
 11
260.5085600422
 21
53.0152615957
 31
0.0
  0
LINE
  5
204
330
1F
100
AcDbEntity
  8
0
  6
Continuous
 62
     7
370
    15
100
AcDbLine
 10
260.9628919462
 20
52.5329455806
 30
0.0
 11
261.802256306
 21
52.6997227295
 31
0.0
  0
LINE
  5
205
330
1F
100
AcDbEntity
  8
0
  6
Continuous
 62
     7
370
    15
100
AcDbLine
 10
261.9748016207
 20
53.2034485428
 30
0.0
 11
262.0522733573
 21
53.1212050134
 31
0.0
  0
LINE
  5
206
330
1F
100
AcDbEntity
  8
0
  6
Continuous
 62
     7
370
    15
100
AcDbLine
 10
261.9748016207
 20
53.2034485428
 30
0.0
 11
261.732956858
 21
53.8311319086
 31
0.0
  0
LINE
  5
207
330
1F
100
AcDbEntity
  8
0
  6
Continuous
 62
     7
370
    15
100
AcDbLine
 10
261.1354372608
 20
53.0366713939
 30
0.0
 11
260.8935924982
 21
53.6643547597
 31
0.0
  0
LINE
  5
208
330
1F
100
AcDbEntity
  8
0
  6
Continuous
 62
     7
370
    15
100
AcDbLine
 10
261.1354372608
 20
53.0366713939
 30
0.0
 11
260.8854202095
 21
52.61518911
 31
0.0
  0
LINE
  5
209
330
1F
100
AcDbEntity
  8
0
  6
Continuous
 62
     7
370
    15
100
AcDbLine
 10
261.1354372608
 20
53.0366713939
 30
0.0
 11
261.9748016207
 21
53.2034485428
 31
0.0
  0
LWPOLYLINE
  5
20A
330
1F
100
AcDbEntity
  8
0
  6
Continuous
 62
     7
370
    15
100
AcDbPolyline
 90
       17
 70
   128
 43
0.0
 10
278.613000147
 20
37.5474810241
 10
278.178279899
 20
37.5123743394
 10
277.7533785742
 20
37.5759777124
 10
277.4029835476
 20
37.7286081059
 10
277.1804392856
 20
37.9470289264
 10
277.1196261348
 20
38.1979875837
 10
277.229802346
 20
38.4432778974
 10
277.49419459
 20
38.6455566406
 10
277.8725515442
 20
38.7740287085
 10
278.3072717922
 20
38.8091353932
 10
278.732173117
 20
38.7455320203
 10
279.0825681436
 20
38.5929016267
 10
279.3051124056
 20
38.3744808062
 10
279.3659255564
 20
38.1235221489
 10
279.2557493451
 20
37.8782318352
 10
278.9913571012
 20
37.675953092
 10
278.613000147
 20
37.5474810241
  0
LWPOLYLINE
  5
20B
330
1F
100
AcDbEntity
  8
0
  6
Continuous
 62
     7
370
    15
100
AcDbPolyline
 90
        8
 70
   128
 43
0.0
 10
278.6541361805
 20
37.3772718846
 10
278.1711136827
 20
37.3382644572
 10
277.6990010996
 20
37.4089348715
 10
277.3096732923
 20
37.5785241978
 10
277.0624018901
 20
37.8212139982
 10
276.9948317225
 20
38.1000569509
 10
277.117249735
 20
38.3726017438
 10
277.3587487482
 20
38.5688594107
  0
LWPOLYLINE
  5
20C
330
1F
100
AcDbEntity
  8
0
  6
Continuous
 62
     7
370
    15
100
AcDbPolyline
 90
        7
 70
   128
 43
0.0
 10
279.126802943
 20
38.5688594107
 10
279.1758783989
 20
38.5388503319
 10
279.4231498011
 20
38.2961605314
 10
279.4907199687
 20
38.0173175788
 10
279.3683019562
 20
37.7447727858
 10
279.0745327963
 20
37.5200186267
 10
278.6541361805
 20
37.3772718846
  0
LWPOLYLINE
  5
20D
330
1F
100
AcDbEntity
  8
0
  6
Continuous
 62
     7
370
    15
100
AcDbPolyline
 90
       17
 70
   128
 43
0.0
 10
278.4895920465
 20
37.7519056382
 10
278.1997785479
 20
37.7285011817
 10
277.916510998
 20
37.7709034303
 10
277.6829143136
 20
37.8726570261
 10
277.5345514723
 20
38.0182709064
 10
277.4940093717
 20
38.1855766779
 10
277.5674601792
 20
38.3491035537
 10
277.7437216752
 20
38.4839560492
 10
277.9959596446
 20
38.5696040944
 10
278.2857731433
 20
38.5930085509
 10
278.5690406932
 20
38.5506063023
 10
278.8026373776
 20
38.4488527066
 10
278.9510002189
 20
38.3032388263
 10
278.9915423195
 20
38.1359330547
 10
278.918091512
 20
37.9724061789
 10
278.741830016
 20
37.8375536834
 10
278.4895920465
 20
37.7519056382
  0
SPLINE
  5
20E
330
1F
100
AcDbEntity
  8
0
  6
Continuous
 62
     7
370
    15
100
AcDbSpline
210
0.0
220
0.0
230
1.0
 70
     8
 71
     3
 72
    10
 73
     6
 74
     0
 42
0.000000001
 43
0.00000001
 40
0.0
 40
0.0
 40
0.0
 40
0.0
 40
0.4391119879276825
 40
0.7513633230734762
 40
1.0
 40
1.0
 40
1.0
 40
1.0
 10
278.9242650665577
 20
38.27474208372004
 30
0.0
 10
278.9049297679942
 20
38.18120137368624
 30
0.0
 10
278.8718451914381
 20
38.02114412026133
 30
0.0
 10
278.8237505991912
 20
37.90199503868084
 30
0.0
 10
278.7998122716443
 20
37.87669641967199
 30
0.0
 10
278.7892006235359
 20
37.8654817664332
 30
0.0
  0
SPLINE
  5
20F
330
1F
100
AcDbEntity
  8
0
  6
Continuous
 62
     7
370
    15
100
AcDbSpline
210
0.0
220
0.0
230
1.0
 70
     8
 71
     3
 72
    10
 73
     6
 74
     0
 42
0.000000001
 43
0.00000001
 40
0.0
 40
0.0
 40
0.0
 40
0.0
 40
0.4391119879276845
 40
0.7513633230734703
 40
1.0
 40
1.0
 40
1.0
 40
1.0
 10
278.3778402886187
 20
38.54689714661752
 30
0.0
 10
278.4560643273631
 20
38.47298388973812
 30
0.0
 10
278.5899132663833
 20
38.34651111779178
 30
0.0
 10
278.7844876214144
 20
38.27618333334355
 30
0.0
 10
278.8813339491476
 20
38.27518474781896
 30
0.0
 10
278.9242650665577
 20
38.27474208372004
 30
0.0
  0
SPLINE
  5
210
330
1F
100
AcDbEntity
  8
0
  6
Continuous
 62
     7
370
    15
100
AcDbSpline
210
0.0
220
0.0
230
1.0
 70
     8
 71
     3
 72
    11
 73
     7
 74
     0
 42
0.000000001
 43
0.00000001
 40
0.0
 40
0.0
 40
0.0
 40
0.0
 40
0.1849308168245034
 40
0.5198464202157138
 40
0.871443823369321
 40
0.9999999999999999
 40
0.9999999999999999
 40
0.9999999999999999
 40
0.9999999999999999
 10
277.696351067658
 20
38.40979189222815
 30
0.0
 10
277.7360170701587
 20
38.40184857543003
 30
0.0
 10
277.8475194674243
 20
38.37951965874081
 30
0.0
 10
278.0556599850613
 20
38.38832357459009
 30
0.0
 10
278.2478862691556
 20
38.46749374359462
 30
0.0
 10
278.3503947093358
 20
38.53012758148979
 30
0.0
 10
278.3778402886187
 20
38.54689714661752
 30
0.0
  0
SPLINE
  5
211
330
1F
100
AcDbEntity
  8
0
  6
Continuous
 62
     7
370
    15
100
AcDbSpline
210
0.0
220
0.0
230
1.0
 70
     8
 71
     3
 72
    10
 73
     6
 74
     0
 42
0.000000001
 43
0.00000001
 40
0.0
 40
0.0
 40
0.0
 40
0.0
 40
0.4391119879276928
 40
0.7513633230734783
 40
1.0
 40
1.0
 40
1.0
 40
1.0
 10
277.5612866246362
 20
38.00053157494131
 30
0.0
 10
277.5806219231997
 20
38.02416708461234
 30
0.0
 10
277.6137064997557
 20
38.06460974064814
 30
0.0
 10
277.6618010920027
 20
38.23692460979223
 30
0.0
 10
277.6857394195495
 20
38.35669759227871
 30
0.0
 10
277.696351067658
 20
38.40979189222815
 30
0.0
  0
SPLINE
  5
212
330
1F
100
AcDbEntity
  8
0
  6
Continuous
 62
     7
370
    15
100
AcDbSpline
210
0.0
220
0.0
230
1.0
 70
     8
 71
     3
 72
     9
 73
     5
 74
     0
 42
0.000000001
 43
0.00000001
 40
0.0
 40
0.0
 40
0.0
 40
0.0
 40
0.4329687838859166
 40
1.0
 40
1.0
 40
1.0
 40
1.0
 10
277.7997035026027
 20
37.81246298824206
 30
0.0
 10
277.7634604996804
 20
37.83261544940299
 30
0.0
 10
277.6797523796699
 20
37.8791602856844
 30
0.0
 10
277.6041535314686
 20
37.95661329875065
 30
0.0
 10
277.5612866246362
 20
38.00053157494131
 30
0.0
  0
LINE
  5
213
330
1F
100
AcDbEntity
  8
0
  6
Continuous
 62
     7
370
    15
100
AcDbLine
 10
277.6963510677
 20
37.8763313563
 30
0.0
 11
277.6963510677
 21
38.4097918922
 31
0.0
  0
LINE
  5
214
330
1F
100
AcDbEntity
  8
0
  6
Continuous
 62
     7
370
    15
100
AcDbLine
 10
278.3778402886
 20
37.7348676904
 30
0.0
 11
278.3778402886
 21
38.5468971466
 31
0.0
  0
ARC
  5
215
330
1F
100
AcDbEntity
  8
0
  6
Continuous
 62
     7
370
    15
100
AcDbCircle
 10
279.5200340517
 20
51.1504190158
 30
0.0
 40
8.684059238293695
100
AcDbArc
 50
34.8054510415
 51
84.8423200841
  0
ARC
  5
216
330
1F
100
AcDbEntity
  8
0
  6
Continuous
 62
     7
370
    15
100
AcDbCircle
 10
263.2129138871
 20
22.904371658
 30
0.0
 40
8.684779380439453
100
AcDbArc
 50
214.8484415773
 51
264.9829834624
  0
LWPOLYLINE
  5
217
330
1F
100
AcDbEntity
  8
0
  6
Continuous
 62
     7
370
    15
100
AcDbPolyline
 90
        9
 70
   128
 43
0.0
 10
256.6486307146
 20
16.6566779017
 10
256.4823074515
 20
16.7552839125
 10
255.4914130636
 20
17.4617391042
 10
254.5969919579
 20
18.3154605371
 10
253.8053627096
 20
19.3104171558
 10
253.1221177281
 20
20.439580159
 10
252.5520837499
 20
21.6949726535
 10
252.0992877401
 20
23.0677260071
 10
251.7669284443
 20
24.5481424996
  0
SPLINE
  5
218
330
1F
100
AcDbEntity
  8
0
  6
Continuous
 62
     7
370
    15
100
AcDbSpline
210
0.0
220
0.0
230
1.0
 70
     8
 71
     3
 72
    32
 73
    28
 74
     0
 42
0.000000001
 43
0.00000001
 40
0.0
 40
0.0
 40
0.0
 40
0.0
 40
0.0193254758647258
 40
0.0385826927399014
 40
0.0577846348003733
 40
0.0769443985950771
 40
0.0960751672943215
 40
0.1151901840580798
 40
0.1343027247879751
 40
0.1534260705402312
 40
0.172573479885108
 40
0.1917581614995186
 40
0.2109932472740069
 40
0.2302917662029109
 40
0.2496666193081449
 40
0.3745846283005043
 40
0.4997410234224777
 40
0.4999962720873377
 40
0.6248627021449072
 40
0.7503411293897363
 40
0.7861451323127985
 40
0.8217618640028611
 40
0.8572756267732794
 40
0.8927714566788081
 40
0.9283345184945242
 40
0.9640494961196089
 40
1.0
 40
1.0
 40
1.0
 40
1.0
 10
251.7668731682915
 20
31.99996726605232
 30
0.0
 10
251.7888163855792
 20
31.93987622233835
 30
0.0
 10
251.8326253151115
 20
31.81990638085734
 30
0.0
 10
251.8950645663334
 20
31.63915882675021
 30
0.0
 10
251.9549731938601
 20
31.4583154303348
 30
0.0
 10
252.0121597794937
 20
31.27730831479476
 30
0.0
 10
252.0667178507017
 20
31.09617891247372
 30
0.0
 10
252.1186655972924
 20
30.91494039514284
 30
0.0
 10
252.1680420767553
 20
30.73361444093294
 30
0.0
 10
252.2148814582029
 20
30.55222136419712
 30
0.0
 10
252.2592200645485
 20
30.37078300879395
 30
0.0
 10
252.3010939077718
 20
30.18932111982005
 30
0.0
 10
252.3405414989603
 20
30.00786106736665
 30
0.0
 10
252.3775950183206
 20
29.82641862167335
 30
0.0
 10
252.4752871179548
 20
29.31606766993126
 30
0.0
 10
252.5927833167881
 20
28.48946614124302
 30
0.0
 10
252.6276347529087
 20
27.77414664594965
 30
0.0
 10
252.6280305770828
 20
27.0974346810487
 30
0.0
 10
252.5929792260365
 20
26.45574355695106
 30
0.0
 10
252.4680451458654
 20
25.83444261817073
 30
0.0
 10
252.3473189649925
 20
25.4618185161802
 30
0.0
 10
252.2730115524698
 20
25.27302181503769
 30
0.0
 10
252.1900980812378
 20
25.09883053207055
 30
0.0
 10
252.0983992802284
 20
24.93901436200518
 30
0.0
 10
251.9974972126064
 20
24.79381048939536
 30
0.0
 10
251.8879443158073
 20
24.66176352927818
 30
0.0
 10
251.8074160179063
 20
24.58606404434661
 30
0.0
 10
251.7670195421505
 20
24.54808990994318
 30
0.0
  0
LWPOLYLINE
  5
219
330
1F
100
AcDbEntity
  8
0
  6
Continuous
 62
     7
370
    15
100
AcDbPolyline
 90
       27
 70
   128
 43
0.0
 10
251.766873168
 20
31.9999672662
 10
252.099212508
 20
33.8641331285
 10
252.5519920664
 20
35.7596924421
 10
253.1220131349
 20
37.6732538302
 10
253.8052487401
 20
39.5912987386
 10
254.5968720927
 20
41.5002769389
 10
255.4912906869
 20
43.3867022551
 10
256.4821858091
 20
45.2372478388
 10
257.5625571773
 20
47.0388403173
 10
258.7247723952
 20
48.7787521526
 10
259.960620872
 20
50.4446915557
 10
261.2613718271
 20
52.024889324
 10
262.6178359696
 20
53.5081819852
 10
264.020430417
 20
54.8840906635
 10
265.4592463942
 20
56.1428951083
 10
266.9241192356
 20
57.2757023642
 10
268.4047001942
 20
58.2745095962
 10
269.890529551
 20
59.1322606261
 10
271.3711105095
 20
59.8428957824
 10
272.835983351
 20
60.4013947087
 10
274.2747993282
 20
60.8038118311
 10
275.6773937755
 20
61.0473042318
 10
277.033857918
 20
61.1301517333
 10
278.3346088732
 20
61.0517690508
 10
279.57045735
 20
60.8127099269
 10
280.7326725679
 20
60.4146632198
 10
281.6465990305
 20
59.9591210207
  0
SPLINE
  5
21A
330
1F
100
AcDbEntity
  8
0
  6
Continuous
 62
     7
370
    15
100
AcDbSpline
210
0.0
220
0.0
230
1.0
 70
     8
 71
     3
 72
     8
 73
     4
 74
     0
 42
0.000000001
 43
0.00000001
 40
0.0
 40
0.0
 40
0.0
 40
0.0
 40
1.0
 40
1.0
 40
1.0
 40
1.0
 10
250.8048798892354
 20
37.43530498397873
 30
0.0
 10
249.6352534692975
 20
37.239748810736
 30
0.0
 10
248.4646502264376
 20
37.04616384401607
 30
0.0
 10
247.2934187447848
 20
36.85388439476981
 30
0.0
  0
SPLINE
  5
21B
330
1F
100
AcDbEntity
  8
0
  6
Continuous
 62
     7
370
    15
100
AcDbSpline
210
0.0
220
0.0
230
1.0
 70
     8
 71
     3
 72
     8
 73
     4
 74
     0
 42
0.000000001
 43
0.00000001
 40
0.0
 40
0.0
 40
0.0
 40
0.0
 40
0.0012417047560385
 40
0.0012417047560385
 40
0.0012417047560385
 40
0.0012417047560385
 10
246.8189181411351
 20
37.12785981564967
 30
0.0
 10
246.9771892815955
 20
37.03647449089173
 30
0.0
 10
247.1353585872747
 20
36.94514794348812
 30
0.0
 10
247.2934187447848
 20
36.85388439476981
 30
0.0
  0
LWPOLYLINE
  5
21C
330
1F
100
AcDbEntity
  8
0
  6
Continuous
 62
     7
370
    15
100
AcDbPolyline
 90
       29
 70
   128
 43
0.0
 10
246.8189181411
 20
37.1278598156
 10
247.2803652306
 20
39.0133197767
 10
247.8571738003
 20
40.9152778128
 10
248.5453223101
 20
42.8204733719
 10
249.3400129523
 20
44.7156233292
 10
250.2357051015
 20
46.5875145987
 10
251.2261539444
 20
48.4230962552
 10
252.3044540192
 20
50.209570526
 10
253.4630873605
 20
51.9344820176
 10
254.6939759153
 20
53.5858045556
 10
255.9885378632
 20
55.1520250317
 10
257.3377474496
 20
56.6222236736
 10
258.7321979137
 20
57.9861501783
 10
260.1621670728
 20
59.2342951779
 10
261.6176851062
 20
60.3579565393
 10
263.0886040648
 20
61.3493000357
 10
264.5646686236
 20
62.2014139677
 10
266.0355875821
 20
62.9083573518
 10
267.4911056155
 20
63.4652013412
 10
268.9210747746
 20
63.8680635901
 10
270.3155252387
 20
64.1141353214
 10
271.6647348251
 20
64.20170091
 10
272.959296773
 20
64.130149844
 10
274.1901853278
 20
63.8999809812
 10
275.3488186691
 20
63.5127990712
 10
276.4271187439
 20
62.9713035667
 10
277.4175675869
 20
62.2792698031
 10
278.313259736
 20
61.4415226766
 10
278.6997707885
 20
60.9989813799
  0
LINE
  5
21D
330
1F
100
AcDbEntity
  8
0
  6
Continuous
 62
     7
370
    15
100
AcDbLine
 10
242.691182306
 20
39.510750992
 30
0.0
 11
246.8189181411
 21
37.1278598156
 31
0.0
  0
ARC
  5
21E
330
1F
100
AcDbEntity
  8
0
  6
Continuous
 62
     7
370
    15
100
AcDbCircle
 10
267.8074674779
 20
57.6803637157
 30
0.0
 40
8.89274936215953
100
AcDbArc
 50
60.4154415272
 51
84.6559311562
  0
SPLINE
  5
21F
330
1F
100
AcDbEntity
  8
0
  6
Continuous
 62
     7
370
    15
100
AcDbSpline
210
0.0
220
0.0
230
1.0
 70
     8
 71
     3
 72
    13
 73
     9
 74
     0
 42
0.000000001
 43
0.00000001
 40
0.0
 40
0.0
 40
0.0
 40
0.0
 40
0.1935905955793179
 40
0.3928012754939435
 40
0.5863901717872405
 40
0.7855816257787926
 40
0.9793802664225978
 40
1.0
 40
1.0
 40
1.0
 40
1.0
 10
260.5262446779997
 20
52.33036747242515
 30
0.0
 10
260.5773509033882
 20
52.30443914214681
 30
0.0
 10
260.681047007314
 20
52.25182976215973
 30
0.0
 10
260.8605019440681
 20
52.20681943045306
 30
0.0
 10
261.0537308893478
 20
52.18709605614005
 30
0.0
 10
261.2533939481472
 20
52.19895787985576
 30
0.0
 10
261.3972655374521
 20
52.21969143503459
 30
0.0
 10
261.4698585115683
 20
52.24320623401097
 30
0.0
 10
261.4768394794602
 20
52.24546755555946
 30
0.0
  0
LWPOLYLINE
  5
220
330
1F
100
AcDbEntity
  8
0
  6
Continuous
 62
     7
370
    15
100
AcDbPolyline
 90
       25
 70
   128
 43
0.0
 10
262.5608546439
 20
53.4238568035
 10
262.5423615845
 20
53.5484617598
 10
262.485110668
 20
53.6918793669
 10
262.3975034963
 20
53.8173069527
 10
262.2769117564
 20
53.9285741148
 10
262.133665951
 20
54.016313239
 10
261.9634668604
 20
54.083254177
 10
261.7807835661
 20
54.1236657447
 10
261.5803267094
 20
54.1385841672
 10
261.3787340789
 20
54.1264777742
 10
261.1705619844
 20
54.0866488443
 10
260.9731265553
 20
54.0220189372
 10
260.7811110117
 20
53.9304397918
 10
260.6108579416
 20
53.8194441982
 10
260.4573878992
 20
53.6856097232
 10
260.3338081057
 20
53.5403783737
 10
260.2362761604
 20
53.3794367379
 10
260.1729047548
 20
53.2164478234
 10
260.1417570945
 20
53.0469710695
 10
260.1453450308
 20
52.8852409035
 10
260.18371708
 20
52.727188061
 10
260.2536011864
 20
52.5862803513
 10
260.3569114949
 20
52.4588388412
 10
260.526244678
 20
52.3303674724
 10
260.526244678
 20
52.3303674724
  0
SPLINE
  5
221
330
1F
100
AcDbEntity
  8
0
  6
Continuous
 62
     7
370
    15
100
AcDbSpline
210
0.0
220
0.0
230
1.0
 70
     8
 71
     3
 72
    10
 73
     6
 74
     0
 42
0.000000001
 43
0.00000001
 40
0.0
 40
0.0
 40
0.0
 40
0.0
 40
0.199265986756844
 40
0.6713473065754069
 40
1.0
 40
1.0
 40
1.0
 40
1.0
 10
252.6484774755599
 20
36.04508949677807
 30
0.0
 10
252.5636138469139
 20
36.15622723571391
 30
0.0
 10
252.2776996804024
 20
36.53066154288194
 30
0.0
 10
251.7858495702141
 20
36.98065724220061
 30
0.0
 10
251.3688423917428
 20
37.26213074478693
 30
0.0
 10
251.1976862648452
 20
37.37765852707505
 30
0.0
  0
SPLINE
  5
222
330
1F
100
AcDbEntity
  8
0
  6
Continuous
 62
     7
370
    15
100
AcDbSpline
210
0.0
220
0.0
230
1.0
 70
     8
 71
     3
 72
    10
 73
     6
 74
     0
 42
0.000000001
 43
0.00000001
 40
0.0
 40
0.0
 40
0.0
 40
0.0
 40
0.5
 40
0.5
 40
1.0
 40
1.0
 40
1.0
 40
1.0
 10
251.061756917613
 20
37.43018850888437
 30
0.0
 10
251.0211816092181
 20
37.43901303021133
 30
0.0
 10
250.9776072661644
 20
37.44396610612002
 30
0.0
 10
250.8898045391776
 20
37.44555129138614
 30
0.0
 10
250.8468364222558
 20
37.4423199238776
 30
0.0
 10
250.8048798892354
 20
37.43530498397872
 30
0.0
  0
SPLINE
  5
223
330
1F
100
AcDbEntity
  8
0
  6
Continuous
 62
     7
370
    15
100
AcDbSpline
210
0.0
220
0.0
230
1.0
 70
     8
 71
     3
 72
     8
 73
     4
 74
     0
 42
0.000000001
 43
0.00000001
 40
0.0
 40
0.0
 40
0.0
 40
0.0
 40
1.0
 40
1.0
 40
1.0
 40
1.0
 10
251.1976862648452
 20
37.37765852707505
 30
0.0
 10
251.159204323009
 20
37.40132933687092
 30
0.0
 10
251.1130966712621
 20
37.41902288208036
 30
0.0
 10
251.0617569176131
 20
37.43018850888442
 30
0.0
  0
SPLINE
  5
224
330
1F
100
AcDbEntity
  8
0
  6
Continuous
 62
     7
370
    15
100
AcDbSpline
210
0.0
220
0.0
230
1.0
 70
     8
 71
     3
 72
    10
 73
     6
 74
     0
 42
0.000000001
 43
0.00000001
 40
0.0
 40
0.0
 40
0.0
 40
0.0
 40
0.5
 40
0.5
 40
1.0
 40
1.0
 40
1.0
 40
1.0
 10
242.5344853861478
 20
39.60119887521279
 30
0.0
 10
242.5455359844979
 20
39.59482304066866
 30
0.0
 10
242.5641559304373
 20
39.58407679916326
 30
0.0
 10
242.6174558804979
 20
39.55331132632331
 30
0.0
 10
242.6510366532192
 20
39.53392658405236
 30
0.0
 10
242.6911823059586
 20
39.5107509920322
 30
0.0
  0
LINE
  5
225
330
1F
100
AcDbEntity
  8
0
  6
Continuous
 62
     7
370
    15
100
AcDbLine
 10
242.5344853861
 20
39.6011988752
 30
0.0
 11
242.5587936429
 21
39.7528378624
 31
0.0
  0
SPLINE
  5
226
330
1F
100
AcDbEntity
  8
0
  6
Continuous
 62
     7
370
    15
100
AcDbSpline
210
0.0
220
0.0
230
1.0
 70
     8
 71
     3
 72
     9
 73
     5
 74
     0
 42
0.000000001
 43
0.00000001
 40
0.0
 40
0.0
 40
0.0
 40
0.0
 40
0.5377956222894344
 40
1.0
 40
1.0
 40
1.0
 40
1.0
 10
251.1976862648452
 20
26.88830246413195
 30
0.0
 10
251.4377524382926
 20
26.76153641659046
 30
0.0
 10
251.8841416677651
 20
26.52582224881453
 30
0.0
 10
252.2757478252081
 20
26.41017760980028
 30
0.0
 10
252.4567499055166
 20
26.35672615138914
 30
0.0
  0
SPLINE
  5
227
330
1F
100
AcDbEntity
  8
0
  6
Continuous
 62
     7
370
    15
100
AcDbSpline
210
0.0
220
0.0
230
1.0
 70
     8
 71
     3
 72
     8
 73
     4
 74
     0
 42
0.000000001
 43
0.00000001
 40
0.0
 40
0.0
 40
0.0
 40
0.0
 40
1.0
 40
1.0
 40
1.0
 40
1.0
 10
251.0617569176136
 20
26.93763907615237
 30
0.0
 10
251.1130852996107
 20
26.92647592251208
 30
0.0
 10
251.159205863715
 20
26.90976191821037
 30
0.0
 10
251.1976862648452
 20
26.88830246413198
 30
0.0
  0
SPLINE
  5
228
330
1F
100
AcDbEntity
  8
0
  6
Continuous
 62
     7
370
    15
100
AcDbSpline
210
0.0
220
0.0
230
1.0
 70
     8
 71
     3
 72
    12
 73
     8
 74
     0
 42
0.000000001
 43
0.00000001
 40
0.0
 40
0.0
 40
0.0
 40
0.0
 40
0.1882390091646456
 40
0.3552108137215437
 40
0.5009575804481068
 40
0.7563190982906866
 40
1.0
 40
1.0
 40
1.0
 40
1.0
 10
251.8776734339454
 20
25.27206406685064
 30
0.0
 10
251.9667169637274
 20
25.3663457194067
 30
0.0
 10
252.1347439035782
 20
25.54425710277016
 30
0.0
 10
252.3146532996007
 20
25.89157414772576
 30
0.0
 10
252.4761771169483
 20
26.35222798290432
 30
0.0
 10
252.6019310369945
 20
26.97375633871219
 30
0.0
 10
252.619233619538
 20
27.55705734462278
 30
0.0
 10
252.6276824181791
 20
27.84188145880505
 30
0.0
  0
SPLINE
  5
229
330
1F
100
AcDbEntity
  8
0
  6
Continuous
 62
     7
370
    15
100
AcDbSpline
210
0.0
220
0.0
230
1.0
 70
     8
 71
     3
 72
     9
 73
     5
 74
     0
 42
0.000000001
 43
0.00000001
 40
0.0
 40
0.0
 40
0.0
 40
0.0
 40
0.5048005003628353
 40
1.0
 40
1.0
 40
1.0
 40
1.0
 10
251.7669390219145
 20
24.54803954658953
 30
0.0
 10
251.7854839202483
 20
24.66975342263413
 30
0.0
 10
251.8222210041465
 20
24.91086625029002
 30
0.0
 10
251.8593181155024
 20
25.15237248353719
 30
0.0
 10
251.8776885864838
 20
25.27196624940045
 30
0.0
  0
LWPOLYLINE
  5
22A
330
1F
100
AcDbEntity
  8
0
  6
Continuous
 62
     7
370
    15
100
AcDbPolyline
 90
       38
 70
   128
 43
0.0
 10
280.558550554
 20
36.742232502
 10
279.8236155536
 20
36.2457306002
 10
279.1098232951
 20
35.6190462404
 10
278.4377082822
 20
34.8802079905
 10
277.82660604
 20
34.0504708819
 10
277.2940968674
 20
33.1537049404
 10
276.8555000838
 20
32.2157084895
 10
276.5234333201
 20
31.2634659792
 10
276.3074495326
 20
30.3243716928
 10
276.2137621814
 20
29.4254416631
 10
276.2450664812
 20
28.5925364704
 10
276.4004618642
 20
27.8496172807
 10
276.6754778882
 20
27.2180565263
 10
277.0622028429
 20
26.7160230603
 10
277.5495113555
 20
26.3579594716
 10
278.1233844473
 20
26.1541665975
 10
278.7673128342
 20
26.110507188
 10
279.4627718691
 20
26.228237245
 10
280.1897544617
 20
26.5039698889
 10
280.9273466463
 20
26.9297727936
 10
281.6543292389
 20
27.4933963849
 10
282.3497882737
 20
28.1786262381
 10
282.9937166607
 20
28.9657495381
 10
283.5675897525
 20
29.8321221805
 10
284.054898265
 20
30.7528202019
 10
284.4416232198
 20
31.7013567965
 10
284.7166392438
 20
32.6504442934
 10
284.8720346268
 20
33.5727791734
 10
284.9033389266
 20
34.4418275413
 10
284.8096515754
 20
35.2325884578
 10
284.5936677878
 20
35.922313171
 10
284.2616010241
 20
36.4911595568
 10
283.8230042406
 20
36.9227629403
 10
283.290495068
 20
37.204706878
 10
282.6793928258
 20
37.3288803561
 10
282.0072778128
 20
37.2917111298
 10
281.2934855543
 20
37.09426849
 10
280.558550554
 20
36.742232502
  0
LWPOLYLINE
  5
22B
330
1F
100
AcDbEntity
  8
0
  6
Continuous
 62
     7
370
    15
100
AcDbPolyline
 90
       21
 70
   128
 43
0.0
 10
280.4878398759
 20
36.8647069888
 10
279.7604276825
 20
36.3751774155
 10
279.0528573976
 20
35.759794028
 10
278.384429694
 20
35.0353428808
 10
277.7733775369
 20
34.2215851128
 10
277.2363688364
 20
33.3407179145
 10
276.7880517899
 20
32.416769047
 10
276.4406553177
 20
31.4749414266
 10
276.2036554901
 20
30.5409256559
 10
276.0835170444
 20
29.6401992501
 10
276.0835170444
 20
28.7973316776
 10
276.2036554901
 20
28.0353141687
 10
276.4406553177
 20
27.3749325744
 10
276.7880517899
 20
26.8342003833
 10
277.2363688364
 20
26.4278673599
 10
277.7733775369
 20
26.1670172098
 10
278.384429694
 20
26.0587652453
 10
279.0528573976
 20
26.1060642975
 10
279.7604276825
 20
26.3076241718
 10
280.4878398759
 20
26.6579468402
 10
280.4885581555
 20
26.6583615616
  0
LWPOLYLINE
  5
22C
330
1F
100
AcDbEntity
  8
0
  6
Continuous
 62
     7
370
    15
100
AcDbPolyline
 90
       11
 70
   128
 43
0.0
 10
284.9072572583
 20
34.312602264
 10
284.8921627073
 20
34.7253221514
 10
284.7720242617
 20
35.4873396603
 10
284.535024434
 20
36.1477212546
 10
284.1876279619
 20
36.6884534457
 10
283.7393109154
 20
37.0947864691
 10
283.2023022148
 20
37.3556366192
 10
282.5912500578
 20
37.4638885838
 10
281.9228223541
 20
37.4165895315
 10
281.2152520692
 20
37.2150296572
 10
280.4878398759
 20
36.8647069888
  0
SPLINE
  5
22D
330
1F
100
AcDbEntity
  8
0
  6
Continuous
 62
     7
370
    15
100
AcDbSpline
210
0.0
220
0.0
230
1.0
 70
    11
 71
     3
 72
    64
 73
    60
 74
     0
 42
0.000000001
 43
0.00000001
 40
0.0
 40
0.0
 40
0.0
 40
0.0
 40
0.03125
 40
0.03125
 40
0.0625
 40
0.0625
 40
0.0937499999999999
 40
0.0937499999999999
 40
0.1249999999999999
 40
0.1249999999999999
 40
0.1562499999999999
 40
0.1562499999999999
 40
0.1874999999999999
 40
0.1874999999999999
 40
0.2187499999999999
 40
0.2187499999999999
 40
0.2499999999999998
 40
0.2499999999999998
 40
0.2812499999999998
 40
0.2812499999999998
 40
0.3124999999999998
 40
0.3124999999999998
 40
0.3437499999999998
 40
0.3437499999999998
 40
0.3749999999999998
 40
0.3749999999999998
 40
0.4062499999999997
 40
0.4062499999999997
 40
0.4374999999999997
 40
0.4374999999999997
 40
0.4687499999999997
 40
0.4687499999999997
 40
0.4999999999999997
 40
0.4999999999999997
 40
0.5312499999999997
 40
0.5312499999999997
 40
0.5624999999999997
 40
0.5624999999999997
 40
0.6249999999999996
 40
0.6249999999999996
 40
0.6874999999999996
 40
0.6874999999999996
 40
0.7187499999999996
 40
0.7187499999999996
 40
0.7499999999999996
 40
0.7499999999999996
 40
0.7812499999999994
 40
0.7812499999999994
 40
0.8124999999999994
 40
0.8124999999999994
 40
0.8437499999999994
 40
0.8437499999999994
 40
0.8749999999999994
 40
0.8749999999999994
 40
0.9062499999999994
 40
0.9062499999999994
 40
0.9374999999999993
 40
0.9374999999999993
 40
1.0
 40
1.0
 40
1.0
 40
1.0
 10
278.2353743349418
 20
38.91475450051797
 30
0.0
 10
278.3288332517965
 20
38.90158784710522
 30
0.0
 10
278.4199335735689
 20
38.88370618311539
 30
0.0
 10
278.5979186789104
 20
38.84012911818236
 30
0.0
 10
278.6853936803545
 20
38.81421005578616
 30
0.0
 10
278.8533428212468
 20
38.7559922610593
 30
0.0
 10
278.9327850486519
 20
38.72412227006424
 30
0.0
 10
279.0829952436956
 20
38.65549643682946
 30
0.0
 10
279.1543683121188
 20
38.61835229928391
 30
0.0
 10
279.2843751355427
 20
38.54118555166481
 30
0.0
 10
279.3430523604422
 20
38.50126278747459
 30
0.0
 10
279.4478482733534
 20
38.41856683986719
 30
0.0
 10
279.4943040788855
 20
38.37534510278366
 30
0.0
 10
279.5710434428458
 20
38.2882208843979
 30
0.0
 10
279.601638860611
 20
38.24422770920221
 30
0.0
 10
279.6468818201851
 20
38.15460200465417
 30
0.0
 10
279.6614934052995
 20
38.10848690176095
 30
0.0
 10
279.6723434766461
 20
38.01721757528729
 30
0.0
 10
279.6689101983522
 20
37.97179202507558
 30
0.0
 10
279.6431487829541
 20
37.88042494657155
 30
0.0
 10
279.6203477197157
 20
37.83413961011449
 30
0.0
 10
279.5564212335158
 20
37.74498410323723
 30
0.0
 10
279.5152931356639
 20
37.70154835072541
 30
0.0
 10
279.413146997491
 20
37.61658093187327
 30
0.0
 10
279.3529482701096
 20
37.57594194474652
 30
0.0
 10
279.2185120862034
 20
37.50084728234242
 30
0.0
 10
279.1425980649665
 20
37.4655469739354
 30
0.0
 10
278.9814149708688
 20
37.40334520991268
 30
0.0
 10
278.896320693465
 20
37.37630470071172
 30
0.0
 10
278.7174042152948
 20
37.33062856963466
 30
0.0
 10
278.6255658602611
 20
37.3125618951881
 30
0.0
 10
278.440451438545
 20
37.2864875109068
 30
0.0
 10
278.3458106716873
 20
37.27838526847592
 30
0.0
 10
278.1603851032153
 20
37.27302612767335
 30
0.0
 10
278.0691346243882
 20
37.27560879161388
 30
0.0
 10
277.8893497840673
 20
37.29172903153162
 30
0.0
 10
277.8015420694056
 20
37.30531497792164
 30
0.0
 10
277.551303993819
 20
37.36163450488313
 30
0.0
 10
277.397022335941
 20
37.42151015169546
 30
0.0
 10
277.1380484131946
 20
37.57717846531995
 30
0.0
 10
277.0300925901691
 20
37.67498268974762
 30
0.0
 10
276.9152163826605
 20
37.83775912288109
 30
0.0
 10
276.8840694432015
 20
37.89539357478798
 30
0.0
 10
276.8384086897827
 20
38.01468729933872
 30
0.0
 10
276.8241826073516
 20
38.07526496779194
 30
0.0
 10
276.8132188292413
 20
38.1975186124798
 30
0.0
 10
276.8166353521953
 20
38.25989063870137
 30
0.0
 10
276.8427048974751
 20
38.38158793777401
 30
0.0
 10
276.8649883128261
 20
38.44028074788611
 30
0.0
 10
276.9288576757099
 20
38.55242848045059
 30
0.0
 10
276.9712788459827
 20
38.60650101547778
 30
0.0
 10
277.0729607902754
 20
38.70297436943397
 30
0.0
 10
277.1322048792698
 20
38.74591084848339
 30
0.0
 10
277.2681985911614
 20
38.82057659828708
 30
0.0
 10
277.3436798600337
 20
38.85140045706898
 30
0.0
 10
277.5044623136482
 20
38.89903467824117
 30
0.0
 10
277.5914791706137
 20
38.91623940146872
 30
0.0
 10
277.85836326155
 20
38.94714670493146
 30
0.0
 10
278.0484565012324
 20
38.94108780734347
 30
0.0
 10
278.2353743349418
 20
38.91475450051797
 30
0.0
  0
LINE
  5
22E
330
1F
100
AcDbEntity
  8
0
  6
Continuous
 62
     7
370
    15
100
AcDbLine
 10
282.9772499514
 20
31.7652290783
 30
0.0
 11
283.8377582517
 21
32.8356932232
 31
0.0
  0
SPLINE
  5
22F
330
1F
100
AcDbEntity
  8
0
  6
Continuous
 62
     7
370
    15
100
AcDbSpline
210
0.0
220
0.0
230
1.0
 70
     8
 71
     3
 72
    22
 73
    18
 74
     0
 42
0.000000001
 43
0.00000001
 40
0.0
 40
0.0
 40
0.0
 40
0.0
 40
0.0416666666666662
 40
0.0833333333333335
 40
0.1250000000000033
 40
0.1666666666666681
 40
0.2083333333333338
 40
0.2499999999999221
 40
0.2968749999997846
 40
0.34375
 40
0.390625
 40
0.4375
 40
0.4863049253904979
 40
0.4863049253904979
 40
0.53125
 40
0.6249999999999818
 40
0.82897913399167
 40
0.82897913399167
 40
0.82897913399167
 40
0.82897913399167
 10
283.8377582517402
 20
32.83569322324654
 30
0.0
 10
283.8721699303334
 20
32.8785010242708
 30
0.0
 10
283.939431565636
 20
32.97033345161555
 30
0.0
 10
284.0334707959067
 20
33.12642512019742
 30
0.0
 10
284.1163165951998
 20
33.299061037653
 30
0.0
 10
284.1822589902605
 20
33.48277544653607
 30
0.0
 10
284.2254961985607
 20
33.66954488084376
 30
0.0
 10
284.2421519964553
 20
33.8576247975978
 30
0.0
 10
284.2252316221558
 20
34.03437042185496
 30
0.0
 10
284.1705232695724
 20
34.18551322054486
 30
0.0
 10
284.0842725142399
 20
34.29663693126863
 30
0.0
 10
283.9705445204038
 20
34.36703598963116
 30
0.0
 10
283.8867128643179
 20
34.38693053807634
 30
0.0
 10
283.8053153272533
 20
34.39472593009683
 30
0.0
 10
283.698030441872
 20
34.40350566057442
 30
0.0
 10
283.5105792383009
 20
34.42094879348733
 30
0.0
 10
283.202423451117
 20
34.44846783686298
 30
0.0
 10
282.9771517106125
 20
34.46853251939982
 30
0.0
  0
SPLINE
  5
230
330
1F
100
AcDbEntity
  8
0
  6
Continuous
 62
     7
370
    15
100
AcDbSpline
210
0.0
220
0.0
230
1.0
 70
     8
 71
     3
 72
    22
 73
    18
 74
     0
 42
0.000000001
 43
0.00000001
 40
0.0
 40
0.0
 40
0.0
 40
0.0
 40
0.0416666666666662
 40
0.0833333333333335
 40
0.1250000000000033
 40
0.1666666666666681
 40
0.2083333333333338
 40
0.2499999999999221
 40
0.2968749999997846
 40
0.34375
 40
0.390625
 40
0.4375
 40
0.4863049253904979
 40
0.4863049253904979
 40
0.53125
 40
0.6249999999999818
 40
0.8265829076565241
 40
0.8265829076565241
 40
0.8265829076565241
 40
0.8265829076565241
 10
277.2793428562255
 20
29.04960060466327
 30
0.0
 10
277.2457351872168
 20
29.05260563670685
 30
0.0
 10
277.1772964003615
 20
29.06688468820733
 30
0.0
 10
277.0837302945709
 20
29.11435866735042
 30
0.0
 10
277.0007577246865
 20
29.19135419908866
 30
0.0
 10
276.9348492875109
 20
29.29893009191471
 30
0.0
 10
276.8916030182615
 20
29.4357797592029
 30
0.0
 10
276.8749496015249
 20
29.6046289290944
 30
0.0
 10
276.8918697258611
 20
29.80091109020795
 30
0.0
 10
276.94657637856
 20
30.0152164156585
 30
0.0
 10
277.0328341930076
 20
30.22593198431742
 30
0.0
 10
277.1465352860821
 20
30.42760510669126
 30
0.0
 10
277.2304361196987
 20
30.54437568052425
 30
0.0
 10
277.311857285156
 20
30.64618006326388
 30
0.0
 10
277.4191169711057
 20
30.77879694266106
 30
0.0
 10
277.6039065573397
 20
31.00935082761584
 30
0.0
 10
277.9159476060255
 20
31.39749748682173
 30
0.0
 10
278.1399509826203
 20
31.67607976040308
 30
0.0
  0
LINE
  5
231
330
1F
100
AcDbEntity
  8
0
  6
Continuous
 62
     7
370
    15
100
AcDbLine
 10
278.1398511566
 20
28.9726581956
 30
0.0
 11
277.2793428562
 21
29.0496006047
 31
0.0
  0
LINE
  5
232
330
1F
100
AcDbEntity
  8
0
  6
Continuous
 62
     7
370
    15
100
AcDbLine
 10
242.9685524863
 20
39.3505765422
 30
0.0
 11
242.5344853861
 21
39.6011988752
 31
0.0
  0
LINE
  5
233
330
1F
100
AcDbEntity
  8
0
  6
Continuous
 62
     7
370
    15
100
AcDbLine
 10
247.2934187448
 20
36.8538843948
 30
0.0
 11
242.9685524863
 21
39.3505765422
 31
0.0
  0
SPLINE
  5
234
330
1F
100
AcDbEntity
  8
0
  6
Continuous
 62
     7
370
    15
100
AcDbSpline
210
0.0
220
0.0
230
1.0
 70
     8
 71
     3
 72
    11
 73
     7
 74
     0
 42
0.000000001
 43
0.00000001
 40
0.0
 40
0.0
 40
0.0
 40
0.0
 40
0.3181896030990278
 40
0.6363835945670823
 40
0.954614030219678
 40
1.0
 40
1.0
 40
1.0
 40
1.0
 10
277.2086321781116
 20
29.31349083871283
 30
0.0
 10
277.1497565863903
 20
29.32796439041186
 30
0.0
 10
277.0320045909542
 20
29.35691169342452
 30
0.0
 10
276.9233737564351
 20
29.51775879709777
 30
0.0
 10
276.8717006530333
 20
29.67005536382916
 30
0.0
 10
276.8837812704726
 20
29.7703898188931
 30
0.0
 10
276.8852891522124
 20
29.78291339175015
 30
0.0
  0
SPLINE
  5
235
330
1F
100
AcDbEntity
  8
0
  6
Continuous
 62
     7
370
    15
100
AcDbSpline
210
0.0
220
0.0
230
1.0
 70
     8
 71
     3
 72
    13
 73
     9
 74
     0
 42
0.000000001
 43
0.00000001
 40
0.0
 40
0.0
 40
0.0
 40
0.0
 40
0.0288402376854876
 40
0.1721961094577878
 40
0.4144071488382385
 40
0.6370626527581399
 40
0.8650557730763179
 40
1.0
 40
1.0
 40
1.0
 40
1.0
 10
278.264223053042
 20
31.85172308454976
 30
0.0
 10
278.2641835601484
 20
31.85110616254076
 30
0.0
 10
278.2639477603357
 20
31.84742271266959
 30
0.0
 10
278.2521608926557
 20
31.8268320677627
 30
0.0
 10
278.2295016252244
 20
31.79256458440359
 30
0.0
 10
278.1965427174174
 20
31.74804244823204
 30
0.0
 10
278.1666123851822
 20
31.70940401840722
 30
0.0
 10
278.1471772037623
 20
31.68511186053996
 30
0.0
 10
278.1399509826203
 20
31.67607976040308
 30
0.0
  0
SPLINE
  5
236
330
1F
100
AcDbEntity
  8
0
  6
Continuous
 62
     7
370
    15
100
AcDbSpline
210
0.0
220
0.0
230
1.0
 70
     8
 71
     3
 72
    16
 73
    12
 74
     0
 42
0.000000001
 43
0.00000001
 40
0.0
 40
0.0
 40
0.0
 40
0.0
 40
0.2500000000000077
 40
0.2500000000000077
 40
0.5000000000000153
 40
0.5000000000000153
 40
0.6250000000000191
 40
0.6250000000000191
 40
0.750000000000023
 40
0.750000000000023
 40
1.0
 40
1.0
 40
1.0
 40
1.0
 10
282.9771517106133
 20
34.46853251939976
 30
0.0
 10
282.9529435839179
 20
34.47068870808044
 30
0.0
 10
282.9266132425147
 20
34.4716721802731
 30
0.0
 10
282.8662124658004
 20
34.46936489265248
 30
0.0
 10
282.8308296903062
 20
34.46600999569995
 30
0.0
 10
282.7738612862369
 20
34.45344156819531
 30
0.0
 10
282.7541194107036
 20
34.44782554473573
 30
0.0
 10
282.7185784879732
 20
34.43474639707414
 30
0.0
 10
282.7031964589282
 20
34.42751430670385
 30
0.0
 10
282.6650480414673
 20
34.4061883093241
 30
0.0
 10
282.6488861829478
 20
34.39229989487101
 30
0.0
 10
282.6365767751161
 20
34.37923972562145
 30
0.0
  0
SPLINE
  5
237
330
1F
100
AcDbEntity
  8
0
  6
Continuous
 62
     7
370
    15
100
AcDbSpline
210
0.0
220
0.0
230
1.0
 70
     8
 71
     3
 72
     8
 73
     4
 74
     0
 42
0.000000001
 43
0.00000001
 40
0.0
 40
0.0
 40
0.0
 40
0.0
 40
1.0
 40
1.0
 40
1.0
 40
1.0
 10
282.6365767751203
 20
34.379239725616
 30
0.0
 10
282.6041038927551
 20
34.39230208788165
 30
0.0
 10
282.5718331001165
 20
34.40719448026619
 30
0.0
 10
282.5465557841618
 20
34.42178676416135
 30
0.0
  0
LINE
  5
238
330
1F
100
AcDbEntity
  8
0
  6
Continuous
 62
     7
370
    15
100
AcDbLine
 10
282.0962763017
 20
34.874138744
 30
0.0
 11
282.009707718
 21
34.9193975628
 31
0.0
  0
SPLINE
  5
239
330
1F
100
AcDbEntity
  8
0
  6
Continuous
 62
     7
370
    15
100
AcDbSpline
210
0.0
220
0.0
230
1.0
 70
     8
 71
     3
 72
    11
 73
     7
 74
     0
 42
0.000000001
 43
0.00000001
 40
0.0
 40
0.0
 40
0.0
 40
0.0
 40
0.0763291486414734
 40
0.4828240100966647
 40
0.8892344489868842
 40
0.9999999999999999
 40
0.9999999999999999
 40
0.9999999999999999
 40
0.9999999999999999
 10
246.8649124304439
 20
34.0378451965429
 30
0.0
 10
246.8644770511139
 20
34.11608433556291
 30
0.0
 10
246.861723036458
 20
34.6109900894
 30
0.0
 10
246.817027379244
 20
35.54397613189733
 30
0.0
 10
246.7789522646824
 20
36.50945994017654
 30
0.0
 10
246.7909702838184
 20
37.0307987026115
 30
0.0
 10
246.7935442287379
 20
37.14245581046834
 30
0.0
  0
LINE
  5
23A
330
1F
100
AcDbEntity
  8
0
  6
Continuous
 62
     7
370
    15
100
AcDbLine
 10
246.8649124304
 20
32.2620445675
 30
0.0
 11
246.8649124304
 21
34.0378451965
 31
0.0
  0
LINE
  5
23B
330
1F
100
AcDbEntity
  8
0
  6
Continuous
 62
     7
370
    15
100
AcDbLine
 10
281.5484282459
 20
34.9979935271
 30
0.0
 11
282.5465557842
 21
34.4217867642
 31
0.0
  0
ARC
  5
23C
330
1F
100
AcDbEntity
  8
0
  6
Continuous
 62
     7
370
    15
100
AcDbCircle
 10
276.314774383
 20
34.5920987035
 30
0.0
 40
4.276778186802113
100
AcDbArc
 50
339.4410109081
 51
1.8025660262
  0
LINE
  5
23D
330
1F
100
AcDbEntity
  8
0
  6
Continuous
 62
     7
370
    15
100
AcDbLine
 10
280.3191694234
 20
33.0902158788
 30
0.0
 11
282.5465557842
 21
31.8043731027
 31
0.0
  0
LINE
  5
23E
330
1F
100
AcDbEntity
  8
0
  6
Continuous
 62
     7
370
    15
100
AcDbLine
 10
278.5965607375
 20
28.8117967074
 30
0.0
 11
278.6831627958
 21
28.76652213
 31
0.0
  0
LINE
  5
23F
330
1F
100
AcDbEntity
  8
0
  6
Continuous
 62
     7
370
    15
100
AcDbLine
 10
276.9422897421
 20
29.9591981931
 30
0.0
 11
278.1462812551
 21
29.2641486872
 31
0.0
  0
LINE
  5
240
330
1F
100
AcDbEntity
  8
0
  6
Continuous
 62
     7
370
    15
100
AcDbLine
 10
245.9368347801
 20
37.4506709438
 30
0.0
 11
245.9378758074
 21
37.6364226757
 31
0.0
  0
ARC
  5
241
330
1F
100
AcDbEntity
  8
0
  6
Continuous
 62
     7
370
    15
100
AcDbCircle
 10
257.8939144994
 20
37.1891117664
 30
0.0
 40
11.9599401593454
100
AcDbArc
 50
178.7468639795
 51
202.7557767409
  0
LINE
  5
242
330
1F
100
AcDbEntity
  8
0
  6
Continuous
 62
     7
370
    15
100
AcDbLine
 10
278.1976816204
 20
29.2250549146
 30
0.0
 11
277.2086321781
 21
29.3134908387
 31
0.0
  0
SPLINE
  5
243
330
1F
100
AcDbEntity
  8
0
  6
Continuous
 62
     7
370
    15
100
AcDbSpline
210
0.0
220
0.0
230
1.0
 70
     8
 71
     3
 72
    16
 73
    12
 74
     0
 42
0.000000001
 43
0.00000001
 40
0.0
 40
0.0
 40
0.0
 40
0.0
 40
0.2499999999999963
 40
0.2499999999999963
 40
0.4999999999999927
 40
0.4999999999999927
 40
0.6250000000000019
 40
0.6250000000000019
 40
0.7500000000000112
 40
0.7500000000000112
 40
1.0
 40
1.0
 40
1.0
 40
1.0
 10
278.1398511565519
 20
28.97265819560837
 30
0.0
 10
278.1639039789359
 20
28.97050751083509
 30
0.0
 10
278.1874051590443
 20
28.97137606767833
 30
0.0
 10
278.2296546756564
 20
28.98420965828686
 30
0.0
 10
278.2496124532287
 20
28.99650240719386
 30
0.0
 10
278.26478775559
 20
29.03296410577511
 30
0.0
 10
278.267099138041
 20
29.04857500641632
 30
0.0
 10
278.2642601542707
 20
29.08372193113519
 30
0.0
 10
278.2592861423066
 20
29.10279601011776
 30
0.0
 10
278.2389212452329
 20
29.15794941277571
 30
0.0
 10
278.2187874324313
 20
29.1927808585937
 30
0.0
 10
278.1976816203681
 20
29.22505491458185
 30
0.0
  0
SPLINE
  5
244
330
1F
100
AcDbEntity
  8
0
  6
Continuous
 62
     7
370
    15
100
AcDbSpline
210
0.0
220
0.0
230
1.0
 70
     8
 71
     3
 72
     8
 73
     4
 74
     0
 42
0.000000001
 43
0.00000001
 40
0.0
 40
0.0
 40
0.0
 40
0.0
 40
1.0
 40
1.0
 40
1.0
 40
1.0
 10
278.1462812550915
 20
29.26414868721783
 30
0.0
 10
278.1716331839607
 20
29.24951333020394
 30
0.0
 10
278.188437983189
 20
29.23611912910921
 30
0.0
 10
278.1976816203685
 20
29.22505491458166
 30
0.0
  0
SPLINE
  5
245
330
1F
100
AcDbEntity
  8
0
  6
Continuous
 62
     7
370
    15
100
AcDbSpline
210
0.0
220
0.0
230
1.0
 70
     8
 71
     3
 72
     8
 73
     4
 74
     0
 42
0.000000001
 43
0.00000001
 40
0.0
 40
0.0
 40
0.0
 40
0.0
 40
1.0
 40
1.0
 40
1.0
 40
1.0
 10
282.5465557841623
 20
31.8043731026534
 30
0.0
 10
282.5719077130314
 20
31.78973774563959
 30
0.0
 10
282.6038516968339
 20
31.78508320977062
 30
0.0
 10
282.6365767751232
 20
31.78757454265783
 30
0.0
  0
SPLINE
  5
246
330
1F
100
AcDbEntity
  8
0
  6
Continuous
 62
     7
370
    15
100
AcDbSpline
210
0.0
220
0.0
230
1.0
 70
     8
 71
     3
 72
    16
 73
    12
 74
     0
 42
0.000000001
 43
0.00000001
 40
0.0
 40
0.0
 40
0.0
 40
0.0
 40
0.2500000000000005
 40
0.2500000000000005
 40
0.3750000000000012
 40
0.3750000000000012
 40
0.5000000000000019
 40
0.5000000000000019
 40
0.7500000000000009
 40
0.7500000000000009
 40
1.0
 40
1.0
 40
1.0
 40
1.0
 10
282.636576775123
 20
31.78757454265842
 30
0.0
 10
282.6487959936252
 20
31.75032882578689
 30
0.0
 10
282.6648646982384
 20
31.71321791803545
 30
0.0
 10
282.7031597863951
 20
31.66821094652142
 30
0.0
 10
282.7186168817474
 20
31.6552431087055
 30
0.0
 10
282.7539247115274
 20
31.63896075095435
 30
0.0
 10
282.7735080733725
 20
31.63596413243865
 30
0.0
 10
282.8308088488442
 20
31.64099789239469
 30
0.0
 10
282.8658791461979
 20
31.66064143814444
 30
0.0
 10
282.9263999047507
 20
31.7071241981184
 30
0.0
 10
282.9532250088126
 20
31.73534227814401
 30
0.0
 10
282.977249951414
 20
31.76522907833947
 30
0.0
  0
SPLINE
  5
247
330
1F
100
AcDbEntity
  8
0
  6
Continuous
 62
     7
370
    15
100
AcDbSpline
210
0.0
220
0.0
230
1.0
 70
     8
 71
     3
 72
    22
 73
    18
 74
     0
 42
0.000000001
 43
0.00000001
 40
0.0
 40
0.0
 40
0.0
 40
0.0
 40
0.125
 40
0.125
 40
0.2499999999999999
 40
0.2499999999999999
 40
0.3749999999999999
 40
0.3749999999999999
 40
0.4999999999999999
 40
0.4999999999999999
 40
0.6249999999999999
 40
0.6249999999999999
 40
0.7499999999999998
 40
0.7499999999999998
 40
0.8749999999999999
 40
0.8749999999999999
 40
1.0
 40
1.0
 40
1.0
 40
1.0
 10
283.6256262173795
 20
33.01794264610837
 30
0.0
 10
283.6741751960712
 20
33.07833711405435
 30
0.0
 10
283.7180693684605
 20
33.14254262261123
 30
0.0
 10
283.7956628315307
 20
33.27901251504569
 30
0.0
 10
283.8292217154383
 20
33.35097480184722
 30
0.0
 10
283.8824243022651
 20
33.49461048519939
 30
0.0
 10
283.9027158462398
 20
33.56831942123092
 30
0.0
 10
283.9287333577445
 20
33.70982932723127
 30
0.0
 10
283.9348210896183
 20
33.77883226984373
 30
0.0
 10
283.9331932621876
 20
33.90853714733151
 30
0.0
 10
283.9256677180667
 20
33.96783907341582
 30
0.0
 10
283.8976188151163
 20
34.0751294081759
 30
0.0
 10
283.8772119515318
 20
34.12189515057867
 30
0.0
 10
283.8248703529601
 20
34.1990081962197
 30
0.0
 10
283.7923160544599
 20
34.22991269902057
 30
0.0
 10
283.7173726703367
 20
34.27327869069426
 30
0.0
 10
283.6741803777688
 20
34.2864623304361
 30
0.0
 10
283.6256262133476
 20
34.29080380381164
 30
0.0
  0
LINE
  5
248
330
1F
100
AcDbEntity
  8
0
  6
Continuous
 62
     7
370
    15
100
AcDbLine
 10
283.6256262133
 20
34.2908038038
 30
0.0
 11
282.6365767751
 21
34.3792397256
 31
0.0
  0
LINE
  5
249
330
1F
100
AcDbEntity
  8
0
  6
Continuous
 62
     7
370
    15
100
AcDbLine
 10
282.6365767751
 20
31.7875745427
 30
0.0
 11
283.6256262174
 21
33.0179426461
 31
0.0
  0
ARC
  5
24A
330
1F
100
AcDbEntity
  8
0
  6
Continuous
 62
     7
370
    15
100
AcDbCircle
 10
280.1676255125
 20
35.2817953849
 30
0.0
 40
1.49120782600393
100
AcDbArc
 50
321.0621655031
 51
347.3474134538
  0
LWPOLYLINE
  5
24B
330
1F
100
AcDbEntity
  8
0
  6
Continuous
 62
     7
370
    15
100
AcDbPolyline
 90
       10
 70
   128
 43
0.0
 10
254.2744804282
 20
18.6885530632
 10
253.4630873605
 20
18.8592889826
 10
252.3044540192
 20
19.2464708927
 10
251.2261539444
 20
19.7879663972
 10
250.2357051015
 20
20.4800001607
 10
249.3400129523
 20
21.3177472872
 10
248.5453223101
 20
22.2953669593
 10
247.8571738003
 20
23.4060431606
 10
247.2803652306
 20
24.6420321978
 10
246.8189181411
 20
25.9947166898
  0
SPLINE
  5
24C
330
1F
100
AcDbEntity
  8
0
  6
Continuous
 62
     7
370
    15
100
AcDbSpline
210
0.0
220
0.0
230
1.0
 70
     8
 71
     3
 72
     8
 73
     4
 74
     0
 42
0.000000001
 43
0.00000001
 40
0.0000000000000006
 40
0.0000000000000006
 40
0.0000000000000006
 40
0.0000000000000006
 40
0.001241704756042
 40
0.001241704756042
 40
0.001241704756042
 40
0.001241704756042
 10
247.2934187447875
 20
26.36133496203631
 30
0.0
 10
247.1353585872771
 20
26.2389317570318
 30
0.0
 10
246.9771892815959
 20
26.11672952706335
 30
0.0
 10
246.8189181411351
 20
25.99471668975224
 30
0.0
  0
SPLINE
  5
24D
330
1F
100
AcDbEntity
  8
0
  6
Continuous
 62
     7
370
    15
100
AcDbSpline
210
0.0
220
0.0
230
1.0
 70
     8
 71
     3
 72
     8
 73
     4
 74
     0
 42
0.000000001
 43
0.00000001
 40
0.0
 40
0.0
 40
0.0
 40
0.0
 40
1.0
 40
1.0
 40
1.0
 40
1.0
 10
247.2934187447866
 20
26.36133496203822
 30
0.0
 10
248.4646513294617
 20
26.55361459236612
 30
0.0
 10
249.6352707040535
 20
26.74720225957627
 30
0.0
 10
250.8048798892354
 20
26.94275555124684
 30
0.0
  0
LINE
  5
24E
330
1F
100
AcDbEntity
  8
0
  6
Continuous
 62
     7
370
    15
100
AcDbLine
 10
280.3191694234
 20
33.0902158788
 30
0.0
 11
281.3275291785
 21
34.3446058278
 31
0.0
  0
SPLINE
  5
24F
330
1F
100
AcDbEntity
  8
0
  6
Continuous
 62
     7
370
    15
100
AcDbSpline
210
0.0
220
0.0
230
1.0
 70
     8
 71
     3
 72
    10
 73
     6
 74
     0
 42
0.000000001
 43
0.00000001
 40
0.0
 40
0.0
 40
0.0
 40
0.0
 40
0.5
 40
0.5
 40
1.0
 40
1.0
 40
1.0
 40
1.0
 10
250.8048798892354
 20
26.94275555124685
 30
0.0
 10
250.8466457502498
 20
26.94973861166079
 30
0.0
 10
250.8905430360639
 20
26.95302870266916
 30
0.0
 10
250.9781704188538
 20
26.95136572824012
 30
0.0
 10
251.0206757159145
 20
26.94657362168938
 30
0.0
 10
251.0617569176136
 20
26.93763907615237
 30
0.0
  0
LINE
  5
250
330
1F
100
AcDbEntity
  8
0
  6
Continuous
 62
     7
370
    15
100
AcDbLine
 10
242.9685524863
 20
28.8580271095
 30
0.0
 11
247.2934187448
 21
26.361334962
 31
0.0
  0
LINE
  5
251
330
1F
100
AcDbEntity
  8
0
  6
Continuous
 62
     7
370
    15
100
AcDbLine
 10
242.9685524863
 20
28.8580271095
 30
0.0
 11
246.5113590399
 21
30.9032457992
 31
0.0
  0
LINE
  5
252
330
1F
100
AcDbEntity
  8
0
  6
Continuous
 62
     7
370
    15
100
AcDbLine
 10
242.5344853861
 20
28.6074047765
 30
0.0
 11
242.9685524863
 21
28.8580271095
 31
0.0
  0
LINE
  5
253
330
1F
100
AcDbEntity
  8
0
  6
Continuous
 62
     7
370
    15
100
AcDbLine
 10
246.8189181411
 20
25.9947166898
 30
0.0
 11
242.691182306
 21
28.3776078661
 31
0.0
  0
SPLINE
  5
254
330
1F
100
AcDbEntity
  8
0
  6
Continuous
 62
     7
370
    15
100
AcDbSpline
210
0.0
220
0.0
230
1.0
 70
     8
 71
     3
 72
     8
 73
     4
 74
     0
 42
0.000000001
 43
0.00000001
 40
0.0
 40
0.0
 40
0.0
 40
0.0
 40
1.0
 40
1.0
 40
1.0
 40
1.0
 10
242.6911823059586
 20
28.37760786613477
 30
0.0
 10
242.6109630767925
 20
28.42391744140537
 30
0.0
 10
242.5565733145067
 20
28.50758028241417
 30
0.0
 10
242.5344853861478
 20
28.6074047765212
 30
0.0
  0
ARC
  5
255
330
1F
100
AcDbEntity
  8
0
  6
Continuous
 62
     7
370
    15
100
AcDbCircle
 10
251.609348928
 20
29.6817982242
 30
0.0
 40
8.761019882581248
100
AcDbArc
 50
214.8820148619
 51
239.7813472427
  0
ELLIPSE
  5
256
330
1F
100
AcDbEntity
  8
0
  6
Continuous
 62
     7
370
    15
100
AcDbEllipse
 10
246.218465821
 20
31.8888702672
 30
0.0
 11
-7.507462981948265E-5
 21
1.066811201853401
 31
0.0
210
0.0
220
0.0
230
1.0
 40
0.7174342186
 41
3.534193645557478
 42
5.104989972352352
  0
ELLIPSE
  5
257
330
1F
100
AcDbEntity
  8
0
  6
Continuous
 62
     7
370
    15
100
AcDbEllipse
 10
246.1578056493
 20
31.8538405116
 30
0.0
 11
0.3250094736511926
 21
1.213179526238669
 31
0.0
210
0.0
220
0.0
230
1.0
 40
0.5176380889
 41
3.619174351347776
 42
5.189970678142606
  0
LWPOLYLINE
  5
258
330
1F
100
AcDbEntity
  8
0
  6
Continuous
 62
     7
370
     0
100
AcDbPolyline
 90
       76
 70
   128
 43
0.0
 10
254.3955996501
 20
26.822057838
 10
254.4563577638
 20
28.5311289166
 10
254.6382059303
 20
30.2983619145
 10
254.9398686154
 20
32.1113609619
 10
255.3592298722
 20
33.9574091731
 10
255.8933481826
 20
35.8235578463
 10
256.5384770906
 20
37.6967172893
 10
257.2900914804
 20
39.5637486346
 10
258.142919317
 20
41.4115559988
 10
259.090978626
 20
43.2271783407
 10
260.1276194524
 20
44.9978803743
 10
261.2455705057
 20
46.711241897
 10
262.4369901625
 20
48.3552449087
 10
263.69352147
 20
49.9183579095
 10
265.0063507638
 20
51.3896167849
 10
266.3662694897
 20
52.7587017109
 10
267.7637387949
 20
54.0160095405
 10
269.1889564364
 20
55.1527211626
 10
270.6319255364
 20
56.1608633619
 10
272.0825247034
 20
57.0333647452
 10
273.5305790266
 20
57.7641053422
 10
274.9659314453
 20
58.3479595327
 10
276.3785139936
 20
58.780831999
 10
277.7584184198
 20
59.0596864517
 10
279.0959656858
 20
59.1825669273
 10
280.3817738587
 20
59.1486115076
 10
281.6068239179
 20
58.9580583653
 10
282.7625230174
 20
58.6122440938
 10
283.8407647585
 20
58.1135943319
 10
284.83398605
 20
57.4656067492
 10
285.7352201582
 20
56.6728265132
 10
286.5381455734
 20
55.7408144075
 10
287.2371303507
 20
54.6761078275
 10
287.8272716141
 20
53.4861749248
 10
288.3044299466
 20
52.1793622237
 10
288.6652584254
 20
50.7648360765
 10
288.907226098
 20
49.2525183676
 10
289.028635735
 20
47.6530169192
 10
289.028635735
 20
45.9775510848
 10
288.907226098
 20
44.2378730533
 10
288.6652584254
 20
42.4461854162
 10
288.3044299466
 20
40.615055575
 10
287.8272716141
 20
38.7573275897
 10
287.2371303507
 20
36.8860320875
 10
286.5381455734
 20
35.0142948617
 10
285.7352201582
 20
33.1552448043
 10
284.83398605
 20
31.3219218155
 10
283.8407647585
 20
29.5271853389
 10
282.7625230174
 20
27.7836241614
 10
281.6068239179
 20
26.1034681119
 10
280.3817738587
 20
24.4985022779
 10
279.0959656858
 20
22.9799843415
 10
277.7584184198
 20
21.5585656151
 10
276.3785139936
 20
20.2442163297
 10
274.9659314453
 20
19.0461557011
 10
273.5305790266
 20
17.972787264
 10
272.0825247034
 20
17.0316399266
 10
270.6319255364
 20
16.2293151613
 10
269.1889564364
 20
15.5714406998
 10
267.7637387949
 20
15.062631059
 10
266.3662694897
 20
14.7064551727
 10
265.0063507638
 20
14.5054113589
 10
263.69352147
 20
14.4609097955
 10
262.4369901625
 20
14.5732626291
 10
261.2455705057
 20
14.8416817852
 10
260.1276194524
 20
15.2642844963
 10
259.090978626
 20
15.8381065079
 10
258.142919317
 20
16.5591228711
 10
257.2900914804
 20
17.4222761741
 10
256.5384770906
 20
18.4215120165
 10
255.8933481826
 20
19.549821477
 10
255.3592298722
 20
20.7992902753
 10
254.9398686154
 20
22.1611542856
 10
254.6382059303
 20
23.6258610103
 10
254.4563577638
 20
25.1831365842
 10
254.3955996501
 20
26.822057838
  0
LWPOLYLINE
  5
259
330
1F
100
AcDbEntity
  8
0
  6
Continuous
 62
     7
370
     0
100
AcDbPolyline
 90
       27
 70
   128
 43
0.0
 10
253.6884928689
 20
26.822057838
 10
253.7488710728
 20
28.5426485781
 10
253.9295932402
 20
30.3211971292
 10
254.2294248553
 20
32.1455542012
 10
254.6463177643
 20
34.0032575855
 10
255.1774241659
 20
35.8816172843
 10
255.8191160647
 20
37.7678021961
 10
256.5670100545
 20
39.6489277656
 10
257.415997261
 20
41.5121439975
 10
258.3602782406
 20
43.3447232358
 10
259.3934025968
 20
45.1341471061
 10
260.5083130427
 20
46.8681920288
 10
261.6973936094
 20
48.5350127189
 10
262.9525216709
 20
50.1232231009
 10
264.26512343
 20
51.6219740874
 10
265.6262324855
 20
53.0210276896
 10
267.0265510826
 20
54.3108269526
 10
268.4565136252
 20
55.4825612398
 10
269.9063520193
 20
56.5282264177
 10
271.3661623986
 20
57.4406795329
 10
272.8259727778
 20
58.2136876055
 10
274.2758111719
 20
58.8419702064
 10
275.7057737146
 20
59.3212355285
 10
277.1060923116
 20
59.6482097036
 10
278.4672013672
 20
59.8206591666
 10
279.7798031262
 20
59.8374059128
 10
280.3007046699
 20
59.7993171098
  0
ARC
  5
25A
330
1F
100
AcDbEntity
  8
0
  6
Continuous
 62
     7
370
     0
100
AcDbCircle
 10
269.1245862068
 20
26.2251945822
 30
0.0
 40
15.44762840315958
100
AcDbArc
 50
177.7856626784
 51
212.4268831467
  0
LWPOLYLINE
  5
25B
330
1F
100
AcDbEntity
  8
0
  6
Continuous
 62
     7
370
     0
100
AcDbPolyline
 90
       22
 70
   128
 43
0.0
 10
265.8860848444
 20
33.4553737465
 10
265.9482517021
 20
34.4720985993
 10
266.1334272968
 20
35.5389300531
 10
266.437664932
 20
36.6331304478
 10
266.8544803108
 20
37.7313788017
 10
267.3749897371
 20
38.8102678578
 10
267.988099456
 20
39.8468029689
 10
268.6807420985
 20
40.8188921889
 10
269.438155189
 20
41.7058171236
 10
270.2441957827
 20
42.4886745078
 10
271.0816845235
 20
43.1507790958
 10
271.932771793
 20
43.6780192775
 10
272.7793181437
 20
44.059157844
 10
273.6032809099
 20
44.2860714883
 10
274.3870987556
 20
44.3539239402
 10
275.1140659645
 20
44.2612690424
 10
275.7686884924
 20
44.0100815732
 10
276.3370141967
 20
43.6057151574
 10
276.8069302019
 20
43.0567881631
 10
277.168421064
 20
42.3750000163
 10
277.4137822329
 20
41.5748818474
 10
277.5372630335
 20
40.681341551
  0
LWPOLYLINE
  5
25C
330
1F
100
AcDbEntity
  8
0
  6
Continuous
 62
     7
370
     0
100
AcDbPolyline
 90
       12
 70
   128
 43
0.0
 10
271.2877709545
 20
29.8557307713
 10
271.0816845235
 20
29.7586801007
 10
270.2441957827
 20
29.4538407704
 10
269.438155189
 20
29.3060634944
 10
268.6807420985
 20
29.3184978888
 10
267.988099456
 20
29.490878936
 10
267.3749897371
 20
29.8195326334
 10
266.8544803108
 20
30.2974542978
 10
266.437664932
 20
30.9144578589
 10
266.1334272968
 20
31.6573929569
 10
265.9482517021
 20
32.51042522
 10
265.8860848444
 20
33.4553737465
  0
LWPOLYLINE
  5
25D
330
1F
100
AcDbEntity
  8
0
  6
Continuous
 62
     7
370
     0
100
AcDbPolyline
 90
       21
 70
   128
 43
0.0
 10
250.8048798892
 20
37.435304984
 10
251.274525401
 20
39.1947329144
 10
251.8586938899
 20
40.9651887174
 10
252.5526072085
 20
42.7321911282
 10
253.350589563
 20
44.4812871288
 10
254.2461139371
 20
46.1981701647
 10
255.2318554795
 20
47.8687971644
 10
256.2997514166
 20
49.4795034027
 10
257.4410670013
 20
51.0171142705
 10
258.6464669578
 20
52.4690530345
 10
259.9060918389
 20
53.8234437082
 10
261.2096386697
 20
55.0692081896
 10
262.5464452204
 20
56.1961568738
 10
263.9055772166
 20
57.1950719975
 10
265.2759177753
 20
58.0577830353
 10
266.646258334
 20
58.7772335293
 10
268.0053903302
 20
59.3475388066
 10
269.3421968809
 20
59.7640341128
 10
270.6457437118
 20
60.0233127665
 10
271.9053685928
 20
60.1232540241
 10
272.0618864563
 20
60.1244875996
  0
LWPOLYLINE
  5
25E
330
1F
100
AcDbEntity
  8
0
  6
Continuous
 62
     7
370
     0
100
AcDbPolyline
 90
       23
 70
   128
 43
0.0
 10
242.691182306
 20
39.510750992
 10
243.1526293954
 20
41.396210953
 10
243.7294379651
 20
43.2981689892
 10
244.417586475
 20
45.2033645482
 10
245.2122771171
 20
47.0985145055
 10
246.1079692663
 20
48.9704057751
 10
247.0984181092
 20
50.8059874316
 10
248.176718184
 20
52.5924617023
 10
249.3353515254
 20
54.317373194
 10
250.5662400802
 20
55.968695732
 10
251.860802028
 20
57.5349162081
 10
253.2100116144
 20
59.00511485
 10
254.6044620785
 20
60.3690413547
 10
256.0344312377
 20
61.6171863543
 10
257.489949271
 20
62.7408477156
 10
258.9608682296
 20
63.7321912121
 10
260.4369327884
 20
64.5843051441
 10
261.907851747
 20
65.2912485282
 10
263.3633697803
 20
65.8480925176
 10
264.7933389394
 20
66.2509547665
 10
266.1877894035
 20
66.4970264978
 10
267.5369989899
 20
66.5845920864
 10
268.6357063009
 20
66.5344594725
  0
LWPOLYLINE
  5
25F
330
1F
100
AcDbEntity
  8
0
  6
Continuous
 62
     7
370
     0
100
AcDbPolyline
 90
       20
 70
   128
 43
0.0
 10
251.1976862648
 20
37.3776585271
 10
251.6654142115
 20
39.1172920595
 10
252.2459606215
 20
40.8673829196
 10
252.9345983773
 20
42.6136809368
 10
253.7257202239
 20
44.3419668239
 10
254.6128844266
 20
46.0381679581
 10
255.5888672226
 20
47.6884729676
 10
256.645721641
 20
49.2794441913
 10
257.7748422109
 20
50.7981270955
 10
258.9670350322
 20
52.2321557562
 10
260.2125926369
 20
53.5698535494
 10
261.5013730325
 20
54.8003282283
 10
262.8228822837
 20
55.9135606135
 10
264.1663599593
 20
56.900486175
 10
265.5208667496
 20
57.75306884
 10
266.8753735398
 20
58.4643664269
 10
268.2188512154
 20
59.0285871726
 10
269.5403604666
 20
59.4411368916
 10
270.8291408623
 20
59.6986563847
 10
271.1293931988
 20
59.7367936653
  0
LINE
  5
260
330
1F
100
AcDbEntity
  8
0
  6
Continuous
 62
     7
370
     0
100
AcDbLine
 10
251.0617569176
 20
26.9376390762
 30
0.0
 11
252.2212462979
 21
27.6069980477
 31
0.0
  0
LINE
  5
261
330
1F
100
AcDbEntity
  8
0
  6
Continuous
 62
     7
370
     0
100
AcDbLine
 10
252.6081348506
 20
27.4027095454
 30
0.0
 11
252.2212462979
 21
27.6069980477
 31
0.0
  0
ARC
  5
262
330
1F
100
AcDbEntity
  8
0
  6
Continuous
 62
     7
370
     0
100
AcDbCircle
 10
271.7851567675
 20
33.1210112932
 30
0.0
 40
3.088795514086543
100
AcDbArc
 50
173.7855481268
 51
234.9022714798
  0
LWPOLYLINE
  5
263
330
1F
100
AcDbEntity
  8
0
  6
Continuous
 62
     7
370
     0
100
AcDbPolyline
 90
       16
 70
   128
 43
0.0
 10
276.258675391
 20
41.4194544859
 10
276.127119302
 20
41.4892596202
 10
275.5511215488
 20
41.6744431733
 10
274.9091890937
 20
41.7050240787
 10
274.2188321805
 20
41.5801681692
 10
273.4988819463
 20
41.3032811884
 10
272.7689767567
 20
40.8819158915
 10
272.0490265225
 20
40.3275660252
 10
271.3586696094
 20
39.6553528089
 10
270.7167371542
 20
38.8836124668
 10
270.1407394011
 20
38.0333960636
 10
269.6463880671
 20
37.1278952864
 10
269.2471677681
 20
36.1918098361
 10
268.953968193
 20
35.2506736834
 10
268.7747870619
 20
34.3301585693
 10
268.7145119691
 20
33.4553737465
  0
LWPOLYLINE
  5
264
330
1F
100
AcDbEntity
  8
0
  6
Continuous
 62
     7
370
     0
100
AcDbPolyline
 90
       11
 70
   128
 43
0.0
 10
278.1398511566
 20
28.9726581956
 10
278.4603019104
 20
28.5709468121
 10
278.8856147068
 20
28.3266377765
 10
279.3945341198
 20
28.2519406736
 10
279.9616264007
 20
28.3505885645
 10
280.558550554
 20
28.6176514238
 10
281.1554747073
 20
29.039782522
 10
281.7225669881
 20
29.5958854418
 10
282.2314864012
 20
30.258168392
 10
282.6567991976
 20
30.9935331298
 10
282.9772499514
 20
31.7652290783
  0
LWPOLYLINE
  5
265
330
1F
100
AcDbEntity
  8
0
  6
Continuous
 62
     7
370
     0
100
AcDbPolyline
 90
       11
 70
   128
 43
0.0
 10
282.9771517106
 20
34.4685325194
 10
282.6566867208
 20
34.870163628
 10
282.2313810831
 20
35.1144111986
 10
281.7224866682
 20
35.1890705545
 10
281.15543215
 20
35.0904110823
 10
280.5585523734
 20
34.8233626444
 10
279.9616725058
 20
34.4012692419
 10
279.3946177194
 20
33.8452222352
 10
278.8857228724
 20
33.1830064407
 10
278.4604166604
 20
32.4477117665
 10
278.1399509826
 20
31.6760797604
  0
ARC
  5
266
330
1F
100
AcDbEntity
  8
0
  6
Continuous
 62
     7
370
     0
100
AcDbCircle
 10
251.496099837
 20
28.7829186009
 30
0.0
 40
1.381530505392824
100
AcDbArc
 50
301.6605905891
 51
324.2377952695
  0
LINE
  5
267
330
1F
100
AcDbEntity
  8
0
  6
Continuous
 62
     7
370
     0
100
AcDbLine
 10
277.2086321781
 20
29.3134908387
 30
0.0
 11
277.2793428562
 21
29.0496006047
 31
0.0
  0
LWPOLYLINE
  5
268
330
1F
100
AcDbEntity
  8
0
  6
Continuous
 62
     7
370
     0
100
AcDbPolyline
 90
        3
 70
   128
 43
0.0
 10
282.5465557842
 20
34.4217867642
 10
282.2086325007
 20
34.8003565842
 10
282.0962763017
 20
34.874138744
  0
LINE
  5
269
330
1F
100
AcDbEntity
  8
0
  6
Continuous
 62
     7
370
     0
100
AcDbLine
 10
246.9255726022
 20
32.2970743232
 30
0.0
 11
252.5005756694
 21
29.0786935576
 31
0.0
  0
LINE
  5
26A
330
1F
100
AcDbEntity
  8
0
  6
Continuous
 62
     7
370
     0
100
AcDbLine
 10
246.8649124304
 20
32.2620445675
 30
0.0
 11
246.9255726022
 21
32.2970743232
 31
0.0
  0
LWPOLYLINE
  5
26B
330
1F
100
AcDbEntity
  8
0
  6
Continuous
 62
     7
370
     0
100
AcDbPolyline
 90
        9
 70
   128
 43
0.0
 10
278.6831627958
 20
28.76652213
 10
278.931875343
 20
28.681299488
 10
279.4629106848
 20
28.663349529
 10
280.0460145835
 20
28.832786851
 10
280.6468224558
 20
29.1796258531
 10
281.2299263545
 20
29.6834259621
 10
281.7609616963
 20
30.3144962762
 10
282.2086325007
 20
31.0356453643
 10
282.5465557842
 20
31.8043731027
  0
LINE
  5
26C
330
1F
100
AcDbEntity
  8
0
  6
Continuous
 62
     7
370
     0
100
AcDbLine
 10
246.6439415613
 20
37.0424668879
 30
0.0
 11
246.6449825886
 21
37.2282186198
 31
0.0
  0
LWPOLYLINE
  5
26D
330
1F
100
AcDbEntity
  8
0
  6
Continuous
 62
     7
370
     0
100
AcDbPolyline
 90
        3
 70
   128
 43
0.0
 10
246.8356475616
 20
34.6503186679
 10
246.7053008125
 20
35.6581664448
 10
246.6439415613
 20
37.0424668879
  0
LINE
  5
26E
330
1F
100
AcDbEntity
  8
0
  6
Continuous
 62
     7
370
     0
100
AcDbLine
 10
276.9994831739
 20
29.4342299888
 30
0.0
 11
277.2086321781
 21
29.3134908387
 31
0.0
  0
LWPOLYLINE
  5
26F
330
1F
100
AcDbEntity
  8
0
  6
Continuous
 62
     7
370
     0
100
AcDbPolyline
 90
       19
 70
   128
 43
0.0
 10
215.7107218777
 20
60.8580854791
 10
215.7722101939
 20
61.9769003104
 10
215.9556230605
 20
63.1475648086
 10
216.2578222324
 20
64.3500485794
 10
216.673636998
 20
65.5637767923
 10
217.1959526514
 20
66.7679822209
 10
217.815832227
 20
67.9420605766
 10
218.5226694134
 20
69.0659230531
 10
219.3043700302
 20
70.1203400518
 10
220.1475589633
 20
71.0872702057
 10
221.0378090162
 20
71.9501690716
 10
221.9598877637
 20
72.6942722107
 10
222.8980181827
 20
73.306847812
 10
223.8361486018
 20
73.7774145372
 10
224.7582273493
 20
74.0979208591
 10
225.6484774022
 20
74.2628828256
 10
226.4916663353
 20
74.2694778919
 10
227.2733669521
 20
74.1175932144
 10
227.4285366548
 20
74.0657204769
  0
ARC
  5
270
330
1F
100
AcDbEntity
  8
0
  6
Continuous
 62
     7
370
     0
100
AcDbCircle
 10
221.0853806624
 20
60.4139534517
 30
0.0
 40
5.392977870397675
100
AcDbArc
 50
175.2761269287
 51
225.7050394481
  0
LINE
  5
271
330
1F
100
AcDbEntity
  8
0
  6
Continuous
 62
     7
370
     0
100
AcDbLine
 10
283.8377582517
 20
32.8356932232
 30
0.0
 11
283.6256262174
 21
33.0179426461
 31
0.0
  0
LWPOLYLINE
  5
272
330
1F
100
AcDbEntity
  8
0
  6
Continuous
 62
     7
370
     0
100
AcDbPolyline
 90
        3
 70
   128
 43
0.0
 10
251.870442319
 20
25.2686364804
 10
251.6654142115
 20
25.6886961241
 10
251.1976862648
 20
26.8883024641
  0
LINE
  5
273
330
1F
100
AcDbEntity
  8
0
  6
Continuous
 62
     7
370
     0
100
AcDbLine
 10
281.3275291785
 20
34.3446058278
 30
0.0
 11
283.6256262174
 21
33.0179426461
 31
0.0
  0
LWPOLYLINE
  5
274
330
1F
100
AcDbEntity
  8
0
  6
Continuous
 62
     7
370
     0
100
AcDbPolyline
 90
        3
 70
   128
 43
0.0
 10
251.7663622163
 20
24.7818120283
 10
251.274525401
 20
25.7255687868
 10
250.8048798892
 20
26.9427555512
  0
LINE
  5
275
330
1F
100
AcDbEntity
  8
0
  6
Continuous
 62
     7
370
     0
100
AcDbLine
 10
252.2212462979
 20
27.6069980477
 30
0.0
 11
246.5113590399
 21
30.9032457992
 31
0.0
  0
ARC
  5
276
330
1F
100
AcDbEntity
  8
0
  6
Continuous
 62
     7
370
     0
100
AcDbCircle
 10
254.1351116761
 20
31.4659309514
 30
0.0
 40
11.8533226947899
100
AcDbArc
 50
195.1023985781
 51
214.9744635893
  0
OLE2FRAME
  5
277
330
1F
100
AcDbEntity
  8
0
100
AcDbOle2Frame
 70
     2
  3
Paintbrush-Bild
 10
13.8511154363
 20
38.264191557
 30
0.0
 11
51.6290888628
 21
31.9806341108
 31
0.0
 71
     2
 72
     0
 73
     1
 90
    12928
310
80552BED0767C5B32B40DDAF6807D121434000000000000000006FFBDDFB85D0
310
4940DDAF6807D121434000000000000000006FFBDDFB85D04940416F4BD60AFB
310
3F4000000000000000002BED0767C5B32B40416F4BD60AFB3F40000000000000
310
0000000000000100000000010000010000000100000000000100000000320000
310
D0CF11E0A1B11AE1000000000000000000000000000000003E000300FEFF0900
310
0600000000000000000000000100000001000000000000000010000002000000
310
01000000FEFFFFFF0000000000000000FFFFFFFFFFFFFFFFFFFFFFFFFFFFFFFF
310
FFFFFFFFFFFFFFFFFFFFFFFFFFFFFFFFFFFFFFFFFFFFFFFFFFFFFFFFFFFFFFFF
310
FFFFFFFFFFFFFFFFFFFFFFFFFFFFFFFFFFFFFFFFFFFFFFFFFFFFFFFFFFFFFFFF
310
FFFFFFFFFFFFFFFFFFFFFFFFFFFFFFFFFFFFFFFFFFFFFFFFFFFFFFFFFFFFFFFF
310
FFFFFFFFFFFFFFFFFFFFFFFFFFFFFFFFFFFFFFFFFFFFFFFFFFFFFFFFFFFFFFFF
310
FFFFFFFFFFFFFFFFFFFFFFFFFFFFFFFFFFFFFFFFFFFFFFFFFFFFFFFFFFFFFFFF
310
FFFFFFFFFFFFFFFFFFFFFFFFFFFFFFFFFFFFFFFFFFFFFFFFFFFFFFFFFFFFFFFF
310
FFFFFFFFFFFFFFFFFFFFFFFFFFFFFFFFFFFFFFFFFFFFFFFFFFFFFFFFFFFFFFFF
310
FFFFFFFFFFFFFFFFFFFFFFFFFFFFFFFFFFFFFFFFFFFFFFFFFFFFFFFFFFFFFFFF
310
FFFFFFFFFFFFFFFFFFFFFFFFFFFFFFFFFFFFFFFFFFFFFFFFFFFFFFFFFFFFFFFF
310
FFFFFFFFFFFFFFFFFFFFFFFFFFFFFFFFFFFFFFFFFFFFFFFFFFFFFFFFFFFFFFFF
310
FFFFFFFFFFFFFFFFFFFFFFFFFFFFFFFFFFFFFFFFFFFFFFFFFFFFFFFFFFFFFFFF
310
FFFFFFFFFFFFFFFFFFFFFFFFFFFFFFFFFFFFFFFFFFFFFFFFFFFFFFFFFFFFFFFF
310
FFFFFFFFFFFFFFFFFFFFFFFFFFFFFFFFFFFFFFFFFFFFFFFFFFFFFFFFFFFFFFFF
310
FDFFFFFFFEFFFFFFFEFFFFFFFEFFFFFF05000000060000000700000008000000
310
090000000A0000000B0000000C0000000D0000000E0000000F00000010000000
310
11000000120000001300000014000000150000001600000017000000FEFFFFFF
310
FFFFFFFFFFFFFFFFFFFFFFFFFFFFFFFFFFFFFFFFFFFFFFFFFFFFFFFFFFFFFFFF
310
FFFFFFFFFFFFFFFFFFFFFFFFFFFFFFFFFFFFFFFFFFFFFFFFFFFFFFFFFFFFFFFF
310
FFFFFFFFFFFFFFFFFFFFFFFFFFFFFFFFFFFFFFFFFFFFFFFFFFFFFFFFFFFFFFFF
310
FFFFFFFFFFFFFFFFFFFFFFFFFFFFFFFFFFFFFFFFFFFFFFFFFFFFFFFFFFFFFFFF
310
FFFFFFFFFFFFFFFFFFFFFFFFFFFFFFFFFFFFFFFFFFFFFFFFFFFFFFFFFFFFFFFF
310
FFFFFFFFFFFFFFFFFFFFFFFFFFFFFFFFFFFFFFFFFFFFFFFFFFFFFFFFFFFFFFFF
310
FFFFFFFFFFFFFFFFFFFFFFFFFFFFFFFFFFFFFFFFFFFFFFFFFFFFFFFFFFFFFFFF
310
FFFFFFFFFFFFFFFFFFFFFFFFFFFFFFFFFFFFFFFFFFFFFFFFFFFFFFFFFFFFFFFF
310
FFFFFFFFFFFFFFFFFFFFFFFFFFFFFFFFFFFFFFFFFFFFFFFFFFFFFFFFFFFFFFFF
310
FFFFFFFFFFFFFFFFFFFFFFFFFFFFFFFFFFFFFFFFFFFFFFFFFFFFFFFFFFFFFFFF
310
FFFFFFFFFFFFFFFFFFFFFFFFFFFFFFFFFFFFFFFFFFFFFFFFFFFFFFFFFFFFFFFF
310
FFFFFFFFFFFFFFFFFFFFFFFFFFFFFFFFFFFFFFFFFFFFFFFFFFFFFFFFFFFFFFFF
310
FFFFFFFFFFFFFFFFFFFFFFFFFFFFFFFFFFFFFFFFFFFFFFFFFFFFFFFFFFFFFFFF
310
52006F006F007400200045006E00740072007900000000000000000000000000
310
0000000000000000000000000000000000000000000000000000000000000000
310
16000500FFFFFFFFFFFFFFFF020000000A00030000000000C000000000000046
310
0000000000000000000000006051717EE022D20103000000C000000000000000
310
01004F006C006500000000000000000000000000000000000000000000000000
310
0000000000000000000000000000000000000000000000000000000000000000
310
0A000200FFFFFFFFFFFFFFFFFFFFFFFF00000000000000000000000000000000
310
0000000000000000000000000000000000000000000000001400000000000000
310
010043006F006D0070004F0062006A0000000000000000000000000000000000
310
0000000000000000000000000000000000000000000000000000000000000000
310
120002010100000003000000FFFFFFFF00000000000000000000000000000000
310
0000000000000000000000000000000000000000010000004D00000000000000
310
01004F006C006500310030004E00610074006900760065000000000000000000
310
0000000000000000000000000000000000000000000000000000000000000000
310
1A000200FFFFFFFFFFFFFFFFFFFFFFFF00000000000000000000000000000000
310
0000000000000000000000000000000000000000040000002426000000000000
310
FEFFFFFF02000000FEFFFFFFFFFFFFFFFFFFFFFFFFFFFFFFFFFFFFFFFFFFFFFF
310
FFFFFFFFFFFFFFFFFFFFFFFFFFFFFFFFFFFFFFFFFFFFFFFFFFFFFFFFFFFFFFFF
310
FFFFFFFFFFFFFFFFFFFFFFFFFFFFFFFFFFFFFFFFFFFFFFFFFFFFFFFFFFFFFFFF
310
FFFFFFFFFFFFFFFFFFFFFFFFFFFFFFFFFFFFFFFFFFFFFFFFFFFFFFFFFFFFFFFF
310
FFFFFFFFFFFFFFFFFFFFFFFFFFFFFFFFFFFFFFFFFFFFFFFFFFFFFFFFFFFFFFFF
310
FFFFFFFFFFFFFFFFFFFFFFFFFFFFFFFFFFFFFFFFFFFFFFFFFFFFFFFFFFFFFFFF
310
FFFFFFFFFFFFFFFFFFFFFFFFFFFFFFFFFFFFFFFFFFFFFFFFFFFFFFFFFFFFFFFF
310
FFFFFFFFFFFFFFFFFFFFFFFFFFFFFFFFFFFFFFFFFFFFFFFFFFFFFFFFFFFFFFFF
310
FFFFFFFFFFFFFFFFFFFFFFFFFFFFFFFFFFFFFFFFFFFFFFFFFFFFFFFFFFFFFFFF
310
FFFFFFFFFFFFFFFFFFFFFFFFFFFFFFFFFFFFFFFFFFFFFFFFFFFFFFFFFFFFFFFF
310
FFFFFFFFFFFFFFFFFFFFFFFFFFFFFFFFFFFFFFFFFFFFFFFFFFFFFFFFFFFFFFFF
310
FFFFFFFFFFFFFFFFFFFFFFFFFFFFFFFFFFFFFFFFFFFFFFFFFFFFFFFFFFFFFFFF
310
FFFFFFFFFFFFFFFFFFFFFFFFFFFFFFFFFFFFFFFFFFFFFFFFFFFFFFFFFFFFFFFF
310
FFFFFFFFFFFFFFFFFFFFFFFFFFFFFFFFFFFFFFFFFFFFFFFFFFFFFFFFFFFFFFFF
310
FFFFFFFFFFFFFFFFFFFFFFFFFFFFFFFFFFFFFFFFFFFFFFFFFFFFFFFFFFFFFFFF
310
FFFFFFFFFFFFFFFFFFFFFFFFFFFFFFFFFFFFFFFFFFFFFFFFFFFFFFFFFFFFFFFF
310
0100000200000000000000000000000000000000000000000000000000000000
310
0000000000000000000000000000000000000000000000000000000000000000
310
0100FEFF030A0000FFFFFFFF0A00030000000000C00000000000004607000000
310
5042727573680007000000504272757368000700000050427275736800F439B2
310
7100000000000000000000000000000000000000000000000000000000000000
310
0000000000000000000000000000000000000000000000000000000000000000
310
0000000000000000000000000000000000000000000000000000000000000000
310
0000000000000000000000000000000000000000000000000000000000000000
310
0000000000000000000000000000000000000000000000000000000000000000
310
0000000000000000000000000000000000000000000000000000000000000000
310
0000000000000000000000000000000000000000000000000000000000000000
310
0000000000000000000000000000000000000000000000000000000000000000
310
0000000000000000000000000000000000000000000000000000000000000000
310
0000000000000000000000000000000000000000000000000000000000000000
310
0000000000000000000000000000000000000000000000000000000000000000
310
0000000000000000000000000000000000000000000000000000000000000000
310
20260000424D0E260000000000003E00000028000000B40200006E0000000100
310
01000000000000000000130B0000130B00000200000002000000000000FFFFFF
310
FFFFFFFFFFFFFFFFFFFFFFFFFFFFFFFFFFFFFFFFFFFFFFFFFFFFFFFFFFFFFFFF
310
FFFFFFFFFFFFFFFFFFFFFFFFFFFFFFFFFFFFFFFFFFFFFFFFFFFFFFFFFFFFFFFF
310
FFFFFFFFFFFFFFFFFFFFFFFFFFFFFFFFFFFFFFFFFFFFFFFFF000FFFFFFFFFFFF
310
FFFFFFFFFFFFFFFFFFFFFFFFFFFFFFFFFFFFFFFFFFFFFFFFFFFFFFFFFFFFFFFF
310
FFFFFFFFFFFFFFFFFFFFFFFFFFFFFFFFFFFFFFFFFFFFFFFFFFFFFFFFFFFFFFFF
310
FFFFFFFFFFFFFFFFFFFFFFFFFFFFFFFFF000FFFFFFFFFFFFFFFFFFFFFFFFFFFF
310
FFFFFFFFFFFFFFFFFFFFFFFFFFFFFFFFFFFFFFFFFFFFFFFFFFFFFFFFFFFFFFFF
310
FFFFFFFFFFFFFFFFFFFFFFFFFFFFFFFFFFFFFFFFFFFFFFFFFFFFFFFFFFFFFFFF
310
FFFFFFFFFFFFFFFFF000FFFFFFFFFFFFFFFFFFFFFFFFFFFFFFFFFFFFFFFFFFFF
310
FFFFFFFFFFFFFFFFFFFFFFFFFFFFFFFFFFFFFFFFFFFFFFFFFFFFFFFFFFFFFFFF
310
FFFFFFFFFFFFFFFFFFFFFFFFFFFFFFFFFFFFFFFFFFFFFFFFFFFFFFFFFFFFFFFF
310
F000FFFFFFFFFFFFFFFFFFFFFFFFFFFFFFFFFFFFFFFFFFFFFFFFFFFFFFFFFFFF
310
FFFFFFFFFFFFFFFFFFFFFFFFFFFFFFFFFFFFFFFFFFFFFFFFFFFFFFFFFFFFFFFF
310
FFFFFFFFFFFFFFFFFFFFFFFFFFFFFFFFFFFFFFFFFFFFFFFFF000FFFFFFFFFFFF
310
FFFFFFFFFFFFFFFFFFFFFFFFFFFFFFFFFFFFFFFFFFFFFFFFFFFFFFFFFFFFFFFF
310
FFFFFFFFFFFFFFFFFFFFFFFFFFFFFFFFFFFFFFFFFFFFFFFFFFFFFFFFFFFFFFFF
310
FFFFFFFFFFFFFFFFFFFFFFFFFFFFFFFFF000FFFFFFFFFFFFFFFFFFFFFFFFFFFF
310
FFFFFFFFFFFFFFFFFFFFFFFFFFFFFFFFFFFFFFFFFFFFFFFFFFFFFFFFFFFFFFFF
310
FFFFFFFFFFFFFFFFFFFFFFFFFFFFFFFFFFFFFFFFFFFFFFFFFFFFFFFFFFFFFFFF
310
FFFFFFFFFFFFFFFFF000FFFFFFFFFFFFFFFFFFFFFFFFFFFFFFFFFFFFFFFFFFFF
310
FFFFFFFFFFFFFFFFFFFFFFFFFFFFFFFFFFFFFFFFFFFFFFFFFFFFFFFFFFFFFFFF
310
FFFFFFFFFFFFFFFFFFFFFFFFFFFFFFFFFFFFFFFFFFFFFFFFFFFFFFFFFFFFFFFF
310
F000FFFFFFFFFFFFFFFFFFFFFFFFFFFFFFFFFFFFFFFFFFFFFFFFFFFFFFFFFFFF
310
FFFFFFFFFFFFFFFFFFFFFFFFFFFFFFFFFFFFFFFFFFFFFFFFFFFFFFFFFFFFFFFF
310
FFFFFFFFFFFFFFFFFFFFFFFFFFFFFFFFFFFFFFFFFFFFFFFFF000FFFFFFFFFFFF
310
FFFFFFFFFFFFFFFFFFFFFFFFFFFFFFFFFFFFFFFFFFFFFFFFFFFFFFFFFFFFFFFF
310
FFFFFFFFFFFFFFFFFFFFFFFFFFFFFFFFFFFFFFFFFFFFFFFFFFFFFFFFFFFFFFFF
310
FFFFFFFFFFFFFFFFFFFFFFFFFFFFFFFFF000FFFFFFFFFFFFFFFFFFFFFFFFFFFF
310
FFFFFFFFFFFFFFFFFFFFFFFFFFFFFFFFFFFFFFFFFFFFFFFFFFFFFFFFFFFFFFFF
310
FFFFFFFFFFFFFFFFFFFFFFFFFFFFFFFFFFFFFFFFFFFFFFFFFFFFFFFFFFFFFFFF
310
FFFFFFFFFFFFFFFFF000FFFFFFFFFFFFFFFFFFFFFFFFFFFFFFFFFFFFFFFFFFFF
310
FFFFFFFFFFFFFFFFFFFFFFFFFFFFFFFFFFFFFFFFFFFFFFFFFFFFFFFFFFFFFFFF
310
FFFFFFFFFFFFFFFFFFFFFFFFFFFFFFFFFFFFFFFFFFFFFFFFFFFFFFFFFFFFFFFF
310
F000FFFFFFFFFFFFFFFFFFFFFFFFFFFFFFFFFFFFFFFFFFFFFFFFFFFFFFFFFFFF
310
FFFFFFFFFFFFFFFFFFFFFFFFFFFFFFFFFFFFFFFFFFFFFFFFFFFFFFFFFFFFFFFF
310
FFFFFFFFFFFFFFFFFFFFFFFFFFFFFFFFFFFFFFFFFFFFFFFFF000FFFFFFFFFFFF
310
FFFFFFFFFFFFFFFFFFFFFFFFFFFFFFFFFFFFFFFFFFFFFFFFFFFFFFFFFFFFFFFF
310
FFFFFFFFFFFFFFFFFFFFFFFFFFFFFFFFFFFFFFFFFFFFFFFFFFFFFFFFFFFFFFFF
310
FFFFFFFFFFFFFFFFFFFFFFFFFFFFFFFFF000FFFFFFFFFFFFFFFFFFFFFFFFFFFF
310
FFFFFFFFFFFFFFFFFFFFFFFFFFFFFFFFFFFFFFFFFFFFFFFFFFFFFFFFFFFFFFFF
310
FFFFFFFFFFFFFFFFFFFFFFFFFFFFFFFFFFFFFFFFFFFFFFFFFFFFFFFFFFFFFFFF
310
FFFFFFFFFFFFFFFFF000FFFFFFFFFFFFFFFFFFFFFFFFFFFFFFFFFFFFFFFFFFFF
310
FFFFFFFFFFFFFFFFFFFFFFFFFFFFFFFFFFFFFFFFFFFFFFFFFFFFFFFFFFFFFFFF
310
FFFFFFFFFFFFFFFFFFFFFFFFFFFFFFFFFFFFFFFFFFFFFFFFFFFFFFFFFFFFFFFF
310
F000FFFFFFFFFFFFFFFFFFFFFFFFFFFFFFFFFFFFFFFFFFFFFFFFFFFFFFFFFFFF
310
FFFFFFFFFFFFFFFFFFFFFFFFFFFFFFFFFFFFFFFFFFFFFFFFFFFFFFFFFFFFFFFF
310
FFFFFFFFFFFFFFFFFFFFFFFFFFFFFFFFFFFFFFFFFFFFFFFFF000FFFFFFFFFFFF
310
FFFFFFFFFFFFFFFFFFFFFFFFFFFFFFFFFFFFFFFFFFFFFFFFFFFFFFFFFFFFFFFF
310
FFFFFFFFFFFFFFFFFFFFFFFFFFFFFFFFFFFFFFFFFFFFFFFFFFFFFFFFFFFFFFFF
310
FFFFFFFFFFFFFFFFFFFFFFFFFFFFFFFFF000FFFFFFFFFFFFFFFFFFFFFFFFFFFF
310
FFFFFFFFFFFFFFFFFFFFFFFFFFFFFFFFFFFFFFFFFFFFFFFFFFFFFFFFFFFFFFFF
310
FFFFFFFFFFFFFFFFFFFFFFFFFFFFFFFFFFFFFFFFFFFFFFFFFFFFFFFFFFFFFFFF
310
FFFFFFFFFFFFFFFFF000FFFFF80003FFFFFFFFFFFFFFFFFFFFFFFFFFFFFFFFFF
310
FFFFF00007FFFFFFFFFF00007FFFFFF800000000000000007FFFFFFFFFFFFFFF
310
FFFFFFFC001FFFFFFFFFFFFFFC001FFFFFFFFFFFFFFFFFFFFFFFFFFE0007FFFF
310
F000FFFF8000007FFFFFFFF8000FFFFFC0007FFFFF80007FFFFF0000007FFFFF
310
FFF8000007FFFFF800000000000000007FFFFFF0001FFFFFFFFFFFC00001FFFF
310
FFFFFFFFC00001FFFFFFFF000000000003FFFFE000007FFFF000FFFE0000000F
310
FFFFFFF0000FFFFF80007FFFFF80007FFFFC0000001FFFFFFFC0000001FFFFF8
310
00000000000000007FFFFFF0001FFFFFFFFFFE0000003FFFFFFFFFFE0000003F
310
FFFFFF000000000003FFFF0000000FFFF000FFF800000003FFFFFFF00007FFFF
310
80007FFFFF80007FFFF000000007FFFFFF000000003FFFF80000000000000000
310
7FFFFFF0001FFFFFFFFFF80000000FFFFFFFFFF80000000FFFFFFF0000000000
310
03FFFC00000003FFF000FFE000000000FFFFFFF00007FFFF80003FFFFF80007F
310
FFC000000001FFFFFC000000001FFFF800000000000000007FFFFFF0001FFFFF
310
FFFFE000000003FFFFFFFFE000000003FFFFFF000000000003FFF000000000FF
310
F000FF80000000007FFFFFF00007FFFF80003FFFFF80007FFF8000000000FFFF
310
F80000000007FFF800000000000000007FFFFFF0001FFFFFFFFFC000000001FF
310
FFFFFFC000000001FFFFFF000000000003FFC0000000007FF000FF0000000000
310
3FFFFFE00007FFFF00003FFFFF80007FFE00000000003FFFF00000000003FFF8
310
00000000000000007FFFFFF0001FFFFFFFFF8000000000FFFFFFFF8000000000
310
FFFFFF000000000003FF80000000003FF000FE00000000001FFFFFE00003FFFF
310
00003FFFFF80007FFC00000000001FFFE00000000001FFF8000001FFFE000000
310
7FFFFFF0001FFFFFFFFE00000000003FFFFFFE00000000003FFFFF0000000000
310
03FF00000000001FF000FC00000000000FFFFFE00003FFFF00001FFFFF80007F
310
F800000000001FFFC00000000000FFF8000001FFFE0000007FFFFFF0001FFFFF
310
FFFC00000000001FFFFFFC00000000001FFFFF000000000003FE00000000000F
310
F000F8000000000007FFFFE00003FFFF00001FFFFF80007FF800000000000FFF
310
800000000000FFF8000001FFFE0000007FFFFFF0001FFFFFFFF800000000000F
310
FFFFF800000000000FFFFF000000000003FC000000000007F000F80000000000
310
03FFFFC00003FFFE00001FFFFF80007FF0000000000007FF0000000000007FF8
310
000001FFFE0000007FFFFFF0001FFFFFFFF0000000000007FFFFF00000000000
310
07FFFF000000000003F8000000000003F000F0000000000003FFFFC00001FFFE
310
00001FFFFF80007FE0000000000007FE0000000000003FF8000001FFFE000000
310
7FFFFFF0001FFFFFFFF0000000000007FFFFF0000000000007FFFF0000000000
310
03F800001F800003F000E00001FFF00001FFFFC00001FFFE00000FFFFF80007F
310
E00001FFE00003FE00001FFF00003FF8000001FFFE0000007FFFFFF0001FFFFF
310
FFE000003E000003FFFFE000003E000003FFFF000000000003F00001FFF80001
310
F000E00007FFFC0001FFFFC00001FFFE00000FFFFF80007FC0000FFFFC0003FC
310
0000FFFFC0001FF8000001FFFE0000007FFFFFF0001FFFFFFFC00003FFE00001
310
FFFFC00003FFE00001FFFF0001FFFFFFFFF00007FFFE0001F000E0000FFFFF00
310
00FFFF800001FFFC00000FFFFF80007FC0001FFFFE0001FC0001FFFFE0001FF8
310
000001FFFE0000007FFFFFF0001FFFFFFF80000FFFF80000FFFF80000FFFF800
310
00FFFF0003FFFFFFFFE0000FFFFF8000F000C0003FFFFF8000FFFF800000FFFC
310
000007FFFF80007F80003FFFFF0001FC0003FFFFF0001FF8000001FFFE000000
310
7FFFFFF0001FFFFFFF80003FFFFE0000FFFF80003FFFFE0000FFFF0003FFFFFF
310
FFE0003FFFFF8000F000C0003FFFFF8000FFFF800000FFFC000007FFFF80007F
310
80007FFFFF8001F80007FFFFF8000FF8000001FFFE0000007FFFFFF0001FFFFF
310
FF00007FFFFF00007FFF00007FFFFF00007FFF0003FFFFFFFFE0003FFFFFC000
310
F000C0007FFFFFC000FFFF000000FFFC000007FFFF80007F8000FFFFFF8000F8
310
000FFFFFF8000FF8000001FFFE0000007FFFFFF0001FFFFFFF0000FFFFFF8000
310
7FFF0000FFFFFF80007FFF0003FFFFFFFFC0007FFFFFC00070008000FFFFFFC0
310
00FFFF000000FFF8000007FFFF80007F8000FFFFFF8000F8000FFFFFF8000FF8
310
000001FFFE0000007FFFFFF0001FFFFFFE0001FFFFFFC0003FFE0001FFFFFFC0
310
003FFF0003FFFFFFFFC0007FFFFFE00070008000FFFFFFC0007FFF0000007FF8
310
000003FFFF80007F0001FFFFFF8000F8000FFFFFF8000FF8000001FFFE000000
310
7FFFFFF0001FFFFFFE0001FFFFFFC0003FFE0001FFFFFFC0003FFF0003FFFFFF
310
FFC000FFFFFFE00070008000FFFFFFC0007FFF0000007FF8000003FFFF80007F
310
0001FFFFFF8000F8001FFFFFF8000FF8000001FFFE0000007FFFFFF0001FFFFF
310
FE0003FFFFFFE0003FFE0003FFFFFFE0003FFF0003FFFFFFFFC000FFFFFFE000
310
70008000FFFFFFC0007FFE0000007FF8000003FFFF80007F0001FFFFFF8000F0
310
001FFFFFF8000FF8000001FFFE0000007FFFFFF0001FFFFFFC0003FFFFFFE000
310
1FFC0003FFFFFFE0001FFF0003FFFFFFFFC000FFFFFFC00070008000FFFFFF80
310
007FFE0000007FF0000003FFFF80007F0001FFFFFF0000F0001FFFFFF8000FF8
310
000001FFFE0000007FFFFFF0001FFFFFFC0007FFFFFFF0001FFC0007FFFFFFF0
310
001FFF0003FFFFFFFFC000FFFFFFC00070008001FFFFFF0000FFFE0000003FF0
310
000001FFFF80007F0001FFFFFF0000F8001FFFFFF0000FF8000001FFFE000000
310
7FFFFFF0001FFFFFFC0007FFFFFFF0001FFC0007FFFFFFF0001FFF0003FFFFFF
310
FFC001FFFFFF80007000FFFFFFFFFE0000FFFE0008003FF0008001FFFF80007F
310
FFFFFFFFFC0000FFFFFFFFFFE0000FF8000001FFFE0000007FFFFFF0001FFFFF
310
F8000FFFFFFFF8000FF8000FFFFFFFF8000FFF0003FFFFFFFFFFFFFFFFFF0000
310
7000FFFFFFFFFC0000FFFC0008003FF0008001FFFF80007FFFFFFFFFF80001FF
310
FFFFFFFF80000FF8000001FFFE0000007FFFFFF0001FFFFFF8000FFFFFFFF800
310
0FF8000FFFFFFFF8000FFF0003FFFFFFFFFFFFFFFFFE0000F000FFFFFFFFE000
310
00FFFC000C003FE000C001FFFF80007FFFFFFFFFC00001FFFFFFFFFE00001FF8
310
000001FFFE0000007FFFFFF0001FFFFFF8000FFFFFFFF8000FF8000FFFFFFFF8
310
000FFF0003FFFFFFFFFFFFFFFFF00000F000FFFFFFFE000001FFFC000C001FE0
310
00C000FFFF80007FFFFFFFFE000001FFFFFFFFE000001FF80FFFFFFFFFFFFFC0
310
7FFFFFF0001FFFFFF8000FFFFFFFF8000FF8000FFFFFFFF8000FFF0003FFFFFF
310
FFFFFFFFFF800000F000FFFFFFC0000001FFFC001C001FE001C000FFFF80007F
310
FFFFFF80000003FFFFFFF80000001FF80FFFFFFFFFFFFFC07FFFFFF0001FFFFF
310
F8001FFFFFFFFC000FF8001FFFFFFFFC000FFF0003FFFFFFFFFFFFFFF0000001
310
F000FFFFF800000001FFF8001C001FE001C000FFFF80007FFFFFF800000003FF
310
FFFF800000003FF80FFFFFFFFFFFFFC07FFFFFF0001FFFFFF8001FFFFFFFFC00
310
0FF8001FFFFFFFFC000FFF0003FFFFFFFFFFFFFE00000001F000FFFFC0000000
310
03FFF8001E001FC001E000FFFF80007FFFFF8000000007FFFFFC000000003FF8
310
0FFFFFFFFFFFFFC07FFFFFF0001FFFFFF8001FFFFFFFFC000FF8001FFFFFFFFC
310
000FFF0003FFFFFFFFFFFFE000000003F000FFFE0000000007FFF8001E000FC0
310
01E0007FFF80007FFFFE0000000007FFFFE0000000007FF80FFFFFFFFFFFFFC0
310
7FFFFFF0001FFFFFF0001FFFFFFFFC0007F0001FFFFFFFFC0007FF0003FFFFFF
310
FFFFFF0000000003F000FFF80000000007FFF8001E000FC003E0007FFF80007F
310
FFF0000000000FFFFF8000000000FFF80FFFFFFFFFFFFFC07FFFFFF0001FFFFF
310
F0001FFFFFFFFC0007F0001FFFFFFFFC0007FF0003FFFFFFFFFFFC0000000007
310
F000FFE0000000000FFFF0003E000FC003E0007FFF80007FFFC0000000001FFF
310
FE0000000001FFF80FFFFFFFFFFFFFC07FFFFFF0001FFFFFF0001FFFFFFFFC00
310
07F0001FFFFFFFFC0007FF0003FFFFFFFFFFF0000000000FF000FFC000000000
310
1FFFF0003F000F8003F0003FFF80007FFF80000000003FFFF80000000003FFF8
310
0FFFFFFFFFFFFFC07FFFFFF0001FFFFFF0001FFFFFFFFC0007F0001FFFFFFFFC
310
0007FF0003FFFFFFFFFFE0000000001FF000FF00000000007FFFF0003F000780
310
03F0003FFF80007FFF00000000007FFFF00000000007FFF80FFFFFFFFFFFFFC0
310
7FFFFFF0001FFFFFF0001FFFFFFFFC0007F0001FFFFFFFFC0007FF0003FFFFFF
310
FFFF80000000007FF000FE0000000000FFFFE0003F00078007F0003FFF80007F
310
FE0000000001FFFFE0000000001FFFF80FFFFFFFFFFFFFC07FFFFFF0001FFFFF
310
F0001FFFFFFFFC0007F0001FFFFFFFFC0007FF0003FFFFFFFFFF0000000000FF
310
F000FC0000000003FFFFE0007F00078007F0003FFF80007FFC0000000007FFFF
310
C0000000007FFFF80FFFFFFFFFFFFFC07FFFFFF0001FFFFFF8001FFFFFFFFC00
310
0FF8001FFFFFFFFC000FFF0003FFFFFFFFFE0000000003FFF000FC000000000F
310
FFFFE0007F80070007F8001FFF80007FF8000000001FFFFF8000000001FFFFF8
310
0FFFFFFFFFFFFFC07FFFFFF0001FFFFFF8001FFFFFFFFC000FF8001FFFFFFFFC
310
000FFF0003FFFFFFFFFC000000000FFFF000F8000000007FFFFFE0007F800700
310
07F8001FFF80007FF000000000FFFFFF800000000FFFFFF80FFFFFFFFFFFFFC0
310
7FFFFFF0001FFFFFF8000FFFFFFFF8000FF8000FFFFFFFF8000FFF0003FFFFFF
310
FFFC000000007FFFF000F800000007FFFFFFC0007F8003000FF8001FFF80007F
310
F000000007FFFFFF000000007FFFFFF80FFFFFFFFFFFFFC07FFFFFF0001FFFFF
310
F8000FFFFFFFF8000FF8000FFFFFFFF8000FFF0003FFFFFFFFF80000000FFFFF
310
F000F0000000FFFFFFFFC000FF8003000FF8001FFF80007FE0000000FFFFFFFF
310
0000000FFFFFFFF8000001FFFE0000007FFFFFF0001FFFFFF8000FFFFFFFF800
310
0FF8000FFFFFFFF8000FFF0003FFFFFFFFF8000000FFFFFFF000F000000FFFFF
310
FFFFC000FFC002000FF8000FFF80007FE000001FFFFFFFFE000001FFFFFFFFF8
310
000001FFFE0000007FFFFFF0001FFFFFF8000FFFFFFFF8000FF8000FFFFFFFF8
310
000FFF0003FFFFFFFFF000001FFFFFFFF000E00000FFFFFFFFFFC000FFC00200
310
0FFC000FFF80007FE00001FFFFFFFFFE00001FFFFFFFFFF8000001FFFE000000
310
7FFFFFF0001FFFFFFC000FFFFFFFF8001FFC000FFFFFFFF8001FFF0003FFFFFF
310
FFF00001FFFFFFFFF000E00007FFFFFFFFFF8000FFC000001FFC000FFF80007F
310
C0000FFFFFFFFFFE0000FFFFFFFFFFF8000001FFFE0000007FFFFFF0001FFFFF
310
FC0007FFFFFFF0001FFC0007FFFFFFF0001FFF0003FFFFFFFFF00007FFFFFFFF
310
F000E0001FFFFFFFFFFF8000FFC000001FFC000FFF80007FC0003FFFFFFFFFFE
310
0001FFFFFFFFFFF8000001FFFE0000007FFFFFF0001FFFFFFC0007FFFFFFF000
310
1FFC0007FFFFFFF0001FFF0003FFFFFFFFF0001FFFFFFFFFF000E0003FFFFF00
310
03FF8001FFE000001FFC0007FF80007FC0007FFFFF0007FC0003FFFFF0003FF8
310
000001FFFE0000007FFFFFF0001FFFFFFC0003FFFFFFE0001FFC0003FFFFFFE0
310
001FFF0003FFFFFFFFF0003FFFFFFFFFF000E0003FFFFF0001FF8001FFE00000
310
1FFE0007FF80007FC0007FFFFE0003FC0007FFFFE0003FF8000001FFFE000000
310
7FFFFFF0001FFFFFFE0003FFFFFFE0003FFE0003FFFFFFE0003FFF0003FFFFFF
310
FFF0003FFFFF8001F000E0003FFFFF0001FF0001FFE000001FFE0007FF80007F
310
C0007FFFFE0003FC0007FFFFE0003FF8000001FFFE0000007FFFFFF0001FFFFF
310
FE0001FFFFFFC0003FFE0001FFFFFFC0003FFF0003FFFFFFFFF0003FFFFF0001
310
F000E0003FFFFF0003FF0001FFE000003FFE0007FF80007FC0007FFFFE0003FC
310
0007FFFFE0003FF8000001FFFE0000007FFFFFF0001FFFFFFF0001FFFFFFC000
310
7FFF0001FFFFFFC0007FFF0003FFFFFFFFF0003FFFFF0001F000E0003FFFFE00
310
03FF0003FFF000003FFE0003FF80007FC0007FFFFC0003FE0007FFFFE0003FF8
310
000001FFFE0000007FFFFFF0001FFFFFFF0000FFFFFF80007FFF0000FFFFFF80
310
007FFF0003FFFFFFFFF0003FFFFF0001F000E0003FFFFE0003FF0003FFF00000
310
3FFF0003FF80007FC0007FFFFC0007FE0007FFFFC0003FF8000001FFFE000000
310
7FFFFFF0001FFFFFFF80007FFFFF0000FFFF80007FFFFF0000FFFF0003FFFFFF
310
FFF0003FFFFF0003F000E0003FFFFC0003FE0003FFF000003FFF0003FF80007F
310
E0003FFFF80007FE0003FFFFC0007FF8000001FFFE0000007FFFFFF0001FFFFF
310
FF80003FFFFE0000FFFF80003FFFFE0000FFFF0003FFFFFFFFF0001FFFFE0003
310
F000F0001FFFF80003FE0003FFF000007FFF0001FF80007FE0003FFFF00007FE
310
0001FFFF80007FF8000001FFFE0000007FFFFFF0001FFFFFFFC0000FFFF80001
310
FFFFC0000FFFF80001FFFF0003FFFFFFFFF0001FFFFC0003F000F0000FFFF000
310
07FE0007FFF800007FFF0001FF80007FE0001FFFE00007FF0000FFFE00007FF8
310
000001FFFE0000007FFFFFF0001FFFFFFFC00003FFE00001FFFFC00003FFE000
310
01FFFF0003FFFFFFFFF8000FFFF80003F000F00003FFC00007FC0007FFF80000
310
7FFF8001FF80007FF00007FF80000FFF00007FF80000FFF8000001FFFE000000
310
7F80000000000001FFE000003E000003FFFFE000003E000003FFFF0003FFFFFF
310
FFF80003FFE00007F000F800000000000FFC0007FFF800007FFF8001FF80007F
310
F000000000000FFF000000000000FFF8000001FFFE0000007F80000000000001
310
FFF0000000000007FFFFF0000000000007FFFF0003FFFFFFFFFC00007E000007
310
F000F800000000000FFC0007FFF80000FFFF8000FF80007FF800000000001FFF
310
800000000001FFF8000001FFFE0000007F80000000000001FFF800000000000F
310
FFFFF800000000000FFFFF0003FFFFFFFFFC00000000000FF000FC0000000000
310
1FFC0007FFFC0000FFFF8000FF80007FF800000000003FFFC00000000001FFF8
310
000001FFFE0000007F80000000000001FFF800000000000FFFFFF80000000000
310
0FFFFF0003FFFFFFFFFE00000000001FF000FE00000000003FF8000FFFFC0000
310
FFFF8000FF80007FFC00000000003FFFC00000000003FFF8000001FFFE000000
310
7F80000000000001FFFC00000000001FFFFFFC00000000001FFFFF0003FFFFFF
310
FFFF00000000001FF000FF00000000003FF8000FFFFC0000FFFFC000FF80007F
310
FE00000000007FFFE00000000007FFF8000001FFFE0000007F80000000000001
310
FFFE00000000003FFFFFFE00000000003FFFFF0003FFFFFFFFFF80000000003F
310
F000FF80000000007FF8000FFFFC0001FFFFC0007F80007FFF0000000000FFFF
310
F0000000000FFFF800000000000000007F80000000000001FFFF8000000000FF
310
FFFFFF8000000000FFFFFF0003FFFFFFFFFFC0000000007FF000FFC000000000
310
FFF8000FFFFE0001FFFFC0007F80007FFF8000000001FFFFF8000000001FFFF8
310
00000000000000007F80000000000001FFFFC000000001FFFFFFFFC000000001
310
FFFFFF0003FFFFFFFFFFE000000000FFF000FFE000000003FFF0001FFFFE0001
310
FFFFC0007F80007FFFC000000007FFFFFE000000003FFFF80000000000000000
310
7F80000000000001FFFFE000000003FFFFFFFFE000000003FFFFFF0003FFFFFF
310
FFFFF000000003FFF000FFF80000000FFFF0001FFFFE0001FFFFE0007F80007F
310
FFF00000000FFFFFFF00000000FFFFF800000000000000007F80000000000001
310
FFFFF80000000FFFFFFFFFF80000000FFFFFFF0003FFFFFFFFFFFC0000000FFF
310
F000FFFE0000003FFFF0001FFFFE0003FFFFE0003F80007FFFFC0000003FFFFF
310
FFC0000003FFFFF800000000000000007F80000000000001FFFFFE0000003FFF
310
FFFFFFFE0000003FFFFFFF0003FFFFFFFFFFFF0000003FFFF000FFFF800000FF
310
FFF0001FFFFF0003FFFFE0003F80007FFFFF000001FFFFFFFFF800001FFFFFF8
310
00000000000000007F80000000000001FFFFFFC00001FFFFFFFFFFFFC00001FF
310
FFFFFF0003FFFFFFFFFFFFC00000FFFFF000FFFFF8000FFFFFFFFFFFFFFFFFFF
310
FFFFFFFFFFFFFFFFFFFFF0001FFFFFFFFFFF0000FFFFFFF80000000000000000
310
7FFFFFFFFFFFFFFFFFFFFFFC001FFFFFFFFFFFFFFC001FFFFFFFFFFFFFFFFFFF
310
FFFFFFFC001FFFFFF000FFFFFFFFFFFFFFFFFFFFFFFFFFFFFFFFFFFFFFFFFFFF
310
FFFFFFFFFFFFFFFFFFFFFFFFFFFFFFFFFFFFFFFFFFFFFFFFFFFFFFFFFFFFFFFF
310
FFFFFFFFFFFFFFFFFFFFFFFFFFFFFFFFFFFFFFFFFFFFFFFFFFFFFFFFFFFFFFFF
310
F000FFFFFFFFFFFFFFFFFFFFFFFFFFFFFFFFFFFFFFFFFFFFFFFFFFFFFFFFFFFF
310
FFFFFFFFFFFFFFFFFFFFFFFFFFFFFFFFFFFFFFFFFFFFFFFFFFFFFFFFFFFFFFFF
310
FFFFFFFFFFFFFFFFFFFFFFFFFFFFFFFFFFFFFFFFFFFFFFFFF000FFFFFFFFFFFF
310
FFFFFFFFFFFFFFFFFFFFFFFFFFFFFFFFFFFFFFFFFFFFFFFFFFFFFFFFFFFFFFFF
310
FFFFFFFFFFFFFFFFFFFFFFFFFFFFFFFFFFFFFFFFFFFFFFFFFFFFFFFFFFFFFFFF
310
FFFFFFFFFFFFFFFFFFFFFFFFFFFFFFFFF000FFFFFFFFFFFFFFFFFFFFFFFFFFFF
310
FFFFFFFFFFFFFFFFFFFFFFFFFFFFFFFFFFFFFFFFFFFFFFFFFFFFFFFFFFFFFFFF
310
FFFFFFFFFFFFFFFFFFFFFFFFFFFFFFFFFFFFFFFFFFFFFFFFFFFFFFFFFFFFFFFF
310
FFFFFFFFFFFFFFFFF000FFFFFFFFFFFFFFFFFFFFFFFFFFFFFFFFFFFFFFFFFFFF
310
FFFFFFFFFFFFFFFFFFFFFFFFFFFFFFFFFFFFFFFFFFFFFFFFFFFFFFFFFFFFFFFF
310
FFFFFFFFFFFFFFFFFFFFFFFFFFFFFFFFFFFFFFFFFFFFFFFFFFFFFFFFFFFFFFFF
310
F000FFFFFFFFFFFFFFFFFFFFFFFFFFFFFFFFFFFFFFFFFFFFFFFFFFFFFFFFFFFF
310
FFFFFFFFFFFFFFFFFFFFFFFFFFFFFFFFFFFFFFFFFFFFFFFFFFFFFFFFFFFFFFFF
310
FFFFFFFFFFFFFFFFFFFFFFFFFFFFFFFFFFFFFFFFFFFFFFFFF000FFFFFFFFFFFF
310
FFFFFFFFFFFFFFFFFFFFFFFFFFFFFFFFFFFFFFFFFFFFFFFFFFFFFFFFFFFFFFFF
310
FFFFFFFFFFFFFFFFFFFFFFFFFFFFFFFFFFFFFFFFFFFFFFFFFFFFFFFFFFFFFFFF
310
FFFFFFFFFFFFFFFFFFFFFFFFFFFFFFFFF000FFFFFFFFFFFFFFFFFFFFFFFFFFFF
310
FFFFFFFFFFFFFFFFFFFFFFFFFFFFFFFFFFFFFFFFFFFFFFFFFFFFFFFFFFFFFFFF
310
FFFFFFFFFFFFFFFFFFFFFFFFFFFFFFFFFFFFFFFFFFFFFFFFFFFFFFFFFFFFFFFF
310
FFFFFFFFFFFFFFFFF000FFFFFFFFFFFFFFFFFFFFFFFFFFFFFFFFFFFFFFFFFFFF
310
FFFFFFFFFFFFFFFFFFFFFFFFFFFFFFFFFFFFFFFFFFFFFFFFFFFFFFFFFFFFFFFF
310
FFFFFFFFFFFFFFFFFFFFFFFFFFFFFFFFFFFFFFFFFFFFFFFFFFFFFFFFFFFFFFFF
310
F000FFFFFFFFFFFFFFFFFFFFFFFFFFFFFFFFFFFFFFFFFFFFFFFFFFFFFFFFFFFF
310
FFFFFFFFFFFFFFFFFFFFFFFFFFFFFFFFFFFFFFFFFFFFFFFFFFFFFFFFFFFFFFFF
310
FFFFFFFFFFFFFFFFFFFFFFFFFFFFFFFFFFFFFFFFFFFFFFFFF000FFFFFFFFFFFF
310
FFFFFFFFFFFFFFFFFFFFFFFFFFFFFFFFFFFFFFFFFFFFFFFFFFFFFFFFFFFFFFFF
310
FFFFFFFFFFFFFFFFFFFFFFFFFFFFFFFFFFFFFFFFFFFFFFFFFFFFFFFFFFFFFFFF
310
FFFFFFFFFFFFFFFFFFFFFFFFFFFFFFFFF000FFFFFFFFFFFFFFFFFFFFFFFFFFFF
310
FFFFFFFFFFFFFFFFFFFFFFFFFFFFFFFFFFFFFFFFFFFFFFFFFFFFFFFFFFFFFFFF
310
FFFFFFFFFFFFFFFFFFFFFFFFFFFFFFFFFFFFFFFFFFFFFFFFFFFFFFFFFFFFFFFF
310
FFFFFFFFFFFFFFFFF000FFFFFFFFFFFFFFFFFFFFFFFFFFFFFFFFFFFFFFFFFFFF
310
FFFFFFFFFFFFFFFFFFFFFFFFFFFFFFFFFFFFFFFFFFFFFFFFFFFFFFFFFFFFFFFF
310
FFFFFFFFFFFFFFFFFFFFFFFFFFFFFFFFFFFFFFFFFFFFFFFFFFFFFFFFFFFFFFFF
310
F000FFFFFFFFFFFFFFFFFFFFFFFFFFFFFFFFFFFFFFFFFFFFFFFFFFFFFFFFFFFF
310
FFFFFFFFFFFFFFFFFFFFFFFFFFFFFFFFFFFFFFFFFFFFFFFFFFFFFFFFFFFFFFFF
310
FFFFFFFFFFFFFFFFFFFFFFFFFFFFFFFFFFFFFFFFFFFFFFFFF000FFFFFFFFFFFF
310
FFFFFFFFFFFFFFFFFFFFFFFFFFFFFFFFFFFFFFFFFFFFFFFFFFFFFFFFFFFFFFFF
310
FFFFFFFFFFFFFFFFFFFFFFFFFFFFFFFFFFFFFFFFFFFFFFFFFFFFFFFFFFFFFFFF
310
FFFFFFFFFFFFFFFFFFFFFFFFFFFFFFFFF000FFFFFFFFFFFFFFFFFFFFFFFFFFFF
310
FFFFFFFFFFFFFFFFFFFFFFFFFFFFFFFFFFFFFFFFFFFFFFFFFFFFFFFFFFFFFFFF
310
FFFFFFFFFFFFFFFFFFFFFFFFFFFFFFFFFFFFFFFFFFFFFFFFFFFFFFFFFFFFFFFF
310
FFFFFFFFFFFFFFFFF000FFFFFFFFFFFFFFFFFFFFFFFFFFFFFFFFFFFFFFFFFFFF
310
FFFFFFFFFFFFFFFFFFFFFFFFFFFFFFFFFFFFFFFFFFFFFFFFFFFFFFFFFFFFFFFF
310
FFFFFFFFFFFFFFFFFFFFFFFFFFFFFFFFFFFFFFFFFFFFFFFFFFFFFFFFFFFFFFFF
310
F000FFFFFFFFFFFFFFFFFFFFFFFFFFFFFFFFFFFFFFFFFFFFFFFFFFFFFFFFFFFF
310
FFFFFFFFFFFFFFFFFFFFFFFFFFFFFFFFFFFFFFFFFFFFFFFFFFFFFFFFFFFFFFFF
310
FFFFFFFFFFFFFFFFFFFFFFFFFFFFFFFFFFFFFFFFFFFFFFFFF000FFFFFFFFFFFF
310
FFFFFFFFFFFFFFFFFFFFFFFFFFFFFFFFFFFFFFFFFFFFFFFFFFFFFFFFFFFFFFFF
310
FFFFFFFFFFFFFFFFFFFFFFFFFFFFFFFFFFFFFFFFFFFFFFFFFFFFFFFFFFFFFFFF
310
FFFFFFFFFFFFFFFFFFFFFFFFFFFFFFFFF000FFFFFFFFFFFFFFFFFFFFFFFFFFFF
310
FFFFFFFFFFFFFFFFFFFFFFFFFFFFFFFFFFFFFFFFFFFFFFFFFFFFFFFFFFFFFFFF
310
FFFFFFFFFFFFFFFFFFFFFFFFFFFFFFFFFFFFFFFFFFFFFFFFFFFFFFFFFFFFFFFF
310
FFFFFFFFFFFFFFFFF000FFFFFFFFFFFFFFFFFFFFFFFFFFFFFFFFFFFFFFFFFFFF
310
FFFFFFFFFFFFFFFFFFFFFFFFFFFFFFFFFFFFFFFFFFFFFFFFFFFFFFFFFFFFFFFF
310
FFFFFFFFFFFFFFFFFFFFFFFFFFFFFFFFFFFFFFFFFFFFFFFFFFFFFFFFFFFFFFFF
310
F000FFFFFFFFFFFFFFFFFFFFFFFFFFFFFFFFFFFFFFFFFFFFFFFFFFFFFFFFFFFF
310
FFFFFFFFFFFFFFFFFFFFFFFFFFFFFFFFFFFFFFFFFFFFFFFFFFFFFFFFFFFFFFFF
310
FFFFFFFFFFFFFFFFFFFFFFFFFFFFFFFFFFFFFFFFFFFFFFFFF000FFFFFFFFFFFF
310
FFFFFFFFFFFFFFFFFFFFFFFFFFFFFFFFFFFFFFFFFFFFFFFFFFFFFFFFFFFFFFFF
310
FFFFFFFFFFFFFFFFFFFFFFFFFFFFFFFFFFFFFFFFFFFFFFFFFFFFFFFFFFFFFFFF
310
FFFFFFFFFFFFFFFFFFFFFFFFFFFFFFFFF0000000000000000000000000000000
310
0000000000000000000000000000000000000000000000000000000000000000
310
0000000000000000000000000000000000000000000000000000000000000000
310
0000000000000000000000000000000000000000000000000000000000000000
310
0000000000000000000000000000000000000000000000000000000000000000
310
0000000000000000000000000000000000000000000000000000000000000000
310
0000000000000000000000000000000000000000000000000000000000000000
310
0000000000000000000000000000000000000000000000000000000000000000
310
0000000000000000000000000000000000000000000000000000000000000000
310
0000000000000000000000000000000000000000000000000000000000000000
310
0000000000000000000000000000000000000000000000000000000000000000
310
0000000000000000000000000000000000000000000000000000000000000000
310
0000000000000000000000000000000000000000000000000000000000000000
310
0000000000000000000000000000000000000000000000000000000000000000
310
0000000000000000000000000000000000000000000000000000000000000000
310
0000000000000000000000000000000000000000000000000000000000000000
  1
OLE
  0
ENDSEC
  0
SECTION
  2
OBJECTS
  0
DICTIONARY
  5
C
330
0
100
AcDbDictionary
281
     1
  3
ACAD_GROUP
350
D
  3
ACAD_LAYOUT
350
1A
  3
ACAD_MLINESTYLE
350
17
  3
ACAD_PLOTSETTINGS
350
19
  3
ACAD_PLOTSTYLENAME
350
E
  3
ACAD_SCALELIST
350
47
  0
DICTIONARY
  5
D
102
{ACAD_REACTORS
330
C
102
}
330
C
100
AcDbDictionary
281
     1
  0
DICTIONARY
  5
1A
102
{ACAD_REACTORS
330
C
102
}
330
C
100
AcDbDictionary
281
     1
  3
Layout1
350
1E
  3
Layout2
350
26
  3
Model
350
22
  0
DICTIONARY
  5
17
102
{ACAD_REACTORS
330
C
102
}
330
C
100
AcDbDictionary
281
     1
  3
Standard
350
18
  0
DICTIONARY
  5
19
102
{ACAD_REACTORS
330
C
102
}
330
C
100
AcDbDictionary
281
     1
  0
ACDBDICTIONARYWDFLT
  5
E
102
{ACAD_REACTORS
330
C
102
}
330
C
100
AcDbDictionary
281
     1
  3
Normal
350
F
100
AcDbDictionaryWithDefault
340
F
  0
DICTIONARY
  5
47
102
{ACAD_REACTORS
330
C
102
}
330
C
100
AcDbDictionary
281
     1
  3
A0
350
48
  3
A1
350
49
  3
A2
350
4A
  3
A3
350
4B
  3
A4
350
4C
  3
A5
350
4D
  3
A6
350
4E
  3
A7
350
4F
  3
A8
350
50
  3
A9
350
51
  3
B0
350
52
  3
B1
350
53
  3
B2
350
54
  3
B3
350
55
  3
B4
350
56
  3
B5
350
57
  3
B6
350
58
  3
B7
350
59
  3
B8
350
5A
  3
B9
350
5B
  3
C0
350
5C
  3
C1
350
5D
  3
C2
350
5E
  3
C3
350
5F
  3
C4
350
60
  3
C5
350
61
  3
C6
350
62
  3
C7
350
63
  3
C8
350
64
  3
C9
350
65
  3
D0
350
66
  3
D1
350
67
  3
D2
350
68
  0
LAYOUT
  5
1E
102
{ACAD_REACTORS
330
1A
102
}
330
1A
100
AcDbPlotSettings
  1

  2
none_device
  4

  6

 40
0.0
 41
0.0
 42
0.0
 43
0.0
 44
0.0
 45
0.0
 46
0.0
 47
0.0
 48
0.0
 49
0.0
140
0.0
141
0.0
142
1.0
143
1.0
 70
   688
 72
     1
 73
     0
 74
     5
  7

 75
    16
147
1.0
148
0.0
149
0.0
100
AcDbLayout
  1
Layout1
 70
     1
 71
     1
 10
0.0
 20
0.0
 11
420.0
 21
297.0
 12
0.0
 22
0.0
 32
0.0
 14
1.0000000000E+20
 24
1.0000000000E+20
 34
1.0000000000E+20
 15
-1.0000000000E+20
 25
-1.0000000000E+20
 35
-1.0000000000E+20
146
0.0
 13
0.0
 23
0.0
 33
0.0
 16
1.0
 26
0.0
 36
0.0
 17
0.0
 27
1.0
 37
0.0
 76
     0
330
1B
  0
LAYOUT
  5
26
102
{ACAD_REACTORS
330
1A
102
}
330
1A
100
AcDbPlotSettings
  1

  2
none_device
  4

  6

 40
0.0
 41
0.0
 42
0.0
 43
0.0
 44
0.0
 45
0.0
 46
0.0
 47
0.0
 48
0.0
 49
0.0
140
0.0
141
0.0
142
1.0
143
1.0
 70
   688
 72
     1
 73
     0
 74
     5
  7

 75
    16
147
1.0
148
0.0
149
0.0
100
AcDbLayout
  1
Layout2
 70
     1
 71
     2
 10
0.0
 20
0.0
 11
0.0
 21
0.0
 12
0.0
 22
0.0
 32
0.0
 14
0.0
 24
0.0
 34
0.0
 15
0.0
 25
0.0
 35
0.0
146
0.0
 13
0.0
 23
0.0
 33
0.0
 16
1.0
 26
0.0
 36
0.0
 17
0.0
 27
1.0
 37
0.0
 76
     0
330
23
  0
LAYOUT
  5
22
102
{ACAD_REACTORS
330
1A
102
}
330
1A
100
AcDbPlotSettings
  1

  2
none_device
  4
Letter_(8.50_x_11.00_Inches)
  6

 40
6.35
 41
6.35
 42
6.35000508
 43
6.35000508
 44
215.9
 45
279.4
 46
0.0
 47
0.0
 48
0.0
 49
0.0
140
0.0
141
0.0
142
1.0
143
1.0
 70
  1712
 72
     1
 73
     0
 74
     0
  7

 75
     0
147
1.0
148
0.0
149
0.0
100
AcDbLayout
  1
Model
 70
     1
 71
     0
 10
0.0
 20
0.0
 11
297.0
 21
210.0
 12
0.0
 22
0.0
 32
0.0
 14
0.0
 24
0.0
 34
0.0
 15
297.0
 25
210.0
 35
0.0
146
0.0
 13
0.0
 23
0.0
 33
0.0
 16
1.0
 26
0.0
 36
0.0
 17
0.0
 27
1.0
 37
0.0
 76
     0
330
1F
331
29
  0
MLINESTYLE
  5
18
102
{ACAD_REACTORS
330
17
102
}
330
17
100
AcDbMlineStyle
  2
Standard
 70
     0
  3

 62
   256
 51
90.0
 52
90.0
 71
     2
 49
0.5
 62
   256
  6
BYLAYER
 49
-0.5
 62
   256
  6
BYLAYER
  0
ACDBPLACEHOLDER
  5
F
102
{ACAD_REACTORS
330
E
102
}
330
E
  0
SCALE
  5
48
102
{ACAD_REACTORS
330
47
102
}
330
47
100
AcDbScale
 70
     0
300
1:1
140
1.0
141
1.0
290
     1
  0
SCALE
  5
49
102
{ACAD_REACTORS
330
47
102
}
330
47
100
AcDbScale
 70
     0
300
1:2
140
1.0
141
2.0
290
     0
  0
SCALE
  5
4A
102
{ACAD_REACTORS
330
47
102
}
330
47
100
AcDbScale
 70
     0
300
1:4
140
1.0
141
4.0
290
     0
  0
SCALE
  5
4B
102
{ACAD_REACTORS
330
47
102
}
330
47
100
AcDbScale
 70
     0
300
1:5
140
1.0
141
5.0
290
     0
  0
SCALE
  5
4C
102
{ACAD_REACTORS
330
47
102
}
330
47
100
AcDbScale
 70
     0
300
1:8
140
1.0
141
8.0
290
     0
  0
SCALE
  5
4D
102
{ACAD_REACTORS
330
47
102
}
330
47
100
AcDbScale
 70
     0
300
1:10
140
1.0
141
10.0
290
     0
  0
SCALE
  5
4E
102
{ACAD_REACTORS
330
47
102
}
330
47
100
AcDbScale
 70
     0
300
1:16
140
1.0
141
16.0
290
     0
  0
SCALE
  5
4F
102
{ACAD_REACTORS
330
47
102
}
330
47
100
AcDbScale
 70
     0
300
1:20
140
1.0
141
20.0
290
     0
  0
SCALE
  5
50
102
{ACAD_REACTORS
330
47
102
}
330
47
100
AcDbScale
 70
     0
300
1:30
140
1.0
141
30.0
290
     0
  0
SCALE
  5
51
102
{ACAD_REACTORS
330
47
102
}
330
47
100
AcDbScale
 70
     0
300
1:40
140
1.0
141
40.0
290
     0
  0
SCALE
  5
52
102
{ACAD_REACTORS
330
47
102
}
330
47
100
AcDbScale
 70
     0
300
1:50
140
1.0
141
50.0
290
     0
  0
SCALE
  5
53
102
{ACAD_REACTORS
330
47
102
}
330
47
100
AcDbScale
 70
     0
300
1:100
140
1.0
141
100.0
290
     0
  0
SCALE
  5
54
102
{ACAD_REACTORS
330
47
102
}
330
47
100
AcDbScale
 70
     0
300
2:1
140
2.0
141
1.0
290
     0
  0
SCALE
  5
55
102
{ACAD_REACTORS
330
47
102
}
330
47
100
AcDbScale
 70
     0
300
4:1
140
4.0
141
1.0
290
     0
  0
SCALE
  5
56
102
{ACAD_REACTORS
330
47
102
}
330
47
100
AcDbScale
 70
     0
300
8:1
140
8.0
141
1.0
290
     0
  0
SCALE
  5
57
102
{ACAD_REACTORS
330
47
102
}
330
47
100
AcDbScale
 70
     0
300
10:1
140
10.0
141
1.0
290
     0
  0
SCALE
  5
58
102
{ACAD_REACTORS
330
47
102
}
330
47
100
AcDbScale
 70
     0
300
100:1
140
100.0
141
1.0
290
     0
  0
SCALE
  5
59
102
{ACAD_REACTORS
330
47
102
}
330
47
100
AcDbScale
 70
     0
300
1/128" = 1'-0"
140
0.0078125
141
12.0
290
     0
  0
SCALE
  5
5A
102
{ACAD_REACTORS
330
47
102
}
330
47
100
AcDbScale
 70
     0
300
1/64" = 1'-0"
140
0.015625
141
12.0
290
     0
  0
SCALE
  5
5B
102
{ACAD_REACTORS
330
47
102
}
330
47
100
AcDbScale
 70
     0
300
1/32" = 1'-0"
140
0.03125
141
12.0
290
     0
  0
SCALE
  5
5C
102
{ACAD_REACTORS
330
47
102
}
330
47
100
AcDbScale
 70
     0
300
1/16" = 1'-0"
140
0.0625
141
12.0
290
     0
  0
SCALE
  5
5D
102
{ACAD_REACTORS
330
47
102
}
330
47
100
AcDbScale
 70
     0
300
3/32" = 1'-0"
140
0.09375
141
12.0
290
     0
  0
SCALE
  5
5E
102
{ACAD_REACTORS
330
47
102
}
330
47
100
AcDbScale
 70
     0
300
1/8" = 1'-0"
140
0.125
141
12.0
290
     0
  0
SCALE
  5
5F
102
{ACAD_REACTORS
330
47
102
}
330
47
100
AcDbScale
 70
     0
300
3/16" = 1'-0"
140
0.1875
141
12.0
290
     0
  0
SCALE
  5
60
102
{ACAD_REACTORS
330
47
102
}
330
47
100
AcDbScale
 70
     0
300
1/4" = 1'-0"
140
0.25
141
12.0
290
     0
  0
SCALE
  5
61
102
{ACAD_REACTORS
330
47
102
}
330
47
100
AcDbScale
 70
     0
300
3/8" = 1'-0"
140
0.375
141
12.0
290
     0
  0
SCALE
  5
62
102
{ACAD_REACTORS
330
47
102
}
330
47
100
AcDbScale
 70
     0
300
1/2" = 1'-0"
140
0.5
141
12.0
290
     0
  0
SCALE
  5
63
102
{ACAD_REACTORS
330
47
102
}
330
47
100
AcDbScale
 70
     0
300
3/4" = 1'-0"
140
0.75
141
12.0
290
     0
  0
SCALE
  5
64
102
{ACAD_REACTORS
330
47
102
}
330
47
100
AcDbScale
 70
     0
300
1" = 1'-0"
140
1.0
141
12.0
290
     0
  0
SCALE
  5
65
102
{ACAD_REACTORS
330
47
102
}
330
47
100
AcDbScale
 70
     0
300
1-1/2" = 1'-0"
140
1.5
141
12.0
290
     0
  0
SCALE
  5
66
102
{ACAD_REACTORS
330
47
102
}
330
47
100
AcDbScale
 70
     0
300
3" = 1'-0"
140
3.0
141
12.0
290
     0
  0
SCALE
  5
67
102
{ACAD_REACTORS
330
47
102
}
330
47
100
AcDbScale
 70
     0
300
6" = 1'-0"
140
6.0
141
12.0
290
     0
  0
SCALE
  5
68
102
{ACAD_REACTORS
330
47
102
}
330
47
100
AcDbScale
 70
     0
300
1'-0" = 1'-0"
140
12.0
141
12.0
290
     0
  0
ENDSEC
  0
EOF
