  0
SECTION
  2
HEADER
  9
$ACADVER
  1
AC1015
  9
$ACADMAINTVER
 70
     6
  9
$DWGCODEPAGE
  3
ANSI_1252
  9
$INSBASE
 10
0.0
 20
0.0
 30
0.0
  9
$EXTMIN
 10
0.0
 20
0.0
 30
0.0
  9
$EXTMAX
 10
297.0
 20
210.0
 30
0.0
  9
$LIMMIN
 10
0.0
 20
0.0
  9
$LIMMAX
 10
297.0
 20
210.0
  9
$ORTHOMODE
 70
     0
  9
$REGENMODE
 70
     1
  9
$FILLMODE
 70
     1
  9
$QTEXTMODE
 70
     0
  9
$MIRRTEXT
 70
     1
  9
$LTSCALE
 40
1.0
  9
$ATTMODE
 70
     1
  9
$TEXTSIZE
 40
2.0
  9
$TRACEWID
 40
1.0
  9
$TEXTSTYLE
  7
Standard
  9
$CLAYER
  8
0
  9
$CELTYPE
  6
ByLayer
  9
$CECOLOR
 62
   256
  9
$CELTSCALE
 40
1.0
  9
$DISPSILH
 70
     0
  9
$DIMSCALE
 40
1.0
  9
$DIMASZ
 40
3.0
  9
$DIMEXO
 40
0.0
  9
$DIMDLI
 40
3.75
  9
$DIMRND
 40
0.0
  9
$DIMDLE
 40
0.0
  9
$DIMEXE
 40
1.0
  9
$DIMTP
 40
0.0
  9
$DIMTM
 40
0.0
  9
$DIMTXT
 40
2.0
  9
$DIMCEN
 40
2.5
  9
$DIMTSZ
 40
0.0
  9
$DIMTOL
 70
     0
  9
$DIMLIM
 70
     0
  9
$DIMTIH
 70
     1
  9
$DIMTOH
 70
     1
  9
$DIMSE1
 70
     0
  9
$DIMSE2
 70
     0
  9
$DIMTAD
 70
     1
  9
$DIMZIN
 70
     0
  9
$DIMBLK
  1

  9
$DIMASO
 70
     1
  9
$DIMSHO
 70
     1
  9
$DIMPOST
  1

  9
$DIMAPOST
  1

  9
$DIMALT
 70
     0
  9
$DIMALTD
 70
     3
  9
$DIMALTF
 40
0.0393700787
  9
$DIMLFAC
 40
1.0
  9
$DIMTOFL
 70
     1
  9
$DIMTVP
 40
0.0
  9
$DIMTIX
 70
     0
  9
$DIMSOXD
 70
     0
  9
$DIMSAH
 70
     0
  9
$DIMBLK1
  1

  9
$DIMBLK2
  1

  9
$DIMSTYLE
  2
ISO-25
  9
$DIMCLRD
 70
     0
  9
$DIMCLRE
 70
     0
  9
$DIMCLRT
 70
     0
  9
$DIMTFAC
 40
1.0
  9
$DIMGAP
 40
1.524
  9
$DIMJUST
 70
     0
  9
$DIMSD1
 70
     0
  9
$DIMSD2
 70
     0
  9
$DIMTOLJ
 70
     0
  9
$DIMTZIN
 70
     0
  9
$DIMALTZ
 70
     0
  9
$DIMALTTZ
 70
     0
  9
$DIMUPT
 70
     0
  9
$DIMDEC
 70
     2
  9
$DIMTDEC
 70
     3
  9
$DIMALTU
 70
     2
  9
$DIMALTTD
 70
     3
  9
$DIMTXSTY
  7
Standard
  9
$DIMAUNIT
 70
     0
  9
$DIMADEC
 70
     2
  9
$DIMALTRND
 40
0.0
  9
$DIMAZIN
 70
     0
  9
$DIMDSEP
 70
    44
  9
$DIMATFIT
 70
     3
  9
$DIMFRAC
 70
     0
  9
$DIMLDRBLK
  1

  9
$DIMLUNIT
 70
     2
  9
$DIMLWD
 70
    -2
  9
$DIMLWE
 70
    -2
  9
$DIMTMOVE
 70
     0
  9
$LUNITS
 70
     2
  9
$LUPREC
 70
     2
  9
$SKETCHINC
 40
1.0
  9
$FILLETRAD
 40
10.0
  9
$AUNITS
 70
     0
  9
$AUPREC
 70
     2
  9
$MENU
  1
.
  9
$ELEVATION
 40
0.0
  9
$PELEVATION
 40
0.0
  9
$THICKNESS
 40
0.0
  9
$LIMCHECK
 70
     0
  9
$CHAMFERA
 40
0.0
  9
$CHAMFERB
 40
0.0
  9
$CHAMFERC
 40
0.0
  9
$CHAMFERD
 40
0.0
  9
$SKPOLY
 70
     0
  9
$TDCREATE
 40
2457672.409977396
  9
$TDUCREATE
 40
2457672.326644063
  9
$TDUPDATE
 40
2457672.409978727
  9
$TDUUPDATE
 40
2457672.326645393
  9
$TDINDWG
 40
0.0000000116
  9
$TDUSRTIMER
 40
0.0000000116
  9
$USRTIMER
 70
     1
  9
$ANGBASE
 50
0.0
  9
$ANGDIR
 70
     0
  9
$PDMODE
 70
     0
  9
$PDSIZE
 40
-1.0
  9
$PLINEWID
 40
0.0
  9
$SPLFRAME
 70
     0
  9
$SPLINETYPE
 70
     6
  9
$SPLINESEGS
 70
     8
  9
$HANDSEED
  5
271
  9
$SURFTAB1
 70
     6
  9
$SURFTAB2
 70
     6
  9
$SURFTYPE
 70
     6
  9
$SURFU
 70
     6
  9
$SURFV
 70
     6
  9
$UCSBASE
  2

  9
$UCSNAME
  2

  9
$UCSORG
 10
0.0
 20
0.0
 30
0.0
  9
$UCSXDIR
 10
1.0
 20
0.0
 30
0.0
  9
$UCSYDIR
 10
0.0
 20
1.0
 30
0.0
  9
$UCSORTHOREF
  2

  9
$UCSORTHOVIEW
 70
     0
  9
$UCSORGTOP
 10
0.0
 20
0.0
 30
0.0
  9
$UCSORGBOTTOM
 10
0.0
 20
0.0
 30
0.0
  9
$UCSORGLEFT
 10
0.0
 20
0.0
 30
0.0
  9
$UCSORGRIGHT
 10
0.0
 20
0.0
 30
0.0
  9
$UCSORGFRONT
 10
0.0
 20
0.0
 30
0.0
  9
$UCSORGBACK
 10
0.0
 20
0.0
 30
0.0
  9
$PUCSBASE
  2

  9
$PUCSNAME
  2

  9
$PUCSORG
 10
0.0
 20
0.0
 30
0.0
  9
$PUCSXDIR
 10
1.0
 20
0.0
 30
0.0
  9
$PUCSYDIR
 10
0.0
 20
1.0
 30
0.0
  9
$PUCSORTHOREF
  2

  9
$PUCSORTHOVIEW
 70
     0
  9
$PUCSORGTOP
 10
0.0
 20
0.0
 30
0.0
  9
$PUCSORGBOTTOM
 10
0.0
 20
0.0
 30
0.0
  9
$PUCSORGLEFT
 10
0.0
 20
0.0
 30
0.0
  9
$PUCSORGRIGHT
 10
0.0
 20
0.0
 30
0.0
  9
$PUCSORGFRONT
 10
0.0
 20
0.0
 30
0.0
  9
$PUCSORGBACK
 10
0.0
 20
0.0
 30
0.0
  9
$USERI1
 70
     0
  9
$USERI2
 70
     0
  9
$USERI3
 70
     0
  9
$USERI4
 70
     0
  9
$USERI5
 70
     0
  9
$USERR1
 40
0.0
  9
$USERR2
 40
0.0
  9
$USERR3
 40
0.0
  9
$USERR4
 40
0.0
  9
$USERR5
 40
0.0
  9
$WORLDVIEW
 70
     1
  9
$SHADEDGE
 70
     3
  9
$SHADEDIF
 70
    70
  9
$TILEMODE
 70
     1
  9
$MAXACTVP
 70
    64
  9
$PINSBASE
 10
0.0
 20
0.0
 30
0.0
  9
$PLIMCHECK
 70
     0
  9
$PEXTMIN
 10
1.0000000000E+20
 20
1.0000000000E+20
 30
1.0000000000E+20
  9
$PEXTMAX
 10
-1.0000000000E+20
 20
-1.0000000000E+20
 30
-1.0000000000E+20
  9
$PLIMMIN
 10
0.0
 20
0.0
  9
$PLIMMAX
 10
420.0
 20
297.0
  9
$UNITMODE
 70
     0
  9
$VISRETAIN
 70
     1
  9
$PLINEGEN
 70
     0
  9
$PSLTSCALE
 70
     1
  9
$TREEDEPTH
 70
  3020
  9
$CMLSTYLE
  2
Standard
  9
$CMLJUST
 70
     0
  9
$CMLSCALE
 40
20.0
  9
$PROXYGRAPHICS
 70
     1
  9
$MEASUREMENT
 70
     1
  9
$CELWEIGHT
370
    -1
  9
$ENDCAPS
280
     0
  9
$JOINSTYLE
280
     0
  9
$LWDISPLAY
290
     1
  9
$INSUNITS
 70
     4
  9
$HYPERLINKBASE
  1

  9
$STYLESHEET
  1

  9
$XEDIT
290
     1
  9
$CEPSNTYPE
380
     0
  9
$PSTYLEMODE
290
     1
  9
$FINGERPRINTGUID
  2
{BA1B1D97-4CD9-438B-80ED-516DCEA2D5D4}
  9
$VERSIONGUID
  2
{FAEB1C32-E019-11D5-929B-00C0DF256EC4}
  9
$EXTNAMES
290
     1
  9
$PSVPSCALE
 40
0.0
  9
$OLESTARTUP
290
     0
  0
ENDSEC
  0
SECTION
  2
CLASSES
  0
CLASS
  1
ACDBDICTIONARYWDFLT
  2
AcDbDictionaryWithDefault
  3
ObjectDBX Classes
 90
        0
280
     0
281
     0
  0
CLASS
  1
VISUALSTYLE
  2
AcDbVisualStyle
  3
ObjectDBX Classes
 90
     4095
280
     0
281
     0
  0
CLASS
  1
MATERIAL
  2
AcDbMaterial
  3
ObjectDBX Classes
 90
     1153
280
     0
281
     0
  0
CLASS
  1
SCALE
  2
AcDbScale
  3
ObjectDBX Classes
 90
     1153
280
     0
281
     0
  0
CLASS
  1
TABLESTYLE
  2
AcDbTableStyle
  3
ObjectDBX Classes
 90
     4095
280
     0
281
     0
  0
CLASS
  1
MLEADERSTYLE
  2
AcDbMLeaderStyle
  3
ACDB_MLEADERSTYLE_CLASS
 90
     4095
280
     0
281
     0
  0
CLASS
  1
SUN
  2
AcDbSun
  3
SCENEOE
 90
     1153
280
     0
281
     0
  0
CLASS
  1
ACDBPLACEHOLDER
  2
AcDbPlaceHolder
  3
ObjectDBX Classes
 90
        0
280
     0
281
     0
  0
CLASS
  1
LAYOUT
  2
AcDbLayout
  3
ObjectDBX Classes
 90
        0
280
     0
281
     0
  0
ENDSEC
  0
SECTION
  2
TABLES
  0
TABLE
  2
VPORT
  5
8
330
0
100
AcDbSymbolTable
 70
     1
  0
VPORT
  5
29
330
8
100
AcDbSymbolTableRecord
100
AcDbViewportTableRecord
  2
*Active
 70
     0
 10
0.0
 20
0.0
 11
1.0
 21
1.0
 12
148.5
 22
105.0
 13
0.0
 23
0.0
 14
10.0
 24
10.0
 15
10.0
 25
10.0
 16
0.0
 26
0.0
 36
1.0
 17
0.0
 27
0.0
 37
0.0
 40
210.0
 41
1.4142857143
 42
50.0
 43
0.0
 44
0.0
 50
0.0
 51
0.0
 71
     0
 72
  2000
 73
     1
 74
     3
 75
     0
 76
     0
 77
     0
 78
     0
281
     0
 65
     1
110
0.0
120
0.0
130
0.0
111
1.0
121
0.0
131
0.0
112
0.0
122
1.0
132
0.0
 79
     0
146
0.0
  0
ENDTAB
  0
TABLE
  2
LTYPE
  5
5
330
0
100
AcDbSymbolTable
 70
     6
  0
LTYPE
  5
14
330
5
100
AcDbSymbolTableRecord
100
AcDbLinetypeTableRecord
  2
ByBlock
 70
     0
  3

 72
    65
 73
     0
 40
0.0
  0
LTYPE
  5
15
330
5
100
AcDbSymbolTableRecord
100
AcDbLinetypeTableRecord
  2
ByLayer
 70
     0
  3

 72
    65
 73
     0
 40
0.0
  0
LTYPE
  5
16
330
5
100
AcDbSymbolTableRecord
100
AcDbLinetypeTableRecord
  2
Continuous
 70
     0
  3
Solid line
 72
    65
 73
     0
 40
0.0
  0
LTYPE
  5
6E
330
5
100
AcDbSymbolTableRecord
100
AcDbLinetypeTableRecord
  2
HIDDEN
 70
     0
  3
Hidden __ __ __ __ __ __ __ __ __ __ __ __ __ __
 72
    65
 73
     2
 40
1.905
 49
1.27
 74
     0
 49
-0.635
 74
     0
  0
LTYPE
  5
6F
330
5
100
AcDbSymbolTableRecord
100
AcDbLinetypeTableRecord
  2
PHANTOM
 70
     0
  3
Phantom ______  __  __  ______  __  __  ______
 72
    65
 73
     6
 40
12.7
 49
6.35
 74
     0
 49
-1.27
 74
     0
 49
1.27
 74
     0
 49
-1.27
 74
     0
 49
1.27
 74
     0
 49
-1.27
 74
     0
  0
LTYPE
  5
70
330
5
100
AcDbSymbolTableRecord
100
AcDbLinetypeTableRecord
  2
CENTER
 70
     0
  3
Center ____ _ ____ _ ____ _ ____ _ ____ _ ____
 72
    65
 73
     4
 40
10.16
 49
6.35
 74
     0
 49
-1.27
 74
     0
 49
1.27
 74
     0
 49
-1.27
 74
     0
  0
LTYPE
  5
71
330
5
100
AcDbSymbolTableRecord
100
AcDbLinetypeTableRecord
  2
CENTERX2
 70
     0
  3
Center (2x) ________  __  ________  __  _____
 72
    65
 73
     4
 40
20.32
 49
12.7
 74
     0
 49
-2.54
 74
     0
 49
2.54
 74
     0
 49
-2.54
 74
     0
  0
LTYPE
  5
72
330
5
100
AcDbSymbolTableRecord
100
AcDbLinetypeTableRecord
  2
DOT2
 70
     0
  3
Dot (.5x) ........................................
 72
    65
 73
     2
 40
0.635
 49
0.0
 74
     0
 49
-0.635
 74
     0
  0
ENDTAB
  0
TABLE
  2
LAYER
  5
2
330
0
100
AcDbSymbolTable
 70
     5
  0
LAYER
  5
10
330
2
100
AcDbSymbolTableRecord
100
AcDbLayerTableRecord
  2
0
 70
     0
 62
     7
  6
Continuous
370
    -3
390
F
  0
LAYER
  5
73
330
2
100
AcDbSymbolTableRecord
100
AcDbLayerTableRecord
  2
FORMAT
 70
     0
 62
     7
  6
Continuous
370
    -3
390
F
  0
LAYER
  5
74
330
2
100
AcDbSymbolTableRecord
100
AcDbLayerTableRecord
  2
VERMASSUNG
 70
     0
 62
     7
  6
Continuous
370
    -3
390
F
  0
LAYER
  5
75
330
2
100
AcDbSymbolTableRecord
100
AcDbLayerTableRecord
  2
KOPF_DÜNN
 70
     0
 62
     7
  6
Continuous
370
    -3
390
F
  0
LAYER
  5
76
330
2
100
AcDbSymbolTableRecord
100
AcDbLayerTableRecord
  2
KOPF_DICK
 70
     0
 62
     7
  6
Continuous
370
    15
390
F
  0
ENDTAB
  0
TABLE
  2
STYLE
  5
3
330
0
100
AcDbSymbolTable
 70
     3
  0
STYLE
  5
11
330
3
100
AcDbSymbolTableRecord
100
AcDbTextStyleTableRecord
  2
Standard
 70
     0
 40
0.0
 41
1.0
 50
0.0
 71
     0
 42
2.0
  3
txt
  4

  0
STYLE
  5
77
330
3
100
AcDbSymbolTableRecord
100
AcDbTextStyleTableRecord
  2
SLDTEXTSTYLE0
 70
     0
 40
0.0
 41
0.7
 50
0.0
 71
     0
 42
2.0
  3
TXT
  4

  0
STYLE
  5
7B
330
3
100
AcDbSymbolTableRecord
100
AcDbTextStyleTableRecord
  2
SLDTEXTSTYLE1
 70
     0
 40
0.0
 41
0.6454545455
 50
0.0
 71
     0
 42
2.0
  3
TXT
  4

  0
ENDTAB
  0
TABLE
  2
VIEW
  5
6
330
0
100
AcDbSymbolTable
 70
     0
  0
ENDTAB
  0
TABLE
  2
UCS
  5
7
330
0
100
AcDbSymbolTable
 70
     0
  0
ENDTAB
  0
TABLE
  2
APPID
  5
9
330
0
100
AcDbSymbolTable
 70
     1
  0
APPID
  5
12
330
9
100
AcDbSymbolTableRecord
100
AcDbRegAppTableRecord
  2
ACAD
 70
     0
  0
ENDTAB
  0
TABLE
  2
DIMSTYLE
  5
A
330
0
100
AcDbSymbolTable
 70
     3
100
AcDbDimStyleTable
  0
DIMSTYLE
105
27
330
A
100
AcDbSymbolTableRecord
100
AcDbDimStyleTableRecord
  2
ISO-25
 70
     0
 41
2.5
 42
0.625
 43
3.75
 44
1.25
 73
     0
 74
     0
 77
     1
 78
     8
140
2.5
141
2.5
143
0.0393700787
147
0.625
171
     3
172
     1
178
     0
271
     2
272
     2
274
     3
278
    44
283
     0
284
     8
340
11
  0
DIMSTYLE
105
19D
102
{ACAD_REACTORS
330
19C
330
1A8
330
1B2
330
1BE
330
1CA
102
}
330
A
100
AcDbSymbolTableRecord
100
AcDbDimStyleTableRecord
  2
SLDDIMSTYLE0
 70
     0
 41
3.0
 44
0.0
 45
0.000000001
 73
     0
 74
     0
 77
     1
 78
    12
 79
     3
140
2.0
147
0.5
173
     1
178
     0
271
     2
272
     3
276
     2
284
    12
340
77
  0
DIMSTYLE
105
1D7
102
{ACAD_REACTORS
330
1D6
102
}
330
A
100
AcDbSymbolTableRecord
100
AcDbDimStyleTableRecord
  2
SLDDIMSTYLE1
 70
     0
 41
3.0
 44
0.0
 45
0.000000001
 73
     0
 74
     0
 77
     1
 78
    12
 79
     3
140
2.0
147
0.5
172
     1
173
     1
178
     0
271
     2
272
     3
276
     2
284
    12
289
     0
340
77
  0
ENDTAB
  0
TABLE
  2
BLOCK_RECORD
  5
1
330
0
100
AcDbSymbolTable
 70
     7
  0
BLOCK_RECORD
  5
1F
330
1
100
AcDbSymbolTableRecord
100
AcDbBlockTableRecord
  2
*Model_Space
340
22
  0
BLOCK_RECORD
  5
1B
330
1
100
AcDbSymbolTableRecord
100
AcDbBlockTableRecord
  2
*Paper_Space
340
1E
  0
BLOCK_RECORD
  5
23
330
1
100
AcDbSymbolTableRecord
100
AcDbBlockTableRecord
  2
*Paper_Space0
340
26
  0
BLOCK_RECORD
  5
19E
330
1
100
AcDbSymbolTableRecord
100
AcDbBlockTableRecord
  2
_D
340
0
  0
BLOCK_RECORD
  5
1A9
330
1
100
AcDbSymbolTableRecord
100
AcDbBlockTableRecord
  2
_D_1
340
0
  0
BLOCK_RECORD
  5
1B3
330
1
100
AcDbSymbolTableRecord
100
AcDbBlockTableRecord
  2
_D_2
340
0
  0
BLOCK_RECORD
  5
1BF
330
1
100
AcDbSymbolTableRecord
100
AcDbBlockTableRecord
  2
_D_3
340
0
  0
BLOCK_RECORD
  5
1CB
330
1
100
AcDbSymbolTableRecord
100
AcDbBlockTableRecord
  2
_D_4
340
0
  0
BLOCK_RECORD
  5
1D8
330
1
100
AcDbSymbolTableRecord
100
AcDbBlockTableRecord
  2
_D_5
340
0
  0
ENDTAB
  0
ENDSEC
  0
SECTION
  2
BLOCKS
  0
BLOCK
  5
20
330
1F
100
AcDbEntity
  8
0
100
AcDbBlockBegin
  2
*Model_Space
 70
     0
 10
0.0
 20
0.0
 30
0.0
  3
*Model_Space
  1

  0
ENDBLK
  5
21
330
1F
100
AcDbEntity
  8
0
100
AcDbBlockEnd
  0
BLOCK
  5
1C
330
1B
100
AcDbEntity
 67
     1
  8
0
100
AcDbBlockBegin
  2
*Paper_Space
 70
     0
 10
0.0
 20
0.0
 30
0.0
  3
*Paper_Space
  1

  0
ENDBLK
  5
1D
330
1B
100
AcDbEntity
 67
     1
  8
0
100
AcDbBlockEnd
  0
BLOCK
  5
24
330
23
100
AcDbEntity
  8
0
100
AcDbBlockBegin
  2
*Paper_Space0
 70
     0
 10
0.0
 20
0.0
 30
0.0
  3
*Paper_Space0
  1

  0
ENDBLK
  5
25
330
23
100
AcDbEntity
  8
0
100
AcDbBlockEnd
  0
BLOCK
  5
19F
330
19E
100
AcDbEntity
  8
0
100
AcDbBlockBegin
  2
_D
 70
     0
 10
0.0
 20
0.0
 30
0.0
  3
_D
  1

  0
SOLID
  5
1A1
330
19E
100
AcDbEntity
  8
VERMASSUNG
100
AcDbTrace
 10
213.7956724744
 20
131.227007136
 30
0.0
 11
213.3456724744
 21
128.227007136
 31
0.0
 12
214.2456724744
 22
128.227007136
 32
0.0
 13
214.2456724744
 23
128.227007136
 33
0.0
  0
SOLID
  5
1A2
330
19E
100
AcDbEntity
  8
VERMASSUNG
100
AcDbTrace
 10
213.7956724744
 20
95.227007136
 30
0.0
 11
214.2456724744
 21
98.227007136
 31
0.0
 12
213.3456724744
 22
98.227007136
 32
0.0
 13
213.3456724744
 23
98.227007136
 33
0.0
  0
LINE
  5
1A3
330
19E
100
AcDbEntity
  8
VERMASSUNG
100
AcDbLine
 10
187.0991272395
 20
131.227007136
 30
0.0
 11
214.7956724744
 21
131.227007136
 31
0.0
  0
LINE
  5
1A4
330
19E
100
AcDbEntity
  8
VERMASSUNG
100
AcDbLine
 10
187.0991272395
 20
95.227007136
 30
0.0
 11
214.7956724744
 21
95.227007136
 31
0.0
  0
LINE
  5
1A5
330
19E
100
AcDbEntity
  8
VERMASSUNG
100
AcDbLine
 10
213.7956724744
 20
131.227007136
 30
0.0
 11
213.7956724744
 21
95.227007136
 31
0.0
  0
MTEXT
  5
1A6
330
19E
100
AcDbEntity
  8
VERMASSUNG
100
AcDbMText
 10
211.2175369366
 20
110.0228310289
 30
0.0
 40
2.0
 41
0.0
 71
     1
 72
     1
  1
%%c
  7
SLDTEXTSTYLE0
 11
-7.044195017643634E-15
 21
1.0
 31
0.0
 73
     1
 44
1.0
  0
MTEXT
  5
1A7
330
19E
100
AcDbEntity
  8
VERMASSUNG
100
AcDbMText
 10
211.2175368784
 20
113.6318032225
 30
0.0
 40
2.0
 41
0.0
 71
     1
 72
     1
  1
36
  7
SLDTEXTSTYLE0
 11
-7.044195017643634E-15
 21
1.0
 31
0.0
 73
     1
 44
1.0
  0
ENDBLK
  5
1A0
330
19E
100
AcDbEntity
  8
0
100
AcDbBlockEnd
  0
BLOCK
  5
1AA
330
1A9
100
AcDbEntity
  8
0
100
AcDbBlockBegin
  2
_D_1
 70
     0
 10
0.0
 20
0.0
 30
0.0
  3
_D_1
  1

  0
SOLID
  5
1AC
330
1A9
100
AcDbEntity
  8
VERMASSUNG
100
AcDbTrace
 10
157.6991272396
 20
159.2735993984
 30
0.0
 11
160.6991272396
 21
158.8235993984
 31
0.0
 12
160.6991272396
 22
159.7235993984
 32
0.0
 13
160.6991272396
 23
159.7235993984
 33
0.0
  0
SOLID
  5
1AD
330
1A9
100
AcDbEntity
  8
VERMASSUNG
100
AcDbTrace
 10
203.6991272396
 20
159.2735993984
 30
0.0
 11
200.6991272396
 21
159.7235993984
 31
0.0
 12
200.6991272396
 22
158.8235993984
 32
0.0
 13
200.6991272396
 23
158.8235993984
 33
0.0
  0
LINE
  5
1AE
330
1A9
100
AcDbEntity
  8
VERMASSUNG
100
AcDbLine
 10
157.6991272396
 20
135.452007136
 30
0.0
 11
157.6991272396
 21
160.2735993984
 31
0.0
  0
LINE
  5
1AF
330
1A9
100
AcDbEntity
  8
VERMASSUNG
100
AcDbLine
 10
203.6991272396
 20
144.627007136
 30
0.0
 11
203.6991272396
 21
160.2735993984
 31
0.0
  0
LINE
  5
1B0
330
1A9
100
AcDbEntity
  8
VERMASSUNG
100
AcDbLine
 10
157.6991272396
 20
159.2735993984
 30
0.0
 11
203.6991272396
 21
159.2735993984
 31
0.0
  0
MTEXT
  5
1B1
330
1A9
100
AcDbEntity
  8
VERMASSUNG
100
AcDbMText
 10
179.2001684343
 20
161.8517349943
 30
0.0
 40
2.0
 41
0.0
 71
     1
 72
     1
  1
46
  7
SLDTEXTSTYLE0
 73
     1
 44
1.0
  0
ENDBLK
  5
1AB
330
1A9
100
AcDbEntity
  8
0
100
AcDbBlockEnd
  0
BLOCK
  5
1B4
330
1B3
100
AcDbEntity
  8
0
100
AcDbBlockBegin
  2
_D_2
 70
     0
 10
0.0
 20
0.0
 30
0.0
  3
_D_2
  1

  0
ARC
  5
1B6
330
1B3
100
AcDbEntity
  8
VERMASSUNG
100
AcDbCircle
 10
147.6105736866
 20
167.1729423438
 30
0.0
 40
4.24705993853726
100
AcDbArc
 50
153.4349488229
 51
206.5650511771
  0
ARC
  5
1B7
330
1B3
100
AcDbEntity
  8
VERMASSUNG
100
AcDbCircle
 10
148.3876807926
 20
167.1729423438
 30
0.0
 40
4.24705993853726
100
AcDbArc
 50
333.4349488229
 51
26.5650511771
  0
SOLID
  5
1B8
330
1B3
100
AcDbEntity
  8
VERMASSUNG
100
AcDbTrace
 10
92.2991272396
 20
165.2735993984
 30
0.0
 11
95.2991272396
 21
164.8235993984
 31
0.0
 12
95.2991272396
 22
165.7235993984
 32
0.0
 13
95.2991272396
 23
165.7235993984
 33
0.0
  0
SOLID
  5
1B9
330
1B3
100
AcDbEntity
  8
VERMASSUNG
100
AcDbTrace
 10
203.6991272395
 20
165.2735993984
 30
0.0
 11
200.6991272395
 21
165.7235993984
 31
0.0
 12
200.6991272395
 22
164.8235993984
 32
0.0
 13
200.6991272395
 23
164.8235993984
 33
0.0
  0
LINE
  5
1BA
330
1B3
100
AcDbEntity
  8
VERMASSUNG
100
AcDbLine
 10
92.2991272396
 20
125.049762733
 30
0.0
 11
92.2991272396
 21
166.2735993984
 31
0.0
  0
LINE
  5
1BB
330
1B3
100
AcDbEntity
  8
VERMASSUNG
100
AcDbLine
 10
203.6991272395
 20
139.3010914502
 30
0.0
 11
203.6991272395
 21
166.2735993984
 31
0.0
  0
LINE
  5
1BC
330
1B3
100
AcDbEntity
  8
VERMASSUNG
100
AcDbLine
 10
92.2991272396
 20
165.2735993984
 30
0.0
 11
203.6991272395
 21
165.2735993984
 31
0.0
  0
MTEXT
  5
1BD
330
1B3
100
AcDbEntity
  8
VERMASSUNG
100
AcDbMText
 10
145.3993877957
 20
167.8517349943
 30
0.0
 40
2.0
 41
0.0
 71
     1
 72
     1
  1
111.4
  7
SLDTEXTSTYLE0
 73
     1
 44
1.0
  0
ENDBLK
  5
1B5
330
1B3
100
AcDbEntity
  8
0
100
AcDbBlockEnd
  0
BLOCK
  5
1C0
330
1BF
100
AcDbEntity
  8
0
100
AcDbBlockBegin
  2
_D_3
 70
     0
 10
0.0
 20
0.0
 30
0.0
  3
_D_3
  1

  0
SOLID
  5
1C2
330
1BF
100
AcDbEntity
  8
VERMASSUNG
100
AcDbTrace
 10
87.9563662037
 20
144.727007136
 30
0.0
 11
87.5063662037
 21
141.727007136
 31
0.0
 12
88.4063662037
 22
141.727007136
 32
0.0
 13
88.4063662037
 23
141.727007136
 33
0.0
  0
SOLID
  5
1C3
330
1BF
100
AcDbEntity
  8
VERMASSUNG
100
AcDbTrace
 10
87.9563662037
 20
81.727007136
 30
0.0
 11
88.4063662037
 21
84.727007136
 31
0.0
 12
87.5063662037
 22
84.727007136
 32
0.0
 13
87.5063662037
 23
84.727007136
 33
0.0
  0
LINE
  5
1C4
330
1BF
100
AcDbEntity
  8
VERMASSUNG
100
AcDbLine
 10
181.6991230956
 20
144.727007136
 30
0.0
 11
86.9563662037
 21
144.727007136
 31
0.0
  0
LINE
  5
1C5
330
1BF
100
AcDbEntity
  8
VERMASSUNG
100
AcDbLine
 10
181.6991280135
 20
81.727007136
 30
0.0
 11
86.9563662037
 21
81.727007136
 31
0.0
  0
LINE
  5
1C6
330
1BF
100
AcDbEntity
  8
VERMASSUNG
100
AcDbLine
 10
87.9563662037
 20
144.727007136
 30
0.0
 11
87.9563662037
 21
81.727007136
 31
0.0
  0
MTEXT
  5
1C7
330
1BF
100
AcDbEntity
  8
VERMASSUNG
100
AcDbMText
 10
85.1782309475
 20
102.5225220691
 30
0.0
 40
2.0
 41
0.0
 71
     1
 72
     1
  1
MAS BT 40
  7
SLDTEXTSTYLE0
 11
-7.044195017643634E-15
 21
1.0
 31
0.0
 73
     1
 44
1.0
  0
MTEXT
  5
1C8
330
1BF
100
AcDbEntity
  8
VERMASSUNG
100
AcDbMText
 10
85.3782308988
 20
117.5225217338
 30
0.0
 40
2.0
 41
0.0
 71
     1
 72
     1
  1
%%c
  7
SLDTEXTSTYLE0
 11
-7.044195017643634E-15
 21
1.0
 31
0.0
 73
     1
 44
1.0
  0
MTEXT
  5
1C9
330
1BF
100
AcDbEntity
  8
VERMASSUNG
100
AcDbMText
 10
85.3782306078
 20
121.1321121823
 30
0.0
 40
2.0
 41
0.0
 71
     1
 72
     1
  1
63
  7
SLDTEXTSTYLE0
 11
-7.044195017643634E-15
 21
1.0
 31
0.0
 73
     1
 44
1.0
  0
ENDBLK
  5
1C1
330
1BF
100
AcDbEntity
  8
0
100
AcDbBlockEnd
  0
BLOCK
  5
1CC
330
1CB
100
AcDbEntity
  8
0
100
AcDbBlockBegin
  2
_D_4
 70
     0
 10
0.0
 20
0.0
 30
0.0
  3
_D_4
  1

  0
SOLID
  5
1CE
330
1CB
100
AcDbEntity
  8
VERMASSUNG
100
AcDbTrace
 10
219.7956724744
 20
145.227007136
 30
0.0
 11
219.3456724744
 21
142.227007136
 31
0.0
 12
220.2456724744
 22
142.227007136
 32
0.0
 13
220.2456724744
 23
142.227007136
 33
0.0
  0
SOLID
  5
1CF
330
1CB
100
AcDbEntity
  8
VERMASSUNG
100
AcDbTrace
 10
219.7956724744
 20
81.227007136
 30
0.0
 11
220.2456724744
 21
84.227007136
 31
0.0
 12
219.3456724744
 22
84.227007136
 32
0.0
 13
219.3456724744
 23
84.227007136
 33
0.0
  0
LINE
  5
1D0
330
1CB
100
AcDbEntity
  8
VERMASSUNG
100
AcDbLine
 10
203.0991272396
 20
145.227007136
 30
0.0
 11
220.7956724744
 21
145.227007136
 31
0.0
  0
LINE
  5
1D1
330
1CB
100
AcDbEntity
  8
VERMASSUNG
100
AcDbLine
 10
203.0991272396
 20
81.227007136
 30
0.0
 11
220.7956724744
 21
81.227007136
 31
0.0
  0
LINE
  5
1D2
330
1CB
100
AcDbEntity
  8
VERMASSUNG
100
AcDbLine
 10
219.7956724744
 20
145.227007136
 30
0.0
 11
219.7956724744
 21
81.227007136
 31
0.0
  0
MTEXT
  5
1D3
330
1CB
100
AcDbEntity
  8
VERMASSUNG
100
AcDbMText
 10
217.0175372182
 20
107.0220076183
 30
0.0
 40
2.0
 41
0.0
 71
     1
 72
     1
  1
ST6
  7
SLDTEXTSTYLE0
 11
-7.044195017643634E-15
 21
1.0
 31
0.0
 73
     1
 44
1.0
  0
MTEXT
  5
1D4
330
1CB
100
AcDbEntity
  8
VERMASSUNG
100
AcDbMText
 10
217.2175371695
 20
112.8220075446
 30
0.0
 40
2.0
 41
0.0
 71
     1
 72
     1
  1
%%c
  7
SLDTEXTSTYLE0
 11
-7.044195017643634E-15
 21
1.0
 31
0.0
 73
     1
 44
1.0
  0
MTEXT
  5
1D5
330
1CB
100
AcDbEntity
  8
VERMASSUNG
100
AcDbMText
 10
217.0175372182
 20
116.4320070932
 30
0.0
 40
2.0
 41
0.0
 71
     1
 72
     1
  1
64
  7
SLDTEXTSTYLE0
 11
-7.044195017643634E-15
 21
1.0
 31
0.0
 73
     1
 44
1.0
  0
ENDBLK
  5
1CD
330
1CB
100
AcDbEntity
  8
0
100
AcDbBlockEnd
  0
BLOCK
  5
1D9
330
1D8
100
AcDbEntity
  8
0
100
AcDbBlockBegin
  2
_D_5
 70
     0
 10
0.0
 20
0.0
 30
0.0
  3
_D_5
  1

  0
ARC
  5
1DB
330
1D8
100
AcDbEntity
  8
VERMASSUNG
100
AcDbCircle
 10
202.7991273578
 20
154.5041178256
 30
0.0
 40
4.24852922888762
100
AcDbArc
 50
153.4349488229
 51
206.5650511771
  0
ARC
  5
1DC
330
1D8
100
AcDbEntity
  8
VERMASSUNG
100
AcDbCircle
 10
196.5991271797
 20
154.5041178256
 30
0.0
 40
4.24852922888762
100
AcDbArc
 50
333.4349488229
 51
26.5650511771
  0
SOLID
  5
1DD
330
1D8
100
AcDbEntity
  8
VERMASSUNG
100
AcDbTrace
 10
195.6991272396
 20
152.6041175607
 30
0.0
 11
192.6991272396
 21
153.0541175607
 31
0.0
 12
192.6991272396
 22
152.1541175607
 32
0.0
 13
192.6991272396
 23
152.1541175607
 33
0.0
  0
SOLID
  5
1DE
330
1D8
100
AcDbEntity
  8
VERMASSUNG
100
AcDbTrace
 10
203.6991272396
 20
152.6041175607
 30
0.0
 11
206.6991272396
 21
152.1541175607
 31
0.0
 12
206.6991272396
 22
153.0541175607
 32
0.0
 13
206.6991272396
 23
153.0541175607
 33
0.0
  0
LINE
  5
1DF
330
1D8
100
AcDbEntity
  8
VERMASSUNG
100
AcDbLine
 10
195.6991272396
 20
145.227007136
 30
0.0
 11
195.6991272396
 21
153.6041175607
 31
0.0
  0
LINE
  5
1E0
330
1D8
100
AcDbEntity
  8
VERMASSUNG
100
AcDbLine
 10
203.6991272396
 20
144.627007136
 30
0.0
 11
203.6991272396
 21
153.6041175607
 31
0.0
  0
LINE
  5
1E1
330
1D8
100
AcDbEntity
  8
VERMASSUNG
100
AcDbLine
 10
195.6991272396
 20
152.6041175607
 30
0.0
 11
189.6991272396
 21
152.6041175607
 31
0.0
  0
LINE
  5
1E2
330
1D8
100
AcDbEntity
  8
VERMASSUNG
100
AcDbLine
 10
195.6991272396
 20
152.6041175607
 30
0.0
 11
203.6991272396
 21
152.6041175607
 31
0.0
  0
LINE
  5
1E3
330
1D8
100
AcDbEntity
  8
VERMASSUNG
100
AcDbLine
 10
203.6991272396
 20
152.6041175607
 30
0.0
 11
209.6991272396
 21
152.6041175607
 31
0.0
  0
MTEXT
  5
1E4
330
1D8
100
AcDbEntity
  8
VERMASSUNG
100
AcDbMText
 10
198.9991272937
 20
155.1822533895
 30
0.0
 40
2.0
 41
0.0
 71
     1
 72
     1
  1
8
  7
SLDTEXTSTYLE0
 73
     1
 44
1.0
  0
ENDBLK
  5
1DA
330
1D8
100
AcDbEntity
  8
0
100
AcDbBlockEnd
  0
ENDSEC
  0
SECTION
  2
ENTITIES
  0
MTEXT
  5
78
330
1F
100
AcDbEntity
  8
KOPF_DÜNN
100
AcDbMText
 10
13.8892156294
 20
23.8442973028
 30
0.0
 40
3.0
 41
0.0
 71
     1
 72
     1
  1
134.640.064.046
  7
SLDTEXTSTYLE0
 73
     1
 44
1.0
  0
MTEXT
  5
79
330
1F
100
AcDbEntity
  8
VERMASSUNG
100
AcDbMText
 10
13.9329988022
 20
28.8834360957
 30
0.0
 40
3.0
 41
0.0
 71
     1
 72
     1
  1
Aufnahme_Master shank ST6
  7
SLDTEXTSTYLE0
 73
     1
 44
1.0
  0
MTEXT
  5
7A
330
1F
100
AcDbEntity
  8
VERMASSUNG
100
AcDbMText
 10
98.8601118557
 20
13.8365368761
 30
0.0
 40
2.0
 41
0.0
 71
     1
 72
     1
  1
Datum: 06.06.2008
  7
SLDTEXTSTYLE0
 73
     1
 44
1.0
  0
MTEXT
  5
7C
330
1F
100
AcDbEntity
  8
VERMASSUNG
100
AcDbMText
 10
13.933048693
 20
18.0482802738
 30
0.0
 40
2.0
 41
0.0
 71
     1
 72
     1
  1
MAS BT 40 B
  7
SLDTEXTSTYLE1
 73
     1
 44
1.0
  0
MTEXT
  5
7D
330
1F
100
AcDbEntity
  8
VERMASSUNG
100
AcDbMText
 10
13.9808475933
 20
13.9090974274
 30
0.0
 40
2.0
 41
0.0
 71
     1
 72
     1
  1
Gewicht: 1074g
  7
SLDTEXTSTYLE0
 73
     1
 44
1.0
  0
LINE
  5
7E
330
1F
100
AcDbEntity
  8
0
  6
Continuous
 62
     7
370
    15
100
AcDbLine
 10
203.0991272396
 20
145.227007136
 30
0.0
 11
195.6991272396
 21
145.227007136
 31
0.0
  0
LINE
  5
7F
330
1F
100
AcDbEntity
  8
0
  6
Continuous
 62
     7
370
    15
100
AcDbLine
 10
195.6991272396
 20
81.227007136
 30
0.0
 11
203.0991272396
 21
81.227007136
 31
0.0
  0
LINE
  5
80
330
1F
100
AcDbEntity
  8
0
  6
Continuous
 62
     7
370
    15
100
AcDbLine
 10
203.0991272396
 20
81.227007136
 30
0.0
 11
203.6991272396
 21
81.827007136
 31
0.0
  0
LINE
  5
81
330
1F
100
AcDbEntity
  8
0
  6
Continuous
 62
     7
370
    15
100
AcDbLine
 10
203.6991272396
 20
144.627007136
 30
0.0
 11
203.0991272396
 21
145.227007136
 31
0.0
  0
ARC
  5
82
330
1F
100
AcDbEntity
  8
0
  6
Continuous
 62
     7
370
    15
100
AcDbCircle
 10
195.2991272396
 20
81.327007136
 30
0.0
 40
0.4000000000000057
100
AcDbArc
 50
0.0
 51
90.0
  0
ARC
  5
83
330
1F
100
AcDbEntity
  8
0
  6
Continuous
 62
     7
370
    15
100
AcDbCircle
 10
195.2991272396
 20
145.127007136
 30
0.0
 40
0.4000000000000057
100
AcDbArc
 50
270.0
 51
0.0
  0
LINE
  5
84
330
1F
100
AcDbEntity
  8
0
  6
Continuous
 62
     7
370
    15
100
AcDbLine
 10
181.6992821979
 20
81.727007136
 30
0.0
 11
195.2991272396
 21
81.727007136
 31
0.0
  0
LINE
  5
85
330
1F
100
AcDbEntity
  8
0
  6
Continuous
 62
     7
370
    15
100
AcDbLine
 10
195.2991272396
 20
144.727007136
 30
0.0
 11
181.6986270696
 21
144.727007136
 31
0.0
  0
ARC
  5
86
330
1F
100
AcDbEntity
  8
0
  6
Continuous
 62
     7
370
    15
100
AcDbCircle
 10
158.6991272396
 20
90.002007136
 30
0.0
 40
1.000000000000028
100
AcDbArc
 50
46.4340346358
 51
90.0
  0
ARC
  5
87
330
1F
100
AcDbEntity
  8
0
  6
Continuous
 62
     7
370
    15
100
AcDbCircle
 10
158.6991272396
 20
136.452007136
 30
0.0
 40
1.000000000000024
100
AcDbArc
 50
270.0
 51
313.5375879762
  0
LINE
  5
88
330
1F
100
AcDbEntity
  8
0
  6
Continuous
 62
     7
370
    15
100
AcDbLine
 10
157.6991272396
 20
91.002007136
 30
0.0
 11
158.6991272396
 21
91.002007136
 31
0.0
  0
LINE
  5
89
330
1F
100
AcDbEntity
  8
0
  6
Continuous
 62
     7
370
    15
100
AcDbLine
 10
158.6991272396
 20
135.452007136
 30
0.0
 11
157.6991272396
 21
135.452007136
 31
0.0
  0
LINE
  5
8A
330
1F
100
AcDbEntity
  8
0
  6
Continuous
 62
     7
370
    15
100
AcDbLine
 10
157.6991272396
 20
135.452007136
 30
0.0
 11
93.1548203466
 21
126.0392957141
 31
0.0
  0
LINE
  5
8B
330
1F
100
AcDbEntity
  8
0
  6
Continuous
 62
     7
370
    15
100
AcDbLine
 10
93.1548203466
 20
100.4147185579
 30
0.0
 11
157.6991272396
 21
91.002007136
 31
0.0
  0
ARC
  5
8C
330
1F
100
AcDbEntity
  8
0
  6
Continuous
 62
     7
370
    15
100
AcDbCircle
 10
93.2991272396
 20
101.404251539
 30
0.0
 40
1.000000000000008
100
AcDbArc
 50
180.0
 51
261.7028550302
  0
ARC
  5
8D
330
1F
100
AcDbEntity
  8
0
  6
Continuous
 62
     7
370
    15
100
AcDbCircle
 10
93.2991272396
 20
125.049762733
 30
0.0
 40
1.0
100
AcDbArc
 50
98.2971449698
 51
180.0
  0
LINE
  5
8E
330
1F
100
AcDbEntity
  8
0
  6
Continuous
 62
     7
370
    15
100
AcDbLine
 10
168.6991272396
 20
102.5303841357
 30
0.0
 11
168.6991272396
 21
102.5521053321
 31
0.0
  0
LINE
  5
8F
330
1F
100
AcDbEntity
  8
0
  6
Continuous
 62
     7
370
    15
100
AcDbLine
 10
164.6991272396
 20
102.5521053321
 30
0.0
 11
164.6991272396
 21
102.5303841357
 31
0.0
  0
SPLINE
  5
90
330
1F
100
AcDbEntity
  8
0
  6
Continuous
 62
     7
370
    15
100
AcDbSpline
210
0.0
220
0.0
230
1.0
 70
    24
 71
     3
 72
    11
 73
     7
 74
     0
 42
0.000000001
 43
0.00000001
 40
0.0
 40
0.0
 40
0.0
 40
0.0
 40
0.1336647920874054
 40
0.4825473608259749
 40
0.8156356561503806
 40
1.0
 40
1.0
 40
1.0
 40
1.0
 10
190.217444545545
 20
115.5516030613645
 30
0.0
 10
190.2479845768931
 20
115.4097312601602
 30
0.0
 10
190.3582380796771
 20
114.8975555242942
 30
0.0
 10
190.5642049663097
 20
113.9407492636186
 30
0.0
 10
190.785411218504
 20
112.913149485517
 30
0.0
 10
190.9041421217201
 20
112.3615925173558
 30
0.0
 10
190.9464450175001
 20
112.1650770667958
 30
0.0
  0
SPLINE
  5
91
330
1F
100
AcDbEntity
  8
0
  6
Continuous
 62
     7
370
    15
100
AcDbSpline
210
0.0
220
0.0
230
1.0
 70
    24
 71
     3
 72
    11
 73
     7
 74
     0
 42
0.000000001
 43
0.00000001
 40
0.0
 40
0.0
 40
0.0
 40
0.0
 40
0.2164553779443438
 40
0.4403112895790541
 40
0.7519005688038667
 40
1.0
 40
1.0
 40
1.0
 40
1.0
 10
186.9201267676947
 20
116.6135331305649
 30
0.0
 10
187.1459962302821
 20
116.5407898919098
 30
0.0
 10
187.6054575534098
 20
116.392816348704
 30
0.0
 10
188.4580950546284
 20
116.1182169737957
 30
0.0
 10
189.3727017199454
 20
115.8236598868459
 30
0.0
 10
189.9579950640031
 20
115.6351610392272
 30
0.0
 10
190.217444545545
 20
115.5516030613645
 30
0.0
  0
SPLINE
  5
92
330
1F
100
AcDbEntity
  8
0
  6
Continuous
 62
     7
370
    15
100
AcDbSpline
210
0.0
220
0.0
230
1.0
 70
    24
 71
     3
 72
    11
 73
     7
 74
     0
 42
0.000000001
 43
0.00000001
 40
0.0
 40
0.0
 40
0.0
 40
0.0
 40
0.2164553779443464
 40
0.4403112895790541
 40
0.7519005688038671
 40
1.0
 40
1.0
 40
1.0
 40
1.0
 10
184.3518094617993
 20
114.2889372051966
 30
0.0
 10
184.5277416857219
 20
114.4481742784089
 30
0.0
 10
184.88562119479
 20
114.772092684691
 30
0.0
 10
185.5497499799333
 20
115.3731987335115
 30
0.0
 10
186.2621472327549
 20
116.0179927966716
 30
0.0
 10
186.7180386954057
 20
116.4306222774822
 30
0.0
 10
186.9201267676947
 20
116.6135331305649
 30
0.0
  0
SPLINE
  5
93
330
1F
100
AcDbEntity
  8
0
  6
Continuous
 62
     7
370
    15
100
AcDbSpline
210
0.0
220
0.0
230
1.0
 70
    24
 71
     3
 72
    11
 73
     7
 74
     0
 42
0.000000001
 43
0.00000001
 40
0.0
 40
0.0
 40
0.0
 40
0.0
 40
0.1843643438496186
 40
0.5174526391740238
 40
0.8663352079125946
 40
1.0
 40
1.0
 40
1.0
 40
1.0
 10
185.0808099337545
 20
110.9024112106279
 30
0.0
 10
185.0385070379744
 20
111.0989266611879
 30
0.0
 10
184.9197761347584
 20
111.650483629349
 30
0.0
 10
184.6985698825641
 20
112.6780834074507
 30
0.0
 10
184.4926029959314
 20
113.6348896681262
 30
0.0
 10
184.3823494931474
 20
114.1470654039923
 30
0.0
 10
184.3518094617993
 20
114.2889372051966
 30
0.0
  0
SPLINE
  5
94
330
1F
100
AcDbEntity
  8
0
  6
Continuous
 62
     7
370
    15
100
AcDbSpline
210
0.0
220
0.0
230
1.0
 70
    24
 71
     3
 72
    11
 73
     7
 74
     0
 42
0.000000001
 43
0.00000001
 40
0.0
 40
0.0
 40
0.0
 40
0.0
 40
0.2164553779443441
 40
0.4403112895790546
 40
0.7519005688038698
 40
1.0
 40
1.0
 40
1.0
 40
1.0
 10
188.3781277116048
 20
109.8404811414275
 30
0.0
 10
188.1522582490174
 20
109.9132243800826
 30
0.0
 10
187.6927969258897
 20
110.0611979232884
 30
0.0
 10
186.840159424671
 20
110.3357972981967
 30
0.0
 10
185.9255527593541
 20
110.6303543851464
 30
0.0
 10
185.3402594152964
 20
110.8188532327652
 30
0.0
 10
185.0808099337545
 20
110.9024112106279
 30
0.0
  0
SPLINE
  5
95
330
1F
100
AcDbEntity
  8
0
  6
Continuous
 62
     7
370
    15
100
AcDbSpline
210
0.0
220
0.0
230
1.0
 70
    24
 71
     3
 72
    11
 73
     7
 74
     0
 42
0.000000001
 43
0.00000001
 40
0.0
 40
0.0
 40
0.0
 40
0.0
 40
0.2164553779443419
 40
0.4403112895790471
 40
0.7519005688038665
 40
0.9999999999999999
 40
0.9999999999999999
 40
0.9999999999999999
 40
0.9999999999999999
 10
190.9464450175001
 20
112.1650770667958
 30
0.0
 10
190.7705127935776
 20
112.0058399935835
 30
0.0
 10
190.4126332845095
 20
111.6819215873014
 30
0.0
 10
189.7485044993662
 20
111.0808155384809
 30
0.0
 10
189.0361072465446
 20
110.4360214753208
 30
0.0
 10
188.5802157838938
 20
110.0233919945102
 30
0.0
 10
188.3781277116048
 20
109.8404811414275
 30
0.0
  0
CIRCLE
  5
96
330
1F
100
AcDbEntity
  8
0
  6
Continuous
 62
     7
370
    15
100
AcDbCircle
 10
187.6491272396
 20
113.227007136
 30
0.0
 40
3.499999999999995
  0
CIRCLE
  5
97
330
1F
100
AcDbEntity
  8
0
  6
Continuous
 62
     7
370
    15
100
AcDbCircle
 10
187.6491272396
 20
113.227007136
 30
0.0
 40
5.500000000000009
  0
CIRCLE
  5
98
330
1F
100
AcDbEntity
  8
0
  6
Continuous
 62
     7
370
    15
100
AcDbCircle
 10
187.6491272396
 20
113.227007136
 30
0.0
 40
5.999999999999978
  0
ARC
  5
99
330
1F
100
AcDbEntity
  8
0
  6
Continuous
 62
     7
370
    15
100
AcDbCircle
 10
187.6491272396
 20
113.227007136
 30
0.0
 40
3.000000000000003
100
AcDbArc
 50
312.1483911714
 51
12.1483911714
  0
ARC
  5
9A
330
1F
100
AcDbEntity
  8
0
  6
Continuous
 62
     7
370
    15
100
AcDbCircle
 10
187.6491272396
 20
113.227007136
 30
0.0
 40
3.00000000000001
100
AcDbArc
 50
72.1483911714
 51
132.1483911714
  0
ARC
  5
9B
330
1F
100
AcDbEntity
  8
0
  6
Continuous
 62
     7
370
    15
100
AcDbCircle
 10
187.6491272396
 20
113.227007136
 30
0.0
 40
3.000000000000004
100
AcDbArc
 50
252.1483911714
 51
312.1483911714
  0
ARC
  5
9C
330
1F
100
AcDbEntity
  8
0
  6
Continuous
 62
     7
370
    15
100
AcDbCircle
 10
187.6491272396
 20
113.227007136
 30
0.0
 40
3.000000000000003
100
AcDbArc
 50
12.1483911714
 51
72.1483911714
  0
ARC
  5
9D
330
1F
100
AcDbEntity
  8
0
  6
Continuous
 62
     7
370
    15
100
AcDbCircle
 10
187.6491272396
 20
113.227007136
 30
0.0
 40
3.000000000000004
100
AcDbArc
 50
192.1483911714
 51
252.1483911714
  0
ARC
  5
9E
330
1F
100
AcDbEntity
  8
0
  6
Continuous
 62
     7
370
    15
100
AcDbCircle
 10
187.6491272396
 20
113.227007136
 30
0.0
 40
3.00000000000001
100
AcDbArc
 50
132.1483911714
 51
192.1483911714
  0
LINE
  5
9F
330
1F
100
AcDbEntity
  8
0
  6
Continuous
 62
     7
370
    15
100
AcDbLine
 10
203.0991272396
 20
113.227007136
 30
0.0
 11
203.0991272396
 21
81.227007136
 31
0.0
  0
LINE
  5
A0
330
1F
100
AcDbEntity
  8
0
  6
Continuous
 62
     7
370
    15
100
AcDbLine
 10
203.0991272396
 20
145.227007136
 30
0.0
 11
203.0991272396
 21
113.227007136
 31
0.0
  0
LINE
  5
A1
330
1F
100
AcDbEntity
  8
0
  6
Continuous
 62
     7
370
    15
100
AcDbLine
 10
195.6991272396
 20
113.227007136
 30
0.0
 11
195.6991272396
 21
81.227007136
 31
0.0
  0
LINE
  5
A2
330
1F
100
AcDbEntity
  8
0
  6
Continuous
 62
     7
370
    15
100
AcDbLine
 10
195.6991272396
 20
145.227007136
 30
0.0
 11
195.6991272396
 21
113.227007136
 31
0.0
  0
LINE
  5
A3
330
1F
100
AcDbEntity
  8
0
  6
Continuous
 62
     7
370
    15
100
AcDbLine
 10
203.6991272396
 20
113.227007136
 30
0.0
 11
203.6991272396
 21
81.827007136
 31
0.0
  0
LINE
  5
A4
330
1F
100
AcDbEntity
  8
0
  6
Continuous
 62
     7
370
    15
100
AcDbLine
 10
203.6991272396
 20
144.627007136
 30
0.0
 11
203.6991272396
 21
113.227007136
 31
0.0
  0
SPLINE
  5
A5
330
1F
100
AcDbEntity
  8
0
  6
Continuous
 62
     7
370
    15
100
AcDbSpline
210
0.0
220
0.0
230
1.0
 70
     8
 71
     3
 72
    10
 73
     6
 74
     0
 42
0.000000001
 43
0.00000001
 40
0.0
 40
0.0
 40
0.0
 40
0.0
 40
0.5
 40
0.5
 40
1.0
 40
1.0
 40
1.0
 40
1.0
 10
178.6757356436953
 20
143.1314678573504
 30
0.0
 10
178.3596318125558
 20
142.5116052990732
 30
0.0
 10
178.029852768211
 20
141.8657045637744
 30
0.0
 10
177.3576294958222
 20
140.5512859234738
 30
0.0
 10
177.0154963298916
 20
139.8833636964615
 30
0.0
 10
176.6683160013774
 20
139.2070259639801
 30
0.0
  0
SPLINE
  5
A6
330
1F
100
AcDbEntity
  8
0
  6
Continuous
 62
     7
370
    15
100
AcDbSpline
210
0.0
220
0.0
230
1.0
 70
     8
 71
     3
 72
     9
 73
     5
 74
     0
 42
0.000000001
 43
0.00000001
 40
0.0
 40
0.0
 40
0.0
 40
0.0
 40
0.50675957998175
 40
1.0
 40
1.0
 40
1.0
 40
1.0
 10
179.3247577826343
 20
144.0891422433452
 30
0.0
 10
179.2143574347755
 20
143.9270673049
 30
0.0
 10
178.9965019620427
 20
143.6072412081717
 30
0.0
 10
178.78190885983
 20
143.2888932285239
 30
0.0
 10
178.6760628679615
 20
143.1318711373305
 30
0.0
  0
LINE
  5
A7
330
1F
100
AcDbEntity
  8
0
  6
Continuous
 62
     7
370
    15
100
AcDbLine
 10
179.3241272396
 20
82.3659091165
 30
0.0
 11
179.3241272396
 21
144.0880888905
 31
0.0
  0
SPLINE
  5
A8
330
1F
100
AcDbEntity
  8
0
  6
Continuous
 62
     7
370
    15
100
AcDbSpline
210
0.0
220
0.0
230
1.0
 70
     8
 71
     3
 72
     9
 73
     5
 74
     0
 42
0.000000001
 43
0.00000001
 40
0.0
 40
0.0
 40
0.0
 40
0.0
 40
0.4932426507365072
 40
1.0
 40
1.0
 40
1.0
 40
1.0
 10
178.6760489529388
 20
83.32214103429139
 30
0.0
 10
178.781895058055
 20
83.16511779448024
 30
0.0
 10
178.9964874193567
 20
82.8467689258723
 30
0.0
 10
179.2143417073283
 20
82.52694287914319
 30
0.0
 10
179.3247409688264
 20
82.36486867947734
 30
0.0
  0
SPLINE
  5
A9
330
1F
100
AcDbEntity
  8
0
  6
Continuous
 62
     7
370
    15
100
AcDbSpline
210
0.0
220
0.0
230
1.0
 70
     8
 71
     3
 72
    10
 73
     6
 74
     0
 42
0.000000001
 43
0.00000001
 40
0.0
 40
0.0
 40
0.0
 40
0.0
 40
0.5
 40
0.5
 40
1.0
 40
1.0
 40
1.0
 40
1.0
 10
178.6757297240275
 20
83.32255802279113
 30
0.0
 10
178.3595506213533
 20
83.94256817480486
 30
0.0
 10
178.0291083941863
 20
84.58976624067257
 30
0.0
 10
177.3573968735036
 20
85.90318216526634
 30
0.0
 10
177.0154229984716
 20
86.57079343156914
 30
0.0
 10
176.6683160013774
 20
87.24698830801232
 30
0.0
  0
SPLINE
  5
AA
330
1F
100
AcDbEntity
  8
0
  6
Continuous
 62
     7
370
    15
100
AcDbSpline
210
0.0
220
0.0
230
1.0
 70
    11
 71
     3
 72
    95
 73
    91
 74
     0
 42
0.000000001
 43
0.00000001
 40
0.0
 40
0.0
 40
0.0
 40
0.0
 40
0.03125
 40
0.03125
 40
0.0625
 40
0.0625
 40
0.09375
 40
0.09375
 40
0.1093750000000001
 40
0.1093750000000001
 40
0.1250000000000001
 40
0.1406250000000001
 40
0.1406250000000001
 40
0.1562500000000001
 40
0.1562500000000001
 40
0.1875000000000002
 40
0.1875000000000002
 40
0.2031250000000002
 40
0.2031250000000002
 40
0.2187500000000002
 40
0.2187500000000002
 40
0.2343750000000002
 40
0.2343750000000002
 40
0.2500000000000002
 40
0.2500000000000002
 40
0.2812500000000002
 40
0.2812500000000002
 40
0.2968750000000002
 40
0.2968750000000002
 40
0.3125000000000002
 40
0.3125000000000002
 40
0.3437499999999999
 40
0.3437499999999999
 40
0.3749999999999996
 40
0.3749999999999996
 40
0.4062499999999994
 40
0.4062499999999994
 40
0.4374999999999993
 40
0.4374999999999993
 40
0.4687499999999993
 40
0.4687499999999993
 40
0.4999999999999992
 40
0.4999999999999992
 40
0.5156249999999992
 40
0.5156249999999992
 40
0.5312499999999992
 40
0.5312499999999992
 40
0.5624999999999994
 40
0.5624999999999994
 40
0.5781249999999994
 40
0.5781249999999994
 40
0.5937499999999994
 40
0.5937499999999994
 40
0.6249999999999996
 40
0.6249999999999996
 40
0.6406249999999996
 40
0.6406249999999996
 40
0.6562499999999996
 40
0.6562499999999996
 40
0.6718749999999996
 40
0.6718749999999996
 40
0.6874999999999996
 40
0.6874999999999996
 40
0.7187499999999999
 40
0.7187499999999999
 40
0.734375
 40
0.734375
 40
0.7500000000000002
 40
0.7500000000000002
 40
0.7656250000000003
 40
0.7656250000000003
 40
0.7812500000000004
 40
0.7812500000000004
 40
0.8125000000000003
 40
0.8125000000000003
 40
0.8437500000000002
 40
0.8437500000000002
 40
0.8750000000000001
 40
0.8750000000000001
 40
0.890625
 40
0.890625
 40
0.9062499999999999
 40
0.9062499999999999
 40
0.9374999999999998
 40
0.9374999999999998
 40
0.9531249999999999
 40
0.9531249999999999
 40
0.96875
 40
0.96875
 40
1.0
 40
1.0
 40
1.0
 40
1.0
 10
182.8703011948795
 20
117.8617388145171
 30
0.0
 10
182.535159534669
 20
117.5770132128504
 30
0.0
 10
182.2320947687307
 20
117.2643032577557
 30
0.0
 10
181.6917323760125
 20
116.5809013133699
 30
0.0
 10
181.4531726147816
 20
116.2060861017744
 30
0.0
 10
181.0678494021825
 20
115.426548236226
 30
0.0
 10
180.9179651927154
 20
115.0192311834203
 30
0.0
 10
180.7618948961616
 20
114.3798902556065
 30
0.0
 10
180.7215285249612
 20
114.1613391013276
 30
0.0
 10
180.6667687179784
 20
113.7266707593435
 30
0.0
 10
180.6370980004154
 20
113.2915344970233
 30
0.0
 10
180.6569878933012
 20
112.855473389108
 30
0.0
 10
180.7021336488972
 20
112.4189411631387
 30
0.0
 10
180.7376834280039
 20
112.1994982702072
 30
0.0
 10
180.8796680583054
 20
111.5569862714006
 30
0.0
 10
181.0211424571839
 20
111.1446169033804
 30
0.0
 10
181.3008229379238
 20
110.548956763326
 30
0.0
 10
181.4056650351083
 20
110.3540980363489
 30
0.0
 10
181.6328379877325
 20
109.9805903513181
 30
0.0
 10
181.7556645127386
 20
109.800766024852
 30
0.0
 10
182.0190514439724
 20
109.4543561660919
 30
0.0
 10
182.159614160618
 20
109.2877724691207
 30
0.0
 10
182.4583122930451
 20
108.9676582566523
 30
0.0
 10
182.6167056492237
 20
108.8140722689506
 30
0.0
 10
183.1083088094073
 20
108.3814390152514
 30
0.0
 10
183.4606864563403
 20
108.1268864655008
 30
0.0
 10
184.0246986329118
 20
107.7932512674475
 30
0.0
 10
184.2196204809336
 20
107.6897161157371
 30
0.0
 10
184.6156595587913
 20
107.5018126755794
 30
0.0
 10
184.8168318461002
 20
107.4172740382228
 30
0.0
 10
185.4294951865128
 20
107.1908463672863
 30
0.0
 10
185.8500560884068
 20
107.0759111905195
 30
0.0
 10
186.7157360836977
 20
106.9185621516579
 30
0.0
 10
187.1539234634692
 20
106.8778758544476
 30
0.0
 10
188.025025566608
 20
106.8710925806065
 30
0.0
 10
188.4604222544163
 20
106.9045208699075
 30
0.0
 10
189.3308933156234
 20
107.0484116848792
 30
0.0
 10
189.753898309282
 20
107.1569583640297
 30
0.0
 10
190.5734948664571
 20
107.4448290615933
 30
0.0
 10
190.9717896632952
 20
107.6248898102424
 30
0.0
 10
191.7358486715873
 20
108.0590906596327
 30
0.0
 10
192.091950653448
 20
108.3074557580081
 30
0.0
 10
192.5872767746092
 20
108.7273211382472
 30
0.0
 10
192.7458689427578
 20
108.8752179113867
 30
0.0
 10
193.0494281395569
 20
109.1877059702522
 30
0.0
 10
193.1952319502194
 20
109.3534049767612
 30
0.0
 10
193.6033981895904
 20
109.8682771049432
 30
0.0
 10
193.836704726726
 20
110.2337897945987
 30
0.0
 10
194.1268620291465
 20
110.8166674766032
 30
0.0
 10
194.2135409902822
 20
111.0167695901006
 30
0.0
 10
194.3655313023574
 20
111.4293785531636
 30
0.0
 10
194.4303997401389
 20
111.6412873106782
 30
0.0
 10
194.5867713141636
 20
112.2782442476818
 30
0.0
 10
194.6426468321787
 20
112.7100878366605
 30
0.0
 10
194.651578369655
 20
113.3690312883617
 30
0.0
 10
194.64172706116
 20
113.5914447897613
 30
0.0
 10
194.5970931863443
 20
114.028231554894
 30
0.0
 10
194.5624329681322
 20
114.2439801978847
 30
0.0
 10
194.4691216821421
 20
114.6703438365044
 30
0.0
 10
194.4104692371152
 20
114.8809585247925
 30
0.0
 10
194.2690970114801
 20
115.2970492761297
 30
0.0
 10
194.186093883346
 20
115.5027235686605
 30
0.0
 10
193.9075052092238
 20
116.0976064003876
 30
0.0
 10
193.6811447937756
 20
116.470042682606
 30
0.0
 10
193.2835152804514
 20
116.9944607179223
 30
0.0
 10
193.1412205170172
 20
117.1632575247824
 30
0.0
 10
192.8434525622939
 20
117.4828086025492
 30
0.0
 10
192.6872963691719
 20
117.6345093441106
 30
0.0
 10
192.3609661230709
 20
117.9224294907352
 30
0.0
 10
192.1907903812531
 20
118.0586468786119
 30
0.0
 10
191.8365031905482
 20
118.3157739565194
 30
0.0
 10
191.651745574732
 20
118.4369703977589
 30
0.0
 10
191.086862213136
 20
118.7713556580347
 30
0.0
 10
190.6934843460983
 20
118.9579136367891
 30
0.0
 10
189.8743470334823
 20
119.2615484112163
 30
0.0
 10
189.4455498438937
 20
119.3785657002139
 30
0.0
 10
188.5857992777295
 20
119.5348745523228
 30
0.0
 10
188.1516924652388
 20
119.5758189473105
 30
0.0
 10
187.4941594150593
 20
119.5813303450447
 30
0.0
 10
187.2728323727802
 20
119.573681226207
 30
0.0
 10
186.834082357188
 20
119.5394445137998
 30
0.0
 10
186.6168548503479
 20
119.5129909550444
 30
0.0
 10
185.9714660041186
 20
119.4062297552553
 30
0.0
 10
185.5495439475069
 20
119.2987685740651
 30
0.0
 10
184.929543053941
 20
119.0811666505876
 30
0.0
 10
184.7241942287488
 20
118.9987204646856
 30
0.0
 10
184.3252131523247
 20
118.8172606943768
 30
0.0
 10
184.1309212899344
 20
118.7181056073916
 30
0.0
 10
183.5635635528395
 20
118.395369374361
 30
0.0
 10
183.2054428550898
 20
118.1464644161837
 30
0.0
 10
182.8703011948794
 20
117.8617388145171
 30
0.0
  0
SPLINE
  5
AB
330
1F
100
AcDbEntity
  8
0
  6
Continuous
 62
     7
370
    15
100
AcDbSpline
210
0.0
220
0.0
230
1.0
 70
     8
 71
     3
 72
    11
 73
     7
 74
     0
 42
0.000000001
 43
0.00000001
 40
0.0
 40
0.0
 40
0.0
 40
0.0
 40
0.2488814606713862
 40
0.5011921284374594
 40
0.7520447562628411
 40
1.0
 40
1.0
 40
1.0
 40
1.0
 10
181.6986270696327
 20
144.7268573905897
 30
0.0
 10
181.668848740147
 20
144.7177253644452
 30
0.0
 10
181.6088817811941
 20
144.6993354867581
 30
0.0
 10
181.1169597193947
 20
144.5552982382713
 30
0.0
 10
180.3888902967517
 20
144.3458951601619
 30
0.0
 10
179.6781468255889
 20
144.1736908908113
 30
0.0
 10
179.3248393084586
 20
144.0880888904948
 30
0.0
  0
SPLINE
  5
AC
330
1F
100
AcDbEntity
  8
0
  6
Continuous
 62
     7
370
    15
100
AcDbSpline
210
0.0
220
0.0
230
1.0
 70
     8
 71
     3
 72
    24
 73
    20
 74
     0
 42
0.000000001
 43
0.00000001
 40
0.0
 40
0.0
 40
0.0
 40
0.0
 40
0.045230414525674
 40
0.0903354254855308
 40
0.1353632524080815
 40
0.1803623629237798
 40
0.2253813173891955
 40
0.2704686120202168
 40
0.315672523057062
 40
0.3610409544452788
 40
0.4066212913869757
 40
0.4524602619036575
 40
0.4986038082697604
 40
0.5832834063273763
 40
0.6671222514847857
 40
0.7504134308294627
 40
0.8334558303784553
 40
0.9165510206950486
 40
1.0
 40
1.0
 40
1.0
 40
1.0
 10
179.3247459330674
 20
82.36590911646071
 30
0.0
 10
179.3924496749724
 20
82.35015007544204
 30
0.0
 10
179.5276694468025
 20
82.31867568612691
 30
0.0
 10
179.7203311636461
 20
82.27221488278566
 30
0.0
 10
179.9050680352989
 20
82.22658390315196
 30
0.0
 10
180.0811859765928
 20
82.18195860571804
 30
0.0
 10
180.2488697692066
 20
82.13847131911847
 30
0.0
 10
180.4080692534959
 20
82.09627027132245
 30
0.0
 10
180.5587973919868
 20
82.05550367900493
 30
0.0
 10
180.7010503453864
 20
82.0163239264216
 30
0.0
 10
180.8348291006085
 20
81.97888663453196
 30
0.0
 10
180.9601330110048
 20
81.94335005089457
 30
0.0
 10
181.1091815607815
 20
81.90064803542113
 30
0.0
 10
181.2699471381464
 20
81.85413934439019
 30
0.0
 10
181.4258732229466
 20
81.80847945419498
 30
0.0
 10
181.5474982408731
 20
81.77244918548496
 30
0.0
 10
181.6339739700943
 20
81.74656766053585
 30
0.0
 10
181.6883928774415
 20
81.73013158401018
 30
0.0
 10
181.6955414190232
 20
81.72805022542205
 30
0.0
 10
181.6991232826205
 20
81.72700733541791
 30
0.0
  0
LINE
  5
AD
330
1F
100
AcDbEntity
  8
0
  6
Continuous
 62
     7
370
    15
100
AcDbLine
 10
169.2741272396
 20
143.463397239
 30
0.0
 11
160.6991272396
 21
143.463397239
 31
0.0
  0
LINE
  5
AE
330
1F
100
AcDbEntity
  8
0
  6
Continuous
 62
     7
370
    15
100
AcDbLine
 10
169.2741272396
 20
82.990617033
 30
0.0
 11
169.2741272396
 21
143.463397239
 31
0.0
  0
LINE
  5
AF
330
1F
100
AcDbEntity
  8
0
  6
Continuous
 62
     7
370
    15
100
AcDbLine
 10
160.6991272396
 20
82.990617033
 30
0.0
 11
169.2741272396
 21
82.990617033
 31
0.0
  0
SPLINE
  5
B0
330
1F
100
AcDbEntity
  8
0
  6
Continuous
 62
     7
370
    15
100
AcDbSpline
210
0.0
220
0.0
230
1.0
 70
    11
 71
     3
 72
    62
 73
    58
 74
     0
 42
0.000000001
 43
0.00000001
 40
0.0
 40
0.0
 40
0.0
 40
0.0
 40
0.0312500000000001
 40
0.0312500000000001
 40
0.0625000000000003
 40
0.0625000000000003
 40
0.0937500000000003
 40
0.0937500000000003
 40
0.1250000000000003
 40
0.1250000000000003
 40
0.1562500000000003
 40
0.1562500000000003
 40
0.1875000000000003
 40
0.1875000000000003
 40
0.2500000000000003
 40
0.2500000000000003
 40
0.3125000000000003
 40
0.3125000000000003
 40
0.3437500000000003
 40
0.3437500000000003
 40
0.3750000000000003
 40
0.3750000000000003
 40
0.4062500000000003
 40
0.4062500000000003
 40
0.4375000000000003
 40
0.4375000000000003
 40
0.4687500000000002
 40
0.4687500000000002
 40
0.5000000000000002
 40
0.5000000000000002
 40
0.5312500000000001
 40
0.5312500000000001
 40
0.5625000000000001
 40
0.5625000000000001
 40
0.6249999999999998
 40
0.6249999999999998
 40
0.6562499999999999
 40
0.6562499999999999
 40
0.6874999999999999
 40
0.6874999999999999
 40
0.7187499999999999
 40
0.7187499999999999
 40
0.7499999999999999
 40
0.7499999999999999
 40
0.78125
 40
0.78125
 40
0.8125
 40
0.8125
 40
0.84375
 40
0.84375
 40
0.8750000000000001
 40
0.8750000000000001
 40
0.9062500000000001
 40
0.9062500000000001
 40
0.9375000000000001
 40
0.9375000000000001
 40
1.0
 40
1.0
 40
1.0
 40
1.0
 10
164.6562579392119
 20
103.7337406591507
 30
0.0
 10
164.7524190403584
 20
103.8559394361673
 30
0.0
 10
164.8598118020727
 20
103.9670452056239
 30
0.0
 10
165.0953569102102
 20
104.1685677908687
 30
0.0
 10
165.2249688165079
 20
104.2597238922477
 30
0.0
 10
165.4979389051874
 20
104.4161375945302
 30
0.0
 10
165.6406508949919
 20
104.4814411811812
 30
0.0
 10
165.9381359105294
 20
104.5869172418309
 30
0.0
 10
166.0938484059315
 20
104.6269883584578
 30
0.0
 10
166.4056863136633
 20
104.6787995281087
 30
0.0
 10
166.5631309814905
 20
104.6911628738986
 30
0.0
 10
166.8811026564706
 20
104.6885023319464
 30
0.0
 10
167.0408612142318
 20
104.6731665207848
 30
0.0
 10
167.5060277597903
 20
104.5874155329028
 30
0.0
 10
167.8090367038953
 20
104.4744394752314
 30
0.0
 10
168.3444623371993
 20
104.1546790492144
 30
0.0
 10
168.5839502849474
 20
103.9432970512724
 30
0.0
 10
168.8606608603739
 20
103.5775933710931
 30
0.0
 10
168.9410809605606
 20
103.4453668077999
 30
0.0
 10
169.0705511251059
 20
103.1693235674214
 30
0.0
 10
169.1192731018403
 20
103.02715045551
 30
0.0
 10
169.1844320139725
 20
102.7345604841439
 30
0.0
 10
169.2005040885333
 20
102.582836291464
 30
0.0
 10
169.1975602570554
 20
102.2854948108219
 30
0.0
 10
169.1791794471262
 20
102.1382647818452
 30
0.0
 10
169.1077775101778
 20
101.8467017156937
 30
0.0
 10
169.0557084299511
 20
101.7067061694319
 30
0.0
 10
168.9217490115689
 20
101.4402086978741
 30
0.0
 10
168.8385518050213
 20
101.3120307643887
 30
0.0
 10
168.6482765229779
 20
101.0771848583514
 30
0.0
 10
168.5412282081079
 20
100.969758972888
 30
0.0
 10
168.3039105798819
 20
100.7741468705549
 30
0.0
 10
168.17458431297
 20
100.6871146157817
 30
0.0
 10
167.7674807371576
 20
100.4638223536715
 30
0.0
 10
167.4626274905309
 20
100.3616217183957
 30
0.0
 10
166.9952568354963
 20
100.2875832571385
 30
0.0
 10
166.834920134099
 20
100.2755987950437
 30
0.0
 10
166.5172133517391
 20
100.2781240683076
 30
0.0
 10
166.360074414522
 20
100.2923013658894
 30
0.0
 10
166.0492033865353
 20
100.3463703148057
 30
0.0
 10
165.894114984935
 20
100.386907073629
 30
0.0
 10
165.5988869666398
 20
100.4918922392732
 30
0.0
 10
165.4577030633041
 20
100.5562702615462
 30
0.0
 10
165.1885339244355
 20
100.7096329939744
 30
0.0
 10
165.0600839997384
 20
100.7994176861035
 30
0.0
 10
164.8283899722912
 20
100.9972542875871
 30
0.0
 10
164.7235875996066
 20
101.1059892571411
 30
0.0
 10
164.5373583964434
 20
101.3444949208158
 30
0.0
 10
164.4569965685187
 20
101.4736081046931
 30
0.0
 10
164.3285352323615
 20
101.741577326863
 30
0.0
 10
164.2791817655476
 20
101.8822438810181
 30
0.0
 10
164.2133445313929
 20
102.1752406957107
 30
0.0
 10
164.1978211243477
 20
102.3228408045024
 30
0.0
 10
164.2006032824907
 20
102.6202284365991
 30
0.0
 10
164.2195486114872
 20
102.7716852254234
 30
0.0
 10
164.3258746852998
 20
103.2099533120045
 30
0.0
 10
164.463935736919
 20
103.4893431051174
 30
0.0
 10
164.6562579392119
 20
103.7337406591507
 30
0.0
  0
LINE
  5
B1
330
1F
100
AcDbEntity
  8
0
  6
Continuous
 62
     7
370
    15
100
AcDbLine
 10
159.6991272396
 20
84.1006015905
 30
0.0
 11
159.6991272396
 21
142.3534126815
 31
0.0
  0
SPLINE
  5
B2
330
1F
100
AcDbEntity
  8
0
  6
Continuous
 62
     7
370
    15
100
AcDbSpline
210
0.0
220
0.0
230
1.0
 70
     8
 71
     3
 72
    12
 73
     8
 74
     0
 42
0.000000001
 43
0.00000001
 40
0.0
 40
0.0
 40
0.0
 40
0.0
 40
0.2500000000000004
 40
0.2500000000000004
 40
0.5000000000000009
 40
0.5000000000000009
 40
1.0
 40
1.0
 40
1.0
 40
1.0
 10
160.0861600626152
 20
143.2939970358171
 30
0.0
 10
160.0342993114272
 20
143.2371844635028
 30
0.0
 10
159.9855675144082
 20
143.1751922772509
 30
0.0
 10
159.8953945044908
 20
143.0391392041269
 30
0.0
 10
159.8536172562059
 20
142.9642331015282
 30
0.0
 10
159.7475283863599
 20
142.7261064662308
 30
0.0
 10
159.6991272396497
 20
142.5426997346621
 30
0.0
 10
159.6991272396497
 20
142.3534126814802
 30
0.0
  0
SPLINE
  5
B3
330
1F
100
AcDbEntity
  8
0
  6
Continuous
 62
     7
370
    15
100
AcDbSpline
210
0.0
220
0.0
230
1.0
 70
     8
 71
     3
 72
     8
 73
     4
 74
     0
 42
0.000000001
 43
0.00000001
 40
0.0
 40
0.0
 40
0.0
 40
0.0
 40
1.0
 40
1.0
 40
1.0
 40
1.0
 10
160.6991272396498
 20
143.463397238998
 30
0.0
 10
160.4727829260499
 20
143.463397238998
 30
0.0
 10
160.2553308056447
 20
143.4000287699771
 30
0.0
 10
160.0861600626152
 20
143.2939970358171
 30
0.0
  0
SPLINE
  5
B4
330
1F
100
AcDbEntity
  8
0
  6
Continuous
 62
     7
370
    15
100
AcDbSpline
210
0.0
220
0.0
230
1.0
 70
     8
 71
     3
 72
     8
 73
     4
 74
     0
 42
0.000000001
 43
0.00000001
 40
0.0
 40
0.0
 40
0.0
 40
0.0
 40
1.0
 40
1.0
 40
1.0
 40
1.0
 10
160.0861600626152
 20
83.16001723617525
 30
0.0
 10
160.2557535682672
 20
83.05372052561805
 30
0.0
 10
160.4721222606005
 20
82.99061703299435
 30
0.0
 10
160.6991272396498
 20
82.99061703299435
 30
0.0
  0
SPLINE
  5
B5
330
1F
100
AcDbEntity
  8
0
  6
Continuous
 62
     7
370
    15
100
AcDbSpline
210
0.0
220
0.0
230
1.0
 70
     8
 71
     3
 72
    12
 73
     8
 74
     0
 42
0.000000001
 43
0.00000001
 40
0.0
 40
0.0
 40
0.0
 40
0.0
 40
0.25
 40
0.25
 40
0.5
 40
0.5
 40
1.0
 40
1.0
 40
1.0
 40
1.0
 10
160.0861600626152
 20
83.16001723617525
 30
0.0
 10
160.0342993114272
 20
83.21682980848965
 30
0.0
 10
159.9855675144082
 20
83.27882199474145
 30
0.0
 10
159.8953945044908
 20
83.41487506786545
 30
0.0
 10
159.8536172562059
 20
83.48978117046418
 30
0.0
 10
159.7475283863599
 20
83.72790780576157
 30
0.0
 10
159.6991272396497
 20
83.91131453733034
 30
0.0
 10
159.6991272396497
 20
84.10060159051221
 30
0.0
  0
SPLINE
  5
B6
330
1F
100
AcDbEntity
  8
0
  6
Continuous
 62
     7
370
    15
100
AcDbSpline
210
0.0
220
0.0
230
1.0
 70
     8
 71
     3
 72
     8
 73
     4
 74
     0
 42
0.000000001
 43
0.00000001
 40
0.0
 40
0.0
 40
0.0
 40
0.0
 40
0.0012389803509652
 40
0.0012389803509652
 40
0.0012389803509652
 40
0.0012389803509652
 10
169.8316887831835
 20
142.6810298587826
 30
0.0
 10
169.6465688100507
 20
142.9420798401617
 30
0.0
 10
169.4606903622917
 20
143.2028614532807
 30
0.0
 10
169.2741272396497
 20
143.463397238998
 30
0.0
  0
SPLINE
  5
B7
330
1F
100
AcDbEntity
  8
0
  6
Continuous
 62
     7
370
    15
100
AcDbSpline
210
0.0
220
0.0
230
1.0
 70
     8
 71
     3
 72
     8
 73
     4
 74
     0
 42
0.000000001
 43
0.00000001
 40
0.0
 40
0.0
 40
0.0
 40
0.0
 40
1.0
 40
1.0
 40
1.0
 40
1.0
 10
171.929938477922
 20
138.8942528004612
 30
0.0
 10
171.2336451118805
 20
140.158191168576
 30
0.0
 10
170.5338499466894
 20
141.4202466140842
 30
0.0
 10
169.8316887831835
 20
142.6810298587826
 30
0.0
  0
SPLINE
  5
B8
330
1F
100
AcDbEntity
  8
0
  6
Continuous
 62
     7
370
    15
100
AcDbSpline
210
0.0
220
0.0
230
1.0
 70
     8
 71
     3
 72
     8
 73
     4
 74
     0
 42
0.000000001
 43
0.00000001
 40
0.0
 40
0.0
 40
0.0
 40
0.0
 40
1.0
 40
1.0
 40
1.0
 40
1.0
 10
171.929938477922
 20
87.55976147153113
 30
0.0
 10
171.233620337264
 20
86.29577813158437
 30
0.0
 10
170.5338231451536
 20
85.03371953373241
 30
0.0
 10
169.8316887831835
 20
83.77298441320974
 30
0.0
  0
SPLINE
  5
B9
330
1F
100
AcDbEntity
  8
0
  6
Continuous
 62
     7
370
    15
100
AcDbSpline
210
0.0
220
0.0
230
1.0
 70
     8
 71
     3
 72
     8
 73
     4
 74
     0
 42
0.000000001
 43
0.00000001
 40
0.0
 40
0.0
 40
0.0
 40
0.0
 40
0.0012389803509652
 40
0.0012389803509652
 40
0.0012389803509652
 40
0.0012389803509652
 10
169.2741272396497
 20
82.99061703299436
 30
0.0
 10
169.4606903622917
 20
83.25115281871172
 30
0.0
 10
169.6465688100507
 20
83.51193443183072
 30
0.0
 10
169.8316887831835
 20
83.77298441320974
 30
0.0
  0
SPLINE
  5
BA
330
1F
100
AcDbEntity
  8
0
  6
Continuous
 62
     7
370
    15
100
AcDbSpline
210
0.0
220
0.0
230
1.0
 70
     8
 71
     3
 72
    12
 73
     8
 74
     0
 42
0.000000001
 43
0.00000001
 40
0.0
 40
0.0
 40
0.0
 40
0.0
 40
0.2500000000000002
 40
0.2500000000000002
 40
0.5000000000000004
 40
0.5000000000000004
 40
1.0
 40
1.0
 40
1.0
 40
1.0
 10
176.6683160013774
 20
139.2070259639801
 30
0.0
 10
176.6324118510409
 20
139.1370815298319
 30
0.0
 10
176.5898802989114
 20
139.0738301667741
 30
0.0
 10
176.4930860220714
 20
138.9587715118581
 30
0.0
 10
176.4379963438071
 20
138.9064429781462
 30
0.0
 10
176.2598631102532
 20
138.7726580750611
 30
0.0
 10
176.1224860182506
 20
138.7121103079029
 30
0.0
 10
175.9754956783507
 20
138.692910359519
 30
0.0
  0
SPLINE
  5
BB
330
1F
100
AcDbEntity
  8
0
  6
Continuous
 62
     7
370
    15
100
AcDbSpline
210
0.0
220
0.0
230
1.0
 70
     8
 71
     3
 72
    12
 73
     8
 74
     0
 42
0.000000001
 43
0.00000001
 40
0.0
 40
0.0
 40
0.0
 40
0.0
 40
0.2500000000000005
 40
0.2500000000000005
 40
0.500000000000001
 40
0.500000000000001
 40
1.0
 40
1.0
 40
1.0
 40
1.0
 10
176.6683160013774
 20
87.2469883080123
 30
0.0
 10
176.6324118510409
 20
87.31693274216047
 30
0.0
 10
176.5898802989114
 20
87.3801841052183
 30
0.0
 10
176.4930860220714
 20
87.49524276013423
 30
0.0
 10
176.4379963438071
 20
87.5475712938462
 30
0.0
 10
176.2598631102532
 20
87.68135619693129
 30
0.0
 10
176.1224860182506
 20
87.74190396408946
 30
0.0
 10
175.9754956783507
 20
87.76110391247335
 30
0.0
  0
SPLINE
  5
BC
330
1F
100
AcDbEntity
  8
0
  6
Continuous
 62
     7
370
    15
100
AcDbSpline
210
0.0
220
0.0
230
1.0
 70
     8
 71
     3
 72
    10
 73
     6
 74
     0
 42
0.000000001
 43
0.00000001
 40
0.0
 40
0.0
 40
0.0
 40
0.0
 40
0.5
 40
0.5
 40
1.0
 40
1.0
 40
1.0
 40
1.0
 10
172.6227588009496
 20
138.4747298055757
 30
0.0
 10
172.4807414885026
 20
138.4747298055757
 30
0.0
 10
172.3402944416403
 20
138.5152196577852
 30
0.0
 10
172.098704522379
 20
138.6631554877243
 30
0.0
 10
171.9980270801257
 20
138.7706557637039
 30
0.0
 10
171.9299384779221
 20
138.8942528004609
 30
0.0
  0
SPLINE
  5
BD
330
1F
100
AcDbEntity
  8
0
  6
Continuous
 62
     7
370
    15
100
AcDbSpline
210
0.0
220
0.0
230
1.0
 70
     8
 71
     3
 72
    10
 73
     6
 74
     0
 42
0.000000001
 43
0.00000001
 40
0.0
 40
0.0
 40
0.0
 40
0.0
 40
0.5
 40
0.5
 40
1.0
 40
1.0
 40
1.0
 40
1.0
 10
172.6227588009496
 20
87.97928446641666
 30
0.0
 10
172.4819014364389
 20
87.97928446641666
 30
0.0
 10
172.3390673049647
 20
87.93818056059796
 30
0.0
 10
172.0988056141914
 20
87.79078266729701
 30
0.0
 10
171.9980993451119
 20
87.68348968645736
 30
0.0
 10
171.929938477922
 20
87.55976147153115
 30
0.0
  0
LINE
  5
BE
330
1F
100
AcDbEntity
  8
0
  6
Continuous
 62
     7
370
    15
100
AcDbLine
 10
172.6491272396
 20
87.9792844664
 30
0.0
 11
172.6227588009
 21
87.9792844664
 31
0.0
  0
LINE
  5
BF
330
1F
100
AcDbEntity
  8
0
  6
Continuous
 62
     7
370
    15
100
AcDbLine
 10
172.6491272396
 20
138.4747298056
 30
0.0
 11
172.6227588009
 21
138.4747298056
 31
0.0
  0
SPLINE
  5
C0
330
1F
100
AcDbEntity
  8
0
  6
Continuous
 62
     7
370
    15
100
AcDbSpline
210
0.0
220
0.0
230
1.0
 70
     8
 71
     3
 72
    10
 73
     6
 74
     0
 42
0.000000001
 43
0.00000001
 40
0.0
 40
0.0
 40
0.0
 40
0.0
 40
0.5
 40
0.5
 40
1.0
 40
1.0
 40
1.0
 40
1.0
 10
175.9754956783499
 20
138.692910359522
 30
0.0
 10
175.453580953954
 20
138.6247376090137
 30
0.0
 10
174.9147297738446
 20
138.5701143440558
 30
0.0
 10
173.8033671318125
 20
138.4950184911645
 30
0.0
 10
173.2265263546165
 20
138.4747298055757
 30
0.0
 10
172.6491272396498
 20
138.4747298055757
 30
0.0
  0
SPLINE
  5
C1
330
1F
100
AcDbEntity
  8
0
  6
Continuous
 62
     7
370
    15
100
AcDbSpline
210
0.0
220
0.0
230
1.0
 70
     8
 71
     3
 72
    10
 73
     6
 74
     0
 42
0.000000001
 43
0.00000001
 40
0.0
 40
0.0
 40
0.0
 40
0.0
 40
0.5
 40
0.5
 40
1.0
 40
1.0
 40
1.0
 40
1.0
 10
175.9754956783499
 20
87.76110391247042
 30
0.0
 10
175.453580953954
 20
87.82927666297863
 30
0.0
 10
174.9147297738446
 20
87.88389992793655
 30
0.0
 10
173.8033671318125
 20
87.9589957808279
 30
0.0
 10
173.2265263546165
 20
87.97928446641667
 30
0.0
 10
172.6491272396497
 20
87.97928446641667
 30
0.0
  0
SPLINE
  5
C2
330
1F
100
AcDbEntity
  8
0
  6
Continuous
 62
     7
370
    15
100
AcDbSpline
210
0.0
220
0.0
230
1.0
 70
    24
 71
     3
 72
    10
 73
     6
 74
     0
 42
0.000000001
 43
0.00000001
 40
0.0
 40
0.0
 40
0.0
 40
0.0
 40
0.2819631910061146
 40
0.9999940314262993
 40
1.0
 40
1.0
 40
1.0
 40
1.0
 10
159.5450445781732
 20
135.7270071359962
 30
0.0
 10
159.5239406598634
 20
135.7270071359948
 30
0.0
 10
159.4490947472668
 20
135.7270071359896
 30
0.0
 10
159.358467730958
 20
135.7270071360392
 30
0.0
 10
159.3878765942546
 20
135.7270071359962
 30
0.0
 10
159.3878768387114
 20
135.7270071359962
 30
0.0
  0
SPLINE
  5
C3
330
1F
100
AcDbEntity
  8
0
  6
Continuous
 62
     7
370
    15
100
AcDbSpline
210
0.0
220
0.0
230
1.0
 70
    24
 71
     3
 72
     9
 73
     5
 74
     0
 42
0.000000001
 43
0.00000001
 40
0.0
 40
0.0
 40
0.0
 40
0.0
 40
0.6842861662181908
 40
1.0
 40
1.0
 40
1.0
 40
1.0
 10
159.3878769404298
 20
90.72700713599619
 30
0.0
 10
159.4069431221951
 20
90.72700713599619
 30
0.0
 10
159.4348059999012
 20
90.72700713599619
 30
0.0
 10
159.5171379428745
 20
90.72700713599619
 30
0.0
 10
159.5431312762333
 20
90.72700713599619
 30
0.0
  0
LINE
  5
C4
330
1F
100
AcDbEntity
  8
0
  6
Continuous
 62
     7
370
    15
100
AcDbLine
 10
157.6991272396
 20
91.002007136
 30
0.0
 11
157.6991272396
 21
135.452007136
 31
0.0
  0
LINE
  5
C5
330
1F
100
AcDbEntity
  8
0
  6
Continuous
 62
     7
370
    15
100
AcDbLine
 10
92.2991272396
 20
101.404251539
 30
0.0
 11
92.2991272396
 21
125.0497626906
 31
0.0
  0
LWPOLYLINE
  5
C6
330
1F
100
AcDbEntity
  8
0
  6
Continuous
 62
     7
370
    15
100
AcDbPolyline
 90
       21
 70
   128
 43
0.0
 10
165.1000948067
 20
102.62966276
 10
165.1203841858
 20
102.1567058867
 10
165.2952119347
 20
101.7127888203
 10
165.6074646953
 20
101.3413652563
 10
166.0265769918
 20
101.078792721
 10
166.5115231925
 20
100.9507736436
 10
167.0148333844
 20
100.9698394234
 10
167.4872400593
 20
101.1341237689
 10
167.8825007602
 20
101.4275453839
 10
168.1619246159
 20
101.8213821162
 10
168.2981596726
 20
102.2770824825
 10
168.2778702935
 20
102.7500393558
 10
168.1030425446
 20
103.1939564222
 10
167.790789784
 20
103.5653799861
 10
167.3716774875
 20
103.8279525214
 10
166.8867312868
 20
103.9559715988
 10
166.3834210949
 20
103.9369058191
 10
165.91101442
 20
103.7726214735
 10
165.5157537191
 20
103.4791998586
 10
165.2363298634
 20
103.0853631263
 10
165.1000948067
 20
102.62966276
  0
LWPOLYLINE
  5
C7
330
1F
100
AcDbEntity
  8
0
  6
Continuous
 62
     7
370
    15
100
AcDbPolyline
 90
       24
 70
   128
 43
0.0
 10
164.7127515466
 20
102.749378097
 10
164.7235360113
 20
102.2376592534
 10
164.8808410396
 20
101.7476504753
 10
165.1730000373
 20
101.3156934719
 10
165.578344908
 20
100.9738245183
 10
166.066813077
 20
100.7473984707
 10
166.6021770948
 20
100.6532083133
 10
167.1447314614
 20
100.6982396991
 10
167.6542374013
 20
100.8791528563
 10
168.0929071899
 20
101.1825302836
 10
168.4282066956
 20
101.5858718651
 10
168.6352682882
 20
102.0592636008
 10
168.6987351564
 20
102.5675961914
 10
168.6139002531
 20
103.0731689341
 10
168.3870553948
 20
103.5384858113
 10
168.035024627
 20
103.929036399
 10
167.5839164614
 20
104.2158553468
 10
167.0671875268
 20
104.3776706054
 10
166.5231612444
 20
104.4024810772
 10
165.992185555
 20
104.2884466833
 10
165.5136404962
 20
104.0440248327
 10
165.123017566
 20
103.6873431761
 10
164.84928748
 20
103.2448551602
 10
164.7127515466
 20
102.749378097
  0
LINE
  5
C8
330
1F
100
AcDbEntity
  8
0
  6
Continuous
 62
     7
370
    15
100
AcDbLine
 10
167.1560202573
 20
101.4568632196
 30
0.0
 11
167.8459617807
 21
102.3269363988
 31
0.0
  0
LINE
  5
C9
330
1F
100
AcDbEntity
  8
0
  6
Continuous
 62
     7
370
    15
100
AcDbLine
 10
167.3890687631
 20
103.3234458004
 30
0.0
 11
167.8459617807
 21
102.3269363988
 31
0.0
  0
LINE
  5
CA
330
1F
100
AcDbEntity
  8
0
  6
Continuous
 62
     7
370
    15
100
AcDbLine
 10
166.242234222
 20
103.4498820229
 30
0.0
 11
167.3890687631
 21
103.3234458004
 31
0.0
  0
LINE
  5
CB
330
1F
100
AcDbEntity
  8
0
  6
Continuous
 62
     7
370
    15
100
AcDbLine
 10
166.242234222
 20
103.4498820229
 30
0.0
 11
165.5522926986
 21
102.5798088437
 31
0.0
  0
LINE
  5
CC
330
1F
100
AcDbEntity
  8
0
  6
Continuous
 62
     7
370
    15
100
AcDbLine
 10
166.0091857162
 20
101.583299442
 30
0.0
 11
165.5522926986
 21
102.5798088437
 31
0.0
  0
LINE
  5
CD
330
1F
100
AcDbEntity
  8
0
  6
Continuous
 62
     7
370
    15
100
AcDbLine
 10
166.0091857162
 20
101.583299442
 30
0.0
 11
167.1560202573
 21
101.4568632196
 31
0.0
  0
LINE
  5
CE
330
1F
100
AcDbEntity
  8
0
  6
Continuous
 62
     7
370
    15
100
AcDbLine
 10
166.0091857162
 20
102.4383498003
 30
0.0
 11
165.8006994029
 21
102.8930701907
 31
0.0
  0
LINE
  5
CF
330
1F
100
AcDbEntity
  8
0
  6
Continuous
 62
     7
370
    15
100
AcDbLine
 10
166.0091857162
 20
102.4383498003
 30
0.0
 11
166.0091857162
 21
101.583299442
 31
0.0
  0
LINE
  5
D0
330
1F
100
AcDbEntity
  8
0
  6
Continuous
 62
     7
370
    15
100
AcDbLine
 10
167.1560202573
 20
102.3119135779
 30
0.0
 11
167.1560202573
 21
101.4568632196
 31
0.0
  0
LINE
  5
D1
330
1F
100
AcDbEntity
  8
0
  6
Continuous
 62
     7
370
    15
100
AcDbLine
 10
167.1560202573
 20
102.3119135779
 30
0.0
 11
167.5975550764
 21
102.8687254101
 31
0.0
  0
LINE
  5
D2
330
1F
100
AcDbEntity
  8
0
  6
Continuous
 62
     7
370
    15
100
AcDbLine
 10
166.0091857162
 20
102.4383498003
 30
0.0
 11
167.1560202573
 21
102.3119135779
 31
0.0
  0
CIRCLE
  5
D3
330
1F
100
AcDbEntity
  8
0
  6
HIDDEN
 62
     7
370
     0
100
AcDbCircle
 10
187.6491272396
 20
113.227007136
 30
0.0
 40
4.080384757729342
  0
CIRCLE
  5
D4
330
1F
100
AcDbEntity
  8
0
  6
HIDDEN
 62
     7
370
     0
100
AcDbCircle
 10
187.6491272396
 20
113.227007136
 30
0.0
 40
3.780384757729307
  0
SPLINE
  5
D5
330
1F
100
AcDbEntity
  8
0
  6
HIDDEN
 62
     7
370
     0
100
AcDbSpline
210
0.0
220
0.0
230
1.0
 70
     8
 71
     3
 72
    17
 73
    13
 74
     0
 42
0.000000001
 43
0.00000001
 40
0.0
 40
0.0
 40
0.0
 40
0.0
 40
0.0004909084072914
 40
0.0005116394852628
 40
0.2498351754987124
 40
0.5021944977221199
 40
0.5865777378714678
 40
0.6700037584582643
 40
0.7527614183001697
 40
0.8351466077371154
 40
0.9174592349487535
 40
1.0
 40
1.0
 40
1.0
 40
1.0
 10
181.6991232826205
 20
81.72700733541791
 30
0.0
 10
181.6991249539872
 20
81.7270072388742
 30
0.0
 10
181.6991266959357
 20
81.72700713825344
 30
0.0
 10
181.69974571807
 20
81.7270060270045
 30
0.0
 10
181.5956014221721
 20
81.75922264570534
 30
0.0
 10
181.2271166188172
 20
81.86758381363298
 30
0.0
 10
180.8605040642385
 20
81.97241449044344
 30
0.0
 10
180.6109725305867
 20
82.04210719542407
 30
0.0
 10
180.3331867375445
 20
82.11724890428326
 30
0.0
 10
180.0265269626492
 20
82.19691389788375
 30
0.0
 10
179.6933401295574
 20
82.28006307931729
 30
0.0
 10
179.4483426874852
 20
82.33737556154577
 30
0.0
 10
179.3256744425273
 20
82.3660714595506
 30
0.0
  0
LWPOLYLINE
  5
D6
330
1F
100
AcDbEntity
  8
0
  6
HIDDEN
 62
     7
370
     0
100
AcDbPolyline
 90
       22
 70
   128
 43
0.0
 10
166.6991272396
 20
101.0707254055
 10
167.1854732774
 20
101.1396094513
 10
167.6286053355
 20
101.340140939
 10
167.9891491857
 20
101.654501766
 10
168.2350689249
 20
102.0547595931
 10
168.344513505
 20
102.5053497559
 10
168.3077582947
 20
102.9662353411
 10
168.1280691559
 20
103.3964646419
 10
167.821412257
 20
103.7578098969
 10
167.4150354092
 20
104.0181639944
 10
166.9450469788
 20
104.1543933303
 10
166.4532075005
 20
104.1543933303
 10
165.9832190701
 20
104.0181639944
 10
165.5768422223
 20
103.7578098969
 10
165.2701853234
 20
103.3964646419
 10
165.0904961845
 20
102.9662353411
 10
165.0537409743
 20
102.5053497559
 10
165.1631855544
 20
102.0547595931
 10
165.4091052936
 20
101.654501766
 10
165.7696491438
 20
101.340140939
 10
166.2127812019
 20
101.1396094513
 10
166.6991272396
 20
101.0707254055
  0
ELLIPSE
  5
D7
330
1F
100
AcDbEntity
  8
0
  6
HIDDEN
 62
     7
370
     0
100
AcDbEllipse
 10
166.6991272396
 20
105.3747212189
 30
0.0
 11
1.374287195182945
 21
1.67219869064607
 31
0.0
210
0.0
220
0.0
230
1.0
 40
0.5460747611
 41
0.9843297204212124
 42
4.125922374011019
  0
ELLIPSE
  5
D8
330
1F
100
AcDbEntity
  8
0
  6
HIDDEN
 62
     7
370
     0
100
AcDbEllipse
 10
166.6991272396
 20
105.3747212189
 30
0.0
 11
1.374287195182945
 21
-1.129450289256113
 31
0.0
210
0.0
220
0.0
230
1.0
 40
0.8084866676
 41
2.157262933168584
 42
5.29885558675839
  0
SPLINE
  5
D9
330
1F
100
AcDbEntity
  8
0
  6
HIDDEN
 62
     7
370
     0
100
AcDbSpline
210
0.0
220
0.0
230
1.0
 70
    11
 71
     3
 72
    58
 73
    54
 74
     0
 42
0.000000001
 43
0.00000001
 40
0.0
 40
0.0
 40
0.0
 40
0.0
 40
0.0312499999999994
 40
0.0312499999999994
 40
0.0624999999999989
 40
0.0624999999999989
 40
0.0937499999999983
 40
0.0937499999999983
 40
0.1249999999999978
 40
0.1249999999999978
 40
0.1874999999999971
 40
0.1874999999999971
 40
0.2499999999999963
 40
0.2499999999999963
 40
0.2812499999999962
 40
0.2812499999999962
 40
0.3124999999999962
 40
0.3124999999999962
 40
0.3437499999999961
 40
0.3437499999999961
 40
0.3749999999999959
 40
0.3749999999999959
 40
0.4062499999999959
 40
0.4062499999999959
 40
0.4374999999999958
 40
0.4374999999999958
 40
0.4687499999999957
 40
0.4687499999999957
 40
0.4999999999999957
 40
0.4999999999999957
 40
0.562499999999996
 40
0.562499999999996
 40
0.6249999999999964
 40
0.6249999999999964
 40
0.6562499999999967
 40
0.6562499999999967
 40
0.687499999999997
 40
0.687499999999997
 40
0.7187499999999973
 40
0.7187499999999973
 40
0.7499999999999976
 40
0.7499999999999976
 40
0.7812499999999979
 40
0.7812499999999979
 40
0.8124999999999982
 40
0.8124999999999982
 40
0.8437499999999986
 40
0.8437499999999986
 40
0.8749999999999988
 40
0.8749999999999988
 40
0.9374999999999993
 40
0.9374999999999993
 40
1.0
 40
1.0
 40
1.0
 40
1.0
 10
166.6991272396497
 20
105.3743581196124
 30
0.0
 10
166.5900622548934
 20
105.3743581196124
 30
0.0
 10
166.4828307033417
 20
105.3840887257344
 30
0.0
 10
166.2718811574726
 20
105.4222426899218
 30
0.0
 10
166.1670661720352
 20
105.4511332190753
 30
0.0
 10
165.9672750713212
 20
105.5266327414666
 30
0.0
 10
165.8725252623508
 20
105.5728725509231
 30
0.0
 10
165.6932073981114
 20
105.6823408062034
 30
0.0
 10
165.6083472602189
 20
105.7461275559627
 30
0.0
 10
165.3801638579086
 20
105.9556598603575
 30
0.0
 10
165.2572479297962
 20
106.1252685930998
 30
0.0
 10
165.0926332889567
 20
106.493716590783
 30
0.0
 10
165.0492444761852
 20
106.6964519903139
 30
0.0
 10
165.0490689866884
 20
106.9999621210704
 30
0.0
 10
165.0597893751521
 20
107.1030631644713
 30
0.0
 10
165.1018992440824
 20
107.3032154287565
 30
0.0
 10
165.1330560268293
 20
107.4008132055279
 30
0.0
 10
165.21569943746
 20
107.5909236533503
 30
0.0
 10
165.2673385519118
 20
107.6830712788889
 30
0.0
 10
165.3867285879122
 20
107.8540745977052
 30
0.0
 10
165.4548919381875
 20
107.9340181807435
 30
0.0
 10
165.6088621396993
 20
108.0821621357954
 30
0.0
 10
165.6921908525981
 20
108.1479621444469
 30
0.0
 10
165.8708019425265
 20
108.2633138308263
 30
0.0
 10
165.967245405358
 20
108.3133039339587
 30
0.0
 10
166.1670854802646
 20
108.393508260907
 30
0.0
 10
166.2699312771494
 20
108.4237906762008
 30
0.0
 10
166.4814282692646
 20
108.464790259385
 30
0.0
 10
166.5908217246538
 20
108.4753055483076
 30
0.0
 10
166.9139330183236
 20
108.4754198885879
 30
0.0
 10
167.1311087622775
 20
108.4334662339305
 30
0.0
 10
167.5283532706994
 20
108.2744346572281
 30
0.0
 10
167.7124649799092
 20
108.1557672432389
 30
0.0
 10
167.9408581726433
 20
107.9366301127666
 30
0.0
 10
168.0105795176657
 20
107.8552927031459
 30
0.0
 10
168.1304965978202
 20
107.6838077246351
 30
0.0
 10
168.1812494320321
 20
107.5934398921743
 30
0.0
 10
168.2642228306144
 20
107.4035314041924
 30
0.0
 10
168.2960961508099
 20
107.3040472729859
 30
0.0
 10
168.3382294335479
 20
107.104578264475
 30
0.0
 10
168.3490210965558
 20
107.0035301017371
 30
0.0
 10
168.3492318397583
 20
106.7987376530771
 30
0.0
 10
168.3386096370695
 20
106.6980668336932
 30
0.0
 10
168.2968584787938
 20
106.5010739165897
 30
0.0
 10
168.265241151163
 20
106.4035794399393
 30
0.0
 10
168.1825376452516
 20
106.2179854503181
 30
0.0
 10
168.1319253736728
 20
106.1302839969662
 30
0.0
 10
168.0123955713594
 20
105.9647800091272
 30
0.0
 10
167.9428034443308
 20
105.886624596349
 30
0.0
 10
167.7147140120815
 20
105.6768857068784
 30
0.0
 10
167.5308603794126
 20
105.5645634758692
 30
0.0
 10
167.1339666462479
 20
105.4142086627412
 30
0.0
 10
166.9172572091624
 20
105.3743581196124
 30
0.0
 10
166.6991272396497
 20
105.3743581196124
 30
0.0
  0
LWPOLYLINE
  5
DA
330
1F
100
AcDbEntity
  8
0
  6
HIDDEN
 62
     7
370
     0
100
AcDbPolyline
 90
       24
 70
   128
 43
0.0
 10
159.947698218
 20
104.2392950435
 10
160.0699974068
 20
103.6810678551
 10
160.2574976336
 20
103.1642418236
 10
160.4962928643
 20
102.7271475714
 10
160.7686727491
 20
102.4022023796
 10
161.0544361178
 20
102.2135059465
 10
161.3323892089
 20
102.1750530233
 10
161.581917513
 20
102.2896954875
 10
161.7845146573
 20
102.548930832
 10
161.9251549385
 20
102.9335327571
 10
161.9934077103
 20
103.4149770975
 10
161.9842109769
 20
103.957557329
 10
161.8982468179
 20
104.5210327579
 10
161.7418908017
 20
105.0636129894
 10
161.5267391387
 20
105.5450573298
 10
161.2687486436
 20
105.929659255
 10
160.9870532911
 20
106.1888945994
 10
160.7025451369
 20
106.3035370636
 10
160.4363248492
 20
106.2650841405
 10
160.2081367689
 20
106.0763877074
 10
160.034904562
 20
105.7514425155
 10
159.9294760688
 20
105.3143482633
 10
159.8996704384
 20
104.7975222318
 10
159.947698218
 20
104.2392950435
  0
LWPOLYLINE
  5
DB
330
1F
100
AcDbEntity
  8
0
  6
HIDDEN
 62
     7
370
     0
100
AcDbPolyline
 90
       22
 70
   128
 43
0.0
 10
160.3041335123
 20
104.2673042026
 10
160.4121947491
 20
103.7881223918
 10
160.580568199
 20
103.3515179878
 10
160.7942931423
 20
102.9962852078
 10
161.0343791796
 20
102.7539880432
 10
161.2794936131
 20
102.6461556606
 10
161.5078569496
 20
102.6823694401
 10
161.6991781045
 20
102.8594116287
 10
161.8364573537
 20
103.1615512509
 10
161.9074968333
 20
103.5619418754
 10
161.9059843739
 20
104.0250070381
 10
161.8320543642
 20
104.5096013671
 10
161.6922758098
 20
104.9726665298
 10
161.4990686489
 20
105.3730571543
 10
161.2696001854
 20
105.6751967765
 10
161.0242596995
 20
105.8522389651
 10
160.7848467699
 20
105.8884527447
 10
160.572634286
 20
105.780620362
 10
160.4064782584
 20
105.5383231974
 10
160.3011423793
 20
105.1830904174
 10
160.2659862038
 20
104.7464860134
 10
160.3041335123
 20
104.2673042026
  0
SPLINE
  5
DC
330
1F
100
AcDbEntity
  8
0
  6
HIDDEN
 62
     7
370
     0
100
AcDbSpline
210
0.0
220
0.0
230
1.0
 70
     8
 71
     3
 72
    18
 73
    14
 74
     0
 42
0.000000001
 43
0.00000001
 40
0.0
 40
0.0
 40
0.0
 40
0.0
 40
0.2499999999999961
 40
0.2499999999999961
 40
0.4999999999999922
 40
0.4999999999999922
 40
0.6249999999999941
 40
0.6249999999999941
 40
0.7499999999999961
 40
0.7499999999999961
 40
0.874999999999998
 40
0.874999999999998
 40
1.0
 40
1.0
 40
1.0
 40
1.0
 10
203.6991272396497
 20
130.2247083801089
 30
0.0
 10
203.6991272396498
 20
130.1293887150911
 30
0.0
 10
203.6938691764867
 20
130.0323593289234
 30
0.0
 10
203.6663641866198
 20
129.8327751883986
 30
0.0
 10
203.6438806931463
 20
129.7277710186958
 30
0.0
 10
203.5855823410261
 20
129.5757622701115
 30
0.0
 10
203.5612555473186
 20
129.5247103699377
 30
0.0
 10
203.5024121881355
 20
129.4321594788593
 30
0.0
 10
203.4672894676827
 20
129.3903375022261
 30
0.0
 10
203.3923107956905
 20
129.3258652456219
 30
0.0
 10
203.3523239780363
 20
129.302707359867
 30
0.0
 10
203.2737161334888
 20
129.2727205140695
 30
0.0
 10
203.2358667904857
 20
129.2656825575836
 30
0.0
 10
203.1990876596353
 20
129.2634232506075
 30
0.0
  0
SPLINE
  5
DD
330
1F
100
AcDbEntity
  8
0
  6
HIDDEN
 62
     7
370
     0
100
AcDbSpline
210
0.0
220
0.0
230
1.0
 70
     8
 71
     3
 72
    10
 73
     6
 74
     0
 42
0.000000001
 43
0.00000001
 40
0.0
 40
0.0
 40
0.0
 40
0.0
 40
0.5
 40
0.5
 40
1.0
 40
1.0
 40
1.0
 40
1.0
 10
203.1990876596354
 20
129.2634232506077
 30
0.0
 10
203.1342662019025
 20
129.2025556462332
 30
0.0
 10
203.0594228056003
 20
129.1475838146129
 30
0.0
 10
202.890812149749
 20
129.0677588063547
 30
0.0
 10
202.7965215977133
 20
129.0434520323276
 30
0.0
 10
202.6991272396497
 20
129.0434520323276
 30
0.0
  0
SPLINE
  5
DE
330
1F
100
AcDbEntity
  8
0
  6
HIDDEN
 62
     7
370
     0
100
AcDbSpline
210
0.0
220
0.0
230
1.0
 70
     8
 71
     3
 72
    10
 73
     6
 74
     0
 42
0.000000001
 43
0.00000001
 40
0.0
 40
0.0
 40
0.0
 40
0.0
 40
0.5
 40
0.5
 40
1.0
 40
1.0
 40
1.0
 40
1.0
 10
203.1990774333449
 20
97.1906006237847
 30
0.0
 10
203.1342567471783
 20
97.25146589386662
 30
0.0
 10
203.0594144645207
 20
97.30643543611662
 30
0.0
 10
202.8908071907999
 20
97.38625678342552
 30
0.0
 10
202.7965190368951
 20
97.41056223966483
 30
0.0
 10
202.6991272396497
 20
97.41056223966483
 30
0.0
  0
SPLINE
  5
DF
330
1F
100
AcDbEntity
  8
0
  6
HIDDEN
 62
     7
370
     0
100
AcDbSpline
210
0.0
220
0.0
230
1.0
 70
     8
 71
     3
 72
    18
 73
    14
 74
     0
 42
0.000000001
 43
0.00000001
 40
0.0
 40
0.0
 40
0.0
 40
0.0
 40
0.125
 40
0.125
 40
0.25
 40
0.25
 40
0.375
 40
0.375
 40
0.5
 40
0.5
 40
0.75
 40
0.75
 40
1.0
 40
1.0
 40
1.0
 40
1.0
 10
203.1990774333449
 20
97.19060062378465
 30
0.0
 10
203.2355643134412
 20
97.18836658749798
 30
0.0
 10
203.2738200054694
 20
97.18122309704592
 30
0.0
 10
203.3513670424589
 20
97.15176121631269
 30
0.0
 10
203.3913144576664
 20
97.12878813523078
 30
0.0
 10
203.4656593679017
 20
97.0653631993707
 30
0.0
 10
203.500802612903
 20
97.02397320104748
 30
0.0
 10
203.5597855734736
 20
96.93206592580661
 30
0.0
 10
203.5842031959812
 20
96.88138940106893
 30
0.0
 10
203.6432795110404
 20
96.7287383847095
 30
0.0
 10
203.6657683796275
 20
96.6245191831494
 30
0.0
 10
203.6937726410977
 20
96.42337794238375
 30
0.0
 10
203.6991272396498
 20
96.3248836836771
 30
0.0
 10
203.6991272396498
 20
96.22930589188347
 30
0.0
  0
SPLINE
  5
E0
330
1F
100
AcDbEntity
  8
0
  6
HIDDEN
 62
     7
370
     0
100
AcDbSpline
210
0.0
220
0.0
230
1.0
 70
    11
 71
     3
 72
    58
 73
    54
 74
     0
 42
0.000000001
 43
0.00000001
 40
0.0
 40
0.0
 40
0.0
 40
0.0
 40
0.0312499999999998
 40
0.0312499999999998
 40
0.0624999999999996
 40
0.0624999999999996
 40
0.0937499999999994
 40
0.0937499999999994
 40
0.1249999999999992
 40
0.1249999999999992
 40
0.1874999999999988
 40
0.1874999999999988
 40
0.2499999999999984
 40
0.2499999999999984
 40
0.2812499999999983
 40
0.2812499999999983
 40
0.3124999999999982
 40
0.3124999999999982
 40
0.343749999999998
 40
0.343749999999998
 40
0.3749999999999979
 40
0.3749999999999979
 40
0.4062499999999977
 40
0.4062499999999977
 40
0.4374999999999976
 40
0.4374999999999976
 40
0.4687499999999974
 40
0.4687499999999974
 40
0.4999999999999973
 40
0.4999999999999973
 40
0.5624999999999974
 40
0.5624999999999974
 40
0.6249999999999978
 40
0.6249999999999978
 40
0.6562499999999979
 40
0.6562499999999979
 40
0.687499999999998
 40
0.687499999999998
 40
0.7187499999999982
 40
0.7187499999999982
 40
0.7499999999999983
 40
0.7499999999999983
 40
0.7812499999999984
 40
0.7812499999999984
 40
0.8124999999999986
 40
0.8124999999999986
 40
0.8437499999999988
 40
0.8437499999999988
 40
0.8749999999999989
 40
0.8749999999999989
 40
0.9374999999999993
 40
0.9374999999999993
 40
1.0
 40
1.0
 40
1.0
 40
1.0
 10
166.6991272396497
 20
117.9786705037865
 30
0.0
 10
166.8081922244061
 20
117.9786705037865
 30
0.0
 10
166.9154237759577
 20
117.9890630466373
 30
0.0
 10
167.1263733218268
 20
118.0297364501696
 30
0.0
 10
167.2311883072643
 20
118.0605141436831
 30
0.0
 10
167.4309794079782
 20
118.1406980484565
 30
0.0
 10
167.5257292169487
 20
118.1897124310893
 30
0.0
 10
167.7050470811881
 20
118.3052725567118
 30
0.0
 10
167.7899072190805
 20
118.3723984060326
 30
0.0
 10
168.0180906213909
 20
118.5917951166715
 30
0.0
 10
168.1410065495033
 20
118.7679873285628
 30
0.0
 10
168.3056211903427
 20
119.1457179358349
 30
0.0
 10
168.3490100031143
 20
119.3511901408811
 30
0.0
 10
168.349185492611
 20
119.6547109780745
 30
0.0
 10
168.3384651041474
 20
119.757151932969
 30
0.0
 10
168.296355235217
 20
119.9547841187264
 30
0.0
 10
168.2651984524702
 20
120.0505359753276
 30
0.0
 10
168.1825550418395
 20
120.2359844569332
 30
0.0
 10
168.1309159273877
 20
120.3253123410986
 30
0.0
 10
168.0115258913874
 20
120.4902511555125
 30
0.0
 10
167.943362541112
 20
120.5669240950088
 30
0.0
 10
167.7893923396002
 20
120.7084095684871
 30
0.0
 10
167.7060636267013
 20
120.7709329891379
 30
0.0
 10
167.527452536773
 20
120.880207766208
 30
0.0
 10
167.4310090739415
 20
120.9273699556856
 30
0.0
 10
167.2311689990349
 20
121.0028887136304
 30
0.0
 10
167.1283232021501
 20
121.0313143537167
 30
0.0
 10
166.9168262100348
 20
121.0697748050555
 30
0.0
 10
166.8074327546457
 20
121.0796203451801
 30
0.0
 10
166.4843214609759
 20
121.0797274675288
 30
0.0
 10
166.267145717022
 20
121.0405106448477
 30
0.0
 10
165.8699012086
 20
120.890773107218
 30
0.0
 10
165.6857894993903
 20
120.7786972550368
 30
0.0
 10
165.4573963066561
 20
120.5694231389081
 30
0.0
 10
165.3876749616338
 20
120.4914227051644
 30
0.0
 10
165.2677578814793
 20
120.3260259879009
 30
0.0
 10
165.2170050472673
 20
120.2384288082013
 30
0.0
 10
165.134031648685
 20
120.0531974236562
 30
0.0
 10
165.1021583284896
 20
119.9556006503369
 30
0.0
 10
165.0600250457515
 20
119.7586527390663
 30
0.0
 10
165.0492333827437
 20
119.658268929106
 30
0.0
 10
165.0490226395412
 20
119.4534893376718
 30
0.0
 10
165.0596448422299
 20
119.3521645018602
 30
0.0
 10
165.1013960005057
 20
119.1526724771311
 30
0.0
 10
165.1330133281365
 20
119.0533046376247
 30
0.0
 10
165.2157168340479
 20
118.8630452533287
 30
0.0
 10
165.2663291056267
 20
118.7725784183295
 30
0.0
 10
165.3858589079401
 20
118.6009986918775
 30
0.0
 10
165.4554510349687
 20
118.5195074467648
 30
0.0
 10
165.683540467218
 20
118.2999014356091
 30
0.0
 10
165.8673940998869
 20
118.1809804432115
 30
0.0
 10
166.2642878330516
 20
118.0213003437738
 30
0.0
 10
166.4809972701371
 20
117.9786705037865
 30
0.0
 10
166.6991272396497
 20
117.9786705037865
 30
0.0
  0
LINE
  5
E1
330
1F
100
AcDbEntity
  8
0
  6
HIDDEN
 62
     7
370
     0
100
AcDbLine
 10
161.6991272396
 20
113.227007136
 30
0.0
 11
161.6991272396
 21
95.727007136
 31
0.0
  0
LINE
  5
E2
330
1F
100
AcDbEntity
  8
0
  6
HIDDEN
 62
     7
370
     0
100
AcDbLine
 10
161.6991272396
 20
130.727007136
 30
0.0
 11
161.6991272396
 21
113.227007136
 31
0.0
  0
LINE
  5
E3
330
1F
100
AcDbEntity
  8
0
  6
HIDDEN
 62
     7
370
     0
100
AcDbLine
 10
171.5651526434
 20
113.227007136
 30
0.0
 11
171.5651526434
 21
95.227007136
 31
0.0
  0
LINE
  5
E4
330
1F
100
AcDbEntity
  8
0
  6
HIDDEN
 62
     7
370
     0
100
AcDbLine
 10
171.5651526434
 20
131.227007136
 30
0.0
 11
171.5651526434
 21
113.227007136
 31
0.0
  0
LINE
  5
E5
330
1F
100
AcDbEntity
  8
0
  6
HIDDEN
 62
     7
370
     0
100
AcDbLine
 10
187.0991272395
 20
129.0434520323
 30
0.0
 11
202.6991272396
 21
129.0434520323
 31
0.0
  0
LINE
  5
E6
330
1F
100
AcDbEntity
  8
0
  6
HIDDEN
 62
     7
370
     0
100
AcDbLine
 10
187.0991272395
 20
97.4105622397
 30
0.0
 11
202.6991272396
 21
97.4105622397
 31
0.0
  0
LINE
  5
E7
330
1F
100
AcDbEntity
  8
0
  6
HIDDEN
 62
     7
370
     0
100
AcDbLine
 10
203.1991272395
 20
136.127007136
 30
0.0
 11
203.1956973467
 21
136.9375798466
 31
0.0
  0
SPLINE
  5
E8
330
1F
100
AcDbEntity
  8
0
  6
HIDDEN
 62
     7
370
     0
100
AcDbSpline
210
0.0
220
0.0
230
1.0
 70
     8
 71
     3
 72
    14
 73
    10
 74
     0
 42
0.000000001
 43
0.00000001
 40
0.0
 40
0.0
 40
0.0
 40
0.0
 40
0.092233480878084
 40
0.2577617271075131
 40
0.4181801661709701
 40
0.5832388659981229
 40
0.7438426372816004
 40
0.9090745944573245
 40
1.0
 40
1.0
 40
1.0
 40
1.0
 10
203.1255901613479
 20
138.7089586063079
 30
0.0
 10
203.1234027834691
 20
138.7089918009098
 30
0.0
 10
203.117289793972
 20
138.7090845687187
 30
0.0
 10
203.1178195420413
 20
138.5465016035318
 30
0.0
 10
203.1324304683015
 20
138.2382675297973
 30
0.0
 10
203.1491205006833
 20
137.7940605243569
 30
0.0
 10
203.1828505467371
 20
137.2257887626018
 30
0.0
 10
203.2199825324293
 20
136.6563951210546
 30
0.0
 10
203.2085736552411
 20
136.2656911089059
 30
0.0
 10
203.2045239696334
 20
136.1270071359965
 30
0.0
  0
SPLINE
  5
E9
330
1F
100
AcDbEntity
  8
0
  6
HIDDEN
 62
     7
370
     0
100
AcDbSpline
210
0.0
220
0.0
230
1.0
 70
     8
 71
     3
 72
    14
 73
    10
 74
     0
 42
0.000000001
 43
0.00000001
 40
0.0
 40
0.0
 40
0.0
 40
0.0
 40
0.25
 40
0.25
 40
0.5
 40
0.5
 40
0.75
 40
0.75
 40
1.0
 40
1.0
 40
1.0
 40
1.0
 10
203.2045239696332
 20
136.1270071359962
 30
0.0
 10
203.1767060289136
 20
135.5552243417879
 30
0.0
 10
203.1938054722277
 20
134.9832493932991
 30
0.0
 10
203.2065015538767
 20
133.8393331488801
 30
0.0
 10
203.2053981058288
 20
133.2673346953447
 30
0.0
 10
203.2006506773434
 20
132.123362646701
 30
0.0
 10
203.1978978488337
 20
131.5513772116111
 30
0.0
 10
203.1977388686234
 20
130.407400841792
 30
0.0
 10
203.1988860276338
 20
129.8354120670576
 30
0.0
 10
203.1990876596353
 20
129.2634232506076
 30
0.0
  0
SPLINE
  5
EA
330
1F
100
AcDbEntity
  8
0
  6
HIDDEN
 62
     7
370
     0
100
AcDbSpline
210
0.0
220
0.0
230
1.0
 70
     8
 71
     3
 72
    14
 73
    10
 74
     0
 42
0.000000001
 43
0.00000001
 40
0.0
 40
0.0
 40
0.0
 40
0.0
 40
0.25
 40
0.25
 40
0.5
 40
0.5
 40
0.75
 40
0.75
 40
1.0
 40
1.0
 40
1.0
 40
1.0
 10
203.2045129956161
 20
90.32700713599617
 30
0.0
 10
203.1767543718784
 20
90.89871491318559
 30
0.0
 10
203.1937626188185
 20
91.4707087070594
 30
0.0
 10
203.2065588863344
 20
92.61463030657471
 30
0.0
 10
203.2053474218653
 20
93.18664261138268
 30
0.0
 10
203.2005616302677
 20
94.33062573217089
 30
0.0
 10
203.1979651862974
 20
94.90261697088428
 30
0.0
 10
203.1976875059172
 20
96.04660826230982
 30
0.0
 10
203.1988285289853
 20
96.61860448107076
 30
0.0
 10
203.1990774333449
 20
97.19060062378465
 30
0.0
  0
SPLINE
  5
EB
330
1F
100
AcDbEntity
  8
0
  6
HIDDEN
 62
     7
370
     0
100
AcDbSpline
210
0.0
220
0.0
230
1.0
 70
     8
 71
     3
 72
     9
 73
     5
 74
     0
 42
0.000000001
 43
0.00000001
 40
0.0
 40
0.0
 40
0.0
 40
0.0
 40
0.9349931520446633
 40
1.0
 40
1.0
 40
1.0
 40
1.0
 10
203.1991272395361
 20
90.32700713599615
 30
0.0
 10
203.1995238920088
 20
90.07616150713704
 30
0.0
 10
203.1999481223594
 20
89.80787544716905
 30
0.0
 10
203.1979278766598
 20
89.58914822284709
 30
0.0
 10
203.1977965468548
 20
89.57492945543189
 30
0.0
  0
SPLINE
  5
EC
330
1F
100
AcDbEntity
  8
0
  6
HIDDEN
 62
     7
370
     0
100
AcDbSpline
210
0.0
220
0.0
230
1.0
 70
     8
 71
     3
 72
    14
 73
    10
 74
     0
 42
0.000000001
 43
0.00000001
 40
0.0
 40
0.0
 40
0.0
 40
0.0
 40
0.1133565651201774
 40
0.2788681641817702
 40
0.4392491959455032
 40
0.6042651017111771
 40
0.7648716028542752
 40
0.9301055077567342
 40
1.0
 40
1.0
 40
1.0
 40
1.0
 10
203.1254697926192
 20
87.74241716398039
 30
0.0
 10
203.1229914972128
 20
87.74613868053785
 30
0.0
 10
203.1168946497161
 20
87.75529397286036
 30
0.0
 10
203.1187266923637
 20
87.93910842202696
 30
0.0
 10
203.1349914547024
 20
88.2662793436702
 30
0.0
 10
203.1514825758205
 20
88.72646657514176
 30
0.0
 10
203.1894810382549
 20
89.30901660585326
 30
0.0
 10
203.2201016034276
 20
89.86020853645283
 30
0.0
 10
203.2080850482904
 20
90.22004253684655
 30
0.0
 10
203.2045129956161
 20
90.32700713599615
 30
0.0
  0
LINE
  5
ED
330
1F
100
AcDbEntity
  8
0
  6
HIDDEN
 62
     7
370
     0
100
AcDbLine
 10
159.6991272396
 20
135.727007136
 30
0.0
 11
160.0363855399
 21
135.727007136
 31
0.0
  0
ELLIPSE
  5
EE
330
1F
100
AcDbEntity
  8
0
  6
HIDDEN
 62
     7
370
     0
100
AcDbEllipse
 10
160.0363855399
 20
137.327007136
 30
0.0
 11
0.0
 21
1.600000000000023
 31
0.0
210
0.0
220
0.0
230
1.0
 40
0.4142135624
 41
3.141592653589793
 42
4.712388980384695
  0
ELLIPSE
  5
EF
330
1F
100
AcDbEntity
  8
0
  6
HIDDEN
 62
     7
370
     0
100
AcDbEllipse
 10
160.0363855399
 20
89.127007136
 30
0.0
 11
0.0
 21
1.599999999999994
 31
0.0
210
0.0
220
0.0
230
1.0
 40
0.4142135624
 41
4.712388980384695
 42
6.283185307179586
  0
LINE
  5
F0
330
1F
100
AcDbEntity
  8
0
  6
HIDDEN
 62
     7
370
     0
100
AcDbLine
 10
160.0363855399
 20
90.727007136
 30
0.0
 11
159.6991272396
 21
90.727007136
 31
0.0
  0
LINE
  5
F1
330
1F
100
AcDbEntity
  8
0
  6
HIDDEN
 62
     7
370
     0
100
AcDbLine
 10
160.6991272396
 20
83.7729844132
 30
0.0
 11
160.0861600626
 21
83.1600172362
 31
0.0
  0
LINE
  5
F2
330
1F
100
AcDbEntity
  8
0
  6
HIDDEN
 62
     7
370
     0
100
AcDbLine
 10
160.0861600626
 20
143.2939970358
 30
0.0
 11
160.6991272396
 21
142.6810298588
 31
0.0
  0
LINE
  5
F3
330
1F
100
AcDbEntity
  8
0
  6
HIDDEN
 62
     7
370
     0
100
AcDbLine
 10
99.2991272396
 20
104.727007136
 30
0.0
 11
99.2991272396
 21
121.727007136
 31
0.0
  0
LINE
  5
F4
330
1F
100
AcDbEntity
  8
0
  6
HIDDEN
 62
     7
370
     0
100
AcDbLine
 10
187.0991272395
 20
90.327007136
 30
0.0
 11
187.0991272395
 21
97.4105622397
 31
0.0
  0
LINE
  5
F5
330
1F
100
AcDbEntity
  8
0
  6
HIDDEN
 62
     7
370
     0
100
AcDbLine
 10
187.0991272395
 20
136.127007136
 30
0.0
 11
187.0991272395
 21
129.0434520323
 31
0.0
  0
LINE
  5
F6
330
1F
100
AcDbEntity
  8
0
  6
HIDDEN
 62
     7
370
     0
100
AcDbLine
 10
102.295056454
 20
106.227007136
 30
0.0
 11
102.295056454
 21
120.227007136
 31
0.0
  0
LINE
  5
F7
330
1F
100
AcDbEntity
  8
0
  6
HIDDEN
 62
     7
370
     0
100
AcDbLine
 10
172.6491272396
 20
90.727007136
 30
0.0
 11
160.0363855399
 21
90.727007136
 31
0.0
  0
LINE
  5
F8
330
1F
100
AcDbEntity
  8
0
  6
HIDDEN
 62
     7
370
     0
100
AcDbLine
 10
169.8316887832
 20
83.7729844132
 30
0.0
 11
160.6991272396
 21
83.7729844132
 31
0.0
  0
LINE
  5
F9
330
1F
100
AcDbEntity
  8
0
  6
HIDDEN
 62
     7
370
     0
100
AcDbLine
 10
160.6991272396
 20
83.7729844132
 30
0.0
 11
160.6991272396
 21
89.127007136
 31
0.0
  0
LINE
  5
FA
330
1F
100
AcDbEntity
  8
0
  6
HIDDEN
 62
     7
370
     0
100
AcDbLine
 10
160.6991272396
 20
142.6810298588
 30
0.0
 11
169.8316887832
 21
142.6810298588
 31
0.0
  0
LINE
  5
FB
330
1F
100
AcDbEntity
  8
0
  6
HIDDEN
 62
     7
370
     0
100
AcDbLine
 10
160.6991272396
 20
142.6810298588
 30
0.0
 11
160.6991272396
 21
137.327007136
 31
0.0
  0
LINE
  5
FC
330
1F
100
AcDbEntity
  8
0
  6
HIDDEN
 62
     7
370
     0
100
AcDbLine
 10
160.0363855399
 20
135.727007136
 30
0.0
 11
172.6491272396
 21
135.727007136
 31
0.0
  0
LINE
  5
FD
330
1F
100
AcDbEntity
  8
0
  6
HIDDEN
 62
     7
370
     0
100
AcDbLine
 10
178.6753690058
 20
83.3219592426
 30
0.0
 11
178.7693117348
 21
83.2969755714
 31
0.0
  0
SPLINE
  5
FE
330
1F
100
AcDbEntity
  8
0
  6
HIDDEN
 62
     7
370
     0
100
AcDbSpline
210
0.0
220
0.0
230
1.0
 70
     8
 71
     3
 72
    13
 73
     9
 74
     0
 42
0.000000001
 43
0.00000001
 40
0.0
 40
0.0
 40
0.0
 40
0.0
 40
0.0000730266254193
 40
0.1576811713971638
 40
0.3241446478060744
 40
0.4996852929261552
 40
0.7294244053116679
 40
1.0
 40
1.0
 40
1.0
 40
1.0
 10
180.6991059325975
 20
82.72701543704804
 30
0.0
 10
180.6991130343053
 20
82.72701252691311
 30
0.0
 10
180.7144472442004
 20
82.72072888063848
 30
0.0
 10
180.6549861721189
 20
82.74444057368177
 30
0.0
 10
180.4942357700202
 20
82.7999155042436
 30
0.0
 10
180.1595511337694
 20
82.90786257221444
 30
0.0
 10
179.6016768752309
 20
83.07913478989639
 30
0.0
 10
179.0005104696929
 20
83.23686521788551
 30
0.0
 10
178.6753931877396
 20
83.3221675361068
 30
0.0
  0
LINE
  5
FF
330
1F
100
AcDbEntity
  8
0
  6
HIDDEN
 62
     7
370
     0
100
AcDbLine
 10
172.6491272396
 20
135.727007136
 30
0.0
 11
179.0991272396
 21
135.727007136
 31
0.0
  0
LINE
  5
100
330
1F
100
AcDbEntity
  8
0
  6
HIDDEN
 62
     7
370
     0
100
AcDbLine
 10
179.0991272396
 20
90.727007136
 30
0.0
 11
172.6491272396
 21
90.727007136
 31
0.0
  0
SPLINE
  5
101
330
1F
100
AcDbEntity
  8
0
  6
HIDDEN
 62
     7
370
     0
100
AcDbSpline
210
0.0
220
0.0
230
1.0
 70
     8
 71
     3
 72
    13
 73
     9
 74
     0
 42
0.000000001
 43
0.00000001
 40
0.0
 40
0.0
 40
0.0
 40
0.0
 40
0.1850454653139221
 40
0.3520092965853956
 40
0.5010298177386135
 40
0.6766227814613176
 40
0.8430962614839642
 40
1.0
 40
1.0
 40
1.0
 40
1.0
 10
178.6753908702622
 20
143.1318679117073
 30
0.0
 10
178.9021809858816
 20
143.190704583247
 30
0.0
 10
179.3336005234331
 20
143.3026287275485
 30
0.0
 10
179.821055994385
 20
143.4428947991767
 30
0.0
 10
180.2101651709323
 20
143.5621895584329
 30
0.0
 10
180.4910650913585
 20
143.6528573680586
 30
0.0
 10
180.6679498664214
 20
143.7147731284084
 30
0.0
 10
180.688812246244
 20
143.7229623845645
 30
0.0
 10
180.6989347446788
 20
143.726935839814
 30
0.0
  0
LINE
  5
102
330
1F
100
AcDbEntity
  8
0
  6
HIDDEN
 62
     7
370
     0
100
AcDbLine
 10
179.4256214137
 20
143.3315809911
 30
0.0
 11
178.6753688522
 21
143.1320553379
 31
0.0
  0
SPLINE
  5
103
330
1F
100
AcDbEntity
  8
0
  6
HIDDEN
 62
     7
370
     0
100
AcDbSpline
210
0.0
220
0.0
230
1.0
 70
     8
 71
     3
 72
     9
 73
     5
 74
     0
 42
0.000000001
 43
0.00000001
 40
0.0
 40
0.0
 40
0.0
 40
0.0
 40
0.4932365032310905
 40
1.0
 40
1.0
 40
1.0
 40
1.0
 10
178.6761867783472
 20
143.1318386471685
 30
0.0
 10
178.7820347337797
 20
143.2888600353373
 30
0.0
 10
178.9966335210534
 20
143.6072091176539
 30
0.0
 10
179.2144934029405
 20
143.9270352253389
 30
0.0
 10
179.3248968384912
 20
144.0891114220273
 30
0.0
  0
SPLINE
  5
104
330
1F
100
AcDbEntity
  8
0
  6
HIDDEN
 62
     7
370
     0
100
AcDbSpline
210
0.0
220
0.0
230
1.0
 70
     8
 71
     3
 72
     9
 73
     5
 74
     0
 42
0.000000001
 43
0.00000001
 40
0.0
 40
0.0
 40
0.0
 40
0.0
 40
0.5067661695090763
 40
1.0
 40
1.0
 40
1.0
 40
1.0
 10
179.3249005237772
 20
82.36491698551903
 30
0.0
 10
179.2144956933043
 20
82.52699440010193
 30
0.0
 10
178.9966342078388
 20
82.84682122425622
 30
0.0
 10
178.7820344899634
 20
83.16516974049678
 30
0.0
 10
178.6761866490934
 20
83.32218999859323
 30
0.0
  0
LINE
  5
105
330
1F
100
AcDbEntity
  8
0
  6
HIDDEN
 62
     7
370
     0
100
AcDbLine
 10
187.0991272395
 20
138.727007136
 30
0.0
 11
187.0991272395
 21
136.127007136
 31
0.0
  0
LINE
  5
106
330
1F
100
AcDbEntity
  8
0
  6
HIDDEN
 62
     7
370
     0
100
AcDbLine
 10
187.0991272395
 20
87.727007136
 30
0.0
 11
187.0991272395
 21
90.327007136
 31
0.0
  0
ELLIPSE
  5
107
330
1F
100
AcDbEntity
  8
0
  6
HIDDEN
 62
     7
370
     0
100
AcDbEllipse
 10
166.6991272396
 20
121.0792930531
 30
0.0
 11
1.374287195182973
 21
1.129450289256098
 31
0.0
210
0.0
220
0.0
230
1.0
 40
0.8084866676
 41
0.9843297204212167
 42
4.125922374011022
  0
ELLIPSE
  5
108
330
1F
100
AcDbEntity
  8
0
  6
HIDDEN
 62
     7
370
     0
100
AcDbEllipse
 10
166.6991272396
 20
121.0792930531
 30
0.0
 11
-1.374287195183001
 21
1.672198690646084
 31
0.0
210
0.0
220
0.0
230
1.0
 40
0.5460747611
 41
5.298855586758328
 42
8.440448240348108
  0
LWPOLYLINE
  5
109
330
1F
100
AcDbEntity
  8
0
  6
HIDDEN
 62
     7
370
     0
100
AcDbPolyline
 90
       22
 70
   128
 43
0.0
 10
166.6991272396
 20
122.2823032179
 10
167.1854732774
 20
122.3511872637
 10
167.6286053355
 20
122.5517187515
 10
167.9891491857
 20
122.8660795784
 10
168.2350689249
 20
123.2663374055
 10
168.344513505
 20
123.7169275683
 10
168.3077582947
 20
124.1778131536
 10
168.1280691559
 20
124.6080424544
 10
167.821412257
 20
124.9693877093
 10
167.4150354092
 20
125.2297418068
 10
166.9450469788
 20
125.3659711427
 10
166.4532075005
 20
125.3659711427
 10
165.9832190701
 20
125.2297418068
 10
165.5768422223
 20
124.9693877093
 10
165.2701853234
 20
124.6080424544
 10
165.0904961845
 20
124.1778131536
 10
165.0537409743
 20
123.7169275683
 10
165.1631855544
 20
123.2663374055
 10
165.4091052936
 20
122.8660795784
 10
165.7696491438
 20
122.5517187515
 10
166.2127812019
 20
122.3511872637
 10
166.6991272396
 20
122.2823032179
  0
LWPOLYLINE
  5
10A
330
1F
100
AcDbEntity
  8
0
  6
HIDDEN
 62
     7
370
     0
100
AcDbPolyline
 90
       22
 70
   128
 43
0.0
 10
160.3041335123
 20
121.2544713639
 10
160.4121947491
 20
120.9033196994
 10
160.580568199
 20
120.6662029013
 10
160.7942931423
 20
120.5641898377
 10
161.0343791796
 20
120.606344817
 10
161.2794936131
 20
120.7889221843
 10
161.5078569496
 20
121.0956991393
 10
161.6991781045
 20
121.4994172032
 10
161.8364573537
 20
121.9642042545
 10
161.9074968333
 20
122.4487619238
 10
161.9059843739
 20
122.9100351359
 10
161.8320543642
 20
123.3070377416
 10
161.6922758098
 20
123.6044943171
 10
161.4990686489
 20
123.7759745404
 10
161.2696001854
 20
123.806241641
 10
161.0242596995
 20
123.6926062543
 10
160.7848467699
 20
123.4451653831
 10
160.572634286
 20
123.0859052346
 10
160.4064782584
 20
122.6467476496
 10
160.3011423793
 20
122.1667137068
 10
160.2659862038
 20
121.6884565285
 10
160.3041335123
 20
121.2544713639
  0
LWPOLYLINE
  5
10B
330
1F
100
AcDbEntity
  8
0
  6
HIDDEN
 62
     7
370
     0
100
AcDbPolyline
 90
       24
 70
   128
 43
0.0
 10
159.947698218
 20
121.0282336034
 10
160.0699974068
 20
120.6149055805
 10
160.2574976336
 20
120.3202284173
 10
160.4962928643
 20
120.1660569708
 10
160.7686727491
 20
120.163825432
 10
161.0544361178
 20
120.3136993038
 10
161.3323892089
 20
120.6045631269
 10
161.581917513
 20
121.014844862
 10
161.7845146573
 20
121.5141157899
 10
161.9251549385
 20
122.0653472697
 10
161.9934077103
 20
122.6276569844
 10
161.9842109769
 20
123.1593409948
 10
161.8982468179
 20
123.6209667302
 10
161.7418908017
 20
123.9782975215
 10
161.5267391387
 20
124.2048317787
 10
161.2687486436
 20
124.2837684921
 10
160.9870532911
 20
124.209253287
 10
160.7025451369
 20
123.9868126151
 10
160.4363248492
 20
123.6329438835
 10
160.2081367689
 20
123.1738919173
 10
160.034904562
 20
122.6437025006
 10
159.9294760688
 20
122.0816973571
 10
159.8996704384
 20
121.5295578372
 10
159.947698218
 20
121.0282336034
  0
SPLINE
  5
10C
330
1F
100
AcDbEntity
  8
0
  6
HIDDEN
 62
     7
370
     0
100
AcDbSpline
210
0.0
220
0.0
230
1.0
 70
    11
 71
     3
 72
    58
 73
    54
 74
     0
 42
0.000000001
 43
0.00000001
 40
0.0
 40
0.0
 40
0.0
 40
0.0
 40
0.0312500000000002
 40
0.0312500000000002
 40
0.0625000000000004
 40
0.0625000000000004
 40
0.1250000000000006
 40
0.1250000000000006
 40
0.1562500000000006
 40
0.1562500000000006
 40
0.1875000000000006
 40
0.1875000000000006
 40
0.2500000000000007
 40
0.2500000000000007
 40
0.2812500000000007
 40
0.2812500000000007
 40
0.3125000000000007
 40
0.3125000000000007
 40
0.3437500000000007
 40
0.3437500000000007
 40
0.3750000000000007
 40
0.3750000000000007
 40
0.4375000000000007
 40
0.4375000000000007
 40
0.5000000000000007
 40
0.5000000000000007
 40
0.5312500000000008
 40
0.5312500000000008
 40
0.5625000000000008
 40
0.5625000000000008
 40
0.5937500000000009
 40
0.5937500000000009
 40
0.6250000000000009
 40
0.6250000000000009
 40
0.6875000000000009
 40
0.6875000000000009
 40
0.7187500000000007
 40
0.7187500000000007
 40
0.7500000000000006
 40
0.7500000000000006
 40
0.8125000000000003
 40
0.8125000000000003
 40
0.8437500000000003
 40
0.8437500000000003
 40
0.8750000000000002
 40
0.8750000000000002
 40
0.9062500000000002
 40
0.9062500000000002
 40
0.9375000000000002
 40
0.9375000000000002
 40
0.9687500000000001
 40
0.9687500000000001
 40
1.0
 40
1.0
 40
1.0
 40
1.0
 10
164.8678623762518
 20
125.4875184942338
 30
0.0
 10
164.7553190217007
 20
125.3825372406928
 30
0.0
 10
164.6554909155149
 20
125.2685867282052
 30
0.0
 10
164.4816294616678
 20
125.0222392612368
 30
0.0
 10
164.4077596319816
 20
124.8892077801656
 30
0.0
 10
164.2361172058506
 20
124.4782802253724
 30
0.0
 10
164.1844227863801
 20
124.1767541349173
 30
0.0
 10
164.2121108950613
 20
123.7314438518807
 30
0.0
 10
164.2388722897065
 20
123.581250910674
 30
0.0
 10
164.3248354767732
 20
123.2921099395092
 30
0.0
 10
164.3835477406144
 20
123.1528573319534
 30
0.0
 10
164.6059682581797
 20
122.7509630117158
 30
0.0
 10
164.8122170934158
 20
122.5130647494421
 30
0.0
 10
165.1818281316575
 20
122.2231966656179
 30
0.0
 10
165.3132500528532
 20
122.138845637111
 30
0.0
 10
165.5917989566126
 20
121.9937626347484
 30
0.0
 10
165.74008248931
 20
121.9329088486514
 30
0.0
 10
166.0414218157385
 20
121.8394079438402
 30
0.0
 10
166.1955628869778
 20
121.8059955798321
 30
0.0
 10
166.5107911068303
 20
121.7659352995864
 30
0.0
 10
166.6712176648585
 20
121.7596927515971
 30
0.0
 10
167.1443851298155
 20
121.7820763592688
 30
0.0
 10
167.4607273969971
 20
121.8529647259495
 30
0.0
 10
168.0387416405487
 20
122.0956943936866
 30
0.0
 10
168.3080369669628
 20
122.2710087673538
 30
0.0
 10
168.640496812532
 20
122.5925380041417
 30
0.0
 10
168.7415098840715
 20
122.7111788443958
 30
0.0
 10
168.9159684207458
 20
122.9650767504162
 30
0.0
 10
168.9884303344757
 20
123.0983314984746
 30
0.0
 10
169.1035532270935
 20
123.3773963680331
 30
0.0
 10
169.146286412433
 20
123.5250065319039
 30
0.0
 10
169.196420146856
 20
123.820084062496
 30
0.0
 10
169.204632516225
 20
123.9685225325021
 30
0.0
 10
169.1774722828173
 20
124.4165681409394
 30
0.0
 10
169.0892946896097
 20
124.7078175818696
 30
0.0
 10
168.8674434159317
 20
125.0999157908813
 30
0.0
 10
168.7798146292691
 20
125.2217951191942
 30
0.0
 10
168.5782263893864
 20
125.4488021626837
 30
0.0
 10
168.4641773917869
 20
125.5534177357834
 30
0.0
 10
168.0973321518602
 20
125.830238384208
 30
0.0
 10
167.8114778635375
 20
125.9714982954998
 30
0.0
 10
167.3601712482654
 20
126.1050770835265
 30
0.0
 10
167.2033314943524
 20
126.1374221512116
 30
0.0
 10
166.8882460039552
 20
126.1754426736915
 30
0.0
 10
166.7304271133469
 20
126.1813899416139
 30
0.0
 10
166.4142449541648
 20
126.167554597088
 30
0.0
 10
166.2545017652997
 20
126.1473191843149
 30
0.0
 10
165.9459881976718
 20
126.0816946320225
 30
0.0
 10
165.7961736667632
 20
126.0364905499354
 30
0.0
 10
165.5056009096436
 20
125.9206622137867
 30
0.0
 10
165.3643373504559
 20
125.8494072031238
 30
0.0
 10
165.1024951341564
 20
125.6855518241533
 30
0.0
 10
164.9804057308029
 20
125.5924997477749
 30
0.0
 10
164.8678623762518
 20
125.4875184942338
 30
0.0
  0
LWPOLYLINE
  5
10D
330
1F
100
AcDbEntity
  8
0
  6
HIDDEN
 62
     7
370
     0
100
AcDbPolyline
 90
       24
 70
   128
 43
0.0
 10
164.7127515466
 20
104.1259521916
 10
164.7235360113
 20
103.614233348
 10
164.8808410396
 20
103.1242245699
 10
165.1730000373
 20
102.6922675666
 10
165.578344908
 20
102.3503986129
 10
166.066813077
 20
102.1239725653
 10
166.6021770948
 20
102.0297824079
 10
167.1447314614
 20
102.0748137937
 10
167.6542374013
 20
102.2557269509
 10
168.0929071899
 20
102.5591043782
 10
168.4282066956
 20
102.9624459597
 10
168.6352682882
 20
103.4358376954
 10
168.6987351564
 20
103.944170286
 10
168.6139002531
 20
104.4497430287
 10
168.3870553948
 20
104.9150599059
 10
168.035024627
 20
105.3056104937
 10
167.5839164614
 20
105.5924294414
 10
167.0671875268
 20
105.7542447
 10
166.5231612444
 20
105.7790551719
 10
165.992185555
 20
105.6650207779
 10
165.5136404962
 20
105.4205989273
 10
165.123017566
 20
105.0639172707
 10
164.84928748
 20
104.6214292549
 10
164.7127515466
 20
104.1259521916
  0
LINE
  5
10E
330
1F
100
AcDbEntity
  8
0
  6
HIDDEN
 62
     7
370
     0
100
AcDbLine
 10
166.242234222
 20
104.3049323812
 30
0.0
 11
166.242234222
 21
103.4498820229
 31
0.0
  0
LINE
  5
10F
330
1F
100
AcDbEntity
  8
0
  6
HIDDEN
 62
     7
370
     0
100
AcDbLine
 10
167.3890687631
 20
104.1784961588
 30
0.0
 11
167.3890687631
 21
103.3234458004
 31
0.0
  0
LINE
  5
110
330
1F
100
AcDbEntity
  8
0
  6
HIDDEN
 62
     7
370
     0
100
AcDbLine
 10
165.8006994029
 20
102.8930701907
 30
0.0
 11
165.5522926986
 21
103.434859202
 31
0.0
  0
LINE
  5
111
330
1F
100
AcDbEntity
  8
0
  6
HIDDEN
 62
     7
370
     0
100
AcDbLine
 10
165.5522926986
 20
103.434859202
 30
0.0
 11
165.5522926986
 21
102.5798088437
 31
0.0
  0
LINE
  5
112
330
1F
100
AcDbEntity
  8
0
  6
HIDDEN
 62
     7
370
     0
100
AcDbLine
 10
167.5975550764
 20
102.8687254101
 30
0.0
 11
167.8459617807
 21
103.1819867571
 31
0.0
  0
LINE
  5
113
330
1F
100
AcDbEntity
  8
0
  6
HIDDEN
 62
     7
370
     0
100
AcDbLine
 10
167.8459617807
 20
103.1819867571
 30
0.0
 11
167.8459617807
 21
102.3269363988
 31
0.0
  0
LINE
  5
114
330
1F
100
AcDbEntity
  8
0
  6
HIDDEN
 62
     7
370
     0
100
AcDbLine
 10
167.3890687631
 20
104.1784961588
 30
0.0
 11
167.8459617807
 21
103.1819867571
 31
0.0
  0
LINE
  5
115
330
1F
100
AcDbEntity
  8
0
  6
HIDDEN
 62
     7
370
     0
100
AcDbLine
 10
166.242234222
 20
104.3049323812
 30
0.0
 11
167.3890687631
 21
104.1784961588
 31
0.0
  0
LINE
  5
116
330
1F
100
AcDbEntity
  8
0
  6
HIDDEN
 62
     7
370
     0
100
AcDbLine
 10
166.242234222
 20
104.3049323812
 30
0.0
 11
165.5522926986
 21
103.434859202
 31
0.0
  0
LWPOLYLINE
  5
117
330
1F
100
AcDbEntity
  8
0
  6
HIDDEN
 62
     7
370
     0
100
AcDbPolyline
 90
       19
 70
   128
 43
0.0
 10
165.4576424315
 20
104.3003445636
 10
165.4826960745
 20
103.8930846926
 10
165.6544692686
 20
103.5184376826
 10
165.9522436316
 20
103.2215914924
 10
166.3401031805
 20
103.0383501535
 10
166.7712663296
 20
102.9908152756
 10
167.1937284398
 20
103.0847202667
 10
167.5565343457
 20
103.3087387988
 10
167.8159243006
 20
103.6358509309
 10
167.9406120478
 20
104.0266021121
 10
167.9155584048
 20
104.4338619832
 10
167.7437852107
 20
104.8085089931
 10
167.4460108477
 20
105.1053551833
 10
167.0581512988
 20
105.2885965222
 10
166.6269881497
 20
105.3361314001
 10
166.2045260395
 20
105.2422264091
 10
165.8417201336
 20
105.0182078769
 10
165.5823301787
 20
104.6910957449
 10
165.4576424315
 20
104.3003445636
  0
LWPOLYLINE
  5
118
330
1F
100
AcDbEntity
  8
0
  6
HIDDEN
 62
     7
370
     0
100
AcDbPolyline
 90
       24
 70
   128
 43
0.0
 10
165.3122983988
 20
121.1928856908
 10
164.9749275862
 20
121.594699218
 10
164.7654327742
 20
122.0671446941
 10
164.6993512346
 20
122.5751829993
 10
164.781583933
 20
123.0811352568
 10
165.0060320462
 20
123.5474773022
 10
165.3560492846
 20
123.9396226793
 10
165.8056764707
 20
124.2284877594
 10
166.321566813
 20
124.3926487411
 10
166.865459085
 20
124.4199305552
 10
167.397015285
 20
124.3083098346
 10
167.8768123212
 20
124.0660649773
 10
168.2692658425
 20
123.7111621762
 10
168.5452693665
 20
123.2699229486
 10
168.6843529746
 20
122.7750719894
 10
168.6762014716
 20
122.2633101304
 10
168.5214194174
 20
121.7725924076
 10
168.2314862888
 20
121.3393131097
 10
167.8279050996
 20
120.9956065799
 10
167.3406076203
 20
120.7669639593
 10
166.8057344758
 20
120.6703426251
 10
166.2629547603
 20
120.7129085395
 10
165.7525239622
 20
120.8915047836
 10
165.3122983988
 20
121.1928856908
  0
LWPOLYLINE
  5
119
330
1F
100
AcDbEntity
  8
0
  6
HIDDEN
 62
     7
370
     0
100
AcDbPolyline
 90
       19
 70
   128
 43
0.0
 10
165.8323592141
 20
121.4441844648
 10
165.5765831597
 20
121.773799879
 10
165.4562024883
 20
122.1657418908
 10
165.4857368856
 20
122.5727365089
 10
165.6616240673
 20
122.9456941761
 10
165.9626494435
 20
123.2396306931
 10
166.3525049112
 20
123.4190929782
 10
166.7841681472
 20
123.4624352311
 10
167.2055741948
 20
123.3644297365
 10
167.5658952652
 20
123.1368974034
 10
167.8216713196
 20
122.8072819892
 10
167.942051991
 20
122.4153399775
 10
167.9125175937
 20
122.0083453593
 10
167.736630412
 20
121.6353876922
 10
167.4356050358
 20
121.3414511751
 10
167.0457495681
 20
121.16198889
 10
166.6140863321
 20
121.1186466371
 10
166.1926802845
 20
121.2166521317
 10
165.8323592141
 20
121.4441844648
  0
LWPOLYLINE
  5
11A
330
1F
100
AcDbEntity
  8
0
  6
HIDDEN
 62
     7
370
     0
100
AcDbPolyline
 90
       24
 70
   128
 43
0.0
 10
165.3122983988
 20
122.5694597854
 10
164.9749275862
 20
122.9712733126
 10
164.7654327742
 20
123.4437187887
 10
164.6993512346
 20
123.951757094
 10
164.781583933
 20
124.4577093515
 10
165.0060320462
 20
124.9240513968
 10
165.3560492846
 20
125.3161967739
 10
165.8056764707
 20
125.605061854
 10
166.321566813
 20
125.7692228357
 10
166.865459085
 20
125.7965046499
 10
167.397015285
 20
125.6848839292
 10
167.8768123212
 20
125.4426390719
 10
168.2692658425
 20
125.0877362708
 10
168.5452693665
 20
124.6464970432
 10
168.6843529746
 20
124.151646084
 10
168.6762014716
 20
123.639884225
 10
168.5214194174
 20
123.1491665023
 10
168.2314862888
 20
122.7158872043
 10
167.8279050996
 20
122.3721806745
 10
167.3406076203
 20
122.1435380539
 10
166.8057344758
 20
122.0469167197
 10
166.2629547603
 20
122.0894826342
 10
165.7525239622
 20
122.2680788782
 10
165.3122983988
 20
122.5694597854
  0
LINE
  5
11B
330
1F
100
AcDbEntity
  8
0
  6
HIDDEN
 62
     7
370
     0
100
AcDbLine
 10
166.3789312482
 20
124.1881030148
 30
0.0
 11
167.4998132443
 21
123.927421909
 31
0.0
  0
LINE
  5
11C
330
1F
100
AcDbEntity
  8
0
  6
HIDDEN
 62
     7
370
     0
100
AcDbLine
 10
165.5782452436
 20
123.4062723982
 30
0.0
 11
166.3789312482
 21
124.1881030148
 31
0.0
  0
LINE
  5
11D
330
1F
100
AcDbEntity
  8
0
  6
HIDDEN
 62
     7
370
     0
100
AcDbLine
 10
166.3789312482
 20
124.1881030148
 30
0.0
 11
166.3789312482
 21
125.0431533731
 31
0.0
  0
LINE
  5
11E
330
1F
100
AcDbEntity
  8
0
  6
HIDDEN
 62
     7
370
     0
100
AcDbLine
 10
167.8200092357
 20
122.8849101867
 30
0.0
 11
167.4998132443
 21
123.927421909
 31
0.0
  0
LINE
  5
11F
330
1F
100
AcDbEntity
  8
0
  6
HIDDEN
 62
     7
370
     0
100
AcDbLine
 10
167.4998132443
 20
123.927421909
 30
0.0
 11
167.4998132443
 21
124.7824722673
 31
0.0
  0
LINE
  5
120
330
1F
100
AcDbEntity
  8
0
  6
HIDDEN
 62
     7
370
     0
100
AcDbLine
 10
165.898441235
 20
122.3637606759
 30
0.0
 11
165.898441235
 21
123.2188110342
 31
0.0
  0
LINE
  5
121
330
1F
100
AcDbEntity
  8
0
  6
HIDDEN
 62
     7
370
     0
100
AcDbLine
 10
165.5782452436
 20
124.2613227565
 30
0.0
 11
165.898441235
 21
123.2188110342
 31
0.0
  0
LINE
  5
122
330
1F
100
AcDbEntity
  8
0
  6
HIDDEN
 62
     7
370
     0
100
AcDbLine
 10
165.5782452436
 20
123.4062723982
 30
0.0
 11
165.5782452436
 21
124.2613227565
 31
0.0
  0
LINE
  5
123
330
1F
100
AcDbEntity
  8
0
  6
HIDDEN
 62
     7
370
     0
100
AcDbLine
 10
165.5782452436
 20
123.4062723982
 30
0.0
 11
165.898441235
 21
122.3637606759
 31
0.0
  0
LINE
  5
124
330
1F
100
AcDbEntity
  8
0
  6
HIDDEN
 62
     7
370
     0
100
AcDbLine
 10
167.0193232311
 20
122.1030795701
 30
0.0
 11
167.0193232311
 21
122.9581299284
 31
0.0
  0
LINE
  5
125
330
1F
100
AcDbEntity
  8
0
  6
HIDDEN
 62
     7
370
     0
100
AcDbLine
 10
167.0193232311
 20
122.9581299284
 30
0.0
 11
167.8200092357
 21
123.739960545
 31
0.0
  0
LINE
  5
126
330
1F
100
AcDbEntity
  8
0
  6
HIDDEN
 62
     7
370
     0
100
AcDbLine
 10
167.8200092357
 20
122.8849101867
 30
0.0
 11
167.8200092357
 21
123.739960545
 31
0.0
  0
LINE
  5
127
330
1F
100
AcDbEntity
  8
0
  6
HIDDEN
 62
     7
370
     0
100
AcDbLine
 10
167.0193232311
 20
122.1030795701
 30
0.0
 11
167.8200092357
 21
122.8849101867
 31
0.0
  0
LINE
  5
128
330
1F
100
AcDbEntity
  8
0
  6
HIDDEN
 62
     7
370
     0
100
AcDbLine
 10
167.0193232311
 20
122.9581299284
 30
0.0
 11
165.898441235
 21
123.2188110342
 31
0.0
  0
LINE
  5
129
330
1F
100
AcDbEntity
  8
0
  6
HIDDEN
 62
     7
370
     0
100
AcDbLine
 10
167.0193232311
 20
122.1030795701
 30
0.0
 11
165.898441235
 21
122.3637606759
 31
0.0
  0
LWPOLYLINE
  5
12A
330
1F
100
AcDbEntity
  8
0
  6
HIDDEN
 62
     7
370
     0
100
AcDbPolyline
 90
       21
 70
   128
 43
0.0
 10
165.5827300227
 20
122.9105345183
 10
165.2788897331
 20
123.2880686873
 10
165.114072186
 20
123.7353544627
 10
165.1044108712
 20
124.2086083965
 10
165.2508515057
 20
124.6615050962
 10
165.5390594597
 20
125.0497118774
 10
165.9408229307
 20
125.3352283554
 10
166.4168145108
 20
125.4901061882
 10
166.9204408279
 20
125.4991848544
 10
167.4024034289
 20
125.3615756708
 10
167.8155244566
 20
125.0907487832
 10
168.1193647462
 20
124.7132146142
 10
168.2841822933
 20
124.2659288388
 10
168.2938436081
 20
123.792674905
 10
168.1474029736
 20
123.3397782053
 10
167.8591950196
 20
122.9515714242
 10
167.4574315486
 20
122.6660549461
 10
166.9814399685
 20
122.5111771133
 10
166.4778136514
 20
122.5020984471
 10
165.9958510504
 20
122.6397076307
 10
165.5827300227
 20
122.9105345183
  0
LINE
  5
12B
330
1F
100
AcDbEntity
  8
0
  6
HIDDEN
 62
     7
370
     0
100
AcDbLine
 10
167.8200092357
 20
123.739960545
 30
0.0
 11
167.4998132443
 21
124.7824722673
 31
0.0
  0
LINE
  5
12C
330
1F
100
AcDbEntity
  8
0
  6
HIDDEN
 62
     7
370
     0
100
AcDbLine
 10
165.5782452436
 20
124.2613227565
 30
0.0
 11
166.3789312482
 21
125.0431533731
 31
0.0
  0
LINE
  5
12D
330
1F
100
AcDbEntity
  8
0
  6
HIDDEN
 62
     7
370
     0
100
AcDbLine
 10
166.3789312482
 20
125.0431533731
 30
0.0
 11
167.4998132443
 21
124.7824722673
 31
0.0
  0
LWPOLYLINE
  5
12E
330
1F
100
AcDbEntity
  8
0
  6
HIDDEN
 62
     7
370
     0
100
AcDbPolyline
 90
       24
 70
   128
 43
0.0
 10
164.2877150624
 20
119.5192705252
 10
164.0468720621
 20
119.6155077715
 10
163.8492573548
 20
119.8506137436
 10
163.7095271192
 20
120.2071517069
 10
163.6380445078
 20
120.6586788718
 10
163.6401110587
 20
121.1717075342
 10
163.7155735053
 20
121.7081887049
 10
163.8588351433
 20
122.22833403
 10
164.0592709123
 20
122.69356671
 10
164.3020154082
 20
123.0693825654
 10
164.5690653823
 20
123.3279090535
 10
164.8406149596
 20
123.4499724474
 10
165.0965245503
 20
123.4265198634
 10
165.3178145108
 20
123.2592906725
 10
165.4880727769
 20
122.9606874988
 10
165.594672072
 20
122.5528563736
 10
165.6297064141
 20
122.0660442657
 10
165.5905774661
 20
121.5363558022
 10
165.4801872433
 20
121.0030755533
 10
165.3067228834
 20
120.5057544754
 10
165.0830494445
 20
120.0812765978
 10
164.8257557623
 20
119.7611235028
 10
164.5539241321
 20
119.5690394809
 10
164.2877150624
 20
119.5192705252
  0
LWPOLYLINE
  5
12F
330
1F
100
AcDbEntity
  8
0
  6
HIDDEN
 62
     7
370
     0
100
AcDbPolyline
 90
       18
 70
   128
 43
0.0
 10
165.065491669
 20
120.1292589335
 10
164.8775120025
 20
120.2218703701
 10
164.7379883812
 20
120.4517170978
 10
164.6637494129
 20
120.7910762093
 10
164.6637494129
 20
121.1990159872
 10
164.7379883812
 20
121.6263328738
 10
164.8775120025
 20
122.021486146
 10
165.065491669
 20
122.3368144874
 10
165.2792542586
 20
122.5342846462
 10
165.4930168482
 20
122.5900788069
 10
165.6809965146
 20
122.4974673704
 10
165.8205201359
 20
122.2676206426
 10
165.8947591042
 20
121.9282615311
 10
165.8947591042
 20
121.5203217532
 10
165.8205201359
 20
121.0930048666
 10
165.6809965146
 20
120.6978515944
 10
165.4930168482
 20
120.382523253
 10
165.3809240192
 20
120.2609274518
  0
LWPOLYLINE
  5
130
330
1F
100
AcDbEntity
  8
0
  6
HIDDEN
 62
     7
370
     0
100
AcDbPolyline
 90
       24
 70
   128
 43
0.0
 10
160.8021070963
 20
120.2075575725
 10
160.5612640961
 20
120.3037948189
 10
160.3636493887
 20
120.5389007909
 10
160.2239191531
 20
120.8954387542
 10
160.1524365417
 20
121.3469659192
 10
160.1545030926
 20
121.8599945815
 10
160.2299655393
 20
122.3964757522
 10
160.3732271772
 20
122.9166210773
 10
160.5736629462
 20
123.3818537573
 10
160.8164074421
 20
123.7576696127
 10
161.0834574162
 20
124.0161961009
 10
161.3550069936
 20
124.1382594947
 10
161.6109165843
 20
124.1148069107
 10
161.8322065447
 20
123.9475777199
 10
162.0024648108
 20
123.6489745461
 10
162.1090641059
 20
123.2411434209
 10
162.144098448
 20
122.754331313
 10
162.1049695
 20
122.2246428495
 10
161.9945792772
 20
121.6913626006
 10
161.8211149173
 20
121.1940415227
 10
161.5974414784
 20
120.7695636451
 10
161.3401477962
 20
120.4494105501
 10
161.068316166
 20
120.2573265282
 10
160.8021070963
 20
120.2075575725
  0
LINE
  5
131
330
1F
100
AcDbEntity
  8
0
  6
HIDDEN
 62
     7
370
     0
100
AcDbLine
 10
162.7430771496
 20
122.3985546611
 30
0.0
 11
163.3116561709
 21
122.9237980624
 31
0.0
  0
LINE
  5
132
330
1F
100
AcDbEntity
  8
0
  6
HIDDEN
 62
     7
370
     0
100
AcDbLine
 10
162.5456117278
 20
121.2619506481
 30
0.0
 11
162.7430771496
 21
122.3985546611
 31
0.0
  0
LINE
  5
133
330
1F
100
AcDbEntity
  8
0
  6
HIDDEN
 62
     7
370
     0
100
AcDbLine
 10
162.7430771496
 20
122.3985546611
 30
0.0
 11
160.5780136402
 21
122.8260798403
 31
0.0
  0
LINE
  5
134
330
1F
100
AcDbEntity
  8
0
  6
HIDDEN
 62
     7
370
     0
100
AcDbLine
 10
162.5456117278
 20
121.2619506481
 30
0.0
 11
160.3805482183
 21
121.6894758272
 31
0.0
  0
LINE
  5
135
330
1F
100
AcDbEntity
  8
0
  6
HIDDEN
 62
     7
370
     0
100
AcDbLine
 10
162.5456117278
 20
121.2619506481
 30
0.0
 11
162.9167253273
 21
120.6505900363
 31
0.0
  0
LWPOLYLINE
  5
136
330
1F
100
AcDbEntity
  8
0
  6
HIDDEN
 62
     7
370
     0
100
AcDbPolyline
 90
       21
 70
   128
 43
0.0
 10
160.6738010243
 20
120.62995123
 10
160.453519752
 20
120.7289377004
 10
160.2817519937
 20
120.9733628188
 10
160.1753115744
 20
121.3393005516
 10
160.1446176239
 20
121.7909303639
 10
160.1926746799
 20
122.2840435829
 10
160.314778583
 20
122.7703708512
 10
160.4989769524
 20
123.2023070672
 10
160.7272391682
 20
123.5375713046
 10
160.9772213345
 20
123.7433455639
 10
161.224453455
 20
123.799487227
 10
161.4447347273
 20
123.7005007566
 10
161.6165024856
 20
123.4560756383
 10
161.7229429049
 20
123.0901379055
 10
161.7536368554
 20
122.6385080932
 10
161.7055797994
 20
122.1453948741
 10
161.5834758963
 20
121.6590676058
 10
161.3992775269
 20
121.2271313899
 10
161.1710153111
 20
120.8918671525
 10
160.9210331448
 20
120.6860928931
 10
160.6738010243
 20
120.62995123
  0
LINE
  5
137
330
1F
100
AcDbEntity
  8
0
  6
HIDDEN
 62
     7
370
     0
100
AcDbLine
 10
160.3805482183
 20
121.6894758272
 30
0.0
 11
160.7516618178
 21
121.0781152154
 31
0.0
  0
LINE
  5
138
330
1F
100
AcDbEntity
  8
0
  6
HIDDEN
 62
     7
370
     0
100
AcDbLine
 10
160.3805482183
 20
121.6894758272
 30
0.0
 11
160.5780136402
 21
122.8260798403
 31
0.0
  0
LINE
  5
139
330
1F
100
AcDbEntity
  8
0
  6
HIDDEN
 62
     7
370
     0
100
AcDbLine
 10
160.5780136402
 20
122.8260798403
 30
0.0
 11
161.1465926615
 21
123.3513232416
 31
0.0
  0
LINE
  5
13A
330
1F
100
AcDbEntity
  8
0
  6
HIDDEN
 62
     7
370
     0
100
AcDbLine
 10
163.6827697704
 20
122.3124374507
 30
0.0
 11
161.517706261
 21
122.7399626298
 31
0.0
  0
LINE
  5
13B
330
1F
100
AcDbEntity
  8
0
  6
HIDDEN
 62
     7
370
     0
100
AcDbLine
 10
161.517706261
 20
122.7399626298
 30
0.0
 11
161.1465926615
 21
123.3513232416
 31
0.0
  0
LINE
  5
13C
330
1F
100
AcDbEntity
  8
0
  6
HIDDEN
 62
     7
370
     0
100
AcDbLine
 10
163.6827697704
 20
122.3124374507
 30
0.0
 11
163.3116561709
 21
122.9237980624
 31
0.0
  0
LINE
  5
13D
330
1F
100
AcDbEntity
  8
0
  6
HIDDEN
 62
     7
370
     0
100
AcDbLine
 10
163.3116561709
 20
122.9237980624
 30
0.0
 11
161.1465926615
 21
123.3513232416
 31
0.0
  0
LINE
  5
13E
330
1F
100
AcDbEntity
  8
0
  6
HIDDEN
 62
     7
370
     0
100
AcDbLine
 10
163.4853043486
 20
121.1758334376
 30
0.0
 11
161.3202408391
 21
121.6033586167
 31
0.0
  0
LINE
  5
13F
330
1F
100
AcDbEntity
  8
0
  6
HIDDEN
 62
     7
370
     0
100
AcDbLine
 10
161.3202408391
 20
121.6033586167
 30
0.0
 11
160.7516618178
 21
121.0781152154
 31
0.0
  0
LINE
  5
140
330
1F
100
AcDbEntity
  8
0
  6
HIDDEN
 62
     7
370
     0
100
AcDbLine
 10
162.9167253273
 20
120.6505900363
 30
0.0
 11
160.7516618178
 21
121.0781152154
 31
0.0
  0
LINE
  5
141
330
1F
100
AcDbEntity
  8
0
  6
HIDDEN
 62
     7
370
     0
100
AcDbLine
 10
163.4853043486
 20
121.1758334376
 30
0.0
 11
162.9167253273
 21
120.6505900363
 31
0.0
  0
LINE
  5
142
330
1F
100
AcDbEntity
  8
0
  6
HIDDEN
 62
     7
370
     0
100
AcDbLine
 10
161.3202408391
 20
121.6033586167
 30
0.0
 11
161.517706261
 21
122.7399626298
 31
0.0
  0
LINE
  5
143
330
1F
100
AcDbEntity
  8
0
  6
HIDDEN
 62
     7
370
     0
100
AcDbLine
 10
163.4853043486
 20
121.1758334376
 30
0.0
 11
163.6827697704
 21
122.3124374507
 31
0.0
  0
LWPOLYLINE
  5
144
330
1F
100
AcDbEntity
  8
0
  6
HIDDEN
 62
     7
370
     0
100
AcDbPolyline
 90
       21
 70
   128
 43
0.0
 10
160.1496110232
 20
104.889215603
 10
160.1597557127
 20
104.4102490535
 10
160.2471695872
 20
103.9145483344
 10
160.4032959675
 20
103.4506360858
 10
160.6128521157
 20
103.0639232709
 10
160.8553252161
 20
102.7922640343
 10
161.106980312
 20
102.6622502751
 10
161.3431836495
 20
102.6866086456
 10
161.5408139999
 20
102.862954779
 10
161.6805259278
 20
103.174026687
 10
161.7486434561
 20
103.5893744839
 10
161.7384987666
 20
104.0683410334
 10
161.6510848921
 20
104.5640417526
 10
161.4949585118
 20
105.0279540012
 10
161.2854023636
 20
105.4146668161
 10
161.0429292632
 20
105.6863260526
 10
160.7912741673
 20
105.8163398119
 10
160.5550708298
 20
105.7919814413
 10
160.3574404794
 20
105.6156353079
 10
160.2177285515
 20
105.3045633999
 10
160.1496110232
 20
104.889215603
  0
LWPOLYLINE
  5
145
330
1F
100
AcDbEntity
  8
0
  6
HIDDEN
 62
     7
370
     0
100
AcDbPolyline
 90
       24
 70
   128
 43
0.0
 10
160.1509393931
 20
105.0851555331
 10
160.1563316255
 20
104.5702423513
 10
160.2349841396
 20
104.0336401175
 10
160.3810636385
 20
103.5151461646
 10
160.5837360738
 20
103.0532148171
 10
160.8279701583
 20
102.68210541
 10
161.0956521672
 20
102.4293414301
 10
161.3669293505
 20
102.3136692257
 10
161.6216823205
 20
102.3436676748
 10
161.8410172148
 20
102.5171119299
 10
162.0086669676
 20
102.8211384238
 10
162.1121977639
 20
103.2331989025
 10
162.143931198
 20
103.7227327253
 10
162.1015137464
 20
104.2534334079
 10
161.9880913172
 20
104.7859413086
 10
161.8120759333
 20
105.2807627524
 10
161.5865218505
 20
105.7011990965
 10
161.3281573832
 20
106.0160685006
 10
161.056144242
 20
106.2020185414
 10
160.7906563973
 20
106.2452581552
 10
160.5513838679
 20
106.1425804575
 10
160.3560724028
 20
105.9016005834
 10
160.2192073598
 20
105.5401909079
 10
160.1509393931
 20
105.0851555331
  0
LWPOLYLINE
  5
146
330
1F
100
AcDbEntity
  8
0
  6
HIDDEN
 62
     7
370
     0
100
AcDbPolyline
 90
       24
 70
   128
 43
0.0
 10
163.6365473592
 20
105.7734425804
 10
163.6419395915
 20
105.2585293986
 10
163.7205921057
 20
104.7219271648
 10
163.8666716045
 20
104.2034332119
 10
164.0693440399
 20
103.7415018644
 10
164.3135781244
 20
103.3703924573
 10
164.5812601333
 20
103.1176284774
 10
164.8525373166
 20
103.001956273
 10
165.1072902866
 20
103.0319547221
 10
165.3266251808
 20
103.2053989772
 10
165.4942749337
 20
103.5094254712
 10
165.59780573
 20
103.9214859498
 10
165.6295391641
 20
104.4110197726
 10
165.5871217124
 20
104.9417204552
 10
165.4736992833
 20
105.4742283559
 10
165.2976838994
 20
105.9690497997
 10
165.0721298166
 20
106.3894861438
 10
164.8137653493
 20
106.7043555479
 10
164.5417522081
 20
106.8903055887
 10
164.2762643634
 20
106.9335452025
 10
164.036991834
 20
106.8308675048
 10
163.8416803689
 20
106.5898876307
 10
163.7048153259
 20
106.2284779552
 10
163.6365473592
 20
105.7734425804
  0
LINE
  5
147
330
1F
100
AcDbEntity
  8
0
  6
HIDDEN
 62
     7
370
     0
100
AcDbLine
 10
161.1775737485
 20
103.1074547831
 30
0.0
 11
161.5225445102
 21
103.7731685714
 31
0.0
  0
LINE
  5
148
330
1F
100
AcDbEntity
  8
0
  6
HIDDEN
 62
     7
370
     0
100
AcDbLine
 10
161.2940980014
 20
104.9050088317
 30
0.0
 11
161.5225445102
 21
103.7731685714
 31
0.0
  0
LINE
  5
149
330
1F
100
AcDbEntity
  8
0
  6
HIDDEN
 62
     7
370
     0
100
AcDbLine
 10
160.7206807308
 20
105.3711353038
 30
0.0
 11
161.2940980014
 21
104.9050088317
 31
0.0
  0
LINE
  5
14A
330
1F
100
AcDbEntity
  8
0
  6
HIDDEN
 62
     7
370
     0
100
AcDbLine
 10
160.7206807308
 20
105.3711353038
 30
0.0
 11
160.3757099691
 21
104.7054215155
 31
0.0
  0
LINE
  5
14B
330
1F
100
AcDbEntity
  8
0
  6
HIDDEN
 62
     7
370
     0
100
AcDbLine
 10
160.6041564779
 20
103.5735812552
 30
0.0
 11
160.3757099691
 21
104.7054215155
 31
0.0
  0
LINE
  5
14C
330
1F
100
AcDbEntity
  8
0
  6
HIDDEN
 62
     7
370
     0
100
AcDbLine
 10
160.6041564779
 20
103.5735812552
 30
0.0
 11
161.1775737485
 21
103.1074547831
 31
0.0
  0
LINE
  5
14D
330
1F
100
AcDbEntity
  8
0
  6
HIDDEN
 62
     7
370
     0
100
AcDbLine
 10
163.6876080197
 20
104.2006937506
 30
0.0
 11
161.5225445102
 21
103.7731685714
 31
0.0
  0
LINE
  5
14E
330
1F
100
AcDbEntity
  8
0
  6
HIDDEN
 62
     7
370
     0
100
AcDbLine
 10
163.4591615108
 20
105.3325340109
 30
0.0
 11
161.2940980014
 21
104.9050088317
 31
0.0
  0
LWPOLYLINE
  5
14F
330
1F
100
AcDbEntity
  8
0
  6
HIDDEN
 62
     7
370
     0
100
AcDbPolyline
 90
       19
 70
   128
 43
0.0
 10
164.6585118545
 20
105.5989421095
 10
164.671038676
 20
105.1842613962
 10
164.7569252731
 20
104.7587354869
 10
164.9058124545
 20
104.3736890864
 10
165.099742229
 20
104.0755644733
 10
165.3153238035
 20
103.9003198758
 10
165.5265548586
 20
103.8690923787
 10
165.7079578116
 20
103.9856484789
 10
165.837652789
 20
104.2359297907
 10
165.8999966626
 20
104.589748694
 10
165.8874698411
 20
105.0044294074
 10
165.8015832441
 20
105.4299553167
 10
165.6526960626
 20
105.8150017171
 10
165.4587662881
 20
106.1131263302
 10
165.2431847136
 20
106.2883709277
 10
165.0319536585
 20
106.3195984249
 10
164.8505507056
 20
106.2030423246
 10
164.7208557281
 20
105.9527610129
 10
164.6585118545
 20
105.5989421095
  0
LINE
  5
150
330
1F
100
AcDbEntity
  8
0
  6
HIDDEN
 62
     7
370
     0
100
AcDbLine
 10
162.8857442403
 20
105.798660483
 30
0.0
 11
162.5407734786
 21
105.1329466947
 31
0.0
  0
LINE
  5
151
330
1F
100
AcDbEntity
  8
0
  6
HIDDEN
 62
     7
370
     0
100
AcDbLine
 10
162.7692199874
 20
104.0011064344
 30
0.0
 11
163.3426372579
 21
103.5349799623
 31
0.0
  0
LINE
  5
152
330
1F
100
AcDbEntity
  8
0
  6
HIDDEN
 62
     7
370
     0
100
AcDbLine
 10
162.7692199874
 20
104.0011064344
 30
0.0
 11
162.5407734786
 21
105.1329466947
 31
0.0
  0
LINE
  5
153
330
1F
100
AcDbEntity
  8
0
  6
HIDDEN
 62
     7
370
     0
100
AcDbLine
 10
162.8857442403
 20
105.798660483
 30
0.0
 11
163.4591615108
 21
105.3325340109
 31
0.0
  0
LINE
  5
154
330
1F
100
AcDbEntity
  8
0
  6
HIDDEN
 62
     7
370
     0
100
AcDbLine
 10
163.3426372579
 20
103.5349799623
 30
0.0
 11
163.6876080197
 21
104.2006937506
 31
0.0
  0
LINE
  5
155
330
1F
100
AcDbEntity
  8
0
  6
HIDDEN
 62
     7
370
     0
100
AcDbLine
 10
163.4591615108
 20
105.3325340109
 30
0.0
 11
163.6876080197
 21
104.2006937506
 31
0.0
  0
LINE
  5
156
330
1F
100
AcDbEntity
  8
0
  6
HIDDEN
 62
     7
370
     0
100
AcDbLine
 10
162.7692199874
 20
104.0011064344
 30
0.0
 11
160.6041564779
 21
103.5735812552
 31
0.0
  0
LINE
  5
157
330
1F
100
AcDbEntity
  8
0
  6
HIDDEN
 62
     7
370
     0
100
AcDbLine
 10
163.3426372579
 20
103.5349799623
 30
0.0
 11
161.1775737485
 21
103.1074547831
 31
0.0
  0
LINE
  5
158
330
1F
100
AcDbEntity
  8
0
  6
HIDDEN
 62
     7
370
     0
100
AcDbLine
 10
162.5407734786
 20
105.1329466947
 30
0.0
 11
160.3757099691
 21
104.7054215155
 31
0.0
  0
LINE
  5
159
330
1F
100
AcDbEntity
  8
0
  6
HIDDEN
 62
     7
370
     0
100
AcDbLine
 10
162.8857442403
 20
105.798660483
 30
0.0
 11
160.7206807308
 21
105.3711353038
 31
0.0
  0
LINE
  5
15A
330
1F
100
AcDbEntity
  8
0
  6
HIDDEN
 62
     7
370
     0
100
AcDbLine
 10
168.3491272396
 20
102.6212182298
 30
0.0
 11
168.3491272396
 21
106.8996531656
 31
0.0
  0
LINE
  5
15B
330
1F
100
AcDbEntity
  8
0
  6
HIDDEN
 62
     7
370
     0
100
AcDbLine
 10
165.0491272396
 20
104.3972673809
 30
0.0
 11
165.0491272396
 21
102.6212182298
 31
0.0
  0
LINE
  5
15C
330
1F
100
AcDbEntity
  8
0
  6
HIDDEN
 62
     7
370
     0
100
AcDbLine
 10
165.0491272396
 20
106.8997971682
 30
0.0
 11
165.0491272396
 21
105.7005391649
 31
0.0
  0
LINE
  5
15D
330
1F
100
AcDbEntity
  8
0
  6
HIDDEN
 62
     7
370
     0
100
AcDbLine
 10
159.6991272396
 20
101.851912558
 30
0.0
 11
161.3559489547
 21
102.1790775569
 31
0.0
  0
LINE
  5
15E
330
1F
100
AcDbEntity
  8
0
  6
HIDDEN
 62
     7
370
     0
100
AcDbLine
 10
160.5423055246
 20
106.2995125301
 30
0.0
 11
159.6991272396
 21
106.1330139744
 31
0.0
  0
LINE
  5
15F
330
1F
100
AcDbEntity
  8
0
  6
HIDDEN
 62
     7
370
     0
100
AcDbLine
 10
161.410616234
 20
102.6485618917
 30
0.0
 11
166.0598359732
 21
103.5666220286
 31
0.0
  0
LINE
  5
160
330
1F
100
AcDbEntity
  8
0
  6
HIDDEN
 62
     7
370
     0
100
AcDbLine
 10
166.0598359732
 20
106.93034457
 30
0.0
 11
160.7713249675
 21
105.8860465135
 31
0.0
  0
ARC
  5
161
330
1F
100
AcDbEntity
  8
0
  6
HIDDEN
 62
     7
370
     0
100
AcDbCircle
 10
169.5674747421
 20
130.727007136
 30
0.0
 40
1.0
100
AcDbArc
 50
75.0
 51
90.0
  0
ARC
  5
162
330
1F
100
AcDbEntity
  8
0
  6
HIDDEN
 62
     7
370
     0
100
AcDbCircle
 10
169.5674747421
 20
95.727007136
 30
0.0
 40
1.000000000000014
100
AcDbArc
 50
270.0
 51
285.0
  0
LINE
  5
163
330
1F
100
AcDbEntity
  8
0
  6
HIDDEN
 62
     7
370
     0
100
AcDbLine
 10
169.5674747421
 20
131.727007136
 30
0.0
 11
162.6991272396
 21
131.727007136
 31
0.0
  0
LINE
  5
164
330
1F
100
AcDbEntity
  8
0
  6
HIDDEN
 62
     7
370
     0
100
AcDbLine
 10
162.6991272396
 20
94.727007136
 30
0.0
 11
169.5674747421
 21
94.727007136
 31
0.0
  0
ARC
  5
165
330
1F
100
AcDbEntity
  8
0
  6
HIDDEN
 62
     7
370
     0
100
AcDbCircle
 10
162.6991272396
 20
130.727007136
 30
0.0
 40
1.0
100
AcDbArc
 50
90.0
 51
180.0
  0
ARC
  5
166
330
1F
100
AcDbEntity
  8
0
  6
HIDDEN
 62
     7
370
     0
100
AcDbCircle
 10
162.6991272396
 20
95.727007136
 30
0.0
 40
1.0
100
AcDbArc
 50
180.0
 51
270.0
  0
LINE
  5
167
330
1F
100
AcDbEntity
  8
0
  6
HIDDEN
 62
     7
370
     0
100
AcDbLine
 10
169.8262937872
 20
94.7610813097
 30
0.0
 11
171.5651526434
 21
95.227007136
 31
0.0
  0
LINE
  5
168
330
1F
100
AcDbEntity
  8
0
  6
HIDDEN
 62
     7
370
     0
100
AcDbLine
 10
171.5651526434
 20
131.227007136
 30
0.0
 11
169.8262937872
 21
131.6929329623
 31
0.0
  0
LINE
  5
169
330
1F
100
AcDbEntity
  8
0
  6
HIDDEN
 62
     7
370
     0
100
AcDbLine
 10
187.0991272395
 20
131.227007136
 30
0.0
 11
171.5651526434
 21
131.227007136
 31
0.0
  0
LINE
  5
16A
330
1F
100
AcDbEntity
  8
0
  6
HIDDEN
 62
     7
370
     0
100
AcDbLine
 10
171.5651526434
 20
95.227007136
 30
0.0
 11
187.0991272395
 21
95.227007136
 31
0.0
  0
LINE
  5
16B
330
1F
100
AcDbEntity
  8
0
  6
HIDDEN
 62
     7
370
     0
100
AcDbLine
 10
203.6991272395
 20
139.3010886618
 30
0.0
 11
203.1123687702
 21
138.7143376721
 31
0.0
  0
LINE
  5
16C
330
1F
100
AcDbEntity
  8
0
  6
HIDDEN
 62
     7
370
     0
100
AcDbLine
 10
203.1121676737
 20
87.7398728996
 30
0.0
 11
203.6991272395
 21
87.1529253759
 31
0.0
  0
ARC
  5
16D
330
1F
100
AcDbEntity
  8
0
  6
HIDDEN
 62
     7
370
     0
100
AcDbCircle
 10
93.0991272396
 20
103.927007136
 30
0.0
 40
0.7999999999999972
100
AcDbArc
 50
90.0
 51
180.0
  0
ARC
  5
16E
330
1F
100
AcDbEntity
  8
0
  6
HIDDEN
 62
     7
370
     0
100
AcDbCircle
 10
93.0991272396
 20
122.527007136
 30
0.0
 40
0.7999999999999972
100
AcDbArc
 50
180.0
 51
270.0
  0
LINE
  5
16F
330
1F
100
AcDbEntity
  8
0
  6
HIDDEN
 62
     7
370
     0
100
AcDbLine
 10
100.1914996704
 20
104.502007136
 30
0.0
 11
101.068187132
 21
104.502007136
 31
0.0
  0
LINE
  5
170
330
1F
100
AcDbEntity
  8
0
  6
HIDDEN
 62
     7
370
     0
100
AcDbLine
 10
101.068187132
 20
121.952007136
 30
0.0
 11
100.1914996704
 21
121.952007136
 31
0.0
  0
ARC
  5
171
330
1F
100
AcDbEntity
  8
0
  6
HIDDEN
 62
     7
370
     0
100
AcDbCircle
 10
101.068187132
 20
104.902007136
 30
0.0
 40
0.4000000000000121
100
AcDbArc
 50
270.0
 51
330.0
  0
ARC
  5
172
330
1F
100
AcDbEntity
  8
0
  6
HIDDEN
 62
     7
370
     0
100
AcDbCircle
 10
101.068187132
 20
121.552007136
 30
0.0
 40
0.4000000000000121
100
AcDbArc
 50
30.0
 51
90.0
  0
ARC
  5
173
330
1F
100
AcDbEntity
  8
0
  6
HIDDEN
 62
     7
370
     0
100
AcDbCircle
 10
100.1914996704
 20
104.902007136
 30
0.0
 40
0.3999999999999915
100
AcDbArc
 50
255.0
 51
270.0
  0
ARC
  5
174
330
1F
100
AcDbEntity
  8
0
  6
HIDDEN
 62
     7
370
     0
100
AcDbCircle
 10
100.1914996704
 20
121.552007136
 30
0.0
 40
0.3999999999999915
100
AcDbArc
 50
90.0
 51
105.0
  0
LINE
  5
175
330
1F
100
AcDbEntity
  8
0
  6
HIDDEN
 62
     7
370
     0
100
AcDbLine
 10
100.0879720523
 20
121.9383774665
 30
0.0
 11
99.2991272396
 21
121.727007136
 31
0.0
  0
LINE
  5
176
330
1F
100
AcDbEntity
  8
0
  6
HIDDEN
 62
     7
370
     0
100
AcDbLine
 10
99.2991272396
 20
104.727007136
 30
0.0
 11
100.0879720523
 21
104.5156368055
 31
0.0
  0
LINE
  5
177
330
1F
100
AcDbEntity
  8
0
  6
HIDDEN
 62
     7
370
     0
100
AcDbLine
 10
101.4145972935
 20
104.702007136
 30
0.0
 11
102.295056454
 21
106.227007136
 31
0.0
  0
LINE
  5
178
330
1F
100
AcDbEntity
  8
0
  6
HIDDEN
 62
     7
370
     0
100
AcDbLine
 10
102.295056454
 20
120.227007136
 30
0.0
 11
101.4145972935
 21
121.752007136
 31
0.0
  0
LINE
  5
179
330
1F
100
AcDbEntity
  8
0
  6
HIDDEN
 62
     7
370
     0
100
AcDbLine
 10
93.0991272396
 20
104.727007136
 30
0.0
 11
99.2991272396
 21
104.727007136
 31
0.0
  0
LINE
  5
17A
330
1F
100
AcDbEntity
  8
0
  6
HIDDEN
 62
     7
370
     0
100
AcDbLine
 10
99.2991272396
 20
121.727007136
 30
0.0
 11
93.0991272396
 21
121.727007136
 31
0.0
  0
LINE
  5
17B
330
1F
100
AcDbEntity
  8
0
  6
HIDDEN
 62
     7
370
     0
100
AcDbLine
 10
180.6991272396
 20
82.727015437
 30
0.0
 11
180.6991272396
 21
89.127007136
 31
0.0
  0
ARC
  5
17C
330
1F
100
AcDbEntity
  8
0
  6
HIDDEN
 62
     7
370
     0
100
AcDbCircle
 10
179.0991272396
 20
137.327007136
 30
0.0
 40
1.599999999999994
100
AcDbArc
 50
270.0
 51
0.0
  0
ARC
  5
17D
330
1F
100
AcDbEntity
  8
0
  6
HIDDEN
 62
     7
370
     0
100
AcDbCircle
 10
179.0991272396
 20
89.127007136
 30
0.0
 40
1.599999999999994
100
AcDbArc
 50
0.0
 51
90.0
  0
LINE
  5
17E
330
1F
100
AcDbEntity
  8
0
  6
HIDDEN
 62
     7
370
     0
100
AcDbLine
 10
180.6991272396
 20
137.327007136
 30
0.0
 11
180.6991272396
 21
143.7269358398
 31
0.0
  0
LINE
  5
17F
330
1F
100
AcDbEntity
  8
0
  6
HIDDEN
 62
     7
370
     0
100
AcDbLine
 10
102.295056454
 20
106.227007136
 30
0.0
 11
161.6991272396
 21
106.227007136
 31
0.0
  0
LINE
  5
180
330
1F
100
AcDbEntity
  8
0
  6
HIDDEN
 62
     7
370
     0
100
AcDbLine
 10
161.6991272396
 20
120.227007136
 30
0.0
 11
102.295056454
 21
120.227007136
 31
0.0
  0
LINE
  5
181
330
1F
100
AcDbEntity
  8
0
  6
HIDDEN
 62
     7
370
     0
100
AcDbLine
 10
180.6991263297
 20
143.7270069241
 30
0.0
 11
181.699125699
 21
144.7270066708
 31
0.0
  0
LINE
  5
182
330
1F
100
AcDbEntity
  8
0
  6
HIDDEN
 62
     7
370
     0
100
AcDbLine
 10
181.699133601
 20
81.7270059983
 30
0.0
 11
180.6991333521
 21
82.7270058028
 31
0.0
  0
LINE
  5
183
330
1F
100
AcDbEntity
  8
0
  6
HIDDEN
 62
     7
370
     0
100
AcDbLine
 10
203.1264050253
 20
138.727007136
 30
0.0
 11
187.0991272395
 21
138.727007136
 31
0.0
  0
LINE
  5
184
330
1F
100
AcDbEntity
  8
0
  6
HIDDEN
 62
     7
370
     0
100
AcDbLine
 10
187.0991272395
 20
87.727007136
 30
0.0
 11
203.1261889741
 21
87.727007136
 31
0.0
  0
LINE
  5
185
330
1F
100
AcDbEntity
  8
0
  6
HIDDEN
 62
     7
370
     0
100
AcDbLine
 10
168.3491272396
 20
119.5537479671
 30
0.0
 11
168.3491272396
 21
123.8327960422
 31
0.0
  0
LINE
  5
186
330
1F
100
AcDbEntity
  8
0
  6
HIDDEN
 62
     7
370
     0
100
AcDbLine
 10
165.0491272396
 20
120.7534751071
 30
0.0
 11
165.0491272396
 21
119.5543437263
 31
0.0
  0
LINE
  5
187
330
1F
100
AcDbEntity
  8
0
  6
HIDDEN
 62
     7
370
     0
100
AcDbLine
 10
165.0491272396
 20
123.8327960422
 30
0.0
 11
165.0491272396
 21
122.0567468911
 31
0.0
  0
LINE
  5
188
330
1F
100
AcDbEntity
  8
0
  6
HIDDEN
 62
     7
370
     0
100
AcDbLine
 10
160.7713249675
 20
120.5679677585
 30
0.0
 11
166.0598359732
 21
119.523669702
 31
0.0
  0
LINE
  5
189
330
1F
100
AcDbEntity
  8
0
  6
HIDDEN
 62
     7
370
     0
100
AcDbLine
 10
166.0598359732
 20
122.8873922434
 30
0.0
 11
161.410616234
 21
123.8054523803
 31
0.0
  0
LINE
  5
18A
330
1F
100
AcDbEntity
  8
0
  6
HIDDEN
 62
     7
370
     0
100
AcDbLine
 10
159.6991272396
 20
120.3210002976
 30
0.0
 11
160.5423055246
 21
120.1545017419
 31
0.0
  0
LINE
  5
18B
330
1F
100
AcDbEntity
  8
0
  6
HIDDEN
 62
     7
370
     0
100
AcDbLine
 10
161.3559489547
 20
124.2749367151
 30
0.0
 11
159.6991272396
 21
124.602101714
 31
0.0
  0
LINE
  5
18C
330
1F
100
AcDbEntity
  8
0
  6
HIDDEN
 62
     7
370
     0
100
AcDbLine
 10
168.6991272396
 20
102.5521053321
 30
0.0
 11
168.6991272396
 21
103.9069582304
 31
0.0
  0
LINE
  5
18D
330
1F
100
AcDbEntity
  8
0
  6
HIDDEN
 62
     7
370
     0
100
AcDbLine
 10
164.6991272396
 20
103.9069582304
 30
0.0
 11
164.6991272396
 21
102.5521053321
 31
0.0
  0
LINE
  5
18E
330
1F
100
AcDbEntity
  8
0
  6
HIDDEN
 62
     7
370
     0
100
AcDbLine
 10
164.6991272396
 20
123.9236301362
 30
0.0
 11
164.6991272396
 21
122.5470560416
 31
0.0
  0
LINE
  5
18F
330
1F
100
AcDbEntity
  8
0
  6
HIDDEN
 62
     7
370
     0
100
AcDbLine
 10
168.6991272396
 20
122.5470560416
 30
0.0
 11
168.6991272396
 21
123.9236301362
 31
0.0
  0
LINE
  5
190
330
1F
100
AcDbEntity
  8
0
  6
HIDDEN
 62
     7
370
     0
100
AcDbLine
 10
164.7924068228
 20
119.7299401545
 30
0.0
 11
165.3809240192
 21
120.2609274518
 31
0.0
  0
LINE
  5
191
330
1F
100
AcDbEntity
  8
0
  6
HIDDEN
 62
     7
370
     0
100
AcDbLine
 10
165.7909347769
 20
122.337294817
 30
0.0
 11
165.448424035
 21
123.0521279389
 31
0.0
  0
LINE
  5
192
330
1F
100
AcDbEntity
  8
0
  6
HIDDEN
 62
     7
370
     0
100
AcDbLine
 10
160.7566779872
 20
120.2141015792
 30
0.0
 11
164.2422859533
 21
119.5258145319
 31
0.0
  0
LINE
  5
193
330
1F
100
AcDbEntity
  8
0
  6
HIDDEN
 62
     7
370
     0
100
AcDbLine
 10
165.0171844581
 20
123.450038316
 30
0.0
 11
161.5315764921
 21
124.1383253633
 31
0.0
  0
LINE
  5
194
330
1F
100
AcDbEntity
  8
0
  6
HIDDEN
 62
     7
370
     0
100
AcDbLine
 10
160.444361086
 20
123.1042547772
 30
0.0
 11
160.385815486
 21
122.9617924798
 31
0.0
  0
LINE
  5
195
330
1F
100
AcDbEntity
  8
0
  6
HIDDEN
 62
     7
370
     0
100
AcDbLine
 10
160.1441272396
 20
121.7378402348
 30
0.0
 11
160.1441272396
 21
121.5838172058
 31
0.0
  0
LINE
  5
196
330
1F
100
AcDbEntity
  8
0
  6
HIDDEN
 62
     7
370
     0
100
AcDbLine
 10
160.1441272396
 20
104.8701970662
 30
0.0
 11
160.1441272396
 21
104.7161740372
 31
0.0
  0
LINE
  5
197
330
1F
100
AcDbEntity
  8
0
  6
HIDDEN
 62
     7
370
     0
100
AcDbLine
 10
160.385815486
 20
103.4922217922
 30
0.0
 11
160.444361086
 21
103.3497594948
 31
0.0
  0
LINE
  5
198
330
1F
100
AcDbEntity
  8
0
  6
HIDDEN
 62
     7
370
     0
100
AcDbLine
 10
161.5315764921
 20
102.3156889087
 30
0.0
 11
165.0171844581
 21
103.003975956
 31
0.0
  0
LINE
  5
199
330
1F
100
AcDbEntity
  8
0
  6
HIDDEN
 62
     7
370
     0
100
AcDbLine
 10
164.2422859533
 20
106.9281997401
 30
0.0
 11
160.7566779872
 21
106.2399126927
 31
0.0
  0
LINE
  5
19A
330
1F
100
AcDbEntity
  8
0
  6
HIDDEN
 62
     7
370
     0
100
AcDbLine
 10
165.448424035
 20
103.4018863331
 30
0.0
 11
165.7909347769
 21
104.116719455
 31
0.0
  0
LINE
  5
19B
330
1F
100
AcDbEntity
  8
0
  6
HIDDEN
 62
     7
370
     0
100
AcDbLine
 10
165.3809240192
 20
106.1930868202
 30
0.0
 11
164.7924068228
 21
106.7240741175
 31
0.0
  0
DIMENSION
  5
19C
330
1F
100
AcDbEntity
  8
VERMASSUNG
100
AcDbDimension
  2
_D
 10
213.7956724744
 20
95.227007136
 30
0.0
 11
213.7956724744
 21
113.227007136
 31
0.0
 70
   160
  1
%%c<>
 71
     2
 42
-1.0
  3
SLDDIMSTYLE0
100
AcDbAlignedDimension
 13
187.0991272395
 23
131.227007136
 33
0.0
 14
187.0991272395
 24
95.227007136
 34
0.0
 50
90.0
100
AcDbRotatedDimension
  0
DIMENSION
  5
1A8
330
1F
100
AcDbEntity
  8
VERMASSUNG
100
AcDbDimension
  2
_D_1
 10
203.6991272396
 20
159.2735993984
 30
0.0
 11
180.6991272396
 21
159.2735993984
 31
0.0
 70
   160
  1
<>
 71
     2
 42
-1.0
  3
SLDDIMSTYLE0
100
AcDbAlignedDimension
 13
157.6991272396
 23
135.452007136
 33
0.0
 14
203.6991272396
 24
144.627007136
 34
0.0
100
AcDbRotatedDimension
  0
DIMENSION
  5
1B2
330
1F
100
AcDbEntity
  8
VERMASSUNG
100
AcDbDimension
  2
_D_2
 10
203.6991272395
 20
165.2735993984
 30
0.0
 11
147.9991272396
 21
165.2735993984
 31
0.0
 70
   160
  1
(<>)
 71
     2
 42
-1.0
  3
SLDDIMSTYLE0
100
AcDbAlignedDimension
 13
92.2991272396
 23
125.049762733
 33
0.0
 14
203.6991272395
 24
139.3010914502
 34
0.0
100
AcDbRotatedDimension
  0
DIMENSION
  5
1BE
330
1F
100
AcDbEntity
  8
VERMASSUNG
100
AcDbDimension
  2
_D_3
 10
87.9563662037
 20
81.727007136
 30
0.0
 11
87.9563662037
 21
113.227007136
 31
0.0
 70
   160
  1
MAS BT 40 %%c<>
 71
     2
 42
-1.0
  3
SLDDIMSTYLE0
100
AcDbAlignedDimension
 13
181.6991230956
 23
144.727007136
 33
0.0
 14
181.6991280135
 24
81.727007136
 34
0.0
 50
90.0
100
AcDbRotatedDimension
  0
DIMENSION
  5
1CA
330
1F
100
AcDbEntity
  8
VERMASSUNG
100
AcDbDimension
  2
_D_4
 10
219.7956724744
 20
81.227007136
 30
0.0
 11
219.7956724744
 21
113.227007136
 31
0.0
 70
   160
  1
ST6 %%c<>
 71
     2
 42
-1.0
  3
SLDDIMSTYLE0
100
AcDbAlignedDimension
 13
203.0991272396
 23
145.227007136
 33
0.0
 14
203.0991272396
 24
81.227007136
 34
0.0
 50
90.0
100
AcDbRotatedDimension
  0
DIMENSION
  5
1D6
330
1F
100
AcDbEntity
  8
VERMASSUNG
100
AcDbDimension
  2
_D_5
 10
203.6991272396
 20
152.6041175607
 30
0.0
 11
199.6991272396
 21
152.6041175607
 31
0.0
 70
   160
  1
(<>)
 71
     2
 42
-1.0
  3
SLDDIMSTYLE1
100
AcDbAlignedDimension
 13
195.6991272396
 23
145.227007136
 33
0.0
 14
203.6991272396
 24
144.627007136
 34
0.0
100
AcDbRotatedDimension
  0
LINE
  5
1E5
330
1F
100
AcDbEntity
  8
VERMASSUNG
  6
CENTERX2
370
     0
100
AcDbLine
 10
91.1548203466
 20
113.227007136
 30
0.0
 11
205.6415075654
 21
113.227007136
 31
0.0
  0
LINE
  5
1E6
330
1F
100
AcDbEntity
  8
VERMASSUNG
  6
CENTERX2
370
     0
100
AcDbLine
 10
159.1288587087
 20
122.5741593218
 30
0.0
 11
168.0219478652
 21
120.8180817203
 31
0.0
  0
LINE
  5
1E7
330
1F
100
AcDbEntity
  8
VERMASSUNG
  6
CENTERX2
370
     0
100
AcDbLine
 10
159.1288587087
 20
103.8798549502
 30
0.0
 11
168.0219478652
 21
105.6359325517
 31
0.0
  0
LINE
  5
1E8
330
1F
100
AcDbEntity
  8
0
  6
Continuous
 62
     7
370
    15
100
AcDbLine
 10
267.8796038297
 20
46.8455038222
 30
0.0
 11
267.7027984102
 21
46.947604596
 31
0.0
  0
LINE
  5
1E9
330
1F
100
AcDbEntity
  8
0
  6
Continuous
 62
     7
370
    15
100
AcDbLine
 10
263.8130791817
 20
46.947604596
 30
0.0
 11
263.6362737622
 21
46.8455038222
 31
0.0
  0
LINE
  5
1EA
330
1F
100
AcDbEntity
  8
0
  6
Continuous
 62
     7
370
    15
100
AcDbLine
 10
268.7579387959
 20
45.2128202663
 30
0.0
 11
268.7579387959
 21
45.6210906722
 31
0.0
  0
LINE
  5
1EB
330
1F
100
AcDbEntity
  8
0
  6
Continuous
 62
     7
370
    15
100
AcDbLine
 10
262.7579387959
 20
45.6210906722
 30
0.0
 11
262.7579387959
 21
45.2128202663
 31
0.0
  0
LINE
  5
1EC
330
1F
100
AcDbEntity
  8
0
  6
Continuous
 62
     7
370
    15
100
AcDbLine
 10
271.2221774764
 20
16.5436052497
 30
0.0
 11
271.4342750333
 21
16.6660863699
 31
0.0
  0
LINE
  5
1ED
330
1F
100
AcDbEntity
  8
0
  6
Continuous
 62
     7
370
    15
100
AcDbLine
 10
282.5340471796
 20
35.8935390141
 30
0.0
 11
282.5340471796
 21
36.1384614477
 31
0.0
  0
LINE
  5
1EE
330
1F
100
AcDbEntity
  8
0
  6
Continuous
 62
     7
370
    15
100
AcDbLine
 10
279.2196885417
 20
43.4639783512
 30
0.0
 11
276.6033934513
 21
44.9743333581
 31
0.0
  0
LINE
  5
1EF
330
1F
100
AcDbEntity
  8
0
  6
Continuous
 62
     7
370
    15
100
AcDbLine
 10
260.6046937291
 20
17.2607697619
 30
0.0
 11
263.2209888195
 21
15.750414755
 31
0.0
  0
LINE
  5
1F0
330
1F
100
AcDbEntity
  8
0
  6
Continuous
 62
     7
370
    15
100
AcDbLine
 10
254.9402467997
 20
20.8194526852
 30
0.0
 11
259.3208906417
 21
18.2905608242
 31
0.0
  0
LINE
  5
1F1
330
1F
100
AcDbEntity
  8
0
  6
Continuous
 62
     7
370
    15
100
AcDbLine
 10
275.0696106807
 20
45.5710999892
 30
0.0
 11
270.6889668388
 21
48.0999918502
 31
0.0
  0
SPLINE
  5
1F2
330
1F
100
AcDbEntity
  8
0
  6
Continuous
 62
     7
370
    15
100
AcDbSpline
210
0.0
220
0.0
230
1.0
 70
     8
 71
     3
 72
    26
 73
    22
 74
     0
 42
0.000000001
 43
0.00000001
 40
0.0
 40
0.0
 40
0.0
 40
0.0
 40
0.0057984783445114
 40
0.06132204944204
 40
0.1168956189559979
 40
0.1724922623605599
 40
0.2280934186247945
 40
0.2836752569873726
 40
0.3392173531663776
 40
0.3947007943771329
 40
0.4501075833426204
 40
0.5054223626858365
 40
0.5606358845284715
 40
0.6157514518243945
 40
0.6707960977632325
 40
0.725825080263758
 40
0.7809355170197239
 40
0.8363252852187608
 40
0.8922960327106171
 40
0.9492111311001818
 40
1.0
 40
1.0
 40
1.0
 40
1.0
 10
265.6329659319132
 20
29.7740369239743
 30
0.0
 10
265.6436424642746
 20
29.80423612785825
 30
0.0
 10
265.7565525773139
 20
30.12360906738724
 30
0.0
 10
266.0125981834274
 20
30.73169037613641
 30
0.0
 10
266.4236064756574
 20
31.58642313635933
 30
0.0
 10
266.891076885966
 20
32.41975198438514
 30
0.0
 10
267.4056514807477
 20
33.22194523845513
 30
0.0
 10
267.9624072551558
 20
33.98377666184466
 30
0.0
 10
268.5544787183176
 20
34.69651955802554
 30
0.0
 10
269.1748703497842
 20
35.35210407235328
 30
0.0
 10
269.8160605095523
 20
35.94320918786239
 30
0.0
 10
270.470206940171
 20
36.4633818407249
 30
0.0
 10
271.1292214866851
 20
36.90716550545181
 30
0.0
 10
271.7849301270109
 20
37.27023987497916
 30
0.0
 10
272.4292182371643
 20
37.54949765045897
 30
0.0
 10
273.0542954856337
 20
37.74319700652003
 30
0.0
 10
273.6530066268171
 20
37.8507045176583
 30
0.0
 10
274.2200566367785
 20
37.87331903550133
 30
0.0
 10
274.750132454531
 20
37.80931896623988
 30
0.0
 10
275.2256159431087
 20
37.67459705164852
 30
0.0
 10
275.5001911643034
 20
37.51974895181947
 30
0.0
 10
275.6296698201352
 20
37.44672880187019
 30
0.0
  0
LINE
  5
1F3
330
1F
100
AcDbEntity
  8
0
  6
Continuous
 62
     7
370
    15
100
AcDbLine
 10
267.1357552633
 20
50.1512172312
 30
0.0
 11
264.104034939
 21
51.9013921209
 31
0.0
  0
SPLINE
  5
1F4
330
1F
100
AcDbEntity
  8
0
  6
Continuous
 62
     7
370
    15
100
AcDbSpline
210
0.0
220
0.0
230
1.0
 70
     8
 71
     3
 72
    32
 73
    28
 74
     0
 42
0.000000001
 43
0.00000001
 40
0.0
 40
0.0
 40
0.0
 40
0.0
 40
0.0011806956225947
 40
0.0421815201410211
 40
0.0833809984927211
 40
0.1248362505434873
 40
0.1665500523014525
 40
0.2084842728030848
 40
0.2505809386735746
 40
0.2927809333825849
 40
0.3350351105477438
 40
0.3773068872836158
 40
0.419569429729289
 40
0.4618125828181123
 40
0.5040322665587799
 40
0.5462282918699166
 40
0.5884028374392395
 40
0.6305594585427439
 40
0.6727024764129201
 40
0.71483662177265
 40
0.756966839614639
 40
0.7990981901787801
 40
0.8412343215792132
 40
0.8833801790376898
 40
0.9255409319977744
 40
0.967721667228185
 40
1.0
 40
1.0
 40
1.0
 40
1.0
 10
262.7538031157935
 20
52.46068481572411
 30
0.0
 10
262.7469066099875
 20
52.46304150879729
 30
0.0
 10
262.5005221117399
 20
52.54723670223241
 30
0.0
 10
261.9767841056992
 20
52.62938342669752
 30
0.0
 10
261.1853146119715
 20
52.6988295231933
 30
0.0
 10
260.3571064720745
 20
52.66471910562339
 30
0.0
 10
259.5030898487716
 20
52.5405529904661
 30
0.0
 10
258.6270557119477
 20
52.32296884537056
 30
0.0
 10
257.735388477048
 20
52.01418468503845
 30
0.0
 10
256.8341262359399
 20
51.616006168162
 30
0.0
 10
255.9294682461505
 20
51.13135937743348
 30
0.0
 10
255.0274699867491
 20
50.56373694048896
 30
0.0
 10
254.133996854865
 20
49.91718051659042
 30
0.0
 10
253.2547035506994
 20
49.19615754297897
 30
0.0
 10
252.3950347154478
 20
48.40549545192835
 30
0.0
 10
251.5602820770997
 20
47.55038908690364
 30
0.0
 10
250.7555771726269
 20
46.63638003000335
 30
0.0
 10
249.9858742275563
 20
45.66933349816115
 30
0.0
 10
249.2559295494535
 20
44.65541203065997
 30
0.0
 10
248.5702690213241
 20
43.60104279991892
 30
0.0
 10
247.9331872520791
 20
42.51288733494647
 30
0.0
 10
247.3486327423389
 20
41.3977957908042
 30
0.0
 10
246.8205328999467
 20
40.26282825406737
 30
0.0
 10
246.3514355014975
 20
39.11493446155893
 30
0.0
 10
245.9474732429464
 20
37.96191486481151
 30
0.0
 10
245.6270165159814
 20
36.89905264537583
 30
0.0
 10
245.4753428862632
 20
36.22892830270501
 30
0.0
 10
245.4095917021012
 20
35.93842645905347
 30
0.0
  0
SPLINE
  5
1F5
330
1F
100
AcDbEntity
  8
0
  6
Continuous
 62
     7
370
    15
100
AcDbSpline
210
0.0
220
0.0
230
1.0
 70
     8
 71
     3
 72
    11
 73
     7
 74
     0
 42
0.000000001
 43
0.00000001
 40
0.0
 40
0.0
 40
0.0
 40
0.0
 40
0.0480971542282007
 40
0.4390692590881089
 40
0.828107986087447
 40
0.9999999999999999
 40
0.9999999999999999
 40
0.9999999999999999
 40
0.9999999999999999
 10
266.5283580588682
 20
21.93079574412932
 30
0.0
 10
266.5093498963654
 20
21.94034290515682
 30
0.0
 10
266.3358281992782
 20
22.02749702032231
 30
0.0
 10
266.0573732496748
 20
22.27618449880141
 30
0.0
 10
265.7563636644542
 20
22.59629092700682
 30
0.0
 10
265.611319652852
 20
22.83530611405282
 30
0.0
 10
265.5668722631089
 20
22.90855009741916
 30
0.0
  0
LINE
  5
1F6
330
1F
100
AcDbEntity
  8
0
  6
Continuous
 62
     7
370
    15
100
AcDbLine
 10
255.0912678862
 20
50.5898245239
 30
0.0
 11
235.2045372615
 21
57.7562139583
 31
0.0
  0
LINE
  5
1F7
330
1F
100
AcDbEntity
  8
0
  6
Continuous
 62
     7
370
    15
100
AcDbLine
 10
228.8330678501
 20
46.7193093473
 30
0.0
 11
247.8609419365
 21
30.6523297699
 31
0.0
  0
LINE
  5
1F8
330
1F
100
AcDbEntity
  8
0
  6
Continuous
 62
     7
370
    15
100
AcDbLine
 10
248.3553148999
 20
24.6208529559
 30
0.0
 11
251.3870352243
 21
22.8706780662
 31
0.0
  0
SPLINE
  5
1F9
330
1F
100
AcDbEntity
  8
0
  6
Continuous
 62
     7
370
    15
100
AcDbSpline
210
0.0
220
0.0
230
1.0
 70
     8
 71
     3
 72
    13
 73
     9
 74
     0
 42
0.000000001
 43
0.00000001
 40
0.0
 40
0.0
 40
0.0
 40
0.0
 40
0.0767977175135376
 40
0.3083692272398919
 40
0.5393148283820126
 40
0.7690497794811508
 40
0.9972971027504967
 40
1.0
 40
1.0
 40
1.0
 40
1.0
 10
245.3920365436998
 20
28.68753318315878
 30
0.0
 10
245.4200393616139
 20
28.59132370595801
 30
0.0
 10
245.5324802986665
 20
28.20500959275111
 30
0.0
 10
245.7814355759708
 20
27.57327877588663
 30
0.0
 10
246.162237090915
 20
26.81993491981333
 30
0.0
 10
246.6194032425381
 20
26.1533129636786
 30
0.0
 10
246.9504917997917
 20
25.73324128718862
 30
0.0
 10
247.1445931194467
 20
25.56033793291836
 30
0.0
 10
247.1468647601572
 20
25.55831437996554
 30
0.0
  0
SPLINE
  5
1FA
330
1F
100
AcDbEntity
  8
0
  6
Continuous
 62
     7
370
    15
100
AcDbSpline
210
0.0
220
0.0
230
1.0
 70
     8
 71
     3
 72
    26
 73
    22
 74
     0
 42
0.000000001
 43
0.00000001
 40
0.0
 40
0.0
 40
0.0
 40
0.0
 40
0.0242745573549767
 40
0.0779154049992307
 40
0.1323196565231418
 40
0.1878311034503571
 40
0.2443689124080577
 40
0.3015856402064283
 40
0.359108923398841
 40
0.4166546839017785
 40
0.4741126449399304
 40
0.5314664821971593
 40
0.5887353034421117
 40
0.6459537048879779
 40
0.7031625961814607
 40
0.7603998535020694
 40
0.8177015534350831
 40
0.8751129953402772
 40
0.9326768806042054
 40
0.9873489164415328
 40
1.0
 40
1.0
 40
1.0
 40
1.0
 10
235.1615922392968
 20
57.75828140015107
 30
0.0
 10
235.0908605068535
 20
57.78538694828925
 30
0.0
 10
234.8638289075117
 20
57.87238914281043
 30
0.0
 10
234.4404355466217
 20
57.92140136972801
 30
0.0
 10
233.9033875319718
 20
57.90884289384337
 30
0.0
 10
233.3406229634419
 20
57.79869058879526
 30
0.0
 10
232.761866389245
 20
57.59783026800025
 30
0.0
 10
232.1755580041442
 20
57.30654850589706
 30
0.0
 10
231.5924091502247
 20
56.93032992638793
 30
0.0
 10
231.0225505575963
 20
56.47616110863893
 30
0.0
 10
230.4751985064661
 20
55.95240793329229
 30
0.0
 10
229.9585182668341
 20
55.3679260415805
 30
0.0
 10
229.4800103907797
 20
54.73207638958858
 30
0.0
 10
229.0466394940811
 20
54.05471957322211
 30
0.0
 10
228.6648334193264
 20
53.34617347228971
 30
0.0
 10
228.3404000487181
 20
52.61710121276828
 30
0.0
 10
228.0785208041963
 20
51.87836959605639
 30
0.0
 10
227.8834147364235
 20
51.1406856866522
 30
0.0
 10
227.7617051936263
 20
50.42800938781042
 30
0.0
 10
227.722631950432
 20
49.91966949799816
 30
0.0
 10
227.7205856065012
 20
49.65439931115697
 30
0.0
 10
227.7202010659705
 20
49.60455082924739
 30
0.0
  0
SPLINE
  5
1FB
330
1F
100
AcDbEntity
  8
0
  6
Continuous
 62
     7
370
    15
100
AcDbSpline
210
0.0
220
0.0
230
1.0
 70
     8
 71
     3
 72
    13
 73
     9
 74
     0
 42
0.000000001
 43
0.00000001
 40
0.0
 40
0.0
 40
0.0
 40
0.0
 40
0.098413097380024
 40
0.2845003371568837
 40
0.4706258489415632
 40
0.6553516108485968
 40
0.8371135310737022
 40
1.0
 40
1.0
 40
1.0
 40
1.0
 10
227.7202010659705
 20
49.60455082924739
 30
0.0
 10
227.7223571333267
 20
49.48520093619256
 30
0.0
 10
227.7285900627445
 20
49.1401748602159
 30
0.0
 10
227.7983923583155
 20
48.60006290523215
 30
0.0
 10
227.9553380308033
 20
48.00874557010796
 30
0.0
 10
228.1924620739265
 20
47.48322978011203
 30
0.0
 10
228.488346030956
 20
47.03764063719645
 30
0.0
 10
228.7379301248154
 20
46.81208814121738
 30
0.0
 10
228.8558876520478
 20
46.70548834042329
 30
0.0
  0
LINE
  5
1FC
330
1F
100
AcDbEntity
  8
0
  6
Continuous
 62
     7
370
    15
100
AcDbLine
 10
253.636035719
 20
46.4923233088
 30
0.0
 11
253.6437153217
 21
46.472391685
 31
0.0
  0
LINE
  5
1FD
330
1F
100
AcDbEntity
  8
0
  6
Continuous
 62
     7
370
    15
100
AcDbLine
 10
255.5099797503
 20
47.1914584986
 30
0.0
 11
255.5023001477
 21
47.2113901224
 31
0.0
  0
LWPOLYLINE
  5
1FE
330
1F
100
AcDbEntity
  8
0
  6
Continuous
 62
     7
370
    15
100
AcDbPolyline
 90
       32
 70
   128
 43
0.0
 10
268.0681541819
 20
44.964040134
 10
267.7205710129
 20
44.7132050829
 10
267.2926374504
 20
44.5078962936
 10
266.8018731447
 20
44.3565191322
 10
266.268370044
 20
44.2652709975
 10
265.7139698281
 20
44.2378875987
 10
265.1613697069
 20
44.2754900154
 10
264.6331931943
 20
44.3765388003
 10
264.1510638988
 20
44.5368970043
 10
263.7347202504
 20
44.7499995436
 10
263.4012074069
 20
45.0071219753
 10
263.1641794234
 20
45.2977376768
 10
263.0333402534
 20
45.6099488071
 10
263.0140464678
 20
45.9309734058
 10
263.1070879566
 20
46.2476686882
 10
263.3086555901
 20
46.5470691122
 10
263.6104971659
 20
46.8169171893
 10
264.0002552544
 20
47.0461653075
 10
264.4619731135
 20
47.2254280218
 10
264.97674796
 20
47.3473662958
 10
265.523504851
 20
47.406987962
 10
266.0798594953
 20
47.4018521026
 10
266.6230346684
 20
47.3321689802
 10
267.1307927148
 20
47.2007914301
 10
267.5823459604
 20
47.0130980644
 10
267.9592077624
 20
46.7767730718
 10
268.2459493543
 20
46.5014916252
 10
268.4308315015
 20
46.1985237793
 10
268.5062851074
 20
45.8802730733
 10
268.4692210923
 20
45.5597687286
 10
268.3211568615
 20
45.2501322306
 10
268.0681541819
 20
44.964040134
  0
LWPOLYLINE
  5
1FF
330
1F
100
AcDbEntity
  8
0
  6
Continuous
 62
     7
370
    15
100
AcDbPolyline
 90
       19
 70
   128
 43
0.0
 10
268.2781737624
 20
44.6816153182
 10
267.912259066
 20
44.415830032
 10
267.4635550498
 20
44.1963622363
 10
266.9493051575
 20
44.0316459553
 10
266.389271724
 20
43.9280111435
 10
265.8049765202
 20
43.8894404285
 10
265.218873683
 20
43.9174160612
 10
264.6534868157
 20
44.0108629537
 10
264.1305434187
 20
44.1661899945
 10
263.6701399134
 20
44.3774280524
 10
263.2899693483
 20
44.6364593673
 10
263.004641465
 20
44.9333295111
 10
262.8251212541
 20
45.2566299306
 10
262.7583075765
 20
45.593936372
 10
262.8067680445
 20
45.9322863379
 10
262.9686403495
 20
46.258677229
 10
263.2377038295
 20
46.5605660262
 10
263.6036185258
 20
46.8263513124
 10
263.6362737622
 20
46.8455038222
  0
LWPOLYLINE
  5
200
330
1F
100
AcDbEntity
  8
0
  6
Continuous
 62
     7
370
    15
100
AcDbPolyline
 90
        8
 70
   128
 43
0.0
 10
267.8796038297
 20
46.8455038222
 10
268.2259082436
 20
46.6057219771
 10
268.5112361269
 20
46.3088518333
 10
268.6907563378
 20
45.9855514138
 10
268.7575700153
 20
45.6482449724
 10
268.7091095473
 20
45.3098950065
 10
268.5472372424
 20
44.9835041155
 10
268.2781737624
 20
44.6816153182
  0
LWPOLYLINE
  5
201
330
1F
100
AcDbEntity
  8
0
  6
Continuous
 62
     7
370
    15
100
AcDbPolyline
 90
       25
 70
   128
 43
0.0
 10
267.2280758597
 20
45.2771985854
 10
266.9322816188
 20
45.0762144934
 10
266.5564578552
 20
44.9262742892
 10
266.1262163373
 20
44.8375961501
 10
265.6708773136
 20
44.8162233446
 10
265.221471386
 20
44.8636123941
 10
264.8086248259
 20
44.9765338132
 10
264.460472444
 20
45.1472921938
 10
264.2007402498
 20
45.3642506344
 10
264.0471285632
 20
45.6126237759
 10
264.0101057666
 20
45.8754853991
 10
264.0921949026
 20
46.1349219188
 10
264.2878017322
 20
46.373253165
 10
264.5835959731
 20
46.574237257
 10
264.9594197367
 20
46.7241774611
 10
265.3896612545
 20
46.8128556003
 10
265.8450002783
 20
46.8342284058
 10
266.2944062058
 20
46.7868393563
 10
266.707252766
 20
46.6739179372
 10
267.0554051479
 20
46.5031595566
 10
267.315137342
 20
46.286201116
 10
267.4687490287
 20
46.0378279745
 10
267.5057718252
 20
45.7749663512
 10
267.4236826892
 20
45.5155298315
 10
267.2280758597
 20
45.2771985854
  0
SPLINE
  5
202
330
1F
100
AcDbEntity
  8
0
  6
Continuous
 62
     7
370
    15
100
AcDbSpline
210
0.0
220
0.0
230
1.0
 70
     8
 71
     3
 72
    10
 73
     6
 74
     0
 42
0.000000001
 43
0.00000001
 40
0.0
 40
0.0
 40
0.0
 40
0.0
 40
0.2363193812418529
 40
0.8531438380251539
 40
1.0
 40
1.0
 40
1.0
 40
1.0
 10
267.4878448587235
 20
45.76082559899733
 30
0.0
 10
267.4485380404263
 20
45.698321072422
 30
0.0
 10
267.3066352915004
 20
45.47267156616402
 30
0.0
 10
267.1202641262823
 20
45.21231247210268
 30
0.0
 10
266.981702750291
 20
45.13141483366149
 30
0.0
 10
266.9550573289248
 20
45.11585817764261
 30
0.0
  0
SPLINE
  5
203
330
1F
100
AcDbEntity
  8
0
  6
Continuous
 62
     7
370
    15
100
AcDbSpline
210
0.0
220
0.0
230
1.0
 70
     8
 71
     3
 72
    11
 73
     7
 74
     0
 42
0.000000001
 43
0.00000001
 40
0.0
 40
0.0
 40
0.0
 40
0.0
 40
0.2164553779443438
 40
0.4403112895790541
 40
0.7519005688038668
 40
1.0
 40
1.0
 40
1.0
 40
1.0
 10
266.6975159550398
 20
46.6505569249418
 30
0.0
 10
266.7516542506998
 20
46.5452475517618
 30
0.0
 10
266.8617818114196
 20
46.33102831475315
 30
0.0
 10
267.0661491508688
 20
46.02574135632047
 30
0.0
 10
267.2853697816364
 20
45.82429758680944
 30
0.0
 10
267.4256578212212
 20
45.78032002242567
 30
0.0
 10
267.4878448587235
 20
45.76082559899733
 30
0.0
  0
SPLINE
  5
204
330
1F
100
AcDbEntity
  8
0
  6
Continuous
 62
     7
370
    15
100
AcDbSpline
210
0.0
220
0.0
230
1.0
 70
     8
 71
     3
 72
    11
 73
     7
 74
     0
 42
0.000000001
 43
0.00000001
 40
0.0
 40
0.0
 40
0.0
 40
0.0
 40
0.216455377944347
 40
0.4403112895790545
 40
0.7519005688038674
 40
1.0
 40
1.0
 40
1.0
 40
1.0
 10
264.9676098922479
 20
46.70030095296353
 30
0.0
 10
265.0861101336727
 20
46.65253152356345
 30
0.0
 10
265.3271620983441
 20
46.55535944467423
 30
0.0
 10
265.7744901637888
 20
46.46728075035469
 30
0.0
 10
266.2543297552378
 20
46.4988318067056
 30
0.0
 10
266.5613982795999
 20
46.60395693963228
 30
0.0
 10
266.6975159550398
 20
46.6505569249418
 30
0.0
  0
SPLINE
  5
205
330
1F
100
AcDbEntity
  8
0
  6
Continuous
 62
     7
370
    15
100
AcDbSpline
210
0.0
220
0.0
230
1.0
 70
     8
 71
     3
 72
    11
 73
     7
 74
     0
 42
0.000000001
 43
0.00000001
 40
0.0
 40
0.0
 40
0.0
 40
0.0
 40
0.1843643438496183
 40
0.5174526391740237
 40
0.8663352079125943
 40
1.0
 40
1.0
 40
1.0
 40
1.0
 10
264.0280327331397
 20
45.86031365504076
 30
0.0
 10
264.0825551047541
 20
45.87095104031435
 30
0.0
 10
264.2355822275526
 20
45.90080683004459
 30
0.0
 10
264.5206853927897
 20
46.07610784751841
 30
0.0
 10
264.7861471992734
 20
46.40886595805168
 30
0.0
 10
264.9282481675344
 20
46.63708474111552
 30
0.0
 10
264.9676098922478
 20
46.70030095296352
 30
0.0
  0
SPLINE
  5
206
330
1F
100
AcDbEntity
  8
0
  6
Continuous
 62
     7
370
    15
100
AcDbSpline
210
0.0
220
0.0
230
1.0
 70
     8
 71
     3
 72
    10
 73
     6
 74
     0
 42
0.000000001
 43
0.00000001
 40
0.0
 40
0.0
 40
0.0
 40
0.0
 40
0.2741529421030283
 40
0.678245712578011
 40
1.0
 40
1.0
 40
1.0
 40
1.0
 10
264.6435739676046
 20
45.0418499842357
 30
0.0
 10
264.5870575166645
 20
45.07988609101575
 30
0.0
 10
264.4472376035671
 20
45.17398621683904
 30
0.0
 10
264.2302868569616
 20
45.469328726219
 30
0.0
 10
264.0901519083195
 20
45.74022877950304
 30
0.0
 10
264.0280327331397
 20
45.86031365504076
 30
0.0
  0
LINE
  5
207
330
1F
100
AcDbEntity
  8
0
  6
Continuous
 62
     7
370
    15
100
AcDbLine
 10
266.697515955
 20
44.9729304572
 30
0.0
 11
266.697515955
 21
46.6505569249
 31
0.0
  0
LINE
  5
208
330
1F
100
AcDbEntity
  8
0
  6
Continuous
 62
     7
370
    15
100
AcDbLine
 10
264.9676098922
 20
44.9238654305
 30
0.0
 11
264.9676098922
 21
46.700300953
 31
0.0
  0
LWPOLYLINE
  5
209
330
1F
100
AcDbEntity
  8
0
  6
Continuous
 62
     7
370
    15
100
AcDbPolyline
 90
       75
 70
   128
 43
0.0
 10
271.432470715
 20
42.3044260829
 10
270.4909912597
 20
41.7147384795
 10
269.5562951856
 20
41.0369334231
 10
268.6351169991
 20
40.2758945148
 10
267.7340938102
 20
39.4371050573
 10
266.8597175117
 20
38.526608548
 10
266.0182880048
 20
37.5509651349
 10
265.2158678084
 20
36.5172043513
 10
264.4582383784
 20
35.4327744673
 10
263.7508584522
 20
34.3054888251
 10
263.0988247183
 20
33.1434695435
 10
262.5068350948
 20
31.9550889982
 10
261.9791548805
 20
30.748909498
 10
261.5195860235
 20
29.5336215941
 10
261.1314397277
 20
28.3179814636
 10
260.8175125963
 20
27.1107478215
 10
260.5800664814
 20
25.9206188138
 10
260.4208121876
 20
24.7561693473
 10
260.3408971459
 20
23.6257893071
 10
260.3408971459
 20
22.5376231073
 10
260.4208121876
 20
21.4995110103
 10
260.5800664814
 20
20.5189326376
 10
260.8175125963
 20
19.6029530788
 10
261.1314397277
 20
18.7581719876
 10
261.5195860235
 20
17.9906760311
 10
261.9791548805
 20
17.3059950353
 10
262.5068350948
 20
16.7090621424
 10
263.0988247183
 20
16.2041782676
 10
263.7508584522
 20
15.7949811109
 10
264.4582383784
 20
15.484418947
 10
265.2158678084
 20
15.2747293836
 10
266.0182880048
 20
15.1674232386
 10
266.8597175117
 20
15.1632736554
 10
267.7340938102
 20
15.2623105318
 10
268.6351169991
 20
15.4638203048
 10
269.5562951856
 20
15.7663510919
 10
270.4909912597
 20
16.1677231518
 10
271.432470715
 20
16.6650445897
 10
272.3739501702
 20
17.2547321932
 10
273.3086462443
 20
17.9325372496
 10
274.2298244308
 20
18.6935761579
 10
275.1308476197
 20
19.5323656153
 10
276.0052239182
 20
20.4428621247
 10
276.8466534251
 20
21.4185055377
 10
277.6490736215
 20
22.4522663213
 10
278.4067030515
 20
23.5366962053
 10
279.1140829778
 20
24.6639818475
 10
279.7661167116
 20
25.8260011291
 10
280.3581063351
 20
27.0143816745
 10
280.8857865494
 20
28.2205611746
 10
281.3453554064
 20
29.4358490785
 10
281.7335017022
 20
30.651489209
 10
282.0474288336
 20
31.8587228512
 10
282.2848749485
 20
33.0488518589
 10
282.4441292423
 20
34.2133013254
 10
282.524044284
 20
35.3436813655
 10
282.524044284
 20
36.4318475653
 10
282.4441292423
 20
37.4699596623
 10
282.2848749485
 20
38.450538035
 10
282.0474288336
 20
39.3665175938
 10
281.7335017022
 20
40.2112986851
 10
281.3453554064
 20
40.9787946416
 10
280.8857865494
 20
41.6634756374
 10
280.3581063351
 20
42.2604085303
 10
279.7661167116
 20
42.765292405
 10
279.1140829778
 20
43.1744895618
 10
278.4067030515
 20
43.4850517256
 10
277.6490736215
 20
43.6947412891
 10
276.8466534251
 20
43.802047434
 10
276.0052239182
 20
43.8061970172
 10
275.1308476197
 20
43.7071601408
 10
274.2298244308
 20
43.5056503678
 10
273.3086462443
 20
43.2031195807
 10
272.3739501702
 20
42.8017475208
 10
271.432470715
 20
42.3044260829
  0
LWPOLYLINE
  5
20A
330
1F
100
AcDbEntity
  8
0
  6
Continuous
 62
     7
370
    15
100
AcDbPolyline
 90
       39
 70
   128
 43
0.0
 10
271.2203386806
 20
42.6718495433
 10
270.2736319533
 20
42.0795078058
 10
269.3335656935
 20
41.3996817662
 10
268.4067337906
 20
40.6371399157
 10
267.4996373044
 20
39.7972309375
 10
266.618638865
 20
38.8858461897
 10
265.7699180435
 20
37.9093783813
 10
264.9594280067
 20
36.8746767326
 10
264.1928537597
 20
35.788998932
 10
263.4755722703
 20
34.6599602294
 10
262.8126147526
 20
33.49548002
 10
262.2086313774
 20
32.3037262959
 10
261.6678586539
 20
31.093058353
 10
261.1940897144
 20
29.8719681572
 10
260.7906477076
 20
28.6490207788
 10
260.4603624892
 20
27.432794315
 10
260.2055507727
 20
26.2318197207
 10
260.0279998793
 20
25.0545209696
 10
259.928955201
 20
23.9091559666
 10
259.9091114648
 20
22.8037586243
 10
259.9686078605
 20
21.7460825108
 10
260.1070270636
 20
20.7435464641
 10
260.3233981627
 20
19.8031825543
 10
260.6162034701
 20
18.9315867585
 10
260.983389167
 20
18.134872695
 10
261.4223797095
 20
17.4186287405
 10
261.9300958943
 20
16.7878788317
 10
262.5029764572
 20
16.2470472261
 10
263.1370030527
 20
15.7999274687
 10
263.8277284398
 20
15.4496557835
 10
264.5703076762
 20
15.1986890746
 10
265.3595321019
 20
15.0487876931
 10
266.1898658749
 20
15.0010030896
 10
267.0554848002
 20
15.0556704388
 10
267.950317183
 20
15.2124062883
 10
268.8680864172
 20
15.4701112489
 10
269.8023550108
 20
15.8269777055
 10
270.7465697411
 20
16.2805024962
 10
271.2221774764
 20
16.5436052497
  0
LWPOLYLINE
  5
20B
330
1F
100
AcDbEntity
  8
0
  6
Continuous
 62
     7
370
    15
100
AcDbPolyline
 90
       20
 70
   128
 43
0.0
 10
282.5340471796
 20
36.1384614477
 10
282.5117221602
 20
36.9459098371
 10
282.4126774819
 20
37.9769202885
 10
282.2351265885
 20
38.9492231415
 10
281.980314872
 20
39.8559983903
 10
281.6500296536
 20
40.690885658
 10
281.2465876468
 20
41.4480288101
 10
280.7728187073
 20
42.1221170317
 10
280.2320459838
 20
42.708422078
 10
279.6280626086
 20
43.2028314405
 10
278.9651050909
 20
43.6018771927
 10
278.2478236015
 20
43.9027603154
 10
277.4812493545
 20
44.1033703296
 10
276.6707593177
 20
44.2023001003
 10
275.8220384962
 20
44.1988557062
 10
274.9410400568
 20
44.0930613072
 10
274.0339435706
 20
43.885658975
 10
273.1071116677
 20
43.578103488
 10
272.1670454079
 20
43.172552127
 10
271.2203386806
 20
42.6718495433
  0
LWPOLYLINE
  5
20C
330
1F
100
AcDbEntity
  8
0
  6
Continuous
 62
     7
370
    15
100
AcDbPolyline
 90
       30
 70
   128
 43
0.0
 10
268.6040435902
 20
44.1822045501
 10
267.6573368629
 20
43.5898628126
 10
266.7172706031
 20
42.910036773
 10
265.7904387002
 20
42.1474949226
 10
264.883342214
 20
41.3075859444
 10
264.0023437746
 20
40.3962011966
 10
263.1536229531
 20
39.4197333882
 10
262.3431329163
 20
38.3850317395
 10
261.5765586693
 20
37.2993539389
 10
260.8592771799
 20
36.1703152363
 10
260.1963196622
 20
35.0058350269
 10
259.592336287
 20
33.8140813027
 10
259.0515635635
 20
32.6034133599
 10
258.577794624
 20
31.382323164
 10
258.1743526172
 20
30.1593757857
 10
257.8440673988
 20
28.9431493219
 10
257.5892556823
 20
27.7421747275
 10
257.411704789
 20
26.5648759764
 10
257.3126601106
 20
25.4195109734
 10
257.2928163745
 20
24.3141136312
 10
257.3523127702
 20
23.2564375177
 10
257.4907319732
 20
22.253901471
 10
257.7071030723
 20
21.3135375611
 10
257.9999083797
 20
20.4419417653
 10
258.3670940766
 20
19.6452277018
 10
258.8060846191
 20
18.9289837473
 10
259.3138008039
 20
18.2982338386
 10
259.8866813668
 20
17.7574022329
 10
260.5207079624
 20
17.3102824756
 10
260.6046937291
 20
17.2607697619
  0
LWPOLYLINE
  5
20D
330
1F
100
AcDbEntity
  8
0
  6
Continuous
 62
     7
370
    15
100
AcDbPolyline
 90
       11
 70
   128
 43
0.0
 10
276.6033934513
 20
44.9743333581
 10
276.3488100005
 20
45.1122321996
 10
275.6315285111
 20
45.4131153223
 10
274.8649542641
 20
45.6137253365
 10
274.0544642273
 20
45.7126551072
 10
273.2057434058
 20
45.7092107131
 10
272.3247449664
 20
45.6034163141
 10
271.4176484802
 20
45.3960139819
 10
270.4908165773
 20
45.0884584949
 10
269.5507503175
 20
44.6829071339
 10
268.6040435902
 20
44.1822045501
  0
LINE
  5
20E
330
1F
100
AcDbEntity
  8
0
  6
Continuous
 62
     7
370
    15
100
AcDbLine
 10
277.4424400357
 20
29.4889136236
 30
0.0
 11
279.6172317071
 21
32.1943337875
 31
0.0
  0
SPLINE
  5
20F
330
1F
100
AcDbEntity
  8
0
  6
Continuous
 62
     7
370
    15
100
AcDbSpline
210
0.0
220
0.0
230
1.0
 70
     8
 71
     3
 72
    20
 73
    16
 74
     0
 42
0.000000001
 43
0.00000001
 40
0.0
 40
0.0
 40
0.0
 40
0.0
 40
0.0469163091108927
 40
0.0977062414429345
 40
0.151668963303151
 40
0.2078463383218538
 40
0.2651938476233425
 40
0.3192095203174493
 40
0.3728953068123798
 40
0.4259306594991007
 40
0.4781535685998868
 40
0.5793596734499773
 40
0.6698058354121831
 40
0.8327057026615072
 40
0.9074992363786811
 40
0.9074992363786811
 40
0.9074992363786811
 40
0.9074992363786811
 10
279.6172317071476
 20
32.19433378750469
 30
0.0
 10
279.7175630514868
 20
32.31914502603052
 30
0.0
 10
279.9166157385188
 20
32.59464707166148
 30
0.0
 10
280.1825748618682
 20
33.0542163933349
 30
0.0
 10
280.4089890661924
 20
33.56425845187101
 30
0.0
 10
280.5740161448024
 20
34.10079439605556
 30
0.0
 10
280.6569508890945
 20
34.62185110881064
 30
0.0
 10
280.6519132313026
 20
35.09559821733337
 30
0.0
 10
280.5631797575828
 20
35.49827547847153
 30
0.0
 10
280.3959088079206
 20
35.81830422429269
 30
0.0
 10
280.0933275220764
 20
36.12561066162588
 30
0.0
 10
279.5923156448446
 20
36.24388060212787
 30
0.0
 10
278.8803770703118
 20
36.28277649429196
 30
0.0
 10
278.3796822720449
 20
36.33623326903577
 30
0.0
 10
277.6749683286043
 20
36.39947128709613
 30
0.0
 10
277.4420656220911
 20
36.4201695488433
 30
0.0
  0
SPLINE
  5
210
330
1F
100
AcDbEntity
  8
0
  6
Continuous
 62
     7
370
    15
100
AcDbSpline
210
0.0
220
0.0
230
1.0
 70
     8
 71
     3
 72
    20
 73
    16
 74
     0
 42
0.000000001
 43
0.00000001
 40
0.0
 40
0.0
 40
0.0
 40
0.0
 40
0.0469163091108926
 40
0.0977062414429343
 40
0.151668963303151
 40
0.2078463383218538
 40
0.2651938476233425
 40
0.3192095203174492
 40
0.3728953068123798
 40
0.4259306594991006
 40
0.4781535685998868
 40
0.5793596734499774
 40
0.6698058354121832
 40
0.8327057026615076
 40
0.9074992363786815
 40
0.9074992363786815
 40
0.9074992363786815
 40
0.9074992363786815
 10
263.2477097226793
 20
22.74440989315706
 30
0.0
 10
263.1473783783401
 20
22.75338102723472
 30
0.0
 10
262.9483256913081
 20
22.7990617323033
 30
0.0
 10
262.6823665679587
 20
22.95156118632347
 30
0.0
 10
262.4559523636344
 20
23.20019096886358
 30
0.0
 10
262.2909252850245
 20
23.54619070376233
 30
0.0
 10
262.2079905407324
 20
23.97149299894782
 30
0.0
 10
262.2130281985243
 20
24.45105646335247
 30
0.0
 10
262.3017616722441
 20
24.95618321254886
 30
0.0
 10
262.4690326219063
 20
25.46933888602767
 30
0.0
 10
262.7716139077506
 20
26.12599823981077
 30
0.0
 10
263.2726257849823
 20
26.82272418098238
 30
0.0
 10
263.9845643595151
 20
27.68360685482142
 30
0.0
 10
264.485259157782
 20
28.31515353865451
 30
0.0
 10
265.1899731012226
 20
29.19203695688202
 30
0.0
 10
265.4228758077357
 20
29.4816389597923
 30
0.0
  0
LINE
  5
211
330
1F
100
AcDbEntity
  8
0
  6
Continuous
 62
     7
370
    15
100
AcDbLine
 10
265.4225013941
 20
22.5499507458
 30
0.0
 11
263.2477097227
 21
22.7444098932
 31
0.0
  0
LWPOLYLINE
  5
212
330
1F
100
AcDbEntity
  8
0
  6
Continuous
 62
     7
370
    15
100
AcDbPolyline
 90
       20
 70
   128
 43
0.0
 10
268.846904962
 20
44.2785585516
 10
268.1317551786
 20
43.8573071049
 10
267.1904911194
 20
43.2226542801
 10
266.2591421151
 20
42.5030928573
 10
265.3442409098
 20
41.7036700427
 10
264.4522048782
 20
40.8299932132
 10
263.589291012
 20
39.8881905838
 10
262.7615520321
 20
38.8848682233
 10
261.9747939327
 20
37.8270637173
 10
261.2345352564
 20
36.7221968043
 10
260.5459683862
 20
35.5780173318
 10
259.9139231238
 20
34.4025508967
 10
259.3428328126
 20
33.2040425516
 10
258.8367032409
 20
31.9908989713
 10
258.3990845438
 20
30.7716294864
 10
258.0330463023
 20
29.5547863964
 10
257.7411560114
 20
28.3489049811
 10
257.525461072
 20
27.1624436322
 10
257.387474429
 20
26.0037245238
 10
257.3516140466
 20
25.5041909302
  0
SPLINE
  5
213
330
1F
100
AcDbEntity
  8
0
  6
Continuous
 62
     7
370
    15
100
AcDbSpline
210
0.0
220
0.0
230
1.0
 70
     8
 71
     3
 72
    40
 73
    36
 74
     0
 42
0.000000001
 43
0.00000001
 40
0.0
 40
0.0
 40
0.0
 40
0.0
 40
0.0273717308708195
 40
0.0553615585784314
 40
0.0859777259528734
 40
0.1176736989007426
 40
0.1453966451192477
 40
0.1740182146772065
 40
0.2003293414200731
 40
0.2273573128073746
 40
0.2546216449985105
 40
0.2825528402573054
 40
0.3123410295471981
 40
0.3428530289780074
 40
0.3754339511557853
 40
0.4088633864064192
 40
0.4432239587929408
 40
0.4785507111771487
 40
0.513410545728509
 40
0.5493090295028135
 40
0.5836132752962744
 40
0.6190401201237581
 40
0.651176881472339
 40
0.6844703222369356
 40
0.7132411603179357
 40
0.7429981111282928
 40
0.7695247140191839
 40
0.7968174359347353
 40
0.8235136811952654
 40
0.8508803584442923
 40
0.8796804911329273
 40
0.9091743438687604
 40
0.9408389355158067
 40
0.9733045619949247
 40
1.0
 40
1.0
 40
1.0
 40
1.0
 10
265.7069937441787
 20
47.40244972325185
 30
0.0
 10
265.5446877529337
 20
47.41905554591004
 30
0.0
 10
265.2164106452728
 20
47.45264217688248
 30
0.0
 10
264.7095429415477
 20
47.44730067017881
 30
0.0
 10
264.1962230268279
 20
47.38756440464757
 30
0.0
 10
263.721952179939
 20
47.26235046875354
 30
0.0
 10
263.3118273225475
 20
47.0802311383652
 30
0.0
 10
262.9868140396295
 20
46.85985352395749
 30
0.0
 10
262.7324665890913
 20
46.60145800050394
 30
0.0
 10
262.5519323731284
 20
46.31792071065739
 30
0.0
 10
262.4419946722622
 20
46.00843941160132
 30
0.0
 10
262.4054518845413
 20
45.6779912126308
 30
0.0
 10
262.4482329408198
 20
45.33440264004264
 30
0.0
 10
262.5771695622488
 20
44.98375071185891
 30
0.0
 10
262.7961772587549
 20
44.64250175734831
 30
0.0
 10
263.1084114391298
 20
44.32408863434699
 30
0.0
 10
263.5088010630978
 20
44.0453686999971
 30
0.0
 10
263.986403554945
 20
43.82144558507491
 30
0.0
 10
264.5309060235621
 20
43.66003254224851
 30
0.0
 10
265.1158853502374
 20
43.5689178143558
 30
0.0
 10
265.733188813495
 20
43.54671409769245
 30
0.0
 10
266.3401905482168
 20
43.59075452466056
 30
0.0
 10
266.9323263235174
 20
43.69433482007747
 30
0.0
 10
267.4591324403234
 20
43.84154524637984
 30
0.0
 10
267.9273559102891
 20
44.02569838765889
 30
0.0
 10
268.3066665648665
 20
44.22609021440663
 30
0.0
 10
268.614596132314
 20
44.4441938884267
 30
0.0
 10
268.8443743851544
 20
44.66832663082911
 30
0.0
 10
269.0044000733542
 20
44.90354856226384
 30
0.0
 10
269.0930008083627
 20
45.14773551499825
 30
0.0
 10
269.1060410305276
 20
45.4013679654193
 30
0.0
 10
269.0384407302687
 20
45.66592104834577
 30
0.0
 10
268.8817379413794
 20
45.93584143116924
 30
0.0
 10
268.6584270617106
 20
46.19135078017737
 30
0.0
 10
268.4521113844391
 20
46.34706759454587
 30
0.0
 10
268.3590148957249
 20
46.41733219509972
 30
0.0
  0
ARC
  5
214
330
1F
100
AcDbEntity
  8
0
  6
Continuous
 62
     7
370
    15
100
AcDbCircle
 10
258.7220730956
 20
26.5797978049
 30
0.0
 40
6.890847990550858
100
AcDbArc
 50
188.312493873
 51
236.7139908619
  0
SPLINE
  5
215
330
1F
100
AcDbEntity
  8
0
  6
Continuous
 62
     7
370
    15
100
AcDbSpline
210
0.0
220
0.0
230
1.0
 70
     8
 71
     3
 72
    29
 73
    25
 74
     0
 42
0.000000001
 43
0.00000001
 40
0.0
 40
0.0
 40
0.0
 40
0.0
 40
0.022617010502982
 40
0.0451713142234827
 40
0.0676870228481674
 40
0.090188372124564
 40
0.1126996441669553
 40
0.135245089016726
 40
0.157848846718656
 40
0.1805348711553472
 40
0.203326856817001
 40
0.226248169577316
 40
0.2493217824051311
 40
0.3751991801869133
 40
0.4999614246460243
 40
0.499971796076141
 40
0.6247044141173818
 40
0.750955787940111
 40
0.7931713871206999
 40
0.8349081045078312
 40
0.8763104515950731
 40
0.917526457635271
 40
0.9587061619428757
 40
0.9999999999999999
 40
0.9999999999999999
 40
0.9999999999999999
 40
0.9999999999999999
 10
251.90377971816
 20
30.73782766127609
 30
0.0
 10
251.9221449432825
 20
30.68898777147454
 30
0.0
 10
251.9588244750308
 20
30.59144340288636
 30
0.0
 10
252.0105143036949
 20
30.4439807934815
 30
0.0
 10
252.0596956635169
 20
30.29604350395874
 30
0.0
 10
252.1061853334156
 20
30.14755163872616
 30
0.0
 10
252.1500954298745
 20
29.99855967259322
 30
0.0
 10
252.1914606213301
 20
29.84908788401513
 30
0.0
 10
252.2303379080352
 20
29.69916778070708
 30
0.0
 10
252.2667797530582
 20
29.54882897072717
 30
0.0
 10
252.300841734146
 20
29.39810651910412
 30
0.0
 10
252.3325787872444
 20
29.24702482237114
 30
0.0
 10
252.4057370591181
 20
28.87130361542521
 30
0.0
 10
252.4914135991547
 20
28.28253319370468
 30
0.0
 10
252.5171459609771
 20
27.78104958971888
 30
0.0
 10
252.5175831172051
 20
27.31059676443437
 30
0.0
 10
252.4921520604989
 20
26.86415423456207
 30
0.0
 10
252.4001847444528
 20
26.42812756306702
 30
0.0
 10
252.307630850397
 20
26.15993468046252
 30
0.0
 10
252.2440482265037
 20
26.01368356962744
 30
0.0
 10
252.1724027224666
 20
25.88276323778168
 30
0.0
 10
252.092147948156
 20
25.76731690533116
 30
0.0
 10
252.0037462885671
 20
25.6657949008864
 30
0.0
 10
251.9373896346602
 20
25.61079602392313
 30
0.0
 10
251.9041653927776
 20
25.58325852943064
 30
0.0
  0
LWPOLYLINE
  5
216
330
1F
100
AcDbEntity
  8
0
  6
Continuous
 62
     7
370
    15
100
AcDbPolyline
 90
       27
 70
   128
 43
0.0
 10
251.903560977
 20
30.7379539379
 10
252.1341989915
 20
31.9384502743
 10
252.4429850889
 20
33.157394649
 10
252.8276598945
 20
34.3858680986
 10
253.2854087595
 20
35.614881936
 10
253.8128823552
 20
36.83544352
 10
254.40622118
 20
38.0386220542
 10
255.0610837994
 20
39.2156139332
 10
255.7726786119
 20
40.3578071583
 10
256.535798909
 20
41.456844351
 10
257.3448609723
 20
42.5046839035
 10
258.1939449299
 20
43.4936588193
 10
259.0768380709
 20
44.4165328114
 10
259.9870803044
 20
45.2665532507
 10
260.9180114274
 20
46.0375005745
 10
261.8628198569
 20
46.7237337944
 10
262.8145924705
 20
47.3202317716
 10
263.7663651891
 20
47.8226299561
 10
264.7111739328
 20
48.2272523222
 10
265.6421055769
 20
48.5311382655
 10
266.5523485346
 20
48.7320642656
 10
267.4352425976
 20
48.8285601557
 10
268.2843276682
 20
48.8199198795
 10
269.0933910276
 20
48.7062066575
 10
269.856512794
 20
48.4882525245
 10
270.5681092386
 20
48.1676522415
 10
270.6889668388
 20
48.0999918502
  0
SPLINE
  5
217
330
1F
100
AcDbEntity
  8
0
  6
Continuous
 62
     7
370
    15
100
AcDbSpline
210
0.0
220
0.0
230
1.0
 70
     8
 71
     3
 72
    18
 73
    14
 74
     0
 42
0.000000001
 43
0.00000001
 40
0.0
 40
0.0
 40
0.0
 40
0.0
 40
0.2499999999999961
 40
0.2499999999999961
 40
0.4999999999999922
 40
0.4999999999999922
 40
0.6249999999999941
 40
0.6249999999999941
 40
0.7499999999999961
 40
0.7499999999999961
 40
0.874999999999998
 40
0.874999999999998
 40
1.0
 40
1.0
 40
1.0
 40
1.0
 10
277.4420656221012
 20
36.42016954887639
 30
0.0
 10
277.408365031344
 20
36.42316454905897
 30
0.0
 10
277.3722009568179
 20
36.42480189069604
 30
0.0
 10
277.291912824801
 20
36.42368858318338
 30
0.0
 10
277.2468391292263
 20
36.42095070158881
 30
0.0
 10
277.1724843407063
 20
36.41007782977584
 30
0.0
 10
277.1458339479061
 20
36.40515248721441
 30
0.0
 10
277.0923079974099
 20
36.3922720897887
 30
0.0
 10
277.0651039388669
 20
36.38416485519038
 30
0.0
 10
277.0158005902403
 20
36.36608682079663
 30
0.0
 10
276.993475566252
 20
36.35609679406374
 30
0.0
 10
276.9550815452801
 20
36.33597761007951
 30
0.0
 10
276.9392114883511
 20
36.32606138005979
 30
0.0
 10
276.9254093162941
 20
36.31628657625487
 30
0.0
  0
SPLINE
  5
218
330
1F
100
AcDbEntity
  8
0
  6
Continuous
 62
     7
370
    15
100
AcDbSpline
210
0.0
220
0.0
230
1.0
 70
     8
 71
     3
 72
    10
 73
     6
 74
     0
 42
0.000000001
 43
0.00000001
 40
0.0
 40
0.0
 40
0.0
 40
0.0
 40
0.5
 40
0.5
 40
1.0
 40
1.0
 40
1.0
 40
1.0
 10
276.9254093162942
 20
36.31628657625487
 30
0.0
 10
276.8809715222257
 20
36.33144097486004
 30
0.0
 10
276.835074908243
 20
36.34845448838237
 30
0.0
 10
276.7472396368528
 20
36.38539177322789
 30
0.0
 10
276.7053091501081
 20
36.40540507618263
 30
0.0
 10
276.67087504459
 20
36.42528346217485
 30
0.0
  0
LINE
  5
219
330
1F
100
AcDbEntity
  8
0
  6
Continuous
 62
     7
370
    15
100
AcDbLine
 10
275.6393764766
 20
37.4472014379
 30
0.0
 11
275.5785516212
 21
37.4832771257
 31
0.0
  0
SPLINE
  5
21A
330
1F
100
AcDbEntity
  8
0
  6
Continuous
 62
     7
370
    15
100
AcDbSpline
210
0.0
220
0.0
230
1.0
 70
     8
 71
     3
 72
    11
 73
     7
 74
     0
 42
0.000000001
 43
0.00000001
 40
0.0
 40
0.0
 40
0.0
 40
0.0
 40
0.1169192000483607
 40
0.3315474501588953
 40
0.7096141253565325
 40
1.0
 40
1.0
 40
1.0
 40
1.0
 10
265.6311692406942
 20
29.77469685422356
 30
0.0
 10
265.6284640845395
 20
29.76797037158098
 30
0.0
 10
265.6207930807605
 20
29.74889610347305
 30
0.0
 10
265.576940437052
 20
29.68174025895032
 30
0.0
 10
265.5074633974452
 20
29.58786418937534
 30
0.0
 10
265.4484933055764
 20
29.51380945427744
 30
0.0
 10
265.4228758078061
 20
29.48163895986013
 30
0.0
  0
SPLINE
  5
21B
330
1F
100
AcDbEntity
  8
0
  6
Continuous
 62
     7
370
    15
100
AcDbSpline
210
0.0
220
0.0
230
1.0
 70
     8
 71
     3
 72
    20
 73
    16
 74
     0
 42
0.000000001
 43
0.00000001
 40
0.0
 40
0.0
 40
0.0
 40
0.0
 40
0.0769486224189088
 40
0.1544312349151669
 40
0.2335987080599511
 40
0.3133489781159408
 40
0.3902914771442539
 40
0.4677684703551067
 40
0.546930275831933
 40
0.6266738049244108
 40
0.7036273387306402
 40
0.7811143380493811
 40
0.8602840604317282
 40
0.9400358064684974
 40
1.0
 40
1.0
 40
1.0
 40
1.0
 10
263.1593213750308
 20
23.07427268570331
 30
0.0
 10
263.1159685545328
 20
23.07977273625161
 30
0.0
 10
263.0289620637588
 20
23.09081100531438
 30
0.0
 10
262.9061460515053
 20
23.12841068353801
 30
0.0
 10
262.7893231333561
 20
23.18206026396808
 30
0.0
 10
262.6816069881601
 20
23.25261792437999
 30
0.0
 10
262.5839519333255
 20
23.33841646335053
 30
0.0
 10
262.4963854249446
 20
23.43899362843227
 30
0.0
 10
262.4185412957034
 20
23.55539290108021
 30
0.0
 10
262.3524399566671
 20
23.68542279982936
 30
0.0
 10
262.298773717853
 20
23.82713215291146
 30
0.0
 10
262.257448726425
 20
23.97972299794779
 30
0.0
 10
262.2291221345529
 20
24.1447930562759
 30
0.0
 10
262.2140838812188
 20
24.30544586691387
 30
0.0
 10
262.214932455256
 20
24.41361347330365
 30
0.0
 10
262.2152966517675
 20
24.46003754849105
 30
0.0
  0
LINE
  5
21C
330
1F
100
AcDbEntity
  8
0
  6
Continuous
 62
     7
370
    15
100
AcDbLine
 10
274.1888407486
 20
37.8581313622
 30
0.0
 11
276.6708750446
 21
36.4252834622
 31
0.0
  0
ARC
  5
21D
330
1F
100
AcDbEntity
  8
0
  6
Continuous
 62
     7
370
    15
100
AcDbCircle
 10
261.0192413746
 20
36.5892908399
 30
0.0
 40
10.8956480205709
100
AcDbArc
 50
338.4813328718
 51
3.8042505975
  0
LINE
  5
21E
330
1F
100
AcDbEntity
  8
0
  6
Continuous
 62
     7
370
    15
100
AcDbLine
 10
271.1554421513
 20
32.5927198593
 30
0.0
 11
276.6708750446
 21
29.4087282232
 31
0.0
  0
LINE
  5
21F
330
1F
100
AcDbEntity
  8
0
  6
Continuous
 62
     7
370
    15
100
AcDbLine
 10
266.5186905036
 20
21.930331781
 30
0.0
 11
266.5792830275
 21
21.8943976028
 31
0.0
  0
LINE
  5
220
330
1F
100
AcDbEntity
  8
0
  6
Continuous
 62
     7
370
    15
100
AcDbLine
 10
262.2911329364
 20
24.7973027316
 30
0.0
 11
265.4869596041
 21
22.9523912664
 31
0.0
  0
SPLINE
  5
221
330
1F
100
AcDbEntity
  8
0
  6
Continuous
 62
     7
370
    15
100
AcDbSpline
210
0.0
220
0.0
230
1.0
 70
     8
 71
     3
 72
     8
 73
     4
 74
     0
 42
0.000000001
 43
0.00000001
 40
0.0
 40
0.0
 40
0.0
 40
0.0
 40
1.0
 40
1.0
 40
1.0
 40
1.0
 10
251.1256245799849
 20
34.01673106478044
 30
0.0
 10
250.4325533449321
 20
33.90086944640574
 30
0.0
 10
249.7389325785359
 20
33.78611075325269
 30
0.0
 10
249.0449534177085
 20
33.67209920561452
 30
0.0
  0
SPLINE
  5
222
330
1F
100
AcDbEntity
  8
0
  6
Continuous
 62
     7
370
    15
100
AcDbSpline
210
0.0
220
0.0
230
1.0
 70
     8
 71
     3
 72
     8
 73
     4
 74
     0
 42
0.000000001
 43
0.00000001
 40
0.0
 40
0.0
 40
0.0
 40
0.0
 40
0.0012389803509652
 40
0.0012389803509652
 40
0.0012389803509652
 40
0.0012389803509652
 10
248.571217003563
 20
33.94563332636854
 30
0.0
 10
248.729290338544
 20
33.85436224591803
 30
0.0
 10
248.88720851751
 20
33.76318071881777
 30
0.0
 10
249.0449534177085
 20
33.67209920561452
 30
0.0
  0
LWPOLYLINE
  5
223
330
1F
100
AcDbEntity
  8
0
  6
Continuous
 62
     7
370
    15
100
AcDbPolyline
 90
       28
 70
   128
 43
0.0
 10
248.5712170036
 20
33.9456333264
 10
248.8780324812
 20
35.1670337134
 10
249.2611914034
 20
36.3983151979
 10
249.7178766026
 20
37.63042481
 10
250.244730311
 20
38.8543034911
 10
250.8378788484
 20
40.0609527003
 10
251.4929611033
 20
41.2415005761
 10
252.205160598
 20
42.3872671663
 10
252.9692409015
 20
43.4898282476
 10
253.7795841303
 20
44.5410772641
 10
254.6302322537
 20
45.5332849305
 10
255.5149309004
 20
46.4591560622
 10
256.4271753431
 20
47.3118832121
 10
257.3602583247
 20
48.0851967227
 10
258.3073193734
 20
48.7734108236
 10
259.2613952438
 20
49.3714654359
 10
260.2154711142
 20
49.8749633763
 10
261.1625321629
 20
50.2802026874
 10
262.0956151445
 20
50.5842038561
 10
263.0078595872
 20
50.7847317206
 10
263.8925582338
 20
50.8803119042
 10
264.7432063573
 20
50.8702416556
 10
265.553549586
 20
50.7545950163
 10
266.3176298895
 20
50.5342222755
 10
267.0298293842
 20
50.2107437189
 10
267.6849116392
 20
49.7865377155
 10
268.2780601766
 20
49.2647232305
 10
268.7093922619
 20
48.77401419
  0
LINE
  5
224
330
1F
100
AcDbEntity
  8
0
  6
Continuous
 62
     7
370
    15
100
AcDbLine
 10
245.5394966792
 20
35.6958082161
 30
0.0
 11
248.5712170036
 21
33.9456333264
 31
0.0
  0
ARC
  5
225
330
1F
100
AcDbEntity
  8
0
  6
Continuous
 62
     7
370
    15
100
AcDbCircle
 10
261.4356059934
 20
47.2698349302
 30
0.0
 40
5.345262860542657
100
AcDbArc
 50
60.0520014391
 51
74.8530580591
  0
SPLINE
  5
226
330
1F
100
AcDbEntity
  8
0
  6
Continuous
 62
     7
370
    15
100
AcDbSpline
210
0.0
220
0.0
230
1.0
 70
    11
 71
     3
 72
    62
 73
    58
 74
     0
 42
0.000000001
 43
0.00000001
 40
0.0
 40
0.0
 40
0.0
 40
0.0
 40
0.0312500000000001
 40
0.0312500000000001
 40
0.0625000000000003
 40
0.0625000000000003
 40
0.0937500000000003
 40
0.0937500000000003
 40
0.1250000000000003
 40
0.1250000000000003
 40
0.1562500000000003
 40
0.1562500000000003
 40
0.1875000000000003
 40
0.1875000000000003
 40
0.2500000000000003
 40
0.2500000000000003
 40
0.3125000000000003
 40
0.3125000000000003
 40
0.3437500000000003
 40
0.3437500000000003
 40
0.3750000000000003
 40
0.3750000000000003
 40
0.4062500000000003
 40
0.4062500000000003
 40
0.4375000000000003
 40
0.4375000000000003
 40
0.4687500000000002
 40
0.4687500000000002
 40
0.5000000000000002
 40
0.5000000000000002
 40
0.5312500000000001
 40
0.5312500000000001
 40
0.5625000000000001
 40
0.5625000000000001
 40
0.6249999999999998
 40
0.6249999999999998
 40
0.6562499999999999
 40
0.6562499999999999
 40
0.6874999999999999
 40
0.6874999999999999
 40
0.7187499999999999
 40
0.7187499999999999
 40
0.7499999999999999
 40
0.7499999999999999
 40
0.78125
 40
0.78125
 40
0.8125
 40
0.8125
 40
0.84375
 40
0.84375
 40
0.8750000000000001
 40
0.8750000000000001
 40
0.9062500000000001
 40
0.9062500000000001
 40
0.9375000000000001
 40
0.9375000000000001
 40
1.0
 40
1.0
 40
1.0
 40
1.0
 10
254.2723553445996
 20
47.77845208084206
 30
0.0
 10
254.3495572198937
 20
47.79953514092991
 30
0.0
 10
254.4268081164289
 20
47.81429952003143
 30
0.0
 10
254.5813348813429
 20
47.83235893230824
 30
0.0
 10
254.6593881589915
 20
47.83559295920654
 30
0.0
 10
254.8111982541519
 20
47.83058757056005
 30
0.0
 10
254.884742866504
 20
47.82250014481752
 30
0.0
 10
255.0272111212671
 20
47.79567455370265
 30
0.0
 10
255.0964310811226
 20
47.77671109580146
 30
0.0
 10
255.2250004454174
 20
47.72962275152632
 30
0.0
 10
255.2850366443816
 20
47.70142855900134
 30
0.0
 10
255.3965159645554
 20
47.63568103786498
 30
0.0
 10
255.4475771162945
 20
47.59818495925268
 30
0.0
 10
255.5817207731548
 20
47.4758278754374
 30
0.0
 10
255.6489075444777
 20
47.3778397928978
 30
0.0
 10
255.725156709747
 20
47.16478423489076
 30
0.0
 10
255.7350936635968
 20
47.04673059692337
 30
0.0
 10
255.703629849672
 20
46.86823423576182
 30
0.0
 10
255.685313498986
 20
46.80736172829534
 30
0.0
 10
255.6334920910556
 20
46.68720269031281
 30
0.0
 10
255.6004521253589
 20
46.62854917627902
 30
0.0
 10
255.5200431032406
 20
46.51399216862041
 30
0.0
 10
255.4720828369384
 20
46.457690907288
 30
0.0
 10
255.365915946693
 20
46.35333008073383
 30
0.0
 10
255.3073636730788
 20
46.30459113552504
 30
0.0
 10
255.1790361655661
 20
46.21421277679799
 30
0.0
 10
255.1111310656581
 20
46.17393882623943
 30
0.0
 10
254.9695481744334
 20
46.1035614462544
 30
0.0
 10
254.8948157769876
 20
46.07310084385252
 30
0.0
 10
254.7445127395286
 20
46.02437420467182
 30
0.0
 10
254.668684658806
 20
46.00583239420313
 30
0.0
 10
254.5156208846782
 20
45.98029189011348
 30
0.0
 10
254.4391265957526
 20
45.97353474973456
 30
0.0
 10
254.2162480098392
 20
45.97121008374864
 30
0.0
 10
254.0723327297384
 20
45.99382457037356
 30
0.0
 10
253.8809157009754
 20
46.06051685333543
 30
0.0
 10
253.8199909693517
 20
46.08858497147182
 30
0.0
 10
253.7085574781586
 20
46.15440995253888
 30
0.0
 10
253.6580129057407
 20
46.19199055986928
 30
0.0
 10
253.567219659974
 20
46.27639180753323
 30
0.0
 10
253.5267195382721
 20
46.32373822264567
 30
0.0
 10
253.4594585326813
 20
46.42446221288685
 30
0.0
 10
253.432303553014
 20
46.47802692762409
 30
0.0
 10
253.3913598053647
 20
46.5915779499339
 30
0.0
 10
253.3776895812921
 20
46.65195814910584
 30
0.0
 10
253.365719173546
 20
46.77397929135132
 30
0.0
 10
253.3671095565029
 20
46.83620312904148
 30
0.0
 10
253.385592076365
 20
46.96301974045119
 30
0.0
 10
253.4028282835581
 20
47.02713776211872
 30
0.0
 10
253.4521517696723
 20
47.151467666141
 30
0.0
 10
253.4844358213074
 20
47.21260672121591
 30
0.0
 10
253.5647488612123
 20
47.33134322010713
 30
0.0
 10
253.6114450269332
 20
47.38704601438047
 30
0.0
 10
253.7175710740261
 20
47.49128254071464
 30
0.0
 10
253.7778173205459
 20
47.54025529635241
 30
0.0
 10
253.9703604324503
 20
47.66997863740023
 30
0.0
 10
254.1179515940115
 20
47.73628596066634
 30
0.0
 10
254.2723553445996
 20
47.77845208084205
 30
0.0
  0
LINE
  5
227
330
1F
100
AcDbEntity
  8
0
  6
Continuous
 62
     7
370
    15
100
AcDbLine
 10
251.5282199824
 20
33.9555686741
 30
0.0
 11
251.5188973315
 21
33.9609505259
 31
0.0
  0
SPLINE
  5
228
330
1F
100
AcDbEntity
  8
0
  6
Continuous
 62
     7
370
    15
100
AcDbSpline
210
0.0
220
0.0
230
1.0
 70
     8
 71
     3
 72
    10
 73
     6
 74
     0
 42
0.000000001
 43
0.00000001
 40
0.0
 40
0.0
 40
0.0
 40
0.0
 40
0.2398860578093736
 40
0.7127608995031893
 40
1.0
 40
1.0
 40
1.0
 40
1.0
 10
252.444202760937
 20
33.1546057697516
 30
0.0
 10
252.3787394817403
 20
33.23512602352346
 30
0.0
 10
252.1842318634536
 20
33.47437164300945
 30
0.0
 10
251.8717781345845
 20
33.7396645293917
 30
0.0
 10
251.6224416350932
 20
33.89635644114411
 30
0.0
 10
251.5282199824439
 20
33.95556867405906
 30
0.0
  0
SPLINE
  5
229
330
1F
100
AcDbEntity
  8
0
  6
Continuous
 62
     7
370
    15
100
AcDbSpline
210
0.0
220
0.0
230
1.0
 70
     8
 71
     3
 72
    10
 73
     6
 74
     0
 42
0.000000001
 43
0.00000001
 40
0.0
 40
0.0
 40
0.0
 40
0.0
 40
0.5
 40
0.5
 40
1.0
 40
1.0
 40
1.0
 40
1.0
 10
251.5188973315369
 20
33.96095052587179
 30
0.0
 10
251.4690967327241
 20
33.98969979962091
 30
0.0
 10
251.4040648159801
 20
34.01046314498157
 30
0.0
 10
251.2670064556347
 20
34.02941683436935
 30
0.0
 10
251.1934676155849
 20
34.02807247314155
 30
0.0
 10
251.1256245799849
 20
34.01673106478044
 30
0.0
  0
SPLINE
  5
22A
330
1F
100
AcDbEntity
  8
0
  6
Continuous
 62
     7
370
    15
100
AcDbSpline
210
0.0
220
0.0
230
1.0
 70
     8
 71
     3
 72
     8
 73
     4
 74
     0
 42
0.000000001
 43
0.00000001
 40
0.0
 40
0.0
 40
0.0
 40
0.0
 40
1.0
 40
1.0
 40
1.0
 40
1.0
 10
245.3826720716645
 20
35.78632989527733
 30
0.0
 10
245.405050868184
 20
35.77341794382549
 30
0.0
 10
245.4592382992012
 20
35.74214039266847
 30
0.0
 10
245.5394966792256
 20
35.69580821608847
 30
0.0
  0
LINE
  5
22B
330
1F
100
AcDbEntity
  8
0
  6
Continuous
 62
     7
370
    15
100
AcDbLine
 10
245.3826720717
 20
35.7863298953
 30
0.0
 11
245.4067883007
 21
35.938986214
 31
0.0
  0
LINE
  5
22C
330
1F
100
AcDbEntity
  8
0
  6
Continuous
 62
     7
370
    15
100
AcDbLine
 10
265.5859515886
 20
22.8572953777
 30
0.0
 11
263.159321375
 21
23.0742726857
 31
0.0
  0
SPLINE
  5
22D
330
1F
100
AcDbEntity
  8
0
  6
Continuous
 62
     7
370
    15
100
AcDbSpline
210
0.0
220
0.0
230
1.0
 70
     8
 71
     3
 72
    18
 73
    14
 74
     0
 42
0.000000001
 43
0.00000001
 40
0.0
 40
0.0
 40
0.0
 40
0.0
 40
0.2500000000000037
 40
0.2500000000000037
 40
0.5000000000000073
 40
0.5000000000000073
 40
0.6250000000000054
 40
0.6250000000000054
 40
0.7500000000000037
 40
0.7500000000000037
 40
0.8750000000000018
 40
0.8750000000000018
 40
1.0
 40
1.0
 40
1.0
 40
1.0
 10
265.4225013941637
 20
22.54995074570117
 30
0.0
 10
265.4560241202467
 20
22.54695330883485
 30
0.0
 10
265.489046228291
 20
22.54742916387477
 30
0.0
 10
265.5501505842655
 20
22.55988300936856
 30
0.0
 10
265.5791829148503
 20
22.57171643335296
 30
0.0
 10
265.6124838461326
 20
22.60686569331055
 30
0.0
 10
265.6217562898753
 20
22.62171842881006
 30
0.0
 10
265.6334360761091
 20
22.65832552629026
 30
0.0
 10
265.635764042777
 20
22.68074410167942
 30
0.0
 10
265.632022143605
 20
22.7291074643555
 30
0.0
 10
265.6260589700128
 20
22.75539486728155
 30
0.0
 10
265.6090829012526
 20
22.80698077653096
 30
0.0
 10
265.5980778049201
 20
22.8326599281168
 30
0.0
 10
265.5859515886055
 20
22.85729537770176
 30
0.0
  0
SPLINE
  5
22E
330
1F
100
AcDbEntity
  8
0
  6
Continuous
 62
     7
370
    15
100
AcDbSpline
210
0.0
220
0.0
230
1.0
 70
     8
 71
     3
 72
    10
 73
     6
 74
     0
 42
0.000000001
 43
0.00000001
 40
0.0
 40
0.0
 40
0.0
 40
0.0
 40
0.5
 40
0.5
 40
1.0
 40
1.0
 40
1.0
 40
1.0
 10
265.4869596041307
 20
22.95239126637416
 30
0.0
 10
265.5213978452639
 20
22.93251049294211
 30
0.0
 10
265.5462371126446
 20
22.91394648203871
 30
0.0
 10
265.5775157922793
 20
22.88214557773429
 30
0.0
 10
265.5845565594518
 20
22.86859576792352
 30
0.0
 10
265.5859515886056
 20
22.85729537770176
 30
0.0
  0
SPLINE
  5
22F
330
1F
100
AcDbEntity
  8
0
  6
Continuous
 62
     7
370
    15
100
AcDbSpline
210
0.0
220
0.0
230
1.0
 70
     8
 71
     3
 72
    11
 73
     7
 74
     0
 42
0.000000001
 43
0.00000001
 40
0.0
 40
0.0
 40
0.0
 40
0.0
 40
0.3105157410231243
 40
0.5915933465349992
 40
0.8435752122045465
 40
1.0
 40
1.0
 40
1.0
 40
1.0
 10
252.0122050674439
 20
26.30938726819125
 30
0.0
 10
252.1032044259044
 20
26.4008566997881
 30
0.0
 10
252.2765760392945
 20
26.5751238946354
 30
0.0
 10
252.4268655242614
 20
26.99365101706951
 30
0.0
 10
252.5009444570819
 20
27.40478621649042
 30
0.0
 10
252.5084856007469
 20
27.69952397412506
 30
0.0
 10
252.5113739518243
 20
27.81241217220447
 30
0.0
  0
SPLINE
  5
230
330
1F
100
AcDbEntity
  8
0
  6
Continuous
 62
     7
370
    15
100
AcDbSpline
210
0.0
220
0.0
230
1.0
 70
     8
 71
     3
 72
     9
 73
     5
 74
     0
 42
0.000000001
 43
0.00000001
 40
0.0
 40
0.0
 40
0.0
 40
0.0
 40
0.5067661695090763
 40
1.0
 40
1.0
 40
1.0
 40
1.0
 10
251.9034836029713
 20
25.58275650164699
 30
0.0
 10
251.9217526202841
 20
25.70521085546729
 30
0.0
 10
251.9578028115005
 20
25.94684962535386
 30
0.0
 10
251.9944835509324
 20
26.18900002348844
 30
0.0
 10
252.0125757325477
 20
26.30843679191527
 30
0.0
  0
SPLINE
  5
231
330
1F
100
AcDbEntity
  8
0
  6
Continuous
 62
     7
370
    15
100
AcDbSpline
210
0.0
220
0.0
230
1.0
 70
     8
 71
     3
 72
    10
 73
     6
 74
     0
 42
0.000000001
 43
0.00000001
 40
0.0
 40
0.0
 40
0.0
 40
0.0
 40
0.4807908150170315
 40
0.9757817590369299
 40
1.0
 40
1.0
 40
1.0
 40
1.0
 10
251.5282199824439
 20
27.38241513837877
 30
0.0
 10
251.6780109293442
 20
27.30224476301676
 30
0.0
 10
251.9820168901256
 20
27.13953618487842
 30
0.0
 10
252.2716323343231
 20
27.02803475415718
 30
0.0
 10
252.4059707650008
 20
26.99980313667806
 30
0.0
 10
252.4122369108605
 20
26.99848628764175
 30
0.0
  0
SPLINE
  5
232
330
1F
100
AcDbEntity
  8
0
  6
Continuous
 62
     7
370
    15
100
AcDbSpline
210
0.0
220
0.0
230
1.0
 70
     8
 71
     3
 72
    10
 73
     6
 74
     0
 42
0.000000001
 43
0.00000001
 40
0.0
 40
0.0
 40
0.0
 40
0.0
 40
0.5
 40
0.5
 40
1.0
 40
1.0
 40
1.0
 40
1.0
 10
276.67087504459
 20
29.40872822315506
 30
0.0
 10
276.7053132857232
 20
29.38884744972301
 30
0.0
 10
276.7474710362255
 20
29.38028118631763
 30
0.0
 10
276.8350927270787
 20
29.38100641005158
 30
0.0
 10
276.8810176644255
 20
29.3899039538771
 30
0.0
 10
276.9254364506281
 20
29.40344064992739
 30
0.0
  0
SPLINE
  5
233
330
1F
100
AcDbEntity
  8
0
  6
Continuous
 62
     7
370
    15
100
AcDbSpline
210
0.0
220
0.0
230
1.0
 70
     8
 71
     3
 72
    16
 73
    12
 74
     0
 42
0.000000001
 43
0.00000001
 40
0.0
 40
0.0
 40
0.0
 40
0.0
 40
0.250000000000012
 40
0.250000000000012
 40
0.3750000000000104
 40
0.3750000000000104
 40
0.5000000000000088
 40
0.5000000000000088
 40
0.7500000000000044
 40
0.7500000000000044
 40
1.0
 40
1.0
 40
1.0
 40
1.0
 10
276.9254364506281
 20
29.4034406499274
 30
0.0
 10
276.953161126306
 20
29.35559248183562
 30
0.0
 10
276.9906743939302
 20
29.31201172711366
 30
0.0
 10
277.0648953735576
 20
29.27835421944575
 30
0.0
 10
277.091661378496
 20
29.27307006277611
 30
0.0
 10
277.1451892149993
 20
29.27385859646171
 30
0.0
 10
277.1717791171332
 20
29.27976919255631
 30
0.0
 10
277.2465628237853
 20
29.30720272860637
 30
0.0
 10
277.2915159147232
 20
29.33806095200281
 30
0.0
 10
277.3721791326849
 20
29.4074444439081
 30
0.0
 10
277.4088945550739
 20
29.44718336446542
 30
0.0
 10
277.4424400357445
 20
29.48891362350936
 30
0.0
  0
LINE
  5
234
330
1F
100
AcDbEntity
  8
0
  6
Continuous
 62
     7
370
    15
100
AcDbLine
 10
245.8161053192
 20
35.5360735371
 30
0.0
 11
245.3826720717
 21
35.7863298953
 31
0.0
  0
LINE
  5
235
330
1F
100
AcDbEntity
  8
0
  6
Continuous
 62
     7
370
    15
100
AcDbLine
 10
249.0449534177
 20
33.6720992056
 30
0.0
 11
245.8161053192
 21
35.5360735371
 31
0.0
  0
SPLINE
  5
236
330
1F
100
AcDbEntity
  8
0
  6
Continuous
 62
     7
370
    15
100
AcDbSpline
210
0.0
220
0.0
230
1.0
 70
     8
 71
     3
 72
    11
 73
     7
 74
     0
 42
0.000000001
 43
0.00000001
 40
0.0
 40
0.0
 40
0.0
 40
0.0
 40
0.2165599786247602
 40
0.5255080141548482
 40
0.8344937391329015
 40
0.9999999999999999
 40
0.9999999999999999
 40
0.9999999999999999
 40
0.9999999999999999
 10
247.9211702405009
 20
31.52224759129257
 30
0.0
 10
247.9164519890933
 20
31.72863961093436
 30
0.0
 10
247.9050026024466
 20
32.22947388820079
 30
0.0
 10
247.839835010864
 20
33.04825635427039
 30
0.0
 10
247.7990851282864
 20
33.80865594973353
 30
0.0
 10
247.8203996360194
 20
34.24216880186043
 30
0.0
 10
247.8278342915717
 20
34.39338124239419
 30
0.0
  0
LINE
  5
237
330
1F
100
AcDbEntity
  8
0
  6
Continuous
 62
     7
370
    15
100
AcDbLine
 10
247.9211702405
 20
31.1018922359
 30
0.0
 11
247.9211702405
 21
31.5222475913
 31
0.0
  0
LINE
  5
238
330
1F
100
AcDbEntity
  8
0
  6
Continuous
 62
     7
370
    15
100
AcDbLine
 10
247.3112906417
 20
34.337261051
 30
0.0
 11
247.3164785364
 21
34.6699265152
 31
0.0
  0
ARC
  5
239
330
1F
100
AcDbEntity
  8
0
  6
Continuous
 62
     7
370
    15
100
AcDbCircle
 10
254.8789898911
 20
34.1656911325
 30
0.0
 40
7.569643859871955
100
AcDbArc
 50
178.7012501156
 51
203.1943798095
  0
LINE
  5
23A
330
1F
100
AcDbEntity
  8
0
  6
Continuous
 62
     7
370
    15
100
AcDbLine
 10
235.1713671119
 20
57.7678696756
 30
0.0
 11
235.2045372615
 21
57.7562139583
 31
0.0
  0
SPLINE
  5
23B
330
1F
100
AcDbEntity
  8
0
  6
Continuous
 62
     7
370
    15
100
AcDbSpline
210
0.0
220
0.0
230
1.0
 70
     8
 71
     3
 72
    32
 73
    28
 74
     0
 42
0.000000001
 43
0.00000001
 40
0.0
 40
0.0
 40
0.0
 40
0.0
 40
0.1249999999999998
 40
0.1249999999999998
 40
0.1874999999999997
 40
0.1874999999999997
 40
0.2499999999999996
 40
0.2499999999999996
 40
0.3749999999999994
 40
0.3749999999999994
 40
0.4374999999999994
 40
0.4374999999999994
 40
0.4999999999999994
 40
0.4999999999999994
 40
0.6249999999999994
 40
0.6249999999999994
 40
0.6874999999999994
 40
0.6874999999999994
 40
0.7499999999999994
 40
0.7499999999999994
 40
0.8124999999999997
 40
0.8124999999999997
 40
0.8749999999999998
 40
0.8749999999999998
 40
0.9374999999999999
 40
0.9374999999999999
 40
1.0
 40
1.0
 40
1.0
 40
1.0
 10
279.3520666642028
 20
32.42214556607331
 30
0.0
 10
279.4922860512809
 20
32.59657715055775
 30
0.0
 10
279.6191225128481
 20
32.78234889318365
 30
0.0
 10
279.7880021445565
 20
33.07864435157933
 30
0.0
 10
279.8407196559264
 20
33.18074354341365
 30
0.0
 10
279.9361513423819
 20
33.38510037577894
 30
0.0
 10
279.9792628196861
 20
33.48804780673188
 30
0.0
 10
280.0949017480003
 20
33.79918645002347
 30
0.0
 10
280.1538256441223
 20
34.01199965137922
 30
0.0
 10
280.2105657029302
 20
34.31795641050066
 30
0.0
 10
280.2244707125802
 20
34.41834459397876
 30
0.0
 10
280.2423638387216
 20
34.61576878467974
 30
0.0
 10
280.2463291797446
 20
34.71340800354889
 30
0.0
 10
280.2431172805067
 20
34.99338362685432
 30
0.0
 10
280.2215098052155
 20
35.1647304211395
 30
0.0
 10
280.1603488265708
 20
35.39791283629695
 30
0.0
 10
280.1353469287779
 20
35.4706633145056
 30
0.0
 10
280.0769007532763
 20
35.60433551252839
 30
0.0
 10
280.0432966037199
 20
35.66568782598338
 30
0.0
 10
279.9667651964248
 20
35.77769807478389
 30
0.0
 10
279.9235182477721
 20
35.82863887927199
 30
0.0
 10
279.8305154698752
 20
35.91671067315374
 30
0.0
 10
279.7813087758457
 20
35.95364180330893
 30
0.0
 10
279.6757850959225
 20
36.0147464255102
 30
0.0
 10
279.6192647693786
 20
36.03903913097554
 30
0.0
 10
279.4951009702356
 20
36.07669649634952
 30
0.0
 10
279.4274629988664
 20
36.08996420496209
 30
0.0
 10
279.3539746964269
 20
36.09819853137942
 30
0.0
  0
SPLINE
  5
23C
330
1F
100
AcDbEntity
  8
0
  6
Continuous
 62
     7
370
    15
100
AcDbSpline
210
0.0
220
0.0
230
1.0
 70
     8
 71
     3
 72
    14
 73
    10
 74
     0
 42
0.000000001
 43
0.00000001
 40
0.0
 40
0.0
 40
0.0
 40
0.0
 40
0.25
 40
0.25
 40
0.5
 40
0.5
 40
0.75
 40
0.75
 40
1.0
 40
1.0
 40
1.0
 40
1.0
 10
279.3539746964267
 20
36.09819853137929
 30
0.0
 10
279.1419838235908
 20
36.12195199943449
 30
0.0
 10
278.9458057073791
 20
36.13654381289139
 30
0.0
 10
278.5458589833243
 20
36.17011514204982
 30
0.0
 10
278.343236862864
 20
36.18842294561343
 30
0.0
 10
277.9371031968846
 20
36.22555629470396
 30
0.0
 10
277.7339025350852
 20
36.24420032861254
 30
0.0
 10
277.3293896027847
 20
36.28039730271027
 30
0.0
 10
277.1275666140537
 20
36.29824544683321
 30
0.0
 10
276.9254093162942
 20
36.31628657625489
 30
0.0
  0
LINE
  5
23D
330
1F
100
AcDbEntity
  8
0
  6
Continuous
 62
     7
370
    15
100
AcDbLine
 10
251.5188973315
 20
27.3877969902
 30
0.0
 11
251.5282199824
 21
27.3824151384
 31
0.0
  0
ARC
  5
23E
330
1F
100
AcDbEntity
  8
0
  6
Continuous
 62
     7
370
    15
100
AcDbCircle
 10
254.3461130976
 20
28.0346979761
 30
0.0
 40
5.919642220385739
100
AcDbArc
 50
192.6964501329
 51
260.4756565155
  0
SPLINE
  5
23F
330
1F
100
AcDbEntity
  8
0
  6
Continuous
 62
     7
370
    15
100
AcDbSpline
210
0.0
220
0.0
230
1.0
 70
     8
 71
     3
 72
     8
 73
     4
 74
     0
 42
0.000000001
 43
0.00000001
 40
0.0
 40
0.0
 40
0.0
 40
0.0
 40
0.0012389803509652
 40
0.0012389803509652
 40
0.0012389803509652
 40
0.0012389803509652
 10
249.0449534177085
 20
27.09894566993424
 30
0.0
 10
248.88720851751
 20
26.97686921939951
 30
0.0
 10
248.729290338544
 20
26.85511191639869
 30
0.0
 10
248.571217003563
 20
26.73364489485425
 30
0.0
  0
SPLINE
  5
240
330
1F
100
AcDbEntity
  8
0
  6
Continuous
 62
     7
370
    15
100
AcDbSpline
210
0.0
220
0.0
230
1.0
 70
     8
 71
     3
 72
     8
 73
     4
 74
     0
 42
0.000000001
 43
0.00000001
 40
0.0
 40
0.0
 40
0.0
 40
0.0
 40
1.0
 40
1.0
 40
1.0
 40
1.0
 10
249.0449534177085
 20
27.09894566993424
 30
0.0
 10
249.7389340006501
 20
27.21295745120685
 30
0.0
 10
250.432567061412
 20
27.32771820372721
 30
0.0
 10
251.1256245799849
 20
27.44357752910016
 30
0.0
  0
SPLINE
  5
241
330
1F
100
AcDbEntity
  8
0
  6
Continuous
 62
     7
370
    15
100
AcDbSpline
210
0.0
220
0.0
230
1.0
 70
     8
 71
     3
 72
    12
 73
     8
 74
     0
 42
0.000000001
 43
0.00000001
 40
0.0
 40
0.0
 40
0.0
 40
0.0
 40
0.2499999999999984
 40
0.2499999999999984
 40
0.4999999999999968
 40
0.4999999999999968
 40
1.0
 40
1.0
 40
1.0
 40
1.0
 10
251.1256245799849
 20
27.44357752910016
 30
0.0
 10
251.1594130959091
 20
27.44922599918441
 30
0.0
 10
251.1949848719779
 20
27.45248646269986
 30
0.0
 10
251.2655671183705
 20
27.45362405224797
 30
0.0
 10
251.3005900768193
 20
27.45160743578995
 30
0.0
 10
251.4047953720843
 20
27.43723169845036
 30
0.0
 10
251.4685058040239
 20
27.41688739981795
 30
0.0
 10
251.5188973315369
 20
27.3877969901915
 30
0.0
  0
LINE
  5
242
330
1F
100
AcDbEntity
  8
0
  6
Continuous
 62
     7
370
    15
100
AcDbLine
 10
245.8161053192
 20
28.9629200014
 30
0.0
 11
249.0449534177
 21
27.0989456699
 31
0.0
  0
LINE
  5
243
330
1F
100
AcDbEntity
  8
0
  6
Continuous
 62
     7
370
    15
100
AcDbLine
 10
245.8161053192
 20
28.9629200014
 30
0.0
 11
247.7090382061
 21
30.0556868968
 31
0.0
  0
LINE
  5
244
330
1F
100
AcDbEntity
  8
0
  6
Continuous
 62
     7
370
    15
100
AcDbLine
 10
245.3826720717
 20
28.7126636432
 30
0.0
 11
245.8161053192
 21
28.9629200014
 31
0.0
  0
LINE
  5
245
330
1F
100
AcDbEntity
  8
0
  6
Continuous
 62
     7
370
    15
100
AcDbLine
 10
248.5712170036
 20
26.7336448949
 30
0.0
 11
245.5394966792
 21
28.4838197846
 31
0.0
  0
SPLINE
  5
246
330
1F
100
AcDbEntity
  8
0
  6
Continuous
 62
     7
370
    15
100
AcDbSpline
210
0.0
220
0.0
230
1.0
 70
     8
 71
     3
 72
     8
 73
     4
 74
     0
 42
0.000000001
 43
0.00000001
 40
0.0
 40
0.0
 40
0.0
 40
0.0
 40
1.0
 40
1.0
 40
1.0
 40
1.0
 10
245.5394966792257
 20
28.48381978457418
 30
0.0
 10
245.4594718797109
 20
28.53001711799615
 30
0.0
 10
245.404995082329
 20
28.61320464036085
 30
0.0
 10
245.3826720716645
 20
28.71266364320198
 30
0.0
  0
LWPOLYLINE
  5
247
330
1F
100
AcDbEntity
  8
0
  6
Continuous
 62
     7
370
    15
100
AcDbPolyline
 90
        3
 70
   128
 43
0.0
 10
248.3553148999
 20
24.6208529559
 10
247.8061585241
 20
24.9855324716
 10
247.2163562238
 20
25.5039516064
  0
ELLIPSE
  5
248
330
1F
100
AcDbEntity
  8
0
  6
Continuous
 62
     7
370
    15
100
AcDbEllipse
 10
247.4747236311
 20
30.8441864713
 30
0.0
 11
-6.005970385558612E-5
 21
0.8534489614827194
 31
0.0
210
0.0
220
0.0
230
1.0
 40
0.7174342186
 41
3.534193645557485
 42
5.104989972352342
  0
ARC
  5
249
330
1F
100
AcDbEntity
  8
0
  6
Continuous
 62
     7
370
    15
100
AcDbCircle
 10
270.4690746493
 20
38.3349787522
 30
0.0
 40
4.132931285712853
100
AcDbArc
 50
320.5373067048
 51
350.4934488753
  0
LINE
  5
24A
330
1F
100
AcDbEntity
  8
0
  6
Continuous
 62
     7
370
    15
100
AcDbLine
 10
276.9254364506
 20
29.4034406499
 30
0.0
 11
279.3520666642
 21
32.4221455661
 31
0.0
  0
LINE
  5
24B
330
1F
100
AcDbEntity
  8
0
  6
Continuous
 62
     7
370
    15
100
AcDbLine
 10
271.1554421513
 20
32.5927198593
 30
0.0
 11
273.6598570757
 21
35.7081882162
 31
0.0
  0
ELLIPSE
  5
24C
330
1F
100
AcDbEntity
  8
0
  6
Continuous
 62
     7
370
    15
100
AcDbEllipse
 10
247.3554848156
 20
30.7753289912
 30
0.0
 11
0.2600075789209484
 21
0.9705436209909308
 31
0.0
210
0.0
220
0.0
230
1.0
 40
0.5176380889
 41
3.619174351347742
 42
5.189970678142642
  0
LWPOLYLINE
  5
24D
330
1F
100
AcDbEntity
  8
0
  6
Continuous
 62
     7
370
    15
100
AcDbPolyline
 90
       17
 70
   128
 43
0.0
 10
254.0389248893
 20
47.3110667296
 10
253.8485318324
 20
47.0933340826
 10
253.7637039216
 20
46.8495970548
 10
253.7973554372
 20
46.6169623992
 10
253.9443632411
 20
46.4308466333
 10
254.1823467277
 20
46.3195841953
 10
254.4750750686
 20
46.3001137828
 10
254.7779830274
 20
46.3753995897
 10
255.0449556133
 20
46.5339800342
 10
255.2353486702
 20
46.7517126812
 10
255.320176581
 20
46.995449709
 10
255.2865250654
 20
47.2280843646
 10
255.1395172615
 20
47.4142001305
 10
254.9015337749
 20
47.5254625684
 10
254.608805434
 20
47.5449329809
 10
254.3058974751
 20
47.4696471741
 10
254.0389248893
 20
47.3110667296
  0
LWPOLYLINE
  5
24E
330
1F
100
AcDbEntity
  8
0
  6
Continuous
 62
     7
370
    15
100
AcDbPolyline
 90
       19
 70
   128
 43
0.0
 10
253.9443041296
 20
47.3345192594
 10
253.7280956371
 20
47.0965125724
 10
253.6133328764
 20
46.8289967784
 10
253.6138579302
 20
46.5642382301
 10
253.7296074692
 20
46.334170716
 10
253.9466203909
 20
46.1665437737
 10
254.2387217339
 20
46.0815756863
 10
254.5706797655
 20
46.0895148592
 10
254.9024554479
 20
46.189403711
 10
255.1940317371
 20
46.3691941719
 10
255.4102402297
 20
46.6072008589
 10
255.5250029904
 20
46.8747166529
 10
255.5244779366
 20
47.1394752012
 10
255.4087283975
 20
47.3695427153
 10
255.1917154759
 20
47.5371696576
 10
254.8996141328
 20
47.6221377449
 10
254.5676561012
 20
47.614198572
 10
254.2358804189
 20
47.5143097203
 10
253.9443041296
 20
47.3345192594
  0
LINE
  5
24F
330
1F
100
AcDbEntity
  8
0
  6
Continuous
 62
     7
370
    15
100
AcDbLine
 10
254.3511570491
 20
46.4778014223
 30
0.0
 11
254.9027055366
 21
46.6438580323
 31
0.0
  0
LINE
  5
250
330
1F
100
AcDbEntity
  8
0
  6
Continuous
 62
     7
370
    15
100
AcDbLine
 10
255.0934887388
 20
47.0885799919
 30
0.0
 11
254.9027055366
 21
46.6438580323
 31
0.0
  0
LINE
  5
251
330
1F
100
AcDbEntity
  8
0
  6
Continuous
 62
     7
370
    15
100
AcDbLine
 10
254.7327234535
 20
47.3672453415
 30
0.0
 11
255.0934887388
 21
47.0885799919
 31
0.0
  0
LINE
  5
252
330
1F
100
AcDbEntity
  8
0
  6
Continuous
 62
     7
370
    15
100
AcDbLine
 10
254.7327234535
 20
47.3672453415
 30
0.0
 11
254.181174966
 21
47.2011887315
 31
0.0
  0
LINE
  5
253
330
1F
100
AcDbEntity
  8
0
  6
Continuous
 62
     7
370
    15
100
AcDbLine
 10
253.9903917638
 20
46.7564667718
 30
0.0
 11
254.181174966
 21
47.2011887315
 31
0.0
  0
LINE
  5
254
330
1F
100
AcDbEntity
  8
0
  6
Continuous
 62
     7
370
    15
100
AcDbLine
 10
253.9903917638
 20
46.7564667718
 30
0.0
 11
254.3511570491
 21
46.4778014223
 31
0.0
  0
LINE
  5
255
330
1F
100
AcDbEntity
  8
0
  6
Continuous
 62
     7
370
    15
100
AcDbLine
 10
254.9599916712
 20
46.7773939084
 30
0.0
 11
254.7327234535
 21
47.3672453415
 31
0.0
  0
LINE
  5
256
330
1F
100
AcDbEntity
  8
0
  6
Continuous
 62
     7
370
    15
100
AcDbLine
 10
254.4485915335
 20
46.5071363594
 30
0.0
 11
254.181174966
 21
47.2011887315
 31
0.0
  0
LWPOLYLINE
  5
257
330
1F
100
AcDbEntity
  8
0
  6
Continuous
 62
     7
370
     0
100
AcDbPolyline
 90
       21
 70
   128
 43
0.0
 10
265.4225013941
 20
22.5499507458
 10
265.7910611136
 20
22.0167738436
 10
266.2287695808
 20
21.57513438
 10
266.7302616486
 20
21.2304456857
 10
267.2893903517
 20
20.9869327317
 10
267.8993022525
 20
20.8475803421
 10
268.5525214456
 20
20.8140966083
 10
269.2410411929
 20
20.8868919523
 10
269.956422065
 20
21.0650740959
 10
270.6898953861
 20
21.3464589976
 10
271.4324707149
 20
21.7275976235
 10
272.1750460438
 20
22.2038182229
 10
272.9085193649
 20
22.769283592
 10
273.6239002369
 20
23.4170626222
 10
274.3124199842
 20
24.1392152575
 10
274.9656391773
 20
24.9268898182
 10
275.5755510781
 20
25.7704314993
 10
276.1346797813
 20
26.659500713
 10
276.6361718491
 20
27.5831998241
 10
277.0738803163
 20
28.5302067269
 10
277.4424400357
 20
29.4889136236
  0
LWPOLYLINE
  5
258
330
1F
100
AcDbEntity
  8
0
  6
Continuous
 62
     7
370
     0
100
AcDbPolyline
 90
       21
 70
   128
 43
0.0
 10
277.4420656221
 20
36.4201695488
 10
277.0734708228
 20
36.9531918359
 10
276.6357478528
 20
37.3946912146
 10
276.1342608296
 20
37.7392572888
 10
275.5751552736
 20
37.9826675409
 10
274.9652827968
 20
38.121939077
 10
274.3121171393
 20
38.1553651807
 10
273.6236625816
 20
38.0825362286
 10
272.9083558554
 20
37.9043447102
 10
272.1749627547
 20
37.6229742903
 10
271.4324707149
 20
37.2418730492
 10
270.6899786752
 20
36.7657112285
 10
269.9565855745
 20
36.2003239982
 10
269.2412788483
 20
35.5526399497
 10
268.5528242906
 20
34.8305961888
 10
267.8996586331
 20
34.043041069
 10
267.2897861563
 20
33.1996257593
 10
266.7306806002
 20
32.3106859727
 10
266.2291935771
 20
31.387115306
 10
265.791470607
 20
30.4402317435
 10
265.4228758077
 20
29.4816389598
  0
ARC
  5
259
330
1F
100
AcDbEntity
  8
0
  6
Continuous
 62
     7
370
     0
100
AcDbCircle
 10
283.0502842989
 20
22.777914313
 30
0.0
 40
25.94875680778489
100
AcDbArc
 50
133.3816194528
 51
166.623757081
  0
ARC
  5
25A
330
1F
100
AcDbEntity
  8
0
  6
Continuous
 62
     7
370
     0
100
AcDbCircle
 10
273.9559659355
 20
34.7164652621
 30
0.0
 40
3.20792629462555
100
AcDbArc
 50
32.1871336433
 51
58.3475104582
  0
LINE
  5
25B
330
1F
100
AcDbEntity
  8
0
  6
Continuous
 62
     7
370
     0
100
AcDbLine
 10
263.159321375
 20
23.0742726857
 30
0.0
 11
263.2477097227
 21
22.7444098932
 31
0.0
  0
LWPOLYLINE
  5
25C
330
1F
100
AcDbEntity
  8
0
  6
Continuous
 62
     7
370
     0
100
AcDbPolyline
 90
       18
 70
   128
 43
0.0
 10
266.5792830275
 20
21.8943976028
 10
266.8149351845
 20
21.7719133319
 10
267.3746232908
 20
21.5747648731
 10
267.9815272856
 20
21.4810404781
 10
268.6279114139
 20
21.4919347823
 10
269.3055366966
 20
21.6073089241
 10
270.0057659469
 20
21.8256923148
 10
270.7196738619
 20
22.1443013835
 10
271.4381607868
 20
22.5590750566
 10
272.1520687018
 20
23.0647265216
 10
272.8522979521
 20
23.6548106145
 10
273.5299232348
 20
24.321805971
 10
274.1763073632
 20
25.0572108959
 10
274.783211358
 20
25.8516517282
 10
275.3428994642
 20
26.6950023197
 10
275.8482377527
 20
27.576513106
 10
276.292785051
 20
28.484948123
 10
276.6708750446
 20
29.4087282232
  0
LWPOLYLINE
  5
25D
330
1F
100
AcDbEntity
  8
0
  6
Continuous
 62
     7
370
     0
100
AcDbPolyline
 90
       20
 70
   128
 43
0.0
 10
251.12562458
 20
34.0167310648
 10
251.4322495017
 20
35.1612373433
 10
251.81603457
 20
36.3128510418
 10
252.273602445
 20
37.4614378654
 10
252.8009264917
 20
38.596890156
 10
253.3933662154
 20
39.7092158402
 10
254.0457080979
 20
40.7886263608
 10
254.7522114772
 20
41.8256228169
 10
255.5066590656
 20
42.8110795546
 10
256.3024116626
 20
43.7363244739
 10
257.1324665799
 20
44.5932153435
 10
257.9895192664
 20
45.3742114536
 10
258.8660275881
 20
46.0724399744
 10
259.7542781999
 20
46.6817564378
 10
260.6464544237
 20
47.1967988088
 10
261.5347050356
 20
47.6130346724
 10
262.4112133573
 20
47.9268011189
 10
263.2682660438
 20
48.1353369778
 10
264.0983209611
 20
48.2368071165
 10
264.7448717
 20
48.2399191478
  0
LINE
  5
25E
330
1F
100
AcDbEntity
  8
0
  6
Continuous
 62
     7
370
     0
100
AcDbLine
 10
262.4824629538
 20
23.4650147351
 30
0.0
 11
263.159321375
 21
23.0742726857
 31
0.0
  0
LWPOLYLINE
  5
25F
330
1F
100
AcDbEntity
  8
0
  6
Continuous
 62
     7
370
     0
100
AcDbPolyline
 90
       24
 70
   128
 43
0.0
 10
245.5394966792
 20
35.6958082161
 10
245.8463121569
 20
36.9172086032
 10
246.2294710791
 20
38.1484900877
 10
246.6861562783
 20
39.3805996997
 10
247.2130099867
 20
40.6044783808
 10
247.8061585241
 20
41.81112759
 10
248.461240779
 20
42.9916754658
 10
249.1734402737
 20
44.1374420561
 10
249.9375205772
 20
45.2400031374
 10
250.747863806
 20
46.2912521538
 10
251.5985119294
 20
47.2834598203
 10
252.4832105761
 20
48.2093309519
 10
253.3954550187
 20
49.0620581018
 10
254.3285380004
 20
49.8353716124
 10
255.2755990491
 20
50.5235857133
 10
256.2296749194
 20
51.1216403256
 10
257.1837507898
 20
51.625138266
 10
258.1308118385
 20
52.0303775771
 10
259.0638948202
 20
52.3343787458
 10
259.9761392628
 20
52.5349066103
 10
260.8608379095
 20
52.6304867939
 10
261.7114860329
 20
52.6204165454
 10
262.5218292617
 20
52.504769906
 10
262.832298722
 20
52.4293973603
  0
LWPOLYLINE
  5
260
330
1F
100
AcDbEntity
  8
0
  6
Continuous
 62
     7
370
     0
100
AcDbPolyline
 90
       19
 70
   128
 43
0.0
 10
251.5188973315
 20
33.9609505259
 10
251.823582225
 20
35.0847934554
 10
252.2035730967
 20
36.2151233783
 10
252.6555509407
 20
37.3420674998
 10
253.1755679851
 20
38.4557825983
 10
253.7590821744
 20
39.5465410002
 10
254.4009968409
 20
40.6048155457
 10
255.0957052218
 20
41.6213628032
 10
255.8371394312
 20
42.5873038055
 10
256.618823459
 20
43.4942016023
 10
257.433929736
 20
44.3341349526
 10
258.2753387682
 20
45.0997675121
 10
259.1357013221
 20
45.7844119119
 10
260.0075026158
 20
46.3820881691
 10
260.8831279564
 20
46.8875759186
 10
261.7549292501
 20
47.2964600098
 10
262.615291804
 20
47.6051690707
 10
263.4567008363
 20
47.8110067015
 10
263.879806427
 20
47.8762068995
  0
LINE
  5
261
330
1F
100
AcDbEntity
  8
0
  6
Continuous
 62
     7
370
     0
100
AcDbLine
 10
251.5282199824
 20
27.3824151384
 30
0.0
 11
251.9340012237
 21
27.6166676628
 31
0.0
  0
LWPOLYLINE
  5
262
330
1F
100
AcDbEntity
  8
0
  6
Continuous
 62
     7
370
     0
100
AcDbPolyline
 90
        3
 70
   128
 43
0.0
 10
252.4878931551
 20
27.3597523333
 10
252.4282221347
 20
27.3812904898
 10
251.9340012237
 20
27.6166676628
  0
ARC
  5
263
330
1F
100
AcDbEntity
  8
0
  6
Continuous
 62
     7
370
     0
100
AcDbCircle
 10
251.2465031497
 20
28.6729882691
 30
0.0
 40
1.260343931249931
100
AcDbArc
 50
303.0577786045
 51
346.2438194889
  0
LINE
  5
264
330
1F
100
AcDbEntity
  8
0
  6
Continuous
 62
     7
370
     0
100
AcDbLine
 10
248.040409056
 20
31.170749716
 30
0.0
 11
252.4279985631
 21
28.6378482079
 31
0.0
  0
LINE
  5
265
330
1F
100
AcDbEntity
  8
0
  6
Continuous
 62
     7
370
     0
100
AcDbLine
 10
247.9211702405
 20
31.1018922359
 30
0.0
 11
248.040409056
 21
31.170749716
 31
0.0
  0
LINE
  5
266
330
1F
100
AcDbEntity
  8
0
  6
Continuous
 62
     7
370
     0
100
AcDbLine
 10
247.6648440323
 20
34.133159023
 30
0.0
 11
247.670031927
 21
34.4658244873
 31
0.0
  0
ARC
  5
267
330
1F
100
AcDbEntity
  8
0
  6
Continuous
 62
     7
370
     0
100
AcDbCircle
 10
256.1901722536
 20
34.053731724
 30
0.0
 40
8.525698210504476
100
AcDbArc
 50
179.4662120647
 51
192.9947586378
  0
LWPOLYLINE
  5
268
330
1F
100
AcDbEntity
  8
0
  6
Continuous
 62
     7
370
     0
100
AcDbPolyline
 90
       18
 70
   128
 43
0.0
 10
227.8193281341
 20
49.4320384706
 10
227.8597455787
 20
50.1525788018
 10
227.9802766622
 20
50.9069260619
 10
228.1787705046
 20
51.6816189063
 10
228.4516849786
 20
52.4628329227
 10
228.7941499189
 20
53.2366273285
 10
229.2000540306
 20
53.9891937443
 10
229.6621539451
 20
54.7071026045
 10
230.1722034785
 20
55.3775428085
 10
230.7211007849
 20
55.988550335
 10
231.2990507787
 20
56.5292217402
 10
231.8957399287
 20
56.98990873
 10
232.5005203029
 20
57.3623903343
 10
233.1025995811
 20
57.6400196098
 10
233.6912336443
 20
57.8178422558
 10
234.2559183038
 20
57.8926850228
 10
234.7865767484
 20
57.8632123398
 10
235.1713671119
 20
57.7678696756
  0
ARC
  5
269
330
1F
100
AcDbEntity
  8
0
  6
Continuous
 62
     7
370
     0
100
AcDbCircle
 10
231.1941255982
 20
49.1474108885
 30
0.0
 40
3.386778821242534
100
AcDbArc
 50
175.1791309351
 51
225.8020354417
  0
LINE
  5
26A
330
1F
100
AcDbEntity
  8
0
  6
Continuous
 62
     7
370
     0
100
AcDbLine
 10
279.6172317071
 20
32.1943337875
 30
0.0
 11
279.3520666642
 21
32.4221455661
 31
0.0
  0
LWPOLYLINE
  5
26B
330
1F
100
AcDbEntity
  8
0
  6
Continuous
 62
     7
370
     0
100
AcDbPolyline
 90
        3
 70
   128
 43
0.0
 10
252.003100544
 20
26.2617702949
 10
251.823582225
 20
26.6157357508
 10
251.5188973315
 20
27.3877969902
  0
ARC
  5
26C
330
1F
100
AcDbEntity
  8
0
  6
Continuous
 62
     7
370
     0
100
AcDbCircle
 10
257.1588587759
 20
29.3163993117
 30
0.0
 40
6.317228529306174
100
AcDbArc
 50
197.2452599966
 51
213.8862286327
  0
LINE
  5
26D
330
1F
100
AcDbEntity
  8
0
  6
Continuous
 62
     7
370
     0
100
AcDbLine
 10
251.9340012237
 20
27.6166676628
 30
0.0
 11
247.7090382061
 21
30.0556868968
 31
0.0
  0
ARC
  5
26E
330
1F
100
AcDbEntity
  8
0
  6
Continuous
 62
     7
370
     0
100
AcDbCircle
 10
252.252907534
 20
30.299910497
 30
0.0
 40
6.954715722544988
100
AcDbArc
 50
195.1371723711
 51
223.5983050349
  0
LINE
  5
26F
330
1F
100
AcDbEntity
  8
0
  6
Continuous
 62
     7
370
     0
100
AcDbLine
 10
273.6598570757
 20
35.7081882162
 30
0.0
 11
279.3520666642
 21
32.4221455661
 31
0.0
  0
OLE2FRAME
  5
270
330
1F
100
AcDbEntity
  8
0
100
AcDbOle2Frame
 70
     2
  3
Paintbrush-Bild
 10
13.8511154363
 20
38.264191557
 30
0.0
 11
51.6290888628
 21
31.9806341108
 31
0.0
 71
     2
 72
     0
 73
     1
 90
    12928
310
80552BED0767C5B32B40DDAF6807D121434000000000000000006FFBDDFB85D0
310
4940DDAF6807D121434000000000000000006FFBDDFB85D04940416F4BD60AFB
310
3F4000000000000000002BED0767C5B32B40416F4BD60AFB3F40000000000000
310
0000000000000100000000010000010000000100000000000100000000320000
310
D0CF11E0A1B11AE1000000000000000000000000000000003E000300FEFF0900
310
0600000000000000000000000100000001000000000000000010000002000000
310
01000000FEFFFFFF0000000000000000FFFFFFFFFFFFFFFFFFFFFFFFFFFFFFFF
310
FFFFFFFFFFFFFFFFFFFFFFFFFFFFFFFFFFFFFFFFFFFFFFFFFFFFFFFFFFFFFFFF
310
FFFFFFFFFFFFFFFFFFFFFFFFFFFFFFFFFFFFFFFFFFFFFFFFFFFFFFFFFFFFFFFF
310
FFFFFFFFFFFFFFFFFFFFFFFFFFFFFFFFFFFFFFFFFFFFFFFFFFFFFFFFFFFFFFFF
310
FFFFFFFFFFFFFFFFFFFFFFFFFFFFFFFFFFFFFFFFFFFFFFFFFFFFFFFFFFFFFFFF
310
FFFFFFFFFFFFFFFFFFFFFFFFFFFFFFFFFFFFFFFFFFFFFFFFFFFFFFFFFFFFFFFF
310
FFFFFFFFFFFFFFFFFFFFFFFFFFFFFFFFFFFFFFFFFFFFFFFFFFFFFFFFFFFFFFFF
310
FFFFFFFFFFFFFFFFFFFFFFFFFFFFFFFFFFFFFFFFFFFFFFFFFFFFFFFFFFFFFFFF
310
FFFFFFFFFFFFFFFFFFFFFFFFFFFFFFFFFFFFFFFFFFFFFFFFFFFFFFFFFFFFFFFF
310
FFFFFFFFFFFFFFFFFFFFFFFFFFFFFFFFFFFFFFFFFFFFFFFFFFFFFFFFFFFFFFFF
310
FFFFFFFFFFFFFFFFFFFFFFFFFFFFFFFFFFFFFFFFFFFFFFFFFFFFFFFFFFFFFFFF
310
FFFFFFFFFFFFFFFFFFFFFFFFFFFFFFFFFFFFFFFFFFFFFFFFFFFFFFFFFFFFFFFF
310
FFFFFFFFFFFFFFFFFFFFFFFFFFFFFFFFFFFFFFFFFFFFFFFFFFFFFFFFFFFFFFFF
310
FFFFFFFFFFFFFFFFFFFFFFFFFFFFFFFFFFFFFFFFFFFFFFFFFFFFFFFFFFFFFFFF
310
FDFFFFFFFEFFFFFFFEFFFFFFFEFFFFFF05000000060000000700000008000000
310
090000000A0000000B0000000C0000000D0000000E0000000F00000010000000
310
11000000120000001300000014000000150000001600000017000000FEFFFFFF
310
FFFFFFFFFFFFFFFFFFFFFFFFFFFFFFFFFFFFFFFFFFFFFFFFFFFFFFFFFFFFFFFF
310
FFFFFFFFFFFFFFFFFFFFFFFFFFFFFFFFFFFFFFFFFFFFFFFFFFFFFFFFFFFFFFFF
310
FFFFFFFFFFFFFFFFFFFFFFFFFFFFFFFFFFFFFFFFFFFFFFFFFFFFFFFFFFFFFFFF
310
FFFFFFFFFFFFFFFFFFFFFFFFFFFFFFFFFFFFFFFFFFFFFFFFFFFFFFFFFFFFFFFF
310
FFFFFFFFFFFFFFFFFFFFFFFFFFFFFFFFFFFFFFFFFFFFFFFFFFFFFFFFFFFFFFFF
310
FFFFFFFFFFFFFFFFFFFFFFFFFFFFFFFFFFFFFFFFFFFFFFFFFFFFFFFFFFFFFFFF
310
FFFFFFFFFFFFFFFFFFFFFFFFFFFFFFFFFFFFFFFFFFFFFFFFFFFFFFFFFFFFFFFF
310
FFFFFFFFFFFFFFFFFFFFFFFFFFFFFFFFFFFFFFFFFFFFFFFFFFFFFFFFFFFFFFFF
310
FFFFFFFFFFFFFFFFFFFFFFFFFFFFFFFFFFFFFFFFFFFFFFFFFFFFFFFFFFFFFFFF
310
FFFFFFFFFFFFFFFFFFFFFFFFFFFFFFFFFFFFFFFFFFFFFFFFFFFFFFFFFFFFFFFF
310
FFFFFFFFFFFFFFFFFFFFFFFFFFFFFFFFFFFFFFFFFFFFFFFFFFFFFFFFFFFFFFFF
310
FFFFFFFFFFFFFFFFFFFFFFFFFFFFFFFFFFFFFFFFFFFFFFFFFFFFFFFFFFFFFFFF
310
FFFFFFFFFFFFFFFFFFFFFFFFFFFFFFFFFFFFFFFFFFFFFFFFFFFFFFFFFFFFFFFF
310
52006F006F007400200045006E00740072007900000000000000000000000000
310
0000000000000000000000000000000000000000000000000000000000000000
310
16000500FFFFFFFFFFFFFFFF020000000A00030000000000C000000000000046
310
000000000000000000000000005D1FF4CA22D20103000000C000000000000000
310
01004F006C006500000000000000000000000000000000000000000000000000
310
0000000000000000000000000000000000000000000000000000000000000000
310
0A000200FFFFFFFFFFFFFFFFFFFFFFFF00000000000000000000000000000000
310
0000000000000000000000000000000000000000000000001400000000000000
310
010043006F006D0070004F0062006A0000000000000000000000000000000000
310
0000000000000000000000000000000000000000000000000000000000000000
310
120002010100000003000000FFFFFFFF00000000000000000000000000000000
310
0000000000000000000000000000000000000000010000004D00000000000000
310
01004F006C006500310030004E00610074006900760065000000000000000000
310
0000000000000000000000000000000000000000000000000000000000000000
310
1A000200FFFFFFFFFFFFFFFFFFFFFFFF00000000000000000000000000000000
310
0000000000000000000000000000000000000000040000002426000000000000
310
FEFFFFFF02000000FEFFFFFFFFFFFFFFFFFFFFFFFFFFFFFFFFFFFFFFFFFFFFFF
310
FFFFFFFFFFFFFFFFFFFFFFFFFFFFFFFFFFFFFFFFFFFFFFFFFFFFFFFFFFFFFFFF
310
FFFFFFFFFFFFFFFFFFFFFFFFFFFFFFFFFFFFFFFFFFFFFFFFFFFFFFFFFFFFFFFF
310
FFFFFFFFFFFFFFFFFFFFFFFFFFFFFFFFFFFFFFFFFFFFFFFFFFFFFFFFFFFFFFFF
310
FFFFFFFFFFFFFFFFFFFFFFFFFFFFFFFFFFFFFFFFFFFFFFFFFFFFFFFFFFFFFFFF
310
FFFFFFFFFFFFFFFFFFFFFFFFFFFFFFFFFFFFFFFFFFFFFFFFFFFFFFFFFFFFFFFF
310
FFFFFFFFFFFFFFFFFFFFFFFFFFFFFFFFFFFFFFFFFFFFFFFFFFFFFFFFFFFFFFFF
310
FFFFFFFFFFFFFFFFFFFFFFFFFFFFFFFFFFFFFFFFFFFFFFFFFFFFFFFFFFFFFFFF
310
FFFFFFFFFFFFFFFFFFFFFFFFFFFFFFFFFFFFFFFFFFFFFFFFFFFFFFFFFFFFFFFF
310
FFFFFFFFFFFFFFFFFFFFFFFFFFFFFFFFFFFFFFFFFFFFFFFFFFFFFFFFFFFFFFFF
310
FFFFFFFFFFFFFFFFFFFFFFFFFFFFFFFFFFFFFFFFFFFFFFFFFFFFFFFFFFFFFFFF
310
FFFFFFFFFFFFFFFFFFFFFFFFFFFFFFFFFFFFFFFFFFFFFFFFFFFFFFFFFFFFFFFF
310
FFFFFFFFFFFFFFFFFFFFFFFFFFFFFFFFFFFFFFFFFFFFFFFFFFFFFFFFFFFFFFFF
310
FFFFFFFFFFFFFFFFFFFFFFFFFFFFFFFFFFFFFFFFFFFFFFFFFFFFFFFFFFFFFFFF
310
FFFFFFFFFFFFFFFFFFFFFFFFFFFFFFFFFFFFFFFFFFFFFFFFFFFFFFFFFFFFFFFF
310
FFFFFFFFFFFFFFFFFFFFFFFFFFFFFFFFFFFFFFFFFFFFFFFFFFFFFFFFFFFFFFFF
310
0100000200000000000000000000000000000000000000000000000000000000
310
0000000000000000000000000000000000000000000000000000000000000000
310
0100FEFF030A0000FFFFFFFF0A00030000000000C00000000000004607000000
310
5042727573680007000000504272757368000700000050427275736800F439B2
310
7100000000000000000000000000000000000000000000000000000000000000
310
0000000000000000000000000000000000000000000000000000000000000000
310
0000000000000000000000000000000000000000000000000000000000000000
310
0000000000000000000000000000000000000000000000000000000000000000
310
0000000000000000000000000000000000000000000000000000000000000000
310
0000000000000000000000000000000000000000000000000000000000000000
310
0000000000000000000000000000000000000000000000000000000000000000
310
0000000000000000000000000000000000000000000000000000000000000000
310
0000000000000000000000000000000000000000000000000000000000000000
310
0000000000000000000000000000000000000000000000000000000000000000
310
0000000000000000000000000000000000000000000000000000000000000000
310
0000000000000000000000000000000000000000000000000000000000000000
310
20260000424D0E260000000000003E00000028000000B40200006E0000000100
310
01000000000000000000130B0000130B00000200000002000000000000FFFFFF
310
FFFFFFFFFFFFFFFFFFFFFFFFFFFFFFFFFFFFFFFFFFFFFFFFFFFFFFFFFFFFFFFF
310
FFFFFFFFFFFFFFFFFFFFFFFFFFFFFFFFFFFFFFFFFFFFFFFFFFFFFFFFFFFFFFFF
310
FFFFFFFFFFFFFFFFFFFFFFFFFFFFFFFFFFFFFFFFFFFFFFFFF000FFFFFFFFFFFF
310
FFFFFFFFFFFFFFFFFFFFFFFFFFFFFFFFFFFFFFFFFFFFFFFFFFFFFFFFFFFFFFFF
310
FFFFFFFFFFFFFFFFFFFFFFFFFFFFFFFFFFFFFFFFFFFFFFFFFFFFFFFFFFFFFFFF
310
FFFFFFFFFFFFFFFFFFFFFFFFFFFFFFFFF000FFFFFFFFFFFFFFFFFFFFFFFFFFFF
310
FFFFFFFFFFFFFFFFFFFFFFFFFFFFFFFFFFFFFFFFFFFFFFFFFFFFFFFFFFFFFFFF
310
FFFFFFFFFFFFFFFFFFFFFFFFFFFFFFFFFFFFFFFFFFFFFFFFFFFFFFFFFFFFFFFF
310
FFFFFFFFFFFFFFFFF000FFFFFFFFFFFFFFFFFFFFFFFFFFFFFFFFFFFFFFFFFFFF
310
FFFFFFFFFFFFFFFFFFFFFFFFFFFFFFFFFFFFFFFFFFFFFFFFFFFFFFFFFFFFFFFF
310
FFFFFFFFFFFFFFFFFFFFFFFFFFFFFFFFFFFFFFFFFFFFFFFFFFFFFFFFFFFFFFFF
310
F000FFFFFFFFFFFFFFFFFFFFFFFFFFFFFFFFFFFFFFFFFFFFFFFFFFFFFFFFFFFF
310
FFFFFFFFFFFFFFFFFFFFFFFFFFFFFFFFFFFFFFFFFFFFFFFFFFFFFFFFFFFFFFFF
310
FFFFFFFFFFFFFFFFFFFFFFFFFFFFFFFFFFFFFFFFFFFFFFFFF000FFFFFFFFFFFF
310
FFFFFFFFFFFFFFFFFFFFFFFFFFFFFFFFFFFFFFFFFFFFFFFFFFFFFFFFFFFFFFFF
310
FFFFFFFFFFFFFFFFFFFFFFFFFFFFFFFFFFFFFFFFFFFFFFFFFFFFFFFFFFFFFFFF
310
FFFFFFFFFFFFFFFFFFFFFFFFFFFFFFFFF000FFFFFFFFFFFFFFFFFFFFFFFFFFFF
310
FFFFFFFFFFFFFFFFFFFFFFFFFFFFFFFFFFFFFFFFFFFFFFFFFFFFFFFFFFFFFFFF
310
FFFFFFFFFFFFFFFFFFFFFFFFFFFFFFFFFFFFFFFFFFFFFFFFFFFFFFFFFFFFFFFF
310
FFFFFFFFFFFFFFFFF000FFFFFFFFFFFFFFFFFFFFFFFFFFFFFFFFFFFFFFFFFFFF
310
FFFFFFFFFFFFFFFFFFFFFFFFFFFFFFFFFFFFFFFFFFFFFFFFFFFFFFFFFFFFFFFF
310
FFFFFFFFFFFFFFFFFFFFFFFFFFFFFFFFFFFFFFFFFFFFFFFFFFFFFFFFFFFFFFFF
310
F000FFFFFFFFFFFFFFFFFFFFFFFFFFFFFFFFFFFFFFFFFFFFFFFFFFFFFFFFFFFF
310
FFFFFFFFFFFFFFFFFFFFFFFFFFFFFFFFFFFFFFFFFFFFFFFFFFFFFFFFFFFFFFFF
310
FFFFFFFFFFFFFFFFFFFFFFFFFFFFFFFFFFFFFFFFFFFFFFFFF000FFFFFFFFFFFF
310
FFFFFFFFFFFFFFFFFFFFFFFFFFFFFFFFFFFFFFFFFFFFFFFFFFFFFFFFFFFFFFFF
310
FFFFFFFFFFFFFFFFFFFFFFFFFFFFFFFFFFFFFFFFFFFFFFFFFFFFFFFFFFFFFFFF
310
FFFFFFFFFFFFFFFFFFFFFFFFFFFFFFFFF000FFFFFFFFFFFFFFFFFFFFFFFFFFFF
310
FFFFFFFFFFFFFFFFFFFFFFFFFFFFFFFFFFFFFFFFFFFFFFFFFFFFFFFFFFFFFFFF
310
FFFFFFFFFFFFFFFFFFFFFFFFFFFFFFFFFFFFFFFFFFFFFFFFFFFFFFFFFFFFFFFF
310
FFFFFFFFFFFFFFFFF000FFFFFFFFFFFFFFFFFFFFFFFFFFFFFFFFFFFFFFFFFFFF
310
FFFFFFFFFFFFFFFFFFFFFFFFFFFFFFFFFFFFFFFFFFFFFFFFFFFFFFFFFFFFFFFF
310
FFFFFFFFFFFFFFFFFFFFFFFFFFFFFFFFFFFFFFFFFFFFFFFFFFFFFFFFFFFFFFFF
310
F000FFFFFFFFFFFFFFFFFFFFFFFFFFFFFFFFFFFFFFFFFFFFFFFFFFFFFFFFFFFF
310
FFFFFFFFFFFFFFFFFFFFFFFFFFFFFFFFFFFFFFFFFFFFFFFFFFFFFFFFFFFFFFFF
310
FFFFFFFFFFFFFFFFFFFFFFFFFFFFFFFFFFFFFFFFFFFFFFFFF000FFFFFFFFFFFF
310
FFFFFFFFFFFFFFFFFFFFFFFFFFFFFFFFFFFFFFFFFFFFFFFFFFFFFFFFFFFFFFFF
310
FFFFFFFFFFFFFFFFFFFFFFFFFFFFFFFFFFFFFFFFFFFFFFFFFFFFFFFFFFFFFFFF
310
FFFFFFFFFFFFFFFFFFFFFFFFFFFFFFFFF000FFFFFFFFFFFFFFFFFFFFFFFFFFFF
310
FFFFFFFFFFFFFFFFFFFFFFFFFFFFFFFFFFFFFFFFFFFFFFFFFFFFFFFFFFFFFFFF
310
FFFFFFFFFFFFFFFFFFFFFFFFFFFFFFFFFFFFFFFFFFFFFFFFFFFFFFFFFFFFFFFF
310
FFFFFFFFFFFFFFFFF000FFFFFFFFFFFFFFFFFFFFFFFFFFFFFFFFFFFFFFFFFFFF
310
FFFFFFFFFFFFFFFFFFFFFFFFFFFFFFFFFFFFFFFFFFFFFFFFFFFFFFFFFFFFFFFF
310
FFFFFFFFFFFFFFFFFFFFFFFFFFFFFFFFFFFFFFFFFFFFFFFFFFFFFFFFFFFFFFFF
310
F000FFFFFFFFFFFFFFFFFFFFFFFFFFFFFFFFFFFFFFFFFFFFFFFFFFFFFFFFFFFF
310
FFFFFFFFFFFFFFFFFFFFFFFFFFFFFFFFFFFFFFFFFFFFFFFFFFFFFFFFFFFFFFFF
310
FFFFFFFFFFFFFFFFFFFFFFFFFFFFFFFFFFFFFFFFFFFFFFFFF000FFFFFFFFFFFF
310
FFFFFFFFFFFFFFFFFFFFFFFFFFFFFFFFFFFFFFFFFFFFFFFFFFFFFFFFFFFFFFFF
310
FFFFFFFFFFFFFFFFFFFFFFFFFFFFFFFFFFFFFFFFFFFFFFFFFFFFFFFFFFFFFFFF
310
FFFFFFFFFFFFFFFFFFFFFFFFFFFFFFFFF000FFFFFFFFFFFFFFFFFFFFFFFFFFFF
310
FFFFFFFFFFFFFFFFFFFFFFFFFFFFFFFFFFFFFFFFFFFFFFFFFFFFFFFFFFFFFFFF
310
FFFFFFFFFFFFFFFFFFFFFFFFFFFFFFFFFFFFFFFFFFFFFFFFFFFFFFFFFFFFFFFF
310
FFFFFFFFFFFFFFFFF000FFFFF80003FFFFFFFFFFFFFFFFFFFFFFFFFFFFFFFFFF
310
FFFFF00007FFFFFFFFFF00007FFFFFF800000000000000007FFFFFFFFFFFFFFF
310
FFFFFFFC001FFFFFFFFFFFFFFC001FFFFFFFFFFFFFFFFFFFFFFFFFFE0007FFFF
310
F000FFFF8000007FFFFFFFF8000FFFFFC0007FFFFF80007FFFFF0000007FFFFF
310
FFF8000007FFFFF800000000000000007FFFFFF0001FFFFFFFFFFFC00001FFFF
310
FFFFFFFFC00001FFFFFFFF000000000003FFFFE000007FFFF000FFFE0000000F
310
FFFFFFF0000FFFFF80007FFFFF80007FFFFC0000001FFFFFFFC0000001FFFFF8
310
00000000000000007FFFFFF0001FFFFFFFFFFE0000003FFFFFFFFFFE0000003F
310
FFFFFF000000000003FFFF0000000FFFF000FFF800000003FFFFFFF00007FFFF
310
80007FFFFF80007FFFF000000007FFFFFF000000003FFFF80000000000000000
310
7FFFFFF0001FFFFFFFFFF80000000FFFFFFFFFF80000000FFFFFFF0000000000
310
03FFFC00000003FFF000FFE000000000FFFFFFF00007FFFF80003FFFFF80007F
310
FFC000000001FFFFFC000000001FFFF800000000000000007FFFFFF0001FFFFF
310
FFFFE000000003FFFFFFFFE000000003FFFFFF000000000003FFF000000000FF
310
F000FF80000000007FFFFFF00007FFFF80003FFFFF80007FFF8000000000FFFF
310
F80000000007FFF800000000000000007FFFFFF0001FFFFFFFFFC000000001FF
310
FFFFFFC000000001FFFFFF000000000003FFC0000000007FF000FF0000000000
310
3FFFFFE00007FFFF00003FFFFF80007FFE00000000003FFFF00000000003FFF8
310
00000000000000007FFFFFF0001FFFFFFFFF8000000000FFFFFFFF8000000000
310
FFFFFF000000000003FF80000000003FF000FE00000000001FFFFFE00003FFFF
310
00003FFFFF80007FFC00000000001FFFE00000000001FFF8000001FFFE000000
310
7FFFFFF0001FFFFFFFFE00000000003FFFFFFE00000000003FFFFF0000000000
310
03FF00000000001FF000FC00000000000FFFFFE00003FFFF00001FFFFF80007F
310
F800000000001FFFC00000000000FFF8000001FFFE0000007FFFFFF0001FFFFF
310
FFFC00000000001FFFFFFC00000000001FFFFF000000000003FE00000000000F
310
F000F8000000000007FFFFE00003FFFF00001FFFFF80007FF800000000000FFF
310
800000000000FFF8000001FFFE0000007FFFFFF0001FFFFFFFF800000000000F
310
FFFFF800000000000FFFFF000000000003FC000000000007F000F80000000000
310
03FFFFC00003FFFE00001FFFFF80007FF0000000000007FF0000000000007FF8
310
000001FFFE0000007FFFFFF0001FFFFFFFF0000000000007FFFFF00000000000
310
07FFFF000000000003F8000000000003F000F0000000000003FFFFC00001FFFE
310
00001FFFFF80007FE0000000000007FE0000000000003FF8000001FFFE000000
310
7FFFFFF0001FFFFFFFF0000000000007FFFFF0000000000007FFFF0000000000
310
03F800001F800003F000E00001FFF00001FFFFC00001FFFE00000FFFFF80007F
310
E00001FFE00003FE00001FFF00003FF8000001FFFE0000007FFFFFF0001FFFFF
310
FFE000003E000003FFFFE000003E000003FFFF000000000003F00001FFF80001
310
F000E00007FFFC0001FFFFC00001FFFE00000FFFFF80007FC0000FFFFC0003FC
310
0000FFFFC0001FF8000001FFFE0000007FFFFFF0001FFFFFFFC00003FFE00001
310
FFFFC00003FFE00001FFFF0001FFFFFFFFF00007FFFE0001F000E0000FFFFF00
310
00FFFF800001FFFC00000FFFFF80007FC0001FFFFE0001FC0001FFFFE0001FF8
310
000001FFFE0000007FFFFFF0001FFFFFFF80000FFFF80000FFFF80000FFFF800
310
00FFFF0003FFFFFFFFE0000FFFFF8000F000C0003FFFFF8000FFFF800000FFFC
310
000007FFFF80007F80003FFFFF0001FC0003FFFFF0001FF8000001FFFE000000
310
7FFFFFF0001FFFFFFF80003FFFFE0000FFFF80003FFFFE0000FFFF0003FFFFFF
310
FFE0003FFFFF8000F000C0003FFFFF8000FFFF800000FFFC000007FFFF80007F
310
80007FFFFF8001F80007FFFFF8000FF8000001FFFE0000007FFFFFF0001FFFFF
310
FF00007FFFFF00007FFF00007FFFFF00007FFF0003FFFFFFFFE0003FFFFFC000
310
F000C0007FFFFFC000FFFF000000FFFC000007FFFF80007F8000FFFFFF8000F8
310
000FFFFFF8000FF8000001FFFE0000007FFFFFF0001FFFFFFF0000FFFFFF8000
310
7FFF0000FFFFFF80007FFF0003FFFFFFFFC0007FFFFFC00070008000FFFFFFC0
310
00FFFF000000FFF8000007FFFF80007F8000FFFFFF8000F8000FFFFFF8000FF8
310
000001FFFE0000007FFFFFF0001FFFFFFE0001FFFFFFC0003FFE0001FFFFFFC0
310
003FFF0003FFFFFFFFC0007FFFFFE00070008000FFFFFFC0007FFF0000007FF8
310
000003FFFF80007F0001FFFFFF8000F8000FFFFFF8000FF8000001FFFE000000
310
7FFFFFF0001FFFFFFE0001FFFFFFC0003FFE0001FFFFFFC0003FFF0003FFFFFF
310
FFC000FFFFFFE00070008000FFFFFFC0007FFF0000007FF8000003FFFF80007F
310
0001FFFFFF8000F8001FFFFFF8000FF8000001FFFE0000007FFFFFF0001FFFFF
310
FE0003FFFFFFE0003FFE0003FFFFFFE0003FFF0003FFFFFFFFC000FFFFFFE000
310
70008000FFFFFFC0007FFE0000007FF8000003FFFF80007F0001FFFFFF8000F0
310
001FFFFFF8000FF8000001FFFE0000007FFFFFF0001FFFFFFC0003FFFFFFE000
310
1FFC0003FFFFFFE0001FFF0003FFFFFFFFC000FFFFFFC00070008000FFFFFF80
310
007FFE0000007FF0000003FFFF80007F0001FFFFFF0000F0001FFFFFF8000FF8
310
000001FFFE0000007FFFFFF0001FFFFFFC0007FFFFFFF0001FFC0007FFFFFFF0
310
001FFF0003FFFFFFFFC000FFFFFFC00070008001FFFFFF0000FFFE0000003FF0
310
000001FFFF80007F0001FFFFFF0000F8001FFFFFF0000FF8000001FFFE000000
310
7FFFFFF0001FFFFFFC0007FFFFFFF0001FFC0007FFFFFFF0001FFF0003FFFFFF
310
FFC001FFFFFF80007000FFFFFFFFFE0000FFFE0008003FF0008001FFFF80007F
310
FFFFFFFFFC0000FFFFFFFFFFE0000FF8000001FFFE0000007FFFFFF0001FFFFF
310
F8000FFFFFFFF8000FF8000FFFFFFFF8000FFF0003FFFFFFFFFFFFFFFFFF0000
310
7000FFFFFFFFFC0000FFFC0008003FF0008001FFFF80007FFFFFFFFFF80001FF
310
FFFFFFFF80000FF8000001FFFE0000007FFFFFF0001FFFFFF8000FFFFFFFF800
310
0FF8000FFFFFFFF8000FFF0003FFFFFFFFFFFFFFFFFE0000F000FFFFFFFFE000
310
00FFFC000C003FE000C001FFFF80007FFFFFFFFFC00001FFFFFFFFFE00001FF8
310
000001FFFE0000007FFFFFF0001FFFFFF8000FFFFFFFF8000FF8000FFFFFFFF8
310
000FFF0003FFFFFFFFFFFFFFFFF00000F000FFFFFFFE000001FFFC000C001FE0
310
00C000FFFF80007FFFFFFFFE000001FFFFFFFFE000001FF80FFFFFFFFFFFFFC0
310
7FFFFFF0001FFFFFF8000FFFFFFFF8000FF8000FFFFFFFF8000FFF0003FFFFFF
310
FFFFFFFFFF800000F000FFFFFFC0000001FFFC001C001FE001C000FFFF80007F
310
FFFFFF80000003FFFFFFF80000001FF80FFFFFFFFFFFFFC07FFFFFF0001FFFFF
310
F8001FFFFFFFFC000FF8001FFFFFFFFC000FFF0003FFFFFFFFFFFFFFF0000001
310
F000FFFFF800000001FFF8001C001FE001C000FFFF80007FFFFFF800000003FF
310
FFFF800000003FF80FFFFFFFFFFFFFC07FFFFFF0001FFFFFF8001FFFFFFFFC00
310
0FF8001FFFFFFFFC000FFF0003FFFFFFFFFFFFFE00000001F000FFFFC0000000
310
03FFF8001E001FC001E000FFFF80007FFFFF8000000007FFFFFC000000003FF8
310
0FFFFFFFFFFFFFC07FFFFFF0001FFFFFF8001FFFFFFFFC000FF8001FFFFFFFFC
310
000FFF0003FFFFFFFFFFFFE000000003F000FFFE0000000007FFF8001E000FC0
310
01E0007FFF80007FFFFE0000000007FFFFE0000000007FF80FFFFFFFFFFFFFC0
310
7FFFFFF0001FFFFFF0001FFFFFFFFC0007F0001FFFFFFFFC0007FF0003FFFFFF
310
FFFFFF0000000003F000FFF80000000007FFF8001E000FC003E0007FFF80007F
310
FFF0000000000FFFFF8000000000FFF80FFFFFFFFFFFFFC07FFFFFF0001FFFFF
310
F0001FFFFFFFFC0007F0001FFFFFFFFC0007FF0003FFFFFFFFFFFC0000000007
310
F000FFE0000000000FFFF0003E000FC003E0007FFF80007FFFC0000000001FFF
310
FE0000000001FFF80FFFFFFFFFFFFFC07FFFFFF0001FFFFFF0001FFFFFFFFC00
310
07F0001FFFFFFFFC0007FF0003FFFFFFFFFFF0000000000FF000FFC000000000
310
1FFFF0003F000F8003F0003FFF80007FFF80000000003FFFF80000000003FFF8
310
0FFFFFFFFFFFFFC07FFFFFF0001FFFFFF0001FFFFFFFFC0007F0001FFFFFFFFC
310
0007FF0003FFFFFFFFFFE0000000001FF000FF00000000007FFFF0003F000780
310
03F0003FFF80007FFF00000000007FFFF00000000007FFF80FFFFFFFFFFFFFC0
310
7FFFFFF0001FFFFFF0001FFFFFFFFC0007F0001FFFFFFFFC0007FF0003FFFFFF
310
FFFF80000000007FF000FE0000000000FFFFE0003F00078007F0003FFF80007F
310
FE0000000001FFFFE0000000001FFFF80FFFFFFFFFFFFFC07FFFFFF0001FFFFF
310
F0001FFFFFFFFC0007F0001FFFFFFFFC0007FF0003FFFFFFFFFF0000000000FF
310
F000FC0000000003FFFFE0007F00078007F0003FFF80007FFC0000000007FFFF
310
C0000000007FFFF80FFFFFFFFFFFFFC07FFFFFF0001FFFFFF8001FFFFFFFFC00
310
0FF8001FFFFFFFFC000FFF0003FFFFFFFFFE0000000003FFF000FC000000000F
310
FFFFE0007F80070007F8001FFF80007FF8000000001FFFFF8000000001FFFFF8
310
0FFFFFFFFFFFFFC07FFFFFF0001FFFFFF8001FFFFFFFFC000FF8001FFFFFFFFC
310
000FFF0003FFFFFFFFFC000000000FFFF000F8000000007FFFFFE0007F800700
310
07F8001FFF80007FF000000000FFFFFF800000000FFFFFF80FFFFFFFFFFFFFC0
310
7FFFFFF0001FFFFFF8000FFFFFFFF8000FF8000FFFFFFFF8000FFF0003FFFFFF
310
FFFC000000007FFFF000F800000007FFFFFFC0007F8003000FF8001FFF80007F
310
F000000007FFFFFF000000007FFFFFF80FFFFFFFFFFFFFC07FFFFFF0001FFFFF
310
F8000FFFFFFFF8000FF8000FFFFFFFF8000FFF0003FFFFFFFFF80000000FFFFF
310
F000F0000000FFFFFFFFC000FF8003000FF8001FFF80007FE0000000FFFFFFFF
310
0000000FFFFFFFF8000001FFFE0000007FFFFFF0001FFFFFF8000FFFFFFFF800
310
0FF8000FFFFFFFF8000FFF0003FFFFFFFFF8000000FFFFFFF000F000000FFFFF
310
FFFFC000FFC002000FF8000FFF80007FE000001FFFFFFFFE000001FFFFFFFFF8
310
000001FFFE0000007FFFFFF0001FFFFFF8000FFFFFFFF8000FF8000FFFFFFFF8
310
000FFF0003FFFFFFFFF000001FFFFFFFF000E00000FFFFFFFFFFC000FFC00200
310
0FFC000FFF80007FE00001FFFFFFFFFE00001FFFFFFFFFF8000001FFFE000000
310
7FFFFFF0001FFFFFFC000FFFFFFFF8001FFC000FFFFFFFF8001FFF0003FFFFFF
310
FFF00001FFFFFFFFF000E00007FFFFFFFFFF8000FFC000001FFC000FFF80007F
310
C0000FFFFFFFFFFE0000FFFFFFFFFFF8000001FFFE0000007FFFFFF0001FFFFF
310
FC0007FFFFFFF0001FFC0007FFFFFFF0001FFF0003FFFFFFFFF00007FFFFFFFF
310
F000E0001FFFFFFFFFFF8000FFC000001FFC000FFF80007FC0003FFFFFFFFFFE
310
0001FFFFFFFFFFF8000001FFFE0000007FFFFFF0001FFFFFFC0007FFFFFFF000
310
1FFC0007FFFFFFF0001FFF0003FFFFFFFFF0001FFFFFFFFFF000E0003FFFFF00
310
03FF8001FFE000001FFC0007FF80007FC0007FFFFF0007FC0003FFFFF0003FF8
310
000001FFFE0000007FFFFFF0001FFFFFFC0003FFFFFFE0001FFC0003FFFFFFE0
310
001FFF0003FFFFFFFFF0003FFFFFFFFFF000E0003FFFFF0001FF8001FFE00000
310
1FFE0007FF80007FC0007FFFFE0003FC0007FFFFE0003FF8000001FFFE000000
310
7FFFFFF0001FFFFFFE0003FFFFFFE0003FFE0003FFFFFFE0003FFF0003FFFFFF
310
FFF0003FFFFF8001F000E0003FFFFF0001FF0001FFE000001FFE0007FF80007F
310
C0007FFFFE0003FC0007FFFFE0003FF8000001FFFE0000007FFFFFF0001FFFFF
310
FE0001FFFFFFC0003FFE0001FFFFFFC0003FFF0003FFFFFFFFF0003FFFFF0001
310
F000E0003FFFFF0003FF0001FFE000003FFE0007FF80007FC0007FFFFE0003FC
310
0007FFFFE0003FF8000001FFFE0000007FFFFFF0001FFFFFFF0001FFFFFFC000
310
7FFF0001FFFFFFC0007FFF0003FFFFFFFFF0003FFFFF0001F000E0003FFFFE00
310
03FF0003FFF000003FFE0003FF80007FC0007FFFFC0003FE0007FFFFE0003FF8
310
000001FFFE0000007FFFFFF0001FFFFFFF0000FFFFFF80007FFF0000FFFFFF80
310
007FFF0003FFFFFFFFF0003FFFFF0001F000E0003FFFFE0003FF0003FFF00000
310
3FFF0003FF80007FC0007FFFFC0007FE0007FFFFC0003FF8000001FFFE000000
310
7FFFFFF0001FFFFFFF80007FFFFF0000FFFF80007FFFFF0000FFFF0003FFFFFF
310
FFF0003FFFFF0003F000E0003FFFFC0003FE0003FFF000003FFF0003FF80007F
310
E0003FFFF80007FE0003FFFFC0007FF8000001FFFE0000007FFFFFF0001FFFFF
310
FF80003FFFFE0000FFFF80003FFFFE0000FFFF0003FFFFFFFFF0001FFFFE0003
310
F000F0001FFFF80003FE0003FFF000007FFF0001FF80007FE0003FFFF00007FE
310
0001FFFF80007FF8000001FFFE0000007FFFFFF0001FFFFFFFC0000FFFF80001
310
FFFFC0000FFFF80001FFFF0003FFFFFFFFF0001FFFFC0003F000F0000FFFF000
310
07FE0007FFF800007FFF0001FF80007FE0001FFFE00007FF0000FFFE00007FF8
310
000001FFFE0000007FFFFFF0001FFFFFFFC00003FFE00001FFFFC00003FFE000
310
01FFFF0003FFFFFFFFF8000FFFF80003F000F00003FFC00007FC0007FFF80000
310
7FFF8001FF80007FF00007FF80000FFF00007FF80000FFF8000001FFFE000000
310
7F80000000000001FFE000003E000003FFFFE000003E000003FFFF0003FFFFFF
310
FFF80003FFE00007F000F800000000000FFC0007FFF800007FFF8001FF80007F
310
F000000000000FFF000000000000FFF8000001FFFE0000007F80000000000001
310
FFF0000000000007FFFFF0000000000007FFFF0003FFFFFFFFFC00007E000007
310
F000F800000000000FFC0007FFF80000FFFF8000FF80007FF800000000001FFF
310
800000000001FFF8000001FFFE0000007F80000000000001FFF800000000000F
310
FFFFF800000000000FFFFF0003FFFFFFFFFC00000000000FF000FC0000000000
310
1FFC0007FFFC0000FFFF8000FF80007FF800000000003FFFC00000000001FFF8
310
000001FFFE0000007F80000000000001FFF800000000000FFFFFF80000000000
310
0FFFFF0003FFFFFFFFFE00000000001FF000FE00000000003FF8000FFFFC0000
310
FFFF8000FF80007FFC00000000003FFFC00000000003FFF8000001FFFE000000
310
7F80000000000001FFFC00000000001FFFFFFC00000000001FFFFF0003FFFFFF
310
FFFF00000000001FF000FF00000000003FF8000FFFFC0000FFFFC000FF80007F
310
FE00000000007FFFE00000000007FFF8000001FFFE0000007F80000000000001
310
FFFE00000000003FFFFFFE00000000003FFFFF0003FFFFFFFFFF80000000003F
310
F000FF80000000007FF8000FFFFC0001FFFFC0007F80007FFF0000000000FFFF
310
F0000000000FFFF800000000000000007F80000000000001FFFF8000000000FF
310
FFFFFF8000000000FFFFFF0003FFFFFFFFFFC0000000007FF000FFC000000000
310
FFF8000FFFFE0001FFFFC0007F80007FFF8000000001FFFFF8000000001FFFF8
310
00000000000000007F80000000000001FFFFC000000001FFFFFFFFC000000001
310
FFFFFF0003FFFFFFFFFFE000000000FFF000FFE000000003FFF0001FFFFE0001
310
FFFFC0007F80007FFFC000000007FFFFFE000000003FFFF80000000000000000
310
7F80000000000001FFFFE000000003FFFFFFFFE000000003FFFFFF0003FFFFFF
310
FFFFF000000003FFF000FFF80000000FFFF0001FFFFE0001FFFFE0007F80007F
310
FFF00000000FFFFFFF00000000FFFFF800000000000000007F80000000000001
310
FFFFF80000000FFFFFFFFFF80000000FFFFFFF0003FFFFFFFFFFFC0000000FFF
310
F000FFFE0000003FFFF0001FFFFE0003FFFFE0003F80007FFFFC0000003FFFFF
310
FFC0000003FFFFF800000000000000007F80000000000001FFFFFE0000003FFF
310
FFFFFFFE0000003FFFFFFF0003FFFFFFFFFFFF0000003FFFF000FFFF800000FF
310
FFF0001FFFFF0003FFFFE0003F80007FFFFF000001FFFFFFFFF800001FFFFFF8
310
00000000000000007F80000000000001FFFFFFC00001FFFFFFFFFFFFC00001FF
310
FFFFFF0003FFFFFFFFFFFFC00000FFFFF000FFFFF8000FFFFFFFFFFFFFFFFFFF
310
FFFFFFFFFFFFFFFFFFFFF0001FFFFFFFFFFF0000FFFFFFF80000000000000000
310
7FFFFFFFFFFFFFFFFFFFFFFC001FFFFFFFFFFFFFFC001FFFFFFFFFFFFFFFFFFF
310
FFFFFFFC001FFFFFF000FFFFFFFFFFFFFFFFFFFFFFFFFFFFFFFFFFFFFFFFFFFF
310
FFFFFFFFFFFFFFFFFFFFFFFFFFFFFFFFFFFFFFFFFFFFFFFFFFFFFFFFFFFFFFFF
310
FFFFFFFFFFFFFFFFFFFFFFFFFFFFFFFFFFFFFFFFFFFFFFFFFFFFFFFFFFFFFFFF
310
F000FFFFFFFFFFFFFFFFFFFFFFFFFFFFFFFFFFFFFFFFFFFFFFFFFFFFFFFFFFFF
310
FFFFFFFFFFFFFFFFFFFFFFFFFFFFFFFFFFFFFFFFFFFFFFFFFFFFFFFFFFFFFFFF
310
FFFFFFFFFFFFFFFFFFFFFFFFFFFFFFFFFFFFFFFFFFFFFFFFF000FFFFFFFFFFFF
310
FFFFFFFFFFFFFFFFFFFFFFFFFFFFFFFFFFFFFFFFFFFFFFFFFFFFFFFFFFFFFFFF
310
FFFFFFFFFFFFFFFFFFFFFFFFFFFFFFFFFFFFFFFFFFFFFFFFFFFFFFFFFFFFFFFF
310
FFFFFFFFFFFFFFFFFFFFFFFFFFFFFFFFF000FFFFFFFFFFFFFFFFFFFFFFFFFFFF
310
FFFFFFFFFFFFFFFFFFFFFFFFFFFFFFFFFFFFFFFFFFFFFFFFFFFFFFFFFFFFFFFF
310
FFFFFFFFFFFFFFFFFFFFFFFFFFFFFFFFFFFFFFFFFFFFFFFFFFFFFFFFFFFFFFFF
310
FFFFFFFFFFFFFFFFF000FFFFFFFFFFFFFFFFFFFFFFFFFFFFFFFFFFFFFFFFFFFF
310
FFFFFFFFFFFFFFFFFFFFFFFFFFFFFFFFFFFFFFFFFFFFFFFFFFFFFFFFFFFFFFFF
310
FFFFFFFFFFFFFFFFFFFFFFFFFFFFFFFFFFFFFFFFFFFFFFFFFFFFFFFFFFFFFFFF
310
F000FFFFFFFFFFFFFFFFFFFFFFFFFFFFFFFFFFFFFFFFFFFFFFFFFFFFFFFFFFFF
310
FFFFFFFFFFFFFFFFFFFFFFFFFFFFFFFFFFFFFFFFFFFFFFFFFFFFFFFFFFFFFFFF
310
FFFFFFFFFFFFFFFFFFFFFFFFFFFFFFFFFFFFFFFFFFFFFFFFF000FFFFFFFFFFFF
310
FFFFFFFFFFFFFFFFFFFFFFFFFFFFFFFFFFFFFFFFFFFFFFFFFFFFFFFFFFFFFFFF
310
FFFFFFFFFFFFFFFFFFFFFFFFFFFFFFFFFFFFFFFFFFFFFFFFFFFFFFFFFFFFFFFF
310
FFFFFFFFFFFFFFFFFFFFFFFFFFFFFFFFF000FFFFFFFFFFFFFFFFFFFFFFFFFFFF
310
FFFFFFFFFFFFFFFFFFFFFFFFFFFFFFFFFFFFFFFFFFFFFFFFFFFFFFFFFFFFFFFF
310
FFFFFFFFFFFFFFFFFFFFFFFFFFFFFFFFFFFFFFFFFFFFFFFFFFFFFFFFFFFFFFFF
310
FFFFFFFFFFFFFFFFF000FFFFFFFFFFFFFFFFFFFFFFFFFFFFFFFFFFFFFFFFFFFF
310
FFFFFFFFFFFFFFFFFFFFFFFFFFFFFFFFFFFFFFFFFFFFFFFFFFFFFFFFFFFFFFFF
310
FFFFFFFFFFFFFFFFFFFFFFFFFFFFFFFFFFFFFFFFFFFFFFFFFFFFFFFFFFFFFFFF
310
F000FFFFFFFFFFFFFFFFFFFFFFFFFFFFFFFFFFFFFFFFFFFFFFFFFFFFFFFFFFFF
310
FFFFFFFFFFFFFFFFFFFFFFFFFFFFFFFFFFFFFFFFFFFFFFFFFFFFFFFFFFFFFFFF
310
FFFFFFFFFFFFFFFFFFFFFFFFFFFFFFFFFFFFFFFFFFFFFFFFF000FFFFFFFFFFFF
310
FFFFFFFFFFFFFFFFFFFFFFFFFFFFFFFFFFFFFFFFFFFFFFFFFFFFFFFFFFFFFFFF
310
FFFFFFFFFFFFFFFFFFFFFFFFFFFFFFFFFFFFFFFFFFFFFFFFFFFFFFFFFFFFFFFF
310
FFFFFFFFFFFFFFFFFFFFFFFFFFFFFFFFF000FFFFFFFFFFFFFFFFFFFFFFFFFFFF
310
FFFFFFFFFFFFFFFFFFFFFFFFFFFFFFFFFFFFFFFFFFFFFFFFFFFFFFFFFFFFFFFF
310
FFFFFFFFFFFFFFFFFFFFFFFFFFFFFFFFFFFFFFFFFFFFFFFFFFFFFFFFFFFFFFFF
310
FFFFFFFFFFFFFFFFF000FFFFFFFFFFFFFFFFFFFFFFFFFFFFFFFFFFFFFFFFFFFF
310
FFFFFFFFFFFFFFFFFFFFFFFFFFFFFFFFFFFFFFFFFFFFFFFFFFFFFFFFFFFFFFFF
310
FFFFFFFFFFFFFFFFFFFFFFFFFFFFFFFFFFFFFFFFFFFFFFFFFFFFFFFFFFFFFFFF
310
F000FFFFFFFFFFFFFFFFFFFFFFFFFFFFFFFFFFFFFFFFFFFFFFFFFFFFFFFFFFFF
310
FFFFFFFFFFFFFFFFFFFFFFFFFFFFFFFFFFFFFFFFFFFFFFFFFFFFFFFFFFFFFFFF
310
FFFFFFFFFFFFFFFFFFFFFFFFFFFFFFFFFFFFFFFFFFFFFFFFF000FFFFFFFFFFFF
310
FFFFFFFFFFFFFFFFFFFFFFFFFFFFFFFFFFFFFFFFFFFFFFFFFFFFFFFFFFFFFFFF
310
FFFFFFFFFFFFFFFFFFFFFFFFFFFFFFFFFFFFFFFFFFFFFFFFFFFFFFFFFFFFFFFF
310
FFFFFFFFFFFFFFFFFFFFFFFFFFFFFFFFF000FFFFFFFFFFFFFFFFFFFFFFFFFFFF
310
FFFFFFFFFFFFFFFFFFFFFFFFFFFFFFFFFFFFFFFFFFFFFFFFFFFFFFFFFFFFFFFF
310
FFFFFFFFFFFFFFFFFFFFFFFFFFFFFFFFFFFFFFFFFFFFFFFFFFFFFFFFFFFFFFFF
310
FFFFFFFFFFFFFFFFF000FFFFFFFFFFFFFFFFFFFFFFFFFFFFFFFFFFFFFFFFFFFF
310
FFFFFFFFFFFFFFFFFFFFFFFFFFFFFFFFFFFFFFFFFFFFFFFFFFFFFFFFFFFFFFFF
310
FFFFFFFFFFFFFFFFFFFFFFFFFFFFFFFFFFFFFFFFFFFFFFFFFFFFFFFFFFFFFFFF
310
F000FFFFFFFFFFFFFFFFFFFFFFFFFFFFFFFFFFFFFFFFFFFFFFFFFFFFFFFFFFFF
310
FFFFFFFFFFFFFFFFFFFFFFFFFFFFFFFFFFFFFFFFFFFFFFFFFFFFFFFFFFFFFFFF
310
FFFFFFFFFFFFFFFFFFFFFFFFFFFFFFFFFFFFFFFFFFFFFFFFF000FFFFFFFFFFFF
310
FFFFFFFFFFFFFFFFFFFFFFFFFFFFFFFFFFFFFFFFFFFFFFFFFFFFFFFFFFFFFFFF
310
FFFFFFFFFFFFFFFFFFFFFFFFFFFFFFFFFFFFFFFFFFFFFFFFFFFFFFFFFFFFFFFF
310
FFFFFFFFFFFFFFFFFFFFFFFFFFFFFFFFF000FFFFFFFFFFFFFFFFFFFFFFFFFFFF
310
FFFFFFFFFFFFFFFFFFFFFFFFFFFFFFFFFFFFFFFFFFFFFFFFFFFFFFFFFFFFFFFF
310
FFFFFFFFFFFFFFFFFFFFFFFFFFFFFFFFFFFFFFFFFFFFFFFFFFFFFFFFFFFFFFFF
310
FFFFFFFFFFFFFFFFF000FFFFFFFFFFFFFFFFFFFFFFFFFFFFFFFFFFFFFFFFFFFF
310
FFFFFFFFFFFFFFFFFFFFFFFFFFFFFFFFFFFFFFFFFFFFFFFFFFFFFFFFFFFFFFFF
310
FFFFFFFFFFFFFFFFFFFFFFFFFFFFFFFFFFFFFFFFFFFFFFFFFFFFFFFFFFFFFFFF
310
F000FFFFFFFFFFFFFFFFFFFFFFFFFFFFFFFFFFFFFFFFFFFFFFFFFFFFFFFFFFFF
310
FFFFFFFFFFFFFFFFFFFFFFFFFFFFFFFFFFFFFFFFFFFFFFFFFFFFFFFFFFFFFFFF
310
FFFFFFFFFFFFFFFFFFFFFFFFFFFFFFFFFFFFFFFFFFFFFFFFF000FFFFFFFFFFFF
310
FFFFFFFFFFFFFFFFFFFFFFFFFFFFFFFFFFFFFFFFFFFFFFFFFFFFFFFFFFFFFFFF
310
FFFFFFFFFFFFFFFFFFFFFFFFFFFFFFFFFFFFFFFFFFFFFFFFFFFFFFFFFFFFFFFF
310
FFFFFFFFFFFFFFFFFFFFFFFFFFFFFFFFF0000000000000000000000000000000
310
0000000000000000000000000000000000000000000000000000000000000000
310
0000000000000000000000000000000000000000000000000000000000000000
310
0000000000000000000000000000000000000000000000000000000000000000
310
0000000000000000000000000000000000000000000000000000000000000000
310
0000000000000000000000000000000000000000000000000000000000000000
310
0000000000000000000000000000000000000000000000000000000000000000
310
0000000000000000000000000000000000000000000000000000000000000000
310
0000000000000000000000000000000000000000000000000000000000000000
310
0000000000000000000000000000000000000000000000000000000000000000
310
0000000000000000000000000000000000000000000000000000000000000000
310
0000000000000000000000000000000000000000000000000000000000000000
310
0000000000000000000000000000000000000000000000000000000000000000
310
0000000000000000000000000000000000000000000000000000000000000000
310
0000000000000000000000000000000000000000000000000000000000000000
310
0000000000000000000000000000000000000000000000000000000000000000
  1
OLE
  0
ENDSEC
  0
SECTION
  2
OBJECTS
  0
DICTIONARY
  5
C
330
0
100
AcDbDictionary
281
     1
  3
ACAD_GROUP
350
D
  3
ACAD_LAYOUT
350
1A
  3
ACAD_MLINESTYLE
350
17
  3
ACAD_PLOTSETTINGS
350
19
  3
ACAD_PLOTSTYLENAME
350
E
  3
ACAD_SCALELIST
350
47
  0
DICTIONARY
  5
D
102
{ACAD_REACTORS
330
C
102
}
330
C
100
AcDbDictionary
281
     1
  0
DICTIONARY
  5
1A
102
{ACAD_REACTORS
330
C
102
}
330
C
100
AcDbDictionary
281
     1
  3
Layout1
350
1E
  3
Layout2
350
26
  3
Model
350
22
  0
DICTIONARY
  5
17
102
{ACAD_REACTORS
330
C
102
}
330
C
100
AcDbDictionary
281
     1
  3
Standard
350
18
  0
DICTIONARY
  5
19
102
{ACAD_REACTORS
330
C
102
}
330
C
100
AcDbDictionary
281
     1
  0
ACDBDICTIONARYWDFLT
  5
E
102
{ACAD_REACTORS
330
C
102
}
330
C
100
AcDbDictionary
281
     1
  3
Normal
350
F
100
AcDbDictionaryWithDefault
340
F
  0
DICTIONARY
  5
47
102
{ACAD_REACTORS
330
C
102
}
330
C
100
AcDbDictionary
281
     1
  3
A0
350
48
  3
A1
350
49
  3
A2
350
4A
  3
A3
350
4B
  3
A4
350
4C
  3
A5
350
4D
  3
A6
350
4E
  3
A7
350
4F
  3
A8
350
50
  3
A9
350
51
  3
B0
350
52
  3
B1
350
53
  3
B2
350
54
  3
B3
350
55
  3
B4
350
56
  3
B5
350
57
  3
B6
350
58
  3
B7
350
59
  3
B8
350
5A
  3
B9
350
5B
  3
C0
350
5C
  3
C1
350
5D
  3
C2
350
5E
  3
C3
350
5F
  3
C4
350
60
  3
C5
350
61
  3
C6
350
62
  3
C7
350
63
  3
C8
350
64
  3
C9
350
65
  3
D0
350
66
  3
D1
350
67
  3
D2
350
68
  0
LAYOUT
  5
1E
102
{ACAD_REACTORS
330
1A
102
}
330
1A
100
AcDbPlotSettings
  1

  2
none_device
  4

  6

 40
0.0
 41
0.0
 42
0.0
 43
0.0
 44
0.0
 45
0.0
 46
0.0
 47
0.0
 48
0.0
 49
0.0
140
0.0
141
0.0
142
1.0
143
1.0
 70
   688
 72
     1
 73
     0
 74
     5
  7

 75
    16
147
1.0
148
0.0
149
0.0
100
AcDbLayout
  1
Layout1
 70
     1
 71
     1
 10
0.0
 20
0.0
 11
420.0
 21
297.0
 12
0.0
 22
0.0
 32
0.0
 14
1.0000000000E+20
 24
1.0000000000E+20
 34
1.0000000000E+20
 15
-1.0000000000E+20
 25
-1.0000000000E+20
 35
-1.0000000000E+20
146
0.0
 13
0.0
 23
0.0
 33
0.0
 16
1.0
 26
0.0
 36
0.0
 17
0.0
 27
1.0
 37
0.0
 76
     0
330
1B
  0
LAYOUT
  5
26
102
{ACAD_REACTORS
330
1A
102
}
330
1A
100
AcDbPlotSettings
  1

  2
none_device
  4

  6

 40
0.0
 41
0.0
 42
0.0
 43
0.0
 44
0.0
 45
0.0
 46
0.0
 47
0.0
 48
0.0
 49
0.0
140
0.0
141
0.0
142
1.0
143
1.0
 70
   688
 72
     1
 73
     0
 74
     5
  7

 75
    16
147
1.0
148
0.0
149
0.0
100
AcDbLayout
  1
Layout2
 70
     1
 71
     2
 10
0.0
 20
0.0
 11
0.0
 21
0.0
 12
0.0
 22
0.0
 32
0.0
 14
0.0
 24
0.0
 34
0.0
 15
0.0
 25
0.0
 35
0.0
146
0.0
 13
0.0
 23
0.0
 33
0.0
 16
1.0
 26
0.0
 36
0.0
 17
0.0
 27
1.0
 37
0.0
 76
     0
330
23
  0
LAYOUT
  5
22
102
{ACAD_REACTORS
330
1A
102
}
330
1A
100
AcDbPlotSettings
  1

  2
none_device
  4
Letter_(8.50_x_11.00_Inches)
  6

 40
6.35
 41
6.35
 42
6.35000508
 43
6.35000508
 44
215.9
 45
279.4
 46
0.0
 47
0.0
 48
0.0
 49
0.0
140
0.0
141
0.0
142
1.0
143
1.0
 70
  1712
 72
     1
 73
     0
 74
     0
  7

 75
     0
147
1.0
148
0.0
149
0.0
100
AcDbLayout
  1
Model
 70
     1
 71
     0
 10
0.0
 20
0.0
 11
297.0
 21
210.0
 12
0.0
 22
0.0
 32
0.0
 14
0.0
 24
0.0
 34
0.0
 15
297.0
 25
210.0
 35
0.0
146
0.0
 13
0.0
 23
0.0
 33
0.0
 16
1.0
 26
0.0
 36
0.0
 17
0.0
 27
1.0
 37
0.0
 76
     0
330
1F
331
29
  0
MLINESTYLE
  5
18
102
{ACAD_REACTORS
330
17
102
}
330
17
100
AcDbMlineStyle
  2
Standard
 70
     0
  3

 62
   256
 51
90.0
 52
90.0
 71
     2
 49
0.5
 62
   256
  6
BYLAYER
 49
-0.5
 62
   256
  6
BYLAYER
  0
ACDBPLACEHOLDER
  5
F
102
{ACAD_REACTORS
330
E
102
}
330
E
  0
SCALE
  5
48
102
{ACAD_REACTORS
330
47
102
}
330
47
100
AcDbScale
 70
     0
300
1:1
140
1.0
141
1.0
290
     1
  0
SCALE
  5
49
102
{ACAD_REACTORS
330
47
102
}
330
47
100
AcDbScale
 70
     0
300
1:2
140
1.0
141
2.0
290
     0
  0
SCALE
  5
4A
102
{ACAD_REACTORS
330
47
102
}
330
47
100
AcDbScale
 70
     0
300
1:4
140
1.0
141
4.0
290
     0
  0
SCALE
  5
4B
102
{ACAD_REACTORS
330
47
102
}
330
47
100
AcDbScale
 70
     0
300
1:5
140
1.0
141
5.0
290
     0
  0
SCALE
  5
4C
102
{ACAD_REACTORS
330
47
102
}
330
47
100
AcDbScale
 70
     0
300
1:8
140
1.0
141
8.0
290
     0
  0
SCALE
  5
4D
102
{ACAD_REACTORS
330
47
102
}
330
47
100
AcDbScale
 70
     0
300
1:10
140
1.0
141
10.0
290
     0
  0
SCALE
  5
4E
102
{ACAD_REACTORS
330
47
102
}
330
47
100
AcDbScale
 70
     0
300
1:16
140
1.0
141
16.0
290
     0
  0
SCALE
  5
4F
102
{ACAD_REACTORS
330
47
102
}
330
47
100
AcDbScale
 70
     0
300
1:20
140
1.0
141
20.0
290
     0
  0
SCALE
  5
50
102
{ACAD_REACTORS
330
47
102
}
330
47
100
AcDbScale
 70
     0
300
1:30
140
1.0
141
30.0
290
     0
  0
SCALE
  5
51
102
{ACAD_REACTORS
330
47
102
}
330
47
100
AcDbScale
 70
     0
300
1:40
140
1.0
141
40.0
290
     0
  0
SCALE
  5
52
102
{ACAD_REACTORS
330
47
102
}
330
47
100
AcDbScale
 70
     0
300
1:50
140
1.0
141
50.0
290
     0
  0
SCALE
  5
53
102
{ACAD_REACTORS
330
47
102
}
330
47
100
AcDbScale
 70
     0
300
1:100
140
1.0
141
100.0
290
     0
  0
SCALE
  5
54
102
{ACAD_REACTORS
330
47
102
}
330
47
100
AcDbScale
 70
     0
300
2:1
140
2.0
141
1.0
290
     0
  0
SCALE
  5
55
102
{ACAD_REACTORS
330
47
102
}
330
47
100
AcDbScale
 70
     0
300
4:1
140
4.0
141
1.0
290
     0
  0
SCALE
  5
56
102
{ACAD_REACTORS
330
47
102
}
330
47
100
AcDbScale
 70
     0
300
8:1
140
8.0
141
1.0
290
     0
  0
SCALE
  5
57
102
{ACAD_REACTORS
330
47
102
}
330
47
100
AcDbScale
 70
     0
300
10:1
140
10.0
141
1.0
290
     0
  0
SCALE
  5
58
102
{ACAD_REACTORS
330
47
102
}
330
47
100
AcDbScale
 70
     0
300
100:1
140
100.0
141
1.0
290
     0
  0
SCALE
  5
59
102
{ACAD_REACTORS
330
47
102
}
330
47
100
AcDbScale
 70
     0
300
1/128" = 1'-0"
140
0.0078125
141
12.0
290
     0
  0
SCALE
  5
5A
102
{ACAD_REACTORS
330
47
102
}
330
47
100
AcDbScale
 70
     0
300
1/64" = 1'-0"
140
0.015625
141
12.0
290
     0
  0
SCALE
  5
5B
102
{ACAD_REACTORS
330
47
102
}
330
47
100
AcDbScale
 70
     0
300
1/32" = 1'-0"
140
0.03125
141
12.0
290
     0
  0
SCALE
  5
5C
102
{ACAD_REACTORS
330
47
102
}
330
47
100
AcDbScale
 70
     0
300
1/16" = 1'-0"
140
0.0625
141
12.0
290
     0
  0
SCALE
  5
5D
102
{ACAD_REACTORS
330
47
102
}
330
47
100
AcDbScale
 70
     0
300
3/32" = 1'-0"
140
0.09375
141
12.0
290
     0
  0
SCALE
  5
5E
102
{ACAD_REACTORS
330
47
102
}
330
47
100
AcDbScale
 70
     0
300
1/8" = 1'-0"
140
0.125
141
12.0
290
     0
  0
SCALE
  5
5F
102
{ACAD_REACTORS
330
47
102
}
330
47
100
AcDbScale
 70
     0
300
3/16" = 1'-0"
140
0.1875
141
12.0
290
     0
  0
SCALE
  5
60
102
{ACAD_REACTORS
330
47
102
}
330
47
100
AcDbScale
 70
     0
300
1/4" = 1'-0"
140
0.25
141
12.0
290
     0
  0
SCALE
  5
61
102
{ACAD_REACTORS
330
47
102
}
330
47
100
AcDbScale
 70
     0
300
3/8" = 1'-0"
140
0.375
141
12.0
290
     0
  0
SCALE
  5
62
102
{ACAD_REACTORS
330
47
102
}
330
47
100
AcDbScale
 70
     0
300
1/2" = 1'-0"
140
0.5
141
12.0
290
     0
  0
SCALE
  5
63
102
{ACAD_REACTORS
330
47
102
}
330
47
100
AcDbScale
 70
     0
300
3/4" = 1'-0"
140
0.75
141
12.0
290
     0
  0
SCALE
  5
64
102
{ACAD_REACTORS
330
47
102
}
330
47
100
AcDbScale
 70
     0
300
1" = 1'-0"
140
1.0
141
12.0
290
     0
  0
SCALE
  5
65
102
{ACAD_REACTORS
330
47
102
}
330
47
100
AcDbScale
 70
     0
300
1-1/2" = 1'-0"
140
1.5
141
12.0
290
     0
  0
SCALE
  5
66
102
{ACAD_REACTORS
330
47
102
}
330
47
100
AcDbScale
 70
     0
300
3" = 1'-0"
140
3.0
141
12.0
290
     0
  0
SCALE
  5
67
102
{ACAD_REACTORS
330
47
102
}
330
47
100
AcDbScale
 70
     0
300
6" = 1'-0"
140
6.0
141
12.0
290
     0
  0
SCALE
  5
68
102
{ACAD_REACTORS
330
47
102
}
330
47
100
AcDbScale
 70
     0
300
1'-0" = 1'-0"
140
12.0
141
12.0
290
     0
  0
ENDSEC
  0
EOF
