  0
SECTION
  2
HEADER
  9
$ACADVER
  1
AC1015
  9
$ACADMAINTVER
 70
     6
  9
$DWGCODEPAGE
  3
ANSI_1252
  9
$INSBASE
 10
0.0
 20
0.0
 30
0.0
  9
$EXTMIN
 10
0.0
 20
0.0
 30
0.0
  9
$EXTMAX
 10
297.0
 20
210.0
 30
0.0
  9
$LIMMIN
 10
0.0
 20
0.0
  9
$LIMMAX
 10
297.0
 20
210.0
  9
$ORTHOMODE
 70
     0
  9
$REGENMODE
 70
     1
  9
$FILLMODE
 70
     1
  9
$QTEXTMODE
 70
     0
  9
$MIRRTEXT
 70
     1
  9
$LTSCALE
 40
1.0
  9
$ATTMODE
 70
     1
  9
$TEXTSIZE
 40
2.0
  9
$TRACEWID
 40
1.0
  9
$TEXTSTYLE
  7
Standard
  9
$CLAYER
  8
0
  9
$CELTYPE
  6
ByLayer
  9
$CECOLOR
 62
   256
  9
$CELTSCALE
 40
1.0
  9
$DISPSILH
 70
     0
  9
$DIMSCALE
 40
1.0
  9
$DIMASZ
 40
3.0
  9
$DIMEXO
 40
0.0
  9
$DIMDLI
 40
3.75
  9
$DIMRND
 40
0.0
  9
$DIMDLE
 40
0.0
  9
$DIMEXE
 40
1.0
  9
$DIMTP
 40
0.0
  9
$DIMTM
 40
0.0
  9
$DIMTXT
 40
2.0
  9
$DIMCEN
 40
2.5
  9
$DIMTSZ
 40
0.0
  9
$DIMTOL
 70
     0
  9
$DIMLIM
 70
     0
  9
$DIMTIH
 70
     1
  9
$DIMTOH
 70
     1
  9
$DIMSE1
 70
     0
  9
$DIMSE2
 70
     0
  9
$DIMTAD
 70
     1
  9
$DIMZIN
 70
     0
  9
$DIMBLK
  1

  9
$DIMASO
 70
     1
  9
$DIMSHO
 70
     1
  9
$DIMPOST
  1

  9
$DIMAPOST
  1

  9
$DIMALT
 70
     0
  9
$DIMALTD
 70
     3
  9
$DIMALTF
 40
0.0393700787
  9
$DIMLFAC
 40
1.0
  9
$DIMTOFL
 70
     1
  9
$DIMTVP
 40
0.0
  9
$DIMTIX
 70
     0
  9
$DIMSOXD
 70
     0
  9
$DIMSAH
 70
     0
  9
$DIMBLK1
  1

  9
$DIMBLK2
  1

  9
$DIMSTYLE
  2
ISO-25
  9
$DIMCLRD
 70
     0
  9
$DIMCLRE
 70
     0
  9
$DIMCLRT
 70
     0
  9
$DIMTFAC
 40
1.0
  9
$DIMGAP
 40
1.524
  9
$DIMJUST
 70
     0
  9
$DIMSD1
 70
     0
  9
$DIMSD2
 70
     0
  9
$DIMTOLJ
 70
     0
  9
$DIMTZIN
 70
     0
  9
$DIMALTZ
 70
     0
  9
$DIMALTTZ
 70
     0
  9
$DIMUPT
 70
     0
  9
$DIMDEC
 70
     2
  9
$DIMTDEC
 70
     3
  9
$DIMALTU
 70
     2
  9
$DIMALTTD
 70
     3
  9
$DIMTXSTY
  7
Standard
  9
$DIMAUNIT
 70
     0
  9
$DIMADEC
 70
     2
  9
$DIMALTRND
 40
0.0
  9
$DIMAZIN
 70
     0
  9
$DIMDSEP
 70
    44
  9
$DIMATFIT
 70
     3
  9
$DIMFRAC
 70
     0
  9
$DIMLDRBLK
  1

  9
$DIMLUNIT
 70
     2
  9
$DIMLWD
 70
    -2
  9
$DIMLWE
 70
    -2
  9
$DIMTMOVE
 70
     0
  9
$LUNITS
 70
     2
  9
$LUPREC
 70
     2
  9
$SKETCHINC
 40
1.0
  9
$FILLETRAD
 40
10.0
  9
$AUNITS
 70
     0
  9
$AUPREC
 70
     2
  9
$MENU
  1
.
  9
$ELEVATION
 40
0.0
  9
$PELEVATION
 40
0.0
  9
$THICKNESS
 40
0.0
  9
$LIMCHECK
 70
     0
  9
$CHAMFERA
 40
0.0
  9
$CHAMFERB
 40
0.0
  9
$CHAMFERC
 40
0.0
  9
$CHAMFERD
 40
0.0
  9
$SKPOLY
 70
     0
  9
$TDCREATE
 40
2457672.410867546
  9
$TDUCREATE
 40
2457672.327534213
  9
$TDUPDATE
 40
2457672.410868866
  9
$TDUUPDATE
 40
2457672.327535532
  9
$TDINDWG
 40
0.0000000116
  9
$TDUSRTIMER
 40
0.0000000116
  9
$USRTIMER
 70
     1
  9
$ANGBASE
 50
0.0
  9
$ANGDIR
 70
     0
  9
$PDMODE
 70
     0
  9
$PDSIZE
 40
-1.0
  9
$PLINEWID
 40
0.0
  9
$SPLFRAME
 70
     0
  9
$SPLINETYPE
 70
     6
  9
$SPLINESEGS
 70
     8
  9
$HANDSEED
  5
252
  9
$SURFTAB1
 70
     6
  9
$SURFTAB2
 70
     6
  9
$SURFTYPE
 70
     6
  9
$SURFU
 70
     6
  9
$SURFV
 70
     6
  9
$UCSBASE
  2

  9
$UCSNAME
  2

  9
$UCSORG
 10
0.0
 20
0.0
 30
0.0
  9
$UCSXDIR
 10
1.0
 20
0.0
 30
0.0
  9
$UCSYDIR
 10
0.0
 20
1.0
 30
0.0
  9
$UCSORTHOREF
  2

  9
$UCSORTHOVIEW
 70
     0
  9
$UCSORGTOP
 10
0.0
 20
0.0
 30
0.0
  9
$UCSORGBOTTOM
 10
0.0
 20
0.0
 30
0.0
  9
$UCSORGLEFT
 10
0.0
 20
0.0
 30
0.0
  9
$UCSORGRIGHT
 10
0.0
 20
0.0
 30
0.0
  9
$UCSORGFRONT
 10
0.0
 20
0.0
 30
0.0
  9
$UCSORGBACK
 10
0.0
 20
0.0
 30
0.0
  9
$PUCSBASE
  2

  9
$PUCSNAME
  2

  9
$PUCSORG
 10
0.0
 20
0.0
 30
0.0
  9
$PUCSXDIR
 10
1.0
 20
0.0
 30
0.0
  9
$PUCSYDIR
 10
0.0
 20
1.0
 30
0.0
  9
$PUCSORTHOREF
  2

  9
$PUCSORTHOVIEW
 70
     0
  9
$PUCSORGTOP
 10
0.0
 20
0.0
 30
0.0
  9
$PUCSORGBOTTOM
 10
0.0
 20
0.0
 30
0.0
  9
$PUCSORGLEFT
 10
0.0
 20
0.0
 30
0.0
  9
$PUCSORGRIGHT
 10
0.0
 20
0.0
 30
0.0
  9
$PUCSORGFRONT
 10
0.0
 20
0.0
 30
0.0
  9
$PUCSORGBACK
 10
0.0
 20
0.0
 30
0.0
  9
$USERI1
 70
     0
  9
$USERI2
 70
     0
  9
$USERI3
 70
     0
  9
$USERI4
 70
     0
  9
$USERI5
 70
     0
  9
$USERR1
 40
0.0
  9
$USERR2
 40
0.0
  9
$USERR3
 40
0.0
  9
$USERR4
 40
0.0
  9
$USERR5
 40
0.0
  9
$WORLDVIEW
 70
     1
  9
$SHADEDGE
 70
     3
  9
$SHADEDIF
 70
    70
  9
$TILEMODE
 70
     1
  9
$MAXACTVP
 70
    64
  9
$PINSBASE
 10
0.0
 20
0.0
 30
0.0
  9
$PLIMCHECK
 70
     0
  9
$PEXTMIN
 10
1.0000000000E+20
 20
1.0000000000E+20
 30
1.0000000000E+20
  9
$PEXTMAX
 10
-1.0000000000E+20
 20
-1.0000000000E+20
 30
-1.0000000000E+20
  9
$PLIMMIN
 10
0.0
 20
0.0
  9
$PLIMMAX
 10
420.0
 20
297.0
  9
$UNITMODE
 70
     0
  9
$VISRETAIN
 70
     1
  9
$PLINEGEN
 70
     0
  9
$PSLTSCALE
 70
     1
  9
$TREEDEPTH
 70
  3020
  9
$CMLSTYLE
  2
Standard
  9
$CMLJUST
 70
     0
  9
$CMLSCALE
 40
20.0
  9
$PROXYGRAPHICS
 70
     1
  9
$MEASUREMENT
 70
     1
  9
$CELWEIGHT
370
    -1
  9
$ENDCAPS
280
     0
  9
$JOINSTYLE
280
     0
  9
$LWDISPLAY
290
     1
  9
$INSUNITS
 70
     4
  9
$HYPERLINKBASE
  1

  9
$STYLESHEET
  1

  9
$XEDIT
290
     1
  9
$CEPSNTYPE
380
     0
  9
$PSTYLEMODE
290
     1
  9
$FINGERPRINTGUID
  2
{D7447E4E-7989-46BD-A8A2-B2645DBC09F7}
  9
$VERSIONGUID
  2
{FAEB1C32-E019-11D5-929B-00C0DF256EC4}
  9
$EXTNAMES
290
     1
  9
$PSVPSCALE
 40
0.0
  9
$OLESTARTUP
290
     0
  0
ENDSEC
  0
SECTION
  2
CLASSES
  0
CLASS
  1
ACDBDICTIONARYWDFLT
  2
AcDbDictionaryWithDefault
  3
ObjectDBX Classes
 90
        0
280
     0
281
     0
  0
CLASS
  1
VISUALSTYLE
  2
AcDbVisualStyle
  3
ObjectDBX Classes
 90
     4095
280
     0
281
     0
  0
CLASS
  1
MATERIAL
  2
AcDbMaterial
  3
ObjectDBX Classes
 90
     1153
280
     0
281
     0
  0
CLASS
  1
SCALE
  2
AcDbScale
  3
ObjectDBX Classes
 90
     1153
280
     0
281
     0
  0
CLASS
  1
TABLESTYLE
  2
AcDbTableStyle
  3
ObjectDBX Classes
 90
     4095
280
     0
281
     0
  0
CLASS
  1
MLEADERSTYLE
  2
AcDbMLeaderStyle
  3
ACDB_MLEADERSTYLE_CLASS
 90
     4095
280
     0
281
     0
  0
CLASS
  1
SUN
  2
AcDbSun
  3
SCENEOE
 90
     1153
280
     0
281
     0
  0
CLASS
  1
ACDBPLACEHOLDER
  2
AcDbPlaceHolder
  3
ObjectDBX Classes
 90
        0
280
     0
281
     0
  0
CLASS
  1
LAYOUT
  2
AcDbLayout
  3
ObjectDBX Classes
 90
        0
280
     0
281
     0
  0
ENDSEC
  0
SECTION
  2
TABLES
  0
TABLE
  2
VPORT
  5
8
330
0
100
AcDbSymbolTable
 70
     1
  0
VPORT
  5
29
330
8
100
AcDbSymbolTableRecord
100
AcDbViewportTableRecord
  2
*Active
 70
     0
 10
0.0
 20
0.0
 11
1.0
 21
1.0
 12
148.5
 22
105.0
 13
0.0
 23
0.0
 14
10.0
 24
10.0
 15
10.0
 25
10.0
 16
0.0
 26
0.0
 36
1.0
 17
0.0
 27
0.0
 37
0.0
 40
210.0
 41
1.4142857143
 42
50.0
 43
0.0
 44
0.0
 50
0.0
 51
0.0
 71
     0
 72
  2000
 73
     1
 74
     3
 75
     0
 76
     0
 77
     0
 78
     0
281
     0
 65
     1
110
0.0
120
0.0
130
0.0
111
1.0
121
0.0
131
0.0
112
0.0
122
1.0
132
0.0
 79
     0
146
0.0
  0
ENDTAB
  0
TABLE
  2
LTYPE
  5
5
330
0
100
AcDbSymbolTable
 70
     6
  0
LTYPE
  5
14
330
5
100
AcDbSymbolTableRecord
100
AcDbLinetypeTableRecord
  2
ByBlock
 70
     0
  3

 72
    65
 73
     0
 40
0.0
  0
LTYPE
  5
15
330
5
100
AcDbSymbolTableRecord
100
AcDbLinetypeTableRecord
  2
ByLayer
 70
     0
  3

 72
    65
 73
     0
 40
0.0
  0
LTYPE
  5
16
330
5
100
AcDbSymbolTableRecord
100
AcDbLinetypeTableRecord
  2
Continuous
 70
     0
  3
Solid line
 72
    65
 73
     0
 40
0.0
  0
LTYPE
  5
6E
330
5
100
AcDbSymbolTableRecord
100
AcDbLinetypeTableRecord
  2
HIDDEN
 70
     0
  3
Hidden __ __ __ __ __ __ __ __ __ __ __ __ __ __
 72
    65
 73
     2
 40
1.905
 49
1.27
 74
     0
 49
-0.635
 74
     0
  0
LTYPE
  5
6F
330
5
100
AcDbSymbolTableRecord
100
AcDbLinetypeTableRecord
  2
PHANTOM
 70
     0
  3
Phantom ______  __  __  ______  __  __  ______
 72
    65
 73
     6
 40
12.7
 49
6.35
 74
     0
 49
-1.27
 74
     0
 49
1.27
 74
     0
 49
-1.27
 74
     0
 49
1.27
 74
     0
 49
-1.27
 74
     0
  0
LTYPE
  5
70
330
5
100
AcDbSymbolTableRecord
100
AcDbLinetypeTableRecord
  2
CENTER
 70
     0
  3
Center ____ _ ____ _ ____ _ ____ _ ____ _ ____
 72
    65
 73
     4
 40
10.16
 49
6.35
 74
     0
 49
-1.27
 74
     0
 49
1.27
 74
     0
 49
-1.27
 74
     0
  0
LTYPE
  5
71
330
5
100
AcDbSymbolTableRecord
100
AcDbLinetypeTableRecord
  2
CENTERX2
 70
     0
  3
Center (2x) ________  __  ________  __  _____
 72
    65
 73
     4
 40
20.32
 49
12.7
 74
     0
 49
-2.54
 74
     0
 49
2.54
 74
     0
 49
-2.54
 74
     0
  0
LTYPE
  5
72
330
5
100
AcDbSymbolTableRecord
100
AcDbLinetypeTableRecord
  2
DOT2
 70
     0
  3
Dot (.5x) ........................................
 72
    65
 73
     2
 40
0.635
 49
0.0
 74
     0
 49
-0.635
 74
     0
  0
ENDTAB
  0
TABLE
  2
LAYER
  5
2
330
0
100
AcDbSymbolTable
 70
     5
  0
LAYER
  5
10
330
2
100
AcDbSymbolTableRecord
100
AcDbLayerTableRecord
  2
0
 70
     0
 62
     7
  6
Continuous
370
    -3
390
F
  0
LAYER
  5
73
330
2
100
AcDbSymbolTableRecord
100
AcDbLayerTableRecord
  2
FORMAT
 70
     0
 62
     7
  6
Continuous
370
    -3
390
F
  0
LAYER
  5
74
330
2
100
AcDbSymbolTableRecord
100
AcDbLayerTableRecord
  2
VERMASSUNG
 70
     0
 62
     7
  6
Continuous
370
    -3
390
F
  0
LAYER
  5
75
330
2
100
AcDbSymbolTableRecord
100
AcDbLayerTableRecord
  2
KOPF_DÜNN
 70
     0
 62
     7
  6
Continuous
370
    -3
390
F
  0
LAYER
  5
76
330
2
100
AcDbSymbolTableRecord
100
AcDbLayerTableRecord
  2
KOPF_DICK
 70
     0
 62
     7
  6
Continuous
370
    15
390
F
  0
ENDTAB
  0
TABLE
  2
STYLE
  5
3
330
0
100
AcDbSymbolTable
 70
     3
  0
STYLE
  5
11
330
3
100
AcDbSymbolTableRecord
100
AcDbTextStyleTableRecord
  2
Standard
 70
     0
 40
0.0
 41
1.0
 50
0.0
 71
     0
 42
2.0
  3
txt
  4

  0
STYLE
  5
77
330
3
100
AcDbSymbolTableRecord
100
AcDbTextStyleTableRecord
  2
SLDTEXTSTYLE0
 70
     0
 40
0.0
 41
0.7
 50
0.0
 71
     0
 42
2.0
  3
TXT
  4

  0
STYLE
  5
7B
330
3
100
AcDbSymbolTableRecord
100
AcDbTextStyleTableRecord
  2
SLDTEXTSTYLE1
 70
     0
 40
0.0
 41
0.6454545455
 50
0.0
 71
     0
 42
2.0
  3
TXT
  4

  0
ENDTAB
  0
TABLE
  2
VIEW
  5
6
330
0
100
AcDbSymbolTable
 70
     0
  0
ENDTAB
  0
TABLE
  2
UCS
  5
7
330
0
100
AcDbSymbolTable
 70
     0
  0
ENDTAB
  0
TABLE
  2
APPID
  5
9
330
0
100
AcDbSymbolTable
 70
     1
  0
APPID
  5
12
330
9
100
AcDbSymbolTableRecord
100
AcDbRegAppTableRecord
  2
ACAD
 70
     0
  0
ENDTAB
  0
TABLE
  2
DIMSTYLE
  5
A
330
0
100
AcDbSymbolTable
 70
     2
100
AcDbDimStyleTable
  0
DIMSTYLE
105
27
330
A
100
AcDbSymbolTableRecord
100
AcDbDimStyleTableRecord
  2
ISO-25
 70
     0
 41
2.5
 42
0.625
 43
3.75
 44
1.25
 73
     0
 74
     0
 77
     1
 78
     8
140
2.5
141
2.5
143
0.0393700787
147
0.625
171
     3
172
     1
178
     0
271
     2
272
     2
274
     3
278
    44
283
     0
284
     8
340
11
  0
DIMSTYLE
105
187
102
{ACAD_REACTORS
330
186
330
193
330
19E
330
1AA
330
1B4
330
1C0
102
}
330
A
100
AcDbSymbolTableRecord
100
AcDbDimStyleTableRecord
  2
SLDDIMSTYLE0
 70
     0
 41
3.0
 44
0.0
 45
0.000000001
 73
     0
 74
     0
 77
     1
 78
    12
 79
     3
140
2.0
147
0.5
173
     1
178
     0
271
     2
272
     3
276
     2
284
    12
340
77
  0
ENDTAB
  0
TABLE
  2
BLOCK_RECORD
  5
1
330
0
100
AcDbSymbolTable
 70
     7
  0
BLOCK_RECORD
  5
1F
330
1
100
AcDbSymbolTableRecord
100
AcDbBlockTableRecord
  2
*Model_Space
340
22
  0
BLOCK_RECORD
  5
1B
330
1
100
AcDbSymbolTableRecord
100
AcDbBlockTableRecord
  2
*Paper_Space
340
1E
  0
BLOCK_RECORD
  5
23
330
1
100
AcDbSymbolTableRecord
100
AcDbBlockTableRecord
  2
*Paper_Space0
340
26
  0
BLOCK_RECORD
  5
188
330
1
100
AcDbSymbolTableRecord
100
AcDbBlockTableRecord
  2
_D
340
0
  0
BLOCK_RECORD
  5
194
330
1
100
AcDbSymbolTableRecord
100
AcDbBlockTableRecord
  2
_D_1
340
0
  0
BLOCK_RECORD
  5
19F
330
1
100
AcDbSymbolTableRecord
100
AcDbBlockTableRecord
  2
_D_2
340
0
  0
BLOCK_RECORD
  5
1AB
330
1
100
AcDbSymbolTableRecord
100
AcDbBlockTableRecord
  2
_D_3
340
0
  0
BLOCK_RECORD
  5
1B5
330
1
100
AcDbSymbolTableRecord
100
AcDbBlockTableRecord
  2
_D_4
340
0
  0
BLOCK_RECORD
  5
1C1
330
1
100
AcDbSymbolTableRecord
100
AcDbBlockTableRecord
  2
_D_5
340
0
  0
ENDTAB
  0
ENDSEC
  0
SECTION
  2
BLOCKS
  0
BLOCK
  5
20
330
1F
100
AcDbEntity
  8
0
100
AcDbBlockBegin
  2
*Model_Space
 70
     0
 10
0.0
 20
0.0
 30
0.0
  3
*Model_Space
  1

  0
ENDBLK
  5
21
330
1F
100
AcDbEntity
  8
0
100
AcDbBlockEnd
  0
BLOCK
  5
1C
330
1B
100
AcDbEntity
 67
     1
  8
0
100
AcDbBlockBegin
  2
*Paper_Space
 70
     0
 10
0.0
 20
0.0
 30
0.0
  3
*Paper_Space
  1

  0
ENDBLK
  5
1D
330
1B
100
AcDbEntity
 67
     1
  8
0
100
AcDbBlockEnd
  0
BLOCK
  5
24
330
23
100
AcDbEntity
  8
0
100
AcDbBlockBegin
  2
*Paper_Space0
 70
     0
 10
0.0
 20
0.0
 30
0.0
  3
*Paper_Space0
  1

  0
ENDBLK
  5
25
330
23
100
AcDbEntity
  8
0
100
AcDbBlockEnd
  0
BLOCK
  5
189
330
188
100
AcDbEntity
  8
0
100
AcDbBlockBegin
  2
_D
 70
     0
 10
0.0
 20
0.0
 30
0.0
  3
_D
  1

  0
SOLID
  5
18B
330
188
100
AcDbEntity
  8
VERMASSUNG
100
AcDbTrace
 10
216.9703466081
 20
128.2492302408
 30
0.0
 11
216.5203466081
 21
125.2492302408
 31
0.0
 12
217.4203466081
 22
125.2492302408
 32
0.0
 13
217.4203466081
 23
125.2492302408
 33
0.0
  0
SOLID
  5
18C
330
188
100
AcDbEntity
  8
VERMASSUNG
100
AcDbTrace
 10
216.9703466081
 20
89.2492302408
 30
0.0
 11
217.4203466081
 21
92.2492302408
 31
0.0
 12
216.5203466081
 22
92.2492302408
 32
0.0
 13
216.5203466081
 23
92.2492302408
 33
0.0
  0
LINE
  5
18D
330
188
100
AcDbEntity
  8
VERMASSUNG
100
AcDbLine
 10
203.4381856944
 20
128.2492302408
 30
0.0
 11
217.9703466081
 21
128.2492302408
 31
0.0
  0
LINE
  5
18E
330
188
100
AcDbEntity
  8
VERMASSUNG
100
AcDbLine
 10
203.4381856944
 20
89.2492302408
 30
0.0
 11
217.9703466081
 21
89.2492302408
 31
0.0
  0
LINE
  5
18F
330
188
100
AcDbEntity
  8
VERMASSUNG
100
AcDbLine
 10
216.9703466081
 20
128.2492302408
 30
0.0
 11
216.9703466081
 21
89.2492302408
 31
0.0
  0
MTEXT
  5
190
330
188
100
AcDbEntity
  8
VERMASSUNG
100
AcDbMText
 10
214.1922113518
 20
102.5449305498
 30
0.0
 40
2.0
 41
0.0
 71
     1
 72
     1
  1
ST4
  7
SLDTEXTSTYLE0
 11
-7.044195017643634E-15
 21
1.0
 31
0.0
 73
     1
 44
1.0
  0
MTEXT
  5
191
330
188
100
AcDbEntity
  8
VERMASSUNG
100
AcDbMText
 10
214.3922113031
 20
108.5449306019
 30
0.0
 40
2.0
 41
0.0
 71
     1
 72
     1
  1
%%c
  7
SLDTEXTSTYLE0
 11
-7.044195017643634E-15
 21
1.0
 31
0.0
 73
     1
 44
1.0
  0
MTEXT
  5
192
330
188
100
AcDbEntity
  8
VERMASSUNG
100
AcDbMText
 10
214.3922110121
 20
112.1541499113
 30
0.0
 40
2.0
 41
0.0
 71
     1
 72
     1
  1
39
  7
SLDTEXTSTYLE0
 11
-7.044195017643634E-15
 21
1.0
 31
0.0
 73
     1
 44
1.0
  0
ENDBLK
  5
18A
330
188
100
AcDbEntity
  8
0
100
AcDbBlockEnd
  0
BLOCK
  5
195
330
194
100
AcDbEntity
  8
0
100
AcDbBlockBegin
  2
_D_1
 70
     0
 10
0.0
 20
0.0
 30
0.0
  3
_D_1
  1

  0
SOLID
  5
197
330
194
100
AcDbEntity
  8
VERMASSUNG
100
AcDbTrace
 10
210.8703466081
 20
119.7492302408
 30
0.0
 11
210.4203466081
 21
116.7492302408
 31
0.0
 12
211.3203466081
 22
116.7492302408
 32
0.0
 13
211.3203466081
 23
116.7492302408
 33
0.0
  0
SOLID
  5
198
330
194
100
AcDbEntity
  8
VERMASSUNG
100
AcDbTrace
 10
210.8703466081
 20
97.7492302408
 30
0.0
 11
211.3203466081
 21
100.7492302408
 31
0.0
 12
210.4203466081
 22
100.7492302408
 32
0.0
 13
210.4203466081
 23
100.7492302408
 33
0.0
  0
LINE
  5
199
330
194
100
AcDbEntity
  8
VERMASSUNG
100
AcDbLine
 10
193.2381856944
 20
119.7492302408
 30
0.0
 11
211.8703466081
 21
119.7492302408
 31
0.0
  0
LINE
  5
19A
330
194
100
AcDbEntity
  8
VERMASSUNG
100
AcDbLine
 10
193.2381856944
 20
97.7492302408
 30
0.0
 11
211.8703466081
 21
97.7492302408
 31
0.0
  0
LINE
  5
19B
330
194
100
AcDbEntity
  8
VERMASSUNG
100
AcDbLine
 10
210.8703466081
 20
119.7492302408
 30
0.0
 11
210.8703466081
 21
97.7492302408
 31
0.0
  0
MTEXT
  5
19C
330
194
100
AcDbEntity
  8
VERMASSUNG
100
AcDbMText
 10
208.2922110703
 20
105.5450541337
 30
0.0
 40
2.0
 41
0.0
 71
     1
 72
     1
  1
%%c
  7
SLDTEXTSTYLE0
 11
-7.044195017643634E-15
 21
1.0
 31
0.0
 73
     1
 44
1.0
  0
MTEXT
  5
19D
330
194
100
AcDbEntity
  8
VERMASSUNG
100
AcDbMText
 10
208.2922110121
 20
109.1540263273
 30
0.0
 40
2.0
 41
0.0
 71
     1
 72
     1
  1
22
  7
SLDTEXTSTYLE0
 11
-7.044195017643634E-15
 21
1.0
 31
0.0
 73
     1
 44
1.0
  0
ENDBLK
  5
196
330
194
100
AcDbEntity
  8
0
100
AcDbBlockEnd
  0
BLOCK
  5
1A0
330
19F
100
AcDbEntity
  8
0
100
AcDbBlockBegin
  2
_D_2
 70
     0
 10
0.0
 20
0.0
 30
0.0
  3
_D_2
  1

  0
ARC
  5
1A2
330
19F
100
AcDbEntity
  8
VERMASSUNG
100
AcDbCircle
 10
194.3504251382
 20
146.2485731862
 30
0.0
 40
4.24705993853726
100
AcDbArc
 50
153.4349488229
 51
206.5650511771
  0
ARC
  5
1A3
330
19F
100
AcDbEntity
  8
VERMASSUNG
100
AcDbCircle
 10
192.3259462505
 20
146.2485731862
 30
0.0
 40
4.24705993853726
100
AcDbArc
 50
333.4349488229
 51
26.5650511771
  0
SOLID
  5
1A4
330
19F
100
AcDbEntity
  8
VERMASSUNG
100
AcDbTrace
 10
182.8381856944
 20
144.3492302408
 30
0.0
 11
185.8381856944
 21
143.8992302408
 31
0.0
 12
185.8381856944
 22
144.7992302408
 32
0.0
 13
185.8381856944
 23
144.7992302408
 33
0.0
  0
SOLID
  5
1A5
330
19F
100
AcDbEntity
  8
VERMASSUNG
100
AcDbTrace
 10
203.8381856944
 20
144.3492302408
 30
0.0
 11
200.8381856944
 21
144.7992302408
 31
0.0
 12
200.8381856944
 22
143.8992302408
 32
0.0
 13
200.8381856944
 23
143.8992302408
 33
0.0
  0
LINE
  5
1A6
330
19F
100
AcDbEntity
  8
VERMASSUNG
100
AcDbLine
 10
182.8381856944
 20
139.2492302408
 30
0.0
 11
182.8381856944
 21
145.3492302408
 31
0.0
  0
LINE
  5
1A7
330
19F
100
AcDbEntity
  8
VERMASSUNG
100
AcDbLine
 10
203.8381856944
 20
127.8492302408
 30
0.0
 11
203.8381856944
 21
145.3492302408
 31
0.0
  0
LINE
  5
1A8
330
19F
100
AcDbEntity
  8
VERMASSUNG
100
AcDbLine
 10
182.8381856944
 20
144.3492302408
 30
0.0
 11
203.8381856944
 21
144.3492302408
 31
0.0
  0
MTEXT
  5
1A9
330
19F
100
AcDbEntity
  8
VERMASSUNG
100
AcDbMText
 10
192.1392392474
 20
146.9273658368
 30
0.0
 40
2.0
 41
0.0
 71
     1
 72
     1
  1
21
  7
SLDTEXTSTYLE0
 73
     1
 44
1.0
  0
ENDBLK
  5
1A1
330
19F
100
AcDbEntity
  8
0
100
AcDbBlockEnd
  0
BLOCK
  5
1AC
330
1AB
100
AcDbEntity
  8
0
100
AcDbBlockBegin
  2
_D_3
 70
     0
 10
0.0
 20
0.0
 30
0.0
  3
_D_3
  1

  0
SOLID
  5
1AE
330
1AB
100
AcDbEntity
  8
VERMASSUNG
100
AcDbTrace
 10
155.8381856944
 20
150.3492302408
 30
0.0
 11
158.8381856944
 21
149.8992302408
 31
0.0
 12
158.8381856944
 22
150.7992302408
 32
0.0
 13
158.8381856944
 23
150.7992302408
 33
0.0
  0
SOLID
  5
1AF
330
1AB
100
AcDbEntity
  8
VERMASSUNG
100
AcDbTrace
 10
203.8381856944
 20
150.3492302408
 30
0.0
 11
200.8381856944
 21
150.7992302408
 31
0.0
 12
200.8381856944
 22
149.8992302408
 32
0.0
 13
200.8381856944
 23
149.8992302408
 33
0.0
  0
LINE
  5
1B0
330
1AB
100
AcDbEntity
  8
VERMASSUNG
100
AcDbLine
 10
155.8381856944
 20
130.9742302408
 30
0.0
 11
155.8381856944
 21
151.3492302408
 31
0.0
  0
LINE
  5
1B1
330
1AB
100
AcDbEntity
  8
VERMASSUNG
100
AcDbLine
 10
203.8381856944
 20
127.8492302408
 30
0.0
 11
203.8381856944
 21
151.3492302408
 31
0.0
  0
LINE
  5
1B2
330
1AB
100
AcDbEntity
  8
VERMASSUNG
100
AcDbLine
 10
155.8381856944
 20
150.3492302408
 30
0.0
 11
203.8381856944
 21
150.3492302408
 31
0.0
  0
MTEXT
  5
1B3
330
1AB
100
AcDbEntity
  8
VERMASSUNG
100
AcDbMText
 10
178.339226889
 20
152.9273658368
 30
0.0
 40
2.0
 41
0.0
 71
     1
 72
     1
  1
48
  7
SLDTEXTSTYLE0
 73
     1
 44
1.0
  0
ENDBLK
  5
1AD
330
1AB
100
AcDbEntity
  8
0
100
AcDbBlockEnd
  0
BLOCK
  5
1B6
330
1B5
100
AcDbEntity
  8
0
100
AcDbBlockBegin
  2
_D_4
 70
     0
 10
0.0
 20
0.0
 30
0.0
  3
_D_4
  1

  0
ARC
  5
1B8
330
1B5
100
AcDbEntity
  8
VERMASSUNG
100
AcDbCircle
 10
146.5499915646
 20
158.2485731862
 30
0.0
 40
4.247059938537386
100
AcDbArc
 50
153.4349488229
 51
206.5650511771
  0
ARC
  5
1B9
330
1B5
100
AcDbEntity
  8
VERMASSUNG
100
AcDbCircle
 10
147.7263798241
 20
158.2485731862
 30
0.0
 40
4.247059938537386
100
AcDbArc
 50
333.4349488229
 51
26.5650511771
  0
SOLID
  5
1BA
330
1B5
100
AcDbEntity
  8
VERMASSUNG
100
AcDbTrace
 10
90.4381856944
 20
156.3492302408
 30
0.0
 11
93.4381856944
 21
155.8992302408
 31
0.0
 12
93.4381856944
 22
156.7992302408
 32
0.0
 13
93.4381856944
 23
156.7992302408
 33
0.0
  0
SOLID
  5
1BB
330
1B5
100
AcDbEntity
  8
VERMASSUNG
100
AcDbTrace
 10
203.8381856944
 20
156.3492302408
 30
0.0
 11
200.8381856944
 21
156.7992302408
 31
0.0
 12
200.8381856944
 22
155.8992302408
 32
0.0
 13
200.8381856944
 23
155.8992302408
 33
0.0
  0
LINE
  5
1BC
330
1B5
100
AcDbEntity
  8
VERMASSUNG
100
AcDbLine
 10
90.4381856944
 20
120.5719858378
 30
0.0
 11
90.4381856944
 21
157.3492302408
 31
0.0
  0
LINE
  5
1BD
330
1B5
100
AcDbEntity
  8
VERMASSUNG
100
AcDbLine
 10
203.8381856944
 20
127.8492302408
 30
0.0
 11
203.8381856944
 21
157.3492302408
 31
0.0
  0
LINE
  5
1BE
330
1B5
100
AcDbEntity
  8
VERMASSUNG
100
AcDbLine
 10
90.4381856944
 20
156.3492302408
 30
0.0
 11
203.8381856944
 21
156.3492302408
 31
0.0
  0
MTEXT
  5
1BF
330
1B5
100
AcDbEntity
  8
VERMASSUNG
100
AcDbMText
 10
144.3388056738
 20
158.9273658368
 30
0.0
 40
2.0
 41
0.0
 71
     1
 72
     1
  1
113.4
  7
SLDTEXTSTYLE0
 73
     1
 44
1.0
  0
ENDBLK
  5
1B7
330
1B5
100
AcDbEntity
  8
0
100
AcDbBlockEnd
  0
BLOCK
  5
1C2
330
1C1
100
AcDbEntity
  8
0
100
AcDbBlockBegin
  2
_D_5
 70
     0
 10
0.0
 20
0.0
 30
0.0
  3
_D_5
  1

  0
SOLID
  5
1C4
330
1C1
100
AcDbEntity
  8
VERMASSUNG
100
AcDbTrace
 10
84.4040808693
 20
140.2492302408
 30
0.0
 11
83.9540808693
 21
137.2492302408
 31
0.0
 12
84.8540808693
 22
137.2492302408
 32
0.0
 13
84.8540808693
 23
137.2492302408
 33
0.0
  0
SOLID
  5
1C5
330
1C1
100
AcDbEntity
  8
VERMASSUNG
100
AcDbTrace
 10
84.4040808693
 20
77.2492302408
 30
0.0
 11
84.8540808693
 21
80.2492302408
 31
0.0
 12
83.9540808693
 22
80.2492302408
 32
0.0
 13
83.9540808693
 23
80.2492302408
 33
0.0
  0
LINE
  5
1C6
330
1C1
100
AcDbEntity
  8
VERMASSUNG
100
AcDbLine
 10
179.8381815503
 20
140.2492302408
 30
0.0
 11
83.4040808693
 21
140.2492302408
 31
0.0
  0
LINE
  5
1C7
330
1C1
100
AcDbEntity
  8
VERMASSUNG
100
AcDbLine
 10
179.8381864604
 20
77.2492302408
 30
0.0
 11
83.4040808693
 21
77.2492302408
 31
0.0
  0
LINE
  5
1C8
330
1C1
100
AcDbEntity
  8
VERMASSUNG
100
AcDbLine
 10
84.4040808693
 20
140.2492302408
 30
0.0
 11
84.4040808693
 21
77.2492302408
 31
0.0
  0
MTEXT
  5
1C9
330
1C1
100
AcDbEntity
  8
VERMASSUNG
100
AcDbMText
 10
81.6259456131
 20
98.0447451739
 30
0.0
 40
2.0
 41
0.0
 71
     1
 72
     1
  1
MAS BT 40
  7
SLDTEXTSTYLE0
 11
-7.044195017643634E-15
 21
1.0
 31
0.0
 73
     1
 44
1.0
  0
MTEXT
  5
1CA
330
1C1
100
AcDbEntity
  8
VERMASSUNG
100
AcDbMText
 10
81.8259455644
 20
113.0447448386
 30
0.0
 40
2.0
 41
0.0
 71
     1
 72
     1
  1
%%c
  7
SLDTEXTSTYLE0
 11
-7.044195017643634E-15
 21
1.0
 31
0.0
 73
     1
 44
1.0
  0
MTEXT
  5
1CB
330
1C1
100
AcDbEntity
  8
VERMASSUNG
100
AcDbMText
 10
81.8259452734
 20
116.6543352872
 30
0.0
 40
2.0
 41
0.0
 71
     1
 72
     1
  1
63
  7
SLDTEXTSTYLE0
 11
-7.044195017643634E-15
 21
1.0
 31
0.0
 73
     1
 44
1.0
  0
ENDBLK
  5
1C3
330
1C1
100
AcDbEntity
  8
0
100
AcDbBlockEnd
  0
ENDSEC
  0
SECTION
  2
ENTITIES
  0
MTEXT
  5
78
330
1F
100
AcDbEntity
  8
KOPF_DÜNN
100
AcDbMText
 10
13.8892156294
 20
23.8442973028
 30
0.0
 40
3.0
 41
0.0
 71
     1
 72
     1
  1
134.640.039.048
  7
SLDTEXTSTYLE0
 73
     1
 44
1.0
  0
MTEXT
  5
79
330
1F
100
AcDbEntity
  8
VERMASSUNG
100
AcDbMText
 10
13.9329988022
 20
28.8834360957
 30
0.0
 40
3.0
 41
0.0
 71
     1
 72
     1
  1
Aufnahme_Master shank ST4
  7
SLDTEXTSTYLE0
 73
     1
 44
1.0
  0
MTEXT
  5
7A
330
1F
100
AcDbEntity
  8
VERMASSUNG
100
AcDbMText
 10
98.8601118557
 20
13.8365368761
 30
0.0
 40
2.0
 41
0.0
 71
     1
 72
     1
  1
Datum: 06.06.2008
  7
SLDTEXTSTYLE0
 73
     1
 44
1.0
  0
MTEXT
  5
7C
330
1F
100
AcDbEntity
  8
VERMASSUNG
100
AcDbMText
 10
13.933048693
 20
18.0482802738
 30
0.0
 40
2.0
 41
0.0
 71
     1
 72
     1
  1
MAS BT 40 B
  7
SLDTEXTSTYLE1
 73
     1
 44
1.0
  0
MTEXT
  5
7D
330
1F
100
AcDbEntity
  8
VERMASSUNG
100
AcDbMText
 10
13.9808475933
 20
13.9090974274
 30
0.0
 40
2.0
 41
0.0
 71
     1
 72
     1
  1
Gewicht: 1092g
  7
SLDTEXTSTYLE0
 73
     1
 44
1.0
  0
LINE
  5
7E
330
1F
100
AcDbEntity
  8
0
  6
Continuous
 62
     7
370
    15
100
AcDbLine
 10
179.8381881357
 20
77.2492302408
 30
0.0
 11
181.8381856944
 21
77.2492302408
 31
0.0
  0
LINE
  5
7F
330
1F
100
AcDbEntity
  8
0
  6
Continuous
 62
     7
370
    15
100
AcDbLine
 10
181.8381856944
 20
140.2492302408
 30
0.0
 11
179.8376855244
 21
140.2492302408
 31
0.0
  0
ARC
  5
80
330
1F
100
AcDbEntity
  8
0
  6
Continuous
 62
     7
370
    15
100
AcDbCircle
 10
181.8381856944
 20
78.2492302408
 30
0.0
 40
1.000000000000014
100
AcDbArc
 50
270.0
 51
0.0
  0
ARC
  5
81
330
1F
100
AcDbEntity
  8
0
  6
Continuous
 62
     7
370
    15
100
AcDbCircle
 10
181.8381856944
 20
139.2492302408
 30
0.0
 40
1.0
100
AcDbArc
 50
0.0
 51
90.0
  0
ARC
  5
82
330
1F
100
AcDbEntity
  8
0
  6
Continuous
 62
     7
370
    15
100
AcDbCircle
 10
186.8381856944
 20
85.2492302408
 30
0.0
 40
4.0
100
AcDbArc
 50
90.0
 51
180.0
  0
ARC
  5
83
330
1F
100
AcDbEntity
  8
0
  6
Continuous
 62
     7
370
    15
100
AcDbCircle
 10
186.8381856944
 20
132.2492302408
 30
0.0
 40
4.0
100
AcDbArc
 50
180.0
 51
270.0
  0
ARC
  5
84
330
1F
100
AcDbEntity
  8
0
  6
Continuous
 62
     7
370
    15
100
AcDbCircle
 10
156.8381856944
 20
85.5242302408
 30
0.0
 40
1.000000000000031
100
AcDbArc
 50
46.4339520928
 51
90.0
  0
ARC
  5
85
330
1F
100
AcDbEntity
  8
0
  6
Continuous
 62
     7
370
    15
100
AcDbCircle
 10
156.8381856944
 20
131.9742302408
 30
0.0
 40
1.000000000000032
100
AcDbArc
 50
270.0
 51
313.5375848355
  0
LINE
  5
86
330
1F
100
AcDbEntity
  8
0
  6
Continuous
 62
     7
370
    15
100
AcDbLine
 10
155.8381856944
 20
86.5242302408
 30
0.0
 11
156.8381856944
 21
86.5242302408
 31
0.0
  0
LINE
  5
87
330
1F
100
AcDbEntity
  8
0
  6
Continuous
 62
     7
370
    15
100
AcDbLine
 10
156.8381856944
 20
130.9742302408
 30
0.0
 11
155.8381856944
 21
130.9742302408
 31
0.0
  0
LINE
  5
88
330
1F
100
AcDbEntity
  8
0
  6
Continuous
 62
     7
370
    15
100
AcDbLine
 10
155.8381856944
 20
130.9742302408
 30
0.0
 11
91.2938788013
 21
121.5615188189
 31
0.0
  0
LINE
  5
89
330
1F
100
AcDbEntity
  8
0
  6
Continuous
 62
     7
370
    15
100
AcDbLine
 10
91.2938788013
 20
95.9369416627
 30
0.0
 11
155.8381856944
 21
86.5242302408
 31
0.0
  0
LINE
  5
8A
330
1F
100
AcDbEntity
  8
0
  6
Continuous
 62
     7
370
    15
100
AcDbLine
 10
203.4381856944
 20
89.2492302408
 30
0.0
 11
203.8381856944
 21
89.6492302408
 31
0.0
  0
LINE
  5
8B
330
1F
100
AcDbEntity
  8
0
  6
Continuous
 62
     7
370
    15
100
AcDbLine
 10
203.8381856944
 20
127.8492302408
 30
0.0
 11
203.4381856944
 21
128.2492302408
 31
0.0
  0
LINE
  5
8C
330
1F
100
AcDbEntity
  8
0
  6
Continuous
 62
     7
370
    15
100
AcDbLine
 10
203.4381856944
 20
128.2492302408
 30
0.0
 11
186.8381856944
 21
128.2492302408
 31
0.0
  0
LINE
  5
8D
330
1F
100
AcDbEntity
  8
0
  6
Continuous
 62
     7
370
    15
100
AcDbLine
 10
186.8381856944
 20
89.2492302408
 30
0.0
 11
203.4381856944
 21
89.2492302408
 31
0.0
  0
ARC
  5
8E
330
1F
100
AcDbEntity
  8
0
  6
Continuous
 62
     7
370
    15
100
AcDbCircle
 10
91.4381856944
 20
96.9264746438
 30
0.0
 40
1.00000000000001
100
AcDbArc
 50
180.0
 51
261.7028550302
  0
ARC
  5
8F
330
1F
100
AcDbEntity
  8
0
  6
Continuous
 62
     7
370
    15
100
AcDbCircle
 10
91.4381856944
 20
120.5719858378
 30
0.0
 40
1.00000000000001
100
AcDbArc
 50
98.2971449698
 51
180.0
  0
SPLINE
  5
90
330
1F
100
AcDbEntity
  8
0
  6
Continuous
 62
     7
370
    15
100
AcDbSpline
210
0.0
220
0.0
230
1.0
 70
    24
 71
     3
 72
    11
 73
     7
 74
     0
 42
0.000000001
 43
0.00000001
 40
0.0
 40
0.0
 40
0.0
 40
0.0
 40
0.1285561766307333
 40
0.4801535797842195
 40
0.8150691831753802
 40
1.0
 40
1.0
 40
1.0
 40
1.0
 10
192.2613383326706
 20
107.0165818438731
 30
0.0
 10
192.2316533912408
 20
107.104723731247
 30
0.0
 10
192.1207809985891
 20
107.4339311163817
 30
0.0
 10
191.9128704303411
 20
108.0512686958981
 30
0.0
 10
191.6877471413943
 20
108.7197150738882
 30
0.0
 10
191.5671469493564
 20
109.0778066863986
 30
0.0
 10
191.5242444859452
 20
109.2051946452733
 30
0.0
  0
SPLINE
  5
91
330
1F
100
AcDbEntity
  8
0
  6
Continuous
 62
     7
370
    15
100
AcDbSpline
210
0.0
220
0.0
230
1.0
 70
    24
 71
     3
 72
    11
 73
     7
 74
     0
 42
0.000000001
 43
0.00000001
 40
0.0
 40
0.0
 40
0.0
 40
0.0
 40
0.2164526859271169
 40
0.4403055508633973
 40
0.7518960204221871
 40
1.0
 40
1.0
 40
1.0
 40
1.0
 10
194.5252795410937
 20
106.5606174394103
 30
0.0
 10
194.3701993408645
 20
106.5918510469256
 30
0.0
 10
194.0547369907558
 20
106.6553860901778
 30
0.0
 10
193.4693197514751
 20
106.7732908404769
 30
0.0
 10
192.8413471338603
 20
106.8997663688803
 30
0.0
 10
192.4394799168209
 20
106.9807036059467
 30
0.0
 10
192.2613383326706
 20
107.0165818438731
 30
0.0
  0
SPLINE
  5
92
330
1F
100
AcDbEntity
  8
0
  6
Continuous
 62
     7
370
    15
100
AcDbSpline
210
0.0
220
0.0
230
1.0
 70
    24
 71
     3
 72
    11
 73
     7
 74
     0
 42
0.000000001
 43
0.00000001
 40
0.0
 40
0.0
 40
0.0
 40
0.0
 40
0.2164526859271204
 40
0.4403055508634006
 40
0.7518960204221936
 40
1.0
 40
1.0
 40
1.0
 40
1.0
 10
196.0521269027914
 20
108.2932658363478
 30
0.0
 10
195.9475377051168
 20
108.1745792470829
 30
0.0
 10
195.7347835685754
 20
107.9331483595774
 30
0.0
 10
195.3399664399493
 20
107.4851145336965
 30
0.0
 10
194.9164491105874
 20
107.0045120581628
 30
0.0
 10
194.6454217986561
 20
106.6969534577917
 30
0.0
 10
194.5252795410937
 20
106.5606174394103
 30
0.0
  0
SPLINE
  5
93
330
1F
100
AcDbEntity
  8
0
  6
Continuous
 62
     7
370
    15
100
AcDbSpline
210
0.0
220
0.0
230
1.0
 70
    24
 71
     3
 72
    11
 73
     7
 74
     0
 42
0.000000001
 43
0.00000001
 40
0.0
 40
0.0
 40
0.0
 40
0.0
 40
0.1849308168246188
 40
0.519846420215778
 40
0.8714438233692684
 40
1.0
 40
1.0
 40
1.0
 40
1.0
 10
195.3150330560661
 20
110.481878637748
 30
0.0
 10
195.3579355194773
 20
110.3544906788733
 30
0.0
 10
195.4785357115152
 20
109.9963990663629
 30
0.0
 10
195.703659000462
 20
109.3279526883728
 30
0.0
 10
195.9115695687099
 20
108.7106151088564
 30
0.0
 10
196.0224419613616
 20
108.3814077237217
 30
0.0
 10
196.0521269027914
 20
108.2932658363478
 30
0.0
  0
SPLINE
  5
94
330
1F
100
AcDbEntity
  8
0
  6
Continuous
 62
     7
370
    15
100
AcDbSpline
210
0.0
220
0.0
230
1.0
 70
    24
 71
     3
 72
    11
 73
     7
 74
     0
 42
0.000000001
 43
0.00000001
 40
0.0
 40
0.0
 40
0.0
 40
0.0
 40
0.2164526859271243
 40
0.4403055508634003
 40
0.75189602042219
 40
1.0
 40
1.0
 40
1.0
 40
1.0
 10
193.051091847643
 20
110.9378430422108
 30
0.0
 10
193.2061720478722
 20
110.9066094346955
 30
0.0
 10
193.5216343979809
 20
110.8430743914433
 30
0.0
 10
194.1070516372615
 20
110.7251696411442
 30
0.0
 10
194.7350242548764
 20
110.5986941127408
 30
0.0
 10
195.1368914719158
 20
110.5177568756744
 30
0.0
 10
195.3150330560661
 20
110.481878637748
 30
0.0
  0
SPLINE
  5
95
330
1F
100
AcDbEntity
  8
0
  6
Continuous
 62
     7
370
    15
100
AcDbSpline
210
0.0
220
0.0
230
1.0
 70
    24
 71
     3
 72
    11
 73
     7
 74
     0
 42
0.000000001
 43
0.00000001
 40
0.0
 40
0.0
 40
0.0
 40
0.0
 40
0.2164526859271154
 40
0.4403055508633969
 40
0.7518960204221921
 40
1.0
 40
1.0
 40
1.0
 40
1.0
 10
191.5242444859452
 20
109.2051946452733
 30
0.0
 10
191.6288336836198
 20
109.3238812345381
 30
0.0
 10
191.8415878201612
 20
109.5653121220437
 30
0.0
 10
192.2364049487874
 20
110.0133459479246
 30
0.0
 10
192.6599222781493
 20
110.4939484234583
 30
0.0
 10
192.9309495900806
 20
110.8015070238294
 30
0.0
 10
193.051091847643
 20
110.9378430422108
 30
0.0
  0
CIRCLE
  5
96
330
1F
100
AcDbEntity
  8
0
  6
Continuous
 62
     7
370
    15
100
AcDbCircle
 10
193.7881856944
 20
108.7492302408
 30
0.0
 40
2.399999999999998
  0
CIRCLE
  5
97
330
1F
100
AcDbEntity
  8
0
  6
Continuous
 62
     7
370
    15
100
AcDbCircle
 10
193.7881856944
 20
108.7492302408
 30
0.0
 40
3.619999999999994
  0
CIRCLE
  5
98
330
1F
100
AcDbEntity
  8
0
  6
Continuous
 62
     7
370
    15
100
AcDbCircle
 10
193.7881856944
 20
108.7492302408
 30
0.0
 40
3.999999999999988
  0
ARC
  5
99
330
1F
100
AcDbEntity
  8
0
  6
Continuous
 62
     7
370
    15
100
AcDbCircle
 10
193.7881856944
 20
108.7492302408
 30
0.0
 40
2.000000000000034
100
AcDbArc
 50
18.6127977804
 51
78.6127977804
  0
ARC
  5
9A
330
1F
100
AcDbEntity
  8
0
  6
Continuous
 62
     7
370
    15
100
AcDbCircle
 10
193.7881856944
 20
108.7492302408
 30
0.0
 40
2.000000000000003
100
AcDbArc
 50
138.6127977804
 51
198.6127977804
  0
ARC
  5
9B
330
1F
100
AcDbEntity
  8
0
  6
Continuous
 62
     7
370
    15
100
AcDbCircle
 10
193.7881856944
 20
108.7492302408
 30
0.0
 40
2.000000000000003
100
AcDbArc
 50
198.6127977804
 51
258.6127977804
  0
ARC
  5
9C
330
1F
100
AcDbEntity
  8
0
  6
Continuous
 62
     7
370
    15
100
AcDbCircle
 10
193.7881856944
 20
108.7492302408
 30
0.0
 40
2.000000000000018
100
AcDbArc
 50
78.6127977804
 51
138.6127977804
  0
ARC
  5
9D
330
1F
100
AcDbEntity
  8
0
  6
Continuous
 62
     7
370
    15
100
AcDbCircle
 10
193.7881856944
 20
108.7492302408
 30
0.0
 40
2.000000000000034
100
AcDbArc
 50
318.6127977804
 51
18.6127977804
  0
ARC
  5
9E
330
1F
100
AcDbEntity
  8
0
  6
Continuous
 62
     7
370
    15
100
AcDbCircle
 10
193.7881856944
 20
108.7492302408
 30
0.0
 40
2.000000000000011
100
AcDbArc
 50
258.6127977804
 51
318.6127977804
  0
SPLINE
  5
9F
330
1F
100
AcDbEntity
  8
0
  6
Continuous
 62
     7
370
    15
100
AcDbSpline
210
0.0
220
0.0
230
1.0
 70
     8
 71
     3
 72
    11
 73
     7
 74
     0
 42
0.000000001
 43
0.00000001
 40
0.0
 40
0.0
 40
0.0
 40
0.0
 40
0.2488814606695658
 40
0.5011921284368381
 40
0.7520447562540515
 40
1.0
 40
1.0
 40
1.0
 40
1.0
 10
179.8376855243512
 20
140.2490804954041
 30
0.0
 10
179.8079071948518
 20
140.2399484692598
 30
0.0
 10
179.7479402358707
 20
140.221558591573
 30
0.0
 10
179.2560181741239
 20
140.0775213430879
 30
0.0
 10
178.5279487515045
 20
139.8681182649767
 30
0.0
 10
177.8172052803269
 20
139.6959139956278
 30
0.0
 10
177.4638977631772
 20
139.6103119953091
 30
0.0
  0
SPLINE
  5
A0
330
1F
100
AcDbEntity
  8
0
  6
Continuous
 62
     7
370
    15
100
AcDbSpline
210
0.0
220
0.0
230
1.0
 70
     8
 71
     3
 72
    24
 73
    20
 74
     0
 42
0.000000001
 43
0.00000001
 40
0.0
 40
0.0
 40
0.0
 40
0.0
 40
0.0452115635722791
 40
0.090297775844437
 40
0.135306836248254
 40
0.1802871922140507
 40
0.2252873838596155
 40
0.2703558871887883
 40
0.3155409583214171
 40
0.3608904812378326
 40
0.4064518213911367
 40
0.4522716873277169
 40
0.4983960021743693
 40
0.5831101727959631
 40
0.6669827858154328
 40
0.7503075451516891
 40
0.8333839654708468
 40
0.9165142457316753
 40
1.0
 40
1.0
 40
1.0
 40
1.0
 10
177.463804387786
 20
77.88813222127509
 30
0.0
 10
177.5315081296887
 20
77.8723731802576
 30
0.0
 10
177.6667279015152
 20
77.84089879094464
 30
0.0
 10
177.8593896183531
 20
77.79443798760585
 30
0.0
 10
178.0441264900018
 20
77.74880700797385
 30
0.0
 10
178.2202444312931
 20
77.70418171054061
 30
0.0
 10
178.3879282239048
 20
77.66069442394168
 30
0.0
 10
178.5471277081969
 20
77.61849337614352
 30
0.0
 10
178.6978558466786
 20
77.57772678383132
 30
0.0
 10
178.8401088001204
 20
77.53854703122283
 30
0.0
 10
178.9738875551979
 20
77.50110973942073
 30
0.0
 10
179.0991914661589
 20
77.46557315544527
 30
0.0
 10
179.2482989824106
 20
77.42285424707859
 30
0.0
 10
179.4091575281415
 20
77.37631838405787
 30
0.0
 10
179.5651707448901
 20
77.33063225589602
 30
0.0
 10
179.6868256948407
 20
77.29459222829058
 30
0.0
 10
179.7732728146005
 20
77.26871851047423
 30
0.0
 10
179.8276094295655
 20
77.25230682510723
 30
0.0
 10
179.8346552663432
 20
77.25025723106097
 30
0.0
 10
179.8381857008508
 20
77.2492302476414
 30
0.0
  0
LINE
  5
A1
330
1F
100
AcDbEntity
  8
0
  6
Continuous
 62
     7
370
    15
100
AcDbLine
 10
177.4631856944
 20
77.8881322213
 30
0.0
 11
177.4631856944
 21
139.6103119953
 31
0.0
  0
SPLINE
  5
A2
330
1F
100
AcDbEntity
  8
0
  6
Continuous
 62
     7
370
    15
100
AcDbSpline
210
0.0
220
0.0
230
1.0
 70
     8
 71
     3
 72
    10
 73
     6
 74
     0
 42
0.000000001
 43
0.00000001
 40
0.0
 40
0.0
 40
0.0
 40
0.0
 40
0.5
 40
0.5
 40
1.0
 40
1.0
 40
1.0
 40
1.0
 10
176.8147940984138
 20
138.6536909621647
 30
0.0
 10
176.4986902672744
 20
138.0338284038875
 30
0.0
 10
176.1689112229296
 20
137.3879276685887
 30
0.0
 10
175.4966879505407
 20
136.0735090282882
 30
0.0
 10
175.1545547846102
 20
135.4055868012759
 30
0.0
 10
174.807374456096
 20
134.7292490687944
 30
0.0
  0
SPLINE
  5
A3
330
1F
100
AcDbEntity
  8
0
  6
Continuous
 62
     7
370
    15
100
AcDbSpline
210
0.0
220
0.0
230
1.0
 70
     8
 71
     3
 72
     9
 73
     5
 74
     0
 42
0.000000001
 43
0.00000001
 40
0.0
 40
0.0
 40
0.0
 40
0.0
 40
0.5067595796178751
 40
1.0
 40
1.0
 40
1.0
 40
1.0
 10
177.4638162373529
 20
139.6113653481596
 30
0.0
 10
177.3534158895708
 20
139.4492904098252
 30
0.0
 10
177.1355604168331
 20
139.1294643130861
 30
0.0
 10
176.9209673146246
 20
138.8111163334489
 30
0.0
 10
176.8151213226801
 20
138.6540942421449
 30
0.0
  0
SPLINE
  5
A4
330
1F
100
AcDbEntity
  8
0
  6
Continuous
 62
     7
370
    15
100
AcDbSpline
210
0.0
220
0.0
230
1.0
 70
     8
 71
     3
 72
     9
 73
     5
 74
     0
 42
0.000000001
 43
0.00000001
 40
0.0
 40
0.0
 40
0.0
 40
0.0
 40
0.4932426502230348
 40
1.0
 40
1.0
 40
1.0
 40
1.0
 10
176.8151074076573
 20
78.84436413910578
 30
0.0
 10
176.9209535126685
 20
78.68734089944563
 30
0.0
 10
177.1355458739806
 20
78.36899203081238
 30
0.0
 10
177.3534001619407
 20
78.04916598410885
 30
0.0
 10
177.4637994235449
 20
77.88709178429174
 30
0.0
  0
SPLINE
  5
A5
330
1F
100
AcDbEntity
  8
0
  6
Continuous
 62
     7
370
    15
100
AcDbSpline
210
0.0
220
0.0
230
1.0
 70
     8
 71
     3
 72
    10
 73
     6
 74
     0
 42
0.000000001
 43
0.00000001
 40
0.0
 40
0.0
 40
0.0
 40
0.0
 40
0.5
 40
0.5
 40
1.0
 40
1.0
 40
1.0
 40
1.0
 10
176.814788178746
 20
78.84478112760553
 30
0.0
 10
176.4986090760719
 20
79.46479127961925
 30
0.0
 10
176.1681668489049
 20
80.11198934548695
 30
0.0
 10
175.4964553282222
 20
81.42540527008072
 30
0.0
 10
175.1544814531902
 20
82.09301653638352
 30
0.0
 10
174.807374456096
 20
82.76921141282668
 30
0.0
  0
LINE
  5
A6
330
1F
100
AcDbEntity
  8
0
  6
Continuous
 62
     7
370
    15
100
AcDbLine
 10
157.8381856944
 20
79.6228246953
 30
0.0
 11
157.8381856944
 21
137.8756357863
 31
0.0
  0
SPLINE
  5
A7
330
1F
100
AcDbEntity
  8
0
  6
Continuous
 62
     7
370
    15
100
AcDbSpline
210
0.0
220
0.0
230
1.0
 70
     8
 71
     3
 72
    12
 73
     8
 74
     0
 42
0.000000001
 43
0.00000001
 40
0.0
 40
0.0
 40
0.0
 40
0.0
 40
0.2500000000000001
 40
0.2500000000000001
 40
0.5000000000000002
 40
0.5000000000000002
 40
1.0
 40
1.0
 40
1.0
 40
1.0
 10
158.2252185173338
 20
138.8162201406315
 30
0.0
 10
158.1733577661458
 20
138.7594075683171
 30
0.0
 10
158.1246259691268
 20
138.6974153820653
 30
0.0
 10
158.0344529592094
 20
138.5613623089413
 30
0.0
 10
157.9926757109244
 20
138.4864562063426
 30
0.0
 10
157.8865868410785
 20
138.2483295710452
 30
0.0
 10
157.8381856943683
 20
138.0649228394764
 30
0.0
 10
157.8381856943683
 20
137.8756357862945
 30
0.0
  0
SPLINE
  5
A8
330
1F
100
AcDbEntity
  8
0
  6
Continuous
 62
     7
370
    15
100
AcDbSpline
210
0.0
220
0.0
230
1.0
 70
     8
 71
     3
 72
     8
 73
     4
 74
     0
 42
0.000000001
 43
0.00000001
 40
0.0
 40
0.0
 40
0.0
 40
0.0
 40
1.0
 40
1.0
 40
1.0
 40
1.0
 10
158.8381856943683
 20
138.9856203438124
 30
0.0
 10
158.6118413807685
 20
138.9856203438124
 30
0.0
 10
158.3943892603633
 20
138.9222518747915
 30
0.0
 10
158.2252185173338
 20
138.8162201406315
 30
0.0
  0
SPLINE
  5
A9
330
1F
100
AcDbEntity
  8
0
  6
Continuous
 62
     7
370
    15
100
AcDbSpline
210
0.0
220
0.0
230
1.0
 70
     8
 71
     3
 72
     8
 73
     4
 74
     0
 42
0.000000001
 43
0.00000001
 40
0.0
 40
0.0
 40
0.0
 40
0.0
 40
1.0
 40
1.0
 40
1.0
 40
1.0
 10
158.2252185173338
 20
78.68224034098958
 30
0.0
 10
158.3948120229858
 20
78.57594363043239
 30
0.0
 10
158.6111807153191
 20
78.51284013780871
 30
0.0
 10
158.8381856943683
 20
78.51284013780871
 30
0.0
  0
SPLINE
  5
AA
330
1F
100
AcDbEntity
  8
0
  6
Continuous
 62
     7
370
    15
100
AcDbSpline
210
0.0
220
0.0
230
1.0
 70
     8
 71
     3
 72
    12
 73
     8
 74
     0
 42
0.000000001
 43
0.00000001
 40
0.0
 40
0.0
 40
0.0
 40
0.0
 40
0.2499999999999976
 40
0.2499999999999976
 40
0.4999999999999952
 40
0.4999999999999952
 40
1.0
 40
1.0
 40
1.0
 40
1.0
 10
158.2252185173338
 20
78.68224034098958
 30
0.0
 10
158.1733577661458
 20
78.73905291330396
 30
0.0
 10
158.1246259691268
 20
78.8010450995558
 30
0.0
 10
158.0344529592094
 20
78.93709817267978
 30
0.0
 10
157.9926757109244
 20
79.01200427527851
 30
0.0
 10
157.8865868410785
 20
79.25013091057592
 30
0.0
 10
157.8381856943683
 20
79.4335376421447
 30
0.0
 10
157.8381856943683
 20
79.62282469532657
 30
0.0
  0
LINE
  5
AB
330
1F
100
AcDbEntity
  8
0
  6
Continuous
 62
     7
370
    15
100
AcDbLine
 10
182.8381856944
 20
78.2492302408
 30
0.0
 11
182.8381856944
 21
139.2492302346
 31
0.0
  0
LINE
  5
AC
330
1F
100
AcDbEntity
  8
0
  6
Continuous
 62
     7
370
    15
100
AcDbLine
 10
167.4131856944
 20
138.9856203438
 30
0.0
 11
158.8381856944
 21
138.9856203438
 31
0.0
  0
LINE
  5
AD
330
1F
100
AcDbEntity
  8
0
  6
Continuous
 62
     7
370
    15
100
AcDbLine
 10
167.4131856944
 20
78.5128401378
 30
0.0
 11
167.4131856944
 21
138.9856203438
 31
0.0
  0
LINE
  5
AE
330
1F
100
AcDbEntity
  8
0
  6
Continuous
 62
     7
370
    15
100
AcDbLine
 10
158.8381856944
 20
78.5128401378
 30
0.0
 11
167.4131856944
 21
78.5128401378
 31
0.0
  0
SPLINE
  5
AF
330
1F
100
AcDbEntity
  8
0
  6
Continuous
 62
     7
370
    15
100
AcDbSpline
210
0.0
220
0.0
230
1.0
 70
     8
 71
     3
 72
     8
 73
     4
 74
     0
 42
0.000000001
 43
0.00000001
 40
0.0
 40
0.0
 40
0.0
 40
0.0
 40
0.0012389803509652
 40
0.0012389803509652
 40
0.0012389803509652
 40
0.0012389803509652
 10
167.9707472379021
 20
138.203252963597
 30
0.0
 10
167.7856272647693
 20
138.464302944976
 30
0.0
 10
167.5997488170103
 20
138.725084558095
 30
0.0
 10
167.4131856943683
 20
138.9856203438124
 30
0.0
  0
SPLINE
  5
B0
330
1F
100
AcDbEntity
  8
0
  6
Continuous
 62
     7
370
    15
100
AcDbSpline
210
0.0
220
0.0
230
1.0
 70
     8
 71
     3
 72
     8
 73
     4
 74
     0
 42
0.000000001
 43
0.00000001
 40
0.0
 40
0.0
 40
0.0
 40
0.0
 40
1.0
 40
1.0
 40
1.0
 40
1.0
 10
170.0689969326406
 20
134.4164759052755
 30
0.0
 10
169.3727035665991
 20
135.6804142733904
 30
0.0
 10
168.6729084014079
 20
136.9424697188986
 30
0.0
 10
167.9707472379021
 20
138.203252963597
 30
0.0
  0
SPLINE
  5
B1
330
1F
100
AcDbEntity
  8
0
  6
Continuous
 62
     7
370
    15
100
AcDbSpline
210
0.0
220
0.0
230
1.0
 70
     8
 71
     3
 72
     8
 73
     4
 74
     0
 42
0.000000001
 43
0.00000001
 40
0.0
 40
0.0
 40
0.0
 40
0.0
 40
1.0
 40
1.0
 40
1.0
 40
1.0
 10
170.0689969326406
 20
83.08198457634549
 30
0.0
 10
169.3726787919826
 20
81.81800123639871
 30
0.0
 10
168.6728815998722
 20
80.55594263854674
 30
0.0
 10
167.970747237902
 20
79.29520751802404
 30
0.0
  0
SPLINE
  5
B2
330
1F
100
AcDbEntity
  8
0
  6
Continuous
 62
     7
370
    15
100
AcDbSpline
210
0.0
220
0.0
230
1.0
 70
     8
 71
     3
 72
     8
 73
     4
 74
     0
 42
0.000000001
 43
0.00000001
 40
0.0
 40
0.0
 40
0.0
 40
0.0
 40
0.0012389803509652
 40
0.0012389803509652
 40
0.0012389803509652
 40
0.0012389803509652
 10
167.4131856943683
 20
78.51284013780871
 30
0.0
 10
167.5997488170103
 20
78.77337592352606
 30
0.0
 10
167.7856272647692
 20
79.03415753664505
 30
0.0
 10
167.970747237902
 20
79.29520751802404
 30
0.0
  0
SPLINE
  5
B3
330
1F
100
AcDbEntity
  8
0
  6
Continuous
 62
     7
370
    15
100
AcDbSpline
210
0.0
220
0.0
230
1.0
 70
     8
 71
     3
 72
    10
 73
     6
 74
     0
 42
0.000000001
 43
0.00000001
 40
0.0
 40
0.0
 40
0.0
 40
0.0
 40
0.5
 40
0.5
 40
1.0
 40
1.0
 40
1.0
 40
1.0
 10
170.7618172556681
 20
133.9969529103901
 30
0.0
 10
170.6197999432212
 20
133.9969529103901
 30
0.0
 10
170.4793528963589
 20
134.0374427625996
 30
0.0
 10
170.2377629770976
 20
134.1853785925387
 30
0.0
 10
170.1370855348443
 20
134.2928788685182
 30
0.0
 10
170.0689969326407
 20
134.4164759052753
 30
0.0
  0
SPLINE
  5
B4
330
1F
100
AcDbEntity
  8
0
  6
Continuous
 62
     7
370
    15
100
AcDbSpline
210
0.0
220
0.0
230
1.0
 70
     8
 71
     3
 72
    10
 73
     6
 74
     0
 42
0.000000001
 43
0.00000001
 40
0.0
 40
0.0
 40
0.0
 40
0.0
 40
0.5
 40
0.5
 40
1.0
 40
1.0
 40
1.0
 40
1.0
 10
170.7618172556681
 20
83.50150757123102
 30
0.0
 10
170.6209598911575
 20
83.50150757123102
 30
0.0
 10
170.4781257596833
 20
83.46040366541233
 30
0.0
 10
170.2378640689099
 20
83.31300577211137
 30
0.0
 10
170.1371577998305
 20
83.20571279127174
 30
0.0
 10
170.0689969326405
 20
83.0819845763455
 30
0.0
  0
SPLINE
  5
B5
330
1F
100
AcDbEntity
  8
0
  6
Continuous
 62
     7
370
    15
100
AcDbSpline
210
0.0
220
0.0
230
1.0
 70
     8
 71
     3
 72
    12
 73
     8
 74
     0
 42
0.000000001
 43
0.00000001
 40
0.0
 40
0.0
 40
0.0
 40
0.0
 40
0.2499999999999968
 40
0.2499999999999968
 40
0.4999999999999936
 40
0.4999999999999936
 40
1.0
 40
1.0
 40
1.0
 40
1.0
 10
174.807374456096
 20
134.7292490687944
 30
0.0
 10
174.7714703057595
 20
134.6593046346463
 30
0.0
 10
174.72893875363
 20
134.5960532715884
 30
0.0
 10
174.63214447679
 20
134.4809946166725
 30
0.0
 10
174.5770547985257
 20
134.4286660829605
 30
0.0
 10
174.3989215649717
 20
134.2948811798755
 30
0.0
 10
174.2615444729691
 20
134.2343334127173
 30
0.0
 10
174.1145541330692
 20
134.2151334643334
 30
0.0
  0
SPLINE
  5
B6
330
1F
100
AcDbEntity
  8
0
  6
Continuous
 62
     7
370
    15
100
AcDbSpline
210
0.0
220
0.0
230
1.0
 70
     8
 71
     3
 72
    12
 73
     8
 74
     0
 42
0.000000001
 43
0.00000001
 40
0.0
 40
0.0
 40
0.0
 40
0.0
 40
0.2500000000000022
 40
0.2500000000000022
 40
0.5000000000000044
 40
0.5000000000000044
 40
1.0
 40
1.0
 40
1.0
 40
1.0
 10
174.807374456096
 20
82.76921141282668
 30
0.0
 10
174.7714703057595
 20
82.83915584697482
 30
0.0
 10
174.72893875363
 20
82.90240721003266
 30
0.0
 10
174.63214447679
 20
83.01746586494859
 30
0.0
 10
174.5770547985257
 20
83.06979439866058
 30
0.0
 10
174.3989215649717
 20
83.20357930174566
 30
0.0
 10
174.2615444729692
 20
83.26412706890382
 30
0.0
 10
174.1145541330692
 20
83.2833270172877
 30
0.0
  0
LINE
  5
B7
330
1F
100
AcDbEntity
  8
0
  6
Continuous
 62
     7
370
    15
100
AcDbLine
 10
170.7881856944
 20
83.5015075712
 30
0.0
 11
170.7618172557
 21
83.5015075712
 31
0.0
  0
LINE
  5
B8
330
1F
100
AcDbEntity
  8
0
  6
Continuous
 62
     7
370
    15
100
AcDbLine
 10
170.7881856944
 20
133.9969529104
 30
0.0
 11
170.7618172557
 21
133.9969529104
 31
0.0
  0
SPLINE
  5
B9
330
1F
100
AcDbEntity
  8
0
  6
Continuous
 62
     7
370
    15
100
AcDbSpline
210
0.0
220
0.0
230
1.0
 70
     8
 71
     3
 72
    10
 73
     6
 74
     0
 42
0.000000001
 43
0.00000001
 40
0.0
 40
0.0
 40
0.0
 40
0.0
 40
0.5
 40
0.5
 40
1.0
 40
1.0
 40
1.0
 40
1.0
 10
174.1145541330685
 20
134.2151334643363
 30
0.0
 10
173.5926394086726
 20
134.1469607138281
 30
0.0
 10
173.0537882285632
 20
134.0923374488702
 30
0.0
 10
171.942425586531
 20
134.0172415959788
 30
0.0
 10
171.365584809335
 20
133.9969529103901
 30
0.0
 10
170.7881856943683
 20
133.9969529103901
 30
0.0
  0
SPLINE
  5
BA
330
1F
100
AcDbEntity
  8
0
  6
Continuous
 62
     7
370
    15
100
AcDbSpline
210
0.0
220
0.0
230
1.0
 70
     8
 71
     3
 72
    10
 73
     6
 74
     0
 42
0.000000001
 43
0.00000001
 40
0.0
 40
0.0
 40
0.0
 40
0.0
 40
0.5
 40
0.5
 40
1.0
 40
1.0
 40
1.0
 40
1.0
 10
174.1145541330685
 20
83.28332701728478
 30
0.0
 10
173.5926394086726
 20
83.35149976779299
 30
0.0
 10
173.0537882285632
 20
83.40612303275091
 30
0.0
 10
171.942425586531
 20
83.48121888564226
 30
0.0
 10
171.365584809335
 20
83.50150757123103
 30
0.0
 10
170.7881856943683
 20
83.50150757123103
 30
0.0
  0
SPLINE
  5
BB
330
1F
100
AcDbEntity
  8
0
  6
Continuous
 62
     7
370
    15
100
AcDbSpline
210
0.0
220
0.0
230
1.0
 70
     8
 71
     3
 72
    10
 73
     6
 74
     0
 42
0.000000001
 43
0.00000001
 40
0.0
 40
0.0
 40
0.0
 40
0.0
 40
0.2806291598784411
 40
0.9999940004803342
 40
1.0
 40
1.0
 40
1.0
 40
1.0
 10
157.6836783885752
 20
131.2492302408106
 30
0.0
 10
157.6627114703574
 20
131.2492302408242
 30
0.0
 10
157.5879979500821
 20
131.2492302408729
 30
0.0
 10
157.4975261855788
 20
131.2492302404012
 30
0.0
 10
157.5269350505967
 20
131.2492302408106
 30
0.0
 10
157.5269352958653
 20
131.2492302408106
 30
0.0
  0
SPLINE
  5
BC
330
1F
100
AcDbEntity
  8
0
  6
Continuous
 62
     7
370
    15
100
AcDbSpline
210
0.0
220
0.0
230
1.0
 70
    24
 71
     3
 72
     9
 73
     5
 74
     0
 42
0.000000001
 43
0.00000001
 40
0.0
 40
0.0
 40
0.0
 40
0.0
 40
0.6863472607341549
 40
0.9999999999999999
 40
0.9999999999999999
 40
0.9999999999999999
 40
0.9999999999999999
 10
157.5269353973926
 20
86.24923024081055
 30
0.0
 10
157.545975971309
 20
86.24923024081055
 30
0.0
 10
157.5737178667106
 20
86.24923024081055
 30
0.0
 10
157.6557652558033
 20
86.24923024081055
 30
0.0
 10
157.6814996441419
 20
86.24923024081055
 30
0.0
  0
LINE
  5
BD
330
1F
100
AcDbEntity
  8
0
  6
Continuous
 62
     7
370
    15
100
AcDbLine
 10
155.8381856944
 20
86.5242302408
 30
0.0
 11
155.8381856944
 21
130.9742302408
 31
0.0
  0
LINE
  5
BE
330
1F
100
AcDbEntity
  8
0
  6
Continuous
 62
     7
370
    15
100
AcDbLine
 10
203.8381856944
 20
108.7492302408
 30
0.0
 11
203.8381856944
 21
89.6492302408
 31
0.0
  0
LINE
  5
BF
330
1F
100
AcDbEntity
  8
0
  6
Continuous
 62
     7
370
    15
100
AcDbLine
 10
203.8381856944
 20
127.8492302408
 30
0.0
 11
203.8381856944
 21
108.7492302408
 31
0.0
  0
LINE
  5
C0
330
1F
100
AcDbEntity
  8
0
  6
Continuous
 62
     7
370
    15
100
AcDbLine
 10
203.4381856944
 20
108.7492302408
 30
0.0
 11
203.4381856944
 21
89.2492302408
 31
0.0
  0
LINE
  5
C1
330
1F
100
AcDbEntity
  8
0
  6
Continuous
 62
     7
370
    15
100
AcDbLine
 10
203.4381856944
 20
128.2492302408
 30
0.0
 11
203.4381856944
 21
108.7492302408
 31
0.0
  0
SPLINE
  5
C2
330
1F
100
AcDbEntity
  8
0
  6
Continuous
 62
     7
370
    15
100
AcDbSpline
210
0.0
220
0.0
230
1.0
 70
    11
 71
     3
 72
    77
 73
    73
 74
     0
 42
0.000000001
 43
0.00000001
 40
0.0
 40
0.0
 40
0.0
 40
0.0
 40
0.0312499999999998
 40
0.0312499999999998
 40
0.0624999999999996
 40
0.0624999999999996
 40
0.0937499999999994
 40
0.0937499999999994
 40
0.1249999999999991
 40
0.1249999999999991
 40
0.1562499999999989
 40
0.1562499999999989
 40
0.1874999999999987
 40
0.1874999999999987
 40
0.2187499999999985
 40
0.2187499999999985
 40
0.2499999999999983
 40
0.2499999999999983
 40
0.2812499999999981
 40
0.2812499999999981
 40
0.3124999999999978
 40
0.3124999999999978
 40
0.3437499999999976
 40
0.3437499999999976
 40
0.3593749999999975
 40
0.3593749999999975
 40
0.3749999999999974
 40
0.3906249999999973
 40
0.3906249999999973
 40
0.4062499999999972
 40
0.4062499999999972
 40
0.4374999999999971
 40
0.4374999999999971
 40
0.468749999999997
 40
0.468749999999997
 40
0.4999999999999969
 40
0.4999999999999969
 40
0.5312499999999968
 40
0.5312499999999968
 40
0.5624999999999967
 40
0.5624999999999967
 40
0.5937499999999966
 40
0.5937499999999966
 40
0.6249999999999964
 40
0.6249999999999964
 40
0.6562499999999963
 40
0.6562499999999963
 40
0.6874999999999962
 40
0.6874999999999962
 40
0.7187499999999961
 40
0.7187499999999961
 40
0.749999999999996
 40
0.749999999999996
 40
0.7656249999999963
 40
0.7656249999999963
 40
0.7812499999999966
 40
0.7812499999999966
 40
0.812499999999997
 40
0.812499999999997
 40
0.8437499999999974
 40
0.8437499999999974
 40
0.8749999999999979
 40
0.8749999999999979
 40
0.8906249999999981
 40
0.8906249999999981
 40
0.9062499999999983
 40
0.9062499999999983
 40
0.9374999999999989
 40
0.9374999999999989
 40
0.9687499999999994
 40
0.9687499999999994
 40
1.0
 40
1.0
 40
1.0
 40
1.0
 10
190.5915128446553
 20
111.90615552412
 30
0.0
 10
190.8211887264402
 20
112.0947017706954
 30
0.0
 10
191.0651245915693
 20
112.2584293185562
 30
0.0
 10
191.5792337455448
 20
112.5407964113056
 30
0.0
 10
191.8514259483627
 20
112.6600341648452
 30
0.0
 10
192.4137219834412
 20
112.8494356147146
 30
0.0
 10
192.7000204533516
 20
112.9187302647846
 30
0.0
 10
193.282557326823
 20
113.0086281505782
 30
0.0
 10
193.5816838410636
 20
113.029047924846
 30
0.0
 10
194.1741398555442
 20
113.0188942264565
 30
0.0
 10
194.4669728100862
 20
112.9889389872393
 30
0.0
 10
195.0459202179737
 20
112.8796438103192
 30
0.0
 10
195.3347981211585
 20
112.7990688521944
 30
0.0
 10
195.8870237226785
 20
112.5912780625735
 30
0.0
 10
196.1512550078887
 20
112.4645118911381
 30
0.0
 10
196.6555344527963
 20
112.1639073001093
 30
0.0
 10
196.89777048927
 20
111.9877522378167
 30
0.0
 10
197.3373085019456
 20
111.5982042215908
 30
0.0
 10
197.5364594182662
 20
111.3844181289635
 30
0.0
 10
197.8910484921473
 20
110.9160490886014
 30
0.0
 10
198.046967890737
 20
110.6588293147086
 30
0.0
 10
198.2947897451349
 20
110.126185732725
 30
0.0
 10
198.3892694724896
 20
109.848229606063
 30
0.0
 10
198.4831899663356
 20
109.4122855662318
 30
0.0
 10
198.506286567445
 20
109.263794293892
 30
0.0
 10
198.5347291721947
 20
108.9689735560534
 30
0.0
 10
198.5459615837335
 20
108.6741595821679
 30
0.0
 10
198.5231395820064
 20
108.3793589972534
 30
0.0
 10
198.4829280689682
 20
108.084565244273
 30
0.0
 10
198.4539656757179
 20
107.9371399081064
 30
0.0
 10
198.343504678265
 20
107.5065638804119
 30
0.0
 10
198.2382820005577
 20
107.2309460963171
 30
0.0
 10
197.9669408813643
 20
106.7016069636521
 30
0.0
 10
197.8035260444509
 20
106.4539073484089
 30
0.0
 10
197.4314343808985
 20
105.9975221627054
 30
0.0
 10
197.2196141420123
 20
105.7858139474915
 30
0.0
 10
196.7647617473728
 20
105.4108547639617
 30
0.0
 10
196.5211641694692
 20
105.246093657977
 30
0.0
 10
196.0026102700002
 20
104.9600723026721
 30
0.0
 10
195.729373178649
 20
104.8403502320429
 30
0.0
 10
195.1714776030851
 20
104.6515761787628
 30
0.0
 10
194.8846444558812
 20
104.5812855639535
 30
0.0
 10
194.2948268573099
 20
104.4897174595255
 30
0.0
 10
193.9993733293937
 20
104.4696873479149
 30
0.0
 10
193.4100275667389
 20
104.4790849886588
 30
0.0
 10
193.1147236339569
 20
104.508629136841
 30
0.0
 10
192.5289083095325
 20
104.6189957432708
 30
0.0
 10
192.2450450960752
 20
104.6983891422608
 30
0.0
 10
191.6949622468979
 20
104.9047708625932
 30
0.0
 10
191.4270973005096
 20
105.0327228777411
 30
0.0
 10
190.9177722140134
 20
105.3364250521332
 30
0.0
 10
190.6807473887687
 20
105.5091142836245
 30
0.0
 10
190.3519101104584
 20
105.8000921161616
 30
0.0
 10
190.2467789274335
 20
105.902446123669
 30
0.0
 10
190.0459461995252
 20
106.1185068729407
 30
0.0
 10
189.9497342601493
 20
106.2329656808333
 30
0.0
 10
189.6822566362848
 20
106.5868490852654
 30
0.0
 10
189.5305179953457
 20
106.8376145588483
 30
0.0
 10
189.2823194896263
 20
107.3703129329178
 30
0.0
 10
189.185385974502
 20
107.6564877329609
 30
0.0
 10
189.0615935765445
 20
108.2345295616496
 30
0.0
 10
189.0329653561535
 20
108.527967499738
 30
0.0
 10
189.0419535104854
 20
108.9750317299407
 30
0.0
 10
189.0538232835351
 20
109.1249624879839
 30
0.0
 10
189.0943298197487
 20
109.4188124268723
 30
0.0
 10
189.1229582453644
 20
109.5637924544199
 30
0.0
 10
189.2333292978202
 20
109.9930567004234
 30
0.0
 10
189.3412371314174
 20
110.2745964891092
 30
0.0
 10
189.611766973209
 20
110.8004508394204
 30
0.0
 10
189.7741297573968
 20
111.0467470268577
 30
0.0
 10
190.1509558022676
 20
111.5076899836967
 30
0.0
 10
190.3618369628703
 20
111.7176092775446
 30
0.0
 10
190.5915128446553
 20
111.90615552412
 30
0.0
  0
LINE
  5
C3
330
1F
100
AcDbEntity
  8
0
  6
Continuous
 62
     7
370
    15
100
AcDbLine
 10
90.4381856944
 20
96.9264746438
 30
0.0
 11
90.4381856944
 21
120.5719857934
 31
0.0
  0
CIRCLE
  5
C4
330
1F
100
AcDbEntity
  8
0
  6
HIDDEN
 62
     7
370
     0
100
AcDbCircle
 10
193.7881856944
 20
108.7492302408
 30
0.0
 40
2.95358983848624
  0
CIRCLE
  5
C5
330
1F
100
AcDbEntity
  8
0
  6
HIDDEN
 62
     7
370
     0
100
AcDbCircle
 10
193.7881856944
 20
108.7492302408
 30
0.0
 40
2.75358983848622
  0
SPLINE
  5
C6
330
1F
100
AcDbEntity
  8
0
  6
HIDDEN
 62
     7
370
     0
100
AcDbSpline
210
0.0
220
0.0
230
1.0
 70
     8
 71
     3
 72
    17
 73
    13
 74
     0
 42
0.000000001
 43
0.00000001
 40
0.0
 40
0.0
 40
0.0
 40
0.0
 40
0.0000739922696934
 40
0.000094731995031
 40
0.2495222660534439
 40
0.5019868526394472
 40
0.5864052907988494
 40
0.6698661101207094
 40
0.7526582899118598
 40
0.8350778439343867
 40
0.91742480546601
 40
0.9999999999999999
 40
0.9999999999999999
 40
0.9999999999999999
 40
0.9999999999999999
 10
179.8381857008508
 20
77.2492302476414
 30
0.0
 10
179.8381859135146
 20
77.24923024483044
 30
0.0
 10
179.8381861857871
 20
77.24923024123159
 30
0.0
 10
179.8387997359879
 20
77.24922909222197
 30
0.0
 10
179.734662041704
 20
77.28144576983817
 30
0.0
 10
179.3661748996372
 20
77.3898069168905
 30
0.0
 10
178.9995625439633
 20
77.49463759547932
 30
0.0
 10
178.7500309787439
 20
77.56433030017654
 30
0.0
 10
178.4722451940628
 20
77.63947200910953
 30
0.0
 10
178.1655854169418
 20
77.71913700269033
 30
0.0
 10
177.8323985844171
 20
77.80228618413048
 30
0.0
 10
177.5874011422517
 20
77.85959866635956
 30
0.0
 10
177.4647328972459
 20
77.88829456436497
 30
0.0
  0
LWPOLYLINE
  5
C7
330
1F
100
AcDbEntity
  8
0
  6
HIDDEN
 62
     7
370
     0
100
AcDbPolyline
 90
       24
 70
   128
 43
0.0
 10
158.0867566727
 20
99.7615181483
 10
158.2090558615
 20
99.2032909599
 10
158.3965560883
 20
98.6864649284
 10
158.635351319
 20
98.2493706762
 10
158.9077312038
 20
97.9244254844
 10
159.1934945726
 20
97.7357290513
 10
159.4714476636
 20
97.6972761281
 10
159.7209759677
 20
97.8119185924
 10
159.923573112
 20
98.0711539368
 10
160.0642133932
 20
98.4557558619
 10
160.1324661651
 20
98.9372002024
 10
160.1232694316
 20
99.4797804338
 10
160.0373052726
 20
100.0432558627
 10
159.8809492564
 20
100.5858360942
 10
159.6657975934
 20
101.0672804346
 10
159.4078070983
 20
101.4518823598
 10
159.1261117459
 20
101.7111177042
 10
158.8416035917
 20
101.8257601684
 10
158.575383304
 20
101.7873072453
 10
158.3471952237
 20
101.5986108122
 10
158.1739630168
 20
101.2736656204
 10
158.0685345236
 20
100.8365713681
 10
158.0387288931
 20
100.3197453366
 10
158.0867566727
 20
99.7615181483
  0
LWPOLYLINE
  5
C8
330
1F
100
AcDbEntity
  8
0
  6
HIDDEN
 62
     7
370
     0
100
AcDbPolyline
 90
       22
 70
   128
 43
0.0
 10
158.443191967
 20
99.7895273074
 10
158.5512532038
 20
99.3103454966
 10
158.7196266538
 20
98.8737410926
 10
158.933351597
 20
98.5185083126
 10
159.1734376343
 20
98.2762111481
 10
159.4185520678
 20
98.1683787654
 10
159.6469154043
 20
98.2045925449
 10
159.8382365593
 20
98.3816347335
 10
159.9755158084
 20
98.6837743557
 10
160.046555288
 20
99.0841649802
 10
160.0450428286
 20
99.5472301429
 10
159.9711128189
 20
100.0318244719
 10
159.8313342645
 20
100.4948896346
 10
159.6381271036
 20
100.8952802591
 10
159.4086586401
 20
101.1974198813
 10
159.1633181542
 20
101.3744620699
 10
158.9239052246
 20
101.4106758495
 10
158.7116927408
 20
101.3028434668
 10
158.5455367132
 20
101.0605463022
 10
158.440200834
 20
100.7053135223
 10
158.4050446585
 20
100.2687091182
 10
158.443191967
 20
99.7895273074
  0
SPLINE
  5
C9
330
1F
100
AcDbEntity
  8
0
  6
HIDDEN
 62
     7
370
     0
100
AcDbSpline
210
0.0
220
0.0
230
1.0
 70
     8
 71
     3
 72
    12
 73
     8
 74
     0
 42
0.000000001
 43
0.00000001
 40
0.0
 40
0.0
 40
0.0
 40
0.0
 40
0.4999999999999987
 40
0.4999999999999987
 40
0.7499999999999993
 40
0.7499999999999993
 40
1.0
 40
1.0
 40
1.0
 40
1.0
 10
170.429267307047
 20
101.9706609176042
 30
0.0
 10
170.5023676675223
 20
101.775925949843
 30
0.0
 10
170.5382714168546
 20
101.5683477748141
 30
0.0
 10
170.5383235349048
 20
101.2725861247426
 30
0.0
 10
170.5292867248145
 20
101.1748901321687
 30
0.0
 10
170.4932342516987
 20
100.99102222334
 30
0.0
 10
170.4662866105959
 20
100.903732516733
 30
0.0
 10
170.429267307047
 20
100.8209334010131
 30
0.0
  0
SPLINE
  5
CA
330
1F
100
AcDbEntity
  8
0
  6
HIDDEN
 62
     7
370
     0
100
AcDbSpline
210
0.0
220
0.0
230
1.0
 70
     8
 71
     3
 72
    50
 73
    46
 74
     0
 42
0.000000001
 43
0.00000001
 40
0.0
 40
0.0
 40
0.0
 40
0.0
 40
0.0624999999999996
 40
0.0624999999999996
 40
0.1249999999999992
 40
0.1249999999999992
 40
0.1874999999999988
 40
0.1874999999999988
 40
0.2499999999999983
 40
0.2499999999999983
 40
0.2812499999999986
 40
0.2812499999999986
 40
0.3124999999999988
 40
0.3124999999999988
 40
0.3749999999999998
 40
0.3749999999999998
 40
0.4062500000000001
 40
0.4062500000000001
 40
0.4375000000000004
 40
0.4375000000000004
 40
0.4687500000000008
 40
0.4687500000000008
 40
0.5000000000000011
 40
0.5000000000000011
 40
0.5312500000000014
 40
0.5312500000000014
 40
0.5625000000000018
 40
0.5625000000000018
 40
0.5937500000000021
 40
0.5937500000000021
 40
0.6250000000000024
 40
0.6250000000000024
 40
0.6875000000000031
 40
0.6875000000000031
 40
0.7187500000000028
 40
0.7187500000000028
 40
0.7500000000000024
 40
0.7500000000000024
 40
0.8125000000000018
 40
0.8125000000000018
 40
0.8750000000000011
 40
0.8750000000000011
 40
0.9375000000000006
 40
0.9375000000000006
 40
1.0
 40
1.0
 40
1.0
 40
1.0
 10
170.429267307047
 20
100.8209334010131
 30
0.0
 10
170.4844536023915
 20
100.6901085350748
 30
0.0
 10
170.5536102306725
 20
100.6041916081877
 30
0.0
 10
170.7011486789787
 20
100.4808941010813
 30
0.0
 10
170.7774336002018
 20
100.4468692509096
 30
0.0
 10
170.9222257273633
 20
100.4175168283102
 30
0.0
 10
170.9920807204427
 20
100.4225240188033
 30
0.0
 10
171.1007069941366
 20
100.4731465376026
 30
0.0
 10
171.1406102238386
 20
100.5189499405241
 30
0.0
 10
171.1383552003359
 20
100.6326612910492
 30
0.0
 10
171.1264637730684
 20
100.6792380261418
 30
0.0
 10
171.0791294840201
 20
100.7872085136868
 30
0.0
 10
171.0435394571861
 20
100.8495596542894
 30
0.0
 10
170.91233570732
 20
101.0602338561889
 30
0.0
 10
170.7980961114648
 20
101.227407367943
 30
0.0
 10
170.6447591016374
 20
101.5021463553715
 30
0.0
 10
170.5953247402891
 20
101.5994420942387
 30
0.0
 10
170.5075594054189
 20
101.7986619058265
 30
0.0
 10
170.4690792813219
 20
101.9004939382141
 30
0.0
 10
170.4052436233886
 20
102.1094374447417
 30
0.0
 10
170.3800899483995
 20
102.216635790812
 30
0.0
 10
170.346777556205
 20
102.4269757573447
 30
0.0
 10
170.3381689022509
 20
102.5313498348903
 30
0.0
 10
170.3382025353482
 20
102.7385322450789
 30
0.0
 10
170.3469021425571
 20
102.8382247634416
 30
0.0
 10
170.3803870787906
 20
103.02810750628
 30
0.0
 10
170.4056010271709
 20
103.1195632870592
 30
0.0
 10
170.4696010601611
 20
103.2874060227579
 30
0.0
 10
170.5081682123123
 20
103.3639434281734
 30
0.0
 10
170.5961177736699
 20
103.5021865507835
 30
0.0
 10
170.6455537744257
 20
103.5635416967366
 30
0.0
 10
170.7988345655369
 20
103.7166842821775
 30
0.0
 10
170.9131480694626
 20
103.7814902336881
 30
0.0
 10
171.0435946359853
 20
103.8023425953341
 30
0.0
 10
171.0796195457777
 20
103.7963733401763
 30
0.0
 10
171.1267478388227
 20
103.7614202703414
 30
0.0
 10
171.1384845445815
 20
103.7319618999915
 30
0.0
 10
171.1403867734176
 20
103.6212509594131
 30
0.0
 10
171.1002633799696
 20
103.51791105487
 30
0.0
 10
170.9919911025281
 20
103.2874812398637
 30
0.0
 10
170.9226186266214
 20
103.1573687319498
 30
0.0
 10
170.7771130187089
 20
102.870683306631
 30
0.0
 10
170.7012137709978
 20
102.7156538830835
 30
0.0
 10
170.5547870479537
 20
102.3697283910083
 30
0.0
 10
170.4842564662185
 20
102.179675433278
 30
0.0
 10
170.429267307047
 20
101.9706609176042
 30
0.0
  0
SPLINE
  5
CB
330
1F
100
AcDbEntity
  8
0
  6
HIDDEN
 62
     7
370
     0
100
AcDbSpline
210
0.0
220
0.0
230
1.0
 70
    11
 71
     3
 72
    62
 73
    58
 74
     0
 42
0.000000001
 43
0.00000001
 40
0.0
 40
0.0
 40
0.0
 40
0.0
 40
0.0312500000000003
 40
0.0312500000000003
 40
0.0625000000000005
 40
0.0625000000000005
 40
0.1250000000000007
 40
0.1250000000000007
 40
0.1875000000000009
 40
0.1875000000000009
 40
0.218750000000001
 40
0.218750000000001
 40
0.2500000000000011
 40
0.2500000000000011
 40
0.2812500000000013
 40
0.2812500000000013
 40
0.3125000000000014
 40
0.3125000000000014
 40
0.3437500000000016
 40
0.3437500000000016
 40
0.3750000000000017
 40
0.3750000000000017
 40
0.437500000000002
 40
0.437500000000002
 40
0.468750000000002
 40
0.468750000000002
 40
0.500000000000002
 40
0.500000000000002
 40
0.5312500000000019
 40
0.5312500000000019
 40
0.5625000000000019
 40
0.5625000000000019
 40
0.5937500000000018
 40
0.5937500000000018
 40
0.6250000000000017
 40
0.6250000000000017
 40
0.6562500000000017
 40
0.6562500000000017
 40
0.6875000000000016
 40
0.6875000000000016
 40
0.7187500000000016
 40
0.7187500000000016
 40
0.7500000000000014
 40
0.7500000000000014
 40
0.7812500000000013
 40
0.7812500000000013
 40
0.8125000000000013
 40
0.8125000000000013
 40
0.8750000000000008
 40
0.8750000000000008
 40
0.9062500000000007
 40
0.9062500000000007
 40
0.9375000000000004
 40
0.9375000000000004
 40
0.9687500000000003
 40
0.9687500000000003
 40
1.0
 40
1.0
 40
1.0
 40
1.0
 10
172.4381856943683
 20
105.5121356055828
 30
0.0
 10
172.2969874703884
 20
105.5121356055828
 30
0.0
 10
172.1587095933747
 20
105.5226035419663
 30
0.0
 10
171.8875435221668
 20
105.5636270229018
 30
0.0
 10
171.7533401947073
 20
105.5947534763174
 30
0.0
 10
171.3742770149171
 20
105.7161274642292
 30
0.0
 10
171.1452700932233
 20
105.8362822382373
 30
0.0
 10
170.7642394742206
 20
106.1450611372602
 30
0.0
 10
170.6086163972989
 20
106.337230305424
 30
0.0
 10
170.4495459207303
 20
106.6672146172622
 30
0.0
 10
170.4078187755869
 20
106.7867139805743
 30
0.0
 10
170.3525480744449
 20
107.03329837973
 30
0.0
 10
170.3384681429551
 20
107.1604703101672
 30
0.0
 10
170.3379115766339
 20
107.4229595028634
 30
0.0
 10
170.3519008540545
 20
107.5581018715604
 30
0.0
 10
170.4063823732901
 20
107.8225869649202
 30
0.0
 10
170.4472328314451
 20
107.9547368691661
 30
0.0
 10
170.5538467983044
 20
108.2114326200879
 30
0.0
 10
170.6185989405775
 20
108.3341705045419
 30
0.0
 10
170.7701574825301
 20
108.5685412533002
 30
0.0
 10
170.8574956057031
 20
108.6803587543137
 30
0.0
 10
171.1432720266647
 20
108.985542219442
 30
0.0
 10
171.3728083751304
 20
109.1563565386219
 30
0.0
 10
171.7491265111247
 20
109.3328669015959
 30
0.0
 10
171.8814594194854
 20
109.3793517087897
 30
0.0
 10
172.1554920784762
 20
109.4424554215297
 30
0.0
 10
172.2935172380984
 20
109.4584131112741
 30
0.0
 10
172.5715886193171
 20
109.4592589801358
 30
0.0
 10
172.7133015579875
 20
109.4435343051627
 30
0.0
 10
172.9857238136678
 20
109.3820938626635
 30
0.0
 10
173.1175519581649
 20
109.3367722189771
 30
0.0
 10
173.3729508537695
 20
109.2182244159761
 30
0.0
 10
173.4931168569588
 20
109.1465373327597
 30
0.0
 10
173.7182882695151
 20
108.9818087667613
 30
0.0
 10
173.8244393308495
 20
108.8875494937265
 30
0.0
 10
174.0158866195517
 20
108.6839848195827
 30
0.0
 10
174.1018206334712
 20
108.5745175293436
 30
0.0
 10
174.2542329515112
 20
108.3404199268596
 30
0.0
 10
174.3204164417987
 20
108.2155257039617
 30
0.0
 10
174.4265981403498
 20
107.961793952427
 30
0.0
 10
174.4675782035656
 20
107.8316242676433
 30
0.0
 10
174.5236583443629
 20
107.5645605725144
 30
0.0
 10
174.5378825198042
 20
107.4306073424992
 30
0.0
 10
174.5384792036757
 20
107.1691506000311
 30
0.0
 10
174.5247106361773
 20
107.0390332306437
 30
0.0
 10
174.4698605692352
 20
106.7908423751599
 30
0.0
 10
174.4293640559587
 20
106.6734868840791
 30
0.0
 10
174.2699015847826
 20
106.3397377623394
 30
0.0
 10
174.1152331604684
 20
106.1478981904134
 30
0.0
 10
173.8269251291238
 20
105.9137756224437
 30
0.0
 10
173.7229003137759
 20
105.8456192130805
 30
0.0
 10
173.4984810555972
 20
105.7269082738564
 30
0.0
 10
173.3765502677367
 20
105.6759863374881
 30
0.0
 10
173.1240931163107
 20
105.5950365026664
 30
0.0
 10
172.9932065863935
 20
105.5645011836674
 30
0.0
 10
172.7212656686807
 20
105.522943154923
 30
0.0
 10
172.5793839183482
 20
105.5121356055828
 30
0.0
 10
172.4381856943683
 20
105.5121356055828
 30
0.0
  0
LWPOLYLINE
  5
CC
330
1F
100
AcDbEntity
  8
0
  6
HIDDEN
 62
     7
370
     0
100
AcDbPolyline
 90
       22
 70
   128
 43
0.0
 10
170.429267307
 20
100.820933401
 10
170.6664028192
 20
100.3364899398
 10
171.0329100273
 20
99.9293947662
 10
171.5020273795
 20
99.6293730762
 10
172.0395009567
 20
99.4583317948
 10
172.6060856182
 20
99.4287599809
 10
173.1604105958
 20
99.5428169035
 10
173.6620002967
 20
99.7921743765
 10
174.074229742
 20
100.1586248645
 10
174.3669988426
 20
100.6154109576
 10
174.5189302415
 20
101.1291791379
 10
174.5189302415
 20
101.6624151808
 10
174.3669988426
 20
102.176183361
 10
174.074229742
 20
102.6329694541
 10
173.6620002967
 20
102.9994199422
 10
173.1604105958
 20
103.2487774151
 10
172.6060856182
 20
103.3628343377
 10
172.0395009567
 20
103.3332625238
 10
171.5020273795
 20
103.1622212424
 10
171.0329100273
 20
102.8621995524
 10
170.6664028192
 20
102.4551043788
 10
170.429267307
 20
101.9706609176
  0
CIRCLE
  5
CD
330
1F
100
AcDbEntity
  8
0
  6
HIDDEN
 62
     7
370
     0
100
AcDbCircle
 10
193.7881856944
 20
108.7492302408
 30
0.0
 40
3.624999999999986
  0
SPLINE
  5
CE
330
1F
100
AcDbEntity
  8
0
  6
HIDDEN
 62
     7
370
     0
100
AcDbSpline
210
0.0
220
0.0
230
1.0
 70
     8
 71
     3
 72
    16
 73
    12
 74
     0
 42
0.000000001
 43
0.00000001
 40
0.0
 40
0.0
 40
0.0
 40
0.0
 40
0.2500000000000019
 40
0.2500000000000019
 40
0.5000000000000038
 40
0.5000000000000038
 40
0.6250000000000028
 40
0.6250000000000028
 40
0.7500000000000019
 40
0.7500000000000019
 40
1.0
 40
1.0
 40
1.0
 40
1.0
 10
203.8381856943683
 20
119.2133353558284
 30
0.0
 10
203.8381856943683
 20
119.1242696873227
 30
0.0
 10
203.8328659541811
 20
119.0334073138734
 30
0.0
 10
203.8034288295604
 20
118.8453341974522
 30
0.0
 10
203.780038283497
 20
118.7472330055503
 30
0.0
 10
203.711910853402
 20
118.6072046570261
 30
0.0
 10
203.6829493068105
 20
118.5625044905752
 30
0.0
 10
203.6164077638547
 20
118.4924340630992
 30
0.0
 10
203.5789616290579
 20
118.4672316715619
 30
0.0
 10
203.4685923451477
 20
118.4220920249162
 30
0.0
 10
203.4005610073427
 20
118.4276903605444
 30
0.0
 10
203.3381856943419
 20
118.4434253117469
 30
0.0
  0
SPLINE
  5
CF
330
1F
100
AcDbEntity
  8
0
  6
HIDDEN
 62
     7
370
     0
100
AcDbSpline
210
0.0
220
0.0
230
1.0
 70
     8
 71
     3
 72
     8
 73
     4
 74
     0
 42
0.000000001
 43
0.00000001
 40
0.0
 40
0.0
 40
0.0
 40
0.0
 40
1.0
 40
1.0
 40
1.0
 40
1.0
 10
203.3381856943428
 20
118.443425311746
 30
0.0
 10
203.2531462972836
 20
118.3859812204534
 30
0.0
 10
203.1481270463396
 20
118.3452239760404
 30
0.0
 10
203.0381856943686
 20
118.3452239760403
 30
0.0
  0
SPLINE
  5
D0
330
1F
100
AcDbEntity
  8
0
  6
HIDDEN
 62
     7
370
     0
100
AcDbSpline
210
0.0
220
0.0
230
1.0
 70
     8
 71
     3
 72
     8
 73
     4
 74
     0
 42
0.000000001
 43
0.00000001
 40
0.0
 40
0.0
 40
0.0
 40
0.0
 40
1.0
 40
1.0
 40
1.0
 40
1.0
 10
203.3381856943865
 20
99.05503516984558
 30
0.0
 10
203.2531462973182
 20
99.11247926115385
 30
0.0
 10
203.1481270463584
 20
99.15323650558071
 30
0.0
 10
203.0381856943686
 20
99.15323650558078
 30
0.0
  0
SPLINE
  5
D1
330
1F
100
AcDbEntity
  8
0
  6
HIDDEN
 62
     7
370
     0
100
AcDbSpline
210
0.0
220
0.0
230
1.0
 70
     8
 71
     3
 72
    16
 73
    12
 74
     0
 42
0.000000001
 43
0.00000001
 40
0.0
 40
0.0
 40
0.0
 40
0.0
 40
0.2500000000000008
 40
0.2500000000000008
 40
0.3750000000000007
 40
0.3750000000000007
 40
0.5000000000000006
 40
0.5000000000000006
 40
0.7500000000000002
 40
0.7500000000000002
 40
1.0
 40
1.0
 40
1.0
 40
1.0
 10
203.3381856943856
 20
99.05503516984466
 30
0.0
 10
203.4002587777418
 20
99.07069394277379
 30
0.0
 10
203.4680680616241
 20
99.07629483167733
 30
0.0
 10
203.5779238335588
 20
99.03179749260332
 30
0.0
 10
203.6152307513469
 20
99.00691736529835
 30
0.0
 10
203.6815384335104
 20
98.93778178539134
 30
0.0
 10
203.7105046546594
 20
98.89365728609
 30
0.0
 10
203.7793166047792
 20
98.75365768932913
 30
0.0
 10
203.8030272788896
 20
98.65495033570595
 30
0.0
 10
203.8327282873354
 20
98.46666229844128
 30
0.0
 10
203.8381856943684
 20
98.374425920703
 30
0.0
 10
203.8381856943684
 20
98.28512530199666
 30
0.0
  0
LINE
  5
D2
330
1F
100
AcDbEntity
  8
0
  6
HIDDEN
 62
     7
370
     0
100
AcDbLine
 10
179.3381856944
 20
108.7492302408
 30
0.0
 11
179.3381856944
 21
98.2492302408
 31
0.0
  0
LINE
  5
D3
330
1F
100
AcDbEntity
  8
0
  6
HIDDEN
 62
     7
370
     0
100
AcDbLine
 10
179.3381856944
 20
119.2492302408
 30
0.0
 11
179.3381856944
 21
108.7492302408
 31
0.0
  0
LINE
  5
D4
330
1F
100
AcDbEntity
  8
0
  6
HIDDEN
 62
     7
370
     0
100
AcDbLine
 10
183.2042110982
 20
108.7492302408
 30
0.0
 11
183.2042110982
 21
97.7492302408
 31
0.0
  0
LINE
  5
D5
330
1F
100
AcDbEntity
  8
0
  6
HIDDEN
 62
     7
370
     0
100
AcDbLine
 10
183.2042110982
 20
119.7492302408
 30
0.0
 11
183.2042110982
 21
108.7492302408
 31
0.0
  0
LINE
  5
D6
330
1F
100
AcDbEntity
  8
0
  6
HIDDEN
 62
     7
370
     0
100
AcDbLine
 10
193.2381856944
 20
118.345223976
 30
0.0
 11
203.0381856944
 21
118.345223976
 31
0.0
  0
LINE
  5
D7
330
1F
100
AcDbEntity
  8
0
  6
HIDDEN
 62
     7
370
     0
100
AcDbLine
 10
193.2381856944
 20
99.1532365056
 30
0.0
 11
203.0381856944
 21
99.1532365056
 31
0.0
  0
LINE
  5
D8
330
1F
100
AcDbEntity
  8
0
  6
HIDDEN
 62
     7
370
     0
100
AcDbLine
 10
157.8381856944
 20
131.2492302408
 30
0.0
 11
158.1754439946
 21
131.2492302408
 31
0.0
  0
ELLIPSE
  5
D9
330
1F
100
AcDbEntity
  8
0
  6
HIDDEN
 62
     7
370
     0
100
AcDbEllipse
 10
158.1754439946
 20
132.8492302408
 30
0.0
 11
0.0
 21
1.600000000000023
 31
0.0
210
0.0
220
0.0
230
1.0
 40
0.4142135624
 41
3.141592653589793
 42
4.712388980384695
  0
ELLIPSE
  5
DA
330
1F
100
AcDbEntity
  8
0
  6
HIDDEN
 62
     7
370
     0
100
AcDbEllipse
 10
158.1754439946
 20
84.6492302408
 30
0.0
 11
0.0
 21
1.599999999999994
 31
0.0
210
0.0
220
0.0
230
1.0
 40
0.4142135624
 41
4.712388980384695
 42
6.283185307179586
  0
LINE
  5
DB
330
1F
100
AcDbEntity
  8
0
  6
HIDDEN
 62
     7
370
     0
100
AcDbLine
 10
158.1754439946
 20
86.2492302408
 30
0.0
 11
157.8381856944
 21
86.2492302408
 31
0.0
  0
LINE
  5
DC
330
1F
100
AcDbEntity
  8
0
  6
HIDDEN
 62
     7
370
     0
100
AcDbLine
 10
158.8381856944
 20
79.295207518
 30
0.0
 11
158.2252185173
 21
78.682240341
 31
0.0
  0
LINE
  5
DD
330
1F
100
AcDbEntity
  8
0
  6
HIDDEN
 62
     7
370
     0
100
AcDbLine
 10
158.2252185173
 20
138.8162201406
 30
0.0
 11
158.8381856944
 21
138.2032529636
 31
0.0
  0
LINE
  5
DE
330
1F
100
AcDbEntity
  8
0
  6
HIDDEN
 62
     7
370
     0
100
AcDbLine
 10
97.4381856944
 20
100.2492302408
 30
0.0
 11
97.4381856944
 21
117.2492302408
 31
0.0
  0
LINE
  5
DF
330
1F
100
AcDbEntity
  8
0
  6
HIDDEN
 62
     7
370
     0
100
AcDbLine
 10
100.4341149087
 20
101.7492302408
 30
0.0
 11
100.4341149087
 21
115.7492302408
 31
0.0
  0
LINE
  5
E0
330
1F
100
AcDbEntity
  8
0
  6
HIDDEN
 62
     7
370
     0
100
AcDbLine
 10
158.8381856944
 20
138.2032529636
 30
0.0
 11
167.9707472379
 21
138.2032529636
 31
0.0
  0
LINE
  5
E1
330
1F
100
AcDbEntity
  8
0
  6
HIDDEN
 62
     7
370
     0
100
AcDbLine
 10
158.8381856944
 20
138.2032529636
 30
0.0
 11
158.8381856944
 21
132.8492302408
 31
0.0
  0
LINE
  5
E2
330
1F
100
AcDbEntity
  8
0
  6
HIDDEN
 62
     7
370
     0
100
AcDbLine
 10
167.9707472379
 20
79.295207518
 30
0.0
 11
158.8381856944
 21
79.295207518
 31
0.0
  0
LINE
  5
E3
330
1F
100
AcDbEntity
  8
0
  6
HIDDEN
 62
     7
370
     0
100
AcDbLine
 10
158.8381856944
 20
79.295207518
 30
0.0
 11
158.8381856944
 21
84.6492302408
 31
0.0
  0
LINE
  5
E4
330
1F
100
AcDbEntity
  8
0
  6
HIDDEN
 62
     7
370
     0
100
AcDbLine
 10
170.7881856944
 20
86.2492302408
 30
0.0
 11
158.1754439946
 21
86.2492302408
 31
0.0
  0
LINE
  5
E5
330
1F
100
AcDbEntity
  8
0
  6
HIDDEN
 62
     7
370
     0
100
AcDbLine
 10
158.1754439946
 20
131.2492302408
 30
0.0
 11
170.7881856944
 21
131.2492302408
 31
0.0
  0
SPLINE
  5
E6
330
1F
100
AcDbEntity
  8
0
  6
HIDDEN
 62
     7
370
     0
100
AcDbSpline
210
0.0
220
0.0
230
1.0
 70
     8
 71
     3
 72
    13
 73
     9
 74
     0
 42
0.000000001
 43
0.00000001
 40
0.0
 40
0.0
 40
0.0
 40
0.0
 40
0.1850454653144679
 40
0.3520092965859432
 40
0.5010298177386109
 40
0.6766227814582007
 40
0.8430962614808595
 40
1.0
 40
1.0
 40
1.0
 40
1.0
 10
176.8144493249808
 20
138.6540910165216
 30
0.0
 10
177.0412394406009
 20
138.7129276880615
 30
0.0
 10
177.4726589781529
 20
138.8248518323631
 30
0.0
 10
177.9601144491045
 20
138.9651179039915
 30
0.0
 10
178.3492236256487
 20
139.0844126632467
 30
0.0
 10
178.6301235460739
 20
139.1750804728711
 30
0.0
 10
178.807008321139
 20
139.2369962332203
 30
0.0
 10
178.8278707009622
 20
139.245185489378
 30
0.0
 10
178.8379931993974
 20
139.2491589446283
 30
0.0
  0
LINE
  5
E7
330
1F
100
AcDbEntity
  8
0
  6
HIDDEN
 62
     7
370
     0
100
AcDbLine
 10
177.5646798681
 20
138.8538040958
 30
0.0
 11
176.814427307
 21
138.6542784427
 31
0.0
  0
LINE
  5
E8
330
1F
100
AcDbEntity
  8
0
  6
HIDDEN
 62
     7
370
     0
100
AcDbLine
 10
170.7881856944
 20
131.2492302408
 30
0.0
 11
177.2381856944
 21
131.2492302408
 31
0.0
  0
LINE
  5
E9
330
1F
100
AcDbEntity
  8
0
  6
HIDDEN
 62
     7
370
     0
100
AcDbLine
 10
177.2381856944
 20
86.2492302408
 30
0.0
 11
170.7881856944
 21
86.2492302408
 31
0.0
  0
LINE
  5
EA
330
1F
100
AcDbEntity
  8
0
  6
HIDDEN
 62
     7
370
     0
100
AcDbLine
 10
176.8144274606
 20
78.8441823474
 30
0.0
 11
176.9083701902
 21
78.819198676
 31
0.0
  0
SPLINE
  5
EB
330
1F
100
AcDbEntity
  8
0
  6
HIDDEN
 62
     7
370
     0
100
AcDbSpline
210
0.0
220
0.0
230
1.0
 70
     8
 71
     3
 72
    13
 73
     9
 74
     0
 42
0.000000001
 43
0.00000001
 40
0.0
 40
0.0
 40
0.0
 40
0.0
 40
0.0000730266253407
 40
0.1576811714019511
 40
0.3241446478108668
 40
0.4996852929261713
 40
0.7294244053126598
 40
1.0
 40
1.0
 40
1.0
 40
1.0
 10
178.8381643873161
 20
78.2492385418624
 30
0.0
 10
178.8381714890239
 20
78.24923563172749
 30
0.0
 10
178.8535056989239
 20
78.24295198544945
 30
0.0
 10
178.7940446268336
 20
78.26666367849076
 30
0.0
 10
178.6332942247341
 20
78.32213860905115
 30
0.0
 10
178.2986095884833
 20
78.4300856770315
 30
0.0
 10
177.7407353299493
 20
78.60135789472052
 30
0.0
 10
177.1395689244106
 20
78.75908832270353
 30
0.0
 10
176.8144516424582
 20
78.84439064092119
 30
0.0
  0
LINE
  5
EC
330
1F
100
AcDbEntity
  8
0
  6
HIDDEN
 62
     7
370
     0
100
AcDbLine
 10
133.4381856944
 20
101.7492302408
 30
0.0
 11
133.4381856944
 21
115.7492302408
 31
0.0
  0
LINE
  5
ED
330
1F
100
AcDbEntity
  8
0
  6
HIDDEN
 62
     7
370
     0
100
AcDbLine
 10
135.0905523967
 20
104.4992302408
 30
0.0
 11
135.0905523967
 21
112.9992302408
 31
0.0
  0
SPLINE
  5
EE
330
1F
100
AcDbEntity
  8
0
  6
HIDDEN
 62
     7
370
     0
100
AcDbSpline
210
0.0
220
0.0
230
1.0
 70
     8
 71
     3
 72
    19
 73
    15
 74
     0
 42
0.000000001
 43
0.00000001
 40
0.0
 40
0.0
 40
0.0
 40
0.0
 40
0.0032943625872401
 40
0.0568436424528587
 40
0.1661122859853797
 40
0.2769919827542464
 40
0.3837578359847086
 40
0.4927168473615559
 40
0.6032665787965833
 40
0.6567340688648009
 40
0.7102015623454517
 40
0.8192857772497313
 40
0.9299681023649012
 40
1.0
 40
1.0
 40
1.0
 40
1.0
 10
203.2911719844211
 20
124.4585314601635
 30
0.0
 10
203.2911216766235
 20
124.4585657108455
 30
0.0
 10
203.2902536244949
 20
124.4591567002913
 30
0.0
 10
203.2884581880219
 20
124.4476116875087
 30
0.0
 10
203.2869028641066
 20
124.4101059789523
 30
0.0
 10
203.2885788262773
 20
124.3222425179947
 30
0.0
 10
203.2936192216399
 20
124.1967203351214
 30
0.0
 10
203.3013471230846
 20
124.0345342614164
 30
0.0
 10
203.3096912240842
 20
123.8694277653385
 30
0.0
 10
203.3167772359584
 20
123.7217230184902
 30
0.0
 10
203.3237242302101
 20
123.5649898656053
 30
0.0
 10
203.3315910941707
 20
123.3478897886624
 30
0.0
 10
203.337221128118
 20
123.0950581119112
 30
0.0
 10
203.3379163066336
 20
122.925095560294
 30
0.0
 10
203.338185708067
 20
122.8592302408105
 30
0.0
  0
LINE
  5
EF
330
1F
100
AcDbEntity
  8
0
  6
HIDDEN
 62
     7
370
     0
100
AcDbLine
 10
203.3381857081
 20
122.8592302408
 30
0.0
 11
203.3381856943
 21
118.4434253117
 31
0.0
  0
LINE
  5
F0
330
1F
100
AcDbEntity
  8
0
  6
HIDDEN
 62
     7
370
     0
100
AcDbLine
 10
203.3381856885
 20
94.6392302408
 30
0.0
 11
203.3381856944
 21
99.0550351698
 31
0.0
  0
SPLINE
  5
F1
330
1F
100
AcDbEntity
  8
0
  6
HIDDEN
 62
     7
370
     0
100
AcDbSpline
210
0.0
220
0.0
230
1.0
 70
     8
 71
     3
 72
    14
 73
    10
 74
     0
 42
0.000000001
 43
0.00000001
 40
0.0
 40
0.0
 40
0.0
 40
0.0
 40
0.25
 40
0.25
 40
0.5
 40
0.5
 40
0.75
 40
0.75
 40
1.0
 40
1.0
 40
1.0
 40
1.0
 10
203.3381856943683
 20
94.63923024081055
 30
0.0
 10
203.3381856943683
 20
94.42912577345201
 30
0.0
 10
203.338358104688
 20
94.2373712456968
 30
0.0
 10
203.335356475739
 20
93.88849707033862
 30
0.0
 10
203.3330601988171
 20
93.72969490811587
 30
0.0
 10
203.3257790551904
 20
93.45869951091217
 30
0.0
 10
203.3209488313572
 20
93.34713781071852
 30
0.0
 10
203.3104332960715
 20
93.17175470235767
 30
0.0
 10
203.3047830710999
 20
93.10919662119521
 30
0.0
 10
203.2999538905412
 20
93.07402860288816
 30
0.0
  0
SPLINE
  5
F2
330
1F
100
AcDbEntity
  8
0
  6
HIDDEN
 62
     7
370
     0
100
AcDbSpline
210
0.0
220
0.0
230
1.0
 70
     8
 71
     3
 72
    14
 73
    10
 74
     0
 42
0.000000001
 43
0.00000001
 40
0.0
 40
0.0
 40
0.0
 40
0.0
 40
0.00699552121895
 40
0.1682254671466729
 40
0.3341580921171764
 40
0.4949389827919712
 40
0.6603625862518319
 40
0.8275537971515968
 40
0.9999999999999999
 40
0.9999999999999999
 40
0.9999999999999999
 40
0.9999999999999999
 10
203.2912498596193
 20
93.04153979884904
 30
0.0
 10
203.2911207689584
 20
93.04103860376097
 30
0.0
 10
203.2880164489145
 20
93.02898606683256
 30
0.0
 10
203.2865746883506
 20
93.0893592026683
 30
0.0
 10
203.2900328345397
 20
93.22735142655701
 30
0.0
 10
203.3012058550728
 20
93.46248107472023
 30
0.0
 10
203.3171390504984
 20
93.77527173711863
 30
0.0
 10
203.333723778542
 20
94.16590136745263
 30
0.0
 10
203.3366831224888
 20
94.47983485251132
 30
0.0
 10
203.3381856884781
 20
94.63923024081055
 30
0.0
  0
SPLINE
  5
F3
330
1F
100
AcDbEntity
  8
0
  6
HIDDEN
 62
     7
370
     0
100
AcDbSpline
210
0.0
220
0.0
230
1.0
 70
     8
 71
     3
 72
     9
 73
     5
 74
     0
 42
0.000000001
 43
0.00000001
 40
0.0
 40
0.0
 40
0.0
 40
0.0
 40
0.4932365035776448
 40
1.0
 40
1.0
 40
1.0
 40
1.0
 10
176.8152452330658
 20
138.6540617519829
 30
0.0
 10
176.9210931885745
 20
138.8110831402657
 30
0.0
 10
177.1356919758518
 20
139.1294322225903
 30
0.0
 10
177.353551857736
 20
139.4492583302679
 30
0.0
 10
177.4639552932098
 20
139.6113345268417
 30
0.0
  0
SPLINE
  5
F4
330
1F
100
AcDbEntity
  8
0
  6
HIDDEN
 62
     7
370
     0
100
AcDbSpline
210
0.0
220
0.0
230
1.0
 70
     8
 71
     3
 72
     9
 73
     5
 74
     0
 42
0.000000001
 43
0.00000001
 40
0.0
 40
0.0
 40
0.0
 40
0.0
 40
0.5067661695379747
 40
1.0
 40
1.0
 40
1.0
 40
1.0
 10
177.4639589784958
 20
77.88714009033342
 30
0.0
 10
177.3535541480217
 20
78.04921750491354
 30
0.0
 10
177.1356926625665
 20
78.36904432904407
 30
0.0
 10
176.9210929446808
 20
78.68739284530854
 30
0.0
 10
176.815245103812
 20
78.84441310340758
 30
0.0
  0
LINE
  5
F5
330
1F
100
AcDbEntity
  8
0
  6
HIDDEN
 62
     7
370
     0
100
AcDbLine
 10
193.2381856944
 20
122.8592302408
 30
0.0
 11
193.2381856944
 21
118.345223976
 31
0.0
  0
LINE
  5
F6
330
1F
100
AcDbEntity
  8
0
  6
HIDDEN
 62
     7
370
     0
100
AcDbLine
 10
193.2381856944
 20
94.6392302408
 30
0.0
 11
193.2381856944
 21
99.1532365056
 31
0.0
  0
SPLINE
  5
F7
330
1F
100
AcDbEntity
  8
0
  6
HIDDEN
 62
     7
370
     0
100
AcDbSpline
210
0.0
220
0.0
230
1.0
 70
    11
 71
     3
 72
    62
 73
    58
 74
     0
 42
0.000000001
 43
0.00000001
 40
0.0
 40
0.0
 40
0.0
 40
0.0
 40
0.0312500000000004
 40
0.0312500000000004
 40
0.0625000000000007
 40
0.0625000000000007
 40
0.1250000000000015
 40
0.1250000000000015
 40
0.1875000000000022
 40
0.1875000000000022
 40
0.2187500000000024
 40
0.2187500000000024
 40
0.2500000000000026
 40
0.2500000000000026
 40
0.2812500000000028
 40
0.2812500000000028
 40
0.3125000000000028
 40
0.3125000000000028
 40
0.3437500000000029
 40
0.3437500000000029
 40
0.375000000000003
 40
0.375000000000003
 40
0.4375000000000033
 40
0.4375000000000033
 40
0.468750000000003
 40
0.468750000000003
 40
0.5000000000000028
 40
0.5000000000000028
 40
0.5312500000000024
 40
0.5312500000000024
 40
0.5625000000000022
 40
0.5625000000000022
 40
0.5937500000000019
 40
0.5937500000000019
 40
0.6250000000000016
 40
0.6250000000000016
 40
0.6562500000000013
 40
0.6562500000000013
 40
0.687500000000001
 40
0.687500000000001
 40
0.7187500000000007
 40
0.7187500000000007
 40
0.7500000000000003
 40
0.7500000000000003
 40
0.7812500000000001
 40
0.7812500000000001
 40
0.8124999999999998
 40
0.8124999999999998
 40
0.8749999999999994
 40
0.8749999999999994
 40
0.9062499999999992
 40
0.9062499999999992
 40
0.937499999999999
 40
0.937499999999999
 40
0.9687499999999996
 40
0.9687499999999996
 40
1.0
 40
1.0
 40
1.0
 40
1.0
 10
172.4381856943683
 20
108.0396158687375
 30
0.0
 10
172.5793839183482
 20
108.0396158687375
 30
0.0
 10
172.717661795362
 20
108.055627278729
 30
0.0
 10
172.9888278665698
 20
108.1173568443519
 30
0.0
 10
173.1230311940293
 20
108.1638946078066
 30
0.0
 10
173.5020943738195
 20
108.3408709365416
 30
0.0
 10
173.7311012955133
 20
108.5112972302508
 30
0.0
 10
174.1121319145161
 20
108.9171835076741
 30
0.0
 10
174.2677549914377
 20
109.1568539490101
 30
0.0
 10
174.4268254680063
 20
109.5373307763267
 30
0.0
 10
174.4685526131497
 20
109.6705995116318
 30
0.0
 10
174.5238233142917
 20
109.9355807472606
 30
0.0
 10
174.5379032457816
 20
110.0675460619785
 30
0.0
 10
174.5384598121028
 20
110.3302233717927
 30
0.0
 10
174.5244705346821
 20
110.4606032357503
 30
0.0
 10
174.4699890154465
 20
110.7069471664734
 30
0.0
 10
174.4291385572916
 20
110.8256014364562
 30
0.0
 10
174.3225245904322
 20
111.0484277032116
 30
0.0
 10
174.2577724481591
 20
111.151112814196
 30
0.0
 10
174.1062139062065
 20
111.3412360671094
 30
0.0
 10
174.0188757830335
 20
111.4287428583287
 30
0.0
 10
173.7330993620719
 20
111.6610103537774
 30
0.0
 10
173.5035630136061
 20
111.7814590964199
 30
0.0
 10
173.1272448776119
 20
111.9025556887216
 30
0.0
 10
172.9949119692512
 20
111.9336638221578
 30
0.0
 10
172.7208793102604
 20
111.9756110617135
 30
0.0
 10
172.5828541506382
 20
111.9860412963231
 30
0.0
 10
172.3047827694195
 20
111.9865971951899
 30
0.0
 10
172.1630698307492
 20
111.9763187363598
 30
0.0
 10
171.8906475750688
 20
111.9354955516667
 30
0.0
 10
171.7588194305717
 20
111.9052022157919
 30
0.0
 10
171.5034205349671
 20
111.823935025501
 30
0.0
 10
171.3832545317778
 20
111.7739871746427
 30
0.0
 10
171.1580831192215
 20
111.6556659634447
 30
0.0
 10
171.0519320578871
 20
111.5863728543622
 30
0.0
 10
170.8604847691849
 20
111.4315582057684
 30
0.0
 10
170.7745507552654
 20
111.3459722178978
 30
0.0
 10
170.6221384372254
 20
111.1562885458207
 30
0.0
 10
170.5559549469379
 20
111.0518672847502
 30
0.0
 10
170.4497732483868
 20
110.8318359449429
 30
0.0
 10
170.408793185171
 20
110.7151874588334
 30
0.0
 10
170.3527130443737
 20
110.4667860778441
 30
0.0
 10
170.3384888689324
 20
110.3376760890399
 30
0.0
 10
170.3378921850609
 20
110.0764210232078
 30
0.0
 10
170.3516607525593
 20
109.9416147325351
 30
0.0
 10
170.4065108195014
 20
109.6751596181807
 30
0.0
 10
170.4470073327779
 20
109.5444256834821
 30
0.0
 10
170.606469803954
 20
109.1600102294785
 30
0.0
 10
170.7611382282682
 20
108.9208511976017
 30
0.0
 10
171.0494462596128
 20
108.6131918381579
 30
0.0
 10
171.1534710749607
 20
108.5205187213936
 30
0.0
 10
171.3778903331394
 20
108.355375878754
 30
0.0
 10
171.4998211209999
 20
108.2823350100748
 30
0.0
 10
171.7522782724259
 20
108.1643130938024
 30
0.0
 10
171.8831648023431
 20
108.1186653881847
 30
0.0
 10
172.1551057200559
 20
108.0561449487175
 30
0.0
 10
172.2969874703884
 20
108.0396158687375
 30
0.0
 10
172.4381856943683
 20
108.0396158687375
 30
0.0
  0
LINE
  5
F8
330
1F
100
AcDbEntity
  8
0
  6
HIDDEN
 62
     7
370
     0
100
AcDbLine
 10
193.2381856944
 20
124.4592302408
 30
0.0
 11
193.2381856944
 21
122.8592302408
 31
0.0
  0
LINE
  5
F9
330
1F
100
AcDbEntity
  8
0
  6
HIDDEN
 62
     7
370
     0
100
AcDbLine
 10
193.2381856944
 20
93.0392302408
 30
0.0
 11
193.2381856944
 21
94.6392302408
 31
0.0
  0
SPLINE
  5
FA
330
1F
100
AcDbEntity
  8
0
  6
HIDDEN
 62
     7
370
     0
100
AcDbSpline
210
0.0
220
0.0
230
1.0
 70
     8
 71
     3
 72
    22
 73
    18
 74
     0
 42
0.000000001
 43
0.00000001
 40
0.0
 40
0.0
 40
0.0
 40
0.0
 40
0.1250000000000003
 40
0.1250000000000003
 40
0.2500000000000006
 40
0.2500000000000006
 40
0.3750000000000009
 40
0.3750000000000009
 40
0.5000000000000012
 40
0.5000000000000012
 40
0.6250000000000016
 40
0.6250000000000016
 40
0.7500000000000018
 40
0.7500000000000018
 40
0.8750000000000009
 40
0.8750000000000009
 40
1.0
 40
1.0
 40
1.0
 40
1.0
 10
174.1145541330685
 20
116.6138852164658
 30
0.0
 10
174.016275909513
 20
116.4893564965336
 30
0.0
 10
173.9049531422059
 20
116.3777533571013
 30
0.0
 10
173.6571445338411
 20
116.1797695139129
 30
0.0
 10
173.519193008291
 20
116.0931149917241
 30
0.0
 10
173.230932046707
 20
115.9545914165012
 30
0.0
 10
173.0784885277947
 20
115.9011476652246
 30
0.0
 10
172.7615767895191
 20
115.8289675150795
 30
0.0
 10
172.6015882854106
 20
115.811049475686
 30
0.0
 10
172.2786181787887
 20
115.8107643341885
 30
0.0
 10
172.1150556951359
 20
115.8290626440568
 30
0.0
 10
171.801557463996
 20
115.9001580662477
 30
0.0
 10
171.6480554977672
 20
115.9534686185116
 30
0.0
 10
171.3574527998929
 20
116.0928500565361
 30
0.0
 10
171.2226325564791
 20
116.1774039536439
 30
0.0
 10
170.9736844798498
 20
116.3755954015501
 30
0.0
 10
170.8600952466807
 20
116.4893567911896
 30
0.0
 10
170.7618172556681
 20
116.6138852164658
 30
0.0
  0
SPLINE
  5
FB
330
1F
100
AcDbEntity
  8
0
  6
HIDDEN
 62
     7
370
     0
100
AcDbSpline
210
0.0
220
0.0
230
1.0
 70
     8
 71
     3
 72
    18
 73
    14
 74
     0
 42
0.000000001
 43
0.00000001
 40
0.0
 40
0.0
 40
0.0
 40
0.0
 40
0.2500000000000009
 40
0.2500000000000009
 40
0.3750000000000011
 40
0.3750000000000011
 40
0.5000000000000012
 40
0.5000000000000012
 40
0.6250000000000013
 40
0.6250000000000013
 40
0.7500000000000016
 40
0.7500000000000016
 40
1.0
 40
1.0
 40
1.0
 40
1.0
 10
174.1145541330685
 20
118.9909835410446
 30
0.0
 10
174.2531244817989
 20
118.8214035468088
 30
0.0
 10
174.3576099013494
 20
118.647792338667
 30
0.0
 10
174.4651661344874
 20
118.3647610762634
 30
0.0
 10
174.4921761084594
 20
118.2680880411706
 30
0.0
 10
174.528717070572
 20
118.0670196139992
 30
0.0
 10
174.5381928910841
 20
117.9612757169126
 30
0.0
 10
174.5381784892733
 20
117.7470262246333
 30
0.0
 10
174.5289563762515
 20
117.638998226223
 30
0.0
 10
174.4927116302201
 20
117.4220053366916
 30
0.0
 10
174.4653373389413
 20
117.3121557189566
 30
0.0
 10
174.3580772170433
 20
116.9925719290407
 30
0.0
 10
174.252886694904
 20
116.789166944473
 30
0.0
 10
174.1145541330688
 20
116.6138852164656
 30
0.0
  0
SPLINE
  5
FC
330
1F
100
AcDbEntity
  8
0
  6
HIDDEN
 62
     7
370
     0
100
AcDbSpline
210
0.0
220
0.0
230
1.0
 70
     8
 71
     3
 72
    22
 73
    18
 74
     0
 42
0.000000001
 43
0.00000001
 40
0.0
 40
0.0
 40
0.0
 40
0.0
 40
0.1249999999999991
 40
0.1249999999999991
 40
0.2499999999999982
 40
0.2499999999999982
 40
0.3749999999999984
 40
0.3749999999999984
 40
0.4999999999999988
 40
0.4999999999999988
 40
0.6249999999999991
 40
0.6249999999999991
 40
0.7499999999999993
 40
0.7499999999999993
 40
0.8749999999999997
 40
0.8749999999999997
 40
1.0
 40
1.0
 40
1.0
 40
1.0
 10
170.7618172556681
 20
118.9909835410446
 30
0.0
 10
170.8600954792236
 20
119.1112547299153
 30
0.0
 10
170.9714182465308
 20
119.2184029383114
 30
0.0
 10
171.2192268548955
 20
119.4077809767319
 30
0.0
 10
171.3571783804456
 20
119.4902611302894
 30
0.0
 10
171.6454393420297
 20
119.6217959616008
 30
0.0
 10
171.7978828609419
 20
119.672355967386
 30
0.0
 10
172.1147945992176
 20
119.7405826427858
 30
0.0
 10
172.274783103326
 20
119.7574797144114
 30
0.0
 10
172.5977532099479
 20
119.7577488193939
 30
0.0
 10
172.7613156936007
 20
119.7404922900933
 30
0.0
 10
173.0748139247407
 20
119.6732917924472
 30
0.0
 10
173.2283158909695
 20
119.622860786815
 30
0.0
 10
173.5189185888438
 20
119.49051401168
 30
0.0
 10
173.6537388322575
 20
119.4100374743453
 30
0.0
 10
173.9026869088868
 20
119.2204731911386
 30
0.0
 10
174.0162761420559
 20
119.1112544453334
 30
0.0
 10
174.1145541330685
 20
118.9909835410446
 30
0.0
  0
SPLINE
  5
FD
330
1F
100
AcDbEntity
  8
0
  6
HIDDEN
 62
     7
370
     0
100
AcDbSpline
210
0.0
220
0.0
230
1.0
 70
     8
 71
     3
 72
    18
 73
    14
 74
     0
 42
0.000000001
 43
0.00000001
 40
0.0
 40
0.0
 40
0.0
 40
0.0
 40
0.2499999999999984
 40
0.2499999999999984
 40
0.3749999999999986
 40
0.3749999999999986
 40
0.4999999999999987
 40
0.4999999999999987
 40
0.6249999999999988
 40
0.6249999999999988
 40
0.7499999999999989
 40
0.7499999999999989
 40
1.0
 40
1.0
 40
1.0
 40
1.0
 10
170.7618172556681
 20
116.6138852164658
 30
0.0
 10
170.6232469069377
 20
116.7894682451743
 30
0.0
 10
170.5187614873871
 20
116.9914612608053
 30
0.0
 10
170.4112052542492
 20
117.3115055516031
 30
0.0
 10
170.3841952802772
 20
117.4195648274483
 30
0.0
 10
170.3476543181646
 20
117.636816056565
 30
0.0
 10
170.3381784976525
 20
117.7472789897529
 30
0.0
 10
170.3381928994633
 20
117.9615215551957
 30
0.0
 10
170.3474150124851
 20
118.0649528419872
 30
0.0
 10
170.3836597585166
 20
118.2658754792703
 30
0.0
 10
170.4110340497953
 20
118.3641807221296
 30
0.0
 10
170.5182941716933
 20
118.6468208151986
 30
0.0
 10
170.6234846938326
 20
118.8216945462952
 30
0.0
 10
170.7618172556679
 20
118.9909835410446
 30
0.0
  0
SPLINE
  5
FE
330
1F
100
AcDbEntity
  8
0
  6
HIDDEN
 62
     7
370
     0
100
AcDbSpline
210
0.0
220
0.0
230
1.0
 70
    11
 71
     3
 72
    56
 73
    52
 74
     0
 42
0.000000001
 43
0.00000001
 40
0.0
 40
0.0
 40
0.0
 40
0.0
 40
0.0312500000000002
 40
0.0312500000000002
 40
0.0625000000000004
 40
0.0625000000000004
 40
0.1250000000000004
 40
0.1250000000000004
 40
0.1562500000000003
 40
0.1562500000000003
 40
0.1875000000000003
 40
0.1875000000000003
 40
0.2187500000000002
 40
0.2187500000000002
 40
0.2500000000000001
 40
0.2500000000000001
 40
0.3125
 40
0.3125
 40
0.34375
 40
0.34375
 40
0.3749999999999999
 40
0.3749999999999999
 40
0.4374999999999995
 40
0.4374999999999995
 40
0.4687499999999994
 40
0.4687499999999994
 40
0.4999999999999992
 40
0.4999999999999992
 40
0.5312499999999992
 40
0.5312499999999992
 40
0.5624999999999991
 40
0.5624999999999991
 40
0.6249999999999998
 40
0.6249999999999998
 40
0.6875000000000007
 40
0.6875000000000007
 40
0.7500000000000014
 40
0.7500000000000014
 40
0.7812500000000013
 40
0.7812500000000013
 40
0.8125000000000011
 40
0.8125000000000011
 40
0.843750000000001
 40
0.843750000000001
 40
0.8750000000000008
 40
0.8750000000000008
 40
0.9062500000000007
 40
0.9062500000000007
 40
0.9375000000000006
 40
0.9375000000000006
 40
1.0
 40
1.0
 40
1.0
 40
1.0
 10
170.3976096935311
 20
114.4161103297868
 30
0.0
 10
170.4262812101281
 20
114.314296264914
 30
0.0
 10
170.4640511297119
 20
114.2218933472643
 30
0.0
 10
170.5543492664816
 20
114.0551152625687
 30
0.0
 10
170.6076249626549
 20
113.9802455734457
 30
0.0
 10
170.7765560394291
 20
113.7941249089308
 30
0.0
 10
170.9077427554134
 20
113.7161084113473
 30
0.0
 10
171.0530282754169
 20
113.6955338607927
 30
0.0
 10
171.0911692082184
 20
113.7050820807253
 30
0.0
 10
171.1359457413826
 20
113.7524383099054
 30
0.0
 10
171.1428404794226
 20
113.7905390721655
 30
0.0
 10
171.1315919338087
 20
113.8826595501296
 30
0.0
 10
171.1139310886039
 20
113.9377149922689
 30
0.0
 10
171.065207082842
 20
114.0573217504483
 30
0.0
 10
171.0342680844506
 20
114.1219996195511
 30
0.0
 10
170.9306125491319
 20
114.3293610019746
 30
0.0
 10
170.8468072124697
 20
114.4861487571975
 30
0.0
 10
170.7213569480174
 20
114.7452940198503
 30
0.0
 10
170.6792637679699
 20
114.8360463944001
 30
0.0
 10
170.596522776657
 20
115.0290476164383
 30
0.0
 10
170.5556925432493
 20
115.1318285789666
 30
0.0
 10
170.4428427870892
 20
115.4540696921466
 30
0.0
 10
170.3781526037253
 20
115.6930162308577
 30
0.0
 10
170.3376829259874
 20
116.0617833358349
 30
0.0
 10
170.3346411297974
 20
116.1815427464799
 30
0.0
 10
170.3504442863748
 20
116.4006410076891
 30
0.0
 10
170.3691873839196
 20
116.4989700160129
 30
0.0
 10
170.4204612873131
 20
116.6658450632195
 30
0.0
 10
170.4529858333454
 20
116.7357197093156
 30
0.0
 10
170.5251389817873
 20
116.8523287696082
 30
0.0
 10
170.5642441585401
 20
116.8985494093813
 30
0.0
 10
170.6862418969865
 20
117.0113682268694
 30
0.0
 10
170.7737737097163
 20
117.051821516229
 30
0.0
 10
170.9358902626688
 20
117.0826796356515
 30
0.0
 10
171.0134479199574
 20
117.073776450083
 30
0.0
 10
171.1245927430613
 20
117.0027004016449
 30
0.0
 10
171.1573257294033
 20
116.9404614829347
 30
0.0
 10
171.1136973470832
 20
116.7825601996617
 30
0.0
 10
171.0833820860871
 20
116.7193047967915
 30
0.0
 10
170.9985251024501
 20
116.5739907309317
 30
0.0
 10
170.943676028187
 20
116.4906188151725
 30
0.0
 10
170.8288373427747
 20
116.312025657682
 30
0.0
 10
170.7674179135952
 20
116.2142789092645
 30
0.0
 10
170.6512099267082
 20
116.0093006101651
 30
0.0
 10
170.5956958617397
 20
115.9010186748516
 30
0.0
 10
170.4974918863944
 20
115.6756687707231
 30
0.0
 10
170.4556014681482
 20
115.5607628152621
 30
0.0
 10
170.3890947878436
 20
115.325495412229
 30
0.0
 10
170.3646512929162
 20
115.2044980777333
 30
0.0
 10
170.3241613671207
 20
114.8512966455569
 30
0.0
 10
170.3402666603372
 20
114.6197384595326
 30
0.0
 10
170.3976096935311
 20
114.4161103297869
 30
0.0
  0
LWPOLYLINE
  5
FF
330
1F
100
AcDbEntity
  8
0
  6
HIDDEN
 62
     7
370
     0
100
AcDbPolyline
 90
       22
 70
   128
 43
0.0
 10
158.443191967
 20
116.7766944687
 10
158.5512532038
 20
116.4255428042
 10
158.7196266538
 20
116.1884260061
 10
158.933351597
 20
116.0864129425
 10
159.1734376343
 20
116.1285679218
 10
159.4185520678
 20
116.3111452891
 10
159.6469154043
 20
116.6179222441
 10
159.8382365593
 20
117.021640308
 10
159.9755158084
 20
117.4864273593
 10
160.046555288
 20
117.9709850286
 10
160.0450428286
 20
118.4322582407
 10
159.9711128189
 20
118.8292608464
 10
159.8313342645
 20
119.1267174219
 10
159.6381271036
 20
119.2981976452
 10
159.4086586401
 20
119.3284647458
 10
159.1633181542
 20
119.2148293591
 10
158.9239052246
 20
118.9673884879
 10
158.7116927408
 20
118.6081283394
 10
158.5455367132
 20
118.1689707544
 10
158.440200834
 20
117.6889368116
 10
158.4050446585
 20
117.2106796333
 10
158.443191967
 20
116.7766944687
  0
LWPOLYLINE
  5
100
330
1F
100
AcDbEntity
  8
0
  6
HIDDEN
 62
     7
370
     0
100
AcDbPolyline
 90
       24
 70
   128
 43
0.0
 10
158.0867566727
 20
116.5504567082
 10
158.2090558615
 20
116.1371286854
 10
158.3965560883
 20
115.8424515221
 10
158.635351319
 20
115.6882800756
 10
158.9077312038
 20
115.6860485368
 10
159.1934945726
 20
115.8359224086
 10
159.4714476636
 20
116.1267862317
 10
159.7209759677
 20
116.5370679668
 10
159.923573112
 20
117.0363388947
 10
160.0642133932
 20
117.5875703745
 10
160.1324661651
 20
118.1498800892
 10
160.1232694316
 20
118.6815640996
 10
160.0373052726
 20
119.143189835
 10
159.8809492564
 20
119.5005206263
 10
159.6657975934
 20
119.7270548835
 10
159.4078070983
 20
119.8059915969
 10
159.1261117459
 20
119.7314763918
 10
158.8416035917
 20
119.5090357199
 10
158.575383304
 20
119.1551669884
 10
158.3471952237
 20
118.6961150221
 10
158.1739630168
 20
118.1659256054
 10
158.0685345236
 20
117.6039204619
 10
158.0387288931
 20
117.051780942
 10
158.0867566727
 20
116.5504567082
  0
LWPOLYLINE
  5
101
330
1F
100
AcDbEntity
  8
0
  6
HIDDEN
 62
     7
370
     0
100
AcDbPolyline
 90
       24
 70
   128
 43
0.0
 10
162.4267735171
 20
115.04149363
 10
162.1859305169
 20
115.1377308764
 10
161.9883158095
 20
115.3728368484
 10
161.8485855739
 20
115.7293748117
 10
161.7771029625
 20
116.1809019767
 10
161.7791695134
 20
116.693930639
 10
161.8546319601
 20
117.2304118097
 10
161.997893598
 20
117.7505571348
 10
162.198329367
 20
118.2157898148
 10
162.4410738629
 20
118.5916056702
 10
162.708123837
 20
118.8501321584
 10
162.9796734144
 20
118.9721955522
 10
163.2355830051
 20
118.9487429682
 10
163.4568729655
 20
118.7815137774
 10
163.6271312316
 20
118.4829106036
 10
163.7337305267
 20
118.0750794784
 10
163.7687648688
 20
117.5882673705
 10
163.7296359208
 20
117.058578907
 10
163.619245698
 20
116.5252986581
 10
163.4457813381
 20
116.0279775802
 10
163.2221078992
 20
115.6034997026
 10
162.964814217
 20
115.2833466076
 10
162.6929825868
 20
115.0912625857
 10
162.4267735171
 20
115.04149363
  0
LWPOLYLINE
  5
102
330
1F
100
AcDbEntity
  8
0
  6
HIDDEN
 62
     7
370
     0
100
AcDbPolyline
 90
       19
 70
   128
 43
0.0
 10
163.2045501237
 20
115.6514820383
 10
163.0165704572
 20
115.7440934749
 10
162.8770468359
 20
115.9739402027
 10
162.8028078677
 20
116.3132993141
 10
162.8028078677
 20
116.7212390921
 10
162.8770468359
 20
117.1485559786
 10
163.0165704572
 20
117.5437092508
 10
163.2045501237
 20
117.8590375922
 10
163.4183127133
 20
118.056507751
 10
163.6320753029
 20
118.1123019117
 10
163.8200549693
 20
118.0196904752
 10
163.9595785907
 20
117.7898437474
 10
164.0338175589
 20
117.4504846359
 10
164.0338175589
 20
117.042544858
 10
163.9595785907
 20
116.6152279714
 10
163.8200549693
 20
116.2200746992
 10
163.6320753029
 20
115.9047463578
 10
163.4183127133
 20
115.707276199
 10
163.2045501237
 20
115.6514820383
  0
LWPOLYLINE
  5
103
330
1F
100
AcDbEntity
  8
0
  6
HIDDEN
 62
     7
370
     0
100
AcDbPolyline
 90
       24
 70
   128
 43
0.0
 10
158.941165551
 20
115.7297806773
 10
158.7003225508
 20
115.8260179237
 10
158.5027078434
 20
116.0611238957
 10
158.3629776079
 20
116.417661859
 10
158.2914949964
 20
116.869189024
 10
158.2935615473
 20
117.3822176863
 10
158.369023994
 20
117.9186988571
 10
158.5122856319
 20
118.4388441821
 10
158.7127214009
 20
118.9040768621
 10
158.9554658968
 20
119.2798927176
 10
159.2225158709
 20
119.5384192057
 10
159.4940654483
 20
119.6604825995
 10
159.749975039
 20
119.6370300156
 10
159.9712649994
 20
119.4698008247
 10
160.1415232655
 20
119.1711976509
 10
160.2481225607
 20
118.7633665257
 10
160.2831569027
 20
118.2765544178
 10
160.2440279548
 20
117.7468659543
 10
160.1336377319
 20
117.2135857054
 10
159.9601733721
 20
116.7162646275
 10
159.7364999331
 20
116.2917867499
 10
159.4792062509
 20
115.9716336549
 10
159.2073746207
 20
115.779549633
 10
158.941165551
 20
115.7297806773
  0
LINE
  5
104
330
1F
100
AcDbEntity
  8
0
  6
HIDDEN
 62
     7
370
     0
100
AcDbLine
 10
160.8821356043
 20
117.9207777659
 30
0.0
 11
161.4507146256
 21
118.4460211673
 31
0.0
  0
LINE
  5
105
330
1F
100
AcDbEntity
  8
0
  6
HIDDEN
 62
     7
370
     0
100
AcDbLine
 10
160.6846701825
 20
116.7841737529
 30
0.0
 11
160.8821356043
 21
117.9207777659
 31
0.0
  0
LINE
  5
106
330
1F
100
AcDbEntity
  8
0
  6
HIDDEN
 62
     7
370
     0
100
AcDbLine
 10
160.8821356043
 20
117.9207777659
 30
0.0
 11
158.7170720949
 21
118.3483029451
 31
0.0
  0
LINE
  5
107
330
1F
100
AcDbEntity
  8
0
  6
HIDDEN
 62
     7
370
     0
100
AcDbLine
 10
160.6846701825
 20
116.7841737529
 30
0.0
 11
158.5196066731
 21
117.211698932
 31
0.0
  0
LINE
  5
108
330
1F
100
AcDbEntity
  8
0
  6
HIDDEN
 62
     7
370
     0
100
AcDbLine
 10
160.6846701825
 20
116.7841737529
 30
0.0
 11
161.055783782
 21
116.1728131411
 31
0.0
  0
LWPOLYLINE
  5
109
330
1F
100
AcDbEntity
  8
0
  6
HIDDEN
 62
     7
370
     0
100
AcDbPolyline
 90
       21
 70
   128
 43
0.0
 10
158.812859479
 20
116.1521743349
 10
158.5925782067
 20
116.2511608052
 10
158.4208104485
 20
116.4955859236
 10
158.3143700291
 20
116.8615236564
 10
158.2836760786
 20
117.3131534687
 10
158.3317331346
 20
117.8062666878
 10
158.4538370377
 20
118.292593956
 10
158.6380354071
 20
118.724530172
 10
158.8662976229
 20
119.0597944094
 10
159.1162797892
 20
119.2655686687
 10
159.3635119097
 20
119.3217103318
 10
159.583793182
 20
119.2227238615
 10
159.7555609403
 20
118.9782987431
 10
159.8620013596
 20
118.6123610103
 10
159.8926953101
 20
118.160731198
 10
159.8446382541
 20
117.6676179789
 10
159.722534351
 20
117.1812907107
 10
159.5383359817
 20
116.7493544947
 10
159.3100737658
 20
116.4140902573
 10
159.0600915995
 20
116.2083159979
 10
158.812859479
 20
116.1521743349
  0
LINE
  5
10A
330
1F
100
AcDbEntity
  8
0
  6
HIDDEN
 62
     7
370
     0
100
AcDbLine
 10
158.5196066731
 20
117.211698932
 30
0.0
 11
158.8907202726
 21
116.6003383203
 31
0.0
  0
LINE
  5
10B
330
1F
100
AcDbEntity
  8
0
  6
HIDDEN
 62
     7
370
     0
100
AcDbLine
 10
158.5196066731
 20
117.211698932
 30
0.0
 11
158.7170720949
 21
118.3483029451
 31
0.0
  0
LINE
  5
10C
330
1F
100
AcDbEntity
  8
0
  6
HIDDEN
 62
     7
370
     0
100
AcDbLine
 10
158.7170720949
 20
118.3483029451
 30
0.0
 11
159.2856511162
 21
118.8735463464
 31
0.0
  0
LINE
  5
10D
330
1F
100
AcDbEntity
  8
0
  6
HIDDEN
 62
     7
370
     0
100
AcDbLine
 10
161.8218282251
 20
117.8346605555
 30
0.0
 11
159.6567647157
 21
118.2621857346
 31
0.0
  0
LINE
  5
10E
330
1F
100
AcDbEntity
  8
0
  6
HIDDEN
 62
     7
370
     0
100
AcDbLine
 10
159.6567647157
 20
118.2621857346
 30
0.0
 11
159.2856511162
 21
118.8735463464
 31
0.0
  0
LINE
  5
10F
330
1F
100
AcDbEntity
  8
0
  6
HIDDEN
 62
     7
370
     0
100
AcDbLine
 10
161.8218282251
 20
117.8346605555
 30
0.0
 11
161.4507146256
 21
118.4460211673
 31
0.0
  0
LINE
  5
110
330
1F
100
AcDbEntity
  8
0
  6
HIDDEN
 62
     7
370
     0
100
AcDbLine
 10
161.4507146256
 20
118.4460211673
 30
0.0
 11
159.2856511162
 21
118.8735463464
 31
0.0
  0
LINE
  5
111
330
1F
100
AcDbEntity
  8
0
  6
HIDDEN
 62
     7
370
     0
100
AcDbLine
 10
161.6243628033
 20
116.6980565424
 30
0.0
 11
159.4592992939
 21
117.1255817216
 31
0.0
  0
LINE
  5
112
330
1F
100
AcDbEntity
  8
0
  6
HIDDEN
 62
     7
370
     0
100
AcDbLine
 10
159.4592992939
 20
117.1255817216
 30
0.0
 11
158.8907202726
 21
116.6003383203
 31
0.0
  0
LINE
  5
113
330
1F
100
AcDbEntity
  8
0
  6
HIDDEN
 62
     7
370
     0
100
AcDbLine
 10
161.055783782
 20
116.1728131411
 30
0.0
 11
158.8907202726
 21
116.6003383203
 31
0.0
  0
LINE
  5
114
330
1F
100
AcDbEntity
  8
0
  6
HIDDEN
 62
     7
370
     0
100
AcDbLine
 10
161.6243628033
 20
116.6980565424
 30
0.0
 11
161.055783782
 21
116.1728131411
 31
0.0
  0
LINE
  5
115
330
1F
100
AcDbEntity
  8
0
  6
HIDDEN
 62
     7
370
     0
100
AcDbLine
 10
159.4592992939
 20
117.1255817216
 30
0.0
 11
159.6567647157
 21
118.2621857346
 31
0.0
  0
LINE
  5
116
330
1F
100
AcDbEntity
  8
0
  6
HIDDEN
 62
     7
370
     0
100
AcDbLine
 10
161.6243628033
 20
116.6980565424
 30
0.0
 11
161.8218282251
 21
117.8346605555
 31
0.0
  0
LWPOLYLINE
  5
117
330
1F
100
AcDbEntity
  8
0
  6
HIDDEN
 62
     7
370
     0
100
AcDbPolyline
 90
       21
 70
   128
 43
0.0
 10
159.3635119097
 20
98.1767501498
 10
159.583793182
 20
98.2757366202
 10
159.7555609403
 20
98.5201617385
 10
159.8620013596
 20
98.8860994713
 10
159.8926953101
 20
99.3377292836
 10
159.8446382541
 20
99.8308425027
 10
159.722534351
 20
100.317169771
 10
159.5383359817
 20
100.749105987
 10
159.3100737658
 20
101.0843702244
 10
159.0600915995
 20
101.2901444837
 10
158.812859479
 20
101.3462861468
 10
158.5925782067
 20
101.2472996764
 10
158.4208104485
 20
101.002874558
 10
158.3143700291
 20
100.6369368253
 10
158.2836760786
 20
100.185307013
 10
158.3317331346
 20
99.6921937939
 10
158.4538370377
 20
99.2058665256
 10
158.6380354071
 20
98.7739303096
 10
158.8662976229
 20
98.4386660722
 10
159.1162797892
 20
98.2328918129
 10
159.3635119097
 20
98.1767501498
  0
LWPOLYLINE
  5
118
330
1F
100
AcDbEntity
  8
0
  6
HIDDEN
 62
     7
370
     0
100
AcDbPolyline
 90
       24
 70
   128
 43
0.0
 10
159.6252058377
 20
97.8313680068
 10
159.866048838
 20
97.9276052531
 10
160.0636635453
 20
98.1627112252
 10
160.2033937809
 20
98.5192491885
 10
160.2748763923
 20
98.9707763534
 10
160.2728098414
 20
99.4838050158
 10
160.1973473948
 20
100.0202861865
 10
160.0540857568
 20
100.5404315115
 10
159.8536499878
 20
101.0056641916
 10
159.6109054919
 20
101.381480047
 10
159.3438555178
 20
101.6400065351
 10
159.0723059405
 20
101.762069929
 10
158.8163963498
 20
101.738617345
 10
158.5951063893
 20
101.5713881541
 10
158.4248481232
 20
101.2727849804
 10
158.3182488281
 20
100.8649538551
 10
158.283214486
 20
100.3781417473
 10
158.322343434
 20
99.8484532838
 10
158.4327336568
 20
99.3151730349
 10
158.6061980167
 20
98.817851957
 10
158.8298714556
 20
98.3933740794
 10
159.0871651378
 20
98.0732209844
 10
159.358996768
 20
97.8811369625
 10
159.6252058377
 20
97.8313680068
  0
LWPOLYLINE
  5
119
330
1F
100
AcDbEntity
  8
0
  6
HIDDEN
 62
     7
370
     0
100
AcDbPolyline
 90
       24
 70
   128
 43
0.0
 10
163.1108138038
 20
98.5196550541
 10
163.351656804
 20
98.6158923004
 10
163.5492715114
 20
98.8509982725
 10
163.689001747
 20
99.2075362358
 10
163.7604843584
 20
99.6590634007
 10
163.7584178075
 20
100.1720920631
 10
163.6829553608
 20
100.7085732338
 10
163.5396937229
 20
101.2287185589
 10
163.3392579539
 20
101.6939512389
 10
163.096513458
 20
102.0697670943
 10
162.8294634839
 20
102.3282935825
 10
162.5579139066
 20
102.4503569763
 10
162.3020043158
 20
102.4269043923
 10
162.0807143554
 20
102.2596752014
 10
161.9104560893
 20
101.9610720277
 10
161.8038567942
 20
101.5532409025
 10
161.7688224521
 20
101.0664287946
 10
161.8079514001
 20
100.5367403311
 10
161.9183416229
 20
100.0034600822
 10
162.0918059828
 20
99.5061390043
 10
162.3154794217
 20
99.0816611267
 10
162.5727731039
 20
98.7615080317
 10
162.8446047341
 20
98.5694240098
 10
163.1108138038
 20
98.5196550541
  0
LINE
  5
11A
330
1F
100
AcDbEntity
  8
0
  6
HIDDEN
 62
     7
370
     0
100
AcDbLine
 10
159.4592992939
 20
100.3728787601
 30
0.0
 11
158.8907202726
 21
100.8981221614
 31
0.0
  0
LINE
  5
11B
330
1F
100
AcDbEntity
  8
0
  6
HIDDEN
 62
     7
370
     0
100
AcDbLine
 10
158.5196066731
 20
100.2867615496
 30
0.0
 11
158.8907202726
 21
100.8981221614
 31
0.0
  0
LINE
  5
11C
330
1F
100
AcDbEntity
  8
0
  6
HIDDEN
 62
     7
370
     0
100
AcDbLine
 10
158.7170720949
 20
99.1501575365
 30
0.0
 11
158.5196066731
 21
100.2867615496
 31
0.0
  0
LINE
  5
11D
330
1F
100
AcDbEntity
  8
0
  6
HIDDEN
 62
     7
370
     0
100
AcDbLine
 10
158.7170720949
 20
99.1501575365
 30
0.0
 11
159.2856511162
 21
98.6249141352
 31
0.0
  0
LINE
  5
11E
330
1F
100
AcDbEntity
  8
0
  6
HIDDEN
 62
     7
370
     0
100
AcDbLine
 10
159.6567647157
 20
99.236274747
 30
0.0
 11
159.2856511162
 21
98.6249141352
 31
0.0
  0
LINE
  5
11F
330
1F
100
AcDbEntity
  8
0
  6
HIDDEN
 62
     7
370
     0
100
AcDbLine
 10
159.6567647157
 20
99.236274747
 30
0.0
 11
159.4592992939
 21
100.3728787601
 31
0.0
  0
LINE
  5
120
330
1F
100
AcDbEntity
  8
0
  6
HIDDEN
 62
     7
370
     0
100
AcDbLine
 10
161.6243628033
 20
100.8004039392
 30
0.0
 11
159.4592992939
 21
100.3728787601
 31
0.0
  0
LINE
  5
121
330
1F
100
AcDbEntity
  8
0
  6
HIDDEN
 62
     7
370
     0
100
AcDbLine
 10
161.8218282251
 20
99.6637999261
 30
0.0
 11
159.6567647157
 21
99.236274747
 31
0.0
  0
LINE
  5
122
330
1F
100
AcDbEntity
  8
0
  6
HIDDEN
 62
     7
370
     0
100
AcDbLine
 10
160.6846701825
 20
100.7142867288
 30
0.0
 11
161.055783782
 21
101.3256473405
 31
0.0
  0
LINE
  5
123
330
1F
100
AcDbEntity
  8
0
  6
HIDDEN
 62
     7
370
     0
100
AcDbLine
 10
160.6846701825
 20
100.7142867288
 30
0.0
 11
158.5196066731
 21
100.2867615496
 31
0.0
  0
LINE
  5
124
330
1F
100
AcDbEntity
  8
0
  6
HIDDEN
 62
     7
370
     0
100
AcDbLine
 10
161.055783782
 20
101.3256473405
 30
0.0
 11
158.8907202726
 21
100.8981221614
 31
0.0
  0
LINE
  5
125
330
1F
100
AcDbEntity
  8
0
  6
HIDDEN
 62
     7
370
     0
100
AcDbLine
 10
160.8821356043
 20
99.5776827157
 30
0.0
 11
158.7170720949
 21
99.1501575365
 31
0.0
  0
LINE
  5
126
330
1F
100
AcDbEntity
  8
0
  6
HIDDEN
 62
     7
370
     0
100
AcDbLine
 10
160.8821356043
 20
99.5776827157
 30
0.0
 11
161.4507146256
 21
99.0524393144
 31
0.0
  0
LINE
  5
127
330
1F
100
AcDbEntity
  8
0
  6
HIDDEN
 62
     7
370
     0
100
AcDbLine
 10
161.4507146256
 20
99.0524393144
 30
0.0
 11
159.2856511162
 21
98.6249141352
 31
0.0
  0
LWPOLYLINE
  5
128
330
1F
100
AcDbEntity
  8
0
  6
HIDDEN
 62
     7
370
     0
100
AcDbPolyline
 90
       19
 70
   128
 43
0.0
 10
163.6320753029
 20
99.3861585699
 10
163.8200549693
 20
99.4787700065
 10
163.9595785907
 20
99.7086167342
 10
164.0338175589
 20
100.0479758457
 10
164.0338175589
 20
100.4559156236
 10
163.9595785907
 20
100.8832325102
 10
163.8200549693
 20
101.2783857824
 10
163.6320753029
 20
101.5937141238
 10
163.4183127133
 20
101.7911842826
 10
163.2045501237
 20
101.8469784433
 10
163.0165704572
 20
101.7543670068
 10
162.8770468359
 20
101.524520279
 10
162.8028078677
 20
101.1851611675
 10
162.8028078677
 20
100.7772213896
 10
162.8770468359
 20
100.349904503
 10
163.0165704572
 20
99.9547512308
 10
163.2045501237
 20
99.6394228894
 10
163.4183127133
 20
99.4419527306
 10
163.6320753029
 20
99.3861585699
  0
LINE
  5
129
330
1F
100
AcDbEntity
  8
0
  6
HIDDEN
 62
     7
370
     0
100
AcDbLine
 10
160.8821356043
 20
99.5776827157
 30
0.0
 11
160.6846701825
 21
100.7142867288
 31
0.0
  0
LINE
  5
12A
330
1F
100
AcDbEntity
  8
0
  6
HIDDEN
 62
     7
370
     0
100
AcDbLine
 10
161.8218282251
 20
99.6637999261
 30
0.0
 11
161.4507146256
 21
99.0524393144
 31
0.0
  0
LINE
  5
12B
330
1F
100
AcDbEntity
  8
0
  6
HIDDEN
 62
     7
370
     0
100
AcDbLine
 10
161.8218282251
 20
99.6637999261
 30
0.0
 11
161.6243628033
 21
100.8004039392
 31
0.0
  0
LINE
  5
12C
330
1F
100
AcDbEntity
  8
0
  6
HIDDEN
 62
     7
370
     0
100
AcDbLine
 10
161.6243628033
 20
100.8004039392
 30
0.0
 11
161.055783782
 21
101.3256473405
 31
0.0
  0
LWPOLYLINE
  5
12D
330
1F
100
AcDbEntity
  8
0
  6
HIDDEN
 62
     7
370
     0
100
AcDbPolyline
 90
       27
 70
   128
 43
0.0
 10
172.8696509272
 20
114.1820064778
 10
172.2678018368
 20
114.1522172647
 10
171.6758548369
 20
114.2586393997
 10
171.1282117355
 20
114.4950880149
 10
170.656699559
 20
114.8478215763
 10
170.2887208812
 20
115.2963404916
 10
170.0456612854
 20
115.8145784715
 10
169.9416465118
 20
116.3724174085
 10
169.9827215209
 20
116.9374377312
 10
170.1664991825
 20
117.4768025122
 10
170.482299007
 20
117.959165831
 10
170.9117678563
 20
118.3564944847
 10
171.4299465621
 20
118.6456971763
 10
172.0067204615
 20
118.8099664965
 10
172.6085695519
 20
118.8397557095
 10
173.2005165518
 20
118.7333335746
 10
173.7481596533
 20
118.4968849594
 10
174.2196718298
 20
118.144151398
 10
174.5876505075
 20
117.6956324827
 10
174.8307101033
 20
117.1773945028
 10
174.934724877
 20
116.6195555658
 10
174.8936498678
 20
116.0545352431
 10
174.7098722062
 20
115.515170462
 10
174.3940723818
 20
115.0328071433
 10
173.9646035324
 20
114.6354784896
 10
173.4464248266
 20
114.346275798
 10
172.8696509272
 20
114.1820064778
  0
LWPOLYLINE
  5
12E
330
1F
100
AcDbEntity
  8
0
  6
HIDDEN
 62
     7
370
     0
100
AcDbPolyline
 90
       22
 70
   128
 43
0.0
 10
172.7402113574
 20
114.6196853731
 10
172.2187118423
 20
114.6079930752
 10
171.7167135422
 20
114.7412647844
 10
171.2788212089
 20
115.0076587243
 10
170.9439434979
 20
115.3835046243
 10
170.7418357635
 20
115.8354069269
 10
170.6904561647
 20
116.3232121293
 10
170.7943700044
 20
116.8035765987
 10
171.044344082
 20
117.2338178437
 10
171.4181671035
 20
117.5757070419
 10
171.8826232532
 20
117.7988658375
 10
172.3964435638
 20
117.8834655922
 10
172.9139728459
 20
117.8219892465
 10
173.3892263516
 20
117.6198992437
 10
173.7799757213
 20
117.2951521672
 10
174.0515011588
 20
116.8766032199
 10
174.1796764374
 20
116.4014423127
 10
174.153112621
 20
115.9118895772
 10
173.9741700214
 20
115.4514439225
 10
173.6587484738
 20
115.0610179655
 10
173.2348745668
 20
114.7753027659
 10
172.7402113574
 20
114.6196853731
  0
LWPOLYLINE
  5
12F
330
1F
100
AcDbEntity
  8
0
  6
HIDDEN
 62
     7
370
     0
100
AcDbPolyline
 90
       27
 70
   128
 43
0.0
 10
172.8696509272
 20
115.5477199742
 10
172.2678018368
 20
115.5179307612
 10
171.6758548369
 20
115.6243528961
 10
171.1282117355
 20
115.8608015113
 10
170.656699559
 20
116.2135350727
 10
170.2887208812
 20
116.662053988
 10
170.0456612854
 20
117.1802919679
 10
169.9416465118
 20
117.7381309049
 10
169.9827215209
 20
118.3031512276
 10
170.1664991825
 20
118.8425160087
 10
170.482299007
 20
119.3248793274
 10
170.9117678563
 20
119.7222079811
 10
171.4299465621
 20
120.0114106727
 10
172.0067204615
 20
120.1756799929
 10
172.6085695519
 20
120.205469206
 10
173.2005165518
 20
120.099047071
 10
173.7481596533
 20
119.8625984558
 10
174.2196718298
 20
119.5098648944
 10
174.5876505075
 20
119.0613459791
 10
174.8307101033
 20
118.5431079992
 10
174.934724877
 20
117.9852690622
 10
174.8936498678
 20
117.4202487395
 10
174.7098722062
 20
116.8808839585
 10
174.3940723818
 20
116.3985206397
 10
173.9646035324
 20
116.001191986
 10
173.4464248266
 20
115.7119892944
 10
172.8696509272
 20
115.5477199742
  0
LINE
  5
130
330
1F
100
AcDbEntity
  8
0
  6
HIDDEN
 62
     7
370
     0
100
AcDbLine
 10
173.5448754562
 20
118.136242648
 30
0.0
 11
172.189079126
 21
118.6015087909
 31
0.0
  0
LINE
  5
131
330
1F
100
AcDbEntity
  8
0
  6
HIDDEN
 62
     7
370
     0
100
AcDbLine
 10
172.189079126
 20
118.6015087909
 30
0.0
 11
172.189079126
 21
119.2855490776
 31
0.0
  0
LINE
  5
132
330
1F
100
AcDbEntity
  8
0
  6
HIDDEN
 62
     7
370
     0
100
AcDbLine
 10
171.0823893642
 20
117.7307979525
 30
0.0
 11
172.189079126
 21
118.6015087909
 31
0.0
  0
LINE
  5
133
330
1F
100
AcDbEntity
  8
0
  6
HIDDEN
 62
     7
370
     0
100
AcDbLine
 10
173.5448754562
 20
118.136242648
 30
0.0
 11
173.5448754562
 21
118.8202829346
 31
0.0
  0
LINE
  5
134
330
1F
100
AcDbEntity
  8
0
  6
HIDDEN
 62
     7
370
     0
100
AcDbLine
 10
173.7939820245
 20
116.8002656667
 30
0.0
 11
173.5448754562
 21
118.136242648
 31
0.0
  0
LINE
  5
135
330
1F
100
AcDbEntity
  8
0
  6
HIDDEN
 62
     7
370
     0
100
AcDbLine
 10
171.3314959326
 20
116.3948209712
 30
0.0
 11
171.3314959326
 21
117.0788612579
 31
0.0
  0
LINE
  5
136
330
1F
100
AcDbEntity
  8
0
  6
HIDDEN
 62
     7
370
     0
100
AcDbLine
 10
171.3314959326
 20
117.0788612579
 30
0.0
 11
171.0823893642
 21
118.4148382392
 31
0.0
  0
LINE
  5
137
330
1F
100
AcDbEntity
  8
0
  6
HIDDEN
 62
     7
370
     0
100
AcDbLine
 10
171.0823893642
 20
117.7307979525
 30
0.0
 11
171.0823893642
 21
118.4148382392
 31
0.0
  0
LINE
  5
138
330
1F
100
AcDbEntity
  8
0
  6
HIDDEN
 62
     7
370
     0
100
AcDbLine
 10
171.3314959326
 20
116.3948209712
 30
0.0
 11
171.0823893642
 21
117.7307979525
 31
0.0
  0
LINE
  5
139
330
1F
100
AcDbEntity
  8
0
  6
HIDDEN
 62
     7
370
     0
100
AcDbLine
 10
172.6872922627
 20
115.9295548283
 30
0.0
 11
172.6872922627
 21
116.613595115
 31
0.0
  0
LINE
  5
13A
330
1F
100
AcDbEntity
  8
0
  6
HIDDEN
 62
     7
370
     0
100
AcDbLine
 10
173.7939820245
 20
117.4843059533
 30
0.0
 11
172.6872922627
 21
116.613595115
 31
0.0
  0
LINE
  5
13B
330
1F
100
AcDbEntity
  8
0
  6
HIDDEN
 62
     7
370
     0
100
AcDbLine
 10
173.7939820245
 20
116.8002656667
 30
0.0
 11
173.7939820245
 21
117.4843059533
 31
0.0
  0
LINE
  5
13C
330
1F
100
AcDbEntity
  8
0
  6
HIDDEN
 62
     7
370
     0
100
AcDbLine
 10
173.7939820245
 20
116.8002656667
 30
0.0
 11
172.6872922627
 21
115.9295548283
 31
0.0
  0
LINE
  5
13D
330
1F
100
AcDbEntity
  8
0
  6
HIDDEN
 62
     7
370
     0
100
AcDbLine
 10
171.3314959326
 20
117.0788612579
 30
0.0
 11
172.6872922627
 21
116.613595115
 31
0.0
  0
LINE
  5
13E
330
1F
100
AcDbEntity
  8
0
  6
HIDDEN
 62
     7
370
     0
100
AcDbLine
 10
171.3314959326
 20
116.3948209712
 30
0.0
 11
172.6872922627
 21
115.9295548283
 31
0.0
  0
LWPOLYLINE
  5
13F
330
1F
100
AcDbEntity
  8
0
  6
HIDDEN
 62
     7
370
     0
100
AcDbPolyline
 90
       24
 70
   128
 43
0.0
 10
172.7928501158
 20
116.0474805286
 10
172.2335854021
 20
116.0280985791
 10
171.6894949562
 20
116.1512235303
 10
171.2009314772
 20
116.4077237677
 10
170.8041294835
 20
116.7785758421
 10
170.5285179637
 20
117.2362753518
 10
170.3945377632
 20
117.7468768178
 10
170.4121255808
 20
118.2725112655
 10
170.5799770084
 20
118.7741947922
 10
170.8856432734
 20
119.2147198261
 10
171.3064545075
 20
119.5614146404
 10
171.8112010663
 20
119.788566467
 10
172.3624482067
 20
119.8793284939
 10
172.9193124501
 20
119.8269693169
 10
173.4404937231
 20
119.6353721765
 10
173.8873383948
 20
119.3187469562
 10
174.2267060402
 20
118.9005763001
 10
174.4334273134
 20
118.4118740127
 10
174.4921706434
 20
117.8888849071
 10
174.398579306
 20
117.3703966927
 10
174.1595945427
 20
116.8948632685
 10
173.7929407601
 20
116.497552773
 10
173.3258109918
 20
116.2079319081
 10
172.7928501158
 20
116.0474805286
  0
LINE
  5
140
330
1F
100
AcDbEntity
  8
0
  6
HIDDEN
 62
     7
370
     0
100
AcDbLine
 10
173.7939820245
 20
117.4843059533
 30
0.0
 11
173.5448754562
 21
118.8202829346
 31
0.0
  0
LINE
  5
141
330
1F
100
AcDbEntity
  8
0
  6
HIDDEN
 62
     7
370
     0
100
AcDbLine
 10
171.0823893642
 20
118.4148382392
 30
0.0
 11
172.189079126
 21
119.2855490776
 31
0.0
  0
LINE
  5
142
330
1F
100
AcDbEntity
  8
0
  6
HIDDEN
 62
     7
370
     0
100
AcDbLine
 10
173.5448754562
 20
118.8202829346
 30
0.0
 11
172.189079126
 21
119.2855490776
 31
0.0
  0
LINE
  5
143
330
1F
100
AcDbEntity
  8
0
  6
HIDDEN
 62
     7
370
     0
100
AcDbLine
 10
157.8381856944
 20
97.3741356628
 30
0.0
 11
159.4950074094
 21
97.7013006617
 31
0.0
  0
LINE
  5
144
330
1F
100
AcDbEntity
  8
0
  6
HIDDEN
 62
     7
370
     0
100
AcDbLine
 10
158.6813639793
 20
101.8217356349
 30
0.0
 11
157.8381856944
 21
101.6552370792
 31
0.0
  0
LINE
  5
145
330
1F
100
AcDbEntity
  8
0
  6
HIDDEN
 62
     7
370
     0
100
AcDbLine
 10
159.5496746887
 20
98.1707849965
 30
0.0
 11
170.9893719991
 21
100.4297296514
 31
0.0
  0
LINE
  5
146
330
1F
100
AcDbEntity
  8
0
  6
HIDDEN
 62
     7
370
     0
100
AcDbLine
 10
170.9876256511
 20
103.7931073495
 30
0.0
 11
158.9103834222
 21
101.4082696183
 31
0.0
  0
LINE
  5
147
330
1F
100
AcDbEntity
  8
0
  6
HIDDEN
 62
     7
370
     0
100
AcDbLine
 10
174.5381856944
 20
101.3957971593
 30
0.0
 11
174.5381856944
 21
107.2967610556
 31
0.0
  0
LINE
  5
148
330
1F
100
AcDbEntity
  8
0
  6
HIDDEN
 62
     7
370
     0
100
AcDbLine
 10
170.3381856944
 20
107.2959131618
 30
0.0
 11
170.3381856944
 21
102.6343211545
 31
0.0
  0
ARC
  5
149
330
1F
100
AcDbEntity
  8
0
  6
HIDDEN
 62
     7
370
     0
100
AcDbCircle
 10
181.2065331968
 20
119.2492302408
 30
0.0
 40
1.000000000000017
100
AcDbArc
 50
75.0
 51
90.0
  0
ARC
  5
14A
330
1F
100
AcDbEntity
  8
0
  6
HIDDEN
 62
     7
370
     0
100
AcDbCircle
 10
181.2065331968
 20
98.2492302408
 30
0.0
 40
1.000000000000017
100
AcDbArc
 50
270.0
 51
285.0
  0
LINE
  5
14B
330
1F
100
AcDbEntity
  8
0
  6
HIDDEN
 62
     7
370
     0
100
AcDbLine
 10
181.2065331968
 20
120.2492302408
 30
0.0
 11
180.3381856944
 21
120.2492302408
 31
0.0
  0
LINE
  5
14C
330
1F
100
AcDbEntity
  8
0
  6
HIDDEN
 62
     7
370
     0
100
AcDbLine
 10
180.3381856944
 20
97.2492302408
 30
0.0
 11
181.2065331968
 21
97.2492302408
 31
0.0
  0
ARC
  5
14D
330
1F
100
AcDbEntity
  8
0
  6
HIDDEN
 62
     7
370
     0
100
AcDbCircle
 10
180.3381856944
 20
119.2492302408
 30
0.0
 40
1.0
100
AcDbArc
 50
90.0
 51
180.0
  0
ARC
  5
14E
330
1F
100
AcDbEntity
  8
0
  6
HIDDEN
 62
     7
370
     0
100
AcDbCircle
 10
180.3381856944
 20
98.2492302408
 30
0.0
 40
1.0
100
AcDbArc
 50
180.0
 51
270.0
  0
LINE
  5
14F
330
1F
100
AcDbEntity
  8
0
  6
HIDDEN
 62
     7
370
     0
100
AcDbLine
 10
181.4653522419
 20
97.2833044145
 30
0.0
 11
183.2042110982
 21
97.7492302408
 31
0.0
  0
LINE
  5
150
330
1F
100
AcDbEntity
  8
0
  6
HIDDEN
 62
     7
370
     0
100
AcDbLine
 10
183.2042110982
 20
119.7492302408
 30
0.0
 11
181.4653522419
 21
120.2151560671
 31
0.0
  0
LINE
  5
151
330
1F
100
AcDbEntity
  8
0
  6
HIDDEN
 62
     7
370
     0
100
AcDbLine
 10
193.2381856944
 20
119.7492302408
 30
0.0
 11
183.2042110982
 21
119.7492302408
 31
0.0
  0
LINE
  5
152
330
1F
100
AcDbEntity
  8
0
  6
HIDDEN
 62
     7
370
     0
100
AcDbLine
 10
183.2042110982
 20
97.7492302408
 30
0.0
 11
193.2381856944
 21
97.7492302408
 31
0.0
  0
ARC
  5
153
330
1F
100
AcDbEntity
  8
0
  6
HIDDEN
 62
     7
370
     0
100
AcDbCircle
 10
91.2381856944
 20
99.4492302408
 30
0.0
 40
0.7999999999999972
100
AcDbArc
 50
90.0
 51
180.0
  0
ARC
  5
154
330
1F
100
AcDbEntity
  8
0
  6
HIDDEN
 62
     7
370
     0
100
AcDbCircle
 10
91.2381856944
 20
118.0492302408
 30
0.0
 40
0.7999999999999972
100
AcDbArc
 50
180.0
 51
270.0
  0
ARC
  5
155
330
1F
100
AcDbEntity
  8
0
  6
HIDDEN
 62
     7
370
     0
100
AcDbCircle
 10
99.2072455867
 20
100.4242302408
 30
0.0
 40
0.4000000000000057
100
AcDbArc
 50
270.0
 51
330.0
  0
ARC
  5
156
330
1F
100
AcDbEntity
  8
0
  6
HIDDEN
 62
     7
370
     0
100
AcDbCircle
 10
99.2072455867
 20
117.0742302408
 30
0.0
 40
0.4000000000000057
100
AcDbArc
 50
30.0
 51
90.0
  0
LINE
  5
157
330
1F
100
AcDbEntity
  8
0
  6
HIDDEN
 62
     7
370
     0
100
AcDbLine
 10
98.3305581251
 20
100.0242302408
 30
0.0
 11
99.2072455867
 21
100.0242302408
 31
0.0
  0
LINE
  5
158
330
1F
100
AcDbEntity
  8
0
  6
HIDDEN
 62
     7
370
     0
100
AcDbLine
 10
99.2072455867
 20
117.4742302408
 30
0.0
 11
98.3305581251
 21
117.4742302408
 31
0.0
  0
ARC
  5
159
330
1F
100
AcDbEntity
  8
0
  6
HIDDEN
 62
     7
370
     0
100
AcDbCircle
 10
98.3305581251
 20
100.4242302408
 30
0.0
 40
0.4000000000000057
100
AcDbArc
 50
255.0
 51
270.0
  0
ARC
  5
15A
330
1F
100
AcDbEntity
  8
0
  6
HIDDEN
 62
     7
370
     0
100
AcDbCircle
 10
98.3305581251
 20
117.0742302408
 30
0.0
 40
0.4000000000000057
100
AcDbArc
 50
90.0
 51
105.0
  0
LINE
  5
15B
330
1F
100
AcDbEntity
  8
0
  6
HIDDEN
 62
     7
370
     0
100
AcDbLine
 10
98.2270305071
 20
117.4606005713
 30
0.0
 11
97.4381856944
 21
117.2492302408
 31
0.0
  0
LINE
  5
15C
330
1F
100
AcDbEntity
  8
0
  6
HIDDEN
 62
     7
370
     0
100
AcDbLine
 10
97.4381856944
 20
100.2492302408
 30
0.0
 11
98.2270305071
 21
100.0378599103
 31
0.0
  0
LINE
  5
15D
330
1F
100
AcDbEntity
  8
0
  6
HIDDEN
 62
     7
370
     0
100
AcDbLine
 10
99.5536557482
 20
100.2242302408
 30
0.0
 11
100.4341149087
 21
101.7492302408
 31
0.0
  0
LINE
  5
15E
330
1F
100
AcDbEntity
  8
0
  6
HIDDEN
 62
     7
370
     0
100
AcDbLine
 10
100.4341149087
 20
115.7492302408
 30
0.0
 11
99.5536557482
 21
117.2742302408
 31
0.0
  0
LINE
  5
15F
330
1F
100
AcDbEntity
  8
0
  6
HIDDEN
 62
     7
370
     0
100
AcDbLine
 10
91.2381856944
 20
100.2492302408
 30
0.0
 11
97.4381856944
 21
100.2492302408
 31
0.0
  0
LINE
  5
160
330
1F
100
AcDbEntity
  8
0
  6
HIDDEN
 62
     7
370
     0
100
AcDbLine
 10
97.4381856944
 20
117.2492302408
 30
0.0
 11
91.2381856944
 21
117.2492302408
 31
0.0
  0
LINE
  5
161
330
1F
100
AcDbEntity
  8
0
  6
HIDDEN
 62
     7
370
     0
100
AcDbLine
 10
178.8381856944
 20
132.8492302408
 30
0.0
 11
178.8381856944
 21
139.2491589446
 31
0.0
  0
ARC
  5
162
330
1F
100
AcDbEntity
  8
0
  6
HIDDEN
 62
     7
370
     0
100
AcDbCircle
 10
177.2381856944
 20
132.8492302408
 30
0.0
 40
1.600000000000023
100
AcDbArc
 50
270.0
 51
0.0
  0
ARC
  5
163
330
1F
100
AcDbEntity
  8
0
  6
HIDDEN
 62
     7
370
     0
100
AcDbCircle
 10
177.2381856944
 20
84.6492302408
 30
0.0
 40
1.600000000000023
100
AcDbArc
 50
0.0
 51
90.0
  0
LINE
  5
164
330
1F
100
AcDbEntity
  8
0
  6
HIDDEN
 62
     7
370
     0
100
AcDbLine
 10
178.8381856944
 20
78.2492385419
 30
0.0
 11
178.8381856944
 21
84.6492302408
 31
0.0
  0
LINE
  5
165
330
1F
100
AcDbEntity
  8
0
  6
HIDDEN
 62
     7
370
     0
100
AcDbLine
 10
133.4381856944
 20
101.7492302408
 30
0.0
 11
135.0905523967
 21
104.4992302408
 31
0.0
  0
LINE
  5
166
330
1F
100
AcDbEntity
  8
0
  6
HIDDEN
 62
     7
370
     0
100
AcDbLine
 10
135.0905523967
 20
112.9992302408
 30
0.0
 11
133.4381856944
 21
115.7492302408
 31
0.0
  0
LINE
  5
167
330
1F
100
AcDbEntity
  8
0
  6
HIDDEN
 62
     7
370
     0
100
AcDbLine
 10
100.4341149087
 20
101.7492302408
 30
0.0
 11
133.4381856944
 21
101.7492302408
 31
0.0
  0
LINE
  5
168
330
1F
100
AcDbEntity
  8
0
  6
HIDDEN
 62
     7
370
     0
100
AcDbLine
 10
133.4381856944
 20
115.7492302408
 30
0.0
 11
100.4341149087
 21
115.7492302408
 31
0.0
  0
LINE
  5
169
330
1F
100
AcDbEntity
  8
0
  6
HIDDEN
 62
     7
370
     0
100
AcDbLine
 10
203.8381856944
 20
125.0058338731
 30
0.0
 11
203.2825784354
 21
124.4502356859
 31
0.0
  0
LINE
  5
16A
330
1F
100
AcDbEntity
  8
0
  6
HIDDEN
 62
     7
370
     0
100
AcDbLine
 10
203.2830043665
 20
93.0477962967
 30
0.0
 11
203.8381856944
 21
92.4926257999
 31
0.0
  0
LINE
  5
16B
330
1F
100
AcDbEntity
  8
0
  6
HIDDEN
 62
     7
370
     0
100
AcDbLine
 10
178.8381847844
 20
139.2492300289
 30
0.0
 11
179.8381841537
 21
140.2492297756
 31
0.0
  0
LINE
  5
16C
330
1F
100
AcDbEntity
  8
0
  6
HIDDEN
 62
     7
370
     0
100
AcDbLine
 10
179.8381920558
 20
77.2492291031
 30
0.0
 11
178.8381918068
 21
78.2492289076
 31
0.0
  0
LINE
  5
16D
330
1F
100
AcDbEntity
  8
0
  6
HIDDEN
 62
     7
370
     0
100
AcDbLine
 10
135.0905523967
 20
104.4992302408
 30
0.0
 11
179.3381856944
 21
104.4992302408
 31
0.0
  0
LINE
  5
16E
330
1F
100
AcDbEntity
  8
0
  6
HIDDEN
 62
     7
370
     0
100
AcDbLine
 10
179.3381856944
 20
112.9992302408
 30
0.0
 11
135.0905523967
 21
112.9992302408
 31
0.0
  0
LINE
  5
16F
330
1F
100
AcDbEntity
  8
0
  6
HIDDEN
 62
     7
370
     0
100
AcDbLine
 10
203.2918856807
 20
124.4592302408
 30
0.0
 11
193.2381856944
 21
124.4592302408
 31
0.0
  0
LINE
  5
170
330
1F
100
AcDbEntity
  8
0
  6
HIDDEN
 62
     7
370
     0
100
AcDbLine
 10
193.2381856944
 20
93.0392302408
 30
0.0
 11
203.292110269
 21
93.0392302408
 31
0.0
  0
LINE
  5
171
330
1F
100
AcDbEntity
  8
0
  6
HIDDEN
 62
     7
370
     0
100
AcDbLine
 10
174.5381856944
 20
110.2025473198
 30
0.0
 11
174.5381856944
 21
117.8530064565
 31
0.0
  0
LINE
  5
172
330
1F
100
AcDbEntity
  8
0
  6
HIDDEN
 62
     7
370
     0
100
AcDbLine
 10
170.3381856944
 20
114.865157244
 30
0.0
 11
170.3381856944
 21
110.201699426
 31
0.0
  0
LINE
  5
173
330
1F
100
AcDbEntity
  8
0
  6
HIDDEN
 62
     7
370
     0
100
AcDbLine
 10
170.3381856944
 20
117.8530064565
 30
0.0
 11
170.3381856944
 21
116.1660380169
 31
0.0
  0
LINE
  5
174
330
1F
100
AcDbEntity
  8
0
  6
HIDDEN
 62
     7
370
     0
100
AcDbLine
 10
158.9103834222
 20
116.0901908633
 30
0.0
 11
170.9875750981
 21
113.7053631146
 31
0.0
  0
LINE
  5
175
330
1F
100
AcDbEntity
  8
0
  6
HIDDEN
 62
     7
370
     0
100
AcDbLine
 10
170.9891121271
 20
117.068782146
 30
0.0
 11
159.5496746887
 21
119.3276754851
 31
0.0
  0
LINE
  5
176
330
1F
100
AcDbEntity
  8
0
  6
HIDDEN
 62
     7
370
     0
100
AcDbLine
 10
157.8381856944
 20
115.8432234024
 30
0.0
 11
158.6813639793
 21
115.6767248467
 31
0.0
  0
LINE
  5
177
330
1F
100
AcDbEntity
  8
0
  6
HIDDEN
 62
     7
370
     0
100
AcDbLine
 10
159.4950074094
 20
119.79715982
 30
0.0
 11
157.8381856944
 21
120.1243248188
 31
0.0
  0
LINE
  5
178
330
1F
100
AcDbEntity
  8
0
  6
HIDDEN
 62
     7
370
     0
100
AcDbLine
 10
162.9314652775
 20
115.2521632594
 30
0.0
 11
163.519982474
 21
115.7831505566
 31
0.0
  0
LINE
  5
179
330
1F
100
AcDbEntity
  8
0
  6
HIDDEN
 62
     7
370
     0
100
AcDbLine
 10
163.9299932316
 20
117.8595179218
 30
0.0
 11
163.5874824897
 21
118.5743510437
 31
0.0
  0
LINE
  5
17A
330
1F
100
AcDbEntity
  8
0
  6
HIDDEN
 62
     7
370
     0
100
AcDbLine
 10
158.895736442
 20
115.7363246841
 30
0.0
 11
162.381344408
 21
115.0480376367
 31
0.0
  0
LINE
  5
17B
330
1F
100
AcDbEntity
  8
0
  6
HIDDEN
 62
     7
370
     0
100
AcDbLine
 10
163.1562429129
 20
118.9722614208
 30
0.0
 11
159.6706349468
 21
119.6605484681
 31
0.0
  0
LINE
  5
17C
330
1F
100
AcDbEntity
  8
0
  6
HIDDEN
 62
     7
370
     0
100
AcDbLine
 10
158.5834195408
 20
118.626477882
 30
0.0
 11
158.5248739407
 21
118.4840155846
 31
0.0
  0
LINE
  5
17D
330
1F
100
AcDbEntity
  8
0
  6
HIDDEN
 62
     7
370
     0
100
AcDbLine
 10
158.2831856944
 20
117.2600633396
 30
0.0
 11
158.2831856944
 21
117.1060403106
 31
0.0
  0
LINE
  5
17E
330
1F
100
AcDbEntity
  8
0
  6
HIDDEN
 62
     7
370
     0
100
AcDbLine
 10
158.2831856944
 20
100.392420171
 30
0.0
 11
158.2831856944
 21
100.238397142
 31
0.0
  0
LINE
  5
17F
330
1F
100
AcDbEntity
  8
0
  6
HIDDEN
 62
     7
370
     0
100
AcDbLine
 10
158.5248739407
 20
99.014444897
 30
0.0
 11
158.5834195408
 21
98.8719825996
 31
0.0
  0
LINE
  5
180
330
1F
100
AcDbEntity
  8
0
  6
HIDDEN
 62
     7
370
     0
100
AcDbLine
 10
159.6706349468
 20
97.8379120135
 30
0.0
 11
163.1562429129
 21
98.5261990608
 31
0.0
  0
LINE
  5
181
330
1F
100
AcDbEntity
  8
0
  6
HIDDEN
 62
     7
370
     0
100
AcDbLine
 10
162.381344408
 20
102.4504228449
 30
0.0
 11
158.895736442
 21
101.7621357976
 31
0.0
  0
LINE
  5
182
330
1F
100
AcDbEntity
  8
0
  6
HIDDEN
 62
     7
370
     0
100
AcDbLine
 10
163.5874824897
 20
98.9241094379
 30
0.0
 11
163.9299932316
 21
99.6389425598
 31
0.0
  0
LINE
  5
183
330
1F
100
AcDbEntity
  8
0
  6
HIDDEN
 62
     7
370
     0
100
AcDbLine
 10
163.519982474
 20
101.715309925
 30
0.0
 11
162.9314652775
 21
102.2462972223
 31
0.0
  0
LINE
  5
184
330
1F
100
AcDbEntity
  8
0
  6
HIDDEN
 62
     7
370
     0
100
AcDbLine
 10
169.9381856944
 20
117.8616999836
 30
0.0
 11
169.9381856944
 21
116.4959864871
 31
0.0
  0
LINE
  5
185
330
1F
100
AcDbEntity
  8
0
  6
HIDDEN
 62
     7
370
     0
100
AcDbLine
 10
174.9381856944
 20
116.4959864871
 30
0.0
 11
174.9381856944
 21
117.8616999836
 31
0.0
  0
DIMENSION
  5
186
330
1F
100
AcDbEntity
  8
VERMASSUNG
100
AcDbDimension
  2
_D
 10
216.9703466081
 20
89.2492302408
 30
0.0
 11
216.9703466081
 21
108.7492302408
 31
0.0
 70
   160
  1
ST4 %%c<>
 71
     2
 42
-1.0
  3
SLDDIMSTYLE0
100
AcDbAlignedDimension
 13
203.4381856944
 23
128.2492302408
 33
0.0
 14
203.4381856944
 24
89.2492302408
 34
0.0
 50
90.0
100
AcDbRotatedDimension
  0
DIMENSION
  5
193
330
1F
100
AcDbEntity
  8
VERMASSUNG
100
AcDbDimension
  2
_D_1
 10
210.8703466081
 20
97.7492302408
 30
0.0
 11
210.8703466081
 21
108.7492302408
 31
0.0
 70
   160
  1
%%c<>
 71
     2
 42
-1.0
  3
SLDDIMSTYLE0
100
AcDbAlignedDimension
 13
193.2381856944
 23
119.7492302408
 33
0.0
 14
193.2381856944
 24
97.7492302408
 34
0.0
 50
90.0
100
AcDbRotatedDimension
  0
DIMENSION
  5
19E
330
1F
100
AcDbEntity
  8
VERMASSUNG
100
AcDbDimension
  2
_D_2
 10
203.8381856944
 20
144.3492302408
 30
0.0
 11
193.3381856944
 21
144.3492302408
 31
0.0
 70
   160
  1
(<>)
 71
     2
 42
-1.0
  3
SLDDIMSTYLE0
100
AcDbAlignedDimension
 13
182.8381856944
 23
139.2492302408
 33
0.0
 14
203.8381856944
 24
127.8492302408
 34
0.0
100
AcDbRotatedDimension
  0
DIMENSION
  5
1AA
330
1F
100
AcDbEntity
  8
VERMASSUNG
100
AcDbDimension
  2
_D_3
 10
203.8381856944
 20
150.3492302408
 30
0.0
 11
179.8381856944
 21
150.3492302408
 31
0.0
 70
   160
  1
<>
 71
     2
 42
-1.0
  3
SLDDIMSTYLE0
100
AcDbAlignedDimension
 13
155.8381856944
 23
130.9742302408
 33
0.0
 14
203.8381856944
 24
127.8492302408
 34
0.0
100
AcDbRotatedDimension
  0
DIMENSION
  5
1B4
330
1F
100
AcDbEntity
  8
VERMASSUNG
100
AcDbDimension
  2
_D_4
 10
203.8381856944
 20
156.3492302408
 30
0.0
 11
147.1381856944
 21
156.3492302408
 31
0.0
 70
   160
  1
(<>)
 71
     2
 42
-1.0
  3
SLDDIMSTYLE0
100
AcDbAlignedDimension
 13
90.4381856944
 23
120.5719858378
 33
0.0
 14
203.8381856944
 24
127.8492302408
 34
0.0
100
AcDbRotatedDimension
  0
DIMENSION
  5
1C0
330
1F
100
AcDbEntity
  8
VERMASSUNG
100
AcDbDimension
  2
_D_5
 10
84.4040808693
 20
77.2492302408
 30
0.0
 11
84.4040808693
 21
108.7492302408
 31
0.0
 70
   160
  1
MAS BT 40 %%c<>
 71
     2
 42
-1.0
  3
SLDDIMSTYLE0
100
AcDbAlignedDimension
 13
179.8381815503
 23
140.2492302408
 33
0.0
 14
179.8381864604
 24
77.2492302408
 34
0.0
 50
90.0
100
AcDbRotatedDimension
  0
LINE
  5
1CC
330
1F
100
AcDbEntity
  8
VERMASSUNG
  6
CENTERX2
370
     0
100
AcDbLine
 10
88.4381856944
 20
108.7492302408
 30
0.0
 11
206.0334647042
 21
108.7492302408
 31
0.0
  0
LINE
  5
1CD
330
1F
100
AcDbEntity
  8
VERMASSUNG
  6
CENTERX2
370
     0
100
AcDbLine
 10
157.2679171634
 20
118.0963824266
 30
0.0
 11
172.9524739357
 21
114.9992248076
 31
0.0
  0
LINE
  5
1CE
330
1F
100
AcDbEntity
  8
VERMASSUNG
  6
CENTERX2
370
     0
100
AcDbLine
 10
157.2679171634
 20
99.402078055
 30
0.0
 11
172.9524739357
 21
102.4992356741
 31
0.0
  0
LINE
  5
1CF
330
1F
100
AcDbEntity
  8
VERMASSUNG
  6
CENTERX2
370
     0
100
AcDbLine
 10
171.5682940967
 20
115.2725524633
 30
0.0
 11
157.2679171634
 21
118.0963824266
 31
0.0
  0
LINE
  5
1D0
330
1F
100
AcDbEntity
  8
0
  6
Continuous
 62
     7
370
    15
100
AcDbLine
 10
257.9555978015
 20
41.7823024275
 30
0.0
 11
257.8212256827
 21
41.8598990156
 31
0.0
  0
LINE
  5
1D1
330
1F
100
AcDbEntity
  8
0
  6
Continuous
 62
     7
370
    15
100
AcDbLine
 10
255.2610832086
 20
41.8598990156
 30
0.0
 11
255.1267110898
 21
41.7823024275
 31
0.0
  0
LINE
  5
1D2
330
1F
100
AcDbEntity
  8
0
  6
Continuous
 62
     7
370
    15
100
AcDbLine
 10
258.5411544456
 20
40.814966944
 30
0.0
 11
258.5411544456
 21
40.9660269942
 31
0.0
  0
LINE
  5
1D3
330
1F
100
AcDbEntity
  8
0
  6
Continuous
 62
     7
370
    15
100
AcDbLine
 10
254.5411544456
 20
40.9660269942
 30
0.0
 11
254.5411544456
 21
40.814966944
 31
0.0
  0
SPLINE
  5
1D4
330
1F
100
AcDbEntity
  8
0
  6
Continuous
 62
     7
370
    15
100
AcDbSpline
210
0.0
220
0.0
230
1.0
 70
     8
 71
     3
 72
    17
 73
    13
 74
     0
 42
0.000000001
 43
0.00000001
 40
0.0
 40
0.0
 40
0.0
 40
0.0
 40
0.0692487903674033
 40
0.1760844558011543
 40
0.2835588629650851
 40
0.3917154771391602
 40
0.5004788522769993
 40
0.6097068576374453
 40
0.7192429407204163
 40
0.8289507841836439
 40
0.9387285169560219
 40
1.0
 40
1.0
 40
1.0
 40
1.0
 10
245.8752179704042
 20
21.38740519091341
 30
0.0
 10
246.0360447950343
 20
21.34550990840761
 30
0.0
 10
246.4449920667915
 20
21.23897941189601
 30
0.0
 10
247.1440291974129
 20
21.1726821748191
 30
0.0
 10
247.9620269446452
 20
21.17643970263562
 30
0.0
 10
248.8100509822015
 20
21.27697167773069
 30
0.0
 10
249.6808724391574
 20
21.46926905535453
 30
0.0
 10
250.5691432812194
 20
21.75397681932784
 30
0.0
 10
251.4687505101493
 20
22.12764591073136
 30
0.0
 10
252.3729593109171
 20
22.59239582383827
 30
0.0
 10
253.1445803996839
 20
23.04855726086195
 30
0.0
 10
253.6092072066058
 20
23.37973675653857
 30
0.0
 10
253.7756410214949
 20
23.49836845418779
 30
0.0
  0
SPLINE
  5
1D5
330
1F
100
AcDbEntity
  8
0
  6
Continuous
 62
     7
370
    15
100
AcDbSpline
210
0.0
220
0.0
230
1.0
 70
     8
 71
     3
 72
    17
 73
    13
 74
     0
 42
0.000000001
 43
0.00000001
 40
0.0
 40
0.0
 40
0.0
 40
0.0
 40
0.084461037580122
 40
0.1948937135108907
 40
0.3053933956604033
 40
0.4159164941338525
 40
0.5263749620703911
 40
0.6366524828263777
 40
0.7465940452567225
 40
0.856023701861625
 40
0.9647866340286403
 40
0.9999999999999999
 40
0.9999999999999999
 40
0.9999999999999999
 40
0.9999999999999999
 10
263.527060212106
 20
40.3850445714669
 30
0.0
 10
263.5505893749879
 20
40.66286153430675
 30
0.0
 10
263.6048828819261
 20
41.30392374613209
 30
0.0
 10
263.6038260943831
 20
42.26833475450068
 30
0.0
 10
263.5377957548495
 20
43.27693480543255
 30
0.0
 10
263.3956057978322
 20
44.23658355618813
 30
0.0
 10
263.180719446335
 20
45.14213222531927
 30
0.0
 10
262.892925968686
 20
45.98624022589093
 30
0.0
 10
262.5356965458129
 20
46.76472017383816
 30
0.0
 10
262.1059855188257
 20
47.46424147341818
 30
0.0
 10
261.7347902668624
 20
47.96340796004935
 30
0.0
 10
261.4873937313457
 20
48.20034243234458
 30
0.0
 10
261.4268861001742
 20
48.25829127803684
 30
0.0
  0
LINE
  5
1D6
330
1F
100
AcDbEntity
  8
0
  6
Continuous
 62
     7
370
    15
100
AcDbLine
 10
242.8950353247
 20
22.8515928564
 30
0.0
 11
244.4418314085
 21
21.9586464841
 31
0.0
  0
LINE
  5
1D7
330
1F
100
AcDbEntity
  8
0
  6
Continuous
 62
     7
370
    15
100
AcDbLine
 10
260.1905514476
 20
49.2391856491
 30
0.0
 11
258.6437553637
 21
50.1321320214
 31
0.0
  0
LINE
  5
1D8
330
1F
100
AcDbEntity
  8
0
  6
Continuous
 62
     7
370
    15
100
AcDbLine
 10
259.9540651811
 20
23.2296863123
 30
0.0
 11
260.0954635523
 21
23.3113403924
 31
0.0
  0
LINE
  5
1D9
330
1F
100
AcDbEntity
  8
0
  6
Continuous
 62
     7
370
    15
100
AcDbLine
 10
266.8472357814
 20
35.0070201855
 30
0.0
 11
266.8472357814
 21
35.1703018079
 31
0.0
  0
LINE
  5
1DA
330
1F
100
AcDbEntity
  8
0
  6
Continuous
 62
     7
370
    15
100
AcDbLine
 10
264.8275484865
 20
39.634288671
 30
0.0
 11
258.9585622026
 21
43.022382335
 31
0.0
  0
LINE
  5
1DB
330
1F
100
AcDbEntity
  8
0
  6
Continuous
 62
     7
370
    15
100
AcDbLine
 10
249.2093545594
 20
26.1344295186
 30
0.0
 11
255.0783408433
 21
22.7463358545
 31
0.0
  0
LINE
  5
1DC
330
1F
100
AcDbEntity
  8
0
  6
Continuous
 62
     7
370
    15
100
AcDbLine
 10
255.0905437882
 20
52.1833574024
 30
0.0
 11
252.0588234639
 21
53.9335322921
 31
0.0
  0
SPLINE
  5
1DD
330
1F
100
AcDbEntity
  8
0
  6
Continuous
 62
     7
370
    15
100
AcDbSpline
210
0.0
220
0.0
230
1.0
 70
     8
 71
     3
 72
    22
 73
    18
 74
     0
 42
0.000000001
 43
0.00000001
 40
0.0
 40
0.0
 40
0.0
 40
0.0
 40
0.0077001458720168
 40
0.0799946760219216
 40
0.1523803416667834
 40
0.2247877993787029
 40
0.297154908159544
 40
0.3694224499997338
 40
0.4415388676857239
 40
0.5134581762388822
 40
0.5851519428789406
 40
0.6566358975884878
 40
0.728022953580141
 40
0.7994968402460958
 40
0.8715601842930599
 40
0.9450872570050037
 40
1.0
 40
1.0
 40
1.0
 40
1.0
 10
256.5696299955958
 20
31.4421120491149
 30
0.0
 10
256.5785368345976
 20
31.46618269042625
 30
0.0
 10
256.6710675102716
 20
31.71624589511681
 30
0.0
 10
256.8873519940166
 20
32.1903358107619
 30
0.0
 10
257.238874842044
 20
32.8483128047345
 30
0.0
 10
257.6420916614028
 20
33.47679879516441
 30
0.0
 10
258.085327595613
 20
34.0638487273611
 30
0.0
 10
258.5608967330244
 20
34.59839691854614
 30
0.0
 10
259.0589708457883
 20
35.07057226806636
 30
0.0
 10
259.5694323660124
 20
35.47193383707615
 30
0.0
 10
260.0816175879215
 20
35.79573030823563
 30
0.0
 10
260.5848367979427
 20
36.03731972245757
 30
0.0
 10
261.0684109024027
 20
36.19396581099963
 30
0.0
 10
261.5235008116142
 20
36.26653865471149
 30
0.0
 10
261.9413830364394
 20
36.25361532623911
 30
0.0
 10
262.29014915179
 20
36.17789873106727
 30
0.0
 10
262.4786087912067
 20
36.07113976780153
 30
0.0
 10
262.5591822153218
 20
36.02549638626944
 30
0.0
  0
SPLINE
  5
1DE
330
1F
100
AcDbEntity
  8
0
  6
Continuous
 62
     7
370
    15
100
AcDbSpline
210
0.0
220
0.0
230
1.0
 70
     8
 71
     3
 72
    32
 73
    28
 74
     0
 42
0.000000001
 43
0.00000001
 40
0.0
 40
0.0
 40
0.0
 40
0.0
 40
0.0011677272918041
 40
0.0421831646591013
 40
0.0833975494341777
 40
0.124867925838684
 40
0.1665969501707556
 40
0.208546377213449
 40
0.2506581579206035
 40
0.2928731453873454
 40
0.335142196618081
 40
0.3774287215212751
 40
0.4197059492259635
 40
0.4619637476968312
 40
0.5041980554816631
 40
0.5464086977549006
 40
0.5885978640358984
 40
0.6307691179564385
 40
0.6729267874492544
 40
0.7150756089177445
 40
0.7572205324709982
 40
0.7993666231919164
 40
0.8415175214854707
 40
0.8836781881485603
 40
0.9258537968483639
 40
0.9680494376427975
 40
0.9999999999999999
 40
0.9999999999999999
 40
0.9999999999999999
 40
0.9999999999999999
 10
250.7067791980087
 20
54.49333423063314
 30
0.0
 10
250.699958260534
 20
54.49566294440812
 30
0.0
 10
250.4535576405898
 20
54.57978576769349
 30
0.0
 10
249.9297073731135
 20
54.66178016151491
 30
0.0
 10
249.1379561635138
 20
54.73101789453654
 30
0.0
 10
248.3094588734131
 20
54.69663923128925
 30
0.0
 10
247.4551555885496
 20
54.57216189169387
 30
0.0
 10
246.5788415766889
 20
54.35422186813589
 30
0.0
 10
245.6869070264507
 20
54.04504198108239
 30
0.0
 10
244.7853948370856
 20
53.64643193602079
 30
0.0
 10
243.8805088388389
 20
53.16132271206216
 30
0.0
 10
242.9783083726517
 20
52.59321183929353
 30
0.0
 10
242.0846624512354
 20
51.94614603570554
 30
0.0
 10
241.2052290465035
 20
51.22459778205998
 30
0.0
 10
240.3454562096202
 20
50.43339996643486
 30
0.0
 10
239.5106389012602
 20
49.57775315035317
 30
0.0
 10
238.7059116562241
 20
48.66320487045253
 30
0.0
 10
237.9362314055551
 20
47.69562648847942
 30
0.0
 10
237.2063568198818
 20
46.68118682155585
 30
0.0
 10
236.5208157592174
 20
45.62631938509146
 30
0.0
 10
235.8839043980739
 20
44.53769205862657
 30
0.0
 10
235.2995723946427
 20
43.42216135661155
 30
0.0
 10
234.7717478643777
 20
42.28679361214779
 30
0.0
 10
234.302978536755
 20
41.13854415999207
 30
0.0
 10
233.8993976592278
 20
39.98522029935992
 30
0.0
 10
233.5802685752189
 20
38.92521674497949
 30
0.0
 10
233.4293289893004
 20
38.25799676999788
 30
0.0
 10
233.3642871604936
 20
37.97048301325132
 30
0.0
  0
SPLINE
  5
1DF
330
1F
100
AcDbEntity
  8
0
  6
Continuous
 62
     7
370
    15
100
AcDbSpline
210
0.0
220
0.0
230
1.0
 70
     8
 71
     3
 72
    10
 73
     6
 74
     0
 42
0.000000001
 43
0.00000001
 40
0.0
 40
0.0
 40
0.0
 40
0.0
 40
0.1393255789001405
 40
0.6570900152416571
 40
1.0
 40
1.0
 40
1.0
 40
1.0
 10
257.0638670391309
 20
26.51840637939263
 30
0.0
 10
257.0317515918149
 20
26.53390985151338
 30
0.0
 10
256.8802880921977
 20
26.60702762940127
 30
0.0
 10
256.6874034202989
 20
26.78462731536479
 30
0.0
 10
256.5493088331003
 20
26.98700723624917
 30
0.0
 10
256.4942891745272
 20
27.06763946358685
 30
0.0
  0
LINE
  5
1E0
330
1F
100
AcDbEntity
  8
0
  6
Continuous
 62
     7
370
    15
100
AcDbLine
 10
243.0462178393
 20
52.6219065228
 30
0.0
 11
223.1593257864
 21
59.7883541295
 31
0.0
  0
LINE
  5
1E1
330
1F
100
AcDbEntity
  8
0
  6
Continuous
 62
     7
370
    15
100
AcDbLine
 10
216.7878563751
 20
48.7514495185
 30
0.0
 11
235.8157304614
 21
32.6844699411
 31
0.0
  0
LINE
  5
1E2
330
1F
100
AcDbEntity
  8
0
  6
Continuous
 62
     7
370
    15
100
AcDbLine
 10
236.3101034249
 20
26.6529931271
 30
0.0
 11
239.3418237492
 21
24.9028182374
 31
0.0
  0
SPLINE
  5
1E3
330
1F
100
AcDbEntity
  8
0
  6
Continuous
 62
     7
370
    15
100
AcDbSpline
210
0.0
220
0.0
230
1.0
 70
     8
 71
     3
 72
    13
 73
     9
 74
     0
 42
0.000000001
 43
0.00000001
 40
0.0
 40
0.0
 40
0.0
 40
0.0
 40
0.0768598206447126
 40
0.30858358862395
 40
0.5396808252011257
 40
0.7695661605074764
 40
0.9979623823424886
 40
1.0
 40
1.0
 40
1.0
 40
1.0
 10
233.3468259739209
 20
30.71967433505325
 30
0.0
 10
233.3748403292168
 20
30.62342641159796
 30
0.0
 10
233.4873148343313
 20
30.23700175735988
 30
0.0
 10
233.7363547882171
 20
29.60511486301864
 30
0.0
 10
234.1172782279343
 20
28.85160557557657
 30
0.0
 10
234.5746417974203
 20
28.18491912567502
 30
0.0
 10
234.9052963509016
 20
27.76529415536357
 30
0.0
 10
235.098883684479
 20
27.59284721389066
 30
0.0
 10
235.1005954858795
 20
27.5913223469974
 30
0.0
  0
SPLINE
  5
1E4
330
1F
100
AcDbEntity
  8
0
  6
Continuous
 62
     7
370
    15
100
AcDbSpline
210
0.0
220
0.0
230
1.0
 70
     8
 71
     3
 72
    26
 73
    22
 74
     0
 42
0.000000001
 43
0.00000001
 40
0.0
 40
0.0
 40
0.0
 40
0.0
 40
0.0242826816015191
 40
0.0779643449001397
 40
0.1324146345192564
 40
0.187974154040984
 40
0.2445587776400983
 40
0.3018194337634244
 40
0.359383984719266
 40
0.4169690279903653
 40
0.4744657707983815
 40
0.5318583632469336
 40
0.5891661671843709
 40
0.6464239183283997
 40
0.7036726161345859
 40
0.7609500413864685
 40
0.8182924854859206
 40
0.8757452955411219
 40
0.9333511621642444
 40
0.9880622474647982
 40
1.0
 40
1.0
 40
1.0
 40
1.0
 10
223.1124716145281
 20
59.79175352835818
 30
0.0
 10
223.0416979698478
 20
59.8187448082871
 30
0.0
 10
222.8144652064223
 20
59.90540564304196
 30
0.0
 10
222.3907833967309
 20
59.9537891252874
 30
0.0
 10
221.8533759123145
 20
59.94044157171291
 30
0.0
 10
221.2902938184976
 20
59.82944513393513
 30
0.0
 10
220.7112835403029
 20
59.62770527121523
 30
0.0
 10
220.1248098577013
 20
59.33553167793936
 30
0.0
 10
219.5415956063745
 20
58.95843727897146
 30
0.0
 10
218.97177161447
 20
58.50342916371797
 30
0.0
 10
218.42455133115
 20
57.97888784379152
 30
0.0
 10
217.9080973759023
 20
57.39367981901141
 30
0.0
 10
217.429910420897
 20
56.75717862268911
 30
0.0
 10
216.9969547882133
 20
56.07925736707757
 30
0.0
 10
216.6156570706559
 20
55.37024643754516
 30
0.0
 10
216.2918227985907
 20
54.64082004427302
 30
0.0
 10
216.0306269135475
 20
53.90185313471043
 30
0.0
 10
215.8362918695767
 20
53.16406285083352
 30
0.0
 10
215.7153903939553
 20
52.45140620336939
 30
0.0
 10
215.6772472907172
 20
51.94614359577384
 30
0.0
 10
215.6753325484385
 20
51.6836986194937
 30
0.0
 10
215.6749895909282
 20
51.63669100041624
 30
0.0
  0
SPLINE
  5
1E5
330
1F
100
AcDbEntity
  8
0
  6
Continuous
 62
     7
370
    15
100
AcDbSpline
210
0.0
220
0.0
230
1.0
 70
     8
 71
     3
 72
    13
 73
     9
 74
     0
 42
0.000000001
 43
0.00000001
 40
0.0
 40
0.0
 40
0.0
 40
0.0
 40
0.0983792428661427
 40
0.2844027857449465
 40
0.4704644832401774
 40
0.655125934029196
 40
0.8368227539026578
 40
1.0
 40
1.0
 40
1.0
 40
1.0
 10
215.6749895909282
 20
51.63669100041623
 30
0.0
 10
215.6771467470405
 20
51.51731154721256
 30
0.0
 10
215.6833828308908
 20
51.17219963068737
 30
0.0
 10
215.7532198930551
 20
50.63196126128154
 30
0.0
 10
215.9102465101201
 20
50.04052506903311
 30
0.0
 10
216.1474827518114
 20
49.51492234648135
 30
0.0
 10
216.4437288837472
 20
49.06902529128966
 30
0.0
 10
216.6936902486355
 20
48.84327302024214
 30
0.0
 10
216.811959527708
 20
48.73645827966122
 30
0.0
  0
LWPOLYLINE
  5
1E6
330
1F
100
AcDbEntity
  8
0
  6
Continuous
 62
     7
370
    15
100
AcDbPolyline
 90
       26
 70
   128
 43
0.0
 10
254.9197364395
 20
41.5855558761
 10
255.1707292591
 20
41.8037462068
 10
255.5078309333
 20
41.9790477483
 10
255.9098601241
 20
42.1004456599
 10
256.3515558588
 20
42.1603120645
 10
256.80516477
 20
42.1548853357
 10
257.2421849416
 20
42.0845064548
 10
257.6351567889
 20
41.9535975858
 10
257.9593884456
 20
41.7703842142
 10
258.1945072441
 20
41.5463783102
 10
258.3257398057
 20
41.2956549883
 10
258.3448403058
 20
41.0339681172
 10
258.2506085899
 20
40.7777604452
 10
258.0489655831
 20
40.5431304428
 10
257.7525812573
 20
40.3448207758
 10
257.3800785295
 20
40.1952919699
 10
256.9548631163
 20
40.10393947
 10
256.5036528657
 20
40.0765032897
 10
256.0547989773
 20
40.1147073449
 10
255.6365045917
 20
40.2161511344
 10
255.2750526835
 20
40.3744605719
 10
254.9931546053
 20
40.5796884932
 10
254.8085230503
 20
40.8189396732
 10
254.7327590981
 20
41.0771810803
 10
254.7706232763
 20
41.3381864572
 10
254.9197364395
 20
41.5855558761
  0
LWPOLYLINE
  5
1E7
330
1F
100
AcDbEntity
  8
0
  6
Continuous
 62
     7
370
    15
100
AcDbPolyline
 90
        3
 70
   128
 43
0.0
 10
254.7495323394
 20
41.4791608369
 10
255.0143141835
 20
41.7117698467
 10
255.1267110898
 20
41.7823024275
  0
LWPOLYLINE
  5
1E8
330
1F
100
AcDbEntity
  8
0
  6
Continuous
 62
     7
370
    15
100
AcDbPolyline
 90
       21
 70
   128
 43
0.0
 10
257.9555978015
 20
41.7823024275
 10
258.0075804728
 20
41.7511371592
 10
258.2904376353
 20
41.5257306746
 10
258.4716328172
 20
41.2677962466
 10
258.5406356131
 20
40.9923240865
 10
258.4934358314
 20
40.7153236349
 10
258.3327765519
 20
40.4528931514
 10
258.0679947078
 20
40.2202841416
 10
257.7144784575
 20
40.0310149957
 10
257.2927728805
 20
39.8960853486
 10
256.827385972
 20
39.8233368208
 10
256.3453643277
 20
39.8169972924
 10
255.8747212934
 20
39.8774351937
 10
255.4428089315
 20
40.0011380936
 10
255.0747284185
 20
40.1809168291
 10
254.791871256
 20
40.4063233137
 10
254.6106760741
 20
40.6642577417
 10
254.5416732781
 20
40.9397299019
 10
254.5888730598
 20
41.2167303534
 10
254.7495323394
 20
41.4791608369
 10
254.7495323394
 20
41.4791608369
  0
LWPOLYLINE
  5
1E9
330
1F
100
AcDbEntity
  8
0
  6
Continuous
 62
     7
370
    15
100
AcDbPolyline
 90
       21
 70
   128
 43
0.0
 10
255.4661811819
 20
41.4290500541
 10
255.6835997164
 20
41.605747642
 10
255.9849616828
 20
41.7350113695
 10
256.3407676721
 20
41.8041880022
 10
256.7161889149
 20
41.8065060494
 10
257.0744765643
 20
41.7417386044
 10
257.3805589288
 20
41.616225556
 10
257.6044745341
 20
41.4422529959
 10
257.7243049606
 20
41.2368505705
 10
257.7283203711
 20
41.0201245001
 10
257.6161277094
 20
40.8132894427
 10
257.3987091748
 20
40.6365918548
 10
257.0973472084
 20
40.5073281273
 10
256.7415412192
 20
40.4381514946
 10
256.3661199764
 20
40.4358334474
 10
256.007832327
 20
40.5006008924
 10
255.7017499624
 20
40.6261139408
 10
255.4778343571
 20
40.8000865009
 10
255.3580039307
 20
41.0054889264
 10
255.3539885202
 20
41.2222149967
 10
255.4661811819
 20
41.4290500541
  0
SPLINE
  5
1EA
330
1F
100
AcDbEntity
  8
0
  6
Continuous
 62
     7
370
    15
100
AcDbSpline
210
0.0
220
0.0
230
1.0
 70
     8
 71
     3
 72
    11
 73
     7
 74
     0
 42
0.000000001
 43
0.00000001
 40
0.0
 40
0.0
 40
0.0
 40
0.0
 40
0.1285561766307322
 40
0.4801535797842184
 40
0.8150691831753797
 40
1.0
 40
1.0
 40
1.0
 40
1.0
 10
255.3887486685455
 20
41.04217648059934
 30
0.0
 10
255.4094163199878
 20
41.04822848333285
 30
0.0
 10
255.4866093968654
 20
41.07083253747882
 30
0.0
 10
255.6313637048997
 20
41.17447188980122
 30
0.0
 10
255.7881020861593
 20
41.40976453013478
 30
0.0
 10
255.8720679831042
 20
41.57908490012825
 30
0.0
 10
255.9019381164812
 20
41.63931914068519
 30
0.0
  0
SPLINE
  5
1EB
330
1F
100
AcDbEntity
  8
0
  6
Continuous
 62
     7
370
    15
100
AcDbSpline
210
0.0
220
0.0
230
1.0
 70
     8
 71
     3
 72
     9
 73
     5
 74
     0
 42
0.000000001
 43
0.00000001
 40
0.0
 40
0.0
 40
0.0
 40
0.0
 40
0.5195747132093066
 40
1.0
 40
1.0
 40
1.0
 40
1.0
 10
255.7198583386278
 20
40.63514144014582
 30
0.0
 10
255.6596422876302
 20
40.69120958846462
 30
0.0
 10
255.5437474038596
 20
40.79912120712765
 30
0.0
 10
255.4390486144664
 20
40.96330056534342
 30
0.0
 10
255.3887486685455
 20
41.04217648059934
 30
0.0
  0
SPLINE
  5
1EC
330
1F
100
AcDbEntity
  8
0
  6
Continuous
 62
     7
370
    15
100
AcDbSpline
210
0.0
220
0.0
230
1.0
 70
     8
 71
     3
 72
    10
 73
     6
 74
     0
 42
0.000000001
 43
0.00000001
 40
0.0
 40
0.0
 40
0.0
 40
0.0
 40
0.23499607205177
 40
0.6605814483409485
 40
1.0
 40
1.0
 40
1.0
 40
1.0
 10
257.6935602227253
 20
41.12618529789495
 30
0.0
 10
257.6637332418045
 20
41.06626529147478
 30
0.0
 10
257.5798886477894
 20
40.89782824365503
 30
0.0
 10
257.4369819266725
 20
40.67540899908199
 30
0.0
 10
257.333111376394
 20
40.61168516607805
 30
0.0
 10
257.2870258721925
 20
40.583412041831
 30
0.0
  0
SPLINE
  5
1ED
330
1F
100
AcDbEntity
  8
0
  6
Continuous
 62
     7
370
    15
100
AcDbSpline
210
0.0
220
0.0
230
1.0
 70
     8
 71
     3
 72
    11
 73
     7
 74
     0
 42
0.000000001
 43
0.00000001
 40
0.0
 40
0.0
 40
0.0
 40
0.0
 40
0.2164526859271244
 40
0.4403055508634003
 40
0.75189602042219
 40
1.0
 40
1.0
 40
1.0
 40
1.0
 10
257.0543438935711
 20
41.68132354933299
 30
0.0
 10
257.0981302763386
 20
41.61372225997885
 30
0.0
 10
257.1872000298607
 20
41.47620849885061
 30
0.0
 10
257.3524906554848
 20
41.28251451340751
 30
0.0
 10
257.5297966517481
 20
41.1587612133864
 30
0.0
 10
257.6432625343106
 20
41.13619053433083
 30
0.0
 10
257.6935602227253
 20
41.12618529789495
 30
0.0
  0
SPLINE
  5
1EE
330
1F
100
AcDbEntity
  8
0
  6
Continuous
 62
     7
370
    15
100
AcDbSpline
210
0.0
220
0.0
230
1.0
 70
     8
 71
     3
 72
    11
 73
     7
 74
     0
 42
0.000000001
 43
0.00000001
 40
0.0
 40
0.0
 40
0.0
 40
0.0
 40
0.2164526859271154
 40
0.4403055508633969
 40
0.7518960204221921
 40
1.0
 40
1.0
 40
1.0
 40
1.0
 10
255.9019381164812
 20
41.63931914068519
 30
0.0
 10
255.980878027991
 20
41.61262218354027
 30
0.0
 10
256.1414566831995
 20
41.5583155420139
 30
0.0
 10
256.4394494959303
 20
41.51903263678064
 30
0.0
 10
256.7591041184536
 20
41.56091492744908
 30
0.0
 10
256.9636651294977
 20
41.64434172663692
 30
0.0
 10
257.0543438935711
 20
41.68132354933299
 30
0.0
  0
LINE
  5
1EF
330
1F
100
AcDbEntity
  8
0
  6
Continuous
 62
     7
370
    15
100
AcDbLine
 10
255.9019381165
 20
40.5348879654
 30
0.0
 11
255.9019381165
 21
41.6393191407
 31
0.0
  0
LINE
  5
1F0
330
1F
100
AcDbEntity
  8
0
  6
Continuous
 62
     7
370
    15
100
AcDbLine
 10
257.0543438936
 20
40.4949691356
 30
0.0
 11
257.0543438936
 21
41.6813235493
 31
0.0
  0
ARC
  5
1F1
330
1F
100
AcDbEntity
  8
0
  6
Continuous
 62
     7
370
    15
100
AcDbCircle
 10
257.5165242916
 20
44.6070228759
 30
0.0
 40
5.347450669439254
100
AcDbArc
 50
44.0278587448
 51
75.8160592654
  0
ARC
  5
1F2
330
1F
100
AcDbEntity
  8
0
  6
Continuous
 62
     7
370
    15
100
AcDbCircle
 10
247.1142632027
 20
26.5877418627
 30
0.0
 40
5.344051591926022
100
AcDbArc
 50
224.6811485621
 51
255.6381462256
  0
ARC
  5
1F3
330
1F
100
AcDbEntity
  8
0
  6
Continuous
 62
     7
370
    15
100
AcDbCircle
 10
246.6768616205
 20
28.611937976
 30
0.0
 40
6.890847990550803
100
AcDbArc
 50
188.312493873
 51
236.7139908619
  0
SPLINE
  5
1F4
330
1F
100
AcDbEntity
  8
0
  6
Continuous
 62
     7
370
    15
100
AcDbSpline
210
0.0
220
0.0
230
1.0
 70
     8
 71
     3
 72
    29
 73
    25
 74
     0
 42
0.000000001
 43
0.00000001
 40
0.0
 40
0.0
 40
0.0
 40
0.0
 40
0.0226170105016674
 40
0.0451713142211041
 40
0.0676870228449807
 40
0.090188372120831
 40
0.1126996441629423
 40
0.1352450890127045
 40
0.1578488467149011
 40
0.1805348711521328
 40
0.2033268568146046
 40
0.2262481695760157
 40
0.2493217824052029
 40
0.3751991801868492
 40
0.499961424646005
 40
0.4999717960761217
 40
0.6247044141102638
 40
0.7509557879397657
 40
0.7931713871186022
 40
0.8349081045046313
 40
0.8763104515914815
 40
0.9175264576320521
 40
0.9587061619408423
 40
1.0
 40
1.0
 40
1.0
 40
1.0
 10
239.8585682431176
 20
32.76996783244495
 30
0.0
 10
239.8769334682398
 20
32.72112794264652
 30
0.0
 10
239.9136129999875
 20
32.62358357406399
 30
0.0
 10
239.9653028286505
 20
32.47612096466647
 30
0.0
 10
240.0144841884716
 20
32.32818367514918
 30
0.0
 10
240.0609738583697
 20
32.17969180992022
 30
0.0
 10
240.1048839548282
 20
32.03069984378905
 30
0.0
 10
240.1462491462835
 20
31.88122805521088
 30
0.0
 10
240.1851264329888
 20
31.73130795190093
 30
0.0
 10
240.2215682780122
 20
31.5809691419173
 30
0.0
 10
240.2556302591009
 20
31.43024669028872
 30
0.0
 10
240.2873673122004
 20
31.27916499354848
 30
0.0
 10
240.3605255840749
 20
30.90344378659696
 30
0.0
 10
240.4462021241143
 20
30.31467336488049
 30
0.0
 10
240.4719344859311
 20
29.81318976087407
 30
0.0
 10
240.4723716421663
 20
29.34273693563035
 30
0.0
 10
240.4469405854468
 20
28.8962944057427
 30
0.0
 10
240.3549732694087
 20
28.46026773425296
 30
0.0
 10
240.2624193753635
 20
28.19207485163038
 30
0.0
 10
240.1988367514748
 20
28.0458237407959
 30
0.0
 10
240.1271912474392
 20
27.91490340895003
 30
0.0
 10
240.0469364731266
 20
27.79945707649943
 30
0.0
 10
239.9585348135325
 20
27.69793507205448
 30
0.0
 10
239.8921781596207
 20
27.64293619509191
 30
0.0
 10
239.8589539177352
 20
27.61539870059948
 30
0.0
  0
LWPOLYLINE
  5
1F5
330
1F
100
AcDbEntity
  8
0
  6
Continuous
 62
     7
370
    15
100
AcDbPolyline
 90
       27
 70
   128
 43
0.0
 10
239.858349502
 20
32.770094109
 10
240.0889875165
 20
33.9705904454
 10
240.3977736138
 20
35.1895348201
 10
240.7824484195
 20
36.4180082698
 10
241.2401972845
 20
37.6470221072
 10
241.7676708801
 20
38.8675836912
 10
242.3610097049
 20
40.0707622254
 10
243.0158723244
 20
41.2477541044
 10
243.7274671368
 20
42.3899473295
 10
244.4905874339
 20
43.4889845221
 10
245.2996494973
 20
44.5368240747
 10
246.1487334548
 20
45.5257989904
 10
247.0316265959
 20
46.4486729825
 10
247.9418688294
 20
47.2986934219
 10
248.8727999523
 20
48.0696407456
 10
249.8176083818
 20
48.7558739655
 10
250.7693809955
 20
49.3523719427
 10
251.7211537141
 20
49.8547701273
 10
252.6659624578
 20
50.2593924934
 10
253.5968941018
 20
50.5632784367
 10
254.5071370596
 20
50.7642044368
 10
255.3900311226
 20
50.8607003268
 10
256.2391161932
 20
50.8520600506
 10
257.0481795525
 20
50.7383468287
 10
257.811301319
 20
50.5203926957
 10
258.5228977636
 20
50.1997924126
 10
258.6437553637
 20
50.1321320214
  0
LWPOLYLINE
  5
1F6
330
1F
100
AcDbEntity
  8
0
  6
Continuous
 62
     7
370
    15
100
AcDbPolyline
 90
       59
 70
   128
 43
0.0
 10
260.0943660211
 20
38.9066362051
 10
259.3642523711
 20
38.439438563
 10
258.642698636
 20
37.8862943791
 10
257.9381643738
 20
37.2536887633
 10
257.2589096045
 20
36.5490384379
 10
256.6128979691
 20
35.7806047837
 10
256.0077033636
 20
34.9573969828
 10
255.4504211412
 20
34.089066394
 10
254.9475849266
 20
33.1857933995
 10
254.5050900145
 20
32.2581680493
 10
254.1281242533
 20
31.3170659025
 10
253.8211072218
 20
30.3735205213
 10
253.587638414
 20
29.4385941126
 10
253.4304550383
 20
28.5232478337
 10
253.351399926
 20
27.6382132828
 10
253.351399926
 20
26.7938666809
 10
253.4304550383
 20
26.0001072199
 10
253.587638414
 20
25.2662410037
 10
253.8211072218
 20
24.6008719427
 10
254.1281242533
 20
24.0118008809
 10
254.5050900145
 20
23.5059341377
 10
254.9475849266
 20
23.0892025383
 10
255.4504211412
 20
22.7664918796
 10
256.0077033636
 20
22.5415856491
 10
256.6128979691
 20
22.4171206666
 10
257.2589096045
 20
22.3945561704
 10
257.9381643738
 20
22.4741567084
 10
258.642698636
 20
22.6549890372
 10
259.3642523711
 20
22.934933063
 10
260.0943660211
 20
23.3107066981
 10
260.8244796711
 20
23.7779043402
 10
261.5460334062
 20
24.331048524
 10
262.2505676684
 20
24.9636541399
 10
262.9298224377
 20
25.6683044653
 10
263.5758340731
 20
26.4367381194
 10
264.1810286786
 20
27.2599459203
 10
264.738310901
 20
28.1282765091
 10
265.2411471156
 20
29.0315495036
 10
265.6836420277
 20
29.9591748538
 10
266.0606077889
 20
30.9002770007
 10
266.3676248204
 20
31.8438223819
 10
266.6010936281
 20
32.7787487906
 10
266.7582770039
 20
33.6940950695
 10
266.8373321162
 20
34.5791296203
 10
266.8373321162
 20
35.4234762222
 10
266.7582770039
 20
36.2172356832
 10
266.6010936281
 20
36.9511018994
 10
266.3676248204
 20
37.6164709604
 10
266.0606077889
 20
38.2055420223
 10
265.6836420277
 20
38.7114087655
 10
265.2411471156
 20
39.1281403649
 10
264.738310901
 20
39.4508510236
 10
264.1810286786
 20
39.6757572541
 10
263.5758340731
 20
39.8002222365
 10
262.9298224377
 20
39.8227867328
 10
262.2505676684
 20
39.7431861948
 10
261.5460334062
 20
39.562353866
 10
260.8244796711
 20
39.2824098402
 10
260.0943660211
 20
38.9066362051
  0
LWPOLYLINE
  5
1F7
330
1F
100
AcDbEntity
  8
0
  6
Continuous
 62
     7
370
    15
100
AcDbPolyline
 90
       31
 70
   128
 43
0.0
 10
259.9529446649
 20
39.1515851786
 10
259.2075406766
 20
38.6746032927
 10
258.4708758686
 20
38.1098749375
 10
257.7515869621
 20
37.4640210365
 10
257.058106962
 20
36.7446136362
 10
256.3985662872
 20
35.9600871306
 10
255.7806974491
 20
35.1196393758
 10
255.2117443948
 20
34.2331238532
 10
254.6983775788
 20
33.3109341468
 10
254.2466157576
 20
32.3638820877
 10
253.8617554255
 20
31.4030709954
 10
253.5483087179
 20
30.4397655015
 10
253.3099505111
 20
29.4852594821
 10
253.1494753369
 20
28.5507436476
 10
253.0687646201
 20
27.6471743418
 10
253.0687646201
 20
26.7851450885
 10
253.1494753369
 20
25.9747623927
 10
253.3099505111
 20
25.2255272506
 10
253.5483087179
 20
24.546223759
 10
253.8617554255
 20
23.9448161303
 10
254.2466157576
 20
23.4283553193
 10
254.6983775788
 20
23.0028963565
 10
255.2117443948
 20
22.6734273594
 10
255.7806974491
 20
22.4438110508
 10
256.3985662872
 20
22.3167394718
 10
257.058106962
 20
22.2937024207
 10
257.7515869621
 20
22.3749699857
 10
258.4708758686
 20
22.5595893789
 10
259.2075406766
 20
22.8453961069
 10
259.9529446649
 20
23.2290393469
 10
259.9540651811
 20
23.2296863123
  0
LWPOLYLINE
  5
1F8
330
1F
100
AcDbEntity
  8
0
  6
Continuous
 62
     7
370
    15
100
AcDbPolyline
 90
       16
 70
   128
 43
0.0
 10
266.8472357814
 20
35.1703018079
 10
266.8371247096
 20
35.595479437
 10
266.7564139928
 20
36.4058621328
 10
266.5959388187
 20
37.155097275
 10
266.3575806118
 20
37.8344007665
 10
266.0441339043
 20
38.4358083952
 10
265.6592735721
 20
38.9522692063
 10
265.2075117509
 20
39.377728169
 10
264.6941449349
 20
39.7071971661
 10
264.1251918806
 20
39.9368134747
 10
263.5073230425
 20
40.0638850537
 10
262.8477823677
 20
40.0869221048
 10
262.1543023676
 20
40.0056545398
 10
261.4350134611
 20
39.8210351466
 10
260.6983486531
 20
39.5352284187
 10
259.9529446649
 20
39.1515851786
  0
SPLINE
  5
1F9
330
1F
100
AcDbEntity
  8
0
  6
Continuous
 62
     7
370
    15
100
AcDbSpline
210
0.0
220
0.0
230
1.0
 70
    11
 71
     3
 72
    77
 73
    73
 74
     0
 42
0.000000001
 43
0.00000001
 40
0.0
 40
0.0
 40
0.0
 40
0.0
 40
0.0312499999999998
 40
0.0312499999999998
 40
0.0624999999999996
 40
0.0624999999999996
 40
0.0937499999999994
 40
0.0937499999999994
 40
0.1249999999999991
 40
0.1249999999999991
 40
0.1562499999999989
 40
0.1562499999999989
 40
0.1874999999999987
 40
0.1874999999999987
 40
0.2187499999999985
 40
0.2187499999999985
 40
0.2499999999999983
 40
0.2499999999999983
 40
0.2812499999999981
 40
0.2812499999999981
 40
0.3124999999999978
 40
0.3124999999999978
 40
0.3437499999999976
 40
0.3437499999999976
 40
0.3593749999999975
 40
0.3593749999999975
 40
0.3749999999999974
 40
0.3906249999999973
 40
0.3906249999999973
 40
0.4062499999999972
 40
0.4062499999999972
 40
0.4374999999999971
 40
0.4374999999999971
 40
0.468749999999997
 40
0.468749999999997
 40
0.4999999999999969
 40
0.4999999999999969
 40
0.5312499999999968
 40
0.5312499999999968
 40
0.5624999999999967
 40
0.5624999999999967
 40
0.5937499999999966
 40
0.5937499999999966
 40
0.6249999999999964
 40
0.6249999999999964
 40
0.6562499999999963
 40
0.6562499999999963
 40
0.6874999999999962
 40
0.6874999999999962
 40
0.7187499999999961
 40
0.7187499999999961
 40
0.749999999999996
 40
0.749999999999996
 40
0.7656249999999963
 40
0.7656249999999963
 40
0.7812499999999966
 40
0.7812499999999966
 40
0.812499999999997
 40
0.812499999999997
 40
0.8437499999999974
 40
0.8437499999999974
 40
0.8749999999999979
 40
0.8749999999999979
 40
0.8906249999999981
 40
0.8906249999999981
 40
0.9062499999999983
 40
0.9062499999999983
 40
0.9374999999999989
 40
0.9374999999999989
 40
0.9687499999999994
 40
0.9687499999999994
 40
1.0
 40
1.0
 40
1.0
 40
1.0
 10
256.5271015587656
 20
42.31292867465275
 30
0.0
 10
256.6749654102685
 20
42.29190521412698
 30
0.0
 10
256.8190961921518
 20
42.26343177477935
 30
0.0
 10
257.1006930697085
 20
42.19416366894261
 30
0.0
 10
257.2390844579585
 20
42.15301735152478
 30
0.0
 10
257.5048496524622
 20
42.06067894454566
 30
0.0
 10
257.630570805703
 20
42.01017195805898
 30
0.0
 10
257.8683123947939
 20
41.90149894514013
 30
0.0
 10
257.9812890685474
 20
41.84272111917819
 30
0.0
 10
258.1871640267519
 20
41.72065866645306
 30
0.0
 10
258.2801053343163
 20
41.65754452243883
 30
0.0
 10
258.4461524729745
 20
41.52687800074348
 30
0.0
 10
258.519798685471
 20
41.45861585370108
 30
0.0
 10
258.6415747810563
 20
41.32102445900417
 30
0.0
 10
258.6901760381197
 20
41.2515729010377
 30
0.0
 10
258.7621859732872
 20
41.11011612055695
 30
0.0
 10
258.7855491257626
 20
41.03733757719214
 30
0.0
 10
258.8032232585031
 20
40.89325213252832
 30
0.0
 10
258.798048942298
 20
40.82154471864745
 30
0.0
 10
258.757821649367
 20
40.67730258866001
 30
0.0
 10
258.7220065582102
 20
40.60418213192963
 30
0.0
 10
258.6213068707077
 20
40.46327868387476
 30
0.0
 10
258.5564381676388
 20
40.39462045184484
 30
0.0
 10
258.435514583293
 20
40.29385863853297
 30
0.0
 10
258.3911808721171
 20
40.26067470899496
 30
0.0
 10
258.2970019799836
 20
40.19696271621297
 30
0.0
 10
258.1967407571062
 20
40.13539926996874
 30
0.0
 10
258.08444421467
 20
40.07805995558261
 30
0.0
 10
257.9660019670026
 20
40.02290545992158
 30
0.0
 10
257.9036394872082
 20
39.99643480184598
 30
0.0
 10
257.7123540125308
 20
39.92247348788688
 30
0.0
 10
257.5777065759856
 20
39.8795844429342
 30
0.0
 10
257.2946233581599
 20
39.80708338684179
 30
0.0
 10
257.1492724496781
 20
39.77836324481456
 30
0.0
 10
256.8563616505956
 20
39.73684130597734
 30
0.0
 10
256.7066217296359
 20
39.72388179880824
 30
0.0
 10
256.4132390326205
 20
39.71512267072285
 30
0.0
 10
256.2688624353536
 20
39.71906920931868
 30
0.0
 10
255.9844021260408
 20
39.74430293394099
 30
0.0
 10
255.845470081958
 20
39.76566719667976
 30
0.0
 10
255.5814825030271
 20
39.82483897807644
 30
0.0
 10
255.4552201861059
 20
39.86273621215854
 30
0.0
 10
255.2143139605088
 20
39.95615608767994
 30
0.0
 10
255.1027736500774
 20
40.01051219168613
 30
0.0
 10
254.8977310252076
 20
40.13357901401797
 30
0.0
 10
254.803770752279
 20
40.20261238377267
 30
0.0
 10
254.6356742459788
 20
40.35460671882454
 30
0.0
 10
254.5633832497998
 20
40.43578702499762
 30
0.0
 10
254.441866550346
 20
40.60760145253558
 30
0.0
 10
254.3923998591181
 20
40.69884788504082
 30
0.0
 10
254.3197011813601
 20
40.88784308579908
 30
0.0
 10
254.2969551140527
 20
40.98382851240586
 30
0.0
 10
254.2835697786336
 20
41.1291222827033
 30
0.0
 10
254.2825878988132
 20
41.1777743236949
 30
0.0
 10
254.2879718173982
 20
41.27537632783423
 30
0.0
 10
254.29442305963
 20
41.32461963734902
 30
0.0
 10
254.3249721163166
 20
41.46934622203467
 30
0.0
 10
254.3599833887575
 20
41.56240826199161
 30
0.0
 10
254.460569281836
 20
41.74020634547302
 30
0.0
 10
254.5274761797592
 20
41.82594673895229
 30
0.0
 10
254.6880776061693
 20
41.97892778432848
 30
0.0
 10
254.7817019797233
 20
42.04697709441837
 30
0.0
 10
254.9429408465636
 20
42.13567063060604
 30
0.0
 10
255.0001459729313
 20
42.16289859393645
 30
0.0
 10
255.1183588383705
 20
42.21138978626441
 30
0.0
 10
255.179738695622
 20
42.23287198260535
 30
0.0
 10
255.3705285850761
 20
42.28934146794656
 30
0.0
 10
255.5082191123927
 20
42.31646854281139
 30
0.0
 10
255.7897834437256
 20
42.34880875084973
 30
0.0
 10
255.93426620874
 20
42.35449222876629
 30
0.0
 10
256.2304622798284
 20
42.34705607532987
 30
0.0
 10
256.3792377072627
 20
42.33395213517851
 30
0.0
 10
256.5271015587656
 20
42.31292867465274
 30
0.0
  0
LINE
  5
1FA
330
1F
100
AcDbEntity
  8
0
  6
Continuous
 62
     7
370
    15
100
AcDbLine
 10
263.7940066637
 20
31.0179030163
 30
0.0
 11
265.17139271
 21
32.7313581633
 31
0.0
  0
SPLINE
  5
1FB
330
1F
100
AcDbEntity
  8
0
  6
Continuous
 62
     7
370
    15
100
AcDbSpline
210
0.0
220
0.0
230
1.0
 70
     8
 71
     3
 72
    22
 73
    18
 74
     0
 42
0.000000001
 43
0.00000001
 40
0.0
 40
0.0
 40
0.0
 40
0.0
 40
0.0500000000000153
 40
0.1
 40
0.15
 40
0.2
 40
0.2500000000000001
 40
0.2968749999999255
 40
0.34375
 40
0.3906249999999999
 40
0.4374999999999989
 40
0.515352885058417
 40
0.515352885058417
 40
0.53125
 40
0.6249999999995608
 40
0.8125
 40
0.8824198414282379
 40
0.8824198414282379
 40
0.8824198414282379
 40
0.8824198414282379
 10
265.1713927100157
 20
32.73135816333031
 30
0.0
 10
265.2371308989499
 20
32.81313584540327
 30
0.0
 10
265.3658856122269
 20
32.99113873645548
 30
0.0
 10
265.5421907018106
 20
33.29650370530268
 30
0.0
 10
265.6908987598355
 20
33.63507472498312
 30
0.0
 10
265.797586353529
 20
33.99086139041685
 30
0.0
 10
265.8481338465037
 20
34.33447158714979
 30
0.0
 10
265.8392049710755
 20
34.64458088567724
 30
0.0
 10
265.7741762864596
 20
34.90489968980803
 30
0.0
 10
265.6579780279634
 20
35.10904465138535
 30
0.0
 10
265.4661305237822
 20
35.28187000022002
 30
0.0
 10
265.2909014125908
 20
35.33610559380701
 30
0.0
 10
265.1539543321461
 20
35.3491914183322
 30
0.0
 10
265.0060136918091
 20
35.36305003391801
 30
0.0
 10
264.6693357793944
 20
35.39228364131981
 30
0.0
 10
264.4413921198868
 20
35.41307673020872
 30
0.0
 10
263.9411756520647
 20
35.45782917775713
 30
0.0
 10
263.7939858640367
 20
35.47098812966028
 30
0.0
  0
SPLINE
  5
1FC
330
1F
100
AcDbEntity
  8
0
  6
Continuous
 62
     7
370
    15
100
AcDbSpline
210
0.0
220
0.0
230
1.0
 70
     8
 71
     3
 72
    22
 73
    18
 74
     0
 42
0.000000001
 43
0.00000001
 40
0.0
 40
0.0
 40
0.0
 40
0.0
 40
0.0500000000000153
 40
0.1
 40
0.15
 40
0.2
 40
0.2500000000000001
 40
0.2968749999999255
 40
0.34375
 40
0.3906249999999999
 40
0.4374999999999989
 40
0.515352885058417
 40
0.515352885058417
 40
0.53125
 40
0.6249999999995608
 40
0.8125
 40
0.8812161579343126
 40
0.8812161579343126
 40
0.8812161579343126
 40
0.8812161579343126
 10
255.0173393321799
 20
26.86954792044502
 30
0.0
 10
254.9525704906902
 20
26.87533923087632
 30
0.0
 10
254.8223965544784
 20
26.90481199499957
 30
0.0
 10
254.6466618834342
 20
27.0065684324186
 30
0.0
 10
254.4978009856536
 20
27.17345846313118
 30
0.0
 10
254.3911543324433
 20
27.40606254184533
 30
0.0
 10
254.3405961448371
 20
27.69131299273052
 30
0.0
 10
254.3495272445801
 20
28.01173048238186
 30
0.0
 10
254.4145570643961
 20
28.34713217249878
 30
0.0
 10
254.5307486061315
 20
28.68542817833666
 30
0.0
 10
254.7226275105516
 20
29.0797950782999
 30
0.0
 10
254.8977355488583
 20
29.33619527089545
 30
0.0
 10
255.0347409066846
 20
29.50746931729623
 30
0.0
 10
255.182785357444
 20
29.69226569049216
 30
0.0
 10
255.5206085922092
 20
30.11164412416057
 30
0.0
 10
255.7395897978445
 20
30.38446473661442
 30
0.0
 10
256.2481251706998
 20
31.01710462845731
 30
0.0
 10
256.3947462404613
 20
31.19949815422809
 30
0.0
  0
LINE
  5
1FD
330
1F
100
AcDbEntity
  8
0
  6
Continuous
 62
     7
370
    15
100
AcDbLine
 10
256.3947253785
 20
26.7463888521
 30
0.0
 11
255.0173393322
 21
26.8695479204
 31
0.0
  0
SPLINE
  5
1FE
330
1F
100
AcDbEntity
  8
0
  6
Continuous
 62
     7
370
    15
100
AcDbSpline
210
0.0
220
0.0
230
1.0
 70
     8
 71
     3
 72
     8
 73
     4
 74
     0
 42
0.000000001
 43
0.00000001
 40
0.0
 40
0.0
 40
0.0
 40
0.0
 40
1.0
 40
1.0
 40
1.0
 40
1.0
 10
239.0804131049426
 20
36.0488712359493
 30
0.0
 10
238.3873418698897
 20
35.93300961757458
 30
0.0
 10
237.6937211034935
 20
35.81825092442153
 30
0.0
 10
236.9997419426661
 20
35.70423937678338
 30
0.0
  0
SPLINE
  5
1FF
330
1F
100
AcDbEntity
  8
0
  6
Continuous
 62
     7
370
    15
100
AcDbSpline
210
0.0
220
0.0
230
1.0
 70
     8
 71
     3
 72
     8
 73
     4
 74
     0
 42
0.000000001
 43
0.00000001
 40
0.0
 40
0.0
 40
0.0
 40
0.0
 40
0.0012389803509652
 40
0.0012389803509652
 40
0.0012389803509652
 40
0.0012389803509652
 10
236.5260055285206
 20
35.97777349753737
 30
0.0
 10
236.6840788635016
 20
35.88650241708687
 30
0.0
 10
236.8419970424676
 20
35.79532088998662
 30
0.0
 10
236.9997419426661
 20
35.70423937678338
 30
0.0
  0
LWPOLYLINE
  5
200
330
1F
100
AcDbEntity
  8
0
  6
Continuous
 62
     7
370
    15
100
AcDbPolyline
 90
       28
 70
   128
 43
0.0
 10
236.5260055285
 20
35.9777734975
 10
236.8328210062
 20
37.1991738846
 10
237.2159799284
 20
38.4304553691
 10
237.6726651276
 20
39.6625649812
 10
238.199518836
 20
40.8864436623
 10
238.7926673734
 20
42.0930928715
 10
239.4477496283
 20
43.2736407472
 10
240.159949123
 20
44.4194073375
 10
240.9240294265
 20
45.5219684188
 10
241.7343726553
 20
46.5732174352
 10
242.5850207787
 20
47.5654251017
 10
243.4697194254
 20
48.4912962334
 10
244.381963868
 20
49.3440233832
 10
245.3150468497
 20
50.1173368938
 10
246.2621078984
 20
50.8055509948
 10
247.2161837687
 20
51.4036056071
 10
248.1702596391
 20
51.9071035475
 10
249.1173206878
 20
52.3123428586
 10
250.0504036695
 20
52.6163440273
 10
250.9626481121
 20
52.8168718918
 10
251.8473467588
 20
52.9124520753
 10
252.6979948822
 20
52.9023818268
 10
253.508338111
 20
52.7867351875
 10
254.2724184145
 20
52.5663624467
 10
254.9846179092
 20
52.2428838901
 10
255.6397001641
 20
51.8186778867
 10
256.2328487015
 20
51.2968634016
 10
256.6641807868
 20
50.8061543612
  0
LINE
  5
201
330
1F
100
AcDbEntity
  8
0
  6
Continuous
 62
     7
370
    15
100
AcDbLine
 10
233.4942852042
 20
37.7279483873
 30
0.0
 11
236.5260055285
 21
35.9777734975
 31
0.0
  0
ARC
  5
202
330
1F
100
AcDbEntity
  8
0
  6
Continuous
 62
     7
370
    15
100
AcDbCircle
 10
249.3903131958
 20
49.3018151937
 30
0.0
 40
5.345442014542717
100
AcDbArc
 50
60.0521018067
 51
74.8717882147
  0
SPLINE
  5
203
330
1F
100
AcDbEntity
  8
0
  6
Continuous
 62
     7
370
    15
100
AcDbSpline
210
0.0
220
0.0
230
1.0
 70
     8
 71
     3
 72
    13
 73
     9
 74
     0
 42
0.000000001
 43
0.00000001
 40
0.0
 40
0.0
 40
0.0
 40
0.0
 40
0.1816492558368489
 40
0.3706247117732792
 40
0.5261459199739406
 40
0.6861748963964204
 40
0.8417493105965237
 40
1.0
 40
1.0
 40
1.0
 40
1.0
 10
254.92895098453
 20
27.19941071298783
 30
0.0
 10
254.8676090314663
 20
27.21038288078344
 30
0.0
 10
254.7424511079223
 20
27.23276974115367
 30
0.0
 10
254.5961604231691
 20
27.33281939700868
 30
0.0
 10
254.4826737618168
 20
27.46922462816417
 30
0.0
 10
254.4050119982274
 20
27.6320424384902
 30
0.0
 10
254.3548995573561
 20
27.82356500909714
 30
0.0
 10
254.34966194721
 20
27.96894176600733
 30
0.0
 10
254.3470208091782
 20
28.04225002509848
 30
0.0
  0
SPLINE
  5
204
330
1F
100
AcDbEntity
  8
0
  6
Continuous
 62
     7
370
    15
100
AcDbSpline
210
0.0
220
0.0
230
1.0
 70
     8
 71
     3
 72
    12
 73
     8
 74
     0
 42
0.000000001
 43
0.00000001
 40
0.0
 40
0.0
 40
0.0
 40
0.0
 40
0.0003281181748672
 40
0.1349683923211416
 40
0.3633516555570322
 40
0.7939070223196514
 40
1.0
 40
1.0
 40
1.0
 40
1.0
 10
256.5684143417084
 20
31.44254320039846
 30
0.0
 10
256.5684136054441
 20
31.442533545853
 30
0.0
 10
256.5681107498943
 20
31.43856223740164
 30
0.0
 10
256.5538414167062
 20
31.41369437916062
 30
0.0
 10
256.5152800177433
 20
31.35440838964013
 30
0.0
 10
256.4555916665157
 20
31.27578704279081
 30
0.0
 10
256.4096260318058
 20
31.21815465509155
 30
0.0
 10
256.3947462404564
 20
31.19949815422189
 30
0.0
  0
LINE
  5
205
330
1F
100
AcDbEntity
  8
0
  6
Continuous
 62
     7
370
    15
100
AcDbLine
 10
239.4830085074
 20
35.9877088452
 30
0.0
 11
239.4736858565
 21
35.993090697
 31
0.0
  0
SPLINE
  5
206
330
1F
100
AcDbEntity
  8
0
  6
Continuous
 62
     7
370
    15
100
AcDbSpline
210
0.0
220
0.0
230
1.0
 70
     8
 71
     3
 72
    10
 73
     6
 74
     0
 42
0.000000001
 43
0.00000001
 40
0.0
 40
0.0
 40
0.0
 40
0.0
 40
0.2398639368755726
 40
0.7127525402339082
 40
1.0
 40
1.0
 40
1.0
 40
1.0
 10
240.3989670737996
 20
35.18677455616503
 30
0.0
 10
240.3335116554656
 20
35.26728489828073
 30
0.0
 10
240.1390117389824
 20
35.50652032318679
 30
0.0
 10
239.8265665807187
 20
35.77180456035482
 30
0.0
 10
239.5772301384333
 20
35.9284965738612
 30
0.0
 10
239.4830085074016
 20
35.98770884522791
 30
0.0
  0
SPLINE
  5
207
330
1F
100
AcDbEntity
  8
0
  6
Continuous
 62
     7
370
    15
100
AcDbSpline
210
0.0
220
0.0
230
1.0
 70
     8
 71
     3
 72
    16
 73
    12
 74
     0
 42
0.000000001
 43
0.00000001
 40
0.0
 40
0.0
 40
0.0
 40
0.0
 40
0.2500000000000019
 40
0.2500000000000019
 40
0.5000000000000038
 40
0.5000000000000038
 40
0.6250000000000028
 40
0.6250000000000028
 40
0.7500000000000019
 40
0.7500000000000019
 40
1.0
 40
1.0
 40
1.0
 40
1.0
 10
263.7939858640368
 20
35.47098812966028
 30
0.0
 10
263.7624963949511
 20
35.47380332774369
 30
0.0
 10
263.7284908825605
 20
35.47525242542122
 30
0.0
 10
263.6515893993513
 20
35.47332385800798
 30
0.0
 10
263.6086355834647
 20
35.47016853153127
 30
0.0
 10
263.5350414021623
 20
35.45637545089544
 30
0.0
 10
263.5089980537592
 20
35.45004355053486
 30
0.0
 10
263.4606984284174
 20
35.43446538013521
 30
0.0
 10
263.4385488295163
 20
35.42524963340965
 30
0.0
 10
263.3835681198507
 20
35.39716748765885
 30
0.0
 10
263.3614947202462
 20
35.37880322292677
 30
0.0
 10
263.345004862194
 20
35.36163106295872
 30
0.0
  0
SPLINE
  5
208
330
1F
100
AcDbEntity
  8
0
  6
Continuous
 62
     7
370
    15
100
AcDbSpline
210
0.0
220
0.0
230
1.0
 70
     8
 71
     3
 72
     8
 73
     4
 74
     0
 42
0.000000001
 43
0.00000001
 40
0.0
 40
0.0
 40
0.0
 40
0.0
 40
1.0
 40
1.0
 40
1.0
 40
1.0
 10
263.345004862194
 20
35.36163106295857
 30
0.0
 10
263.2946293417836
 20
35.38080375645948
 30
0.0
 10
263.2430895675814
 20
35.40352685735249
 30
0.0
 10
263.2042194298256
 20
35.42596611024595
 30
0.0
  0
LINE
  5
209
330
1F
100
AcDbEntity
  8
0
  6
Continuous
 62
     7
370
    15
100
AcDbLine
 10
261.7839779824
 20
36.2458540461
 30
0.0
 11
263.2042194298
 21
35.4259661102
 31
0.0
  0
ARC
  5
20A
330
1F
100
AcDbEntity
  8
0
  6
Continuous
 62
     7
370
    15
100
AcDbCircle
 10
253.44537882
 20
35.5690410129
 30
0.0
 40
6.784886396809177
100
AcDbArc
 50
338.0718028059
 51
2.447460801
  0
LINE
  5
20B
330
1F
100
AcDbEntity
  8
0
  6
Continuous
 62
     7
370
    15
100
AcDbLine
 10
259.739396202
 20
33.0352634748
 30
0.0
 11
263.2042194298
 21
31.0350636009
 31
0.0
  0
LINE
  5
20C
330
1F
100
AcDbEntity
  8
0
  6
Continuous
 62
     7
370
    15
100
AcDbLine
 10
254.4148103479
 20
28.2748343339
 30
0.0
 11
256.4188271874
 21
27.1179400376
 31
0.0
  0
SPLINE
  5
20D
330
1F
100
AcDbEntity
  8
0
  6
Continuous
 62
     7
370
    15
100
AcDbSpline
210
0.0
220
0.0
230
1.0
 70
     8
 71
     3
 72
    10
 73
     6
 74
     0
 42
0.000000001
 43
0.00000001
 40
0.0
 40
0.0
 40
0.0
 40
0.0
 40
0.5
 40
0.5
 40
1.0
 40
1.0
 40
1.0
 40
1.0
 10
239.4736858564945
 20
35.99309069704064
 30
0.0
 10
239.4238852576817
 20
36.02183997078976
 30
0.0
 10
239.3588533409378
 20
36.04260331615043
 30
0.0
 10
239.2217949805923
 20
36.06155700553821
 30
0.0
 10
239.1482561405425
 20
36.0602126443104
 30
0.0
 10
239.0804131049426
 20
36.04887123594931
 30
0.0
  0
SPLINE
  5
20E
330
1F
100
AcDbEntity
  8
0
  6
Continuous
 62
     7
370
    15
100
AcDbSpline
210
0.0
220
0.0
230
1.0
 70
     8
 71
     3
 72
     8
 73
     4
 74
     0
 42
0.000000001
 43
0.00000001
 40
0.0
 40
0.0
 40
0.0
 40
0.0
 40
1.0
 40
1.0
 40
1.0
 40
1.0
 10
233.3374605966222
 20
37.81847006644616
 30
0.0
 10
233.3598393931416
 20
37.80555811499432
 30
0.0
 10
233.4140268241588
 20
37.77428056383729
 30
0.0
 10
233.4942852041833
 20
37.72794838725731
 30
0.0
  0
LINE
  5
20F
330
1F
100
AcDbEntity
  8
0
  6
Continuous
 62
     7
370
    15
100
AcDbLine
 10
233.3374605966
 20
37.8184700664
 30
0.0
 11
233.3615611187
 21
37.9710269601
 31
0.0
  0
SPLINE
  5
210
330
1F
100
AcDbEntity
  8
0
  6
Continuous
 62
     7
370
    15
100
AcDbSpline
210
0.0
220
0.0
230
1.0
 70
     8
 71
     3
 72
    11
 73
     7
 74
     0
 42
0.000000001
 43
0.00000001
 40
0.0
 40
0.0
 40
0.0
 40
0.0
 40
0.3095641458094145
 40
0.5897803711570421
 40
0.8409900224186585
 40
1.0
 40
1.0
 40
1.0
 40
1.0
 10
239.9669935924013
 20
28.34152743935999
 30
0.0
 10
240.057989555379
 20
28.43300165577335
 30
0.0
 10
240.2313546997126
 20
28.60727796663781
 30
0.0
 10
240.3816876834119
 20
29.0257437916349
 30
0.0
 10
240.4559684225108
 20
29.43889301981709
 30
0.0
 10
240.4635130544456
 20
29.73592427142182
 30
0.0
 10
240.4664375165397
 20
29.85105999223519
 30
0.0
  0
SPLINE
  5
211
330
1F
100
AcDbEntity
  8
0
  6
Continuous
 62
     7
370
    15
100
AcDbSpline
210
0.0
220
0.0
230
1.0
 70
     8
 71
     3
 72
     9
 73
     5
 74
     0
 42
0.000000001
 43
0.00000001
 40
0.0
 40
0.0
 40
0.0
 40
0.0
 40
0.5067661695379747
 40
1.0
 40
1.0
 40
1.0
 40
1.0
 10
239.8582721279289
 20
27.61489667281583
 30
0.0
 10
239.8765411452403
 20
27.73735102664583
 30
0.0
 10
239.9125913364519
 20
27.97898979653775
 30
0.0
 10
239.9492720758887
 20
28.22114019466692
 30
0.0
 10
239.9673642575053
 20
28.34057696308408
 30
0.0
  0
SPLINE
  5
212
330
1F
100
AcDbEntity
  8
0
  6
Continuous
 62
     7
370
    15
100
AcDbSpline
210
0.0
220
0.0
230
1.0
 70
     8
 71
     3
 72
    10
 73
     6
 74
     0
 42
0.000000001
 43
0.00000001
 40
0.0
 40
0.0
 40
0.0
 40
0.0
 40
0.4807908150150776
 40
0.9757817590329644
 40
0.9999999999999999
 40
0.9999999999999999
 40
0.9999999999999999
 40
0.9999999999999999
 10
239.4830085074016
 20
29.41455530954763
 30
0.0
 10
239.6327994543018
 20
29.33438493418559
 30
0.0
 10
239.9368054150833
 20
29.17167635604721
 30
0.0
 10
240.2264208592818
 20
29.06017492532573
 30
0.0
 10
240.3607592899605
 20
29.03194330784646
 30
0.0
 10
240.3670254358212
 20
29.03062645880993
 30
0.0
  0
LINE
  5
213
330
1F
100
AcDbEntity
  8
0
  6
Continuous
 62
     7
370
    15
100
AcDbLine
 10
256.4901737894
 20
27.0598138682
 30
0.0
 11
254.9289509845
 21
27.199410713
 31
0.0
  0
SPLINE
  5
214
330
1F
100
AcDbEntity
  8
0
  6
Continuous
 62
     7
370
    15
100
AcDbSpline
210
0.0
220
0.0
230
1.0
 70
     8
 71
     3
 72
    16
 73
    12
 74
     0
 42
0.000000001
 43
0.00000001
 40
0.0
 40
0.0
 40
0.0
 40
0.0
 40
0.2500000000000019
 40
0.2500000000000019
 40
0.5000000000000038
 40
0.5000000000000038
 40
0.6250000000000028
 40
0.6250000000000028
 40
0.7500000000000019
 40
0.7500000000000019
 40
1.0
 40
1.0
 40
1.0
 40
1.0
 10
256.3947253784671
 20
26.74638885206681
 30
0.0
 10
256.4257741325412
 20
26.74361262557869
 30
0.0
 10
256.4564478562914
 20
26.74425996231346
 30
0.0
 10
256.5129273862607
 20
26.75836080396159
 30
0.0
 10
256.539494773454
 20
26.7712788847203
 30
0.0
 10
256.5647166963802
 20
26.81333480307721
 30
0.0
 10
256.5700873236012
 20
26.83146273001622
 30
0.0
 10
256.5711165972385
 20
26.87412857134202
 30
0.0
 10
256.5667173027638
 20
26.89859045465469
 30
0.0
 10
256.5435905066603
 20
26.97145585157849
 30
0.0
 10
256.517563057684
 20
27.01753011143947
 30
0.0
 10
256.4901737893927
 20
27.05981386815558
 30
0.0
  0
SPLINE
  5
215
330
1F
100
AcDbEntity
  8
0
  6
Continuous
 62
     7
370
    15
100
AcDbSpline
210
0.0
220
0.0
230
1.0
 70
     8
 71
     3
 72
     8
 73
     4
 74
     0
 42
0.000000001
 43
0.00000001
 40
0.0
 40
0.0
 40
0.0
 40
0.0
 40
1.0
 40
1.0
 40
1.0
 40
1.0
 10
256.4188271874198
 20
27.1179400376358
 30
0.0
 10
256.4577832697999
 20
27.09545116996678
 30
0.0
 10
256.4802652435915
 20
27.07559692829591
 30
0.0
 10
256.4901737893927
 20
27.05981386815563
 30
0.0
  0
SPLINE
  5
216
330
1F
100
AcDbEntity
  8
0
  6
Continuous
 62
     7
370
    15
100
AcDbSpline
210
0.0
220
0.0
230
1.0
 70
     8
 71
     3
 72
     8
 73
     4
 74
     0
 42
0.000000001
 43
0.00000001
 40
0.0
 40
0.0
 40
0.0
 40
0.0
 40
1.0
 40
1.0
 40
1.0
 40
1.0
 10
263.2042194298265
 20
31.03506360085774
 30
0.0
 10
263.2431755122067
 20
31.01257473318869
 30
0.0
 10
263.2938438356742
 20
31.00899212483426
 30
0.0
 10
263.3450048622095
 20
31.01702361491489
 30
0.0
  0
SPLINE
  5
217
330
1F
100
AcDbEntity
  8
0
  6
Continuous
 62
     7
370
    15
100
AcDbSpline
210
0.0
220
0.0
230
1.0
 70
     8
 71
     3
 72
    16
 73
    12
 74
     0
 42
0.000000001
 43
0.00000001
 40
0.0
 40
0.0
 40
0.0
 40
0.0
 40
0.2500000000000009
 40
0.2500000000000009
 40
0.3750000000000008
 40
0.3750000000000008
 40
0.5000000000000007
 40
0.5000000000000007
 40
0.7500000000000003
 40
0.7500000000000003
 40
1.0
 40
1.0
 40
1.0
 40
1.0
 10
263.3450048622096
 20
31.01702361491483
 30
0.0
 10
263.3613205693559
 20
30.96848486387534
 30
0.0
 10
263.3836953863854
 20
30.91965281054189
 30
0.0
 10
263.4378300237286
 20
30.8654520151905
 30
0.0
 10
263.4597638134104
 20
30.85112397674514
 30
0.0
 10
263.5078788331823
 20
30.83663586257952
 30
0.0
 10
263.533847146885
 20
30.83651928633579
 30
0.0
 10
263.6074947604891
 20
30.85161021917749
 30
0.0
 10
263.6509152524966
 20
30.87904696884375
 30
0.0
 10
263.7281188996216
 20
30.94195492517542
 30
0.0
 10
263.7627418269958
 20
30.9790098566465
 30
0.0
 10
263.7940066637285
 20
31.01790301631267
 30
0.0
  0
LINE
  5
218
330
1F
100
AcDbEntity
  8
0
  6
Continuous
 62
     7
370
    15
100
AcDbLine
 10
233.7708938441
 20
37.5682137082
 30
0.0
 11
233.3374605966
 21
37.8184700664
 31
0.0
  0
LINE
  5
219
330
1F
100
AcDbEntity
  8
0
  6
Continuous
 62
     7
370
    15
100
AcDbLine
 10
236.9997419427
 20
35.7042393768
 30
0.0
 11
233.7708938441
 21
37.5682137082
 31
0.0
  0
SPLINE
  5
21A
330
1F
100
AcDbEntity
  8
0
  6
Continuous
 62
     7
370
    15
100
AcDbSpline
210
0.0
220
0.0
230
1.0
 70
     8
 71
     3
 72
    11
 73
     7
 74
     0
 42
0.000000001
 43
0.00000001
 40
0.0
 40
0.0
 40
0.0
 40
0.0
 40
0.216555386882733
 40
0.525496871757898
 40
0.8344760452818953
 40
1.0
 40
1.0
 40
1.0
 40
1.0
 10
235.8759587654586
 20
33.55438776246142
 30
0.0
 10
235.871240526461
 20
33.76077977481162
 30
0.0
 10
235.8597911699285
 20
34.2616140343841
 30
0.0
 10
235.7946232780385
 20
35.08039667690224
 30
0.0
 10
235.7538733180717
 20
35.84081624979144
 30
0.0
 10
235.775189201407
 20
36.27434822562542
 30
0.0
 10
235.7826249570385
 20
36.4255799517526
 30
0.0
  0
LINE
  5
21B
330
1F
100
AcDbEntity
  8
0
  6
Continuous
 62
     7
370
    15
100
AcDbLine
 10
235.8759587655
 20
33.1340324071
 30
0.0
 11
235.8759587655
 21
33.5543877625
 31
0.0
  0
SPLINE
  5
21C
330
1F
100
AcDbEntity
  8
0
  6
Continuous
 62
     7
370
    15
100
AcDbSpline
210
0.0
220
0.0
230
1.0
 70
     8
 71
     3
 72
    26
 73
    22
 74
     0
 42
0.000000001
 43
0.00000001
 40
0.0
 40
0.0
 40
0.0
 40
0.0
 40
0.1249999999999994
 40
0.1249999999999994
 40
0.1874999999999994
 40
0.1874999999999994
 40
0.2499999999999994
 40
0.2499999999999994
 40
0.3749999999999993
 40
0.3749999999999993
 40
0.4999999999999994
 40
0.4999999999999994
 40
0.6249999999999996
 40
0.6249999999999996
 40
0.6874999999999996
 40
0.6874999999999996
 40
0.7499999999999996
 40
0.7499999999999996
 40
0.8749999999999998
 40
0.8749999999999998
 40
1.0
 40
1.0
 40
1.0
 40
1.0
 10
264.9062276670722
 20
32.95916994189704
 30
0.0
 10
264.9925351961829
 20
33.06653568760036
 30
0.0
 10
265.0705331997376
 20
33.18069594638205
 30
0.0
 10
265.1741190091567
 20
33.36257800789663
 30
0.0
 10
265.2065913112804
 20
33.42544224068765
 30
0.0
 10
265.2654683563957
 20
33.55151575371059
 30
0.0
 10
265.2920077344602
 20
33.6149427534036
 30
0.0
 10
265.3630811501109
 20
33.80637819195942
 30
0.0
 10
265.3993320340373
 20
33.93731748144528
 30
0.0
 10
265.4458728870777
 20
34.18872941391936
 30
0.0
 10
265.4568403362665
 20
34.31131667440615
 30
0.0
 10
265.45420456003
 20
34.54175834308524
 30
0.0
 10
265.4408666074991
 20
34.6471605602241
 30
0.0
 10
265.403378578094
 20
34.79026508793555
 30
0.0
 10
265.3878792248184
 20
34.83532991223083
 30
0.0
 10
265.3518167307925
 20
34.91775026990316
 30
0.0
 10
265.3311353879419
 20
34.955498262655
 30
0.0
 10
265.261052601217
 20
35.05848705803989
 30
0.0
 10
265.2031035114189
 20
35.11347299196347
 30
0.0
 10
265.0694982327795
 20
35.19078237037503
 30
0.0
 10
264.9925435855894
 20
35.21431626837707
 30
0.0
 10
264.9062276719155
 20
35.22203421532456
 30
0.0
  0
LINE
  5
21D
330
1F
100
AcDbEntity
  8
0
  6
Continuous
 62
     7
370
    15
100
AcDbLine
 10
264.9062276719
 20
35.2220342153
 30
0.0
 11
263.3450048622
 21
35.361631063
 31
0.0
  0
LINE
  5
21E
330
1F
100
AcDbEntity
  8
0
  6
Continuous
 62
     7
370
    15
100
AcDbLine
 10
235.2660791667
 20
36.3694012221
 30
0.0
 11
235.2712670614
 21
36.7020666864
 31
0.0
  0
ARC
  5
21F
330
1F
100
AcDbEntity
  8
0
  6
Continuous
 62
     7
370
    15
100
AcDbCircle
 10
242.833778416
 20
36.1978313037
 30
0.0
 40
7.569643859871417
100
AcDbArc
 50
178.7012501156
 51
203.1943798095
  0
LINE
  5
220
330
1F
100
AcDbEntity
  8
0
  6
Continuous
 62
     7
370
    15
100
AcDbLine
 10
223.1227379603
 20
59.8011772606
 30
0.0
 11
223.1593257864
 21
59.7883541295
 31
0.0
  0
LINE
  5
221
330
1F
100
AcDbEntity
  8
0
  6
Continuous
 62
     7
370
    15
100
AcDbLine
 10
239.4736858565
 20
29.4199371614
 30
0.0
 11
239.4830085074
 21
29.4145553095
 31
0.0
  0
ARC
  5
222
330
1F
100
AcDbEntity
  8
0
  6
Continuous
 62
     7
370
    15
100
AcDbCircle
 10
242.3009016226
 20
30.0668381473
 30
0.0
 40
5.919642220385681
100
AcDbArc
 50
192.6964501328
 51
260.4756565155
  0
SPLINE
  5
223
330
1F
100
AcDbEntity
  8
0
  6
Continuous
 62
     7
370
    15
100
AcDbSpline
210
0.0
220
0.0
230
1.0
 70
     8
 71
     3
 72
     8
 73
     4
 74
     0
 42
0.000000001
 43
0.00000001
 40
0.0
 40
0.0
 40
0.0
 40
0.0
 40
0.0012389803509652
 40
0.0012389803509652
 40
0.0012389803509652
 40
0.0012389803509652
 10
236.9997419426661
 20
29.13108584110308
 30
0.0
 10
236.8419970424676
 20
29.00900939056837
 30
0.0
 10
236.6840788635016
 20
28.88725208756755
 30
0.0
 10
236.5260055285206
 20
28.76578506602312
 30
0.0
  0
SPLINE
  5
224
330
1F
100
AcDbEntity
  8
0
  6
Continuous
 62
     7
370
    15
100
AcDbSpline
210
0.0
220
0.0
230
1.0
 70
     8
 71
     3
 72
     8
 73
     4
 74
     0
 42
0.000000001
 43
0.00000001
 40
0.0
 40
0.0
 40
0.0
 40
0.0
 40
1.0
 40
1.0
 40
1.0
 40
1.0
 10
236.9997419426661
 20
29.13108584110308
 30
0.0
 10
237.6937225256077
 20
29.2450976223757
 30
0.0
 10
238.3873555863696
 20
29.35985837489606
 30
0.0
 10
239.0804131049426
 20
29.47571770026902
 30
0.0
  0
SPLINE
  5
225
330
1F
100
AcDbEntity
  8
0
  6
Continuous
 62
     7
370
    15
100
AcDbSpline
210
0.0
220
0.0
230
1.0
 70
     8
 71
     3
 72
    12
 73
     8
 74
     0
 42
0.000000001
 43
0.00000001
 40
0.0
 40
0.0
 40
0.0
 40
0.0
 40
0.2500000000000016
 40
0.2500000000000016
 40
0.5000000000000032
 40
0.5000000000000032
 40
1.0
 40
1.0
 40
1.0
 40
1.0
 10
239.0804131049426
 20
29.47571770026902
 30
0.0
 10
239.1142016208667
 20
29.48136617035325
 30
0.0
 10
239.1497733969356
 20
29.48462663386871
 30
0.0
 10
239.220355643328
 20
29.48576422341683
 30
0.0
 10
239.2553786017769
 20
29.4837476069588
 30
0.0
 10
239.3595838970419
 20
29.46937186961921
 30
0.0
 10
239.4232943289815
 20
29.44902757098681
 30
0.0
 10
239.4736858564945
 20
29.41993716136036
 30
0.0
  0
LINE
  5
226
330
1F
100
AcDbEntity
  8
0
  6
Continuous
 62
     7
370
    15
100
AcDbLine
 10
233.7708938441
 20
30.9950601726
 30
0.0
 11
236.9997419427
 21
29.1310858411
 31
0.0
  0
LINE
  5
227
330
1F
100
AcDbEntity
  8
0
  6
Continuous
 62
     7
370
    15
100
AcDbLine
 10
233.7708938441
 20
30.9950601726
 30
0.0
 11
235.6638267311
 21
32.087827068
 31
0.0
  0
ARC
  5
228
330
1F
100
AcDbEntity
  8
0
  6
Continuous
 62
     7
370
    15
100
AcDbCircle
 10
259.3432440478
 20
36.6509089933
 30
0.0
 40
2.574168997252421
100
AcDbArc
 50
320.7034755418
 51
349.7435996042
  0
LINE
  5
229
330
1F
100
AcDbEntity
  8
0
  6
Continuous
 62
     7
370
    15
100
AcDbLine
 10
263.3450048622
 20
31.0170236149
 30
0.0
 11
264.9062276671
 21
32.9591699419
 31
0.0
  0
LINE
  5
22A
330
1F
100
AcDbEntity
  8
0
  6
Continuous
 62
     7
370
    15
100
AcDbLine
 10
259.739396202
 20
33.0352634748
 30
0.0
 11
261.3353384221
 21
35.0206004242
 31
0.0
  0
LINE
  5
22B
330
1F
100
AcDbEntity
  8
0
  6
Continuous
 62
     7
370
    15
100
AcDbLine
 10
233.3374605966
 20
30.7448038144
 30
0.0
 11
233.7708938441
 21
30.9950601726
 31
0.0
  0
LINE
  5
22C
330
1F
100
AcDbEntity
  8
0
  6
Continuous
 62
     7
370
    15
100
AcDbLine
 10
236.5260055285
 20
28.765785066
 30
0.0
 11
233.4942852042
 21
30.5159599557
 31
0.0
  0
SPLINE
  5
22D
330
1F
100
AcDbEntity
  8
0
  6
Continuous
 62
     7
370
    15
100
AcDbSpline
210
0.0
220
0.0
230
1.0
 70
     8
 71
     3
 72
     8
 73
     4
 74
     0
 42
0.000000001
 43
0.00000001
 40
0.0
 40
0.0
 40
0.0
 40
0.0
 40
1.0
 40
1.0
 40
1.0
 40
1.0
 10
233.4942852041833
 20
30.51595995574305
 30
0.0
 10
233.4142604046685
 20
30.56215728916501
 30
0.0
 10
233.3597836072867
 20
30.64534481152971
 30
0.0
 10
233.3374605966222
 20
30.74480381437083
 30
0.0
  0
LWPOLYLINE
  5
22E
330
1F
100
AcDbEntity
  8
0
  6
Continuous
 62
     7
370
    15
100
AcDbPolyline
 90
        3
 70
   128
 43
0.0
 10
236.3101034249
 20
26.6529931271
 10
235.760947049
 20
27.0176726428
 10
235.1702272628
 20
27.5370221589
  0
ELLIPSE
  5
22F
330
1F
100
AcDbEntity
  8
0
  6
Continuous
 62
     7
370
    15
100
AcDbEllipse
 10
235.4295121561
 20
32.8763266425
 30
0.0
 11
-6.005970385558612E-5
 21
0.8534489614827194
 31
0.0
210
0.0
220
0.0
230
1.0
 40
0.7174342186
 41
3.534193645557425
 42
5.104989972352362
  0
ELLIPSE
  5
230
330
1F
100
AcDbEntity
  8
0
  6
Continuous
 62
     7
370
    15
100
AcDbEllipse
 10
235.3102733405
 20
32.8074691623
 30
0.0
 11
0.2600075789209483
 21
0.9705436209909234
 31
0.0
210
0.0
220
0.0
230
1.0
 40
0.5176380889
 41
3.619174351347787
 42
5.189970678142585
  0
LWPOLYLINE
  5
231
330
1F
100
AcDbEntity
  8
0
  6
Continuous
 62
     7
370
     0
100
AcDbPolyline
 90
       39
 70
   128
 43
0.0
 10
241.8863664055
 20
29.169702186
 10
241.926284586
 20
30.263201401
 10
242.0457435873
 20
31.3946932807
 10
242.2438589767
 20
32.5558006549
 10
242.5191639771
 20
33.7379270909
 10
242.8696203267
 20
34.9323205382
 10
243.2926333693
 20
36.1301381255
 10
243.7850712643
 20
37.3225116306
 10
244.3432881738
 20
38.5006131371
 10
244.9631512552
 20
39.6557203937
 10
245.640071259
 20
40.7792813905
 10
246.3690365063
 20
41.8629776748
 10
247.1446499936
 20
42.8987859386
 10
247.9611693499
 20
43.8790374198
 10
248.8125493516
 20
44.7964746795
 10
249.692486679
 20
45.6443053332
 10
250.594466584
 20
46.4162523393
 10
251.5118111231
 20
47.1066004723
 10
252.437728598
 20
47.7102386361
 10
253.3653638399
 20
48.222697705
 10
254.2878489619
 20
48.6401836113
 10
255.198354207
 20
48.9596054355
 10
256.0901385128
 20
49.17859829
 10
256.9565994205
 20
49.2955408285
 10
257.7913219564
 20
49.3095672492
 10
258.5881261272
 20
49.2205737055
 10
259.3411126734
 20
49.0292190745
 10
260.0447067461
 20
48.7369200788
 10
260.6936991809
 20
48.345840798
 10
261.283285065
 20
47.8588766462
 10
261.8090993108
 20
47.2796329357
 10
262.2672489734
 20
46.6123981842
 10
262.6543420732
 20
45.8621123644
 10
262.9675127082
 20
45.03433033
 10
263.2044422726
 20
44.1351806895
 10
263.3633766228
 20
43.1713204323
 10
263.4431390645
 20
42.1498856425
 10
263.4431390645
 20
41.078438666
 10
263.4078447735
 20
40.4538661793
  0
LWPOLYLINE
  5
232
330
1F
100
AcDbEntity
  8
0
  6
Continuous
 62
     7
370
     0
100
AcDbPolyline
 90
       21
 70
   128
 43
0.0
 10
253.6586371303
 20
23.5659133629
 10
253.3653638399
 20
23.3700749988
 10
252.437728598
 20
22.8115092148
 10
251.5118111231
 20
22.3461058173
 10
250.594466584
 20
21.97731049
 10
249.692486679
 20
21.7078536647
 10
248.8125493516
 20
21.5397303053
 10
247.9611693499
 20
21.4741851384
 10
247.1446499936
 20
21.5117034375
 10
246.3690365063
 20
21.6520074302
 10
245.640071259
 20
21.8940583549
 10
244.9631512552
 20
22.2360641511
 10
244.3432881738
 20
22.6754927277
 10
243.7850712643
 20
23.2090907091
 10
243.2926333693
 20
23.8329075227
 10
242.8696203267
 20
24.5423246469
 10
242.5191639771
 20
25.3320898057
 10
242.2438589767
 20
26.1963558541
 10
242.0457435873
 20
27.1287240686
 10
241.926284586
 20
28.1222915211
 10
241.8863664055
 20
29.169702186
  0
LWPOLYLINE
  5
233
330
1F
100
AcDbEntity
  8
0
  6
Continuous
 62
     7
370
     0
100
AcDbPolyline
 90
       27
 70
   128
 43
0.0
 10
241.1792596244
 20
29.169702186
 10
241.2193805488
 20
30.2835116028
 10
241.3394542499
 20
31.4356186307
 10
241.5386155939
 20
32.6177223119
 10
241.8154296187
 20
33.8213055624
 10
242.167901873
 20
35.0376965374
 10
242.5934927861
 20
36.2581311119
 10
243.0891359657
 20
37.473816027
 10
243.6512602914
 20
38.6759922448
 10
244.2758156444
 20
39.8559980583
 10
244.9583020892
 20
41.0053314985
 10
245.6938022953
 20
42.1157115916
 10
246.4770169669
 20
43.1791380236
 10
247.3023030242
 20
44.1879487827
 10
248.1637142624
 20
45.1348753643
 10
249.0550441938
 20
46.0130951406
 10
249.9698707657
 20
46.816280518
 10
250.9016026317
 20
47.5386445276
 10
251.8435266424
 20
48.17498252
 10
252.7888562137
 20
48.7207096653
 10
253.7307802244
 20
49.1718939872
 10
254.6625120904
 20
49.5252846921
 10
255.5773386623
 20
49.7783355919
 10
256.4686685936
 20
49.9292234491
 10
257.3300798318
 20
49.9768611133
 10
258.1553658892
 20
49.9209053539
 10
258.8268403596
 20
49.7914515295
  0
LWPOLYLINE
  5
234
330
1F
100
AcDbEntity
  8
0
  6
Continuous
 62
     7
370
     0
100
AcDbPolyline
 90
        9
 70
   128
 43
0.0
 10
243.3144775709
 20
22.8300142821
 10
243.0891359657
 20
23.070684632
 10
242.5934927861
 20
23.7141121127
 10
242.167901873
 20
24.4431698782
 10
241.8154296187
 20
25.2526050506
 10
241.5386155939
 20
26.136585631
 10
241.3394542499
 20
27.088742519
 10
241.2193805488
 20
28.1022154025
 10
241.1792596244
 20
29.169702186
  0
LWPOLYLINE
  5
235
330
1F
100
AcDbEntity
  8
0
  6
Continuous
 62
     7
370
     0
100
AcDbPolyline
 90
       32
 70
   128
 43
0.0
 10
244.3612401397
 20
30.5984163817
 10
244.4012478607
 20
31.5619235427
 10
244.5208857274
 20
32.5623435344
 10
244.7190015617
 20
33.5900417655
 10
244.9936874
 20
34.6351209402
 10
245.3422978673
 20
35.6875163746
 10
245.7614756544
 20
36.7370929256
 10
246.24718385
 20
37.7737425972
 10
246.7947448186
 20
38.7874818862
 10
247.3988852489
 20
39.7685479293
 10
248.0537869381
 20
40.7074925241
 10
248.7531428251
 20
41.5952731209
 10
249.4902177303
 20
42.4233399071
 10
250.2579132194
 20
43.1837181471
 10
251.0488359654
 20
43.8690849827
 10
251.8553689496
 20
44.4728399566
 10
252.6697448186
 20
44.9891685783
 10
253.4841206877
 20
45.413098321
 10
254.2906536719
 20
45.7405465095
 10
255.0815764178
 20
45.9683596388
 10
255.849271907
 20
46.0943437438
 10
256.5863468122
 20
46.1172855289
 10
257.2857026992
 20
46.036964052
 10
257.9406043884
 20
45.8541528528
 10
258.5447448186
 20
45.5706125032
 10
259.0923057873
 20
45.1890736518
 10
259.5780139829
 20
44.7132107262
 10
259.9971917699
 20
44.1476065465
 10
260.3458022373
 20
43.4977081903
 10
260.6204880755
 20
42.7697745338
 10
260.8186039099
 20
41.9708159762
 10
260.8233343336
 20
41.945872298
  0
LWPOLYLINE
  5
236
330
1F
100
AcDbEntity
  8
0
  6
Continuous
 62
     7
370
     0
100
AcDbPolyline
 90
       16
 70
   128
 43
0.0
 10
251.0741266904
 20
25.0579194815
 10
251.0488359654
 20
25.0490815678
 10
250.2579132194
 20
24.8212684385
 10
249.4902177303
 20
24.6952843334
 10
248.7531428251
 20
24.6723425484
 10
248.0537869381
 20
24.7526640253
 10
247.3988852489
 20
24.9354752245
 10
246.7947448186
 20
25.219015574
 10
246.24718385
 20
25.6005544255
 10
245.7614756544
 20
26.0764173511
 10
245.3422978673
 20
26.6420215308
 10
244.9936874
 20
27.291919887
 10
244.7190015617
 20
28.0198535435
 10
244.5208857274
 20
28.8188121011
 10
244.4012478607
 20
29.6811011521
 10
244.3612401397
 20
30.5984163817
  0
LWPOLYLINE
  5
237
330
1F
100
AcDbEntity
  8
0
  6
Continuous
 62
     7
370
     0
100
AcDbPolyline
 90
        9
 70
   128
 43
0.0
 10
247.1896672644
 20
30.5984163817
 10
247.2300818944
 20
29.7609822379
 10
247.3508519595
 20
28.9800279822
 10
247.5505615413
 20
28.2647095892
 10
247.8268692276
 20
27.6234135132
 10
248.1765355632
 20
27.0636583642
 10
248.5954610302
 20
26.5920067595
 10
249.0787341104
 20
26.2139883831
 10
249.2093545594
 20
26.1344295186
  0
LWPOLYLINE
  5
238
330
1F
100
AcDbEntity
  8
0
  6
Continuous
 62
     7
370
     0
100
AcDbPolyline
 90
       23
 70
   128
 43
0.0
 10
258.9585622026
 20
43.022382335
 10
258.5472278932
 20
43.2227766989
 10
257.9529453805
 20
43.4013825836
 10
257.3133025327
 20
43.476547134
 10
256.6357985773
 20
43.4473891143
 10
255.9283766288
 20
43.3142503757
 10
255.1993305627
 20
43.0786918483
 10
254.4572077775
 20
42.7434752403
 10
253.7107089845
 20
42.31253066
 10
252.9685861994
 20
41.7909105385
 10
252.2395401333
 20
41.184730395
 10
251.5321181847
 20
40.5010971373
 10
250.8546142294
 20
39.7480257403
 10
250.2149713816
 20
38.9343452776
 10
249.6206888689
 20
38.0695954087
 10
249.0787341104
 20
37.1639145352
 10
248.5954610302
 20
36.2279209372
 10
248.1765355632
 20
35.2725882838
 10
247.8268692276
 20
34.309116977
 10
247.5505615413
 20
33.348802837
 10
247.3508519595
 20
32.4029046689
 10
247.2300818944
 20
31.482512264
 10
247.1896672644
 20
30.5984163817
  0
LWPOLYLINE
  5
239
330
1F
100
AcDbEntity
  8
0
  6
Continuous
 62
     7
370
     0
100
AcDbPolyline
 90
       16
 70
   128
 43
0.0
 10
256.3947253785
 20
26.7463888521
 10
256.7130807433
 20
26.334745698
 10
257.10277632
 20
26.0238254489
 10
257.5555900977
 20
25.8201880706
 10
258.0619683628
 20
25.7281300162
 10
258.6112272688
 20
25.7495935772
 10
259.1917782499
 20
25.8841259036
 10
259.791372523
 20
26.1288885585
 10
260.3973595192
 20
26.478717405
 10
260.9969537923
 20
26.9262315624
 10
261.5775047734
 20
27.4619891313
 10
262.1267636794
 20
28.0746864047
 10
262.6331419445
 20
28.7513963592
 10
263.0859557222
 20
29.4778413969
 10
263.4756512989
 20
30.238694582
 10
263.7940066637
 20
31.0179030163
  0
LWPOLYLINE
  5
23A
330
1F
100
AcDbEntity
  8
0
  6
Continuous
 62
     7
370
     0
100
AcDbPolyline
 90
       16
 70
   128
 43
0.0
 10
263.793985864
 20
35.4709881297
 10
263.4756284572
 20
35.8826205147
 10
263.0859327315
 20
36.1935314955
 10
262.6331205386
 20
36.3971614314
 10
262.1267453694
 20
36.4892141113
 10
261.5774907939
 20
36.4677473957
 10
260.9969450573
 20
36.3332141921
 10
260.3973565896
 20
36.0884528998
 10
259.7913755871
 20
35.7386275246
 10
259.1917871165
 20
35.2911187282
 10
258.6112413742
 20
34.75536811
 10
258.0619867905
 20
34.1426790069
 10
257.5556116106
 20
33.465978014
 10
257.1027994046
 20
32.7395422577
 10
256.7131036639
 20
31.978698175
 10
256.3947462405
 20
31.1994981542
  0
LWPOLYLINE
  5
23B
330
1F
100
AcDbEntity
  8
0
  6
Continuous
 62
     7
370
     0
100
AcDbPolyline
 90
       20
 70
   128
 43
0.0
 10
239.0804131049
 20
36.0488712359
 10
239.3870380266
 20
37.1933775144
 10
239.770823095
 20
38.344991213
 10
240.22839097
 20
39.4935780366
 10
240.7557150167
 20
40.6290303271
 10
241.3481547404
 20
41.7413560113
 10
242.0004966229
 20
42.820766532
 10
242.7070000022
 20
43.8577629881
 10
243.4614475906
 20
44.8432197258
 10
244.2572001875
 20
45.768464645
 10
245.0872551049
 20
46.6253555146
 10
245.9443077914
 20
47.4063516248
 10
246.8208161131
 20
48.1045801456
 10
247.7090667249
 20
48.7138966089
 10
248.6012429487
 20
49.22893898
 10
249.4894935605
 20
49.6451748436
 10
250.3660018822
 20
49.95894129
 10
251.2230545687
 20
50.1674771489
 10
252.0531094861
 20
50.2689472876
 10
252.6996602249
 20
50.272059319
  0
LWPOLYLINE
  5
23C
330
1F
100
AcDbEntity
  8
0
  6
Continuous
 62
     7
370
     0
100
AcDbPolyline
 90
       24
 70
   128
 43
0.0
 10
233.4942852042
 20
37.7279483873
 10
233.8011006819
 20
38.9493487743
 10
234.184259604
 20
40.1806302588
 10
234.6409448032
 20
41.4127398709
 10
235.1677985116
 20
42.636618552
 10
235.760947049
 20
43.8432677612
 10
236.4160293039
 20
45.023815637
 10
237.1282287986
 20
46.1695822272
 10
237.8923091021
 20
47.2721433085
 10
238.7026523309
 20
48.3233923249
 10
239.5533004544
 20
49.3155999914
 10
240.437999101
 20
50.2414711231
 10
241.3502435437
 20
51.0941982729
 10
242.2833265253
 20
51.8675117836
 10
243.230387574
 20
52.5557258845
 10
244.1844634444
 20
53.1537804968
 10
245.1385393148
 20
53.6572784372
 10
246.0856003635
 20
54.0625177483
 10
247.0186833451
 20
54.366518917
 10
247.9309277878
 20
54.5670467815
 10
248.8156264344
 20
54.6626269651
 10
249.6662745579
 20
54.6525567165
 10
250.4766177867
 20
54.5369100772
 10
250.7853659295
 20
54.4620068763
  0
LINE
  5
23D
330
1F
100
AcDbEntity
  8
0
  6
Continuous
 62
     7
370
     0
100
AcDbLine
 10
254.9289509845
 20
27.199410713
 30
0.0
 11
255.0173393322
 21
26.8695479204
 31
0.0
  0
LWPOLYLINE
  5
23E
330
1F
100
AcDbEntity
  8
0
  6
Continuous
 62
     7
370
     0
100
AcDbPolyline
 90
       19
 70
   128
 43
0.0
 10
239.4736858565
 20
35.993090697
 10
239.77837075
 20
37.1169336266
 10
240.1583616217
 20
38.2472635494
 10
240.6103394656
 20
39.374207671
 10
241.1303565101
 20
40.4879227695
 10
241.7138706993
 20
41.5786811714
 10
242.3557853658
 20
42.6369557169
 10
243.0504937468
 20
43.6535029744
 10
243.7919279561
 20
44.6194439766
 10
244.5736119839
 20
45.5263417734
 10
245.3887182609
 20
46.3662751237
 10
246.2301272932
 20
47.1319076832
 10
247.0904898471
 20
47.816552083
 10
247.9622911408
 20
48.4142283403
 10
248.8379164814
 20
48.9197160898
 10
249.7097177751
 20
49.328600181
 10
250.570080329
 20
49.6373092418
 10
251.4114893613
 20
49.8431468727
 10
251.8345949519
 20
49.9083470707
  0
LWPOLYLINE
  5
23F
330
1F
100
AcDbEntity
  8
0
  6
Continuous
 62
     7
370
     0
100
AcDbPolyline
 90
        3
 70
   128
 43
0.0
 10
263.2042194298
 20
35.4259661102
 10
262.8785910682
 20
35.8038653819
 10
262.5649155736
 20
36.0331289932
  0
LWPOLYLINE
  5
240
330
1F
100
AcDbEntity
  8
0
  6
Continuous
 62
     7
370
     0
100
AcDbPolyline
 90
       14
 70
   128
 43
0.0
 10
257.0617467939
 20
26.5086843308
 10
257.1402814138
 20
26.465865622
 10
257.5972453185
 20
26.3016897886
 10
258.1048885033
 20
26.2512708395
 10
258.6515922865
 20
26.3157627383
 10
259.224843987
 20
26.4936894268
 10
259.8115233086
 20
26.7809786086
 10
260.3982026302
 20
27.1710549534
 10
260.9714543308
 20
27.6549905902
 10
261.518158114
 20
28.2217094438
 10
262.0258012987
 20
28.8582407383
 10
262.4827652034
 20
29.5500158658
 10
262.8785910682
 20
30.2812018254
 10
263.2042194298
 20
31.0350636009
  0
LINE
  5
241
330
1F
100
AcDbEntity
  8
0
  6
Continuous
 62
     7
370
     0
100
AcDbLine
 10
254.5196974079
 20
27.4356677739
 30
0.0
 11
254.9289509845
 21
27.199410713
 31
0.0
  0
LINE
  5
242
330
1F
100
AcDbEntity
  8
0
  6
Continuous
 62
     7
370
     0
100
AcDbLine
 10
239.4830085074
 20
29.4145553095
 30
0.0
 11
239.8887897487
 21
29.6488078339
 31
0.0
  0
LWPOLYLINE
  5
243
330
1F
100
AcDbEntity
  8
0
  6
Continuous
 62
     7
370
     0
100
AcDbPolyline
 90
        3
 70
   128
 43
0.0
 10
240.4427856469
 20
29.3918563083
 10
240.3830106597
 20
29.413430661
 10
239.8887897487
 20
29.6488078339
  0
ARC
  5
244
330
1F
100
AcDbEntity
  8
0
  6
Continuous
 62
     7
370
     0
100
AcDbCircle
 10
239.2008005792
 20
30.7054094291
 30
0.0
 40
1.260847345342666
100
AcDbArc
 50
303.0695173616
 51
345.5982002291
  0
LINE
  5
245
330
1F
100
AcDbEntity
  8
0
  6
Continuous
 62
     7
370
     0
100
AcDbLine
 10
235.995197581
 20
33.2028898872
 30
0.0
 11
240.3801880866
 21
30.6714887507
 31
0.0
  0
LINE
  5
246
330
1F
100
AcDbEntity
  8
0
  6
Continuous
 62
     7
370
     0
100
AcDbLine
 10
235.8759587655
 20
33.1340324071
 30
0.0
 11
235.995197581
 21
33.2028898872
 31
0.0
  0
LINE
  5
247
330
1F
100
AcDbEntity
  8
0
  6
Continuous
 62
     7
370
     0
100
AcDbLine
 10
235.6196325573
 20
36.1652991942
 30
0.0
 11
235.624820452
 21
36.4979646584
 31
0.0
  0
ARC
  5
248
330
1F
100
AcDbEntity
  8
0
  6
Continuous
 62
     7
370
     0
100
AcDbCircle
 10
244.1396961311
 20
36.0855119956
 30
0.0
 40
8.520437154170127
100
AcDbArc
 50
179.4634622067
 51
193.0594312055
  0
LINE
  5
249
330
1F
100
AcDbEntity
  8
0
  6
Continuous
 62
     7
370
     0
100
AcDbLine
 10
265.17139271
 20
32.7313581633
 30
0.0
 11
264.9062276671
 21
32.9591699419
 31
0.0
  0
LWPOLYLINE
  5
24A
330
1F
100
AcDbEntity
  8
0
  6
Continuous
 62
     7
370
     0
100
AcDbPolyline
 90
       18
 70
   128
 43
0.0
 10
215.774116659
 20
51.4641786418
 10
215.8145341036
 20
52.1847189729
 10
215.9350651872
 20
52.9390662331
 10
216.1335590296
 20
53.7137590774
 10
216.4064735036
 20
54.4949730938
 10
216.7489384439
 20
55.2687674997
 10
217.1548425555
 20
56.0213339155
 10
217.61694247
 20
56.7392427757
 10
218.1269920034
 20
57.4096829797
 10
218.6758893098
 20
58.0206905062
 10
219.2538393037
 20
58.5613619114
 10
219.8505284537
 20
59.0220489012
 10
220.4553088278
 20
59.3945305054
 10
221.057388106
 20
59.672159781
 10
221.6460221693
 20
59.849982427
 10
222.2107068287
 20
59.9248251939
 10
222.7413652734
 20
59.895352511
 10
223.1227379603
 20
59.8011772606
  0
ARC
  5
24B
330
1F
100
AcDbEntity
  8
0
  6
Continuous
 62
     7
370
     0
100
AcDbCircle
 10
219.1489141231
 20
51.1795510597
 30
0.0
 40
3.386778821242155
100
AcDbArc
 50
175.1791309351
 51
225.8020354417
  0
LWPOLYLINE
  5
24C
330
1F
100
AcDbEntity
  8
0
  6
Continuous
 62
     7
370
     0
100
AcDbPolyline
 90
        3
 70
   128
 43
0.0
 10
239.9455475269
 20
28.3165118789
 10
239.7727929884
 20
28.6598318533
 10
239.4736858565
 20
29.4199371614
  0
ARC
  5
24D
330
1F
100
AcDbEntity
  8
0
  6
Continuous
 62
     7
370
     0
100
AcDbCircle
 10
245.1137421206
 20
31.3485795201
 30
0.0
 40
6.317330956012879
100
AcDbArc
 50
197.2453518436
 51
213.8836653418
  0
LINE
  5
24E
330
1F
100
AcDbEntity
  8
0
  6
Continuous
 62
     7
370
     0
100
AcDbLine
 10
239.8887897487
 20
29.6488078339
 30
0.0
 11
235.6638267311
 21
32.087827068
 31
0.0
  0
LINE
  5
24F
330
1F
100
AcDbEntity
  8
0
  6
Continuous
 62
     7
370
     0
100
AcDbLine
 10
261.3353384221
 20
35.0206004242
 30
0.0
 11
264.9062276671
 21
32.9591699419
 31
0.0
  0
ARC
  5
250
330
1F
100
AcDbEntity
  8
0
  6
Continuous
 62
     7
370
     0
100
AcDbCircle
 10
240.2081055255
 20
32.3322274071
 30
0.0
 40
6.955157134268429
100
AcDbArc
 50
195.1376969792
 51
223.5862707558
  0
OLE2FRAME
  5
251
330
1F
100
AcDbEntity
  8
0
100
AcDbOle2Frame
 70
     2
  3
Paintbrush-Bild
 10
13.8511154363
 20
38.264191557
 30
0.0
 11
51.6290888628
 21
31.9806341108
 31
0.0
 71
     2
 72
     0
 73
     1
 90
    12928
310
80552BED0767C5B32B40DDAF6807D121434000000000000000006FFBDDFB85D0
310
4940DDAF6807D121434000000000000000006FFBDDFB85D04940416F4BD60AFB
310
3F4000000000000000002BED0767C5B32B40416F4BD60AFB3F40000000000000
310
0000000000000100000000010000010000000100000000000100000000320000
310
D0CF11E0A1B11AE1000000000000000000000000000000003E000300FEFF0900
310
0600000000000000000000000100000001000000000000000010000002000000
310
01000000FEFFFFFF0000000000000000FFFFFFFFFFFFFFFFFFFFFFFFFFFFFFFF
310
FFFFFFFFFFFFFFFFFFFFFFFFFFFFFFFFFFFFFFFFFFFFFFFFFFFFFFFFFFFFFFFF
310
FFFFFFFFFFFFFFFFFFFFFFFFFFFFFFFFFFFFFFFFFFFFFFFFFFFFFFFFFFFFFFFF
310
FFFFFFFFFFFFFFFFFFFFFFFFFFFFFFFFFFFFFFFFFFFFFFFFFFFFFFFFFFFFFFFF
310
FFFFFFFFFFFFFFFFFFFFFFFFFFFFFFFFFFFFFFFFFFFFFFFFFFFFFFFFFFFFFFFF
310
FFFFFFFFFFFFFFFFFFFFFFFFFFFFFFFFFFFFFFFFFFFFFFFFFFFFFFFFFFFFFFFF
310
FFFFFFFFFFFFFFFFFFFFFFFFFFFFFFFFFFFFFFFFFFFFFFFFFFFFFFFFFFFFFFFF
310
FFFFFFFFFFFFFFFFFFFFFFFFFFFFFFFFFFFFFFFFFFFFFFFFFFFFFFFFFFFFFFFF
310
FFFFFFFFFFFFFFFFFFFFFFFFFFFFFFFFFFFFFFFFFFFFFFFFFFFFFFFFFFFFFFFF
310
FFFFFFFFFFFFFFFFFFFFFFFFFFFFFFFFFFFFFFFFFFFFFFFFFFFFFFFFFFFFFFFF
310
FFFFFFFFFFFFFFFFFFFFFFFFFFFFFFFFFFFFFFFFFFFFFFFFFFFFFFFFFFFFFFFF
310
FFFFFFFFFFFFFFFFFFFFFFFFFFFFFFFFFFFFFFFFFFFFFFFFFFFFFFFFFFFFFFFF
310
FFFFFFFFFFFFFFFFFFFFFFFFFFFFFFFFFFFFFFFFFFFFFFFFFFFFFFFFFFFFFFFF
310
FFFFFFFFFFFFFFFFFFFFFFFFFFFFFFFFFFFFFFFFFFFFFFFFFFFFFFFFFFFFFFFF
310
FDFFFFFFFEFFFFFFFEFFFFFFFEFFFFFF05000000060000000700000008000000
310
090000000A0000000B0000000C0000000D0000000E0000000F00000010000000
310
11000000120000001300000014000000150000001600000017000000FEFFFFFF
310
FFFFFFFFFFFFFFFFFFFFFFFFFFFFFFFFFFFFFFFFFFFFFFFFFFFFFFFFFFFFFFFF
310
FFFFFFFFFFFFFFFFFFFFFFFFFFFFFFFFFFFFFFFFFFFFFFFFFFFFFFFFFFFFFFFF
310
FFFFFFFFFFFFFFFFFFFFFFFFFFFFFFFFFFFFFFFFFFFFFFFFFFFFFFFFFFFFFFFF
310
FFFFFFFFFFFFFFFFFFFFFFFFFFFFFFFFFFFFFFFFFFFFFFFFFFFFFFFFFFFFFFFF
310
FFFFFFFFFFFFFFFFFFFFFFFFFFFFFFFFFFFFFFFFFFFFFFFFFFFFFFFFFFFFFFFF
310
FFFFFFFFFFFFFFFFFFFFFFFFFFFFFFFFFFFFFFFFFFFFFFFFFFFFFFFFFFFFFFFF
310
FFFFFFFFFFFFFFFFFFFFFFFFFFFFFFFFFFFFFFFFFFFFFFFFFFFFFFFFFFFFFFFF
310
FFFFFFFFFFFFFFFFFFFFFFFFFFFFFFFFFFFFFFFFFFFFFFFFFFFFFFFFFFFFFFFF
310
FFFFFFFFFFFFFFFFFFFFFFFFFFFFFFFFFFFFFFFFFFFFFFFFFFFFFFFFFFFFFFFF
310
FFFFFFFFFFFFFFFFFFFFFFFFFFFFFFFFFFFFFFFFFFFFFFFFFFFFFFFFFFFFFFFF
310
FFFFFFFFFFFFFFFFFFFFFFFFFFFFFFFFFFFFFFFFFFFFFFFFFFFFFFFFFFFFFFFF
310
FFFFFFFFFFFFFFFFFFFFFFFFFFFFFFFFFFFFFFFFFFFFFFFFFFFFFFFFFFFFFFFF
310
FFFFFFFFFFFFFFFFFFFFFFFFFFFFFFFFFFFFFFFFFFFFFFFFFFFFFFFFFFFFFFFF
310
52006F006F007400200045006E00740072007900000000000000000000000000
310
0000000000000000000000000000000000000000000000000000000000000000
310
16000500FFFFFFFFFFFFFFFF020000000A00030000000000C000000000000046
310
000000000000000000000000C097F621CB22D20103000000C000000000000000
310
01004F006C006500000000000000000000000000000000000000000000000000
310
0000000000000000000000000000000000000000000000000000000000000000
310
0A000200FFFFFFFFFFFFFFFFFFFFFFFF00000000000000000000000000000000
310
0000000000000000000000000000000000000000000000001400000000000000
310
010043006F006D0070004F0062006A0000000000000000000000000000000000
310
0000000000000000000000000000000000000000000000000000000000000000
310
120002010100000003000000FFFFFFFF00000000000000000000000000000000
310
0000000000000000000000000000000000000000010000004D00000000000000
310
01004F006C006500310030004E00610074006900760065000000000000000000
310
0000000000000000000000000000000000000000000000000000000000000000
310
1A000200FFFFFFFFFFFFFFFFFFFFFFFF00000000000000000000000000000000
310
0000000000000000000000000000000000000000040000002426000000000000
310
FEFFFFFF02000000FEFFFFFFFFFFFFFFFFFFFFFFFFFFFFFFFFFFFFFFFFFFFFFF
310
FFFFFFFFFFFFFFFFFFFFFFFFFFFFFFFFFFFFFFFFFFFFFFFFFFFFFFFFFFFFFFFF
310
FFFFFFFFFFFFFFFFFFFFFFFFFFFFFFFFFFFFFFFFFFFFFFFFFFFFFFFFFFFFFFFF
310
FFFFFFFFFFFFFFFFFFFFFFFFFFFFFFFFFFFFFFFFFFFFFFFFFFFFFFFFFFFFFFFF
310
FFFFFFFFFFFFFFFFFFFFFFFFFFFFFFFFFFFFFFFFFFFFFFFFFFFFFFFFFFFFFFFF
310
FFFFFFFFFFFFFFFFFFFFFFFFFFFFFFFFFFFFFFFFFFFFFFFFFFFFFFFFFFFFFFFF
310
FFFFFFFFFFFFFFFFFFFFFFFFFFFFFFFFFFFFFFFFFFFFFFFFFFFFFFFFFFFFFFFF
310
FFFFFFFFFFFFFFFFFFFFFFFFFFFFFFFFFFFFFFFFFFFFFFFFFFFFFFFFFFFFFFFF
310
FFFFFFFFFFFFFFFFFFFFFFFFFFFFFFFFFFFFFFFFFFFFFFFFFFFFFFFFFFFFFFFF
310
FFFFFFFFFFFFFFFFFFFFFFFFFFFFFFFFFFFFFFFFFFFFFFFFFFFFFFFFFFFFFFFF
310
FFFFFFFFFFFFFFFFFFFFFFFFFFFFFFFFFFFFFFFFFFFFFFFFFFFFFFFFFFFFFFFF
310
FFFFFFFFFFFFFFFFFFFFFFFFFFFFFFFFFFFFFFFFFFFFFFFFFFFFFFFFFFFFFFFF
310
FFFFFFFFFFFFFFFFFFFFFFFFFFFFFFFFFFFFFFFFFFFFFFFFFFFFFFFFFFFFFFFF
310
FFFFFFFFFFFFFFFFFFFFFFFFFFFFFFFFFFFFFFFFFFFFFFFFFFFFFFFFFFFFFFFF
310
FFFFFFFFFFFFFFFFFFFFFFFFFFFFFFFFFFFFFFFFFFFFFFFFFFFFFFFFFFFFFFFF
310
FFFFFFFFFFFFFFFFFFFFFFFFFFFFFFFFFFFFFFFFFFFFFFFFFFFFFFFFFFFFFFFF
310
0100000200000000000000000000000000000000000000000000000000000000
310
0000000000000000000000000000000000000000000000000000000000000000
310
0100FEFF030A0000FFFFFFFF0A00030000000000C00000000000004607000000
310
5042727573680007000000504272757368000700000050427275736800F439B2
310
7100000000000000000000000000000000000000000000000000000000000000
310
0000000000000000000000000000000000000000000000000000000000000000
310
0000000000000000000000000000000000000000000000000000000000000000
310
0000000000000000000000000000000000000000000000000000000000000000
310
0000000000000000000000000000000000000000000000000000000000000000
310
0000000000000000000000000000000000000000000000000000000000000000
310
0000000000000000000000000000000000000000000000000000000000000000
310
0000000000000000000000000000000000000000000000000000000000000000
310
0000000000000000000000000000000000000000000000000000000000000000
310
0000000000000000000000000000000000000000000000000000000000000000
310
0000000000000000000000000000000000000000000000000000000000000000
310
0000000000000000000000000000000000000000000000000000000000000000
310
20260000424D0E260000000000003E00000028000000B40200006E0000000100
310
01000000000000000000130B0000130B00000200000002000000000000FFFFFF
310
FFFFFFFFFFFFFFFFFFFFFFFFFFFFFFFFFFFFFFFFFFFFFFFFFFFFFFFFFFFFFFFF
310
FFFFFFFFFFFFFFFFFFFFFFFFFFFFFFFFFFFFFFFFFFFFFFFFFFFFFFFFFFFFFFFF
310
FFFFFFFFFFFFFFFFFFFFFFFFFFFFFFFFFFFFFFFFFFFFFFFFF000FFFFFFFFFFFF
310
FFFFFFFFFFFFFFFFFFFFFFFFFFFFFFFFFFFFFFFFFFFFFFFFFFFFFFFFFFFFFFFF
310
FFFFFFFFFFFFFFFFFFFFFFFFFFFFFFFFFFFFFFFFFFFFFFFFFFFFFFFFFFFFFFFF
310
FFFFFFFFFFFFFFFFFFFFFFFFFFFFFFFFF000FFFFFFFFFFFFFFFFFFFFFFFFFFFF
310
FFFFFFFFFFFFFFFFFFFFFFFFFFFFFFFFFFFFFFFFFFFFFFFFFFFFFFFFFFFFFFFF
310
FFFFFFFFFFFFFFFFFFFFFFFFFFFFFFFFFFFFFFFFFFFFFFFFFFFFFFFFFFFFFFFF
310
FFFFFFFFFFFFFFFFF000FFFFFFFFFFFFFFFFFFFFFFFFFFFFFFFFFFFFFFFFFFFF
310
FFFFFFFFFFFFFFFFFFFFFFFFFFFFFFFFFFFFFFFFFFFFFFFFFFFFFFFFFFFFFFFF
310
FFFFFFFFFFFFFFFFFFFFFFFFFFFFFFFFFFFFFFFFFFFFFFFFFFFFFFFFFFFFFFFF
310
F000FFFFFFFFFFFFFFFFFFFFFFFFFFFFFFFFFFFFFFFFFFFFFFFFFFFFFFFFFFFF
310
FFFFFFFFFFFFFFFFFFFFFFFFFFFFFFFFFFFFFFFFFFFFFFFFFFFFFFFFFFFFFFFF
310
FFFFFFFFFFFFFFFFFFFFFFFFFFFFFFFFFFFFFFFFFFFFFFFFF000FFFFFFFFFFFF
310
FFFFFFFFFFFFFFFFFFFFFFFFFFFFFFFFFFFFFFFFFFFFFFFFFFFFFFFFFFFFFFFF
310
FFFFFFFFFFFFFFFFFFFFFFFFFFFFFFFFFFFFFFFFFFFFFFFFFFFFFFFFFFFFFFFF
310
FFFFFFFFFFFFFFFFFFFFFFFFFFFFFFFFF000FFFFFFFFFFFFFFFFFFFFFFFFFFFF
310
FFFFFFFFFFFFFFFFFFFFFFFFFFFFFFFFFFFFFFFFFFFFFFFFFFFFFFFFFFFFFFFF
310
FFFFFFFFFFFFFFFFFFFFFFFFFFFFFFFFFFFFFFFFFFFFFFFFFFFFFFFFFFFFFFFF
310
FFFFFFFFFFFFFFFFF000FFFFFFFFFFFFFFFFFFFFFFFFFFFFFFFFFFFFFFFFFFFF
310
FFFFFFFFFFFFFFFFFFFFFFFFFFFFFFFFFFFFFFFFFFFFFFFFFFFFFFFFFFFFFFFF
310
FFFFFFFFFFFFFFFFFFFFFFFFFFFFFFFFFFFFFFFFFFFFFFFFFFFFFFFFFFFFFFFF
310
F000FFFFFFFFFFFFFFFFFFFFFFFFFFFFFFFFFFFFFFFFFFFFFFFFFFFFFFFFFFFF
310
FFFFFFFFFFFFFFFFFFFFFFFFFFFFFFFFFFFFFFFFFFFFFFFFFFFFFFFFFFFFFFFF
310
FFFFFFFFFFFFFFFFFFFFFFFFFFFFFFFFFFFFFFFFFFFFFFFFF000FFFFFFFFFFFF
310
FFFFFFFFFFFFFFFFFFFFFFFFFFFFFFFFFFFFFFFFFFFFFFFFFFFFFFFFFFFFFFFF
310
FFFFFFFFFFFFFFFFFFFFFFFFFFFFFFFFFFFFFFFFFFFFFFFFFFFFFFFFFFFFFFFF
310
FFFFFFFFFFFFFFFFFFFFFFFFFFFFFFFFF000FFFFFFFFFFFFFFFFFFFFFFFFFFFF
310
FFFFFFFFFFFFFFFFFFFFFFFFFFFFFFFFFFFFFFFFFFFFFFFFFFFFFFFFFFFFFFFF
310
FFFFFFFFFFFFFFFFFFFFFFFFFFFFFFFFFFFFFFFFFFFFFFFFFFFFFFFFFFFFFFFF
310
FFFFFFFFFFFFFFFFF000FFFFFFFFFFFFFFFFFFFFFFFFFFFFFFFFFFFFFFFFFFFF
310
FFFFFFFFFFFFFFFFFFFFFFFFFFFFFFFFFFFFFFFFFFFFFFFFFFFFFFFFFFFFFFFF
310
FFFFFFFFFFFFFFFFFFFFFFFFFFFFFFFFFFFFFFFFFFFFFFFFFFFFFFFFFFFFFFFF
310
F000FFFFFFFFFFFFFFFFFFFFFFFFFFFFFFFFFFFFFFFFFFFFFFFFFFFFFFFFFFFF
310
FFFFFFFFFFFFFFFFFFFFFFFFFFFFFFFFFFFFFFFFFFFFFFFFFFFFFFFFFFFFFFFF
310
FFFFFFFFFFFFFFFFFFFFFFFFFFFFFFFFFFFFFFFFFFFFFFFFF000FFFFFFFFFFFF
310
FFFFFFFFFFFFFFFFFFFFFFFFFFFFFFFFFFFFFFFFFFFFFFFFFFFFFFFFFFFFFFFF
310
FFFFFFFFFFFFFFFFFFFFFFFFFFFFFFFFFFFFFFFFFFFFFFFFFFFFFFFFFFFFFFFF
310
FFFFFFFFFFFFFFFFFFFFFFFFFFFFFFFFF000FFFFFFFFFFFFFFFFFFFFFFFFFFFF
310
FFFFFFFFFFFFFFFFFFFFFFFFFFFFFFFFFFFFFFFFFFFFFFFFFFFFFFFFFFFFFFFF
310
FFFFFFFFFFFFFFFFFFFFFFFFFFFFFFFFFFFFFFFFFFFFFFFFFFFFFFFFFFFFFFFF
310
FFFFFFFFFFFFFFFFF000FFFFFFFFFFFFFFFFFFFFFFFFFFFFFFFFFFFFFFFFFFFF
310
FFFFFFFFFFFFFFFFFFFFFFFFFFFFFFFFFFFFFFFFFFFFFFFFFFFFFFFFFFFFFFFF
310
FFFFFFFFFFFFFFFFFFFFFFFFFFFFFFFFFFFFFFFFFFFFFFFFFFFFFFFFFFFFFFFF
310
F000FFFFFFFFFFFFFFFFFFFFFFFFFFFFFFFFFFFFFFFFFFFFFFFFFFFFFFFFFFFF
310
FFFFFFFFFFFFFFFFFFFFFFFFFFFFFFFFFFFFFFFFFFFFFFFFFFFFFFFFFFFFFFFF
310
FFFFFFFFFFFFFFFFFFFFFFFFFFFFFFFFFFFFFFFFFFFFFFFFF000FFFFFFFFFFFF
310
FFFFFFFFFFFFFFFFFFFFFFFFFFFFFFFFFFFFFFFFFFFFFFFFFFFFFFFFFFFFFFFF
310
FFFFFFFFFFFFFFFFFFFFFFFFFFFFFFFFFFFFFFFFFFFFFFFFFFFFFFFFFFFFFFFF
310
FFFFFFFFFFFFFFFFFFFFFFFFFFFFFFFFF000FFFFFFFFFFFFFFFFFFFFFFFFFFFF
310
FFFFFFFFFFFFFFFFFFFFFFFFFFFFFFFFFFFFFFFFFFFFFFFFFFFFFFFFFFFFFFFF
310
FFFFFFFFFFFFFFFFFFFFFFFFFFFFFFFFFFFFFFFFFFFFFFFFFFFFFFFFFFFFFFFF
310
FFFFFFFFFFFFFFFFF000FFFFF80003FFFFFFFFFFFFFFFFFFFFFFFFFFFFFFFFFF
310
FFFFF00007FFFFFFFFFF00007FFFFFF800000000000000007FFFFFFFFFFFFFFF
310
FFFFFFFC001FFFFFFFFFFFFFFC001FFFFFFFFFFFFFFFFFFFFFFFFFFE0007FFFF
310
F000FFFF8000007FFFFFFFF8000FFFFFC0007FFFFF80007FFFFF0000007FFFFF
310
FFF8000007FFFFF800000000000000007FFFFFF0001FFFFFFFFFFFC00001FFFF
310
FFFFFFFFC00001FFFFFFFF000000000003FFFFE000007FFFF000FFFE0000000F
310
FFFFFFF0000FFFFF80007FFFFF80007FFFFC0000001FFFFFFFC0000001FFFFF8
310
00000000000000007FFFFFF0001FFFFFFFFFFE0000003FFFFFFFFFFE0000003F
310
FFFFFF000000000003FFFF0000000FFFF000FFF800000003FFFFFFF00007FFFF
310
80007FFFFF80007FFFF000000007FFFFFF000000003FFFF80000000000000000
310
7FFFFFF0001FFFFFFFFFF80000000FFFFFFFFFF80000000FFFFFFF0000000000
310
03FFFC00000003FFF000FFE000000000FFFFFFF00007FFFF80003FFFFF80007F
310
FFC000000001FFFFFC000000001FFFF800000000000000007FFFFFF0001FFFFF
310
FFFFE000000003FFFFFFFFE000000003FFFFFF000000000003FFF000000000FF
310
F000FF80000000007FFFFFF00007FFFF80003FFFFF80007FFF8000000000FFFF
310
F80000000007FFF800000000000000007FFFFFF0001FFFFFFFFFC000000001FF
310
FFFFFFC000000001FFFFFF000000000003FFC0000000007FF000FF0000000000
310
3FFFFFE00007FFFF00003FFFFF80007FFE00000000003FFFF00000000003FFF8
310
00000000000000007FFFFFF0001FFFFFFFFF8000000000FFFFFFFF8000000000
310
FFFFFF000000000003FF80000000003FF000FE00000000001FFFFFE00003FFFF
310
00003FFFFF80007FFC00000000001FFFE00000000001FFF8000001FFFE000000
310
7FFFFFF0001FFFFFFFFE00000000003FFFFFFE00000000003FFFFF0000000000
310
03FF00000000001FF000FC00000000000FFFFFE00003FFFF00001FFFFF80007F
310
F800000000001FFFC00000000000FFF8000001FFFE0000007FFFFFF0001FFFFF
310
FFFC00000000001FFFFFFC00000000001FFFFF000000000003FE00000000000F
310
F000F8000000000007FFFFE00003FFFF00001FFFFF80007FF800000000000FFF
310
800000000000FFF8000001FFFE0000007FFFFFF0001FFFFFFFF800000000000F
310
FFFFF800000000000FFFFF000000000003FC000000000007F000F80000000000
310
03FFFFC00003FFFE00001FFFFF80007FF0000000000007FF0000000000007FF8
310
000001FFFE0000007FFFFFF0001FFFFFFFF0000000000007FFFFF00000000000
310
07FFFF000000000003F8000000000003F000F0000000000003FFFFC00001FFFE
310
00001FFFFF80007FE0000000000007FE0000000000003FF8000001FFFE000000
310
7FFFFFF0001FFFFFFFF0000000000007FFFFF0000000000007FFFF0000000000
310
03F800001F800003F000E00001FFF00001FFFFC00001FFFE00000FFFFF80007F
310
E00001FFE00003FE00001FFF00003FF8000001FFFE0000007FFFFFF0001FFFFF
310
FFE000003E000003FFFFE000003E000003FFFF000000000003F00001FFF80001
310
F000E00007FFFC0001FFFFC00001FFFE00000FFFFF80007FC0000FFFFC0003FC
310
0000FFFFC0001FF8000001FFFE0000007FFFFFF0001FFFFFFFC00003FFE00001
310
FFFFC00003FFE00001FFFF0001FFFFFFFFF00007FFFE0001F000E0000FFFFF00
310
00FFFF800001FFFC00000FFFFF80007FC0001FFFFE0001FC0001FFFFE0001FF8
310
000001FFFE0000007FFFFFF0001FFFFFFF80000FFFF80000FFFF80000FFFF800
310
00FFFF0003FFFFFFFFE0000FFFFF8000F000C0003FFFFF8000FFFF800000FFFC
310
000007FFFF80007F80003FFFFF0001FC0003FFFFF0001FF8000001FFFE000000
310
7FFFFFF0001FFFFFFF80003FFFFE0000FFFF80003FFFFE0000FFFF0003FFFFFF
310
FFE0003FFFFF8000F000C0003FFFFF8000FFFF800000FFFC000007FFFF80007F
310
80007FFFFF8001F80007FFFFF8000FF8000001FFFE0000007FFFFFF0001FFFFF
310
FF00007FFFFF00007FFF00007FFFFF00007FFF0003FFFFFFFFE0003FFFFFC000
310
F000C0007FFFFFC000FFFF000000FFFC000007FFFF80007F8000FFFFFF8000F8
310
000FFFFFF8000FF8000001FFFE0000007FFFFFF0001FFFFFFF0000FFFFFF8000
310
7FFF0000FFFFFF80007FFF0003FFFFFFFFC0007FFFFFC00070008000FFFFFFC0
310
00FFFF000000FFF8000007FFFF80007F8000FFFFFF8000F8000FFFFFF8000FF8
310
000001FFFE0000007FFFFFF0001FFFFFFE0001FFFFFFC0003FFE0001FFFFFFC0
310
003FFF0003FFFFFFFFC0007FFFFFE00070008000FFFFFFC0007FFF0000007FF8
310
000003FFFF80007F0001FFFFFF8000F8000FFFFFF8000FF8000001FFFE000000
310
7FFFFFF0001FFFFFFE0001FFFFFFC0003FFE0001FFFFFFC0003FFF0003FFFFFF
310
FFC000FFFFFFE00070008000FFFFFFC0007FFF0000007FF8000003FFFF80007F
310
0001FFFFFF8000F8001FFFFFF8000FF8000001FFFE0000007FFFFFF0001FFFFF
310
FE0003FFFFFFE0003FFE0003FFFFFFE0003FFF0003FFFFFFFFC000FFFFFFE000
310
70008000FFFFFFC0007FFE0000007FF8000003FFFF80007F0001FFFFFF8000F0
310
001FFFFFF8000FF8000001FFFE0000007FFFFFF0001FFFFFFC0003FFFFFFE000
310
1FFC0003FFFFFFE0001FFF0003FFFFFFFFC000FFFFFFC00070008000FFFFFF80
310
007FFE0000007FF0000003FFFF80007F0001FFFFFF0000F0001FFFFFF8000FF8
310
000001FFFE0000007FFFFFF0001FFFFFFC0007FFFFFFF0001FFC0007FFFFFFF0
310
001FFF0003FFFFFFFFC000FFFFFFC00070008001FFFFFF0000FFFE0000003FF0
310
000001FFFF80007F0001FFFFFF0000F8001FFFFFF0000FF8000001FFFE000000
310
7FFFFFF0001FFFFFFC0007FFFFFFF0001FFC0007FFFFFFF0001FFF0003FFFFFF
310
FFC001FFFFFF80007000FFFFFFFFFE0000FFFE0008003FF0008001FFFF80007F
310
FFFFFFFFFC0000FFFFFFFFFFE0000FF8000001FFFE0000007FFFFFF0001FFFFF
310
F8000FFFFFFFF8000FF8000FFFFFFFF8000FFF0003FFFFFFFFFFFFFFFFFF0000
310
7000FFFFFFFFFC0000FFFC0008003FF0008001FFFF80007FFFFFFFFFF80001FF
310
FFFFFFFF80000FF8000001FFFE0000007FFFFFF0001FFFFFF8000FFFFFFFF800
310
0FF8000FFFFFFFF8000FFF0003FFFFFFFFFFFFFFFFFE0000F000FFFFFFFFE000
310
00FFFC000C003FE000C001FFFF80007FFFFFFFFFC00001FFFFFFFFFE00001FF8
310
000001FFFE0000007FFFFFF0001FFFFFF8000FFFFFFFF8000FF8000FFFFFFFF8
310
000FFF0003FFFFFFFFFFFFFFFFF00000F000FFFFFFFE000001FFFC000C001FE0
310
00C000FFFF80007FFFFFFFFE000001FFFFFFFFE000001FF80FFFFFFFFFFFFFC0
310
7FFFFFF0001FFFFFF8000FFFFFFFF8000FF8000FFFFFFFF8000FFF0003FFFFFF
310
FFFFFFFFFF800000F000FFFFFFC0000001FFFC001C001FE001C000FFFF80007F
310
FFFFFF80000003FFFFFFF80000001FF80FFFFFFFFFFFFFC07FFFFFF0001FFFFF
310
F8001FFFFFFFFC000FF8001FFFFFFFFC000FFF0003FFFFFFFFFFFFFFF0000001
310
F000FFFFF800000001FFF8001C001FE001C000FFFF80007FFFFFF800000003FF
310
FFFF800000003FF80FFFFFFFFFFFFFC07FFFFFF0001FFFFFF8001FFFFFFFFC00
310
0FF8001FFFFFFFFC000FFF0003FFFFFFFFFFFFFE00000001F000FFFFC0000000
310
03FFF8001E001FC001E000FFFF80007FFFFF8000000007FFFFFC000000003FF8
310
0FFFFFFFFFFFFFC07FFFFFF0001FFFFFF8001FFFFFFFFC000FF8001FFFFFFFFC
310
000FFF0003FFFFFFFFFFFFE000000003F000FFFE0000000007FFF8001E000FC0
310
01E0007FFF80007FFFFE0000000007FFFFE0000000007FF80FFFFFFFFFFFFFC0
310
7FFFFFF0001FFFFFF0001FFFFFFFFC0007F0001FFFFFFFFC0007FF0003FFFFFF
310
FFFFFF0000000003F000FFF80000000007FFF8001E000FC003E0007FFF80007F
310
FFF0000000000FFFFF8000000000FFF80FFFFFFFFFFFFFC07FFFFFF0001FFFFF
310
F0001FFFFFFFFC0007F0001FFFFFFFFC0007FF0003FFFFFFFFFFFC0000000007
310
F000FFE0000000000FFFF0003E000FC003E0007FFF80007FFFC0000000001FFF
310
FE0000000001FFF80FFFFFFFFFFFFFC07FFFFFF0001FFFFFF0001FFFFFFFFC00
310
07F0001FFFFFFFFC0007FF0003FFFFFFFFFFF0000000000FF000FFC000000000
310
1FFFF0003F000F8003F0003FFF80007FFF80000000003FFFF80000000003FFF8
310
0FFFFFFFFFFFFFC07FFFFFF0001FFFFFF0001FFFFFFFFC0007F0001FFFFFFFFC
310
0007FF0003FFFFFFFFFFE0000000001FF000FF00000000007FFFF0003F000780
310
03F0003FFF80007FFF00000000007FFFF00000000007FFF80FFFFFFFFFFFFFC0
310
7FFFFFF0001FFFFFF0001FFFFFFFFC0007F0001FFFFFFFFC0007FF0003FFFFFF
310
FFFF80000000007FF000FE0000000000FFFFE0003F00078007F0003FFF80007F
310
FE0000000001FFFFE0000000001FFFF80FFFFFFFFFFFFFC07FFFFFF0001FFFFF
310
F0001FFFFFFFFC0007F0001FFFFFFFFC0007FF0003FFFFFFFFFF0000000000FF
310
F000FC0000000003FFFFE0007F00078007F0003FFF80007FFC0000000007FFFF
310
C0000000007FFFF80FFFFFFFFFFFFFC07FFFFFF0001FFFFFF8001FFFFFFFFC00
310
0FF8001FFFFFFFFC000FFF0003FFFFFFFFFE0000000003FFF000FC000000000F
310
FFFFE0007F80070007F8001FFF80007FF8000000001FFFFF8000000001FFFFF8
310
0FFFFFFFFFFFFFC07FFFFFF0001FFFFFF8001FFFFFFFFC000FF8001FFFFFFFFC
310
000FFF0003FFFFFFFFFC000000000FFFF000F8000000007FFFFFE0007F800700
310
07F8001FFF80007FF000000000FFFFFF800000000FFFFFF80FFFFFFFFFFFFFC0
310
7FFFFFF0001FFFFFF8000FFFFFFFF8000FF8000FFFFFFFF8000FFF0003FFFFFF
310
FFFC000000007FFFF000F800000007FFFFFFC0007F8003000FF8001FFF80007F
310
F000000007FFFFFF000000007FFFFFF80FFFFFFFFFFFFFC07FFFFFF0001FFFFF
310
F8000FFFFFFFF8000FF8000FFFFFFFF8000FFF0003FFFFFFFFF80000000FFFFF
310
F000F0000000FFFFFFFFC000FF8003000FF8001FFF80007FE0000000FFFFFFFF
310
0000000FFFFFFFF8000001FFFE0000007FFFFFF0001FFFFFF8000FFFFFFFF800
310
0FF8000FFFFFFFF8000FFF0003FFFFFFFFF8000000FFFFFFF000F000000FFFFF
310
FFFFC000FFC002000FF8000FFF80007FE000001FFFFFFFFE000001FFFFFFFFF8
310
000001FFFE0000007FFFFFF0001FFFFFF8000FFFFFFFF8000FF8000FFFFFFFF8
310
000FFF0003FFFFFFFFF000001FFFFFFFF000E00000FFFFFFFFFFC000FFC00200
310
0FFC000FFF80007FE00001FFFFFFFFFE00001FFFFFFFFFF8000001FFFE000000
310
7FFFFFF0001FFFFFFC000FFFFFFFF8001FFC000FFFFFFFF8001FFF0003FFFFFF
310
FFF00001FFFFFFFFF000E00007FFFFFFFFFF8000FFC000001FFC000FFF80007F
310
C0000FFFFFFFFFFE0000FFFFFFFFFFF8000001FFFE0000007FFFFFF0001FFFFF
310
FC0007FFFFFFF0001FFC0007FFFFFFF0001FFF0003FFFFFFFFF00007FFFFFFFF
310
F000E0001FFFFFFFFFFF8000FFC000001FFC000FFF80007FC0003FFFFFFFFFFE
310
0001FFFFFFFFFFF8000001FFFE0000007FFFFFF0001FFFFFFC0007FFFFFFF000
310
1FFC0007FFFFFFF0001FFF0003FFFFFFFFF0001FFFFFFFFFF000E0003FFFFF00
310
03FF8001FFE000001FFC0007FF80007FC0007FFFFF0007FC0003FFFFF0003FF8
310
000001FFFE0000007FFFFFF0001FFFFFFC0003FFFFFFE0001FFC0003FFFFFFE0
310
001FFF0003FFFFFFFFF0003FFFFFFFFFF000E0003FFFFF0001FF8001FFE00000
310
1FFE0007FF80007FC0007FFFFE0003FC0007FFFFE0003FF8000001FFFE000000
310
7FFFFFF0001FFFFFFE0003FFFFFFE0003FFE0003FFFFFFE0003FFF0003FFFFFF
310
FFF0003FFFFF8001F000E0003FFFFF0001FF0001FFE000001FFE0007FF80007F
310
C0007FFFFE0003FC0007FFFFE0003FF8000001FFFE0000007FFFFFF0001FFFFF
310
FE0001FFFFFFC0003FFE0001FFFFFFC0003FFF0003FFFFFFFFF0003FFFFF0001
310
F000E0003FFFFF0003FF0001FFE000003FFE0007FF80007FC0007FFFFE0003FC
310
0007FFFFE0003FF8000001FFFE0000007FFFFFF0001FFFFFFF0001FFFFFFC000
310
7FFF0001FFFFFFC0007FFF0003FFFFFFFFF0003FFFFF0001F000E0003FFFFE00
310
03FF0003FFF000003FFE0003FF80007FC0007FFFFC0003FE0007FFFFE0003FF8
310
000001FFFE0000007FFFFFF0001FFFFFFF0000FFFFFF80007FFF0000FFFFFF80
310
007FFF0003FFFFFFFFF0003FFFFF0001F000E0003FFFFE0003FF0003FFF00000
310
3FFF0003FF80007FC0007FFFFC0007FE0007FFFFC0003FF8000001FFFE000000
310
7FFFFFF0001FFFFFFF80007FFFFF0000FFFF80007FFFFF0000FFFF0003FFFFFF
310
FFF0003FFFFF0003F000E0003FFFFC0003FE0003FFF000003FFF0003FF80007F
310
E0003FFFF80007FE0003FFFFC0007FF8000001FFFE0000007FFFFFF0001FFFFF
310
FF80003FFFFE0000FFFF80003FFFFE0000FFFF0003FFFFFFFFF0001FFFFE0003
310
F000F0001FFFF80003FE0003FFF000007FFF0001FF80007FE0003FFFF00007FE
310
0001FFFF80007FF8000001FFFE0000007FFFFFF0001FFFFFFFC0000FFFF80001
310
FFFFC0000FFFF80001FFFF0003FFFFFFFFF0001FFFFC0003F000F0000FFFF000
310
07FE0007FFF800007FFF0001FF80007FE0001FFFE00007FF0000FFFE00007FF8
310
000001FFFE0000007FFFFFF0001FFFFFFFC00003FFE00001FFFFC00003FFE000
310
01FFFF0003FFFFFFFFF8000FFFF80003F000F00003FFC00007FC0007FFF80000
310
7FFF8001FF80007FF00007FF80000FFF00007FF80000FFF8000001FFFE000000
310
7F80000000000001FFE000003E000003FFFFE000003E000003FFFF0003FFFFFF
310
FFF80003FFE00007F000F800000000000FFC0007FFF800007FFF8001FF80007F
310
F000000000000FFF000000000000FFF8000001FFFE0000007F80000000000001
310
FFF0000000000007FFFFF0000000000007FFFF0003FFFFFFFFFC00007E000007
310
F000F800000000000FFC0007FFF80000FFFF8000FF80007FF800000000001FFF
310
800000000001FFF8000001FFFE0000007F80000000000001FFF800000000000F
310
FFFFF800000000000FFFFF0003FFFFFFFFFC00000000000FF000FC0000000000
310
1FFC0007FFFC0000FFFF8000FF80007FF800000000003FFFC00000000001FFF8
310
000001FFFE0000007F80000000000001FFF800000000000FFFFFF80000000000
310
0FFFFF0003FFFFFFFFFE00000000001FF000FE00000000003FF8000FFFFC0000
310
FFFF8000FF80007FFC00000000003FFFC00000000003FFF8000001FFFE000000
310
7F80000000000001FFFC00000000001FFFFFFC00000000001FFFFF0003FFFFFF
310
FFFF00000000001FF000FF00000000003FF8000FFFFC0000FFFFC000FF80007F
310
FE00000000007FFFE00000000007FFF8000001FFFE0000007F80000000000001
310
FFFE00000000003FFFFFFE00000000003FFFFF0003FFFFFFFFFF80000000003F
310
F000FF80000000007FF8000FFFFC0001FFFFC0007F80007FFF0000000000FFFF
310
F0000000000FFFF800000000000000007F80000000000001FFFF8000000000FF
310
FFFFFF8000000000FFFFFF0003FFFFFFFFFFC0000000007FF000FFC000000000
310
FFF8000FFFFE0001FFFFC0007F80007FFF8000000001FFFFF8000000001FFFF8
310
00000000000000007F80000000000001FFFFC000000001FFFFFFFFC000000001
310
FFFFFF0003FFFFFFFFFFE000000000FFF000FFE000000003FFF0001FFFFE0001
310
FFFFC0007F80007FFFC000000007FFFFFE000000003FFFF80000000000000000
310
7F80000000000001FFFFE000000003FFFFFFFFE000000003FFFFFF0003FFFFFF
310
FFFFF000000003FFF000FFF80000000FFFF0001FFFFE0001FFFFE0007F80007F
310
FFF00000000FFFFFFF00000000FFFFF800000000000000007F80000000000001
310
FFFFF80000000FFFFFFFFFF80000000FFFFFFF0003FFFFFFFFFFFC0000000FFF
310
F000FFFE0000003FFFF0001FFFFE0003FFFFE0003F80007FFFFC0000003FFFFF
310
FFC0000003FFFFF800000000000000007F80000000000001FFFFFE0000003FFF
310
FFFFFFFE0000003FFFFFFF0003FFFFFFFFFFFF0000003FFFF000FFFF800000FF
310
FFF0001FFFFF0003FFFFE0003F80007FFFFF000001FFFFFFFFF800001FFFFFF8
310
00000000000000007F80000000000001FFFFFFC00001FFFFFFFFFFFFC00001FF
310
FFFFFF0003FFFFFFFFFFFFC00000FFFFF000FFFFF8000FFFFFFFFFFFFFFFFFFF
310
FFFFFFFFFFFFFFFFFFFFF0001FFFFFFFFFFF0000FFFFFFF80000000000000000
310
7FFFFFFFFFFFFFFFFFFFFFFC001FFFFFFFFFFFFFFC001FFFFFFFFFFFFFFFFFFF
310
FFFFFFFC001FFFFFF000FFFFFFFFFFFFFFFFFFFFFFFFFFFFFFFFFFFFFFFFFFFF
310
FFFFFFFFFFFFFFFFFFFFFFFFFFFFFFFFFFFFFFFFFFFFFFFFFFFFFFFFFFFFFFFF
310
FFFFFFFFFFFFFFFFFFFFFFFFFFFFFFFFFFFFFFFFFFFFFFFFFFFFFFFFFFFFFFFF
310
F000FFFFFFFFFFFFFFFFFFFFFFFFFFFFFFFFFFFFFFFFFFFFFFFFFFFFFFFFFFFF
310
FFFFFFFFFFFFFFFFFFFFFFFFFFFFFFFFFFFFFFFFFFFFFFFFFFFFFFFFFFFFFFFF
310
FFFFFFFFFFFFFFFFFFFFFFFFFFFFFFFFFFFFFFFFFFFFFFFFF000FFFFFFFFFFFF
310
FFFFFFFFFFFFFFFFFFFFFFFFFFFFFFFFFFFFFFFFFFFFFFFFFFFFFFFFFFFFFFFF
310
FFFFFFFFFFFFFFFFFFFFFFFFFFFFFFFFFFFFFFFFFFFFFFFFFFFFFFFFFFFFFFFF
310
FFFFFFFFFFFFFFFFFFFFFFFFFFFFFFFFF000FFFFFFFFFFFFFFFFFFFFFFFFFFFF
310
FFFFFFFFFFFFFFFFFFFFFFFFFFFFFFFFFFFFFFFFFFFFFFFFFFFFFFFFFFFFFFFF
310
FFFFFFFFFFFFFFFFFFFFFFFFFFFFFFFFFFFFFFFFFFFFFFFFFFFFFFFFFFFFFFFF
310
FFFFFFFFFFFFFFFFF000FFFFFFFFFFFFFFFFFFFFFFFFFFFFFFFFFFFFFFFFFFFF
310
FFFFFFFFFFFFFFFFFFFFFFFFFFFFFFFFFFFFFFFFFFFFFFFFFFFFFFFFFFFFFFFF
310
FFFFFFFFFFFFFFFFFFFFFFFFFFFFFFFFFFFFFFFFFFFFFFFFFFFFFFFFFFFFFFFF
310
F000FFFFFFFFFFFFFFFFFFFFFFFFFFFFFFFFFFFFFFFFFFFFFFFFFFFFFFFFFFFF
310
FFFFFFFFFFFFFFFFFFFFFFFFFFFFFFFFFFFFFFFFFFFFFFFFFFFFFFFFFFFFFFFF
310
FFFFFFFFFFFFFFFFFFFFFFFFFFFFFFFFFFFFFFFFFFFFFFFFF000FFFFFFFFFFFF
310
FFFFFFFFFFFFFFFFFFFFFFFFFFFFFFFFFFFFFFFFFFFFFFFFFFFFFFFFFFFFFFFF
310
FFFFFFFFFFFFFFFFFFFFFFFFFFFFFFFFFFFFFFFFFFFFFFFFFFFFFFFFFFFFFFFF
310
FFFFFFFFFFFFFFFFFFFFFFFFFFFFFFFFF000FFFFFFFFFFFFFFFFFFFFFFFFFFFF
310
FFFFFFFFFFFFFFFFFFFFFFFFFFFFFFFFFFFFFFFFFFFFFFFFFFFFFFFFFFFFFFFF
310
FFFFFFFFFFFFFFFFFFFFFFFFFFFFFFFFFFFFFFFFFFFFFFFFFFFFFFFFFFFFFFFF
310
FFFFFFFFFFFFFFFFF000FFFFFFFFFFFFFFFFFFFFFFFFFFFFFFFFFFFFFFFFFFFF
310
FFFFFFFFFFFFFFFFFFFFFFFFFFFFFFFFFFFFFFFFFFFFFFFFFFFFFFFFFFFFFFFF
310
FFFFFFFFFFFFFFFFFFFFFFFFFFFFFFFFFFFFFFFFFFFFFFFFFFFFFFFFFFFFFFFF
310
F000FFFFFFFFFFFFFFFFFFFFFFFFFFFFFFFFFFFFFFFFFFFFFFFFFFFFFFFFFFFF
310
FFFFFFFFFFFFFFFFFFFFFFFFFFFFFFFFFFFFFFFFFFFFFFFFFFFFFFFFFFFFFFFF
310
FFFFFFFFFFFFFFFFFFFFFFFFFFFFFFFFFFFFFFFFFFFFFFFFF000FFFFFFFFFFFF
310
FFFFFFFFFFFFFFFFFFFFFFFFFFFFFFFFFFFFFFFFFFFFFFFFFFFFFFFFFFFFFFFF
310
FFFFFFFFFFFFFFFFFFFFFFFFFFFFFFFFFFFFFFFFFFFFFFFFFFFFFFFFFFFFFFFF
310
FFFFFFFFFFFFFFFFFFFFFFFFFFFFFFFFF000FFFFFFFFFFFFFFFFFFFFFFFFFFFF
310
FFFFFFFFFFFFFFFFFFFFFFFFFFFFFFFFFFFFFFFFFFFFFFFFFFFFFFFFFFFFFFFF
310
FFFFFFFFFFFFFFFFFFFFFFFFFFFFFFFFFFFFFFFFFFFFFFFFFFFFFFFFFFFFFFFF
310
FFFFFFFFFFFFFFFFF000FFFFFFFFFFFFFFFFFFFFFFFFFFFFFFFFFFFFFFFFFFFF
310
FFFFFFFFFFFFFFFFFFFFFFFFFFFFFFFFFFFFFFFFFFFFFFFFFFFFFFFFFFFFFFFF
310
FFFFFFFFFFFFFFFFFFFFFFFFFFFFFFFFFFFFFFFFFFFFFFFFFFFFFFFFFFFFFFFF
310
F000FFFFFFFFFFFFFFFFFFFFFFFFFFFFFFFFFFFFFFFFFFFFFFFFFFFFFFFFFFFF
310
FFFFFFFFFFFFFFFFFFFFFFFFFFFFFFFFFFFFFFFFFFFFFFFFFFFFFFFFFFFFFFFF
310
FFFFFFFFFFFFFFFFFFFFFFFFFFFFFFFFFFFFFFFFFFFFFFFFF000FFFFFFFFFFFF
310
FFFFFFFFFFFFFFFFFFFFFFFFFFFFFFFFFFFFFFFFFFFFFFFFFFFFFFFFFFFFFFFF
310
FFFFFFFFFFFFFFFFFFFFFFFFFFFFFFFFFFFFFFFFFFFFFFFFFFFFFFFFFFFFFFFF
310
FFFFFFFFFFFFFFFFFFFFFFFFFFFFFFFFF000FFFFFFFFFFFFFFFFFFFFFFFFFFFF
310
FFFFFFFFFFFFFFFFFFFFFFFFFFFFFFFFFFFFFFFFFFFFFFFFFFFFFFFFFFFFFFFF
310
FFFFFFFFFFFFFFFFFFFFFFFFFFFFFFFFFFFFFFFFFFFFFFFFFFFFFFFFFFFFFFFF
310
FFFFFFFFFFFFFFFFF000FFFFFFFFFFFFFFFFFFFFFFFFFFFFFFFFFFFFFFFFFFFF
310
FFFFFFFFFFFFFFFFFFFFFFFFFFFFFFFFFFFFFFFFFFFFFFFFFFFFFFFFFFFFFFFF
310
FFFFFFFFFFFFFFFFFFFFFFFFFFFFFFFFFFFFFFFFFFFFFFFFFFFFFFFFFFFFFFFF
310
F000FFFFFFFFFFFFFFFFFFFFFFFFFFFFFFFFFFFFFFFFFFFFFFFFFFFFFFFFFFFF
310
FFFFFFFFFFFFFFFFFFFFFFFFFFFFFFFFFFFFFFFFFFFFFFFFFFFFFFFFFFFFFFFF
310
FFFFFFFFFFFFFFFFFFFFFFFFFFFFFFFFFFFFFFFFFFFFFFFFF000FFFFFFFFFFFF
310
FFFFFFFFFFFFFFFFFFFFFFFFFFFFFFFFFFFFFFFFFFFFFFFFFFFFFFFFFFFFFFFF
310
FFFFFFFFFFFFFFFFFFFFFFFFFFFFFFFFFFFFFFFFFFFFFFFFFFFFFFFFFFFFFFFF
310
FFFFFFFFFFFFFFFFFFFFFFFFFFFFFFFFF000FFFFFFFFFFFFFFFFFFFFFFFFFFFF
310
FFFFFFFFFFFFFFFFFFFFFFFFFFFFFFFFFFFFFFFFFFFFFFFFFFFFFFFFFFFFFFFF
310
FFFFFFFFFFFFFFFFFFFFFFFFFFFFFFFFFFFFFFFFFFFFFFFFFFFFFFFFFFFFFFFF
310
FFFFFFFFFFFFFFFFF000FFFFFFFFFFFFFFFFFFFFFFFFFFFFFFFFFFFFFFFFFFFF
310
FFFFFFFFFFFFFFFFFFFFFFFFFFFFFFFFFFFFFFFFFFFFFFFFFFFFFFFFFFFFFFFF
310
FFFFFFFFFFFFFFFFFFFFFFFFFFFFFFFFFFFFFFFFFFFFFFFFFFFFFFFFFFFFFFFF
310
F000FFFFFFFFFFFFFFFFFFFFFFFFFFFFFFFFFFFFFFFFFFFFFFFFFFFFFFFFFFFF
310
FFFFFFFFFFFFFFFFFFFFFFFFFFFFFFFFFFFFFFFFFFFFFFFFFFFFFFFFFFFFFFFF
310
FFFFFFFFFFFFFFFFFFFFFFFFFFFFFFFFFFFFFFFFFFFFFFFFF000FFFFFFFFFFFF
310
FFFFFFFFFFFFFFFFFFFFFFFFFFFFFFFFFFFFFFFFFFFFFFFFFFFFFFFFFFFFFFFF
310
FFFFFFFFFFFFFFFFFFFFFFFFFFFFFFFFFFFFFFFFFFFFFFFFFFFFFFFFFFFFFFFF
310
FFFFFFFFFFFFFFFFFFFFFFFFFFFFFFFFF0000000000000000000000000000000
310
0000000000000000000000000000000000000000000000000000000000000000
310
0000000000000000000000000000000000000000000000000000000000000000
310
0000000000000000000000000000000000000000000000000000000000000000
310
0000000000000000000000000000000000000000000000000000000000000000
310
0000000000000000000000000000000000000000000000000000000000000000
310
0000000000000000000000000000000000000000000000000000000000000000
310
0000000000000000000000000000000000000000000000000000000000000000
310
0000000000000000000000000000000000000000000000000000000000000000
310
0000000000000000000000000000000000000000000000000000000000000000
310
0000000000000000000000000000000000000000000000000000000000000000
310
0000000000000000000000000000000000000000000000000000000000000000
310
0000000000000000000000000000000000000000000000000000000000000000
310
0000000000000000000000000000000000000000000000000000000000000000
310
0000000000000000000000000000000000000000000000000000000000000000
310
0000000000000000000000000000000000000000000000000000000000000000
  1
OLE
  0
ENDSEC
  0
SECTION
  2
OBJECTS
  0
DICTIONARY
  5
C
330
0
100
AcDbDictionary
281
     1
  3
ACAD_GROUP
350
D
  3
ACAD_LAYOUT
350
1A
  3
ACAD_MLINESTYLE
350
17
  3
ACAD_PLOTSETTINGS
350
19
  3
ACAD_PLOTSTYLENAME
350
E
  3
ACAD_SCALELIST
350
47
  0
DICTIONARY
  5
D
102
{ACAD_REACTORS
330
C
102
}
330
C
100
AcDbDictionary
281
     1
  0
DICTIONARY
  5
1A
102
{ACAD_REACTORS
330
C
102
}
330
C
100
AcDbDictionary
281
     1
  3
Layout1
350
1E
  3
Layout2
350
26
  3
Model
350
22
  0
DICTIONARY
  5
17
102
{ACAD_REACTORS
330
C
102
}
330
C
100
AcDbDictionary
281
     1
  3
Standard
350
18
  0
DICTIONARY
  5
19
102
{ACAD_REACTORS
330
C
102
}
330
C
100
AcDbDictionary
281
     1
  0
ACDBDICTIONARYWDFLT
  5
E
102
{ACAD_REACTORS
330
C
102
}
330
C
100
AcDbDictionary
281
     1
  3
Normal
350
F
100
AcDbDictionaryWithDefault
340
F
  0
DICTIONARY
  5
47
102
{ACAD_REACTORS
330
C
102
}
330
C
100
AcDbDictionary
281
     1
  3
A0
350
48
  3
A1
350
49
  3
A2
350
4A
  3
A3
350
4B
  3
A4
350
4C
  3
A5
350
4D
  3
A6
350
4E
  3
A7
350
4F
  3
A8
350
50
  3
A9
350
51
  3
B0
350
52
  3
B1
350
53
  3
B2
350
54
  3
B3
350
55
  3
B4
350
56
  3
B5
350
57
  3
B6
350
58
  3
B7
350
59
  3
B8
350
5A
  3
B9
350
5B
  3
C0
350
5C
  3
C1
350
5D
  3
C2
350
5E
  3
C3
350
5F
  3
C4
350
60
  3
C5
350
61
  3
C6
350
62
  3
C7
350
63
  3
C8
350
64
  3
C9
350
65
  3
D0
350
66
  3
D1
350
67
  3
D2
350
68
  0
LAYOUT
  5
1E
102
{ACAD_REACTORS
330
1A
102
}
330
1A
100
AcDbPlotSettings
  1

  2
none_device
  4

  6

 40
0.0
 41
0.0
 42
0.0
 43
0.0
 44
0.0
 45
0.0
 46
0.0
 47
0.0
 48
0.0
 49
0.0
140
0.0
141
0.0
142
1.0
143
1.0
 70
   688
 72
     1
 73
     0
 74
     5
  7

 75
    16
147
1.0
148
0.0
149
0.0
100
AcDbLayout
  1
Layout1
 70
     1
 71
     1
 10
0.0
 20
0.0
 11
420.0
 21
297.0
 12
0.0
 22
0.0
 32
0.0
 14
1.0000000000E+20
 24
1.0000000000E+20
 34
1.0000000000E+20
 15
-1.0000000000E+20
 25
-1.0000000000E+20
 35
-1.0000000000E+20
146
0.0
 13
0.0
 23
0.0
 33
0.0
 16
1.0
 26
0.0
 36
0.0
 17
0.0
 27
1.0
 37
0.0
 76
     0
330
1B
  0
LAYOUT
  5
26
102
{ACAD_REACTORS
330
1A
102
}
330
1A
100
AcDbPlotSettings
  1

  2
none_device
  4

  6

 40
0.0
 41
0.0
 42
0.0
 43
0.0
 44
0.0
 45
0.0
 46
0.0
 47
0.0
 48
0.0
 49
0.0
140
0.0
141
0.0
142
1.0
143
1.0
 70
   688
 72
     1
 73
     0
 74
     5
  7

 75
    16
147
1.0
148
0.0
149
0.0
100
AcDbLayout
  1
Layout2
 70
     1
 71
     2
 10
0.0
 20
0.0
 11
0.0
 21
0.0
 12
0.0
 22
0.0
 32
0.0
 14
0.0
 24
0.0
 34
0.0
 15
0.0
 25
0.0
 35
0.0
146
0.0
 13
0.0
 23
0.0
 33
0.0
 16
1.0
 26
0.0
 36
0.0
 17
0.0
 27
1.0
 37
0.0
 76
     0
330
23
  0
LAYOUT
  5
22
102
{ACAD_REACTORS
330
1A
102
}
330
1A
100
AcDbPlotSettings
  1

  2
none_device
  4
Letter_(8.50_x_11.00_Inches)
  6

 40
6.35
 41
6.35
 42
6.35000508
 43
6.35000508
 44
215.9
 45
279.4
 46
0.0
 47
0.0
 48
0.0
 49
0.0
140
0.0
141
0.0
142
1.0
143
1.0
 70
  1712
 72
     1
 73
     0
 74
     0
  7

 75
     0
147
1.0
148
0.0
149
0.0
100
AcDbLayout
  1
Model
 70
     1
 71
     0
 10
0.0
 20
0.0
 11
297.0
 21
210.0
 12
0.0
 22
0.0
 32
0.0
 14
0.0
 24
0.0
 34
0.0
 15
297.0
 25
210.0
 35
0.0
146
0.0
 13
0.0
 23
0.0
 33
0.0
 16
1.0
 26
0.0
 36
0.0
 17
0.0
 27
1.0
 37
0.0
 76
     0
330
1F
331
29
  0
MLINESTYLE
  5
18
102
{ACAD_REACTORS
330
17
102
}
330
17
100
AcDbMlineStyle
  2
Standard
 70
     0
  3

 62
   256
 51
90.0
 52
90.0
 71
     2
 49
0.5
 62
   256
  6
BYLAYER
 49
-0.5
 62
   256
  6
BYLAYER
  0
ACDBPLACEHOLDER
  5
F
102
{ACAD_REACTORS
330
E
102
}
330
E
  0
SCALE
  5
48
102
{ACAD_REACTORS
330
47
102
}
330
47
100
AcDbScale
 70
     0
300
1:1
140
1.0
141
1.0
290
     1
  0
SCALE
  5
49
102
{ACAD_REACTORS
330
47
102
}
330
47
100
AcDbScale
 70
     0
300
1:2
140
1.0
141
2.0
290
     0
  0
SCALE
  5
4A
102
{ACAD_REACTORS
330
47
102
}
330
47
100
AcDbScale
 70
     0
300
1:4
140
1.0
141
4.0
290
     0
  0
SCALE
  5
4B
102
{ACAD_REACTORS
330
47
102
}
330
47
100
AcDbScale
 70
     0
300
1:5
140
1.0
141
5.0
290
     0
  0
SCALE
  5
4C
102
{ACAD_REACTORS
330
47
102
}
330
47
100
AcDbScale
 70
     0
300
1:8
140
1.0
141
8.0
290
     0
  0
SCALE
  5
4D
102
{ACAD_REACTORS
330
47
102
}
330
47
100
AcDbScale
 70
     0
300
1:10
140
1.0
141
10.0
290
     0
  0
SCALE
  5
4E
102
{ACAD_REACTORS
330
47
102
}
330
47
100
AcDbScale
 70
     0
300
1:16
140
1.0
141
16.0
290
     0
  0
SCALE
  5
4F
102
{ACAD_REACTORS
330
47
102
}
330
47
100
AcDbScale
 70
     0
300
1:20
140
1.0
141
20.0
290
     0
  0
SCALE
  5
50
102
{ACAD_REACTORS
330
47
102
}
330
47
100
AcDbScale
 70
     0
300
1:30
140
1.0
141
30.0
290
     0
  0
SCALE
  5
51
102
{ACAD_REACTORS
330
47
102
}
330
47
100
AcDbScale
 70
     0
300
1:40
140
1.0
141
40.0
290
     0
  0
SCALE
  5
52
102
{ACAD_REACTORS
330
47
102
}
330
47
100
AcDbScale
 70
     0
300
1:50
140
1.0
141
50.0
290
     0
  0
SCALE
  5
53
102
{ACAD_REACTORS
330
47
102
}
330
47
100
AcDbScale
 70
     0
300
1:100
140
1.0
141
100.0
290
     0
  0
SCALE
  5
54
102
{ACAD_REACTORS
330
47
102
}
330
47
100
AcDbScale
 70
     0
300
2:1
140
2.0
141
1.0
290
     0
  0
SCALE
  5
55
102
{ACAD_REACTORS
330
47
102
}
330
47
100
AcDbScale
 70
     0
300
4:1
140
4.0
141
1.0
290
     0
  0
SCALE
  5
56
102
{ACAD_REACTORS
330
47
102
}
330
47
100
AcDbScale
 70
     0
300
8:1
140
8.0
141
1.0
290
     0
  0
SCALE
  5
57
102
{ACAD_REACTORS
330
47
102
}
330
47
100
AcDbScale
 70
     0
300
10:1
140
10.0
141
1.0
290
     0
  0
SCALE
  5
58
102
{ACAD_REACTORS
330
47
102
}
330
47
100
AcDbScale
 70
     0
300
100:1
140
100.0
141
1.0
290
     0
  0
SCALE
  5
59
102
{ACAD_REACTORS
330
47
102
}
330
47
100
AcDbScale
 70
     0
300
1/128" = 1'-0"
140
0.0078125
141
12.0
290
     0
  0
SCALE
  5
5A
102
{ACAD_REACTORS
330
47
102
}
330
47
100
AcDbScale
 70
     0
300
1/64" = 1'-0"
140
0.015625
141
12.0
290
     0
  0
SCALE
  5
5B
102
{ACAD_REACTORS
330
47
102
}
330
47
100
AcDbScale
 70
     0
300
1/32" = 1'-0"
140
0.03125
141
12.0
290
     0
  0
SCALE
  5
5C
102
{ACAD_REACTORS
330
47
102
}
330
47
100
AcDbScale
 70
     0
300
1/16" = 1'-0"
140
0.0625
141
12.0
290
     0
  0
SCALE
  5
5D
102
{ACAD_REACTORS
330
47
102
}
330
47
100
AcDbScale
 70
     0
300
3/32" = 1'-0"
140
0.09375
141
12.0
290
     0
  0
SCALE
  5
5E
102
{ACAD_REACTORS
330
47
102
}
330
47
100
AcDbScale
 70
     0
300
1/8" = 1'-0"
140
0.125
141
12.0
290
     0
  0
SCALE
  5
5F
102
{ACAD_REACTORS
330
47
102
}
330
47
100
AcDbScale
 70
     0
300
3/16" = 1'-0"
140
0.1875
141
12.0
290
     0
  0
SCALE
  5
60
102
{ACAD_REACTORS
330
47
102
}
330
47
100
AcDbScale
 70
     0
300
1/4" = 1'-0"
140
0.25
141
12.0
290
     0
  0
SCALE
  5
61
102
{ACAD_REACTORS
330
47
102
}
330
47
100
AcDbScale
 70
     0
300
3/8" = 1'-0"
140
0.375
141
12.0
290
     0
  0
SCALE
  5
62
102
{ACAD_REACTORS
330
47
102
}
330
47
100
AcDbScale
 70
     0
300
1/2" = 1'-0"
140
0.5
141
12.0
290
     0
  0
SCALE
  5
63
102
{ACAD_REACTORS
330
47
102
}
330
47
100
AcDbScale
 70
     0
300
3/4" = 1'-0"
140
0.75
141
12.0
290
     0
  0
SCALE
  5
64
102
{ACAD_REACTORS
330
47
102
}
330
47
100
AcDbScale
 70
     0
300
1" = 1'-0"
140
1.0
141
12.0
290
     0
  0
SCALE
  5
65
102
{ACAD_REACTORS
330
47
102
}
330
47
100
AcDbScale
 70
     0
300
1-1/2" = 1'-0"
140
1.5
141
12.0
290
     0
  0
SCALE
  5
66
102
{ACAD_REACTORS
330
47
102
}
330
47
100
AcDbScale
 70
     0
300
3" = 1'-0"
140
3.0
141
12.0
290
     0
  0
SCALE
  5
67
102
{ACAD_REACTORS
330
47
102
}
330
47
100
AcDbScale
 70
     0
300
6" = 1'-0"
140
6.0
141
12.0
290
     0
  0
SCALE
  5
68
102
{ACAD_REACTORS
330
47
102
}
330
47
100
AcDbScale
 70
     0
300
1'-0" = 1'-0"
140
12.0
141
12.0
290
     0
  0
ENDSEC
  0
EOF
