  0
SECTION
  2
HEADER
  9
$ACADVER
  1
AC1015
  9
$ACADMAINTVER
 70
     6
  9
$DWGCODEPAGE
  3
ANSI_1252
  9
$INSBASE
 10
0.0
 20
0.0
 30
0.0
  9
$EXTMIN
 10
0.0
 20
0.0
 30
0.0
  9
$EXTMAX
 10
297.0
 20
210.0
 30
0.0
  9
$LIMMIN
 10
0.0
 20
0.0
  9
$LIMMAX
 10
297.0
 20
210.0
  9
$ORTHOMODE
 70
     0
  9
$REGENMODE
 70
     1
  9
$FILLMODE
 70
     1
  9
$QTEXTMODE
 70
     0
  9
$MIRRTEXT
 70
     1
  9
$LTSCALE
 40
1.0
  9
$ATTMODE
 70
     1
  9
$TEXTSIZE
 40
2.0
  9
$TRACEWID
 40
1.0
  9
$TEXTSTYLE
  7
Standard
  9
$CLAYER
  8
0
  9
$CELTYPE
  6
ByLayer
  9
$CECOLOR
 62
   256
  9
$CELTSCALE
 40
1.0
  9
$DISPSILH
 70
     0
  9
$DIMSCALE
 40
1.0
  9
$DIMASZ
 40
3.0
  9
$DIMEXO
 40
0.0
  9
$DIMDLI
 40
3.75
  9
$DIMRND
 40
0.0
  9
$DIMDLE
 40
0.0
  9
$DIMEXE
 40
1.0
  9
$DIMTP
 40
0.0
  9
$DIMTM
 40
0.0
  9
$DIMTXT
 40
2.0
  9
$DIMCEN
 40
2.5
  9
$DIMTSZ
 40
0.0
  9
$DIMTOL
 70
     0
  9
$DIMLIM
 70
     0
  9
$DIMTIH
 70
     1
  9
$DIMTOH
 70
     1
  9
$DIMSE1
 70
     0
  9
$DIMSE2
 70
     0
  9
$DIMTAD
 70
     1
  9
$DIMZIN
 70
     0
  9
$DIMBLK
  1

  9
$DIMASO
 70
     1
  9
$DIMSHO
 70
     1
  9
$DIMPOST
  1

  9
$DIMAPOST
  1

  9
$DIMALT
 70
     0
  9
$DIMALTD
 70
     3
  9
$DIMALTF
 40
0.0393700787
  9
$DIMLFAC
 40
1.0
  9
$DIMTOFL
 70
     1
  9
$DIMTVP
 40
0.0
  9
$DIMTIX
 70
     0
  9
$DIMSOXD
 70
     0
  9
$DIMSAH
 70
     0
  9
$DIMBLK1
  1

  9
$DIMBLK2
  1

  9
$DIMSTYLE
  2
ISO-25
  9
$DIMCLRD
 70
     0
  9
$DIMCLRE
 70
     0
  9
$DIMCLRT
 70
     0
  9
$DIMTFAC
 40
1.0
  9
$DIMGAP
 40
1.524
  9
$DIMJUST
 70
     0
  9
$DIMSD1
 70
     0
  9
$DIMSD2
 70
     0
  9
$DIMTOLJ
 70
     0
  9
$DIMTZIN
 70
     0
  9
$DIMALTZ
 70
     0
  9
$DIMALTTZ
 70
     0
  9
$DIMUPT
 70
     0
  9
$DIMDEC
 70
     2
  9
$DIMTDEC
 70
     3
  9
$DIMALTU
 70
     2
  9
$DIMALTTD
 70
     3
  9
$DIMTXSTY
  7
Standard
  9
$DIMAUNIT
 70
     0
  9
$DIMADEC
 70
     2
  9
$DIMALTRND
 40
0.0
  9
$DIMAZIN
 70
     0
  9
$DIMDSEP
 70
    44
  9
$DIMATFIT
 70
     3
  9
$DIMFRAC
 70
     0
  9
$DIMLDRBLK
  1

  9
$DIMLUNIT
 70
     2
  9
$DIMLWD
 70
    -2
  9
$DIMLWE
 70
    -2
  9
$DIMTMOVE
 70
     0
  9
$LUNITS
 70
     2
  9
$LUPREC
 70
     2
  9
$SKETCHINC
 40
1.0
  9
$FILLETRAD
 40
10.0
  9
$AUNITS
 70
     0
  9
$AUPREC
 70
     2
  9
$MENU
  1
.
  9
$ELEVATION
 40
0.0
  9
$PELEVATION
 40
0.0
  9
$THICKNESS
 40
0.0
  9
$LIMCHECK
 70
     0
  9
$CHAMFERA
 40
0.0
  9
$CHAMFERB
 40
0.0
  9
$CHAMFERC
 40
0.0
  9
$CHAMFERD
 40
0.0
  9
$SKPOLY
 70
     0
  9
$TDCREATE
 40
2457672.411903229
  9
$TDUCREATE
 40
2457672.328569896
  9
$TDUPDATE
 40
2457672.411904525
  9
$TDUUPDATE
 40
2457672.328571192
  9
$TDINDWG
 40
0.0000000116
  9
$TDUSRTIMER
 40
0.0000000116
  9
$USRTIMER
 70
     1
  9
$ANGBASE
 50
0.0
  9
$ANGDIR
 70
     0
  9
$PDMODE
 70
     0
  9
$PDSIZE
 40
-1.0
  9
$PLINEWID
 40
0.0
  9
$SPLFRAME
 70
     0
  9
$SPLINETYPE
 70
     6
  9
$SPLINESEGS
 70
     8
  9
$HANDSEED
  5
252
  9
$SURFTAB1
 70
     6
  9
$SURFTAB2
 70
     6
  9
$SURFTYPE
 70
     6
  9
$SURFU
 70
     6
  9
$SURFV
 70
     6
  9
$UCSBASE
  2

  9
$UCSNAME
  2

  9
$UCSORG
 10
0.0
 20
0.0
 30
0.0
  9
$UCSXDIR
 10
1.0
 20
0.0
 30
0.0
  9
$UCSYDIR
 10
0.0
 20
1.0
 30
0.0
  9
$UCSORTHOREF
  2

  9
$UCSORTHOVIEW
 70
     0
  9
$UCSORGTOP
 10
0.0
 20
0.0
 30
0.0
  9
$UCSORGBOTTOM
 10
0.0
 20
0.0
 30
0.0
  9
$UCSORGLEFT
 10
0.0
 20
0.0
 30
0.0
  9
$UCSORGRIGHT
 10
0.0
 20
0.0
 30
0.0
  9
$UCSORGFRONT
 10
0.0
 20
0.0
 30
0.0
  9
$UCSORGBACK
 10
0.0
 20
0.0
 30
0.0
  9
$PUCSBASE
  2

  9
$PUCSNAME
  2

  9
$PUCSORG
 10
0.0
 20
0.0
 30
0.0
  9
$PUCSXDIR
 10
1.0
 20
0.0
 30
0.0
  9
$PUCSYDIR
 10
0.0
 20
1.0
 30
0.0
  9
$PUCSORTHOREF
  2

  9
$PUCSORTHOVIEW
 70
     0
  9
$PUCSORGTOP
 10
0.0
 20
0.0
 30
0.0
  9
$PUCSORGBOTTOM
 10
0.0
 20
0.0
 30
0.0
  9
$PUCSORGLEFT
 10
0.0
 20
0.0
 30
0.0
  9
$PUCSORGRIGHT
 10
0.0
 20
0.0
 30
0.0
  9
$PUCSORGFRONT
 10
0.0
 20
0.0
 30
0.0
  9
$PUCSORGBACK
 10
0.0
 20
0.0
 30
0.0
  9
$USERI1
 70
     0
  9
$USERI2
 70
     0
  9
$USERI3
 70
     0
  9
$USERI4
 70
     0
  9
$USERI5
 70
     0
  9
$USERR1
 40
0.0
  9
$USERR2
 40
0.0
  9
$USERR3
 40
0.0
  9
$USERR4
 40
0.0
  9
$USERR5
 40
0.0
  9
$WORLDVIEW
 70
     1
  9
$SHADEDGE
 70
     3
  9
$SHADEDIF
 70
    70
  9
$TILEMODE
 70
     1
  9
$MAXACTVP
 70
    64
  9
$PINSBASE
 10
0.0
 20
0.0
 30
0.0
  9
$PLIMCHECK
 70
     0
  9
$PEXTMIN
 10
1.0000000000E+20
 20
1.0000000000E+20
 30
1.0000000000E+20
  9
$PEXTMAX
 10
-1.0000000000E+20
 20
-1.0000000000E+20
 30
-1.0000000000E+20
  9
$PLIMMIN
 10
0.0
 20
0.0
  9
$PLIMMAX
 10
420.0
 20
297.0
  9
$UNITMODE
 70
     0
  9
$VISRETAIN
 70
     1
  9
$PLINEGEN
 70
     0
  9
$PSLTSCALE
 70
     1
  9
$TREEDEPTH
 70
  3020
  9
$CMLSTYLE
  2
Standard
  9
$CMLJUST
 70
     0
  9
$CMLSCALE
 40
20.0
  9
$PROXYGRAPHICS
 70
     1
  9
$MEASUREMENT
 70
     1
  9
$CELWEIGHT
370
    -1
  9
$ENDCAPS
280
     0
  9
$JOINSTYLE
280
     0
  9
$LWDISPLAY
290
     1
  9
$INSUNITS
 70
     4
  9
$HYPERLINKBASE
  1

  9
$STYLESHEET
  1

  9
$XEDIT
290
     1
  9
$CEPSNTYPE
380
     0
  9
$PSTYLEMODE
290
     1
  9
$FINGERPRINTGUID
  2
{847A7609-AB40-4450-8FE2-E5EDBB1A94BB}
  9
$VERSIONGUID
  2
{FAEB1C32-E019-11D5-929B-00C0DF256EC4}
  9
$EXTNAMES
290
     1
  9
$PSVPSCALE
 40
0.0
  9
$OLESTARTUP
290
     0
  0
ENDSEC
  0
SECTION
  2
CLASSES
  0
CLASS
  1
ACDBDICTIONARYWDFLT
  2
AcDbDictionaryWithDefault
  3
ObjectDBX Classes
 90
        0
280
     0
281
     0
  0
CLASS
  1
VISUALSTYLE
  2
AcDbVisualStyle
  3
ObjectDBX Classes
 90
     4095
280
     0
281
     0
  0
CLASS
  1
MATERIAL
  2
AcDbMaterial
  3
ObjectDBX Classes
 90
     1153
280
     0
281
     0
  0
CLASS
  1
SCALE
  2
AcDbScale
  3
ObjectDBX Classes
 90
     1153
280
     0
281
     0
  0
CLASS
  1
TABLESTYLE
  2
AcDbTableStyle
  3
ObjectDBX Classes
 90
     4095
280
     0
281
     0
  0
CLASS
  1
MLEADERSTYLE
  2
AcDbMLeaderStyle
  3
ACDB_MLEADERSTYLE_CLASS
 90
     4095
280
     0
281
     0
  0
CLASS
  1
SUN
  2
AcDbSun
  3
SCENEOE
 90
     1153
280
     0
281
     0
  0
CLASS
  1
ACDBPLACEHOLDER
  2
AcDbPlaceHolder
  3
ObjectDBX Classes
 90
        0
280
     0
281
     0
  0
CLASS
  1
LAYOUT
  2
AcDbLayout
  3
ObjectDBX Classes
 90
        0
280
     0
281
     0
  0
ENDSEC
  0
SECTION
  2
TABLES
  0
TABLE
  2
VPORT
  5
8
330
0
100
AcDbSymbolTable
 70
     1
  0
VPORT
  5
29
330
8
100
AcDbSymbolTableRecord
100
AcDbViewportTableRecord
  2
*Active
 70
     0
 10
0.0
 20
0.0
 11
1.0
 21
1.0
 12
148.5
 22
105.0
 13
0.0
 23
0.0
 14
10.0
 24
10.0
 15
10.0
 25
10.0
 16
0.0
 26
0.0
 36
1.0
 17
0.0
 27
0.0
 37
0.0
 40
210.0
 41
1.4142857143
 42
50.0
 43
0.0
 44
0.0
 50
0.0
 51
0.0
 71
     0
 72
  2000
 73
     1
 74
     3
 75
     0
 76
     0
 77
     0
 78
     0
281
     0
 65
     1
110
0.0
120
0.0
130
0.0
111
1.0
121
0.0
131
0.0
112
0.0
122
1.0
132
0.0
 79
     0
146
0.0
  0
ENDTAB
  0
TABLE
  2
LTYPE
  5
5
330
0
100
AcDbSymbolTable
 70
     6
  0
LTYPE
  5
14
330
5
100
AcDbSymbolTableRecord
100
AcDbLinetypeTableRecord
  2
ByBlock
 70
     0
  3

 72
    65
 73
     0
 40
0.0
  0
LTYPE
  5
15
330
5
100
AcDbSymbolTableRecord
100
AcDbLinetypeTableRecord
  2
ByLayer
 70
     0
  3

 72
    65
 73
     0
 40
0.0
  0
LTYPE
  5
16
330
5
100
AcDbSymbolTableRecord
100
AcDbLinetypeTableRecord
  2
Continuous
 70
     0
  3
Solid line
 72
    65
 73
     0
 40
0.0
  0
LTYPE
  5
6E
330
5
100
AcDbSymbolTableRecord
100
AcDbLinetypeTableRecord
  2
HIDDEN
 70
     0
  3
Hidden __ __ __ __ __ __ __ __ __ __ __ __ __ __
 72
    65
 73
     2
 40
1.905
 49
1.27
 74
     0
 49
-0.635
 74
     0
  0
LTYPE
  5
6F
330
5
100
AcDbSymbolTableRecord
100
AcDbLinetypeTableRecord
  2
PHANTOM
 70
     0
  3
Phantom ______  __  __  ______  __  __  ______
 72
    65
 73
     6
 40
12.7
 49
6.35
 74
     0
 49
-1.27
 74
     0
 49
1.27
 74
     0
 49
-1.27
 74
     0
 49
1.27
 74
     0
 49
-1.27
 74
     0
  0
LTYPE
  5
70
330
5
100
AcDbSymbolTableRecord
100
AcDbLinetypeTableRecord
  2
CENTER
 70
     0
  3
Center ____ _ ____ _ ____ _ ____ _ ____ _ ____
 72
    65
 73
     4
 40
10.16
 49
6.35
 74
     0
 49
-1.27
 74
     0
 49
1.27
 74
     0
 49
-1.27
 74
     0
  0
LTYPE
  5
71
330
5
100
AcDbSymbolTableRecord
100
AcDbLinetypeTableRecord
  2
CENTERX2
 70
     0
  3
Center (2x) ________  __  ________  __  _____
 72
    65
 73
     4
 40
20.32
 49
12.7
 74
     0
 49
-2.54
 74
     0
 49
2.54
 74
     0
 49
-2.54
 74
     0
  0
LTYPE
  5
72
330
5
100
AcDbSymbolTableRecord
100
AcDbLinetypeTableRecord
  2
DOT2
 70
     0
  3
Dot (.5x) ........................................
 72
    65
 73
     2
 40
0.635
 49
0.0
 74
     0
 49
-0.635
 74
     0
  0
ENDTAB
  0
TABLE
  2
LAYER
  5
2
330
0
100
AcDbSymbolTable
 70
     5
  0
LAYER
  5
10
330
2
100
AcDbSymbolTableRecord
100
AcDbLayerTableRecord
  2
0
 70
     0
 62
     7
  6
Continuous
370
    -3
390
F
  0
LAYER
  5
73
330
2
100
AcDbSymbolTableRecord
100
AcDbLayerTableRecord
  2
FORMAT
 70
     0
 62
     7
  6
Continuous
370
    -3
390
F
  0
LAYER
  5
74
330
2
100
AcDbSymbolTableRecord
100
AcDbLayerTableRecord
  2
VERMASSUNG
 70
     0
 62
     7
  6
Continuous
370
    -3
390
F
  0
LAYER
  5
75
330
2
100
AcDbSymbolTableRecord
100
AcDbLayerTableRecord
  2
KOPF_DÜNN
 70
     0
 62
     7
  6
Continuous
370
    -3
390
F
  0
LAYER
  5
76
330
2
100
AcDbSymbolTableRecord
100
AcDbLayerTableRecord
  2
KOPF_DICK
 70
     0
 62
     7
  6
Continuous
370
    15
390
F
  0
ENDTAB
  0
TABLE
  2
STYLE
  5
3
330
0
100
AcDbSymbolTable
 70
     3
  0
STYLE
  5
11
330
3
100
AcDbSymbolTableRecord
100
AcDbTextStyleTableRecord
  2
Standard
 70
     0
 40
0.0
 41
1.0
 50
0.0
 71
     0
 42
2.0
  3
txt
  4

  0
STYLE
  5
77
330
3
100
AcDbSymbolTableRecord
100
AcDbTextStyleTableRecord
  2
SLDTEXTSTYLE0
 70
     0
 40
0.0
 41
0.7
 50
0.0
 71
     0
 42
2.0
  3
TXT
  4

  0
STYLE
  5
7B
330
3
100
AcDbSymbolTableRecord
100
AcDbTextStyleTableRecord
  2
SLDTEXTSTYLE1
 70
     0
 40
0.0
 41
0.6454545455
 50
0.0
 71
     0
 42
2.0
  3
TXT
  4

  0
ENDTAB
  0
TABLE
  2
VIEW
  5
6
330
0
100
AcDbSymbolTable
 70
     0
  0
ENDTAB
  0
TABLE
  2
UCS
  5
7
330
0
100
AcDbSymbolTable
 70
     0
  0
ENDTAB
  0
TABLE
  2
APPID
  5
9
330
0
100
AcDbSymbolTable
 70
     1
  0
APPID
  5
12
330
9
100
AcDbSymbolTableRecord
100
AcDbRegAppTableRecord
  2
ACAD
 70
     0
  0
ENDTAB
  0
TABLE
  2
DIMSTYLE
  5
A
330
0
100
AcDbSymbolTable
 70
     2
100
AcDbDimStyleTable
  0
DIMSTYLE
105
27
330
A
100
AcDbSymbolTableRecord
100
AcDbDimStyleTableRecord
  2
ISO-25
 70
     0
 41
2.5
 42
0.625
 43
3.75
 44
1.25
 73
     0
 74
     0
 77
     1
 78
     8
140
2.5
141
2.5
143
0.0393700787
147
0.625
171
     3
172
     1
178
     0
271
     2
272
     2
274
     3
278
    44
283
     0
284
     8
340
11
  0
DIMSTYLE
105
187
102
{ACAD_REACTORS
330
186
330
192
330
19E
330
1AA
330
1B4
330
1C0
102
}
330
A
100
AcDbSymbolTableRecord
100
AcDbDimStyleTableRecord
  2
SLDDIMSTYLE0
 70
     0
 41
3.0
 44
0.0
 45
0.000000001
 73
     0
 74
     0
 77
     1
 78
    12
 79
     3
140
2.0
147
0.5
173
     1
178
     0
271
     2
272
     3
276
     2
284
    12
340
77
  0
ENDTAB
  0
TABLE
  2
BLOCK_RECORD
  5
1
330
0
100
AcDbSymbolTable
 70
     7
  0
BLOCK_RECORD
  5
1F
330
1
100
AcDbSymbolTableRecord
100
AcDbBlockTableRecord
  2
*Model_Space
340
22
  0
BLOCK_RECORD
  5
1B
330
1
100
AcDbSymbolTableRecord
100
AcDbBlockTableRecord
  2
*Paper_Space
340
1E
  0
BLOCK_RECORD
  5
23
330
1
100
AcDbSymbolTableRecord
100
AcDbBlockTableRecord
  2
*Paper_Space0
340
26
  0
BLOCK_RECORD
  5
188
330
1
100
AcDbSymbolTableRecord
100
AcDbBlockTableRecord
  2
_D
340
0
  0
BLOCK_RECORD
  5
193
330
1
100
AcDbSymbolTableRecord
100
AcDbBlockTableRecord
  2
_D_1
340
0
  0
BLOCK_RECORD
  5
19F
330
1
100
AcDbSymbolTableRecord
100
AcDbBlockTableRecord
  2
_D_2
340
0
  0
BLOCK_RECORD
  5
1AB
330
1
100
AcDbSymbolTableRecord
100
AcDbBlockTableRecord
  2
_D_3
340
0
  0
BLOCK_RECORD
  5
1B5
330
1
100
AcDbSymbolTableRecord
100
AcDbBlockTableRecord
  2
_D_4
340
0
  0
BLOCK_RECORD
  5
1C1
330
1
100
AcDbSymbolTableRecord
100
AcDbBlockTableRecord
  2
_D_5
340
0
  0
ENDTAB
  0
ENDSEC
  0
SECTION
  2
BLOCKS
  0
BLOCK
  5
20
330
1F
100
AcDbEntity
  8
0
100
AcDbBlockBegin
  2
*Model_Space
 70
     0
 10
0.0
 20
0.0
 30
0.0
  3
*Model_Space
  1

  0
ENDBLK
  5
21
330
1F
100
AcDbEntity
  8
0
100
AcDbBlockEnd
  0
BLOCK
  5
1C
330
1B
100
AcDbEntity
 67
     1
  8
0
100
AcDbBlockBegin
  2
*Paper_Space
 70
     0
 10
0.0
 20
0.0
 30
0.0
  3
*Paper_Space
  1

  0
ENDBLK
  5
1D
330
1B
100
AcDbEntity
 67
     1
  8
0
100
AcDbBlockEnd
  0
BLOCK
  5
24
330
23
100
AcDbEntity
  8
0
100
AcDbBlockBegin
  2
*Paper_Space0
 70
     0
 10
0.0
 20
0.0
 30
0.0
  3
*Paper_Space0
  1

  0
ENDBLK
  5
25
330
23
100
AcDbEntity
  8
0
100
AcDbBlockEnd
  0
BLOCK
  5
189
330
188
100
AcDbEntity
  8
0
100
AcDbBlockBegin
  2
_D
 70
     0
 10
0.0
 20
0.0
 30
0.0
  3
_D
  1

  0
SOLID
  5
18B
330
188
100
AcDbEntity
  8
VERMASSUNG
100
AcDbTrace
 10
209.6695198507
 20
118.113503568
 30
0.0
 11
209.2195198507
 21
115.113503568
 31
0.0
 12
210.1195198507
 22
115.113503568
 32
0.0
 13
210.1195198507
 23
115.113503568
 33
0.0
  0
SOLID
  5
18C
330
188
100
AcDbEntity
  8
VERMASSUNG
100
AcDbTrace
 10
209.6695198507
 20
100.113503568
 30
0.0
 11
210.1195198507
 21
103.113503568
 31
0.0
 12
209.2195198507
 22
103.113503568
 32
0.0
 13
209.2195198507
 23
103.113503568
 33
0.0
  0
LINE
  5
18D
330
188
100
AcDbEntity
  8
VERMASSUNG
100
AcDbLine
 10
194.1103875821
 20
118.113503568
 30
0.0
 11
210.6695198507
 21
118.113503568
 31
0.0
  0
LINE
  5
18E
330
188
100
AcDbEntity
  8
VERMASSUNG
100
AcDbLine
 10
194.1103875821
 20
100.113503568
 30
0.0
 11
210.6695198507
 21
100.113503568
 31
0.0
  0
LINE
  5
18F
330
188
100
AcDbEntity
  8
VERMASSUNG
100
AcDbLine
 10
209.6695198507
 20
118.113503568
 30
0.0
 11
209.6695198507
 21
100.113503568
 31
0.0
  0
MTEXT
  5
190
330
188
100
AcDbEntity
  8
VERMASSUNG
100
AcDbMText
 10
207.0913843129
 20
106.1100710242
 30
0.0
 40
2.0
 41
0.0
 71
     1
 72
     1
  1
%%c
  7
SLDTEXTSTYLE0
 11
-7.044195017643634E-15
 21
1.0
 31
0.0
 73
     1
 44
1.0
  0
MTEXT
  5
191
330
188
100
AcDbEntity
  8
VERMASSUNG
100
AcDbMText
 10
207.0913842547
 20
109.7190432178
 30
0.0
 40
2.0
 41
0.0
 71
     1
 72
     1
  1
18
  7
SLDTEXTSTYLE0
 11
-7.044195017643634E-15
 21
1.0
 31
0.0
 73
     1
 44
1.0
  0
ENDBLK
  5
18A
330
188
100
AcDbEntity
  8
0
100
AcDbBlockEnd
  0
BLOCK
  5
194
330
193
100
AcDbEntity
  8
0
100
AcDbBlockBegin
  2
_D_1
 70
     0
 10
0.0
 20
0.0
 30
0.0
  3
_D_1
  1

  0
SOLID
  5
196
330
193
100
AcDbEntity
  8
VERMASSUNG
100
AcDbTrace
 10
214.8224392802
 20
125.113503568
 30
0.0
 11
214.3724392802
 21
122.113503568
 31
0.0
 12
215.2724392802
 22
122.113503568
 32
0.0
 13
215.2724392802
 23
122.113503568
 33
0.0
  0
SOLID
  5
197
330
193
100
AcDbEntity
  8
VERMASSUNG
100
AcDbTrace
 10
214.8224392802
 20
93.113503568
 30
0.0
 11
215.2724392802
 21
96.113503568
 31
0.0
 12
214.3724392802
 22
96.113503568
 32
0.0
 13
214.3724392802
 23
96.113503568
 33
0.0
  0
LINE
  5
198
330
193
100
AcDbEntity
  8
VERMASSUNG
100
AcDbLine
 10
202.7103875821
 20
125.113503568
 30
0.0
 11
215.8224392802
 21
125.113503568
 31
0.0
  0
LINE
  5
199
330
193
100
AcDbEntity
  8
VERMASSUNG
100
AcDbLine
 10
202.7103875821
 20
93.113503568
 30
0.0
 11
215.8224392802
 21
93.113503568
 31
0.0
  0
LINE
  5
19A
330
193
100
AcDbEntity
  8
VERMASSUNG
100
AcDbLine
 10
214.8224392802
 20
125.113503568
 30
0.0
 11
214.8224392802
 21
93.113503568
 31
0.0
  0
MTEXT
  5
19B
330
193
100
AcDbEntity
  8
VERMASSUNG
100
AcDbMText
 10
212.044304024
 20
103.0095756586
 30
0.0
 40
2.0
 41
0.0
 71
     1
 72
     1
  1
ST3
  7
SLDTEXTSTYLE0
 11
-7.044195017643634E-15
 21
1.0
 31
0.0
 73
     1
 44
1.0
  0
MTEXT
  5
19C
330
193
100
AcDbEntity
  8
VERMASSUNG
100
AcDbMText
 10
212.2443039753
 20
108.8095755849
 30
0.0
 40
2.0
 41
0.0
 71
     1
 72
     1
  1
%%c
  7
SLDTEXTSTYLE0
 11
-7.044195017643634E-15
 21
1.0
 31
0.0
 73
     1
 44
1.0
  0
MTEXT
  5
19D
330
193
100
AcDbEntity
  8
VERMASSUNG
100
AcDbMText
 10
212.2443036842
 20
112.4180514568
 30
0.0
 40
2.0
 41
0.0
 71
     1
 72
     1
  1
32
  7
SLDTEXTSTYLE0
 11
-7.044195017643634E-15
 21
1.0
 31
0.0
 73
     1
 44
1.0
  0
ENDBLK
  5
195
330
193
100
AcDbEntity
  8
0
100
AcDbBlockEnd
  0
BLOCK
  5
1A0
330
19F
100
AcDbEntity
  8
0
100
AcDbBlockBegin
  2
_D_2
 70
     0
 10
0.0
 20
0.0
 30
0.0
  3
_D_2
  1

  0
ARC
  5
1A2
330
19F
100
AcDbEntity
  8
VERMASSUNG
100
AcDbCircle
 10
195.522627026
 20
146.6128465134
 30
0.0
 40
4.247059938537233
100
AcDbArc
 50
153.4349488229
 51
206.5650511771
  0
ARC
  5
1A3
330
19F
100
AcDbEntity
  8
VERMASSUNG
100
AcDbCircle
 10
193.4981481382
 20
146.6128465134
 30
0.0
 40
4.247059938537233
100
AcDbArc
 50
333.4349488229
 51
26.5650511771
  0
SOLID
  5
1A4
330
19F
100
AcDbEntity
  8
VERMASSUNG
100
AcDbTrace
 10
186.0103875821
 20
144.713503568
 30
0.0
 11
189.0103875821
 21
144.263503568
 31
0.0
 12
189.0103875821
 22
145.163503568
 32
0.0
 13
189.0103875821
 23
145.163503568
 33
0.0
  0
SOLID
  5
1A5
330
19F
100
AcDbEntity
  8
VERMASSUNG
100
AcDbTrace
 10
203.0103875821
 20
144.713503568
 30
0.0
 11
200.0103875821
 21
145.163503568
 31
0.0
 12
200.0103875821
 22
144.263503568
 32
0.0
 13
200.0103875821
 23
144.263503568
 33
0.0
  0
LINE
  5
1A6
330
19F
100
AcDbEntity
  8
VERMASSUNG
100
AcDbLine
 10
186.0103875821
 20
139.613503568
 30
0.0
 11
186.0103875821
 21
145.713503568
 31
0.0
  0
LINE
  5
1A7
330
19F
100
AcDbEntity
  8
VERMASSUNG
100
AcDbLine
 10
203.0103875821
 20
124.813503568
 30
0.0
 11
203.0103875821
 21
145.713503568
 31
0.0
  0
LINE
  5
1A8
330
19F
100
AcDbEntity
  8
VERMASSUNG
100
AcDbLine
 10
186.0103875821
 20
144.713503568
 30
0.0
 11
203.0103875821
 21
144.713503568
 31
0.0
  0
MTEXT
  5
1A9
330
19F
100
AcDbEntity
  8
VERMASSUNG
100
AcDbMText
 10
193.3114411352
 20
147.291639164
 30
0.0
 40
2.0
 41
0.0
 71
     1
 72
     1
  1
17
  7
SLDTEXTSTYLE0
 73
     1
 44
1.0
  0
ENDBLK
  5
1A1
330
19F
100
AcDbEntity
  8
0
100
AcDbBlockEnd
  0
BLOCK
  5
1AC
330
1AB
100
AcDbEntity
  8
0
100
AcDbBlockBegin
  2
_D_3
 70
     0
 10
0.0
 20
0.0
 30
0.0
  3
_D_3
  1

  0
SOLID
  5
1AE
330
1AB
100
AcDbEntity
  8
VERMASSUNG
100
AcDbTrace
 10
159.0103875821
 20
150.713503568
 30
0.0
 11
162.0103875821
 21
150.263503568
 31
0.0
 12
162.0103875821
 22
151.163503568
 32
0.0
 13
162.0103875821
 23
151.163503568
 33
0.0
  0
SOLID
  5
1AF
330
1AB
100
AcDbEntity
  8
VERMASSUNG
100
AcDbTrace
 10
203.0103875821
 20
150.713503568
 30
0.0
 11
200.0103875821
 21
151.163503568
 31
0.0
 12
200.0103875821
 22
150.263503568
 32
0.0
 13
200.0103875821
 23
150.263503568
 33
0.0
  0
LINE
  5
1B0
330
1AB
100
AcDbEntity
  8
VERMASSUNG
100
AcDbLine
 10
159.0103875821
 20
131.338503568
 30
0.0
 11
159.0103875821
 21
151.713503568
 31
0.0
  0
LINE
  5
1B1
330
1AB
100
AcDbEntity
  8
VERMASSUNG
100
AcDbLine
 10
203.0103875821
 20
124.813503568
 30
0.0
 11
203.0103875821
 21
151.713503568
 31
0.0
  0
LINE
  5
1B2
330
1AB
100
AcDbEntity
  8
VERMASSUNG
100
AcDbLine
 10
159.0103875821
 20
150.713503568
 30
0.0
 11
203.0103875821
 21
150.713503568
 31
0.0
  0
MTEXT
  5
1B3
330
1AB
100
AcDbEntity
  8
VERMASSUNG
100
AcDbMText
 10
179.4110569951
 20
153.291639164
 30
0.0
 40
2.0
 41
0.0
 71
     1
 72
     1
  1
44
  7
SLDTEXTSTYLE0
 73
     1
 44
1.0
  0
ENDBLK
  5
1AD
330
1AB
100
AcDbEntity
  8
0
100
AcDbBlockEnd
  0
BLOCK
  5
1B6
330
1B5
100
AcDbEntity
  8
0
100
AcDbBlockBegin
  2
_D_4
 70
     0
 10
0.0
 20
0.0
 30
0.0
  3
_D_4
  1

  0
ARC
  5
1B8
330
1B5
100
AcDbEntity
  8
VERMASSUNG
100
AcDbCircle
 10
147.5225528756
 20
158.6128465134
 30
0.0
 40
4.247059938537386
100
AcDbArc
 50
153.4349488229
 51
206.5650511771
  0
ARC
  5
1B9
330
1B5
100
AcDbEntity
  8
VERMASSUNG
100
AcDbCircle
 10
149.0982222886
 20
158.6128465134
 30
0.0
 40
4.247059938537386
100
AcDbArc
 50
333.4349488229
 51
26.5650511771
  0
SOLID
  5
1BA
330
1B5
100
AcDbEntity
  8
VERMASSUNG
100
AcDbTrace
 10
93.6103875821
 20
156.713503568
 30
0.0
 11
96.6103875821
 21
156.263503568
 31
0.0
 12
96.6103875821
 22
157.163503568
 32
0.0
 13
96.6103875821
 23
157.163503568
 33
0.0
  0
SOLID
  5
1BB
330
1B5
100
AcDbEntity
  8
VERMASSUNG
100
AcDbTrace
 10
203.0103875821
 20
156.713503568
 30
0.0
 11
200.0103875821
 21
157.163503568
 31
0.0
 12
200.0103875821
 22
156.263503568
 32
0.0
 13
200.0103875821
 23
156.263503568
 33
0.0
  0
LINE
  5
1BC
330
1B5
100
AcDbEntity
  8
VERMASSUNG
100
AcDbLine
 10
93.6103875821
 20
120.936259165
 30
0.0
 11
93.6103875821
 21
157.713503568
 31
0.0
  0
LINE
  5
1BD
330
1B5
100
AcDbEntity
  8
VERMASSUNG
100
AcDbLine
 10
203.0103875821
 20
124.813503568
 30
0.0
 11
203.0103875821
 21
157.713503568
 31
0.0
  0
LINE
  5
1BE
330
1B5
100
AcDbEntity
  8
VERMASSUNG
100
AcDbLine
 10
93.6103875821
 20
156.713503568
 30
0.0
 11
203.0103875821
 21
156.713503568
 31
0.0
  0
MTEXT
  5
1BF
330
1B5
100
AcDbEntity
  8
VERMASSUNG
100
AcDbMText
 10
145.3113669848
 20
159.291639164
 30
0.0
 40
2.0
 41
0.0
 71
     1
 72
     1
  1
109.4
  7
SLDTEXTSTYLE0
 73
     1
 44
1.0
  0
ENDBLK
  5
1B7
330
1B5
100
AcDbEntity
  8
0
100
AcDbBlockEnd
  0
BLOCK
  5
1C2
330
1C1
100
AcDbEntity
  8
0
100
AcDbBlockBegin
  2
_D_5
 70
     0
 10
0.0
 20
0.0
 30
0.0
  3
_D_5
  1

  0
SOLID
  5
1C4
330
1C1
100
AcDbEntity
  8
VERMASSUNG
100
AcDbTrace
 10
86.9530331839
 20
140.613503568
 30
0.0
 11
86.5030331839
 21
137.613503568
 31
0.0
 12
87.4030331839
 22
137.613503568
 32
0.0
 13
87.4030331839
 23
137.613503568
 33
0.0
  0
SOLID
  5
1C5
330
1C1
100
AcDbEntity
  8
VERMASSUNG
100
AcDbTrace
 10
86.9530331839
 20
77.613503568
 30
0.0
 11
87.4030331839
 21
80.613503568
 31
0.0
 12
86.5030331839
 22
80.613503568
 32
0.0
 13
86.5030331839
 23
80.613503568
 33
0.0
  0
LINE
  5
1C6
330
1C1
100
AcDbEntity
  8
VERMASSUNG
100
AcDbLine
 10
183.010383438
 20
140.613503568
 30
0.0
 11
85.9530331839
 21
140.613503568
 31
0.0
  0
LINE
  5
1C7
330
1C1
100
AcDbEntity
  8
VERMASSUNG
100
AcDbLine
 10
183.0103883482
 20
77.613503568
 30
0.0
 11
85.9530331839
 21
77.613503568
 31
0.0
  0
LINE
  5
1C8
330
1C1
100
AcDbEntity
  8
VERMASSUNG
100
AcDbLine
 10
86.9530331839
 20
140.613503568
 30
0.0
 11
86.9530331839
 21
77.613503568
 31
0.0
  0
MTEXT
  5
1C9
330
1C1
100
AcDbEntity
  8
VERMASSUNG
100
AcDbMText
 10
84.1748979277
 20
98.4090185011
 30
0.0
 40
2.0
 41
0.0
 71
     1
 72
     1
  1
MAS BT 40
  7
SLDTEXTSTYLE0
 11
-7.044195017643634E-15
 21
1.0
 31
0.0
 73
     1
 44
1.0
  0
MTEXT
  5
1CA
330
1C1
100
AcDbEntity
  8
VERMASSUNG
100
AcDbMText
 10
84.374897879
 20
113.4090181658
 30
0.0
 40
2.0
 41
0.0
 71
     1
 72
     1
  1
%%c
  7
SLDTEXTSTYLE0
 11
-7.044195017643634E-15
 21
1.0
 31
0.0
 73
     1
 44
1.0
  0
MTEXT
  5
1CB
330
1C1
100
AcDbEntity
  8
VERMASSUNG
100
AcDbMText
 10
84.3748975879
 20
117.0186086143
 30
0.0
 40
2.0
 41
0.0
 71
     1
 72
     1
  1
63
  7
SLDTEXTSTYLE0
 11
-7.044195017643634E-15
 21
1.0
 31
0.0
 73
     1
 44
1.0
  0
ENDBLK
  5
1C3
330
1C1
100
AcDbEntity
  8
0
100
AcDbBlockEnd
  0
ENDSEC
  0
SECTION
  2
ENTITIES
  0
MTEXT
  5
78
330
1F
100
AcDbEntity
  8
KOPF_DÜNN
100
AcDbMText
 10
13.8892156294
 20
23.8442973028
 30
0.0
 40
3.0
 41
0.0
 71
     1
 72
     1
  1
134.640.032.044
  7
SLDTEXTSTYLE0
 73
     1
 44
1.0
  0
MTEXT
  5
79
330
1F
100
AcDbEntity
  8
VERMASSUNG
100
AcDbMText
 10
13.9329988022
 20
28.8834360957
 30
0.0
 40
3.0
 41
0.0
 71
     1
 72
     1
  1
Aufnahme_Master shank ST3
  7
SLDTEXTSTYLE0
 73
     1
 44
1.0
  0
MTEXT
  5
7A
330
1F
100
AcDbEntity
  8
VERMASSUNG
100
AcDbMText
 10
98.8601118557
 20
13.8365368761
 30
0.0
 40
2.0
 41
0.0
 71
     1
 72
     1
  1
Datum: 06.06.2008
  7
SLDTEXTSTYLE0
 73
     1
 44
1.0
  0
MTEXT
  5
7C
330
1F
100
AcDbEntity
  8
VERMASSUNG
100
AcDbMText
 10
13.933048693
 20
18.0482802738
 30
0.0
 40
2.0
 41
0.0
 71
     1
 72
     1
  1
MAS BT 40 B
  7
SLDTEXTSTYLE1
 73
     1
 44
1.0
  0
MTEXT
  5
7D
330
1F
100
AcDbEntity
  8
VERMASSUNG
100
AcDbMText
 10
13.9808475933
 20
13.9090974274
 30
0.0
 40
2.0
 41
0.0
 71
     1
 72
     1
  1
Gewicht: 1042g
  7
SLDTEXTSTYLE0
 73
     1
 44
1.0
  0
LINE
  5
7E
330
1F
100
AcDbEntity
  8
0
  6
Continuous
 62
     7
370
    15
100
AcDbLine
 10
183.0103900235
 20
77.613503568
 30
0.0
 11
185.0103875821
 21
77.613503568
 31
0.0
  0
LINE
  5
7F
330
1F
100
AcDbEntity
  8
0
  6
Continuous
 62
     7
370
    15
100
AcDbLine
 10
185.0103875821
 20
140.613503568
 30
0.0
 11
183.0098874121
 21
140.613503568
 31
0.0
  0
ARC
  5
80
330
1F
100
AcDbEntity
  8
0
  6
Continuous
 62
     7
370
    15
100
AcDbCircle
 10
185.0103875821
 20
78.613503568
 30
0.0
 40
1.0
100
AcDbArc
 50
270.0
 51
0.0
  0
ARC
  5
81
330
1F
100
AcDbEntity
  8
0
  6
Continuous
 62
     7
370
    15
100
AcDbCircle
 10
185.0103875821
 20
139.613503568
 30
0.0
 40
1.0
100
AcDbArc
 50
0.0
 51
90.0
  0
ARC
  5
82
330
1F
100
AcDbEntity
  8
0
  6
Continuous
 62
     7
370
    15
100
AcDbCircle
 10
160.0103875821
 20
85.888503568
 30
0.0
 40
1.000000000000002
100
AcDbArc
 50
46.4336338331
 51
90.0
  0
ARC
  5
83
330
1F
100
AcDbEntity
  8
0
  6
Continuous
 62
     7
370
    15
100
AcDbCircle
 10
160.0103875821
 20
132.338503568
 30
0.0
 40
1.0
100
AcDbArc
 50
270.0
 51
313.5384774522
  0
LINE
  5
84
330
1F
100
AcDbEntity
  8
0
  6
Continuous
 62
     7
370
    15
100
AcDbLine
 10
159.0103875821
 20
86.888503568
 30
0.0
 11
160.0103875821
 21
86.888503568
 31
0.0
  0
LINE
  5
85
330
1F
100
AcDbEntity
  8
0
  6
Continuous
 62
     7
370
    15
100
AcDbLine
 10
160.0103875821
 20
131.338503568
 30
0.0
 11
159.0103875821
 21
131.338503568
 31
0.0
  0
LINE
  5
86
330
1F
100
AcDbEntity
  8
0
  6
Continuous
 62
     7
370
    15
100
AcDbLine
 10
159.0103875821
 20
131.338503568
 30
0.0
 11
94.466080689
 21
121.9257921461
 31
0.0
  0
LINE
  5
87
330
1F
100
AcDbEntity
  8
0
  6
Continuous
 62
     7
370
    15
100
AcDbLine
 10
94.466080689
 20
96.3012149899
 30
0.0
 11
159.0103875821
 21
86.888503568
 31
0.0
  0
ARC
  5
88
330
1F
100
AcDbEntity
  8
0
  6
Continuous
 62
     7
370
    15
100
AcDbCircle
 10
190.0103875821
 20
89.113503568
 30
0.0
 40
4.0
100
AcDbArc
 50
90.0
 51
180.0
  0
ARC
  5
89
330
1F
100
AcDbEntity
  8
0
  6
Continuous
 62
     7
370
    15
100
AcDbCircle
 10
190.0103875821
 20
129.113503568
 30
0.0
 40
4.000000000000014
100
AcDbArc
 50
180.0
 51
270.0
  0
LINE
  5
8A
330
1F
100
AcDbEntity
  8
0
  6
Continuous
 62
     7
370
    15
100
AcDbLine
 10
202.7103875821
 20
125.113503568
 30
0.0
 11
190.0103875821
 21
125.113503568
 31
0.0
  0
LINE
  5
8B
330
1F
100
AcDbEntity
  8
0
  6
Continuous
 62
     7
370
    15
100
AcDbLine
 10
190.0103875821
 20
93.113503568
 30
0.0
 11
202.7103875821
 21
93.113503568
 31
0.0
  0
LINE
  5
8C
330
1F
100
AcDbEntity
  8
0
  6
Continuous
 62
     7
370
    15
100
AcDbLine
 10
202.7103875821
 20
93.113503568
 30
0.0
 11
203.0103875821
 21
93.413503568
 31
0.0
  0
LINE
  5
8D
330
1F
100
AcDbEntity
  8
0
  6
Continuous
 62
     7
370
    15
100
AcDbLine
 10
203.0103875821
 20
124.813503568
 30
0.0
 11
202.7103875821
 21
125.113503568
 31
0.0
  0
ARC
  5
8E
330
1F
100
AcDbEntity
  8
0
  6
Continuous
 62
     7
370
    15
100
AcDbCircle
 10
94.6103875821
 20
97.290747971
 30
0.0
 40
1.0
100
AcDbArc
 50
180.0
 51
261.7028550302
  0
ARC
  5
8F
330
1F
100
AcDbEntity
  8
0
  6
Continuous
 62
     7
370
    15
100
AcDbCircle
 10
94.6103875821
 20
120.936259165
 30
0.0
 40
1.00000000000001
100
AcDbArc
 50
98.2971449698
 51
180.0
  0
SPLINE
  5
90
330
1F
100
AcDbEntity
  8
0
  6
Continuous
 62
     7
370
    15
100
AcDbSpline
210
0.0
220
0.0
230
1.0
 70
    24
 71
     3
 72
    11
 73
     7
 74
     0
 42
0.000000001
 43
0.00000001
 40
0.0
 40
0.0
 40
0.0
 40
0.0
 40
0.1183358584681206
 40
0.4755396850857848
 40
0.8141708872487058
 40
1.0
 40
1.0
 40
1.0
 40
1.0
 10
193.4780263203022
 20
108.2176212713327
 30
0.0
 10
193.4767420312465
 20
108.2817577182718
 30
0.0
 10
193.471581039295
 20
108.5394938447071
 30
0.0
 10
193.4618294472972
 20
109.0264811471066
 30
0.0
 10
193.4511014379864
 20
109.5622300089881
 30
0.0
 10
193.4453780572341
 20
109.8480514167947
 30
0.0
 10
193.4433501234955
 20
109.9493249299807
 30
0.0
  0
SPLINE
  5
91
330
1F
100
AcDbEntity
  8
0
  6
Continuous
 62
     7
370
    15
100
AcDbSpline
210
0.0
220
0.0
230
1.0
 70
    24
 71
     3
 72
    10
 73
     6
 74
     0
 42
0.000000001
 43
0.00000001
 40
0.0
 40
0.0
 40
0.0
 40
0.0
 40
0.4391165375904095
 40
0.7513669429073434
 40
1.0
 40
1.0
 40
1.0
 40
1.0
 10
196.4774250407335
 20
108.2776822060151
 30
0.0
 10
196.2652135982616
 20
108.1494297486972
 30
0.0
 10
195.9021011915756
 20
107.9299785358047
 30
0.0
 10
195.374253175485
 20
107.6109674383565
 30
0.0
 10
195.1115271451571
 20
107.4521859014212
 30
0.0
 10
194.9950637789212
 20
107.3817999093499
 30
0.0
  0
SPLINE
  5
92
330
1F
100
AcDbEntity
  8
0
  6
Continuous
 62
     7
370
    15
100
AcDbSpline
210
0.0
220
0.0
230
1.0
 70
    24
 71
     3
 72
    11
 73
     7
 74
     0
 42
0.000000001
 43
0.00000001
 40
0.0
 40
0.0
 40
0.0
 40
0.0
 40
0.1858291127512957
 40
0.5244603149142157
 40
0.8816641415318787
 40
1.0
 40
1.0
 40
1.0
 40
1.0
 10
196.4427488439268
 20
110.0093858646632
 30
0.0
 10
196.4447767776654
 20
109.9081123514771
 30
0.0
 10
196.4505001584177
 20
109.6222909436705
 30
0.0
 10
196.4612281677285
 20
109.0865420817891
 30
0.0
 10
196.4709797597264
 20
108.5995547793895
 30
0.0
 10
196.4761407516778
 20
108.3418186529543
 30
0.0
 10
196.4774250407335
 20
108.2776822060151
 30
0.0
  0
SPLINE
  5
93
330
1F
100
AcDbEntity
  8
0
  6
Continuous
 62
     7
370
    15
100
AcDbSpline
210
0.0
220
0.0
230
1.0
 70
    24
 71
     3
 72
    10
 73
     6
 74
     0
 42
0.000000001
 43
0.00000001
 40
0.0
 40
0.0
 40
0.0
 40
0.0
 40
0.4391165375904014
 40
0.7513669429073397
 40
1.0
 40
1.0
 40
1.0
 40
1.0
 10
194.9257113853078
 20
110.845207226646
 30
0.0
 10
195.1428869926789
 20
110.7255529551506
 30
0.0
 10
195.5144935212781
 20
110.5208139929774
 30
0.0
 10
196.0546892438027
 20
110.2231897504298
 30
0.0
 10
196.3235611036046
 20
110.075053102398
 30
0.0
 10
196.4427488439268
 20
110.0093858646632
 30
0.0
  0
CIRCLE
  5
94
330
1F
100
AcDbEntity
  8
0
  6
Continuous
 62
     7
370
    15
100
AcDbCircle
 10
194.9603875821
 20
109.113503568
 30
0.0
 40
1.900000000000034
  0
SPLINE
  5
95
330
1F
100
AcDbEntity
  8
0
  6
Continuous
 62
     7
370
    15
100
AcDbSpline
210
0.0
220
0.0
230
1.0
 70
    24
 71
     3
 72
    10
 73
     6
 74
     0
 42
0.000000001
 43
0.00000001
 40
0.0
 40
0.0
 40
0.0
 40
0.0
 40
0.4391165375904182
 40
0.7513669429073402
 40
1.0
 40
1.0
 40
1.0
 40
1.0
 10
194.9950637789212
 20
107.3817999093499
 30
0.0
 10
194.7778881715501
 20
107.5014541808453
 30
0.0
 10
194.4062816429509
 20
107.7061931430185
 30
0.0
 10
193.8660859204263
 20
108.0038173855661
 30
0.0
 10
193.5972140606245
 20
108.1519540335979
 30
0.0
 10
193.4780263203022
 20
108.2176212713327
 30
0.0
  0
SPLINE
  5
96
330
1F
100
AcDbEntity
  8
0
  6
Continuous
 62
     7
370
    15
100
AcDbSpline
210
0.0
220
0.0
230
1.0
 70
    24
 71
     3
 72
    10
 73
     6
 74
     0
 42
0.000000001
 43
0.00000001
 40
0.0
 40
0.0
 40
0.0
 40
0.0
 40
0.4391165375903914
 40
0.7513669429073258
 40
1.0
 40
1.0
 40
1.0
 40
1.0
 10
193.4433501234955
 20
109.9493249299807
 30
0.0
 10
193.6555615659674
 20
110.0775773872987
 30
0.0
 10
194.0186739726534
 20
110.2970286001912
 30
0.0
 10
194.546521988744
 20
110.6160396976394
 30
0.0
 10
194.809248019072
 20
110.7748212345747
 30
0.0
 10
194.9257113853078
 20
110.845207226646
 30
0.0
  0
CIRCLE
  5
97
330
1F
100
AcDbEntity
  8
0
  6
Continuous
 62
     7
370
    15
100
AcDbCircle
 10
194.9603875821
 20
109.113503568
 30
0.0
 40
2.600000000000037
  0
CIRCLE
  5
98
330
1F
100
AcDbEntity
  8
0
  6
Continuous
 62
     7
370
    15
100
AcDbCircle
 10
194.9603875821
 20
109.113503568
 30
0.0
 40
3.000000000000019
  0
ARC
  5
99
330
1F
100
AcDbEntity
  8
0
  6
Continuous
 62
     7
370
    15
100
AcDbCircle
 10
194.9603875821
 20
109.113503568
 30
0.0
 40
1.500000000000038
100
AcDbArc
 50
61.1471559982
 51
121.1471559982
  0
ARC
  5
9A
330
1F
100
AcDbEntity
  8
0
  6
Continuous
 62
     7
370
    15
100
AcDbCircle
 10
194.9603875821
 20
109.113503568
 30
0.0
 40
1.49999999999998
100
AcDbArc
 50
1.1471559982
 51
61.1471559982
  0
ARC
  5
9B
330
1F
100
AcDbEntity
  8
0
  6
Continuous
 62
     7
370
    15
100
AcDbCircle
 10
194.9603875821
 20
109.113503568
 30
0.0
 40
1.499999999999996
100
AcDbArc
 50
301.1471559982
 51
1.1471559982
  0
ARC
  5
9C
330
1F
100
AcDbEntity
  8
0
  6
Continuous
 62
     7
370
    15
100
AcDbCircle
 10
194.9603875821
 20
109.113503568
 30
0.0
 40
1.500000000000009
100
AcDbArc
 50
241.1471559982
 51
301.1471559982
  0
ARC
  5
9D
330
1F
100
AcDbEntity
  8
0
  6
Continuous
 62
     7
370
    15
100
AcDbCircle
 10
194.9603875821
 20
109.113503568
 30
0.0
 40
1.500000000000009
100
AcDbArc
 50
181.1471559982
 51
241.1471559982
  0
ARC
  5
9E
330
1F
100
AcDbEntity
  8
0
  6
Continuous
 62
     7
370
    15
100
AcDbCircle
 10
194.9603875821
 20
109.113503568
 30
0.0
 40
1.500000000000038
100
AcDbArc
 50
121.1471559982
 51
181.1471559982
  0
SPLINE
  5
9F
330
1F
100
AcDbEntity
  8
0
  6
Continuous
 62
     7
370
    15
100
AcDbSpline
210
0.0
220
0.0
230
1.0
 70
     8
 71
     3
 72
    10
 73
     6
 74
     0
 42
0.000000001
 43
0.00000001
 40
0.0
 40
0.0
 40
0.0
 40
0.0
 40
0.5
 40
0.5
 40
1.0
 40
1.0
 40
1.0
 40
1.0
 10
179.98699598616
 20
139.0179642893522
 30
0.0
 10
179.6708921550205
 20
138.398101731075
 30
0.0
 10
179.3411131106757
 20
137.7522009957762
 30
0.0
 10
178.6688898382869
 20
136.4377823554757
 30
0.0
 10
178.3267566723563
 20
135.7698601284634
 30
0.0
 10
177.9795763438422
 20
135.0935223959819
 30
0.0
  0
SPLINE
  5
A0
330
1F
100
AcDbEntity
  8
0
  6
Continuous
 62
     7
370
    15
100
AcDbSpline
210
0.0
220
0.0
230
1.0
 70
     8
 71
     3
 72
     9
 73
     5
 74
     0
 42
0.000000001
 43
0.00000001
 40
0.0
 40
0.0
 40
0.0
 40
0.0
 40
0.5067595796178751
 40
1.0
 40
1.0
 40
1.0
 40
1.0
 10
180.636018125099
 20
139.975638675347
 30
0.0
 10
180.525617777317
 20
139.8135637370127
 30
0.0
 10
180.3077623045793
 20
139.4937376402736
 30
0.0
 10
180.0931692023707
 20
139.1753896606364
 30
0.0
 10
179.9873232104263
 20
139.0183675693323
 30
0.0
  0
LINE
  5
A1
330
1F
100
AcDbEntity
  8
0
  6
Continuous
 62
     7
370
    15
100
AcDbLine
 10
180.6353875821
 20
78.2524055485
 30
0.0
 11
180.6353875821
 21
139.9745853225
 31
0.0
  0
SPLINE
  5
A2
330
1F
100
AcDbEntity
  8
0
  6
Continuous
 62
     7
370
    15
100
AcDbSpline
210
0.0
220
0.0
230
1.0
 70
     8
 71
     3
 72
     9
 73
     5
 74
     0
 42
0.000000001
 43
0.00000001
 40
0.0
 40
0.0
 40
0.0
 40
0.0
 40
0.4932426502230348
 40
1.0
 40
1.0
 40
1.0
 40
1.0
 10
179.9873092954035
 20
79.2086374662933
 30
0.0
 10
180.0931554004147
 20
79.05161422663312
 30
0.0
 10
180.3077477617267
 20
78.73326535799988
 30
0.0
 10
180.5256020496869
 20
78.41343931129637
 30
0.0
 10
180.6360013112911
 20
78.25136511147925
 30
0.0
  0
SPLINE
  5
A3
330
1F
100
AcDbEntity
  8
0
  6
Continuous
 62
     7
370
    15
100
AcDbSpline
210
0.0
220
0.0
230
1.0
 70
     8
 71
     3
 72
    10
 73
     6
 74
     0
 42
0.000000001
 43
0.00000001
 40
0.0
 40
0.0
 40
0.0
 40
0.0
 40
0.5
 40
0.5
 40
1.0
 40
1.0
 40
1.0
 40
1.0
 10
179.9869900664922
 20
79.20905445479303
 30
0.0
 10
179.6708109638181
 20
79.82906460680677
 30
0.0
 10
179.340368736651
 20
80.47626267267447
 30
0.0
 10
178.6686572159683
 20
81.78967859726822
 30
0.0
 10
178.3266833409364
 20
82.45728986357103
 30
0.0
 10
177.9795763438422
 20
83.1334847400142
 30
0.0
  0
SPLINE
  5
A4
330
1F
100
AcDbEntity
  8
0
  6
Continuous
 62
     7
370
    15
100
AcDbSpline
210
0.0
220
0.0
230
1.0
 70
     8
 71
     3
 72
    11
 73
     7
 74
     0
 42
0.000000001
 43
0.00000001
 40
0.0
 40
0.0
 40
0.0
 40
0.0
 40
0.2488814606695658
 40
0.5011921284368381
 40
0.7520447562540515
 40
1.0
 40
1.0
 40
1.0
 40
1.0
 10
183.0098874120974
 20
140.6133538225916
 30
0.0
 10
182.9801090825979
 20
140.6042217964473
 30
0.0
 10
182.9201421236169
 20
140.5858319187605
 30
0.0
 10
182.4282200618701
 20
140.4417946702754
 30
0.0
 10
181.7001506392507
 20
140.2323915921642
 30
0.0
 10
180.9894071680731
 20
140.0601873228153
 30
0.0
 10
180.6360996509234
 20
139.9745853224966
 30
0.0
  0
SPLINE
  5
A5
330
1F
100
AcDbEntity
  8
0
  6
Continuous
 62
     7
370
    15
100
AcDbSpline
210
0.0
220
0.0
230
1.0
 70
     8
 71
     3
 72
    24
 73
    20
 74
     0
 42
0.000000001
 43
0.00000001
 40
0.0
 40
0.0
 40
0.0
 40
0.0
 40
0.0452114990274253
 40
0.0902976469336832
 40
0.1353066430817436
 40
0.1802869348327626
 40
0.2252870622352321
 40
0.2703555012237865
 40
0.3155405078493826
 40
0.360889966023991
 40
0.4064512411330938
 40
0.4522710416563967
 40
0.4983952906551349
 40
0.5831095796460618
 40
0.6669823082790705
 40
0.7503071825871735
 40
0.8333837193910791
 40
0.9165141198032243
 40
1.0
 40
1.0
 40
1.0
 40
1.0
 10
180.6360062755321
 20
78.25240554846259
 30
0.0
 10
180.7037100174348
 20
78.2366465074451
 30
0.0
 10
180.8389297892613
 20
78.20517211813215
 30
0.0
 10
181.0315915060993
 20
78.15871131479335
 30
0.0
 10
181.2163283777479
 20
78.11308033516134
 30
0.0
 10
181.3924463190393
 20
78.06845503772813
 30
0.0
 10
181.560130111651
 20
78.02496775112917
 30
0.0
 10
181.719329595943
 20
77.98276670333104
 30
0.0
 10
181.8700577344247
 20
77.94200011101884
 30
0.0
 10
182.0123106878666
 20
77.90282035841028
 30
0.0
 10
182.1460894429437
 20
77.86538306660847
 30
0.0
 10
182.2713933539066
 20
77.82984648263188
 30
0.0
 10
182.4205010721366
 20
77.7871275164018
 30
0.0
 10
182.5813599362883
 20
77.74059156031512
 30
0.0
 10
182.7373734513718
 20
77.69490534231353
 30
0.0
 10
182.8590285036458
 20
77.6588652813402
 30
0.0
 10
182.9454755251214
 20
77.63299159035343
 30
0.0
 10
182.999811857841
 20
77.61657998864955
 30
0.0
 10
183.0068573425158
 20
77.61453050350785
 30
0.0
 10
183.0103876007074
 20
77.61350357462443
 30
0.0
  0
LINE
  5
A6
330
1F
100
AcDbEntity
  8
0
  6
Continuous
 62
     7
370
    15
100
AcDbLine
 10
186.0103875821
 20
78.613503568
 30
0.0
 11
186.0103875821
 21
139.6135035653
 31
0.0
  0
LINE
  5
A7
330
1F
100
AcDbEntity
  8
0
  6
Continuous
 62
     7
370
    15
100
AcDbLine
 10
170.5853875821
 20
139.349893671
 30
0.0
 11
162.0103875821
 21
139.349893671
 31
0.0
  0
LINE
  5
A8
330
1F
100
AcDbEntity
  8
0
  6
Continuous
 62
     7
370
    15
100
AcDbLine
 10
170.5853875821
 20
78.877113465
 30
0.0
 11
170.5853875821
 21
139.349893671
 31
0.0
  0
LINE
  5
A9
330
1F
100
AcDbEntity
  8
0
  6
Continuous
 62
     7
370
    15
100
AcDbLine
 10
162.0103875821
 20
78.877113465
 30
0.0
 11
170.5853875821
 21
78.877113465
 31
0.0
  0
SPLINE
  5
AA
330
1F
100
AcDbEntity
  8
0
  6
Continuous
 62
     7
370
    15
100
AcDbSpline
210
0.0
220
0.0
230
1.0
 70
     8
 71
     3
 72
     8
 73
     4
 74
     0
 42
0.000000001
 43
0.00000001
 40
0.0
 40
0.0
 40
0.0
 40
0.0
 40
0.0012389803509652
 40
0.0012389803509652
 40
0.0012389803509652
 40
0.0012389803509652
 10
171.1429491256482
 20
138.5675262907845
 30
0.0
 10
170.9578291525154
 20
138.8285762721636
 30
0.0
 10
170.7719507047564
 20
139.0893578852825
 30
0.0
 10
170.5853875821145
 20
139.3498936709999
 30
0.0
  0
SPLINE
  5
AB
330
1F
100
AcDbEntity
  8
0
  6
Continuous
 62
     7
370
    15
100
AcDbSpline
210
0.0
220
0.0
230
1.0
 70
     8
 71
     3
 72
     8
 73
     4
 74
     0
 42
0.000000001
 43
0.00000001
 40
0.0
 40
0.0
 40
0.0
 40
0.0
 40
1.0
 40
1.0
 40
1.0
 40
1.0
 10
173.2411988203868
 20
134.7807492324631
 30
0.0
 10
172.5449054543452
 20
136.0446876005779
 30
0.0
 10
171.8451102891541
 20
137.3067430460862
 30
0.0
 10
171.1429491256482
 20
138.5675262907845
 30
0.0
  0
SPLINE
  5
AC
330
1F
100
AcDbEntity
  8
0
  6
Continuous
 62
     7
370
    15
100
AcDbSpline
210
0.0
220
0.0
230
1.0
 70
     8
 71
     3
 72
     8
 73
     4
 74
     0
 42
0.000000001
 43
0.00000001
 40
0.0
 40
0.0
 40
0.0
 40
0.0
 40
1.0
 40
1.0
 40
1.0
 40
1.0
 10
173.2411988203868
 20
83.44625790353301
 30
0.0
 10
172.5448806797288
 20
82.18227456358622
 30
0.0
 10
171.8450834876184
 20
80.92021596573424
 30
0.0
 10
171.1429491256482
 20
79.65948084521155
 30
0.0
  0
SPLINE
  5
AD
330
1F
100
AcDbEntity
  8
0
  6
Continuous
 62
     7
370
    15
100
AcDbSpline
210
0.0
220
0.0
230
1.0
 70
     8
 71
     3
 72
     8
 73
     4
 74
     0
 42
0.000000001
 43
0.00000001
 40
0.0
 40
0.0
 40
0.0
 40
0.0
 40
0.0012389803509652
 40
0.0012389803509652
 40
0.0012389803509652
 40
0.0012389803509652
 10
170.5853875821145
 20
78.87711346499623
 30
0.0
 10
170.7719507047564
 20
79.13764925071357
 30
0.0
 10
170.9578291525154
 20
79.39843086383256
 30
0.0
 10
171.1429491256482
 20
79.65948084521155
 30
0.0
  0
LINE
  5
AE
330
1F
100
AcDbEntity
  8
0
  6
Continuous
 62
     7
370
    15
100
AcDbLine
 10
161.0103875821
 20
79.9870980225
 30
0.0
 11
161.0103875821
 21
138.2399091135
 31
0.0
  0
SPLINE
  5
AF
330
1F
100
AcDbEntity
  8
0
  6
Continuous
 62
     7
370
    15
100
AcDbSpline
210
0.0
220
0.0
230
1.0
 70
     8
 71
     3
 72
    12
 73
     8
 74
     0
 42
0.000000001
 43
0.00000001
 40
0.0
 40
0.0
 40
0.0
 40
0.0
 40
0.2500000000000001
 40
0.2500000000000001
 40
0.5000000000000002
 40
0.5000000000000002
 40
1.0
 40
1.0
 40
1.0
 40
1.0
 10
161.39742040508
 20
139.180493467819
 30
0.0
 10
161.3455596538919
 20
139.1236808955046
 30
0.0
 10
161.296827856873
 20
139.0616887092528
 30
0.0
 10
161.2066548469556
 20
138.9256356361288
 30
0.0
 10
161.1648775986706
 20
138.8507295335301
 30
0.0
 10
161.0587887288247
 20
138.6126028982327
 30
0.0
 10
161.0103875821145
 20
138.4291961666639
 30
0.0
 10
161.0103875821145
 20
138.239909113482
 30
0.0
  0
SPLINE
  5
B0
330
1F
100
AcDbEntity
  8
0
  6
Continuous
 62
     7
370
    15
100
AcDbSpline
210
0.0
220
0.0
230
1.0
 70
     8
 71
     3
 72
     8
 73
     4
 74
     0
 42
0.000000001
 43
0.00000001
 40
0.0
 40
0.0
 40
0.0
 40
0.0
 40
1.0
 40
1.0
 40
1.0
 40
1.0
 10
162.0103875821145
 20
139.3498936709999
 30
0.0
 10
161.7840432685146
 20
139.3498936709999
 30
0.0
 10
161.5665911481095
 20
139.286525201979
 30
0.0
 10
161.39742040508
 20
139.180493467819
 30
0.0
  0
SPLINE
  5
B1
330
1F
100
AcDbEntity
  8
0
  6
Continuous
 62
     7
370
    15
100
AcDbSpline
210
0.0
220
0.0
230
1.0
 70
     8
 71
     3
 72
     8
 73
     4
 74
     0
 42
0.000000001
 43
0.00000001
 40
0.0
 40
0.0
 40
0.0
 40
0.0
 40
1.0
 40
1.0
 40
1.0
 40
1.0
 10
161.39742040508
 20
79.0465136681771
 30
0.0
 10
161.567013910732
 20
78.94021695761991
 30
0.0
 10
161.7833826030652
 20
78.87711346499623
 30
0.0
 10
162.0103875821145
 20
78.87711346499623
 30
0.0
  0
SPLINE
  5
B2
330
1F
100
AcDbEntity
  8
0
  6
Continuous
 62
     7
370
    15
100
AcDbSpline
210
0.0
220
0.0
230
1.0
 70
     8
 71
     3
 72
    12
 73
     8
 74
     0
 42
0.000000001
 43
0.00000001
 40
0.0
 40
0.0
 40
0.0
 40
0.0
 40
0.2499999999999976
 40
0.2499999999999976
 40
0.4999999999999952
 40
0.4999999999999952
 40
1.0
 40
1.0
 40
1.0
 40
1.0
 10
161.39742040508
 20
79.0465136681771
 30
0.0
 10
161.3455596538919
 20
79.10332624049147
 30
0.0
 10
161.296827856873
 20
79.1653184267433
 30
0.0
 10
161.2066548469556
 20
79.3013714998673
 30
0.0
 10
161.1648775986706
 20
79.37627760246603
 30
0.0
 10
161.0587887288247
 20
79.61440423776344
 30
0.0
 10
161.0103875821145
 20
79.7978109693322
 30
0.0
 10
161.0103875821145
 20
79.98709802251408
 30
0.0
  0
SPLINE
  5
B3
330
1F
100
AcDbEntity
  8
0
  6
Continuous
 62
     7
370
    15
100
AcDbSpline
210
0.0
220
0.0
230
1.0
 70
     8
 71
     3
 72
    10
 73
     6
 74
     0
 42
0.000000001
 43
0.00000001
 40
0.0
 40
0.0
 40
0.0
 40
0.0
 40
0.5
 40
0.5
 40
1.0
 40
1.0
 40
1.0
 40
1.0
 10
173.9340191434143
 20
134.3612262375776
 30
0.0
 10
173.7920018309674
 20
134.3612262375776
 30
0.0
 10
173.651554784105
 20
134.4017160897871
 30
0.0
 10
173.4099648648437
 20
134.5496519197262
 30
0.0
 10
173.3092874225905
 20
134.6571521957057
 30
0.0
 10
173.2411988203869
 20
134.7807492324628
 30
0.0
  0
SPLINE
  5
B4
330
1F
100
AcDbEntity
  8
0
  6
Continuous
 62
     7
370
    15
100
AcDbSpline
210
0.0
220
0.0
230
1.0
 70
     8
 71
     3
 72
    10
 73
     6
 74
     0
 42
0.000000001
 43
0.00000001
 40
0.0
 40
0.0
 40
0.0
 40
0.0
 40
0.5
 40
0.5
 40
1.0
 40
1.0
 40
1.0
 40
1.0
 10
173.9340191434143
 20
83.86578089841854
 30
0.0
 10
173.7931617789036
 20
83.86578089841854
 30
0.0
 10
173.6503276474295
 20
83.82467699259983
 30
0.0
 10
173.4100659566562
 20
83.67727909929889
 30
0.0
 10
173.3093596875766
 20
83.56998611845923
 30
0.0
 10
173.2411988203868
 20
83.44625790353302
 30
0.0
  0
SPLINE
  5
B5
330
1F
100
AcDbEntity
  8
0
  6
Continuous
 62
     7
370
    15
100
AcDbSpline
210
0.0
220
0.0
230
1.0
 70
     8
 71
     3
 72
    12
 73
     8
 74
     0
 42
0.000000001
 43
0.00000001
 40
0.0
 40
0.0
 40
0.0
 40
0.0
 40
0.2499999999999968
 40
0.2499999999999968
 40
0.4999999999999936
 40
0.4999999999999936
 40
1.0
 40
1.0
 40
1.0
 40
1.0
 10
177.9795763438422
 20
135.0935223959819
 30
0.0
 10
177.9436721935056
 20
135.0235779618338
 30
0.0
 10
177.9011406413762
 20
134.960326598776
 30
0.0
 10
177.8043463645362
 20
134.84526794386
 30
0.0
 10
177.7492566862718
 20
134.7929394101481
 30
0.0
 10
177.5711234527179
 20
134.6591545070629
 30
0.0
 10
177.4337463607154
 20
134.5986067399048
 30
0.0
 10
177.2867560208154
 20
134.5794067915209
 30
0.0
  0
SPLINE
  5
B6
330
1F
100
AcDbEntity
  8
0
  6
Continuous
 62
     7
370
    15
100
AcDbSpline
210
0.0
220
0.0
230
1.0
 70
     8
 71
     3
 72
    12
 73
     8
 74
     0
 42
0.000000001
 43
0.00000001
 40
0.0
 40
0.0
 40
0.0
 40
0.0
 40
0.2500000000000022
 40
0.2500000000000022
 40
0.5000000000000044
 40
0.5000000000000044
 40
1.0
 40
1.0
 40
1.0
 40
1.0
 10
177.9795763438422
 20
83.13348474001418
 30
0.0
 10
177.9436721935056
 20
83.20342917416234
 30
0.0
 10
177.9011406413762
 20
83.26668053722018
 30
0.0
 10
177.8043463645362
 20
83.38173919213611
 30
0.0
 10
177.7492566862718
 20
83.4340677258481
 30
0.0
 10
177.5711234527179
 20
83.56785262893318
 30
0.0
 10
177.4337463607154
 20
83.62840039609132
 30
0.0
 10
177.2867560208154
 20
83.64760034447521
 30
0.0
  0
LINE
  5
B7
330
1F
100
AcDbEntity
  8
0
  6
Continuous
 62
     7
370
    15
100
AcDbLine
 10
173.9603875821
 20
83.8657808984
 30
0.0
 11
173.9340191434
 21
83.8657808984
 31
0.0
  0
LINE
  5
B8
330
1F
100
AcDbEntity
  8
0
  6
Continuous
 62
     7
370
    15
100
AcDbLine
 10
173.9603875821
 20
134.3612262376
 30
0.0
 11
173.9340191434
 21
134.3612262376
 31
0.0
  0
SPLINE
  5
B9
330
1F
100
AcDbEntity
  8
0
  6
Continuous
 62
     7
370
    15
100
AcDbSpline
210
0.0
220
0.0
230
1.0
 70
     8
 71
     3
 72
    10
 73
     6
 74
     0
 42
0.000000001
 43
0.00000001
 40
0.0
 40
0.0
 40
0.0
 40
0.0
 40
0.5
 40
0.5
 40
1.0
 40
1.0
 40
1.0
 40
1.0
 10
177.2867560208147
 20
134.5794067915238
 30
0.0
 10
176.7648412964187
 20
134.5112340410157
 30
0.0
 10
176.2259901163094
 20
134.4566107760577
 30
0.0
 10
175.1146274742773
 20
134.3815149231663
 30
0.0
 10
174.5377866970812
 20
134.3612262375776
 30
0.0
 10
173.9603875821145
 20
134.3612262375776
 30
0.0
  0
SPLINE
  5
BA
330
1F
100
AcDbEntity
  8
0
  6
Continuous
 62
     7
370
    15
100
AcDbSpline
210
0.0
220
0.0
230
1.0
 70
     8
 71
     3
 72
    10
 73
     6
 74
     0
 42
0.000000001
 43
0.00000001
 40
0.0
 40
0.0
 40
0.0
 40
0.0
 40
0.5
 40
0.5
 40
1.0
 40
1.0
 40
1.0
 40
1.0
 10
177.2867560208147
 20
83.64760034447228
 30
0.0
 10
176.7648412964187
 20
83.71577309498049
 30
0.0
 10
176.2259901163094
 20
83.77039635993843
 30
0.0
 10
175.1146274742773
 20
83.84549221282978
 30
0.0
 10
174.5377866970812
 20
83.86578089841854
 30
0.0
 10
173.9603875821145
 20
83.86578089841854
 30
0.0
  0
SPLINE
  5
BB
330
1F
100
AcDbEntity
  8
0
  6
Continuous
 62
     7
370
    15
100
AcDbSpline
210
0.0
220
0.0
230
1.0
 70
    24
 71
     3
 72
    13
 73
     9
 74
     0
 42
0.000000001
 43
0.00000001
 40
0.0
 40
0.0
 40
0.0
 40
0.0
 40
0.0691501009972191
 40
0.3018292104172064
 40
0.476244953122482
 40
0.6506640681789524
 40
0.8250871608538856
 40
1.0
 40
1.0
 40
1.0
 40
1.0
 10
160.8652993079894
 20
131.6135035679981
 30
0.0
 10
160.8595648249603
 20
131.6135035679981
 30
0.0
 10
160.8345347171245
 20
131.6135035679981
 30
0.0
 10
160.7951840915265
 20
131.6135035679981
 30
0.0
 10
160.7531196543921
 20
131.6135035679981
 30
0.0
 10
160.7232613632036
 20
131.6135035679981
 30
0.0
 10
160.7030368277968
 20
131.6135035679981
 30
0.0
 10
160.7004377890354
 20
131.6135035679981
 30
0.0
 10
160.6991364478123
 20
131.6135035679981
 30
0.0
  0
SPLINE
  5
BC
330
1F
100
AcDbEntity
  8
0
  6
Continuous
 62
     7
370
    15
100
AcDbSpline
210
0.0
220
0.0
230
1.0
 70
    24
 71
     3
 72
    13
 73
     9
 74
     0
 42
0.000000001
 43
0.00000001
 40
0.0
 40
0.0
 40
0.0
 40
0.0
 40
0.1654883599176834
 40
0.3309750084667705
 40
0.4964587041404701
 40
0.6626190520117412
 40
0.9740793574950644
 40
1.0
 40
1.0
 40
1.0
 40
1.0
 10
160.6991364478123
 20
86.61350356799808
 30
0.0
 10
160.7002725244966
 20
86.61350356799808
 30
0.0
 10
160.7025446661166
 20
86.61350356799808
 30
0.0
 10
160.7203057095551
 20
86.61350356799808
 30
0.0
 10
160.7469177669708
 20
86.61350356799808
 30
0.0
 10
160.7908186415539
 20
86.61350356799807
 30
0.0
 10
160.8333889085398
 20
86.6135035679981
 30
0.0
 10
160.8599906880824
 20
86.61350356799807
 30
0.0
 10
160.8620344763332
 20
86.61350356799808
 30
0.0
  0
LINE
  5
BD
330
1F
100
AcDbEntity
  8
0
  6
Continuous
 62
     7
370
    15
100
AcDbLine
 10
159.0103875821
 20
86.888503568
 30
0.0
 11
159.0103875821
 21
131.338503568
 31
0.0
  0
SPLINE
  5
BE
330
1F
100
AcDbEntity
  8
0
  6
Continuous
 62
     7
370
    15
100
AcDbSpline
210
0.0
220
0.0
230
1.0
 70
    11
 71
     3
 72
    66
 73
    62
 74
     0
 42
0.000000001
 43
0.00000001
 40
0.0
 40
0.0
 40
0.0
 40
0.0
 40
0.0312500000000002
 40
0.0312500000000002
 40
0.0625000000000004
 40
0.0625000000000004
 40
0.0937500000000006
 40
0.0937500000000006
 40
0.1250000000000008
 40
0.1250000000000008
 40
0.156250000000001
 40
0.156250000000001
 40
0.1875000000000012
 40
0.1875000000000012
 40
0.2187500000000014
 40
0.2187500000000014
 40
0.2500000000000016
 40
0.2500000000000016
 40
0.2812500000000018
 40
0.2812500000000018
 40
0.312500000000002
 40
0.312500000000002
 40
0.3437500000000022
 40
0.3437500000000022
 40
0.3750000000000024
 40
0.3750000000000024
 40
0.4062500000000026
 40
0.4062500000000026
 40
0.4375000000000028
 40
0.4375000000000028
 40
0.468750000000003
 40
0.468750000000003
 40
0.5000000000000032
 40
0.5000000000000032
 40
0.5312500000000034
 40
0.5312500000000034
 40
0.5625000000000037
 40
0.5625000000000037
 40
0.6250000000000031
 40
0.6250000000000031
 40
0.6562500000000029
 40
0.6562500000000029
 40
0.6875000000000027
 40
0.6875000000000027
 40
0.7187500000000024
 40
0.7187500000000024
 40
0.7500000000000021
 40
0.7500000000000021
 40
0.7812500000000019
 40
0.7812500000000019
 40
0.8125000000000017
 40
0.8125000000000017
 40
0.8437500000000014
 40
0.8437500000000014
 40
0.8750000000000012
 40
0.8750000000000012
 40
0.906250000000001
 40
0.906250000000001
 40
0.9375000000000007
 40
0.9375000000000007
 40
1.0
 40
1.0
 40
1.0
 40
1.0
 10
192.4437279904992
 20
111.620620726325
 30
0.0
 10
192.6255128954438
 20
111.7696058294336
 30
0.0
 10
192.818567197685
 20
111.8989336547307
 30
0.0
 10
193.2254319122491
 20
112.121810675234
 30
0.0
 10
193.4408727752617
 20
112.2158410363157
 30
0.0
 10
193.8857516517052
 20
112.3648697042918
 30
0.0
 10
194.1122442677408
 20
112.4192169507893
 30
0.0
 10
194.5730545328783
 20
112.4892258792164
 30
0.0
 10
194.8096720284568
 20
112.504729093048
 30
0.0
 10
195.2780074114556
 20
112.49524298486
 30
0.0
 10
195.5094523833083
 20
112.4707522762592
 30
0.0
 10
195.966947834431
 20
112.3825287645148
 30
0.0
 10
196.1951583432906
 20
112.3178016849559
 30
0.0
 10
196.6309482997618
 20
112.1514632465511
 30
0.0
 10
196.8393925080729
 20
112.0501550101207
 30
0.0
 10
197.2370122937559
 20
111.8101676462559
 30
0.0
 10
197.4278172028405
 20
111.6696882880413
 30
0.0
 10
197.7734724623749
 20
111.3595726255561
 30
0.0
 10
197.9299485803453
 20
111.1894823080196
 30
0.0
 10
198.2081986146794
 20
110.8170373591673
 30
0.0
 10
198.3301437139763
 20
110.6128842598999
 30
0.0
 10
198.5234834824823
 20
110.1905615312527
 30
0.0
 10
198.5969455391302
 20
109.9702428071714
 30
0.0
 10
198.6935557905379
 20
109.5096406065143
 30
0.0
 10
198.7150712619052
 20
109.2743779284319
 30
0.0
 10
198.703987023851
 20
108.8081957929615
 30
0.0
 10
198.6708391526281
 20
108.5720354813644
 30
0.0
 10
198.5531867181896
 20
108.1186247242623
 30
0.0
 10
198.469546273663
 20
107.900857390071
 30
0.0
 10
198.2542279814824
 20
107.4825151851843
 30
0.0
 10
198.1248358447603
 20
107.2869119474222
 30
0.0
 10
197.8302061033303
 20
106.926293658522
 30
0.0
 10
197.6625257603437
 20
106.7589904548614
 30
0.0
 10
197.3025308972275
 20
106.4627842593118
 30
0.0
 10
197.1097570875597
 20
106.3326734545287
 30
0.0
 10
196.6994068094366
 20
106.1069707720793
 30
0.0
 10
196.4831760574204
 20
106.0125901767078
 30
0.0
 10
195.8210628784867
 20
105.7898195251534
 30
0.0
 10
195.3476593255393
 20
105.7180318059456
 30
0.0
 10
194.6487648276645
 20
105.7313742686014
 30
0.0
 10
194.4152741243797
 20
105.7555727321299
 30
0.0
 10
193.9525354439511
 20
105.8446481063837
 30
0.0
 10
193.7283856728174
 20
105.9083888601168
 30
0.0
 10
193.2941845668887
 20
106.0736442290905
 30
0.0
 10
193.0827332633724
 20
106.1759950862317
 30
0.0
 10
192.6814108974889
 20
106.4183010182119
 30
0.0
 10
192.4947719316816
 20
106.5559429193413
 30
0.0
 10
192.1498190532559
 20
106.8649284916974
 30
0.0
 10
191.9898973364451
 20
107.0384689893788
 30
0.0
 10
191.7103639918639
 20
107.4132343889288
 30
0.0
 10
191.5916145660639
 20
107.6122960658255
 30
0.0
 10
191.3978381091371
 20
108.0349338721519
 30
0.0
 10
191.3225300983132
 20
108.2617106413382
 30
0.0
 10
191.2271246783739
 20
108.7190856985623
 30
0.0
 10
191.2055722427669
 20
108.9512327419454
 30
0.0
 10
191.2169807851942
 20
109.4227503446455
 30
0.0
 10
191.2503208998349
 20
109.6568502430838
 30
0.0
 10
191.3678677236459
 20
110.1090611540582
 30
0.0
 10
191.4536345235126
 20
110.3315048914214
 30
0.0
 10
191.7754060729168
 20
110.9546122659686
 30
0.0
 10
192.0801581806098
 20
111.3226505201078
 30
0.0
 10
192.4437279904992
 20
111.620620726325
 30
0.0
  0
LINE
  5
BF
330
1F
100
AcDbEntity
  8
0
  6
Continuous
 62
     7
370
    15
100
AcDbLine
 10
202.7103875821
 20
109.113503568
 30
0.0
 11
202.7103875821
 21
93.113503568
 31
0.0
  0
LINE
  5
C0
330
1F
100
AcDbEntity
  8
0
  6
Continuous
 62
     7
370
    15
100
AcDbLine
 10
202.7103875821
 20
125.113503568
 30
0.0
 11
202.7103875821
 21
109.113503568
 31
0.0
  0
LINE
  5
C1
330
1F
100
AcDbEntity
  8
0
  6
Continuous
 62
     7
370
    15
100
AcDbLine
 10
203.0103875821
 20
109.113503568
 30
0.0
 11
203.0103875821
 21
93.413503568
 31
0.0
  0
LINE
  5
C2
330
1F
100
AcDbEntity
  8
0
  6
Continuous
 62
     7
370
    15
100
AcDbLine
 10
203.0103875821
 20
124.813503568
 30
0.0
 11
203.0103875821
 21
109.113503568
 31
0.0
  0
LINE
  5
C3
330
1F
100
AcDbEntity
  8
0
  6
Continuous
 62
     7
370
    15
100
AcDbLine
 10
93.6103875821
 20
97.290747971
 30
0.0
 11
93.6103875821
 21
120.9362591479
 31
0.0
  0
LWPOLYLINE
  5
C4
330
1F
100
AcDbEntity
  8
0
  6
HIDDEN
 62
     7
370
     0
100
AcDbPolyline
 90
       27
 70
   128
 43
0.0
 10
173.6869583568
 20
115.5647795442
 10
173.3606617732
 20
116.0409337861
 10
173.1651110762
 20
116.5766304592
 10
173.1116709615
 20
117.14073682
 10
173.2034471743
 20
117.7004690573
 10
173.4351060148
 20
118.2232975678
 10
173.7931843131
 20
118.6788374592
 10
174.2568718601
 20
119.0406144085
 10
174.7992208211
 20
119.2876032547
 10
175.3887118458
 20
119.4054499037
 10
175.9910858585
 20
119.3873055365
 10
176.5713350711
 20
119.234224638
 10
177.0957375086
 20
118.9551037135
 10
177.5338168074
 20
118.5661642565
 10
177.860113391
 20
118.0900100145
 10
178.055664088
 20
117.5543133414
 10
178.1091042027
 20
116.9902069806
 10
178.0173279899
 20
116.4304747434
 10
177.7856691495
 20
115.9076462328
 10
177.4275908512
 20
115.4521063415
 10
176.9639033041
 20
115.0903293921
 10
176.4215543431
 20
114.8433405459
 10
175.8320633185
 20
114.725493897
 10
175.2296893058
 20
114.7436382641
 10
174.6494400931
 20
114.8967191626
 10
174.1250376556
 20
115.1758400872
 10
173.6869583568
 20
115.5647795442
  0
LWPOLYLINE
  5
C5
330
1F
100
AcDbEntity
  8
0
  6
HIDDEN
 62
     7
370
     0
100
AcDbPolyline
 90
       23
 70
   128
 43
0.0
 10
174.2639871244
 20
115.7584721435
 10
174.0035762978
 20
116.1574729092
 10
173.8733397655
 20
116.6092530247
 10
173.8838285166
 20
117.0772119517
 10
174.0341928149
 20
117.5234384412
 10
174.3122510393
 20
117.9117818767
 10
174.6954765661
 20
118.2107809826
 10
175.1528227422
 20
118.3962126297
 10
175.6472381004
 20
118.4530542486
 10
176.1386680488
 20
118.3767008695
 10
176.5872998555
 20
118.173338189
 10
176.9567880398
 20
117.8594414421
 10
177.2171988664
 20
117.4604406764
 10
177.3474353988
 20
117.008660561
 10
177.3369466477
 20
116.5407016339
 10
177.1865823493
 20
116.0944751445
 10
176.9085241249
 20
115.706131709
 10
176.5252985981
 20
115.4071326031
 10
176.067952422
 20
115.221700956
 10
175.5735370638
 20
115.1648593371
 10
175.0821071155
 20
115.2412127162
 10
174.6334753087
 20
115.4445753966
 10
174.2639871244
 20
115.7584721435
  0
LWPOLYLINE
  5
C6
330
1F
100
AcDbEntity
  8
0
  6
HIDDEN
 62
     7
370
     0
100
AcDbPolyline
 90
       27
 70
   128
 43
0.0
 10
173.6869583568
 20
116.5884728973
 10
173.3606617732
 20
117.0646271392
 10
173.1651110762
 20
117.6003238123
 10
173.1116709615
 20
118.1644301731
 10
173.2034471743
 20
118.7241624104
 10
173.4351060148
 20
119.2469909209
 10
173.7931843131
 20
119.7025308123
 10
174.2568718601
 20
120.0643077616
 10
174.7992208211
 20
120.3112966078
 10
175.3887118458
 20
120.4291432568
 10
175.9910858585
 20
120.4109988896
 10
176.5713350711
 20
120.2579179911
 10
177.0957375086
 20
119.9787970666
 10
177.5338168074
 20
119.5898576096
 10
177.860113391
 20
119.1137033676
 10
178.055664088
 20
118.5780066945
 10
178.1091042027
 20
118.0139003337
 10
178.0173279899
 20
117.4541680965
 10
177.7856691495
 20
116.9313395859
 10
177.4275908512
 20
116.4757996946
 10
176.9639033041
 20
116.1140227452
 10
176.4215543431
 20
115.867033899
 10
175.8320633185
 20
115.7491872501
 10
175.2296893058
 20
115.7673316172
 10
174.6494400931
 20
115.9204125157
 10
174.1250376556
 20
116.1995334403
 10
173.6869583568
 20
116.5884728973
  0
LINE
  5
C7
330
1F
100
AcDbEntity
  8
0
  6
HIDDEN
 62
     7
370
     0
100
AcDbLine
 10
175.3671320483
 20
118.8299257722
 30
0.0
 11
176.7208799631
 21
118.3594222153
 31
0.0
  0
LINE
  5
C8
330
1F
100
AcDbEntity
  8
0
  6
HIDDEN
 62
     7
370
     0
100
AcDbLine
 10
175.3671320483
 20
118.8299257722
 30
0.0
 11
175.3671320483
 21
119.5139660588
 31
0.0
  0
LINE
  5
C9
330
1F
100
AcDbEntity
  8
0
  6
HIDDEN
 62
     7
370
     0
100
AcDbLine
 10
174.2566396673
 20
117.9635006364
 30
0.0
 11
175.3671320483
 21
118.8299257722
 31
0.0
  0
LINE
  5
CA
330
1F
100
AcDbEntity
  8
0
  6
HIDDEN
 62
     7
370
     0
100
AcDbLine
 10
176.7208799631
 20
118.3594222153
 30
0.0
 11
176.7208799631
 21
119.0434625019
 31
0.0
  0
LINE
  5
CB
330
1F
100
AcDbEntity
  8
0
  6
HIDDEN
 62
     7
370
     0
100
AcDbLine
 10
176.964135497
 20
117.0224935226
 30
0.0
 11
176.7208799631
 21
118.3594222153
 31
0.0
  0
LINE
  5
CC
330
1F
100
AcDbEntity
  8
0
  6
HIDDEN
 62
     7
370
     0
100
AcDbLine
 10
174.4998952011
 20
116.6265719437
 30
0.0
 11
174.4998952011
 21
117.3106122303
 31
0.0
  0
LINE
  5
CD
330
1F
100
AcDbEntity
  8
0
  6
HIDDEN
 62
     7
370
     0
100
AcDbLine
 10
174.2566396673
 20
118.647540923
 30
0.0
 11
174.4998952011
 21
117.3106122303
 31
0.0
  0
LINE
  5
CE
330
1F
100
AcDbEntity
  8
0
  6
HIDDEN
 62
     7
370
     0
100
AcDbLine
 10
174.2566396673
 20
117.9635006364
 30
0.0
 11
174.2566396673
 21
118.647540923
 31
0.0
  0
LINE
  5
CF
330
1F
100
AcDbEntity
  8
0
  6
HIDDEN
 62
     7
370
     0
100
AcDbLine
 10
174.2566396673
 20
117.9635006364
 30
0.0
 11
174.4998952011
 21
116.6265719437
 31
0.0
  0
LINE
  5
D0
330
1F
100
AcDbEntity
  8
0
  6
HIDDEN
 62
     7
370
     0
100
AcDbLine
 10
175.853643116
 20
116.1560683868
 30
0.0
 11
175.853643116
 21
116.8401086734
 31
0.0
  0
LINE
  5
D1
330
1F
100
AcDbEntity
  8
0
  6
HIDDEN
 62
     7
370
     0
100
AcDbLine
 10
175.853643116
 20
116.8401086734
 30
0.0
 11
174.4998952011
 21
117.3106122303
 31
0.0
  0
LINE
  5
D2
330
1F
100
AcDbEntity
  8
0
  6
HIDDEN
 62
     7
370
     0
100
AcDbLine
 10
175.853643116
 20
116.1560683868
 30
0.0
 11
174.4998952011
 21
116.6265719437
 31
0.0
  0
LINE
  5
D3
330
1F
100
AcDbEntity
  8
0
  6
HIDDEN
 62
     7
370
     0
100
AcDbLine
 10
175.853643116
 20
116.8401086734
 30
0.0
 11
176.964135497
 21
117.7065338092
 31
0.0
  0
LINE
  5
D4
330
1F
100
AcDbEntity
  8
0
  6
HIDDEN
 62
     7
370
     0
100
AcDbLine
 10
176.964135497
 20
117.0224935226
 30
0.0
 11
176.964135497
 21
117.7065338092
 31
0.0
  0
LINE
  5
D5
330
1F
100
AcDbEntity
  8
0
  6
HIDDEN
 62
     7
370
     0
100
AcDbLine
 10
175.853643116
 20
116.1560683868
 30
0.0
 11
176.964135497
 21
117.0224935226
 31
0.0
  0
LWPOLYLINE
  5
D6
330
1F
100
AcDbEntity
  8
0
  6
HIDDEN
 62
     7
370
     0
100
AcDbPolyline
 90
       24
 70
   128
 43
0.0
 10
174.0293287589
 20
116.9434682494
 10
173.7337865495
 20
117.390051913
 10
173.5774232538
 20
117.8950026874
 10
173.5718356222
 20
118.4208706837
 10
173.7174380636
 20
118.9286546784
 10
174.0034319112
 20
119.3806946554
 10
174.4086063096
 20
119.7434648776
 10
174.9029113271
 20
119.9900603372
 10
175.449686622
 20
120.1021921771
 10
176.008380372
 20
120.0715440917
 10
176.5375568174
 20
119.9003891092
 10
176.9979693622
 20
119.6014210117
 10
177.3554713141
 20
119.1968128954
 10
177.5835483888
 20
118.7165726932
 10
177.6652851531
 20
118.196317624
 10
177.5946195651
 20
117.6746326263
 10
177.3767925682
 20
117.1902086898
 10
177.0279593942
 20
116.7789733218
 10
176.5739914039
 20
116.4714259683
 10
176.0485573263
 20
116.2903760094
 10
175.4906262033
 20
116.2492510925
 10
174.9415772338
 20
116.3511012645
 10
174.4421308684
 20
116.588372764
 10
174.0293287589
 20
116.9434682494
  0
LINE
  5
D7
330
1F
100
AcDbEntity
  8
0
  6
HIDDEN
 62
     7
370
     0
100
AcDbLine
 10
176.964135497
 20
117.7065338092
 30
0.0
 11
176.7208799631
 21
119.0434625019
 31
0.0
  0
LINE
  5
D8
330
1F
100
AcDbEntity
  8
0
  6
HIDDEN
 62
     7
370
     0
100
AcDbLine
 10
174.2566396673
 20
118.647540923
 30
0.0
 11
175.3671320483
 21
119.5139660588
 31
0.0
  0
LINE
  5
D9
330
1F
100
AcDbEntity
  8
0
  6
HIDDEN
 62
     7
370
     0
100
AcDbLine
 10
175.3671320483
 20
119.5139660588
 30
0.0
 11
176.7208799631
 21
119.0434625019
 31
0.0
  0
CIRCLE
  5
DA
330
1F
100
AcDbEntity
  8
0
  6
HIDDEN
 62
     7
370
     0
100
AcDbCircle
 10
194.9603875821
 20
109.113503568
 30
0.0
 40
2.153589838486242
  0
CIRCLE
  5
DB
330
1F
100
AcDbEntity
  8
0
  6
HIDDEN
 62
     7
370
     0
100
AcDbCircle
 10
194.9603875821
 20
109.113503568
 30
0.0
 40
1.953589838486237
  0
SPLINE
  5
DC
330
1F
100
AcDbEntity
  8
0
  6
HIDDEN
 62
     7
370
     0
100
AcDbSpline
210
0.0
220
0.0
230
1.0
 70
     8
 71
     3
 72
    17
 73
    13
 74
     0
 42
0.000000001
 43
0.00000001
 40
0.0
 40
0.0
 40
0.0
 40
0.0
 40
0.0000725635710417
 40
0.0000933033260123
 40
0.2495211937675764
 40
0.5019861410760847
 40
0.5864046998529205
 40
0.6698656384239642
 40
0.7526579365089431
 40
0.835077608292889
 40
0.9174246874822111
 40
1.0
 40
1.0
 40
1.0
 40
1.0
 10
183.0103876007074
 20
77.61350357462443
 30
0.0
 10
183.0103878091133
 20
77.61350357190697
 30
0.0
 10
183.0103880770847
 20
77.61350356841284
 30
0.0
 10
183.011001540322
 20
77.61350241869498
 30
0.0
 10
182.9068639701491
 20
77.64571909737431
 30
0.0
 10
182.538376784114
 20
77.75408024405003
 30
0.0
 10
182.1717644321791
 20
77.85891092267086
 30
0.0
 10
181.9222328663659
 20
77.92860362736299
 30
0.0
 10
181.644447081842
 20
78.00374533629731
 30
0.0
 10
181.3377873046792
 20
78.08341032987775
 30
0.0
 10
181.0046004721654
 20
78.16655951131801
 30
0.0
 10
180.7596030299986
 20
78.22387199354708
 30
0.0
 10
180.6369347849921
 20
78.25256789155246
 30
0.0
  0
LWPOLYLINE
  5
DD
330
1F
100
AcDbEntity
  8
0
  6
HIDDEN
 62
     7
370
     0
100
AcDbPolyline
 90
       25
 70
   128
 43
0.0
 10
161.2589585604
 20
100.1257914755
 10
161.374779705
 20
99.5902779213
 10
161.5509535629
 20
99.0912587308
 10
161.7754741769
 20
98.6627412372
 10
162.033040838
 20
98.3339281996
 10
162.306100804
 20
98.127227683
 10
162.5760454895
 20
98.0567259861
 10
162.8244786103
 20
98.127227683
 10
163.0344698597
 20
98.3339281996
 10
163.1917086811
 20
98.6627412372
 10
163.2854795087
 20
99.0912587308
 10
163.3093920155
 20
99.5902779213
 10
163.2618166038
 20
100.1257914755
 10
163.1459954592
 20
100.6613050297
 10
162.9698216013
 20
101.1603242202
 10
162.7453009874
 20
101.5888417137
 10
162.4877343262
 20
101.9176547514
 10
162.2146743602
 20
102.1243552679
 10
161.9447296747
 20
102.1948569648
 10
161.6962965539
 20
102.1243552679
 10
161.4863053045
 20
101.9176547514
 10
161.3290664831
 20
101.5888417137
 10
161.2352956555
 20
101.1603242202
 10
161.2113831487
 20
100.6613050297
 10
161.2589585604
 20
100.1257914755
  0
LWPOLYLINE
  5
DE
330
1F
100
AcDbEntity
  8
0
  6
HIDDEN
 62
     7
370
     0
100
AcDbPolyline
 90
       22
 70
   128
 43
0.0
 10
161.6153938547
 20
100.1538006346
 10
161.7234550915
 20
99.6746188238
 10
161.8918285415
 20
99.2380144198
 10
162.1055534847
 20
98.8827816398
 10
162.3456395221
 20
98.6404844752
 10
162.5907539556
 20
98.5326520926
 10
162.8191172921
 20
98.5688658721
 10
163.010438447
 20
98.7459080607
 10
163.1477176962
 20
99.0480476829
 10
163.2187571758
 20
99.4484383074
 10
163.2172447164
 20
99.9115034701
 10
163.1433147066
 20
100.3960977991
 10
163.0035361523
 20
100.8591629618
 10
162.8103289913
 20
101.2595535863
 10
162.5808605279
 20
101.5616932085
 10
162.3355200419
 20
101.7387353971
 10
162.0961071123
 20
101.7749491767
 10
161.8838946285
 20
101.667116794
 10
161.7177386009
 20
101.4248196294
 10
161.6124027218
 20
101.0695868494
 10
161.5772465462
 20
100.6329824454
 10
161.6153938547
 20
100.1538006346
  0
SPLINE
  5
DF
330
1F
100
AcDbEntity
  8
0
  6
HIDDEN
 62
     7
370
     0
100
AcDbSpline
210
0.0
220
0.0
230
1.0
 70
     8
 71
     3
 72
    12
 73
     8
 74
     0
 42
0.000000001
 43
0.00000001
 40
0.0
 40
0.0
 40
0.0
 40
0.0
 40
0.4999999999999996
 40
0.4999999999999996
 40
0.7499999999999998
 40
0.7499999999999998
 40
1.0
 40
1.0
 40
1.0
 40
1.0
 10
173.6014691947932
 20
102.3349342447917
 30
0.0
 10
173.6745695552685
 20
102.1401992770305
 30
0.0
 10
173.7104733046007
 20
101.9326211020016
 30
0.0
 10
173.710525422651
 20
101.6368594519301
 30
0.0
 10
173.7014886125606
 20
101.5391634593562
 30
0.0
 10
173.6654361394449
 20
101.3552955505275
 30
0.0
 10
173.6384884983421
 20
101.2680058439205
 30
0.0
 10
173.6014691947932
 20
101.1852067282006
 30
0.0
  0
SPLINE
  5
E0
330
1F
100
AcDbEntity
  8
0
  6
HIDDEN
 62
     7
370
     0
100
AcDbSpline
210
0.0
220
0.0
230
1.0
 70
     8
 71
     3
 72
    50
 73
    46
 74
     0
 42
0.000000001
 43
0.00000001
 40
0.0
 40
0.0
 40
0.0
 40
0.0
 40
0.0624999999999988
 40
0.0624999999999988
 40
0.1249999999999976
 40
0.1249999999999976
 40
0.1874999999999964
 40
0.1874999999999964
 40
0.2499999999999953
 40
0.2499999999999953
 40
0.2812499999999952
 40
0.2812499999999952
 40
0.3124999999999952
 40
0.3124999999999952
 40
0.3749999999999958
 40
0.3749999999999958
 40
0.4062499999999961
 40
0.4062499999999961
 40
0.4374999999999964
 40
0.4374999999999964
 40
0.4687499999999967
 40
0.4687499999999967
 40
0.499999999999997
 40
0.499999999999997
 40
0.5312499999999973
 40
0.5312499999999973
 40
0.5624999999999976
 40
0.5624999999999976
 40
0.5937499999999979
 40
0.5937499999999979
 40
0.6249999999999982
 40
0.6249999999999982
 40
0.6874999999999979
 40
0.6874999999999979
 40
0.7187499999999978
 40
0.7187499999999978
 40
0.7499999999999976
 40
0.7499999999999976
 40
0.8124999999999982
 40
0.8124999999999982
 40
0.8749999999999988
 40
0.8749999999999988
 40
0.9374999999999994
 40
0.9374999999999994
 40
1.0
 40
1.0
 40
1.0
 40
1.0
 10
173.6014691947931
 20
101.1852067282006
 30
0.0
 10
173.6566554901377
 20
101.0543818622623
 30
0.0
 10
173.7258121184186
 20
100.9684649353752
 30
0.0
 10
173.8733505667249
 20
100.8451674282689
 30
0.0
 10
173.949635487948
 20
100.8111425780971
 30
0.0
 10
174.0944276151094
 20
100.7817901554977
 30
0.0
 10
174.1642826081889
 20
100.7867973459909
 30
0.0
 10
174.2729088818827
 20
100.8374198647901
 30
0.0
 10
174.3128121115847
 20
100.8832232677116
 30
0.0
 10
174.3105570880821
 20
100.9969346182368
 30
0.0
 10
174.2986656608145
 20
101.0435113533293
 30
0.0
 10
174.2513313717663
 20
101.1514818408744
 30
0.0
 10
174.2157413449323
 20
101.2138329814769
 30
0.0
 10
174.0845375950661
 20
101.4245071833764
 30
0.0
 10
173.970297999211
 20
101.5916806951305
 30
0.0
 10
173.8169609893836
 20
101.866419682559
 30
0.0
 10
173.7675266280353
 20
101.9637154214262
 30
0.0
 10
173.6797612931651
 20
102.162935233014
 30
0.0
 10
173.6412811690681
 20
102.2647672654016
 30
0.0
 10
173.5774455111348
 20
102.4737107719292
 30
0.0
 10
173.5522918361457
 20
102.5809091179995
 30
0.0
 10
173.5189794439512
 20
102.7912490845322
 30
0.0
 10
173.5103707899972
 20
102.8956231620778
 30
0.0
 10
173.5104044230943
 20
103.1028055722663
 30
0.0
 10
173.5191040303033
 20
103.2024980906292
 30
0.0
 10
173.5525889665368
 20
103.3923808334675
 30
0.0
 10
173.5778029149171
 20
103.4838366142467
 30
0.0
 10
173.6418029479073
 20
103.6516793499454
 30
0.0
 10
173.6803701000585
 20
103.7282167553609
 30
0.0
 10
173.7683196614161
 20
103.866459877971
 30
0.0
 10
173.8177556621718
 20
103.9278150239241
 30
0.0
 10
173.9710364532831
 20
104.0809576093649
 30
0.0
 10
174.0853499572087
 20
104.1457635608756
 30
0.0
 10
174.2157965237315
 20
104.1666159225215
 30
0.0
 10
174.2518214335239
 20
104.1606466673638
 30
0.0
 10
174.2989497265688
 20
104.1256935975289
 30
0.0
 10
174.3106864323277
 20
104.096235227179
 30
0.0
 10
174.3125886611638
 20
103.9855242866006
 30
0.0
 10
174.2724652677158
 20
103.8821843820575
 30
0.0
 10
174.1641929902742
 20
103.6517545670512
 30
0.0
 10
174.0948205143676
 20
103.5216420591374
 30
0.0
 10
173.949314906455
 20
103.2349566338185
 30
0.0
 10
173.8734156587439
 20
103.0799272102711
 30
0.0
 10
173.7269889356998
 20
102.7340017181958
 30
0.0
 10
173.6564583539646
 20
102.5439487604656
 30
0.0
 10
173.6014691947931
 20
102.3349342447917
 30
0.0
  0
SPLINE
  5
E1
330
1F
100
AcDbEntity
  8
0
  6
HIDDEN
 62
     7
370
     0
100
AcDbSpline
210
0.0
220
0.0
230
1.0
 70
    11
 71
     3
 72
    62
 73
    58
 74
     0
 42
0.000000001
 43
0.00000001
 40
0.0
 40
0.0
 40
0.0
 40
0.0
 40
0.0312500000000001
 40
0.0312500000000001
 40
0.0625000000000002
 40
0.0625000000000002
 40
0.1250000000000002
 40
0.1250000000000002
 40
0.15625
 40
0.15625
 40
0.1874999999999999
 40
0.1874999999999999
 40
0.2187499999999997
 40
0.2187499999999997
 40
0.2499999999999996
 40
0.2499999999999996
 40
0.3124999999999992
 40
0.3124999999999992
 40
0.3749999999999989
 40
0.3749999999999989
 40
0.4062499999999989
 40
0.4062499999999989
 40
0.4374999999999988
 40
0.4374999999999988
 40
0.4687499999999988
 40
0.4687499999999988
 40
0.4999999999999988
 40
0.4999999999999988
 40
0.5312499999999988
 40
0.5312499999999988
 40
0.5624999999999988
 40
0.5624999999999988
 40
0.5937499999999988
 40
0.5937499999999988
 40
0.6249999999999988
 40
0.6249999999999988
 40
0.6562499999999989
 40
0.6562499999999989
 40
0.6874999999999989
 40
0.6874999999999989
 40
0.7499999999999991
 40
0.7499999999999991
 40
0.7812499999999992
 40
0.7812499999999992
 40
0.8124999999999993
 40
0.8124999999999993
 40
0.8437499999999994
 40
0.8437499999999994
 40
0.8749999999999996
 40
0.8749999999999996
 40
0.9062499999999998
 40
0.9062499999999998
 40
0.9374999999999999
 40
0.9374999999999999
 40
0.96875
 40
0.96875
 40
1.0
 40
1.0
 40
1.0
 40
1.0
 10
175.6103875821145
 20
106.2256048522673
 30
0.0
 10
175.4675635104248
 20
106.2256048522673
 30
0.0
 10
175.3282002758149
 20
106.2352153659168
 30
0.0
 10
175.0556402163647
 20
106.2728840412681
 30
0.0
 10
174.9214760963607
 20
106.301450520682
 30
0.0
 10
174.5447816973642
 20
106.4128574850002
 30
0.0
 10
174.3192538174747
 20
106.5231800852527
 30
0.0
 10
174.0357421107774
 20
106.7409254601008
 30
0.0
 10
173.9487988263198
 20
106.8236297073426
 30
0.0
 10
173.7974053204064
 20
107.0049124409089
 30
0.0
 10
173.7325045628257
 20
107.1034391249725
 30
0.0
 10
173.6250179775355
 20
107.3187140675975
 30
0.0
 10
173.5823570575802
 20
107.4370135156367
 30
0.0
 10
173.5257714779088
 20
107.6818432264362
 30
0.0
 10
173.5109901638191
 20
107.8093983293292
 30
0.0
 10
173.5092359984682
 20
108.2087041244448
 30
0.0
 10
173.5670035466243
 20
108.4866487135655
 30
0.0
 10
173.7802896543771
 20
109.0075917102761
 30
0.0
 10
173.9351133632826
 20
109.251774349283
 30
0.0
 10
174.2175778157897
 20
109.5648869766087
 30
0.0
 10
174.3216412439393
 20
109.662027011988
 30
0.0
 10
174.5437898784332
 20
109.8340446871882
 30
0.0
 10
174.6612898361017
 20
109.9088477704458
 30
0.0
 10
174.9109643092303
 20
110.0341262251659
 30
0.0
 10
175.0450261231874
 20
110.0848992909732
 30
0.0
 10
175.3183592353308
 20
110.1532593531892
 30
0.0
 10
175.4589458146559
 20
110.1715727604072
 30
0.0
 10
175.7443129015383
 20
110.1730108231532
 30
0.0
 10
175.884184699231
 20
110.1562791765958
 30
0.0
 10
176.1587949480983
 20
110.090493733493
 30
0.0
 10
176.293041477538
 20
110.0411179402998
 30
0.0
 10
176.5451813116562
 20
109.9172823202319
 30
0.0
 10
176.6657848291574
 20
109.8416309467757
 30
0.0
 10
176.8892737676163
 20
109.6706507843306
 30
0.0
 10
176.9924798516615
 20
109.5754838383022
 30
0.0
 10
177.1831516962386
 20
109.3665679811021
 30
0.0
 10
177.2699709573843
 20
109.2530993127378
 30
0.0
 10
177.4213474660896
 20
109.0162119905775
 30
0.0
 10
177.4868484630939
 20
108.8918288967891
 30
0.0
 10
177.6503952795749
 20
108.4995584369416
 30
0.0
 10
177.7092899540665
 20
108.2258732681785
 30
0.0
 10
177.7109136239978
 20
107.8242761016326
 30
0.0
 10
177.6971253124441
 20
107.6956024432722
 30
0.0
 10
177.6419171637476
 20
107.4480100902959
 30
0.0
 10
177.6000863888603
 20
107.3293568289938
 30
0.0
 10
177.49339140207
 20
107.1118890675724
 30
0.0
 10
177.4275372647249
 20
107.0106507300042
 30
0.0
 10
177.2755933221807
 20
106.827249955951
 30
0.0
 10
177.1902126624435
 20
106.7454595118288
 30
0.0
 10
177.0005842288845
 20
106.5987351382295
 30
0.0
 10
176.8959994141098
 20
106.5339438556539
 30
0.0
 10
176.6742728669182
 20
106.4238322750031
 30
0.0
 10
176.556291396067
 20
106.3777513370831
 30
0.0
 10
176.3033941837268
 20
106.3023774424239
 30
0.0
 10
176.1701052136413
 20
106.2737891905253
 30
0.0
 10
175.8965108118944
 20
106.2355480688157
 30
0.0
 10
175.7532116538042
 20
106.2256048522673
 30
0.0
 10
175.6103875821145
 20
106.2256048522673
 30
0.0
  0
LWPOLYLINE
  5
E2
330
1F
100
AcDbEntity
  8
0
  6
HIDDEN
 62
     7
370
     0
100
AcDbPolyline
 90
       22
 70
   128
 43
0.0
 10
173.6014691948
 20
101.1852067282
 10
173.838604707
 20
100.700763267
 10
174.205111915
 20
100.2936680934
 10
174.6742292672
 20
99.9936464034
 10
175.2117028444
 20
99.822605122
 10
175.7782875059
 20
99.7930333081
 10
176.3326124836
 20
99.9070902307
 10
176.8342021844
 20
100.1564477037
 10
177.2464316297
 20
100.5228981917
 10
177.5392007303
 20
100.9796842848
 10
177.6911321292
 20
101.4934524651
 10
177.6911321292
 20
102.0266885079
 10
177.5392007303
 20
102.5404566882
 10
177.2464316297
 20
102.9972427813
 10
176.8342021844
 20
103.3636932693
 10
176.3326124836
 20
103.6130507423
 10
175.7782875059
 20
103.7271076649
 10
175.2117028444
 20
103.697535851
 10
174.6742292672
 20
103.5264945696
 10
174.205111915
 20
103.2264728796
 10
173.838604707
 20
102.819377706
 10
173.6014691948
 20
102.3349342448
  0
CIRCLE
  5
E3
330
1F
100
AcDbEntity
  8
0
  6
HIDDEN
 62
     7
370
     0
100
AcDbCircle
 10
194.9603875821
 20
109.113503568
 30
0.0
 40
2.624999999999986
  0
SPLINE
  5
E4
330
1F
100
AcDbEntity
  8
0
  6
HIDDEN
 62
     7
370
     0
100
AcDbSpline
210
0.0
220
0.0
230
1.0
 70
     8
 71
     3
 72
    16
 73
    12
 74
     0
 42
0.000000001
 43
0.00000001
 40
0.0
 40
0.0
 40
0.0
 40
0.0
 40
0.2499999999999963
 40
0.2499999999999963
 40
0.4999999999999927
 40
0.4999999999999927
 40
0.6249999999999948
 40
0.6249999999999948
 40
0.749999999999997
 40
0.749999999999997
 40
1.0
 40
1.0
 40
1.0
 40
1.0
 10
203.0103875821145
 20
117.7222668248028
 30
0.0
 10
203.0103875821145
 20
117.6487410142815
 30
0.0
 10
203.0061744321328
 20
117.5737935024007
 30
0.0
 10
202.9836262398945
 20
117.4191357478078
 30
0.0
 10
202.9654778648424
 20
117.3381914936914
 30
0.0
 10
202.9156654852344
 20
117.2217184951729
 30
0.0
 10
202.8946989388126
 20
117.1832937151372
 30
0.0
 10
202.8435156086517
 20
117.1170727211611
 30
0.0
 10
202.8139457671391
 20
117.090633082827
 30
0.0
 10
202.7234066857968
 20
117.0371763397375
 30
0.0
 10
202.6639471983908
 20
117.0339538148452
 30
0.0
 10
202.6103875820745
 20
117.0417093551896
 30
0.0
  0
SPLINE
  5
E5
330
1F
100
AcDbEntity
  8
0
  6
HIDDEN
 62
     7
370
     0
100
AcDbSpline
210
0.0
220
0.0
230
1.0
 70
     8
 71
     3
 72
    10
 73
     6
 74
     0
 42
0.000000001
 43
0.00000001
 40
0.0
 40
0.0
 40
0.0
 40
0.0
 40
0.5
 40
0.5
 40
1.0
 40
1.0
 40
1.0
 40
1.0
 10
202.6103875820851
 20
117.0417093551991
 30
0.0
 10
202.5691915201742
 20
117.0088211109624
 30
0.0
 10
202.5237540558267
 20
116.9803455841263
 30
0.0
 10
202.4220811245585
 20
116.9388732642119
 30
0.0
 10
202.3669198365598
 20
116.9268195659774
 30
0.0
 10
202.3103875821146
 20
116.9268195659774
 30
0.0
  0
SPLINE
  5
E6
330
1F
100
AcDbEntity
  8
0
  6
HIDDEN
 62
     7
370
     0
100
AcDbSpline
210
0.0
220
0.0
230
1.0
 70
     8
 71
     3
 72
    10
 73
     6
 74
     0
 42
0.000000001
 43
0.00000001
 40
0.0
 40
0.0
 40
0.0
 40
0.0
 40
0.5
 40
0.5
 40
1.0
 40
1.0
 40
1.0
 40
1.0
 10
202.6103875821471
 20
101.1852977807474
 30
0.0
 10
202.56919152023
 20
101.2181860249973
 30
0.0
 10
202.5237540558762
 20
101.2466615518445
 30
0.0
 10
202.4220811245856
 20
101.2881338717782
 30
0.0
 10
202.366919836574
 20
101.3001875700187
 30
0.0
 10
202.3103875821146
 20
101.3001875700187
 30
0.0
  0
SPLINE
  5
E7
330
1F
100
AcDbEntity
  8
0
  6
HIDDEN
 62
     7
370
     0
100
AcDbSpline
210
0.0
220
0.0
230
1.0
 70
     8
 71
     3
 72
    16
 73
    12
 74
     0
 42
0.000000001
 43
0.00000001
 40
0.0
 40
0.0
 40
0.0
 40
0.0
 40
0.2499999999999883
 40
0.2499999999999883
 40
0.3749999999999915
 40
0.3749999999999915
 40
0.4999999999999946
 40
0.4999999999999946
 40
0.7499999999999972
 40
0.7499999999999972
 40
1.0
 40
1.0
 40
1.0
 40
1.0
 10
202.6103875821287
 20
101.1852977807554
 30
0.0
 10
202.6636422087713
 20
101.193009313025
 30
0.0
 10
202.7231790133103
 20
101.1897738717735
 30
0.0
 10
202.8132738272782
 20
101.1368733118042
 30
0.0
 10
202.8429230838806
 20
101.1104794769326
 30
0.0
 10
202.8937069050928
 20
101.0452292089339
 30
0.0
 10
202.9147032393779
 20
101.0072773974488
 30
0.0
 10
202.9655091173256
 20
100.8892780372734
 30
0.0
 10
202.9834998544008
 20
100.8085503384085
 30
0.0
 10
203.0061650009733
 20
100.6534785226054
 30
0.0
 10
203.0103875821145
 20
100.5783860001322
 30
0.0
 10
203.0103875821145
 20
100.5047453539444
 30
0.0
  0
LINE
  5
E8
330
1F
100
AcDbEntity
  8
0
  6
HIDDEN
 62
     7
370
     0
100
AcDbLine
 10
182.5103875821
 20
109.113503568
 30
0.0
 11
182.5103875821
 21
100.413503568
 31
0.0
  0
LINE
  5
E9
330
1F
100
AcDbEntity
  8
0
  6
HIDDEN
 62
     7
370
     0
100
AcDbLine
 10
182.5103875821
 20
117.813503568
 30
0.0
 11
182.5103875821
 21
109.113503568
 31
0.0
  0
LINE
  5
EA
330
1F
100
AcDbEntity
  8
0
  6
HIDDEN
 62
     7
370
     0
100
AcDbLine
 10
185.8764129859
 20
109.113503568
 30
0.0
 11
185.8764129859
 21
100.113503568
 31
0.0
  0
LINE
  5
EB
330
1F
100
AcDbEntity
  8
0
  6
HIDDEN
 62
     7
370
     0
100
AcDbLine
 10
185.8764129859
 20
118.113503568
 30
0.0
 11
185.8764129859
 21
109.113503568
 31
0.0
  0
LINE
  5
EC
330
1F
100
AcDbEntity
  8
0
  6
HIDDEN
 62
     7
370
     0
100
AcDbLine
 10
161.0103875821
 20
131.613503568
 30
0.0
 11
161.3476458823
 21
131.613503568
 31
0.0
  0
ELLIPSE
  5
ED
330
1F
100
AcDbEntity
  8
0
  6
HIDDEN
 62
     7
370
     0
100
AcDbEllipse
 10
161.3476458823
 20
133.213503568
 30
0.0
 11
0.0
 21
1.599999999999966
 31
0.0
210
0.0
220
0.0
230
1.0
 40
0.4142135624
 41
3.141592653589793
 42
4.712388980384677
  0
ELLIPSE
  5
EE
330
1F
100
AcDbEntity
  8
0
  6
HIDDEN
 62
     7
370
     0
100
AcDbEllipse
 10
161.3476458823
 20
85.013503568
 30
0.0
 11
0.0
 21
1.600000000000009
 31
0.0
210
0.0
220
0.0
230
1.0
 40
0.4142135624
 41
4.712388980384695
 42
6.283185307179586
  0
LINE
  5
EF
330
1F
100
AcDbEntity
  8
0
  6
HIDDEN
 62
     7
370
     0
100
AcDbLine
 10
161.3476458823
 20
86.613503568
 30
0.0
 11
161.0103875821
 21
86.613503568
 31
0.0
  0
LINE
  5
F0
330
1F
100
AcDbEntity
  8
0
  6
HIDDEN
 62
     7
370
     0
100
AcDbLine
 10
194.1103875821
 20
116.926819566
 30
0.0
 11
202.3103875821
 21
116.926819566
 31
0.0
  0
LINE
  5
F1
330
1F
100
AcDbEntity
  8
0
  6
HIDDEN
 62
     7
370
     0
100
AcDbLine
 10
194.1103875821
 20
101.30018757
 30
0.0
 11
202.3103875821
 21
101.30018757
 31
0.0
  0
LINE
  5
F2
330
1F
100
AcDbEntity
  8
0
  6
HIDDEN
 62
     7
370
     0
100
AcDbLine
 10
162.0103875821
 20
79.6594808452
 30
0.0
 11
161.3974204051
 21
79.0465136682
 31
0.0
  0
LINE
  5
F3
330
1F
100
AcDbEntity
  8
0
  6
HIDDEN
 62
     7
370
     0
100
AcDbLine
 10
161.3974204051
 20
139.1804934678
 30
0.0
 11
162.0103875821
 21
138.5675262908
 31
0.0
  0
LINE
  5
F4
330
1F
100
AcDbEntity
  8
0
  6
HIDDEN
 62
     7
370
     0
100
AcDbLine
 10
100.6103875821
 20
100.613503568
 30
0.0
 11
100.6103875821
 21
117.613503568
 31
0.0
  0
LINE
  5
F5
330
1F
100
AcDbEntity
  8
0
  6
HIDDEN
 62
     7
370
     0
100
AcDbLine
 10
103.6063167965
 20
102.113503568
 30
0.0
 11
103.6063167965
 21
116.113503568
 31
0.0
  0
LINE
  5
F6
330
1F
100
AcDbEntity
  8
0
  6
HIDDEN
 62
     7
370
     0
100
AcDbLine
 10
162.0103875821
 20
138.5675262908
 30
0.0
 11
171.1429491256
 21
138.5675262908
 31
0.0
  0
LINE
  5
F7
330
1F
100
AcDbEntity
  8
0
  6
HIDDEN
 62
     7
370
     0
100
AcDbLine
 10
162.0103875821
 20
138.5675262908
 30
0.0
 11
162.0103875821
 21
133.213503568
 31
0.0
  0
LINE
  5
F8
330
1F
100
AcDbEntity
  8
0
  6
HIDDEN
 62
     7
370
     0
100
AcDbLine
 10
171.1429491256
 20
79.6594808452
 30
0.0
 11
162.0103875821
 21
79.6594808452
 31
0.0
  0
LINE
  5
F9
330
1F
100
AcDbEntity
  8
0
  6
HIDDEN
 62
     7
370
     0
100
AcDbLine
 10
162.0103875821
 20
79.6594808452
 30
0.0
 11
162.0103875821
 21
85.013503568
 31
0.0
  0
LINE
  5
FA
330
1F
100
AcDbEntity
  8
0
  6
HIDDEN
 62
     7
370
     0
100
AcDbLine
 10
161.3476458823
 20
131.613503568
 30
0.0
 11
173.9603875821
 21
131.613503568
 31
0.0
  0
LINE
  5
FB
330
1F
100
AcDbEntity
  8
0
  6
HIDDEN
 62
     7
370
     0
100
AcDbLine
 10
173.9603875821
 20
86.613503568
 30
0.0
 11
161.3476458823
 21
86.613503568
 31
0.0
  0
LINE
  5
FC
330
1F
100
AcDbEntity
  8
0
  6
HIDDEN
 62
     7
370
     0
100
AcDbLine
 10
179.9866293483
 20
79.2084556746
 30
0.0
 11
180.080572078
 21
79.1834720032
 31
0.0
  0
SPLINE
  5
FD
330
1F
100
AcDbEntity
  8
0
  6
HIDDEN
 62
     7
370
     0
100
AcDbSpline
210
0.0
220
0.0
230
1.0
 70
     8
 71
     3
 72
    13
 73
     9
 74
     0
 42
0.000000001
 43
0.00000001
 40
0.0
 40
0.0
 40
0.0
 40
0.0
 40
0.0000730266253407
 40
0.1576811714019511
 40
0.3241446478108668
 40
0.4996852929261713
 40
0.7294244053126598
 40
1.0
 40
1.0
 40
1.0
 40
1.0
 10
182.0103662750623
 20
78.61351186904992
 30
0.0
 10
182.0103733767701
 20
78.613508958915
 30
0.0
 10
182.0257075866701
 20
78.60722531263696
 30
0.0
 10
181.9662465145798
 20
78.63093700567828
 30
0.0
 10
181.8054961124803
 20
78.68641193623867
 30
0.0
 10
181.4708114762294
 20
78.79435900421902
 30
0.0
 10
180.9129372176955
 20
78.96563122190803
 30
0.0
 10
180.3117708121568
 20
79.12336164989104
 30
0.0
 10
179.9866535302044
 20
79.20866396810871
 30
0.0
  0
LINE
  5
FE
330
1F
100
AcDbEntity
  8
0
  6
HIDDEN
 62
     7
370
     0
100
AcDbLine
 10
173.9603875821
 20
131.613503568
 30
0.0
 11
180.4103875821
 21
131.613503568
 31
0.0
  0
SPLINE
  5
FF
330
1F
100
AcDbEntity
  8
0
  6
HIDDEN
 62
     7
370
     0
100
AcDbSpline
210
0.0
220
0.0
230
1.0
 70
     8
 71
     3
 72
    13
 73
     9
 74
     0
 42
0.000000001
 43
0.00000001
 40
0.0
 40
0.0
 40
0.0
 40
0.0
 40
0.1850454653144679
 40
0.3520092965859432
 40
0.5010298177386109
 40
0.6766227814582007
 40
0.8430962614808595
 40
1.0
 40
1.0
 40
1.0
 40
1.0
 10
179.9866512127269
 20
139.0183643437091
 30
0.0
 10
180.213441328347
 20
139.077201015249
 30
0.0
 10
180.644860865899
 20
139.1891251595507
 30
0.0
 10
181.1323163368507
 20
139.329391231179
 30
0.0
 10
181.5214255133949
 20
139.4486859904343
 30
0.0
 10
181.80232543382
 20
139.5393538000586
 30
0.0
 10
181.9792102088851
 20
139.6012695604079
 30
0.0
 10
182.0000725887083
 20
139.6094588165656
 30
0.0
 10
182.0101950871436
 20
139.6134322718158
 30
0.0
  0
LINE
  5
100
330
1F
100
AcDbEntity
  8
0
  6
HIDDEN
 62
     7
370
     0
100
AcDbLine
 10
180.7368817559
 20
139.218077423
 30
0.0
 11
179.9866291947
 21
139.0185517699
 31
0.0
  0
LINE
  5
101
330
1F
100
AcDbEntity
  8
0
  6
HIDDEN
 62
     7
370
     0
100
AcDbLine
 10
180.4103875821
 20
86.613503568
 30
0.0
 11
173.9603875821
 21
86.613503568
 31
0.0
  0
LINE
  5
102
330
1F
100
AcDbEntity
  8
0
  6
HIDDEN
 62
     7
370
     0
100
AcDbLine
 10
136.6103875821
 20
102.113503568
 30
0.0
 11
136.6103875821
 21
116.113503568
 31
0.0
  0
LINE
  5
103
330
1F
100
AcDbEntity
  8
0
  6
HIDDEN
 62
     7
370
     0
100
AcDbLine
 10
138.7734858106
 20
105.713503568
 30
0.0
 11
138.7734858106
 21
112.513503568
 31
0.0
  0
SPLINE
  5
104
330
1F
100
AcDbEntity
  8
0
  6
HIDDEN
 62
     7
370
     0
100
AcDbSpline
210
0.0
220
0.0
230
1.0
 70
     8
 71
     3
 72
     9
 73
     5
 74
     0
 42
0.000000001
 43
0.00000001
 40
0.0
 40
0.0
 40
0.0
 40
0.0
 40
0.4932365035776448
 40
1.0
 40
1.0
 40
1.0
 40
1.0
 10
179.9874471208119
 20
139.0183350791704
 30
0.0
 10
180.0932950763206
 20
139.1753564674533
 30
0.0
 10
180.307893863598
 20
139.4937055497778
 30
0.0
 10
180.5257537454822
 20
139.8135316574554
 30
0.0
 10
180.636157180956
 20
139.9756078540292
 30
0.0
  0
SPLINE
  5
105
330
1F
100
AcDbEntity
  8
0
  6
HIDDEN
 62
     7
370
     0
100
AcDbSpline
210
0.0
220
0.0
230
1.0
 70
     8
 71
     3
 72
     9
 73
     5
 74
     0
 42
0.000000001
 43
0.00000001
 40
0.0
 40
0.0
 40
0.0
 40
0.0
 40
0.5067661695379747
 40
1.0
 40
1.0
 40
1.0
 40
1.0
 10
180.636160866242
 20
78.25141341752092
 30
0.0
 10
180.5257560357679
 20
78.41349083210106
 30
0.0
 10
180.3078945503126
 20
78.73331765623159
 30
0.0
 10
180.0932948324269
 20
79.05166617249607
 30
0.0
 10
179.9874469915581
 20
79.2086864305951
 30
0.0
  0
SPLINE
  5
106
330
1F
100
AcDbEntity
  8
0
  6
HIDDEN
 62
     7
370
     0
100
AcDbSpline
210
0.0
220
0.0
230
1.0
 70
     8
 71
     3
 72
    14
 73
    10
 74
     0
 42
0.000000001
 43
0.00000001
 40
0.0
 40
0.0
 40
0.0
 40
0.0
 40
0.25
 40
0.25
 40
0.5
 40
0.5
 40
0.75
 40
0.75
 40
1.0
 40
1.0
 40
1.0
 40
1.0
 10
202.6103875821145
 20
120.9135035679981
 30
0.0
 10
202.6103875821145
 20
121.0977678687356
 30
0.0
 10
202.6105396516308
 20
121.2647287180184
 30
0.0
 10
202.6073112023595
 20
121.5651318477016
 30
0.0
 10
202.6044640018475
 20
121.6978683047323
 30
0.0
 10
202.5968140814894
 20
121.9140272367061
 30
0.0
 10
202.5916865467683
 20
122.0005112694605
 30
0.0
 10
202.5816485260515
 20
122.1201676184687
 30
0.0
 10
202.5767119311364
 20
122.1543067895377
 30
0.0
 10
202.5731090268712
 20
122.1619075214594
 30
0.0
  0
SPLINE
  5
107
330
1F
100
AcDbEntity
  8
0
  6
HIDDEN
 62
     7
370
     0
100
AcDbSpline
210
0.0
220
0.0
230
1.0
 70
     8
 71
     3
 72
    11
 73
     7
 74
     0
 42
0.000000001
 43
0.00000001
 40
0.0
 40
0.0
 40
0.0
 40
0.0
 40
0.2787459910571579
 40
0.6039006911839792
 40
0.9296023041786441
 40
0.9999999999999999
 40
0.9999999999999999
 40
0.9999999999999999
 40
0.9999999999999999
 10
202.5725759321754
 20
122.1456852560112
 30
0.0
 10
202.5701199543328
 20
122.1294607228536
 30
0.0
 10
202.56479910035
 20
122.0943104171904
 30
0.0
 10
202.5872564540154
 20
121.7045645898298
 30
0.0
 10
202.6087617627003
 20
121.2556553839114
 30
0.0
 10
202.6101422245428
 20
120.9651366958038
 30
0.0
 10
202.6103875704213
 20
120.9135035679981
 30
0.0
  0
LINE
  5
108
330
1F
100
AcDbEntity
  8
0
  6
HIDDEN
 62
     7
370
     0
100
AcDbLine
 10
202.6103875704
 20
120.913503568
 30
0.0
 11
202.6103875821
 21
117.0417093552
 31
0.0
  0
LINE
  5
109
330
1F
100
AcDbEntity
  8
0
  6
HIDDEN
 62
     7
370
     0
100
AcDbLine
 10
202.6103875868
 20
97.313503568
 30
0.0
 11
202.6103875821
 21
101.1852977807
 31
0.0
  0
SPLINE
  5
10A
330
1F
100
AcDbEntity
  8
0
  6
HIDDEN
 62
     7
370
     0
100
AcDbSpline
210
0.0
220
0.0
230
1.0
 70
     8
 71
     3
 72
    11
 73
     7
 74
     0
 42
0.000000001
 43
0.00000001
 40
0.0
 40
0.0
 40
0.0
 40
0.0
 40
0.2785990484875192
 40
0.6037966906658969
 40
0.9295411511085614
 40
0.9999999999999999
 40
0.9999999999999999
 40
0.9999999999999999
 40
0.9999999999999999
 10
202.5725739460564
 20
96.08138231820557
 30
0.0
 10
202.5701201906489
 20
96.09758746347669
 30
0.0
 10
202.5648022636755
 20
96.13270823341321
 30
0.0
 10
202.5872297609659
 20
96.52236452393161
 30
0.0
 10
202.6088140152932
 20
96.9712764637202
 30
0.0
 10
202.6101500015806
 20
97.26183250917771
 30
0.0
 10
202.6103875868145
 20
97.31350356799797
 30
0.0
  0
LINE
  5
10B
330
1F
100
AcDbEntity
  8
0
  6
HIDDEN
 62
     7
370
     0
100
AcDbLine
 10
194.1103875821
 20
120.913503568
 30
0.0
 11
194.1103875821
 21
116.926819566
 31
0.0
  0
LINE
  5
10C
330
1F
100
AcDbEntity
  8
0
  6
HIDDEN
 62
     7
370
     0
100
AcDbLine
 10
194.1103875821
 20
97.313503568
 30
0.0
 11
194.1103875821
 21
101.30018757
 31
0.0
  0
SPLINE
  5
10D
330
1F
100
AcDbEntity
  8
0
  6
HIDDEN
 62
     7
370
     0
100
AcDbSpline
210
0.0
220
0.0
230
1.0
 70
    11
 71
     3
 72
    62
 73
    58
 74
     0
 42
0.000000001
 43
0.00000001
 40
0.0
 40
0.0
 40
0.0
 40
0.0
 40
0.0312500000000003
 40
0.0312500000000003
 40
0.0625000000000006
 40
0.0625000000000006
 40
0.1250000000000012
 40
0.1250000000000012
 40
0.1562500000000015
 40
0.1562500000000015
 40
0.1875000000000018
 40
0.1875000000000018
 40
0.2187500000000021
 40
0.2187500000000021
 40
0.2500000000000024
 40
0.2500000000000024
 40
0.312500000000003
 40
0.312500000000003
 40
0.3750000000000035
 40
0.3750000000000035
 40
0.4062500000000038
 40
0.4062500000000038
 40
0.4375000000000041
 40
0.4375000000000041
 40
0.4687500000000044
 40
0.4687500000000044
 40
0.5000000000000047
 40
0.5000000000000047
 40
0.5312500000000051
 40
0.5312500000000051
 40
0.5625000000000053
 40
0.5625000000000053
 40
0.593750000000005
 40
0.593750000000005
 40
0.6250000000000047
 40
0.6250000000000047
 40
0.6562500000000042
 40
0.6562500000000042
 40
0.6875000000000039
 40
0.6875000000000039
 40
0.750000000000003
 40
0.750000000000003
 40
0.7812500000000027
 40
0.7812500000000027
 40
0.8125000000000023
 40
0.8125000000000023
 40
0.843750000000002
 40
0.843750000000002
 40
0.8750000000000016
 40
0.8750000000000016
 40
0.9062500000000012
 40
0.9062500000000012
 40
0.9375000000000009
 40
0.9375000000000009
 40
0.9687500000000004
 40
0.9687500000000004
 40
1.0
 40
1.0
 40
1.0
 40
1.0
 10
175.6103875821145
 20
108.054693276428
 30
0.0
 10
175.7532116538042
 20
108.054693276428
 30
0.0
 10
175.892574888414
 20
108.0721534870814
 30
0.0
 10
176.1651349478643
 20
108.138649082168
 30
0.0
 10
176.2992990678683
 20
108.1884808987759
 30
0.0
 10
176.6759934668648
 20
108.3749688627792
 30
0.0
 10
176.9015213467543
 20
108.5511814499431
 30
0.0
 10
177.1850330534515
 20
108.8628479858263
 30
0.0
 10
177.2719763379091
 20
108.9766564794628
 30
0.0
 10
177.4233698438225
 20
109.2143599712187
 30
0.0
 10
177.4882706014032
 20
109.3383304065631
 30
0.0
 10
177.5957571866934
 20
109.5966600977732
 30
0.0
 10
177.6384181066488
 20
109.732618963957
 30
0.0
 10
177.6950036863201
 20
110.0010445993249
 30
0.0
 10
177.7097850004099
 20
110.1348807172219
 30
0.0
 10
177.7115391657607
 20
110.5349276353554
 30
0.0
 10
177.6537716176047
 20
110.7879089647044
 30
0.0
 10
177.4404855098518
 20
111.2232697890021
 30
0.0
 10
177.2856618009464
 20
111.4072567009362
 30
0.0
 10
177.0031973484392
 20
111.6264654549994
 30
0.0
 10
176.8991339202897
 20
111.6912799916187
 30
0.0
 10
176.6769852857958
 20
111.8020486250235
 30
0.0
 10
176.5594853281273
 20
111.8480210962411
 30
0.0
 10
176.3098108549986
 20
111.9229893646775
 30
0.0
 10
176.1757490410416
 20
111.9521443333088
 30
0.0
 10
175.9024159288982
 20
111.9909066707377
 30
0.0
 10
175.761829349573
 20
112.0009906765251
 30
0.0
 10
175.4764622626907
 20
112.001789378095
 30
0.0
 10
175.336590464998
 20
111.9925862493794
 30
0.0
 10
175.0619802161306
 20
111.9553452933447
 30
0.0
 10
174.927733686691
 20
111.9270673412196
 30
0.0
 10
174.6755938525727
 20
111.8531619770492
 30
0.0
 10
174.5549903350716
 20
111.8067889038871
 30
0.0
 10
174.3315013966127
 20
111.6969648567294
 30
0.0
 10
174.2282953125675
 20
111.633662722119
 30
0.0
 10
174.0376234679904
 20
111.4878235394444
 30
0.0
 10
173.9508042068447
 20
111.4054020375927
 30
0.0
 10
173.7994276981393
 20
111.2248831304497
 30
0.0
 10
173.733926701135
 20
111.1261553844547
 30
0.0
 10
173.570379884654
 20
110.7993806347348
 30
0.0
 10
173.5114852101624
 20
110.551146501973
 30
0.0
 10
173.5098615402311
 20
110.1502353255524
 30
0.0
 10
173.5236498517849
 20
110.0156989052582
 30
0.0
 10
173.5788580004813
 20
109.7450652542943
 30
0.0
 10
173.6206887753686
 20
109.6090727849157
 30
0.0
 10
173.7273837621589
 20
109.3487987492709
 30
0.0
 10
173.793237899504
 20
109.2216970601967
 30
0.0
 10
173.9451818420482
 20
108.9815812744476
 30
0.0
 10
174.0305625017855
 20
108.8691789605671
 30
0.0
 10
174.2201909353445
 20
108.6594768716895
 30
0.0
 10
174.3247757501191
 20
108.5622698632573
 30
0.0
 10
174.5465022973108
 20
108.3911527940428
 30
0.0
 10
174.664483768162
 20
108.3161478986579
 30
0.0
 10
174.9173809805022
 20
108.1900859372536
 30
0.0
 10
175.0506699505876
 20
108.1402325736404
 30
0.0
 10
175.3242643523345
 20
108.072754688758
 30
0.0
 10
175.4675635104248
 20
108.054693276428
 30
0.0
 10
175.6103875821145
 20
108.054693276428
 30
0.0
  0
LINE
  5
10E
330
1F
100
AcDbEntity
  8
0
  6
HIDDEN
 62
     7
370
     0
100
AcDbLine
 10
194.1103875821
 20
122.163503568
 30
0.0
 11
194.1103875821
 21
120.913503568
 31
0.0
  0
LINE
  5
10F
330
1F
100
AcDbEntity
  8
0
  6
HIDDEN
 62
     7
370
     0
100
AcDbLine
 10
194.1103875821
 20
96.063503568
 30
0.0
 11
194.1103875821
 21
97.313503568
 31
0.0
  0
SPLINE
  5
110
330
1F
100
AcDbEntity
  8
0
  6
HIDDEN
 62
     7
370
     0
100
AcDbSpline
210
0.0
220
0.0
230
1.0
 70
     8
 71
     3
 72
    22
 73
    18
 74
     0
 42
0.000000001
 43
0.00000001
 40
0.0
 40
0.0
 40
0.0
 40
0.0
 40
0.1250000000000003
 40
0.1250000000000003
 40
0.2500000000000006
 40
0.2500000000000006
 40
0.3750000000000009
 40
0.3750000000000009
 40
0.5000000000000012
 40
0.5000000000000012
 40
0.6250000000000016
 40
0.6250000000000016
 40
0.7500000000000018
 40
0.7500000000000018
 40
0.8750000000000009
 40
0.8750000000000009
 40
1.0
 40
1.0
 40
1.0
 40
1.0
 10
177.2867560208147
 20
116.9781585436533
 30
0.0
 10
177.1884777972592
 20
116.8536298237211
 30
0.0
 10
177.0771550299521
 20
116.7420266842888
 30
0.0
 10
176.8293464215873
 20
116.5440428411004
 30
0.0
 10
176.6913948960372
 20
116.4573883189116
 30
0.0
 10
176.4031339344531
 20
116.3188647436887
 30
0.0
 10
176.2506904155409
 20
116.2654209924121
 30
0.0
 10
175.9337786772652
 20
116.193240842267
 30
0.0
 10
175.7737901731568
 20
116.1753228028735
 30
0.0
 10
175.4508200665349
 20
116.175037661376
 30
0.0
 10
175.2872575828821
 20
116.1933359712444
 30
0.0
 10
174.9737593517422
 20
116.2644313934352
 30
0.0
 10
174.8202573855133
 20
116.3177419456991
 30
0.0
 10
174.529654687639
 20
116.4571233837237
 30
0.0
 10
174.3948344442253
 20
116.5416772808315
 30
0.0
 10
174.145886367596
 20
116.7398687287376
 30
0.0
 10
174.0322971344269
 20
116.8536301183771
 30
0.0
 10
173.9340191434143
 20
116.9781585436533
 30
0.0
  0
SPLINE
  5
111
330
1F
100
AcDbEntity
  8
0
  6
HIDDEN
 62
     7
370
     0
100
AcDbSpline
210
0.0
220
0.0
230
1.0
 70
     8
 71
     3
 72
    18
 73
    14
 74
     0
 42
0.000000001
 43
0.00000001
 40
0.0
 40
0.0
 40
0.0
 40
0.0
 40
0.2500000000000009
 40
0.2500000000000009
 40
0.3750000000000011
 40
0.3750000000000011
 40
0.5000000000000012
 40
0.5000000000000012
 40
0.6250000000000013
 40
0.6250000000000013
 40
0.7500000000000016
 40
0.7500000000000016
 40
1.0
 40
1.0
 40
1.0
 40
1.0
 10
177.2867560208147
 20
119.3552568682321
 30
0.0
 10
177.4253263695451
 20
119.1856768739963
 30
0.0
 10
177.5298117890956
 20
119.0120656658545
 30
0.0
 10
177.6373680222335
 20
118.729034403451
 30
0.0
 10
177.6643779962056
 20
118.6323613683581
 30
0.0
 10
177.7009189583181
 20
118.4312929411867
 30
0.0
 10
177.7103947788303
 20
118.3255490441001
 30
0.0
 10
177.7103803770195
 20
118.1112995518208
 30
0.0
 10
177.7011582639977
 20
118.0032715534105
 30
0.0
 10
177.6649135179662
 20
117.7862786638791
 30
0.0
 10
177.6375392266875
 20
117.6764290461441
 30
0.0
 10
177.5302791047895
 20
117.3568452562282
 30
0.0
 10
177.4250885826502
 20
117.1534402716605
 30
0.0
 10
177.2867560208149
 20
116.9781585436531
 30
0.0
  0
SPLINE
  5
112
330
1F
100
AcDbEntity
  8
0
  6
HIDDEN
 62
     7
370
     0
100
AcDbSpline
210
0.0
220
0.0
230
1.0
 70
     8
 71
     3
 72
    22
 73
    18
 74
     0
 42
0.000000001
 43
0.00000001
 40
0.0
 40
0.0
 40
0.0
 40
0.0
 40
0.1249999999999991
 40
0.1249999999999991
 40
0.2499999999999982
 40
0.2499999999999982
 40
0.3749999999999984
 40
0.3749999999999984
 40
0.4999999999999988
 40
0.4999999999999988
 40
0.6249999999999991
 40
0.6249999999999991
 40
0.7499999999999993
 40
0.7499999999999993
 40
0.8749999999999997
 40
0.8749999999999997
 40
1.0
 40
1.0
 40
1.0
 40
1.0
 10
173.9340191434143
 20
119.3552568682321
 30
0.0
 10
174.0322973669698
 20
119.4755280571028
 30
0.0
 10
174.1436201342769
 20
119.5826762654989
 30
0.0
 10
174.3914287426417
 20
119.7720543039194
 30
0.0
 10
174.5293802681918
 20
119.8545344574769
 30
0.0
 10
174.8176412297758
 20
119.9860692887883
 30
0.0
 10
174.9700847486881
 20
120.0366292945735
 30
0.0
 10
175.2869964869637
 20
120.1048559699733
 30
0.0
 10
175.4469849910722
 20
120.1217530415989
 30
0.0
 10
175.7699550976941
 20
120.1220221465814
 30
0.0
 10
175.9335175813469
 20
120.1047656172808
 30
0.0
 10
176.2470158124868
 20
120.0375651196347
 30
0.0
 10
176.4005177787157
 20
119.9871341140025
 30
0.0
 10
176.6911204765899
 20
119.8547873388675
 30
0.0
 10
176.8259407200037
 20
119.7743108015328
 30
0.0
 10
177.074888796633
 20
119.5847465183261
 30
0.0
 10
177.1884780298021
 20
119.4755277725209
 30
0.0
 10
177.2867560208147
 20
119.3552568682321
 30
0.0
  0
SPLINE
  5
113
330
1F
100
AcDbEntity
  8
0
  6
HIDDEN
 62
     7
370
     0
100
AcDbSpline
210
0.0
220
0.0
230
1.0
 70
     8
 71
     3
 72
    18
 73
    14
 74
     0
 42
0.000000001
 43
0.00000001
 40
0.0
 40
0.0
 40
0.0
 40
0.0
 40
0.2499999999999989
 40
0.2499999999999989
 40
0.3749999999999992
 40
0.3749999999999992
 40
0.4999999999999996
 40
0.4999999999999996
 40
0.6249999999999999
 40
0.6249999999999999
 40
0.7500000000000002
 40
0.7500000000000002
 40
1.0
 40
1.0
 40
1.0
 40
1.0
 10
173.9340191434143
 20
116.9781585436533
 30
0.0
 10
173.7954487946839
 20
117.1537415723618
 30
0.0
 10
173.6909633751334
 20
117.3557345879928
 30
0.0
 10
173.5834071419955
 20
117.6757788787907
 30
0.0
 10
173.5563971680234
 20
117.7838381546358
 30
0.0
 10
173.5198562059108
 20
118.0010893837525
 30
0.0
 10
173.5103803853987
 20
118.1115523169405
 30
0.0
 10
173.5103947872094
 20
118.3257948823833
 30
0.0
 10
173.5196169002313
 20
118.4292261691747
 30
0.0
 10
173.5558616462627
 20
118.6301488064579
 30
0.0
 10
173.5832359375415
 20
118.7284540493171
 30
0.0
 10
173.6904960594395
 20
119.0110941423861
 30
0.0
 10
173.7956865815787
 20
119.1859678734827
 30
0.0
 10
173.934019143414
 20
119.3552568682322
 30
0.0
  0
SPLINE
  5
114
330
1F
100
AcDbEntity
  8
0
  6
HIDDEN
 62
     7
370
     0
100
AcDbSpline
210
0.0
220
0.0
230
1.0
 70
    11
 71
     3
 72
    56
 73
    52
 74
     0
 42
0.000000001
 43
0.00000001
 40
0.0
 40
0.0
 40
0.0
 40
0.0
 40
0.0312500000000005
 40
0.0312500000000005
 40
0.062500000000001
 40
0.062500000000001
 40
0.1250000000000012
 40
0.1250000000000012
 40
0.1562500000000013
 40
0.1562500000000013
 40
0.1875000000000014
 40
0.1875000000000014
 40
0.2187500000000015
 40
0.2187500000000015
 40
0.2500000000000016
 40
0.2500000000000016
 40
0.3125000000000011
 40
0.3125000000000011
 40
0.3437500000000008
 40
0.3437500000000008
 40
0.3750000000000006
 40
0.3750000000000006
 40
0.4375000000000002
 40
0.4375000000000002
 40
0.4687500000000002
 40
0.4687500000000002
 40
0.5
 40
0.5
 40
0.5312500000000003
 40
0.5312500000000003
 40
0.5625000000000004
 40
0.5625000000000004
 40
0.625000000000001
 40
0.625000000000001
 40
0.6875000000000017
 40
0.6875000000000017
 40
0.7500000000000022
 40
0.7500000000000022
 40
0.781250000000002
 40
0.781250000000002
 40
0.8125000000000017
 40
0.8125000000000017
 40
0.8437500000000014
 40
0.8437500000000014
 40
0.8750000000000011
 40
0.8750000000000011
 40
0.9062500000000009
 40
0.9062500000000009
 40
0.9375000000000007
 40
0.9375000000000007
 40
1.0
 40
1.0
 40
1.0
 40
1.0
 10
173.5698115812773
 20
114.7803836569744
 30
0.0
 10
173.5984830978743
 20
114.6785695921015
 30
0.0
 10
173.636253017458
 20
114.5861666744518
 30
0.0
 10
173.7265511542277
 20
114.4193885897562
 30
0.0
 10
173.779826850401
 20
114.3445189006332
 30
0.0
 10
173.9487579271753
 20
114.1583982361183
 30
0.0
 10
174.0799446431595
 20
114.0803817385348
 30
0.0
 10
174.225230163163
 20
114.0598071879802
 30
0.0
 10
174.2633710959646
 20
114.0693554079128
 30
0.0
 10
174.3081476291288
 20
114.1167116370929
 30
0.0
 10
174.3150423671687
 20
114.1548123993531
 30
0.0
 10
174.3037938215549
 20
114.2469328773172
 30
0.0
 10
174.2861329763502
 20
114.3019883194565
 30
0.0
 10
174.2374089705882
 20
114.4215950776358
 30
0.0
 10
174.2064699721967
 20
114.4862729467386
 30
0.0
 10
174.1028144368781
 20
114.6936343291621
 30
0.0
 10
174.019009100216
 20
114.850422084385
 30
0.0
 10
173.8935588357636
 20
115.1095673470378
 30
0.0
 10
173.8514656557161
 20
115.2003197215876
 30
0.0
 10
173.7687246644032
 20
115.3933209436258
 30
0.0
 10
173.7278944309955
 20
115.4961019061542
 30
0.0
 10
173.6150446748354
 20
115.8183430193341
 30
0.0
 10
173.5503544914715
 20
116.0572895580452
 30
0.0
 10
173.5098848137335
 20
116.4260566630225
 30
0.0
 10
173.5068430175435
 20
116.5458160736675
 30
0.0
 10
173.522646174121
 20
116.7649143348766
 30
0.0
 10
173.5413892716658
 20
116.8632433432004
 30
0.0
 10
173.5926631750592
 20
117.030118390407
 30
0.0
 10
173.6251877210915
 20
117.0999930365032
 30
0.0
 10
173.6973408695335
 20
117.2166020967957
 30
0.0
 10
173.7364460462863
 20
117.2628227365688
 30
0.0
 10
173.8584437847327
 20
117.3756415540569
 30
0.0
 10
173.9459755974624
 20
117.4160948434166
 30
0.0
 10
174.108092150415
 20
117.446952962839
 30
0.0
 10
174.1856498077035
 20
117.4380497772705
 30
0.0
 10
174.2967946308075
 20
117.3669737288324
 30
0.0
 10
174.3295276171495
 20
117.3047348101222
 30
0.0
 10
174.2858992348294
 20
117.1468335268492
 30
0.0
 10
174.2555839738333
 20
117.083578123979
 30
0.0
 10
174.1707269901962
 20
116.9382640581192
 30
0.0
 10
174.1158779159332
 20
116.85489214236
 30
0.0
 10
174.0010392305209
 20
116.6762989848695
 30
0.0
 10
173.9396198013413
 20
116.578552236452
 30
0.0
 10
173.8234118144543
 20
116.3735739373526
 30
0.0
 10
173.7678977494858
 20
116.2652920020391
 30
0.0
 10
173.6696937741405
 20
116.0399420979107
 30
0.0
 10
173.6278033558944
 20
115.9250361424496
 30
0.0
 10
173.5612966755897
 20
115.6897687394165
 30
0.0
 10
173.5368531806624
 20
115.5687714049208
 30
0.0
 10
173.4963632548669
 20
115.2155699727444
 30
0.0
 10
173.5124685480833
 20
114.9840117867201
 30
0.0
 10
173.5698115812773
 20
114.7803836569744
 30
0.0
  0
LWPOLYLINE
  5
115
330
1F
100
AcDbEntity
  8
0
  6
HIDDEN
 62
     7
370
     0
100
AcDbPolyline
 90
       22
 70
   128
 43
0.0
 10
161.6153938547
 20
117.1409677959
 10
161.7234550915
 20
116.7898161314
 10
161.8918285415
 20
116.5526993333
 10
162.1055534847
 20
116.4506862697
 10
162.3456395221
 20
116.492841249
 10
162.5907539556
 20
116.6754186163
 10
162.8191172921
 20
116.9821955713
 10
163.010438447
 20
117.3859136352
 10
163.1477176962
 20
117.8507006865
 10
163.2187571758
 20
118.3352583558
 10
163.2172447164
 20
118.7965315679
 10
163.1433147066
 20
119.1935341736
 10
163.0035361523
 20
119.4909907491
 10
162.8103289913
 20
119.6624709724
 10
162.5808605279
 20
119.692738073
 10
162.3355200419
 20
119.5791026863
 10
162.0961071123
 20
119.3316618151
 10
161.8838946285
 20
118.9724016666
 10
161.7177386009
 20
118.5332440816
 10
161.6124027218
 20
118.0532101388
 10
161.5772465462
 20
117.5749529605
 10
161.6153938547
 20
117.1409677959
  0
LWPOLYLINE
  5
116
330
1F
100
AcDbEntity
  8
0
  6
HIDDEN
 62
     7
370
     0
100
AcDbPolyline
 90
       25
 70
   128
 43
0.0
 10
161.2589585604
 20
116.9147300354
 10
161.374779705
 20
116.5164405082
 10
161.5509535629
 20
116.2261507888
 10
161.7754741769
 20
116.0636436416
 10
162.033040838
 20
116.0399936603
 10
162.306100804
 20
116.1568125519
 10
162.5760454895
 20
116.4061393022
 10
162.8244786103
 20
116.770982705
 10
163.0344698597
 20
117.2264792854
 10
163.1917086811
 20
117.7415877042
 10
163.2854795087
 20
118.2812041739
 10
163.3093920155
 20
118.8085547239
 10
163.2618166038
 20
119.2877012857
 10
163.1459954592
 20
119.6859908128
 10
162.9698216013
 20
119.9762805323
 10
162.7453009874
 20
120.1387876794
 10
162.4877343262
 20
120.1624376608
 10
162.2146743602
 20
120.0456187691
 10
161.9447296747
 20
119.7962920189
 10
161.6962965539
 20
119.4314486161
 10
161.4863053045
 20
118.9759520356
 10
161.3290664831
 20
118.4608436168
 10
161.2352956555
 20
117.9212271471
 10
161.2113831487
 20
117.3938765971
 10
161.2589585604
 20
116.9147300354
  0
LWPOLYLINE
  5
117
330
1F
100
AcDbEntity
  8
0
  6
HIDDEN
 62
     7
370
     0
100
AcDbPolyline
 90
       24
 70
   128
 43
0.0
 10
165.5989754049
 20
115.4057669572
 10
165.3581324046
 20
115.5020042035
 10
165.1605176973
 20
115.7371101756
 10
165.0207874617
 20
116.0936481389
 10
164.9493048502
 20
116.5451753038
 10
164.9513714011
 20
117.0582039662
 10
165.0268338478
 20
117.5946851369
 10
165.1700954858
 20
118.114830462
 10
165.3705312548
 20
118.580063142
 10
165.6132757507
 20
118.9558789974
 10
165.8803257248
 20
119.2144054855
 10
166.1518753021
 20
119.3364688794
 10
166.4077848928
 20
119.3130162954
 10
166.6290748532
 20
119.1457871045
 10
166.7993331194
 20
118.8471839308
 10
166.9059324145
 20
118.4393528056
 10
166.9409667565
 20
117.9525406977
 10
166.9018378086
 20
117.4228522342
 10
166.7914475858
 20
116.8895719853
 10
166.6179832259
 20
116.3922509074
 10
166.394309787
 20
115.9677730298
 10
166.1370161047
 20
115.6476199348
 10
165.8651844745
 20
115.4555359129
 10
165.5989754049
 20
115.4057669572
  0
LWPOLYLINE
  5
118
330
1F
100
AcDbEntity
  8
0
  6
HIDDEN
 62
     7
370
     0
100
AcDbPolyline
 90
       19
 70
   128
 43
0.0
 10
166.3767520115
 20
116.0157553655
 10
166.188772345
 20
116.1083668021
 10
166.0492487237
 20
116.3382135298
 10
165.9750097554
 20
116.6775726413
 10
165.9750097554
 20
117.0855124192
 10
166.0492487237
 20
117.5128293058
 10
166.188772345
 20
117.907982578
 10
166.3767520115
 20
118.2233109194
 10
166.590514601
 20
118.4207810782
 10
166.8042771906
 20
118.4765752389
 10
166.9922568571
 20
118.3839638024
 10
167.1317804784
 20
118.1541170746
 10
167.2060194467
 20
117.8147579631
 10
167.2060194467
 20
117.4068181852
 10
167.1317804784
 20
116.9795012986
 10
166.9922568571
 20
116.5843480264
 10
166.8042771906
 20
116.269019685
 10
166.590514601
 20
116.0715495262
 10
166.3767520115
 20
116.0157553655
  0
LWPOLYLINE
  5
119
330
1F
100
AcDbEntity
  8
0
  6
HIDDEN
 62
     7
370
     0
100
AcDbPolyline
 90
       24
 70
   128
 43
0.0
 10
162.1133674388
 20
116.0940540045
 10
161.8725244385
 20
116.1902912509
 10
161.6749097312
 20
116.4253972229
 10
161.5351794956
 20
116.7819351862
 10
161.4636968841
 20
117.2334623512
 10
161.465763435
 20
117.7464910135
 10
161.5412258817
 20
118.2829721842
 10
161.6844875197
 20
118.8031175093
 10
161.8849232887
 20
119.2683501893
 10
162.1276677846
 20
119.6441660447
 10
162.3947177587
 20
119.9026925329
 10
162.666267336
 20
120.0247559267
 10
162.9221769267
 20
120.0013033427
 10
163.1434668872
 20
119.8340741519
 10
163.3137251533
 20
119.5354709781
 10
163.4203244484
 20
119.1276398529
 10
163.4553587904
 20
118.640827745
 10
163.4162298425
 20
118.1111392815
 10
163.3058396197
 20
117.5778590326
 10
163.1323752598
 20
117.0805379547
 10
162.9087018209
 20
116.6560600771
 10
162.6514081386
 20
116.3359069821
 10
162.3795765085
 20
116.1438229602
 10
162.1133674388
 20
116.0940540045
  0
LINE
  5
11A
330
1F
100
AcDbEntity
  8
0
  6
HIDDEN
 62
     7
370
     0
100
AcDbLine
 10
164.0543374921
 20
118.2850510931
 30
0.0
 11
164.6229165134
 21
118.8102944944
 31
0.0
  0
LINE
  5
11B
330
1F
100
AcDbEntity
  8
0
  6
HIDDEN
 62
     7
370
     0
100
AcDbLine
 10
163.8568720703
 20
117.1484470801
 30
0.0
 11
164.0543374921
 21
118.2850510931
 31
0.0
  0
LINE
  5
11C
330
1F
100
AcDbEntity
  8
0
  6
HIDDEN
 62
     7
370
     0
100
AcDbLine
 10
164.0543374921
 20
118.2850510931
 30
0.0
 11
161.8892739826
 21
118.7125762723
 31
0.0
  0
LINE
  5
11D
330
1F
100
AcDbEntity
  8
0
  6
HIDDEN
 62
     7
370
     0
100
AcDbLine
 10
163.8568720703
 20
117.1484470801
 30
0.0
 11
161.6918085608
 21
117.5759722592
 31
0.0
  0
LINE
  5
11E
330
1F
100
AcDbEntity
  8
0
  6
HIDDEN
 62
     7
370
     0
100
AcDbLine
 10
163.8568720703
 20
117.1484470801
 30
0.0
 11
164.2279856698
 21
116.5370864683
 31
0.0
  0
LWPOLYLINE
  5
11F
330
1F
100
AcDbEntity
  8
0
  6
HIDDEN
 62
     7
370
     0
100
AcDbPolyline
 90
       22
 70
   128
 43
0.0
 10
161.9850613667
 20
116.516447662
 10
161.7743250318
 20
116.6072881699
 10
161.6067774875
 20
116.8308706912
 10
161.4973060684
 20
117.1673289379
 10
161.4556377906
 20
117.5867671182
 10
161.4854750633
 20
118.0519163091
 10
161.584166714
 20
118.5214459638
 10
161.7429435563
 20
118.9536363118
 10
161.9476975711
 20
119.3100853442
 10
162.1802354656
 20
119.5591210001
 10
162.4198952274
 20
119.6786153687
 10
162.6453820349
 20
119.6579508509
 10
162.8366603958
 20
119.4989635799
 10
162.9767343882
 20
119.2157802723
 10
163.0531578233
 20
118.8335630077
 10
163.0591401434
 20
118.3862734675
 10
162.9941497932
 20
117.9136552902
 10
162.8639614505
 20
117.4577026749
 10
162.6801429208
 20
117.0589290124
 10
162.4590272873
 20
116.7527670925
 10
162.2202616442
 20
116.5664207455
 10
161.9850613667
 20
116.516447662
  0
LINE
  5
120
330
1F
100
AcDbEntity
  8
0
  6
HIDDEN
 62
     7
370
     0
100
AcDbLine
 10
161.6918085608
 20
117.5759722592
 30
0.0
 11
162.0629221603
 21
116.9646116474
 31
0.0
  0
LINE
  5
121
330
1F
100
AcDbEntity
  8
0
  6
HIDDEN
 62
     7
370
     0
100
AcDbLine
 10
161.6918085608
 20
117.5759722592
 30
0.0
 11
161.8892739826
 21
118.7125762723
 31
0.0
  0
LINE
  5
122
330
1F
100
AcDbEntity
  8
0
  6
HIDDEN
 62
     7
370
     0
100
AcDbLine
 10
161.8892739826
 20
118.7125762723
 30
0.0
 11
162.4578530039
 21
119.2378196736
 31
0.0
  0
LINE
  5
123
330
1F
100
AcDbEntity
  8
0
  6
HIDDEN
 62
     7
370
     0
100
AcDbLine
 10
164.9940301129
 20
118.1989338827
 30
0.0
 11
162.8289666034
 21
118.6264590618
 31
0.0
  0
LINE
  5
124
330
1F
100
AcDbEntity
  8
0
  6
HIDDEN
 62
     7
370
     0
100
AcDbLine
 10
162.8289666034
 20
118.6264590618
 30
0.0
 11
162.4578530039
 21
119.2378196736
 31
0.0
  0
LINE
  5
125
330
1F
100
AcDbEntity
  8
0
  6
HIDDEN
 62
     7
370
     0
100
AcDbLine
 10
164.9940301129
 20
118.1989338827
 30
0.0
 11
164.6229165134
 21
118.8102944944
 31
0.0
  0
LINE
  5
126
330
1F
100
AcDbEntity
  8
0
  6
HIDDEN
 62
     7
370
     0
100
AcDbLine
 10
164.6229165134
 20
118.8102944944
 30
0.0
 11
162.4578530039
 21
119.2378196736
 31
0.0
  0
LINE
  5
127
330
1F
100
AcDbEntity
  8
0
  6
HIDDEN
 62
     7
370
     0
100
AcDbLine
 10
164.7965646911
 20
117.0623298696
 30
0.0
 11
162.6315011816
 21
117.4898550488
 31
0.0
  0
LINE
  5
128
330
1F
100
AcDbEntity
  8
0
  6
HIDDEN
 62
     7
370
     0
100
AcDbLine
 10
162.6315011816
 20
117.4898550488
 30
0.0
 11
162.0629221603
 21
116.9646116474
 31
0.0
  0
LINE
  5
129
330
1F
100
AcDbEntity
  8
0
  6
HIDDEN
 62
     7
370
     0
100
AcDbLine
 10
164.2279856698
 20
116.5370864683
 30
0.0
 11
162.0629221603
 21
116.9646116474
 31
0.0
  0
LINE
  5
12A
330
1F
100
AcDbEntity
  8
0
  6
HIDDEN
 62
     7
370
     0
100
AcDbLine
 10
164.7965646911
 20
117.0623298696
 30
0.0
 11
164.2279856698
 21
116.5370864683
 31
0.0
  0
LINE
  5
12B
330
1F
100
AcDbEntity
  8
0
  6
HIDDEN
 62
     7
370
     0
100
AcDbLine
 10
162.6315011816
 20
117.4898550488
 30
0.0
 11
162.8289666034
 21
118.6264590618
 31
0.0
  0
LINE
  5
12C
330
1F
100
AcDbEntity
  8
0
  6
HIDDEN
 62
     7
370
     0
100
AcDbLine
 10
164.7965646911
 20
117.0623298696
 30
0.0
 11
164.9940301129
 21
118.1989338827
 31
0.0
  0
LWPOLYLINE
  5
12D
330
1F
100
AcDbEntity
  8
0
  6
HIDDEN
 62
     7
370
     0
100
AcDbPolyline
 90
       22
 70
   128
 43
0.0
 10
162.2514003358
 20
101.643926318
 10
162.0145364863
 20
101.7120550756
 10
161.7995175856
 20
101.6392373511
 10
161.6254490065
 20
101.4319433189
 10
161.5077975063
 20
101.1085919634
 10
161.457016937
 20
100.6979144717
 10
161.477619375
 20
100.236401341
 10
161.5677742034
 20
99.7650600384
 10
161.7194707699
 20
99.325771307
 10
161.919230169
 20
98.9575678784
 10
162.1493029014
 20
98.6931662431
 10
162.3892459951
 20
98.5560596466
 10
162.6177394534
 20
98.5584306118
 10
162.8144806297
 20
98.700068468
 10
162.9619882071
 20
98.96838807
 10
163.0471554901
 20
99.3395480439
 10
163.0624149917
 20
99.780569197
 10
163.0064108384
 20
100.2522648645
 10
162.8841192449
 20
100.7127228164
 10
162.706406356
 20
101.1210293429
 10
162.4890627416
 20
101.4409046174
 10
162.2514003358
 20
101.643926318
  0
LWPOLYLINE
  5
12E
330
1F
100
AcDbEntity
  8
0
  6
HIDDEN
 62
     7
370
     0
100
AcDbPolyline
 90
       24
 70
   128
 43
0.0
 10
162.444223301
 20
102.0501790247
 10
162.1748573461
 20
102.1344011791
 10
161.9262970355
 20
102.0725097365
 10
161.7169769502
 20
101.869094902
 10
161.5624214036
 20
101.5392430232
 10
161.4740930733
 20
101.1074177052
 10
161.4585428676
 20
100.6056454562
 10
161.5169240742
 20
100.0711404284
 10
161.6449068259
 20
99.5435444147
 10
161.8329992277
 20
99.0619867978
 10
162.0672513264
 20
98.6621825031
 10
162.3302897156
 20
98.3737831861
 10
162.6026060413
 20
98.218178105
 10
162.8640038474
 20
98.2069077766
 10
163.0950964543
 20
98.3408080698
 10
163.2787447807
 20
98.6099482122
 10
163.4013284703
 20
98.9943673108
 10
163.4537560515
 20
99.4655547597
 10
163.4321392107
 20
99.9885647413
 10
163.3380811699
 20
100.5246079978
 10
163.1785577837
 20
101.0339286532
 10
162.965400172
 20
101.4787527244
 10
162.7144172596
 20
101.8260896451
 10
162.444223301
 20
102.0501790247
  0
LWPOLYLINE
  5
12F
330
1F
100
AcDbEntity
  8
0
  6
HIDDEN
 62
     7
370
     0
100
AcDbPolyline
 90
       24
 70
   128
 43
0.0
 10
165.9298312671
 20
102.738466072
 10
165.6604653122
 20
102.8226882264
 10
165.4119050016
 20
102.7607967838
 10
165.2025849163
 20
102.5573819493
 10
165.0480293697
 20
102.2275300705
 10
164.9597010394
 20
101.7957047525
 10
164.9441508337
 20
101.2939325035
 10
165.0025320403
 20
100.7594274758
 10
165.130514792
 20
100.2318314621
 10
165.3186071938
 20
99.7502738451
 10
165.5528592925
 20
99.3504695504
 10
165.8158976817
 20
99.0620702335
 10
166.0882140074
 20
98.9064651523
 10
166.3496118135
 20
98.8951948239
 10
166.5807044204
 20
99.0290951171
 10
166.7643527468
 20
99.2982352595
 10
166.8869364364
 20
99.6826543582
 10
166.9393640176
 20
100.153841807
 10
166.9177471768
 20
100.6768517886
 10
166.823689136
 20
101.2128950451
 10
166.6641657498
 20
101.7222157005
 10
166.4510081381
 20
102.1670397717
 10
166.2000252257
 20
102.5143766924
 10
165.9298312671
 20
102.738466072
  0
LINE
  5
130
330
1F
100
AcDbEntity
  8
0
  6
HIDDEN
 62
     7
370
     0
100
AcDbLine
 10
161.7636415937
 20
99.8670729757
 30
0.0
 11
162.2668332828
 21
99.0369771152
 31
0.0
  0
LINE
  5
131
330
1F
100
AcDbEntity
  8
0
  6
HIDDEN
 62
     7
370
     0
100
AcDbLine
 10
162.7635792712
 20
99.295695615
 30
0.0
 11
162.2668332828
 21
99.0369771152
 31
0.0
  0
LINE
  5
132
330
1F
100
AcDbEntity
  8
0
  6
HIDDEN
 62
     7
370
     0
100
AcDbLine
 10
162.7571335705
 20
100.3845099752
 30
0.0
 11
162.7635792712
 21
99.295695615
 31
0.0
  0
LINE
  5
133
330
1F
100
AcDbEntity
  8
0
  6
HIDDEN
 62
     7
370
     0
100
AcDbLine
 10
162.7571335705
 20
100.3845099752
 30
0.0
 11
162.2539418814
 21
101.2146058357
 31
0.0
  0
LINE
  5
134
330
1F
100
AcDbEntity
  8
0
  6
HIDDEN
 62
     7
370
     0
100
AcDbLine
 10
161.757195893
 20
100.955887336
 30
0.0
 11
162.2539418814
 21
101.2146058357
 31
0.0
  0
LINE
  5
135
330
1F
100
AcDbEntity
  8
0
  6
HIDDEN
 62
     7
370
     0
100
AcDbLine
 10
161.757195893
 20
100.955887336
 30
0.0
 11
161.7636415937
 21
99.8670729757
 31
0.0
  0
LINE
  5
136
330
1F
100
AcDbEntity
  8
0
  6
HIDDEN
 62
     7
370
     0
100
AcDbLine
 10
164.92219708
 20
100.8120351544
 30
0.0
 11
162.7571335705
 21
100.3845099752
 31
0.0
  0
LINE
  5
137
330
1F
100
AcDbEntity
  8
0
  6
HIDDEN
 62
     7
370
     0
100
AcDbLine
 10
164.9286427807
 20
99.7232207941
 30
0.0
 11
162.7635792712
 21
99.295695615
 31
0.0
  0
LINE
  5
138
330
1F
100
AcDbEntity
  8
0
  6
HIDDEN
 62
     7
370
     0
100
AcDbLine
 10
163.9222594025
 20
101.3834125151
 30
0.0
 11
164.4190053909
 21
101.6421310149
 31
0.0
  0
LINE
  5
139
330
1F
100
AcDbEntity
  8
0
  6
HIDDEN
 62
     7
370
     0
100
AcDbLine
 10
163.9222594025
 20
101.3834125151
 30
0.0
 11
161.757195893
 21
100.955887336
 31
0.0
  0
LINE
  5
13A
330
1F
100
AcDbEntity
  8
0
  6
HIDDEN
 62
     7
370
     0
100
AcDbLine
 10
164.4190053909
 20
101.6421310149
 30
0.0
 11
162.2539418814
 21
101.2146058357
 31
0.0
  0
LWPOLYLINE
  5
13B
330
1F
100
AcDbEntity
  8
0
  6
HIDDEN
 62
     7
370
     0
100
AcDbPolyline
 90
       19
 70
   128
 43
0.0
 10
166.5835369254
 20
102.1595179538
 10
166.3702084633
 20
102.2105741903
 10
166.1834521729
 20
102.1133065557
 10
166.0457936189
 20
101.8794469622
 10
165.9738364546
 20
101.5372023283
 10
165.9762597759
 20
101.1278524077
 10
166.0527712946
 20
100.7007708423
 10
166.1941425922
 20
100.3074699718
 10
166.383322204
 20
99.9953876858
 10
166.5974922767
 20
99.8021657138
 10
166.8108207387
 20
99.7511094773
 10
166.9975770292
 20
99.8483771119
 10
167.1352355832
 20
100.0822367053
 10
167.2071927475
 20
100.4244813393
 10
167.2047694262
 20
100.8338312599
 10
167.1282579075
 20
101.2609128253
 10
166.9868866098
 20
101.6542136958
 10
166.7977069981
 20
101.9662959818
 10
166.5835369254
 20
102.1595179538
  0
LINE
  5
13C
330
1F
100
AcDbEntity
  8
0
  6
HIDDEN
 62
     7
370
     0
100
AcDbLine
 10
163.9287051032
 20
100.2945981549
 30
0.0
 11
164.4318967923
 21
99.4645022944
 31
0.0
  0
LINE
  5
13D
330
1F
100
AcDbEntity
  8
0
  6
HIDDEN
 62
     7
370
     0
100
AcDbLine
 10
163.9222594025
 20
101.3834125151
 30
0.0
 11
163.9287051032
 21
100.2945981549
 31
0.0
  0
LINE
  5
13E
330
1F
100
AcDbEntity
  8
0
  6
HIDDEN
 62
     7
370
     0
100
AcDbLine
 10
164.9286427807
 20
99.7232207941
 30
0.0
 11
164.4318967923
 21
99.4645022944
 31
0.0
  0
LINE
  5
13F
330
1F
100
AcDbEntity
  8
0
  6
HIDDEN
 62
     7
370
     0
100
AcDbLine
 10
164.92219708
 20
100.8120351544
 30
0.0
 11
164.9286427807
 21
99.7232207941
 31
0.0
  0
LINE
  5
140
330
1F
100
AcDbEntity
  8
0
  6
HIDDEN
 62
     7
370
     0
100
AcDbLine
 10
164.92219708
 20
100.8120351544
 30
0.0
 11
164.4190053909
 21
101.6421310149
 31
0.0
  0
LINE
  5
141
330
1F
100
AcDbEntity
  8
0
  6
HIDDEN
 62
     7
370
     0
100
AcDbLine
 10
163.9287051032
 20
100.2945981549
 30
0.0
 11
161.7636415937
 21
99.8670729757
 31
0.0
  0
LINE
  5
142
330
1F
100
AcDbEntity
  8
0
  6
HIDDEN
 62
     7
370
     0
100
AcDbLine
 10
164.4318967923
 20
99.4645022944
 30
0.0
 11
162.2668332828
 21
99.0369771152
 31
0.0
  0
LINE
  5
143
330
1F
100
AcDbEntity
  8
0
  6
HIDDEN
 62
     7
370
     0
100
AcDbLine
 10
173.1103875821
 20
118.0891652534
 30
0.0
 11
173.1103875821
 21
117.0654719003
 31
0.0
  0
LINE
  5
144
330
1F
100
AcDbEntity
  8
0
  6
HIDDEN
 62
     7
370
     0
100
AcDbLine
 10
178.1103875821
 20
117.0654719003
 30
0.0
 11
178.1103875821
 21
118.0891652534
 31
0.0
  0
LINE
  5
145
330
1F
100
AcDbEntity
  8
0
  6
HIDDEN
 62
     7
370
     0
100
AcDbLine
 10
161.0103875821
 20
97.73840899
 30
0.0
 11
162.6672092971
 21
98.0655739889
 31
0.0
  0
LINE
  5
146
330
1F
100
AcDbEntity
  8
0
  6
HIDDEN
 62
     7
370
     0
100
AcDbLine
 10
161.8535658671
 20
102.1860089621
 30
0.0
 11
161.0103875821
 21
102.0195104064
 31
0.0
  0
LINE
  5
147
330
1F
100
AcDbEntity
  8
0
  6
HIDDEN
 62
     7
370
     0
100
AcDbLine
 10
162.7218765764
 20
98.5350583237
 30
0.0
 11
174.1622164043
 21
100.7941298535
 31
0.0
  0
LINE
  5
148
330
1F
100
AcDbEntity
  8
0
  6
HIDDEN
 62
     7
370
     0
100
AcDbLine
 10
174.1620136502
 20
104.157812358
 30
0.0
 11
162.08258531
 21
101.7725429455
 31
0.0
  0
LINE
  5
149
330
1F
100
AcDbEntity
  8
0
  6
HIDDEN
 62
     7
370
     0
100
AcDbLine
 10
177.7103875821
 20
101.7600704865
 30
0.0
 11
177.7103875821
 21
107.9514947824
 31
0.0
  0
LINE
  5
14A
330
1F
100
AcDbEntity
  8
0
  6
HIDDEN
 62
     7
370
     0
100
AcDbLine
 10
173.5103875821
 20
107.9507178069
 30
0.0
 11
173.5103875821
 21
102.998762852
 31
0.0
  0
LINE
  5
14B
330
1F
100
AcDbEntity
  8
0
  6
HIDDEN
 62
     7
370
     0
100
AcDbLine
 10
183.905065584
 20
118.613503568
 30
0.0
 11
183.3103875821
 21
118.613503568
 31
0.0
  0
LINE
  5
14C
330
1F
100
AcDbEntity
  8
0
  6
HIDDEN
 62
     7
370
     0
100
AcDbLine
 10
183.3103875821
 20
99.613503568
 30
0.0
 11
183.905065584
 21
99.613503568
 31
0.0
  0
ARC
  5
14D
330
1F
100
AcDbEntity
  8
0
  6
HIDDEN
 62
     7
370
     0
100
AcDbCircle
 10
183.905065584
 20
117.813503568
 30
0.0
 40
0.7999999999999982
100
AcDbArc
 50
75.0
 51
90.0
  0
ARC
  5
14E
330
1F
100
AcDbEntity
  8
0
  6
HIDDEN
 62
     7
370
     0
100
AcDbCircle
 10
183.905065584
 20
100.413503568
 30
0.0
 40
0.7999999999999982
100
AcDbArc
 50
270.0
 51
285.0
  0
ARC
  5
14F
330
1F
100
AcDbEntity
  8
0
  6
HIDDEN
 62
     7
370
     0
100
AcDbCircle
 10
183.3103875821
 20
117.813503568
 30
0.0
 40
0.7999999999999972
100
AcDbArc
 50
90.0
 51
180.0
  0
ARC
  5
150
330
1F
100
AcDbEntity
  8
0
  6
HIDDEN
 62
     7
370
     0
100
AcDbCircle
 10
183.3103875821
 20
100.413503568
 30
0.0
 40
0.7999999999999972
100
AcDbArc
 50
180.0
 51
270.0
  0
LINE
  5
151
330
1F
100
AcDbEntity
  8
0
  6
HIDDEN
 62
     7
370
     0
100
AcDbLine
 10
184.1121208201
 20
99.640762907
 30
0.0
 11
185.8764129859
 21
100.113503568
 31
0.0
  0
LINE
  5
152
330
1F
100
AcDbEntity
  8
0
  6
HIDDEN
 62
     7
370
     0
100
AcDbLine
 10
185.8764129859
 20
118.113503568
 30
0.0
 11
184.1121208201
 21
118.586244229
 31
0.0
  0
ARC
  5
153
330
1F
100
AcDbEntity
  8
0
  6
HIDDEN
 62
     7
370
     0
100
AcDbCircle
 10
94.4103875821
 20
99.813503568
 30
0.0
 40
0.7999999999999972
100
AcDbArc
 50
90.0
 51
180.0
  0
ARC
  5
154
330
1F
100
AcDbEntity
  8
0
  6
HIDDEN
 62
     7
370
     0
100
AcDbCircle
 10
94.4103875821
 20
118.413503568
 30
0.0
 40
0.7999999999999972
100
AcDbArc
 50
180.0
 51
270.0
  0
LINE
  5
155
330
1F
100
AcDbEntity
  8
0
  6
HIDDEN
 62
     7
370
     0
100
AcDbLine
 10
194.1103875821
 20
118.113503568
 30
0.0
 11
185.8764129859
 21
118.113503568
 31
0.0
  0
LINE
  5
156
330
1F
100
AcDbEntity
  8
0
  6
HIDDEN
 62
     7
370
     0
100
AcDbLine
 10
185.8764129859
 20
100.113503568
 30
0.0
 11
194.1103875821
 21
100.113503568
 31
0.0
  0
ARC
  5
157
330
1F
100
AcDbEntity
  8
0
  6
HIDDEN
 62
     7
370
     0
100
AcDbCircle
 10
102.3794474744
 20
100.788503568
 30
0.0
 40
0.3999999999999998
100
AcDbArc
 50
270.0
 51
330.0
  0
ARC
  5
158
330
1F
100
AcDbEntity
  8
0
  6
HIDDEN
 62
     7
370
     0
100
AcDbCircle
 10
102.3794474744
 20
117.438503568
 30
0.0
 40
0.3999999999999998
100
AcDbArc
 50
30.0
 51
90.0
  0
LINE
  5
159
330
1F
100
AcDbEntity
  8
0
  6
HIDDEN
 62
     7
370
     0
100
AcDbLine
 10
101.5027600129
 20
100.388503568
 30
0.0
 11
102.3794474744
 21
100.388503568
 31
0.0
  0
LINE
  5
15A
330
1F
100
AcDbEntity
  8
0
  6
HIDDEN
 62
     7
370
     0
100
AcDbLine
 10
102.3794474744
 20
117.838503568
 30
0.0
 11
101.5027600129
 21
117.838503568
 31
0.0
  0
ARC
  5
15B
330
1F
100
AcDbEntity
  8
0
  6
HIDDEN
 62
     7
370
     0
100
AcDbCircle
 10
101.5027600129
 20
100.788503568
 30
0.0
 40
0.3999999999999915
100
AcDbArc
 50
255.0
 51
270.0
  0
ARC
  5
15C
330
1F
100
AcDbEntity
  8
0
  6
HIDDEN
 62
     7
370
     0
100
AcDbCircle
 10
101.5027600129
 20
117.438503568
 30
0.0
 40
0.3999999999999915
100
AcDbArc
 50
90.0
 51
105.0
  0
LINE
  5
15D
330
1F
100
AcDbEntity
  8
0
  6
HIDDEN
 62
     7
370
     0
100
AcDbLine
 10
101.3992323948
 20
117.8248738985
 30
0.0
 11
100.6103875821
 21
117.613503568
 31
0.0
  0
LINE
  5
15E
330
1F
100
AcDbEntity
  8
0
  6
HIDDEN
 62
     7
370
     0
100
AcDbLine
 10
100.6103875821
 20
100.613503568
 30
0.0
 11
101.3992323948
 21
100.4021332375
 31
0.0
  0
LINE
  5
15F
330
1F
100
AcDbEntity
  8
0
  6
HIDDEN
 62
     7
370
     0
100
AcDbLine
 10
102.725857636
 20
100.588503568
 30
0.0
 11
103.6063167965
 21
102.113503568
 31
0.0
  0
LINE
  5
160
330
1F
100
AcDbEntity
  8
0
  6
HIDDEN
 62
     7
370
     0
100
AcDbLine
 10
103.6063167965
 20
116.113503568
 30
0.0
 11
102.725857636
 21
117.638503568
 31
0.0
  0
LINE
  5
161
330
1F
100
AcDbEntity
  8
0
  6
HIDDEN
 62
     7
370
     0
100
AcDbLine
 10
94.4103875821
 20
100.613503568
 30
0.0
 11
100.6103875821
 21
100.613503568
 31
0.0
  0
LINE
  5
162
330
1F
100
AcDbEntity
  8
0
  6
HIDDEN
 62
     7
370
     0
100
AcDbLine
 10
100.6103875821
 20
117.613503568
 30
0.0
 11
94.4103875821
 21
117.613503568
 31
0.0
  0
LINE
  5
163
330
1F
100
AcDbEntity
  8
0
  6
HIDDEN
 62
     7
370
     0
100
AcDbLine
 10
182.0103875821
 20
78.613511869
 30
0.0
 11
182.0103875821
 21
85.013503568
 31
0.0
  0
ARC
  5
164
330
1F
100
AcDbEntity
  8
0
  6
HIDDEN
 62
     7
370
     0
100
AcDbCircle
 10
180.4103875821
 20
133.213503568
 30
0.0
 40
1.600000000000023
100
AcDbArc
 50
270.0
 51
0.0
  0
LINE
  5
165
330
1F
100
AcDbEntity
  8
0
  6
HIDDEN
 62
     7
370
     0
100
AcDbLine
 10
182.0103875821
 20
133.213503568
 30
0.0
 11
182.0103875821
 21
139.6134322718
 31
0.0
  0
ARC
  5
166
330
1F
100
AcDbEntity
  8
0
  6
HIDDEN
 62
     7
370
     0
100
AcDbCircle
 10
180.4103875821
 20
85.013503568
 30
0.0
 40
1.600000000000023
100
AcDbArc
 50
0.0
 51
90.0
  0
LINE
  5
167
330
1F
100
AcDbEntity
  8
0
  6
HIDDEN
 62
     7
370
     0
100
AcDbLine
 10
103.6063167965
 20
102.113503568
 30
0.0
 11
136.6103875821
 21
102.113503568
 31
0.0
  0
LINE
  5
168
330
1F
100
AcDbEntity
  8
0
  6
HIDDEN
 62
     7
370
     0
100
AcDbLine
 10
136.6103875821
 20
116.113503568
 30
0.0
 11
103.6063167965
 21
116.113503568
 31
0.0
  0
LINE
  5
169
330
1F
100
AcDbEntity
  8
0
  6
HIDDEN
 62
     7
370
     0
100
AcDbLine
 10
136.6103875821
 20
102.113503568
 30
0.0
 11
138.7734858106
 21
105.713503568
 31
0.0
  0
LINE
  5
16A
330
1F
100
AcDbEntity
  8
0
  6
HIDDEN
 62
     7
370
     0
100
AcDbLine
 10
138.7734858106
 20
112.513503568
 30
0.0
 11
136.6103875821
 21
116.113503568
 31
0.0
  0
LINE
  5
16B
330
1F
100
AcDbEntity
  8
0
  6
HIDDEN
 62
     7
370
     0
100
AcDbLine
 10
182.0103866721
 20
139.6135033561
 30
0.0
 11
183.0103860415
 21
140.6135031028
 31
0.0
  0
LINE
  5
16C
330
1F
100
AcDbEntity
  8
0
  6
HIDDEN
 62
     7
370
     0
100
AcDbLine
 10
183.0103939435
 20
77.6135024303
 30
0.0
 11
182.0103936946
 21
78.6135022348
 31
0.0
  0
LINE
  5
16D
330
1F
100
AcDbEntity
  8
0
  6
HIDDEN
 62
     7
370
     0
100
AcDbLine
 10
203.0103875821
 20
122.6024526147
 30
0.0
 11
202.5639648038
 21
122.1560300827
 31
0.0
  0
LINE
  5
16E
330
1F
100
AcDbEntity
  8
0
  6
HIDDEN
 62
     7
370
     0
100
AcDbLine
 10
202.5639645305
 20
96.0709777932
 30
0.0
 11
203.0103875821
 21
95.624555024
 31
0.0
  0
LINE
  5
16F
330
1F
100
AcDbEntity
  8
0
  6
HIDDEN
 62
     7
370
     0
100
AcDbLine
 10
138.7734858106
 20
105.713503568
 30
0.0
 11
182.5103875821
 21
105.713503568
 31
0.0
  0
LINE
  5
170
330
1F
100
AcDbEntity
  8
0
  6
HIDDEN
 62
     7
370
     0
100
AcDbLine
 10
182.5103875821
 20
112.513503568
 30
0.0
 11
138.7734858106
 21
112.513503568
 31
0.0
  0
LINE
  5
171
330
1F
100
AcDbEntity
  8
0
  6
HIDDEN
 62
     7
370
     0
100
AcDbLine
 10
202.5727241565
 20
122.163503568
 30
0.0
 11
194.1103875821
 21
122.163503568
 31
0.0
  0
LINE
  5
172
330
1F
100
AcDbEntity
  8
0
  6
HIDDEN
 62
     7
370
     0
100
AcDbLine
 10
194.1103875821
 20
96.063503568
 30
0.0
 11
202.5727237614
 21
96.063503568
 31
0.0
  0
LINE
  5
173
330
1F
100
AcDbEntity
  8
0
  6
HIDDEN
 62
     7
370
     0
100
AcDbLine
 10
177.7103875821
 20
110.2759873108
 30
0.0
 11
177.7103875821
 21
118.2172797837
 31
0.0
  0
LINE
  5
174
330
1F
100
AcDbEntity
  8
0
  6
HIDDEN
 62
     7
370
     0
100
AcDbLine
 10
173.5103875821
 20
115.2294305712
 30
0.0
 11
173.5103875821
 21
110.2760744242
 31
0.0
  0
LINE
  5
175
330
1F
100
AcDbEntity
  8
0
  6
HIDDEN
 62
     7
370
     0
100
AcDbLine
 10
173.5103875821
 20
118.2172797837
 30
0.0
 11
173.5103875821
 21
116.530311344
 31
0.0
  0
LINE
  5
176
330
1F
100
AcDbEntity
  8
0
  6
HIDDEN
 62
     7
370
     0
100
AcDbLine
 10
162.08258531
 20
116.4544641905
 30
0.0
 11
174.1597769858
 21
114.0696364418
 31
0.0
  0
LINE
  5
177
330
1F
100
AcDbEntity
  8
0
  6
HIDDEN
 62
     7
370
     0
100
AcDbLine
 10
174.1613140149
 20
117.4330554732
 30
0.0
 11
162.7218765764
 21
119.6919488123
 31
0.0
  0
LINE
  5
178
330
1F
100
AcDbEntity
  8
0
  6
HIDDEN
 62
     7
370
     0
100
AcDbLine
 10
161.0103875821
 20
116.2074967296
 30
0.0
 11
161.8535658671
 21
116.0409981739
 31
0.0
  0
LINE
  5
179
330
1F
100
AcDbEntity
  8
0
  6
HIDDEN
 62
     7
370
     0
100
AcDbLine
 10
162.6672092971
 20
120.1614331471
 30
0.0
 11
161.0103875821
 21
120.488598146
 31
0.0
  0
LINE
  5
17A
330
1F
100
AcDbEntity
  8
0
  6
HIDDEN
 62
     7
370
     0
100
AcDbLine
 10
166.1036671653
 20
115.6164365865
 30
0.0
 11
166.6921843617
 21
116.1474238838
 31
0.0
  0
LINE
  5
17B
330
1F
100
AcDbEntity
  8
0
  6
HIDDEN
 62
     7
370
     0
100
AcDbLine
 10
167.1021951193
 20
118.223791249
 30
0.0
 11
166.7596843775
 21
118.9386243709
 31
0.0
  0
LINE
  5
17C
330
1F
100
AcDbEntity
  8
0
  6
HIDDEN
 62
     7
370
     0
100
AcDbLine
 10
162.0679383297
 20
116.1005980112
 30
0.0
 11
165.5535462958
 21
115.4123109639
 31
0.0
  0
LINE
  5
17D
330
1F
100
AcDbEntity
  8
0
  6
HIDDEN
 62
     7
370
     0
100
AcDbLine
 10
166.3284448006
 20
119.336534748
 30
0.0
 11
162.8428368345
 21
120.0248217953
 31
0.0
  0
LINE
  5
17E
330
1F
100
AcDbEntity
  8
0
  6
HIDDEN
 62
     7
370
     0
100
AcDbLine
 10
161.7556214285
 20
118.9907512092
 30
0.0
 11
161.6970758285
 21
118.8482889118
 31
0.0
  0
LINE
  5
17F
330
1F
100
AcDbEntity
  8
0
  6
HIDDEN
 62
     7
370
     0
100
AcDbLine
 10
161.4553875821
 20
117.6243366668
 30
0.0
 11
161.4553875821
 21
117.4703136378
 31
0.0
  0
LINE
  5
180
330
1F
100
AcDbEntity
  8
0
  6
HIDDEN
 62
     7
370
     0
100
AcDbLine
 10
161.4553875821
 20
100.7566934982
 30
0.0
 11
161.4553875821
 21
100.6026704692
 31
0.0
  0
LINE
  5
181
330
1F
100
AcDbEntity
  8
0
  6
HIDDEN
 62
     7
370
     0
100
AcDbLine
 10
161.6970758285
 20
99.3787182242
 30
0.0
 11
161.7556214285
 21
99.2362559268
 31
0.0
  0
LINE
  5
182
330
1F
100
AcDbEntity
  8
0
  6
HIDDEN
 62
     7
370
     0
100
AcDbLine
 10
162.8428368345
 20
98.2021853407
 30
0.0
 11
166.3284448006
 21
98.890472388
 31
0.0
  0
LINE
  5
183
330
1F
100
AcDbEntity
  8
0
  6
HIDDEN
 62
     7
370
     0
100
AcDbLine
 10
165.5535462958
 20
102.8146961721
 30
0.0
 11
162.0679383297
 21
102.1264091248
 31
0.0
  0
LINE
  5
184
330
1F
100
AcDbEntity
  8
0
  6
HIDDEN
 62
     7
370
     0
100
AcDbLine
 10
166.7596843775
 20
99.2883827651
 30
0.0
 11
167.1021951193
 21
100.003215887
 31
0.0
  0
LINE
  5
185
330
1F
100
AcDbEntity
  8
0
  6
HIDDEN
 62
     7
370
     0
100
AcDbLine
 10
166.6921843617
 20
102.0795832522
 30
0.0
 11
166.1036671653
 21
102.6105705495
 31
0.0
  0
DIMENSION
  5
186
330
1F
100
AcDbEntity
  8
VERMASSUNG
100
AcDbDimension
  2
_D
 10
209.6695198507
 20
100.113503568
 30
0.0
 11
209.6695198507
 21
109.113503568
 31
0.0
 70
   160
  1
%%c<>
 71
     2
 42
-1.0
  3
SLDDIMSTYLE0
100
AcDbAlignedDimension
 13
194.1103875821
 23
118.113503568
 33
0.0
 14
194.1103875821
 24
100.113503568
 34
0.0
 50
90.0
100
AcDbRotatedDimension
  0
DIMENSION
  5
192
330
1F
100
AcDbEntity
  8
VERMASSUNG
100
AcDbDimension
  2
_D_1
 10
214.8224392802
 20
93.113503568
 30
0.0
 11
214.8224392802
 21
109.113503568
 31
0.0
 70
   160
  1
ST3 %%c<>
 71
     2
 42
-1.0
  3
SLDDIMSTYLE0
100
AcDbAlignedDimension
 13
202.7103875821
 23
125.113503568
 33
0.0
 14
202.7103875821
 24
93.113503568
 34
0.0
 50
90.0
100
AcDbRotatedDimension
  0
DIMENSION
  5
19E
330
1F
100
AcDbEntity
  8
VERMASSUNG
100
AcDbDimension
  2
_D_2
 10
203.0103875821
 20
144.713503568
 30
0.0
 11
194.5103875821
 21
144.713503568
 31
0.0
 70
   160
  1
(<>)
 71
     2
 42
-1.0
  3
SLDDIMSTYLE0
100
AcDbAlignedDimension
 13
186.0103875821
 23
139.613503568
 33
0.0
 14
203.0103875821
 24
124.813503568
 34
0.0
100
AcDbRotatedDimension
  0
DIMENSION
  5
1AA
330
1F
100
AcDbEntity
  8
VERMASSUNG
100
AcDbDimension
  2
_D_3
 10
203.0103875821
 20
150.713503568
 30
0.0
 11
181.0103875821
 21
150.713503568
 31
0.0
 70
   160
  1
<>
 71
     2
 42
-1.0
  3
SLDDIMSTYLE0
100
AcDbAlignedDimension
 13
159.0103875821
 23
131.338503568
 33
0.0
 14
203.0103875821
 24
124.813503568
 34
0.0
100
AcDbRotatedDimension
  0
DIMENSION
  5
1B4
330
1F
100
AcDbEntity
  8
VERMASSUNG
100
AcDbDimension
  2
_D_4
 10
203.0103875821
 20
156.713503568
 30
0.0
 11
148.3103875821
 21
156.713503568
 31
0.0
 70
   160
  1
(<>)
 71
     2
 42
-1.0
  3
SLDDIMSTYLE0
100
AcDbAlignedDimension
 13
93.6103875821
 23
120.936259165
 33
0.0
 14
203.0103875821
 24
124.813503568
 34
0.0
100
AcDbRotatedDimension
  0
DIMENSION
  5
1C0
330
1F
100
AcDbEntity
  8
VERMASSUNG
100
AcDbDimension
  2
_D_5
 10
86.9530331839
 20
77.613503568
 30
0.0
 11
86.9530331839
 21
109.113503568
 31
0.0
 70
   160
  1
MAS BT 40 %%c<>
 71
     2
 42
-1.0
  3
SLDDIMSTYLE0
100
AcDbAlignedDimension
 13
183.010383438
 23
140.613503568
 33
0.0
 14
183.0103883482
 24
77.613503568
 34
0.0
 50
90.0
100
AcDbRotatedDimension
  0
LINE
  5
1CC
330
1F
100
AcDbEntity
  8
VERMASSUNG
  6
CENTERX2
370
     0
100
AcDbLine
 10
91.6103875821
 20
109.113503568
 30
0.0
 11
205.0488064421
 21
109.113503568
 31
0.0
  0
LINE
  5
1CD
330
1F
100
AcDbEntity
  8
VERMASSUNG
  6
CENTERX2
370
     0
100
AcDbLine
 10
160.4401190512
 20
118.4606557538
 30
0.0
 11
176.1246758235
 21
115.3634981347
 31
0.0
  0
LINE
  5
1CE
330
1F
100
AcDbEntity
  8
VERMASSUNG
  6
CENTERX2
370
     0
100
AcDbLine
 10
160.4401190512
 20
99.7663513822
 30
0.0
 11
176.1246758235
 21
102.8635090013
 31
0.0
  0
LINE
  5
1CF
330
1F
100
AcDbEntity
  8
0
  6
Continuous
 62
     7
370
    15
100
AcDbLine
 10
259.5873628636
 20
43.8912762202
 30
0.0
 11
259.4459185281
 21
43.9729568392
 31
0.0
  0
LINE
  5
1D0
330
1F
100
AcDbEntity
  8
0
  6
Continuous
 62
     7
370
    15
100
AcDbLine
 10
257.6071421655
 20
43.9729568392
 30
0.0
 11
257.4656978299
 21
43.8912762202
 31
0.0
  0
LINE
  5
1D1
330
1F
100
AcDbEntity
  8
0
  6
Continuous
 62
     7
370
    15
100
AcDbLine
 10
260.0265303468
 20
43.1361750031
 30
0.0
 11
260.0265303468
 21
43.2790696452
 31
0.0
  0
LINE
  5
1D2
330
1F
100
AcDbEntity
  8
0
  6
Continuous
 62
     7
370
    15
100
AcDbLine
 10
257.0265303468
 20
43.2790696452
 30
0.0
 11
257.0265303468
 21
43.1361750031
 31
0.0
  0
SPLINE
  5
1D3
330
1F
100
AcDbEntity
  8
0
  6
Continuous
 62
     7
370
    15
100
AcDbSpline
210
0.0
220
0.0
230
1.0
 70
     8
 71
     3
 72
    19
 73
    15
 74
     0
 42
0.000000001
 43
0.00000001
 40
0.0
 40
0.0
 40
0.0
 40
0.0
 40
0.047725063420474
 40
0.1358566801254746
 40
0.2245002129548359
 40
0.3137036354738267
 40
0.4034153405095117
 40
0.4935243875943839
 40
0.5839032627594752
 40
0.6744378476348648
 40
0.7650409202695154
 40
0.8556442088150967
 40
0.9462139704870316
 40
1.0
 40
1.0
 40
1.0
 40
1.0
 10
248.5693298709132
 20
24.72977556670901
 30
0.0
 10
248.7018282972025
 20
24.69366166913121
 30
0.0
 10
249.0790052987064
 20
24.59085794547591
 30
0.0
 10
249.7413739580502
 20
24.52072037926717
 30
0.0
 10
250.5481633769454
 20
24.51250690366981
 30
0.0
 10
251.3854132577083
 20
24.60011673177538
 30
0.0
 10
252.2457104295969
 20
24.77782020091131
 30
0.0
 10
253.1240524719363
 20
25.04633183642045
 30
0.0
 10
254.014342749275
 20
25.40348274440865
 30
0.0
 10
254.910524934507
 20
25.84718682899167
 30
0.0
 10
255.8069094007573
 20
26.37321556250157
 30
0.0
 10
256.6966099333783
 20
26.98172386474729
 30
0.0
 10
257.458899787792
 20
27.56319120996438
 30
0.0
 10
257.9152314669742
 20
27.96851875740803
 30
0.0
 10
258.0852576845767
 20
28.11954116704104
 30
0.0
  0
SPLINE
  5
1D4
330
1F
100
AcDbEntity
  8
0
  6
Continuous
 62
     7
370
    15
100
AcDbSpline
210
0.0
220
0.0
230
1.0
 70
     8
 71
     3
 72
    19
 73
    15
 74
     0
 42
0.000000001
 43
0.00000001
 40
0.0
 40
0.0
 40
0.0
 40
0.0
 40
0.0271970852803812
 40
0.1176512244355508
 40
0.2081753193659311
 40
0.2987690850885605
 40
0.3894233014231511
 40
0.4801147002221183
 40
0.5707797608434896
 40
0.6613361616839609
 40
0.7516697651085169
 40
0.8416422620472218
 40
0.9311169512298568
 40
1.0
 40
1.0
 40
1.0
 40
1.0
 10
265.9141201425939
 20
41.6627141116852
 30
0.0
 10
265.939047516385
 20
41.77587739794242
 30
0.0
 10
266.0468802498653
 20
42.26540776680575
 30
0.0
 10
266.1679292205981
 20
43.11368205489836
 30
0.0
 10
266.274100080249
 20
44.19879487940579
 30
0.0
 10
266.3036543381003
 20
45.25092240443045
 30
0.0
 10
266.2623514152278
 20
46.26507589074291
 30
0.0
 10
266.1481722476587
 20
47.23435161052626
 30
0.0
 10
265.9618042033509
 20
48.15251083415339
 30
0.0
 10
265.7036774499984
 20
49.01294369451521
 30
0.0
 10
265.3759081585427
 20
49.81034872662926
 30
0.0
 10
264.9781923186186
 20
50.53555711382075
 30
0.0
 10
264.5568821570056
 20
51.14596778302801
 30
0.0
 10
264.2403088910488
 20
51.47692443768992
 30
0.0
 10
264.1026046525307
 20
51.6208852171163
 30
0.0
  0
LINE
  5
1D5
330
1F
100
AcDbEntity
  8
0
  6
Continuous
 62
     7
370
    15
100
AcDbLine
 10
245.587518007
 20
26.1935432804
 30
0.0
 11
247.1343140909
 21
25.3005969081
 31
0.0
  0
LINE
  5
1D6
330
1F
100
AcDbEntity
  8
0
  6
Continuous
 62
     7
370
    15
100
AcDbLine
 10
262.8830341299
 20
52.5811360731
 30
0.0
 11
261.336238046
 21
53.4740824454
 31
0.0
  0
LINE
  5
1D7
330
1F
100
AcDbEntity
  8
0
  6
Continuous
 62
     7
370
    15
100
AcDbLine
 10
261.2674885218
 20
28.7964649441
 30
0.0
 11
261.3735373002
 21
28.8577055042
 31
0.0
  0
LINE
  5
1D8
330
1F
100
AcDbEntity
  8
0
  6
Continuous
 62
     7
370
    15
100
AcDbLine
 10
266.9234233734
 20
38.4714318263
 30
0.0
 11
266.9234233734
 21
38.5938930431
 31
0.0
  0
LINE
  5
1D9
330
1F
100
AcDbEntity
  8
0
  6
Continuous
 62
     7
370
    15
100
AcDbLine
 10
265.2662440544
 20
42.2566514948
 30
0.0
 11
260.7761159939
 21
44.8487472499
 31
0.0
  0
LINE
  5
1DA
330
1F
100
AcDbEntity
  8
0
  6
Continuous
 62
     7
370
    15
100
AcDbLine
 10
252.7767661328
 20
30.9919654518
 30
0.0
 11
257.2668941933
 21
28.3998696967
 31
0.0
  0
LINE
  5
1DB
330
1F
100
AcDbEntity
  8
0
  6
Continuous
 62
     7
370
    15
100
AcDbLine
 10
257.7830264706
 20
55.5253078264
 30
0.0
 11
254.7513061462
 21
57.2754827161
 31
0.0
  0
SPLINE
  5
1DC
330
1F
100
AcDbEntity
  8
0
  6
Continuous
 62
     7
370
    15
100
AcDbSpline
210
0.0
220
0.0
230
1.0
 70
     8
 71
     3
 72
    33
 73
    29
 74
     0
 42
0.000000001
 43
0.00000001
 40
0.0
 40
0.0
 40
0.0
 40
0.0
 40
0.0006383653070086
 40
0.0411706760615895
 40
0.0818917969591762
 40
0.1228613453155763
 40
0.1640861039960591
 40
0.205531806479393
 40
0.2471430696062303
 40
0.2888618388264566
 40
0.3306388731970472
 40
0.3724378571054578
 40
0.4142297911836257
 40
0.4560037274251132
 40
0.4977549463653997
 40
0.5394827674960314
 40
0.5811889972756148
 40
0.6228769054689531
 40
0.6645505861889479
 40
0.7062145793558097
 40
0.7478736595505806
 40
0.7895327266535924
 40
0.8311956866729362
 40
0.8728669668269294
 40
0.9145515956103031
 40
0.9562545470890398
 40
0.9979806038129262
 40
1.0
 40
1.0
 40
1.0
 40
1.0
 10
253.4453637930092
 20
57.82315917567975
 30
0.0
 10
253.4416388328373
 20
57.82446663371118
 30
0.0
 10
253.2014015785629
 20
57.90878971719548
 30
0.0
 10
252.687246355791
 20
57.99414060989265
 30
0.0
 10
251.9055130012899
 20
58.07097385680096
 30
0.0
 10
251.0870943022062
 20
58.04580920165886
 30
0.0
 10
250.2428473924524
 20
57.93217481614173
 30
0.0
 10
249.3763480855173
 20
57.72660594406115
 30
0.0
 10
248.4938045174264
 20
57.43120368983071
 30
0.0
 10
247.6010865290759
 20
57.04762655017486
 30
0.0
 10
246.7042394403684
 20
56.57863924470648
 30
0.0
 10
245.8091874794957
 20
56.02756862144026
 30
0.0
 10
244.9216738174993
 20
55.39828645466324
 30
0.0
 10
244.0472427017576
 20
54.69509075841235
 30
0.0
 10
243.1912233809049
 20
53.92262580656143
 30
0.0
 10
242.3587980104838
 20
53.08589442287266
 30
0.0
 10
241.5549961326149
 20
52.19023809604816
 30
0.0
 10
240.7846801061538
 20
51.24131549312151
 30
0.0
 10
240.0525238927649
 20
50.24507756188875
 30
0.0
 10
239.3629906554607
 20
49.2077388496227
 30
0.0
 10
238.7203006386756
 20
48.13574259208529
 30
0.0
 10
238.1284361829808
 20
47.03573940488162
 30
0.0
 10
237.591020493319
 20
45.9145213525337
 30
0.0
 10
237.1116406317149
 20
44.77906028577143
 30
0.0
 10
236.6925272544583
 20
43.63613367559825
 30
0.0
 10
236.3393964729091
 20
42.49348241663719
 30
0.0
 10
236.1372989792993
 20
41.71657331263268
 30
0.0
 10
236.0523841018023
 20
41.32295612660138
 30
0.0
 10
236.0484642251425
 20
41.30478580279068
 30
0.0
  0
SPLINE
  5
1DD
330
1F
100
AcDbEntity
  8
0
  6
Continuous
 62
     7
370
    15
100
AcDbSpline
210
0.0
220
0.0
230
1.0
 70
     8
 71
     3
 72
    21
 73
    17
 74
     0
 42
0.000000001
 43
0.00000001
 40
0.0
 40
0.0
 40
0.0
 40
0.0
 40
0.0098667560457655
 40
0.0897817143887306
 40
0.1698103270034654
 40
0.2498556543054163
 40
0.3298248393407647
 40
0.4096389113798873
 40
0.4892268844212112
 40
0.5685328624964482
 40
0.6475466738902188
 40
0.7263721209861557
 40
0.8052425427683986
 40
0.8847649165338806
 40
0.966133422020271
 40
1.0
 40
1.0
 40
1.0
 40
1.0
 10
258.4820474800609
 20
35.54657740388129
 30
0.0
 10
258.4913142474819
 20
35.57159032211262
 30
0.0
 10
258.5756364159871
 20
35.79919326174729
 30
0.0
 10
258.7745487743979
 20
36.22732181602906
 30
0.0
 10
259.0979763977984
 20
36.81371419969364
 30
0.0
 10
259.4703982798384
 20
37.36850989269048
 30
0.0
 10
259.879447061307
 20
37.87902903235953
 30
0.0
 10
260.3163064166824
 20
38.33375684171757
 30
0.0
 10
260.7700308938175
 20
38.72274194720441
 30
0.0
 10
261.2293212978134
 20
39.03786415704322
 30
0.0
 10
261.6825621346201
 20
39.27342541089856
 30
0.0
 10
262.1179466521024
 20
39.42580501573764
 30
0.0
 10
262.5258947376131
 20
39.49630914458255
 30
0.0
 10
262.8954437159906
 20
39.48141729836048
 30
0.0
 10
263.1664310886371
 20
39.42160609882211
 30
0.0
 10
263.2987190597892
 20
39.33936451499644
 30
0.0
 10
263.3375973315451
 20
39.31519443650965
 30
0.0
  0
SPLINE
  5
1DE
330
1F
100
AcDbEntity
  8
0
  6
Continuous
 62
     7
370
    15
100
AcDbSpline
210
0.0
220
0.0
230
1.0
 70
     8
 71
     3
 72
    10
 73
     6
 74
     0
 42
0.000000001
 43
0.00000001
 40
0.0
 40
0.0
 40
0.0
 40
0.0
 40
0.3145982941608877
 40
0.8565323479907794
 40
1.0
 40
1.0
 40
1.0
 40
1.0
 10
258.9127027332444
 20
31.5046103579083
 30
0.0
 10
258.8519266608365
 20
31.53636899705177
 30
0.0
 10
258.686456367553
 20
31.62283577789401
 30
0.0
 10
258.5277721001509
 20
31.7865082100106
 30
0.0
 10
258.4359948393146
 20
31.92853222963597
 30
0.0
 10
258.4167841078445
 20
31.95826056624643
 30
0.0
  0
LINE
  5
1DF
330
1F
100
AcDbEntity
  8
0
  6
Continuous
 62
     7
370
    15
100
AcDbLine
 10
245.7388763152
 20
55.9637935977
 30
0.0
 11
225.8518084688
 21
63.1303045535
 31
0.0
  0
LINE
  5
1E0
330
1F
100
AcDbEntity
  8
0
  6
Continuous
 62
     7
370
    15
100
AcDbLine
 10
219.4803390574
 20
52.0933999425
 30
0.0
 11
238.5082131437
 21
36.0264203651
 31
0.0
  0
LINE
  5
1E1
330
1F
100
AcDbEntity
  8
0
  6
Continuous
 62
     7
370
    15
100
AcDbLine
 10
239.0025861072
 20
29.9949435511
 30
0.0
 11
242.0343064315
 21
28.2447686614
 31
0.0
  0
SPLINE
  5
1E2
330
1F
100
AcDbEntity
  8
0
  6
Continuous
 62
     7
370
    15
100
AcDbSpline
210
0.0
220
0.0
230
1.0
 70
     8
 71
     3
 72
    13
 73
     9
 74
     0
 42
0.000000001
 43
0.00000001
 40
0.0
 40
0.0
 40
0.0
 40
0.0
 40
0.074758039700506
 40
0.3013538295633111
 40
0.5273441696005408
 40
0.7521649770653246
 40
0.9755470205001489
 40
0.9999999999999999
 40
0.9999999999999999
 40
0.9999999999999999
 40
0.9999999999999999
 10
236.0392769577779
 20
34.0615904235397
 30
0.0
 10
236.0668873770058
 20
33.9666885999382
 30
0.0
 10
236.1781865175869
 20
33.58413405343827
 30
0.0
 10
236.4242753894134
 20
32.95772874088258
 30
0.0
 10
236.8009018538306
 20
32.20996987825374
 30
0.0
 10
237.2515076631526
 20
31.54575624594376
 30
0.0
 10
237.5966473514931
 20
31.11062923182462
 30
0.0
 10
237.8076208664038
 20
30.92247042601166
 30
0.0
 10
237.8284368550968
 20
30.90390548161123
 30
0.0
  0
SPLINE
  5
1E3
330
1F
100
AcDbEntity
  8
0
  6
Continuous
 62
     7
370
    15
100
AcDbSpline
210
0.0
220
0.0
230
1.0
 70
     8
 71
     3
 72
    26
 73
    22
 74
     0
 42
0.000000001
 43
0.00000001
 40
0.0
 40
0.0
 40
0.0
 40
0.0
 40
0.0228271131529748
 40
0.0751939704703164
 40
0.1281392377130531
 40
0.182107247429935
 40
0.2371310480696701
 40
0.2929277491073176
 40
0.3491248494615742
 40
0.4054188040541026
 40
0.4616454604853124
 40
0.5177709014850129
 40
0.5738047363974224
 40
0.6297764390751778
 40
0.6857237658136464
 40
0.7416876826086943
 40
0.7976971711791468
 40
0.8537958196439208
 40
0.9100261907742031
 40
0.9664246541936518
 40
1.0
 40
1.0
 40
1.0
 40
1.0
 10
225.9295886901246
 20
63.08780028675962
 30
0.0
 10
225.8638098465181
 20
63.11717471153966
 30
0.0
 10
225.6471301292636
 20
63.21393594519589
 30
0.0
 10
225.2373593671516
 20
63.28303988234787
 30
0.0
 10
224.7127462317019
 20
63.29722042231517
 30
0.0
 10
224.161015976219
 20
63.21547262782665
 30
0.0
 10
223.591297578156
 20
63.04436979734511
 30
0.0
 10
223.0111270817947
 20
62.78339511206893
 30
0.0
 10
222.4307627550426
 20
62.43708132534507
 30
0.0
 10
221.8602946353495
 20
62.01167838862057
 30
0.0
 10
221.3090325144791
 20
61.51503615403447
 30
0.0
 10
220.7852448191575
 20
60.95564369124035
 30
0.0
 10
220.2964279611263
 20
60.34243865540979
 30
0.0
 10
219.849551704603
 20
59.68485828288189
 30
0.0
 10
219.4510753118204
 20
58.99279334810158
 30
0.0
 10
219.1068845013031
 20
58.27652667807396
 30
0.0
 10
218.8223431313114
 20
57.54662829169055
 30
0.0
 10
218.6016585700115
 20
56.81349163476356
 30
0.0
 10
218.4500875144577
 20
56.088250356917
 30
0.0
 10
218.3771888955809
 20
55.47503980324989
 30
0.0
 10
218.3701128332322
 20
55.11354115095242
 30
0.0
 10
218.3674722732476
 20
54.97864142442249
 30
0.0
  0
SPLINE
  5
1E4
330
1F
100
AcDbEntity
  8
0
  6
Continuous
 62
     7
370
    15
100
AcDbSpline
210
0.0
220
0.0
230
1.0
 70
     8
 71
     3
 72
    13
 73
     9
 74
     0
 42
0.000000001
 43
0.00000001
 40
0.0
 40
0.0
 40
0.0
 40
0.0
 40
0.1021084882127055
 40
0.2951720742528524
 40
0.4882789934689488
 40
0.6799678763046708
 40
0.8686452454007262
 40
1.0
 40
1.0
 40
1.0
 40
1.0
 10
218.3674722732476
 20
54.97864142442249
 30
0.0
 10
218.3695905935507
 20
54.86029611329299
 30
0.0
 10
218.3757141686691
 20
54.5181871312128
 30
0.0
 10
218.4443712996419
 20
53.98241388224203
 30
0.0
 10
218.5984421673492
 20
53.39499969631682
 30
0.0
 10
218.832257173621
 20
52.87300834821315
 30
0.0
 10
219.1009365271163
 20
52.4566750154336
 30
0.0
 10
219.3197334144446
 20
52.25328440143019
 30
0.0
 10
219.4095369351357
 20
52.16980426861812
 30
0.0
  0
LWPOLYLINE
  5
1E5
330
1F
100
AcDbEntity
  8
0
  6
Continuous
 62
     7
370
    15
100
AcDbPolyline
 90
       22
 70
   128
 43
0.0
 10
257.5890723236
 20
43.9623126367
 10
257.8961925336
 20
44.0987298799
 10
258.2593210246
 20
44.176827361
 10
258.6461922364
 20
44.1896657763
 10
259.0224309642
 20
44.1361043761
 10
259.354606746
 20
44.0209023259
 10
259.6132043057
 20
43.8542958335
 10
259.7752461153
 20
43.6510886168
 10
259.8263340491
 20
43.4293365287
 10
259.7619287198
 20
43.2087432155
 10
259.5877528236
 20
43.0089093611
 10
259.3192826532
 20
42.8475910805
 10
258.9803729615
 20
42.7391222106
 10
258.6011373618
 20
42.6931406868
 10
258.2152726014
 20
42.7137321691
 10
257.8570644576
 20
42.799067014
 10
257.558341296
 20
42.941562846
 10
257.3456459803
 20
43.1285582852
 10
257.2378774229
 20
43.343437966
 10
257.2446113329
 20
43.567108886
 10
257.3652493729
 20
43.7796969023
 10
257.5890723236
 20
43.9623126367
  0
LWPOLYLINE
  5
1E6
330
1F
100
AcDbEntity
  8
0
  6
Continuous
 62
     7
370
    15
100
AcDbPolyline
 90
       20
 70
   128
 43
0.0
 10
259.5873628636
 20
43.8912762202
 10
259.637137155
 20
43.8611155306
 10
259.8679733566
 20
43.6665542792
 10
259.9993208667
 20
43.4432550652
 10
260.0214382416
 20
43.2077789696
 10
259.9326851367
 20
42.9775901774
 10
259.7396439637
 20
42.769760738
 10
259.4566317034
 20
42.5997044104
 10
259.1046380804
 20
42.4800334944
 10
258.7097688515
 20
42.4196234343
 10
258.3013096609
 20
42.4229545679
 10
257.9095540583
 20
42.4897798404
 10
257.5635567645
 20
42.615143127
 10
257.288978816
 20
42.7897468061
 10
257.1061844031
 20
43.0006413217
 10
257.0287305512
 20
43.2321855923
 10
257.0623616582
 20
43.4672070386
 10
257.2045834587
 20
43.6882751952
 10
257.4448480123
 20
43.8789944481
 10
257.4448480123
 20
43.8789944481
  0
LWPOLYLINE
  5
1E7
330
1F
100
AcDbEntity
  8
0
  6
Continuous
 62
     7
370
    15
100
AcDbPolyline
 90
       19
 70
   128
 43
0.0
 10
257.8414648683
 20
43.8223301827
 10
258.1078861308
 20
43.9346783369
 10
258.4248020642
 20
43.9876477817
 10
258.7539879299
 20
43.9748496202
 10
259.0557390542
 20
43.8978274997
 10
259.293659798
 20
43.7658714246
 10
259.4390534084
 20
43.5948972451
 10
259.4743832702
 20
43.4055269704
 10
259.3953880805
 20
43.2206014505
 10
259.2115958253
 20
43.0624254324
 10
258.9451745628
 20
42.9500772782
 10
258.6282586293
 20
42.8971078334
 10
258.2990727636
 20
42.9099059948
 10
257.9973216394
 20
42.9869281153
 10
257.7594008955
 20
43.1188841904
 10
257.6140072851
 20
43.28985837
 10
257.5786774234
 20
43.4792286447
 10
257.657672613
 20
43.6641541646
 10
257.8414648683
 20
43.8223301827
  0
SPLINE
  5
1E8
330
1F
100
AcDbEntity
  8
0
  6
Continuous
 62
     7
370
    15
100
AcDbSpline
210
0.0
220
0.0
230
1.0
 70
     8
 71
     3
 72
    11
 73
     7
 74
     0
 42
0.000000001
 43
0.00000001
 40
0.0
 40
0.0
 40
0.0
 40
0.0
 40
0.1183358584681206
 40
0.4755396850857848
 40
0.8141708872487057
 40
0.9999999999999999
 40
0.9999999999999999
 40
0.9999999999999999
 40
0.9999999999999999
 10
257.6856942730119
 20
43.4935106687027
 30
0.0
 10
257.7079158665377
 20
43.4944016714777
 30
0.0
 10
257.797214661714
 20
43.49798221911995
 30
0.0
 10
257.9659429652388
 20
43.5490247247345
 30
0.0
 10
258.1515658677973
 20
43.7000725819313
 30
0.0
 10
258.2505954749608
 20
43.81375272510763
 30
0.0
 10
258.2856840860758
 20
43.85403237934106
 30
0.0
  0
SPLINE
  5
1E9
330
1F
100
AcDbEntity
  8
0
  6
Continuous
 62
     7
370
    15
100
AcDbSpline
210
0.0
220
0.0
230
1.0
 70
     8
 71
     3
 72
    10
 73
     6
 74
     0
 42
0.000000001
 43
0.00000001
 40
0.0
 40
0.0
 40
0.0
 40
0.0
 40
0.4391165375904186
 40
0.7513669429073373
 40
1.0
 40
1.0
 40
1.0
 40
1.0
 10
257.9265405337043
 20
43.01328741192447
 30
0.0
 10
257.8920615347504
 20
43.04009160106534
 30
0.0
 10
257.8330649408604
 20
43.08595592164502
 30
0.0
 10
257.7473029716533
 20
43.28885746706338
 30
0.0
 10
257.704616628168
 20
43.43065395121573
 30
0.0
 10
257.6856942730119
 20
43.4935106687027
 30
0.0
  0
SPLINE
  5
1EA
330
1F
100
AcDbEntity
  8
0
  6
Continuous
 62
     7
370
    15
100
AcDbSpline
210
0.0
220
0.0
230
1.0
 70
     8
 71
     3
 72
     9
 73
     5
 74
     0
 42
0.000000001
 43
0.00000001
 40
0.0
 40
0.0
 40
0.0
 40
0.0
 40
0.3597654878014392
 40
0.9999999999999999
 40
0.9999999999999999
 40
0.9999999999999999
 40
0.9999999999999999
 10
259.3673664205246
 20
43.25410757642298
 30
0.0
 10
259.3322672470071
 20
43.21322356566963
 30
0.0
 10
259.2347059891662
 20
43.09958284097647
 30
0.0
 10
259.1263427448424
 20
43.02306368970994
 30
0.0
 10
259.0569648559725
 20
42.97407348822496
 30
0.0
  0
SPLINE
  5
1EB
330
1F
100
AcDbEntity
  8
0
  6
Continuous
 62
     7
370
    15
100
AcDbSpline
210
0.0
220
0.0
230
1.0
 70
     8
 71
     3
 72
    10
 73
     6
 74
     0
 42
0.000000001
 43
0.00000001
 40
0.0
 40
0.0
 40
0.0
 40
0.0
 40
0.4391165375903996
 40
0.751366942907339
 40
1.0
 40
1.0
 40
1.0
 40
1.0
 10
259.1265201598322
 20
43.7343308332012
 30
0.0
 10
259.1609991587862
 20
43.62363969963663
 30
0.0
 10
259.2199957526762
 20
43.43423745327682
 30
0.0
 10
259.3057577218833
 20
43.2951374908292
 30
0.0
 10
259.3484440653686
 20
43.26670941073433
 30
0.0
 10
259.3673664205247
 20
43.25410757642297
 30
0.0
  0
SPLINE
  5
1EC
330
1F
100
AcDbEntity
  8
0
  6
Continuous
 62
     7
370
    15
100
AcDbSpline
210
0.0
220
0.0
230
1.0
 70
     8
 71
     3
 72
    10
 73
     6
 74
     0
 42
0.000000001
 43
0.00000001
 40
0.0
 40
0.0
 40
0.0
 40
0.0
 40
0.4391165375903884
 40
0.7513669429073228
 40
1.0
 40
1.0
 40
1.0
 40
1.0
 10
258.2856840860758
 20
43.85403237934106
 30
0.0
 10
258.4060562522212
 20
43.79495270799419
 30
0.0
 10
258.6120235951594
 20
43.69386220411233
 30
0.0
 10
258.9114335061059
 20
43.68313895699078
 30
0.0
 10
259.0604589356726
 20
43.71860787712325
 30
0.0
 10
259.1265201598322
 20
43.7343308332012
 30
0.0
  0
LINE
  5
1ED
330
1F
100
AcDbEntity
  8
0
  6
Continuous
 62
     7
370
    15
100
AcDbLine
 10
259.1265201598
 20
43.0171740658
 30
0.0
 11
259.1265201598
 21
43.7343308332
 31
0.0
  0
LINE
  5
1EE
330
1F
100
AcDbEntity
  8
0
  6
Continuous
 62
     7
370
    15
100
AcDbLine
 10
258.2856840861
 20
42.9118717336
 30
0.0
 11
258.2856840861
 21
43.8540323793
 31
0.0
  0
ARC
  5
1EF
330
1F
100
AcDbEntity
  8
0
  6
Continuous
 62
     7
370
    15
100
AcDbCircle
 10
260.2075531195
 20
47.9465126221
 30
0.0
 40
5.35016480288463
100
AcDbArc
 50
44.2834671609
 51
75.6300818381
  0
ARC
  5
1F0
330
1F
100
AcDbEntity
  8
0
  6
Continuous
 62
     7
370
    15
100
AcDbCircle
 10
249.8071620992
 20
29.9306872592
 30
0.0
 40
5.345122629213299
100
AcDbArc
 50
224.2265513917
 51
255.658963121
  0
ARC
  5
1F1
330
1F
100
AcDbEntity
  8
0
  6
Continuous
 62
     7
370
    15
100
AcDbCircle
 10
249.3693443028
 20
31.9538884
 30
0.0
 40
6.890847990550776
100
AcDbArc
 50
188.312493873
 51
236.7139908619
  0
SPLINE
  5
1F2
330
1F
100
AcDbEntity
  8
0
  6
Continuous
 62
     7
370
    15
100
AcDbSpline
210
0.0
220
0.0
230
1.0
 70
     8
 71
     3
 72
    29
 73
    25
 74
     0
 42
0.000000001
 43
0.00000001
 40
0.0
 40
0.0
 40
0.0
 40
0.0
 40
0.0226170105016674
 40
0.0451713142211041
 40
0.0676870228449807
 40
0.090188372120831
 40
0.1126996441629423
 40
0.1352450890127045
 40
0.1578488467149011
 40
0.1805348711521328
 40
0.2033268568146046
 40
0.2262481695760157
 40
0.2493217824052029
 40
0.3751991801868492
 40
0.499961424646005
 40
0.4999717960761217
 40
0.6247044141102638
 40
0.7509557879397657
 40
0.7931713871186022
 40
0.8349081045046313
 40
0.8763104515914815
 40
0.9175264576320521
 40
0.9587061619408423
 40
1.0
 40
1.0
 40
1.0
 40
1.0
 10
242.5510509254371
 20
36.11191825645121
 30
0.0
 10
242.5694161505592
 20
36.06307836665277
 30
0.0
 10
242.6060956823069
 20
35.96553399807025
 30
0.0
 10
242.65778551097
 20
35.81807138867273
 30
0.0
 10
242.7069668707911
 20
35.67013409915544
 30
0.0
 10
242.7534565406891
 20
35.52164223392648
 30
0.0
 10
242.7973666371476
 20
35.37265026779531
 30
0.0
 10
242.838731828603
 20
35.22317847921713
 30
0.0
 10
242.8776091153082
 20
35.07325837590719
 30
0.0
 10
242.9140509603317
 20
34.92291956592356
 30
0.0
 10
242.9481129414203
 20
34.77219711429498
 30
0.0
 10
242.9798499945199
 20
34.62111541755473
 30
0.0
 10
243.0530082663944
 20
34.24539421060323
 30
0.0
 10
243.1386848064338
 20
33.65662378888675
 30
0.0
 10
243.1644171682506
 20
33.15514018488033
 30
0.0
 10
243.1648543244857
 20
32.68468735963661
 30
0.0
 10
243.1394232677662
 20
32.23824482974896
 30
0.0
 10
243.0474559517282
 20
31.80221815825921
 30
0.0
 10
242.954902057683
 20
31.53402527563664
 30
0.0
 10
242.8913194337943
 20
31.38777416480217
 30
0.0
 10
242.8196739297586
 20
31.25685383295629
 30
0.0
 10
242.7394191554461
 20
31.14140750050569
 30
0.0
 10
242.651017495852
 20
31.03988549606074
 30
0.0
 10
242.5846608419402
 20
30.98488661909816
 30
0.0
 10
242.5514366000547
 20
30.95734912460574
 30
0.0
  0
LWPOLYLINE
  5
1F3
330
1F
100
AcDbEntity
  8
0
  6
Continuous
 62
     7
370
    15
100
AcDbPolyline
 90
       27
 70
   128
 43
0.0
 10
242.5508321843
 20
36.112044533
 10
242.7814701988
 20
37.3125408694
 10
243.0902562962
 20
38.5314852441
 10
243.4749311018
 20
39.7599586938
 10
243.9326799668
 20
40.9889725312
 10
244.4601535625
 20
42.2095341152
 10
245.0534923873
 20
43.4127126494
 10
245.7083550067
 20
44.5897045284
 10
246.4199498192
 20
45.7318977535
 10
247.1830701162
 20
46.8309349462
 10
247.9921321796
 20
47.8787744987
 10
248.8412161372
 20
48.8677494144
 10
249.7241092782
 20
49.7906234065
 10
250.6343515117
 20
50.6406438459
 10
251.5652826347
 20
51.4115911697
 10
252.5100910642
 20
52.0978243896
 10
253.4618636778
 20
52.6943223667
 10
254.4136363964
 20
53.1967205513
 10
255.3584451401
 20
53.6013429174
 10
256.2893767841
 20
53.9052288607
 10
257.1996197419
 20
54.1061548608
 10
258.0825138049
 20
54.2026507508
 10
258.9315988755
 20
54.1940104746
 10
259.7406622349
 20
54.0802972527
 10
260.5037840013
 20
53.8623431197
 10
261.2153804459
 20
53.5417428366
 10
261.336238046
 20
53.4740824454
  0
LWPOLYLINE
  5
1F4
330
1F
100
AcDbEntity
  8
0
  6
Continuous
 62
     7
370
    15
100
AcDbPolyline
 90
       54
 70
   128
 43
0.0
 10
261.372635141
 20
41.6768753607
 10
260.7161258157
 20
41.2528905051
 10
260.0688324422
 20
40.7448772889
 10
259.4398416006
 20
40.1599671043
 10
258.8379829436
 20
39.5063708079
 10
258.2717052474
 20
38.7932634592
 10
257.7489578096
 20
38.0306555222
 10
257.2770788583
 20
37.2292523406
 10
256.8626925397
 20
36.4003038584
 10
256.5116159293
 20
35.5554466952
 10
256.2287773731
 20
34.7065407936
 10
256.0181473045
 20
33.8655029318
 10
255.882682508
 20
33.0441394376
 10
255.8242846123
 20
32.253980454
 10
255.8437733959
 20
31.5061180813
 10
255.9408752789
 20
30.8110506677
 10
256.1142271639
 20
30.1785354361
 10
256.3613955703
 20
29.6174515139
 10
256.6789107955
 20
29.1356752894
 10
257.0623156218
 20
28.7399698448
 10
257.5062278857
 20
28.4358900171
 10
258.0044160323
 20
28.2277044206
 10
258.5498865919
 20
28.1183355246
 10
259.1349823536
 20
28.1093186287
 10
259.7514898554
 20
28.2007803104
 10
260.3907546835
 20
28.3914366482
 10
261.0438029609
 20
28.678611245
 10
261.7014673212
 20
29.0582727989
 10
262.3545155986
 20
29.525091694
 10
262.9937804267
 20
30.0725148162
 10
263.6102879285
 20
30.6928575449
 10
264.1953836902
 20
31.377411628
 10
264.7408542498
 20
32.1165674268
 10
265.2390423964
 20
32.8999488139
 10
265.6829546603
 20
33.7165588321
 10
266.0663594866
 20
34.5549340666
 10
266.3838747118
 20
35.4033055669
 10
266.6310431182
 20
36.2497640567
 10
266.8043950032
 20
37.0824271145
 10
266.9014968862
 20
37.8896059759
 10
266.9209856698
 20
38.6599696192
 10
266.8625877741
 20
39.3827038276
 10
266.7271229776
 20
40.0476629968
 10
266.516492909
 20
40.6455125579
 10
266.2336543528
 20
41.1678600135
 10
265.8825777424
 20
41.6073727503
 10
265.4681914238
 20
41.9578809729
 10
264.9963124725
 20
42.2144643142
 10
264.4735650347
 20
42.3735209065
 10
263.9072873385
 20
42.4328179439
 10
263.3054286815
 20
42.3915230261
 10
262.6764378399
 20
42.250215843
 10
262.0291444664
 20
42.0108800379
 10
261.372635141
 20
41.6768753607
  0
LWPOLYLINE
  5
1F5
330
1F
100
AcDbEntity
  8
0
  6
Continuous
 62
     7
370
    15
100
AcDbPolyline
 90
       28
 70
   128
 43
0.0
 10
261.2665691239
 20
41.8605870909
 10
260.5975150343
 20
41.4285006138
 10
259.9378529976
 20
40.9107801388
 10
259.2968432228
 20
40.3146933264
 10
258.6834840819
 20
39.6486079288
 10
258.1063857928
 20
38.9218743251
 10
257.5736495504
 20
38.1446942618
 10
257.0927538039
 20
37.3279776436
 10
256.6704492754
 20
36.4831893815
 10
256.3126641947
 20
35.6221884509
 10
256.0244210801
 20
34.7570614174
 10
255.8097662331
 20
33.8999527684
 10
255.6717129373
 20
33.0628944303
 10
255.6121991582
 20
32.2576368675
 10
255.632060339
 20
31.495484131
 10
255.731017672
 20
30.7871351744
 10
255.9076820134
 20
30.1425336645
 10
256.159573383
 20
29.5707283935
 10
256.4831557781
 20
29.0797462539
 10
256.8738868112
 20
28.6764795587
 10
257.3262814751
 20
28.3665892885
 10
257.8339891404
 20
28.1544256232
 10
258.3898827043
 20
28.0429668757
 10
258.9861586398
 20
28.0337776825
 10
259.6144465398
 20
28.1269870396
 10
260.2659266193
 20
28.3212864921
 10
260.9314535262
 20
28.6139485016
 10
261.2674885218
 20
28.7964649441
  0
LWPOLYLINE
  5
1F6
330
1F
100
AcDbEntity
  8
0
  6
Continuous
 62
     7
370
    15
100
AcDbPolyline
 90
       15
 70
   128
 43
0.0
 10
266.9234233734
 20
38.5938930431
 10
266.9209390895
 20
38.786033469
 10
266.8614253104
 20
39.5225778851
 10
266.7233720146
 20
40.2002432806
 10
266.5087171676
 20
40.8095167186
 10
266.2204740531
 20
41.3418453358
 10
265.8626889724
 20
41.7897564051
 10
265.4403844438
 20
42.1469622371
 10
264.9594886973
 20
42.4084484448
 10
264.426752455
 20
42.570544335
 10
263.8496541659
 20
42.6309744369
 10
263.236295025
 20
42.5888904441
 10
262.5952852501
 20
42.4448831238
 10
261.9356232134
 20
42.200974023
 10
261.2665691239
 20
41.8605870909
  0
SPLINE
  5
1F7
330
1F
100
AcDbEntity
  8
0
  6
Continuous
 62
     7
370
    15
100
AcDbSpline
210
0.0
220
0.0
230
1.0
 70
     8
 71
     3
 72
     8
 73
     4
 74
     0
 42
0.000000001
 43
0.00000001
 40
0.0
 40
0.0
 40
0.0
 40
0.0
 40
1.0
 40
1.0
 40
1.0
 40
1.0
 10
241.772895787262
 20
39.39082165995556
 30
0.0
 10
241.0798245522092
 20
39.27496004158084
 30
0.0
 10
240.3862037858129
 20
39.16020134842778
 30
0.0
 10
239.6922246249856
 20
39.04618980078963
 30
0.0
  0
SPLINE
  5
1F8
330
1F
100
AcDbEntity
  8
0
  6
Continuous
 62
     7
370
    15
100
AcDbSpline
210
0.0
220
0.0
230
1.0
 70
     8
 71
     3
 72
     8
 73
     4
 74
     0
 42
0.000000001
 43
0.00000001
 40
0.0
 40
0.0
 40
0.0
 40
0.0
 40
0.0012389803509652
 40
0.0012389803509652
 40
0.0012389803509652
 40
0.0012389803509652
 10
239.21848821084
 20
39.31972392154363
 30
0.0
 10
239.376561545821
 20
39.22845284109312
 30
0.0
 10
239.534479724787
 20
39.13727131399288
 30
0.0
 10
239.6922246249856
 20
39.04618980078963
 30
0.0
  0
LWPOLYLINE
  5
1F9
330
1F
100
AcDbEntity
  8
0
  6
Continuous
 62
     7
370
    15
100
AcDbPolyline
 90
       28
 70
   128
 43
0.0
 10
239.2184882108
 20
39.3197239215
 10
239.5253036885
 20
40.5411243086
 10
239.9084626107
 20
41.7724057931
 10
240.3651478099
 20
43.0045154052
 10
240.8920015183
 20
44.2283940863
 10
241.4851500557
 20
45.4350432955
 10
242.1402323106
 20
46.6155911713
 10
242.8524318053
 20
47.7613577615
 10
243.6165121088
 20
48.8639188428
 10
244.4268553376
 20
49.9151678592
 10
245.277503461
 20
50.9073755257
 10
246.1622021077
 20
51.8332466574
 10
247.0744465503
 20
52.6859738072
 10
248.007529532
 20
53.4592873178
 10
248.9545905807
 20
54.1475014188
 10
249.9086664511
 20
54.7455560311
 10
250.8627423214
 20
55.2490539715
 10
251.8098033701
 20
55.6542932826
 10
252.7428863518
 20
55.9582944513
 10
253.6551307944
 20
56.1588223158
 10
254.5398294411
 20
56.2544024993
 10
255.3904775645
 20
56.2443322508
 10
256.2008207933
 20
56.1286856115
 10
256.9649010968
 20
55.9083128707
 10
257.6771005915
 20
55.5848343141
 10
258.3321828464
 20
55.1606283107
 10
258.9253313838
 20
54.6388138256
 10
259.3566634692
 20
54.1481047852
  0
SPLINE
  5
1FA
330
1F
100
AcDbEntity
  8
0
  6
Continuous
 62
     7
370
    15
100
AcDbSpline
210
0.0
220
0.0
230
1.0
 70
    11
 71
     3
 72
    66
 73
    62
 74
     0
 42
0.000000001
 43
0.00000001
 40
0.0
 40
0.0
 40
0.0
 40
0.0
 40
0.0312500000000002
 40
0.0312500000000002
 40
0.0625000000000004
 40
0.0625000000000004
 40
0.0937500000000006
 40
0.0937500000000006
 40
0.1250000000000008
 40
0.1250000000000008
 40
0.156250000000001
 40
0.156250000000001
 40
0.1875000000000012
 40
0.1875000000000012
 40
0.2187500000000014
 40
0.2187500000000014
 40
0.2500000000000016
 40
0.2500000000000016
 40
0.2812500000000018
 40
0.2812500000000018
 40
0.312500000000002
 40
0.312500000000002
 40
0.3437500000000022
 40
0.3437500000000022
 40
0.3750000000000024
 40
0.3750000000000024
 40
0.4062500000000026
 40
0.4062500000000026
 40
0.4375000000000028
 40
0.4375000000000028
 40
0.468750000000003
 40
0.468750000000003
 40
0.5000000000000032
 40
0.5000000000000032
 40
0.5312500000000034
 40
0.5312500000000034
 40
0.5625000000000037
 40
0.5625000000000037
 40
0.6250000000000031
 40
0.6250000000000031
 40
0.6562500000000029
 40
0.6562500000000029
 40
0.6875000000000027
 40
0.6875000000000027
 40
0.7187500000000024
 40
0.7187500000000024
 40
0.7500000000000021
 40
0.7500000000000021
 40
0.7812500000000019
 40
0.7812500000000019
 40
0.8125000000000017
 40
0.8125000000000017
 40
0.8437500000000014
 40
0.8437500000000014
 40
0.8750000000000012
 40
0.8750000000000012
 40
0.906250000000001
 40
0.906250000000001
 40
0.9375000000000007
 40
0.9375000000000007
 40
1.0
 40
1.0
 40
1.0
 40
1.0
 10
258.5231565871247
 20
44.38704753981796
 30
0.0
 10
258.6401014449785
 20
44.37070267167813
 30
0.0
 10
258.7540807392363
 20
44.34845639840069
 30
0.0
 10
258.9767280648675
 20
44.29415241249518
 30
0.0
 10
259.0861426654371
 20
44.26181238080417
 30
0.0
 10
259.2961206914655
 20
44.18910256806507
 30
0.0
 10
259.3954125770779
 20
44.14926357307131
 30
0.0
 10
259.5830855027547
 20
44.06339783302809
 30
0.0
 10
259.6722236344053
 20
44.01688209307038
 30
0.0
 10
259.834451351286
 20
43.92019647808682
 30
0.0
 10
259.9076207327564
 20
43.87013970237395
 30
0.0
 10
260.0381780789746
 20
43.76638109566071
 30
0.0
 10
260.0959781997096
 20
43.71211773107996
 30
0.0
 10
260.1912436975226
 20
43.60272903190044
 30
0.0
 10
260.2291219836355
 20
43.54746800474616
 30
0.0
 10
260.2848534608368
 20
43.43485320039355
 30
0.0
 10
260.3026462299803
 20
43.37690721437104
 30
0.0
 10
260.3152113750173
 20
43.26228125406087
 30
0.0
 10
260.3103980286006
 20
43.20523005446721
 30
0.0
 10
260.277095097196
 20
43.09050804653059
 30
0.0
 10
260.2480301800725
 20
43.03245942929252
 30
0.0
 10
260.1670724781266
 20
42.92072900506391
 30
0.0
 10
260.1151508054242
 20
42.86631838564325
 30
0.0
 10
259.9864602176184
 20
42.75995845921953
 30
0.0
 10
259.9108891679545
 20
42.70923703061606
 30
0.0
 10
259.7421500233787
 20
42.61549156257419
 30
0.0
 10
259.6469352022281
 20
42.57146827393738
 30
0.0
 10
259.4450338746159
 20
42.49404157039019
 30
0.0
 10
259.3384701324991
 20
42.46042365638611
 30
0.0
 10
259.1144373152759
 20
42.40374817008592
 30
0.0
 10
258.9995340986999
 20
42.38141325864861
 30
0.0
 10
258.767868935897
 20
42.3493306310426
 30
0.0
 10
258.649434367187
 20
42.33947849751796
 30
0.0
 10
258.4174322579848
 20
42.33334674103927
 30
0.0
 10
258.3032753077753
 20
42.3368668005196
 30
0.0
 10
258.078396626968
 20
42.35760893985227
 30
0.0
 10
257.9685789319423
 20
42.37489039401648
 30
0.0
 10
257.6557252533921
 20
42.44614585082735
 30
0.0
 10
257.4629710305997
 20
42.52152365846943
 30
0.0
 10
257.22059178412
 20
42.6680723833285
 30
0.0
 10
257.1465958031293
 20
42.72282268375943
 30
0.0
 10
257.0144858742909
 20
42.84314702634798
 30
0.0
 10
256.9577727223071
 20
42.90734751160741
 30
0.0
 10
256.8626860451211
 20
43.04312284453481
 30
0.0
 10
256.8241132123899
 20
43.11522022553699
 30
0.0
 10
256.7678924130234
 20
43.26427549994199
 30
0.0
 10
256.7505693346774
 20
43.33993272259494
 30
0.0
 10
256.737852971666
 20
43.49256690404019
 30
0.0
 10
256.7426679378185
 20
43.57043239046681
 30
0.0
 10
256.7763375537459
 20
43.72215437926291
 30
0.0
 10
256.8047322224273
 20
43.79531138771305
 30
0.0
 10
256.8856469284833
 20
43.93507889845601
 30
0.0
 10
256.9391992215712
 20
44.00242492611326
 30
0.0
 10
257.0671748141252
 20
44.12252619800555
 30
0.0
 10
257.141631251745
 20
44.17599662218074
 30
0.0
 10
257.312371427761
 20
44.26902162223875
 30
0.0
 10
257.4069257511654
 20
44.30739450711523
 30
0.0
 10
257.6083655301155
 20
44.36681111703014
 30
0.0
 10
257.7173344105697
 20
44.38831114870418
 30
0.0
 10
258.0513995578328
 20
44.42705550872941
 30
0.0
 10
258.2892668714171
 20
44.41973727609758
 30
0.0
 10
258.5231565871247
 20
44.38704753981795
 30
0.0
  0
LINE
  5
1FB
330
1F
100
AcDbEntity
  8
0
  6
Continuous
 62
     7
370
    15
100
AcDbLine
 10
264.4163985267
 20
35.1995019821
 30
0.0
 11
265.6152758282
 21
36.6908939477
 31
0.0
  0
SPLINE
  5
1FC
330
1F
100
AcDbEntity
  8
0
  6
Continuous
 62
     7
370
    15
100
AcDbSpline
210
0.0
220
0.0
230
1.0
 70
     8
 71
     3
 72
    22
 73
    18
 74
     0
 42
0.000000001
 43
0.00000001
 40
0.0
 40
0.0
 40
0.0
 40
0.0
 40
0.0416666666666667
 40
0.0833333333333335
 40
0.1250000000000036
 40
0.166666666666668
 40
0.2083333333333337
 40
0.2499999999998967
 40
0.2968749999997767
 40
0.34375
 40
0.3906250000000001
 40
0.4374999999999999
 40
0.4847037825276523
 40
0.4847037825276523
 40
0.53125
 40
0.624999999999985
 40
0.8414337678077748
 40
0.8414337678077748
 40
0.8414337678077748
 40
0.8414337678077748
 10
265.6152758281624
 20
36.69089394771115
 30
0.0
 10
265.6607551559756
 20
36.74746979914685
 30
0.0
 10
265.7500255659173
 20
36.86939040773997
 30
0.0
 10
265.874518275434
 20
37.07629808008117
 30
0.0
 10
265.9841599234894
 20
37.30527045226592
 30
0.0
 10
266.0711655192645
 20
37.54867482139995
 30
0.0
 10
266.1278411259179
 20
37.79564368647374
 30
0.0
 10
266.1491105698956
 20
38.04369002199247
 30
0.0
 10
266.1258770372979
 20
38.27605287502145
 30
0.0
 10
266.0527919135464
 20
38.47418352233655
 30
0.0
 10
265.9379253511569
 20
38.61952140888069
 30
0.0
 10
265.7886217509191
 20
38.71016103957299
 30
0.0
 10
265.6776983713124
 20
38.73596463975485
 30
0.0
 10
265.56721658778
 20
38.74637412119953
 30
0.0
 10
265.4189829183415
 20
38.75873385522378
 30
0.0
 10
265.1378875232823
 20
38.7846286122953
 30
0.0
 10
264.7208893532764
 20
38.82184649559296
 30
0.0
 10
264.4162925793012
 20
38.84898688416091
 30
0.0
  0
SPLINE
  5
1FD
330
1F
100
AcDbEntity
  8
0
  6
Continuous
 62
     7
370
    15
100
AcDbSpline
210
0.0
220
0.0
230
1.0
 70
     8
 71
     3
 72
    22
 73
    18
 74
     0
 42
0.000000001
 43
0.00000001
 40
0.0
 40
0.0
 40
0.0
 40
0.0
 40
0.0416666666666667
 40
0.0833333333333335
 40
0.1250000000000036
 40
0.166666666666668
 40
0.2083333333333337
 40
0.2499999999998967
 40
0.2968749999997767
 40
0.34375
 40
0.3906250000000001
 40
0.4374999999999999
 40
0.4847037825276523
 40
0.4847037825276523
 40
0.53125
 40
0.624999999999985
 40
0.8393173095866369
 40
0.8393173095866369
 40
0.8393173095866369
 40
0.8393173095866369
 10
257.1299944539259
 20
31.7924452767761
 30
0.0
 10
257.0853217970854
 20
31.79643968547023
 30
0.0
 10
256.9948703390601
 20
31.81539647632867
 30
0.0
 10
256.8708523200835
 20
31.87852548041388
 30
0.0
 10
256.7610834819931
 20
31.98091967619185
 30
0.0
 10
256.6741119558185
 20
32.12386646442404
 30
0.0
 10
256.617427260798
 20
32.30539992402021
 30
0.0
 10
256.5961601958489
 20
32.52888869660797
 30
0.0
 10
256.619393519592
 20
32.78807715836048
 30
0.0
 10
256.6924767776467
 20
33.07058749361339
 30
0.0
 10
256.8073510197107
 20
33.34855711787864
 30
0.0
 10
256.9566256994887
 20
33.61154302109495
 30
0.0
 10
257.0676214729858
 20
33.76550608577742
 30
0.0
 10
257.178131993719
 20
33.90351086932007
 30
0.0
 10
257.3263446196809
 20
34.086991382099
 30
0.0
 10
257.6042417377462
 20
34.43344883130806
 30
0.0
 10
258.0261851615376
 20
34.95827980971468
 30
0.0
 10
258.3289794856678
 20
35.33485980080199
 30
0.0
  0
LINE
  5
1FE
330
1F
100
AcDbEntity
  8
0
  6
Continuous
 62
     7
370
    15
100
AcDbLine
 10
258.3288717554
 20
31.6852475801
 30
0.0
 11
257.1299944539
 21
31.7924452768
 31
0.0
  0
LINE
  5
1FF
330
1F
100
AcDbEntity
  8
0
  6
Continuous
 62
     7
370
    15
100
AcDbLine
 10
236.1867678865
 20
41.0698988113
 30
0.0
 11
239.2184882108
 21
39.3197239215
 31
0.0
  0
ARC
  5
200
330
1F
100
AcDbEntity
  8
0
  6
Continuous
 62
     7
370
    15
100
AcDbCircle
 10
252.0848248377
 20
52.6477558246
 30
0.0
 40
5.340971704793506
100
AcDbArc
 50
60.0495925374
 51
74.3981352585
  0
LINE
  5
201
330
1F
100
AcDbEntity
  8
0
  6
Continuous
 62
     7
370
    15
100
AcDbLine
 10
242.1754911897
 20
39.3296592692
 30
0.0
 11
242.1661685388
 21
39.335041121
 31
0.0
  0
SPLINE
  5
202
330
1F
100
AcDbEntity
  8
0
  6
Continuous
 62
     7
370
    15
100
AcDbSpline
210
0.0
220
0.0
230
1.0
 70
     8
 71
     3
 72
    10
 73
     6
 74
     0
 42
0.000000001
 43
0.00000001
 40
0.0
 40
0.0
 40
0.0
 40
0.0
 40
0.2406249056622674
 40
0.7130401023711931
 40
1.0
 40
1.0
 40
1.0
 40
1.0
 10
243.0922834720614
 20
38.52773964678447
 30
0.0
 10
243.026557380894
 20
38.60859129800539
 30
0.0
 10
242.8317922602784
 20
38.84817775936846
 30
0.0
 10
242.5190519731079
 20
39.11375980484819
 30
0.0
 10
242.2697135639959
 20
39.27044831989769
 30
0.0
 10
242.1754911897211
 20
39.32965926923416
 30
0.0
  0
SPLINE
  5
203
330
1F
100
AcDbEntity
  8
0
  6
Continuous
 62
     7
370
    15
100
AcDbSpline
210
0.0
220
0.0
230
1.0
 70
     8
 71
     3
 72
    10
 73
     6
 74
     0
 42
0.000000001
 43
0.00000001
 40
0.0
 40
0.0
 40
0.0
 40
0.0
 40
0.5
 40
0.5
 40
1.0
 40
1.0
 40
1.0
 40
1.0
 10
242.166168538814
 20
39.3350411210469
 30
0.0
 10
242.1163679400012
 20
39.36379039479602
 30
0.0
 10
242.0513360232572
 20
39.38455374015668
 30
0.0
 10
241.9142776629118
 20
39.40350742954447
 30
0.0
 10
241.840738822862
 20
39.40216306831666
 30
0.0
 10
241.772895787262
 20
39.39082165995556
 30
0.0
  0
SPLINE
  5
204
330
1F
100
AcDbEntity
  8
0
  6
Continuous
 62
     7
370
    15
100
AcDbSpline
210
0.0
220
0.0
230
1.0
 70
     8
 71
     3
 72
     8
 73
     4
 74
     0
 42
0.000000001
 43
0.00000001
 40
0.0
 40
0.0
 40
0.0
 40
0.0
 40
1.0
 40
1.0
 40
1.0
 40
1.0
 10
236.0299432789416
 20
41.16042049045242
 30
0.0
 10
236.0523220754611
 20
41.14750853900058
 30
0.0
 10
236.1065095064783
 20
41.11623098784355
 30
0.0
 10
236.1867678865028
 20
41.06989881126356
 30
0.0
  0
LINE
  5
205
330
1F
100
AcDbEntity
  8
0
  6
Continuous
 62
     7
370
    15
100
AcDbLine
 10
236.0299432789
 20
41.1604204905
 30
0.0
 11
236.0526262203
 21
41.3040040636
 31
0.0
  0
SPLINE
  5
206
330
1F
100
AcDbEntity
  8
0
  6
Continuous
 62
     7
370
    15
100
AcDbSpline
210
0.0
220
0.0
230
1.0
 70
     8
 71
     3
 72
    11
 73
     7
 74
     0
 42
0.000000001
 43
0.00000001
 40
0.0
 40
0.0
 40
0.0
 40
0.0
 40
0.3179058967742324
 40
0.6358159597965134
 40
0.9537741512404624
 40
1.0
 40
1.0
 40
1.0
 40
1.0
 10
257.0592837758063
 20
32.05633551081079
 30
0.0
 10
256.9775157166115
 20
32.07643863502214
 30
0.0
 10
256.8139785266284
 20
32.11664514690206
 30
0.0
 10
256.6630482134903
 20
32.34002461789222
 30
0.0
 10
256.5912644505894
 20
32.55187806932636
 30
0.0
 10
256.6081177823026
 20
32.69158835978991
 30
0.0
 10
256.6102569742409
 20
32.70932177488827
 30
0.0
  0
SPLINE
  5
207
330
1F
100
AcDbEntity
  8
0
  6
Continuous
 62
     7
370
    15
100
AcDbSpline
210
0.0
220
0.0
230
1.0
 70
     8
 71
     3
 72
    16
 73
    12
 74
     0
 42
0.000000001
 43
0.00000001
 40
0.0
 40
0.0
 40
0.0
 40
0.0
 40
0.0207415969344708
 40
0.1030962847789711
 40
0.1878174921892665
 40
0.3186818050376019
 40
0.4529103998598109
 40
0.5875220395412604
 40
0.7232370498522165
 40
0.8613594717265745
 40
1.0
 40
1.0
 40
1.0
 40
1.0
 10
258.4805969679816
 20
35.54711567793117
 30
0.0
 10
258.4803724477481
 20
35.54638364146553
 30
0.0
 10
258.4792564680087
 20
35.54274504795857
 30
0.0
 10
258.4741690729136
 20
35.53298404835123
 30
0.0
 10
258.4640878238785
 20
35.51571220747256
 30
0.0
 10
258.4485213044445
 20
35.49211345926584
 30
0.0
 10
258.4279637819466
 20
35.4630602272087
 30
0.0
 10
258.4052111010537
 20
35.4323222074571
 30
0.0
 10
258.3809234827214
 20
35.40053011172106
 30
0.0
 10
258.3554747699328
 20
35.36796657181111
 30
0.0
 10
258.337822262385
 20
35.34590915512988
 30
0.0
 10
258.3289794856678
 20
35.33485980080194
 30
0.0
  0
SPLINE
  5
208
330
1F
100
AcDbEntity
  8
0
  6
Continuous
 62
     7
370
    15
100
AcDbSpline
210
0.0
220
0.0
230
1.0
 70
     8
 71
     3
 72
    16
 73
    12
 74
     0
 42
0.000000001
 43
0.00000001
 40
0.0
 40
0.0
 40
0.0
 40
0.0
 40
0.2499999999999963
 40
0.2499999999999963
 40
0.4999999999999927
 40
0.4999999999999927
 40
0.6249999999999948
 40
0.6249999999999948
 40
0.749999999999997
 40
0.749999999999997
 40
1.0
 40
1.0
 40
1.0
 40
1.0
 10
264.4162925793023
 20
38.8489868841608
 30
0.0
 10
264.3902972796964
 20
38.85130313499642
 30
0.0
 10
264.3623097592933
 20
38.85253478377629
 30
0.0
 10
264.2996579959578
 20
38.85136551029903
 30
0.0
 10
264.2646234609325
 20
38.8490529460316
 30
0.0
 10
264.2058327016898
 20
38.83938557977219
 30
0.0
 10
264.1848346968489
 20
38.83498365256776
 30
0.0
 10
264.1433259999799
 20
38.8233734562712
 30
0.0
 10
264.1235236584748
 20
38.81629573826144
 30
0.0
 10
264.0726134465156
 20
38.79376386850453
 30
0.0
 10
264.0504520085384
 20
38.77796855243683
 30
0.0
 10
264.0342578221755
 20
38.76340511998826
 30
0.0
  0
SPLINE
  5
209
330
1F
100
AcDbEntity
  8
0
  6
Continuous
 62
     7
370
    15
100
AcDbSpline
210
0.0
220
0.0
230
1.0
 70
     8
 71
     3
 72
    10
 73
     6
 74
     0
 42
0.000000001
 43
0.00000001
 40
0.0
 40
0.0
 40
0.0
 40
0.0
 40
0.5
 40
0.5
 40
1.0
 40
1.0
 40
1.0
 40
1.0
 10
264.0342578221826
 20
38.76340511998513
 30
0.0
 10
264.0080650645544
 20
38.77285301585687
 30
0.0
 10
263.9819328759125
 20
38.7830270913285
 30
0.0
 10
263.9313233870096
 20
38.80508980727191
 30
0.0
 10
263.9075593007282
 20
38.81672939158923
 30
0.0
 10
263.8875721304912
 20
38.82826773936641
 30
0.0
  0
LINE
  5
20A
330
1F
100
AcDbEntity
  8
0
  6
Continuous
 62
     7
370
    15
100
AcDbLine
 10
263.3749649161
 20
39.3071212877
 30
0.0
 11
263.3375861599
 21
39.3279943095
 31
0.0
  0
SPLINE
  5
20B
330
1F
100
AcDbEntity
  8
0
  6
Continuous
 62
     7
370
    15
100
AcDbSpline
210
0.0
220
0.0
230
1.0
 70
     8
 71
     3
 72
    11
 73
     7
 74
     0
 42
0.000000001
 43
0.00000001
 40
0.0
 40
0.0
 40
0.0
 40
0.0
 40
0.3095641458094132
 40
0.5897803711570396
 40
0.840990022418655
 40
0.9999999999999999
 40
0.9999999999999999
 40
0.9999999999999999
 40
0.9999999999999999
 10
242.6594762747208
 20
31.68347786336624
 30
0.0
 10
242.7504722376984
 20
31.77495207977961
 30
0.0
 10
242.923837382032
 20
31.94922839064407
 30
0.0
 10
243.0741703657314
 20
32.36769421564116
 30
0.0
 10
243.1484511048302
 20
32.78084344382335
 30
0.0
 10
243.155995736765
 20
33.07787469542809
 30
0.0
 10
243.1589201988592
 20
33.19301041624146
 30
0.0
  0
SPLINE
  5
20C
330
1F
100
AcDbEntity
  8
0
  6
Continuous
 62
     7
370
    15
100
AcDbSpline
210
0.0
220
0.0
230
1.0
 70
     8
 71
     3
 72
     9
 73
     5
 74
     0
 42
0.000000001
 43
0.00000001
 40
0.0
 40
0.0
 40
0.0
 40
0.0
 40
0.5067661695379747
 40
1.0
 40
1.0
 40
1.0
 40
1.0
 10
242.5507548102483
 20
30.95684709682209
 30
0.0
 10
242.5690238275598
 20
31.07930145065209
 30
0.0
 10
242.6050740187714
 20
31.32094022054401
 30
0.0
 10
242.6417547582082
 20
31.56309061867318
 30
0.0
 10
242.6598469398248
 20
31.68252738709034
 30
0.0
  0
SPLINE
  5
20D
330
1F
100
AcDbEntity
  8
0
  6
Continuous
 62
     7
370
    15
100
AcDbSpline
210
0.0
220
0.0
230
1.0
 70
     8
 71
     3
 72
    10
 73
     6
 74
     0
 42
0.000000001
 43
0.00000001
 40
0.0
 40
0.0
 40
0.0
 40
0.0
 40
0.4807908150150776
 40
0.9757817590329644
 40
0.9999999999999999
 40
0.9999999999999999
 40
0.9999999999999999
 40
0.9999999999999999
 10
242.1754911897211
 20
32.75650573355388
 30
0.0
 10
242.3252821366213
 20
32.67633535819185
 30
0.0
 10
242.6292880974027
 20
32.51362678005347
 30
0.0
 10
242.9189035416013
 20
32.402125349332
 30
0.0
 10
243.05324197228
 20
32.37389373185272
 30
0.0
 10
243.0595081181407
 20
32.37257688281619
 30
0.0
  0
LINE
  5
20E
330
1F
100
AcDbEntity
  8
0
  6
Continuous
 62
     7
370
    15
100
AcDbLine
 10
262.7669642663
 20
39.4751808894
 30
0.0
 11
263.8875721305
 21
38.8282677394
 31
0.0
  0
ARC
  5
20F
330
1F
100
AcDbEntity
  8
0
  6
Continuous
 62
     7
370
    15
100
AcDbCircle
 10
255.7794010059
 20
38.9788716888
 30
0.0
 40
5.625527768102054
100
AcDbArc
 50
337.8140922952
 51
1.4394633718
  0
LINE
  5
210
330
1F
100
AcDbEntity
  8
0
  6
Continuous
 62
     7
370
    15
100
AcDbLine
 10
260.9884343276
 20
36.8545989843
 30
0.0
 11
263.8875721305
 21
35.1809623551
 31
0.0
  0
LINE
  5
211
330
1F
100
AcDbEntity
  8
0
  6
Continuous
 62
     7
370
    15
100
AcDbLine
 10
258.8753306192
 20
31.5126815263
 30
0.0
 11
258.9127117944
 21
31.4918071985
 31
0.0
  0
LINE
  5
212
330
1F
100
AcDbEntity
  8
0
  6
Continuous
 62
     7
370
    15
100
AcDbLine
 10
256.6806143486
 20
32.9625959631
 30
0.0
 11
258.3627234048
 21
31.9915350746
 31
0.0
  0
LINE
  5
213
330
1F
100
AcDbEntity
  8
0
  6
Continuous
 62
     7
370
    15
100
AcDbLine
 10
258.4281697474
 20
31.9339364772
 30
0.0
 11
257.0592837758
 21
32.0563355108
 31
0.0
  0
SPLINE
  5
214
330
1F
100
AcDbEntity
  8
0
  6
Continuous
 62
     7
370
    15
100
AcDbSpline
210
0.0
220
0.0
230
1.0
 70
     8
 71
     3
 72
    16
 73
    12
 74
     0
 42
0.000000001
 43
0.00000001
 40
0.0
 40
0.0
 40
0.0
 40
0.0
 40
0.2499999999999937
 40
0.2499999999999937
 40
0.4999999999999875
 40
0.4999999999999875
 40
0.6249999999999867
 40
0.6249999999999867
 40
0.7499999999999858
 40
0.7499999999999858
 40
1.0
 40
1.0
 40
1.0
 40
1.0
 10
258.3288717554357
 20
31.68524758013055
 30
0.0
 10
258.3544292407984
 20
31.68296235581321
 30
0.0
 10
258.3794287779843
 20
31.68331693774386
 30
0.0
 10
258.4268271965621
 20
31.69377125042871
 30
0.0
 10
258.449079211641
 20
31.70354510516958
 30
0.0
 10
258.4726786554892
 20
31.73385750045754
 30
0.0
 10
258.4787513071417
 20
31.74686291509288
 30
0.0
 10
258.4839181573324
 20
31.77925020781262
 30
0.0
 10
258.4827638688859
 20
31.79846004356101
 30
0.0
 10
258.4695442732475
 20
31.8578699738986
 30
0.0
 10
258.4498340879364
 20
31.89753301592767
 30
0.0
 10
258.4281697474122
 20
31.93393647719714
 30
0.0
  0
SPLINE
  5
215
330
1F
100
AcDbEntity
  8
0
  6
Continuous
 62
     7
370
    15
100
AcDbSpline
210
0.0
220
0.0
230
1.0
 70
     8
 71
     3
 72
     8
 73
     4
 74
     0
 42
0.000000001
 43
0.00000001
 40
0.0
 40
0.0
 40
0.0
 40
0.0
 40
1.0
 40
1.0
 40
1.0
 40
1.0
 10
258.3627234047662
 20
31.99153507458213
 30
0.0
 10
258.4027577044752
 20
31.96842376529814
 30
0.0
 10
258.4223211451663
 20
31.94860848092697
 30
0.0
 10
258.4281697474117
 20
31.93393647719837
 30
0.0
  0
LINE
  5
216
330
1F
100
AcDbEntity
  8
0
  6
Continuous
 62
     7
370
    15
100
AcDbLine
 10
236.4633765265
 20
40.9101641323
 30
0.0
 11
236.0299432789
 21
41.1604204905
 31
0.0
  0
LINE
  5
217
330
1F
100
AcDbEntity
  8
0
  6
Continuous
 62
     7
370
    15
100
AcDbLine
 10
239.692224625
 20
39.0461898008
 30
0.0
 11
236.4633765265
 21
40.9101641323
 31
0.0
  0
SPLINE
  5
218
330
1F
100
AcDbEntity
  8
0
  6
Continuous
 62
     7
370
    15
100
AcDbSpline
210
0.0
220
0.0
230
1.0
 70
     8
 71
     3
 72
    21
 73
    17
 74
     0
 42
0.000000001
 43
0.00000001
 40
0.0
 40
0.0
 40
0.0
 40
0.0
 40
0.071497301778188
 40
0.1072617284194209
 40
0.1429927450598247
 40
0.2146446740131757
 40
0.3677235945505299
 40
0.4187414303013127
 40
0.5208143254014793
 40
0.5973279404542106
 40
0.6738430349076951
 40
0.7503598742837604
 40
0.8270915582167917
 40
0.898796310741302
 40
0.9705003217438
 40
1.0
 40
1.0
 40
1.0
 40
1.0
 10
238.568441447778
 20
36.89633818646768
 30
0.0
 10
238.5679479597051
 20
36.96447753234534
 30
0.0
 10
238.5672076187084
 20
37.066701585987
 30
0.0
 10
238.5631828316987
 20
37.2046559039354
 30
0.0
 10
238.5580843655988
 20
37.34332276123177
 30
0.0
 10
238.5458060826375
 20
37.59720212418637
 30
0.0
 10
238.528187107257
 20
37.86829004118024
 30
0.0
 10
238.5076241664686
 20
38.16974968866557
 30
0.0
 10
238.4923550703337
 20
38.39575236585156
 30
0.0
 10
238.4774979884633
 20
38.6458235258767
 30
0.0
 10
238.4668679989031
 20
38.86946984068551
 30
0.0
 10
238.4599983278529
 20
39.09135937058709
 30
0.0
 10
238.4576200578728
 20
39.30622673239105
 30
0.0
 10
238.4599027126143
 20
39.51382330727944
 30
0.0
 10
238.4643268682534
 20
39.67530622143365
 30
0.0
 10
238.4688979634919
 20
39.76856839141273
 30
0.0
 10
238.4702303836813
 20
39.79575321074105
 30
0.0
  0
LINE
  5
219
330
1F
100
AcDbEntity
  8
0
  6
Continuous
 62
     7
370
    15
100
AcDbLine
 10
238.5684414478
 20
36.4759828311
 30
0.0
 11
238.5684414478
 21
36.8963381865
 31
0.0
  0
SPLINE
  5
21A
330
1F
100
AcDbEntity
  8
0
  6
Continuous
 62
     7
370
    15
100
AcDbSpline
210
0.0
220
0.0
230
1.0
 70
     8
 71
     3
 72
     8
 73
     4
 74
     0
 42
0.000000001
 43
0.00000001
 40
0.0
 40
0.0
 40
0.0
 40
0.0
 40
1.0
 40
1.0
 40
1.0
 40
1.0
 10
263.8875721304915
 20
35.18096235507487
 30
0.0
 10
263.9276064302014
 20
35.15785104579044
 30
0.0
 10
263.9821033748522
 20
35.15820244399505
 30
0.0
 10
264.0342578221984
 20
35.17026223564098
 30
0.0
  0
SPLINE
  5
21B
330
1F
100
AcDbEntity
  8
0
  6
Continuous
 62
     7
370
    15
100
AcDbSpline
210
0.0
220
0.0
230
1.0
 70
     8
 71
     3
 72
    16
 73
    12
 74
     0
 42
0.000000001
 43
0.00000001
 40
0.0
 40
0.0
 40
0.0
 40
0.0
 40
0.2499999999999983
 40
0.2499999999999983
 40
0.3749999999999975
 40
0.3749999999999975
 40
0.4999999999999967
 40
0.4999999999999967
 40
0.7499999999999983
 40
0.7499999999999983
 40
1.0
 40
1.0
 40
1.0
 40
1.0
 10
264.0342578222017
 20
35.17026223563953
 30
0.0
 10
264.0503258888324
 20
35.13097901905971
 30
0.0
 10
264.0725814560244
 20
35.0920881830647
 30
0.0
 10
264.1230978685404
 20
35.05454519213188
 30
0.0
 10
264.1427110779478
 20
35.04616280595028
 30
0.0
 10
264.1840375759226
 20
35.04050284928763
 30
0.0
 10
264.2050314459266
 20
35.04310333691062
 30
0.0
 10
264.2641079609185
 20
35.06051827633879
 30
0.0
 10
264.299269377093
 20
35.08388434622789
 30
0.0
 10
264.3621601943794
 20
35.13677629831965
 30
0.0
 10
264.3906161862122
 20
35.16742899574036
 30
0.0
 10
264.4163985266553
 20
35.19950198214375
 30
0.0
  0
LINE
  5
21C
330
1F
100
AcDbEntity
  8
0
  6
Continuous
 62
     7
370
    15
100
AcDbLine
 10
237.958561849
 20
39.7113516461
 30
0.0
 11
237.9637497437
 21
40.0440171104
 31
0.0
  0
ARC
  5
21D
330
1F
100
AcDbEntity
  8
0
  6
Continuous
 62
     7
370
    15
100
AcDbCircle
 10
245.5397155153
 20
39.5423842864
 30
0.0
 40
7.583036389277359
100
AcDbArc
 50
178.7232135802
 51
203.1724163449
  0
LWPOLYLINE
  5
21E
330
1F
100
AcDbEntity
  8
0
  6
Continuous
 62
     7
370
    15
100
AcDbPolyline
 90
        3
 70
   128
 43
0.0
 10
219.4803390574
 20
52.0933999425
 10
219.4414211262
 20
52.1270454836
 10
219.4129775607
 20
52.1526571273
  0
SPLINE
  5
21F
330
1F
100
AcDbEntity
  8
0
  6
Continuous
 62
     7
370
    15
100
AcDbSpline
210
0.0
220
0.0
230
1.0
 70
     8
 71
     3
 72
    22
 73
    18
 74
     0
 42
0.000000001
 43
0.00000001
 40
0.0
 40
0.0
 40
0.0
 40
0.0
 40
0.125
 40
0.125
 40
0.25
 40
0.25
 40
0.375
 40
0.375
 40
0.5
 40
0.5
 40
0.625
 40
0.625
 40
0.75
 40
0.75
 40
0.875
 40
0.875
 40
1.0
 40
1.0
 40
1.0
 40
1.0
 10
265.4031437938075
 20
36.87314337056475
 30
0.0
 10
265.4705731517357
 20
36.9570248507885
 30
0.0
 10
265.5315059059606
 20
37.04621751956065
 30
0.0
 10
265.6393031755259
 20
37.2357437476995
 30
0.0
 10
265.6859112052584
 20
37.33569204143189
 30
0.0
 10
265.7597841095016
 20
37.53519692232607
 30
0.0
 10
265.787968822207
 20
37.63756930991769
 30
0.0
 10
265.8240911727794
 20
37.83411789489141
 30
0.0
 10
265.8325411619967
 20
37.92995868389632
 30
0.0
 10
265.8302686533621
 20
38.11011031452015
 30
0.0
 10
265.8198155008066
 20
38.19247467140411
 30
0.0
 10
265.7808609159806
 20
38.34148794993525
 30
0.0
 10
265.7525227559871
 20
38.40643732657139
 30
0.0
 10
265.6798455804995
 20
38.51352738359111
 30
0.0
 10
265.6346339775573
 20
38.55644864715796
 30
0.0
 10
265.5305613301459
 20
38.61667034395804
 30
0.0
 10
265.4705802096514
 20
38.63497625713445
 30
0.0
 10
265.4031437896733
 20
38.64100608875098
 30
0.0
  0
LINE
  5
220
330
1F
100
AcDbEntity
  8
0
  6
Continuous
 62
     7
370
    15
100
AcDbLine
 10
265.4031437897
 20
38.6410060888
 30
0.0
 11
264.0342578222
 21
38.76340512
 31
0.0
  0
LINE
  5
221
330
1F
100
AcDbEntity
  8
0
  6
Continuous
 62
     7
370
    15
100
AcDbLine
 10
242.1661685388
 20
32.7618875854
 30
0.0
 11
242.1754911897
 21
32.7565057336
 31
0.0
  0
ARC
  5
222
330
1F
100
AcDbEntity
  8
0
  6
Continuous
 62
     7
370
    15
100
AcDbCircle
 10
244.9933843049
 20
33.4087885713
 30
0.0
 40
5.919642220385775
100
AcDbArc
 50
192.6964501329
 51
260.4756565155
  0
SPLINE
  5
223
330
1F
100
AcDbEntity
  8
0
  6
Continuous
 62
     7
370
    15
100
AcDbSpline
210
0.0
220
0.0
230
1.0
 70
     8
 71
     3
 72
     8
 73
     4
 74
     0
 42
0.000000001
 43
0.00000001
 40
0.0
 40
0.0
 40
0.0
 40
0.0
 40
0.0012389803509652
 40
0.0012389803509652
 40
0.0012389803509652
 40
0.0012389803509652
 10
239.6922246249856
 20
32.47303626510935
 30
0.0
 10
239.534479724787
 20
32.35095981457463
 30
0.0
 10
239.376561545821
 20
32.22920251157381
 30
0.0
 10
239.21848821084
 20
32.10773549002938
 30
0.0
  0
SPLINE
  5
224
330
1F
100
AcDbEntity
  8
0
  6
Continuous
 62
     7
370
    15
100
AcDbSpline
210
0.0
220
0.0
230
1.0
 70
     8
 71
     3
 72
     8
 73
     4
 74
     0
 42
0.000000001
 43
0.00000001
 40
0.0
 40
0.0
 40
0.0
 40
0.0
 40
1.0
 40
1.0
 40
1.0
 40
1.0
 10
239.6922246249856
 20
32.47303626510935
 30
0.0
 10
240.3862052079271
 20
32.58704804638195
 30
0.0
 10
241.0798382686891
 20
32.70180879890232
 30
0.0
 10
241.772895787262
 20
32.81766812427527
 30
0.0
  0
SPLINE
  5
225
330
1F
100
AcDbEntity
  8
0
  6
Continuous
 62
     7
370
    15
100
AcDbSpline
210
0.0
220
0.0
230
1.0
 70
     8
 71
     3
 72
    12
 73
     8
 74
     0
 42
0.000000001
 43
0.00000001
 40
0.0
 40
0.0
 40
0.0
 40
0.0
 40
0.2499999999999984
 40
0.2499999999999984
 40
0.4999999999999968
 40
0.4999999999999968
 40
1.0
 40
1.0
 40
1.0
 40
1.0
 10
241.772895787262
 20
32.81766812427527
 30
0.0
 10
241.8066843031861
 20
32.82331659435952
 30
0.0
 10
241.842256079255
 20
32.82657705787496
 30
0.0
 10
241.9128383256475
 20
32.82771464742308
 30
0.0
 10
241.9478612840964
 20
32.82569803096506
 30
0.0
 10
242.0520665793614
 20
32.81132229362547
 30
0.0
 10
242.115777011301
 20
32.79097799499306
 30
0.0
 10
242.166168538814
 20
32.76188758536662
 30
0.0
  0
LINE
  5
226
330
1F
100
AcDbEntity
  8
0
  6
Continuous
 62
     7
370
    15
100
AcDbLine
 10
236.4633765265
 20
34.3370105966
 30
0.0
 11
239.692224625
 21
32.4730362651
 31
0.0
  0
LINE
  5
227
330
1F
100
AcDbEntity
  8
0
  6
Continuous
 62
     7
370
    15
100
AcDbLine
 10
236.4633765265
 20
34.3370105966
 30
0.0
 11
238.3563094134
 21
35.429777492
 31
0.0
  0
LINE
  5
228
330
1F
100
AcDbEntity
  8
0
  6
Continuous
 62
     7
370
    15
100
AcDbLine
 10
236.0299432789
 20
34.0867542384
 30
0.0
 11
236.4633765265
 21
34.3370105966
 31
0.0
  0
LINE
  5
229
330
1F
100
AcDbEntity
  8
0
  6
Continuous
 62
     7
370
    15
100
AcDbLine
 10
239.2184882108
 20
32.10773549
 30
0.0
 11
236.1867678865
 21
33.8579103797
 31
0.0
  0
SPLINE
  5
22A
330
1F
100
AcDbEntity
  8
0
  6
Continuous
 62
     7
370
    15
100
AcDbSpline
210
0.0
220
0.0
230
1.0
 70
     8
 71
     3
 72
     8
 73
     4
 74
     0
 42
0.000000001
 43
0.00000001
 40
0.0
 40
0.0
 40
0.0
 40
0.0
 40
1.0
 40
1.0
 40
1.0
 40
1.0
 10
236.1867678865028
 20
33.85791037974931
 30
0.0
 10
236.106743086988
 20
33.90410771317127
 30
0.0
 10
236.0522662896061
 20
33.98729523553597
 30
0.0
 10
236.0299432789416
 20
34.08675423837708
 30
0.0
  0
ARC
  5
22B
330
1F
100
AcDbEntity
  8
0
  6
Continuous
 62
     7
370
    15
100
AcDbCircle
 10
260.7860404537
 20
39.9102361375
 30
0.0
 40
2.072199650652967
100
AcDbArc
 50
321.0658596266
 51
347.226892773
  0
LINE
  5
22C
330
1F
100
AcDbEntity
  8
0
  6
Continuous
 62
     7
370
    15
100
AcDbLine
 10
264.0342578222
 20
35.1702622356
 30
0.0
 11
265.4031437938
 21
36.8731433706
 31
0.0
  0
LINE
  5
22D
330
1F
100
AcDbEntity
  8
0
  6
Continuous
 62
     7
370
    15
100
AcDbLine
 10
260.9884343276
 20
36.8545989843
 30
0.0
 11
262.3979399738
 21
38.6080106082
 31
0.0
  0
LWPOLYLINE
  5
22E
330
1F
100
AcDbEntity
  8
0
  6
Continuous
 62
     7
370
    15
100
AcDbPolyline
 90
        3
 70
   128
 43
0.0
 10
239.0025861072
 20
29.9949435511
 10
238.4534297313
 20
30.3596230668
 10
237.8936340166
 20
30.8478498216
  0
ELLIPSE
  5
22F
330
1F
100
AcDbEntity
  8
0
  6
Continuous
 62
     7
370
    15
100
AcDbEllipse
 10
238.1219948384
 20
36.2182770665
 30
0.0
 11
-6.005970382716441E-5
 21
0.8534489614827194
 31
0.0
210
0.0
220
0.0
230
1.0
 40
0.7174342186
 41
3.534193645557495
 42
5.104989972352388
  0
ELLIPSE
  5
230
330
1F
100
AcDbEntity
  8
0
  6
Continuous
 62
     7
370
    15
100
AcDbEllipse
 10
238.0027560228
 20
36.1494195863
 30
0.0
 11
0.2600075789209483
 21
0.9705436209909234
 31
0.0
210
0.0
220
0.0
230
1.0
 40
0.5176380889
 41
3.619174351347763
 42
5.189970678142608
  0
LWPOLYLINE
  5
231
330
1F
100
AcDbEntity
  8
0
  6
Continuous
 62
     7
370
     0
100
AcDbPolyline
 90
       41
 70
   128
 43
0.0
 10
244.5788490879
 20
32.51165261
 10
244.6176963321
 20
33.5901029977
 10
244.7339581697
 20
34.7056351993
 10
244.9267969314
 20
35.8502117795
 10
245.1948232094
 20
37.015586038
 10
245.5361058683
 20
38.1933614264
 10
245.9481859588
 20
39.3750520462
 10
246.4280944343
 20
40.5521437894
 10
246.9723735432
 20
41.7161556828
 10
247.5771017422
 20
42.8587009943
 10
248.2379219507
 20
43.9715476586
 10
248.9500729439
 20
45.04667759
 10
249.7084236576
 20
46.0763444528
 10
250.5075101576
 20
47.0531294735
 10
251.3415750073
 20
47.9699948937
 10
252.2046087503
 20
48.8203346772
 10
253.0903932088
 20
49.5980221061
 10
253.9925462854
 20
50.2974539249
 10
254.9045679466
 20
50.9135907111
 10
255.8198870553
 20
51.4419931852
 10
256.7319087165
 20
51.8788541953
 10
257.6340617931
 20
52.2210261476
 10
258.5198462516
 20
52.4660436856
 10
259.3828799946
 20
52.6121414521
 10
260.2169448443
 20
52.6582668094
 10
261.0160313443
 20
52.6040874234
 10
261.774382058
 20
52.4499936576
 10
262.4865330512
 20
52.1970957612
 10
263.1473532597
 20
51.8472158694
 10
263.7520814587
 20
51.4028748748
 10
264.2963605677
 20
50.8672742644
 10
264.7762690431
 20
50.244273053
 10
265.1883491336
 20
49.5383599784
 10
265.5296317925
 20
48.7546211607
 10
265.7976580706
 20
47.8987034558
 10
265.9904968322
 20
46.9767737706
 10
266.1067586698
 20
45.9954746295
 10
266.1456059141
 20
44.9618763153
 10
266.1067586698
 20
43.8834259276
 10
265.9904968322
 20
42.767893726
 10
265.8354022163
 20
41.817539386
  0
LWPOLYLINE
  5
232
330
1F
100
AcDbEntity
  8
0
  6
Continuous
 62
     7
370
     0
100
AcDbPolyline
 90
       23
 70
   128
 43
0.0
 10
257.9317811633
 20
28.1265827148
 10
257.6340617931
 20
27.8755068192
 10
256.7319087165
 20
27.1760750004
 10
255.8198870553
 20
26.5599382142
 10
254.9045679466
 20
26.0315357401
 10
253.9925462854
 20
25.59467473
 10
253.0903932088
 20
25.2525027777
 10
252.2046087503
 20
25.0074852398
 10
251.3415750073
 20
24.8613874732
 10
250.5075101576
 20
24.8152621159
 10
249.7084236576
 20
24.8694415019
 10
248.9500729439
 20
25.0235352677
 10
248.2379219507
 20
25.2764331641
 10
247.5771017422
 20
25.6263130559
 10
246.9723735432
 20
26.0706540505
 10
246.4280944343
 20
26.6062546609
 10
245.9481859588
 20
27.2292558723
 10
245.5361058683
 20
27.9351689469
 10
245.1948232094
 20
28.7189077646
 10
244.9267969314
 20
29.5748254695
 10
244.7339581697
 20
30.4967551547
 10
244.6176963321
 20
31.4780542958
 10
244.5788490879
 20
32.51165261
  0
LWPOLYLINE
  5
233
330
1F
100
AcDbEntity
  8
0
  6
Continuous
 62
     7
370
     0
100
AcDbPolyline
 90
       28
 70
   128
 43
0.0
 10
243.8717423067
 20
32.51165261
 10
243.910801094
 20
33.6103411606
 10
244.0277034868
 20
34.7464195163
 10
244.2216294987
 20
35.9119189039
 10
244.491218878
 20
37.0986641826
 10
244.834580649
 20
38.2983311868
 10
245.2493063756
 20
39.5025051144
 10
245.7324870547
 20
40.7027395507
 10
246.2807335211
 20
41.8906157134
 10
246.8902002197
 20
43.0578015046
 10
247.5566121796
 20
44.1961099548
 10
248.2752949996
 20
45.2975566479
 10
249.0412076361
 20
46.3544157269
 10
249.8489777623
 20
47.3592740846
 10
250.6929394512
 20
48.3050833616
 10
251.5671729178
 20
49.1852093855
 10
252.4655460426
 20
49.9934787045
 10
253.3817573836
 20
50.7242218901
 10
254.3093803764
 20
51.3723133039
 10
255.2419084124
 20
51.9332070503
 10
256.1728004773
 20
52.4029688627
 10
257.0955270322
 20
52.7783036994
 10
258.0036158132
 20
53.0565788563
 10
258.8906972301
 20
53.2358424331
 10
259.7505490439
 20
53.3148370246
 10
260.5771400122
 20
53.2930085404
 10
261.3646721931
 20
53.1705100918
 10
261.5353640851
 20
53.1292900105
  0
ARC
  5
234
330
1F
100
AcDbEntity
  8
0
  6
Continuous
 62
     7
370
     0
100
AcDbCircle
 10
252.6593448828
 20
31.9379964561
 30
0.0
 40
8.806306854669767
100
AcDbArc
 50
176.2650215301
 51
220.6394299263
  0
LWPOLYLINE
  5
235
330
1F
100
AcDbEntity
  8
0
  6
Continuous
 62
     7
370
     0
100
AcDbPolyline
 90
       30
 70
   128
 43
0.0
 10
248.2911596891
 20
34.6547239035
 10
248.331218701
 20
35.5457791695
 10
248.450941852
 20
36.472989574
 10
248.6489726311
 20
37.4258494524
 10
248.9230672703
 20
38.3935625218
 10
249.2701201678
 20
39.3651642063
 10
249.6861990758
 20
40.3296458706
 10
250.1665896538
 20
41.276079552
 10
250.7058488847
 20
42.1937417789
 10
251.2978667459
 20
43.0722350714
 10
251.9359354385
 20
43.9016057495
 10
252.6128253893
 20
44.6724567121
 10
253.3208671646
 20
45.3760539097
 10
254.0520383682
 20
46.004425305
 10
254.7980545381
 20
46.5504511989
 10
255.5504630132
 20
47.0079448999
 10
256.3007387047
 20
47.3717228216
 10
257.0403806893
 20
47.6376632147
 10
257.7610085277
 20
47.8027528683
 10
258.4544572185
 20
47.8651212506
 10
259.1128697111
 20
47.8240617031
 10
259.7287859287
 20
47.6800394468
 10
260.2952272946
 20
47.4346863113
 10
260.8057758017
 20
47.0907822457
 10
261.2546467314
 20
46.6522238206
 10
261.6367541967
 20
46.1239800781
 10
261.9477687674
 20
45.5120362309
 10
262.1841665241
 20
44.8233258473
 10
262.3432689857
 20
44.0656522912
 10
262.3621462138
 20
43.9331514929
  0
LWPOLYLINE
  5
236
330
1F
100
AcDbEntity
  8
0
  6
Continuous
 62
     7
370
     0
100
AcDbPolyline
 90
       15
 70
   128
 43
0.0
 10
254.3627963527
 20
30.0763696948
 10
254.0520383682
 20
29.9563914466
 10
253.3208671646
 20
29.7405705393
 10
252.6128253893
 20
29.6266801039
 10
251.9359354385
 20
29.6160105645
 10
251.2978667459
 20
29.7086828112
 10
250.7058488847
 20
29.9036468305
 10
250.1665896538
 20
30.198693602
 10
249.6861990758
 20
30.5904801281
 10
249.2701201678
 20
31.0745673108
 10
248.9230672703
 20
31.6454702488
 10
248.6489726311
 20
32.2967203839
 10
248.450941852
 20
33.0209387916
 10
248.331218701
 20
33.8099197882
 10
248.2911596891
 20
34.6547239035
  0
LWPOLYLINE
  5
237
330
1F
100
AcDbEntity
  8
0
  6
Continuous
 62
     7
370
     0
100
AcDbPolyline
 90
       21
 70
   128
 43
0.0
 10
241.7728957873
 20
39.39082166
 10
242.0672231134
 20
40.4942701659
 10
242.4334018932
 20
41.6046638069
 10
242.8684356306
 20
42.7129160644
 10
243.3687643789
 20
43.8099579434
 10
243.9302938727
 20
44.8868121849
 10
244.5484290315
 20
45.9346667284
 10
245.2181115622
 20
46.9449468223
 10
245.9338613517
 20
47.9093851926
 10
246.6898213119
 20
48.8200896946
 10
247.4798053083
 20
49.6696078964
 10
248.297348783
 20
50.4509880624
 10
249.1357616546
 20
51.1578360411
 10
249.9881830642
 20
51.784367589
 10
250.8476375191
 20
52.3254557041
 10
251.707091974
 20
52.7766725809
 10
252.5595133837
 20
53.1343258435
 10
253.3979262553
 20
53.3954887617
 10
254.21546973
 20
53.5580241997
 10
255.0054537264
 20
53.6206021057
 10
255.3921429072
 20
53.614009743
  0
LWPOLYLINE
  5
238
330
1F
100
AcDbEntity
  8
0
  6
Continuous
 62
     7
370
     0
100
AcDbPolyline
 90
        8
 70
   128
 43
0.0
 10
251.1195868138
 20
34.6547239035
 10
251.1592917307
 20
33.9050460961
 10
251.2778491112
 20
33.2117344429
 10
251.4735946697
 20
32.5845215199
 10
251.7437805675
 20
32.0322120217
 10
252.084613987
 20
31.5625591628
 10
252.4913103741
 20
31.18215584
 10
252.7767661328
 20
30.9919654518
  0
LWPOLYLINE
  5
239
330
1F
100
AcDbEntity
  8
0
  6
Continuous
 62
     7
370
     0
100
AcDbPolyline
 90
       21
 70
   128
 43
0.0
 10
260.7761159939
 20
44.8487472499
 10
260.3407561589
 20
45.05049906
 10
259.7962021075
 20
45.1873364728
 10
259.2092572304
 20
45.2221614142
 10
258.5881609471
 20
45.1544850183
 10
257.9416320881
 20
44.9852573132
 10
257.2787465011
 20
44.7168538851
 10
256.6088096469
 20
44.3530425297
 10
255.9412259703
 20
43.898930361
 10
255.2853668828
 20
43.3608921184
 10
254.6504392084
 20
42.7464806794
 10
254.0453559397
 20
42.0643210339
 10
253.4786111195
 20
41.3239892078
 10
252.9581606029
 20
40.5358778373
 10
252.4913103741
 20
39.7110502785
 10
252.084613987
 20
38.8610853021
 10
251.7437805675
 20
37.9979145534
 10
251.4735946697
 20
37.1336550575
 10
251.2778491112
 20
36.2804391233
 10
251.1592917307
 20
35.4502440322
 10
251.1195868138
 20
34.6547239035
  0
LWPOLYLINE
  5
23A
330
1F
100
AcDbEntity
  8
0
  6
Continuous
 62
     7
370
     0
100
AcDbPolyline
 90
       15
 70
   128
 43
0.0
 10
258.3288717554
 20
31.6852475801
 10
258.6113208813
 20
31.3243855105
 10
258.960828432
 20
31.0592704306
 10
259.3689066282
 20
30.8963406513
 10
259.8256453045
 20
30.8395529168
 10
260.3199525775
 20
30.8902863154
 10
260.8398242114
 20
31.0473087883
 10
261.372635141
 20
31.3068070498
 10
261.9054460706
 20
31.6624791933
 10
262.4253177046
 20
32.1056877328
 10
262.9196249776
 20
32.6256693635
 10
263.3763636539
 20
33.2097963489
 10
263.7844418501
 20
33.8438831847
 10
264.1339494008
 20
34.5125310932
 10
264.4163985267
 20
35.1995019821
  0
LWPOLYLINE
  5
23B
330
1F
100
AcDbEntity
  8
0
  6
Continuous
 62
     7
370
     0
100
AcDbPolyline
 90
       15
 70
   128
 43
0.0
 10
264.4162925793
 20
38.8489868842
 10
264.1338326806
 20
39.209790069
 10
263.7843254783
 20
39.4748552893
 10
263.3762576942
 20
39.6377462404
 10
262.9195380162
 20
39.6945076098
 10
262.4252564959
 20
39.64376112
 10
261.90541526
 20
39.4867389954
 10
261.3726370756
 20
39.2272540418
 10
260.8398588442
 20
38.8716070641
 10
260.3200174685
 20
38.4284338698
 10
259.825735719
 20
37.9084955752
 10
259.3690157279
 20
37.3244173042
 10
258.9609475545
 20
36.6903816251
 10
258.6114398961
 20
36.0217841705
 10
258.3289794857
 20
35.3348598008
  0
LWPOLYLINE
  5
23C
330
1F
100
AcDbEntity
  8
0
  6
Continuous
 62
     7
370
     0
100
AcDbPolyline
 90
       24
 70
   128
 43
0.0
 10
236.1867678865
 20
41.0698988113
 10
236.4935833642
 20
42.2912991983
 10
236.8767422864
 20
43.5225806828
 10
237.3334274855
 20
44.7546902949
 10
237.8602811939
 20
45.978568976
 10
238.4534297313
 20
47.1852181852
 10
239.1085119863
 20
48.365766061
 10
239.820711481
 20
49.5115326512
 10
240.5847917845
 20
50.6140937325
 10
241.3951350132
 20
51.665342749
 10
242.2457831367
 20
52.6575504154
 10
243.1304817833
 20
53.5834215471
 10
244.042726226
 20
54.4361486969
 10
244.9758092076
 20
55.2094622076
 10
245.9228702563
 20
55.8976763085
 10
246.8769461267
 20
56.4957309208
 10
247.8310219971
 20
56.9992288612
 10
248.7780830458
 20
57.4044681723
 10
249.7111660274
 20
57.708469341
 10
250.6234104701
 20
57.9089972055
 10
251.5081091168
 20
58.0045773891
 10
252.3587572402
 20
57.9945071405
 10
253.169100469
 20
57.8788605012
 10
253.521285413
 20
57.7919330928
  0
LWPOLYLINE
  5
23D
330
1F
100
AcDbEntity
  8
0
  6
Continuous
 62
     7
370
     0
100
AcDbPolyline
 90
       19
 70
   128
 43
0.0
 10
242.1661685388
 20
39.335041121
 10
242.4708534323
 20
40.4588840506
 10
242.850844304
 20
41.5892139735
 10
243.302822148
 20
42.716158095
 10
243.8228391924
 20
43.8298731935
 10
244.4063533817
 20
44.9206315954
 10
245.0482680481
 20
45.9789061409
 10
245.7429764291
 20
46.9954533984
 10
246.4844106384
 20
47.9613944006
 10
247.2660946663
 20
48.8682921974
 10
248.0812009432
 20
49.7082255477
 10
248.9226099755
 20
50.4738581072
 10
249.7829725294
 20
51.1585025071
 10
250.6547738231
 20
51.7561787643
 10
251.5303991637
 20
52.2616665138
 10
252.4022004574
 20
52.670550605
 10
253.2625630113
 20
52.9792596658
 10
254.1039720436
 20
53.1850972967
 10
254.5270776343
 20
53.2502974947
  0
LINE
  5
23E
330
1F
100
AcDbEntity
  8
0
  6
Continuous
 62
     7
370
     0
100
AcDbLine
 10
257.0592837758
 20
32.0563355108
 30
0.0
 11
257.1299944539
 21
31.7924452768
 31
0.0
  0
LWPOLYLINE
  5
23F
330
1F
100
AcDbEntity
  8
0
  6
Continuous
 62
     7
370
     0
100
AcDbPolyline
 90
        3
 70
   128
 43
0.0
 10
263.8875721305
 20
38.8282677394
 10
263.5971591675
 20
39.150573539
 10
263.3749649161
 20
39.3071212877
  0
LINE
  5
240
330
1F
100
AcDbEntity
  8
0
  6
Continuous
 62
     7
370
     0
100
AcDbLine
 10
242.1754911897
 20
32.7565057336
 30
0.0
 11
242.581272431
 21
32.9907582579
 31
0.0
  0
LWPOLYLINE
  5
241
330
1F
100
AcDbEntity
  8
0
  6
Continuous
 62
     7
370
     0
100
AcDbPolyline
 90
        3
 70
   128
 43
0.0
 10
243.1310152262
 20
32.7352912491
 10
243.075493342
 20
32.755381085
 10
242.581272431
 20
32.9907582579
  0
LWPOLYLINE
  5
242
330
1F
100
AcDbEntity
  8
0
  6
Continuous
 62
     7
370
     0
100
AcDbPolyline
 90
       13
 70
   128
 43
0.0
 10
258.9127117944
 20
31.4918071985
 10
259.0080936209
 20
31.4445925344
 10
259.4183272199
 20
31.3234901248
 10
259.8731259535
 20
31.3090840336
 10
260.3606150133
 20
31.4017504042
 10
260.8680660458
 20
31.5990697151
 10
261.3822294895
 20
31.8958899532
 10
261.889680522
 20
32.2844611334
 10
262.3771695818
 20
32.7546376507
 10
262.8319683153
 20
33.2941431826
 10
263.2422019143
 20
33.8888912238
 10
263.5971591675
 20
34.5233528855
 10
263.8875721305
 20
35.1809623551
  0
LINE
  5
243
330
1F
100
AcDbEntity
  8
0
  6
Continuous
 62
     7
370
     0
100
AcDbLine
 10
256.7687866181
 20
32.2240359504
 30
0.0
 11
257.0592837758
 21
32.0563355108
 31
0.0
  0
ARC
  5
244
330
1F
100
AcDbEntity
  8
0
  6
Continuous
 62
     7
370
     0
100
AcDbCircle
 10
241.8932832615
 20
34.0473598531
 30
0.0
 40
1.260847345342702
100
AcDbArc
 50
303.0695173616
 51
345.5982002291
  0
LINE
  5
245
330
1F
100
AcDbEntity
  8
0
  6
Continuous
 62
     7
370
     0
100
AcDbLine
 10
238.6876802633
 20
36.5448403112
 30
0.0
 11
243.0726707689
 21
34.0134391747
 31
0.0
  0
LINE
  5
246
330
1F
100
AcDbEntity
  8
0
  6
Continuous
 62
     7
370
     0
100
AcDbLine
 10
238.5684414478
 20
36.4759828311
 30
0.0
 11
238.6876802633
 21
36.5448403112
 31
0.0
  0
LINE
  5
247
330
1F
100
AcDbEntity
  8
0
  6
Continuous
 62
     7
370
     0
100
AcDbLine
 10
238.3121152396
 20
39.5072496182
 30
0.0
 11
238.3173031343
 21
39.8399150824
 31
0.0
  0
ARC
  5
248
330
1F
100
AcDbEntity
  8
0
  6
Continuous
 62
     7
370
     0
100
AcDbCircle
 10
246.9235385094
 20
39.4340858401
 30
0.0
 40
8.611734068717745
100
AcDbArc
 50
179.5132192781
 51
192.0755164153
  0
LWPOLYLINE
  5
249
330
1F
100
AcDbEntity
  8
0
  6
Continuous
 62
     7
370
     0
100
AcDbPolyline
 90
       18
 70
   128
 43
0.0
 10
218.4665993414
 20
54.8061290658
 10
218.507016786
 20
55.526669397
 10
218.6275478695
 20
56.2810166571
 10
218.8260417119
 20
57.0557095014
 10
219.0989561859
 20
57.8369235179
 10
219.4414211262
 20
58.6107179237
 10
219.8473252378
 20
59.3632843395
 10
220.3094251523
 20
60.0811931997
 10
220.8194746858
 20
60.7516334037
 10
221.3683719921
 20
61.3626409302
 10
221.946321986
 20
61.9033123354
 10
222.543011136
 20
62.3639993252
 10
223.1477915101
 20
62.7364809294
 10
223.7498707883
 20
63.014110205
 10
224.3385048516
 20
63.191932851
 10
224.9031895111
 20
63.2667756179
 10
225.4338479557
 20
63.237302935
 10
225.8518084688
 20
63.1303045535
  0
ARC
  5
24A
330
1F
100
AcDbEntity
  8
0
  6
Continuous
 62
     7
370
     0
100
AcDbCircle
 10
222.0285706968
 20
54.5810276001
 30
0.0
 40
3.569076996450006
100
AcDbArc
 50
176.3839586932
 51
222.8742618103
  0
LINE
  5
24B
330
1F
100
AcDbEntity
  8
0
  6
Continuous
 62
     7
370
     0
100
AcDbLine
 10
265.6152758282
 20
36.6908939477
 30
0.0
 11
265.4031437938
 21
36.8731433706
 31
0.0
  0
LWPOLYLINE
  5
24C
330
1F
100
AcDbEntity
  8
0
  6
Continuous
 62
     7
370
     0
100
AcDbPolyline
 90
        3
 70
   128
 43
0.0
 10
242.6361800473
 20
31.6618706663
 10
242.4652756708
 20
32.0017822773
 10
242.1661685388
 20
32.7618875854
  0
ARC
  5
24D
330
1F
100
AcDbEntity
  8
0
  6
Continuous
 62
     7
370
     0
100
AcDbCircle
 10
247.8172078729
 20
34.696014741
 30
0.0
 40
6.329446626771549
100
AcDbArc
 50
197.2632946531
 51
213.9657276469
  0
LINE
  5
24E
330
1F
100
AcDbEntity
  8
0
  6
Continuous
 62
     7
370
     0
100
AcDbLine
 10
242.581272431
 20
32.9907582579
 30
0.0
 11
238.3563094134
 21
35.429777492
 31
0.0
  0
LINE
  5
24F
330
1F
100
AcDbEntity
  8
0
  6
Continuous
 62
     7
370
     0
100
AcDbLine
 10
262.3979399738
 20
38.6080106082
 30
0.0
 11
265.4031437938
 21
36.8731433706
 31
0.0
  0
ARC
  5
250
330
1F
100
AcDbEntity
  8
0
  6
Continuous
 62
     7
370
     0
100
AcDbCircle
 10
242.8868803169
 20
35.6682615653
 30
0.0
 40
6.940380248549729
100
AcDbArc
 50
195.120102167
 51
223.991031993
  0
OLE2FRAME
  5
251
330
1F
100
AcDbEntity
  8
0
100
AcDbOle2Frame
 70
     2
  3
Paintbrush-Bild
 10
13.8511154363
 20
38.264191557
 30
0.0
 11
51.6290888628
 21
31.9806341108
 31
0.0
 71
     2
 72
     0
 73
     1
 90
    12928
310
80552BED0767C5B32B40DDAF6807D121434000000000000000006FFBDDFB85D0
310
4940DDAF6807D121434000000000000000006FFBDDFB85D04940416F4BD60AFB
310
3F4000000000000000002BED0767C5B32B40416F4BD60AFB3F40000000000000
310
0000000000000100000000010000010000000100000000000100000000320000
310
D0CF11E0A1B11AE1000000000000000000000000000000003E000300FEFF0900
310
0600000000000000000000000100000001000000000000000010000002000000
310
01000000FEFFFFFF0000000000000000FFFFFFFFFFFFFFFFFFFFFFFFFFFFFFFF
310
FFFFFFFFFFFFFFFFFFFFFFFFFFFFFFFFFFFFFFFFFFFFFFFFFFFFFFFFFFFFFFFF
310
FFFFFFFFFFFFFFFFFFFFFFFFFFFFFFFFFFFFFFFFFFFFFFFFFFFFFFFFFFFFFFFF
310
FFFFFFFFFFFFFFFFFFFFFFFFFFFFFFFFFFFFFFFFFFFFFFFFFFFFFFFFFFFFFFFF
310
FFFFFFFFFFFFFFFFFFFFFFFFFFFFFFFFFFFFFFFFFFFFFFFFFFFFFFFFFFFFFFFF
310
FFFFFFFFFFFFFFFFFFFFFFFFFFFFFFFFFFFFFFFFFFFFFFFFFFFFFFFFFFFFFFFF
310
FFFFFFFFFFFFFFFFFFFFFFFFFFFFFFFFFFFFFFFFFFFFFFFFFFFFFFFFFFFFFFFF
310
FFFFFFFFFFFFFFFFFFFFFFFFFFFFFFFFFFFFFFFFFFFFFFFFFFFFFFFFFFFFFFFF
310
FFFFFFFFFFFFFFFFFFFFFFFFFFFFFFFFFFFFFFFFFFFFFFFFFFFFFFFFFFFFFFFF
310
FFFFFFFFFFFFFFFFFFFFFFFFFFFFFFFFFFFFFFFFFFFFFFFFFFFFFFFFFFFFFFFF
310
FFFFFFFFFFFFFFFFFFFFFFFFFFFFFFFFFFFFFFFFFFFFFFFFFFFFFFFFFFFFFFFF
310
FFFFFFFFFFFFFFFFFFFFFFFFFFFFFFFFFFFFFFFFFFFFFFFFFFFFFFFFFFFFFFFF
310
FFFFFFFFFFFFFFFFFFFFFFFFFFFFFFFFFFFFFFFFFFFFFFFFFFFFFFFFFFFFFFFF
310
FFFFFFFFFFFFFFFFFFFFFFFFFFFFFFFFFFFFFFFFFFFFFFFFFFFFFFFFFFFFFFFF
310
FDFFFFFFFEFFFFFFFEFFFFFFFEFFFFFF05000000060000000700000008000000
310
090000000A0000000B0000000C0000000D0000000E0000000F00000010000000
310
11000000120000001300000014000000150000001600000017000000FEFFFFFF
310
FFFFFFFFFFFFFFFFFFFFFFFFFFFFFFFFFFFFFFFFFFFFFFFFFFFFFFFFFFFFFFFF
310
FFFFFFFFFFFFFFFFFFFFFFFFFFFFFFFFFFFFFFFFFFFFFFFFFFFFFFFFFFFFFFFF
310
FFFFFFFFFFFFFFFFFFFFFFFFFFFFFFFFFFFFFFFFFFFFFFFFFFFFFFFFFFFFFFFF
310
FFFFFFFFFFFFFFFFFFFFFFFFFFFFFFFFFFFFFFFFFFFFFFFFFFFFFFFFFFFFFFFF
310
FFFFFFFFFFFFFFFFFFFFFFFFFFFFFFFFFFFFFFFFFFFFFFFFFFFFFFFFFFFFFFFF
310
FFFFFFFFFFFFFFFFFFFFFFFFFFFFFFFFFFFFFFFFFFFFFFFFFFFFFFFFFFFFFFFF
310
FFFFFFFFFFFFFFFFFFFFFFFFFFFFFFFFFFFFFFFFFFFFFFFFFFFFFFFFFFFFFFFF
310
FFFFFFFFFFFFFFFFFFFFFFFFFFFFFFFFFFFFFFFFFFFFFFFFFFFFFFFFFFFFFFFF
310
FFFFFFFFFFFFFFFFFFFFFFFFFFFFFFFFFFFFFFFFFFFFFFFFFFFFFFFFFFFFFFFF
310
FFFFFFFFFFFFFFFFFFFFFFFFFFFFFFFFFFFFFFFFFFFFFFFFFFFFFFFFFFFFFFFF
310
FFFFFFFFFFFFFFFFFFFFFFFFFFFFFFFFFFFFFFFFFFFFFFFFFFFFFFFFFFFFFFFF
310
FFFFFFFFFFFFFFFFFFFFFFFFFFFFFFFFFFFFFFFFFFFFFFFFFFFFFFFFFFFFFFFF
310
FFFFFFFFFFFFFFFFFFFFFFFFFFFFFFFFFFFFFFFFFFFFFFFFFFFFFFFFFFFFFFFF
310
52006F006F007400200045006E00740072007900000000000000000000000000
310
0000000000000000000000000000000000000000000000000000000000000000
310
16000500FFFFFFFFFFFFFFFF020000000A00030000000000C000000000000046
310
000000000000000000000000504F4C57CB22D20103000000C000000000000000
310
01004F006C006500000000000000000000000000000000000000000000000000
310
0000000000000000000000000000000000000000000000000000000000000000
310
0A000200FFFFFFFFFFFFFFFFFFFFFFFF00000000000000000000000000000000
310
0000000000000000000000000000000000000000000000001400000000000000
310
010043006F006D0070004F0062006A0000000000000000000000000000000000
310
0000000000000000000000000000000000000000000000000000000000000000
310
120002010100000003000000FFFFFFFF00000000000000000000000000000000
310
0000000000000000000000000000000000000000010000004D00000000000000
310
01004F006C006500310030004E00610074006900760065000000000000000000
310
0000000000000000000000000000000000000000000000000000000000000000
310
1A000200FFFFFFFFFFFFFFFFFFFFFFFF00000000000000000000000000000000
310
0000000000000000000000000000000000000000040000002426000000000000
310
FEFFFFFF02000000FEFFFFFFFFFFFFFFFFFFFFFFFFFFFFFFFFFFFFFFFFFFFFFF
310
FFFFFFFFFFFFFFFFFFFFFFFFFFFFFFFFFFFFFFFFFFFFFFFFFFFFFFFFFFFFFFFF
310
FFFFFFFFFFFFFFFFFFFFFFFFFFFFFFFFFFFFFFFFFFFFFFFFFFFFFFFFFFFFFFFF
310
FFFFFFFFFFFFFFFFFFFFFFFFFFFFFFFFFFFFFFFFFFFFFFFFFFFFFFFFFFFFFFFF
310
FFFFFFFFFFFFFFFFFFFFFFFFFFFFFFFFFFFFFFFFFFFFFFFFFFFFFFFFFFFFFFFF
310
FFFFFFFFFFFFFFFFFFFFFFFFFFFFFFFFFFFFFFFFFFFFFFFFFFFFFFFFFFFFFFFF
310
FFFFFFFFFFFFFFFFFFFFFFFFFFFFFFFFFFFFFFFFFFFFFFFFFFFFFFFFFFFFFFFF
310
FFFFFFFFFFFFFFFFFFFFFFFFFFFFFFFFFFFFFFFFFFFFFFFFFFFFFFFFFFFFFFFF
310
FFFFFFFFFFFFFFFFFFFFFFFFFFFFFFFFFFFFFFFFFFFFFFFFFFFFFFFFFFFFFFFF
310
FFFFFFFFFFFFFFFFFFFFFFFFFFFFFFFFFFFFFFFFFFFFFFFFFFFFFFFFFFFFFFFF
310
FFFFFFFFFFFFFFFFFFFFFFFFFFFFFFFFFFFFFFFFFFFFFFFFFFFFFFFFFFFFFFFF
310
FFFFFFFFFFFFFFFFFFFFFFFFFFFFFFFFFFFFFFFFFFFFFFFFFFFFFFFFFFFFFFFF
310
FFFFFFFFFFFFFFFFFFFFFFFFFFFFFFFFFFFFFFFFFFFFFFFFFFFFFFFFFFFFFFFF
310
FFFFFFFFFFFFFFFFFFFFFFFFFFFFFFFFFFFFFFFFFFFFFFFFFFFFFFFFFFFFFFFF
310
FFFFFFFFFFFFFFFFFFFFFFFFFFFFFFFFFFFFFFFFFFFFFFFFFFFFFFFFFFFFFFFF
310
FFFFFFFFFFFFFFFFFFFFFFFFFFFFFFFFFFFFFFFFFFFFFFFFFFFFFFFFFFFFFFFF
310
0100000200000000000000000000000000000000000000000000000000000000
310
0000000000000000000000000000000000000000000000000000000000000000
310
0100FEFF030A0000FFFFFFFF0A00030000000000C00000000000004607000000
310
5042727573680007000000504272757368000700000050427275736800F439B2
310
7100000000000000000000000000000000000000000000000000000000000000
310
0000000000000000000000000000000000000000000000000000000000000000
310
0000000000000000000000000000000000000000000000000000000000000000
310
0000000000000000000000000000000000000000000000000000000000000000
310
0000000000000000000000000000000000000000000000000000000000000000
310
0000000000000000000000000000000000000000000000000000000000000000
310
0000000000000000000000000000000000000000000000000000000000000000
310
0000000000000000000000000000000000000000000000000000000000000000
310
0000000000000000000000000000000000000000000000000000000000000000
310
0000000000000000000000000000000000000000000000000000000000000000
310
0000000000000000000000000000000000000000000000000000000000000000
310
0000000000000000000000000000000000000000000000000000000000000000
310
20260000424D0E260000000000003E00000028000000B40200006E0000000100
310
01000000000000000000130B0000130B00000200000002000000000000FFFFFF
310
FFFFFFFFFFFFFFFFFFFFFFFFFFFFFFFFFFFFFFFFFFFFFFFFFFFFFFFFFFFFFFFF
310
FFFFFFFFFFFFFFFFFFFFFFFFFFFFFFFFFFFFFFFFFFFFFFFFFFFFFFFFFFFFFFFF
310
FFFFFFFFFFFFFFFFFFFFFFFFFFFFFFFFFFFFFFFFFFFFFFFFF000FFFFFFFFFFFF
310
FFFFFFFFFFFFFFFFFFFFFFFFFFFFFFFFFFFFFFFFFFFFFFFFFFFFFFFFFFFFFFFF
310
FFFFFFFFFFFFFFFFFFFFFFFFFFFFFFFFFFFFFFFFFFFFFFFFFFFFFFFFFFFFFFFF
310
FFFFFFFFFFFFFFFFFFFFFFFFFFFFFFFFF000FFFFFFFFFFFFFFFFFFFFFFFFFFFF
310
FFFFFFFFFFFFFFFFFFFFFFFFFFFFFFFFFFFFFFFFFFFFFFFFFFFFFFFFFFFFFFFF
310
FFFFFFFFFFFFFFFFFFFFFFFFFFFFFFFFFFFFFFFFFFFFFFFFFFFFFFFFFFFFFFFF
310
FFFFFFFFFFFFFFFFF000FFFFFFFFFFFFFFFFFFFFFFFFFFFFFFFFFFFFFFFFFFFF
310
FFFFFFFFFFFFFFFFFFFFFFFFFFFFFFFFFFFFFFFFFFFFFFFFFFFFFFFFFFFFFFFF
310
FFFFFFFFFFFFFFFFFFFFFFFFFFFFFFFFFFFFFFFFFFFFFFFFFFFFFFFFFFFFFFFF
310
F000FFFFFFFFFFFFFFFFFFFFFFFFFFFFFFFFFFFFFFFFFFFFFFFFFFFFFFFFFFFF
310
FFFFFFFFFFFFFFFFFFFFFFFFFFFFFFFFFFFFFFFFFFFFFFFFFFFFFFFFFFFFFFFF
310
FFFFFFFFFFFFFFFFFFFFFFFFFFFFFFFFFFFFFFFFFFFFFFFFF000FFFFFFFFFFFF
310
FFFFFFFFFFFFFFFFFFFFFFFFFFFFFFFFFFFFFFFFFFFFFFFFFFFFFFFFFFFFFFFF
310
FFFFFFFFFFFFFFFFFFFFFFFFFFFFFFFFFFFFFFFFFFFFFFFFFFFFFFFFFFFFFFFF
310
FFFFFFFFFFFFFFFFFFFFFFFFFFFFFFFFF000FFFFFFFFFFFFFFFFFFFFFFFFFFFF
310
FFFFFFFFFFFFFFFFFFFFFFFFFFFFFFFFFFFFFFFFFFFFFFFFFFFFFFFFFFFFFFFF
310
FFFFFFFFFFFFFFFFFFFFFFFFFFFFFFFFFFFFFFFFFFFFFFFFFFFFFFFFFFFFFFFF
310
FFFFFFFFFFFFFFFFF000FFFFFFFFFFFFFFFFFFFFFFFFFFFFFFFFFFFFFFFFFFFF
310
FFFFFFFFFFFFFFFFFFFFFFFFFFFFFFFFFFFFFFFFFFFFFFFFFFFFFFFFFFFFFFFF
310
FFFFFFFFFFFFFFFFFFFFFFFFFFFFFFFFFFFFFFFFFFFFFFFFFFFFFFFFFFFFFFFF
310
F000FFFFFFFFFFFFFFFFFFFFFFFFFFFFFFFFFFFFFFFFFFFFFFFFFFFFFFFFFFFF
310
FFFFFFFFFFFFFFFFFFFFFFFFFFFFFFFFFFFFFFFFFFFFFFFFFFFFFFFFFFFFFFFF
310
FFFFFFFFFFFFFFFFFFFFFFFFFFFFFFFFFFFFFFFFFFFFFFFFF000FFFFFFFFFFFF
310
FFFFFFFFFFFFFFFFFFFFFFFFFFFFFFFFFFFFFFFFFFFFFFFFFFFFFFFFFFFFFFFF
310
FFFFFFFFFFFFFFFFFFFFFFFFFFFFFFFFFFFFFFFFFFFFFFFFFFFFFFFFFFFFFFFF
310
FFFFFFFFFFFFFFFFFFFFFFFFFFFFFFFFF000FFFFFFFFFFFFFFFFFFFFFFFFFFFF
310
FFFFFFFFFFFFFFFFFFFFFFFFFFFFFFFFFFFFFFFFFFFFFFFFFFFFFFFFFFFFFFFF
310
FFFFFFFFFFFFFFFFFFFFFFFFFFFFFFFFFFFFFFFFFFFFFFFFFFFFFFFFFFFFFFFF
310
FFFFFFFFFFFFFFFFF000FFFFFFFFFFFFFFFFFFFFFFFFFFFFFFFFFFFFFFFFFFFF
310
FFFFFFFFFFFFFFFFFFFFFFFFFFFFFFFFFFFFFFFFFFFFFFFFFFFFFFFFFFFFFFFF
310
FFFFFFFFFFFFFFFFFFFFFFFFFFFFFFFFFFFFFFFFFFFFFFFFFFFFFFFFFFFFFFFF
310
F000FFFFFFFFFFFFFFFFFFFFFFFFFFFFFFFFFFFFFFFFFFFFFFFFFFFFFFFFFFFF
310
FFFFFFFFFFFFFFFFFFFFFFFFFFFFFFFFFFFFFFFFFFFFFFFFFFFFFFFFFFFFFFFF
310
FFFFFFFFFFFFFFFFFFFFFFFFFFFFFFFFFFFFFFFFFFFFFFFFF000FFFFFFFFFFFF
310
FFFFFFFFFFFFFFFFFFFFFFFFFFFFFFFFFFFFFFFFFFFFFFFFFFFFFFFFFFFFFFFF
310
FFFFFFFFFFFFFFFFFFFFFFFFFFFFFFFFFFFFFFFFFFFFFFFFFFFFFFFFFFFFFFFF
310
FFFFFFFFFFFFFFFFFFFFFFFFFFFFFFFFF000FFFFFFFFFFFFFFFFFFFFFFFFFFFF
310
FFFFFFFFFFFFFFFFFFFFFFFFFFFFFFFFFFFFFFFFFFFFFFFFFFFFFFFFFFFFFFFF
310
FFFFFFFFFFFFFFFFFFFFFFFFFFFFFFFFFFFFFFFFFFFFFFFFFFFFFFFFFFFFFFFF
310
FFFFFFFFFFFFFFFFF000FFFFFFFFFFFFFFFFFFFFFFFFFFFFFFFFFFFFFFFFFFFF
310
FFFFFFFFFFFFFFFFFFFFFFFFFFFFFFFFFFFFFFFFFFFFFFFFFFFFFFFFFFFFFFFF
310
FFFFFFFFFFFFFFFFFFFFFFFFFFFFFFFFFFFFFFFFFFFFFFFFFFFFFFFFFFFFFFFF
310
F000FFFFFFFFFFFFFFFFFFFFFFFFFFFFFFFFFFFFFFFFFFFFFFFFFFFFFFFFFFFF
310
FFFFFFFFFFFFFFFFFFFFFFFFFFFFFFFFFFFFFFFFFFFFFFFFFFFFFFFFFFFFFFFF
310
FFFFFFFFFFFFFFFFFFFFFFFFFFFFFFFFFFFFFFFFFFFFFFFFF000FFFFFFFFFFFF
310
FFFFFFFFFFFFFFFFFFFFFFFFFFFFFFFFFFFFFFFFFFFFFFFFFFFFFFFFFFFFFFFF
310
FFFFFFFFFFFFFFFFFFFFFFFFFFFFFFFFFFFFFFFFFFFFFFFFFFFFFFFFFFFFFFFF
310
FFFFFFFFFFFFFFFFFFFFFFFFFFFFFFFFF000FFFFFFFFFFFFFFFFFFFFFFFFFFFF
310
FFFFFFFFFFFFFFFFFFFFFFFFFFFFFFFFFFFFFFFFFFFFFFFFFFFFFFFFFFFFFFFF
310
FFFFFFFFFFFFFFFFFFFFFFFFFFFFFFFFFFFFFFFFFFFFFFFFFFFFFFFFFFFFFFFF
310
FFFFFFFFFFFFFFFFF000FFFFF80003FFFFFFFFFFFFFFFFFFFFFFFFFFFFFFFFFF
310
FFFFF00007FFFFFFFFFF00007FFFFFF800000000000000007FFFFFFFFFFFFFFF
310
FFFFFFFC001FFFFFFFFFFFFFFC001FFFFFFFFFFFFFFFFFFFFFFFFFFE0007FFFF
310
F000FFFF8000007FFFFFFFF8000FFFFFC0007FFFFF80007FFFFF0000007FFFFF
310
FFF8000007FFFFF800000000000000007FFFFFF0001FFFFFFFFFFFC00001FFFF
310
FFFFFFFFC00001FFFFFFFF000000000003FFFFE000007FFFF000FFFE0000000F
310
FFFFFFF0000FFFFF80007FFFFF80007FFFFC0000001FFFFFFFC0000001FFFFF8
310
00000000000000007FFFFFF0001FFFFFFFFFFE0000003FFFFFFFFFFE0000003F
310
FFFFFF000000000003FFFF0000000FFFF000FFF800000003FFFFFFF00007FFFF
310
80007FFFFF80007FFFF000000007FFFFFF000000003FFFF80000000000000000
310
7FFFFFF0001FFFFFFFFFF80000000FFFFFFFFFF80000000FFFFFFF0000000000
310
03FFFC00000003FFF000FFE000000000FFFFFFF00007FFFF80003FFFFF80007F
310
FFC000000001FFFFFC000000001FFFF800000000000000007FFFFFF0001FFFFF
310
FFFFE000000003FFFFFFFFE000000003FFFFFF000000000003FFF000000000FF
310
F000FF80000000007FFFFFF00007FFFF80003FFFFF80007FFF8000000000FFFF
310
F80000000007FFF800000000000000007FFFFFF0001FFFFFFFFFC000000001FF
310
FFFFFFC000000001FFFFFF000000000003FFC0000000007FF000FF0000000000
310
3FFFFFE00007FFFF00003FFFFF80007FFE00000000003FFFF00000000003FFF8
310
00000000000000007FFFFFF0001FFFFFFFFF8000000000FFFFFFFF8000000000
310
FFFFFF000000000003FF80000000003FF000FE00000000001FFFFFE00003FFFF
310
00003FFFFF80007FFC00000000001FFFE00000000001FFF8000001FFFE000000
310
7FFFFFF0001FFFFFFFFE00000000003FFFFFFE00000000003FFFFF0000000000
310
03FF00000000001FF000FC00000000000FFFFFE00003FFFF00001FFFFF80007F
310
F800000000001FFFC00000000000FFF8000001FFFE0000007FFFFFF0001FFFFF
310
FFFC00000000001FFFFFFC00000000001FFFFF000000000003FE00000000000F
310
F000F8000000000007FFFFE00003FFFF00001FFFFF80007FF800000000000FFF
310
800000000000FFF8000001FFFE0000007FFFFFF0001FFFFFFFF800000000000F
310
FFFFF800000000000FFFFF000000000003FC000000000007F000F80000000000
310
03FFFFC00003FFFE00001FFFFF80007FF0000000000007FF0000000000007FF8
310
000001FFFE0000007FFFFFF0001FFFFFFFF0000000000007FFFFF00000000000
310
07FFFF000000000003F8000000000003F000F0000000000003FFFFC00001FFFE
310
00001FFFFF80007FE0000000000007FE0000000000003FF8000001FFFE000000
310
7FFFFFF0001FFFFFFFF0000000000007FFFFF0000000000007FFFF0000000000
310
03F800001F800003F000E00001FFF00001FFFFC00001FFFE00000FFFFF80007F
310
E00001FFE00003FE00001FFF00003FF8000001FFFE0000007FFFFFF0001FFFFF
310
FFE000003E000003FFFFE000003E000003FFFF000000000003F00001FFF80001
310
F000E00007FFFC0001FFFFC00001FFFE00000FFFFF80007FC0000FFFFC0003FC
310
0000FFFFC0001FF8000001FFFE0000007FFFFFF0001FFFFFFFC00003FFE00001
310
FFFFC00003FFE00001FFFF0001FFFFFFFFF00007FFFE0001F000E0000FFFFF00
310
00FFFF800001FFFC00000FFFFF80007FC0001FFFFE0001FC0001FFFFE0001FF8
310
000001FFFE0000007FFFFFF0001FFFFFFF80000FFFF80000FFFF80000FFFF800
310
00FFFF0003FFFFFFFFE0000FFFFF8000F000C0003FFFFF8000FFFF800000FFFC
310
000007FFFF80007F80003FFFFF0001FC0003FFFFF0001FF8000001FFFE000000
310
7FFFFFF0001FFFFFFF80003FFFFE0000FFFF80003FFFFE0000FFFF0003FFFFFF
310
FFE0003FFFFF8000F000C0003FFFFF8000FFFF800000FFFC000007FFFF80007F
310
80007FFFFF8001F80007FFFFF8000FF8000001FFFE0000007FFFFFF0001FFFFF
310
FF00007FFFFF00007FFF00007FFFFF00007FFF0003FFFFFFFFE0003FFFFFC000
310
F000C0007FFFFFC000FFFF000000FFFC000007FFFF80007F8000FFFFFF8000F8
310
000FFFFFF8000FF8000001FFFE0000007FFFFFF0001FFFFFFF0000FFFFFF8000
310
7FFF0000FFFFFF80007FFF0003FFFFFFFFC0007FFFFFC00070008000FFFFFFC0
310
00FFFF000000FFF8000007FFFF80007F8000FFFFFF8000F8000FFFFFF8000FF8
310
000001FFFE0000007FFFFFF0001FFFFFFE0001FFFFFFC0003FFE0001FFFFFFC0
310
003FFF0003FFFFFFFFC0007FFFFFE00070008000FFFFFFC0007FFF0000007FF8
310
000003FFFF80007F0001FFFFFF8000F8000FFFFFF8000FF8000001FFFE000000
310
7FFFFFF0001FFFFFFE0001FFFFFFC0003FFE0001FFFFFFC0003FFF0003FFFFFF
310
FFC000FFFFFFE00070008000FFFFFFC0007FFF0000007FF8000003FFFF80007F
310
0001FFFFFF8000F8001FFFFFF8000FF8000001FFFE0000007FFFFFF0001FFFFF
310
FE0003FFFFFFE0003FFE0003FFFFFFE0003FFF0003FFFFFFFFC000FFFFFFE000
310
70008000FFFFFFC0007FFE0000007FF8000003FFFF80007F0001FFFFFF8000F0
310
001FFFFFF8000FF8000001FFFE0000007FFFFFF0001FFFFFFC0003FFFFFFE000
310
1FFC0003FFFFFFE0001FFF0003FFFFFFFFC000FFFFFFC00070008000FFFFFF80
310
007FFE0000007FF0000003FFFF80007F0001FFFFFF0000F0001FFFFFF8000FF8
310
000001FFFE0000007FFFFFF0001FFFFFFC0007FFFFFFF0001FFC0007FFFFFFF0
310
001FFF0003FFFFFFFFC000FFFFFFC00070008001FFFFFF0000FFFE0000003FF0
310
000001FFFF80007F0001FFFFFF0000F8001FFFFFF0000FF8000001FFFE000000
310
7FFFFFF0001FFFFFFC0007FFFFFFF0001FFC0007FFFFFFF0001FFF0003FFFFFF
310
FFC001FFFFFF80007000FFFFFFFFFE0000FFFE0008003FF0008001FFFF80007F
310
FFFFFFFFFC0000FFFFFFFFFFE0000FF8000001FFFE0000007FFFFFF0001FFFFF
310
F8000FFFFFFFF8000FF8000FFFFFFFF8000FFF0003FFFFFFFFFFFFFFFFFF0000
310
7000FFFFFFFFFC0000FFFC0008003FF0008001FFFF80007FFFFFFFFFF80001FF
310
FFFFFFFF80000FF8000001FFFE0000007FFFFFF0001FFFFFF8000FFFFFFFF800
310
0FF8000FFFFFFFF8000FFF0003FFFFFFFFFFFFFFFFFE0000F000FFFFFFFFE000
310
00FFFC000C003FE000C001FFFF80007FFFFFFFFFC00001FFFFFFFFFE00001FF8
310
000001FFFE0000007FFFFFF0001FFFFFF8000FFFFFFFF8000FF8000FFFFFFFF8
310
000FFF0003FFFFFFFFFFFFFFFFF00000F000FFFFFFFE000001FFFC000C001FE0
310
00C000FFFF80007FFFFFFFFE000001FFFFFFFFE000001FF80FFFFFFFFFFFFFC0
310
7FFFFFF0001FFFFFF8000FFFFFFFF8000FF8000FFFFFFFF8000FFF0003FFFFFF
310
FFFFFFFFFF800000F000FFFFFFC0000001FFFC001C001FE001C000FFFF80007F
310
FFFFFF80000003FFFFFFF80000001FF80FFFFFFFFFFFFFC07FFFFFF0001FFFFF
310
F8001FFFFFFFFC000FF8001FFFFFFFFC000FFF0003FFFFFFFFFFFFFFF0000001
310
F000FFFFF800000001FFF8001C001FE001C000FFFF80007FFFFFF800000003FF
310
FFFF800000003FF80FFFFFFFFFFFFFC07FFFFFF0001FFFFFF8001FFFFFFFFC00
310
0FF8001FFFFFFFFC000FFF0003FFFFFFFFFFFFFE00000001F000FFFFC0000000
310
03FFF8001E001FC001E000FFFF80007FFFFF8000000007FFFFFC000000003FF8
310
0FFFFFFFFFFFFFC07FFFFFF0001FFFFFF8001FFFFFFFFC000FF8001FFFFFFFFC
310
000FFF0003FFFFFFFFFFFFE000000003F000FFFE0000000007FFF8001E000FC0
310
01E0007FFF80007FFFFE0000000007FFFFE0000000007FF80FFFFFFFFFFFFFC0
310
7FFFFFF0001FFFFFF0001FFFFFFFFC0007F0001FFFFFFFFC0007FF0003FFFFFF
310
FFFFFF0000000003F000FFF80000000007FFF8001E000FC003E0007FFF80007F
310
FFF0000000000FFFFF8000000000FFF80FFFFFFFFFFFFFC07FFFFFF0001FFFFF
310
F0001FFFFFFFFC0007F0001FFFFFFFFC0007FF0003FFFFFFFFFFFC0000000007
310
F000FFE0000000000FFFF0003E000FC003E0007FFF80007FFFC0000000001FFF
310
FE0000000001FFF80FFFFFFFFFFFFFC07FFFFFF0001FFFFFF0001FFFFFFFFC00
310
07F0001FFFFFFFFC0007FF0003FFFFFFFFFFF0000000000FF000FFC000000000
310
1FFFF0003F000F8003F0003FFF80007FFF80000000003FFFF80000000003FFF8
310
0FFFFFFFFFFFFFC07FFFFFF0001FFFFFF0001FFFFFFFFC0007F0001FFFFFFFFC
310
0007FF0003FFFFFFFFFFE0000000001FF000FF00000000007FFFF0003F000780
310
03F0003FFF80007FFF00000000007FFFF00000000007FFF80FFFFFFFFFFFFFC0
310
7FFFFFF0001FFFFFF0001FFFFFFFFC0007F0001FFFFFFFFC0007FF0003FFFFFF
310
FFFF80000000007FF000FE0000000000FFFFE0003F00078007F0003FFF80007F
310
FE0000000001FFFFE0000000001FFFF80FFFFFFFFFFFFFC07FFFFFF0001FFFFF
310
F0001FFFFFFFFC0007F0001FFFFFFFFC0007FF0003FFFFFFFFFF0000000000FF
310
F000FC0000000003FFFFE0007F00078007F0003FFF80007FFC0000000007FFFF
310
C0000000007FFFF80FFFFFFFFFFFFFC07FFFFFF0001FFFFFF8001FFFFFFFFC00
310
0FF8001FFFFFFFFC000FFF0003FFFFFFFFFE0000000003FFF000FC000000000F
310
FFFFE0007F80070007F8001FFF80007FF8000000001FFFFF8000000001FFFFF8
310
0FFFFFFFFFFFFFC07FFFFFF0001FFFFFF8001FFFFFFFFC000FF8001FFFFFFFFC
310
000FFF0003FFFFFFFFFC000000000FFFF000F8000000007FFFFFE0007F800700
310
07F8001FFF80007FF000000000FFFFFF800000000FFFFFF80FFFFFFFFFFFFFC0
310
7FFFFFF0001FFFFFF8000FFFFFFFF8000FF8000FFFFFFFF8000FFF0003FFFFFF
310
FFFC000000007FFFF000F800000007FFFFFFC0007F8003000FF8001FFF80007F
310
F000000007FFFFFF000000007FFFFFF80FFFFFFFFFFFFFC07FFFFFF0001FFFFF
310
F8000FFFFFFFF8000FF8000FFFFFFFF8000FFF0003FFFFFFFFF80000000FFFFF
310
F000F0000000FFFFFFFFC000FF8003000FF8001FFF80007FE0000000FFFFFFFF
310
0000000FFFFFFFF8000001FFFE0000007FFFFFF0001FFFFFF8000FFFFFFFF800
310
0FF8000FFFFFFFF8000FFF0003FFFFFFFFF8000000FFFFFFF000F000000FFFFF
310
FFFFC000FFC002000FF8000FFF80007FE000001FFFFFFFFE000001FFFFFFFFF8
310
000001FFFE0000007FFFFFF0001FFFFFF8000FFFFFFFF8000FF8000FFFFFFFF8
310
000FFF0003FFFFFFFFF000001FFFFFFFF000E00000FFFFFFFFFFC000FFC00200
310
0FFC000FFF80007FE00001FFFFFFFFFE00001FFFFFFFFFF8000001FFFE000000
310
7FFFFFF0001FFFFFFC000FFFFFFFF8001FFC000FFFFFFFF8001FFF0003FFFFFF
310
FFF00001FFFFFFFFF000E00007FFFFFFFFFF8000FFC000001FFC000FFF80007F
310
C0000FFFFFFFFFFE0000FFFFFFFFFFF8000001FFFE0000007FFFFFF0001FFFFF
310
FC0007FFFFFFF0001FFC0007FFFFFFF0001FFF0003FFFFFFFFF00007FFFFFFFF
310
F000E0001FFFFFFFFFFF8000FFC000001FFC000FFF80007FC0003FFFFFFFFFFE
310
0001FFFFFFFFFFF8000001FFFE0000007FFFFFF0001FFFFFFC0007FFFFFFF000
310
1FFC0007FFFFFFF0001FFF0003FFFFFFFFF0001FFFFFFFFFF000E0003FFFFF00
310
03FF8001FFE000001FFC0007FF80007FC0007FFFFF0007FC0003FFFFF0003FF8
310
000001FFFE0000007FFFFFF0001FFFFFFC0003FFFFFFE0001FFC0003FFFFFFE0
310
001FFF0003FFFFFFFFF0003FFFFFFFFFF000E0003FFFFF0001FF8001FFE00000
310
1FFE0007FF80007FC0007FFFFE0003FC0007FFFFE0003FF8000001FFFE000000
310
7FFFFFF0001FFFFFFE0003FFFFFFE0003FFE0003FFFFFFE0003FFF0003FFFFFF
310
FFF0003FFFFF8001F000E0003FFFFF0001FF0001FFE000001FFE0007FF80007F
310
C0007FFFFE0003FC0007FFFFE0003FF8000001FFFE0000007FFFFFF0001FFFFF
310
FE0001FFFFFFC0003FFE0001FFFFFFC0003FFF0003FFFFFFFFF0003FFFFF0001
310
F000E0003FFFFF0003FF0001FFE000003FFE0007FF80007FC0007FFFFE0003FC
310
0007FFFFE0003FF8000001FFFE0000007FFFFFF0001FFFFFFF0001FFFFFFC000
310
7FFF0001FFFFFFC0007FFF0003FFFFFFFFF0003FFFFF0001F000E0003FFFFE00
310
03FF0003FFF000003FFE0003FF80007FC0007FFFFC0003FE0007FFFFE0003FF8
310
000001FFFE0000007FFFFFF0001FFFFFFF0000FFFFFF80007FFF0000FFFFFF80
310
007FFF0003FFFFFFFFF0003FFFFF0001F000E0003FFFFE0003FF0003FFF00000
310
3FFF0003FF80007FC0007FFFFC0007FE0007FFFFC0003FF8000001FFFE000000
310
7FFFFFF0001FFFFFFF80007FFFFF0000FFFF80007FFFFF0000FFFF0003FFFFFF
310
FFF0003FFFFF0003F000E0003FFFFC0003FE0003FFF000003FFF0003FF80007F
310
E0003FFFF80007FE0003FFFFC0007FF8000001FFFE0000007FFFFFF0001FFFFF
310
FF80003FFFFE0000FFFF80003FFFFE0000FFFF0003FFFFFFFFF0001FFFFE0003
310
F000F0001FFFF80003FE0003FFF000007FFF0001FF80007FE0003FFFF00007FE
310
0001FFFF80007FF8000001FFFE0000007FFFFFF0001FFFFFFFC0000FFFF80001
310
FFFFC0000FFFF80001FFFF0003FFFFFFFFF0001FFFFC0003F000F0000FFFF000
310
07FE0007FFF800007FFF0001FF80007FE0001FFFE00007FF0000FFFE00007FF8
310
000001FFFE0000007FFFFFF0001FFFFFFFC00003FFE00001FFFFC00003FFE000
310
01FFFF0003FFFFFFFFF8000FFFF80003F000F00003FFC00007FC0007FFF80000
310
7FFF8001FF80007FF00007FF80000FFF00007FF80000FFF8000001FFFE000000
310
7F80000000000001FFE000003E000003FFFFE000003E000003FFFF0003FFFFFF
310
FFF80003FFE00007F000F800000000000FFC0007FFF800007FFF8001FF80007F
310
F000000000000FFF000000000000FFF8000001FFFE0000007F80000000000001
310
FFF0000000000007FFFFF0000000000007FFFF0003FFFFFFFFFC00007E000007
310
F000F800000000000FFC0007FFF80000FFFF8000FF80007FF800000000001FFF
310
800000000001FFF8000001FFFE0000007F80000000000001FFF800000000000F
310
FFFFF800000000000FFFFF0003FFFFFFFFFC00000000000FF000FC0000000000
310
1FFC0007FFFC0000FFFF8000FF80007FF800000000003FFFC00000000001FFF8
310
000001FFFE0000007F80000000000001FFF800000000000FFFFFF80000000000
310
0FFFFF0003FFFFFFFFFE00000000001FF000FE00000000003FF8000FFFFC0000
310
FFFF8000FF80007FFC00000000003FFFC00000000003FFF8000001FFFE000000
310
7F80000000000001FFFC00000000001FFFFFFC00000000001FFFFF0003FFFFFF
310
FFFF00000000001FF000FF00000000003FF8000FFFFC0000FFFFC000FF80007F
310
FE00000000007FFFE00000000007FFF8000001FFFE0000007F80000000000001
310
FFFE00000000003FFFFFFE00000000003FFFFF0003FFFFFFFFFF80000000003F
310
F000FF80000000007FF8000FFFFC0001FFFFC0007F80007FFF0000000000FFFF
310
F0000000000FFFF800000000000000007F80000000000001FFFF8000000000FF
310
FFFFFF8000000000FFFFFF0003FFFFFFFFFFC0000000007FF000FFC000000000
310
FFF8000FFFFE0001FFFFC0007F80007FFF8000000001FFFFF8000000001FFFF8
310
00000000000000007F80000000000001FFFFC000000001FFFFFFFFC000000001
310
FFFFFF0003FFFFFFFFFFE000000000FFF000FFE000000003FFF0001FFFFE0001
310
FFFFC0007F80007FFFC000000007FFFFFE000000003FFFF80000000000000000
310
7F80000000000001FFFFE000000003FFFFFFFFE000000003FFFFFF0003FFFFFF
310
FFFFF000000003FFF000FFF80000000FFFF0001FFFFE0001FFFFE0007F80007F
310
FFF00000000FFFFFFF00000000FFFFF800000000000000007F80000000000001
310
FFFFF80000000FFFFFFFFFF80000000FFFFFFF0003FFFFFFFFFFFC0000000FFF
310
F000FFFE0000003FFFF0001FFFFE0003FFFFE0003F80007FFFFC0000003FFFFF
310
FFC0000003FFFFF800000000000000007F80000000000001FFFFFE0000003FFF
310
FFFFFFFE0000003FFFFFFF0003FFFFFFFFFFFF0000003FFFF000FFFF800000FF
310
FFF0001FFFFF0003FFFFE0003F80007FFFFF000001FFFFFFFFF800001FFFFFF8
310
00000000000000007F80000000000001FFFFFFC00001FFFFFFFFFFFFC00001FF
310
FFFFFF0003FFFFFFFFFFFFC00000FFFFF000FFFFF8000FFFFFFFFFFFFFFFFFFF
310
FFFFFFFFFFFFFFFFFFFFF0001FFFFFFFFFFF0000FFFFFFF80000000000000000
310
7FFFFFFFFFFFFFFFFFFFFFFC001FFFFFFFFFFFFFFC001FFFFFFFFFFFFFFFFFFF
310
FFFFFFFC001FFFFFF000FFFFFFFFFFFFFFFFFFFFFFFFFFFFFFFFFFFFFFFFFFFF
310
FFFFFFFFFFFFFFFFFFFFFFFFFFFFFFFFFFFFFFFFFFFFFFFFFFFFFFFFFFFFFFFF
310
FFFFFFFFFFFFFFFFFFFFFFFFFFFFFFFFFFFFFFFFFFFFFFFFFFFFFFFFFFFFFFFF
310
F000FFFFFFFFFFFFFFFFFFFFFFFFFFFFFFFFFFFFFFFFFFFFFFFFFFFFFFFFFFFF
310
FFFFFFFFFFFFFFFFFFFFFFFFFFFFFFFFFFFFFFFFFFFFFFFFFFFFFFFFFFFFFFFF
310
FFFFFFFFFFFFFFFFFFFFFFFFFFFFFFFFFFFFFFFFFFFFFFFFF000FFFFFFFFFFFF
310
FFFFFFFFFFFFFFFFFFFFFFFFFFFFFFFFFFFFFFFFFFFFFFFFFFFFFFFFFFFFFFFF
310
FFFFFFFFFFFFFFFFFFFFFFFFFFFFFFFFFFFFFFFFFFFFFFFFFFFFFFFFFFFFFFFF
310
FFFFFFFFFFFFFFFFFFFFFFFFFFFFFFFFF000FFFFFFFFFFFFFFFFFFFFFFFFFFFF
310
FFFFFFFFFFFFFFFFFFFFFFFFFFFFFFFFFFFFFFFFFFFFFFFFFFFFFFFFFFFFFFFF
310
FFFFFFFFFFFFFFFFFFFFFFFFFFFFFFFFFFFFFFFFFFFFFFFFFFFFFFFFFFFFFFFF
310
FFFFFFFFFFFFFFFFF000FFFFFFFFFFFFFFFFFFFFFFFFFFFFFFFFFFFFFFFFFFFF
310
FFFFFFFFFFFFFFFFFFFFFFFFFFFFFFFFFFFFFFFFFFFFFFFFFFFFFFFFFFFFFFFF
310
FFFFFFFFFFFFFFFFFFFFFFFFFFFFFFFFFFFFFFFFFFFFFFFFFFFFFFFFFFFFFFFF
310
F000FFFFFFFFFFFFFFFFFFFFFFFFFFFFFFFFFFFFFFFFFFFFFFFFFFFFFFFFFFFF
310
FFFFFFFFFFFFFFFFFFFFFFFFFFFFFFFFFFFFFFFFFFFFFFFFFFFFFFFFFFFFFFFF
310
FFFFFFFFFFFFFFFFFFFFFFFFFFFFFFFFFFFFFFFFFFFFFFFFF000FFFFFFFFFFFF
310
FFFFFFFFFFFFFFFFFFFFFFFFFFFFFFFFFFFFFFFFFFFFFFFFFFFFFFFFFFFFFFFF
310
FFFFFFFFFFFFFFFFFFFFFFFFFFFFFFFFFFFFFFFFFFFFFFFFFFFFFFFFFFFFFFFF
310
FFFFFFFFFFFFFFFFFFFFFFFFFFFFFFFFF000FFFFFFFFFFFFFFFFFFFFFFFFFFFF
310
FFFFFFFFFFFFFFFFFFFFFFFFFFFFFFFFFFFFFFFFFFFFFFFFFFFFFFFFFFFFFFFF
310
FFFFFFFFFFFFFFFFFFFFFFFFFFFFFFFFFFFFFFFFFFFFFFFFFFFFFFFFFFFFFFFF
310
FFFFFFFFFFFFFFFFF000FFFFFFFFFFFFFFFFFFFFFFFFFFFFFFFFFFFFFFFFFFFF
310
FFFFFFFFFFFFFFFFFFFFFFFFFFFFFFFFFFFFFFFFFFFFFFFFFFFFFFFFFFFFFFFF
310
FFFFFFFFFFFFFFFFFFFFFFFFFFFFFFFFFFFFFFFFFFFFFFFFFFFFFFFFFFFFFFFF
310
F000FFFFFFFFFFFFFFFFFFFFFFFFFFFFFFFFFFFFFFFFFFFFFFFFFFFFFFFFFFFF
310
FFFFFFFFFFFFFFFFFFFFFFFFFFFFFFFFFFFFFFFFFFFFFFFFFFFFFFFFFFFFFFFF
310
FFFFFFFFFFFFFFFFFFFFFFFFFFFFFFFFFFFFFFFFFFFFFFFFF000FFFFFFFFFFFF
310
FFFFFFFFFFFFFFFFFFFFFFFFFFFFFFFFFFFFFFFFFFFFFFFFFFFFFFFFFFFFFFFF
310
FFFFFFFFFFFFFFFFFFFFFFFFFFFFFFFFFFFFFFFFFFFFFFFFFFFFFFFFFFFFFFFF
310
FFFFFFFFFFFFFFFFFFFFFFFFFFFFFFFFF000FFFFFFFFFFFFFFFFFFFFFFFFFFFF
310
FFFFFFFFFFFFFFFFFFFFFFFFFFFFFFFFFFFFFFFFFFFFFFFFFFFFFFFFFFFFFFFF
310
FFFFFFFFFFFFFFFFFFFFFFFFFFFFFFFFFFFFFFFFFFFFFFFFFFFFFFFFFFFFFFFF
310
FFFFFFFFFFFFFFFFF000FFFFFFFFFFFFFFFFFFFFFFFFFFFFFFFFFFFFFFFFFFFF
310
FFFFFFFFFFFFFFFFFFFFFFFFFFFFFFFFFFFFFFFFFFFFFFFFFFFFFFFFFFFFFFFF
310
FFFFFFFFFFFFFFFFFFFFFFFFFFFFFFFFFFFFFFFFFFFFFFFFFFFFFFFFFFFFFFFF
310
F000FFFFFFFFFFFFFFFFFFFFFFFFFFFFFFFFFFFFFFFFFFFFFFFFFFFFFFFFFFFF
310
FFFFFFFFFFFFFFFFFFFFFFFFFFFFFFFFFFFFFFFFFFFFFFFFFFFFFFFFFFFFFFFF
310
FFFFFFFFFFFFFFFFFFFFFFFFFFFFFFFFFFFFFFFFFFFFFFFFF000FFFFFFFFFFFF
310
FFFFFFFFFFFFFFFFFFFFFFFFFFFFFFFFFFFFFFFFFFFFFFFFFFFFFFFFFFFFFFFF
310
FFFFFFFFFFFFFFFFFFFFFFFFFFFFFFFFFFFFFFFFFFFFFFFFFFFFFFFFFFFFFFFF
310
FFFFFFFFFFFFFFFFFFFFFFFFFFFFFFFFF000FFFFFFFFFFFFFFFFFFFFFFFFFFFF
310
FFFFFFFFFFFFFFFFFFFFFFFFFFFFFFFFFFFFFFFFFFFFFFFFFFFFFFFFFFFFFFFF
310
FFFFFFFFFFFFFFFFFFFFFFFFFFFFFFFFFFFFFFFFFFFFFFFFFFFFFFFFFFFFFFFF
310
FFFFFFFFFFFFFFFFF000FFFFFFFFFFFFFFFFFFFFFFFFFFFFFFFFFFFFFFFFFFFF
310
FFFFFFFFFFFFFFFFFFFFFFFFFFFFFFFFFFFFFFFFFFFFFFFFFFFFFFFFFFFFFFFF
310
FFFFFFFFFFFFFFFFFFFFFFFFFFFFFFFFFFFFFFFFFFFFFFFFFFFFFFFFFFFFFFFF
310
F000FFFFFFFFFFFFFFFFFFFFFFFFFFFFFFFFFFFFFFFFFFFFFFFFFFFFFFFFFFFF
310
FFFFFFFFFFFFFFFFFFFFFFFFFFFFFFFFFFFFFFFFFFFFFFFFFFFFFFFFFFFFFFFF
310
FFFFFFFFFFFFFFFFFFFFFFFFFFFFFFFFFFFFFFFFFFFFFFFFF000FFFFFFFFFFFF
310
FFFFFFFFFFFFFFFFFFFFFFFFFFFFFFFFFFFFFFFFFFFFFFFFFFFFFFFFFFFFFFFF
310
FFFFFFFFFFFFFFFFFFFFFFFFFFFFFFFFFFFFFFFFFFFFFFFFFFFFFFFFFFFFFFFF
310
FFFFFFFFFFFFFFFFFFFFFFFFFFFFFFFFF000FFFFFFFFFFFFFFFFFFFFFFFFFFFF
310
FFFFFFFFFFFFFFFFFFFFFFFFFFFFFFFFFFFFFFFFFFFFFFFFFFFFFFFFFFFFFFFF
310
FFFFFFFFFFFFFFFFFFFFFFFFFFFFFFFFFFFFFFFFFFFFFFFFFFFFFFFFFFFFFFFF
310
FFFFFFFFFFFFFFFFF000FFFFFFFFFFFFFFFFFFFFFFFFFFFFFFFFFFFFFFFFFFFF
310
FFFFFFFFFFFFFFFFFFFFFFFFFFFFFFFFFFFFFFFFFFFFFFFFFFFFFFFFFFFFFFFF
310
FFFFFFFFFFFFFFFFFFFFFFFFFFFFFFFFFFFFFFFFFFFFFFFFFFFFFFFFFFFFFFFF
310
F000FFFFFFFFFFFFFFFFFFFFFFFFFFFFFFFFFFFFFFFFFFFFFFFFFFFFFFFFFFFF
310
FFFFFFFFFFFFFFFFFFFFFFFFFFFFFFFFFFFFFFFFFFFFFFFFFFFFFFFFFFFFFFFF
310
FFFFFFFFFFFFFFFFFFFFFFFFFFFFFFFFFFFFFFFFFFFFFFFFF000FFFFFFFFFFFF
310
FFFFFFFFFFFFFFFFFFFFFFFFFFFFFFFFFFFFFFFFFFFFFFFFFFFFFFFFFFFFFFFF
310
FFFFFFFFFFFFFFFFFFFFFFFFFFFFFFFFFFFFFFFFFFFFFFFFFFFFFFFFFFFFFFFF
310
FFFFFFFFFFFFFFFFFFFFFFFFFFFFFFFFF0000000000000000000000000000000
310
0000000000000000000000000000000000000000000000000000000000000000
310
0000000000000000000000000000000000000000000000000000000000000000
310
0000000000000000000000000000000000000000000000000000000000000000
310
0000000000000000000000000000000000000000000000000000000000000000
310
0000000000000000000000000000000000000000000000000000000000000000
310
0000000000000000000000000000000000000000000000000000000000000000
310
0000000000000000000000000000000000000000000000000000000000000000
310
0000000000000000000000000000000000000000000000000000000000000000
310
0000000000000000000000000000000000000000000000000000000000000000
310
0000000000000000000000000000000000000000000000000000000000000000
310
0000000000000000000000000000000000000000000000000000000000000000
310
0000000000000000000000000000000000000000000000000000000000000000
310
0000000000000000000000000000000000000000000000000000000000000000
310
0000000000000000000000000000000000000000000000000000000000000000
310
0000000000000000000000000000000000000000000000000000000000000000
  1
OLE
  0
ENDSEC
  0
SECTION
  2
OBJECTS
  0
DICTIONARY
  5
C
330
0
100
AcDbDictionary
281
     1
  3
ACAD_GROUP
350
D
  3
ACAD_LAYOUT
350
1A
  3
ACAD_MLINESTYLE
350
17
  3
ACAD_PLOTSETTINGS
350
19
  3
ACAD_PLOTSTYLENAME
350
E
  3
ACAD_SCALELIST
350
47
  0
DICTIONARY
  5
D
102
{ACAD_REACTORS
330
C
102
}
330
C
100
AcDbDictionary
281
     1
  0
DICTIONARY
  5
1A
102
{ACAD_REACTORS
330
C
102
}
330
C
100
AcDbDictionary
281
     1
  3
Layout1
350
1E
  3
Layout2
350
26
  3
Model
350
22
  0
DICTIONARY
  5
17
102
{ACAD_REACTORS
330
C
102
}
330
C
100
AcDbDictionary
281
     1
  3
Standard
350
18
  0
DICTIONARY
  5
19
102
{ACAD_REACTORS
330
C
102
}
330
C
100
AcDbDictionary
281
     1
  0
ACDBDICTIONARYWDFLT
  5
E
102
{ACAD_REACTORS
330
C
102
}
330
C
100
AcDbDictionary
281
     1
  3
Normal
350
F
100
AcDbDictionaryWithDefault
340
F
  0
DICTIONARY
  5
47
102
{ACAD_REACTORS
330
C
102
}
330
C
100
AcDbDictionary
281
     1
  3
A0
350
48
  3
A1
350
49
  3
A2
350
4A
  3
A3
350
4B
  3
A4
350
4C
  3
A5
350
4D
  3
A6
350
4E
  3
A7
350
4F
  3
A8
350
50
  3
A9
350
51
  3
B0
350
52
  3
B1
350
53
  3
B2
350
54
  3
B3
350
55
  3
B4
350
56
  3
B5
350
57
  3
B6
350
58
  3
B7
350
59
  3
B8
350
5A
  3
B9
350
5B
  3
C0
350
5C
  3
C1
350
5D
  3
C2
350
5E
  3
C3
350
5F
  3
C4
350
60
  3
C5
350
61
  3
C6
350
62
  3
C7
350
63
  3
C8
350
64
  3
C9
350
65
  3
D0
350
66
  3
D1
350
67
  3
D2
350
68
  0
LAYOUT
  5
1E
102
{ACAD_REACTORS
330
1A
102
}
330
1A
100
AcDbPlotSettings
  1

  2
none_device
  4

  6

 40
0.0
 41
0.0
 42
0.0
 43
0.0
 44
0.0
 45
0.0
 46
0.0
 47
0.0
 48
0.0
 49
0.0
140
0.0
141
0.0
142
1.0
143
1.0
 70
   688
 72
     1
 73
     0
 74
     5
  7

 75
    16
147
1.0
148
0.0
149
0.0
100
AcDbLayout
  1
Layout1
 70
     1
 71
     1
 10
0.0
 20
0.0
 11
420.0
 21
297.0
 12
0.0
 22
0.0
 32
0.0
 14
1.0000000000E+20
 24
1.0000000000E+20
 34
1.0000000000E+20
 15
-1.0000000000E+20
 25
-1.0000000000E+20
 35
-1.0000000000E+20
146
0.0
 13
0.0
 23
0.0
 33
0.0
 16
1.0
 26
0.0
 36
0.0
 17
0.0
 27
1.0
 37
0.0
 76
     0
330
1B
  0
LAYOUT
  5
26
102
{ACAD_REACTORS
330
1A
102
}
330
1A
100
AcDbPlotSettings
  1

  2
none_device
  4

  6

 40
0.0
 41
0.0
 42
0.0
 43
0.0
 44
0.0
 45
0.0
 46
0.0
 47
0.0
 48
0.0
 49
0.0
140
0.0
141
0.0
142
1.0
143
1.0
 70
   688
 72
     1
 73
     0
 74
     5
  7

 75
    16
147
1.0
148
0.0
149
0.0
100
AcDbLayout
  1
Layout2
 70
     1
 71
     2
 10
0.0
 20
0.0
 11
0.0
 21
0.0
 12
0.0
 22
0.0
 32
0.0
 14
0.0
 24
0.0
 34
0.0
 15
0.0
 25
0.0
 35
0.0
146
0.0
 13
0.0
 23
0.0
 33
0.0
 16
1.0
 26
0.0
 36
0.0
 17
0.0
 27
1.0
 37
0.0
 76
     0
330
23
  0
LAYOUT
  5
22
102
{ACAD_REACTORS
330
1A
102
}
330
1A
100
AcDbPlotSettings
  1

  2
none_device
  4
Letter_(8.50_x_11.00_Inches)
  6

 40
6.35
 41
6.35
 42
6.35000508
 43
6.35000508
 44
215.9
 45
279.4
 46
0.0
 47
0.0
 48
0.0
 49
0.0
140
0.0
141
0.0
142
1.0
143
1.0
 70
  1712
 72
     1
 73
     0
 74
     0
  7

 75
     0
147
1.0
148
0.0
149
0.0
100
AcDbLayout
  1
Model
 70
     1
 71
     0
 10
0.0
 20
0.0
 11
297.0
 21
210.0
 12
0.0
 22
0.0
 32
0.0
 14
0.0
 24
0.0
 34
0.0
 15
297.0
 25
210.0
 35
0.0
146
0.0
 13
0.0
 23
0.0
 33
0.0
 16
1.0
 26
0.0
 36
0.0
 17
0.0
 27
1.0
 37
0.0
 76
     0
330
1F
331
29
  0
MLINESTYLE
  5
18
102
{ACAD_REACTORS
330
17
102
}
330
17
100
AcDbMlineStyle
  2
Standard
 70
     0
  3

 62
   256
 51
90.0
 52
90.0
 71
     2
 49
0.5
 62
   256
  6
BYLAYER
 49
-0.5
 62
   256
  6
BYLAYER
  0
ACDBPLACEHOLDER
  5
F
102
{ACAD_REACTORS
330
E
102
}
330
E
  0
SCALE
  5
48
102
{ACAD_REACTORS
330
47
102
}
330
47
100
AcDbScale
 70
     0
300
1:1
140
1.0
141
1.0
290
     1
  0
SCALE
  5
49
102
{ACAD_REACTORS
330
47
102
}
330
47
100
AcDbScale
 70
     0
300
1:2
140
1.0
141
2.0
290
     0
  0
SCALE
  5
4A
102
{ACAD_REACTORS
330
47
102
}
330
47
100
AcDbScale
 70
     0
300
1:4
140
1.0
141
4.0
290
     0
  0
SCALE
  5
4B
102
{ACAD_REACTORS
330
47
102
}
330
47
100
AcDbScale
 70
     0
300
1:5
140
1.0
141
5.0
290
     0
  0
SCALE
  5
4C
102
{ACAD_REACTORS
330
47
102
}
330
47
100
AcDbScale
 70
     0
300
1:8
140
1.0
141
8.0
290
     0
  0
SCALE
  5
4D
102
{ACAD_REACTORS
330
47
102
}
330
47
100
AcDbScale
 70
     0
300
1:10
140
1.0
141
10.0
290
     0
  0
SCALE
  5
4E
102
{ACAD_REACTORS
330
47
102
}
330
47
100
AcDbScale
 70
     0
300
1:16
140
1.0
141
16.0
290
     0
  0
SCALE
  5
4F
102
{ACAD_REACTORS
330
47
102
}
330
47
100
AcDbScale
 70
     0
300
1:20
140
1.0
141
20.0
290
     0
  0
SCALE
  5
50
102
{ACAD_REACTORS
330
47
102
}
330
47
100
AcDbScale
 70
     0
300
1:30
140
1.0
141
30.0
290
     0
  0
SCALE
  5
51
102
{ACAD_REACTORS
330
47
102
}
330
47
100
AcDbScale
 70
     0
300
1:40
140
1.0
141
40.0
290
     0
  0
SCALE
  5
52
102
{ACAD_REACTORS
330
47
102
}
330
47
100
AcDbScale
 70
     0
300
1:50
140
1.0
141
50.0
290
     0
  0
SCALE
  5
53
102
{ACAD_REACTORS
330
47
102
}
330
47
100
AcDbScale
 70
     0
300
1:100
140
1.0
141
100.0
290
     0
  0
SCALE
  5
54
102
{ACAD_REACTORS
330
47
102
}
330
47
100
AcDbScale
 70
     0
300
2:1
140
2.0
141
1.0
290
     0
  0
SCALE
  5
55
102
{ACAD_REACTORS
330
47
102
}
330
47
100
AcDbScale
 70
     0
300
4:1
140
4.0
141
1.0
290
     0
  0
SCALE
  5
56
102
{ACAD_REACTORS
330
47
102
}
330
47
100
AcDbScale
 70
     0
300
8:1
140
8.0
141
1.0
290
     0
  0
SCALE
  5
57
102
{ACAD_REACTORS
330
47
102
}
330
47
100
AcDbScale
 70
     0
300
10:1
140
10.0
141
1.0
290
     0
  0
SCALE
  5
58
102
{ACAD_REACTORS
330
47
102
}
330
47
100
AcDbScale
 70
     0
300
100:1
140
100.0
141
1.0
290
     0
  0
SCALE
  5
59
102
{ACAD_REACTORS
330
47
102
}
330
47
100
AcDbScale
 70
     0
300
1/128" = 1'-0"
140
0.0078125
141
12.0
290
     0
  0
SCALE
  5
5A
102
{ACAD_REACTORS
330
47
102
}
330
47
100
AcDbScale
 70
     0
300
1/64" = 1'-0"
140
0.015625
141
12.0
290
     0
  0
SCALE
  5
5B
102
{ACAD_REACTORS
330
47
102
}
330
47
100
AcDbScale
 70
     0
300
1/32" = 1'-0"
140
0.03125
141
12.0
290
     0
  0
SCALE
  5
5C
102
{ACAD_REACTORS
330
47
102
}
330
47
100
AcDbScale
 70
     0
300
1/16" = 1'-0"
140
0.0625
141
12.0
290
     0
  0
SCALE
  5
5D
102
{ACAD_REACTORS
330
47
102
}
330
47
100
AcDbScale
 70
     0
300
3/32" = 1'-0"
140
0.09375
141
12.0
290
     0
  0
SCALE
  5
5E
102
{ACAD_REACTORS
330
47
102
}
330
47
100
AcDbScale
 70
     0
300
1/8" = 1'-0"
140
0.125
141
12.0
290
     0
  0
SCALE
  5
5F
102
{ACAD_REACTORS
330
47
102
}
330
47
100
AcDbScale
 70
     0
300
3/16" = 1'-0"
140
0.1875
141
12.0
290
     0
  0
SCALE
  5
60
102
{ACAD_REACTORS
330
47
102
}
330
47
100
AcDbScale
 70
     0
300
1/4" = 1'-0"
140
0.25
141
12.0
290
     0
  0
SCALE
  5
61
102
{ACAD_REACTORS
330
47
102
}
330
47
100
AcDbScale
 70
     0
300
3/8" = 1'-0"
140
0.375
141
12.0
290
     0
  0
SCALE
  5
62
102
{ACAD_REACTORS
330
47
102
}
330
47
100
AcDbScale
 70
     0
300
1/2" = 1'-0"
140
0.5
141
12.0
290
     0
  0
SCALE
  5
63
102
{ACAD_REACTORS
330
47
102
}
330
47
100
AcDbScale
 70
     0
300
3/4" = 1'-0"
140
0.75
141
12.0
290
     0
  0
SCALE
  5
64
102
{ACAD_REACTORS
330
47
102
}
330
47
100
AcDbScale
 70
     0
300
1" = 1'-0"
140
1.0
141
12.0
290
     0
  0
SCALE
  5
65
102
{ACAD_REACTORS
330
47
102
}
330
47
100
AcDbScale
 70
     0
300
1-1/2" = 1'-0"
140
1.5
141
12.0
290
     0
  0
SCALE
  5
66
102
{ACAD_REACTORS
330
47
102
}
330
47
100
AcDbScale
 70
     0
300
3" = 1'-0"
140
3.0
141
12.0
290
     0
  0
SCALE
  5
67
102
{ACAD_REACTORS
330
47
102
}
330
47
100
AcDbScale
 70
     0
300
6" = 1'-0"
140
6.0
141
12.0
290
     0
  0
SCALE
  5
68
102
{ACAD_REACTORS
330
47
102
}
330
47
100
AcDbScale
 70
     0
300
1'-0" = 1'-0"
140
12.0
141
12.0
290
     0
  0
ENDSEC
  0
EOF
