  0
SECTION
  2
HEADER
  9
$ACADVER
  1
AC1015
  9
$ACADMAINTVER
 70
     6
  9
$DWGCODEPAGE
  3
ANSI_1252
  9
$INSBASE
 10
0.0
 20
0.0
 30
0.0
  9
$EXTMIN
 10
0.0
 20
0.0
 30
0.0
  9
$EXTMAX
 10
297.0
 20
210.0
 30
0.0
  9
$LIMMIN
 10
0.0
 20
0.0
  9
$LIMMAX
 10
297.0
 20
210.0
  9
$ORTHOMODE
 70
     0
  9
$REGENMODE
 70
     1
  9
$FILLMODE
 70
     1
  9
$QTEXTMODE
 70
     0
  9
$MIRRTEXT
 70
     1
  9
$LTSCALE
 40
1.0
  9
$ATTMODE
 70
     1
  9
$TEXTSIZE
 40
2.0
  9
$TRACEWID
 40
1.0
  9
$TEXTSTYLE
  7
Standard
  9
$CLAYER
  8
0
  9
$CELTYPE
  6
ByLayer
  9
$CECOLOR
 62
   256
  9
$CELTSCALE
 40
1.0
  9
$DISPSILH
 70
     0
  9
$DIMSCALE
 40
1.0
  9
$DIMASZ
 40
3.0
  9
$DIMEXO
 40
0.0
  9
$DIMDLI
 40
3.75
  9
$DIMRND
 40
0.0
  9
$DIMDLE
 40
0.0
  9
$DIMEXE
 40
1.0
  9
$DIMTP
 40
0.0
  9
$DIMTM
 40
0.0
  9
$DIMTXT
 40
2.0
  9
$DIMCEN
 40
2.5
  9
$DIMTSZ
 40
0.0
  9
$DIMTOL
 70
     0
  9
$DIMLIM
 70
     0
  9
$DIMTIH
 70
     1
  9
$DIMTOH
 70
     1
  9
$DIMSE1
 70
     0
  9
$DIMSE2
 70
     0
  9
$DIMTAD
 70
     1
  9
$DIMZIN
 70
     0
  9
$DIMBLK
  1

  9
$DIMASO
 70
     1
  9
$DIMSHO
 70
     1
  9
$DIMPOST
  1

  9
$DIMAPOST
  1

  9
$DIMALT
 70
     0
  9
$DIMALTD
 70
     3
  9
$DIMALTF
 40
0.0393700787
  9
$DIMLFAC
 40
1.0
  9
$DIMTOFL
 70
     1
  9
$DIMTVP
 40
0.0
  9
$DIMTIX
 70
     0
  9
$DIMSOXD
 70
     0
  9
$DIMSAH
 70
     0
  9
$DIMBLK1
  1

  9
$DIMBLK2
  1

  9
$DIMSTYLE
  2
ISO-25
  9
$DIMCLRD
 70
     0
  9
$DIMCLRE
 70
     0
  9
$DIMCLRT
 70
     0
  9
$DIMTFAC
 40
1.0
  9
$DIMGAP
 40
1.524
  9
$DIMJUST
 70
     0
  9
$DIMSD1
 70
     0
  9
$DIMSD2
 70
     0
  9
$DIMTOLJ
 70
     0
  9
$DIMTZIN
 70
     0
  9
$DIMALTZ
 70
     0
  9
$DIMALTTZ
 70
     0
  9
$DIMUPT
 70
     0
  9
$DIMDEC
 70
     2
  9
$DIMTDEC
 70
     3
  9
$DIMALTU
 70
     2
  9
$DIMALTTD
 70
     3
  9
$DIMTXSTY
  7
Standard
  9
$DIMAUNIT
 70
     0
  9
$DIMADEC
 70
     2
  9
$DIMALTRND
 40
0.0
  9
$DIMAZIN
 70
     0
  9
$DIMDSEP
 70
    44
  9
$DIMATFIT
 70
     3
  9
$DIMFRAC
 70
     0
  9
$DIMLDRBLK
  1

  9
$DIMLUNIT
 70
     2
  9
$DIMLWD
 70
    -2
  9
$DIMLWE
 70
    -2
  9
$DIMTMOVE
 70
     0
  9
$LUNITS
 70
     2
  9
$LUPREC
 70
     2
  9
$SKETCHINC
 40
1.0
  9
$FILLETRAD
 40
10.0
  9
$AUNITS
 70
     0
  9
$AUPREC
 70
     2
  9
$MENU
  1
.
  9
$ELEVATION
 40
0.0
  9
$PELEVATION
 40
0.0
  9
$THICKNESS
 40
0.0
  9
$LIMCHECK
 70
     0
  9
$CHAMFERA
 40
0.0
  9
$CHAMFERB
 40
0.0
  9
$CHAMFERC
 40
0.0
  9
$CHAMFERD
 40
0.0
  9
$SKPOLY
 70
     0
  9
$TDCREATE
 40
2457672.414518889
  9
$TDUCREATE
 40
2457672.331185556
  9
$TDUPDATE
 40
2457672.414520266
  9
$TDUUPDATE
 40
2457672.331186933
  9
$TDINDWG
 40
0.0000000116
  9
$TDUSRTIMER
 40
0.0000000116
  9
$USRTIMER
 70
     1
  9
$ANGBASE
 50
0.0
  9
$ANGDIR
 70
     0
  9
$PDMODE
 70
     0
  9
$PDSIZE
 40
-1.0
  9
$PLINEWID
 40
0.0
  9
$SPLFRAME
 70
     0
  9
$SPLINETYPE
 70
     6
  9
$SPLINESEGS
 70
     8
  9
$HANDSEED
  5
259
  9
$SURFTAB1
 70
     6
  9
$SURFTAB2
 70
     6
  9
$SURFTYPE
 70
     6
  9
$SURFU
 70
     6
  9
$SURFV
 70
     6
  9
$UCSBASE
  2

  9
$UCSNAME
  2

  9
$UCSORG
 10
0.0
 20
0.0
 30
0.0
  9
$UCSXDIR
 10
1.0
 20
0.0
 30
0.0
  9
$UCSYDIR
 10
0.0
 20
1.0
 30
0.0
  9
$UCSORTHOREF
  2

  9
$UCSORTHOVIEW
 70
     0
  9
$UCSORGTOP
 10
0.0
 20
0.0
 30
0.0
  9
$UCSORGBOTTOM
 10
0.0
 20
0.0
 30
0.0
  9
$UCSORGLEFT
 10
0.0
 20
0.0
 30
0.0
  9
$UCSORGRIGHT
 10
0.0
 20
0.0
 30
0.0
  9
$UCSORGFRONT
 10
0.0
 20
0.0
 30
0.0
  9
$UCSORGBACK
 10
0.0
 20
0.0
 30
0.0
  9
$PUCSBASE
  2

  9
$PUCSNAME
  2

  9
$PUCSORG
 10
0.0
 20
0.0
 30
0.0
  9
$PUCSXDIR
 10
1.0
 20
0.0
 30
0.0
  9
$PUCSYDIR
 10
0.0
 20
1.0
 30
0.0
  9
$PUCSORTHOREF
  2

  9
$PUCSORTHOVIEW
 70
     0
  9
$PUCSORGTOP
 10
0.0
 20
0.0
 30
0.0
  9
$PUCSORGBOTTOM
 10
0.0
 20
0.0
 30
0.0
  9
$PUCSORGLEFT
 10
0.0
 20
0.0
 30
0.0
  9
$PUCSORGRIGHT
 10
0.0
 20
0.0
 30
0.0
  9
$PUCSORGFRONT
 10
0.0
 20
0.0
 30
0.0
  9
$PUCSORGBACK
 10
0.0
 20
0.0
 30
0.0
  9
$USERI1
 70
     0
  9
$USERI2
 70
     0
  9
$USERI3
 70
     0
  9
$USERI4
 70
     0
  9
$USERI5
 70
     0
  9
$USERR1
 40
0.0
  9
$USERR2
 40
0.0
  9
$USERR3
 40
0.0
  9
$USERR4
 40
0.0
  9
$USERR5
 40
0.0
  9
$WORLDVIEW
 70
     1
  9
$SHADEDGE
 70
     3
  9
$SHADEDIF
 70
    70
  9
$TILEMODE
 70
     1
  9
$MAXACTVP
 70
    64
  9
$PINSBASE
 10
0.0
 20
0.0
 30
0.0
  9
$PLIMCHECK
 70
     0
  9
$PEXTMIN
 10
1.0000000000E+20
 20
1.0000000000E+20
 30
1.0000000000E+20
  9
$PEXTMAX
 10
-1.0000000000E+20
 20
-1.0000000000E+20
 30
-1.0000000000E+20
  9
$PLIMMIN
 10
0.0
 20
0.0
  9
$PLIMMAX
 10
420.0
 20
297.0
  9
$UNITMODE
 70
     0
  9
$VISRETAIN
 70
     1
  9
$PLINEGEN
 70
     0
  9
$PSLTSCALE
 70
     1
  9
$TREEDEPTH
 70
  3020
  9
$CMLSTYLE
  2
Standard
  9
$CMLJUST
 70
     0
  9
$CMLSCALE
 40
20.0
  9
$PROXYGRAPHICS
 70
     1
  9
$MEASUREMENT
 70
     1
  9
$CELWEIGHT
370
    -1
  9
$ENDCAPS
280
     0
  9
$JOINSTYLE
280
     0
  9
$LWDISPLAY
290
     1
  9
$INSUNITS
 70
     4
  9
$HYPERLINKBASE
  1

  9
$STYLESHEET
  1

  9
$XEDIT
290
     1
  9
$CEPSNTYPE
380
     0
  9
$PSTYLEMODE
290
     1
  9
$FINGERPRINTGUID
  2
{554FD1F2-7170-40E5-813C-FBF19E5B48CD}
  9
$VERSIONGUID
  2
{FAEB1C32-E019-11D5-929B-00C0DF256EC4}
  9
$EXTNAMES
290
     1
  9
$PSVPSCALE
 40
0.0
  9
$OLESTARTUP
290
     0
  0
ENDSEC
  0
SECTION
  2
CLASSES
  0
CLASS
  1
ACDBDICTIONARYWDFLT
  2
AcDbDictionaryWithDefault
  3
ObjectDBX Classes
 90
        0
280
     0
281
     0
  0
CLASS
  1
VISUALSTYLE
  2
AcDbVisualStyle
  3
ObjectDBX Classes
 90
     4095
280
     0
281
     0
  0
CLASS
  1
MATERIAL
  2
AcDbMaterial
  3
ObjectDBX Classes
 90
     1153
280
     0
281
     0
  0
CLASS
  1
SCALE
  2
AcDbScale
  3
ObjectDBX Classes
 90
     1153
280
     0
281
     0
  0
CLASS
  1
TABLESTYLE
  2
AcDbTableStyle
  3
ObjectDBX Classes
 90
     4095
280
     0
281
     0
  0
CLASS
  1
MLEADERSTYLE
  2
AcDbMLeaderStyle
  3
ACDB_MLEADERSTYLE_CLASS
 90
     4095
280
     0
281
     0
  0
CLASS
  1
SUN
  2
AcDbSun
  3
SCENEOE
 90
     1153
280
     0
281
     0
  0
CLASS
  1
ACDBPLACEHOLDER
  2
AcDbPlaceHolder
  3
ObjectDBX Classes
 90
        0
280
     0
281
     0
  0
CLASS
  1
LAYOUT
  2
AcDbLayout
  3
ObjectDBX Classes
 90
        0
280
     0
281
     0
  0
ENDSEC
  0
SECTION
  2
TABLES
  0
TABLE
  2
VPORT
  5
8
330
0
100
AcDbSymbolTable
 70
     1
  0
VPORT
  5
29
330
8
100
AcDbSymbolTableRecord
100
AcDbViewportTableRecord
  2
*Active
 70
     0
 10
0.0
 20
0.0
 11
1.0
 21
1.0
 12
148.5
 22
105.0
 13
0.0
 23
0.0
 14
10.0
 24
10.0
 15
10.0
 25
10.0
 16
0.0
 26
0.0
 36
1.0
 17
0.0
 27
0.0
 37
0.0
 40
210.0
 41
1.4142857143
 42
50.0
 43
0.0
 44
0.0
 50
0.0
 51
0.0
 71
     0
 72
  2000
 73
     1
 74
     3
 75
     0
 76
     0
 77
     0
 78
     0
281
     0
 65
     1
110
0.0
120
0.0
130
0.0
111
1.0
121
0.0
131
0.0
112
0.0
122
1.0
132
0.0
 79
     0
146
0.0
  0
ENDTAB
  0
TABLE
  2
LTYPE
  5
5
330
0
100
AcDbSymbolTable
 70
     6
  0
LTYPE
  5
14
330
5
100
AcDbSymbolTableRecord
100
AcDbLinetypeTableRecord
  2
ByBlock
 70
     0
  3

 72
    65
 73
     0
 40
0.0
  0
LTYPE
  5
15
330
5
100
AcDbSymbolTableRecord
100
AcDbLinetypeTableRecord
  2
ByLayer
 70
     0
  3

 72
    65
 73
     0
 40
0.0
  0
LTYPE
  5
16
330
5
100
AcDbSymbolTableRecord
100
AcDbLinetypeTableRecord
  2
Continuous
 70
     0
  3
Solid line
 72
    65
 73
     0
 40
0.0
  0
LTYPE
  5
6E
330
5
100
AcDbSymbolTableRecord
100
AcDbLinetypeTableRecord
  2
HIDDEN
 70
     0
  3
Hidden __ __ __ __ __ __ __ __ __ __ __ __ __ __
 72
    65
 73
     2
 40
1.905
 49
1.27
 74
     0
 49
-0.635
 74
     0
  0
LTYPE
  5
6F
330
5
100
AcDbSymbolTableRecord
100
AcDbLinetypeTableRecord
  2
PHANTOM
 70
     0
  3
Phantom ______  __  __  ______  __  __  ______
 72
    65
 73
     6
 40
12.7
 49
6.35
 74
     0
 49
-1.27
 74
     0
 49
1.27
 74
     0
 49
-1.27
 74
     0
 49
1.27
 74
     0
 49
-1.27
 74
     0
  0
LTYPE
  5
70
330
5
100
AcDbSymbolTableRecord
100
AcDbLinetypeTableRecord
  2
CENTER
 70
     0
  3
Center ____ _ ____ _ ____ _ ____ _ ____ _ ____
 72
    65
 73
     4
 40
10.16
 49
6.35
 74
     0
 49
-1.27
 74
     0
 49
1.27
 74
     0
 49
-1.27
 74
     0
  0
LTYPE
  5
71
330
5
100
AcDbSymbolTableRecord
100
AcDbLinetypeTableRecord
  2
CENTERX2
 70
     0
  3
Center (2x) ________  __  ________  __  _____
 72
    65
 73
     4
 40
20.32
 49
12.7
 74
     0
 49
-2.54
 74
     0
 49
2.54
 74
     0
 49
-2.54
 74
     0
  0
LTYPE
  5
72
330
5
100
AcDbSymbolTableRecord
100
AcDbLinetypeTableRecord
  2
DOT2
 70
     0
  3
Dot (.5x) ........................................
 72
    65
 73
     2
 40
0.635
 49
0.0
 74
     0
 49
-0.635
 74
     0
  0
ENDTAB
  0
TABLE
  2
LAYER
  5
2
330
0
100
AcDbSymbolTable
 70
     5
  0
LAYER
  5
10
330
2
100
AcDbSymbolTableRecord
100
AcDbLayerTableRecord
  2
0
 70
     0
 62
     7
  6
Continuous
370
    -3
390
F
  0
LAYER
  5
73
330
2
100
AcDbSymbolTableRecord
100
AcDbLayerTableRecord
  2
FORMAT
 70
     0
 62
     7
  6
Continuous
370
    -3
390
F
  0
LAYER
  5
74
330
2
100
AcDbSymbolTableRecord
100
AcDbLayerTableRecord
  2
VERMASSUNG
 70
     0
 62
     7
  6
Continuous
370
    -3
390
F
  0
LAYER
  5
75
330
2
100
AcDbSymbolTableRecord
100
AcDbLayerTableRecord
  2
KOPF_DÜNN
 70
     0
 62
     7
  6
Continuous
370
    -3
390
F
  0
LAYER
  5
76
330
2
100
AcDbSymbolTableRecord
100
AcDbLayerTableRecord
  2
KOPF_DICK
 70
     0
 62
     7
  6
Continuous
370
    15
390
F
  0
ENDTAB
  0
TABLE
  2
STYLE
  5
3
330
0
100
AcDbSymbolTable
 70
     3
  0
STYLE
  5
11
330
3
100
AcDbSymbolTableRecord
100
AcDbTextStyleTableRecord
  2
Standard
 70
     0
 40
0.0
 41
1.0
 50
0.0
 71
     0
 42
2.0
  3
txt
  4

  0
STYLE
  5
77
330
3
100
AcDbSymbolTableRecord
100
AcDbTextStyleTableRecord
  2
SLDTEXTSTYLE0
 70
     0
 40
0.0
 41
0.7
 50
0.0
 71
     0
 42
2.0
  3
TXT
  4

  0
STYLE
  5
7B
330
3
100
AcDbSymbolTableRecord
100
AcDbTextStyleTableRecord
  2
SLDTEXTSTYLE1
 70
     0
 40
0.0
 41
0.6454545455
 50
0.0
 71
     0
 42
2.0
  3
TXT
  4

  0
ENDTAB
  0
TABLE
  2
VIEW
  5
6
330
0
100
AcDbSymbolTable
 70
     0
  0
ENDTAB
  0
TABLE
  2
UCS
  5
7
330
0
100
AcDbSymbolTable
 70
     0
  0
ENDTAB
  0
TABLE
  2
APPID
  5
9
330
0
100
AcDbSymbolTable
 70
     1
  0
APPID
  5
12
330
9
100
AcDbSymbolTableRecord
100
AcDbRegAppTableRecord
  2
ACAD
 70
     0
  0
ENDTAB
  0
TABLE
  2
DIMSTYLE
  5
A
330
0
100
AcDbSymbolTable
 70
     2
100
AcDbDimStyleTable
  0
DIMSTYLE
105
27
330
A
100
AcDbSymbolTableRecord
100
AcDbDimStyleTableRecord
  2
ISO-25
 70
     0
 41
2.5
 42
0.625
 43
3.75
 44
1.25
 73
     0
 74
     0
 77
     1
 78
     8
140
2.5
141
2.5
143
0.0393700787
147
0.625
171
     3
172
     1
178
     0
271
     2
272
     2
274
     3
278
    44
283
     0
284
     8
340
11
  0
DIMSTYLE
105
18C
102
{ACAD_REACTORS
330
18B
330
198
330
1A3
330
1AF
330
1B9
330
1C5
102
}
330
A
100
AcDbSymbolTableRecord
100
AcDbDimStyleTableRecord
  2
SLDDIMSTYLE0
 70
     0
 41
3.0
 44
0.0
 45
0.000000001
 73
     0
 74
     0
 77
     1
 78
    12
 79
     3
140
2.0
147
0.5
173
     1
178
     0
271
     2
272
     3
276
     2
284
    12
340
77
  0
ENDTAB
  0
TABLE
  2
BLOCK_RECORD
  5
1
330
0
100
AcDbSymbolTable
 70
     7
  0
BLOCK_RECORD
  5
1F
330
1
100
AcDbSymbolTableRecord
100
AcDbBlockTableRecord
  2
*Model_Space
340
22
  0
BLOCK_RECORD
  5
1B
330
1
100
AcDbSymbolTableRecord
100
AcDbBlockTableRecord
  2
*Paper_Space
340
1E
  0
BLOCK_RECORD
  5
23
330
1
100
AcDbSymbolTableRecord
100
AcDbBlockTableRecord
  2
*Paper_Space0
340
26
  0
BLOCK_RECORD
  5
18D
330
1
100
AcDbSymbolTableRecord
100
AcDbBlockTableRecord
  2
_D
340
0
  0
BLOCK_RECORD
  5
199
330
1
100
AcDbSymbolTableRecord
100
AcDbBlockTableRecord
  2
_D_1
340
0
  0
BLOCK_RECORD
  5
1A4
330
1
100
AcDbSymbolTableRecord
100
AcDbBlockTableRecord
  2
_D_2
340
0
  0
BLOCK_RECORD
  5
1B0
330
1
100
AcDbSymbolTableRecord
100
AcDbBlockTableRecord
  2
_D_3
340
0
  0
BLOCK_RECORD
  5
1BA
330
1
100
AcDbSymbolTableRecord
100
AcDbBlockTableRecord
  2
_D_4
340
0
  0
BLOCK_RECORD
  5
1C6
330
1
100
AcDbSymbolTableRecord
100
AcDbBlockTableRecord
  2
_D_5
340
0
  0
ENDTAB
  0
ENDSEC
  0
SECTION
  2
BLOCKS
  0
BLOCK
  5
20
330
1F
100
AcDbEntity
  8
0
100
AcDbBlockBegin
  2
*Model_Space
 70
     0
 10
0.0
 20
0.0
 30
0.0
  3
*Model_Space
  1

  0
ENDBLK
  5
21
330
1F
100
AcDbEntity
  8
0
100
AcDbBlockEnd
  0
BLOCK
  5
1C
330
1B
100
AcDbEntity
 67
     1
  8
0
100
AcDbBlockBegin
  2
*Paper_Space
 70
     0
 10
0.0
 20
0.0
 30
0.0
  3
*Paper_Space
  1

  0
ENDBLK
  5
1D
330
1B
100
AcDbEntity
 67
     1
  8
0
100
AcDbBlockEnd
  0
BLOCK
  5
24
330
23
100
AcDbEntity
  8
0
100
AcDbBlockBegin
  2
*Paper_Space0
 70
     0
 10
0.0
 20
0.0
 30
0.0
  3
*Paper_Space0
  1

  0
ENDBLK
  5
25
330
23
100
AcDbEntity
  8
0
100
AcDbBlockEnd
  0
BLOCK
  5
18E
330
18D
100
AcDbEntity
  8
0
100
AcDbBlockBegin
  2
_D
 70
     0
 10
0.0
 20
0.0
 30
0.0
  3
_D
  1

  0
SOLID
  5
190
330
18D
100
AcDbEntity
  8
VERMASSUNG
100
AcDbTrace
 10
217.5619620075
 20
119.5537739736
 30
0.0
 11
217.1119620075
 21
116.5537739736
 31
0.0
 12
218.0119620075
 22
116.5537739736
 32
0.0
 13
218.0119620075
 23
116.5537739736
 33
0.0
  0
SOLID
  5
191
330
18D
100
AcDbEntity
  8
VERMASSUNG
100
AcDbTrace
 10
217.5619620075
 20
99.5537739736
 30
0.0
 11
218.0119620075
 21
102.5537739736
 31
0.0
 12
217.1119620075
 22
102.5537739736
 32
0.0
 13
217.1119620075
 23
102.5537739736
 33
0.0
  0
LINE
  5
192
330
18D
100
AcDbEntity
  8
VERMASSUNG
100
AcDbLine
 10
205.3449721218
 20
119.5537739736
 30
0.0
 11
218.5619620075
 21
119.5537739736
 31
0.0
  0
LINE
  5
193
330
18D
100
AcDbEntity
  8
VERMASSUNG
100
AcDbLine
 10
205.3449721218
 20
99.5537739736
 30
0.0
 11
218.5619620075
 21
99.5537739736
 31
0.0
  0
LINE
  5
194
330
18D
100
AcDbEntity
  8
VERMASSUNG
100
AcDbLine
 10
217.5619620075
 20
119.5537739736
 30
0.0
 11
217.5619620075
 21
99.5537739736
 31
0.0
  0
MTEXT
  5
195
330
18D
100
AcDbEntity
  8
VERMASSUNG
100
AcDbMText
 10
214.7838267513
 20
103.6494866409
 30
0.0
 40
2.0
 41
0.0
 71
     1
 72
     1
  1
ST1
  7
SLDTEXTSTYLE0
 11
-7.044195017643634E-15
 21
1.0
 31
0.0
 73
     1
 44
1.0
  0
MTEXT
  5
196
330
18D
100
AcDbEntity
  8
VERMASSUNG
100
AcDbMText
 10
214.9838267026
 20
109.049486781
 30
0.0
 40
2.0
 41
0.0
 71
     1
 72
     1
  1
%%c
  7
SLDTEXTSTYLE0
 11
-7.044195017643634E-15
 21
1.0
 31
0.0
 73
     1
 44
1.0
  0
MTEXT
  5
197
330
18D
100
AcDbEntity
  8
VERMASSUNG
100
AcDbMText
 10
214.9838264116
 20
112.6586812856
 30
0.0
 40
2.0
 41
0.0
 71
     1
 72
     1
  1
20
  7
SLDTEXTSTYLE0
 11
-7.044195017643634E-15
 21
1.0
 31
0.0
 73
     1
 44
1.0
  0
ENDBLK
  5
18F
330
18D
100
AcDbEntity
  8
0
100
AcDbBlockEnd
  0
BLOCK
  5
19A
330
199
100
AcDbEntity
  8
0
100
AcDbBlockBegin
  2
_D_1
 70
     0
 10
0.0
 20
0.0
 30
0.0
  3
_D_1
  1

  0
SOLID
  5
19C
330
199
100
AcDbEntity
  8
VERMASSUNG
100
AcDbTrace
 10
211.4619620075
 20
115.0537739736
 30
0.0
 11
211.0119620075
 21
112.0537739736
 31
0.0
 12
211.9119620075
 22
112.0537739736
 32
0.0
 13
211.9119620075
 23
112.0537739736
 33
0.0
  0
SOLID
  5
19D
330
199
100
AcDbEntity
  8
VERMASSUNG
100
AcDbTrace
 10
211.4619620075
 20
104.0537739736
 30
0.0
 11
211.9119620075
 21
107.0537739736
 31
0.0
 12
211.0119620075
 22
107.0537739736
 32
0.0
 13
211.0119620075
 23
107.0537739736
 33
0.0
  0
LINE
  5
19E
330
199
100
AcDbEntity
  8
VERMASSUNG
100
AcDbLine
 10
199.6449721218
 20
115.0537739736
 30
0.0
 11
212.4619620075
 21
115.0537739736
 31
0.0
  0
LINE
  5
19F
330
199
100
AcDbEntity
  8
VERMASSUNG
100
AcDbLine
 10
199.6449721218
 20
104.0537739736
 30
0.0
 11
212.4619620075
 21
104.0537739736
 31
0.0
  0
LINE
  5
1A0
330
199
100
AcDbEntity
  8
VERMASSUNG
100
AcDbLine
 10
211.4619620075
 20
115.0537739736
 30
0.0
 11
211.4619620075
 21
104.0537739736
 31
0.0
  0
MTEXT
  5
1A1
330
199
100
AcDbEntity
  8
VERMASSUNG
100
AcDbMText
 10
208.8838264698
 20
106.7499820065
 30
0.0
 40
2.0
 41
0.0
 71
     1
 72
     1
  1
%%c
  7
SLDTEXTSTYLE0
 11
-7.044195017643634E-15
 21
1.0
 31
0.0
 73
     1
 44
1.0
  0
MTEXT
  5
1A2
330
199
100
AcDbEntity
  8
VERMASSUNG
100
AcDbMText
 10
208.8838264116
 20
110.3589542002
 30
0.0
 40
2.0
 41
0.0
 71
     1
 72
     1
  1
11
  7
SLDTEXTSTYLE0
 11
-7.044195017643634E-15
 21
1.0
 31
0.0
 73
     1
 44
1.0
  0
ENDBLK
  5
19B
330
199
100
AcDbEntity
  8
0
100
AcDbBlockEnd
  0
BLOCK
  5
1A5
330
1A4
100
AcDbEntity
  8
0
100
AcDbBlockBegin
  2
_D_2
 70
     0
 10
0.0
 20
0.0
 30
0.0
  3
_D_2
  1

  0
ARC
  5
1A7
330
1A4
100
AcDbEntity
  8
VERMASSUNG
100
AcDbCircle
 10
199.0572115657
 20
147.3584114714
 30
0.0
 40
4.247059938537323
100
AcDbArc
 50
153.4349488229
 51
206.5650511771
  0
ARC
  5
1A8
330
1A4
100
AcDbEntity
  8
VERMASSUNG
100
AcDbCircle
 10
197.032732678
 20
147.3584114714
 30
0.0
 40
4.247059938537297
100
AcDbArc
 50
333.4349488229
 51
26.5650511771
  0
SOLID
  5
1A9
330
1A4
100
AcDbEntity
  8
VERMASSUNG
100
AcDbTrace
 10
190.5449721218
 20
145.4590685259
 30
0.0
 11
193.5449721218
 21
145.0090685259
 31
0.0
 12
193.5449721218
 22
145.9090685259
 32
0.0
 13
193.5449721218
 23
145.9090685259
 33
0.0
  0
SOLID
  5
1AA
330
1A4
100
AcDbEntity
  8
VERMASSUNG
100
AcDbTrace
 10
205.5449721218
 20
145.4590685259
 30
0.0
 11
202.5449721218
 21
145.9090685259
 31
0.0
 12
202.5449721218
 22
145.0090685259
 32
0.0
 13
202.5449721218
 23
145.0090685259
 33
0.0
  0
LINE
  5
1AB
330
1A4
100
AcDbEntity
  8
VERMASSUNG
100
AcDbLine
 10
190.5449721218
 20
140.0537739736
 30
0.0
 11
190.5449721218
 21
146.4590685259
 31
0.0
  0
LINE
  5
1AC
330
1A4
100
AcDbEntity
  8
VERMASSUNG
100
AcDbLine
 10
205.5449721218
 20
119.3537739736
 30
0.0
 11
205.5449721218
 21
146.4590685259
 31
0.0
  0
LINE
  5
1AD
330
1A4
100
AcDbEntity
  8
VERMASSUNG
100
AcDbLine
 10
190.5449721218
 20
145.4590685259
 30
0.0
 11
205.5449721218
 21
145.4590685259
 31
0.0
  0
MTEXT
  5
1AE
330
1A4
100
AcDbEntity
  8
VERMASSUNG
100
AcDbMText
 10
196.8460256749
 20
148.0372041219
 30
0.0
 40
2.0
 41
0.0
 71
     1
 72
     1
  1
15
  7
SLDTEXTSTYLE0
 73
     1
 44
1.0
  0
ENDBLK
  5
1A6
330
1A4
100
AcDbEntity
  8
0
100
AcDbBlockEnd
  0
BLOCK
  5
1B1
330
1B0
100
AcDbEntity
  8
0
100
AcDbBlockBegin
  2
_D_3
 70
     0
 10
0.0
 20
0.0
 30
0.0
  3
_D_3
  1

  0
SOLID
  5
1B3
330
1B0
100
AcDbEntity
  8
VERMASSUNG
100
AcDbTrace
 10
163.5449721218
 20
151.4590685259
 30
0.0
 11
166.5449721218
 21
151.0090685259
 31
0.0
 12
166.5449721218
 22
151.9090685259
 32
0.0
 13
166.5449721218
 23
151.9090685259
 33
0.0
  0
SOLID
  5
1B4
330
1B0
100
AcDbEntity
  8
VERMASSUNG
100
AcDbTrace
 10
205.5449721218
 20
151.4590685259
 30
0.0
 11
202.5449721218
 21
151.9090685259
 31
0.0
 12
202.5449721218
 22
151.0090685259
 32
0.0
 13
202.5449721218
 23
151.0090685259
 33
0.0
  0
LINE
  5
1B5
330
1B0
100
AcDbEntity
  8
VERMASSUNG
100
AcDbLine
 10
163.5449721218
 20
131.7787739736
 30
0.0
 11
163.5449721218
 21
152.4590685259
 31
0.0
  0
LINE
  5
1B6
330
1B0
100
AcDbEntity
  8
VERMASSUNG
100
AcDbLine
 10
205.5449721218
 20
119.3537739736
 30
0.0
 11
205.5449721218
 21
152.4590685259
 31
0.0
  0
LINE
  5
1B7
330
1B0
100
AcDbEntity
  8
VERMASSUNG
100
AcDbLine
 10
163.5449721218
 20
151.4590685259
 30
0.0
 11
205.5449721218
 21
151.4590685259
 31
0.0
  0
MTEXT
  5
1B8
330
1B0
100
AcDbEntity
  8
VERMASSUNG
100
AcDbMText
 10
183.0460133165
 20
154.0372041219
 30
0.0
 40
2.0
 41
0.0
 71
     1
 72
     1
  1
42
  7
SLDTEXTSTYLE0
 73
     1
 44
1.0
  0
ENDBLK
  5
1B2
330
1B0
100
AcDbEntity
  8
0
100
AcDbBlockEnd
  0
BLOCK
  5
1BB
330
1BA
100
AcDbEntity
  8
0
100
AcDbBlockBegin
  2
_D_4
 70
     0
 10
0.0
 20
0.0
 30
0.0
  3
_D_4
  1

  0
ARC
  5
1BD
330
1BA
100
AcDbEntity
  8
VERMASSUNG
100
AcDbCircle
 10
151.0571374153
 20
159.3584114714
 30
0.0
 40
4.247059938537297
100
AcDbArc
 50
153.4349488229
 51
206.5650511771
  0
ARC
  5
1BE
330
1BA
100
AcDbEntity
  8
VERMASSUNG
100
AcDbCircle
 10
152.6328068283
 20
159.3584114714
 30
0.0
 40
4.247059938537297
100
AcDbArc
 50
333.4349488229
 51
26.5650511771
  0
SOLID
  5
1BF
330
1BA
100
AcDbEntity
  8
VERMASSUNG
100
AcDbTrace
 10
98.1449721218
 20
157.4590685259
 30
0.0
 11
101.1449721218
 21
157.0090685259
 31
0.0
 12
101.1449721218
 22
157.9090685259
 32
0.0
 13
101.1449721218
 23
157.9090685259
 33
0.0
  0
SOLID
  5
1C0
330
1BA
100
AcDbEntity
  8
VERMASSUNG
100
AcDbTrace
 10
205.5449721218
 20
157.4590685259
 30
0.0
 11
202.5449721218
 21
157.9090685259
 31
0.0
 12
202.5449721218
 22
157.0090685259
 32
0.0
 13
202.5449721218
 23
157.0090685259
 33
0.0
  0
LINE
  5
1C1
330
1BA
100
AcDbEntity
  8
VERMASSUNG
100
AcDbLine
 10
98.1449721218
 20
121.3765295706
 30
0.0
 11
98.1449721218
 21
158.4590685259
 31
0.0
  0
LINE
  5
1C2
330
1BA
100
AcDbEntity
  8
VERMASSUNG
100
AcDbLine
 10
205.5449721218
 20
119.3537739736
 30
0.0
 11
205.5449721218
 21
158.4590685259
 31
0.0
  0
LINE
  5
1C3
330
1BA
100
AcDbEntity
  8
VERMASSUNG
100
AcDbLine
 10
98.1449721218
 20
157.4590685259
 30
0.0
 11
205.5449721218
 21
157.4590685259
 31
0.0
  0
MTEXT
  5
1C4
330
1BA
100
AcDbEntity
  8
VERMASSUNG
100
AcDbMText
 10
148.8459515245
 20
160.0372041219
 30
0.0
 40
2.0
 41
0.0
 71
     1
 72
     1
  1
107.4
  7
SLDTEXTSTYLE0
 73
     1
 44
1.0
  0
ENDBLK
  5
1BC
330
1BA
100
AcDbEntity
  8
0
100
AcDbBlockEnd
  0
BLOCK
  5
1C7
330
1C6
100
AcDbEntity
  8
0
100
AcDbBlockBegin
  2
_D_5
 70
     0
 10
0.0
 20
0.0
 30
0.0
  3
_D_5
  1

  0
SOLID
  5
1C9
330
1C6
100
AcDbEntity
  8
VERMASSUNG
100
AcDbTrace
 10
88.1449721218
 20
141.0537739736
 30
0.0
 11
87.6949721218
 21
138.0537739736
 31
0.0
 12
88.5949721218
 22
138.0537739736
 32
0.0
 13
88.5949721218
 23
138.0537739736
 33
0.0
  0
SOLID
  5
1CA
330
1C6
100
AcDbEntity
  8
VERMASSUNG
100
AcDbTrace
 10
88.1449721218
 20
78.0537739736
 30
0.0
 11
88.5949721218
 21
81.0537739736
 31
0.0
 12
87.6949721218
 22
81.0537739736
 32
0.0
 13
87.6949721218
 23
81.0537739736
 33
0.0
  0
LINE
  5
1CB
330
1C6
100
AcDbEntity
  8
VERMASSUNG
100
AcDbLine
 10
187.5449679778
 20
141.0537739736
 30
0.0
 11
87.1449721218
 21
141.0537739736
 31
0.0
  0
LINE
  5
1CC
330
1C6
100
AcDbEntity
  8
VERMASSUNG
100
AcDbLine
 10
187.5449728879
 20
78.0537739736
 30
0.0
 11
87.1449721218
 21
78.0537739736
 31
0.0
  0
LINE
  5
1CD
330
1C6
100
AcDbEntity
  8
VERMASSUNG
100
AcDbLine
 10
88.1449721218
 20
141.0537739736
 30
0.0
 11
88.1449721218
 21
78.0537739736
 31
0.0
  0
MTEXT
  5
1CE
330
1C6
100
AcDbEntity
  8
VERMASSUNG
100
AcDbMText
 10
85.3668368656
 20
98.8492889066
 30
0.0
 40
2.0
 41
0.0
 71
     1
 72
     1
  1
MAS BT 40
  7
SLDTEXTSTYLE0
 11
-7.044195017643634E-15
 21
1.0
 31
0.0
 73
     1
 44
1.0
  0
MTEXT
  5
1CF
330
1C6
100
AcDbEntity
  8
VERMASSUNG
100
AcDbMText
 10
85.5668368169
 20
113.8492885714
 30
0.0
 40
2.0
 41
0.0
 71
     1
 72
     1
  1
%%c
  7
SLDTEXTSTYLE0
 11
-7.044195017643634E-15
 21
1.0
 31
0.0
 73
     1
 44
1.0
  0
MTEXT
  5
1D0
330
1C6
100
AcDbEntity
  8
VERMASSUNG
100
AcDbMText
 10
85.5668365259
 20
117.4588790199
 30
0.0
 40
2.0
 41
0.0
 71
     1
 72
     1
  1
63
  7
SLDTEXTSTYLE0
 11
-7.044195017643634E-15
 21
1.0
 31
0.0
 73
     1
 44
1.0
  0
ENDBLK
  5
1C8
330
1C6
100
AcDbEntity
  8
0
100
AcDbBlockEnd
  0
ENDSEC
  0
SECTION
  2
ENTITIES
  0
MTEXT
  5
78
330
1F
100
AcDbEntity
  8
KOPF_DÜNN
100
AcDbMText
 10
13.8892156294
 20
23.8442973028
 30
0.0
 40
3.0
 41
0.0
 71
     1
 72
     1
  1
134.640.020.042
  7
SLDTEXTSTYLE0
 73
     1
 44
1.0
  0
MTEXT
  5
79
330
1F
100
AcDbEntity
  8
VERMASSUNG
100
AcDbMText
 10
13.9329988022
 20
28.8834360957
 30
0.0
 40
3.0
 41
0.0
 71
     1
 72
     1
  1
Aufnahme_Master shank ST1
  7
SLDTEXTSTYLE0
 73
     1
 44
1.0
  0
MTEXT
  5
7A
330
1F
100
AcDbEntity
  8
VERMASSUNG
100
AcDbMText
 10
98.8601118557
 20
13.8365368761
 30
0.0
 40
2.0
 41
0.0
 71
     1
 72
     1
  1
Datum: 06.06.2008
  7
SLDTEXTSTYLE0
 73
     1
 44
1.0
  0
MTEXT
  5
7C
330
1F
100
AcDbEntity
  8
VERMASSUNG
100
AcDbMText
 10
13.933048693
 20
18.0482802738
 30
0.0
 40
2.0
 41
0.0
 71
     1
 72
     1
  1
MAS BT 40 B
  7
SLDTEXTSTYLE1
 73
     1
 44
1.0
  0
MTEXT
  5
7D
330
1F
100
AcDbEntity
  8
VERMASSUNG
100
AcDbMText
 10
13.9808475933
 20
13.9090974274
 30
0.0
 40
2.0
 41
0.0
 71
     1
 72
     1
  1
Gewicht: 1012g
  7
SLDTEXTSTYLE0
 73
     1
 44
1.0
  0
LINE
  5
7E
330
1F
100
AcDbEntity
  8
0
  6
Continuous
 62
     7
370
    15
100
AcDbLine
 10
187.5449745632
 20
78.0537739736
 30
0.0
 11
189.5449721218
 21
78.0537739736
 31
0.0
  0
LINE
  5
7F
330
1F
100
AcDbEntity
  8
0
  6
Continuous
 62
     7
370
    15
100
AcDbLine
 10
189.5449721218
 20
141.0537739736
 30
0.0
 11
187.5444719518
 21
141.0537739736
 31
0.0
  0
ARC
  5
80
330
1F
100
AcDbEntity
  8
0
  6
Continuous
 62
     7
370
    15
100
AcDbCircle
 10
189.5449721218
 20
79.0537739736
 30
0.0
 40
1.0
100
AcDbArc
 50
270.0
 51
0.0
  0
ARC
  5
81
330
1F
100
AcDbEntity
  8
0
  6
Continuous
 62
     7
370
    15
100
AcDbCircle
 10
189.5449721218
 20
140.0537739736
 30
0.0
 40
1.0
100
AcDbArc
 50
0.0
 51
90.0
  0
ARC
  5
82
330
1F
100
AcDbEntity
  8
0
  6
Continuous
 62
     7
370
    15
100
AcDbCircle
 10
164.5449721218
 20
86.3287739736
 30
0.0
 40
1.0
100
AcDbArc
 50
46.4345794674
 51
90.0
  0
ARC
  5
83
330
1F
100
AcDbEntity
  8
0
  6
Continuous
 62
     7
370
    15
100
AcDbCircle
 10
164.5449721218
 20
132.7787739736
 30
0.0
 40
1.0
100
AcDbArc
 50
270.0
 51
313.5376081075
  0
LINE
  5
84
330
1F
100
AcDbEntity
  8
0
  6
Continuous
 62
     7
370
    15
100
AcDbLine
 10
163.5449721218
 20
87.3287739736
 30
0.0
 11
164.5449721218
 21
87.3287739736
 31
0.0
  0
LINE
  5
85
330
1F
100
AcDbEntity
  8
0
  6
Continuous
 62
     7
370
    15
100
AcDbLine
 10
164.5449721218
 20
131.7787739736
 30
0.0
 11
163.5449721218
 21
131.7787739736
 31
0.0
  0
LINE
  5
86
330
1F
100
AcDbEntity
  8
0
  6
Continuous
 62
     7
370
    15
100
AcDbLine
 10
163.5449721218
 20
131.7787739736
 30
0.0
 11
99.0006652288
 21
122.3660625517
 31
0.0
  0
LINE
  5
87
330
1F
100
AcDbEntity
  8
0
  6
Continuous
 62
     7
370
    15
100
AcDbLine
 10
99.0006652288
 20
96.7414853955
 30
0.0
 11
163.5449721218
 21
87.3287739736
 31
0.0
  0
ARC
  5
88
330
1F
100
AcDbEntity
  8
0
  6
Continuous
 62
     7
370
    15
100
AcDbCircle
 10
194.5449721218
 20
95.5537739736
 30
0.0
 40
4.0
100
AcDbArc
 50
90.0
 51
180.0
  0
ARC
  5
89
330
1F
100
AcDbEntity
  8
0
  6
Continuous
 62
     7
370
    15
100
AcDbCircle
 10
194.5449721218
 20
123.5537739736
 30
0.0
 40
4.0
100
AcDbArc
 50
180.0
 51
270.0
  0
ARC
  5
8A
330
1F
100
AcDbEntity
  8
0
  6
Continuous
 62
     7
370
    15
100
AcDbCircle
 10
99.1449721218
 20
97.7310183766
 30
0.0
 40
1.00000000000001
100
AcDbArc
 50
180.0
 51
261.7028550302
  0
ARC
  5
8B
330
1F
100
AcDbEntity
  8
0
  6
Continuous
 62
     7
370
    15
100
AcDbCircle
 10
99.1449721218
 20
121.3765295706
 30
0.0
 40
1.00000000000001
100
AcDbArc
 50
98.2971449698
 51
180.0
  0
LINE
  5
8C
330
1F
100
AcDbEntity
  8
0
  6
Continuous
 62
     7
370
    15
100
AcDbLine
 10
205.3449721218
 20
119.5537739736
 30
0.0
 11
194.5449721218
 21
119.5537739736
 31
0.0
  0
LINE
  5
8D
330
1F
100
AcDbEntity
  8
0
  6
Continuous
 62
     7
370
    15
100
AcDbLine
 10
194.5449721218
 20
99.5537739736
 30
0.0
 11
205.3449721218
 21
99.5537739736
 31
0.0
  0
LINE
  5
8E
330
1F
100
AcDbEntity
  8
0
  6
Continuous
 62
     7
370
    15
100
AcDbLine
 10
205.3449721218
 20
99.5537739736
 30
0.0
 11
205.5449721218
 21
99.7537739736
 31
0.0
  0
LINE
  5
8F
330
1F
100
AcDbEntity
  8
0
  6
Continuous
 62
     7
370
    15
100
AcDbLine
 10
205.5449721218
 20
119.3537739736
 30
0.0
 11
205.3449721218
 21
119.5537739736
 31
0.0
  0
SPLINE
  5
90
330
1F
100
AcDbEntity
  8
0
  6
Continuous
 62
     7
370
    15
100
AcDbSpline
210
0.0
220
0.0
230
1.0
 70
    24
 71
     3
 72
    11
 73
     7
 74
     0
 42
0.000000001
 43
0.00000001
 40
0.0
 40
0.0
 40
0.0
 40
0.0
 40
0.1208913875340386
 40
0.4766714197329895
 40
0.8143663490172296
 40
1.0
 40
1.0
 40
1.0
 40
1.0
 10
199.9953425587631
 20
108.5127631028266
 30
0.0
 10
199.9706777852421
 20
108.5488370930599
 30
0.0
 10
199.8734252608775
 20
108.6910758454701
 30
0.0
 10
199.6900156765668
 20
108.9593254423095
 30
0.0
 10
199.4890304809842
 20
109.253280624032
 30
0.0
 10
199.381690735163
 20
109.4102726571888
 30
0.0
 10
199.3436154806027
 20
109.4659604323055
 30
0.0
  0
SPLINE
  5
91
330
1F
100
AcDbEntity
  8
0
  6
Continuous
 62
     7
370
    15
100
AcDbSpline
210
0.0
220
0.0
230
1.0
 70
    24
 71
     3
 72
    10
 73
     6
 74
     0
 42
0.000000001
 43
0.00000001
 40
0.0
 40
0.0
 40
0.0
 40
0.0
 40
0.4391051671061716
 40
0.751357898069263
 40
1.0
 40
1.0
 40
1.0
 40
1.0
 10
201.1466991999916
 20
108.6005766441081
 30
0.0
 10
200.9818782586122
 20
108.5880058124287
 30
0.0
 10
200.6998512515315
 20
108.5664957178655
 30
0.0
 10
200.2898684364273
 20
108.5352264815839
 30
0.0
 10
200.0858035743698
 20
108.5196625307222
 30
0.0
 10
199.9953425587631
 20
108.5127631028266
 30
0.0
  0
SPLINE
  5
92
330
1F
100
AcDbEntity
  8
0
  6
Continuous
 62
     7
370
    15
100
AcDbSpline
210
0.0
220
0.0
230
1.0
 70
    24
 71
     3
 72
    10
 73
     6
 74
     0
 42
0.000000001
 43
0.00000001
 40
0.0
 40
0.0
 40
0.0
 40
0.0
 40
0.4391051671061756
 40
0.7513578980692655
 40
1.0
 40
1.0
 40
1.0
 40
1.0
 10
201.6463287630597
 20
109.6415875148687
 30
0.0
 10
201.5748049519511
 20
109.4925629767188
 30
0.0
 10
201.4524197367403
 20
109.237565376752
 30
0.0
 10
201.2745082821649
 20
108.8668752256159
 30
0.0
 10
201.1859546279657
 20
108.6823678956236
 30
0.0
 10
201.1466991999916
 20
108.6005766441081
 30
0.0
  0
SPLINE
  5
93
330
1F
100
AcDbEntity
  8
0
  6
Continuous
 62
     7
370
    15
100
AcDbSpline
210
0.0
220
0.0
230
1.0
 70
    24
 71
     3
 72
    11
 73
     7
 74
     0
 42
0.000000001
 43
0.00000001
 40
0.0
 40
0.0
 40
0.0
 40
0.0
 40
0.1856336509827619
 40
0.5233285802669914
 40
0.879108612465938
 40
1.0
 40
1.0
 40
1.0
 40
1.0
 10
200.9946016848993
 20
110.5947848443477
 30
0.0
 10
201.0326769394595
 20
110.539097069231
 30
0.0
 10
201.1400166852807
 20
110.3821050360742
 30
0.0
 10
201.3410018808633
 20
110.0881498543517
 30
0.0
 10
201.5244114651741
 20
109.8199002575123
 30
0.0
 10
201.6216639895387
 20
109.6776615051021
 30
0.0
 10
201.6463287630597
 20
109.6415875148687
 30
0.0
  0
SPLINE
  5
94
330
1F
100
AcDbEntity
  8
0
  6
Continuous
 62
     7
370
    15
100
AcDbSpline
210
0.0
220
0.0
230
1.0
 70
    24
 71
     3
 72
    10
 73
     6
 74
     0
 42
0.000000001
 43
0.00000001
 40
0.0
 40
0.0
 40
0.0
 40
0.0
 40
0.4391051671061715
 40
0.7513578980692772
 40
1.0
 40
1.0
 40
1.0
 40
1.0
 10
199.8432450436708
 20
110.5069713030661
 30
0.0
 10
200.0080659850502
 20
110.5195421347456
 30
0.0
 10
200.2900929921309
 20
110.5410522293088
 30
0.0
 10
200.7000758072351
 20
110.5723214655903
 30
0.0
 10
200.9041406692925
 20
110.5878854164521
 30
0.0
 10
200.9946016848993
 20
110.5947848443477
 30
0.0
  0
SPLINE
  5
95
330
1F
100
AcDbEntity
  8
0
  6
Continuous
 62
     7
370
    15
100
AcDbSpline
210
0.0
220
0.0
230
1.0
 70
    24
 71
     3
 72
    10
 73
     6
 74
     0
 42
0.000000001
 43
0.00000001
 40
0.0
 40
0.0
 40
0.0
 40
0.0
 40
0.4391051671061758
 40
0.7513578980692611
 40
1.0
 40
1.0
 40
1.0
 40
1.0
 10
199.3436154806027
 20
109.4659604323055
 30
0.0
 10
199.4151392917113
 20
109.6149849704555
 30
0.0
 10
199.5375245069221
 20
109.8699825704222
 30
0.0
 10
199.7154359614975
 20
110.2406727215583
 30
0.0
 10
199.8039896156967
 20
110.4251800515507
 30
0.0
 10
199.8432450436708
 20
110.5069713030661
 30
0.0
  0
CIRCLE
  5
96
330
1F
100
AcDbEntity
  8
0
  6
Continuous
 62
     7
370
    15
100
AcDbCircle
 10
200.4949721218
 20
109.5537739736
 30
0.0
 40
1.250000000000012
  0
CIRCLE
  5
97
330
1F
100
AcDbEntity
  8
0
  6
Continuous
 62
     7
370
    15
100
AcDbCircle
 10
200.4949721218
 20
109.5537739736
 30
0.0
 40
1.750000000000013
  0
CIRCLE
  5
98
330
1F
100
AcDbEntity
  8
0
  6
Continuous
 62
     7
370
    15
100
AcDbCircle
 10
200.4949721218
 20
109.5537739736
 30
0.0
 40
2.000000000000009
  0
ARC
  5
99
330
1F
100
AcDbEntity
  8
0
  6
Continuous
 62
     7
370
    15
100
AcDbCircle
 10
200.4949721218
 20
109.5537739736
 30
0.0
 40
1.000000000000026
100
AcDbArc
 50
154.3614837981
 51
214.3614837981
  0
ARC
  5
9A
330
1F
100
AcDbEntity
  8
0
  6
Continuous
 62
     7
370
    15
100
AcDbCircle
 10
200.4949721218
 20
109.5537739736
 30
0.0
 40
1.000000000000026
100
AcDbArc
 50
94.3614837981
 51
154.3614837981
  0
ARC
  5
9B
330
1F
100
AcDbEntity
  8
0
  6
Continuous
 62
     7
370
    15
100
AcDbCircle
 10
200.4949721218
 20
109.5537739736
 30
0.0
 40
0.9999999999999939
100
AcDbArc
 50
334.3614837981
 51
34.3614837981
  0
ARC
  5
9C
330
1F
100
AcDbEntity
  8
0
  6
Continuous
 62
     7
370
    15
100
AcDbCircle
 10
200.4949721218
 20
109.5537739736
 30
0.0
 40
1.000000000000013
100
AcDbArc
 50
274.3614837981
 51
334.3614837981
  0
ARC
  5
9D
330
1F
100
AcDbEntity
  8
0
  6
Continuous
 62
     7
370
    15
100
AcDbCircle
 10
200.4949721218
 20
109.5537739736
 30
0.0
 40
0.9999999999999991
100
AcDbArc
 50
34.3614837981
 51
94.3614837981
  0
ARC
  5
9E
330
1F
100
AcDbEntity
  8
0
  6
Continuous
 62
     7
370
    15
100
AcDbCircle
 10
200.4949721218
 20
109.5537739736
 30
0.0
 40
1.000000000000013
100
AcDbArc
 50
214.3614837981
 51
274.3614837981
  0
SPLINE
  5
9F
330
1F
100
AcDbEntity
  8
0
  6
Continuous
 62
     7
370
    15
100
AcDbSpline
210
0.0
220
0.0
230
1.0
 70
     8
 71
     3
 72
    11
 73
     7
 74
     0
 42
0.000000001
 43
0.00000001
 40
0.0
 40
0.0
 40
0.0
 40
0.0
 40
0.2488814606695658
 40
0.5011921284368381
 40
0.7520447562540515
 40
1.0
 40
1.0
 40
1.0
 40
1.0
 10
187.544471951814
 20
141.0536242281808
 30
0.0
 10
187.5146936223146
 20
141.0444922020364
 30
0.0
 10
187.4547266633335
 20
141.0261023243497
 30
0.0
 10
186.9628046015867
 20
140.8820650758646
 30
0.0
 10
186.2347351789673
 20
140.6726619977533
 30
0.0
 10
185.5239917077897
 20
140.5004577284044
 30
0.0
 10
185.17068419064
 20
140.4148557280858
 30
0.0
  0
SPLINE
  5
A0
330
1F
100
AcDbEntity
  8
0
  6
Continuous
 62
     7
370
    15
100
AcDbSpline
210
0.0
220
0.0
230
1.0
 70
     8
 71
     3
 72
    24
 73
    20
 74
     0
 42
0.000000001
 43
0.00000001
 40
0.0
 40
0.0
 40
0.0
 40
0.0
 40
0.0452114671023834
 40
0.090297583172113
 40
0.1353065475381242
 40
0.180286807527363
 40
0.2252869031540456
 40
0.2703553103185765
 40
0.3155402850378377
 40
0.3608897111899876
 40
0.4064509541270623
 40
0.4522707222957853
 40
0.4983949387249645
 40
0.5831092862634725
 40
0.6669820720809938
 40
0.7503070032562216
 40
0.8333835976755697
 40
0.9165140575167225
 40
1.0
 40
1.0
 40
1.0
 40
1.0
 10
185.1705908152487
 20
78.69267595405174
 30
0.0
 10
185.2382945571514
 20
78.67691691303423
 30
0.0
 10
185.3735143289779
 20
78.64544252372129
 30
0.0
 10
185.5661760458159
 20
78.59898172038251
 30
0.0
 10
185.7509129174646
 20
78.55335074075049
 30
0.0
 10
185.9270308587559
 20
78.50872544331726
 30
0.0
 10
186.0947146513676
 20
78.46523815671833
 30
0.0
 10
186.2539141356596
 20
78.42303710892016
 30
0.0
 10
186.4046422741413
 20
78.382270516608
 30
0.0
 10
186.5468952275833
 20
78.3430907639994
 30
0.0
 10
186.6806739826602
 20
78.30565347219773
 30
0.0
 10
186.805977893624
 20
78.27011688822056
 30
0.0
 10
186.9550857117563
 20
78.22739789337017
 30
0.0
 10
187.1159447334049
 20
78.18086189125131
 30
0.0
 10
187.2719583960502
 20
78.13517562881333
 30
0.0
 10
187.3936134989347
 20
78.09913555133582
 30
0.0
 10
187.4800604717963
 20
78.07326187361969
 30
0.0
 10
187.5343966649111
 20
78.05685031329743
 30
0.0
 10
187.5414419754284
 20
78.05480088202223
 30
0.0
 10
187.5449721464104
 20
78.05377398011356
 30
0.0
  0
LINE
  5
A1
330
1F
100
AcDbEntity
  8
0
  6
Continuous
 62
     7
370
    15
100
AcDbLine
 10
185.1699721218
 20
78.6926759541
 30
0.0
 11
185.1699721218
 21
140.4148557281
 31
0.0
  0
SPLINE
  5
A2
330
1F
100
AcDbEntity
  8
0
  6
Continuous
 62
     7
370
    15
100
AcDbSpline
210
0.0
220
0.0
230
1.0
 70
     8
 71
     3
 72
    10
 73
     6
 74
     0
 42
0.000000001
 43
0.00000001
 40
0.0
 40
0.0
 40
0.0
 40
0.0
 40
0.5
 40
0.5
 40
1.0
 40
1.0
 40
1.0
 40
1.0
 10
184.5215805258766
 20
139.4582346949414
 30
0.0
 10
184.2054766947372
 20
138.8383721366642
 30
0.0
 10
183.8756976503924
 20
138.1924714013653
 30
0.0
 10
183.2034743780036
 20
136.8780527610648
 30
0.0
 10
182.8613412120729
 20
136.2101305340525
 30
0.0
 10
182.5141608835588
 20
135.5337928015711
 30
0.0
  0
SPLINE
  5
A3
330
1F
100
AcDbEntity
  8
0
  6
Continuous
 62
     7
370
    15
100
AcDbSpline
210
0.0
220
0.0
230
1.0
 70
     8
 71
     3
 72
     9
 73
     5
 74
     0
 42
0.000000001
 43
0.00000001
 40
0.0
 40
0.0
 40
0.0
 40
0.0
 40
0.5067595796178751
 40
1.0
 40
1.0
 40
1.0
 40
1.0
 10
185.1706026648157
 20
140.4159090809362
 30
0.0
 10
185.0602023170336
 20
140.2538341426018
 30
0.0
 10
184.8423468442959
 20
139.9340080458628
 30
0.0
 10
184.6277537420874
 20
139.6156600662255
 30
0.0
 10
184.5219077501429
 20
139.4586379749215
 30
0.0
  0
SPLINE
  5
A4
330
1F
100
AcDbEntity
  8
0
  6
Continuous
 62
     7
370
    15
100
AcDbSpline
210
0.0
220
0.0
230
1.0
 70
     8
 71
     3
 72
     9
 73
     5
 74
     0
 42
0.000000001
 43
0.00000001
 40
0.0
 40
0.0
 40
0.0
 40
0.0
 40
0.4932426502230348
 40
1.0
 40
1.0
 40
1.0
 40
1.0
 10
184.5218938351201
 20
79.64890787188243
 30
0.0
 10
184.6277399401313
 20
79.49188463222227
 30
0.0
 10
184.8423323014434
 20
79.17353576358903
 30
0.0
 10
185.0601865894035
 20
78.8537097168855
 30
0.0
 10
185.1705858510077
 20
78.69163551706838
 30
0.0
  0
SPLINE
  5
A5
330
1F
100
AcDbEntity
  8
0
  6
Continuous
 62
     7
370
    15
100
AcDbSpline
210
0.0
220
0.0
230
1.0
 70
     8
 71
     3
 72
    10
 73
     6
 74
     0
 42
0.000000001
 43
0.00000001
 40
0.0
 40
0.0
 40
0.0
 40
0.0
 40
0.5
 40
0.5
 40
1.0
 40
1.0
 40
1.0
 40
1.0
 10
184.5215746062088
 20
79.64932486038218
 30
0.0
 10
184.2053955035347
 20
80.2693350123959
 30
0.0
 10
183.8749532763676
 20
80.9165330782636
 30
0.0
 10
183.203241755685
 20
82.22994900285737
 30
0.0
 10
182.861267880653
 20
82.89756026916018
 30
0.0
 10
182.5141608835588
 20
83.57375514560333
 30
0.0
  0
SPLINE
  5
A6
330
1F
100
AcDbEntity
  8
0
  6
Continuous
 62
     7
370
    15
100
AcDbSpline
210
0.0
220
0.0
230
1.0
 70
     8
 71
     3
 72
     8
 73
     4
 74
     0
 42
0.000000001
 43
0.00000001
 40
0.0
 40
0.0
 40
0.0
 40
0.0
 40
0.0012389803509652
 40
0.0012389803509652
 40
0.0012389803509652
 40
0.0012389803509652
 10
175.6775336653648
 20
139.0077966963737
 30
0.0
 10
175.492413692232
 20
139.2688466777527
 30
0.0
 10
175.3065352444731
 20
139.5296282908717
 30
0.0
 10
175.1199721218311
 20
139.790164076589
 30
0.0
  0
SPLINE
  5
A7
330
1F
100
AcDbEntity
  8
0
  6
Continuous
 62
     7
370
    15
100
AcDbSpline
210
0.0
220
0.0
230
1.0
 70
     8
 71
     3
 72
     8
 73
     4
 74
     0
 42
0.000000001
 43
0.00000001
 40
0.0
 40
0.0
 40
0.0
 40
0.0
 40
1.0
 40
1.0
 40
1.0
 40
1.0
 10
177.7757833601034
 20
135.2210196380522
 30
0.0
 10
177.0794899940618
 20
136.484958006167
 30
0.0
 10
176.3796948288707
 20
137.7470134516753
 30
0.0
 10
175.6775336653648
 20
139.0077966963737
 30
0.0
  0
SPLINE
  5
A8
330
1F
100
AcDbEntity
  8
0
  6
Continuous
 62
     7
370
    15
100
AcDbSpline
210
0.0
220
0.0
230
1.0
 70
     8
 71
     3
 72
     8
 73
     4
 74
     0
 42
0.000000001
 43
0.00000001
 40
0.0
 40
0.0
 40
0.0
 40
0.0
 40
1.0
 40
1.0
 40
1.0
 40
1.0
 10
177.7757833601034
 20
83.88652830912214
 30
0.0
 10
177.0794652194454
 20
82.62254496917535
 30
0.0
 10
176.379668027335
 20
81.36048637132339
 30
0.0
 10
175.6775336653648
 20
80.09975125080068
 30
0.0
  0
SPLINE
  5
A9
330
1F
100
AcDbEntity
  8
0
  6
Continuous
 62
     7
370
    15
100
AcDbSpline
210
0.0
220
0.0
230
1.0
 70
     8
 71
     3
 72
     8
 73
     4
 74
     0
 42
0.000000001
 43
0.00000001
 40
0.0
 40
0.0
 40
0.0
 40
0.0
 40
0.0012389803509652
 40
0.0012389803509652
 40
0.0012389803509652
 40
0.0012389803509652
 10
175.1199721218311
 20
79.31738387058536
 30
0.0
 10
175.3065352444731
 20
79.5779196563027
 30
0.0
 10
175.492413692232
 20
79.83870126942169
 30
0.0
 10
175.6775336653648
 20
80.09975125080068
 30
0.0
  0
LINE
  5
AA
330
1F
100
AcDbEntity
  8
0
  6
Continuous
 62
     7
370
    15
100
AcDbLine
 10
175.1199721218
 20
79.3173838706
 30
0.0
 11
175.1199721218
 21
139.7901640766
 31
0.0
  0
LINE
  5
AB
330
1F
100
AcDbEntity
  8
0
  6
Continuous
 62
     7
370
    15
100
AcDbLine
 10
165.5449721218
 20
80.4273684281
 30
0.0
 11
165.5449721218
 21
138.6801795191
 31
0.0
  0
SPLINE
  5
AC
330
1F
100
AcDbEntity
  8
0
  6
Continuous
 62
     7
370
    15
100
AcDbSpline
210
0.0
220
0.0
230
1.0
 70
     8
 71
     3
 72
    12
 73
     8
 74
     0
 42
0.000000001
 43
0.00000001
 40
0.0
 40
0.0
 40
0.0
 40
0.0
 40
0.2500000000000001
 40
0.2500000000000001
 40
0.5000000000000002
 40
0.5000000000000002
 40
1.0
 40
1.0
 40
1.0
 40
1.0
 10
165.9320049447966
 20
139.6207638734082
 30
0.0
 10
165.8801441936085
 20
139.5639513010938
 30
0.0
 10
165.8314123965896
 20
139.501959114842
 30
0.0
 10
165.7412393866722
 20
139.365906041718
 30
0.0
 10
165.6994621383872
 20
139.2909999391192
 30
0.0
 10
165.5933732685413
 20
139.0528733038218
 30
0.0
 10
165.5449721218311
 20
138.8694665722531
 30
0.0
 10
165.5449721218311
 20
138.6801795190712
 30
0.0
  0
SPLINE
  5
AD
330
1F
100
AcDbEntity
  8
0
  6
Continuous
 62
     7
370
    15
100
AcDbSpline
210
0.0
220
0.0
230
1.0
 70
     8
 71
     3
 72
     8
 73
     4
 74
     0
 42
0.000000001
 43
0.00000001
 40
0.0
 40
0.0
 40
0.0
 40
0.0
 40
1.0
 40
1.0
 40
1.0
 40
1.0
 10
166.5449721218311
 20
139.790164076589
 30
0.0
 10
166.3186278082313
 20
139.790164076589
 30
0.0
 10
166.1011756878261
 20
139.7267956075681
 30
0.0
 10
165.9320049447966
 20
139.6207638734082
 30
0.0
  0
SPLINE
  5
AE
330
1F
100
AcDbEntity
  8
0
  6
Continuous
 62
     7
370
    15
100
AcDbSpline
210
0.0
220
0.0
230
1.0
 70
     8
 71
     3
 72
     8
 73
     4
 74
     0
 42
0.000000001
 43
0.00000001
 40
0.0
 40
0.0
 40
0.0
 40
0.0
 40
1.0
 40
1.0
 40
1.0
 40
1.0
 10
165.9320049447967
 20
79.48678407376623
 30
0.0
 10
166.1015984504486
 20
79.38048736320904
 30
0.0
 10
166.3179671427818
 20
79.31738387058536
 30
0.0
 10
166.5449721218311
 20
79.31738387058536
 30
0.0
  0
SPLINE
  5
AF
330
1F
100
AcDbEntity
  8
0
  6
Continuous
 62
     7
370
    15
100
AcDbSpline
210
0.0
220
0.0
230
1.0
 70
     8
 71
     3
 72
    12
 73
     8
 74
     0
 42
0.000000001
 43
0.00000001
 40
0.0
 40
0.0
 40
0.0
 40
0.0
 40
0.2499999999999976
 40
0.2499999999999976
 40
0.4999999999999952
 40
0.4999999999999952
 40
1.0
 40
1.0
 40
1.0
 40
1.0
 10
165.9320049447967
 20
79.48678407376623
 30
0.0
 10
165.8801441936085
 20
79.54359664608062
 30
0.0
 10
165.8314123965896
 20
79.60558883233243
 30
0.0
 10
165.7412393866722
 20
79.74164190545643
 30
0.0
 10
165.6994621383872
 20
79.81654800805516
 30
0.0
 10
165.5933732685413
 20
80.05467464335257
 30
0.0
 10
165.5449721218311
 20
80.23808137492135
 30
0.0
 10
165.5449721218311
 20
80.42736842810322
 30
0.0
  0
LINE
  5
B0
330
1F
100
AcDbEntity
  8
0
  6
Continuous
 62
     7
370
    15
100
AcDbLine
 10
175.1199721218
 20
139.7901640766
 30
0.0
 11
166.5449721218
 21
139.7901640766
 31
0.0
  0
LINE
  5
B1
330
1F
100
AcDbEntity
  8
0
  6
Continuous
 62
     7
370
    15
100
AcDbLine
 10
166.5449721218
 20
79.3173838706
 30
0.0
 11
175.1199721218
 21
79.3173838706
 31
0.0
  0
LINE
  5
B2
330
1F
100
AcDbEntity
  8
0
  6
Continuous
 62
     7
370
    15
100
AcDbLine
 10
190.5449721218
 20
79.0537739736
 30
0.0
 11
190.5449721218
 21
140.0537739676
 31
0.0
  0
SPLINE
  5
B3
330
1F
100
AcDbEntity
  8
0
  6
Continuous
 62
     7
370
    15
100
AcDbSpline
210
0.0
220
0.0
230
1.0
 70
     8
 71
     3
 72
    10
 73
     6
 74
     0
 42
0.000000001
 43
0.00000001
 40
0.0
 40
0.0
 40
0.0
 40
0.0
 40
0.5
 40
0.5
 40
1.0
 40
1.0
 40
1.0
 40
1.0
 10
178.4686036831309
 20
134.8014966431667
 30
0.0
 10
178.326586370684
 20
134.8014966431667
 30
0.0
 10
178.1861393238217
 20
134.8419864953762
 30
0.0
 10
177.9445494045604
 20
134.9899223253154
 30
0.0
 10
177.8438719623071
 20
135.0974226012949
 30
0.0
 10
177.7757833601035
 20
135.221019638052
 30
0.0
  0
SPLINE
  5
B4
330
1F
100
AcDbEntity
  8
0
  6
Continuous
 62
     7
370
    15
100
AcDbSpline
210
0.0
220
0.0
230
1.0
 70
     8
 71
     3
 72
    10
 73
     6
 74
     0
 42
0.000000001
 43
0.00000001
 40
0.0
 40
0.0
 40
0.0
 40
0.0
 40
0.5
 40
0.5
 40
1.0
 40
1.0
 40
1.0
 40
1.0
 10
178.4686036831309
 20
84.30605130400767
 30
0.0
 10
178.3277463186203
 20
84.30605130400767
 30
0.0
 10
178.1849121871461
 20
84.26494739818898
 30
0.0
 10
177.9446504963728
 20
84.11754950488802
 30
0.0
 10
177.8439442272932
 20
84.01025652404837
 30
0.0
 10
177.7757833601034
 20
83.88652830912216
 30
0.0
  0
SPLINE
  5
B5
330
1F
100
AcDbEntity
  8
0
  6
Continuous
 62
     7
370
    15
100
AcDbSpline
210
0.0
220
0.0
230
1.0
 70
     8
 71
     3
 72
    12
 73
     8
 74
     0
 42
0.000000001
 43
0.00000001
 40
0.0
 40
0.0
 40
0.0
 40
0.0
 40
0.2499999999999968
 40
0.2499999999999968
 40
0.4999999999999936
 40
0.4999999999999936
 40
1.0
 40
1.0
 40
1.0
 40
1.0
 10
182.5141608835588
 20
135.5337928015711
 30
0.0
 10
182.4782567332223
 20
135.4638483674229
 30
0.0
 10
182.4357251810928
 20
135.4005970043651
 30
0.0
 10
182.3389309042528
 20
135.2855383494492
 30
0.0
 10
182.2838412259885
 20
135.2332098157372
 30
0.0
 10
182.1057079924345
 20
135.0994249126521
 30
0.0
 10
181.968330900432
 20
135.0388771454939
 30
0.0
 10
181.821340560532
 20
135.01967719711
 30
0.0
  0
SPLINE
  5
B6
330
1F
100
AcDbEntity
  8
0
  6
Continuous
 62
     7
370
    15
100
AcDbSpline
210
0.0
220
0.0
230
1.0
 70
     8
 71
     3
 72
    12
 73
     8
 74
     0
 42
0.000000001
 43
0.00000001
 40
0.0
 40
0.0
 40
0.0
 40
0.0
 40
0.2500000000000022
 40
0.2500000000000022
 40
0.5000000000000044
 40
0.5000000000000044
 40
1.0
 40
1.0
 40
1.0
 40
1.0
 10
182.5141608835588
 20
83.57375514560331
 30
0.0
 10
182.4782567332223
 20
83.64369957975147
 30
0.0
 10
182.4357251810928
 20
83.70695094280931
 30
0.0
 10
182.3389309042528
 20
83.82200959772524
 30
0.0
 10
182.2838412259885
 20
83.87433813143723
 30
0.0
 10
182.1057079924345
 20
84.00812303452231
 30
0.0
 10
181.968330900432
 20
84.06867080168045
 30
0.0
 10
181.821340560532
 20
84.08787075006435
 30
0.0
  0
LINE
  5
B7
330
1F
100
AcDbEntity
  8
0
  6
Continuous
 62
     7
370
    15
100
AcDbLine
 10
178.4949721218
 20
84.306051304
 30
0.0
 11
178.4686036831
 21
84.306051304
 31
0.0
  0
LINE
  5
B8
330
1F
100
AcDbEntity
  8
0
  6
Continuous
 62
     7
370
    15
100
AcDbLine
 10
178.4949721218
 20
134.8014966432
 30
0.0
 11
178.4686036831
 21
134.8014966432
 31
0.0
  0
SPLINE
  5
B9
330
1F
100
AcDbEntity
  8
0
  6
Continuous
 62
     7
370
    15
100
AcDbSpline
210
0.0
220
0.0
230
1.0
 70
     8
 71
     3
 72
    10
 73
     6
 74
     0
 42
0.000000001
 43
0.00000001
 40
0.0
 40
0.0
 40
0.0
 40
0.0
 40
0.5
 40
0.5
 40
1.0
 40
1.0
 40
1.0
 40
1.0
 10
181.8213405605313
 20
135.019677197113
 30
0.0
 10
181.2994258361354
 20
134.9515044466048
 30
0.0
 10
180.760574656026
 20
134.8968811816468
 30
0.0
 10
179.6492120139939
 20
134.8217853287555
 30
0.0
 10
179.0723712367978
 20
134.8014966431667
 30
0.0
 10
178.4949721218311
 20
134.8014966431667
 30
0.0
  0
SPLINE
  5
BA
330
1F
100
AcDbEntity
  8
0
  6
Continuous
 62
     7
370
    15
100
AcDbSpline
210
0.0
220
0.0
230
1.0
 70
     8
 71
     3
 72
    10
 73
     6
 74
     0
 42
0.000000001
 43
0.00000001
 40
0.0
 40
0.0
 40
0.0
 40
0.0
 40
0.5
 40
0.5
 40
1.0
 40
1.0
 40
1.0
 40
1.0
 10
181.8213405605313
 20
84.08787075006143
 30
0.0
 10
181.2994258361354
 20
84.15604350056962
 30
0.0
 10
180.760574656026
 20
84.21066676552758
 30
0.0
 10
179.6492120139939
 20
84.28576261841891
 30
0.0
 10
179.0723712367978
 20
84.30605130400767
 30
0.0
 10
178.4949721218311
 20
84.30605130400767
 30
0.0
  0
SPLINE
  5
BB
330
1F
100
AcDbEntity
  8
0
  6
Continuous
 62
     7
370
    15
100
AcDbSpline
210
0.0
220
0.0
230
1.0
 70
     8
 71
     3
 72
    10
 73
     6
 74
     0
 42
0.000000001
 43
0.00000001
 40
0.0
 40
0.0
 40
0.0
 40
0.0
 40
0.2999517731092972
 40
0.9999943050113873
 40
1.0
 40
1.0
 40
1.0
 40
1.0
 10
165.3967735874379
 20
132.0537739735872
 30
0.0
 10
165.3737728721386
 20
132.0537739735977
 30
0.0
 10
165.2970919308258
 20
132.0537739736326
 30
0.0
 10
165.2043126138526
 20
132.053773973318
 30
0.0
 10
165.2337214660128
 20
132.0537739735872
 30
0.0
 10
165.2337217052579
 20
132.0537739735872
 30
0.0
  0
SPLINE
  5
BC
330
1F
100
AcDbEntity
  8
0
  6
Continuous
 62
     7
370
    15
100
AcDbSpline
210
0.0
220
0.0
230
1.0
 70
    24
 71
     3
 72
     9
 73
     5
 74
     0
 42
0.000000001
 43
0.00000001
 40
0.0
 40
0.0
 40
0.0
 40
0.0
 40
0.6712481822973831
 40
1.0
 40
1.0
 40
1.0
 40
1.0
 10
165.2337218081969
 20
87.05377397358721
 30
0.0
 10
165.2529499790851
 20
87.05377397358721
 30
0.0
 10
165.281595376414
 20
87.05377397358721
 30
0.0
 10
165.3657678281594
 20
87.05377397358721
 30
0.0
 10
165.3934396746711
 20
87.05377397358721
 30
0.0
  0
LINE
  5
BD
330
1F
100
AcDbEntity
  8
0
  6
Continuous
 62
     7
370
    15
100
AcDbLine
 10
163.5449721218
 20
87.3287739736
 30
0.0
 11
163.5449721218
 21
131.7787739736
 31
0.0
  0
LINE
  5
BE
330
1F
100
AcDbEntity
  8
0
  6
Continuous
 62
     7
370
    15
100
AcDbLine
 10
98.1449721218
 20
97.7310183766
 30
0.0
 11
98.1449721218
 21
121.3765295676
 31
0.0
  0
SPLINE
  5
BF
330
1F
100
AcDbEntity
  8
0
  6
Continuous
 62
     7
370
    15
100
AcDbSpline
210
0.0
220
0.0
230
1.0
 70
    11
 71
     3
 72
    60
 73
    56
 74
     0
 42
0.000000001
 43
0.00000001
 40
0.0
 40
0.0
 40
0.0
 40
0.0
 40
0.0624999999999982
 40
0.0624999999999982
 40
0.093749999999998
 40
0.093749999999998
 40
0.1249999999999977
 40
0.1249999999999977
 40
0.1562499999999975
 40
0.1562499999999975
 40
0.1874999999999973
 40
0.1874999999999973
 40
0.218749999999997
 40
0.218749999999997
 40
0.2499999999999968
 40
0.2499999999999968
 40
0.2812499999999966
 40
0.2812499999999966
 40
0.3124999999999963
 40
0.3124999999999963
 40
0.3437499999999961
 40
0.3437499999999961
 40
0.3749999999999958
 40
0.3749999999999958
 40
0.4062499999999956
 40
0.4062499999999956
 40
0.4374999999999953
 40
0.4374999999999953
 40
0.4687499999999951
 40
0.4687499999999951
 40
0.4999999999999949
 40
0.4999999999999949
 40
0.5312499999999947
 40
0.5312499999999947
 40
0.5624999999999944
 40
0.5624999999999944
 40
0.6249999999999951
 40
0.6249999999999951
 40
0.6874999999999959
 40
0.6874999999999959
 40
0.7499999999999967
 40
0.7499999999999967
 40
0.7812499999999971
 40
0.7812499999999971
 40
0.8124999999999976
 40
0.8124999999999976
 40
0.843749999999998
 40
0.843749999999998
 40
0.8749999999999983
 40
0.8749999999999983
 40
0.9062499999999988
 40
0.9062499999999988
 40
0.9374999999999992
 40
0.9374999999999992
 40
1.0
 40
1.0
 40
1.0
 40
1.0
 10
198.8211511904056
 20
111.2182056935982
 30
0.0
 10
199.0637296503731
 20
111.4150338201116
 30
0.0
 10
199.3374615471608
 20
111.5618645907216
 30
0.0
 10
199.78162003604
 20
111.7092086374733
 30
0.0
 10
199.9323019932058
 20
111.7449938272684
 30
0.0
 10
200.2387388461119
 20
111.7910293800429
 30
0.0
 10
200.395999057235
 20
111.8011833358437
 30
0.0
 10
200.7075353590429
 20
111.7947753490478
 30
0.0
 10
200.8614462424424
 20
111.7785337101501
 30
0.0
 10
201.165596611302
 20
111.7201913327895
 30
0.0
 10
201.3173002782122
 20
111.677442927567
 30
0.0
 10
201.6074032665169
 20
111.5674545917385
 30
0.0
 10
201.7461436342544
 20
111.5004884982077
 30
0.0
 10
202.0107943724033
 20
111.3419309872639
 30
0.0
 10
202.1379041608666
 20
111.2490949123278
 30
0.0
 10
202.3685778890842
 20
111.0437743803356
 30
0.0
 10
202.473002108527
 20
110.9311729003965
 30
0.0
 10
202.6587332372621
 20
110.6846442258003
 30
0.0
 10
202.7403871228025
 20
110.5491859204274
 30
0.0
 10
202.8698857530509
 20
110.2687045091123
 30
0.0
 10
202.9190526804492
 20
110.1224317324613
 30
0.0
 10
202.9836989526942
 20
109.8167642079872
 30
0.0
 10
202.9981667768581
 20
109.6598233995149
 30
0.0
 10
202.990579745147
 20
109.3498437014796
 30
0.0
 10
202.9682709070597
 20
109.1929594698083
 30
0.0
 10
202.8891309869654
 20
108.8915067622522
 30
0.0
 10
202.8329494078818
 20
108.7469366413629
 30
0.0
 10
202.6886474520919
 20
108.4695489218978
 30
0.0
 10
202.6019454620113
 20
108.3398520367151
 30
0.0
 10
202.4049111480156
 20
108.1011132603497
 30
0.0
 10
202.2929192566555
 20
107.9904883407403
 30
0.0
 10
202.0527102260671
 20
107.7947365713071
 30
0.0
 10
201.9241853487378
 20
107.7088164777026
 30
0.0
 10
201.6508092741858
 20
107.5598528015908
 30
0.0
 10
201.5068585554569
 20
107.4976077897503
 30
0.0
 10
201.0662114292154
 20
107.3507367823185
 30
0.0
 10
200.751358734329
 20
107.303503616138
 30
0.0
 10
200.1316728172529
 20
107.3155002832899
 30
0.0
 10
199.8188780659968
 20
107.3749808759312
 30
0.0
 10
199.2410873947751
 20
107.5934076590724
 30
0.0
 10
198.9680911462687
 20
107.7554750903683
 30
0.0
 10
198.6230882984654
 20
108.0620833023857
 30
0.0
 10
198.5165007304461
 20
108.1767581282647
 30
0.0
 10
198.3295088327786
 20
108.4253682378127
 30
0.0
 10
198.2500805434752
 20
108.557420309563
 30
0.0
 10
198.1204591789447
 20
108.837784985513
 30
0.0
 10
198.0699935746548
 20
108.9883927661394
 30
0.0
 10
198.0060540870783
 20
109.2926738290349
 30
0.0
 10
197.9916854554361
 20
109.4470238570569
 30
0.0
 10
197.9995038667753
 20
109.7603210109806
 30
0.0
 10
198.0220195063613
 20
109.9162812063571
 30
0.0
 10
198.1011051194523
 20
110.2167757581668
 30
0.0
 10
198.1587222884165
 20
110.3644450453808
 30
0.0
 10
198.3745808019056
 20
110.7778281134298
 30
0.0
 10
198.5785727304381
 20
111.0213775670848
 30
0.0
 10
198.8211511904056
 20
111.2182056935982
 30
0.0
  0
LINE
  5
C0
330
1F
100
AcDbEntity
  8
0
  6
Continuous
 62
     7
370
    15
100
AcDbLine
 10
205.3449721218
 20
109.5537739736
 30
0.0
 11
205.3449721218
 21
99.5537739736
 31
0.0
  0
LINE
  5
C1
330
1F
100
AcDbEntity
  8
0
  6
Continuous
 62
     7
370
    15
100
AcDbLine
 10
205.3449721218
 20
119.5537739736
 30
0.0
 11
205.3449721218
 21
109.5537739736
 31
0.0
  0
LINE
  5
C2
330
1F
100
AcDbEntity
  8
0
  6
Continuous
 62
     7
370
    15
100
AcDbLine
 10
205.5449721218
 20
109.5537739736
 30
0.0
 11
205.5449721218
 21
99.7537739736
 31
0.0
  0
LINE
  5
C3
330
1F
100
AcDbEntity
  8
0
  6
Continuous
 62
     7
370
    15
100
AcDbLine
 10
205.5449721218
 20
119.3537739736
 30
0.0
 11
205.5449721218
 21
109.5537739736
 31
0.0
  0
LWPOLYLINE
  5
C4
330
1F
100
AcDbEntity
  8
0
  6
HIDDEN
 62
     7
370
     0
100
AcDbPolyline
 90
       24
 70
   128
 43
0.0
 10
170.1335599446
 20
115.8460373628
 10
169.8927169443
 20
115.9422746091
 10
169.695102237
 20
116.1773805812
 10
169.5553720014
 20
116.5339185445
 10
169.4838893899
 20
116.9854457094
 10
169.4859559408
 20
117.4984743717
 10
169.5614183875
 20
118.0349555425
 10
169.7046800255
 20
118.5551008675
 10
169.9051157945
 20
119.0203335476
 10
170.1478602904
 20
119.396149403
 10
170.4149102645
 20
119.6546758911
 10
170.6864598418
 20
119.776739285
 10
170.9423694325
 20
119.753286701
 10
171.163659393
 20
119.5860575101
 10
171.3339176591
 20
119.2874543364
 10
171.4405169542
 20
118.8796232111
 10
171.4755512962
 20
118.3928111033
 10
171.4364223483
 20
117.8631226398
 10
171.3260321255
 20
117.3298423909
 10
171.1525677656
 20
116.832521313
 10
170.9288943267
 20
116.4080434354
 10
170.6716006444
 20
116.0878903404
 10
170.3997690143
 20
115.8958063185
 10
170.1335599446
 20
115.8460373628
  0
LWPOLYLINE
  5
C5
330
1F
100
AcDbEntity
  8
0
  6
HIDDEN
 62
     7
370
     0
100
AcDbPolyline
 90
       19
 70
   128
 43
0.0
 10
170.9113365512
 20
116.4560257711
 10
170.7233568847
 20
116.5486372076
 10
170.5838332634
 20
116.7784839354
 10
170.5095942951
 20
117.1178430469
 10
170.5095942951
 20
117.5257828248
 10
170.5838332634
 20
117.9530997114
 10
170.7233568847
 20
118.3482529836
 10
170.9113365512
 20
118.663581325
 10
171.1250991408
 20
118.8610514838
 10
171.3388617303
 20
118.9168456445
 10
171.5268413968
 20
118.8242342079
 10
171.6663650181
 20
118.5943874802
 10
171.7406039864
 20
118.2550283687
 10
171.7406039864
 20
117.8470885908
 10
171.6663650181
 20
117.4197717042
 10
171.5268413968
 20
117.024618432
 10
171.3388617303
 20
116.7092900906
 10
171.1250991408
 20
116.5118199318
 10
170.9113365512
 20
116.4560257711
  0
LWPOLYLINE
  5
C6
330
1F
100
AcDbEntity
  8
0
  6
HIDDEN
 62
     7
370
     0
100
AcDbPolyline
 90
       24
 70
   128
 43
0.0
 10
166.6479519785
 20
116.5343244101
 10
166.4071089782
 20
116.6305616564
 10
166.2094942709
 20
116.8656676285
 10
166.0697640353
 20
117.2222055918
 10
165.9982814238
 20
117.6737327567
 10
166.0003479748
 20
118.1867614191
 10
166.0758104214
 20
118.7232425898
 10
166.2190720594
 20
119.2433879149
 10
166.4195078284
 20
119.7086205949
 10
166.6622523243
 20
120.0844364503
 10
166.9293022984
 20
120.3429629385
 10
167.2008518757
 20
120.4650263323
 10
167.4567614664
 20
120.4415737483
 10
167.6780514269
 20
120.2743445574
 10
167.848309693
 20
119.9757413837
 10
167.9549089881
 20
119.5679102585
 10
167.9899433302
 20
119.0810981506
 10
167.9508143822
 20
118.5514096871
 10
167.8404241594
 20
118.0181294382
 10
167.6669597995
 20
117.5208083603
 10
167.4432863606
 20
117.0963304827
 10
167.1859926784
 20
116.7761773877
 10
166.9141610482
 20
116.5840933658
 10
166.6479519785
 20
116.5343244101
  0
LINE
  5
C7
330
1F
100
AcDbEntity
  8
0
  6
HIDDEN
 62
     7
370
     0
100
AcDbLine
 10
168.5889220318
 20
118.7253214987
 30
0.0
 11
169.1575010531
 21
119.2505649
 31
0.0
  0
LINE
  5
C8
330
1F
100
AcDbEntity
  8
0
  6
HIDDEN
 62
     7
370
     0
100
AcDbLine
 10
168.39145661
 20
117.5887174856
 30
0.0
 11
168.5889220318
 21
118.7253214987
 31
0.0
  0
LINE
  5
C9
330
1F
100
AcDbEntity
  8
0
  6
HIDDEN
 62
     7
370
     0
100
AcDbLine
 10
168.5889220318
 20
118.7253214987
 30
0.0
 11
166.4238585223
 21
119.1528466779
 31
0.0
  0
LINE
  5
CA
330
1F
100
AcDbEntity
  8
0
  6
HIDDEN
 62
     7
370
     0
100
AcDbLine
 10
168.39145661
 20
117.5887174856
 30
0.0
 11
166.2263931005
 21
118.0162426648
 31
0.0
  0
LINE
  5
CB
330
1F
100
AcDbEntity
  8
0
  6
HIDDEN
 62
     7
370
     0
100
AcDbLine
 10
168.39145661
 20
117.5887174856
 30
0.0
 11
168.7625702095
 21
116.9773568739
 31
0.0
  0
LWPOLYLINE
  5
CC
330
1F
100
AcDbEntity
  8
0
  6
HIDDEN
 62
     7
370
     0
100
AcDbPolyline
 90
       22
 70
   128
 43
0.0
 10
166.5196459065
 20
116.9567180676
 10
166.3089095715
 20
117.0475585755
 10
166.1413620272
 20
117.2711410968
 10
166.0318906082
 20
117.6075993435
 10
165.9902223303
 20
118.0270375238
 10
166.020059603
 20
118.4921867147
 10
166.1187512537
 20
118.9617163694
 10
166.277528096
 20
119.3939067174
 10
166.4822821108
 20
119.7503557498
 10
166.7148200053
 20
119.9993914057
 10
166.9544797671
 20
120.1188857743
 10
167.1799665746
 20
120.0982212565
 10
167.3712449355
 20
119.9392339855
 10
167.5113189279
 20
119.6560506779
 10
167.587742363
 20
119.2738334133
 10
167.5937246831
 20
118.8265438731
 10
167.5287343329
 20
118.3539256958
 10
167.3985459902
 20
117.8979730805
 10
167.2147274606
 20
117.499199418
 10
166.993611827
 20
117.1930374981
 10
166.7548461839
 20
117.0066911511
 10
166.5196459065
 20
116.9567180676
  0
LINE
  5
CD
330
1F
100
AcDbEntity
  8
0
  6
HIDDEN
 62
     7
370
     0
100
AcDbLine
 10
166.2263931005
 20
118.0162426648
 30
0.0
 11
166.5975067
 21
117.404882053
 31
0.0
  0
LINE
  5
CE
330
1F
100
AcDbEntity
  8
0
  6
HIDDEN
 62
     7
370
     0
100
AcDbLine
 10
166.2263931005
 20
118.0162426648
 30
0.0
 11
166.4238585223
 21
119.1528466779
 31
0.0
  0
LINE
  5
CF
330
1F
100
AcDbEntity
  8
0
  6
HIDDEN
 62
     7
370
     0
100
AcDbLine
 10
166.4238585223
 20
119.1528466779
 30
0.0
 11
166.9924375436
 21
119.6780900792
 31
0.0
  0
LINE
  5
D0
330
1F
100
AcDbEntity
  8
0
  6
HIDDEN
 62
     7
370
     0
100
AcDbLine
 10
169.5286146526
 20
118.6392042883
 30
0.0
 11
167.3635511431
 21
119.0667294674
 31
0.0
  0
LINE
  5
D1
330
1F
100
AcDbEntity
  8
0
  6
HIDDEN
 62
     7
370
     0
100
AcDbLine
 10
167.3635511431
 20
119.0667294674
 30
0.0
 11
166.9924375436
 21
119.6780900792
 31
0.0
  0
LINE
  5
D2
330
1F
100
AcDbEntity
  8
0
  6
HIDDEN
 62
     7
370
     0
100
AcDbLine
 10
169.5286146526
 20
118.6392042883
 30
0.0
 11
169.1575010531
 21
119.2505649
 31
0.0
  0
LINE
  5
D3
330
1F
100
AcDbEntity
  8
0
  6
HIDDEN
 62
     7
370
     0
100
AcDbLine
 10
169.1575010531
 20
119.2505649
 30
0.0
 11
166.9924375436
 21
119.6780900792
 31
0.0
  0
LINE
  5
D4
330
1F
100
AcDbEntity
  8
0
  6
HIDDEN
 62
     7
370
     0
100
AcDbLine
 10
169.3311492308
 20
117.5026002752
 30
0.0
 11
167.1660857213
 21
117.9301254543
 31
0.0
  0
LINE
  5
D5
330
1F
100
AcDbEntity
  8
0
  6
HIDDEN
 62
     7
370
     0
100
AcDbLine
 10
167.1660857213
 20
117.9301254543
 30
0.0
 11
166.5975067
 21
117.404882053
 31
0.0
  0
LINE
  5
D6
330
1F
100
AcDbEntity
  8
0
  6
HIDDEN
 62
     7
370
     0
100
AcDbLine
 10
168.7625702095
 20
116.9773568739
 30
0.0
 11
166.5975067
 21
117.404882053
 31
0.0
  0
LINE
  5
D7
330
1F
100
AcDbEntity
  8
0
  6
HIDDEN
 62
     7
370
     0
100
AcDbLine
 10
169.3311492308
 20
117.5026002752
 30
0.0
 11
168.7625702095
 21
116.9773568739
 31
0.0
  0
LINE
  5
D8
330
1F
100
AcDbEntity
  8
0
  6
HIDDEN
 62
     7
370
     0
100
AcDbLine
 10
167.1660857213
 20
117.9301254543
 30
0.0
 11
167.3635511431
 21
119.0667294674
 31
0.0
  0
LINE
  5
D9
330
1F
100
AcDbEntity
  8
0
  6
HIDDEN
 62
     7
370
     0
100
AcDbLine
 10
169.3311492308
 20
117.5026002752
 30
0.0
 11
169.5286146526
 21
118.6392042883
 31
0.0
  0
LWPOLYLINE
  5
DA
330
1F
100
AcDbEntity
  8
0
  6
HIDDEN
 62
     7
370
     0
100
AcDbPolyline
 90
       22
 70
   128
 43
0.0
 10
167.0702983372
 20
98.9812938826
 10
167.2810346721
 20
99.0721343904
 10
167.4485822164
 20
99.2957169118
 10
167.5580536355
 20
99.6321751585
 10
167.5997219133
 20
100.0516133388
 10
167.5698846406
 20
100.5167625297
 10
167.47119299
 20
100.9862921843
 10
167.3124161476
 20
101.4184825323
 10
167.1076621328
 20
101.7749315647
 10
166.8751242383
 20
102.0239672207
 10
166.6354644766
 20
102.1434615893
 10
166.409977669
 20
102.1227970715
 10
166.2186993082
 20
101.9638098004
 10
166.0786253157
 20
101.6806264928
 10
166.0022018807
 20
101.2984092283
 10
165.9962195605
 20
100.8511196881
 10
166.0612099107
 20
100.3785015108
 10
166.1913982534
 20
99.9225488954
 10
166.3752167831
 20
99.5237752329
 10
166.5963324167
 20
99.2176133131
 10
166.8350980598
 20
99.0312669661
 10
167.0702983372
 20
98.9812938826
  0
LWPOLYLINE
  5
DB
330
1F
100
AcDbEntity
  8
0
  6
HIDDEN
 62
     7
370
     0
100
AcDbPolyline
 90
       24
 70
   128
 43
0.0
 10
167.3319922652
 20
98.6359117396
 10
167.5728352654
 20
98.7321489859
 10
167.7704499728
 20
98.9672549579
 10
167.9101802083
 20
99.3237929213
 10
167.9816628198
 20
99.7753200862
 10
167.9795962689
 20
100.2883487485
 10
167.9041338222
 20
100.8248299193
 10
167.7608721842
 20
101.3449752443
 10
167.5604364153
 20
101.8102079244
 10
167.3176919194
 20
102.1860237798
 10
167.0506419453
 20
102.4445502679
 10
166.7790923679
 20
102.5666136618
 10
166.5231827772
 20
102.5431610778
 10
166.3018928168
 20
102.3759318869
 10
166.1316345507
 20
102.0773287132
 10
166.0250352555
 20
101.6694975879
 10
165.9900009135
 20
101.18268548
 10
166.0291298614
 20
100.6529970166
 10
166.1395200843
 20
100.1197167677
 10
166.3129844441
 20
99.6223956898
 10
166.5366578831
 20
99.1979178122
 10
166.7939515653
 20
98.8777647172
 10
167.0657831955
 20
98.6856806953
 10
167.3319922652
 20
98.6359117396
  0
LWPOLYLINE
  5
DC
330
1F
100
AcDbEntity
  8
0
  6
HIDDEN
 62
     7
370
     0
100
AcDbPolyline
 90
       24
 70
   128
 43
0.0
 10
170.8176002312
 20
99.3241987869
 10
171.0584432315
 20
99.4204360332
 10
171.2560579388
 20
99.6555420053
 10
171.3957881744
 20
100.0120799686
 10
171.4672707859
 20
100.4636071335
 10
171.465204235
 20
100.9766357958
 10
171.3897417883
 20
101.5131169666
 10
171.2464801503
 20
102.0332622916
 10
171.0460443814
 20
102.4984949717
 10
170.8032998854
 20
102.8743108271
 10
170.5362499114
 20
103.1328373152
 10
170.264700334
 20
103.2549007091
 10
170.0087907433
 20
103.2314481251
 10
169.7875007829
 20
103.0642189342
 10
169.6172425167
 20
102.7656157605
 10
169.5106432216
 20
102.3577846352
 10
169.4756088796
 20
101.8709725274
 10
169.5147378275
 20
101.3412840639
 10
169.6251280503
 20
100.808003815
 10
169.7985924102
 20
100.3106827371
 10
170.0222658491
 20
99.8862048595
 10
170.2795595314
 20
99.5660517645
 10
170.5513911616
 20
99.3739677426
 10
170.8176002312
 20
99.3241987869
  0
LINE
  5
DD
330
1F
100
AcDbEntity
  8
0
  6
HIDDEN
 62
     7
370
     0
100
AcDbLine
 10
167.1660857213
 20
101.1774224928
 30
0.0
 11
166.5975067
 21
101.7026658941
 31
0.0
  0
LINE
  5
DE
330
1F
100
AcDbEntity
  8
0
  6
HIDDEN
 62
     7
370
     0
100
AcDbLine
 10
166.2263931005
 20
101.0913052824
 30
0.0
 11
166.5975067
 21
101.7026658941
 31
0.0
  0
LINE
  5
DF
330
1F
100
AcDbEntity
  8
0
  6
HIDDEN
 62
     7
370
     0
100
AcDbLine
 10
166.4238585223
 20
99.9547012693
 30
0.0
 11
166.2263931005
 21
101.0913052824
 31
0.0
  0
LINE
  5
E0
330
1F
100
AcDbEntity
  8
0
  6
HIDDEN
 62
     7
370
     0
100
AcDbLine
 10
166.4238585223
 20
99.9547012693
 30
0.0
 11
166.9924375436
 21
99.429457868
 31
0.0
  0
LINE
  5
E1
330
1F
100
AcDbEntity
  8
0
  6
HIDDEN
 62
     7
370
     0
100
AcDbLine
 10
167.3635511431
 20
100.0408184798
 30
0.0
 11
166.9924375436
 21
99.429457868
 31
0.0
  0
LINE
  5
E2
330
1F
100
AcDbEntity
  8
0
  6
HIDDEN
 62
     7
370
     0
100
AcDbLine
 10
167.3635511431
 20
100.0408184798
 30
0.0
 11
167.1660857213
 21
101.1774224928
 31
0.0
  0
LINE
  5
E3
330
1F
100
AcDbEntity
  8
0
  6
HIDDEN
 62
     7
370
     0
100
AcDbLine
 10
169.3311492308
 20
101.604947672
 30
0.0
 11
167.1660857213
 21
101.1774224928
 31
0.0
  0
LINE
  5
E4
330
1F
100
AcDbEntity
  8
0
  6
HIDDEN
 62
     7
370
     0
100
AcDbLine
 10
169.5286146526
 20
100.4683436589
 30
0.0
 11
167.3635511431
 21
100.0408184798
 31
0.0
  0
LINE
  5
E5
330
1F
100
AcDbEntity
  8
0
  6
HIDDEN
 62
     7
370
     0
100
AcDbLine
 10
168.39145661
 20
101.5188304615
 30
0.0
 11
168.7625702095
 21
102.1301910733
 31
0.0
  0
LINE
  5
E6
330
1F
100
AcDbEntity
  8
0
  6
HIDDEN
 62
     7
370
     0
100
AcDbLine
 10
168.39145661
 20
101.5188304615
 30
0.0
 11
166.2263931005
 21
101.0913052824
 31
0.0
  0
LINE
  5
E7
330
1F
100
AcDbEntity
  8
0
  6
HIDDEN
 62
     7
370
     0
100
AcDbLine
 10
168.7625702095
 20
102.1301910733
 30
0.0
 11
166.5975067
 21
101.7026658941
 31
0.0
  0
LINE
  5
E8
330
1F
100
AcDbEntity
  8
0
  6
HIDDEN
 62
     7
370
     0
100
AcDbLine
 10
168.5889220318
 20
100.3822264485
 30
0.0
 11
166.4238585223
 21
99.9547012693
 31
0.0
  0
LINE
  5
E9
330
1F
100
AcDbEntity
  8
0
  6
HIDDEN
 62
     7
370
     0
100
AcDbLine
 10
168.5889220318
 20
100.3822264485
 30
0.0
 11
169.1575010531
 21
99.8569830471
 31
0.0
  0
LINE
  5
EA
330
1F
100
AcDbEntity
  8
0
  6
HIDDEN
 62
     7
370
     0
100
AcDbLine
 10
169.1575010531
 20
99.8569830471
 30
0.0
 11
166.9924375436
 21
99.429457868
 31
0.0
  0
LWPOLYLINE
  5
EB
330
1F
100
AcDbEntity
  8
0
  6
HIDDEN
 62
     7
370
     0
100
AcDbPolyline
 90
       19
 70
   128
 43
0.0
 10
171.3388617303
 20
100.1907023027
 10
171.5268413968
 20
100.2833137392
 10
171.6663650181
 20
100.513160467
 10
171.7406039864
 20
100.8525195785
 10
171.7406039864
 20
101.2604593564
 10
171.6663650181
 20
101.687776243
 10
171.5268413968
 20
102.0829295152
 10
171.3388617303
 20
102.3982578566
 10
171.1250991408
 20
102.5957280154
 10
170.9113365512
 20
102.6515221761
 10
170.7233568847
 20
102.5589107395
 10
170.5838332634
 20
102.3290640117
 10
170.5095942951
 20
101.9897049003
 10
170.5095942951
 20
101.5817651223
 10
170.5838332634
 20
101.1544482358
 10
170.7233568847
 20
100.7592949635
 10
170.9113365512
 20
100.4439666222
 10
171.1250991408
 20
100.2464964634
 10
171.3388617303
 20
100.1907023027
  0
LINE
  5
EC
330
1F
100
AcDbEntity
  8
0
  6
HIDDEN
 62
     7
370
     0
100
AcDbLine
 10
168.5889220318
 20
100.3822264485
 30
0.0
 11
168.39145661
 21
101.5188304615
 31
0.0
  0
LINE
  5
ED
330
1F
100
AcDbEntity
  8
0
  6
HIDDEN
 62
     7
370
     0
100
AcDbLine
 10
169.5286146526
 20
100.4683436589
 30
0.0
 11
169.1575010531
 21
99.8569830471
 31
0.0
  0
LINE
  5
EE
330
1F
100
AcDbEntity
  8
0
  6
HIDDEN
 62
     7
370
     0
100
AcDbLine
 10
169.5286146526
 20
100.4683436589
 30
0.0
 11
169.3311492308
 21
101.604947672
 31
0.0
  0
LINE
  5
EF
330
1F
100
AcDbEntity
  8
0
  6
HIDDEN
 62
     7
370
     0
100
AcDbLine
 10
169.3311492308
 20
101.604947672
 30
0.0
 11
168.7625702095
 21
102.1301910733
 31
0.0
  0
LWPOLYLINE
  5
F0
330
1F
100
AcDbEntity
  8
0
  6
HIDDEN
 62
     7
370
     0
100
AcDbPolyline
 90
       27
 70
   128
 43
0.0
 10
179.1699616967
 20
119.4637333852
 10
179.7492062186
 20
119.6201380618
 10
180.3514512163
 20
119.641735562
 10
180.9416963995
 20
119.5272707178
 10
181.4856388637
 20
119.2833958096
 10
181.95166665
 20
118.9242839608
 10
182.3126959174
 20
118.4708054467
 10
182.5477449571
 20
117.9493147902
 10
182.6431535734
 20
117.3901191327
 10
182.5933769642
 20
116.8257168932
 10
182.4013079652
 20
116.2889090784
 10
182.0781089284
 20
115.8108930072
 10
181.642563007
 20
115.4194492363
 10
181.119982547
 20
115.1373270546
 10
180.5407380251
 20
114.980922378
 10
179.9384930274
 20
114.9593248778
 10
179.3482478441
 20
115.0737897221
 10
178.8043053799
 20
115.3176646302
 10
178.3382775937
 20
115.676776479
 10
177.9772483263
 20
116.1302549931
 10
177.7421992866
 20
116.6517456497
 10
177.6467906703
 20
117.2109413072
 10
177.6965672795
 20
117.7753435466
 10
177.8886362785
 20
118.3121513614
 10
178.2118353153
 20
118.7901674326
 10
178.6473812366
 20
119.1816112035
 10
179.1699616967
 20
119.4637333852
  0
LWPOLYLINE
  5
F1
330
1F
100
AcDbEntity
  8
0
  6
HIDDEN
 62
     7
370
     0
100
AcDbPolyline
 90
       23
 70
   128
 43
0.0
 10
179.4624648242
 20
118.5582573281
 10
179.9441014614
 20
118.6776082289
 10
180.4420114448
 20
118.6646151308
 10
180.9158570689
 20
118.5203306572
 10
181.3272501792
 20
118.2564438782
 10
181.6428621525
 20
117.8943333312
 10
181.8371239839
 20
117.4633350591
 10
181.894297735
 20
116.9983659788
 10
181.8097515286
 20
116.5370951198
 10
181.5903347954
 20
116.1168919038
 10
181.2538233744
 20
115.7717986963
 10
180.8274794194
 20
115.5297728967
 10
180.3458427823
 20
115.4104219959
 10
179.8479327988
 20
115.4234150941
 10
179.3740871748
 20
115.5676995676
 10
178.9626940645
 20
115.8315863466
 10
178.6470820912
 20
116.1936968936
 10
178.4528202598
 20
116.6246951657
 10
178.3956465087
 20
117.089664246
 10
178.4801927151
 20
117.5509351051
 10
178.6996094482
 20
117.9711383211
 10
179.0361208693
 20
118.3162315285
 10
179.4624648242
 20
118.5582573281
  0
LWPOLYLINE
  5
F2
330
1F
100
AcDbEntity
  8
0
  6
HIDDEN
 62
     7
370
     0
100
AcDbPolyline
 90
       27
 70
   128
 43
0.0
 10
179.1699616967
 20
120.8294468816
 10
179.7492062186
 20
120.9858515582
 10
180.3514512163
 20
121.0074490585
 10
180.9416963995
 20
120.8929842142
 10
181.4856388637
 20
120.649109306
 10
181.95166665
 20
120.2899974572
 10
182.3126959174
 20
119.8365189431
 10
182.5477449571
 20
119.3150282866
 10
182.6431535734
 20
118.7558326291
 10
182.5933769642
 20
118.1914303896
 10
182.4013079652
 20
117.6546225748
 10
182.0781089284
 20
117.1766065037
 10
181.642563007
 20
116.7851627327
 10
181.119982547
 20
116.5030405511
 10
180.5407380251
 20
116.3466358745
 10
179.9384930274
 20
116.3250383742
 10
179.3482478441
 20
116.4395032185
 10
178.8043053799
 20
116.6833781266
 10
178.3382775937
 20
117.0424899754
 10
177.9772483263
 20
117.4959684896
 10
177.7421992866
 20
118.0174591461
 10
177.6467906703
 20
118.5766548036
 10
177.6965672795
 20
119.1410570431
 10
177.8886362785
 20
119.6778648579
 10
178.2118353153
 20
120.155880929
 10
178.6473812366
 20
120.5473247
 10
179.1699616967
 20
120.8294468816
  0
LINE
  5
F3
330
1F
100
AcDbEntity
  8
0
  6
HIDDEN
 62
     7
370
     0
100
AcDbLine
 10
181.014527219
 20
119.1526435581
 30
0.0
 11
179.5820495904
 21
119.3190014722
 31
0.0
  0
LINE
  5
F4
330
1F
100
AcDbEntity
  8
0
  6
HIDDEN
 62
     7
370
     0
100
AcDbLine
 10
178.7124944932
 20
118.2364334564
 30
0.0
 11
179.5820495904
 21
119.3190014722
 31
0.0
  0
LINE
  5
F5
330
1F
100
AcDbEntity
  8
0
  6
HIDDEN
 62
     7
370
     0
100
AcDbLine
 10
179.5820495904
 20
119.3190014722
 30
0.0
 11
179.5820495904
 21
120.0030417588
 31
0.0
  0
LINE
  5
F6
330
1F
100
AcDbEntity
  8
0
  6
HIDDEN
 62
     7
370
     0
100
AcDbLine
 10
181.014527219
 20
119.1526435581
 30
0.0
 11
181.5774497505
 21
117.9037176284
 31
0.0
  0
LINE
  5
F7
330
1F
100
AcDbEntity
  8
0
  6
HIDDEN
 62
     7
370
     0
100
AcDbLine
 10
181.014527219
 20
119.1526435581
 30
0.0
 11
181.014527219
 21
119.8366838448
 31
0.0
  0
LINE
  5
F8
330
1F
100
AcDbEntity
  8
0
  6
HIDDEN
 62
     7
370
     0
100
AcDbLine
 10
179.2754170246
 20
116.9875075266
 30
0.0
 11
179.2754170246
 21
117.6715478133
 31
0.0
  0
LINE
  5
F9
330
1F
100
AcDbEntity
  8
0
  6
HIDDEN
 62
     7
370
     0
100
AcDbLine
 10
178.7124944932
 20
118.9204737431
 30
0.0
 11
179.2754170246
 21
117.6715478133
 31
0.0
  0
LINE
  5
FA
330
1F
100
AcDbEntity
  8
0
  6
HIDDEN
 62
     7
370
     0
100
AcDbLine
 10
178.7124944932
 20
118.2364334564
 30
0.0
 11
178.7124944932
 21
118.9204737431
 31
0.0
  0
LINE
  5
FB
330
1F
100
AcDbEntity
  8
0
  6
HIDDEN
 62
     7
370
     0
100
AcDbLine
 10
178.7124944932
 20
118.2364334564
 30
0.0
 11
179.2754170246
 21
116.9875075266
 31
0.0
  0
LINE
  5
FC
330
1F
100
AcDbEntity
  8
0
  6
HIDDEN
 62
     7
370
     0
100
AcDbLine
 10
180.7078946533
 20
116.8211496126
 30
0.0
 11
180.7078946533
 21
117.5051898993
 31
0.0
  0
LINE
  5
FD
330
1F
100
AcDbEntity
  8
0
  6
HIDDEN
 62
     7
370
     0
100
AcDbLine
 10
181.5774497505
 20
118.587757915
 30
0.0
 11
180.7078946533
 21
117.5051898993
 31
0.0
  0
LINE
  5
FE
330
1F
100
AcDbEntity
  8
0
  6
HIDDEN
 62
     7
370
     0
100
AcDbLine
 10
181.5774497505
 20
117.9037176284
 30
0.0
 11
181.5774497505
 21
118.587757915
 31
0.0
  0
LINE
  5
FF
330
1F
100
AcDbEntity
  8
0
  6
HIDDEN
 62
     7
370
     0
100
AcDbLine
 10
181.5774497505
 20
117.9037176284
 30
0.0
 11
180.7078946533
 21
116.8211496126
 31
0.0
  0
LINE
  5
100
330
1F
100
AcDbEntity
  8
0
  6
HIDDEN
 62
     7
370
     0
100
AcDbLine
 10
179.2754170246
 20
117.6715478133
 30
0.0
 11
180.7078946533
 21
117.5051898993
 31
0.0
  0
LINE
  5
101
330
1F
100
AcDbEntity
  8
0
  6
HIDDEN
 62
     7
370
     0
100
AcDbLine
 10
179.2754170246
 20
116.9875075266
 30
0.0
 11
180.7078946533
 21
116.8211496126
 31
0.0
  0
ARC
  5
102
330
1F
100
AcDbEntity
  8
0
  6
HIDDEN
 62
     7
370
     0
100
AcDbCircle
 10
180.1472236086
 20
118.5827103235
 30
0.0
 40
2.108726684120457
100
AcDbArc
 50
30.920317499
 51
112.4040199344
  0
LWPOLYLINE
  5
103
330
1F
100
AcDbEntity
  8
0
  6
HIDDEN
 62
     7
370
     0
100
AcDbPolyline
 90
       20
 70
   128
 43
0.0
 10
182.0795868045
 20
119.4053513101
 10
182.1801981967
 20
119.0213585687
 10
182.1844560774
 20
118.5172644537
 10
182.0497264968
 20
118.0293113684
 10
181.7851910534
 20
117.5907525094
 10
181.4088774004
 20
117.2314749381
 10
180.9464306913
 20
116.9759628272
 10
180.4293659052
 20
116.8416289048
 10
179.8929201528
 20
116.8376278058
 10
179.3736513255
 20
116.9642321984
 10
178.9069467358
 20
117.2128142026
 10
178.5246115302
 20
117.5664333654
 10
178.2527012212
 20
118.0009911254
 10
178.1097460469
 20
118.4868730894
 10
178.1054881663
 20
118.9909672044
 10
178.2402177468
 20
119.4789202896
 10
178.5047531903
 20
119.9174791487
 10
178.8810668433
 20
120.27675672
 10
179.3435135523
 20
120.5322688309
 10
179.3435135523
 20
120.5322688309
  0
LINE
  5
104
330
1F
100
AcDbEntity
  8
0
  6
HIDDEN
 62
     7
370
     0
100
AcDbLine
 10
181.014527219
 20
119.8366838448
 30
0.0
 11
181.5774497505
 21
118.587757915
 31
0.0
  0
LINE
  5
105
330
1F
100
AcDbEntity
  8
0
  6
HIDDEN
 62
     7
370
     0
100
AcDbLine
 10
178.7124944932
 20
118.9204737431
 30
0.0
 11
179.5820495904
 21
120.0030417588
 31
0.0
  0
LINE
  5
106
330
1F
100
AcDbEntity
  8
0
  6
HIDDEN
 62
     7
370
     0
100
AcDbLine
 10
181.014527219
 20
119.8366838448
 30
0.0
 11
179.5820495904
 21
120.0030417588
 31
0.0
  0
CIRCLE
  5
107
330
1F
100
AcDbEntity
  8
0
  6
HIDDEN
 62
     7
370
     0
100
AcDbCircle
 10
200.4949721218
 20
109.5537739736
 30
0.0
 40
1.426794919243145
  0
CIRCLE
  5
108
330
1F
100
AcDbEntity
  8
0
  6
HIDDEN
 62
     7
370
     0
100
AcDbCircle
 10
200.4949721218
 20
109.5537739736
 30
0.0
 40
1.32679491924312
  0
SPLINE
  5
109
330
1F
100
AcDbEntity
  8
0
  6
HIDDEN
 62
     7
370
     0
100
AcDbSpline
210
0.0
220
0.0
230
1.0
 70
     8
 71
     3
 72
    17
 73
    13
 74
     0
 42
0.000000001
 43
0.00000001
 40
0.0
 40
0.0
 40
0.0
 40
0.0
 40
0.0000718569080537
 40
0.0000925966776814
 40
0.249520663393495
 40
0.5019857891225842
 40
0.5864044075592201
 40
0.6698654051133
 40
0.7526577617087773
 40
0.8350774917398814
 40
0.9174246291250594
 40
1.0
 40
1.0
 40
1.0
 40
1.0
 10
187.5449721464104
 20
78.05377398011356
 30
0.0
 10
187.5449723527122
 20
78.05377397744181
 30
0.0
 10
187.5449726185579
 20
78.0537739739989
 30
0.0
 10
187.5455860378932
 20
78.05377282389891
 30
0.0
 10
187.4414485304296
 20
78.08598950315141
 30
0.0
 10
187.0729613221788
 20
78.19435064962407
 30
0.0
 10
186.7063489721331
 20
78.29918132826216
 30
0.0
 10
186.4568174060198
 20
78.36887403295155
 30
0.0
 10
186.1790316215752
 20
78.4440157418866
 30
0.0
 10
185.8723718443914
 20
78.52368073546687
 30
0.0
 10
185.5391850118831
 20
78.60682991690715
 30
0.0
 10
185.2941875697155
 20
78.66414239913621
 30
0.0
 10
185.1715193247087
 20
78.6928382971416
 30
0.0
  0
LWPOLYLINE
  5
10A
330
1F
100
AcDbEntity
  8
0
  6
HIDDEN
 62
     7
370
     0
100
AcDbPolyline
 90
       25
 70
   128
 43
0.0
 10
165.7935431001
 20
100.5660618811
 10
165.9093642448
 20
100.0305483269
 10
166.0855381027
 20
99.5315291364
 10
166.3100587166
 20
99.1030116428
 10
166.5676253777
 20
98.7741986052
 10
166.8406853437
 20
98.5674980886
 10
167.1106300292
 20
98.4969963917
 10
167.35906315
 20
98.5674980886
 10
167.5690543994
 20
98.7741986052
 10
167.7262932208
 20
99.1030116428
 10
167.8200640484
 20
99.5315291364
 10
167.8439765553
 20
100.0305483269
 10
167.7964011435
 20
100.5660618811
 10
167.6805799989
 20
101.1015754353
 10
167.504406141
 20
101.6005946257
 10
167.2798855271
 20
102.0291121193
 10
167.022318866
 20
102.3579251569
 10
166.7492588999
 20
102.5646256735
 10
166.4793142144
 20
102.6351273704
 10
166.2308810937
 20
102.5646256735
 10
166.0208898443
 20
102.3579251569
 10
165.8636510229
 20
102.0291121193
 10
165.7698801953
 20
101.6005946257
 10
165.7459676884
 20
101.1015754353
 10
165.7935431001
 20
100.5660618811
  0
LWPOLYLINE
  5
10B
330
1F
100
AcDbEntity
  8
0
  6
HIDDEN
 62
     7
370
     0
100
AcDbPolyline
 90
       22
 70
   128
 43
0.0
 10
166.1499783945
 20
100.5940710402
 10
166.2580396312
 20
100.1148892294
 10
166.4264130812
 20
99.6782848254
 10
166.6401380244
 20
99.3230520454
 10
166.8802240618
 20
99.0807548808
 10
167.1253384953
 20
98.9729224981
 10
167.3537018318
 20
99.0091362777
 10
167.5450229867
 20
99.1861784663
 10
167.6823022359
 20
99.4883180885
 10
167.7533417155
 20
99.888708713
 10
167.7518292561
 20
100.3517738757
 10
167.6778992463
 20
100.8363682047
 10
167.538120692
 20
101.2994333674
 10
167.344913531
 20
101.6998239919
 10
167.1154450676
 20
102.0019636141
 10
166.8701045817
 20
102.1790058027
 10
166.630691652
 20
102.2152195822
 10
166.4184791682
 20
102.1073871996
 10
166.2523231406
 20
101.865090035
 10
166.1469872615
 20
101.509857255
 10
166.1118310859
 20
101.073252851
 10
166.1499783945
 20
100.5940710402
  0
SPLINE
  5
10C
330
1F
100
AcDbEntity
  8
0
  6
HIDDEN
 62
     7
370
     0
100
AcDbSpline
210
0.0
220
0.0
230
1.0
 70
     8
 71
     3
 72
    12
 73
     8
 74
     0
 42
0.000000001
 43
0.00000001
 40
0.0
 40
0.0
 40
0.0
 40
0.0
 40
0.500000000000001
 40
0.500000000000001
 40
0.7500000000000004
 40
0.7500000000000004
 40
1.0
 40
1.0
 40
1.0
 40
1.0
 10
178.1360537345097
 20
102.7752046503809
 30
0.0
 10
178.2091540949851
 20
102.5804696826196
 30
0.0
 10
178.2450578443174
 20
102.3728915075907
 30
0.0
 10
178.2451099623676
 20
102.0771298575192
 30
0.0
 10
178.2360731522772
 20
101.9794338649454
 30
0.0
 10
178.2000206791615
 20
101.7955659561167
 30
0.0
 10
178.1730730380587
 20
101.7082762495097
 30
0.0
 10
178.1360537345098
 20
101.6254771337897
 30
0.0
  0
SPLINE
  5
10D
330
1F
100
AcDbEntity
  8
0
  6
HIDDEN
 62
     7
370
     0
100
AcDbSpline
210
0.0
220
0.0
230
1.0
 70
     8
 71
     3
 72
    50
 73
    46
 74
     0
 42
0.000000001
 43
0.00000001
 40
0.0
 40
0.0
 40
0.0
 40
0.0
 40
0.0625000000000008
 40
0.0625000000000008
 40
0.1250000000000017
 40
0.1250000000000017
 40
0.1875000000000026
 40
0.1875000000000026
 40
0.2500000000000034
 40
0.2500000000000034
 40
0.2812500000000033
 40
0.2812500000000033
 40
0.3125000000000031
 40
0.3125000000000031
 40
0.3750000000000027
 40
0.3750000000000027
 40
0.4062500000000024
 40
0.4062500000000024
 40
0.4375000000000022
 40
0.4375000000000022
 40
0.4687500000000018
 40
0.4687500000000018
 40
0.5000000000000016
 40
0.5000000000000016
 40
0.5312500000000012
 40
0.5312500000000012
 40
0.5625000000000009
 40
0.5625000000000009
 40
0.5937500000000004
 40
0.5937500000000004
 40
0.6250000000000001
 40
0.6250000000000001
 40
0.6874999999999999
 40
0.6874999999999999
 40
0.7187500000000003
 40
0.7187500000000003
 40
0.7500000000000007
 40
0.7500000000000007
 40
0.8125000000000006
 40
0.8125000000000006
 40
0.8750000000000004
 40
0.8750000000000004
 40
0.9375000000000002
 40
0.9375000000000002
 40
1.0
 40
1.0
 40
1.0
 40
1.0
 10
178.1360537345097
 20
101.6254771337897
 30
0.0
 10
178.1912400298543
 20
101.4946522678514
 30
0.0
 10
178.2603966581352
 20
101.4087353409643
 30
0.0
 10
178.4079351064415
 20
101.285437833858
 30
0.0
 10
178.4842200276646
 20
101.2514129836863
 30
0.0
 10
178.629012154826
 20
101.2220605610869
 30
0.0
 10
178.6988671479055
 20
101.22706775158
 30
0.0
 10
178.8074934215994
 20
101.2776902703792
 30
0.0
 10
178.8473966513013
 20
101.3234936733007
 30
0.0
 10
178.8451416277987
 20
101.4372050238259
 30
0.0
 10
178.8332502005312
 20
101.4837817589185
 30
0.0
 10
178.7859159114829
 20
101.5917522464635
 30
0.0
 10
178.7503258846489
 20
101.6541033870661
 30
0.0
 10
178.6191221347828
 20
101.8647775889656
 30
0.0
 10
178.5048825389276
 20
102.0319511007197
 30
0.0
 10
178.3515455291002
 20
102.3066900881481
 30
0.0
 10
178.3021111677519
 20
102.4039858270153
 30
0.0
 10
178.2143458328817
 20
102.6032056386031
 30
0.0
 10
178.1758657087848
 20
102.7050376709908
 30
0.0
 10
178.1120300508514
 20
102.9139811775184
 30
0.0
 10
178.0868763758623
 20
103.0211795235886
 30
0.0
 10
178.0535639836678
 20
103.2315194901214
 30
0.0
 10
178.0449553297138
 20
103.3358935676669
 30
0.0
 10
178.0449889628109
 20
103.5430759778555
 30
0.0
 10
178.0536885700199
 20
103.6427684962183
 30
0.0
 10
178.0871735062534
 20
103.8326512390567
 30
0.0
 10
178.1123874546337
 20
103.9241070198359
 30
0.0
 10
178.1763874876239
 20
104.0919497555346
 30
0.0
 10
178.2149546397751
 20
104.16848716095
 30
0.0
 10
178.3029042011327
 20
104.3067302835602
 30
0.0
 10
178.3523402018884
 20
104.3680854295132
 30
0.0
 10
178.5056209929997
 20
104.5212280149541
 30
0.0
 10
178.6199344969253
 20
104.5860339664647
 30
0.0
 10
178.7503810634481
 20
104.6068863281107
 30
0.0
 10
178.7864059732405
 20
104.6009170729529
 30
0.0
 10
178.8335342662855
 20
104.5659640031181
 30
0.0
 10
178.8452709720443
 20
104.5365056327681
 30
0.0
 10
178.8471732008804
 20
104.4257946921897
 30
0.0
 10
178.8070498074324
 20
104.3224547876467
 30
0.0
 10
178.6987775299909
 20
104.0920249726403
 30
0.0
 10
178.6294050540842
 20
103.9619124647265
 30
0.0
 10
178.4838994461716
 20
103.6752270394076
 30
0.0
 10
178.4080001984605
 20
103.5201976158602
 30
0.0
 10
178.2615734754165
 20
103.1742721237849
 30
0.0
 10
178.1910428936813
 20
102.9842191660547
 30
0.0
 10
178.1360537345097
 20
102.7752046503809
 30
0.0
  0
ELLIPSE
  5
10E
330
1F
100
AcDbEntity
  8
0
  6
HIDDEN
 62
     7
370
     0
100
AcDbEllipse
 10
180.1449721218
 20
109.5537739736
 30
0.0
 11
1.720219293006892
 21
1.720219293006892
 31
0.0
210
0.0
220
0.0
230
1.0
 40
0.7002075382
 41
0.959931088596879
 42
4.101523742186686
  0
ELLIPSE
  5
10F
330
1F
100
AcDbEntity
  8
0
  6
HIDDEN
 62
     7
370
     0
100
AcDbEllipse
 10
180.1449721218
 20
109.5537739736
 30
0.0
 11
-1.720219293006892
 21
1.720219293006892
 31
0.0
210
0.0
220
0.0
230
1.0
 40
0.7002075382
 41
2.181661564992917
 42
5.323254218582723
  0
LWPOLYLINE
  5
110
330
1F
100
AcDbEntity
  8
0
  6
HIDDEN
 62
     7
370
     0
100
AcDbPolyline
 90
       23
 70
   128
 43
0.0
 10
178.1360537345
 20
101.6254771338
 10
178.3594354793
 20
101.1616260329
 10
178.7016749078
 20
100.7669189862
 10
179.1399901936
 20
100.4676304279
 10
179.6452040361
 20
100.2836830771
 10
180.1836859032
 20
100.2273217433
 10
180.719590713
 20
100.3022982271
 10
181.2172449301
 20
100.5036215746
 10
181.6435212436
 20
100.8178903097
 10
181.9700437502
 20
101.2241845289
 10
182.1750768506
 20
101.6954584755
 10
182.2449721218
 20
102.2003408921
 10
182.1750768506
 20
102.7052233087
 10
181.9700437502
 20
103.1764972553
 10
181.6435212436
 20
103.5827914745
 10
181.2172449301
 20
103.8970602095
 10
180.719590713
 20
104.098383557
 10
180.1836859032
 20
104.1733600409
 10
179.6452040361
 20
104.116998707
 10
179.1399901936
 20
103.9330513562
 10
178.7016749078
 20
103.633762798
 10
178.3594354793
 20
103.2390557512
 10
178.1360537345
 20
102.7752046504
  0
LINE
  5
111
330
1F
100
AcDbEntity
  8
0
  6
HIDDEN
 62
     7
370
     0
100
AcDbLine
 10
165.5449721218
 20
132.0537739736
 30
0.0
 11
165.882230422
 21
132.0537739736
 31
0.0
  0
ELLIPSE
  5
112
330
1F
100
AcDbEntity
  8
0
  6
HIDDEN
 62
     7
370
     0
100
AcDbEllipse
 10
165.882230422
 20
133.6537739736
 30
0.0
 11
0.0
 21
1.599999999999994
 31
0.0
210
0.0
220
0.0
230
1.0
 40
0.4142135624
 41
3.141592653589793
 42
4.712388980384677
  0
ELLIPSE
  5
113
330
1F
100
AcDbEntity
  8
0
  6
HIDDEN
 62
     7
370
     0
100
AcDbEllipse
 10
165.882230422
 20
85.4537739736
 30
0.0
 11
0.0
 21
1.600000000000009
 31
0.0
210
0.0
220
0.0
230
1.0
 40
0.4142135624
 41
4.712388980384695
 42
6.283185307179586
  0
LINE
  5
114
330
1F
100
AcDbEntity
  8
0
  6
HIDDEN
 62
     7
370
     0
100
AcDbLine
 10
165.882230422
 20
87.0537739736
 30
0.0
 11
165.5449721218
 21
87.0537739736
 31
0.0
  0
LINE
  5
115
330
1F
100
AcDbEntity
  8
0
  6
HIDDEN
 62
     7
370
     0
100
AcDbLine
 10
166.5449721218
 20
80.0997512508
 30
0.0
 11
165.9320049448
 21
79.4867840738
 31
0.0
  0
LINE
  5
116
330
1F
100
AcDbEntity
  8
0
  6
HIDDEN
 62
     7
370
     0
100
AcDbLine
 10
165.9320049448
 20
139.6207638734
 30
0.0
 11
166.5449721218
 21
139.0077966964
 31
0.0
  0
LINE
  5
117
330
1F
100
AcDbEntity
  8
0
  6
HIDDEN
 62
     7
370
     0
100
AcDbLine
 10
105.1449721218
 20
101.0537739736
 30
0.0
 11
105.1449721218
 21
118.0537739736
 31
0.0
  0
LINE
  5
118
330
1F
100
AcDbEntity
  8
0
  6
HIDDEN
 62
     7
370
     0
100
AcDbLine
 10
108.1409013362
 20
102.5537739736
 30
0.0
 11
108.1409013362
 21
116.5537739736
 31
0.0
  0
LINE
  5
119
330
1F
100
AcDbEntity
  8
0
  6
HIDDEN
 62
     7
370
     0
100
AcDbLine
 10
166.5449721218
 20
139.0077966964
 30
0.0
 11
175.6775336654
 21
139.0077966964
 31
0.0
  0
LINE
  5
11A
330
1F
100
AcDbEntity
  8
0
  6
HIDDEN
 62
     7
370
     0
100
AcDbLine
 10
166.5449721218
 20
139.0077966964
 30
0.0
 11
166.5449721218
 21
133.6537739736
 31
0.0
  0
LINE
  5
11B
330
1F
100
AcDbEntity
  8
0
  6
HIDDEN
 62
     7
370
     0
100
AcDbLine
 10
175.6775336654
 20
80.0997512508
 30
0.0
 11
166.5449721218
 21
80.0997512508
 31
0.0
  0
LINE
  5
11C
330
1F
100
AcDbEntity
  8
0
  6
HIDDEN
 62
     7
370
     0
100
AcDbLine
 10
166.5449721218
 20
80.0997512508
 30
0.0
 11
166.5449721218
 21
85.4537739736
 31
0.0
  0
LINE
  5
11D
330
1F
100
AcDbEntity
  8
0
  6
HIDDEN
 62
     7
370
     0
100
AcDbLine
 10
178.4949721218
 20
87.0537739736
 30
0.0
 11
165.882230422
 21
87.0537739736
 31
0.0
  0
LINE
  5
11E
330
1F
100
AcDbEntity
  8
0
  6
HIDDEN
 62
     7
370
     0
100
AcDbLine
 10
165.882230422
 20
132.0537739736
 30
0.0
 11
178.4949721218
 21
132.0537739736
 31
0.0
  0
LINE
  5
11F
330
1F
100
AcDbEntity
  8
0
  6
HIDDEN
 62
     7
370
     0
100
AcDbLine
 10
184.9449721218
 20
87.0537739736
 30
0.0
 11
178.4949721218
 21
87.0537739736
 31
0.0
  0
LINE
  5
120
330
1F
100
AcDbEntity
  8
0
  6
HIDDEN
 62
     7
370
     0
100
AcDbLine
 10
184.521213888
 20
79.6487260802
 30
0.0
 11
184.6151566177
 21
79.6237424088
 31
0.0
  0
SPLINE
  5
121
330
1F
100
AcDbEntity
  8
0
  6
HIDDEN
 62
     7
370
     0
100
AcDbSpline
210
0.0
220
0.0
230
1.0
 70
     8
 71
     3
 72
    13
 73
     9
 74
     0
 42
0.000000001
 43
0.00000001
 40
0.0
 40
0.0
 40
0.0
 40
0.0
 40
0.0000730266253407
 40
0.1576811714019511
 40
0.3241446478108668
 40
0.4996852929261713
 40
0.7294244053126598
 40
1.0
 40
1.0
 40
1.0
 40
1.0
 10
186.5449508147789
 20
79.05378227463905
 30
0.0
 10
186.5449579164867
 20
79.05377936450414
 30
0.0
 10
186.5602921263867
 20
79.0474957182261
 30
0.0
 10
186.5008310542964
 20
79.07120741126741
 30
0.0
 10
186.3400806521969
 20
79.1266823418278
 30
0.0
 10
186.005396015946
 20
79.23462940980816
 30
0.0
 10
185.4475217574121
 20
79.40590162749717
 30
0.0
 10
184.8463553518734
 20
79.56363205548017
 30
0.0
 10
184.521238069921
 20
79.64893437369784
 30
0.0
  0
SPLINE
  5
122
330
1F
100
AcDbEntity
  8
0
  6
HIDDEN
 62
     7
370
     0
100
AcDbSpline
210
0.0
220
0.0
230
1.0
 70
     8
 71
     3
 72
    13
 73
     9
 74
     0
 42
0.000000001
 43
0.00000001
 40
0.0
 40
0.0
 40
0.0
 40
0.0
 40
0.1850454653144679
 40
0.3520092965859432
 40
0.5010298177386109
 40
0.6766227814582007
 40
0.8430962614808595
 40
1.0
 40
1.0
 40
1.0
 40
1.0
 10
184.5212357524435
 20
139.4586347492982
 30
0.0
 10
184.7480258680636
 20
139.5174714208381
 30
0.0
 10
185.1794454056156
 20
139.6293955651398
 30
0.0
 10
185.6669008765673
 20
139.7696616367681
 30
0.0
 10
186.0560100531115
 20
139.8889563960234
 30
0.0
 10
186.3369099735366
 20
139.9796242056478
 30
0.0
 10
186.5137947486018
 20
140.041539965997
 30
0.0
 10
186.534657128425
 20
140.0497292221547
 30
0.0
 10
186.5447796268602
 20
140.053702677405
 30
0.0
  0
LINE
  5
123
330
1F
100
AcDbEntity
  8
0
  6
HIDDEN
 62
     7
370
     0
100
AcDbLine
 10
185.2714662956
 20
139.6583478286
 30
0.0
 11
184.5212137344
 21
139.4588221755
 31
0.0
  0
LINE
  5
124
330
1F
100
AcDbEntity
  8
0
  6
HIDDEN
 62
     7
370
     0
100
AcDbLine
 10
178.4949721218
 20
132.0537739736
 30
0.0
 11
184.9449721218
 21
132.0537739736
 31
0.0
  0
LINE
  5
125
330
1F
100
AcDbEntity
  8
0
  6
HIDDEN
 62
     7
370
     0
100
AcDbLine
 10
141.1449721218
 20
102.5537739736
 30
0.0
 11
141.1449721218
 21
116.5537739736
 31
0.0
  0
LINE
  5
126
330
1F
100
AcDbEntity
  8
0
  6
HIDDEN
 62
     7
370
     0
100
AcDbLine
 10
144.0891891551
 20
107.4537739736
 30
0.0
 11
144.0891891551
 21
111.6537739736
 31
0.0
  0
SPLINE
  5
127
330
1F
100
AcDbEntity
  8
0
  6
HIDDEN
 62
     7
370
     0
100
AcDbSpline
210
0.0
220
0.0
230
1.0
 70
     8
 71
     3
 72
     9
 73
     5
 74
     0
 42
0.000000001
 43
0.00000001
 40
0.0
 40
0.0
 40
0.0
 40
0.0
 40
0.4932365035776448
 40
1.0
 40
1.0
 40
1.0
 40
1.0
 10
184.5220316605285
 20
139.4586054847595
 30
0.0
 10
184.6278796160372
 20
139.6156268730424
 30
0.0
 10
184.8424784033146
 20
139.9339759553669
 30
0.0
 10
185.0603382851988
 20
140.2538020630445
 30
0.0
 10
185.1707417206726
 20
140.4158782596184
 30
0.0
  0
SPLINE
  5
128
330
1F
100
AcDbEntity
  8
0
  6
HIDDEN
 62
     7
370
     0
100
AcDbSpline
210
0.0
220
0.0
230
1.0
 70
     8
 71
     3
 72
     9
 73
     5
 74
     0
 42
0.000000001
 43
0.00000001
 40
0.0
 40
0.0
 40
0.0
 40
0.0
 40
0.5067661695379747
 40
1.0
 40
1.0
 40
1.0
 40
1.0
 10
185.1707454059586
 20
78.69168382311007
 30
0.0
 10
185.0603405754845
 20
78.8537612376902
 30
0.0
 10
184.8424790900292
 20
79.17358806182074
 30
0.0
 10
184.6278793721436
 20
79.4919365780852
 30
0.0
 10
184.5220315312748
 20
79.64895683618423
 30
0.0
  0
SPLINE
  5
129
330
1F
100
AcDbEntity
  8
0
  6
HIDDEN
 62
     7
370
     0
100
AcDbSpline
210
0.0
220
0.0
230
1.0
 70
     8
 71
     3
 72
    16
 73
    12
 74
     0
 42
0.000000001
 43
0.00000001
 40
0.0
 40
0.0
 40
0.0
 40
0.0
 40
0.2499999999999974
 40
0.2499999999999974
 40
0.4999999999999948
 40
0.4999999999999948
 40
0.6249999999999923
 40
0.6249999999999923
 40
0.74999999999999
 40
0.74999999999999
 40
1.0
 40
1.0
 40
1.0
 40
1.0
 10
205.5449721218311
 20
115.0224100550092
 30
0.0
 10
205.5449721218311
 20
114.9532761536695
 30
0.0
 10
205.5404383126112
 20
114.8826550062343
 30
0.0
 10
205.5152744656299
 20
114.7361315198765
 30
0.0
 10
205.4949873230924
 20
114.6586896447243
 30
0.0
 10
205.43637794632
 20
114.553041180771
 30
0.0
 10
205.4118496497329
 20
114.5209609007019
 30
0.0
 10
205.3575037438904
 20
114.473835177349
 30
0.0
 10
205.3279039191228
 20
114.458781828894
 30
0.0
 10
205.2439543609329
 20
114.4347763945284
 30
0.0
 10
205.1925959622031
 20
114.4423388292733
 30
0.0
 10
205.1449721219443
 20
114.4563781843444
 30
0.0
  0
SPLINE
  5
12A
330
1F
100
AcDbEntity
  8
0
  6
HIDDEN
 62
     7
370
     0
100
AcDbSpline
210
0.0
220
0.0
230
1.0
 70
     8
 71
     3
 72
     8
 73
     4
 74
     0
 42
0.000000001
 43
0.00000001
 40
0.0
 40
0.0
 40
0.0
 40
0.0
 40
1.0
 40
1.0
 40
1.0
 40
1.0
 10
205.1449721219438
 20
114.4563781843446
 30
0.0
 10
205.0858058130516
 20
114.4225288935161
 30
0.0
 10
205.0170228275273
 20
114.4004135173352
 30
0.0
 10
204.9449721218311
 20
114.4004135173352
 30
0.0
  0
SPLINE
  5
12B
330
1F
100
AcDbEntity
  8
0
  6
HIDDEN
 62
     7
370
     0
100
AcDbSpline
210
0.0
220
0.0
230
1.0
 70
     8
 71
     3
 72
     8
 73
     4
 74
     0
 42
0.000000001
 43
0.00000001
 40
0.0
 40
0.0
 40
0.0
 40
0.0
 40
1.0
 40
1.0
 40
1.0
 40
1.0
 10
205.1449721217663
 20
104.6511697629314
 30
0.0
 10
205.0858058129165
 20
104.6850190537028
 30
0.0
 10
205.0170228274552
 20
104.7071344298392
 30
0.0
 10
204.9449721218311
 20
104.7071344298392
 30
0.0
  0
SPLINE
  5
12C
330
1F
100
AcDbEntity
  8
0
  6
HIDDEN
 62
     7
370
     0
100
AcDbSpline
210
0.0
220
0.0
230
1.0
 70
     8
 71
     3
 72
    16
 73
    12
 74
     0
 42
0.000000001
 43
0.00000001
 40
0.0
 40
0.0
 40
0.0
 40
0.0
 40
0.2500000000000061
 40
0.2500000000000061
 40
0.3750000000000086
 40
0.3750000000000086
 40
0.5000000000000112
 40
0.5000000000000112
 40
0.7500000000000056
 40
0.7500000000000056
 40
1.0
 40
1.0
 40
1.0
 40
1.0
 10
205.1449721217539
 20
104.6511697629312
 30
0.0
 10
205.1922767096159
 20
104.6651149317232
 30
0.0
 10
205.2432748487682
 20
104.6726959191245
 30
0.0
 10
205.3268738550344
 20
104.6491870861692
 30
0.0
 10
205.356011196869
 20
104.6346228185813
 30
0.0
 10
205.4103348688104
 20
104.5882531319564
 30
0.0
 10
205.434818015727
 20
104.5567286685686
 30
0.0
 10
205.493658572022
 20
104.4523535693476
 30
0.0
 10
205.5145399496779
 20
104.3745877441434
 30
0.0
 10
205.5403106602348
 20
104.2267002096719
 30
0.0
 10
205.5449718144582
 20
104.1545895577489
 30
0.0
 10
205.5449721218169
 20
104.0851432076101
 30
0.0
  0
LINE
  5
12D
330
1F
100
AcDbEntity
  8
0
  6
HIDDEN
 62
     7
370
     0
100
AcDbLine
 10
192.0449721218
 20
109.5537739736
 30
0.0
 11
192.0449721218
 21
104.3537739736
 31
0.0
  0
LINE
  5
12E
330
1F
100
AcDbEntity
  8
0
  6
HIDDEN
 62
     7
370
     0
100
AcDbLine
 10
192.0449721218
 20
114.7537739736
 30
0.0
 11
192.0449721218
 21
109.5537739736
 31
0.0
  0
LINE
  5
12F
330
1F
100
AcDbEntity
  8
0
  6
HIDDEN
 62
     7
370
     0
100
AcDbLine
 10
195.4109975256
 20
109.5537739736
 30
0.0
 11
195.4109975256
 21
104.0537739736
 31
0.0
  0
LINE
  5
130
330
1F
100
AcDbEntity
  8
0
  6
HIDDEN
 62
     7
370
     0
100
AcDbLine
 10
195.4109975256
 20
115.0537739736
 30
0.0
 11
195.4109975256
 21
109.5537739736
 31
0.0
  0
LINE
  5
131
330
1F
100
AcDbEntity
  8
0
  6
HIDDEN
 62
     7
370
     0
100
AcDbLine
 10
199.6449721218
 20
114.4004135173
 30
0.0
 11
204.9449721218
 21
114.4004135173
 31
0.0
  0
LINE
  5
132
330
1F
100
AcDbEntity
  8
0
  6
HIDDEN
 62
     7
370
     0
100
AcDbLine
 10
199.6449721218
 20
104.7071344298
 30
0.0
 11
204.9449721218
 21
104.7071344298
 31
0.0
  0
SPLINE
  5
133
330
1F
100
AcDbEntity
  8
0
  6
HIDDEN
 62
     7
370
     0
100
AcDbSpline
210
0.0
220
0.0
230
1.0
 70
    11
 71
     3
 72
    20
 73
    16
 74
     0
 42
0.000000001
 43
0.00000001
 40
0.0
 40
0.0
 40
0.0
 40
0.0
 40
0.1249999999999998
 40
0.1249999999999998
 40
0.2499999999999996
 40
0.2499999999999996
 40
0.4999999999999999
 40
0.4999999999999999
 40
0.6249999999999999
 40
0.6249999999999999
 40
0.7499999999999999
 40
0.7499999999999999
 40
0.875
 40
0.875
 40
1.0
 40
1.0
 40
1.0
 40
1.0
 10
205.1449721218311
 20
116.9537739735872
 30
0.0
 10
205.1449721218311
 20
117.0529486548977
 30
0.0
 10
205.1451385644881
 20
117.1424952725768
 30
0.0
 10
205.1431782251851
 20
117.302891949235
 30
0.0
 10
205.1411898582836
 20
117.3730218168256
 30
0.0
 10
205.1341862074712
 20
117.5424120921754
 30
0.0
 10
205.1264573845213
 20
117.6037575144475
 30
0.0
 10
205.1207757930052
 20
117.6037821980678
 30
0.0
 10
205.1197823502204
 20
117.5890798099753
 30
0.0
 10
205.121365850077
 20
117.5302959741102
 30
0.0
 10
205.1236952650801
 20
117.4864805624669
 30
0.0
 10
205.1303650645877
 20
117.3735914870016
 30
0.0
 10
205.1349588591282
 20
117.3032442952795
 30
0.0
 10
205.1422362796092
 20
117.1436995730146
 30
0.0
 10
205.1449720910589
 20
117.0529655396893
 30
0.0
 10
205.144971996881
 20
116.9537739735893
 30
0.0
  0
LWPOLYLINE
  5
134
330
1F
100
AcDbEntity
  8
0
  6
HIDDEN
 62
     7
370
     0
100
AcDbPolyline
 90
        4
 70
   128
 43
0.0
 10
205.1449719969
 20
116.9537739736
 10
205.1449721206
 20
116.211663273
 10
205.1449721385
 20
115.4695525724
 10
205.1449721219
 20
114.4563781843
  0
LWPOLYLINE
  5
135
330
1F
100
AcDbEntity
  8
0
  6
HIDDEN
 62
     7
370
     0
100
AcDbPolyline
 90
        3
 70
   128
 43
0.0
 10
205.144972172
 20
102.1537739736
 10
205.1449721174
 20
103.4304542017
 10
205.1449721218
 20
104.6511697629
  0
SPLINE
  5
136
330
1F
100
AcDbEntity
  8
0
  6
HIDDEN
 62
     7
370
     0
100
AcDbSpline
210
0.0
220
0.0
230
1.0
 70
     8
 71
     3
 72
    11
 73
     7
 74
     0
 42
0.000000001
 43
0.00000001
 40
0.0
 40
0.0
 40
0.0
 40
0.0
 40
0.2832653816799048
 40
0.6060535644001898
 40
0.9293812402118016
 40
1.0
 40
1.0
 40
1.0
 40
1.0
 10
205.123181153043
 20
101.5119028113052
 30
0.0
 10
205.1215984705952
 20
101.5204103029462
 30
0.0
 10
205.1182122808211
 20
101.5386122999659
 30
0.0
 10
205.1313502950798
 20
101.7419903240972
 30
0.0
 10
205.1441088052547
 20
101.9754327663221
 30
0.0
 10
205.1448409312769
 20
102.126664248188
 30
0.0
 10
205.1449721720423
 20
102.1537739735852
 30
0.0
  0
LINE
  5
137
330
1F
100
AcDbEntity
  8
0
  6
HIDDEN
 62
     7
370
     0
100
AcDbLine
 10
199.6449721218
 20
102.1537739736
 30
0.0
 11
199.6449721218
 21
104.7071344298
 31
0.0
  0
LINE
  5
138
330
1F
100
AcDbEntity
  8
0
  6
HIDDEN
 62
     7
370
     0
100
AcDbLine
 10
199.6449721218
 20
116.9537739736
 30
0.0
 11
199.6449721218
 21
114.4004135173
 31
0.0
  0
ELLIPSE
  5
139
330
1F
100
AcDbEntity
  8
0
  6
HIDDEN
 62
     7
370
     0
100
AcDbEllipse
 10
180.1449721218
 20
109.5537739736
 30
0.0
 11
1.720219293006892
 21
1.720219293006892
 31
0.0
210
0.0
220
0.0
230
1.0
 40
0.7002075382
 41
4.101523742186694
 42
7.243116395776473
  0
ELLIPSE
  5
13A
330
1F
100
AcDbEntity
  8
0
  6
HIDDEN
 62
     7
370
     0
100
AcDbEllipse
 10
180.1449721218
 20
109.5537739736
 30
0.0
 11
-1.720219293006892
 21
1.720219293006892
 31
0.0
210
0.0
220
0.0
230
1.0
 40
0.7002075382
 41
5.32325421858271
 42
8.464846872172489
  0
LINE
  5
13B
330
1F
100
AcDbEntity
  8
0
  6
HIDDEN
 62
     7
370
     0
100
AcDbLine
 10
199.6449721218
 20
101.5037739736
 30
0.0
 11
199.6449721218
 21
102.1537739736
 31
0.0
  0
LINE
  5
13C
330
1F
100
AcDbEntity
  8
0
  6
HIDDEN
 62
     7
370
     0
100
AcDbLine
 10
199.6449721218
 20
117.6037739736
 30
0.0
 11
199.6449721218
 21
116.9537739736
 31
0.0
  0
SPLINE
  5
13D
330
1F
100
AcDbEntity
  8
0
  6
HIDDEN
 62
     7
370
     0
100
AcDbSpline
210
0.0
220
0.0
230
1.0
 70
     8
 71
     3
 72
    22
 73
    18
 74
     0
 42
0.000000001
 43
0.00000001
 40
0.0
 40
0.0
 40
0.0
 40
0.0
 40
0.1250000000000003
 40
0.1250000000000003
 40
0.2500000000000006
 40
0.2500000000000006
 40
0.3750000000000009
 40
0.3750000000000009
 40
0.5000000000000012
 40
0.5000000000000012
 40
0.6250000000000016
 40
0.6250000000000016
 40
0.7500000000000018
 40
0.7500000000000018
 40
0.8750000000000009
 40
0.8750000000000009
 40
1.0
 40
1.0
 40
1.0
 40
1.0
 10
181.8213405605313
 20
117.4184289492425
 30
0.0
 10
181.7230623369758
 20
117.2939002293102
 30
0.0
 10
181.6117395696687
 20
117.1822970898779
 30
0.0
 10
181.3639309613039
 20
116.9843132466896
 30
0.0
 10
181.2259794357538
 20
116.8976587245008
 30
0.0
 10
180.9377184741698
 20
116.7591351492779
 30
0.0
 10
180.7852749552575
 20
116.7056913980013
 30
0.0
 10
180.4683632169818
 20
116.6335112478561
 30
0.0
 10
180.3083747128734
 20
116.6155932084627
 30
0.0
 10
179.9854046062515
 20
116.6153080669652
 30
0.0
 10
179.8218421225987
 20
116.6336063768335
 30
0.0
 10
179.5083438914588
 20
116.7047017990243
 30
0.0
 10
179.3548419252299
 20
116.7580123512883
 30
0.0
 10
179.0642392273556
 20
116.8973937893128
 30
0.0
 10
178.9294189839419
 20
116.9819476864206
 30
0.0
 10
178.6804709073126
 20
117.1801391343267
 30
0.0
 10
178.5668816741435
 20
117.2939005239662
 30
0.0
 10
178.4686036831309
 20
117.4184289492425
 30
0.0
  0
SPLINE
  5
13E
330
1F
100
AcDbEntity
  8
0
  6
HIDDEN
 62
     7
370
     0
100
AcDbSpline
210
0.0
220
0.0
230
1.0
 70
     8
 71
     3
 72
    18
 73
    14
 74
     0
 42
0.000000001
 43
0.00000001
 40
0.0
 40
0.0
 40
0.0
 40
0.0
 40
0.2500000000000009
 40
0.2500000000000009
 40
0.3750000000000011
 40
0.3750000000000011
 40
0.5000000000000012
 40
0.5000000000000012
 40
0.6250000000000013
 40
0.6250000000000013
 40
0.7500000000000016
 40
0.7500000000000016
 40
1.0
 40
1.0
 40
1.0
 40
1.0
 10
181.8213405605313
 20
119.7955272738212
 30
0.0
 10
181.9599109092617
 20
119.6259472795855
 30
0.0
 10
182.0643963288123
 20
119.4523360714436
 30
0.0
 10
182.1719525619501
 20
119.1693048090401
 30
0.0
 10
182.1989625359222
 20
119.0726317739473
 30
0.0
 10
182.2355034980347
 20
118.8715633467758
 30
0.0
 10
182.2449793185469
 20
118.7658194496892
 30
0.0
 10
182.2449649167361
 20
118.55156995741
 30
0.0
 10
182.2357428037143
 20
118.4435419589997
 30
0.0
 10
182.1994980576829
 20
118.2265490694682
 30
0.0
 10
182.1721237664041
 20
118.1166994517332
 30
0.0
 10
182.0648636445061
 20
117.7971156618173
 30
0.0
 10
181.9596731223668
 20
117.5937106772496
 30
0.0
 10
181.8213405605315
 20
117.4184289492422
 30
0.0
  0
SPLINE
  5
13F
330
1F
100
AcDbEntity
  8
0
  6
HIDDEN
 62
     7
370
     0
100
AcDbSpline
210
0.0
220
0.0
230
1.0
 70
     8
 71
     3
 72
    22
 73
    18
 74
     0
 42
0.000000001
 43
0.00000001
 40
0.0
 40
0.0
 40
0.0
 40
0.0
 40
0.1249999999999991
 40
0.1249999999999991
 40
0.2499999999999982
 40
0.2499999999999982
 40
0.3749999999999984
 40
0.3749999999999984
 40
0.4999999999999988
 40
0.4999999999999988
 40
0.6249999999999991
 40
0.6249999999999991
 40
0.7499999999999993
 40
0.7499999999999993
 40
0.8749999999999997
 40
0.8749999999999997
 40
1.0
 40
1.0
 40
1.0
 40
1.0
 10
178.4686036831309
 20
119.7955272738212
 30
0.0
 10
178.5668819066864
 20
119.915798462692
 30
0.0
 10
178.6782046739935
 20
120.022946671088
 30
0.0
 10
178.9260132823583
 20
120.2123247095086
 30
0.0
 10
179.0639648079084
 20
120.294804863066
 30
0.0
 10
179.3522257694924
 20
120.4263396943775
 30
0.0
 10
179.5046692884047
 20
120.4768997001626
 30
0.0
 10
179.8215810266803
 20
120.5451263755624
 30
0.0
 10
179.9815695307888
 20
120.5620234471881
 30
0.0
 10
180.3045396374107
 20
120.5622925521706
 30
0.0
 10
180.4681021210635
 20
120.5450360228699
 30
0.0
 10
180.7816003522034
 20
120.4778355252238
 30
0.0
 10
180.9351023184323
 20
120.4274045195917
 30
0.0
 10
181.2257050163066
 20
120.2950577444566
 30
0.0
 10
181.3605252597203
 20
120.214581207122
 30
0.0
 10
181.6094733363496
 20
120.0250169239152
 30
0.0
 10
181.7230625695187
 20
119.91579817811
 30
0.0
 10
181.8213405605313
 20
119.7955272738212
 30
0.0
  0
SPLINE
  5
140
330
1F
100
AcDbEntity
  8
0
  6
HIDDEN
 62
     7
370
     0
100
AcDbSpline
210
0.0
220
0.0
230
1.0
 70
     8
 71
     3
 72
    18
 73
    14
 74
     0
 42
0.000000001
 43
0.00000001
 40
0.0
 40
0.0
 40
0.0
 40
0.0
 40
0.2499999999999989
 40
0.2499999999999989
 40
0.3749999999999992
 40
0.3749999999999992
 40
0.4999999999999996
 40
0.4999999999999996
 40
0.6249999999999999
 40
0.6249999999999999
 40
0.7500000000000002
 40
0.7500000000000002
 40
1.0
 40
1.0
 40
1.0
 40
1.0
 10
178.4686036831309
 20
117.4184289492425
 30
0.0
 10
178.3300333344005
 20
117.594011977951
 30
0.0
 10
178.22554791485
 20
117.7960049935819
 30
0.0
 10
178.1179916817121
 20
118.1160492843798
 30
0.0
 10
178.09098170774
 20
118.2241085602249
 30
0.0
 10
178.0544407456274
 20
118.4413597893416
 30
0.0
 10
178.0449649251153
 20
118.5518227225296
 30
0.0
 10
178.044979326926
 20
118.7660652879724
 30
0.0
 10
178.0542014399479
 20
118.8694965747638
 30
0.0
 10
178.0904461859793
 20
119.070419212047
 30
0.0
 10
178.1178204772581
 20
119.1687244549062
 30
0.0
 10
178.2250805991561
 20
119.4513645479753
 30
0.0
 10
178.3302711212953
 20
119.6262382790719
 30
0.0
 10
178.4686036831307
 20
119.7955272738213
 30
0.0
  0
SPLINE
  5
141
330
1F
100
AcDbEntity
  8
0
  6
HIDDEN
 62
     7
370
     0
100
AcDbSpline
210
0.0
220
0.0
230
1.0
 70
    11
 71
     3
 72
    56
 73
    52
 74
     0
 42
0.000000001
 43
0.00000001
 40
0.0
 40
0.0
 40
0.0
 40
0.0
 40
0.0312500000000001
 40
0.0312500000000001
 40
0.0625000000000003
 40
0.0625000000000003
 40
0.1250000000000002
 40
0.1250000000000002
 40
0.1562500000000006
 40
0.1562500000000006
 40
0.187500000000001
 40
0.187500000000001
 40
0.2187500000000014
 40
0.2187500000000014
 40
0.2500000000000018
 40
0.2500000000000018
 40
0.3125000000000024
 40
0.3125000000000024
 40
0.3437500000000028
 40
0.3437500000000028
 40
0.3750000000000031
 40
0.3750000000000031
 40
0.4375000000000042
 40
0.4375000000000042
 40
0.4687500000000046
 40
0.4687500000000046
 40
0.500000000000005
 40
0.500000000000005
 40
0.5312500000000053
 40
0.5312500000000053
 40
0.5625000000000058
 40
0.5625000000000058
 40
0.6250000000000054
 40
0.6250000000000054
 40
0.6875000000000052
 40
0.6875000000000052
 40
0.7500000000000049
 40
0.7500000000000049
 40
0.7812500000000042
 40
0.7812500000000042
 40
0.8125000000000036
 40
0.8125000000000036
 40
0.843750000000003
 40
0.843750000000003
 40
0.8750000000000023
 40
0.8750000000000023
 40
0.9062500000000017
 40
0.9062500000000017
 40
0.937500000000001
 40
0.937500000000001
 40
1.0
 40
1.0
 40
1.0
 40
1.0
 10
178.1043961209939
 20
115.2206540625635
 30
0.0
 10
178.1330676375909
 20
115.1188399976907
 30
0.0
 10
178.1708375571747
 20
115.0264370800409
 30
0.0
 10
178.2611356939443
 20
114.8596589953453
 30
0.0
 10
178.3144113901176
 20
114.7847893062224
 30
0.0
 10
178.4833424668919
 20
114.5986686417074
 30
0.0
 10
178.6145291828761
 20
114.520652144124
 30
0.0
 10
178.7598147028796
 20
114.5000775935693
 30
0.0
 10
178.7979556356812
 20
114.509625813502
 30
0.0
 10
178.8427321688454
 20
114.5569820426821
 30
0.0
 10
178.8496269068854
 20
114.5950828049422
 30
0.0
 10
178.8383783612715
 20
114.6872032829063
 30
0.0
 10
178.8207175160668
 20
114.7422587250456
 30
0.0
 10
178.7719935103048
 20
114.861865483225
 30
0.0
 10
178.7410545119133
 20
114.9265433523278
 30
0.0
 10
178.6373989765947
 20
115.1339047347512
 30
0.0
 10
178.5535936399325
 20
115.2906924899741
 30
0.0
 10
178.4281433754802
 20
115.549837752627
 30
0.0
 10
178.3860501954327
 20
115.6405901271768
 30
0.0
 10
178.3033092041198
 20
115.8335913492149
 30
0.0
 10
178.2624789707121
 20
115.9363723117433
 30
0.0
 10
178.149629214552
 20
116.2586134249232
 30
0.0
 10
178.0849390311881
 20
116.4975599636344
 30
0.0
 10
178.0444693534502
 20
116.8663270686116
 30
0.0
 10
178.0414275572602
 20
116.9860864792566
 30
0.0
 10
178.0572307138376
 20
117.2051847404658
 30
0.0
 10
178.0759738113824
 20
117.3035137487896
 30
0.0
 10
178.1272477147758
 20
117.4703887959962
 30
0.0
 10
178.1597722608082
 20
117.5402634420923
 30
0.0
 10
178.2319254092501
 20
117.6568725023849
 30
0.0
 10
178.2710305860029
 20
117.7030931421579
 30
0.0
 10
178.3930283244493
 20
117.815911959646
 30
0.0
 10
178.4805601371791
 20
117.8563652490057
 30
0.0
 10
178.6426766901316
 20
117.8872233684281
 30
0.0
 10
178.7202343474202
 20
117.8783201828597
 30
0.0
 10
178.8313791705241
 20
117.8072441344216
 30
0.0
 10
178.8641121568661
 20
117.7450052157113
 30
0.0
 10
178.820483774546
 20
117.5871039324384
 30
0.0
 10
178.79016851355
 20
117.5238485295681
 30
0.0
 10
178.7053115299129
 20
117.3785344637084
 30
0.0
 10
178.6504624556498
 20
117.2951625479492
 30
0.0
 10
178.5356237702375
 20
117.1165693904586
 30
0.0
 10
178.474204341058
 20
117.0188226420412
 30
0.0
 10
178.357996354171
 20
116.8138443429417
 30
0.0
 10
178.3024822892025
 20
116.7055624076282
 30
0.0
 10
178.2042783138571
 20
116.4802125034998
 30
0.0
 10
178.162387895611
 20
116.3653065480388
 30
0.0
 10
178.0958812153063
 20
116.1300391450056
 30
0.0
 10
178.071437720379
 20
116.0090418105099
 30
0.0
 10
178.0309477945835
 20
115.6558403783335
 30
0.0
 10
178.0470530878
 20
115.4242821923092
 30
0.0
 10
178.1043961209939
 20
115.2206540625635
 30
0.0
  0
SPLINE
  5
142
330
1F
100
AcDbEntity
  8
0
  6
HIDDEN
 62
     7
370
     0
100
AcDbSpline
210
0.0
220
0.0
230
1.0
 70
     8
 71
     3
 72
    16
 73
    12
 74
     0
 42
0.000000001
 43
0.00000001
 40
0.0
 40
0.0
 40
0.0
 40
0.0
 40
0.2499999999999908
 40
0.2499999999999908
 40
0.4999999999999816
 40
0.4999999999999816
 40
0.6249999999999822
 40
0.6249999999999822
 40
0.749999999999983
 40
0.749999999999983
 40
1.0
 40
1.0
 40
1.0
 40
1.0
 10
205.5449721218312
 20
104.0852705191461
 30
0.0
 10
205.5449721218312
 20
104.1540748707041
 30
0.0
 10
205.5403503448018
 20
104.2260459925327
 30
0.0
 10
205.5149514663204
 20
104.3728919035076
 30
0.0
 10
205.4937216621559
 20
104.4520029982963
 30
0.0
 10
205.435464859094
 20
104.5558151864427
 30
0.0
 10
205.4108963597754
 20
104.5877555583442
 30
0.0
 10
205.3560366962691
 20
104.6347048748451
 30
0.0
 10
205.3267125008217
 20
104.6492724383247
 30
0.0
 10
205.2432382061347
 20
104.6726745931041
 30
0.0
 10
205.1920255282714
 20
104.6650410779729
 30
0.0
 10
205.1449721218313
 20
104.6511697628943
 30
0.0
  0
LINE
  5
143
330
1F
100
AcDbEntity
  8
0
  6
HIDDEN
 62
     7
370
     0
100
AcDbLine
 10
205.1449721218
 20
114.4563781843
 30
0.0
 11
205.2220669203
 21
114.4430609597
 31
0.0
  0
LWPOLYLINE
  5
144
330
1F
100
AcDbEntity
  8
0
  6
HIDDEN
 62
     7
370
     0
100
AcDbPolyline
 90
       22
 70
   128
 43
0.0
 10
166.1499783945
 20
117.5812382015
 10
166.2580396312
 20
117.230086537
 10
166.4264130812
 20
116.9929697388
 10
166.6401380244
 20
116.8909566753
 10
166.8802240618
 20
116.9331116546
 10
167.1253384953
 20
117.1156890219
 10
167.3537018318
 20
117.4224659769
 10
167.5450229867
 20
117.8261840408
 10
167.6823022359
 20
118.2909710921
 10
167.7533417155
 20
118.7755287614
 10
167.7518292561
 20
119.2368019735
 10
167.6778992463
 20
119.6338045792
 10
167.538120692
 20
119.9312611547
 10
167.344913531
 20
120.102741378
 10
167.1154450676
 20
120.1330084786
 10
166.8701045817
 20
120.0193730919
 10
166.630691652
 20
119.7719322207
 10
166.4184791682
 20
119.4126720722
 10
166.2523231406
 20
118.9735144872
 10
166.1469872615
 20
118.4934805444
 10
166.1118310859
 20
118.0152233661
 10
166.1499783945
 20
117.5812382015
  0
LWPOLYLINE
  5
145
330
1F
100
AcDbEntity
  8
0
  6
HIDDEN
 62
     7
370
     0
100
AcDbPolyline
 90
       25
 70
   128
 43
0.0
 10
165.7935431001
 20
117.355000441
 10
165.9093642448
 20
116.9567109138
 10
166.0855381027
 20
116.6664211943
 10
166.3100587166
 20
116.5039140472
 10
166.5676253777
 20
116.4802640659
 10
166.8406853437
 20
116.5970829575
 10
167.1106300292
 20
116.8464097078
 10
167.35906315
 20
117.2112531106
 10
167.5690543994
 20
117.666749691
 10
167.7262932208
 20
118.1818581098
 10
167.8200640484
 20
118.7214745795
 10
167.8439765553
 20
119.2488251295
 10
167.7964011435
 20
119.7279716912
 10
167.6805799989
 20
120.1262612184
 10
167.504406141
 20
120.4165509379
 10
167.2798855271
 20
120.579058085
 10
167.022318866
 20
120.6027080664
 10
166.7492588999
 20
120.4858891747
 10
166.4793142144
 20
120.2365624245
 10
166.2308810937
 20
119.8717190216
 10
166.0208898443
 20
119.4162224412
 10
165.8636510229
 20
118.9011140224
 10
165.7698801953
 20
118.3614975527
 10
165.7459676884
 20
117.8341470027
 10
165.7935431001
 20
117.355000441
  0
LINE
  5
146
330
1F
100
AcDbEntity
  8
0
  6
HIDDEN
 62
     7
370
     0
100
AcDbLine
 10
170.638251705
 20
116.0567069921
 30
0.0
 11
171.2267689014
 21
116.5876942894
 31
0.0
  0
LINE
  5
147
330
1F
100
AcDbEntity
  8
0
  6
HIDDEN
 62
     7
370
     0
100
AcDbLine
 10
171.636779659
 20
118.6640616546
 30
0.0
 11
171.2942689172
 21
119.3788947765
 31
0.0
  0
LINE
  5
148
330
1F
100
AcDbEntity
  8
0
  6
HIDDEN
 62
     7
370
     0
100
AcDbLine
 10
166.6025228694
 20
116.5408684168
 30
0.0
 11
170.0881308355
 21
115.8525813695
 31
0.0
  0
LINE
  5
149
330
1F
100
AcDbEntity
  8
0
  6
HIDDEN
 62
     7
370
     0
100
AcDbLine
 10
170.8630293403
 20
119.7768051536
 30
0.0
 11
167.3774213742
 21
120.4650922009
 31
0.0
  0
LINE
  5
14A
330
1F
100
AcDbEntity
  8
0
  6
HIDDEN
 62
     7
370
     0
100
AcDbLine
 10
166.2902059682
 20
119.4310216148
 30
0.0
 11
166.2316603682
 21
119.2885593174
 31
0.0
  0
LINE
  5
14B
330
1F
100
AcDbEntity
  8
0
  6
HIDDEN
 62
     7
370
     0
100
AcDbLine
 10
165.9899721218
 20
118.0646070724
 30
0.0
 11
165.9899721218
 21
117.9105840434
 31
0.0
  0
LINE
  5
14C
330
1F
100
AcDbEntity
  8
0
  6
HIDDEN
 62
     7
370
     0
100
AcDbLine
 10
165.9899721218
 20
101.1969639038
 30
0.0
 11
165.9899721218
 21
101.0429408748
 31
0.0
  0
LINE
  5
14D
330
1F
100
AcDbEntity
  8
0
  6
HIDDEN
 62
     7
370
     0
100
AcDbLine
 10
166.2316603682
 20
99.8189886298
 30
0.0
 11
166.2902059682
 21
99.6765263324
 31
0.0
  0
LINE
  5
14E
330
1F
100
AcDbEntity
  8
0
  6
HIDDEN
 62
     7
370
     0
100
AcDbLine
 10
167.3774213742
 20
98.6424557463
 30
0.0
 11
170.8630293403
 21
99.3307427936
 31
0.0
  0
LINE
  5
14F
330
1F
100
AcDbEntity
  8
0
  6
HIDDEN
 62
     7
370
     0
100
AcDbLine
 10
170.0881308355
 20
103.2549665777
 30
0.0
 11
166.6025228694
 21
102.5666795303
 31
0.0
  0
LINE
  5
150
330
1F
100
AcDbEntity
  8
0
  6
HIDDEN
 62
     7
370
     0
100
AcDbLine
 10
171.2942689172
 20
99.7286531707
 30
0.0
 11
171.636779659
 21
100.4434862926
 31
0.0
  0
LINE
  5
151
330
1F
100
AcDbEntity
  8
0
  6
HIDDEN
 62
     7
370
     0
100
AcDbLine
 10
171.2267689014
 20
102.5198536578
 30
0.0
 11
170.638251705
 21
103.050840955
 31
0.0
  0
LINE
  5
152
330
1F
100
AcDbEntity
  8
0
  6
HIDDEN
 62
     7
370
     0
100
AcDbLine
 10
177.6449721218
 20
118.6662437163
 30
0.0
 11
177.6449721218
 21
117.3005302199
 31
0.0
  0
LINE
  5
153
330
1F
100
AcDbEntity
  8
0
  6
HIDDEN
 62
     7
370
     0
100
AcDbLine
 10
182.6449721218
 20
117.3005302199
 30
0.0
 11
182.6449721218
 21
118.6662437163
 31
0.0
  0
LINE
  5
154
330
1F
100
AcDbEntity
  8
0
  6
HIDDEN
 62
     7
370
     0
100
AcDbLine
 10
165.5449721218
 20
98.1786793956
 30
0.0
 11
167.2017938369
 21
98.5058443944
 31
0.0
  0
LINE
  5
155
330
1F
100
AcDbEntity
  8
0
  6
HIDDEN
 62
     7
370
     0
100
AcDbLine
 10
166.3881504068
 20
102.6262793677
 30
0.0
 11
165.5449721218
 21
102.459780812
 31
0.0
  0
LINE
  5
156
330
1F
100
AcDbEntity
  8
0
  6
HIDDEN
 62
     7
370
     0
100
AcDbLine
 10
167.2564611162
 20
98.9753287293
 30
0.0
 11
178.696800944
 21
101.2344002591
 31
0.0
  0
LINE
  5
157
330
1F
100
AcDbEntity
  8
0
  6
HIDDEN
 62
     7
370
     0
100
AcDbLine
 10
178.6963576106
 20
104.5980352575
 30
0.0
 11
166.6171698497
 21
102.2128133511
 31
0.0
  0
LINE
  5
158
330
1F
100
AcDbEntity
  8
0
  6
HIDDEN
 62
     7
370
     0
100
AcDbLine
 10
182.2449721218
 20
102.2003408921
 30
0.0
 11
182.2449721218
 21
108.8355316726
 31
0.0
  0
LINE
  5
159
330
1F
100
AcDbEntity
  8
0
  6
HIDDEN
 62
     7
370
     0
100
AcDbLine
 10
178.0449721218
 20
108.8355316726
 30
0.0
 11
178.0449721218
 21
103.4390332576
 31
0.0
  0
ARC
  5
15A
330
1F
100
AcDbEntity
  8
0
  6
HIDDEN
 62
     7
370
     0
100
AcDbCircle
 10
98.9449721218
 20
100.2537739736
 30
0.0
 40
0.7999999999999972
100
AcDbArc
 50
90.0
 51
180.0
  0
ARC
  5
15B
330
1F
100
AcDbEntity
  8
0
  6
HIDDEN
 62
     7
370
     0
100
AcDbCircle
 10
98.9449721218
 20
118.8537739736
 30
0.0
 40
0.7999999999999972
100
AcDbArc
 50
180.0
 51
270.0
  0
ARC
  5
15C
330
1F
100
AcDbEntity
  8
0
  6
HIDDEN
 62
     7
370
     0
100
AcDbCircle
 10
106.9140320142
 20
101.2287739736
 30
0.0
 40
0.4000000000000057
100
AcDbArc
 50
270.0
 51
330.0
  0
ARC
  5
15D
330
1F
100
AcDbEntity
  8
0
  6
HIDDEN
 62
     7
370
     0
100
AcDbCircle
 10
106.9140320142
 20
117.8787739736
 30
0.0
 40
0.4000000000000057
100
AcDbArc
 50
30.0
 51
90.0
  0
LINE
  5
15E
330
1F
100
AcDbEntity
  8
0
  6
HIDDEN
 62
     7
370
     0
100
AcDbLine
 10
106.0373445526
 20
100.8287739736
 30
0.0
 11
106.9140320142
 21
100.8287739736
 31
0.0
  0
LINE
  5
15F
330
1F
100
AcDbEntity
  8
0
  6
HIDDEN
 62
     7
370
     0
100
AcDbLine
 10
106.9140320142
 20
118.2787739736
 30
0.0
 11
106.0373445526
 21
118.2787739736
 31
0.0
  0
ARC
  5
160
330
1F
100
AcDbEntity
  8
0
  6
HIDDEN
 62
     7
370
     0
100
AcDbCircle
 10
106.0373445526
 20
101.2287739736
 30
0.0
 40
0.4000000000000057
100
AcDbArc
 50
255.0
 51
270.0
  0
ARC
  5
161
330
1F
100
AcDbEntity
  8
0
  6
HIDDEN
 62
     7
370
     0
100
AcDbCircle
 10
106.0373445526
 20
117.8787739736
 30
0.0
 40
0.4000000000000057
100
AcDbArc
 50
90.0
 51
105.0
  0
LINE
  5
162
330
1F
100
AcDbEntity
  8
0
  6
HIDDEN
 62
     7
370
     0
100
AcDbLine
 10
105.9338169345
 20
118.2651443041
 30
0.0
 11
105.1449721218
 21
118.0537739736
 31
0.0
  0
LINE
  5
163
330
1F
100
AcDbEntity
  8
0
  6
HIDDEN
 62
     7
370
     0
100
AcDbLine
 10
105.1449721218
 20
101.0537739736
 30
0.0
 11
105.9338169345
 21
100.8424036431
 31
0.0
  0
LINE
  5
164
330
1F
100
AcDbEntity
  8
0
  6
HIDDEN
 62
     7
370
     0
100
AcDbLine
 10
107.2604421757
 20
101.0287739736
 30
0.0
 11
108.1409013362
 21
102.5537739736
 31
0.0
  0
LINE
  5
165
330
1F
100
AcDbEntity
  8
0
  6
HIDDEN
 62
     7
370
     0
100
AcDbLine
 10
108.1409013362
 20
116.5537739736
 30
0.0
 11
107.2604421757
 21
118.0787739736
 31
0.0
  0
LINE
  5
166
330
1F
100
AcDbEntity
  8
0
  6
HIDDEN
 62
     7
370
     0
100
AcDbLine
 10
98.9449721218
 20
101.0537739736
 30
0.0
 11
105.1449721218
 21
101.0537739736
 31
0.0
  0
LINE
  5
167
330
1F
100
AcDbEntity
  8
0
  6
HIDDEN
 62
     7
370
     0
100
AcDbLine
 10
105.1449721218
 20
118.0537739736
 30
0.0
 11
98.9449721218
 21
118.0537739736
 31
0.0
  0
ARC
  5
168
330
1F
100
AcDbEntity
  8
0
  6
HIDDEN
 62
     7
370
     0
100
AcDbCircle
 10
184.9449721218
 20
85.4537739736
 30
0.0
 40
1.600000000000023
100
AcDbArc
 50
0.0
 51
90.0
  0
LINE
  5
169
330
1F
100
AcDbEntity
  8
0
  6
HIDDEN
 62
     7
370
     0
100
AcDbLine
 10
186.5449721218
 20
79.0537822746
 30
0.0
 11
186.5449721218
 21
85.4537739736
 31
0.0
  0
LINE
  5
16A
330
1F
100
AcDbEntity
  8
0
  6
HIDDEN
 62
     7
370
     0
100
AcDbLine
 10
186.5449721218
 20
133.6537739736
 30
0.0
 11
186.5449721218
 21
140.0537026774
 31
0.0
  0
ARC
  5
16B
330
1F
100
AcDbEntity
  8
0
  6
HIDDEN
 62
     7
370
     0
100
AcDbCircle
 10
184.9449721218
 20
133.6537739736
 30
0.0
 40
1.600000000000023
100
AcDbArc
 50
270.0
 51
0.0
  0
LINE
  5
16C
330
1F
100
AcDbEntity
  8
0
  6
HIDDEN
 62
     7
370
     0
100
AcDbLine
 10
108.1409013362
 20
102.5537739736
 30
0.0
 11
141.1449721218
 21
102.5537739736
 31
0.0
  0
LINE
  5
16D
330
1F
100
AcDbEntity
  8
0
  6
HIDDEN
 62
     7
370
     0
100
AcDbLine
 10
141.1449721218
 20
116.5537739736
 30
0.0
 11
108.1409013362
 21
116.5537739736
 31
0.0
  0
LINE
  5
16E
330
1F
100
AcDbEntity
  8
0
  6
HIDDEN
 62
     7
370
     0
100
AcDbLine
 10
141.1449721218
 20
102.5537739736
 30
0.0
 11
144.0891891551
 21
107.4537739736
 31
0.0
  0
LINE
  5
16F
330
1F
100
AcDbEntity
  8
0
  6
HIDDEN
 62
     7
370
     0
100
AcDbLine
 10
144.0891891551
 20
111.6537739736
 30
0.0
 11
141.1449721218
 21
116.5537739736
 31
0.0
  0
LINE
  5
170
330
1F
100
AcDbEntity
  8
0
  6
HIDDEN
 62
     7
370
     0
100
AcDbLine
 10
186.5449712119
 20
140.0537737617
 30
0.0
 11
187.5449705812
 21
141.0537735084
 31
0.0
  0
LINE
  5
171
330
1F
100
AcDbEntity
  8
0
  6
HIDDEN
 62
     7
370
     0
100
AcDbLine
 10
187.5449784832
 20
78.0537728359
 30
0.0
 11
186.5449782343
 21
79.0537726404
 31
0.0
  0
LINE
  5
172
330
1F
100
AcDbEntity
  8
0
  6
HIDDEN
 62
     7
370
     0
100
AcDbLine
 10
193.4396501238
 20
115.5537739736
 30
0.0
 11
192.8449721218
 21
115.5537739736
 31
0.0
  0
LINE
  5
173
330
1F
100
AcDbEntity
  8
0
  6
HIDDEN
 62
     7
370
     0
100
AcDbLine
 10
192.8449721218
 20
103.5537739736
 30
0.0
 11
193.4396501238
 21
103.5537739736
 31
0.0
  0
ARC
  5
174
330
1F
100
AcDbEntity
  8
0
  6
HIDDEN
 62
     7
370
     0
100
AcDbCircle
 10
193.4396501238
 20
114.7537739736
 30
0.0
 40
0.7999999999999972
100
AcDbArc
 50
75.0
 51
90.0
  0
ARC
  5
175
330
1F
100
AcDbEntity
  8
0
  6
HIDDEN
 62
     7
370
     0
100
AcDbCircle
 10
193.4396501238
 20
104.3537739736
 30
0.0
 40
0.7999999999999972
100
AcDbArc
 50
270.0
 51
285.0
  0
ARC
  5
176
330
1F
100
AcDbEntity
  8
0
  6
HIDDEN
 62
     7
370
     0
100
AcDbCircle
 10
192.8449721218
 20
114.7537739736
 30
0.0
 40
0.7999999999999972
100
AcDbArc
 50
90.0
 51
180.0
  0
ARC
  5
177
330
1F
100
AcDbEntity
  8
0
  6
HIDDEN
 62
     7
370
     0
100
AcDbCircle
 10
192.8449721218
 20
104.3537739736
 30
0.0
 40
0.7999999999999972
100
AcDbArc
 50
180.0
 51
270.0
  0
LINE
  5
178
330
1F
100
AcDbEntity
  8
0
  6
HIDDEN
 62
     7
370
     0
100
AcDbLine
 10
193.6467053598
 20
103.5810333126
 30
0.0
 11
195.4109975256
 21
104.0537739736
 31
0.0
  0
LINE
  5
179
330
1F
100
AcDbEntity
  8
0
  6
HIDDEN
 62
     7
370
     0
100
AcDbLine
 10
195.4109975256
 20
115.0537739736
 30
0.0
 11
193.6467053598
 21
115.5265146346
 31
0.0
  0
LINE
  5
17A
330
1F
100
AcDbEntity
  8
0
  6
HIDDEN
 62
     7
370
     0
100
AcDbLine
 10
199.6449721218
 20
115.0537739736
 30
0.0
 11
195.4109975256
 21
115.0537739736
 31
0.0
  0
LINE
  5
17B
330
1F
100
AcDbEntity
  8
0
  6
HIDDEN
 62
     7
370
     0
100
AcDbLine
 10
195.4109975256
 20
104.0537739736
 30
0.0
 11
199.6449721218
 21
104.0537739736
 31
0.0
  0
LINE
  5
17C
330
1F
100
AcDbEntity
  8
0
  6
HIDDEN
 62
     7
370
     0
100
AcDbLine
 10
205.5449721218
 20
118.0260767057
 30
0.0
 11
205.116891201
 21
117.5981037861
 31
0.0
  0
LINE
  5
17D
330
1F
100
AcDbEntity
  8
0
  6
HIDDEN
 62
     7
370
     0
100
AcDbLine
 10
205.1168924012
 20
101.5094338172
 30
0.0
 11
205.5449721218
 21
101.0814658185
 31
0.0
  0
LINE
  5
17E
330
1F
100
AcDbEntity
  8
0
  6
HIDDEN
 62
     7
370
     0
100
AcDbLine
 10
180.8632144228
 20
107.4537739736
 30
0.0
 11
192.0449721218
 21
107.4537739736
 31
0.0
  0
LINE
  5
17F
330
1F
100
AcDbEntity
  8
0
  6
HIDDEN
 62
     7
370
     0
100
AcDbLine
 10
192.0449721218
 20
111.6537739736
 30
0.0
 11
180.8632144228
 21
111.6537739736
 31
0.0
  0
LINE
  5
180
330
1F
100
AcDbEntity
  8
0
  6
HIDDEN
 62
     7
370
     0
100
AcDbLine
 10
144.0891891551
 20
107.4537739736
 30
0.0
 11
179.4267298208
 21
107.4537739736
 31
0.0
  0
LINE
  5
181
330
1F
100
AcDbEntity
  8
0
  6
HIDDEN
 62
     7
370
     0
100
AcDbLine
 10
179.4267298208
 20
111.6537739736
 30
0.0
 11
144.0891891551
 21
111.6537739736
 31
0.0
  0
LINE
  5
182
330
1F
100
AcDbEntity
  8
0
  6
HIDDEN
 62
     7
370
     0
100
AcDbLine
 10
199.6449721218
 20
101.5037739736
 30
0.0
 11
205.1232305784
 21
101.5037739736
 31
0.0
  0
LINE
  5
183
330
1F
100
AcDbEntity
  8
0
  6
HIDDEN
 62
     7
370
     0
100
AcDbLine
 10
205.1232308871
 20
117.6037739736
 30
0.0
 11
199.6449721218
 21
117.6037739736
 31
0.0
  0
LINE
  5
184
330
1F
100
AcDbEntity
  8
0
  6
HIDDEN
 62
     7
370
     0
100
AcDbLine
 10
182.2449721218
 20
110.2720162746
 30
0.0
 11
182.2449721218
 21
118.6575501893
 31
0.0
  0
LINE
  5
185
330
1F
100
AcDbEntity
  8
0
  6
HIDDEN
 62
     7
370
     0
100
AcDbLine
 10
178.0449721218
 20
115.6686628853
 30
0.0
 11
178.0449721218
 21
110.2720162746
 31
0.0
  0
LINE
  5
186
330
1F
100
AcDbEntity
  8
0
  6
HIDDEN
 62
     7
370
     0
100
AcDbLine
 10
178.0449721218
 20
118.6575501893
 30
0.0
 11
178.0449721218
 21
116.9715004978
 31
0.0
  0
LINE
  5
187
330
1F
100
AcDbEntity
  8
0
  6
HIDDEN
 62
     7
370
     0
100
AcDbLine
 10
166.6171698497
 20
116.8947345961
 30
0.0
 11
178.697133823
 21
114.5093594145
 31
0.0
  0
LINE
  5
188
330
1F
100
AcDbEntity
  8
0
  6
HIDDEN
 62
     7
370
     0
100
AcDbLine
 10
178.6969095472
 20
117.8731262427
 30
0.0
 11
167.2564611162
 21
120.1322192179
 31
0.0
  0
LINE
  5
189
330
1F
100
AcDbEntity
  8
0
  6
HIDDEN
 62
     7
370
     0
100
AcDbLine
 10
165.5449721218
 20
116.6477671352
 30
0.0
 11
166.3881504068
 21
116.4812685795
 31
0.0
  0
LINE
  5
18A
330
1F
100
AcDbEntity
  8
0
  6
HIDDEN
 62
     7
370
     0
100
AcDbLine
 10
167.2017938369
 20
120.6017035527
 30
0.0
 11
165.5449721218
 21
120.9288685516
 31
0.0
  0
DIMENSION
  5
18B
330
1F
100
AcDbEntity
  8
VERMASSUNG
100
AcDbDimension
  2
_D
 10
217.5619620075
 20
99.5537739736
 30
0.0
 11
217.5619620075
 21
109.5537739736
 31
0.0
 70
   160
  1
ST1 %%c<>
 71
     2
 42
-1.0
  3
SLDDIMSTYLE0
100
AcDbAlignedDimension
 13
205.3449721218
 23
119.5537739736
 33
0.0
 14
205.3449721218
 24
99.5537739736
 34
0.0
 50
90.0
100
AcDbRotatedDimension
  0
DIMENSION
  5
198
330
1F
100
AcDbEntity
  8
VERMASSUNG
100
AcDbDimension
  2
_D_1
 10
211.4619620075
 20
104.0537739736
 30
0.0
 11
211.4619620075
 21
109.5537739736
 31
0.0
 70
   160
  1
%%c<>
 71
     2
 42
-1.0
  3
SLDDIMSTYLE0
100
AcDbAlignedDimension
 13
199.6449721218
 23
115.0537739736
 33
0.0
 14
199.6449721218
 24
104.0537739736
 34
0.0
 50
90.0
100
AcDbRotatedDimension
  0
DIMENSION
  5
1A3
330
1F
100
AcDbEntity
  8
VERMASSUNG
100
AcDbDimension
  2
_D_2
 10
205.5449721218
 20
145.4590685259
 30
0.0
 11
198.0449721218
 21
145.4590685259
 31
0.0
 70
   160
  1
(<>)
 71
     2
 42
-1.0
  3
SLDDIMSTYLE0
100
AcDbAlignedDimension
 13
190.5449721218
 23
140.0537739736
 33
0.0
 14
205.5449721218
 24
119.3537739736
 34
0.0
100
AcDbRotatedDimension
  0
DIMENSION
  5
1AF
330
1F
100
AcDbEntity
  8
VERMASSUNG
100
AcDbDimension
  2
_D_3
 10
205.5449721218
 20
151.4590685259
 30
0.0
 11
184.5449721218
 21
151.4590685259
 31
0.0
 70
   160
  1
<>
 71
     2
 42
-1.0
  3
SLDDIMSTYLE0
100
AcDbAlignedDimension
 13
163.5449721218
 23
131.7787739736
 33
0.0
 14
205.5449721218
 24
119.3537739736
 34
0.0
100
AcDbRotatedDimension
  0
DIMENSION
  5
1B9
330
1F
100
AcDbEntity
  8
VERMASSUNG
100
AcDbDimension
  2
_D_4
 10
205.5449721218
 20
157.4590685259
 30
0.0
 11
151.8449721218
 21
157.4590685259
 31
0.0
 70
   160
  1
(<>)
 71
     2
 42
-1.0
  3
SLDDIMSTYLE0
100
AcDbAlignedDimension
 13
98.1449721218
 23
121.3765295706
 33
0.0
 14
205.5449721218
 24
119.3537739736
 34
0.0
100
AcDbRotatedDimension
  0
DIMENSION
  5
1C5
330
1F
100
AcDbEntity
  8
VERMASSUNG
100
AcDbDimension
  2
_D_5
 10
88.1449721218
 20
78.0537739736
 30
0.0
 11
88.1449721218
 21
109.5537739736
 31
0.0
 70
   160
  1
MAS BT 40 %%c<>
 71
     2
 42
-1.0
  3
SLDDIMSTYLE0
100
AcDbAlignedDimension
 13
187.5449679778
 23
141.0537739736
 33
0.0
 14
187.5449728879
 24
78.0537739736
 34
0.0
 50
90.0
100
AcDbRotatedDimension
  0
LINE
  5
1D1
330
1F
100
AcDbEntity
  8
VERMASSUNG
  6
CENTERX2
370
     0
100
AcDbLine
 10
96.1449721218
 20
109.5537739736
 30
0.0
 11
207.0078810178
 21
109.5537739736
 31
0.0
  0
LINE
  5
1D2
330
1F
100
AcDbEntity
  8
VERMASSUNG
  6
CENTERX2
370
     0
100
AcDbLine
 10
164.9747035909
 20
118.9009261594
 30
0.0
 11
180.6592603632
 21
115.8037685403
 31
0.0
  0
LINE
  5
1D3
330
1F
100
AcDbEntity
  8
VERMASSUNG
  6
CENTERX2
370
     0
100
AcDbLine
 10
164.9747035909
 20
100.2066217878
 30
0.0
 11
180.6592603632
 21
103.3037794068
 31
0.0
  0
LINE
  5
1D4
330
1F
100
AcDbEntity
  8
0
  6
Continuous
 62
     7
370
    15
100
AcDbLine
 10
260.8232480953
 20
45.7437625228
 30
0.0
 11
260.7348453855
 21
45.7948129097
 31
0.0
  0
LINE
  5
1D5
330
1F
100
AcDbEntity
  8
0
  6
Continuous
 62
     7
370
    15
100
AcDbLine
 10
259.4972074492
 20
45.7948129097
 30
0.0
 11
259.4088047394
 21
45.7437625228
 31
0.0
  0
LINE
  5
1D6
330
1F
100
AcDbEntity
  8
0
  6
Continuous
 62
     7
370
    15
100
AcDbLine
 10
261.1160264173
 20
45.2335572047
 30
0.0
 11
261.1160264173
 21
45.3356248061
 31
0.0
  0
LINE
  5
1D7
330
1F
100
AcDbEntity
  8
0
  6
Continuous
 62
     7
370
    15
100
AcDbLine
 10
259.1160264173
 20
45.3356248061
 30
0.0
 11
259.1160264173
 21
45.2335572047
 31
0.0
  0
SPLINE
  5
1D8
330
1F
100
AcDbEntity
  8
0
  6
Continuous
 62
     7
370
    15
100
AcDbSpline
210
0.0
220
0.0
230
1.0
 70
     8
 71
     3
 72
    25
 73
    21
 74
     0
 42
0.000000001
 43
0.00000001
 40
0.0
 40
0.0
 40
0.0
 40
0.0
 40
0.0281096273897509
 40
0.0854381056790748
 40
0.1430943622419238
 40
0.2011135237131336
 40
0.259465574460002
 40
0.3180805575018037
 40
0.3768762013777686
 40
0.4357778208459558
 40
0.4947276743673031
 40
0.5536808863052627
 40
0.6126136031340141
 40
0.6715161980017739
 40
0.7303857692577026
 40
0.7892236462233273
 40
0.8480336984051675
 40
0.906821255228517
 40
0.9655924504841855
 40
1.0
 40
1.0
 40
1.0
 40
1.0
 10
249.8035750719151
 20
29.37923491893103
 30
0.0
 10
249.9227034993043
 20
29.34604438959417
 30
0.0
 10
250.2847896638606
 20
29.24516308249936
 30
0.0
 10
250.9296461731157
 20
29.17332598342042
 30
0.0
 10
251.7307883317167
 20
29.15915623833183
 30
0.0
 10
252.5626084724065
 20
29.2403553735198
 30
0.0
 10
253.4175901212566
 20
29.41077349380285
 30
0.0
 10
254.2908945272625
 20
29.67130021229577
 30
0.0
 10
255.1764808441737
 20
30.01988914991404
 30
0.0
 10
256.0684535243296
 20
30.45427609797359
 30
0.0
 10
256.9609025605748
 20
30.97135950607202
 30
0.0
 10
257.8480913588324
 20
31.56752173846708
 30
0.0
 10
258.7244774326123
 20
32.23867644687488
 30
0.0
 10
259.5847104852131
 20
32.98038658576889
 30
0.0
 10
260.4236708210746
 20
33.78781933704477
 30
0.0
 10
261.2361402545592
 20
34.65597774791332
 30
0.0
 10
262.0179711419905
 20
35.57888698072619
 30
0.0
 10
262.7617855381559
 20
36.55272584766308
 30
0.0
 10
263.3748583303606
 20
37.42454183615447
 30
0.0
 10
263.7197477813709
 20
37.98361225625192
 30
0.0
 10
263.8471030155739
 20
38.19005679689804
 30
0.0
  0
SPLINE
  5
1D9
330
1F
100
AcDbEntity
  8
0
  6
Continuous
 62
     7
370
    15
100
AcDbSpline
210
0.0
220
0.0
230
1.0
 70
     8
 71
     3
 72
    25
 73
    21
 74
     0
 42
0.000000001
 43
0.00000001
 40
0.0
 40
0.0
 40
0.0
 40
0.0
 40
0.0434718887275704
 40
0.1031569239399664
 40
0.1628578073119648
 40
0.2225816507129754
 40
0.2823353978552814
 40
0.3421255475862167
 40
0.4019576502819375
 40
0.4618354459571473
 40
0.5217594628996517
 40
0.581724852285715
 40
0.6417182450206177
 40
0.7017035841004335
 40
0.761628994163019
 40
0.8214235043032451
 40
0.880998580608739
 40
0.9402624241271705
 40
0.9991465844313485
 40
1.0
 40
1.0
 40
1.0
 40
1.0
 10
264.8833105766993
 20
40.00913813070917
 30
0.0
 10
265.0213885750231
 20
40.27702773706483
 30
0.0
 10
265.3490417317592
 20
40.91271826158565
 30
0.0
 10
265.8018706311349
 20
41.93787123881576
 30
0.0
 10
266.2476645038289
 20
43.07257553630012
 30
0.0
 10
266.6297198444245
 20
44.21146637207403
 30
0.0
 10
266.9479302938005
 20
45.34669677331451
 30
0.0
 10
267.199532587395
 20
46.47165875032583
 30
0.0
 10
267.3829181747367
 20
47.57949372045668
 30
0.0
 10
267.4966122220362
 20
48.66352838452251
 30
0.0
 10
267.5395488486925
 20
49.71718489010811
 30
0.0
 10
267.5109961012678
 20
50.73400735205841
 30
0.0
 10
267.4106177270722
 20
51.70761767035647
 30
0.0
 10
267.2384511002103
 20
52.63161307009683
 30
0.0
 10
266.9952886213075
 20
53.49996106721201
 30
0.0
 10
266.6817178378741
 20
54.30561788146915
 30
0.0
 10
266.3022279605716
 20
55.04603092961154
 30
0.0
 10
265.8505694371198
 20
55.70326771835074
 30
0.0
 10
265.5229555136885
 20
56.11782121009701
 30
0.0
 10
265.3310776836953
 20
56.2891845933891
 30
0.0
 10
265.3283365023701
 20
56.29163270376287
 30
0.0
  0
LINE
  5
1DA
330
1F
100
AcDbEntity
  8
0
  6
Continuous
 62
     7
370
    15
100
AcDbLine
 10
246.823460687
 20
30.8425823441
 30
0.0
 11
248.3702567708
 21
29.9496359718
 31
0.0
  0
LINE
  5
1DB
330
1F
100
AcDbEntity
  8
0
  6
Continuous
 62
     7
370
    15
100
AcDbLine
 10
264.1189768099
 20
57.2301751368
 30
0.0
 11
262.572180726
 21
58.1231215091
 31
0.0
  0
LINE
  5
1DC
330
1F
100
AcDbEntity
  8
0
  6
Continuous
 62
     7
370
    15
100
AcDbLine
 10
259.0189691506
 20
60.1743468901
 30
0.0
 11
255.9872488262
 21
61.9245217798
 31
0.0
  0
SPLINE
  5
1DD
330
1F
100
AcDbEntity
  8
0
  6
Continuous
 62
     7
370
    15
100
AcDbSpline
210
0.0
220
0.0
230
1.0
 70
     8
 71
     3
 72
    32
 73
    28
 74
     0
 42
0.000000001
 43
0.00000001
 40
0.0
 40
0.0
 40
0.0
 40
0.0
 40
0.039686086866924
 40
0.0802084941032467
 40
0.1209757388025918
 40
0.1619966363227482
 40
0.2032388833410514
 40
0.2446484143183225
 40
0.2861677083573671
 40
0.3277474586022592
 40
0.3693510886556389
 40
0.410949224525654
 40
0.4525300997714914
 40
0.4940886530680196
 40
0.5356239433739007
 40
0.5771375821956112
 40
0.6186326922408737
 40
0.6601132530203744
 40
0.7015837102610712
 40
0.7430487560308924
 40
0.7845132136057934
 40
0.8259811222184038
 40
0.8674566522760279
 40
0.908944764818731
 40
0.9504503786323668
 40
0.9919782475168402
 40
1.0
 40
1.0
 40
1.0
 40
1.0
 10
254.6858870511993
 20
62.4708976762412
 30
0.0
 10
254.4444410985479
 20
62.52998948405116
 30
0.0
 10
253.9564611086226
 20
62.64941836435796
 30
0.0
 10
253.1778067812384
 20
62.71575071907216
 30
0.0
 10
252.3661190896502
 20
62.69891920029938
 30
0.0
 10
251.5264866688395
 20
62.58965933901327
 30
0.0
 10
250.6650598661126
 20
62.39052390168374
 30
0.0
 10
249.7872307412395
 20
62.10191541022592
 30
0.0
 10
248.8989781826368
 20
61.72586061956608
 30
0.0
 10
248.0062180030634
 20
61.26492441104382
 30
0.0
 10
247.1148181914683
 20
60.72238043640323
 30
0.0
 10
246.230455202602
 20
60.10200528941608
 30
0.0
 10
245.3586150464195
 20
59.4080106453845
 30
0.0
 10
244.5045701932999
 20
58.64494907958959
 30
0.0
 10
243.6734464106368
 20
57.81772602011322
 30
0.0
 10
242.8702205386685
 20
56.93158118186457
 30
0.0
 10
242.0997070216632
 20
55.99206805823553
 30
0.0
 10
241.3665375486614
 20
55.00502989854979
 30
0.0
 10
240.6751394025258
 20
53.97657210023225
 30
0.0
 10
240.0297039248219
 20
52.91302850970587
 30
0.0
 10
239.4341910182419
 20
51.82093915768091
 30
0.0
 10
238.8922104160185
 20
50.70698987919541
 30
0.0
 10
238.4073435662746
 20
49.57804647743806
 30
0.0
 10
237.9818242112231
 20
48.44079815924511
 30
0.0
 10
237.6213768873159
 20
47.30285761338899
 30
0.0
 10
237.398993479657
 20
46.47378419788161
 30
0.0
 10
237.3017958969802
 20
46.02760887952054
 30
0.0
 10
237.2860602580656
 20
45.95537607795315
 30
0.0
  0
LINE
  5
1DE
330
1F
100
AcDbEntity
  8
0
  6
Continuous
 62
     7
370
    15
100
AcDbLine
 10
261.8313349854
 20
36.2827212303
 30
0.0
 11
261.9020341711
 21
36.3235482704
 31
0.0
  0
LINE
  5
1DF
330
1F
100
AcDbEntity
  8
0
  6
Continuous
 62
     7
370
    15
100
AcDbLine
 10
265.3662942677
 20
42.324472981
 30
0.0
 11
265.3662942677
 21
42.4061137922
 31
0.0
  0
LINE
  5
1E0
330
1F
100
AcDbEntity
  8
0
  6
Continuous
 62
     7
370
    15
100
AcDbLine
 10
264.3305571933
 20
44.6953378245
 30
0.0
 11
260.5121805749
 21
46.8996397264
 31
0.0
  0
LINE
  5
1E1
330
1F
100
AcDbEntity
  8
0
  6
Continuous
 62
     7
370
    15
100
AcDbLine
 10
255.5125869117
 20
38.2391511026
 30
0.0
 11
259.3309635301
 21
36.0348492007
 31
0.0
  0
SPLINE
  5
1E2
330
1F
100
AcDbEntity
  8
0
  6
Continuous
 62
     7
370
    15
100
AcDbSpline
210
0.0
220
0.0
230
1.0
 70
     8
 71
     3
 72
    18
 73
    14
 74
     0
 42
0.000000001
 43
0.00000001
 40
0.0
 40
0.0
 40
0.0
 40
0.0
 40
0.0123275478247004
 40
0.1146598922093823
 40
0.2172166496309247
 40
0.3197425909765861
 40
0.4219702551799606
 40
0.5236953490920526
 40
0.6247613145827188
 40
0.7251964818689848
 40
0.8254690634643324
 40
0.926774467054399
 40
1.0
 40
1.0
 40
1.0
 40
1.0
 10
260.0969598789335
 20
40.49031136889771
 30
0.0
 10
260.1038344829925
 20
40.50928531248521
 30
0.0
 10
260.1677759392816
 20
40.68576407026141
 30
0.0
 10
260.3277160280915
 20
41.0185589235718
 30
0.0
 10
260.5939004580375
 20
41.46778095657544
 30
0.0
 10
260.9039007546842
 20
41.87944568260608
 30
0.0
 10
261.241865570255
 20
42.23811766884955
 30
0.0
 10
261.5949367746804
 20
42.53103472133211
 30
0.0
 10
261.9477192753388
 20
42.74844914320728
 30
0.0
 10
262.2853554733915
 20
42.88583761531958
 30
0.0
 10
262.5913002134557
 20
42.93992791517081
 30
0.0
 10
262.8342198402536
 20
42.92864577313453
 30
0.0
 10
262.9545745344653
 20
42.87287673328842
 30
0.0
 10
263.0050700901593
 20
42.84947848799359
 30
0.0
  0
SPLINE
  5
1E3
330
1F
100
AcDbEntity
  8
0
  6
Continuous
 62
     7
370
    15
100
AcDbSpline
210
0.0
220
0.0
230
1.0
 70
     8
 71
     3
 72
    10
 73
     6
 74
     0
 42
0.000000001
 43
0.00000001
 40
0.0
 40
0.0
 40
0.0
 40
0.0
 40
0.1517054027987882
 40
0.6855612431997338
 40
1.0
 40
1.0
 40
1.0
 40
1.0
 10
260.3735960470937
 20
38.04399969522411
 30
0.0
 10
260.3499927489235
 20
38.05240557413549
 30
0.0
 10
260.2433287400042
 20
38.09039199182634
 30
0.0
 10
260.1239247699766
 20
38.20638043623411
 30
0.0
 10
260.0385708574003
 20
38.34252998472326
 30
0.0
 10
260.0069325819156
 20
38.39299676231101
 30
0.0
  0
LINE
  5
1E4
330
1F
100
AcDbEntity
  8
0
  6
Continuous
 62
     7
370
    15
100
AcDbLine
 10
246.9771241334
 20
60.612001981
 30
0.0
 11
227.0877511488
 21
67.7793436172
 31
0.0
  0
LINE
  5
1E5
330
1F
100
AcDbEntity
  8
0
  6
Continuous
 62
     7
370
    15
100
AcDbLine
 10
220.7162817374
 20
56.7424390062
 30
0.0
 11
239.7441558237
 21
40.6754594288
 31
0.0
  0
LINE
  5
1E6
330
1F
100
AcDbEntity
  8
0
  6
Continuous
 62
     7
370
    15
100
AcDbLine
 10
240.2385287872
 20
34.6439826148
 30
0.0
 11
243.2702491115
 21
32.8938077251
 31
0.0
  0
SPLINE
  5
1E7
330
1F
100
AcDbEntity
  8
0
  6
Continuous
 62
     7
370
    15
100
AcDbSpline
210
0.0
220
0.0
230
1.0
 70
     8
 71
     3
 72
    13
 73
     9
 74
     0
 42
0.000000001
 43
0.00000001
 40
0.0
 40
0.0
 40
0.0
 40
0.0
 40
0.0737735013221148
 40
0.2979980693714442
 40
0.5216271021273152
 40
0.7441065526486939
 40
0.9651709677155685
 40
1.0
 40
1.0
 40
1.0
 40
1.0
 10
237.2752036909505
 20
38.71061221790843
 30
0.0
 10
237.3026109487322
 20
38.61638750380759
 30
0.0
 10
237.4133188554919
 20
38.23577952959035
 30
0.0
 10
237.6579333819826
 20
37.61214383529857
 30
0.0
 10
238.0323789861765
 20
36.86724849885718
 30
0.0
 10
238.4796969114999
 20
36.20443290524194
 30
0.0
 10
238.8313875431437
 20
35.76185591394693
 30
0.0
 10
239.0504115441121
 20
35.56619137061928
 30
0.0
 10
239.0802223660762
 20
35.53955994739599
 30
0.0
  0
SPLINE
  5
1E8
330
1F
100
AcDbEntity
  8
0
  6
Continuous
 62
     7
370
    15
100
AcDbSpline
210
0.0
220
0.0
230
1.0
 70
     8
 71
     3
 72
    25
 73
    21
 74
     0
 42
0.000000001
 43
0.00000001
 40
0.0
 40
0.0
 40
0.0
 40
0.0
 40
0.0417133444629358
 40
0.0957459558016477
 40
0.1507790166833662
 40
0.2069080436821809
 40
0.2638819353639572
 40
0.3213220295400797
 40
0.3789075809115748
 40
0.4364375034427851
 40
0.4938660973713812
 40
0.5511974506013017
 40
0.6084589326429786
 40
0.6656877733510792
 40
0.7229252553052385
 40
0.780202874228449
 40
0.837562150351073
 40
0.89504670179847
 40
0.9526954223409101
 40
1.0
 40
1.0
 40
1.0
 40
1.0
 10
226.9276208048104
 20
67.82265010376764
 30
0.0
 10
226.8026355448551
 20
67.85633379365889
 30
0.0
 10
226.5157529337958
 20
67.93364902994813
 30
0.0
 10
226.0305700249131
 20
67.94777350719731
 30
0.0
 10
225.486148780459
 20
67.88398897693509
 30
0.0
 10
224.9210118644409
 20
67.72719566539337
 30
0.0
 10
224.344512200387
 20
67.4821392442054
 30
0.0
 10
223.7659853800508
 20
67.15131140873564
 30
0.0
 10
223.19564235335
 20
66.74097787693115
 30
0.0
 10
222.6427890612649
 20
66.25858945601354
 30
0.0
 10
222.1157700855289
 20
65.71247692242692
 30
0.0
 10
221.6220771556681
 20
65.11135386559356
 30
0.0
 10
221.1686802849327
 20
64.46444273822969
 30
0.0
 10
220.7620538947984
 20
63.78142235980937
 30
0.0
 10
220.4081102929171
 20
63.07236678065982
 30
0.0
 10
220.1122934055672
 20
62.34767992722785
 30
0.0
 10
219.8788237106798
 20
61.61759114799334
 30
0.0
 10
219.7132991332676
 20
60.89322436648026
 30
0.0
 10
219.6190580777242
 20
60.22509735371327
 30
0.0
 10
219.608275072246
 20
59.81329027910179
 30
0.0
 10
219.6034149532332
 20
59.62768048812489
 30
0.0
  0
SPLINE
  5
1E9
330
1F
100
AcDbEntity
  8
0
  6
Continuous
 62
     7
370
    15
100
AcDbSpline
210
0.0
220
0.0
230
1.0
 70
     8
 71
     3
 72
    13
 73
     9
 74
     0
 42
0.000000001
 43
0.00000001
 40
0.0
 40
0.0
 40
0.0
 40
0.0
 40
0.1036006027273755
 40
0.2994795789643288
 40
0.4954043829683596
 40
0.6899082311327374
 40
0.8813897955599084
 40
1.0
 40
1.0
 40
1.0
 40
1.0
 10
219.6034149532332
 20
59.62768048812489
 30
0.0
 10
219.6055139388292
 20
59.50985556578551
 30
0.0
 10
219.6115815031677
 20
59.16925756534182
 30
0.0
 10
219.6796464026685
 20
58.63572925101096
 30
0.0
 10
219.8322515676003
 20
58.05036057773985
 30
0.0
 10
220.0643155769258
 20
57.53014685315954
 30
0.0
 10
220.3220977634239
 20
57.12514097871444
 30
0.0
 10
220.5288585802862
 20
56.93025248535125
 30
0.0
 10
220.6079446613125
 20
56.85570757200102
 30
0.0
  0
LWPOLYLINE
  5
1EA
330
1F
100
AcDbEntity
  8
0
  6
Continuous
 62
     7
370
    15
100
AcDbPolyline
 90
       18
 70
   128
 43
0.0
 10
259.2560663823
 20
45.5309449033
 10
259.3724909422
 20
45.7039841583
 10
259.5893340881
 20
45.8410592368
 10
259.8773099516
 20
45.92365739
 10
260.1975257966
 20
45.9406232794
 10
260.5067346987
 20
45.8896655678
 10
260.7631762825
 20
45.7776663764
 10
260.932216691
 20
45.6197518167
 10
260.9910260804
 20
45.4372491249
 10
260.9316619168
 20
45.254806301
 10
260.7621416593
 20
45.0970632591
 10
260.5053599582
 20
44.9853240713
 10
260.195996605
 20
44.9346797339
 10
259.8758328349
 20
44.9519700454
 10
259.588108539
 20
45.0348598534
 10
259.3716824779
 20
45.1721544301
 10
259.2557841903
 20
45.3453113819
 10
259.2560663823
 20
45.5309449033
  0
LWPOLYLINE
  5
1EB
330
1F
100
AcDbEntity
  8
0
  6
Continuous
 62
     7
370
    15
100
AcDbPolyline
 90
        3
 70
   128
 43
0.0
 10
259.1332149487
 20
45.4421990869
 10
259.25562678
 20
45.6298221245
 10
259.4088047394
 20
45.7437625228
  0
LWPOLYLINE
  5
1EC
330
1F
100
AcDbEntity
  8
0
  6
Continuous
 62
     7
370
    15
100
AcDbPolyline
 90
       14
 70
   128
 43
0.0
 10
260.8232480953
 20
45.7437625228
 10
260.9875700341
 20
45.6186793526
 10
261.1027081494
 20
45.4295279942
 10
261.098837886
 20
45.2290505254
 10
260.9764260547
 20
45.0414274878
 10
260.750237329
 20
44.8892889886
 10
260.4475534074
 20
44.7909851763
 10
260.104882438
 20
44.7583729413
 10
259.7635555969
 20
44.7953858006
 10
259.4647419388
 20
44.897559457
 10
259.2444828006
 20
45.0525702597
 10
259.1293446853
 20
45.2417216181
 10
259.1332149487
 20
45.4421990869
 10
259.1332149487
 20
45.4421990869
  0
LWPOLYLINE
  5
1ED
330
1F
100
AcDbEntity
  8
0
  6
Continuous
 62
     7
370
    15
100
AcDbPolyline
 90
       17
 70
   128
 43
0.0
 10
259.5017692495
 20
45.5043013331
 10
259.5926817806
 20
45.6349317677
 10
259.7632687886
 20
45.7355342978
 10
259.9875599478
 20
45.7907931
 10
260.2314089624
 20
45.7922955227
 10
260.4576920305
 20
45.7398128356
 10
260.6319596062
 20
45.6413350521
 10
260.7276810308
 20
45.5118545219
 10
260.7302835852
 20
45.3710834822
 10
260.6393710541
 20
45.2404530475
 10
260.4687840461
 20
45.1398505174
 10
260.2444928869
 20
45.0845917152
 10
260.0006438723
 20
45.0830892925
 10
259.7743608042
 20
45.1355719797
 10
259.6000932285
 20
45.2340497632
 10
259.5043718039
 20
45.3635302933
 10
259.5017692495
 20
45.5043013331
  0
SPLINE
  5
1EE
330
1F
100
AcDbEntity
  8
0
  6
Continuous
 62
     7
370
    15
100
AcDbSpline
210
0.0
220
0.0
230
1.0
 70
     8
 71
     3
 72
    11
 73
     7
 74
     0
 42
0.000000001
 43
0.00000001
 40
0.0
 40
0.0
 40
0.0
 40
0.0
 40
0.1208913875340386
 40
0.4766714197329874
 40
0.8143663490172295
 40
0.9999999999999999
 40
0.9999999999999999
 40
0.9999999999999999
 40
0.9999999999999999
 10
259.5713277682819
 20
45.28828743494454
 30
0.0
 10
259.5753615355346
 20
45.2922036228885
 30
0.0
 10
259.5912665689901
 20
45.30764504436002
 30
0.0
 10
259.6212620430776
 20
45.36655770682287
 30
0.0
 10
259.6541318969008
 20
45.49394229459418
 30
0.0
 10
259.671686631439
 20
45.58393411448677
 30
0.0
 10
259.6779135977986
 20
45.6158557612593
 30
0.0
  0
SPLINE
  5
1EF
330
1F
100
AcDbEntity
  8
0
  6
Continuous
 62
     7
370
    15
100
AcDbSpline
210
0.0
220
0.0
230
1.0
 70
     8
 71
     3
 72
     9
 73
     5
 74
     0
 42
0.000000001
 43
0.00000001
 40
0.0
 40
0.0
 40
0.0
 40
0.0
 40
0.4301055283815526
 40
1.0
 40
1.0
 40
1.0
 40
1.0
 10
259.7614926778857
 20
45.13872844607742
 30
0.0
 10
259.7327729442693
 20
45.15463075933465
 30
0.0
 10
259.6659992533464
 20
45.19160380945348
 30
0.0
 10
259.6056948909985
 20
45.25318987605793
 30
0.0
 10
259.5713277682819
 20
45.28828743494454
 30
0.0
  0
SPLINE
  5
1F0
330
1F
100
AcDbEntity
  8
0
  6
Continuous
 62
     7
370
    15
100
AcDbSpline
210
0.0
220
0.0
230
1.0
 70
     8
 71
     3
 72
    11
 73
     7
 74
     0
 42
0.000000001
 43
0.00000001
 40
0.0
 40
0.0
 40
0.0
 40
0.0
 40
0.1856336509827615
 40
0.5233285802669904
 40
0.8791086124659364
 40
1.0
 40
1.0
 40
1.0
 40
1.0
 10
260.6607250664124
 20
45.5092814805392
 30
0.0
 10
260.6544981000528
 20
45.47735983376669
 30
0.0
 10
260.6369433655146
 20
45.38736801387408
 30
0.0
 10
260.6040735116914
 20
45.25998342610276
 30
0.0
 10
260.5740780376039
 20
45.20107076363993
 30
0.0
 10
260.5581730041483
 20
45.18562934216841
 30
0.0
 10
260.5541392368957
 20
45.18171315422444
 30
0.0
  0
SPLINE
  5
1F1
330
1F
100
AcDbEntity
  8
0
  6
Continuous
 62
     7
370
    15
100
AcDbSpline
210
0.0
220
0.0
230
1.0
 70
     8
 71
     3
 72
    10
 73
     6
 74
     0
 42
0.000000001
 43
0.00000001
 40
0.0
 40
0.0
 40
0.0
 40
0.0
 40
0.4391051671061715
 40
0.7513578980692772
 40
1.0
 40
1.0
 40
1.0
 40
1.0
 10
260.2226122468639
 20
45.72635278405663
 30
0.0
 10
260.2853297096921
 20
45.66731649957349
 30
0.0
 10
260.3926462811492
 20
45.5662988346906
 30
0.0
 10
260.5486524400229
 20
45.51026762223216
 30
0.0
 10
260.6263029515025
 20
45.50958436522895
 30
0.0
 10
260.6607250664124
 20
45.5092814805392
 30
0.0
  0
SPLINE
  5
1F2
330
1F
100
AcDbEntity
  8
0
  6
Continuous
 62
     7
370
    15
100
AcDbSpline
210
0.0
220
0.0
230
1.0
 70
     8
 71
     3
 72
    10
 73
     6
 74
     0
 42
0.000000001
 43
0.00000001
 40
0.0
 40
0.0
 40
0.0
 40
0.0
 40
0.439105167106176
 40
0.751357898069258
 40
1.0
 40
1.0
 40
1.0
 40
1.0
 10
259.6779135977986
 20
45.6158557612593
 30
0.0
 10
259.7558892144688
 20
45.60371208847956
 30
0.0
 10
259.8893141883264
 20
45.58293291041897
 30
0.0
 10
260.0832741461106
 20
45.6435444303273
 30
0.0
 10
260.1798157829103
 20
45.7009189313898
 30
0.0
 10
260.2226122468639
 20
45.72635278405663
 30
0.0
  0
LINE
  5
1F3
330
1F
100
AcDbEntity
  8
0
  6
Continuous
 62
     7
370
    15
100
AcDbLine
 10
259.6779135978
 20
45.1901376696
 30
0.0
 11
259.6779135978
 21
45.6158557613
 31
0.0
  0
LINE
  5
1F4
330
1F
100
AcDbEntity
  8
0
  6
Continuous
 62
     7
370
    15
100
AcDbLine
 10
260.2226122469
 20
45.0821729392
 30
0.0
 11
260.2226122469
 21
45.7263527841
 31
0.0
  0
ARC
  5
1F5
330
1F
100
AcDbEntity
  8
0
  6
Continuous
 62
     7
370
    15
100
AcDbCircle
 10
261.4448643673
 20
52.597789837
 30
0.0
 40
5.347587089897437
100
AcDbArc
 50
44.5002903952
 51
75.1436985711
  0
ARC
  5
1F6
330
1F
100
AcDbEntity
  8
0
  6
Continuous
 62
     7
370
    15
100
AcDbCircle
 10
251.0424275377
 20
34.5783663977
 30
0.0
 40
5.343630994390825
100
AcDbArc
 50
224.5443236664
 51
255.6269378882
  0
ARC
  5
1F7
330
1F
100
AcDbEntity
  8
0
  6
Continuous
 62
     7
370
    15
100
AcDbCircle
 10
250.6052869828
 20
36.6029274637
 30
0.0
 40
6.890847990550707
100
AcDbArc
 50
188.312493873
 51
236.7139908619
  0
SPLINE
  5
1F8
330
1F
100
AcDbEntity
  8
0
  6
Continuous
 62
     7
370
    15
100
AcDbSpline
210
0.0
220
0.0
230
1.0
 70
     8
 71
     3
 72
    29
 73
    25
 74
     0
 42
0.000000001
 43
0.00000001
 40
0.0
 40
0.0
 40
0.0
 40
0.0
 40
0.0226170105016674
 40
0.0451713142211041
 40
0.0676870228449807
 40
0.090188372120831
 40
0.1126996441629423
 40
0.1352450890127045
 40
0.1578488467149011
 40
0.1805348711521328
 40
0.2033268568146046
 40
0.2262481695760157
 40
0.2493217824052029
 40
0.3751991801868492
 40
0.499961424646005
 40
0.4999717960761217
 40
0.6247044141102638
 40
0.7509557879397657
 40
0.7931713871186022
 40
0.8349081045046313
 40
0.8763104515914815
 40
0.9175264576320521
 40
0.9587061619408423
 40
1.0
 40
1.0
 40
1.0
 40
1.0
 10
243.7869936054227
 20
40.76095732015361
 30
0.0
 10
243.8053588305448
 20
40.71211743035516
 30
0.0
 10
243.8420383622925
 20
40.61457306177265
 30
0.0
 10
243.8937281909556
 20
40.46711045237512
 30
0.0
 10
243.9429095507767
 20
40.31917316285784
 30
0.0
 10
243.9893992206747
 20
40.17068129762887
 30
0.0
 10
244.0333093171332
 20
40.0216893314977
 30
0.0
 10
244.0746745085886
 20
39.87221754291953
 30
0.0
 10
244.1135517952938
 20
39.72229743960958
 30
0.0
 10
244.1499936403173
 20
39.57195862962595
 30
0.0
 10
244.1840556214059
 20
39.42123617799737
 30
0.0
 10
244.2157926745055
 20
39.27015448125713
 30
0.0
 10
244.28895094638
 20
38.89443327430562
 30
0.0
 10
244.3746274864193
 20
38.30566285258914
 30
0.0
 10
244.4003598482361
 20
37.80417924858273
 30
0.0
 10
244.4007970044713
 20
37.333726423339
 30
0.0
 10
244.3753659477518
 20
36.88728389345135
 30
0.0
 10
244.2833986317138
 20
36.4512572219616
 30
0.0
 10
244.1908447376686
 20
36.18306433933904
 30
0.0
 10
244.1272621137798
 20
36.03681322850456
 30
0.0
 10
244.0556166097442
 20
35.90589289665868
 30
0.0
 10
243.9753618354316
 20
35.79044656420808
 30
0.0
 10
243.8869601758375
 20
35.68892455976314
 30
0.0
 10
243.8206035219257
 20
35.63392568280057
 30
0.0
 10
243.7873792800403
 20
35.60638818830814
 30
0.0
  0
LWPOLYLINE
  5
1F9
330
1F
100
AcDbEntity
  8
0
  6
Continuous
 62
     7
370
    15
100
AcDbPolyline
 90
       27
 70
   128
 43
0.0
 10
243.7867748643
 20
40.7610835967
 10
244.0174128788
 20
41.9615799331
 10
244.3261989762
 20
43.1805243078
 10
244.7108737818
 20
44.4089977575
 10
245.1686226468
 20
45.6380115949
 10
245.6960962424
 20
46.8585731789
 10
246.2894350673
 20
48.0617517131
 10
246.9442976867
 20
49.2387435921
 10
247.6558924992
 20
50.3809368172
 10
248.4190127962
 20
51.4799740099
 10
249.2280748596
 20
52.5278135624
 10
250.0771588171
 20
53.5167884781
 10
250.9600519582
 20
54.4396624702
 10
251.8702941917
 20
55.2896829096
 10
252.8012253146
 20
56.0606302334
 10
253.7460337442
 20
56.7468634533
 10
254.6978063578
 20
57.3433614305
 10
255.6495790764
 20
57.845759615
 10
256.5943878201
 20
58.2503819811
 10
257.5253194641
 20
58.5542679244
 10
258.4355624219
 20
58.7551939245
 10
259.3184564849
 20
58.8516898145
 10
260.1675415555
 20
58.8430495383
 10
260.9766049148
 20
58.7293363164
 10
261.7397266813
 20
58.5113821834
 10
262.4513231259
 20
58.1907819003
 10
262.572180726
 20
58.1231215091
  0
SPLINE
  5
1FA
330
1F
100
AcDbEntity
  8
0
  6
Continuous
 62
     7
370
    15
100
AcDbSpline
210
0.0
220
0.0
230
1.0
 70
     8
 71
     3
 72
     8
 73
     4
 74
     0
 42
0.000000001
 43
0.00000001
 40
0.0
 40
0.0
 40
0.0
 40
0.0
 40
1.0
 40
1.0
 40
1.0
 40
1.0
 10
243.0088384672476
 20
44.03986072365795
 30
0.0
 10
242.3157672321948
 20
43.92399910528324
 30
0.0
 10
241.6221464657985
 20
43.80924041213019
 30
0.0
 10
240.9281673049711
 20
43.69522886449202
 30
0.0
  0
SPLINE
  5
1FB
330
1F
100
AcDbEntity
  8
0
  6
Continuous
 62
     7
370
    15
100
AcDbSpline
210
0.0
220
0.0
230
1.0
 70
     8
 71
     3
 72
     8
 73
     4
 74
     0
 42
0.000000001
 43
0.00000001
 40
0.0
 40
0.0
 40
0.0
 40
0.0
 40
0.0012389803509652
 40
0.0012389803509652
 40
0.0012389803509652
 40
0.0012389803509652
 10
240.4544308908256
 20
43.96876298524602
 30
0.0
 10
240.6125042258066
 20
43.87749190479552
 30
0.0
 10
240.7704224047726
 20
43.78631037769527
 30
0.0
 10
240.9281673049711
 20
43.69522886449202
 30
0.0
  0
LWPOLYLINE
  5
1FC
330
1F
100
AcDbEntity
  8
0
  6
Continuous
 62
     7
370
    15
100
AcDbPolyline
 90
       28
 70
   128
 43
0.0
 10
240.4544308908
 20
43.9687629852
 10
240.7612463685
 20
45.1901633723
 10
241.1444052907
 20
46.4214448568
 10
241.6010904899
 20
47.6535544689
 10
242.1279441983
 20
48.87743315
 10
242.7210927357
 20
50.0840823592
 10
243.3761749906
 20
51.264630235
 10
244.0883744853
 20
52.4103968252
 10
244.8524547888
 20
53.5129579065
 10
245.6627980176
 20
54.5642069229
 10
246.513446141
 20
55.5564145894
 10
247.3981447877
 20
56.4822857211
 10
248.3103892303
 20
57.3350128709
 10
249.243472212
 20
58.1083263815
 10
250.1905332607
 20
58.7965404825
 10
251.144609131
 20
59.3945950948
 10
252.0986850014
 20
59.8980930352
 10
253.0457460501
 20
60.3033323463
 10
253.9788290318
 20
60.607333515
 10
254.8910734744
 20
60.8078613795
 10
255.7757721211
 20
60.903441563
 10
256.6264202445
 20
60.8933713145
 10
257.4367634733
 20
60.7777246752
 10
258.2008437768
 20
60.5573519344
 10
258.9130432715
 20
60.2338733778
 10
259.5681255264
 20
59.8096673744
 10
260.1612740638
 20
59.2878528894
 10
260.5926061491
 20
58.7971438489
  0
LINE
  5
1FD
330
1F
100
AcDbEntity
  8
0
  6
Continuous
 62
     7
370
    15
100
AcDbLine
 10
237.4227105665
 20
45.718937875
 30
0.0
 11
240.4544308908
 21
43.9687629852
 31
0.0
  0
ARC
  5
1FE
330
1F
100
AcDbEntity
  8
0
  6
Continuous
 62
     7
370
    15
100
AcDbCircle
 10
253.3209686355
 20
57.2971904804
 30
0.0
 40
5.34052853281361
100
AcDbArc
 50
60.0493432146
 51
74.3504436768
  0
LINE
  5
1FF
330
1F
100
AcDbEntity
  8
0
  6
Continuous
 62
     7
370
    15
100
AcDbLine
 10
243.4114338697
 20
43.9786983329
 30
0.0
 11
243.4021112188
 21
43.9840801847
 31
0.0
  0
SPLINE
  5
200
330
1F
100
AcDbEntity
  8
0
  6
Continuous
 62
     7
370
    15
100
AcDbSpline
210
0.0
220
0.0
230
1.0
 70
     8
 71
     3
 72
    10
 73
     6
 74
     0
 42
0.000000001
 43
0.00000001
 40
0.0
 40
0.0
 40
0.0
 40
0.0
 40
0.2409971518765583
 40
0.7131807703182222
 40
1.0
 40
1.0
 40
1.0
 40
1.0
 10
244.3286345931913
 20
43.17629599128288
 30
0.0
 10
244.2627759034725
 20
43.25731486072879
 30
0.0
 10
244.0678808572031
 20
43.49707329468465
 30
0.0
 10
243.7549959776749
 20
43.7628012246254
 30
0.0
 10
243.5056566072512
 20
43.91948802975929
 30
0.0
 10
243.4114338697067
 20
43.97869833293657
 30
0.0
  0
SPLINE
  5
201
330
1F
100
AcDbEntity
  8
0
  6
Continuous
 62
     7
370
    15
100
AcDbSpline
210
0.0
220
0.0
230
1.0
 70
     8
 71
     3
 72
    10
 73
     6
 74
     0
 42
0.000000001
 43
0.00000001
 40
0.0
 40
0.0
 40
0.0
 40
0.0
 40
0.5
 40
0.5
 40
1.0
 40
1.0
 40
1.0
 40
1.0
 10
243.4021112187995
 20
43.9840801847493
 30
0.0
 10
243.3523106199868
 20
44.01282945849841
 30
0.0
 10
243.2872787032428
 20
44.03359280385908
 30
0.0
 10
243.1502203428973
 20
44.05254649324686
 30
0.0
 10
243.0766815028476
 20
44.05120213201905
 30
0.0
 10
243.0088384672476
 20
44.03986072365795
 30
0.0
  0
SPLINE
  5
202
330
1F
100
AcDbEntity
  8
0
  6
Continuous
 62
     7
370
    15
100
AcDbSpline
210
0.0
220
0.0
230
1.0
 70
     8
 71
     3
 72
     8
 73
     4
 74
     0
 42
0.000000001
 43
0.00000001
 40
0.0
 40
0.0
 40
0.0
 40
0.0
 40
1.0
 40
1.0
 40
1.0
 40
1.0
 10
237.2658859589272
 20
45.80945955415481
 30
0.0
 10
237.2882647554466
 20
45.79654760270297
 30
0.0
 10
237.3424521864639
 20
45.76527005154595
 30
0.0
 10
237.4227105664883
 20
45.71893787496595
 30
0.0
  0
LINE
  5
203
330
1F
100
AcDbEntity
  8
0
  6
Continuous
 62
     7
370
    15
100
AcDbLine
 10
237.2658859589
 20
45.8094595542
 30
0.0
 11
237.2888535492
 21
45.9548449619
 31
0.0
  0
SPLINE
  5
204
330
1F
100
AcDbEntity
  8
0
  6
Continuous
 62
     7
370
    15
100
AcDbSpline
210
0.0
220
0.0
230
1.0
 70
     8
 71
     3
 72
    11
 73
     7
 74
     0
 42
0.000000001
 43
0.00000001
 40
0.0
 40
0.0
 40
0.0
 40
0.0
 40
0.3095641458094145
 40
0.5897803711570422
 40
0.8409900224186586
 40
1.0
 40
1.0
 40
1.0
 40
1.0
 10
243.8954189547064
 20
36.33251692706864
 30
0.0
 10
243.986414917684
 20
36.42399114348201
 30
0.0
 10
244.1597800620176
 20
36.59826745434648
 30
0.0
 10
244.310113045717
 20
37.01673327934355
 30
0.0
 10
244.3843937848158
 20
37.42988250752574
 30
0.0
 10
244.3919384167506
 20
37.72691375913048
 30
0.0
 10
244.3948628788447
 20
37.84204947994385
 30
0.0
  0
SPLINE
  5
205
330
1F
100
AcDbEntity
  8
0
  6
Continuous
 62
     7
370
    15
100
AcDbSpline
210
0.0
220
0.0
230
1.0
 70
     8
 71
     3
 72
     9
 73
     5
 74
     0
 42
0.000000001
 43
0.00000001
 40
0.0
 40
0.0
 40
0.0
 40
0.0
 40
0.5067661695379747
 40
1.0
 40
1.0
 40
1.0
 40
1.0
 10
243.7866974902339
 20
35.60588616052448
 30
0.0
 10
243.8049665075453
 20
35.72834051435449
 30
0.0
 10
243.841016698757
 20
35.96997928424641
 30
0.0
 10
243.8776974381938
 20
36.21212968237558
 30
0.0
 10
243.8957896198104
 20
36.33156645079274
 30
0.0
  0
LWPOLYLINE
  5
206
330
1F
100
AcDbEntity
  8
0
  6
Continuous
 62
     7
370
    15
100
AcDbPolyline
 90
       43
 70
   128
 43
0.0
 10
261.9014710398
 20
44.3253230853
 10
261.3850659341
 20
43.9825203407
 10
260.880196465
 20
43.5579983981
 10
260.3981405824
 20
43.061240376
 10
259.949666618
 20
42.5033430279
 10
259.5447927391
 20
41.8967688585
 10
259.1925631592
 20
41.2550677325
 10
258.9008461049
 20
40.5925741926
 10
258.6761580534
 20
39.9240872499
 10
258.5235181643
 20
39.2645397979
 10
258.4463361605
 20
38.6286650369
 10
258.4463361605
 20
38.0306673583
 10
258.5235181643
 20
37.483905042
 10
258.6761580534
 20
37.0005918547
 10
258.9008461049
 20
36.5915242144
 10
259.1925631592
 20
36.2658400162
 10
259.5447927391
 20
36.0308145068
 10
259.949666618
 20
35.8916977679
 10
260.3981405824
 20
35.8515974374
 10
260.880196465
 20
35.9114092905
 10
261.3850659341
 20
36.0697972292
 10
261.9014710398
 20
36.3232231288
 10
262.4178761456
 20
36.6660258733
 10
262.9227456147
 20
37.0905478159
 10
263.4048014973
 20
37.587305838
 10
263.8532754617
 20
38.1452031862
 10
264.2581493406
 20
38.7517773555
 10
264.6103789205
 20
39.3934784816
 10
264.9020959748
 20
40.0559720214
 10
265.1267840263
 20
40.7244589641
 10
265.2794239154
 20
41.3840064161
 10
265.3566059192
 20
42.0198811771
 10
265.3566059192
 20
42.6178788558
 10
265.2794239154
 20
43.1646411721
 10
265.1267840263
 20
43.6479543593
 10
264.9020959748
 20
44.0570219996
 10
264.6103789205
 20
44.3827061979
 10
264.2581493406
 20
44.6177317072
 10
263.8532754617
 20
44.7568484462
 10
263.4048014973
 20
44.7969487766
 10
262.9227456147
 20
44.7371369235
 10
262.4178761456
 20
44.5787489848
 10
261.9014710398
 20
44.3253230853
  0
LWPOLYLINE
  5
207
330
1F
100
AcDbEntity
  8
0
  6
Continuous
 62
     7
370
    15
100
AcDbPolyline
 90
       23
 70
   128
 43
0.0
 10
261.8307603617
 20
44.447797572
 10
261.3038163762
 20
44.0979988532
 10
260.7886434486
 20
43.6648131974
 10
260.2967496908
 20
43.1579172565
 10
259.8391231965
 20
42.5886342482
 10
259.4259865854
 20
41.9696810141
 10
259.0665686467
 20
41.3148839468
 10
258.7688981832
 20
40.6388701306
 10
258.5396246613
 20
39.9567405972
 10
258.3838696724
 20
39.2837329931
 10
258.3051125257
 20
38.6348811962
 10
258.3051125257
 20
38.0246794833
 10
258.3838696724
 20
37.4667587524
 10
258.5396246613
 20
36.9735820307
 10
258.7688981832
 20
36.5561660712
 10
259.0665686467
 20
36.2238352566
 10
259.4259865854
 20
35.9840133083
 10
259.8391231965
 20
35.8420574523
 10
260.2967496908
 20
35.8011387477
 10
260.7886434486
 20
35.8621712509
 10
261.3038163762
 20
36.0237915965
 10
261.8307603617
 20
36.2823894532
 10
261.8313349854
 20
36.2827212303
  0
LWPOLYLINE
  5
208
330
1F
100
AcDbEntity
  8
0
  6
Continuous
 62
     7
370
    15
100
AcDbPolyline
 90
       12
 70
   128
 43
0.0
 10
265.3662942677
 20
42.4061137922
 10
265.3564081978
 20
42.705507542
 10
265.2776510511
 20
43.2634282729
 10
265.1218960622
 20
43.7566049946
 10
264.8926225402
 20
44.1740209541
 10
264.5949520767
 20
44.5063517686
 10
264.235534138
 20
44.7461737169
 10
263.8223975269
 20
44.888129573
 10
263.3647710326
 20
44.9290482775
 10
262.8728772748
 20
44.8680157743
 10
262.3577043472
 20
44.7063954287
 10
261.8307603617
 20
44.447797572
  0
SPLINE
  5
209
330
1F
100
AcDbEntity
  8
0
  6
Continuous
 62
     7
370
    15
100
AcDbSpline
210
0.0
220
0.0
230
1.0
 70
    11
 71
     3
 72
    60
 73
    56
 74
     0
 42
0.000000001
 43
0.00000001
 40
0.0
 40
0.0
 40
0.0
 40
0.0
 40
0.0624999999999982
 40
0.0624999999999982
 40
0.093749999999998
 40
0.093749999999998
 40
0.1249999999999977
 40
0.1249999999999977
 40
0.1562499999999975
 40
0.1562499999999975
 40
0.1874999999999973
 40
0.1874999999999973
 40
0.218749999999997
 40
0.218749999999997
 40
0.2499999999999968
 40
0.2499999999999968
 40
0.2812499999999966
 40
0.2812499999999966
 40
0.3124999999999963
 40
0.3124999999999963
 40
0.3437499999999961
 40
0.3437499999999961
 40
0.3749999999999958
 40
0.3749999999999958
 40
0.4062499999999956
 40
0.4062499999999956
 40
0.4374999999999953
 40
0.4374999999999953
 40
0.4687499999999951
 40
0.4687499999999951
 40
0.4999999999999949
 40
0.4999999999999949
 40
0.5312499999999947
 40
0.5312499999999947
 40
0.5624999999999944
 40
0.5624999999999944
 40
0.6249999999999951
 40
0.6249999999999951
 40
0.6874999999999959
 40
0.6874999999999959
 40
0.7499999999999967
 40
0.7499999999999967
 40
0.7812499999999971
 40
0.7812499999999971
 40
0.8124999999999976
 40
0.8124999999999976
 40
0.843749999999998
 40
0.843749999999998
 40
0.8749999999999983
 40
0.8749999999999983
 40
0.9062499999999988
 40
0.9062499999999988
 40
0.9374999999999992
 40
0.9374999999999992
 40
1.0
 40
1.0
 40
1.0
 40
1.0
 10
260.1127068298166
 20
46.06208716779601
 30
0.0
 10
260.2680605183159
 20
46.03918499920461
 30
0.0
 10
260.4167518753313
 20
46.00084537714233
 30
0.0
 10
260.6258796023481
 20
45.92730333582391
 30
0.0
 10
260.6918056943904
 20
45.90055856157445
 30
0.0
 10
260.8164235085094
 20
45.84314254750412
 30
0.0
 10
260.8756133548587
 20
45.8121525581024
 30
0.0
 10
260.9834925051971
 20
45.7478619793068
 30
0.0
 10
261.0321659333712
 20
45.71467096744428
 30
0.0
 10
261.1190721822006
 20
45.64604603957599
 30
0.0
 10
261.1575936843933
 20
45.61023823859124
 30
0.0
 10
261.2212738304717
 20
45.538073549936
 30
0.0
 10
261.2466498684749
 20
45.50168144575414
 30
0.0
 10
261.2841594886722
 20
45.42760897028222
 30
0.0
 10
261.296277076298
 20
45.38951056320025
 30
0.0
 10
261.3052407847858
 20
45.31404655067487
 30
0.0
 10
261.3023496866116
 20
45.27650597506308
 30
0.0
 10
261.2808545081327
 20
45.20100423918615
 30
0.0
 10
261.261831773072
 20
45.16269370064527
 30
0.0
 10
261.2084512989047
 20
45.0888447075687
 30
0.0
 10
261.1741191966549
 20
45.05286874684002
 30
0.0
 10
261.0889053157243
 20
44.98248071789883
 30
0.0
 10
261.0385335090542
 20
44.94869099880357
 30
0.0
 10
260.9262567150127
 20
44.88635266679704
 30
0.0
 10
260.8629023976287
 20
44.85705095160917
 30
0.0
 10
260.7283425836881
 20
44.80537245830792
 30
0.0
 10
260.6573661394953
 20
44.78291623586488
 30
0.0
 10
260.5082763250307
 20
44.74499690681896
 30
0.0
 10
260.4317677689608
 20
44.7299961395535
 30
0.0
 10
260.2776987153343
 20
44.70837151445902
 30
0.0
 10
260.198991787013
 20
44.7016651804565
 30
0.0
 10
260.0448563679996
 20
44.69727599989159
 30
0.0
 10
259.9690386214303
 20
44.699460643395
 30
0.0
 10
259.8197189706008
 20
44.7129587520383
 30
0.0
 10
259.7468177709321
 20
44.72431227330375
 30
0.0
 10
259.5390987427369
 20
44.77136025720518
 30
0.0
 10
259.4110820588709
 20
44.82136835965432
 30
0.0
 10
259.196231464133
 20
44.95142404868435
 30
0.0
 10
259.1066713844695
 20
45.03316509325793
 30
0.0
 10
258.9796170633819
 20
45.214539037181
 30
0.0
 10
258.9403978039426
 20
45.31662763909858
 30
0.0
 10
258.9268232502799
 20
45.46983336170175
 30
0.0
 10
258.9296825277167
 20
45.52188141708753
 30
0.0
 10
258.9514678554494
 20
45.62360466080928
 30
0.0
 10
258.9700731721593
 20
45.6726121713309
 30
0.0
 10
259.023368981021
 20
45.76612740207197
 30
0.0
 10
259.0587745870061
 20
45.81118351594798
 30
0.0
 10
259.1437481658607
 20
45.89147611161906
 30
0.0
 10
259.1932390631707
 20
45.92709867993906
 30
0.0
 10
259.3067705600417
 20
45.9888092518631
 30
0.0
 10
259.3698712966317
 20
46.014194372004
 30
0.0
 10
259.5040731509343
 20
46.05308547167779
 30
0.0
 10
259.5766528735589
 20
46.06694010843552
 30
0.0
 10
259.7991233682141
 20
46.09117533306729
 30
0.0
 10
259.9573531413172
 20
46.08498933638741
 30
0.0
 10
260.1127068298166
 20
46.06208716779601
 30
0.0
  0
SPLINE
  5
20A
330
1F
100
AcDbEntity
  8
0
  6
Continuous
 62
     7
370
    15
100
AcDbSpline
210
0.0
220
0.0
230
1.0
 70
     8
 71
     3
 72
    10
 73
     6
 74
     0
 42
0.000000001
 43
0.00000001
 40
0.0
 40
0.0
 40
0.0
 40
0.0
 40
0.4807908150150776
 40
0.9757817590329644
 40
0.9999999999999999
 40
0.9999999999999999
 40
0.9999999999999999
 40
0.9999999999999999
 10
243.4114338697067
 20
37.40554479725628
 30
0.0
 10
243.5612248166069
 20
37.32537442189425
 30
0.0
 10
243.8652307773883
 20
37.16266584375587
 30
0.0
 10
244.1548462215868
 20
37.05116441303439
 30
0.0
 10
244.2891846522656
 20
37.02293279555511
 30
0.0
 10
244.2954507981263
 20
37.02161594651858
 30
0.0
  0
LINE
  5
20B
330
1F
100
AcDbEntity
  8
0
  6
Continuous
 62
     7
370
    15
100
AcDbLine
 10
263.8348789776
 20
40.336906659
 30
0.0
 11
264.5884768084
 21
41.2743751961
 31
0.0
  0
SPLINE
  5
20C
330
1F
100
AcDbEntity
  8
0
  6
Continuous
 62
     7
370
    15
100
AcDbSpline
210
0.0
220
0.0
230
1.0
 70
     8
 71
     3
 72
    21
 73
    17
 74
     0
 42
0.000000001
 43
0.00000001
 40
0.0
 40
0.0
 40
0.0
 40
0.0
 40
0.041666666666667
 40
0.0833333333333336
 40
0.1250000000000028
 40
0.1666666666666667
 40
0.2083333333333333
 40
0.2499999999976953
 40
0.3339999999999608
 40
0.4180000000000001
 40
0.4330099753158392
 40
0.4330099753158392
 40
0.5019999999997408
 40
0.5859999999988206
 40
0.6699999999999804
 40
0.815653684793081
 40
0.815653684793081
 40
0.815653684793081
 40
0.815653684793081
 10
264.5884768083541
 20
41.2743751961074
 30
0.0
 10
264.6184532754494
 20
41.311665636193
 30
0.0
 10
264.6766002238105
 20
41.39197864325308
 30
0.0
 10
264.7566664262307
 20
41.52992809269802
 30
0.0
 10
264.8244998940144
 20
41.6825350405749
 30
0.0
 10
264.8740338802888
 20
41.84343601616065
 30
0.0
 10
264.8994548502446
 20
42.00338213454506
 30
0.0
 10
264.8953306229538
 20
42.20296313511041
 30
0.0
 10
264.8194671338808
 20
42.39318465119312
 30
0.0
 10
264.6769096649602
 20
42.46405981319356
 30
0.0
 10
264.6030415566353
 20
42.47546867302417
 30
0.0
 10
264.5439141247553
 20
42.48172872594775
 30
0.0
 10
264.4556810543082
 20
42.48770136124432
 30
0.0
 10
264.3224545787523
 20
42.50050204763778
 30
0.0
 10
264.190210762143
 20
42.51205484959169
 30
0.0
 10
263.9825757311625
 20
42.53060508869217
 30
0.0
 10
263.8349258683506
 20
42.54382235458564
 30
0.0
  0
SPLINE
  5
20D
330
1F
100
AcDbEntity
  8
0
  6
Continuous
 62
     7
370
    15
100
AcDbSpline
210
0.0
220
0.0
230
1.0
 70
     8
 71
     3
 72
    21
 73
    17
 74
     0
 42
0.000000001
 43
0.00000001
 40
0.0
 40
0.0
 40
0.0
 40
0.0
 40
0.041666666666667
 40
0.0833333333333336
 40
0.1250000000000028
 40
0.1666666666666667
 40
0.2083333333333333
 40
0.2499999999976953
 40
0.3339999999999608
 40
0.4180000000000001
 40
0.4330099753158392
 40
0.4330099753158392
 40
0.5019999999997408
 40
0.5859999999988206
 40
0.6699999999999804
 40
0.8133971939535419
 40
0.8133971939535419
 40
0.8133971939535419
 40
0.8133971939535419
 10
259.2144652713322
 20
38.17202437117873
 30
0.0
 10
259.1853920248018
 20
38.17462395752352
 30
0.0
 10
259.1259226694142
 20
38.18792016929422
 30
0.0
 10
259.0463879752246
 20
38.23337962803829
 30
0.0
 10
258.9784120850583
 20
38.30768044197679
 30
0.0
 10
258.9289162800834
 20
38.41138733182472
 30
0.0
 10
258.9034850073119
 20
38.54198375223486
 30
0.0
 10
258.9076132907138
 20
38.74632708097514
 30
0.0
 10
258.9834696019495
 20
39.02413198299958
 30
0.0
 10
259.1260440908257
 20
39.2596211544579
 30
0.0
 10
259.1998962714337
 20
39.35629643263822
 30
0.0
 10
259.2590096751565
 20
39.43080607547805
 30
0.0
 10
259.3472128840179
 20
39.53861339990138
 30
0.0
 10
259.480737508244
 20
39.70560494770199
 30
0.0
 10
259.6105680836562
 20
39.8668431308529
 30
0.0
 10
259.8208548685961
 20
40.12842079780235
 30
0.0
 10
259.9680158032608
 20
40.31150173674647
 30
0.0
  0
LINE
  5
20E
330
1F
100
AcDbEntity
  8
0
  6
Continuous
 62
     7
370
    15
100
AcDbLine
 10
259.9680631021
 20
38.1046413691
 30
0.0
 11
259.2144652713
 21
38.1720243712
 31
0.0
  0
SPLINE
  5
20F
330
1F
100
AcDbEntity
  8
0
  6
Continuous
 62
     7
370
    15
100
AcDbSpline
210
0.0
220
0.0
230
1.0
 70
     8
 71
     3
 72
    11
 73
     7
 74
     0
 42
0.000000001
 43
0.00000001
 40
0.0
 40
0.0
 40
0.0
 40
0.0
 40
0.3176374646699617
 40
0.635280479389502
 40
0.9529670978243786
 40
1.0
 40
1.0
 40
1.0
 40
1.0
 10
259.1437545932156
 20
38.43591460522141
 30
0.0
 10
259.101229205924
 20
38.44637383040313
 30
0.0
 10
259.0161776882987
 20
38.46729246351961
 30
0.0
 10
258.9373917922979
 20
38.58357604675196
 30
0.0
 10
258.8996923786863
 20
38.69407171914535
 30
0.0
 10
258.9084168328116
 20
38.76692327522007
 30
0.0
 10
258.9095419066675
 20
38.77631794678705
 30
0.0
  0
ARC
  5
210
330
1F
100
AcDbEntity
  8
0
  6
Continuous
 62
     7
370
    15
100
AcDbCircle
 10
258.7019428983
 20
41.3480755296
 30
0.0
 40
1.636284152804992
100
AcDbArc
 50
320.6917320764
 51
328.4037645066
  0
SPLINE
  5
211
330
1F
100
AcDbEntity
  8
0
  6
Continuous
 62
     7
370
    15
100
AcDbSpline
210
0.0
220
0.0
230
1.0
 70
     8
 71
     3
 72
    16
 73
    12
 74
     0
 42
0.000000001
 43
0.00000001
 40
0.0
 40
0.0
 40
0.0
 40
0.0
 40
0.2499999999999974
 40
0.2499999999999974
 40
0.4999999999999948
 40
0.4999999999999948
 40
0.6249999999999923
 40
0.6249999999999923
 40
0.74999999999999
 40
0.74999999999999
 40
1.0
 40
1.0
 40
1.0
 40
1.0
 10
263.8349258683507
 20
42.54382235458565
 30
0.0
 10
263.8104833431271
 20
42.54601039153221
 30
0.0
 10
263.7839120533818
 20
42.547035232372
 30
0.0
 10
263.7232114145579
 20
42.54495407210538
 30
0.0
 10
263.6886589889943
 20
42.5419888198664
 30
0.0
 10
263.6305850724742
 20
42.52967878330159
 30
0.0
 10
263.6105709182607
 20
42.5241421462111
 30
0.0
 10
263.5746952797097
 20
42.51111415334193
 30
0.0
 10
263.5589079989161
 20
42.50368120804356
 30
0.0
 10
263.5207401452665
 20
42.48200612248137
 30
0.0
 10
263.5052559337054
 20
42.46803835263305
 30
0.0
 10
263.493382025096
 20
42.45486340628543
 30
0.0
  0
SPLINE
  5
212
330
1F
100
AcDbEntity
  8
0
  6
Continuous
 62
     7
370
    15
100
AcDbSpline
210
0.0
220
0.0
230
1.0
 70
     8
 71
     3
 72
     8
 73
     4
 74
     0
 42
0.000000001
 43
0.00000001
 40
0.0
 40
0.0
 40
0.0
 40
0.0
 40
1.0
 40
1.0
 40
1.0
 40
1.0
 10
263.4933820250959
 20
42.4548634062854
 30
0.0
 10
263.4604960444366
 20
42.46800944757558
 30
0.0
 10
263.4283586204563
 20
42.48274732781523
 30
0.0
 10
263.4028848491628
 20
42.49745302296346
 30
0.0
  0
LINE
  5
213
330
1F
100
AcDbEntity
  8
0
  6
Continuous
 62
     7
370
    15
100
AcDbLine
 10
263.0642272629
 20
42.8283686953
 30
0.0
 11
262.9945980501
 21
42.8646857475
 31
0.0
  0
LINE
  5
214
330
1F
100
AcDbEntity
  8
0
  6
Continuous
 62
     7
370
    15
100
AcDbLine
 10
262.6651823837
 20
42.9233195914
 30
0.0
 11
263.4028848492
 21
42.497453023
 31
0.0
  0
ARC
  5
215
330
1F
100
AcDbEntity
  8
0
  6
Continuous
 62
     7
370
    15
100
AcDbCircle
 10
258.2131232326
 20
42.7187648374
 30
0.0
 40
3.548171032136516
100
AcDbArc
 50
339.1549033603
 51
358.3496385471
  0
LINE
  5
216
330
1F
100
AcDbEntity
  8
0
  6
Continuous
 62
     7
370
    15
100
AcDbLine
 10
261.529051879
 20
41.4561742921
 30
0.0
 11
263.4028848492
 21
40.3744335439
 31
0.0
  0
LINE
  5
217
330
1F
100
AcDbEntity
  8
0
  6
Continuous
 62
     7
370
    15
100
AcDbLine
 10
260.3144507481
 20
38.0650999522
 30
0.0
 11
260.384062417
 21
38.0287911183
 31
0.0
  0
LINE
  5
218
330
1F
100
AcDbEntity
  8
0
  6
Continuous
 62
     7
370
    15
100
AcDbLine
 10
258.9951940666
 20
38.9621034327
 30
0.0
 11
259.9757931618
 21
38.3960156246
 31
0.0
  0
LINE
  5
219
330
1F
100
AcDbEntity
  8
0
  6
Continuous
 62
     7
370
    15
100
AcDbLine
 10
237.6993192065
 20
45.559203196
 30
0.0
 11
237.2658859589
 21
45.8094595542
 31
0.0
  0
LINE
  5
21A
330
1F
100
AcDbEntity
  8
0
  6
Continuous
 62
     7
370
    15
100
AcDbLine
 10
240.928167305
 20
43.6952288645
 30
0.0
 11
237.6993192065
 21
45.559203196
 31
0.0
  0
SPLINE
  5
21B
330
1F
100
AcDbEntity
  8
0
  6
Continuous
 62
     7
370
    15
100
AcDbSpline
210
0.0
220
0.0
230
1.0
 70
     8
 71
     3
 72
    11
 73
     7
 74
     0
 42
0.000000001
 43
0.00000001
 40
0.0
 40
0.0
 40
0.0
 40
0.0
 40
0.2167959017936504
 40
0.5260805092056551
 40
0.8354028471249841
 40
1.0
 40
1.0
 40
1.0
 40
1.0
 10
239.8043841277636
 20
41.54537725017008
 30
0.0
 10
239.7996652378018
 20
41.75176964500047
 30
0.0
 10
239.7882143016289
 20
42.25260483270569
 30
0.0
 10
239.7230621623016
 20
43.07137821965599
 30
0.0
 10
239.6823161910264
 20
43.83075255161034
 30
0.0
 10
239.7035600939767
 20
44.26328392286185
 30
0.0
 10
239.7109383217338
 20
44.4135065526967
 30
0.0
  0
LINE
  5
21C
330
1F
100
AcDbEntity
  8
0
  6
Continuous
 62
     7
370
    15
100
AcDbLine
 10
239.8043841278
 20
41.1250218948
 30
0.0
 11
239.8043841278
 21
41.5453772502
 31
0.0
  0
LINE
  5
21D
330
1F
100
AcDbEntity
  8
0
  6
Continuous
 62
     7
370
    15
100
AcDbLine
 10
260.0267173422
 20
38.3569644301
 30
0.0
 11
259.1437545932
 21
38.4359146052
 31
0.0
  0
SPLINE
  5
21E
330
1F
100
AcDbEntity
  8
0
  6
Continuous
 62
     7
370
    15
100
AcDbSpline
210
0.0
220
0.0
230
1.0
 70
     8
 71
     3
 72
    16
 73
    12
 74
     0
 42
0.000000001
 43
0.00000001
 40
0.0
 40
0.0
 40
0.0
 40
0.0
 40
0.2499999999999908
 40
0.2499999999999908
 40
0.4999999999999816
 40
0.4999999999999816
 40
0.6249999999999822
 40
0.6249999999999822
 40
0.749999999999983
 40
0.749999999999983
 40
1.0
 40
1.0
 40
1.0
 40
1.0
 10
259.9680631020545
 20
38.10464136914104
 30
0.0
 10
259.9923891138354
 20
38.10246625711898
 30
0.0
 10
260.0162007030434
 20
38.10331319266125
 30
0.0
 10
260.059138713159
 20
38.11582871010786
 30
0.0
 10
260.0796028397111
 20
38.12766918488592
 30
0.0
 10
260.0957091005675
 20
38.16374170976507
 30
0.0
 10
260.0983154511142
 20
38.17932878834472
 30
0.0
 10
260.0955187211097
 20
38.2149040424629
 30
0.0
 10
260.0903014638437
 20
38.2342529529734
 30
0.0
 10
260.0690627550992
 20
38.2899027050121
 30
0.0
 10
260.0482574840426
 20
38.324739830414
 30
0.0
 10
260.0267173421786
 20
38.35696443009204
 30
0.0
  0
SPLINE
  5
21F
330
1F
100
AcDbEntity
  8
0
  6
Continuous
 62
     7
370
    15
100
AcDbSpline
210
0.0
220
0.0
230
1.0
 70
     8
 71
     3
 72
     8
 73
     4
 74
     0
 42
0.000000001
 43
0.00000001
 40
0.0
 40
0.0
 40
0.0
 40
0.0
 40
1.0
 40
1.0
 40
1.0
 40
1.0
 10
259.9757931618117
 20
38.39601562462142
 30
0.0
 10
260.0012192201966
 20
38.38133747354903
 30
0.0
 10
260.0177673166283
 20
38.36796921923816
 30
0.0
 10
260.0267173421789
 20
38.35696443009189
 30
0.0
  0
LINE
  5
220
330
1F
100
AcDbEntity
  8
0
  6
Continuous
 62
     7
370
    15
100
AcDbLine
 10
239.194504529
 20
44.3603907098
 30
0.0
 11
239.1996924237
 21
44.6930561741
 31
0.0
  0
ARC
  5
221
330
1F
100
AcDbEntity
  8
0
  6
Continuous
 62
     7
370
    15
100
AcDbCircle
 10
246.7756581953
 20
44.1914233501
 30
0.0
 40
7.583036389278827
100
AcDbArc
 50
178.7232135802
 51
203.1724163449
  0
SPLINE
  5
222
330
1F
100
AcDbEntity
  8
0
  6
Continuous
 62
     7
370
    15
100
AcDbSpline
210
0.0
220
0.0
230
1.0
 70
     8
 71
     3
 72
     8
 73
     4
 74
     0
 42
0.000000001
 43
0.00000001
 40
0.0
 40
0.0
 40
0.0
 40
0.0
 40
1.0
 40
1.0
 40
1.0
 40
1.0
 10
263.4028848491628
 20
40.37443354391971
 30
0.0
 10
263.4283109075476
 20
40.3597553928474
 30
0.0
 10
263.4604993217407
 20
40.3554161017934
 30
0.0
 10
263.4933820250334
 20
40.35822735342494
 30
0.0
  0
SPLINE
  5
223
330
1F
100
AcDbEntity
  8
0
  6
Continuous
 62
     7
370
    15
100
AcDbSpline
210
0.0
220
0.0
230
1.0
 70
     8
 71
     3
 72
    16
 73
    12
 74
     0
 42
0.000000001
 43
0.00000001
 40
0.0
 40
0.0
 40
0.0
 40
0.0
 40
0.2499999999999946
 40
0.2499999999999946
 40
0.374999999999999
 40
0.374999999999999
 40
0.5000000000000034
 40
0.5000000000000034
 40
0.7500000000000017
 40
0.7500000000000017
 40
1.0
 40
1.0
 40
1.0
 40
1.0
 10
263.4933820250332
 20
40.35822735342531
 30
0.0
 10
263.5050941816135
 20
40.32040335063039
 30
0.0
 10
263.5205524467908
 20
40.28246953967503
 30
0.0
 10
263.557967323495
 20
40.23664627921819
 30
0.0
 10
263.5733801324465
 20
40.22318852797859
 30
0.0
 10
263.6094176547733
 20
40.20656635698487
 30
0.0
 10
263.6294352653541
 20
40.2039226460945
 30
0.0
 10
263.6871694144372
 20
40.21017308416737
 30
0.0
 10
263.7223792521238
 20
40.23053538300227
 30
0.0
 10
263.7836405896412
 20
40.27824117850225
 30
0.0
 10
263.8103452802249
 20
40.30638697267233
 30
0.0
 10
263.8348789776318
 20
40.33690665900916
 30
0.0
  0
LWPOLYLINE
  5
224
330
1F
100
AcDbEntity
  8
0
  6
Continuous
 62
     7
370
    15
100
AcDbPolyline
 90
        3
 70
   128
 43
0.0
 10
226.9506677368
 20
67.8237774802
 10
226.9899546973
 20
67.8120366595
 10
227.0877511488
 20
67.7793436172
  0
LWPOLYLINE
  5
225
330
1F
100
AcDbEntity
  8
0
  6
Continuous
 62
     7
370
    15
100
AcDbPolyline
 90
        3
 70
   128
 43
0.0
 10
220.7162817374
 20
56.7424390062
 10
220.6386158607
 20
56.8111951307
 10
220.6153295925
 20
56.8331059344
  0
SPLINE
  5
226
330
1F
100
AcDbEntity
  8
0
  6
Continuous
 62
     7
370
    15
100
AcDbSpline
210
0.0
220
0.0
230
1.0
 70
     8
 71
     3
 72
    20
 73
    16
 74
     0
 42
0.000000001
 43
0.00000001
 40
0.0
 40
0.0
 40
0.0
 40
0.0
 40
0.1249999999999998
 40
0.1249999999999998
 40
0.2499999999999996
 40
0.2499999999999996
 40
0.4999999999999999
 40
0.4999999999999999
 40
0.6249999999999999
 40
0.6249999999999999
 40
0.7499999999999999
 40
0.7499999999999999
 40
0.875
 40
0.875
 40
1.0
 40
1.0
 40
1.0
 40
1.0
 10
264.3763447739962
 20
41.45662461896542
 30
0.0
 10
264.4114083188344
 20
41.50024333540144
 30
0.0
 10
264.4431266754968
 20
41.54660520126512
 30
0.0
 10
264.4991423797619
 20
41.6451823618644
 30
0.0
 10
264.5232340383706
 20
41.69723781338099
 30
0.0
 10
264.5806463800628
 20
41.85297188014337
 30
0.0
 10
264.5996027105453
 20
41.95968177594423
 30
0.0
 10
264.5976026915784
 20
42.10033242470364
 30
0.0
 10
264.5920533773536
 20
42.14322868831067
 30
0.0
 10
264.5718300046147
 20
42.2207004589224
 30
0.0
 10
264.5571624898404
 20
42.25443479475932
 30
0.0
 10
264.5196083046793
 20
42.30998343313126
 30
0.0
 10
264.4963609681627
 20
42.33214945530286
 30
0.0
 10
264.4425263473404
 20
42.36330322514442
 30
0.0
 10
264.4114142776302
 20
42.37277749440276
 30
0.0
 10
264.3763447298203
 20
42.3759132566849
 30
0.0
  0
LWPOLYLINE
  5
227
330
1F
100
AcDbEntity
  8
0
  6
Continuous
 62
     7
370
    15
100
AcDbPolyline
 90
        4
 70
   128
 43
0.0
 10
264.3763447298
 20
42.3759132567
 10
264.1139690192
 20
42.3993735776
 10
263.8515932711
 20
42.4228339202
 10
263.4933820251
 20
42.4548634063
  0
LINE
  5
228
330
1F
100
AcDbEntity
  8
0
  6
Continuous
 62
     7
370
    15
100
AcDbLine
 10
243.4021112188
 20
37.4109266491
 30
0.0
 11
243.4114338697
 21
37.4055447973
 31
0.0
  0
ARC
  5
229
330
1F
100
AcDbEntity
  8
0
  6
Continuous
 62
     7
370
    15
100
AcDbCircle
 10
246.2293269849
 20
38.057827635
 30
0.0
 40
5.919642220385767
100
AcDbArc
 50
192.6964501328
 51
260.4756565155
  0
SPLINE
  5
22A
330
1F
100
AcDbEntity
  8
0
  6
Continuous
 62
     7
370
    15
100
AcDbSpline
210
0.0
220
0.0
230
1.0
 70
     8
 71
     3
 72
     8
 73
     4
 74
     0
 42
0.000000001
 43
0.00000001
 40
0.0
 40
0.0
 40
0.0
 40
0.0
 40
0.0012389803509652
 40
0.0012389803509652
 40
0.0012389803509652
 40
0.0012389803509652
 10
240.9281673049711
 20
37.12207532881174
 30
0.0
 10
240.7704224047726
 20
36.99999887827702
 30
0.0
 10
240.6125042258066
 20
36.87824157527621
 30
0.0
 10
240.4544308908256
 20
36.75677455373177
 30
0.0
  0
SPLINE
  5
22B
330
1F
100
AcDbEntity
  8
0
  6
Continuous
 62
     7
370
    15
100
AcDbSpline
210
0.0
220
0.0
230
1.0
 70
     8
 71
     3
 72
     8
 73
     4
 74
     0
 42
0.000000001
 43
0.00000001
 40
0.0
 40
0.0
 40
0.0
 40
0.0
 40
1.0
 40
1.0
 40
1.0
 40
1.0
 10
240.9281673049711
 20
37.12207532881174
 30
0.0
 10
241.6221478879127
 20
37.23608711008435
 30
0.0
 10
242.3157809486747
 20
37.35084786260472
 30
0.0
 10
243.0088384672476
 20
37.46670718797766
 30
0.0
  0
SPLINE
  5
22C
330
1F
100
AcDbEntity
  8
0
  6
Continuous
 62
     7
370
    15
100
AcDbSpline
210
0.0
220
0.0
230
1.0
 70
     8
 71
     3
 72
    12
 73
     8
 74
     0
 42
0.000000001
 43
0.00000001
 40
0.0
 40
0.0
 40
0.0
 40
0.0
 40
0.2499999999999984
 40
0.2499999999999984
 40
0.4999999999999968
 40
0.4999999999999968
 40
1.0
 40
1.0
 40
1.0
 40
1.0
 10
243.0088384672476
 20
37.46670718797766
 30
0.0
 10
243.0426269831717
 20
37.47235565806191
 30
0.0
 10
243.0781987592406
 20
37.47561612157736
 30
0.0
 10
243.1487810056331
 20
37.47675371112548
 30
0.0
 10
243.183803964082
 20
37.47473709466746
 30
0.0
 10
243.2880092593469
 20
37.46036135732786
 30
0.0
 10
243.3517196912866
 20
37.44001705869546
 30
0.0
 10
243.4021112187995
 20
37.41092664906901
 30
0.0
  0
LINE
  5
22D
330
1F
100
AcDbEntity
  8
0
  6
Continuous
 62
     7
370
    15
100
AcDbLine
 10
237.6993192065
 20
38.9860496603
 30
0.0
 11
240.928167305
 21
37.1220753288
 31
0.0
  0
LINE
  5
22E
330
1F
100
AcDbEntity
  8
0
  6
Continuous
 62
     7
370
    15
100
AcDbLine
 10
237.6993192065
 20
38.9860496603
 30
0.0
 11
239.5922520934
 21
40.0788165557
 31
0.0
  0
LINE
  5
22F
330
1F
100
AcDbEntity
  8
0
  6
Continuous
 62
     7
370
    15
100
AcDbLine
 10
263.493382025
 20
40.3582273534
 30
0.0
 11
264.376344774
 21
41.456624619
 31
0.0
  0
LINE
  5
230
330
1F
100
AcDbEntity
  8
0
  6
Continuous
 62
     7
370
    15
100
AcDbLine
 10
261.529051879
 20
41.4561742921
 30
0.0
 11
262.4318011257
 21
42.5791857727
 31
0.0
  0
ARC
  5
231
330
1F
100
AcDbEntity
  8
0
  6
Continuous
 62
     7
370
    15
100
AcDbCircle
 10
261.5759723301
 20
43.2672803884
 30
0.0
 40
1.098142580648621
100
AcDbArc
 50
321.2003823273
 51
341.9574991305
  0
LINE
  5
232
330
1F
100
AcDbEntity
  8
0
  6
Continuous
 62
     7
370
    15
100
AcDbLine
 10
237.2658859589
 20
38.7357933021
 30
0.0
 11
237.6993192065
 21
38.9860496603
 31
0.0
  0
LINE
  5
233
330
1F
100
AcDbEntity
  8
0
  6
Continuous
 62
     7
370
    15
100
AcDbLine
 10
240.4544308908
 20
36.7567745537
 30
0.0
 11
237.4227105665
 21
38.5069494435
 31
0.0
  0
SPLINE
  5
234
330
1F
100
AcDbEntity
  8
0
  6
Continuous
 62
     7
370
    15
100
AcDbSpline
210
0.0
220
0.0
230
1.0
 70
     8
 71
     3
 72
     8
 73
     4
 74
     0
 42
0.000000001
 43
0.00000001
 40
0.0
 40
0.0
 40
0.0
 40
0.0
 40
1.0
 40
1.0
 40
1.0
 40
1.0
 10
237.4227105664883
 20
38.5069494434517
 30
0.0
 10
237.3426857669736
 20
38.55314677687367
 30
0.0
 10
237.2882089695917
 20
38.63633429923836
 30
0.0
 10
237.2658859589272
 20
38.73579330207949
 30
0.0
  0
LWPOLYLINE
  5
235
330
1F
100
AcDbEntity
  8
0
  6
Continuous
 62
     7
370
    15
100
AcDbPolyline
 90
        3
 70
   128
 43
0.0
 10
240.2385287872
 20
34.6439826148
 10
239.6893724113
 20
35.0086621305
 10
239.1435979348
 20
35.4829363406
  0
ELLIPSE
  5
236
330
1F
100
AcDbEntity
  8
0
  6
Continuous
 62
     7
370
    15
100
AcDbEllipse
 10
239.3579375184
 20
40.8673161302
 30
0.0
 11
-6.005970385558612E-5
 21
0.8534489614827194
 31
0.0
210
0.0
220
0.0
230
1.0
 40
0.7174342186
 41
3.534193645557395
 42
5.104989972352349
  0
ELLIPSE
  5
237
330
1F
100
AcDbEntity
  8
0
  6
Continuous
 62
     7
370
    15
100
AcDbEllipse
 10
239.2386987028
 20
40.7984586501
 30
0.0
 11
0.2600075789209199
 21
0.9705436209909308
 31
0.0
210
0.0
220
0.0
230
1.0
 40
0.5176380889
 41
3.619174351347695
 42
5.189970678142622
  0
LWPOLYLINE
  5
238
330
1F
100
AcDbEntity
  8
0
  6
Continuous
 62
     7
370
     0
100
AcDbPolyline
 90
       46
 70
   128
 43
0.0
 10
245.8147917678
 20
37.1606916737
 10
245.8536390121
 20
38.2391420614
 10
245.9699008497
 20
39.354674263
 10
246.1627396113
 20
40.4992508432
 10
246.4307658894
 20
41.6646251017
 10
246.7720485483
 20
42.8424004902
 10
247.1841286388
 20
44.0240911099
 10
247.6640371142
 20
45.2011828531
 10
248.2083162232
 20
46.3651947465
 10
248.8130444222
 20
47.507740058
 10
249.4738646307
 20
48.6205867223
 10
250.1860156239
 20
49.6957166537
 10
250.9443663376
 20
50.7253835165
 10
251.7434528376
 20
51.7021685372
 10
252.5775176873
 20
52.6190339574
 10
253.4405514303
 20
53.4693737409
 10
254.3263358888
 20
54.2470611698
 10
255.2284889654
 20
54.9464929886
 10
256.1405106266
 20
55.5626297748
 10
257.0558297353
 20
56.091032249
 10
257.9678513965
 20
56.527893259
 10
258.8700044731
 20
56.8700652113
 10
259.7557889316
 20
57.1150827493
 10
260.6188226746
 20
57.2611805158
 10
261.4528875243
 20
57.3073058731
 10
262.2519740243
 20
57.2531264871
 10
263.010324738
 20
57.0990327213
 10
263.7224757312
 20
56.8461348249
 10
264.3832959397
 20
56.4962549331
 10
264.9880241387
 20
56.0519139385
 10
265.5323032476
 20
55.5163133281
 10
266.0122117231
 20
54.8933121167
 10
266.4242918136
 20
54.1873990421
 10
266.7655744725
 20
53.4036602244
 10
267.0336007505
 20
52.5477425195
 10
267.2264395122
 20
51.6258128343
 10
267.3427013498
 20
50.6445136932
 10
267.381548594
 20
49.610915379
 10
267.3427013498
 20
48.5324649913
 10
267.2264395122
 20
47.4169327897
 10
267.0336007505
 20
46.2723562095
 10
266.7655744725
 20
45.106981951
 10
266.4242918136
 20
43.9292065626
 10
266.0122117231
 20
42.7475159428
 10
265.5323032476
 20
41.5704241996
 10
265.1011136704
 20
40.6362529522
  0
LWPOLYLINE
  5
239
330
1F
100
AcDbEntity
  8
0
  6
Continuous
 62
     7
370
     0
100
AcDbPolyline
 90
       28
 70
   128
 43
0.0
 10
263.2313845387
 20
37.3974361671
 10
263.010324738
 20
37.075890399
 10
262.2519740243
 20
36.0462235363
 10
261.4528875243
 20
35.0694385155
 10
260.6188226746
 20
34.1525730953
 10
259.7557889316
 20
33.3022333119
 10
258.8700044731
 20
32.5245458829
 10
257.9678513965
 20
31.8251140641
 10
257.0558297353
 20
31.2089772779
 10
256.1405106266
 20
30.6805748038
 10
255.2284889654
 20
30.2437137937
 10
254.3263358888
 20
29.9015418414
 10
253.4405514303
 20
29.6565243035
 10
252.5775176873
 20
29.5104265369
 10
251.7434528376
 20
29.4643011796
 10
250.9443663376
 20
29.5184805656
 10
250.1860156239
 20
29.6725743314
 10
249.4738646307
 20
29.9254722278
 10
248.8130444222
 20
30.2753521196
 10
248.2083162232
 20
30.7196931142
 10
247.6640371142
 20
31.2552937246
 10
247.1841286388
 20
31.878294936
 10
246.7720485483
 20
32.5842080106
 10
246.4307658894
 20
33.3679468284
 10
246.1627396113
 20
34.2238645332
 10
245.9699008497
 20
35.1457942184
 10
245.8536390121
 20
36.1270933595
 10
245.8147917678
 20
37.1606916737
  0
LWPOLYLINE
  5
23A
330
1F
100
AcDbEntity
  8
0
  6
Continuous
 62
     7
370
     0
100
AcDbPolyline
 90
       28
 70
   128
 43
0.0
 10
245.1076849867
 20
37.1606916737
 10
245.146743774
 20
38.2593802243
 10
245.2636461668
 20
39.39545858
 10
245.4575721787
 20
40.5609579676
 10
245.727161558
 20
41.7477032463
 10
246.070523329
 20
42.9473702505
 10
246.4852490556
 20
44.1515441781
 10
246.9684297347
 20
45.3517786144
 10
247.5166762011
 20
46.5396547771
 10
248.1261428997
 20
47.7068405683
 10
248.7925548596
 20
48.8451490185
 10
249.5112376796
 20
49.9465957116
 10
250.2771503161
 20
51.0034547906
 10
251.0849204423
 20
52.0083131483
 10
251.9288821312
 20
52.9541224253
 10
252.8031155978
 20
53.8342484492
 10
253.7014887226
 20
54.6425177682
 10
254.6177000636
 20
55.3732609538
 10
255.5453230564
 20
56.0213523676
 10
256.4778510924
 20
56.582246114
 10
257.4087431573
 20
57.0520079264
 10
258.3314697122
 20
57.4273427631
 10
259.2395584932
 20
57.70561792
 10
260.12663991
 20
57.8848814968
 10
260.9864917239
 20
57.9638760883
 10
261.8130826922
 20
57.9420476041
 10
262.6006148731
 20
57.8195491555
 10
262.8159625898
 20
57.7666173006
  0
ARC
  5
23B
330
1F
100
AcDbEntity
  8
0
  6
Continuous
 62
     7
370
     0
100
AcDbCircle
 10
253.8801121774
 20
36.5846841807
 30
0.0
 40
8.79131750354605
100
AcDbArc
 50
176.2432869865
 51
220.8881985468
  0
LWPOLYLINE
  5
23C
330
1F
100
AcDbEntity
  8
0
  6
Continuous
 62
     7
370
     0
100
AcDbPolyline
 90
       26
 70
   128
 43
0.0
 10
251.6484227126
 20
40.528375135
 10
251.6874529498
 20
41.2672847133
 10
251.8039281313
 20
42.0396045989
 10
251.9960113738
 20
42.8331548458
 10
252.2606734099
 20
43.6354206925
 10
252.5937403612
 20
44.4337499274
 10
252.9899595629
 20
45.2155524215
 10
253.4430824014
 20
45.9684986825
 10
253.945962859
 20
46.680714298
 10
254.4906702105
 20
47.3409672024
 10
255.0686140954
 20
47.938844813
 10
255.6706799935
 20
48.4649182425
 10
256.2873729659
 20
48.9108909989
 10
256.908967396
 20
49.2697298254
 10
257.5256603684
 20
49.5357756192
 10
258.1277262665
 20
49.7048326793
 10
258.7056701514
 20
49.7742348748
 10
259.2503775028
 20
49.7428876917
 10
259.7532579604
 20
49.6112854938
 10
260.206380799
 20
49.3815037263
 10
260.6026000007
 20
49.057166185
 10
260.935666952
 20
48.6433878667
 10
261.2003289881
 20
48.1466943026
 10
261.3924122306
 20
47.574918647
 10
261.508887412
 20
46.9370781434
 10
261.5476558027
 20
46.3018726013
  0
LWPOLYLINE
  5
23D
330
1F
100
AcDbEntity
  8
0
  6
Continuous
 62
     7
370
     0
100
AcDbPolyline
 90
       14
 70
   128
 43
0.0
 10
256.5480621395
 20
37.6413839774
 10
256.2873729659
 20
37.5018772273
 10
255.6706799935
 20
37.2358314335
 10
255.0686140954
 20
37.0667743735
 10
254.4906702105
 20
36.9973721779
 10
253.945962859
 20
37.028719361
 10
253.4430824014
 20
37.1603215589
 10
252.9899595629
 20
37.3901033264
 10
252.5937403612
 20
37.7144408677
 10
252.2606734099
 20
38.128219186
 10
251.9960113738
 20
38.6249127501
 10
251.8039281313
 20
39.1966884057
 10
251.6874529498
 20
39.8345289093
 10
251.6484227126
 20
40.528375135
  0
LWPOLYLINE
  5
23E
330
1F
100
AcDbEntity
  8
0
  6
Continuous
 62
     7
370
     0
100
AcDbPolyline
 90
       21
 70
   128
 43
0.0
 10
243.0088384672
 20
44.0398607237
 10
243.3031657934
 20
45.1433092296
 10
243.6693445732
 20
46.2537028706
 10
244.1043783106
 20
47.3619551281
 10
244.6047070589
 20
48.4589970071
 10
245.1662365527
 20
49.5358512486
 10
245.7843717115
 20
50.5837057921
 10
246.4540542422
 20
51.593985886
 10
247.1698040317
 20
52.5584242563
 10
247.9257639918
 20
53.4691287583
 10
248.7157479883
 20
54.3186469601
 10
249.533291463
 20
55.1000271261
 10
250.3717043346
 20
55.8068751048
 10
251.2241257442
 20
56.4334066527
 10
252.0835801991
 20
56.9744947678
 10
252.943034654
 20
57.4257116446
 10
253.7954560637
 20
57.7833649072
 10
254.6338689352
 20
58.0445278254
 10
255.4514124099
 20
58.2070632634
 10
256.2413964064
 20
58.2696411695
 10
256.6280855872
 20
58.2630488067
  0
LWPOLYLINE
  5
23F
330
1F
100
AcDbEntity
  8
0
  6
Continuous
 62
     7
370
     0
100
AcDbPolyline
 90
       24
 70
   128
 43
0.0
 10
237.4227105665
 20
45.718937875
 10
237.7295260442
 20
46.940338262
 10
238.1126849663
 20
48.1716197465
 10
238.5693701655
 20
49.4037293586
 10
239.0962238739
 20
50.6276080397
 10
239.6893724113
 20
51.8342572489
 10
240.3444546663
 20
53.0148051247
 10
241.056654161
 20
54.1605717149
 10
241.8207344644
 20
55.2631327962
 10
242.6310776932
 20
56.3143818127
 10
243.4817258167
 20
57.3065894791
 10
244.3664244633
 20
58.2324606108
 10
245.278668906
 20
59.0851877606
 10
246.2117518876
 20
59.8585012713
 10
247.1588129363
 20
60.5467153722
 10
248.1128888067
 20
61.1447699845
 10
249.0669646771
 20
61.6482679249
 10
250.0140257258
 20
62.053507236
 10
250.9471087074
 20
62.3575084047
 10
251.8593531501
 20
62.5580362692
 10
252.7440517967
 20
62.6536164528
 10
253.5946999202
 20
62.6435462042
 10
254.405043149
 20
62.5278995649
 10
254.761591051
 20
62.4397435492
  0
LWPOLYLINE
  5
240
330
1F
100
AcDbEntity
  8
0
  6
Continuous
 62
     7
370
     0
100
AcDbPolyline
 90
       19
 70
   128
 43
0.0
 10
243.4021112188
 20
43.9840801847
 10
243.7067961123
 20
45.1079231143
 10
244.086786984
 20
46.2382530372
 10
244.5387648279
 20
47.3651971587
 10
245.0587818724
 20
48.4789122572
 10
245.6422960616
 20
49.5696706591
 10
246.2842107281
 20
50.6279452046
 10
246.9789191091
 20
51.6444924621
 10
247.7203533184
 20
52.6104334643
 10
248.5020373462
 20
53.5173312611
 10
249.3171436232
 20
54.3572646114
 10
250.1585526555
 20
55.1228971709
 10
251.0189152094
 20
55.8075415708
 10
251.8907165031
 20
56.405217828
 10
252.7663418437
 20
56.9107055775
 10
253.6381431374
 20
57.3195896687
 10
254.4985056913
 20
57.6282987295
 10
255.3399147236
 20
57.8341363604
 10
255.7630203142
 20
57.8993365584
  0
ARC
  5
241
330
1F
100
AcDbEntity
  8
0
  6
Continuous
 62
     7
370
     0
100
AcDbCircle
 10
256.9360017189
 20
40.2620778242
 30
0.0
 40
2.473528296590311
100
AcDbArc
 50
173.8196216534
 51
234.8681979532
  0
LWPOLYLINE
  5
242
330
1F
100
AcDbEntity
  8
0
  6
Continuous
 62
     7
370
     0
100
AcDbPolyline
 90
       17
 70
   128
 43
0.0
 10
260.5121805749
 20
46.8996397264
 10
260.2167530778
 20
47.0339373115
 10
259.7801506963
 20
47.1256309859
 10
259.3040593222
 20
47.1155458866
 10
258.7991140501
 20
47.0039072981
 10
258.276594523
 20
46.7932090419
 10
257.7481729636
 20
46.4881577689
 10
257.2256534365
 20
46.0955678204
 10
256.7207081644
 20
45.6242090073
 10
256.2446167904
 20
45.0846107064
 10
255.8080144088
 20
44.4888266521
 10
255.4206539957
 20
43.8501656758
 10
255.0911885423
 20
43.1828944082
 10
254.8269777627
 20
42.5019185869
 10
254.6339236889
 20
41.8224500864
 10
254.51633883
 20
41.1596671103
 10
254.4768498374
 20
40.528375135
  0
LINE
  5
243
330
1F
100
AcDbEntity
  8
0
  6
Continuous
 62
     7
370
     0
100
AcDbLine
 10
243.4114338697
 20
37.4055447973
 30
0.0
 11
243.817215111
 21
37.6397973216
 31
0.0
  0
LWPOLYLINE
  5
244
330
1F
100
AcDbEntity
  8
0
  6
Continuous
 62
     7
370
     0
100
AcDbPolyline
 90
        3
 70
   128
 43
0.0
 10
244.3643145074
 20
37.3852568891
 10
244.2856685635
 20
37.4141895232
 10
243.817215111
 20
37.6397973216
  0
LWPOLYLINE
  5
245
330
1F
100
AcDbEntity
  8
0
  6
Continuous
 62
     7
370
     0
100
AcDbPolyline
 90
       12
 70
   128
 43
0.0
 10
259.9680631021
 20
38.1046413691
 10
260.1992778264
 20
37.8123573714
 10
260.4998063005
 20
37.622359235
 10
260.8574109269
 20
37.5423837333
 10
261.2575299524
 20
37.5756874895
 10
261.6838704262
 20
37.7209143661
 10
262.1190716535
 20
37.972150687
 10
262.5454121273
 20
38.3191660437
 10
262.9455311528
 20
38.747829881
 10
263.3031357792
 20
39.240686896
 10
263.6036642533
 20
39.7776678229
 10
263.8348789776
 20
40.336906659
  0
LWPOLYLINE
  5
246
330
1F
100
AcDbEntity
  8
0
  6
Continuous
 62
     7
370
     0
100
AcDbPolyline
 90
       12
 70
   128
 43
0.0
 10
263.8349258684
 20
42.5438223546
 10
263.6037173707
 20
42.8361406628
 10
263.3031868353
 20
43.0261660337
 10
262.9455730252
 20
43.1061599009
 10
262.5454393541
 20
43.0728646058
 10
262.1190808089
 20
42.927636061
 10
261.6838603544
 20
42.6763885332
 10
261.2575018466
 20
42.3293537911
 10
260.8573682486
 20
41.9006644282
 10
260.4997545443
 20
41.4077783291
 10
260.1992241435
 20
40.8707677174
 10
259.9680158033
 20
40.3115017367
  0
ARC
  5
247
330
1F
100
AcDbEntity
  8
0
  6
Continuous
 62
     7
370
     0
100
AcDbCircle
 10
243.1292259415
 20
38.6963989168
 30
0.0
 40
1.260847345342608
100
AcDbArc
 50
303.0695173616
 51
345.5982002291
  0
LINE
  5
248
330
1F
100
AcDbEntity
  8
0
  6
Continuous
 62
     7
370
     0
100
AcDbLine
 10
259.1437545932
 20
38.4359146052
 30
0.0
 11
259.2144652713
 21
38.1720243712
 31
0.0
  0
LWPOLYLINE
  5
249
330
1F
100
AcDbEntity
  8
0
  6
Continuous
 62
     7
370
     0
100
AcDbPolyline
 90
        3
 70
   128
 43
0.0
 10
263.4028848492
 20
42.497453023
 10
263.166452261
 20
42.759846168
 10
263.0642272629
 20
42.8283686953
  0
LWPOLYLINE
  5
24A
330
1F
100
AcDbEntity
  8
0
  6
Continuous
 62
     7
370
     0
100
AcDbPolyline
 90
       10
 70
   128
 43
0.0
 10
260.384062417
 20
38.0287911183
 10
260.5171057804
 20
37.9784158273
 10
260.8763055224
 20
37.9375877355
 10
261.2731801429
 20
38.0130301231
 10
261.6893390055
 20
38.2012470911
 10
262.1054978681
 20
38.4935169184
 10
262.5023724886
 20
38.8762962141
 10
262.8615722306
 20
39.3318475004
 10
263.166452261
 20
39.8390611431
 10
263.4028848492
 20
40.3744335439
  0
LINE
  5
24B
330
1F
100
AcDbEntity
  8
0
  6
Continuous
 62
     7
370
     0
100
AcDbLine
 10
258.9925038397
 20
38.5232298067
 30
0.0
 11
259.1437545932
 21
38.4359146052
 31
0.0
  0
LINE
  5
24C
330
1F
100
AcDbEntity
  8
0
  6
Continuous
 62
     7
370
     0
100
AcDbLine
 10
239.9236229433
 20
41.1938793749
 30
0.0
 11
244.3086134489
 21
38.6624782384
 31
0.0
  0
LINE
  5
24D
330
1F
100
AcDbEntity
  8
0
  6
Continuous
 62
     7
370
     0
100
AcDbLine
 10
239.8043841278
 20
41.1250218948
 30
0.0
 11
239.9236229433
 21
41.1938793749
 31
0.0
  0
LINE
  5
24E
330
1F
100
AcDbEntity
  8
0
  6
Continuous
 62
     7
370
     0
100
AcDbLine
 10
239.5480579196
 20
44.1562886819
 30
0.0
 11
239.5532458143
 21
44.4889541461
 31
0.0
  0
ARC
  5
24F
330
1F
100
AcDbEntity
  8
0
  6
Continuous
 62
     7
370
     0
100
AcDbCircle
 10
248.1521701039
 20
44.0826332786
 30
0.0
 40
8.604427441702363
100
AcDbArc
 50
179.5095321196
 51
192.163968291
  0
LWPOLYLINE
  5
250
330
1F
100
AcDbEntity
  8
0
  6
Continuous
 62
     7
370
     0
100
AcDbPolyline
 90
       18
 70
   128
 43
0.0
 10
219.7025420213
 20
59.4551681295
 10
219.7412953284
 20
60.1603065586
 10
219.8568921698
 20
60.8981234896
 10
220.0473546515
 20
61.6559946702
 10
220.3094239077
 20
62.4209527146
 10
220.6386158607
 20
63.1799089783
 10
221.0292979449
 20
63.9198775095
 10
221.4747854815
 20
64.6281972412
 10
221.9674560554
 20
65.2927486265
 10
222.4988799363
 20
65.902161007
 10
223.0599643143
 20
66.4460071679
 10
223.6411088803
 20
66.9149817506
 10
224.2323700894
 20
67.3010604699
 10
224.8236312985
 20
67.5976374119
 10
225.4047758644
 20
67.7996380629
 10
225.9658602425
 20
67.9036061358
 10
226.4972841234
 20
67.9077627081
 10
226.9506677368
 20
67.8237774802
  0
ARC
  5
251
330
1F
100
AcDbEntity
  8
0
  6
Continuous
 62
     7
370
     0
100
AcDbCircle
 10
223.2991896694
 20
59.2373165535
 30
0.0
 40
3.603239322259337
100
AcDbArc
 50
176.5337875941
 51
221.8540867457
  0
LINE
  5
252
330
1F
100
AcDbEntity
  8
0
  6
Continuous
 62
     7
370
     0
100
AcDbLine
 10
264.5884768084
 20
41.2743751961
 30
0.0
 11
264.376344774
 21
41.456624619
 31
0.0
  0
LWPOLYLINE
  5
253
330
1F
100
AcDbEntity
  8
0
  6
Continuous
 62
     7
370
     0
100
AcDbPolyline
 90
        3
 70
   128
 43
0.0
 10
243.8709192825
 20
36.3131295498
 10
243.7012183508
 20
36.650821341
 10
243.4021112188
 20
37.4109266491
  0
ARC
  5
254
330
1F
100
AcDbEntity
  8
0
  6
Continuous
 62
     7
370
     0
100
AcDbCircle
 10
249.0508315984
 20
39.3440834455
 30
0.0
 40
6.326944176275648
100
AcDbArc
 50
197.2611351492
 51
214.0281525679
  0
LINE
  5
255
330
1F
100
AcDbEntity
  8
0
  6
Continuous
 62
     7
370
     0
100
AcDbLine
 10
243.817215111
 20
37.6397973216
 30
0.0
 11
239.5922520934
 21
40.0788165557
 31
0.0
  0
LINE
  5
256
330
1F
100
AcDbEntity
  8
0
  6
Continuous
 62
     7
370
     0
100
AcDbLine
 10
262.4318011257
 20
42.5791857727
 30
0.0
 11
264.376344774
 21
41.456624619
 31
0.0
  0
ARC
  5
257
330
1F
100
AcDbEntity
  8
0
  6
Continuous
 62
     7
370
     0
100
AcDbCircle
 10
244.1166704872
 20
40.3146455728
 30
0.0
 40
6.933748244317662
100
AcDbArc
 50
195.112183421
 51
224.1739785086
  0
OLE2FRAME
  5
258
330
1F
100
AcDbEntity
  8
0
100
AcDbOle2Frame
 70
     2
  3
Paintbrush-Bild
 10
13.8511154363
 20
38.264191557
 30
0.0
 11
51.6290888628
 21
31.9806341108
 31
0.0
 71
     2
 72
     0
 73
     1
 90
    12928
310
80552BED0767C5B32B40DDAF6807D121434000000000000000006FFBDDFB85D0
310
4940DDAF6807D121434000000000000000006FFBDDFB85D04940416F4BD60AFB
310
3F4000000000000000002BED0767C5B32B40416F4BD60AFB3F40000000000000
310
0000000000000100000000010000010000000100000000000100000000320000
310
D0CF11E0A1B11AE1000000000000000000000000000000003E000300FEFF0900
310
0600000000000000000000000100000001000000000000000010000002000000
310
01000000FEFFFFFF0000000000000000FFFFFFFFFFFFFFFFFFFFFFFFFFFFFFFF
310
FFFFFFFFFFFFFFFFFFFFFFFFFFFFFFFFFFFFFFFFFFFFFFFFFFFFFFFFFFFFFFFF
310
FFFFFFFFFFFFFFFFFFFFFFFFFFFFFFFFFFFFFFFFFFFFFFFFFFFFFFFFFFFFFFFF
310
FFFFFFFFFFFFFFFFFFFFFFFFFFFFFFFFFFFFFFFFFFFFFFFFFFFFFFFFFFFFFFFF
310
FFFFFFFFFFFFFFFFFFFFFFFFFFFFFFFFFFFFFFFFFFFFFFFFFFFFFFFFFFFFFFFF
310
FFFFFFFFFFFFFFFFFFFFFFFFFFFFFFFFFFFFFFFFFFFFFFFFFFFFFFFFFFFFFFFF
310
FFFFFFFFFFFFFFFFFFFFFFFFFFFFFFFFFFFFFFFFFFFFFFFFFFFFFFFFFFFFFFFF
310
FFFFFFFFFFFFFFFFFFFFFFFFFFFFFFFFFFFFFFFFFFFFFFFFFFFFFFFFFFFFFFFF
310
FFFFFFFFFFFFFFFFFFFFFFFFFFFFFFFFFFFFFFFFFFFFFFFFFFFFFFFFFFFFFFFF
310
FFFFFFFFFFFFFFFFFFFFFFFFFFFFFFFFFFFFFFFFFFFFFFFFFFFFFFFFFFFFFFFF
310
FFFFFFFFFFFFFFFFFFFFFFFFFFFFFFFFFFFFFFFFFFFFFFFFFFFFFFFFFFFFFFFF
310
FFFFFFFFFFFFFFFFFFFFFFFFFFFFFFFFFFFFFFFFFFFFFFFFFFFFFFFFFFFFFFFF
310
FFFFFFFFFFFFFFFFFFFFFFFFFFFFFFFFFFFFFFFFFFFFFFFFFFFFFFFFFFFFFFFF
310
FFFFFFFFFFFFFFFFFFFFFFFFFFFFFFFFFFFFFFFFFFFFFFFFFFFFFFFFFFFFFFFF
310
FDFFFFFFFEFFFFFFFEFFFFFFFEFFFFFF05000000060000000700000008000000
310
090000000A0000000B0000000C0000000D0000000E0000000F00000010000000
310
11000000120000001300000014000000150000001600000017000000FEFFFFFF
310
FFFFFFFFFFFFFFFFFFFFFFFFFFFFFFFFFFFFFFFFFFFFFFFFFFFFFFFFFFFFFFFF
310
FFFFFFFFFFFFFFFFFFFFFFFFFFFFFFFFFFFFFFFFFFFFFFFFFFFFFFFFFFFFFFFF
310
FFFFFFFFFFFFFFFFFFFFFFFFFFFFFFFFFFFFFFFFFFFFFFFFFFFFFFFFFFFFFFFF
310
FFFFFFFFFFFFFFFFFFFFFFFFFFFFFFFFFFFFFFFFFFFFFFFFFFFFFFFFFFFFFFFF
310
FFFFFFFFFFFFFFFFFFFFFFFFFFFFFFFFFFFFFFFFFFFFFFFFFFFFFFFFFFFFFFFF
310
FFFFFFFFFFFFFFFFFFFFFFFFFFFFFFFFFFFFFFFFFFFFFFFFFFFFFFFFFFFFFFFF
310
FFFFFFFFFFFFFFFFFFFFFFFFFFFFFFFFFFFFFFFFFFFFFFFFFFFFFFFFFFFFFFFF
310
FFFFFFFFFFFFFFFFFFFFFFFFFFFFFFFFFFFFFFFFFFFFFFFFFFFFFFFFFFFFFFFF
310
FFFFFFFFFFFFFFFFFFFFFFFFFFFFFFFFFFFFFFFFFFFFFFFFFFFFFFFFFFFFFFFF
310
FFFFFFFFFFFFFFFFFFFFFFFFFFFFFFFFFFFFFFFFFFFFFFFFFFFFFFFFFFFFFFFF
310
FFFFFFFFFFFFFFFFFFFFFFFFFFFFFFFFFFFFFFFFFFFFFFFFFFFFFFFFFFFFFFFF
310
FFFFFFFFFFFFFFFFFFFFFFFFFFFFFFFFFFFFFFFFFFFFFFFFFFFFFFFFFFFFFFFF
310
FFFFFFFFFFFFFFFFFFFFFFFFFFFFFFFFFFFFFFFFFFFFFFFFFFFFFFFFFFFFFFFF
310
52006F006F007400200045006E00740072007900000000000000000000000000
310
0000000000000000000000000000000000000000000000000000000000000000
310
16000500FFFFFFFFFFFFFFFF020000000A00030000000000C000000000000046
310
000000000000000000000000502C01DECB22D20103000000C000000000000000
310
01004F006C006500000000000000000000000000000000000000000000000000
310
0000000000000000000000000000000000000000000000000000000000000000
310
0A000200FFFFFFFFFFFFFFFFFFFFFFFF00000000000000000000000000000000
310
0000000000000000000000000000000000000000000000001400000000000000
310
010043006F006D0070004F0062006A0000000000000000000000000000000000
310
0000000000000000000000000000000000000000000000000000000000000000
310
120002010100000003000000FFFFFFFF00000000000000000000000000000000
310
0000000000000000000000000000000000000000010000004D00000000000000
310
01004F006C006500310030004E00610074006900760065000000000000000000
310
0000000000000000000000000000000000000000000000000000000000000000
310
1A000200FFFFFFFFFFFFFFFFFFFFFFFF00000000000000000000000000000000
310
0000000000000000000000000000000000000000040000002426000000000000
310
FEFFFFFF02000000FEFFFFFFFFFFFFFFFFFFFFFFFFFFFFFFFFFFFFFFFFFFFFFF
310
FFFFFFFFFFFFFFFFFFFFFFFFFFFFFFFFFFFFFFFFFFFFFFFFFFFFFFFFFFFFFFFF
310
FFFFFFFFFFFFFFFFFFFFFFFFFFFFFFFFFFFFFFFFFFFFFFFFFFFFFFFFFFFFFFFF
310
FFFFFFFFFFFFFFFFFFFFFFFFFFFFFFFFFFFFFFFFFFFFFFFFFFFFFFFFFFFFFFFF
310
FFFFFFFFFFFFFFFFFFFFFFFFFFFFFFFFFFFFFFFFFFFFFFFFFFFFFFFFFFFFFFFF
310
FFFFFFFFFFFFFFFFFFFFFFFFFFFFFFFFFFFFFFFFFFFFFFFFFFFFFFFFFFFFFFFF
310
FFFFFFFFFFFFFFFFFFFFFFFFFFFFFFFFFFFFFFFFFFFFFFFFFFFFFFFFFFFFFFFF
310
FFFFFFFFFFFFFFFFFFFFFFFFFFFFFFFFFFFFFFFFFFFFFFFFFFFFFFFFFFFFFFFF
310
FFFFFFFFFFFFFFFFFFFFFFFFFFFFFFFFFFFFFFFFFFFFFFFFFFFFFFFFFFFFFFFF
310
FFFFFFFFFFFFFFFFFFFFFFFFFFFFFFFFFFFFFFFFFFFFFFFFFFFFFFFFFFFFFFFF
310
FFFFFFFFFFFFFFFFFFFFFFFFFFFFFFFFFFFFFFFFFFFFFFFFFFFFFFFFFFFFFFFF
310
FFFFFFFFFFFFFFFFFFFFFFFFFFFFFFFFFFFFFFFFFFFFFFFFFFFFFFFFFFFFFFFF
310
FFFFFFFFFFFFFFFFFFFFFFFFFFFFFFFFFFFFFFFFFFFFFFFFFFFFFFFFFFFFFFFF
310
FFFFFFFFFFFFFFFFFFFFFFFFFFFFFFFFFFFFFFFFFFFFFFFFFFFFFFFFFFFFFFFF
310
FFFFFFFFFFFFFFFFFFFFFFFFFFFFFFFFFFFFFFFFFFFFFFFFFFFFFFFFFFFFFFFF
310
FFFFFFFFFFFFFFFFFFFFFFFFFFFFFFFFFFFFFFFFFFFFFFFFFFFFFFFFFFFFFFFF
310
0100000200000000000000000000000000000000000000000000000000000000
310
0000000000000000000000000000000000000000000000000000000000000000
310
0100FEFF030A0000FFFFFFFF0A00030000000000C00000000000004607000000
310
5042727573680007000000504272757368000700000050427275736800F439B2
310
7100000000000000000000000000000000000000000000000000000000000000
310
0000000000000000000000000000000000000000000000000000000000000000
310
0000000000000000000000000000000000000000000000000000000000000000
310
0000000000000000000000000000000000000000000000000000000000000000
310
0000000000000000000000000000000000000000000000000000000000000000
310
0000000000000000000000000000000000000000000000000000000000000000
310
0000000000000000000000000000000000000000000000000000000000000000
310
0000000000000000000000000000000000000000000000000000000000000000
310
0000000000000000000000000000000000000000000000000000000000000000
310
0000000000000000000000000000000000000000000000000000000000000000
310
0000000000000000000000000000000000000000000000000000000000000000
310
0000000000000000000000000000000000000000000000000000000000000000
310
20260000424D0E260000000000003E00000028000000B40200006E0000000100
310
01000000000000000000130B0000130B00000200000002000000000000FFFFFF
310
FFFFFFFFFFFFFFFFFFFFFFFFFFFFFFFFFFFFFFFFFFFFFFFFFFFFFFFFFFFFFFFF
310
FFFFFFFFFFFFFFFFFFFFFFFFFFFFFFFFFFFFFFFFFFFFFFFFFFFFFFFFFFFFFFFF
310
FFFFFFFFFFFFFFFFFFFFFFFFFFFFFFFFFFFFFFFFFFFFFFFFF000FFFFFFFFFFFF
310
FFFFFFFFFFFFFFFFFFFFFFFFFFFFFFFFFFFFFFFFFFFFFFFFFFFFFFFFFFFFFFFF
310
FFFFFFFFFFFFFFFFFFFFFFFFFFFFFFFFFFFFFFFFFFFFFFFFFFFFFFFFFFFFFFFF
310
FFFFFFFFFFFFFFFFFFFFFFFFFFFFFFFFF000FFFFFFFFFFFFFFFFFFFFFFFFFFFF
310
FFFFFFFFFFFFFFFFFFFFFFFFFFFFFFFFFFFFFFFFFFFFFFFFFFFFFFFFFFFFFFFF
310
FFFFFFFFFFFFFFFFFFFFFFFFFFFFFFFFFFFFFFFFFFFFFFFFFFFFFFFFFFFFFFFF
310
FFFFFFFFFFFFFFFFF000FFFFFFFFFFFFFFFFFFFFFFFFFFFFFFFFFFFFFFFFFFFF
310
FFFFFFFFFFFFFFFFFFFFFFFFFFFFFFFFFFFFFFFFFFFFFFFFFFFFFFFFFFFFFFFF
310
FFFFFFFFFFFFFFFFFFFFFFFFFFFFFFFFFFFFFFFFFFFFFFFFFFFFFFFFFFFFFFFF
310
F000FFFFFFFFFFFFFFFFFFFFFFFFFFFFFFFFFFFFFFFFFFFFFFFFFFFFFFFFFFFF
310
FFFFFFFFFFFFFFFFFFFFFFFFFFFFFFFFFFFFFFFFFFFFFFFFFFFFFFFFFFFFFFFF
310
FFFFFFFFFFFFFFFFFFFFFFFFFFFFFFFFFFFFFFFFFFFFFFFFF000FFFFFFFFFFFF
310
FFFFFFFFFFFFFFFFFFFFFFFFFFFFFFFFFFFFFFFFFFFFFFFFFFFFFFFFFFFFFFFF
310
FFFFFFFFFFFFFFFFFFFFFFFFFFFFFFFFFFFFFFFFFFFFFFFFFFFFFFFFFFFFFFFF
310
FFFFFFFFFFFFFFFFFFFFFFFFFFFFFFFFF000FFFFFFFFFFFFFFFFFFFFFFFFFFFF
310
FFFFFFFFFFFFFFFFFFFFFFFFFFFFFFFFFFFFFFFFFFFFFFFFFFFFFFFFFFFFFFFF
310
FFFFFFFFFFFFFFFFFFFFFFFFFFFFFFFFFFFFFFFFFFFFFFFFFFFFFFFFFFFFFFFF
310
FFFFFFFFFFFFFFFFF000FFFFFFFFFFFFFFFFFFFFFFFFFFFFFFFFFFFFFFFFFFFF
310
FFFFFFFFFFFFFFFFFFFFFFFFFFFFFFFFFFFFFFFFFFFFFFFFFFFFFFFFFFFFFFFF
310
FFFFFFFFFFFFFFFFFFFFFFFFFFFFFFFFFFFFFFFFFFFFFFFFFFFFFFFFFFFFFFFF
310
F000FFFFFFFFFFFFFFFFFFFFFFFFFFFFFFFFFFFFFFFFFFFFFFFFFFFFFFFFFFFF
310
FFFFFFFFFFFFFFFFFFFFFFFFFFFFFFFFFFFFFFFFFFFFFFFFFFFFFFFFFFFFFFFF
310
FFFFFFFFFFFFFFFFFFFFFFFFFFFFFFFFFFFFFFFFFFFFFFFFF000FFFFFFFFFFFF
310
FFFFFFFFFFFFFFFFFFFFFFFFFFFFFFFFFFFFFFFFFFFFFFFFFFFFFFFFFFFFFFFF
310
FFFFFFFFFFFFFFFFFFFFFFFFFFFFFFFFFFFFFFFFFFFFFFFFFFFFFFFFFFFFFFFF
310
FFFFFFFFFFFFFFFFFFFFFFFFFFFFFFFFF000FFFFFFFFFFFFFFFFFFFFFFFFFFFF
310
FFFFFFFFFFFFFFFFFFFFFFFFFFFFFFFFFFFFFFFFFFFFFFFFFFFFFFFFFFFFFFFF
310
FFFFFFFFFFFFFFFFFFFFFFFFFFFFFFFFFFFFFFFFFFFFFFFFFFFFFFFFFFFFFFFF
310
FFFFFFFFFFFFFFFFF000FFFFFFFFFFFFFFFFFFFFFFFFFFFFFFFFFFFFFFFFFFFF
310
FFFFFFFFFFFFFFFFFFFFFFFFFFFFFFFFFFFFFFFFFFFFFFFFFFFFFFFFFFFFFFFF
310
FFFFFFFFFFFFFFFFFFFFFFFFFFFFFFFFFFFFFFFFFFFFFFFFFFFFFFFFFFFFFFFF
310
F000FFFFFFFFFFFFFFFFFFFFFFFFFFFFFFFFFFFFFFFFFFFFFFFFFFFFFFFFFFFF
310
FFFFFFFFFFFFFFFFFFFFFFFFFFFFFFFFFFFFFFFFFFFFFFFFFFFFFFFFFFFFFFFF
310
FFFFFFFFFFFFFFFFFFFFFFFFFFFFFFFFFFFFFFFFFFFFFFFFF000FFFFFFFFFFFF
310
FFFFFFFFFFFFFFFFFFFFFFFFFFFFFFFFFFFFFFFFFFFFFFFFFFFFFFFFFFFFFFFF
310
FFFFFFFFFFFFFFFFFFFFFFFFFFFFFFFFFFFFFFFFFFFFFFFFFFFFFFFFFFFFFFFF
310
FFFFFFFFFFFFFFFFFFFFFFFFFFFFFFFFF000FFFFFFFFFFFFFFFFFFFFFFFFFFFF
310
FFFFFFFFFFFFFFFFFFFFFFFFFFFFFFFFFFFFFFFFFFFFFFFFFFFFFFFFFFFFFFFF
310
FFFFFFFFFFFFFFFFFFFFFFFFFFFFFFFFFFFFFFFFFFFFFFFFFFFFFFFFFFFFFFFF
310
FFFFFFFFFFFFFFFFF000FFFFFFFFFFFFFFFFFFFFFFFFFFFFFFFFFFFFFFFFFFFF
310
FFFFFFFFFFFFFFFFFFFFFFFFFFFFFFFFFFFFFFFFFFFFFFFFFFFFFFFFFFFFFFFF
310
FFFFFFFFFFFFFFFFFFFFFFFFFFFFFFFFFFFFFFFFFFFFFFFFFFFFFFFFFFFFFFFF
310
F000FFFFFFFFFFFFFFFFFFFFFFFFFFFFFFFFFFFFFFFFFFFFFFFFFFFFFFFFFFFF
310
FFFFFFFFFFFFFFFFFFFFFFFFFFFFFFFFFFFFFFFFFFFFFFFFFFFFFFFFFFFFFFFF
310
FFFFFFFFFFFFFFFFFFFFFFFFFFFFFFFFFFFFFFFFFFFFFFFFF000FFFFFFFFFFFF
310
FFFFFFFFFFFFFFFFFFFFFFFFFFFFFFFFFFFFFFFFFFFFFFFFFFFFFFFFFFFFFFFF
310
FFFFFFFFFFFFFFFFFFFFFFFFFFFFFFFFFFFFFFFFFFFFFFFFFFFFFFFFFFFFFFFF
310
FFFFFFFFFFFFFFFFFFFFFFFFFFFFFFFFF000FFFFFFFFFFFFFFFFFFFFFFFFFFFF
310
FFFFFFFFFFFFFFFFFFFFFFFFFFFFFFFFFFFFFFFFFFFFFFFFFFFFFFFFFFFFFFFF
310
FFFFFFFFFFFFFFFFFFFFFFFFFFFFFFFFFFFFFFFFFFFFFFFFFFFFFFFFFFFFFFFF
310
FFFFFFFFFFFFFFFFF000FFFFF80003FFFFFFFFFFFFFFFFFFFFFFFFFFFFFFFFFF
310
FFFFF00007FFFFFFFFFF00007FFFFFF800000000000000007FFFFFFFFFFFFFFF
310
FFFFFFFC001FFFFFFFFFFFFFFC001FFFFFFFFFFFFFFFFFFFFFFFFFFE0007FFFF
310
F000FFFF8000007FFFFFFFF8000FFFFFC0007FFFFF80007FFFFF0000007FFFFF
310
FFF8000007FFFFF800000000000000007FFFFFF0001FFFFFFFFFFFC00001FFFF
310
FFFFFFFFC00001FFFFFFFF000000000003FFFFE000007FFFF000FFFE0000000F
310
FFFFFFF0000FFFFF80007FFFFF80007FFFFC0000001FFFFFFFC0000001FFFFF8
310
00000000000000007FFFFFF0001FFFFFFFFFFE0000003FFFFFFFFFFE0000003F
310
FFFFFF000000000003FFFF0000000FFFF000FFF800000003FFFFFFF00007FFFF
310
80007FFFFF80007FFFF000000007FFFFFF000000003FFFF80000000000000000
310
7FFFFFF0001FFFFFFFFFF80000000FFFFFFFFFF80000000FFFFFFF0000000000
310
03FFFC00000003FFF000FFE000000000FFFFFFF00007FFFF80003FFFFF80007F
310
FFC000000001FFFFFC000000001FFFF800000000000000007FFFFFF0001FFFFF
310
FFFFE000000003FFFFFFFFE000000003FFFFFF000000000003FFF000000000FF
310
F000FF80000000007FFFFFF00007FFFF80003FFFFF80007FFF8000000000FFFF
310
F80000000007FFF800000000000000007FFFFFF0001FFFFFFFFFC000000001FF
310
FFFFFFC000000001FFFFFF000000000003FFC0000000007FF000FF0000000000
310
3FFFFFE00007FFFF00003FFFFF80007FFE00000000003FFFF00000000003FFF8
310
00000000000000007FFFFFF0001FFFFFFFFF8000000000FFFFFFFF8000000000
310
FFFFFF000000000003FF80000000003FF000FE00000000001FFFFFE00003FFFF
310
00003FFFFF80007FFC00000000001FFFE00000000001FFF8000001FFFE000000
310
7FFFFFF0001FFFFFFFFE00000000003FFFFFFE00000000003FFFFF0000000000
310
03FF00000000001FF000FC00000000000FFFFFE00003FFFF00001FFFFF80007F
310
F800000000001FFFC00000000000FFF8000001FFFE0000007FFFFFF0001FFFFF
310
FFFC00000000001FFFFFFC00000000001FFFFF000000000003FE00000000000F
310
F000F8000000000007FFFFE00003FFFF00001FFFFF80007FF800000000000FFF
310
800000000000FFF8000001FFFE0000007FFFFFF0001FFFFFFFF800000000000F
310
FFFFF800000000000FFFFF000000000003FC000000000007F000F80000000000
310
03FFFFC00003FFFE00001FFFFF80007FF0000000000007FF0000000000007FF8
310
000001FFFE0000007FFFFFF0001FFFFFFFF0000000000007FFFFF00000000000
310
07FFFF000000000003F8000000000003F000F0000000000003FFFFC00001FFFE
310
00001FFFFF80007FE0000000000007FE0000000000003FF8000001FFFE000000
310
7FFFFFF0001FFFFFFFF0000000000007FFFFF0000000000007FFFF0000000000
310
03F800001F800003F000E00001FFF00001FFFFC00001FFFE00000FFFFF80007F
310
E00001FFE00003FE00001FFF00003FF8000001FFFE0000007FFFFFF0001FFFFF
310
FFE000003E000003FFFFE000003E000003FFFF000000000003F00001FFF80001
310
F000E00007FFFC0001FFFFC00001FFFE00000FFFFF80007FC0000FFFFC0003FC
310
0000FFFFC0001FF8000001FFFE0000007FFFFFF0001FFFFFFFC00003FFE00001
310
FFFFC00003FFE00001FFFF0001FFFFFFFFF00007FFFE0001F000E0000FFFFF00
310
00FFFF800001FFFC00000FFFFF80007FC0001FFFFE0001FC0001FFFFE0001FF8
310
000001FFFE0000007FFFFFF0001FFFFFFF80000FFFF80000FFFF80000FFFF800
310
00FFFF0003FFFFFFFFE0000FFFFF8000F000C0003FFFFF8000FFFF800000FFFC
310
000007FFFF80007F80003FFFFF0001FC0003FFFFF0001FF8000001FFFE000000
310
7FFFFFF0001FFFFFFF80003FFFFE0000FFFF80003FFFFE0000FFFF0003FFFFFF
310
FFE0003FFFFF8000F000C0003FFFFF8000FFFF800000FFFC000007FFFF80007F
310
80007FFFFF8001F80007FFFFF8000FF8000001FFFE0000007FFFFFF0001FFFFF
310
FF00007FFFFF00007FFF00007FFFFF00007FFF0003FFFFFFFFE0003FFFFFC000
310
F000C0007FFFFFC000FFFF000000FFFC000007FFFF80007F8000FFFFFF8000F8
310
000FFFFFF8000FF8000001FFFE0000007FFFFFF0001FFFFFFF0000FFFFFF8000
310
7FFF0000FFFFFF80007FFF0003FFFFFFFFC0007FFFFFC00070008000FFFFFFC0
310
00FFFF000000FFF8000007FFFF80007F8000FFFFFF8000F8000FFFFFF8000FF8
310
000001FFFE0000007FFFFFF0001FFFFFFE0001FFFFFFC0003FFE0001FFFFFFC0
310
003FFF0003FFFFFFFFC0007FFFFFE00070008000FFFFFFC0007FFF0000007FF8
310
000003FFFF80007F0001FFFFFF8000F8000FFFFFF8000FF8000001FFFE000000
310
7FFFFFF0001FFFFFFE0001FFFFFFC0003FFE0001FFFFFFC0003FFF0003FFFFFF
310
FFC000FFFFFFE00070008000FFFFFFC0007FFF0000007FF8000003FFFF80007F
310
0001FFFFFF8000F8001FFFFFF8000FF8000001FFFE0000007FFFFFF0001FFFFF
310
FE0003FFFFFFE0003FFE0003FFFFFFE0003FFF0003FFFFFFFFC000FFFFFFE000
310
70008000FFFFFFC0007FFE0000007FF8000003FFFF80007F0001FFFFFF8000F0
310
001FFFFFF8000FF8000001FFFE0000007FFFFFF0001FFFFFFC0003FFFFFFE000
310
1FFC0003FFFFFFE0001FFF0003FFFFFFFFC000FFFFFFC00070008000FFFFFF80
310
007FFE0000007FF0000003FFFF80007F0001FFFFFF0000F0001FFFFFF8000FF8
310
000001FFFE0000007FFFFFF0001FFFFFFC0007FFFFFFF0001FFC0007FFFFFFF0
310
001FFF0003FFFFFFFFC000FFFFFFC00070008001FFFFFF0000FFFE0000003FF0
310
000001FFFF80007F0001FFFFFF0000F8001FFFFFF0000FF8000001FFFE000000
310
7FFFFFF0001FFFFFFC0007FFFFFFF0001FFC0007FFFFFFF0001FFF0003FFFFFF
310
FFC001FFFFFF80007000FFFFFFFFFE0000FFFE0008003FF0008001FFFF80007F
310
FFFFFFFFFC0000FFFFFFFFFFE0000FF8000001FFFE0000007FFFFFF0001FFFFF
310
F8000FFFFFFFF8000FF8000FFFFFFFF8000FFF0003FFFFFFFFFFFFFFFFFF0000
310
7000FFFFFFFFFC0000FFFC0008003FF0008001FFFF80007FFFFFFFFFF80001FF
310
FFFFFFFF80000FF8000001FFFE0000007FFFFFF0001FFFFFF8000FFFFFFFF800
310
0FF8000FFFFFFFF8000FFF0003FFFFFFFFFFFFFFFFFE0000F000FFFFFFFFE000
310
00FFFC000C003FE000C001FFFF80007FFFFFFFFFC00001FFFFFFFFFE00001FF8
310
000001FFFE0000007FFFFFF0001FFFFFF8000FFFFFFFF8000FF8000FFFFFFFF8
310
000FFF0003FFFFFFFFFFFFFFFFF00000F000FFFFFFFE000001FFFC000C001FE0
310
00C000FFFF80007FFFFFFFFE000001FFFFFFFFE000001FF80FFFFFFFFFFFFFC0
310
7FFFFFF0001FFFFFF8000FFFFFFFF8000FF8000FFFFFFFF8000FFF0003FFFFFF
310
FFFFFFFFFF800000F000FFFFFFC0000001FFFC001C001FE001C000FFFF80007F
310
FFFFFF80000003FFFFFFF80000001FF80FFFFFFFFFFFFFC07FFFFFF0001FFFFF
310
F8001FFFFFFFFC000FF8001FFFFFFFFC000FFF0003FFFFFFFFFFFFFFF0000001
310
F000FFFFF800000001FFF8001C001FE001C000FFFF80007FFFFFF800000003FF
310
FFFF800000003FF80FFFFFFFFFFFFFC07FFFFFF0001FFFFFF8001FFFFFFFFC00
310
0FF8001FFFFFFFFC000FFF0003FFFFFFFFFFFFFE00000001F000FFFFC0000000
310
03FFF8001E001FC001E000FFFF80007FFFFF8000000007FFFFFC000000003FF8
310
0FFFFFFFFFFFFFC07FFFFFF0001FFFFFF8001FFFFFFFFC000FF8001FFFFFFFFC
310
000FFF0003FFFFFFFFFFFFE000000003F000FFFE0000000007FFF8001E000FC0
310
01E0007FFF80007FFFFE0000000007FFFFE0000000007FF80FFFFFFFFFFFFFC0
310
7FFFFFF0001FFFFFF0001FFFFFFFFC0007F0001FFFFFFFFC0007FF0003FFFFFF
310
FFFFFF0000000003F000FFF80000000007FFF8001E000FC003E0007FFF80007F
310
FFF0000000000FFFFF8000000000FFF80FFFFFFFFFFFFFC07FFFFFF0001FFFFF
310
F0001FFFFFFFFC0007F0001FFFFFFFFC0007FF0003FFFFFFFFFFFC0000000007
310
F000FFE0000000000FFFF0003E000FC003E0007FFF80007FFFC0000000001FFF
310
FE0000000001FFF80FFFFFFFFFFFFFC07FFFFFF0001FFFFFF0001FFFFFFFFC00
310
07F0001FFFFFFFFC0007FF0003FFFFFFFFFFF0000000000FF000FFC000000000
310
1FFFF0003F000F8003F0003FFF80007FFF80000000003FFFF80000000003FFF8
310
0FFFFFFFFFFFFFC07FFFFFF0001FFFFFF0001FFFFFFFFC0007F0001FFFFFFFFC
310
0007FF0003FFFFFFFFFFE0000000001FF000FF00000000007FFFF0003F000780
310
03F0003FFF80007FFF00000000007FFFF00000000007FFF80FFFFFFFFFFFFFC0
310
7FFFFFF0001FFFFFF0001FFFFFFFFC0007F0001FFFFFFFFC0007FF0003FFFFFF
310
FFFF80000000007FF000FE0000000000FFFFE0003F00078007F0003FFF80007F
310
FE0000000001FFFFE0000000001FFFF80FFFFFFFFFFFFFC07FFFFFF0001FFFFF
310
F0001FFFFFFFFC0007F0001FFFFFFFFC0007FF0003FFFFFFFFFF0000000000FF
310
F000FC0000000003FFFFE0007F00078007F0003FFF80007FFC0000000007FFFF
310
C0000000007FFFF80FFFFFFFFFFFFFC07FFFFFF0001FFFFFF8001FFFFFFFFC00
310
0FF8001FFFFFFFFC000FFF0003FFFFFFFFFE0000000003FFF000FC000000000F
310
FFFFE0007F80070007F8001FFF80007FF8000000001FFFFF8000000001FFFFF8
310
0FFFFFFFFFFFFFC07FFFFFF0001FFFFFF8001FFFFFFFFC000FF8001FFFFFFFFC
310
000FFF0003FFFFFFFFFC000000000FFFF000F8000000007FFFFFE0007F800700
310
07F8001FFF80007FF000000000FFFFFF800000000FFFFFF80FFFFFFFFFFFFFC0
310
7FFFFFF0001FFFFFF8000FFFFFFFF8000FF8000FFFFFFFF8000FFF0003FFFFFF
310
FFFC000000007FFFF000F800000007FFFFFFC0007F8003000FF8001FFF80007F
310
F000000007FFFFFF000000007FFFFFF80FFFFFFFFFFFFFC07FFFFFF0001FFFFF
310
F8000FFFFFFFF8000FF8000FFFFFFFF8000FFF0003FFFFFFFFF80000000FFFFF
310
F000F0000000FFFFFFFFC000FF8003000FF8001FFF80007FE0000000FFFFFFFF
310
0000000FFFFFFFF8000001FFFE0000007FFFFFF0001FFFFFF8000FFFFFFFF800
310
0FF8000FFFFFFFF8000FFF0003FFFFFFFFF8000000FFFFFFF000F000000FFFFF
310
FFFFC000FFC002000FF8000FFF80007FE000001FFFFFFFFE000001FFFFFFFFF8
310
000001FFFE0000007FFFFFF0001FFFFFF8000FFFFFFFF8000FF8000FFFFFFFF8
310
000FFF0003FFFFFFFFF000001FFFFFFFF000E00000FFFFFFFFFFC000FFC00200
310
0FFC000FFF80007FE00001FFFFFFFFFE00001FFFFFFFFFF8000001FFFE000000
310
7FFFFFF0001FFFFFFC000FFFFFFFF8001FFC000FFFFFFFF8001FFF0003FFFFFF
310
FFF00001FFFFFFFFF000E00007FFFFFFFFFF8000FFC000001FFC000FFF80007F
310
C0000FFFFFFFFFFE0000FFFFFFFFFFF8000001FFFE0000007FFFFFF0001FFFFF
310
FC0007FFFFFFF0001FFC0007FFFFFFF0001FFF0003FFFFFFFFF00007FFFFFFFF
310
F000E0001FFFFFFFFFFF8000FFC000001FFC000FFF80007FC0003FFFFFFFFFFE
310
0001FFFFFFFFFFF8000001FFFE0000007FFFFFF0001FFFFFFC0007FFFFFFF000
310
1FFC0007FFFFFFF0001FFF0003FFFFFFFFF0001FFFFFFFFFF000E0003FFFFF00
310
03FF8001FFE000001FFC0007FF80007FC0007FFFFF0007FC0003FFFFF0003FF8
310
000001FFFE0000007FFFFFF0001FFFFFFC0003FFFFFFE0001FFC0003FFFFFFE0
310
001FFF0003FFFFFFFFF0003FFFFFFFFFF000E0003FFFFF0001FF8001FFE00000
310
1FFE0007FF80007FC0007FFFFE0003FC0007FFFFE0003FF8000001FFFE000000
310
7FFFFFF0001FFFFFFE0003FFFFFFE0003FFE0003FFFFFFE0003FFF0003FFFFFF
310
FFF0003FFFFF8001F000E0003FFFFF0001FF0001FFE000001FFE0007FF80007F
310
C0007FFFFE0003FC0007FFFFE0003FF8000001FFFE0000007FFFFFF0001FFFFF
310
FE0001FFFFFFC0003FFE0001FFFFFFC0003FFF0003FFFFFFFFF0003FFFFF0001
310
F000E0003FFFFF0003FF0001FFE000003FFE0007FF80007FC0007FFFFE0003FC
310
0007FFFFE0003FF8000001FFFE0000007FFFFFF0001FFFFFFF0001FFFFFFC000
310
7FFF0001FFFFFFC0007FFF0003FFFFFFFFF0003FFFFF0001F000E0003FFFFE00
310
03FF0003FFF000003FFE0003FF80007FC0007FFFFC0003FE0007FFFFE0003FF8
310
000001FFFE0000007FFFFFF0001FFFFFFF0000FFFFFF80007FFF0000FFFFFF80
310
007FFF0003FFFFFFFFF0003FFFFF0001F000E0003FFFFE0003FF0003FFF00000
310
3FFF0003FF80007FC0007FFFFC0007FE0007FFFFC0003FF8000001FFFE000000
310
7FFFFFF0001FFFFFFF80007FFFFF0000FFFF80007FFFFF0000FFFF0003FFFFFF
310
FFF0003FFFFF0003F000E0003FFFFC0003FE0003FFF000003FFF0003FF80007F
310
E0003FFFF80007FE0003FFFFC0007FF8000001FFFE0000007FFFFFF0001FFFFF
310
FF80003FFFFE0000FFFF80003FFFFE0000FFFF0003FFFFFFFFF0001FFFFE0003
310
F000F0001FFFF80003FE0003FFF000007FFF0001FF80007FE0003FFFF00007FE
310
0001FFFF80007FF8000001FFFE0000007FFFFFF0001FFFFFFFC0000FFFF80001
310
FFFFC0000FFFF80001FFFF0003FFFFFFFFF0001FFFFC0003F000F0000FFFF000
310
07FE0007FFF800007FFF0001FF80007FE0001FFFE00007FF0000FFFE00007FF8
310
000001FFFE0000007FFFFFF0001FFFFFFFC00003FFE00001FFFFC00003FFE000
310
01FFFF0003FFFFFFFFF8000FFFF80003F000F00003FFC00007FC0007FFF80000
310
7FFF8001FF80007FF00007FF80000FFF00007FF80000FFF8000001FFFE000000
310
7F80000000000001FFE000003E000003FFFFE000003E000003FFFF0003FFFFFF
310
FFF80003FFE00007F000F800000000000FFC0007FFF800007FFF8001FF80007F
310
F000000000000FFF000000000000FFF8000001FFFE0000007F80000000000001
310
FFF0000000000007FFFFF0000000000007FFFF0003FFFFFFFFFC00007E000007
310
F000F800000000000FFC0007FFF80000FFFF8000FF80007FF800000000001FFF
310
800000000001FFF8000001FFFE0000007F80000000000001FFF800000000000F
310
FFFFF800000000000FFFFF0003FFFFFFFFFC00000000000FF000FC0000000000
310
1FFC0007FFFC0000FFFF8000FF80007FF800000000003FFFC00000000001FFF8
310
000001FFFE0000007F80000000000001FFF800000000000FFFFFF80000000000
310
0FFFFF0003FFFFFFFFFE00000000001FF000FE00000000003FF8000FFFFC0000
310
FFFF8000FF80007FFC00000000003FFFC00000000003FFF8000001FFFE000000
310
7F80000000000001FFFC00000000001FFFFFFC00000000001FFFFF0003FFFFFF
310
FFFF00000000001FF000FF00000000003FF8000FFFFC0000FFFFC000FF80007F
310
FE00000000007FFFE00000000007FFF8000001FFFE0000007F80000000000001
310
FFFE00000000003FFFFFFE00000000003FFFFF0003FFFFFFFFFF80000000003F
310
F000FF80000000007FF8000FFFFC0001FFFFC0007F80007FFF0000000000FFFF
310
F0000000000FFFF800000000000000007F80000000000001FFFF8000000000FF
310
FFFFFF8000000000FFFFFF0003FFFFFFFFFFC0000000007FF000FFC000000000
310
FFF8000FFFFE0001FFFFC0007F80007FFF8000000001FFFFF8000000001FFFF8
310
00000000000000007F80000000000001FFFFC000000001FFFFFFFFC000000001
310
FFFFFF0003FFFFFFFFFFE000000000FFF000FFE000000003FFF0001FFFFE0001
310
FFFFC0007F80007FFFC000000007FFFFFE000000003FFFF80000000000000000
310
7F80000000000001FFFFE000000003FFFFFFFFE000000003FFFFFF0003FFFFFF
310
FFFFF000000003FFF000FFF80000000FFFF0001FFFFE0001FFFFE0007F80007F
310
FFF00000000FFFFFFF00000000FFFFF800000000000000007F80000000000001
310
FFFFF80000000FFFFFFFFFF80000000FFFFFFF0003FFFFFFFFFFFC0000000FFF
310
F000FFFE0000003FFFF0001FFFFE0003FFFFE0003F80007FFFFC0000003FFFFF
310
FFC0000003FFFFF800000000000000007F80000000000001FFFFFE0000003FFF
310
FFFFFFFE0000003FFFFFFF0003FFFFFFFFFFFF0000003FFFF000FFFF800000FF
310
FFF0001FFFFF0003FFFFE0003F80007FFFFF000001FFFFFFFFF800001FFFFFF8
310
00000000000000007F80000000000001FFFFFFC00001FFFFFFFFFFFFC00001FF
310
FFFFFF0003FFFFFFFFFFFFC00000FFFFF000FFFFF8000FFFFFFFFFFFFFFFFFFF
310
FFFFFFFFFFFFFFFFFFFFF0001FFFFFFFFFFF0000FFFFFFF80000000000000000
310
7FFFFFFFFFFFFFFFFFFFFFFC001FFFFFFFFFFFFFFC001FFFFFFFFFFFFFFFFFFF
310
FFFFFFFC001FFFFFF000FFFFFFFFFFFFFFFFFFFFFFFFFFFFFFFFFFFFFFFFFFFF
310
FFFFFFFFFFFFFFFFFFFFFFFFFFFFFFFFFFFFFFFFFFFFFFFFFFFFFFFFFFFFFFFF
310
FFFFFFFFFFFFFFFFFFFFFFFFFFFFFFFFFFFFFFFFFFFFFFFFFFFFFFFFFFFFFFFF
310
F000FFFFFFFFFFFFFFFFFFFFFFFFFFFFFFFFFFFFFFFFFFFFFFFFFFFFFFFFFFFF
310
FFFFFFFFFFFFFFFFFFFFFFFFFFFFFFFFFFFFFFFFFFFFFFFFFFFFFFFFFFFFFFFF
310
FFFFFFFFFFFFFFFFFFFFFFFFFFFFFFFFFFFFFFFFFFFFFFFFF000FFFFFFFFFFFF
310
FFFFFFFFFFFFFFFFFFFFFFFFFFFFFFFFFFFFFFFFFFFFFFFFFFFFFFFFFFFFFFFF
310
FFFFFFFFFFFFFFFFFFFFFFFFFFFFFFFFFFFFFFFFFFFFFFFFFFFFFFFFFFFFFFFF
310
FFFFFFFFFFFFFFFFFFFFFFFFFFFFFFFFF000FFFFFFFFFFFFFFFFFFFFFFFFFFFF
310
FFFFFFFFFFFFFFFFFFFFFFFFFFFFFFFFFFFFFFFFFFFFFFFFFFFFFFFFFFFFFFFF
310
FFFFFFFFFFFFFFFFFFFFFFFFFFFFFFFFFFFFFFFFFFFFFFFFFFFFFFFFFFFFFFFF
310
FFFFFFFFFFFFFFFFF000FFFFFFFFFFFFFFFFFFFFFFFFFFFFFFFFFFFFFFFFFFFF
310
FFFFFFFFFFFFFFFFFFFFFFFFFFFFFFFFFFFFFFFFFFFFFFFFFFFFFFFFFFFFFFFF
310
FFFFFFFFFFFFFFFFFFFFFFFFFFFFFFFFFFFFFFFFFFFFFFFFFFFFFFFFFFFFFFFF
310
F000FFFFFFFFFFFFFFFFFFFFFFFFFFFFFFFFFFFFFFFFFFFFFFFFFFFFFFFFFFFF
310
FFFFFFFFFFFFFFFFFFFFFFFFFFFFFFFFFFFFFFFFFFFFFFFFFFFFFFFFFFFFFFFF
310
FFFFFFFFFFFFFFFFFFFFFFFFFFFFFFFFFFFFFFFFFFFFFFFFF000FFFFFFFFFFFF
310
FFFFFFFFFFFFFFFFFFFFFFFFFFFFFFFFFFFFFFFFFFFFFFFFFFFFFFFFFFFFFFFF
310
FFFFFFFFFFFFFFFFFFFFFFFFFFFFFFFFFFFFFFFFFFFFFFFFFFFFFFFFFFFFFFFF
310
FFFFFFFFFFFFFFFFFFFFFFFFFFFFFFFFF000FFFFFFFFFFFFFFFFFFFFFFFFFFFF
310
FFFFFFFFFFFFFFFFFFFFFFFFFFFFFFFFFFFFFFFFFFFFFFFFFFFFFFFFFFFFFFFF
310
FFFFFFFFFFFFFFFFFFFFFFFFFFFFFFFFFFFFFFFFFFFFFFFFFFFFFFFFFFFFFFFF
310
FFFFFFFFFFFFFFFFF000FFFFFFFFFFFFFFFFFFFFFFFFFFFFFFFFFFFFFFFFFFFF
310
FFFFFFFFFFFFFFFFFFFFFFFFFFFFFFFFFFFFFFFFFFFFFFFFFFFFFFFFFFFFFFFF
310
FFFFFFFFFFFFFFFFFFFFFFFFFFFFFFFFFFFFFFFFFFFFFFFFFFFFFFFFFFFFFFFF
310
F000FFFFFFFFFFFFFFFFFFFFFFFFFFFFFFFFFFFFFFFFFFFFFFFFFFFFFFFFFFFF
310
FFFFFFFFFFFFFFFFFFFFFFFFFFFFFFFFFFFFFFFFFFFFFFFFFFFFFFFFFFFFFFFF
310
FFFFFFFFFFFFFFFFFFFFFFFFFFFFFFFFFFFFFFFFFFFFFFFFF000FFFFFFFFFFFF
310
FFFFFFFFFFFFFFFFFFFFFFFFFFFFFFFFFFFFFFFFFFFFFFFFFFFFFFFFFFFFFFFF
310
FFFFFFFFFFFFFFFFFFFFFFFFFFFFFFFFFFFFFFFFFFFFFFFFFFFFFFFFFFFFFFFF
310
FFFFFFFFFFFFFFFFFFFFFFFFFFFFFFFFF000FFFFFFFFFFFFFFFFFFFFFFFFFFFF
310
FFFFFFFFFFFFFFFFFFFFFFFFFFFFFFFFFFFFFFFFFFFFFFFFFFFFFFFFFFFFFFFF
310
FFFFFFFFFFFFFFFFFFFFFFFFFFFFFFFFFFFFFFFFFFFFFFFFFFFFFFFFFFFFFFFF
310
FFFFFFFFFFFFFFFFF000FFFFFFFFFFFFFFFFFFFFFFFFFFFFFFFFFFFFFFFFFFFF
310
FFFFFFFFFFFFFFFFFFFFFFFFFFFFFFFFFFFFFFFFFFFFFFFFFFFFFFFFFFFFFFFF
310
FFFFFFFFFFFFFFFFFFFFFFFFFFFFFFFFFFFFFFFFFFFFFFFFFFFFFFFFFFFFFFFF
310
F000FFFFFFFFFFFFFFFFFFFFFFFFFFFFFFFFFFFFFFFFFFFFFFFFFFFFFFFFFFFF
310
FFFFFFFFFFFFFFFFFFFFFFFFFFFFFFFFFFFFFFFFFFFFFFFFFFFFFFFFFFFFFFFF
310
FFFFFFFFFFFFFFFFFFFFFFFFFFFFFFFFFFFFFFFFFFFFFFFFF000FFFFFFFFFFFF
310
FFFFFFFFFFFFFFFFFFFFFFFFFFFFFFFFFFFFFFFFFFFFFFFFFFFFFFFFFFFFFFFF
310
FFFFFFFFFFFFFFFFFFFFFFFFFFFFFFFFFFFFFFFFFFFFFFFFFFFFFFFFFFFFFFFF
310
FFFFFFFFFFFFFFFFFFFFFFFFFFFFFFFFF000FFFFFFFFFFFFFFFFFFFFFFFFFFFF
310
FFFFFFFFFFFFFFFFFFFFFFFFFFFFFFFFFFFFFFFFFFFFFFFFFFFFFFFFFFFFFFFF
310
FFFFFFFFFFFFFFFFFFFFFFFFFFFFFFFFFFFFFFFFFFFFFFFFFFFFFFFFFFFFFFFF
310
FFFFFFFFFFFFFFFFF000FFFFFFFFFFFFFFFFFFFFFFFFFFFFFFFFFFFFFFFFFFFF
310
FFFFFFFFFFFFFFFFFFFFFFFFFFFFFFFFFFFFFFFFFFFFFFFFFFFFFFFFFFFFFFFF
310
FFFFFFFFFFFFFFFFFFFFFFFFFFFFFFFFFFFFFFFFFFFFFFFFFFFFFFFFFFFFFFFF
310
F000FFFFFFFFFFFFFFFFFFFFFFFFFFFFFFFFFFFFFFFFFFFFFFFFFFFFFFFFFFFF
310
FFFFFFFFFFFFFFFFFFFFFFFFFFFFFFFFFFFFFFFFFFFFFFFFFFFFFFFFFFFFFFFF
310
FFFFFFFFFFFFFFFFFFFFFFFFFFFFFFFFFFFFFFFFFFFFFFFFF000FFFFFFFFFFFF
310
FFFFFFFFFFFFFFFFFFFFFFFFFFFFFFFFFFFFFFFFFFFFFFFFFFFFFFFFFFFFFFFF
310
FFFFFFFFFFFFFFFFFFFFFFFFFFFFFFFFFFFFFFFFFFFFFFFFFFFFFFFFFFFFFFFF
310
FFFFFFFFFFFFFFFFFFFFFFFFFFFFFFFFF000FFFFFFFFFFFFFFFFFFFFFFFFFFFF
310
FFFFFFFFFFFFFFFFFFFFFFFFFFFFFFFFFFFFFFFFFFFFFFFFFFFFFFFFFFFFFFFF
310
FFFFFFFFFFFFFFFFFFFFFFFFFFFFFFFFFFFFFFFFFFFFFFFFFFFFFFFFFFFFFFFF
310
FFFFFFFFFFFFFFFFF000FFFFFFFFFFFFFFFFFFFFFFFFFFFFFFFFFFFFFFFFFFFF
310
FFFFFFFFFFFFFFFFFFFFFFFFFFFFFFFFFFFFFFFFFFFFFFFFFFFFFFFFFFFFFFFF
310
FFFFFFFFFFFFFFFFFFFFFFFFFFFFFFFFFFFFFFFFFFFFFFFFFFFFFFFFFFFFFFFF
310
F000FFFFFFFFFFFFFFFFFFFFFFFFFFFFFFFFFFFFFFFFFFFFFFFFFFFFFFFFFFFF
310
FFFFFFFFFFFFFFFFFFFFFFFFFFFFFFFFFFFFFFFFFFFFFFFFFFFFFFFFFFFFFFFF
310
FFFFFFFFFFFFFFFFFFFFFFFFFFFFFFFFFFFFFFFFFFFFFFFFF000FFFFFFFFFFFF
310
FFFFFFFFFFFFFFFFFFFFFFFFFFFFFFFFFFFFFFFFFFFFFFFFFFFFFFFFFFFFFFFF
310
FFFFFFFFFFFFFFFFFFFFFFFFFFFFFFFFFFFFFFFFFFFFFFFFFFFFFFFFFFFFFFFF
310
FFFFFFFFFFFFFFFFFFFFFFFFFFFFFFFFF0000000000000000000000000000000
310
0000000000000000000000000000000000000000000000000000000000000000
310
0000000000000000000000000000000000000000000000000000000000000000
310
0000000000000000000000000000000000000000000000000000000000000000
310
0000000000000000000000000000000000000000000000000000000000000000
310
0000000000000000000000000000000000000000000000000000000000000000
310
0000000000000000000000000000000000000000000000000000000000000000
310
0000000000000000000000000000000000000000000000000000000000000000
310
0000000000000000000000000000000000000000000000000000000000000000
310
0000000000000000000000000000000000000000000000000000000000000000
310
0000000000000000000000000000000000000000000000000000000000000000
310
0000000000000000000000000000000000000000000000000000000000000000
310
0000000000000000000000000000000000000000000000000000000000000000
310
0000000000000000000000000000000000000000000000000000000000000000
310
0000000000000000000000000000000000000000000000000000000000000000
310
0000000000000000000000000000000000000000000000000000000000000000
  1
OLE
  0
ENDSEC
  0
SECTION
  2
OBJECTS
  0
DICTIONARY
  5
C
330
0
100
AcDbDictionary
281
     1
  3
ACAD_GROUP
350
D
  3
ACAD_LAYOUT
350
1A
  3
ACAD_MLINESTYLE
350
17
  3
ACAD_PLOTSETTINGS
350
19
  3
ACAD_PLOTSTYLENAME
350
E
  3
ACAD_SCALELIST
350
47
  0
DICTIONARY
  5
D
102
{ACAD_REACTORS
330
C
102
}
330
C
100
AcDbDictionary
281
     1
  0
DICTIONARY
  5
1A
102
{ACAD_REACTORS
330
C
102
}
330
C
100
AcDbDictionary
281
     1
  3
Layout1
350
1E
  3
Layout2
350
26
  3
Model
350
22
  0
DICTIONARY
  5
17
102
{ACAD_REACTORS
330
C
102
}
330
C
100
AcDbDictionary
281
     1
  3
Standard
350
18
  0
DICTIONARY
  5
19
102
{ACAD_REACTORS
330
C
102
}
330
C
100
AcDbDictionary
281
     1
  0
ACDBDICTIONARYWDFLT
  5
E
102
{ACAD_REACTORS
330
C
102
}
330
C
100
AcDbDictionary
281
     1
  3
Normal
350
F
100
AcDbDictionaryWithDefault
340
F
  0
DICTIONARY
  5
47
102
{ACAD_REACTORS
330
C
102
}
330
C
100
AcDbDictionary
281
     1
  3
A0
350
48
  3
A1
350
49
  3
A2
350
4A
  3
A3
350
4B
  3
A4
350
4C
  3
A5
350
4D
  3
A6
350
4E
  3
A7
350
4F
  3
A8
350
50
  3
A9
350
51
  3
B0
350
52
  3
B1
350
53
  3
B2
350
54
  3
B3
350
55
  3
B4
350
56
  3
B5
350
57
  3
B6
350
58
  3
B7
350
59
  3
B8
350
5A
  3
B9
350
5B
  3
C0
350
5C
  3
C1
350
5D
  3
C2
350
5E
  3
C3
350
5F
  3
C4
350
60
  3
C5
350
61
  3
C6
350
62
  3
C7
350
63
  3
C8
350
64
  3
C9
350
65
  3
D0
350
66
  3
D1
350
67
  3
D2
350
68
  0
LAYOUT
  5
1E
102
{ACAD_REACTORS
330
1A
102
}
330
1A
100
AcDbPlotSettings
  1

  2
none_device
  4

  6

 40
0.0
 41
0.0
 42
0.0
 43
0.0
 44
0.0
 45
0.0
 46
0.0
 47
0.0
 48
0.0
 49
0.0
140
0.0
141
0.0
142
1.0
143
1.0
 70
   688
 72
     1
 73
     0
 74
     5
  7

 75
    16
147
1.0
148
0.0
149
0.0
100
AcDbLayout
  1
Layout1
 70
     1
 71
     1
 10
0.0
 20
0.0
 11
420.0
 21
297.0
 12
0.0
 22
0.0
 32
0.0
 14
1.0000000000E+20
 24
1.0000000000E+20
 34
1.0000000000E+20
 15
-1.0000000000E+20
 25
-1.0000000000E+20
 35
-1.0000000000E+20
146
0.0
 13
0.0
 23
0.0
 33
0.0
 16
1.0
 26
0.0
 36
0.0
 17
0.0
 27
1.0
 37
0.0
 76
     0
330
1B
  0
LAYOUT
  5
26
102
{ACAD_REACTORS
330
1A
102
}
330
1A
100
AcDbPlotSettings
  1

  2
none_device
  4

  6

 40
0.0
 41
0.0
 42
0.0
 43
0.0
 44
0.0
 45
0.0
 46
0.0
 47
0.0
 48
0.0
 49
0.0
140
0.0
141
0.0
142
1.0
143
1.0
 70
   688
 72
     1
 73
     0
 74
     5
  7

 75
    16
147
1.0
148
0.0
149
0.0
100
AcDbLayout
  1
Layout2
 70
     1
 71
     2
 10
0.0
 20
0.0
 11
0.0
 21
0.0
 12
0.0
 22
0.0
 32
0.0
 14
0.0
 24
0.0
 34
0.0
 15
0.0
 25
0.0
 35
0.0
146
0.0
 13
0.0
 23
0.0
 33
0.0
 16
1.0
 26
0.0
 36
0.0
 17
0.0
 27
1.0
 37
0.0
 76
     0
330
23
  0
LAYOUT
  5
22
102
{ACAD_REACTORS
330
1A
102
}
330
1A
100
AcDbPlotSettings
  1

  2
none_device
  4
Letter_(8.50_x_11.00_Inches)
  6

 40
6.35
 41
6.35
 42
6.35000508
 43
6.35000508
 44
215.9
 45
279.4
 46
0.0
 47
0.0
 48
0.0
 49
0.0
140
0.0
141
0.0
142
1.0
143
1.0
 70
  1712
 72
     1
 73
     0
 74
     0
  7

 75
     0
147
1.0
148
0.0
149
0.0
100
AcDbLayout
  1
Model
 70
     1
 71
     0
 10
0.0
 20
0.0
 11
297.0
 21
210.0
 12
0.0
 22
0.0
 32
0.0
 14
0.0
 24
0.0
 34
0.0
 15
297.0
 25
210.0
 35
0.0
146
0.0
 13
0.0
 23
0.0
 33
0.0
 16
1.0
 26
0.0
 36
0.0
 17
0.0
 27
1.0
 37
0.0
 76
     0
330
1F
331
29
  0
MLINESTYLE
  5
18
102
{ACAD_REACTORS
330
17
102
}
330
17
100
AcDbMlineStyle
  2
Standard
 70
     0
  3

 62
   256
 51
90.0
 52
90.0
 71
     2
 49
0.5
 62
   256
  6
BYLAYER
 49
-0.5
 62
   256
  6
BYLAYER
  0
ACDBPLACEHOLDER
  5
F
102
{ACAD_REACTORS
330
E
102
}
330
E
  0
SCALE
  5
48
102
{ACAD_REACTORS
330
47
102
}
330
47
100
AcDbScale
 70
     0
300
1:1
140
1.0
141
1.0
290
     1
  0
SCALE
  5
49
102
{ACAD_REACTORS
330
47
102
}
330
47
100
AcDbScale
 70
     0
300
1:2
140
1.0
141
2.0
290
     0
  0
SCALE
  5
4A
102
{ACAD_REACTORS
330
47
102
}
330
47
100
AcDbScale
 70
     0
300
1:4
140
1.0
141
4.0
290
     0
  0
SCALE
  5
4B
102
{ACAD_REACTORS
330
47
102
}
330
47
100
AcDbScale
 70
     0
300
1:5
140
1.0
141
5.0
290
     0
  0
SCALE
  5
4C
102
{ACAD_REACTORS
330
47
102
}
330
47
100
AcDbScale
 70
     0
300
1:8
140
1.0
141
8.0
290
     0
  0
SCALE
  5
4D
102
{ACAD_REACTORS
330
47
102
}
330
47
100
AcDbScale
 70
     0
300
1:10
140
1.0
141
10.0
290
     0
  0
SCALE
  5
4E
102
{ACAD_REACTORS
330
47
102
}
330
47
100
AcDbScale
 70
     0
300
1:16
140
1.0
141
16.0
290
     0
  0
SCALE
  5
4F
102
{ACAD_REACTORS
330
47
102
}
330
47
100
AcDbScale
 70
     0
300
1:20
140
1.0
141
20.0
290
     0
  0
SCALE
  5
50
102
{ACAD_REACTORS
330
47
102
}
330
47
100
AcDbScale
 70
     0
300
1:30
140
1.0
141
30.0
290
     0
  0
SCALE
  5
51
102
{ACAD_REACTORS
330
47
102
}
330
47
100
AcDbScale
 70
     0
300
1:40
140
1.0
141
40.0
290
     0
  0
SCALE
  5
52
102
{ACAD_REACTORS
330
47
102
}
330
47
100
AcDbScale
 70
     0
300
1:50
140
1.0
141
50.0
290
     0
  0
SCALE
  5
53
102
{ACAD_REACTORS
330
47
102
}
330
47
100
AcDbScale
 70
     0
300
1:100
140
1.0
141
100.0
290
     0
  0
SCALE
  5
54
102
{ACAD_REACTORS
330
47
102
}
330
47
100
AcDbScale
 70
     0
300
2:1
140
2.0
141
1.0
290
     0
  0
SCALE
  5
55
102
{ACAD_REACTORS
330
47
102
}
330
47
100
AcDbScale
 70
     0
300
4:1
140
4.0
141
1.0
290
     0
  0
SCALE
  5
56
102
{ACAD_REACTORS
330
47
102
}
330
47
100
AcDbScale
 70
     0
300
8:1
140
8.0
141
1.0
290
     0
  0
SCALE
  5
57
102
{ACAD_REACTORS
330
47
102
}
330
47
100
AcDbScale
 70
     0
300
10:1
140
10.0
141
1.0
290
     0
  0
SCALE
  5
58
102
{ACAD_REACTORS
330
47
102
}
330
47
100
AcDbScale
 70
     0
300
100:1
140
100.0
141
1.0
290
     0
  0
SCALE
  5
59
102
{ACAD_REACTORS
330
47
102
}
330
47
100
AcDbScale
 70
     0
300
1/128" = 1'-0"
140
0.0078125
141
12.0
290
     0
  0
SCALE
  5
5A
102
{ACAD_REACTORS
330
47
102
}
330
47
100
AcDbScale
 70
     0
300
1/64" = 1'-0"
140
0.015625
141
12.0
290
     0
  0
SCALE
  5
5B
102
{ACAD_REACTORS
330
47
102
}
330
47
100
AcDbScale
 70
     0
300
1/32" = 1'-0"
140
0.03125
141
12.0
290
     0
  0
SCALE
  5
5C
102
{ACAD_REACTORS
330
47
102
}
330
47
100
AcDbScale
 70
     0
300
1/16" = 1'-0"
140
0.0625
141
12.0
290
     0
  0
SCALE
  5
5D
102
{ACAD_REACTORS
330
47
102
}
330
47
100
AcDbScale
 70
     0
300
3/32" = 1'-0"
140
0.09375
141
12.0
290
     0
  0
SCALE
  5
5E
102
{ACAD_REACTORS
330
47
102
}
330
47
100
AcDbScale
 70
     0
300
1/8" = 1'-0"
140
0.125
141
12.0
290
     0
  0
SCALE
  5
5F
102
{ACAD_REACTORS
330
47
102
}
330
47
100
AcDbScale
 70
     0
300
3/16" = 1'-0"
140
0.1875
141
12.0
290
     0
  0
SCALE
  5
60
102
{ACAD_REACTORS
330
47
102
}
330
47
100
AcDbScale
 70
     0
300
1/4" = 1'-0"
140
0.25
141
12.0
290
     0
  0
SCALE
  5
61
102
{ACAD_REACTORS
330
47
102
}
330
47
100
AcDbScale
 70
     0
300
3/8" = 1'-0"
140
0.375
141
12.0
290
     0
  0
SCALE
  5
62
102
{ACAD_REACTORS
330
47
102
}
330
47
100
AcDbScale
 70
     0
300
1/2" = 1'-0"
140
0.5
141
12.0
290
     0
  0
SCALE
  5
63
102
{ACAD_REACTORS
330
47
102
}
330
47
100
AcDbScale
 70
     0
300
3/4" = 1'-0"
140
0.75
141
12.0
290
     0
  0
SCALE
  5
64
102
{ACAD_REACTORS
330
47
102
}
330
47
100
AcDbScale
 70
     0
300
1" = 1'-0"
140
1.0
141
12.0
290
     0
  0
SCALE
  5
65
102
{ACAD_REACTORS
330
47
102
}
330
47
100
AcDbScale
 70
     0
300
1-1/2" = 1'-0"
140
1.5
141
12.0
290
     0
  0
SCALE
  5
66
102
{ACAD_REACTORS
330
47
102
}
330
47
100
AcDbScale
 70
     0
300
3" = 1'-0"
140
3.0
141
12.0
290
     0
  0
SCALE
  5
67
102
{ACAD_REACTORS
330
47
102
}
330
47
100
AcDbScale
 70
     0
300
6" = 1'-0"
140
6.0
141
12.0
290
     0
  0
SCALE
  5
68
102
{ACAD_REACTORS
330
47
102
}
330
47
100
AcDbScale
 70
     0
300
1'-0" = 1'-0"
140
12.0
141
12.0
290
     0
  0
ENDSEC
  0
EOF
