  0
SECTION
  2
HEADER
  9
$ACADVER
  1
AC1015
  9
$ACADMAINTVER
 70
     6
  9
$DWGCODEPAGE
  3
ANSI_1252
  9
$INSBASE
 10
0.0
 20
0.0
 30
0.0
  9
$EXTMIN
 10
0.0
 20
0.0
 30
0.0
  9
$EXTMAX
 10
297.0
 20
210.0
 30
0.0
  9
$LIMMIN
 10
0.0
 20
0.0
  9
$LIMMAX
 10
297.0
 20
210.0
  9
$ORTHOMODE
 70
     0
  9
$REGENMODE
 70
     1
  9
$FILLMODE
 70
     1
  9
$QTEXTMODE
 70
     0
  9
$MIRRTEXT
 70
     1
  9
$LTSCALE
 40
1.0
  9
$ATTMODE
 70
     1
  9
$TEXTSIZE
 40
2.0
  9
$TRACEWID
 40
1.0
  9
$TEXTSTYLE
  7
Standard
  9
$CLAYER
  8
0
  9
$CELTYPE
  6
ByLayer
  9
$CECOLOR
 62
   256
  9
$CELTSCALE
 40
1.0
  9
$DISPSILH
 70
     0
  9
$DIMSCALE
 40
1.0
  9
$DIMASZ
 40
3.0
  9
$DIMEXO
 40
0.0
  9
$DIMDLI
 40
3.75
  9
$DIMRND
 40
0.0
  9
$DIMDLE
 40
0.0
  9
$DIMEXE
 40
1.0
  9
$DIMTP
 40
0.0
  9
$DIMTM
 40
0.0
  9
$DIMTXT
 40
2.0
  9
$DIMCEN
 40
2.5
  9
$DIMTSZ
 40
0.0
  9
$DIMTOL
 70
     0
  9
$DIMLIM
 70
     0
  9
$DIMTIH
 70
     1
  9
$DIMTOH
 70
     1
  9
$DIMSE1
 70
     0
  9
$DIMSE2
 70
     0
  9
$DIMTAD
 70
     1
  9
$DIMZIN
 70
     0
  9
$DIMBLK
  1

  9
$DIMASO
 70
     1
  9
$DIMSHO
 70
     1
  9
$DIMPOST
  1

  9
$DIMAPOST
  1

  9
$DIMALT
 70
     0
  9
$DIMALTD
 70
     3
  9
$DIMALTF
 40
0.0393700787
  9
$DIMLFAC
 40
1.0
  9
$DIMTOFL
 70
     1
  9
$DIMTVP
 40
0.0
  9
$DIMTIX
 70
     0
  9
$DIMSOXD
 70
     0
  9
$DIMSAH
 70
     0
  9
$DIMBLK1
  1

  9
$DIMBLK2
  1

  9
$DIMSTYLE
  2
ISO-25
  9
$DIMCLRD
 70
     0
  9
$DIMCLRE
 70
     0
  9
$DIMCLRT
 70
     0
  9
$DIMTFAC
 40
1.0
  9
$DIMGAP
 40
1.524
  9
$DIMJUST
 70
     0
  9
$DIMSD1
 70
     0
  9
$DIMSD2
 70
     0
  9
$DIMTOLJ
 70
     0
  9
$DIMTZIN
 70
     0
  9
$DIMALTZ
 70
     0
  9
$DIMALTTZ
 70
     0
  9
$DIMUPT
 70
     0
  9
$DIMDEC
 70
     2
  9
$DIMTDEC
 70
     3
  9
$DIMALTU
 70
     2
  9
$DIMALTTD
 70
     3
  9
$DIMTXSTY
  7
Standard
  9
$DIMAUNIT
 70
     0
  9
$DIMADEC
 70
     2
  9
$DIMALTRND
 40
0.0
  9
$DIMAZIN
 70
     0
  9
$DIMDSEP
 70
    44
  9
$DIMATFIT
 70
     3
  9
$DIMFRAC
 70
     0
  9
$DIMLDRBLK
  1

  9
$DIMLUNIT
 70
     2
  9
$DIMLWD
 70
    -2
  9
$DIMLWE
 70
    -2
  9
$DIMTMOVE
 70
     0
  9
$LUNITS
 70
     2
  9
$LUPREC
 70
     2
  9
$SKETCHINC
 40
1.0
  9
$FILLETRAD
 40
10.0
  9
$AUNITS
 70
     0
  9
$AUPREC
 70
     2
  9
$MENU
  1
.
  9
$ELEVATION
 40
0.0
  9
$PELEVATION
 40
0.0
  9
$THICKNESS
 40
0.0
  9
$LIMCHECK
 70
     0
  9
$CHAMFERA
 40
0.0
  9
$CHAMFERB
 40
0.0
  9
$CHAMFERC
 40
0.0
  9
$CHAMFERD
 40
0.0
  9
$SKPOLY
 70
     0
  9
$TDCREATE
 40
2457669.621737384
  9
$TDUCREATE
 40
2457669.538404051
  9
$TDUPDATE
 40
2457669.621738542
  9
$TDUUPDATE
 40
2457669.538405208
  9
$TDINDWG
 40
0.0000000116
  9
$TDUSRTIMER
 40
0.0000000116
  9
$USRTIMER
 70
     1
  9
$ANGBASE
 50
0.0
  9
$ANGDIR
 70
     0
  9
$PDMODE
 70
     0
  9
$PDSIZE
 40
-1.0
  9
$PLINEWID
 40
0.0
  9
$SPLFRAME
 70
     0
  9
$SPLINETYPE
 70
     6
  9
$SPLINESEGS
 70
     8
  9
$HANDSEED
  5
1E0
  9
$SURFTAB1
 70
     6
  9
$SURFTAB2
 70
     6
  9
$SURFTYPE
 70
     6
  9
$SURFU
 70
     6
  9
$SURFV
 70
     6
  9
$UCSBASE
  2

  9
$UCSNAME
  2

  9
$UCSORG
 10
0.0
 20
0.0
 30
0.0
  9
$UCSXDIR
 10
1.0
 20
0.0
 30
0.0
  9
$UCSYDIR
 10
0.0
 20
1.0
 30
0.0
  9
$UCSORTHOREF
  2

  9
$UCSORTHOVIEW
 70
     0
  9
$UCSORGTOP
 10
0.0
 20
0.0
 30
0.0
  9
$UCSORGBOTTOM
 10
0.0
 20
0.0
 30
0.0
  9
$UCSORGLEFT
 10
0.0
 20
0.0
 30
0.0
  9
$UCSORGRIGHT
 10
0.0
 20
0.0
 30
0.0
  9
$UCSORGFRONT
 10
0.0
 20
0.0
 30
0.0
  9
$UCSORGBACK
 10
0.0
 20
0.0
 30
0.0
  9
$PUCSBASE
  2

  9
$PUCSNAME
  2

  9
$PUCSORG
 10
0.0
 20
0.0
 30
0.0
  9
$PUCSXDIR
 10
1.0
 20
0.0
 30
0.0
  9
$PUCSYDIR
 10
0.0
 20
1.0
 30
0.0
  9
$PUCSORTHOREF
  2

  9
$PUCSORTHOVIEW
 70
     0
  9
$PUCSORGTOP
 10
0.0
 20
0.0
 30
0.0
  9
$PUCSORGBOTTOM
 10
0.0
 20
0.0
 30
0.0
  9
$PUCSORGLEFT
 10
0.0
 20
0.0
 30
0.0
  9
$PUCSORGRIGHT
 10
0.0
 20
0.0
 30
0.0
  9
$PUCSORGFRONT
 10
0.0
 20
0.0
 30
0.0
  9
$PUCSORGBACK
 10
0.0
 20
0.0
 30
0.0
  9
$USERI1
 70
     0
  9
$USERI2
 70
     0
  9
$USERI3
 70
     0
  9
$USERI4
 70
     0
  9
$USERI5
 70
     0
  9
$USERR1
 40
0.0
  9
$USERR2
 40
0.0
  9
$USERR3
 40
0.0
  9
$USERR4
 40
0.0
  9
$USERR5
 40
0.0
  9
$WORLDVIEW
 70
     1
  9
$SHADEDGE
 70
     3
  9
$SHADEDIF
 70
    70
  9
$TILEMODE
 70
     1
  9
$MAXACTVP
 70
    64
  9
$PINSBASE
 10
0.0
 20
0.0
 30
0.0
  9
$PLIMCHECK
 70
     0
  9
$PEXTMIN
 10
1.0000000000E+20
 20
1.0000000000E+20
 30
1.0000000000E+20
  9
$PEXTMAX
 10
-1.0000000000E+20
 20
-1.0000000000E+20
 30
-1.0000000000E+20
  9
$PLIMMIN
 10
0.0
 20
0.0
  9
$PLIMMAX
 10
420.0
 20
297.0
  9
$UNITMODE
 70
     0
  9
$VISRETAIN
 70
     1
  9
$PLINEGEN
 70
     0
  9
$PSLTSCALE
 70
     1
  9
$TREEDEPTH
 70
  3020
  9
$CMLSTYLE
  2
Standard
  9
$CMLJUST
 70
     0
  9
$CMLSCALE
 40
20.0
  9
$PROXYGRAPHICS
 70
     1
  9
$MEASUREMENT
 70
     1
  9
$CELWEIGHT
370
    -1
  9
$ENDCAPS
280
     0
  9
$JOINSTYLE
280
     0
  9
$LWDISPLAY
290
     1
  9
$INSUNITS
 70
     4
  9
$HYPERLINKBASE
  1

  9
$STYLESHEET
  1

  9
$XEDIT
290
     1
  9
$CEPSNTYPE
380
     0
  9
$PSTYLEMODE
290
     1
  9
$FINGERPRINTGUID
  2
{E113D9A9-3FB2-42D1-9EF7-37312F364D71}
  9
$VERSIONGUID
  2
{FAEB1C32-E019-11D5-929B-00C0DF256EC4}
  9
$EXTNAMES
290
     1
  9
$PSVPSCALE
 40
0.0
  9
$OLESTARTUP
290
     0
  0
ENDSEC
  0
SECTION
  2
CLASSES
  0
CLASS
  1
ACDBDICTIONARYWDFLT
  2
AcDbDictionaryWithDefault
  3
ObjectDBX Classes
 90
        0
280
     0
281
     0
  0
CLASS
  1
VISUALSTYLE
  2
AcDbVisualStyle
  3
ObjectDBX Classes
 90
     4095
280
     0
281
     0
  0
CLASS
  1
MATERIAL
  2
AcDbMaterial
  3
ObjectDBX Classes
 90
     1153
280
     0
281
     0
  0
CLASS
  1
SCALE
  2
AcDbScale
  3
ObjectDBX Classes
 90
     1153
280
     0
281
     0
  0
CLASS
  1
TABLESTYLE
  2
AcDbTableStyle
  3
ObjectDBX Classes
 90
     4095
280
     0
281
     0
  0
CLASS
  1
MLEADERSTYLE
  2
AcDbMLeaderStyle
  3
ACDB_MLEADERSTYLE_CLASS
 90
     4095
280
     0
281
     0
  0
CLASS
  1
SUN
  2
AcDbSun
  3
SCENEOE
 90
     1153
280
     0
281
     0
  0
CLASS
  1
ACDBPLACEHOLDER
  2
AcDbPlaceHolder
  3
ObjectDBX Classes
 90
        0
280
     0
281
     0
  0
CLASS
  1
LAYOUT
  2
AcDbLayout
  3
ObjectDBX Classes
 90
        0
280
     0
281
     0
  0
ENDSEC
  0
SECTION
  2
TABLES
  0
TABLE
  2
VPORT
  5
8
330
0
100
AcDbSymbolTable
 70
     1
  0
VPORT
  5
29
330
8
100
AcDbSymbolTableRecord
100
AcDbViewportTableRecord
  2
*Active
 70
     0
 10
0.0
 20
0.0
 11
1.0
 21
1.0
 12
148.5
 22
105.0
 13
0.0
 23
0.0
 14
10.0
 24
10.0
 15
10.0
 25
10.0
 16
0.0
 26
0.0
 36
1.0
 17
0.0
 27
0.0
 37
0.0
 40
210.0
 41
1.4142857143
 42
50.0
 43
0.0
 44
0.0
 50
0.0
 51
0.0
 71
     0
 72
  2000
 73
     1
 74
     3
 75
     0
 76
     0
 77
     0
 78
     0
281
     0
 65
     1
110
0.0
120
0.0
130
0.0
111
1.0
121
0.0
131
0.0
112
0.0
122
1.0
132
0.0
 79
     0
146
0.0
  0
ENDTAB
  0
TABLE
  2
LTYPE
  5
5
330
0
100
AcDbSymbolTable
 70
     6
  0
LTYPE
  5
14
330
5
100
AcDbSymbolTableRecord
100
AcDbLinetypeTableRecord
  2
ByBlock
 70
     0
  3

 72
    65
 73
     0
 40
0.0
  0
LTYPE
  5
15
330
5
100
AcDbSymbolTableRecord
100
AcDbLinetypeTableRecord
  2
ByLayer
 70
     0
  3

 72
    65
 73
     0
 40
0.0
  0
LTYPE
  5
16
330
5
100
AcDbSymbolTableRecord
100
AcDbLinetypeTableRecord
  2
Continuous
 70
     0
  3
Solid line
 72
    65
 73
     0
 40
0.0
  0
LTYPE
  5
6E
330
5
100
AcDbSymbolTableRecord
100
AcDbLinetypeTableRecord
  2
HIDDEN
 70
     0
  3
Hidden __ __ __ __ __ __ __ __ __ __ __ __ __ __
 72
    65
 73
     2
 40
1.905
 49
1.27
 74
     0
 49
-0.635
 74
     0
  0
LTYPE
  5
6F
330
5
100
AcDbSymbolTableRecord
100
AcDbLinetypeTableRecord
  2
PHANTOM
 70
     0
  3
Phantom ______  __  __  ______  __  __  ______
 72
    65
 73
     6
 40
12.7
 49
6.35
 74
     0
 49
-1.27
 74
     0
 49
1.27
 74
     0
 49
-1.27
 74
     0
 49
1.27
 74
     0
 49
-1.27
 74
     0
  0
LTYPE
  5
70
330
5
100
AcDbSymbolTableRecord
100
AcDbLinetypeTableRecord
  2
CENTER
 70
     0
  3
Center ____ _ ____ _ ____ _ ____ _ ____ _ ____
 72
    65
 73
     4
 40
10.16
 49
6.35
 74
     0
 49
-1.27
 74
     0
 49
1.27
 74
     0
 49
-1.27
 74
     0
  0
LTYPE
  5
71
330
5
100
AcDbSymbolTableRecord
100
AcDbLinetypeTableRecord
  2
CENTERX2
 70
     0
  3
Center (2x) ________  __  ________  __  _____
 72
    65
 73
     4
 40
20.32
 49
12.7
 74
     0
 49
-2.54
 74
     0
 49
2.54
 74
     0
 49
-2.54
 74
     0
  0
LTYPE
  5
72
330
5
100
AcDbSymbolTableRecord
100
AcDbLinetypeTableRecord
  2
DOT2
 70
     0
  3
Dot (.5x) ........................................
 72
    65
 73
     2
 40
0.635
 49
0.0
 74
     0
 49
-0.635
 74
     0
  0
ENDTAB
  0
TABLE
  2
LAYER
  5
2
330
0
100
AcDbSymbolTable
 70
     5
  0
LAYER
  5
10
330
2
100
AcDbSymbolTableRecord
100
AcDbLayerTableRecord
  2
0
 70
     0
 62
     7
  6
Continuous
370
    -3
390
F
  0
LAYER
  5
73
330
2
100
AcDbSymbolTableRecord
100
AcDbLayerTableRecord
  2
FORMAT
 70
     0
 62
     7
  6
Continuous
370
    -3
390
F
  0
LAYER
  5
74
330
2
100
AcDbSymbolTableRecord
100
AcDbLayerTableRecord
  2
VERMASSUNG
 70
     0
 62
     7
  6
Continuous
370
    -3
390
F
  0
LAYER
  5
75
330
2
100
AcDbSymbolTableRecord
100
AcDbLayerTableRecord
  2
KOPF_DÜNN
 70
     0
 62
     7
  6
Continuous
370
    -3
390
F
  0
LAYER
  5
76
330
2
100
AcDbSymbolTableRecord
100
AcDbLayerTableRecord
  2
KOPF_DICK
 70
     0
 62
     7
  6
Continuous
370
    15
390
F
  0
ENDTAB
  0
TABLE
  2
STYLE
  5
3
330
0
100
AcDbSymbolTable
 70
     3
  0
STYLE
  5
11
330
3
100
AcDbSymbolTableRecord
100
AcDbTextStyleTableRecord
  2
Standard
 70
     0
 40
0.0
 41
1.0
 50
0.0
 71
     0
 42
2.0
  3
txt
  4

  0
STYLE
  5
77
330
3
100
AcDbSymbolTableRecord
100
AcDbTextStyleTableRecord
  2
SLDTEXTSTYLE0
 70
     0
 40
0.0
 41
0.7
 50
0.0
 71
     0
 42
2.0
  3
TXT
  4

  0
STYLE
  5
7B
330
3
100
AcDbSymbolTableRecord
100
AcDbTextStyleTableRecord
  2
SLDTEXTSTYLE1
 70
     0
 40
0.0
 41
0.6538461538
 50
0.0
 71
     0
 42
2.0
  3
TXT
  4

  0
ENDTAB
  0
TABLE
  2
VIEW
  5
6
330
0
100
AcDbSymbolTable
 70
     0
  0
ENDTAB
  0
TABLE
  2
UCS
  5
7
330
0
100
AcDbSymbolTable
 70
     0
  0
ENDTAB
  0
TABLE
  2
APPID
  5
9
330
0
100
AcDbSymbolTable
 70
     1
  0
APPID
  5
12
330
9
100
AcDbSymbolTableRecord
100
AcDbRegAppTableRecord
  2
ACAD
 70
     0
  0
ENDTAB
  0
TABLE
  2
DIMSTYLE
  5
A
330
0
100
AcDbSymbolTable
 70
     2
100
AcDbDimStyleTable
  0
DIMSTYLE
105
27
330
A
100
AcDbSymbolTableRecord
100
AcDbDimStyleTableRecord
  2
ISO-25
 70
     0
 41
2.5
 42
0.625
 43
3.75
 44
1.25
 73
     0
 74
     0
 77
     1
 78
     8
140
2.5
141
2.5
143
0.0393700787
147
0.625
171
     3
172
     1
178
     0
271
     2
272
     2
274
     3
278
    44
283
     0
284
     8
340
11
  0
DIMSTYLE
105
118
102
{ACAD_REACTORS
330
117
330
123
330
12F
330
13B
330
145
330
151
102
}
330
A
100
AcDbSymbolTableRecord
100
AcDbDimStyleTableRecord
  2
SLDDIMSTYLE0
 70
     0
 41
3.0
 44
0.0
 45
0.000000001
 73
     0
 74
     0
 77
     1
 78
    12
 79
     3
140
2.0
147
0.5
173
     1
178
     0
271
     2
272
     3
276
     2
284
    12
340
77
  0
ENDTAB
  0
TABLE
  2
BLOCK_RECORD
  5
1
330
0
100
AcDbSymbolTable
 70
     7
  0
BLOCK_RECORD
  5
1F
330
1
100
AcDbSymbolTableRecord
100
AcDbBlockTableRecord
  2
*Model_Space
340
22
  0
BLOCK_RECORD
  5
1B
330
1
100
AcDbSymbolTableRecord
100
AcDbBlockTableRecord
  2
*Paper_Space
340
1E
  0
BLOCK_RECORD
  5
23
330
1
100
AcDbSymbolTableRecord
100
AcDbBlockTableRecord
  2
*Paper_Space0
340
26
  0
BLOCK_RECORD
  5
119
330
1
100
AcDbSymbolTableRecord
100
AcDbBlockTableRecord
  2
_D
340
0
  0
BLOCK_RECORD
  5
124
330
1
100
AcDbSymbolTableRecord
100
AcDbBlockTableRecord
  2
_D_1
340
0
  0
BLOCK_RECORD
  5
130
330
1
100
AcDbSymbolTableRecord
100
AcDbBlockTableRecord
  2
_D_2
340
0
  0
BLOCK_RECORD
  5
13C
330
1
100
AcDbSymbolTableRecord
100
AcDbBlockTableRecord
  2
_D_3
340
0
  0
BLOCK_RECORD
  5
146
330
1
100
AcDbSymbolTableRecord
100
AcDbBlockTableRecord
  2
_D_4
340
0
  0
BLOCK_RECORD
  5
152
330
1
100
AcDbSymbolTableRecord
100
AcDbBlockTableRecord
  2
_D_5
340
0
  0
ENDTAB
  0
ENDSEC
  0
SECTION
  2
BLOCKS
  0
BLOCK
  5
20
330
1F
100
AcDbEntity
  8
0
100
AcDbBlockBegin
  2
*Model_Space
 70
     0
 10
0.0
 20
0.0
 30
0.0
  3
*Model_Space
  1

  0
ENDBLK
  5
21
330
1F
100
AcDbEntity
  8
0
100
AcDbBlockEnd
  0
BLOCK
  5
1C
330
1B
100
AcDbEntity
 67
     1
  8
0
100
AcDbBlockBegin
  2
*Paper_Space
 70
     0
 10
0.0
 20
0.0
 30
0.0
  3
*Paper_Space
  1

  0
ENDBLK
  5
1D
330
1B
100
AcDbEntity
 67
     1
  8
0
100
AcDbBlockEnd
  0
BLOCK
  5
24
330
23
100
AcDbEntity
  8
0
100
AcDbBlockBegin
  2
*Paper_Space0
 70
     0
 10
0.0
 20
0.0
 30
0.0
  3
*Paper_Space0
  1

  0
ENDBLK
  5
25
330
23
100
AcDbEntity
  8
0
100
AcDbBlockEnd
  0
BLOCK
  5
11A
330
119
100
AcDbEntity
  8
0
100
AcDbBlockBegin
  2
_D
 70
     0
 10
0.0
 20
0.0
 30
0.0
  3
_D
  1

  0
SOLID
  5
11C
330
119
100
AcDbEntity
  8
VERMASSUNG
100
AcDbTrace
 10
236.220697654
 20
121.1368001871
 30
0.0
 11
235.770697654
 21
118.1368001871
 31
0.0
 12
236.670697654
 22
118.1368001871
 32
0.0
 13
236.670697654
 23
118.1368001871
 33
0.0
  0
SOLID
  5
11D
330
119
100
AcDbEntity
  8
VERMASSUNG
100
AcDbTrace
 10
236.220697654
 20
107.1368001871
 30
0.0
 11
236.670697654
 21
110.1368001871
 31
0.0
 12
235.770697654
 22
110.1368001871
 32
0.0
 13
235.770697654
 23
110.1368001871
 33
0.0
  0
LINE
  5
11E
330
119
100
AcDbEntity
  8
VERMASSUNG
100
AcDbLine
 10
222.3203282103
 20
121.1368001871
 30
0.0
 11
237.220697654
 21
121.1368001871
 31
0.0
  0
LINE
  5
11F
330
119
100
AcDbEntity
  8
VERMASSUNG
100
AcDbLine
 10
222.3203282103
 20
107.1368001871
 30
0.0
 11
237.220697654
 21
107.1368001871
 31
0.0
  0
LINE
  5
120
330
119
100
AcDbEntity
  8
VERMASSUNG
100
AcDbLine
 10
236.220697654
 20
121.1368001871
 30
0.0
 11
236.220697654
 21
107.1368001871
 31
0.0
  0
MTEXT
  5
121
330
119
100
AcDbEntity
  8
VERMASSUNG
100
AcDbMText
 10
233.6425621163
 20
111.0329958616
 30
0.0
 40
2.0
 41
0.0
 71
     1
 72
     1
  1
%%c
  7
SLDTEXTSTYLE0
 11
-7.044195017643634E-15
 21
1.0
 31
0.0
 73
     1
 44
1.0
  0
MTEXT
  5
122
330
119
100
AcDbEntity
  8
VERMASSUNG
100
AcDbMText
 10
233.6425620581
 20
114.6419680553
 30
0.0
 40
2.0
 41
0.0
 71
     1
 72
     1
  1
14
  7
SLDTEXTSTYLE0
 11
-7.044195017643634E-15
 21
1.0
 31
0.0
 73
     1
 44
1.0
  0
ENDBLK
  5
11B
330
119
100
AcDbEntity
  8
0
100
AcDbBlockEnd
  0
BLOCK
  5
125
330
124
100
AcDbEntity
  8
0
100
AcDbBlockBegin
  2
_D_1
 70
     0
 10
0.0
 20
0.0
 30
0.0
  3
_D_1
  1

  0
SOLID
  5
127
330
124
100
AcDbEntity
  8
VERMASSUNG
100
AcDbTrace
 10
242.420697654
 20
126.6368001871
 30
0.0
 11
241.970697654
 21
123.6368001871
 31
0.0
 12
242.870697654
 22
123.6368001871
 32
0.0
 13
242.870697654
 23
123.6368001871
 33
0.0
  0
SOLID
  5
128
330
124
100
AcDbEntity
  8
VERMASSUNG
100
AcDbTrace
 10
242.420697654
 20
101.6368001871
 30
0.0
 11
242.870697654
 21
104.6368001871
 31
0.0
 12
241.970697654
 22
104.6368001871
 32
0.0
 13
241.970697654
 23
104.6368001871
 33
0.0
  0
LINE
  5
129
330
124
100
AcDbEntity
  8
VERMASSUNG
100
AcDbLine
 10
229.0203282103
 20
126.6368001871
 30
0.0
 11
243.420697654
 21
126.6368001871
 31
0.0
  0
LINE
  5
12A
330
124
100
AcDbEntity
  8
VERMASSUNG
100
AcDbLine
 10
229.0203282103
 20
101.6368001871
 30
0.0
 11
243.420697654
 21
101.6368001871
 31
0.0
  0
LINE
  5
12B
330
124
100
AcDbEntity
  8
VERMASSUNG
100
AcDbLine
 10
242.420697654
 20
126.6368001871
 30
0.0
 11
242.420697654
 21
101.6368001871
 31
0.0
  0
MTEXT
  5
12C
330
124
100
AcDbEntity
  8
VERMASSUNG
100
AcDbMText
 10
239.6425623978
 20
108.0328722777
 30
0.0
 40
2.0
 41
0.0
 71
     1
 72
     1
  1
ST2
  7
SLDTEXTSTYLE0
 11
-7.044195017643634E-15
 21
1.0
 31
0.0
 73
     1
 44
1.0
  0
MTEXT
  5
12D
330
124
100
AcDbEntity
  8
VERMASSUNG
100
AcDbMText
 10
239.8425623491
 20
113.8328722039
 30
0.0
 40
2.0
 41
0.0
 71
     1
 72
     1
  1
%%c
  7
SLDTEXTSTYLE0
 11
-7.044195017643634E-15
 21
1.0
 31
0.0
 73
     1
 44
1.0
  0
MTEXT
  5
12E
330
124
100
AcDbEntity
  8
VERMASSUNG
100
AcDbMText
 10
239.8425620581
 20
117.4413480759
 30
0.0
 40
2.0
 41
0.0
 71
     1
 72
     1
  1
25
  7
SLDTEXTSTYLE0
 11
-7.044195017643634E-15
 21
1.0
 31
0.0
 73
     1
 44
1.0
  0
ENDBLK
  5
126
330
124
100
AcDbEntity
  8
0
100
AcDbBlockEnd
  0
BLOCK
  5
131
330
130
100
AcDbEntity
  8
0
100
AcDbBlockBegin
  2
_D_2
 70
     0
 10
0.0
 20
0.0
 30
0.0
  3
_D_2
  1

  0
ARC
  5
133
330
130
100
AcDbEntity
  8
VERMASSUNG
100
AcDbCircle
 10
217.5318240908
 20
170.1361431325
 30
0.0
 40
4.247059938537323
100
AcDbArc
 50
153.4349488229
 51
206.5650511771
  0
ARC
  5
134
330
130
100
AcDbEntity
  8
VERMASSUNG
100
AcDbCircle
 10
215.9088323298
 20
170.1361431325
 30
0.0
 40
4.247059938537323
100
AcDbArc
 50
333.4349488229
 51
26.5650511771
  0
SOLID
  5
135
330
130
100
AcDbEntity
  8
VERMASSUNG
100
AcDbTrace
 10
204.2203282103
 20
168.2368001871
 30
0.0
 11
207.2203282103
 21
167.7868001871
 31
0.0
 12
207.2203282103
 22
168.6868001871
 32
0.0
 13
207.2203282103
 23
168.6868001871
 33
0.0
  0
SOLID
  5
136
330
130
100
AcDbEntity
  8
VERMASSUNG
100
AcDbTrace
 10
229.2203282103
 20
168.2368001871
 30
0.0
 11
226.2203282103
 21
168.6868001871
 31
0.0
 12
226.2203282103
 22
167.7868001871
 32
0.0
 13
226.2203282103
 23
167.7868001871
 33
0.0
  0
LINE
  5
137
330
130
100
AcDbEntity
  8
VERMASSUNG
100
AcDbLine
 10
204.2203282103
 20
163.1368001871
 30
0.0
 11
204.2203282103
 21
169.2368001871
 31
0.0
  0
LINE
  5
138
330
130
100
AcDbEntity
  8
VERMASSUNG
100
AcDbLine
 10
229.2203282103
 20
126.4368001871
 30
0.0
 11
229.2203282103
 21
169.2368001871
 31
0.0
  0
LINE
  5
139
330
130
100
AcDbEntity
  8
VERMASSUNG
100
AcDbLine
 10
204.2203282103
 20
168.2368001871
 30
0.0
 11
229.2203282103
 21
168.2368001871
 31
0.0
  0
MTEXT
  5
13A
330
130
100
AcDbEntity
  8
VERMASSUNG
100
AcDbMText
 10
215.3206382
 20
170.814935783
 30
0.0
 40
2.0
 41
0.0
 71
     1
 72
     1
  1
25
  7
SLDTEXTSTYLE0
 73
     1
 44
1.0
  0
ENDBLK
  5
132
330
130
100
AcDbEntity
  8
0
100
AcDbBlockEnd
  0
BLOCK
  5
13D
330
13C
100
AcDbEntity
  8
0
100
AcDbBlockBegin
  2
_D_3
 70
     0
 10
0.0
 20
0.0
 30
0.0
  3
_D_3
  1

  0
SOLID
  5
13F
330
13C
100
AcDbEntity
  8
VERMASSUNG
100
AcDbTrace
 10
166.2203282103
 20
174.2368001871
 30
0.0
 11
169.2203282103
 21
173.7868001871
 31
0.0
 12
169.2203282103
 22
174.6868001871
 32
0.0
 13
169.2203282103
 23
174.6868001871
 33
0.0
  0
SOLID
  5
140
330
13C
100
AcDbEntity
  8
VERMASSUNG
100
AcDbTrace
 10
229.2203282103
 20
174.2368001871
 30
0.0
 11
226.2203282103
 21
174.6868001871
 31
0.0
 12
226.2203282103
 22
173.7868001871
 32
0.0
 13
226.2203282103
 23
173.7868001871
 33
0.0
  0
LINE
  5
141
330
13C
100
AcDbEntity
  8
VERMASSUNG
100
AcDbLine
 10
166.2203282103
 20
149.0618001871
 30
0.0
 11
166.2203282103
 21
175.2368001871
 31
0.0
  0
LINE
  5
142
330
13C
100
AcDbEntity
  8
VERMASSUNG
100
AcDbLine
 10
229.2203282103
 20
126.4368001871
 30
0.0
 11
229.2203282103
 21
175.2368001871
 31
0.0
  0
LINE
  5
143
330
13C
100
AcDbEntity
  8
VERMASSUNG
100
AcDbLine
 10
166.2203282103
 20
174.2368001871
 30
0.0
 11
229.2203282103
 21
174.2368001871
 31
0.0
  0
MTEXT
  5
144
330
13C
100
AcDbEntity
  8
VERMASSUNG
100
AcDbMText
 10
196.3206382
 20
176.814935783
 30
0.0
 40
2.0
 41
0.0
 71
     1
 72
     1
  1
63
  7
SLDTEXTSTYLE0
 73
     1
 44
1.0
  0
ENDBLK
  5
13E
330
13C
100
AcDbEntity
  8
0
100
AcDbBlockEnd
  0
BLOCK
  5
147
330
146
100
AcDbEntity
  8
0
100
AcDbBlockBegin
  2
_D_4
 70
     0
 10
0.0
 20
0.0
 30
0.0
  3
_D_4
  1

  0
ARC
  5
149
330
146
100
AcDbEntity
  8
VERMASSUNG
100
AcDbCircle
 10
146.0324935038
 20
182.1361431325
 30
0.0
 40
4.247059938537323
100
AcDbArc
 50
153.4349488229
 51
206.5650511771
  0
ARC
  5
14A
330
146
100
AcDbEntity
  8
VERMASSUNG
100
AcDbCircle
 10
147.6081629168
 20
182.1361431325
 30
0.0
 40
4.247059938537297
100
AcDbArc
 50
333.4349488229
 51
26.5650511771
  0
SOLID
  5
14B
330
146
100
AcDbEntity
  8
VERMASSUNG
100
AcDbTrace
 10
64.4203282103
 20
180.2368001871
 30
0.0
 11
67.4203282103
 21
179.7868001871
 31
0.0
 12
67.4203282103
 22
180.6868001871
 32
0.0
 13
67.4203282103
 23
180.6868001871
 33
0.0
  0
SOLID
  5
14C
330
146
100
AcDbEntity
  8
VERMASSUNG
100
AcDbTrace
 10
229.2203282103
 20
180.2368001871
 30
0.0
 11
226.2203282103
 21
180.6868001871
 31
0.0
 12
226.2203282103
 22
179.7868001871
 32
0.0
 13
226.2203282103
 23
179.7868001871
 33
0.0
  0
LINE
  5
14D
330
146
100
AcDbEntity
  8
VERMASSUNG
100
AcDbLine
 10
64.4203282103
 20
132.4864780478
 30
0.0
 11
64.4203282103
 21
181.2368001871
 31
0.0
  0
LINE
  5
14E
330
146
100
AcDbEntity
  8
VERMASSUNG
100
AcDbLine
 10
229.2203282103
 20
126.4368001871
 30
0.0
 11
229.2203282103
 21
181.2368001871
 31
0.0
  0
LINE
  5
14F
330
146
100
AcDbEntity
  8
VERMASSUNG
100
AcDbLine
 10
64.4203282103
 20
180.2368001871
 30
0.0
 11
229.2203282103
 21
180.2368001871
 31
0.0
  0
MTEXT
  5
150
330
146
100
AcDbEntity
  8
VERMASSUNG
100
AcDbMText
 10
143.821307613
 20
182.814935783
 30
0.0
 40
2.0
 41
0.0
 71
     1
 72
     1
  1
164.8
  7
SLDTEXTSTYLE0
 73
     1
 44
1.0
  0
ENDBLK
  5
148
330
146
100
AcDbEntity
  8
0
100
AcDbBlockEnd
  0
BLOCK
  5
153
330
152
100
AcDbEntity
  8
0
100
AcDbBlockBegin
  2
_D_5
 70
     0
 10
0.0
 20
0.0
 30
0.0
  3
_D_5
  1

  0
SOLID
  5
155
330
152
100
AcDbEntity
  8
VERMASSUNG
100
AcDbTrace
 10
54.4203282103
 20
164.1368001871
 30
0.0
 11
53.9703282103
 21
161.1368001871
 31
0.0
 12
54.8703282103
 22
161.1368001871
 32
0.0
 13
54.8703282103
 23
161.1368001871
 33
0.0
  0
SOLID
  5
156
330
152
100
AcDbEntity
  8
VERMASSUNG
100
AcDbTrace
 10
54.4203282103
 20
64.1368001871
 30
0.0
 11
54.8703282103
 21
67.1368001871
 31
0.0
 12
53.9703282103
 22
67.1368001871
 32
0.0
 13
53.9703282103
 23
67.1368001871
 33
0.0
  0
LINE
  5
157
330
152
100
AcDbEntity
  8
VERMASSUNG
100
AcDbLine
 10
200.2203301188
 20
164.1368001871
 30
0.0
 11
53.4203282103
 21
164.1368001871
 31
0.0
  0
LINE
  5
158
330
152
100
AcDbEntity
  8
VERMASSUNG
100
AcDbLine
 10
200.2203302724
 20
64.1368001871
 30
0.0
 11
53.4203282103
 21
64.1368001871
 31
0.0
  0
LINE
  5
159
330
152
100
AcDbEntity
  8
VERMASSUNG
100
AcDbLine
 10
54.4203282103
 20
164.1368001871
 30
0.0
 11
54.4203282103
 21
64.1368001871
 31
0.0
  0
MTEXT
  5
15A
330
152
100
AcDbEntity
  8
VERMASSUNG
100
AcDbMText
 10
51.642192954
 20
103.0330339667
 30
0.0
 40
2.0
 41
0.0
 71
     1
 72
     1
  1
MAS BT 50
  7
SLDTEXTSTYLE0
 11
-7.044195017643634E-15
 21
1.0
 31
0.0
 73
     1
 44
1.0
  0
MTEXT
  5
15B
330
152
100
AcDbEntity
  8
VERMASSUNG
100
AcDbMText
 10
51.8421929053
 20
117.8330339712
 30
0.0
 40
2.0
 41
0.0
 71
     1
 72
     1
  1
%%c
  7
SLDTEXTSTYLE0
 11
-7.044195017643634E-15
 21
1.0
 31
0.0
 73
     1
 44
1.0
  0
MTEXT
  5
15C
330
152
100
AcDbEntity
  8
VERMASSUNG
100
AcDbMText
 10
51.8421926143
 20
121.4418805166
 30
0.0
 40
2.0
 41
0.0
 71
     1
 72
     1
  1
100
  7
SLDTEXTSTYLE0
 11
-7.044195017643634E-15
 21
1.0
 31
0.0
 73
     1
 44
1.0
  0
ENDBLK
  5
154
330
152
100
AcDbEntity
  8
0
100
AcDbBlockEnd
  0
ENDSEC
  0
SECTION
  2
ENTITIES
  0
MTEXT
  5
78
330
1F
100
AcDbEntity
  8
KOPF_DÜNN
100
AcDbMText
 10
13.8892156294
 20
23.8442973028
 30
0.0
 40
3.0
 41
0.0
 71
     1
 72
     1
  1
134.550.025.063
  7
SLDTEXTSTYLE0
 73
     1
 44
1.0
  0
MTEXT
  5
79
330
1F
100
AcDbEntity
  8
VERMASSUNG
100
AcDbMText
 10
13.9329988022
 20
28.8834360957
 30
0.0
 40
3.0
 41
0.0
 71
     1
 72
     1
  1
Aufnahme_Master shank ST2
  7
SLDTEXTSTYLE0
 73
     1
 44
1.0
  0
MTEXT
  5
7A
330
1F
100
AcDbEntity
  8
VERMASSUNG
100
AcDbMText
 10
98.8601118557
 20
13.8365368761
 30
0.0
 40
2.0
 41
0.0
 71
     1
 72
     1
  1
Datum: 06.06.2008
  7
SLDTEXTSTYLE0
 73
     1
 44
1.0
  0
MTEXT
  5
7C
330
1F
100
AcDbEntity
  8
VERMASSUNG
100
AcDbMText
 10
13.933048693
 20
18.0482802738
 30
0.0
 40
2.0
 41
0.0
 71
     1
 72
     1
  1
MAS BT 50 A/D
  7
SLDTEXTSTYLE1
 73
     1
 44
1.0
  0
MTEXT
  5
7D
330
1F
100
AcDbEntity
  8
VERMASSUNG
100
AcDbMText
 10
13.9808475933
 20
13.9090974274
 30
0.0
 40
2.0
 41
0.0
 71
     1
 72
     1
  1
Gewicht: 3755g
  7
SLDTEXTSTYLE0
 73
     1
 44
1.0
  0
LINE
  5
7E
330
1F
100
AcDbEntity
  8
0
  6
Continuous
 62
     7
370
    15
100
AcDbLine
 10
200.2200409836
 20
64.1368001871
 30
0.0
 11
203.2203282103
 21
64.1368001871
 31
0.0
  0
LINE
  5
7F
330
1F
100
AcDbEntity
  8
0
  6
Continuous
 62
     7
370
    15
100
AcDbLine
 10
203.2203282103
 20
164.1368001871
 30
0.0
 11
200.2198940294
 21
164.1368001871
 31
0.0
  0
ARC
  5
80
330
1F
100
AcDbEntity
  8
0
  6
Continuous
 62
     7
370
    15
100
AcDbCircle
 10
203.2203282103
 20
65.1368001871
 30
0.0
 40
1.0
100
AcDbArc
 50
270.0
 51
0.0
  0
ARC
  5
81
330
1F
100
AcDbEntity
  8
0
  6
Continuous
 62
     7
370
    15
100
AcDbCircle
 10
203.2203282103
 20
163.1368001871
 30
0.0
 40
1.0
100
AcDbArc
 50
0.0
 51
90.0
  0
ARC
  5
82
330
1F
100
AcDbEntity
  8
0
  6
Continuous
 62
     7
370
    15
100
AcDbCircle
 10
168.2203282103
 20
78.2118001871
 30
0.0
 40
1.0
100
AcDbArc
 50
38.722340444
 51
90.0
  0
ARC
  5
83
330
1F
100
AcDbEntity
  8
0
  6
Continuous
 62
     7
370
    15
100
AcDbCircle
 10
168.2203282103
 20
150.0618001871
 30
0.0
 40
1.0
100
AcDbArc
 50
270.0
 51
321.290895072
  0
LINE
  5
84
330
1F
100
AcDbEntity
  8
0
  6
Continuous
 62
     7
370
    15
100
AcDbLine
 10
166.2203282103
 20
79.2118001871
 30
0.0
 11
168.2203282103
 21
79.2118001871
 31
0.0
  0
LINE
  5
85
330
1F
100
AcDbEntity
  8
0
  6
Continuous
 62
     7
370
    15
100
AcDbLine
 10
168.2203282103
 20
149.0618001871
 30
0.0
 11
166.2203282103
 21
149.0618001871
 31
0.0
  0
LINE
  5
86
330
1F
100
AcDbEntity
  8
0
  6
Continuous
 62
     7
370
    15
100
AcDbLine
 10
166.2203282103
 20
149.0618001871
 30
0.0
 11
66.1317144242
 21
134.4655440099
 31
0.0
  0
LINE
  5
87
330
1F
100
AcDbEntity
  8
0
  6
Continuous
 62
     7
370
    15
100
AcDbLine
 10
66.1317144242
 20
93.8080563642
 30
0.0
 11
166.2203282103
 21
79.2118001871
 31
0.0
  0
ARC
  5
88
330
1F
100
AcDbEntity
  8
0
  6
Continuous
 62
     7
370
    15
100
AcDbCircle
 10
66.4203282103
 20
95.7871223264
 30
0.0
 40
2.000000000000006
100
AcDbArc
 50
180.0
 51
261.7028550302
  0
ARC
  5
89
330
1F
100
AcDbEntity
  8
0
  6
Continuous
 62
     7
370
    15
100
AcDbCircle
 10
66.4203282103
 20
132.4864780478
 30
0.0
 40
2.0
100
AcDbArc
 50
98.2971449698
 51
180.0
  0
ARC
  5
8A
330
1F
100
AcDbEntity
  8
0
  6
Continuous
 62
     7
370
    15
100
AcDbCircle
 10
208.2203282103
 20
97.6368001871
 30
0.0
 40
4.0
100
AcDbArc
 50
90.0
 51
180.0
  0
ARC
  5
8B
330
1F
100
AcDbEntity
  8
0
  6
Continuous
 62
     7
370
    15
100
AcDbCircle
 10
208.2203282103
 20
130.6368001871
 30
0.0
 40
4.0
100
AcDbArc
 50
180.0
 51
270.0
  0
LINE
  5
8C
330
1F
100
AcDbEntity
  8
0
  6
Continuous
 62
     7
370
    15
100
AcDbLine
 10
229.0203282103
 20
126.6368001871
 30
0.0
 11
208.2203282103
 21
126.6368001871
 31
0.0
  0
LINE
  5
8D
330
1F
100
AcDbEntity
  8
0
  6
Continuous
 62
     7
370
    15
100
AcDbLine
 10
208.2203282103
 20
101.6368001871
 30
0.0
 11
229.0203282103
 21
101.6368001871
 31
0.0
  0
LINE
  5
8E
330
1F
100
AcDbEntity
  8
0
  6
Continuous
 62
     7
370
    15
100
AcDbLine
 10
229.0203282103
 20
101.6368001871
 30
0.0
 11
229.2203282103
 21
101.8368001871
 31
0.0
  0
LINE
  5
8F
330
1F
100
AcDbEntity
  8
0
  6
Continuous
 62
     7
370
    15
100
AcDbLine
 10
229.2203282103
 20
126.4368001871
 30
0.0
 11
229.0203282103
 21
126.6368001871
 31
0.0
  0
SPLINE
  5
90
330
1F
100
AcDbEntity
  8
0
  6
Continuous
 62
     7
370
    15
100
AcDbSpline
210
0.0
220
0.0
230
1.0
 70
    24
 71
     3
 72
    11
 73
     7
 74
     0
 42
0.000000001
 43
0.00000001
 40
0.0
 40
0.0
 40
0.0
 40
0.0
 40
0.1285561766306814
 40
0.4801535797842846
 40
0.8150691831754918
 40
0.9999999999999999
 40
0.9999999999999999
 40
0.9999999999999999
 40
0.9999999999999999
 10
223.392016046791
 20
112.8868001870801
 30
0.0
 10
223.3338870547993
 20
112.8868001870801
 30
0.0
 10
223.1167769607877
 20
112.8868001870801
 30
0.0
 10
222.7096469084931
 20
112.8868001870801
 30
0.0
 10
222.2688109415001
 20
112.8868001870801
 30
0.0
 10
222.0326518904963
 20
112.8868001870801
 30
0.0
 10
221.9486403738169
 20
112.8868001870801
 30
0.0
  0
SPLINE
  5
91
330
1F
100
AcDbEntity
  8
0
  6
Continuous
 62
     7
370
    15
100
AcDbSpline
210
0.0
220
0.0
230
1.0
 70
    24
 71
     3
 72
    10
 73
     6
 74
     0
 42
0.000000001
 43
0.00000001
 40
0.0
 40
0.0
 40
0.0
 40
0.0
 40
0.4391119879276911
 40
0.7513633230734758
 40
1.0
 40
1.0
 40
1.0
 40
1.0
 10
224.113703883278
 20
114.1368001870801
 30
0.0
 10
224.0103898690497
 20
113.9578550653028
 30
0.0
 10
223.8336095415142
 20
113.6516625562326
 30
0.0
 10
223.5766264196141
 20
113.2065547324139
 30
0.0
 10
223.4487171088446
 20
112.9850093074002
 30
0.0
 10
223.392016046791
 20
112.8868001870801
 30
0.0
  0
SPLINE
  5
92
330
1F
100
AcDbEntity
  8
0
  6
Continuous
 62
     7
370
    15
100
AcDbSpline
210
0.0
220
0.0
230
1.0
 70
    24
 71
     3
 72
    10
 73
     6
 74
     0
 42
0.000000001
 43
0.00000001
 40
0.0
 40
0.0
 40
0.0
 40
0.0
 40
0.4391119879276947
 40
0.7513633230734872
 40
1.0
 40
1.0
 40
1.0
 40
1.0
 10
223.392016046791
 20
115.3868001870801
 30
0.0
 10
223.4953300610193
 20
115.2078550653028
 30
0.0
 10
223.6721103885549
 20
114.9016625562325
 30
0.0
 10
223.9290935104549
 20
114.4565547324139
 30
0.0
 10
224.0570028212243
 20
114.2350093074002
 30
0.0
 10
224.113703883278
 20
114.1368001870801
 30
0.0
  0
SPLINE
  5
93
330
1F
100
AcDbEntity
  8
0
  6
Continuous
 62
     7
370
    15
100
AcDbSpline
210
0.0
220
0.0
230
1.0
 70
    24
 71
     3
 72
    11
 73
     7
 74
     0
 42
0.000000001
 43
0.00000001
 40
0.0
 40
0.0
 40
0.0
 40
0.0
 40
0.1849308168245047
 40
0.5198464202157134
 40
0.871443823369318
 40
1.0
 40
1.0
 40
1.0
 40
1.0
 10
221.9486403738169
 20
115.3868001870801
 30
0.0
 10
222.0326518904963
 20
115.3868001870801
 30
0.0
 10
222.2688109415001
 20
115.3868001870801
 30
0.0
 10
222.7096469084931
 20
115.3868001870801
 30
0.0
 10
223.1167769607877
 20
115.3868001870801
 30
0.0
 10
223.3338870547993
 20
115.3868001870801
 30
0.0
 10
223.392016046791
 20
115.3868001870801
 30
0.0
  0
SPLINE
  5
94
330
1F
100
AcDbEntity
  8
0
  6
Continuous
 62
     7
370
    15
100
AcDbSpline
210
0.0
220
0.0
230
1.0
 70
    24
 71
     3
 72
    10
 73
     6
 74
     0
 42
0.000000001
 43
0.00000001
 40
0.0
 40
0.0
 40
0.0
 40
0.0
 40
0.4391119879276908
 40
0.7513633230734796
 40
1.0
 40
1.0
 40
1.0
 40
1.0
 10
221.9486403738169
 20
112.8868001870801
 30
0.0
 10
221.8453263595886
 20
113.0657453088574
 30
0.0
 10
221.6685460320531
 20
113.3719378179276
 30
0.0
 10
221.411562910153
 20
113.8170456417463
 30
0.0
 10
221.2836535993836
 20
114.03859106676
 30
0.0
 10
221.2269525373299
 20
114.1368001870801
 30
0.0
  0
CIRCLE
  5
95
330
1F
100
AcDbEntity
  8
0
  6
Continuous
 62
     7
370
    15
100
AcDbCircle
 10
222.6703282103
 20
114.1368001871
 30
0.0
 40
1.5
  0
SPLINE
  5
96
330
1F
100
AcDbEntity
  8
0
  6
Continuous
 62
     7
370
    15
100
AcDbSpline
210
0.0
220
0.0
230
1.0
 70
    24
 71
     3
 72
    10
 73
     6
 74
     0
 42
0.000000001
 43
0.00000001
 40
0.0
 40
0.0
 40
0.0
 40
0.0
 40
0.4391119879276965
 40
0.7513633230734765
 40
1.0
 40
1.0
 40
1.0
 40
1.0
 10
221.2269525373299
 20
114.1368001870801
 30
0.0
 10
221.3302665515582
 20
114.3157453088574
 30
0.0
 10
221.5070468790938
 20
114.6219378179276
 30
0.0
 10
221.7640300009938
 20
115.0670456417463
 30
0.0
 10
221.8919393117633
 20
115.28859106676
 30
0.0
 10
221.9486403738169
 20
115.3868001870801
 30
0.0
  0
CIRCLE
  5
97
330
1F
100
AcDbEntity
  8
0
  6
Continuous
 62
     7
370
    15
100
AcDbCircle
 10
222.6703282103
 20
114.1368001871
 30
0.0
 40
2.25
  0
CIRCLE
  5
98
330
1F
100
AcDbEntity
  8
0
  6
Continuous
 62
     7
370
    15
100
AcDbCircle
 10
222.6703282103
 20
114.1368001871
 30
0.0
 40
2.5
  0
ARC
  5
99
330
1F
100
AcDbEntity
  8
0
  6
Continuous
 62
     7
370
    15
100
AcDbCircle
 10
222.6703282103
 20
114.1368001871
 30
0.0
 40
1.25
100
AcDbArc
 50
210.0
 51
270.0
  0
ARC
  5
9A
330
1F
100
AcDbEntity
  8
0
  6
Continuous
 62
     7
370
    15
100
AcDbCircle
 10
222.6703282103
 20
114.1368001871
 30
0.0
 40
1.250000000000004
100
AcDbArc
 50
150.0
 51
210.0
  0
ARC
  5
9B
330
1F
100
AcDbEntity
  8
0
  6
Continuous
 62
     7
370
    15
100
AcDbCircle
 10
222.6703282103
 20
114.1368001871
 30
0.0
 40
1.250000000000004
100
AcDbArc
 50
90.0
 51
150.0
  0
ARC
  5
9C
330
1F
100
AcDbEntity
  8
0
  6
Continuous
 62
     7
370
    15
100
AcDbCircle
 10
222.6703282103
 20
114.1368001871
 30
0.0
 40
1.25
100
AcDbArc
 50
30.0
 51
90.0
  0
ARC
  5
9D
330
1F
100
AcDbEntity
  8
0
  6
Continuous
 62
     7
370
    15
100
AcDbCircle
 10
222.6703282103
 20
114.1368001871
 30
0.0
 40
1.24999999999998
100
AcDbArc
 50
330.0
 51
30.0
  0
ARC
  5
9E
330
1F
100
AcDbEntity
  8
0
  6
Continuous
 62
     7
370
    15
100
AcDbCircle
 10
222.6703282103
 20
114.1368001871
 30
0.0
 40
1.25
100
AcDbArc
 50
270.0
 51
330.0
  0
SPLINE
  5
9F
330
1F
100
AcDbEntity
  8
0
  6
Continuous
 62
     7
370
    15
100
AcDbSpline
210
0.0
220
0.0
230
1.0
 70
     8
 71
     3
 72
    12
 73
     8
 74
     0
 42
0.000000001
 43
0.00000001
 40
0.0
 40
0.0
 40
0.0
 40
0.0
 40
0.5000000000000001
 40
0.5000000000000001
 40
0.75
 40
0.75
 40
1.0
 40
1.0
 40
1.0
 40
1.0
 10
196.3046078751474
 20
162.3428471387811
 30
0.0
 10
195.7657111800498
 20
161.28514732128
 30
0.0
 10
195.2033803693302
 20
160.1827788863214
 30
0.0
 10
194.3347141267398
 20
158.4828142799586
 30
0.0
 10
194.0403854043972
 20
157.90729586452
 30
0.0
 10
193.4468544054294
 20
156.7478671960615
 30
0.0
 10
193.147628147311
 20
156.1639075269802
 30
0.0
 10
192.8461412990576
 20
155.5761975663914
 30
0.0
  0
SPLINE
  5
A0
330
1F
100
AcDbEntity
  8
0
  6
Continuous
 62
     7
370
    15
100
AcDbSpline
210
0.0
220
0.0
230
1.0
 70
     8
 71
     3
 72
     9
 73
     5
 74
     0
 42
0.000000001
 43
0.00000001
 40
0.0
 40
0.0
 40
0.0
 40
0.0
 40
0.504794330390352
 40
1.0
 40
1.0
 40
1.0
 40
1.0
 10
196.9453046157161
 20
163.2969054371675
 30
0.0
 10
196.8369221812154
 20
163.1360638758782
 30
0.0
 10
196.6222160564122
 20
162.8174359682215
 30
0.0
 10
196.4097886276007
 20
162.5000617416337
 30
0.0
 10
196.3045933604726
 20
162.3428962252395
 30
0.0
  0
LINE
  5
A1
330
1F
100
AcDbEntity
  8
0
  6
Continuous
 62
     7
370
    15
100
AcDbLine
 10
196.9453282103
 20
64.9766389018
 30
0.0
 11
196.9453282103
 21
163.2969614724
 31
0.0
  0
SPLINE
  5
A2
330
1F
100
AcDbEntity
  8
0
  6
Continuous
 62
     7
370
    15
100
AcDbSpline
210
0.0
220
0.0
230
1.0
 70
     8
 71
     3
 72
     9
 73
     5
 74
     0
 42
0.000000001
 43
0.00000001
 40
0.0
 40
0.0
 40
0.0
 40
0.0
 40
0.4952056715554214
 40
1.0
 40
1.0
 40
1.0
 40
1.0
 10
196.3045933604726
 20
65.93070414892068
 30
0.0
 10
196.4097886280175
 20
65.77353863190235
 30
0.0
 10
196.6222160568361
 20
65.45616440530137
 30
0.0
 10
196.8369221816352
 20
65.13753649765613
 30
0.0
 10
196.9453046157161
 20
64.97669493699267
 30
0.0
  0
SPLINE
  5
A3
330
1F
100
AcDbEntity
  8
0
  6
Continuous
 62
     7
370
    15
100
AcDbSpline
210
0.0
220
0.0
230
1.0
 70
     8
 71
     3
 72
    12
 73
     8
 74
     0
 42
0.000000001
 43
0.00000001
 40
0.0
 40
0.0
 40
0.0
 40
0.0
 40
0.2499999999999993
 40
0.2499999999999993
 40
0.4999999999999986
 40
0.4999999999999986
 40
1.0
 40
1.0
 40
1.0
 40
1.0
 10
196.3046078429085
 20
65.93075329865486
 30
0.0
 10
196.0352703215396
 20
66.4593856873395
 30
0.0
 10
195.7595002041456
 20
67.0003103412862
 30
0.0
 10
195.1972399175398
 20
68.10236709564926
 30
0.0
 10
194.9101545441351
 20
68.6646639348861
 30
0.0
 10
194.0397281034158
 20
70.36805917020608
 30
0.0
 10
193.4477181072465
 20
71.52470594128818
 30
0.0
 10
192.8461412990576
 20
72.69740280776882
 30
0.0
  0
SPLINE
  5
A4
330
1F
100
AcDbEntity
  8
0
  6
Continuous
 62
     7
370
    15
100
AcDbSpline
210
0.0
220
0.0
230
1.0
 70
     8
 71
     3
 72
    12
 73
     8
 74
     0
 42
0.000000001
 43
0.00000001
 40
0.0
 40
0.0
 40
0.0
 40
0.0
 40
0.000512515335492
 40
0.2509311781568301
 40
0.5009716914398246
 40
0.7506335204405247
 40
1.0
 40
1.0
 40
1.0
 40
1.0
 10
200.2198940293738
 20
164.1366751448965
 30
0.0
 10
200.2200384860607
 20
164.1367168182138
 30
0.0
 10
200.2907655143548
 20
164.1571203728028
 30
0.0
 10
200.0475019540982
 20
164.085508741414
 30
0.0
 10
199.4419773398663
 20
163.9171555329432
 30
0.0
 10
198.4168136554432
 20
163.6398219424864
 30
0.0
 10
197.4356297882213
 20
163.4112031931625
 30
0.0
 10
196.945328210991
 20
163.2969614723979
 30
0.0
  0
SPLINE
  5
A5
330
1F
100
AcDbEntity
  8
0
  6
Continuous
 62
     7
370
    15
100
AcDbSpline
210
0.0
220
0.0
230
1.0
 70
     8
 71
     3
 72
    13
 73
     9
 74
     0
 42
0.000000001
 43
0.00000001
 40
0.0
 40
0.0
 40
0.0
 40
0.0
 40
0.249249238042121
 40
0.4988437701386194
 40
0.6658825660857411
 40
0.8320256711231946
 40
0.9994886337290221
 40
0.9999999999999999
 40
0.9999999999999999
 40
0.9999999999999999
 40
0.9999999999999999
 10
196.945328210991
 20
64.97663890176229
 30
0.0
 10
197.4365129344106
 20
64.8621513780723
 30
0.0
 10
198.4195628373506
 20
64.63301772695281
 30
0.0
 10
199.3186062621607
 20
64.38980797580263
 30
0.0
 10
199.8769311628463
 20
64.23587076841724
 30
0.0
 10
200.1426023875554
 20
64.15961720956697
 30
0.0
 10
200.2514966335713
 20
64.12770302524446
 30
0.0
 10
200.2201364537529
 20
64.13685593918736
 30
0.0
 10
200.2200409835801
 20
64.13688380351343
 30
0.0
  0
LINE
  5
A6
330
1F
100
AcDbEntity
  8
0
  6
Continuous
 62
     7
370
    15
100
AcDbLine
 10
169.2203282103
 20
67.1349119271
 30
0.0
 11
169.2203282103
 21
161.138688447
 31
0.0
  0
SPLINE
  5
A7
330
1F
100
AcDbEntity
  8
0
  6
Continuous
 62
     7
370
    15
100
AcDbSpline
210
0.0
220
0.0
230
1.0
 70
     8
 71
     3
 72
    12
 73
     8
 74
     0
 42
0.000000001
 43
0.00000001
 40
0.0
 40
0.0
 40
0.0
 40
0.0
 40
0.2500000000000004
 40
0.2500000000000004
 40
0.5000000000000009
 40
0.5000000000000009
 40
1.0
 40
1.0
 40
1.0
 40
1.0
 10
169.6064646303537
 20
162.0712339209514
 30
0.0
 10
169.5548345082439
 20
162.0150296502367
 30
0.0
 10
169.5063022752535
 20
161.9537402397163
 30
0.0
 10
169.4164771382956
 20
161.8192781656716
 30
0.0
 10
169.3747668650832
 20
161.7451590954288
 30
0.0
 10
169.268635484921
 20
161.5088514502604
 30
0.0
 10
169.220328210304
 20
161.3270279076104
 30
0.0
 10
169.220328210304
 20
161.1386884470213
 30
0.0
  0
SPLINE
  5
A8
330
1F
100
AcDbEntity
  8
0
  6
Continuous
 62
     7
370
    15
100
AcDbSpline
210
0.0
220
0.0
230
1.0
 70
     8
 71
     3
 72
     8
 73
     4
 74
     0
 42
0.000000001
 43
0.00000001
 40
0.0
 40
0.0
 40
0.0
 40
0.0
 40
1.0
 40
1.0
 40
1.0
 40
1.0
 10
170.220328210304
 20
162.2418916825445
 30
0.0
 10
169.9934339666042
 20
162.2418916825445
 30
0.0
 10
169.7755843206778
 20
162.1778795155757
 30
0.0
 10
169.6064646303537
 20
162.0712339209514
 30
0.0
  0
SPLINE
  5
A9
330
1F
100
AcDbEntity
  8
0
  6
Continuous
 62
     7
370
    15
100
AcDbSpline
210
0.0
220
0.0
230
1.0
 70
     8
 71
     3
 72
    10
 73
     6
 74
     0
 42
0.000000001
 43
0.00000001
 40
0.0
 40
0.0
 40
0.0
 40
0.0
 40
0.5
 40
0.5
 40
1.0
 40
1.0
 40
1.0
 40
1.0
 10
169.6064646303537
 20
66.20236645320884
 30
0.0
 10
169.6910752710844
 20
66.14901162459616
 30
0.0
 10
169.786309893191
 20
66.10644216264595
 30
0.0
 10
169.9963472523709
 20
66.04715982796499
 30
0.0
 10
170.106779157155
 20
66.03170869161573
 30
0.0
 10
170.220328210304
 20
66.03170869161573
 30
0.0
  0
SPLINE
  5
AA
330
1F
100
AcDbEntity
  8
0
  6
Continuous
 62
     7
370
    15
100
AcDbSpline
210
0.0
220
0.0
230
1.0
 70
     8
 71
     3
 72
    12
 73
     8
 74
     0
 42
0.000000001
 43
0.00000001
 40
0.0
 40
0.0
 40
0.0
 40
0.0
 40
0.2500000000000039
 40
0.2500000000000039
 40
0.5000000000000079
 40
0.5000000000000079
 40
1.0
 40
1.0
 40
1.0
 40
1.0
 10
169.6064646303537
 20
66.20236645320884
 30
0.0
 10
169.5548345082439
 20
66.25857072392348
 30
0.0
 10
169.5063022752535
 20
66.31986013444389
 30
0.0
 10
169.4164771382956
 20
66.45432220848859
 30
0.0
 10
169.3747668650832
 20
66.52844127873142
 30
0.0
 10
169.268635484921
 20
66.76474892389987
 30
0.0
 10
169.220328210304
 20
66.94657246654977
 30
0.0
 10
169.220328210304
 20
67.13491192713889
 30
0.0
  0
LINE
  5
AB
330
1F
100
AcDbEntity
  8
0
  6
Continuous
 62
     7
370
    15
100
AcDbLine
 10
204.2203282103
 20
65.1368001871
 30
0.0
 11
204.2203282103
 21
163.1368001871
 31
0.0
  0
LINE
  5
AC
330
1F
100
AcDbEntity
  8
0
  6
Continuous
 62
     7
370
    15
100
AcDbLine
 10
181.8953282103
 20
162.2418916825
 30
0.0
 11
170.2203282103
 21
162.2418916825
 31
0.0
  0
LINE
  5
AD
330
1F
100
AcDbEntity
  8
0
  6
Continuous
 62
     7
370
    15
100
AcDbLine
 10
181.8953282103
 20
66.0317086916
 30
0.0
 11
181.8953282103
 21
162.2418916825
 31
0.0
  0
LINE
  5
AE
330
1F
100
AcDbEntity
  8
0
  6
Continuous
 62
     7
370
    15
100
AcDbLine
 10
170.2203282103
 20
66.0317086916
 30
0.0
 11
181.8953282103
 21
66.0317086916
 31
0.0
  0
SPLINE
  5
AF
330
1F
100
AcDbEntity
  8
0
  6
Continuous
 62
     7
370
    15
100
AcDbSpline
210
0.0
220
0.0
230
1.0
 70
     8
 71
     3
 72
     8
 73
     4
 74
     0
 42
0.000000001
 43
0.00000001
 40
0.0
 40
0.0
 40
0.0
 40
0.0
 40
0.0012417047560384
 40
0.0012417047560384
 40
0.0012417047560384
 40
0.0012417047560384
 10
182.4528972468317
 20
161.4573703410011
 30
0.0
 10
182.2675086955372
 20
161.7190434265496
 30
0.0
 10
182.0816424499293
 20
161.9805475354272
 30
0.0
 10
181.8953282103039
 20
162.2418916825445
 30
0.0
  0
SPLINE
  5
B0
330
1F
100
AcDbEntity
  8
0
  6
Continuous
 62
     7
370
    15
100
AcDbSpline
210
0.0
220
0.0
230
1.0
 70
     8
 71
     3
 72
     8
 73
     4
 74
     0
 42
0.000000001
 43
0.00000001
 40
0.0
 40
0.0
 40
0.0
 40
0.0
 40
1.0
 40
1.0
 40
1.0
 40
1.0
 10
185.9945151215503
 20
155.0670762672631
 30
0.0
 10
184.8195276456474
 20
157.200153022199
 30
0.0
 10
183.638281111551
 20
159.3298715880752
 30
0.0
 10
182.4528972468317
 20
161.4573703410011
 30
0.0
  0
SPLINE
  5
B1
330
1F
100
AcDbEntity
  8
0
  6
Continuous
 62
     7
370
    15
100
AcDbSpline
210
0.0
220
0.0
230
1.0
 70
     8
 71
     3
 72
     8
 73
     4
 74
     0
 42
0.000000001
 43
0.00000001
 40
0.0
 40
0.0
 40
0.0
 40
0.0
 40
1.0
 40
1.0
 40
1.0
 40
1.0
 10
185.9945151215503
 20
73.20652410689709
 30
0.0
 10
184.8194783237233
 20
71.07335781275175
 30
0.0
 10
183.6382311162843
 20
68.94363905577008
 30
0.0
 10
182.4528972468317
 20
66.81623003315912
 30
0.0
  0
SPLINE
  5
B2
330
1F
100
AcDbEntity
  8
0
  6
Continuous
 62
     7
370
    15
100
AcDbSpline
210
0.0
220
0.0
230
1.0
 70
     8
 71
     3
 72
     8
 73
     4
 74
     0
 42
0.000000001
 43
0.00000001
 40
0.0
 40
0.0
 40
0.0
 40
0.0
 40
0.0012417047560385
 40
0.0012417047560385
 40
0.0012417047560385
 40
0.0012417047560385
 10
181.8953282103039
 20
66.03170869161573
 30
0.0
 10
182.0816424499293
 20
66.29305283873296
 30
0.0
 10
182.2675086955372
 20
66.55455694761056
 30
0.0
 10
182.4528972468317
 20
66.81623003315912
 30
0.0
  0
SPLINE
  5
B3
330
1F
100
AcDbEntity
  8
0
  6
Continuous
 62
     7
370
    15
100
AcDbSpline
210
0.0
220
0.0
230
1.0
 70
     8
 71
     3
 72
    12
 73
     8
 74
     0
 42
0.000000001
 43
0.00000001
 40
0.0
 40
0.0
 40
0.0
 40
0.0
 40
0.2499999999999951
 40
0.2499999999999951
 40
0.4999999999999902
 40
0.4999999999999902
 40
1.0
 40
1.0
 40
1.0
 40
1.0
 10
192.8461412990576
 20
155.5761975663914
 30
0.0
 10
192.8099208776707
 20
155.5055904982916
 30
0.0
 10
192.7669952030229
 20
155.4418559069659
 30
0.0
 10
192.6694686197638
 20
155.3260817307174
 30
0.0
 10
192.6140371001471
 20
155.2735338867059
 30
0.0
 10
192.435549197243
 20
155.1393852834916
 30
0.0
 10
192.2987123685952
 20
155.0788631814277
 30
0.0
 10
192.1533209760308
 20
155.0583165974993
 30
0.0
  0
SPLINE
  5
B4
330
1F
100
AcDbEntity
  8
0
  6
Continuous
 62
     7
370
    15
100
AcDbSpline
210
0.0
220
0.0
230
1.0
 70
     8
 71
     3
 72
    12
 73
     8
 74
     0
 42
0.000000001
 43
0.00000001
 40
0.0
 40
0.0
 40
0.0
 40
0.0
 40
0.2499999999999957
 40
0.2499999999999957
 40
0.4999999999999913
 40
0.4999999999999913
 40
1.0
 40
1.0
 40
1.0
 40
1.0
 10
192.8461412990576
 20
72.6974028077688
 30
0.0
 10
192.8099208776706
 20
72.76800987586871
 30
0.0
 10
192.7669952030228
 20
72.83174446719445
 30
0.0
 10
192.6694686197638
 20
72.94751864344286
 30
0.0
 10
192.6140371001471
 20
73.00006648745429
 30
0.0
 10
192.4355491972429
 20
73.13421509066868
 30
0.0
 10
192.2987123685952
 20
73.19473719273245
 30
0.0
 10
192.1533209760308
 20
73.21528377666087
 30
0.0
  0
SPLINE
  5
B5
330
1F
100
AcDbEntity
  8
0
  6
Continuous
 62
     7
370
    15
100
AcDbSpline
210
0.0
220
0.0
230
1.0
 70
     8
 71
     3
 72
    10
 73
     6
 74
     0
 42
0.000000001
 43
0.00000001
 40
0.0
 40
0.0
 40
0.0
 40
0.0
 40
0.5
 40
0.5
 40
1.0
 40
1.0
 40
1.0
 40
1.0
 10
186.3703282103039
 20
73.55726897293091
 30
0.0
 10
186.2913281420527
 20
73.52150473832303
 30
0.0
 10
186.2175708917761
 20
73.4720151347636
 30
0.0
 10
186.0895157686429
 20
73.35172664326062
 30
0.0
 10
186.0366657342312
 20
73.2830444902713
 30
0.0
 10
185.9945151215503
 20
73.20652410689709
 30
0.0
  0
SPLINE
  5
B6
330
1F
100
AcDbEntity
  8
0
  6
Continuous
 62
     7
370
    15
100
AcDbSpline
210
0.0
220
0.0
230
1.0
 70
     8
 71
     3
 72
    10
 73
     6
 74
     0
 42
0.000000001
 43
0.00000001
 40
0.0
 40
0.0
 40
0.0
 40
0.0
 40
0.5
 40
0.5
 40
1.0
 40
1.0
 40
1.0
 40
1.0
 10
186.3703282103039
 20
154.7163314012292
 30
0.0
 10
186.2910417626212
 20
154.7522252830817
 30
0.0
 10
186.2175295435006
 20
154.8017269929327
 30
0.0
 10
186.0905770906299
 20
154.9207746896013
 30
0.0
 10
186.0365112418933
 20
154.9908363498696
 30
0.0
 10
185.9945151215503
 20
155.0670762672631
 30
0.0
  0
SPLINE
  5
B7
330
1F
100
AcDbEntity
  8
0
  6
Continuous
 62
     7
370
    15
100
AcDbSpline
210
0.0
220
0.0
230
1.0
 70
     8
 71
     3
 72
     8
 73
     4
 74
     0
 42
0.000000001
 43
0.00000001
 40
0.0
 40
0.0
 40
0.0
 40
0.0
 40
1.0
 40
1.0
 40
1.0
 40
1.0
 10
186.6873354445778
 20
154.6488723827428
 30
0.0
 10
186.5776336592762
 20
154.6480139655434
 30
0.0
 10
186.4702866382917
 20
154.6710790774182
 30
0.0
 10
186.3703282103039
 20
154.7163314012291
 30
0.0
  0
SPLINE
  5
B8
330
1F
100
AcDbEntity
  8
0
  6
Continuous
 62
     7
370
    15
100
AcDbSpline
210
0.0
220
0.0
230
1.0
 70
     8
 71
     3
 72
     8
 73
     4
 74
     0
 42
0.000000001
 43
0.00000001
 40
0.0
 40
0.0
 40
0.0
 40
0.0
 40
1.0
 40
1.0
 40
1.0
 40
1.0
 10
186.6873354445778
 20
73.62472799141744
 30
0.0
 10
186.5776336592762
 20
73.62558640861677
 30
0.0
 10
186.4702866382916
 20
73.602521296742
 30
0.0
 10
186.3703282103039
 20
73.55726897293108
 30
0.0
  0
SPLINE
  5
B9
330
1F
100
AcDbEntity
  8
0
  6
Continuous
 62
     7
370
    15
100
AcDbSpline
210
0.0
220
0.0
230
1.0
 70
     8
 71
     3
 72
    10
 73
     6
 74
     0
 42
0.000000001
 43
0.00000001
 40
0.0
 40
0.0
 40
0.0
 40
0.0
 40
0.5
 40
0.5
 40
1.0
 40
1.0
 40
1.0
 40
1.0
 10
192.1533209760301
 20
155.0583165975021
 30
0.0
 10
191.3057566092618
 20
154.9385395454411
 30
0.0
 10
190.4250431735399
 20
154.8398493657773
 30
0.0
 10
188.5974869223244
 20
154.6985769595401
 30
0.0
 10
187.6440545192231
 20
154.6563587158625
 30
0.0
 10
186.6873354445778
 20
154.6488723827428
 30
0.0
  0
SPLINE
  5
BA
330
1F
100
AcDbEntity
  8
0
  6
Continuous
 62
     7
370
    15
100
AcDbSpline
210
0.0
220
0.0
230
1.0
 70
     8
 71
     3
 72
    10
 73
     6
 74
     0
 42
0.000000001
 43
0.00000001
 40
0.0
 40
0.0
 40
0.0
 40
0.0
 40
0.5
 40
0.5
 40
1.0
 40
1.0
 40
1.0
 40
1.0
 10
192.1533209760301
 20
73.21528377665805
 30
0.0
 10
191.3057566092618
 20
73.3350608287191
 30
0.0
 10
190.4250431735399
 20
73.43375100838293
 30
0.0
 10
188.5974869223244
 20
73.57502341462005
 30
0.0
 10
187.6440545192231
 20
73.61724165829766
 30
0.0
 10
186.6873354445778
 20
73.62472799141744
 30
0.0
  0
SPLINE
  5
BB
330
1F
100
AcDbEntity
  8
0
  6
Continuous
 62
     7
370
    15
100
AcDbSpline
210
0.0
220
0.0
230
1.0
 70
    24
 71
     3
 72
    20
 73
    16
 74
     0
 42
0.000000001
 43
0.00000001
 40
0.0
 40
0.0
 40
0.0
 40
0.0
 40
0.5
 40
0.5
 40
0.75
 40
0.75
 40
0.875
 40
0.875
 40
0.9375
 40
0.9375
 40
0.96875
 40
0.984375
 40
0.9921875
 40
0.9921875
 40
1.0
 40
1.0
 40
1.0
 40
1.0
 10
169.220328210304
 20
149.4368001870801
 30
0.0
 10
169.220328210304
 20
149.4368001870801
 30
0.0
 10
169.1595642189993
 20
149.4368001870801
 30
0.0
 10
169.076560981932
 20
149.4368001870801
 30
0.0
 10
169.0499197247538
 20
149.4368001870801
 30
0.0
 10
169.021466711287
 20
149.4368001870801
 30
0.0
 10
169.0138820858249
 20
149.4368001870801
 30
0.0
 10
169.0061865877111
 20
149.4368001870801
 30
0.0
 10
169.0042306563181
 20
149.4368001870801
 30
0.0
 10
169.0022679243012
 20
149.4368001870801
 30
0.0
 10
169.0015288017429
 20
149.4368001870801
 30
0.0
 10
169.0010969105757
 20
149.4368001870801
 30
0.0
 10
169.0010043403228
 20
149.4368001870801
 30
0.0
 10
169.000963209463
 20
149.4368001870801
 30
0.0
 10
169.0009529400915
 20
149.4368001870801
 30
0.0
 10
169.0009529601384
 20
149.4368001870801
 30
0.0
  0
LINE
  5
BC
330
1F
100
AcDbEntity
  8
0
  6
Continuous
 62
     7
370
    15
100
AcDbLine
 10
166.2203282103
 20
79.2118001871
 30
0.0
 11
166.2203282103
 21
149.0618001871
 31
0.0
  0
LINE
  5
BD
330
1F
100
AcDbEntity
  8
0
  6
Continuous
 62
     7
370
    15
100
AcDbLine
 10
64.4203282103
 20
95.7871223264
 30
0.0
 11
64.4203282103
 21
132.4864780396
 31
0.0
  0
SPLINE
  5
BE
330
1F
100
AcDbEntity
  8
0
  6
Continuous
 62
     7
370
    15
100
AcDbSpline
210
0.0
220
0.0
230
1.0
 70
    11
 71
     3
 72
    64
 73
    60
 74
     0
 42
0.000000001
 43
0.00000001
 40
0.0
 40
0.0
 40
0.0
 40
0.0
 40
0.0312500000000002
 40
0.0312500000000002
 40
0.0625000000000005
 40
0.0625000000000005
 40
0.0937500000000007
 40
0.0937500000000007
 40
0.125000000000001
 40
0.125000000000001
 40
0.1562500000000012
 40
0.1562500000000012
 40
0.1875000000000015
 40
0.1875000000000015
 40
0.2187500000000017
 40
0.2187500000000017
 40
0.250000000000002
 40
0.250000000000002
 40
0.2812500000000022
 40
0.2812500000000022
 40
0.3125000000000025
 40
0.3125000000000025
 40
0.3437500000000028
 40
0.3437500000000028
 40
0.375000000000003
 40
0.375000000000003
 40
0.4062500000000032
 40
0.4062500000000032
 40
0.4375000000000035
 40
0.4375000000000035
 40
0.4687500000000037
 40
0.4687500000000037
 40
0.5000000000000039
 40
0.5000000000000039
 40
0.531250000000004
 40
0.531250000000004
 40
0.5625000000000041
 40
0.5625000000000041
 40
0.6250000000000044
 40
0.6250000000000044
 40
0.6875000000000047
 40
0.6875000000000047
 40
0.7187500000000043
 40
0.7187500000000043
 40
0.7500000000000039
 40
0.7500000000000039
 40
0.7812500000000034
 40
0.7812500000000034
 40
0.812500000000003
 40
0.812500000000003
 40
0.8437500000000027
 40
0.8437500000000027
 40
0.8750000000000022
 40
0.8750000000000022
 40
0.9062500000000018
 40
0.9062500000000018
 40
0.9375000000000013
 40
0.9375000000000013
 40
1.0
 40
1.0
 40
1.0
 40
1.0
 10
220.652125535411
 20
116.1340682284721
 30
0.0
 10
220.7972520540588
 20
116.2532834453055
 30
0.0
 10
220.9513997373694
 20
116.3568063831689
 30
0.0
 10
221.276299002809
 20
116.5353250174782
 30
0.0
 10
221.448338267279
 20
116.6107024198299
 30
0.0
 10
221.8036978312157
 20
116.7303747615707
 30
0.0
 10
221.9846371502153
 20
116.7741319934139
 30
0.0
 10
222.352807234077
 20
116.8308204996272
 30
0.0
 10
222.5418688141247
 20
116.843632442284
 30
0.0
 10
222.9162408301665
 20
116.8369752520164
 30
0.0
 10
223.1012803617953
 20
116.8178999748983
 30
0.0
 10
223.4671096601676
 20
116.7484782791665
 30
0.0
 10
223.6496381621294
 20
116.6973466376738
 30
0.0
 10
223.9984338401811
 20
116.5656026581831
 30
0.0
 10
224.1653165997693
 20
116.4852568080952
 30
0.0
 10
224.4837760060687
 20
116.2947638158587
 30
0.0
 10
224.6367041504487
 20
116.1831634751518
 30
0.0
 10
224.9140451175254
 20
115.9365111441771
 30
0.0
 10
225.0396819898126
 20
115.8011634944368
 30
0.0
 10
225.2633117354424
 20
115.5046694627232
 30
0.0
 10
225.3615443751661
 20
115.3419456772627
 30
0.0
 10
225.5175867873832
 20
115.0050918574883
 30
0.0
 10
225.5770377578733
 20
114.8293130594446
 30
0.0
 10
225.6557052345443
 20
114.4617326748774
 30
0.0
 10
225.6736382398497
 20
114.2735319561711
 30
0.0
 10
225.6660023878739
 20
113.9009248590393
 30
0.0
 10
225.640061366801
 20
113.7121486032973
 30
0.0
 10
225.5468847047636
 20
113.3494306299383
 30
0.0
 10
225.4803793573568
 20
113.1752530149755
 30
0.0
 10
225.308905004477
 20
112.8406751479347
 30
0.0
 10
225.2056825530796
 20
112.6841395048627
 30
0.0
 10
224.9705998553493
 20
112.3956395510295
 30
0.0
 10
224.8367647099496
 20
112.261790184342
 30
0.0
 10
224.5493589668079
 20
112.0247332199962
 30
0.0
 10
224.395429182864
 20
111.9205676744793
 30
0.0
 10
224.0677308218384
 20
111.7397577165233
 30
0.0
 10
223.8950455355999
 20
111.6640852808504
 30
0.0
 10
223.3661691696992
 20
111.4851814861178
 30
0.0
 10
222.98792933165
 20
111.427046898174
 30
0.0
 10
222.2430753251823
 20
111.4394120369439
 30
0.0
 10
221.8669618030219
 20
111.5101803809847
 30
0.0
 10
221.3457447125575
 20
111.7064784901436
 30
0.0
 10
221.1765182735931
 20
111.7876080806895
 30
0.0
 10
220.8549657423571
 20
111.9800124984192
 30
0.0
 10
220.7053481242725
 20
112.089392679077
 30
0.0
 10
220.4286426370016
 20
112.335087918951
 30
0.0
 10
220.3002875869604
 20
112.4731063551876
 30
0.0
 10
220.075471796747
 20
112.7716579544002
 30
0.0
 10
219.9798504939755
 20
112.9303062735825
 30
0.0
 10
219.8235250660549
 20
113.2672815399237
 30
0.0
 10
219.7625481470056
 20
113.4482436476363
 30
0.0
 10
219.6848121059138
 20
113.8135796580623
 30
0.0
 10
219.666915337151
 20
113.999044015118
 30
0.0
 10
219.6748005187328
 20
114.375807137045
 30
0.0
 10
219.7009392104491
 20
114.5631617136177
 30
0.0
 10
219.7940360957256
 20
114.9248262813275
 30
0.0
 10
219.8622363950246
 20
115.10274682058
 30
0.0
 10
220.1186111098145
 20
115.6012343077576
 30
0.0
 10
220.3618724981154
 20
115.8956377948052
 30
0.0
 10
220.652125535411
 20
116.1340682284721
 30
0.0
  0
LINE
  5
BF
330
1F
100
AcDbEntity
  8
0
  6
Continuous
 62
     7
370
    15
100
AcDbLine
 10
229.0203282103
 20
114.1368001871
 30
0.0
 11
229.0203282103
 21
101.6368001871
 31
0.0
  0
LINE
  5
C0
330
1F
100
AcDbEntity
  8
0
  6
Continuous
 62
     7
370
    15
100
AcDbLine
 10
229.0203282103
 20
126.6368001871
 30
0.0
 11
229.0203282103
 21
114.1368001871
 31
0.0
  0
LINE
  5
C1
330
1F
100
AcDbEntity
  8
0
  6
Continuous
 62
     7
370
    15
100
AcDbLine
 10
229.2203282103
 20
114.1368001871
 30
0.0
 11
229.2203282103
 21
101.8368001871
 31
0.0
  0
LINE
  5
C2
330
1F
100
AcDbEntity
  8
0
  6
Continuous
 62
     7
370
    15
100
AcDbLine
 10
229.2203282103
 20
126.4368001871
 30
0.0
 11
229.2203282103
 21
114.1368001871
 31
0.0
  0
CIRCLE
  5
C3
330
1F
100
AcDbEntity
  8
0
  6
HIDDEN
 62
     7
370
     0
100
AcDbCircle
 10
222.6703282103
 20
114.1368001871
 30
0.0
 40
1.776794919243116
  0
CIRCLE
  5
C4
330
1F
100
AcDbEntity
  8
0
  6
HIDDEN
 62
     7
370
     0
100
AcDbCircle
 10
222.6703282103
 20
114.1368001871
 30
0.0
 40
1.676794919243108
  0
SPLINE
  5
C5
330
1F
100
AcDbEntity
  8
0
  6
HIDDEN
 62
     7
370
     0
100
AcDbSpline
210
0.0
220
0.0
230
1.0
 70
     8
 71
     3
 72
     9
 73
     5
 74
     0
 42
0.000000001
 43
0.00000001
 40
0.0
 40
0.0
 40
0.0
 40
0.0
 40
0.326715502844845
 40
1.0
 40
1.0
 40
1.0
 40
1.0
 10
198.8442956840356
 20
64.51303974667722
 30
0.0
 10
198.6875028059182
 20
64.55512197569712
 30
0.0
 10
198.2075963528966
 20
64.68392586976842
 30
0.0
 10
197.453384811971
 20
64.85895251788793
 30
0.0
 10
196.9455858738903
 20
64.97679524665584
 30
0.0
  0
LINE
  5
C6
330
1F
100
AcDbEntity
  8
0
  6
HIDDEN
 62
     7
370
     0
100
AcDbLine
 10
169.2203282103
 20
149.4368001871
 30
0.0
 11
169.3919010856
 21
149.4368001871
 31
0.0
  0
ELLIPSE
  5
C7
330
1F
100
AcDbEntity
  8
0
  6
HIDDEN
 62
     7
370
     0
100
AcDbEllipse
 10
169.3919010856
 20
151.4368001871
 30
0.0
 11
0.0
 21
2.0
 31
0.0
210
0.0
220
0.0
230
1.0
 40
0.4142135624
 41
3.141592653589793
 42
4.712388980384681
  0
ELLIPSE
  5
C8
330
1F
100
AcDbEntity
  8
0
  6
HIDDEN
 62
     7
370
     0
100
AcDbEllipse
 10
169.3919010856
 20
76.8368001871
 30
0.0
 11
0.0
 21
2.0
 31
0.0
210
0.0
220
0.0
230
1.0
 40
0.4142135624
 41
4.712388980384702
 42
6.283185307179586
  0
LINE
  5
C9
330
1F
100
AcDbEntity
  8
0
  6
HIDDEN
 62
     7
370
     0
100
AcDbLine
 10
169.3919010856
 20
78.8368001871
 30
0.0
 11
169.2203282103
 21
78.8368001871
 31
0.0
  0
LINE
  5
CA
330
1F
100
AcDbEntity
  8
0
  6
HIDDEN
 62
     7
370
     0
100
AcDbLine
 10
170.2203282103
 20
66.8162300332
 30
0.0
 11
169.6064646304
 21
66.2023664532
 31
0.0
  0
LINE
  5
CB
330
1F
100
AcDbEntity
  8
0
  6
HIDDEN
 62
     7
370
     0
100
AcDbLine
 10
169.6064646304
 20
162.071233921
 30
0.0
 11
170.2203282103
 21
161.457370341
 31
0.0
  0
LINE
  5
CC
330
1F
100
AcDbEntity
  8
0
  6
HIDDEN
 62
     7
370
     0
100
AcDbLine
 10
186.3703282103
 20
149.4368001871
 30
0.0
 11
197.2203282103
 21
149.4368001871
 31
0.0
  0
LINE
  5
CD
330
1F
100
AcDbEntity
  8
0
  6
HIDDEN
 62
     7
370
     0
100
AcDbLine
 10
182.4528972468
 20
66.8162300332
 30
0.0
 11
170.2203282103
 21
66.8162300332
 31
0.0
  0
LINE
  5
CE
330
1F
100
AcDbEntity
  8
0
  6
HIDDEN
 62
     7
370
     0
100
AcDbLine
 10
170.2203282103
 20
66.8162300332
 30
0.0
 11
170.2203282103
 21
76.8368001871
 31
0.0
  0
SPLINE
  5
CF
330
1F
100
AcDbEntity
  8
0
  6
HIDDEN
 62
     7
370
     0
100
AcDbSpline
210
0.0
220
0.0
230
1.0
 70
     8
 71
     3
 72
    13
 73
     9
 74
     0
 42
0.000000001
 43
0.00000001
 40
0.0
 40
0.0
 40
0.0
 40
0.0
 40
0.0005825290635647
 40
0.1623661983773396
 40
0.3287385494553315
 40
0.4998718252132767
 40
0.7262528256169377
 40
1.0
 40
1.0
 40
1.0
 40
1.0
 10
199.2198940529103
 20
65.1369329937393
 30
0.0
 10
199.2200388389452
 20
65.136888651546
 30
0.0
 10
199.2603945216626
 20
65.12452931395399
 30
0.0
 10
199.1462399147716
 20
65.16015839996147
 30
0.0
 10
198.922122807071
 20
65.2280063628699
 30
0.0
 10
198.4428139161022
 20
65.36709953701335
 30
0.0
 10
197.6493062584736
 20
65.59734611778578
 30
0.0
 10
196.7802883859976
 20
65.812831688544
 30
0.0
 10
196.3046279471907
 20
65.9307785851381
 30
0.0
  0
LINE
  5
D0
330
1F
100
AcDbEntity
  8
0
  6
HIDDEN
 62
     7
370
     0
100
AcDbLine
 10
197.2203282103
 20
78.8368001871
 30
0.0
 11
186.3703282103
 21
78.8368001871
 31
0.0
  0
LINE
  5
D1
330
1F
100
AcDbEntity
  8
0
  6
HIDDEN
 62
     7
370
     0
100
AcDbLine
 10
186.3703282103
 20
78.8368001871
 30
0.0
 11
169.3919010856
 21
78.8368001871
 31
0.0
  0
LINE
  5
D2
330
1F
100
AcDbEntity
  8
0
  6
HIDDEN
 62
     7
370
     0
100
AcDbLine
 10
170.2203282103
 20
161.457370341
 30
0.0
 11
182.4528972468
 21
161.457370341
 31
0.0
  0
LINE
  5
D3
330
1F
100
AcDbEntity
  8
0
  6
HIDDEN
 62
     7
370
     0
100
AcDbLine
 10
170.2203282103
 20
161.457370341
 30
0.0
 11
170.2203282103
 21
151.4368001871
 31
0.0
  0
LINE
  5
D4
330
1F
100
AcDbEntity
  8
0
  6
HIDDEN
 62
     7
370
     0
100
AcDbLine
 10
169.3919010856
 20
149.4368001871
 30
0.0
 11
186.3703282103
 21
149.4368001871
 31
0.0
  0
SPLINE
  5
D5
330
1F
100
AcDbEntity
  8
0
  6
HIDDEN
 62
     7
370
     0
100
AcDbSpline
210
0.0
220
0.0
230
1.0
 70
     8
 71
     3
 72
    14
 73
    10
 74
     0
 42
0.000000001
 43
0.00000001
 40
0.0
 40
0.0
 40
0.0
 40
0.0
 40
0.1878282877623173
 40
0.3545816313016879
 40
0.5003024319338173
 40
0.6713282049188825
 40
0.8376422060211013
 40
0.9994166164999629
 40
1.0
 40
1.0
 40
1.0
 40
1.0
 10
196.3046279471907
 20
162.3428217890221
 30
0.0
 10
196.63763086958
 20
162.4243697264756
 30
0.0
 10
197.2662727043949
 20
162.5783156578157
 30
0.0
 10
197.9657092762997
 20
162.7692943759338
 30
0.0
 10
198.5135863757293
 20
162.9266666630096
 30
0.0
 10
198.9197019698465
 20
163.0449920990332
 30
0.0
 10
199.1528298625455
 20
163.1153691136482
 30
0.0
 10
199.2468192491426
 20
163.1450034649226
 30
0.0
 10
199.2201363559988
 20
163.1367409393191
 30
0.0
 10
199.2200404791135
 20
163.1367112504388
 30
0.0
  0
LINE
  5
D6
330
1F
100
AcDbEntity
  8
0
  6
HIDDEN
 62
     7
370
     0
100
AcDbLine
 10
196.8039623121
 20
162.4671358269
 30
0.0
 11
196.3046236588
 21
162.3428664434
 31
0.0
  0
LINE
  5
D7
330
1F
100
AcDbEntity
  8
0
  6
HIDDEN
 62
     7
370
     0
100
AcDbLine
 10
74.4203282103
 20
101.6368001871
 30
0.0
 11
74.4203282103
 21
126.6368001871
 31
0.0
  0
LINE
  5
D8
330
1F
100
AcDbEntity
  8
0
  6
HIDDEN
 62
     7
370
     0
100
AcDbLine
 10
77.7049325593
 20
103.6368001871
 30
0.0
 11
77.7049325593
 21
124.6368001871
 31
0.0
  0
LINE
  5
D9
330
1F
100
AcDbEntity
  8
0
  6
HIDDEN
 62
     7
370
     0
100
AcDbLine
 10
127.4203282103
 20
103.6368001871
 30
0.0
 11
127.4203282103
 21
124.6368001871
 31
0.0
  0
LINE
  5
DA
330
1F
100
AcDbEntity
  8
0
  6
HIDDEN
 62
     7
370
     0
100
AcDbLine
 10
132.2272131625
 20
111.6368001871
 30
0.0
 11
132.2272131625
 21
116.6368001871
 31
0.0
  0
SPLINE
  5
DB
330
1F
100
AcDbEntity
  8
0
  6
HIDDEN
 62
     7
370
     0
100
AcDbSpline
210
0.0
220
0.0
230
1.0
 70
     8
 71
     3
 72
     9
 73
     5
 74
     0
 42
0.000000001
 43
0.00000001
 40
0.0
 40
0.0
 40
0.0
 40
0.0
 40
0.4951995003022724
 40
1.0
 40
1.0
 40
1.0
 40
1.0
 10
196.304612424741
 20
162.3428123514928
 30
0.0
 10
196.4098086463767
 20
162.4999681116128
 30
0.0
 10
196.6222406491785
 20
162.817326590416
 30
0.0
 10
196.8369590326924
 20
163.1359531385187
 30
0.0
 10
196.9453489799845
 20
163.2967959792179
 30
0.0
  0
SPLINE
  5
DC
330
1F
100
AcDbEntity
  8
0
  6
HIDDEN
 62
     7
370
     0
100
AcDbSpline
210
0.0
220
0.0
230
1.0
 70
     8
 71
     3
 72
     9
 73
     5
 74
     0
 42
0.000000001
 43
0.00000001
 40
0.0
 40
0.0
 40
0.0
 40
0.0
 40
0.5048005003628353
 40
1.0
 40
1.0
 40
1.0
 40
1.0
 10
196.9453489799845
 20
64.97680439494228
 30
0.0
 10
196.8369590325527
 20
65.13764723584687
 30
0.0
 10
196.6222406490448
 20
65.45627378393667
 30
0.0
 10
196.409808646238
 20
65.77363226275223
 30
0.0
 10
196.3046124247411
 20
65.93078802266733
 30
0.0
  0
SPLINE
  5
DD
330
1F
100
AcDbEntity
  8
0
  6
HIDDEN
 62
     7
370
     0
100
AcDbSpline
210
0.0
220
0.0
230
1.0
 70
     8
 71
     3
 72
    16
 73
    12
 74
     0
 42
0.000000001
 43
0.00000001
 40
0.0
 40
0.0
 40
0.0
 40
0.0
 40
0.2500000000000077
 40
0.2500000000000077
 40
0.5000000000000153
 40
0.5000000000000153
 40
0.6250000000000191
 40
0.6250000000000191
 40
0.750000000000023
 40
0.750000000000023
 40
1.0
 40
1.0
 40
1.0
 40
1.0
 10
229.2203282103039
 20
120.9776373024362
 30
0.0
 10
229.2203282103039
 20
120.9091663802517
 30
0.0
 10
229.2157830001285
 20
120.8392381385983
 30
0.0
 10
229.1901130350039
 20
120.6940689085086
 30
0.0
 10
229.1683861551204
 20
120.6157181864355
 30
0.0
 10
229.1094267246565
 20
120.5135466375762
 30
0.0
 10
229.0847765976709
 20
120.4823583083101
 30
0.0
 10
229.0304596048738
 20
120.436150391218
 30
0.0
 10
229.0016896731592
 20
120.421413374748
 30
0.0
 10
228.9189873031518
 20
120.396215726043
 30
0.0
 10
228.867697826548
 20
120.4017925636236
 30
0.0
 10
228.8203282102964
 20
120.4143459168748
 30
0.0
  0
SPLINE
  5
DE
330
1F
100
AcDbEntity
  8
0
  6
HIDDEN
 62
     7
370
     0
100
AcDbSpline
210
0.0
220
0.0
230
1.0
 70
     8
 71
     3
 72
     8
 73
     4
 74
     0
 42
0.000000001
 43
0.00000001
 40
0.0
 40
0.0
 40
0.0
 40
0.0
 40
1.0
 40
1.0
 40
1.0
 40
1.0
 10
228.8203282102988
 20
120.4143459168841
 30
0.0
 10
228.7614328856707
 20
120.3813940602118
 30
0.0
 10
228.6918232563912
 20
120.3597281042554
 30
0.0
 10
228.6203282103041
 20
120.3597281042554
 30
0.0
  0
SPLINE
  5
DF
330
1F
100
AcDbEntity
  8
0
  6
HIDDEN
 62
     7
370
     0
100
AcDbSpline
210
0.0
220
0.0
230
1.0
 70
     8
 71
     3
 72
     8
 73
     4
 74
     0
 42
0.000000001
 43
0.00000001
 40
0.0
 40
0.0
 40
0.0
 40
0.0
 40
1.0
 40
1.0
 40
1.0
 40
1.0
 10
228.8203282103137
 20
107.8592544572678
 30
0.0
 10
228.7614328856823
 20
107.8922063139446
 30
0.0
 10
228.6918232563972
 20
107.9138722699048
 30
0.0
 10
228.6203282103041
 20
107.9138722699048
 30
0.0
  0
SPLINE
  5
E0
330
1F
100
AcDbEntity
  8
0
  6
HIDDEN
 62
     7
370
     0
100
AcDbSpline
210
0.0
220
0.0
230
1.0
 70
     8
 71
     3
 72
    16
 73
    12
 74
     0
 42
0.000000001
 43
0.00000001
 40
0.0
 40
0.0
 40
0.0
 40
0.0
 40
0.2499999999999897
 40
0.2499999999999897
 40
0.3749999999999841
 40
0.3749999999999841
 40
0.4999999999999785
 40
0.4999999999999785
 40
0.7499999999999892
 40
0.7499999999999892
 40
1.0
 40
1.0
 40
1.0
 40
1.0
 10
228.8203282103137
 20
107.8592544572676
 30
0.0
 10
228.8677101750784
 20
107.8718111479519
 30
0.0
 10
228.9188913936059
 20
107.8774359057188
 30
0.0
 10
229.0018464555196
 20
107.8521352550728
 30
0.0
 10
229.0305288166802
 20
107.8373906983378
 30
0.0
 10
229.0846366215861
 20
107.7913791309695
 30
0.0
 10
229.1090323757055
 20
107.7606463154257
 30
0.0
 10
229.1683439384472
 20
107.6581643749225
 30
0.0
 10
229.1898714923485
 20
107.5805068161094
 30
0.0
 10
229.2157017470972
 20
107.4352206955586
 30
0.0
 10
229.2203282103039
 20
107.3644884287443
 30
0.0
 10
229.2203282103039
 20
107.2959675555389
 30
0.0
  0
LINE
  5
E1
330
1F
100
AcDbEntity
  8
0
  6
HIDDEN
 62
     7
370
     0
100
AcDbLine
 10
212.7203282103
 20
114.1368001871
 30
0.0
 11
212.7203282103
 21
107.4368001871
 31
0.0
  0
LINE
  5
E2
330
1F
100
AcDbEntity
  8
0
  6
HIDDEN
 62
     7
370
     0
100
AcDbLine
 10
212.7203282103
 20
120.8368001871
 30
0.0
 11
212.7203282103
 21
114.1368001871
 31
0.0
  0
LINE
  5
E3
330
1F
100
AcDbEntity
  8
0
  6
HIDDEN
 62
     7
370
     0
100
AcDbLine
 10
216.0863536141
 20
114.1368001871
 30
0.0
 11
216.0863536141
 21
107.1368001871
 31
0.0
  0
LINE
  5
E4
330
1F
100
AcDbEntity
  8
0
  6
HIDDEN
 62
     7
370
     0
100
AcDbLine
 10
216.0863536141
 20
121.1368001871
 30
0.0
 11
216.0863536141
 21
114.1368001871
 31
0.0
  0
LINE
  5
E5
330
1F
100
AcDbEntity
  8
0
  6
HIDDEN
 62
     7
370
     0
100
AcDbLine
 10
222.3203282103
 20
120.3597281043
 30
0.0
 11
228.6203282103
 21
120.3597281043
 31
0.0
  0
LINE
  5
E6
330
1F
100
AcDbEntity
  8
0
  6
HIDDEN
 62
     7
370
     0
100
AcDbLine
 10
222.3203282103
 20
107.9138722699
 30
0.0
 11
228.6203282103
 21
107.9138722699
 31
0.0
  0
SPLINE
  5
E7
330
1F
100
AcDbEntity
  8
0
  6
HIDDEN
 62
     7
370
     0
100
AcDbSpline
210
0.0
220
0.0
230
1.0
 70
    11
 71
     3
 72
    22
 73
    18
 74
     0
 42
0.000000001
 43
0.00000001
 40
0.0
 40
0.0
 40
0.0
 40
0.0
 40
0.125
 40
0.125
 40
0.2499999999999999
 40
0.2499999999999999
 40
0.3749999999999999
 40
0.3749999999999999
 40
0.4999999999999999
 40
0.4999999999999999
 40
0.6249999999999999
 40
0.6249999999999999
 40
0.7499999999999998
 40
0.7499999999999998
 40
0.8749999999999999
 40
0.8749999999999999
 40
1.0
 40
1.0
 40
1.0
 40
1.0
 10
228.820328210304
 20
123.2118001870801
 30
0.0
 10
228.8203282103039
 20
123.3491174352904
 30
0.0
 10
228.8204938793861
 20
123.4731032340124
 30
0.0
 10
228.8178757504019
 20
123.6951888186472
 30
0.0
 10
228.8156893711334
 20
123.7922940554365
 30
0.0
 10
228.8098077164379
 20
123.9486553498193
 30
0.0
 10
228.8058837448632
 20
124.0099724747753
 30
0.0
 10
228.798456026788
 20
124.0909888281086
 30
0.0
 10
228.7948735967332
 20
124.1117899641233
 30
0.0
 10
228.7902489671202
 20
124.111810402477
 30
0.0
 10
228.7893223776188
 20
124.0914515388584
 30
0.0
 10
228.7913768324597
 20
124.0100628060932
 30
0.0
 10
228.7943221314062
 20
123.9493981806533
 30
0.0
 10
228.8025859339508
 20
123.7930899809561
 30
0.0
 10
228.8079291750173
 20
123.6956692789844
 30
0.0
 10
228.8168780502961
 20
123.4747485032312
 30
0.0
 10
228.8203281954983
 20
123.3491321061502
 30
0.0
 10
228.8203281989
 20
123.2118001870801
 30
0.0
  0
LWPOLYLINE
  5
E8
330
1F
100
AcDbEntity
  8
0
  6
HIDDEN
 62
     7
370
     0
100
AcDbPolyline
 90
        4
 70
   128
 43
0.0
 10
228.8203281989
 20
123.2118001871
 10
228.820328214
 20
122.7311400794
 10
228.8203282093
 20
120.8084996485
 10
228.8203282103
 20
120.4143459169
  0
LINE
  5
E9
330
1F
100
AcDbEntity
  8
0
  6
HIDDEN
 62
     7
370
     0
100
AcDbLine
 10
228.8203282149
 20
105.0618001871
 30
0.0
 11
228.8203282103
 21
107.8592544573
 31
0.0
  0
SPLINE
  5
EA
330
1F
100
AcDbEntity
  8
0
  6
HIDDEN
 62
     7
370
     0
100
AcDbSpline
210
0.0
220
0.0
230
1.0
 70
     8
 71
     3
 72
    11
 73
     7
 74
     0
 42
0.000000001
 43
0.00000001
 40
0.0
 40
0.0
 40
0.0
 40
0.0
 40
0.2797265398714737
 40
0.6044327312512904
 40
0.929677791050638
 40
1.0
 40
1.0
 40
1.0
 40
1.0
 10
228.7932050418092
 20
104.1742903802485
 30
0.0
 10
228.7914339666302
 20
104.1859951643385
 30
0.0
 10
228.7876070297647
 20
104.2112868460628
 30
0.0
 10
228.8037002853534
 20
104.4921704379986
 30
0.0
 10
228.8191999026012
 20
104.8154261751643
 30
0.0
 10
228.8201579053709
 20
105.0246120435932
 30
0.0
 10
228.8203282148891
 20
105.06180018708
 30
0.0
  0
LINE
  5
EB
330
1F
100
AcDbEntity
  8
0
  6
HIDDEN
 62
     7
370
     0
100
AcDbLine
 10
222.3203282103
 20
105.0618001871
 30
0.0
 11
222.3203282103
 21
107.9138722699
 31
0.0
  0
LINE
  5
EC
330
1F
100
AcDbEntity
  8
0
  6
HIDDEN
 62
     7
370
     0
100
AcDbLine
 10
222.3203282103
 20
123.2118001871
 30
0.0
 11
222.3203282103
 21
120.3597281043
 31
0.0
  0
LINE
  5
ED
330
1F
100
AcDbEntity
  8
0
  6
HIDDEN
 62
     7
370
     0
100
AcDbLine
 10
222.3203282103
 20
124.1118001871
 30
0.0
 11
222.3203282103
 21
123.2118001871
 31
0.0
  0
LINE
  5
EE
330
1F
100
AcDbEntity
  8
0
  6
HIDDEN
 62
     7
370
     0
100
AcDbLine
 10
222.3203282103
 20
104.1618001871
 30
0.0
 11
222.3203282103
 21
105.0618001871
 31
0.0
  0
ARC
  5
EF
330
1F
100
AcDbEntity
  8
0
  6
HIDDEN
 62
     7
370
     0
100
AcDbCircle
 10
65.6203282103
 20
100.4368001871
 30
0.0
 40
1.200000000000017
100
AcDbArc
 50
90.0
 51
180.0
  0
ARC
  5
F0
330
1F
100
AcDbEntity
  8
0
  6
HIDDEN
 62
     7
370
     0
100
AcDbCircle
 10
65.6203282103
 20
127.8368001871
 30
0.0
 40
1.200000000000017
100
AcDbArc
 50
180.0
 51
270.0
  0
ARC
  5
F1
330
1F
100
AcDbEntity
  8
0
  6
HIDDEN
 62
     7
370
     0
100
AcDbCircle
 10
197.2203282103
 20
151.4368001871
 30
0.0
 40
2.0
100
AcDbArc
 50
270.0
 51
0.0
  0
LINE
  5
F2
330
1F
100
AcDbEntity
  8
0
  6
HIDDEN
 62
     7
370
     0
100
AcDbLine
 10
199.2203282103
 20
65.0365848
 30
0.0
 11
199.2203282103
 21
76.8368001871
 31
0.0
  0
ARC
  5
F3
330
1F
100
AcDbEntity
  8
0
  6
HIDDEN
 62
     7
370
     0
100
AcDbCircle
 10
197.2203282103
 20
76.8368001871
 30
0.0
 40
2.0
100
AcDbArc
 50
0.0
 51
90.0
  0
LINE
  5
F4
330
1F
100
AcDbEntity
  8
0
  6
HIDDEN
 62
     7
370
     0
100
AcDbLine
 10
199.2203282103
 20
151.4368001871
 30
0.0
 11
199.2203282103
 21
163.2369035376
 31
0.0
  0
LINE
  5
F5
330
1F
100
AcDbEntity
  8
0
  6
HIDDEN
 62
     7
370
     0
100
AcDbLine
 10
75.312700641
 20
101.4118001871
 30
0.0
 11
76.1893881026
 21
101.4118001871
 31
0.0
  0
LINE
  5
F6
330
1F
100
AcDbEntity
  8
0
  6
HIDDEN
 62
     7
370
     0
100
AcDbLine
 10
76.1893881026
 20
126.8618001871
 30
0.0
 11
75.312700641
 21
126.8618001871
 31
0.0
  0
ARC
  5
F7
330
1F
100
AcDbEntity
  8
0
  6
HIDDEN
 62
     7
370
     0
100
AcDbCircle
 10
75.312700641
 20
101.8118001871
 30
0.0
 40
0.400000000000016
100
AcDbArc
 50
255.0
 51
270.0
  0
ARC
  5
F8
330
1F
100
AcDbEntity
  8
0
  6
HIDDEN
 62
     7
370
     0
100
AcDbCircle
 10
75.312700641
 20
126.4618001871
 30
0.0
 40
0.400000000000016
100
AcDbArc
 50
90.0
 51
105.0
  0
ARC
  5
F9
330
1F
100
AcDbEntity
  8
0
  6
HIDDEN
 62
     7
370
     0
100
AcDbCircle
 10
76.1893881026
 20
101.8118001871
 30
0.0
 40
0.4000000000000057
100
AcDbArc
 50
270.0
 51
330.0
  0
ARC
  5
FA
330
1F
100
AcDbEntity
  8
0
  6
HIDDEN
 62
     7
370
     0
100
AcDbCircle
 10
76.1893881026
 20
126.4618001871
 30
0.0
 40
0.4000000000000057
100
AcDbArc
 50
30.0
 51
90.0
  0
LINE
  5
FB
330
1F
100
AcDbEntity
  8
0
  6
HIDDEN
 62
     7
370
     0
100
AcDbLine
 10
75.209173023
 20
126.8481705176
 30
0.0
 11
74.4203282103
 21
126.6368001871
 31
0.0
  0
LINE
  5
FC
330
1F
100
AcDbEntity
  8
0
  6
HIDDEN
 62
     7
370
     0
100
AcDbLine
 10
74.4203282103
 20
101.6368001871
 30
0.0
 11
75.209173023
 21
101.4254298566
 31
0.0
  0
LINE
  5
FD
330
1F
100
AcDbEntity
  8
0
  6
HIDDEN
 62
     7
370
     0
100
AcDbLine
 10
76.5357982641
 20
101.6118001871
 30
0.0
 11
77.7049325593
 21
103.6368001871
 31
0.0
  0
LINE
  5
FE
330
1F
100
AcDbEntity
  8
0
  6
HIDDEN
 62
     7
370
     0
100
AcDbLine
 10
77.7049325593
 20
124.6368001871
 30
0.0
 11
76.5357982641
 21
126.6618001871
 31
0.0
  0
LINE
  5
FF
330
1F
100
AcDbEntity
  8
0
  6
HIDDEN
 62
     7
370
     0
100
AcDbLine
 10
65.6203282103
 20
101.6368001871
 30
0.0
 11
74.4203282103
 21
101.6368001871
 31
0.0
  0
LINE
  5
100
330
1F
100
AcDbEntity
  8
0
  6
HIDDEN
 62
     7
370
     0
100
AcDbLine
 10
74.4203282103
 20
126.6368001871
 30
0.0
 11
65.6203282103
 21
126.6368001871
 31
0.0
  0
LINE
  5
101
330
1F
100
AcDbEntity
  8
0
  6
HIDDEN
 62
     7
370
     0
100
AcDbLine
 10
77.7049325593
 20
103.6368001871
 30
0.0
 11
127.4203282103
 21
103.6368001871
 31
0.0
  0
LINE
  5
102
330
1F
100
AcDbEntity
  8
0
  6
HIDDEN
 62
     7
370
     0
100
AcDbLine
 10
127.4203282103
 20
124.6368001871
 30
0.0
 11
77.7049325593
 21
124.6368001871
 31
0.0
  0
LINE
  5
103
330
1F
100
AcDbEntity
  8
0
  6
HIDDEN
 62
     7
370
     0
100
AcDbLine
 10
127.4203282103
 20
103.6368001871
 30
0.0
 11
132.2272131625
 21
111.6368001871
 31
0.0
  0
LINE
  5
104
330
1F
100
AcDbEntity
  8
0
  6
HIDDEN
 62
     7
370
     0
100
AcDbLine
 10
132.2272131625
 20
116.6368001871
 30
0.0
 11
127.4203282103
 21
124.6368001871
 31
0.0
  0
LINE
  5
105
330
1F
100
AcDbEntity
  8
0
  6
HIDDEN
 62
     7
370
     0
100
AcDbLine
 10
199.2203325307
 20
163.1368007108
 30
0.0
 11
200.22033238
 21
164.1368004896
 31
0.0
  0
LINE
  5
106
330
1F
100
AcDbEntity
  8
0
  6
HIDDEN
 62
     7
370
     0
100
AcDbLine
 10
200.2203323807
 20
64.1367998838
 30
0.0
 11
199.2203325314
 21
65.1367996627
 31
0.0
  0
LINE
  5
107
330
1F
100
AcDbEntity
  8
0
  6
HIDDEN
 62
     7
370
     0
100
AcDbLine
 10
214.1150062122
 20
121.6368001871
 30
0.0
 11
213.5203282103
 21
121.6368001871
 31
0.0
  0
LINE
  5
108
330
1F
100
AcDbEntity
  8
0
  6
HIDDEN
 62
     7
370
     0
100
AcDbLine
 10
213.5203282103
 20
106.6368001871
 30
0.0
 11
214.1150062122
 21
106.6368001871
 31
0.0
  0
ARC
  5
109
330
1F
100
AcDbEntity
  8
0
  6
HIDDEN
 62
     7
370
     0
100
AcDbCircle
 10
214.1150062122
 20
120.8368001871
 30
0.0
 40
0.7999999999999972
100
AcDbArc
 50
75.0
 51
90.0
  0
ARC
  5
10A
330
1F
100
AcDbEntity
  8
0
  6
HIDDEN
 62
     7
370
     0
100
AcDbCircle
 10
214.1150062122
 20
107.4368001871
 30
0.0
 40
0.7999999999999972
100
AcDbArc
 50
270.0
 51
285.0
  0
ARC
  5
10B
330
1F
100
AcDbEntity
  8
0
  6
HIDDEN
 62
     7
370
     0
100
AcDbCircle
 10
213.5203282103
 20
120.8368001871
 30
0.0
 40
0.7999999999999972
100
AcDbArc
 50
90.0
 51
180.0
  0
ARC
  5
10C
330
1F
100
AcDbEntity
  8
0
  6
HIDDEN
 62
     7
370
     0
100
AcDbCircle
 10
213.5203282103
 20
107.4368001871
 30
0.0
 40
0.7999999999999972
100
AcDbArc
 50
180.0
 51
270.0
  0
LINE
  5
10D
330
1F
100
AcDbEntity
  8
0
  6
HIDDEN
 62
     7
370
     0
100
AcDbLine
 10
214.3220614483
 20
106.664059526
 30
0.0
 11
216.0863536141
 21
107.1368001871
 31
0.0
  0
LINE
  5
10E
330
1F
100
AcDbEntity
  8
0
  6
HIDDEN
 62
     7
370
     0
100
AcDbLine
 10
216.0863536141
 20
121.1368001871
 30
0.0
 11
214.3220614483
 21
121.6095408481
 31
0.0
  0
LINE
  5
10F
330
1F
100
AcDbEntity
  8
0
  6
HIDDEN
 62
     7
370
     0
100
AcDbLine
 10
222.3203282103
 20
121.1368001871
 30
0.0
 11
216.0863536141
 21
121.1368001871
 31
0.0
  0
LINE
  5
110
330
1F
100
AcDbEntity
  8
0
  6
HIDDEN
 62
     7
370
     0
100
AcDbLine
 10
216.0863536141
 20
107.1368001871
 30
0.0
 11
222.3203282103
 21
107.1368001871
 31
0.0
  0
LINE
  5
111
330
1F
100
AcDbEntity
  8
0
  6
HIDDEN
 62
     7
370
     0
100
AcDbLine
 10
229.2203282103
 20
124.539748602
 30
0.0
 11
228.78634448
 21
124.1057650199
 31
0.0
  0
LINE
  5
112
330
1F
100
AcDbEntity
  8
0
  6
HIDDEN
 62
     7
370
     0
100
AcDbLine
 10
228.7863439457
 20
104.1678363121
 30
0.0
 11
229.2203282103
 21
103.7338521396
 31
0.0
  0
LINE
  5
113
330
1F
100
AcDbEntity
  8
0
  6
HIDDEN
 62
     7
370
     0
100
AcDbLine
 10
132.2272131625
 20
111.6368001871
 30
0.0
 11
212.7203282103
 21
111.6368001871
 31
0.0
  0
LINE
  5
114
330
1F
100
AcDbEntity
  8
0
  6
HIDDEN
 62
     7
370
     0
100
AcDbLine
 10
212.7203282103
 20
116.6368001871
 30
0.0
 11
132.2272131625
 21
116.6368001871
 31
0.0
  0
LINE
  5
115
330
1F
100
AcDbEntity
  8
0
  6
HIDDEN
 62
     7
370
     0
100
AcDbLine
 10
228.7933006816
 20
124.1118001871
 30
0.0
 11
222.3203282103
 21
124.1118001871
 31
0.0
  0
LINE
  5
116
330
1F
100
AcDbEntity
  8
0
  6
HIDDEN
 62
     7
370
     0
100
AcDbLine
 10
222.3203282103
 20
104.1618001871
 30
0.0
 11
228.7932999546
 21
104.1618001871
 31
0.0
  0
DIMENSION
  5
117
330
1F
100
AcDbEntity
  8
VERMASSUNG
100
AcDbDimension
  2
_D
 10
236.220697654
 20
107.1368001871
 30
0.0
 11
236.220697654
 21
114.1368001871
 31
0.0
 70
   160
  1
%%c<>
 71
     2
 42
-1.0
  3
SLDDIMSTYLE0
100
AcDbAlignedDimension
 13
222.3203282103
 23
121.1368001871
 33
0.0
 14
222.3203282103
 24
107.1368001871
 34
0.0
 50
90.0
100
AcDbRotatedDimension
  0
DIMENSION
  5
123
330
1F
100
AcDbEntity
  8
VERMASSUNG
100
AcDbDimension
  2
_D_1
 10
242.420697654
 20
101.6368001871
 30
0.0
 11
242.420697654
 21
114.1368001871
 31
0.0
 70
   160
  1
ST2 %%c<>
 71
     2
 42
-1.0
  3
SLDDIMSTYLE0
100
AcDbAlignedDimension
 13
229.0203282103
 23
126.6368001871
 33
0.0
 14
229.0203282103
 24
101.6368001871
 34
0.0
 50
90.0
100
AcDbRotatedDimension
  0
DIMENSION
  5
12F
330
1F
100
AcDbEntity
  8
VERMASSUNG
100
AcDbDimension
  2
_D_2
 10
229.2203282103
 20
168.2368001871
 30
0.0
 11
216.7203282103
 21
168.2368001871
 31
0.0
 70
   160
  1
(<>)
 71
     2
 42
-1.0
  3
SLDDIMSTYLE0
100
AcDbAlignedDimension
 13
204.2203282103
 23
163.1368001871
 33
0.0
 14
229.2203282103
 24
126.4368001871
 34
0.0
100
AcDbRotatedDimension
  0
DIMENSION
  5
13B
330
1F
100
AcDbEntity
  8
VERMASSUNG
100
AcDbDimension
  2
_D_3
 10
229.2203282103
 20
174.2368001871
 30
0.0
 11
197.7203282103
 21
174.2368001871
 31
0.0
 70
   160
  1
<>
 71
     2
 42
-1.0
  3
SLDDIMSTYLE0
100
AcDbAlignedDimension
 13
166.2203282103
 23
149.0618001871
 33
0.0
 14
229.2203282103
 24
126.4368001871
 34
0.0
100
AcDbRotatedDimension
  0
DIMENSION
  5
145
330
1F
100
AcDbEntity
  8
VERMASSUNG
100
AcDbDimension
  2
_D_4
 10
229.2203282103
 20
180.2368001871
 30
0.0
 11
146.8203282103
 21
180.2368001871
 31
0.0
 70
   160
  1
(<>)
 71
     2
 42
-1.0
  3
SLDDIMSTYLE0
100
AcDbAlignedDimension
 13
64.4203282103
 23
132.4864780478
 33
0.0
 14
229.2203282103
 24
126.4368001871
 34
0.0
100
AcDbRotatedDimension
  0
DIMENSION
  5
151
330
1F
100
AcDbEntity
  8
VERMASSUNG
100
AcDbDimension
  2
_D_5
 10
54.4203282103
 20
64.1368001871
 30
0.0
 11
54.4203282103
 21
114.1368001871
 31
0.0
 70
   160
  1
MAS BT 50 %%c<>
 71
     2
 42
-1.0
  3
SLDDIMSTYLE0
100
AcDbAlignedDimension
 13
200.2203301188
 23
164.1368001871
 33
0.0
 14
200.2203302724
 24
64.1368001871
 34
0.0
 50
90.0
100
AcDbRotatedDimension
  0
LINE
  5
15D
330
1F
100
AcDbEntity
  8
VERMASSUNG
  6
CENTERX2
370
     0
100
AcDbLine
 10
61.0775426793
 20
114.1368001871
 30
0.0
 11
231.4941190678
 21
114.1368001871
 31
0.0
  0
LINE
  5
15E
330
1F
100
AcDbEntity
  8
0
  6
Continuous
 62
     7
370
    15
100
AcDbLine
 10
278.5582093434
 20
44.6238576417
 30
0.0
 11
278.4698066337
 21
44.6749080286
 31
0.0
  0
LINE
  5
15F
330
1F
100
AcDbEntity
  8
0
  6
Continuous
 62
     7
370
    15
100
AcDbLine
 10
276.8785578584
 20
44.6749080286
 30
0.0
 11
276.7901551486
 21
44.6238576417
 31
0.0
  0
LINE
  5
160
330
1F
100
AcDbEntity
  8
0
  6
Continuous
 62
     7
370
    15
100
AcDbLine
 10
278.924182246
 20
44.0116178943
 30
0.0
 11
278.924182246
 21
44.1136854958
 31
0.0
  0
LINE
  5
161
330
1F
100
AcDbEntity
  8
0
  6
Continuous
 62
     7
370
    15
100
AcDbLine
 10
276.424182246
 20
44.1136854958
 30
0.0
 11
276.424182246
 21
44.0116178943
 31
0.0
  0
SPLINE
  5
162
330
1F
100
AcDbEntity
  8
0
  6
Continuous
 62
     7
370
    15
100
AcDbSpline
210
0.0
220
0.0
230
1.0
 70
     8
 71
     3
 72
    42
 73
    38
 74
     0
 42
0.000000001
 43
0.00000001
 40
0.0
 40
0.0
 40
0.0
 40
0.0
 40
0.0045125025583418
 40
0.0341557782870357
 40
0.0639204828194334
 40
0.093795638777502
 40
0.1237572948031462
 40
0.1537780621136242
 40
0.1838335036121604
 40
0.2139048971977777
 40
0.2439778698920886
 40
0.2740444805964031
 40
0.3041015187222614
 40
0.3341479328870743
 40
0.3641840395561032
 40
0.3942109839503881
 40
0.4242303925832424
 40
0.454244159916901
 40
0.4842543240028211
 40
0.5142629985413053
 40
0.5442723385368105
 40
0.5742838289145521
 40
0.6042996356438947
 40
0.6343219523542409
 40
0.6643529381917849
 40
0.6943946509357548
 40
0.7244489233495549
 40
0.7545171490859045
 40
0.7845999307716738
 40
0.8146965282208847
 40
0.8448040374990257
 40
0.8749150476621973
 40
0.9050150415917362
 40
0.9350848505641729
 40
0.9650987378823523
 40
0.9950268001511433
 40
1.0
 40
1.0
 40
1.0
 40
1.0
 10
262.0175832058239
 20
20.27480954802556
 30
0.0
 10
262.078301150484
 20
20.2659202413254
 30
0.0
 10
262.5378839715561
 20
20.19863580550504
 30
0.0
 10
263.4463283846586
 20
20.20822237652284
 30
0.0
 10
264.7377587107501
 20
20.31261746798566
 30
0.0
 10
266.0720385084451
 20
20.57118944616996
 30
0.0
 10
267.4345200421402
 20
20.96559521997672
 30
0.0
 10
268.8181061613009
 20
21.49802867173108
 30
0.0
 10
270.2134324196913
 20
22.16377655568991
 30
0.0
 10
271.6117325729303
 20
22.95873163294264
 30
0.0
 10
273.0042247053232
 20
23.87753119924549
 30
0.0
 10
274.3823615531879
 20
24.91420244139392
 30
0.0
 10
275.7378091731545
 20
26.06211449940851
 30
0.0
 10
277.0624423292148
 20
27.31405325486944
 30
0.0
 10
278.3483379673067
 20
28.66223184600133
 30
0.0
 10
279.587805163948
 20
30.09832986885423
 30
0.0
 10
280.7734201136419
 20
31.61353277091809
 30
0.0
 10
281.89806512081
 20
33.19857712851623
 30
0.0
 10
282.9549688504551
 20
34.84380074020905
 30
0.0
 10
283.9377461323658
 20
36.53919737869838
 30
0.0
 10
284.8404289616802
 20
38.27446201639317
 30
0.0
 10
285.6575112571657
 20
40.0390642303346
 30
0.0
 10
286.3839812460116
 20
41.82231370681743
 30
0.0
 10
287.0153526449971
 20
43.6134398996094
 30
0.0
 10
287.547679983287
 20
45.40164397269674
 30
0.0
 10
287.9775755257775
 20
47.17616162606129
 30
0.0
 10
288.3022206784301
 20
48.92632240709393
 30
0.0
 10
288.5193751065225
 20
50.64160618864613
 30
0.0
 10
288.6273739858271
 20
52.31168076660001
 30
0.0
 10
288.6251580716945
 20
53.92646689604374
 30
0.0
 10
288.5121891308621
 20
55.47602284125244
 30
0.0
 10
288.2888492598822
 20
56.95094530843552
 30
0.0
 10
287.9551711265049
 20
58.34080880597151
 30
0.0
 10
287.5159401695668
 20
59.64017548130836
 30
0.0
 10
286.9621680331066
 20
60.82647319277209
 30
0.0
 10
286.5125949657272
 20
61.63385322615526
 30
0.0
 10
286.2195227074565
 20
62.00775368324522
 30
0.0
 10
286.1777618420293
 20
62.06103203433806
 30
0.0
  0
LINE
  5
163
330
1F
100
AcDbEntity
  8
0
  6
Continuous
 62
     7
370
    15
100
AcDbLine
 10
256.0800371151
 20
22.7116761327
 30
0.0
 11
258.298584641
 21
21.4309359072
 31
0.0
  0
LINE
  5
164
330
1F
100
AcDbEntity
  8
0
  6
Continuous
 62
     7
370
    15
100
AcDbLine
 10
283.2965529569
 20
64.7333790263
 30
0.0
 11
281.078005431
 21
66.0141192517
 31
0.0
  0
LINE
  5
165
330
1F
100
AcDbEntity
  8
0
  6
Continuous
 62
     7
370
    15
100
AcDbLine
 10
275.7570269025
 20
69.0858547724
 30
0.0
 11
271.6292910673
 21
71.4687459488
 31
0.0
  0
SPLINE
  5
166
330
1F
100
AcDbEntity
  8
0
  6
Continuous
 62
     7
370
    15
100
AcDbSpline
210
0.0
220
0.0
230
1.0
 70
     8
 71
     3
 72
    31
 73
    27
 74
     0
 42
0.000000001
 43
0.00000001
 40
0.0
 40
0.0
 40
0.0
 40
0.0
 40
0.0188957672977165
 40
0.0616803156432558
 40
0.1046383261413208
 40
0.1477474040253081
 40
0.1909704505608899
 40
0.234268458916481
 40
0.2776082353498653
 40
0.3209651911498996
 40
0.3643198848087177
 40
0.4076637576007974
 40
0.4509931641633053
 40
0.4943072214539977
 40
0.5376067745020237
 40
0.580893703268152
 40
0.6241704818586946
 40
0.6674399114777462
 40
0.7107049672376519
 40
0.7539687161697246
 40
0.7972340337707005
 40
0.8405032699298886
 40
0.8837795909505106
 40
0.9270661522012319
 40
0.9703660390557107
 40
0.9999999999999999
 40
0.9999999999999999
 40
0.9999999999999999
 40
0.9999999999999999
 10
267.9296736948356
 20
72.61444119725394
 30
0.0
 10
267.7517616940474
 20
72.63615937504636
 30
0.0
 10
267.1710142603796
 20
72.70705271535516
 30
0.0
 10
266.1346085559081
 20
72.67738104846386
 30
0.0
 10
264.830493008734
 20
72.53052545404945
 30
0.0
 10
263.4877506569506
 20
72.23494989536607
 30
0.0
 10
262.1186316911047
 20
71.8026757349956
 30
0.0
 10
260.7309734219191
 20
71.23359691239551
 30
0.0
 10
259.3339573636889
 20
70.53221742263271
 30
0.0
 10
257.9363760737392
 20
69.70301507942396
 30
0.0
 10
256.546947442427
 20
68.75152365911357
 30
0.0
 10
255.1741679935795
 20
67.68390836005244
 30
0.0
 10
253.8263070142176
 20
66.50695630415179
 30
0.0
 10
252.511437184097
 20
65.2280410028452
 30
0.0
 10
251.23742154384
 20
63.85509816761575
 30
0.0
 10
250.0118821591585
 20
62.3965868407935
 30
0.0
 10
248.8421630622183
 20
60.86144827030889
 30
0.0
 10
247.7352933684065
 20
59.25905991660925
 30
0.0
 10
246.697937077658
 20
57.59918176379388
 30
0.0
 10
245.7363924251237
 20
55.89191207994648
 30
0.0
 10
244.8564195574
 20
54.14760424567176
 30
0.0
 10
244.0637134126933
 20
52.37691183764976
 30
0.0
 10
243.3619494324219
 20
50.59028070891227
 30
0.0
 10
242.759932979051
 20
48.79951500757765
 30
0.0
 10
242.2990487648266
 20
47.19991644741717
 30
0.0
 10
242.0819102729283
 20
46.20955201199114
 30
0.0
 10
241.9936841093208
 20
45.80715419690529
 30
0.0
  0
LINE
  5
167
330
1F
100
AcDbEntity
  8
0
  6
Continuous
 62
     7
370
    15
100
AcDbLine
 10
279.9199645559
 20
32.7133597926
 30
0.0
 11
279.9906637415
 21
32.7541868327
 31
0.0
  0
LINE
  5
168
330
1F
100
AcDbEntity
  8
0
  6
Continuous
 62
     7
370
    15
100
AcDbLine
 10
284.3386636587
 20
40.2859596838
 30
0.0
 11
284.3386636587
 21
40.3676004949
 31
0.0
  0
LINE
  5
169
330
1F
100
AcDbEntity
  8
0
  6
Continuous
 62
     7
370
    15
100
AcDbLine
 10
283.0439923158
 20
43.2291305354
 30
0.0
 11
275.6900817914
 21
47.4744527169
 31
0.0
  0
LINE
  5
16A
330
1F
100
AcDbEntity
  8
0
  6
Continuous
 62
     7
370
    15
100
AcDbLine
 10
269.4405897125
 20
36.6488419371
 30
0.0
 11
276.7945002368
 21
32.4035197556
 31
0.0
  0
SPLINE
  5
16B
330
1F
100
AcDbEntity
  8
0
  6
Continuous
 62
     7
370
    15
100
AcDbSpline
210
0.0
220
0.0
230
1.0
 70
     8
 71
     3
 72
    14
 73
    10
 74
     0
 42
0.000000001
 43
0.00000001
 40
0.0
 40
0.0
 40
0.0
 40
0.0
 40
0.0778683086171381
 40
0.2411401184195217
 40
0.403573358551368
 40
0.5650233916352463
 40
0.7259749124460002
 40
0.887736993353261
 40
1.0
 40
1.0
 40
1.0
 40
1.0
 10
278.6892238320177
 20
39.63027072333175
 30
0.0
 10
278.7592814025712
 20
39.72033691975905
 30
0.0
 10
278.9762334740813
 20
39.99925107184188
 30
0.0
 10
279.3870325663656
 20
40.3764491218508
 30
0.0
 10
279.8893072128844
 20
40.73880545553644
 30
0.0
 10
280.3836652425036
 20
40.97412087077036
 30
0.0
 10
280.8378574628583
 20
41.07721498415726
 30
0.0
 10
281.199010966915
 20
41.0718984517693
 30
0.0
 10
281.375570220541
 20
40.98855597119054
 30
0.0
 10
281.4479032789492
 20
40.95441209942068
 30
0.0
  0
SPLINE
  5
16C
330
1F
100
AcDbEntity
  8
0
  6
Continuous
 62
     7
370
    15
100
AcDbSpline
210
0.0
220
0.0
230
1.0
 70
     8
 71
     3
 72
    11
 73
     7
 74
     0
 42
0.000000001
 43
0.00000001
 40
0.0
 40
0.0
 40
0.0
 40
0.0
 40
0.083868058495072
 40
0.4463320883335527
 40
0.8095767676841221
 40
1.0
 40
1.0
 40
1.0
 40
1.0
 10
277.6988308349042
 20
37.90557123659809
 30
0.0
 10
277.7171415365908
 20
37.95698916739645
 30
0.0
 10
277.8145880957367
 20
38.23062698425813
 30
0.0
 10
278.0566445855914
 20
38.7211631780109
 30
0.0
 10
278.3768522190302
 20
39.25701336674327
 30
0.0
 10
278.6092836086864
 20
39.53474899470741
 30
0.0
 10
278.6892238320177
 20
39.63027072333175
 30
0.0
  0
LINE
  5
16D
330
1F
100
AcDbEntity
  8
0
  6
Continuous
 62
     7
370
    15
100
AcDbLine
 10
257.2094842694
 20
69.1839470686
 30
0.0
 11
226.8599430552
 21
80.1207187079
 31
0.0
  0
LINE
  5
16E
330
1F
100
AcDbEntity
  8
0
  6
Continuous
 62
     7
370
    15
100
AcDbLine
 10
216.7505883798
 20
62.608905337
 30
0.0
 11
246.2143257064
 21
37.7299691116
 31
0.0
  0
SPLINE
  5
16F
330
1F
100
AcDbEntity
  8
0
  6
Continuous
 62
     7
370
    15
100
AcDbSpline
210
0.0
220
0.0
230
1.0
 70
     8
 71
     3
 72
    10
 73
     6
 74
     0
 42
0.000000001
 43
0.00000001
 40
0.0
 40
0.0
 40
0.0
 40
0.0
 40
0.1745384406885501
 40
0.7423441441524374
 40
1.0
 40
1.0
 40
1.0
 40
1.0
 10
278.107770110838
 20
34.84149959262711
 30
0.0
 10
278.0704864607031
 20
34.85463723899031
 30
0.0
 10
277.9119122277658
 20
34.91051406937326
 30
0.0
 10
277.7519810583816
 20
35.0792552606302
 30
0.0
 10
277.6429220406852
 20
35.26192419664014
 30
0.0
 10
277.6088808497593
 20
35.3189416561614
 30
0.0
  0
LINE
  5
170
330
1F
100
AcDbEntity
  8
0
  6
Continuous
 62
     7
370
    15
100
AcDbLine
 10
246.6313227514
 20
28.1663028298
 30
0.0
 11
250.7590585866
 21
25.7834116534
 31
0.0
  0
SPLINE
  5
171
330
1F
100
AcDbEntity
  8
0
  6
Continuous
 62
     7
370
    15
100
AcDbSpline
210
0.0
220
0.0
230
1.0
 70
     8
 71
     3
 72
    11
 73
     7
 74
     0
 42
0.000000001
 43
0.00000001
 40
0.0
 40
0.0
 40
0.0
 40
0.0
 40
0.1014726037306065
 40
0.4117955914088775
 40
0.7216513978100001
 40
1.0
 40
1.0
 40
1.0
 40
1.0
 10
241.9756841779657
 20
34.64062630298495
 30
0.0
 10
242.0170843342184
 20
34.49374742635693
 30
0.0
 10
242.1850942324738
 20
33.89768433501174
 30
0.0
 10
242.5585451622208
 20
32.92164139498091
 30
0.0
 10
243.1055320369894
 20
31.78519921002788
 30
0.0
 10
243.5475301216188
 20
31.13212156096914
 30
0.0
 10
243.7566913370574
 20
30.8230738080418
 30
0.0
  0
SPLINE
  5
172
330
1F
100
AcDbEntity
  8
0
  6
Continuous
 62
     7
370
    15
100
AcDbSpline
210
0.0
220
0.0
230
1.0
 70
     8
 71
     3
 72
    26
 73
    22
 74
     0
 42
0.000000001
 43
0.00000001
 40
0.0
 40
0.0
 40
0.0
 40
0.0
 40
0.0421920351105311
 40
0.0943866687806325
 40
0.1475688754593389
 40
0.2020148164085846
 40
0.2575861961548137
 40
0.3138882453083718
 40
0.3705111500257444
 40
0.4271372314316711
 40
0.483654841022328
 40
0.5400491660923309
 40
0.5963451602113885
 40
0.6525853448007237
 40
0.7088195399200122
 40
0.765092176039975
 40
0.8214487758007444
 40
0.8779441984350076
 40
0.9346295486659488
 40
0.9884815046005885
 40
0.9999999999999999
 40
0.9999999999999999
 40
0.9999999999999999
 40
0.9999999999999999
 10
226.8179730554016
 20
80.12359226077632
 30
0.0
 10
226.6132387354423
 20
80.1897754537291
 30
0.0
 10
226.1552330859067
 20
80.33783209749406
 30
0.0
 10
225.3843682211681
 20
80.3993426914405
 30
0.0
 10
224.5297488917925
 20
80.3405816754384
 30
0.0
 10
223.6409574106219
 20
80.13693155914001
 30
0.0
 10
222.7308237774106
 20
79.79395649354669
 30
0.0
 10
221.8131491281091
 20
79.31388296287426
 30
0.0
 10
220.9043153008429
 20
78.70536962353113
 30
0.0
 10
220.0197116577931
 20
77.97978450614401
 30
0.0
 10
219.1730018487276
 20
77.15024603211238
 30
0.0
 10
218.3760496404
 20
76.23031009204195
 30
0.0
 10
217.6396977200467
 20
75.23408763930203
 30
0.0
 10
216.9740104966317
 20
74.1762757380158
 30
0.0
 10
216.3883218045164
 20
73.07214722603352
 30
0.0
 10
215.8911231541105
 20
71.93739778242914
 30
0.0
 10
215.4900708793187
 20
70.78794186154238
 30
0.0
 10
215.1915253510893
 20
69.63938635134676
 30
0.0
 10
215.0056890087928
 20
68.52811825840503
 30
0.0
 10
214.9472769127804
 20
67.739973066923
 30
0.0
 10
214.9443839004535
 20
67.33029507929945
 30
0.0
 10
214.9438741418623
 20
67.25810842738896
 30
0.0
  0
SPLINE
  5
173
330
1F
100
AcDbEntity
  8
0
  6
Continuous
 62
     7
370
    15
100
AcDbSpline
210
0.0
220
0.0
230
1.0
 70
     8
 71
     3
 72
    14
 73
    10
 74
     0
 42
0.000000001
 43
0.00000001
 40
0.0
 40
0.0
 40
0.0
 40
0.0
 40
0.0970300021355376
 40
0.2799955097663701
 40
0.4629570220838163
 40
0.6442072974506324
 40
0.8219817389873184
 40
0.9951059531953558
 40
1.0
 40
1.0
 40
1.0
 40
1.0
 10
214.9438741418623
 20
67.25810842738896
 30
0.0
 10
214.9472415441136
 20
67.07020478520043
 30
0.0
 10
214.9569587191027
 20
66.52797892800584
 30
0.0
 10
215.0652528073208
 20
65.6759102164028
 30
0.0
 10
215.3110140333877
 20
64.74098385829652
 30
0.0
 10
215.6768737634571
 20
63.8971778809849
 30
0.0
 10
216.1680042927693
 20
63.1841689546149
 30
0.0
 10
216.5459381190413
 20
62.74512333316569
 30
0.0
 10
216.7789870170631
 20
62.58704490246613
 30
0.0
 10
216.7853939564872
 20
62.58269903797869
 30
0.0
  0
LWPOLYLINE
  5
174
330
1F
100
AcDbEntity
  8
0
  6
Continuous
 62
     7
370
    15
100
AcDbPolyline
 90
       17
 70
   128
 43
0.0
 10
276.8786871172
 20
43.7565235344
 10
276.6348177719
 20
43.9672198488
 10
276.549182246
 20
44.2157530973
 10
276.6348177719
 20
44.4642863458
 10
276.8786871172
 20
44.6749826602
 10
277.2436633846
 20
44.8157654366
 10
277.674182246
 20
44.8652017734
 10
278.1047011074
 20
44.8157654366
 10
278.4696773749
 20
44.6749826602
 10
278.7135467201
 20
44.4642863458
 10
278.799182246
 20
44.2157530973
 10
278.7135467201
 20
43.9672198488
 10
278.4696773749
 20
43.7565235344
 10
278.1047011074
 20
43.615740758
 10
277.674182246
 20
43.5663044212
 10
277.2436633846
 20
43.615740758
 10
276.8786871172
 20
43.7565235344
  0
LWPOLYLINE
  5
175
330
1F
100
AcDbEntity
  8
0
  6
Continuous
 62
     7
370
    15
100
AcDbPolyline
 90
        5
 70
   128
 43
0.0
 10
276.7902987695
 20
43.6034304259
 10
276.5193328304
 20
43.8375374419
 10
276.424182246
 20
44.1136854958
 10
276.5193328304
 20
44.3898335497
 10
276.7901551486
 20
44.6238576417
  0
LWPOLYLINE
  5
176
330
1F
100
AcDbEntity
  8
0
  6
Continuous
 62
     7
370
    15
100
AcDbPolyline
 90
        9
 70
   128
 43
0.0
 10
278.5582093434
 20
44.6238576417
 10
278.8290316617
 20
44.3898335497
 10
278.924182246
 20
44.1136854958
 10
278.8290316617
 20
43.8375374419
 10
278.5580657225
 20
43.6034304259
 10
278.1525365365
 20
43.4470051189
 10
277.674182246
 20
43.3920758557
 10
277.1958279556
 20
43.4470051189
 10
276.7902987695
 20
43.6034304259
  0
LWPOLYLINE
  5
177
330
1F
100
AcDbEntity
  8
0
  6
Continuous
 62
     7
370
    15
100
AcDbPolyline
 90
       17
 70
   128
 43
0.0
 10
277.1438521601
 20
43.9096000554
 10
276.9812725966
 20
44.050064265
 10
276.924182246
 20
44.2157530973
 10
276.9812725966
 20
44.3814419297
 10
277.1438521601
 20
44.5219061392
 10
277.3871696717
 20
44.6157613235
 10
277.674182246
 20
44.6487188814
 10
277.9611948203
 20
44.6157613235
 10
278.2045123319
 20
44.5219061392
 10
278.3670918954
 20
44.3814419297
 10
278.424182246
 20
44.2157530973
 10
278.3670918954
 20
44.050064265
 10
278.2045123319
 20
43.9096000554
 10
277.9611948203
 20
43.8157448711
 10
277.674182246
 20
43.7827873132
 10
277.3871696717
 20
43.8157448711
 10
277.1438521601
 20
43.9096000554
  0
SPLINE
  5
178
330
1F
100
AcDbEntity
  8
0
  6
Continuous
 62
     7
370
    15
100
AcDbSpline
210
0.0
220
0.0
230
1.0
 70
     8
 71
     3
 72
     9
 73
     5
 74
     0
 42
0.000000001
 43
0.00000001
 40
0.0
 40
0.0
 40
0.0
 40
0.0
 40
0.6300416123972696
 40
1.0
 40
1.0
 40
1.0
 40
1.0
 10
277.2323283304178
 20
43.86069273088437
 30
0.0
 10
277.1761798877321
 20
43.89922811410884
 30
0.0
 10
277.0870612619447
 20
43.96039134914956
 30
0.0
 10
277.0067844179868
 20
44.05120733913633
 30
0.0
 10
276.9770853262342
 20
44.08480547636038
 30
0.0
  0
SPLINE
  5
179
330
1F
100
AcDbEntity
  8
0
  6
Continuous
 62
     7
370
    15
100
AcDbSpline
210
0.0
220
0.0
230
1.0
 70
     8
 71
     3
 72
    10
 73
     6
 74
     0
 42
0.000000001
 43
0.00000001
 40
0.0
 40
0.0
 40
0.0
 40
0.0
 40
0.4391119879276947
 40
0.7513633230734872
 40
1.0
 40
1.0
 40
1.0
 40
1.0
 10
278.3712791657973
 20
44.30046464429367
 30
0.0
 10
278.3445395312889
 20
44.20790238204452
 30
0.0
 10
278.2987854157233
 20
44.04951934795122
 30
0.0
 10
278.2322732895057
 20
43.93280405590249
 30
0.0
 10
278.1991679238326
 20
43.90871681738927
 30
0.0
 10
278.1844926090956
 20
43.89803915837113
 30
0.0
  0
SPLINE
  5
17A
330
1F
100
AcDbEntity
  8
0
  6
Continuous
 62
     7
370
    15
100
AcDbSpline
210
0.0
220
0.0
230
1.0
 70
     8
 71
     3
 72
    11
 73
     7
 74
     0
 42
0.000000001
 43
0.00000001
 40
0.0
 40
0.0
 40
0.0
 40
0.0
 40
0.1849308168245047
 40
0.5198464202157134
 40
0.871443823369318
 40
1.0
 40
1.0
 40
1.0
 40
1.0
 10
277.8609688027174
 20
44.59506054624956
 30
0.0
 10
277.8906713592883
 20
44.56199011280685
 30
0.0
 10
277.97416619249
 20
44.46902807037727
 30
0.0
 10
278.1300252433158
 20
44.34598176852311
 30
0.0
 10
278.273967453717
 20
44.30338286683497
 30
0.0
 10
278.3507274635868
 20
44.30108095695913
 30
0.0
 10
278.3712791657973
 20
44.30046464429367
 30
0.0
  0
SPLINE
  5
17B
330
1F
100
AcDbEntity
  8
0
  6
Continuous
 62
     7
370
    15
100
AcDbSpline
210
0.0
220
0.0
230
1.0
 70
     8
 71
     3
 72
    10
 73
     6
 74
     0
 42
0.000000001
 43
0.00000001
 40
0.0
 40
0.0
 40
0.0
 40
0.0
 40
0.4391119879276965
 40
0.7513633230734765
 40
1.0
 40
1.0
 40
1.0
 40
1.0
 10
277.1638718829359
 20
44.48723096228292
 30
0.0
 10
277.2636655574967
 20
44.46771482452882
 30
0.0
 10
277.4344222414431
 20
44.43432081452767
 30
0.0
 10
277.6826488758068
 20
44.4993003414796
 30
0.0
 10
277.8061997825018
 20
44.56564884402557
 30
0.0
 10
277.8609688027174
 20
44.59506054624957
 30
0.0
  0
SPLINE
  5
17C
330
1F
100
AcDbEntity
  8
0
  6
Continuous
 62
     7
370
    15
100
AcDbSpline
210
0.0
220
0.0
230
1.0
 70
     8
 71
     3
 72
    10
 73
     6
 74
     0
 42
0.000000001
 43
0.00000001
 40
0.0
 40
0.0
 40
0.0
 40
0.0
 40
0.4391119879276908
 40
0.7513633230734796
 40
1.0
 40
1.0
 40
1.0
 40
1.0
 10
276.9770853262342
 20
44.08480547636038
 30
0.0
 10
277.0038249607425
 20
44.10746253824675
 30
0.0
 10
277.0495790763082
 20
44.14623097495095
 30
0.0
 10
277.1160912025259
 20
44.31611205456326
 30
0.0
 10
277.1491965681989
 20
44.43467365655414
 30
0.0
 10
277.1638718829359
 20
44.48723096228292
 30
0.0
  0
LINE
  5
17D
330
1F
100
AcDbEntity
  8
0
  6
Continuous
 62
     7
370
    15
100
AcDbLine
 10
277.1638718829
 20
43.8984636006
 30
0.0
 11
277.1638718829
 21
44.4872309623
 31
0.0
  0
LINE
  5
17E
330
1F
100
AcDbEntity
  8
0
  6
Continuous
 62
     7
370
    15
100
AcDbLine
 10
277.8609688027
 20
43.7964296529
 30
0.0
 11
277.8609688027
 21
44.5950605462
 31
0.0
  0
ARC
  5
17F
330
1F
100
AcDbEntity
  8
0
  6
Continuous
 62
     7
370
    15
100
AcDbCircle
 10
278.9514404521
 20
57.2054172468
 30
0.0
 40
8.684059238293631
100
AcDbArc
 50
34.8054510415
 51
84.8423200841
  0
ARC
  5
180
330
1F
100
AcDbEntity
  8
0
  6
Continuous
 62
     7
370
    15
100
AcDbCircle
 10
262.6443202875
 20
28.959369889
 30
0.0
 40
8.684779380439544
100
AcDbArc
 50
214.8484415773
 51
264.9829834624
  0
LWPOLYLINE
  5
181
330
1F
100
AcDbEntity
  8
0
  6
Continuous
 62
     7
370
    15
100
AcDbPolyline
 90
        9
 70
   128
 43
0.0
 10
256.0800371151
 20
22.7116761327
 10
255.9137138519
 20
22.8102821435
 10
254.922819464
 20
23.5167373352
 10
254.0283983583
 20
24.3704587681
 10
253.23676911
 20
25.3654153868
 10
252.5535241285
 20
26.49457839
 10
251.9834901503
 20
27.7499708845
 10
251.5306941405
 20
29.1227242381
 10
251.1983348447
 20
30.6031407306
  0
SPLINE
  5
182
330
1F
100
AcDbEntity
  8
0
  6
Continuous
 62
     7
370
    15
100
AcDbSpline
210
0.0
220
0.0
230
1.0
 70
     8
 71
     3
 72
    32
 73
    28
 74
     0
 42
0.000000001
 43
0.00000001
 40
0.0
 40
0.0
 40
0.0
 40
0.0
 40
0.0193254758647258
 40
0.0385826927399014
 40
0.0577846348003733
 40
0.0769443985950771
 40
0.0960751672943215
 40
0.1151901840580798
 40
0.1343027247879751
 40
0.1534260705402312
 40
0.172573479885108
 40
0.1917581614995186
 40
0.2109932472740069
 40
0.2302917662029109
 40
0.2496666193081449
 40
0.3745846283005043
 40
0.4997410234224777
 40
0.4999962720873377
 40
0.6248627021449072
 40
0.7503411293897363
 40
0.7861451323127985
 40
0.8217618640028611
 40
0.8572756267732794
 40
0.8927714566788081
 40
0.9283345184945242
 40
0.9640494961196089
 40
1.0
 40
1.0
 40
1.0
 40
1.0
 10
251.1982795687104
 20
38.05496549704866
 30
0.0
 10
251.220222785998
 20
37.9948744533347
 30
0.0
 10
251.2640317155303
 20
37.87490461185369
 30
0.0
 10
251.3264709667523
 20
37.69415705774657
 30
0.0
 10
251.386379594279
 20
37.51331366133115
 30
0.0
 10
251.4435661799125
 20
37.33230654579111
 30
0.0
 10
251.4981242511205
 20
37.15117714347006
 30
0.0
 10
251.5500719977112
 20
36.96993862613919
 30
0.0
 10
251.5994484771741
 20
36.78861267192929
 30
0.0
 10
251.6462878586217
 20
36.60721959519346
 30
0.0
 10
251.6906264649674
 20
36.42578123979029
 30
0.0
 10
251.7325003081907
 20
36.2443193508164
 30
0.0
 10
251.7719478993792
 20
36.06285929836299
 30
0.0
 10
251.8090014187395
 20
35.88141685266969
 30
0.0
 10
251.9066935183736
 20
35.37106590092761
 30
0.0
 10
252.024189717207
 20
34.54446437223936
 30
0.0
 10
252.0590411533276
 20
33.829144876946
 30
0.0
 10
252.0594369775016
 20
33.15243291204504
 30
0.0
 10
252.0243856264553
 20
32.5107417879474
 30
0.0
 10
251.8994515462842
 20
31.88944084916708
 30
0.0
 10
251.7787253654113
 20
31.51681674717655
 30
0.0
 10
251.7044179528886
 20
31.32802004603404
 30
0.0
 10
251.6215044816566
 20
31.15382876306689
 30
0.0
 10
251.5298056806473
 20
30.99401259300152
 30
0.0
 10
251.4289036130253
 20
30.8488087203917
 30
0.0
 10
251.3193507162262
 20
30.71676176027453
 30
0.0
 10
251.2388224183252
 20
30.64106227534296
 30
0.0
 10
251.1984259425693
 20
30.60308814093952
 30
0.0
  0
LWPOLYLINE
  5
183
330
1F
100
AcDbEntity
  8
0
  6
Continuous
 62
     7
370
    15
100
AcDbPolyline
 90
       27
 70
   128
 43
0.0
 10
251.1982795685
 20
38.0549654972
 10
251.5306189084
 20
39.9191313595
 10
251.9833984669
 20
41.8146906731
 10
252.5534195354
 20
43.7282520612
 10
253.2366551405
 20
45.6462969696
 10
254.0282784931
 20
47.5552751699
 10
254.9226970873
 20
49.4417004861
 10
255.9135922095
 20
51.2922460697
 10
256.9939635777
 20
53.0938385483
 10
258.1561787956
 20
54.8337503836
 10
259.3920272724
 20
56.4996897867
 10
260.6927782275
 20
58.079887555
 10
262.04924237
 20
59.5631802162
 10
263.4518368174
 20
60.9390888945
 10
264.8906527946
 20
62.1978933393
 10
266.3555256361
 20
63.3307005952
 10
267.8361065946
 20
64.3295078272
 10
269.3219359514
 20
65.1872588571
 10
270.80251691
 20
65.8978940134
 10
272.2673897514
 20
66.4563929397
 10
273.7062057286
 20
66.8588100621
 10
275.108800176
 20
67.1023024628
 10
276.4652643185
 20
67.1851499643
 10
277.7660152736
 20
67.1067672818
 10
279.0018637504
 20
66.8677081579
 10
280.1640789683
 20
66.4696614508
 10
281.078005431
 20
66.0141192517
  0
SPLINE
  5
184
330
1F
100
AcDbEntity
  8
0
  6
Continuous
 62
     7
370
    15
100
AcDbSpline
210
0.0
220
0.0
230
1.0
 70
     8
 71
     3
 72
     8
 73
     4
 74
     0
 42
0.000000001
 43
0.00000001
 40
0.0
 40
0.0
 40
0.0
 40
0.0
 40
1.0
 40
1.0
 40
1.0
 40
1.0
 10
250.2362862896542
 20
43.49030321497507
 30
0.0
 10
249.0666598697163
 20
43.29474704173234
 30
0.0
 10
247.8960566268564
 20
43.10116207501243
 30
0.0
 10
246.7248251452036
 20
42.90888262576615
 30
0.0
  0
SPLINE
  5
185
330
1F
100
AcDbEntity
  8
0
  6
Continuous
 62
     7
370
    15
100
AcDbSpline
210
0.0
220
0.0
230
1.0
 70
     8
 71
     3
 72
     8
 73
     4
 74
     0
 42
0.000000001
 43
0.00000001
 40
0.0
 40
0.0
 40
0.0
 40
0.0
 40
0.0012417047560385
 40
0.0012417047560385
 40
0.0012417047560385
 40
0.0012417047560385
 10
246.2503245415539
 20
43.18285804664602
 30
0.0
 10
246.4085956820143
 20
43.09147272188808
 30
0.0
 10
246.5667649876935
 20
43.00014617448447
 30
0.0
 10
246.7248251452036
 20
42.90888262576615
 30
0.0
  0
LWPOLYLINE
  5
186
330
1F
100
AcDbEntity
  8
0
  6
Continuous
 62
     7
370
    15
100
AcDbPolyline
 90
       29
 70
   128
 43
0.0
 10
246.2503245416
 20
43.1828580466
 10
246.711771631
 20
45.0683180077
 10
247.2885802007
 20
46.9702760438
 10
247.9767287106
 20
48.8754716028
 10
248.7714193527
 20
50.7706215601
 10
249.6671115019
 20
52.6425128297
 10
250.6575603448
 20
54.4780944862
 10
251.7358604196
 20
56.2645687569
 10
252.894493761
 20
57.9894802486
 10
254.1253823158
 20
59.6408027866
 10
255.4199442636
 20
61.2070232627
 10
256.76915385
 20
62.6772219046
 10
258.1636043141
 20
64.0411484093
 10
259.5935734733
 20
65.2892934089
 10
261.0490915066
 20
66.4129547703
 10
262.5200104652
 20
67.4042982667
 10
263.996075024
 20
68.2564121987
 10
265.4669939826
 20
68.9633555828
 10
266.9225120159
 20
69.5201995722
 10
268.352481175
 20
69.9230618211
 10
269.7469316391
 20
70.1691335524
 10
271.0961412255
 20
70.256699141
 10
272.3907031734
 20
70.185148075
 10
273.6215917282
 20
69.9549792122
 10
274.7802250695
 20
69.5677973022
 10
275.8585251444
 20
69.0263017977
 10
276.8489739873
 20
68.3342680341
 10
277.7446661364
 20
67.4965209076
 10
278.1311771889
 20
67.0539796109
  0
LINE
  5
187
330
1F
100
AcDbEntity
  8
0
  6
Continuous
 62
     7
370
    15
100
AcDbLine
 10
242.1225887064
 20
45.565749223
 30
0.0
 11
246.2503245416
 21
43.1828580466
 31
0.0
  0
ARC
  5
188
330
1F
100
AcDbEntity
  8
0
  6
Continuous
 62
     7
370
    15
100
AcDbCircle
 10
267.2388738783
 20
63.7353619467
 30
0.0
 40
8.892749362159526
100
AcDbArc
 50
60.4154415272
 51
84.6559311563
  0
SPLINE
  5
189
330
1F
100
AcDbEntity
  8
0
  6
Continuous
 62
     7
370
    15
100
AcDbSpline
210
0.0
220
0.0
230
1.0
 70
     8
 71
     3
 72
    10
 73
     6
 74
     0
 42
0.000000001
 43
0.00000001
 40
0.0
 40
0.0
 40
0.0
 40
0.0
 40
0.199265986756844
 40
0.6713473065754069
 40
1.0
 40
1.0
 40
1.0
 40
1.0
 10
252.0798838759787
 20
42.10008772777441
 30
0.0
 10
251.9950202473328
 20
42.21122546671025
 30
0.0
 10
251.7091060808212
 20
42.58565977387828
 30
0.0
 10
251.2172559706329
 20
43.03565547319695
 30
0.0
 10
250.8002487921617
 20
43.31712897578328
 30
0.0
 10
250.629092665264
 20
43.4326567580714
 30
0.0
  0
SPLINE
  5
18A
330
1F
100
AcDbEntity
  8
0
  6
Continuous
 62
     7
370
    15
100
AcDbSpline
210
0.0
220
0.0
230
1.0
 70
     8
 71
     3
 72
    10
 73
     6
 74
     0
 42
0.000000001
 43
0.00000001
 40
0.0
 40
0.0
 40
0.0
 40
0.0
 40
0.5
 40
0.5
 40
1.0
 40
1.0
 40
1.0
 40
1.0
 10
250.4931633180318
 20
43.48518673988072
 30
0.0
 10
250.4525880096369
 20
43.49401126120768
 30
0.0
 10
250.4090136665832
 20
43.49896433711636
 30
0.0
 10
250.3212109395965
 20
43.50054952238249
 30
0.0
 10
250.2782428226746
 20
43.49731815487394
 30
0.0
 10
250.2362862896542
 20
43.49030321497507
 30
0.0
  0
SPLINE
  5
18B
330
1F
100
AcDbEntity
  8
0
  6
Continuous
 62
     7
370
    15
100
AcDbSpline
210
0.0
220
0.0
230
1.0
 70
     8
 71
     3
 72
     8
 73
     4
 74
     0
 42
0.000000001
 43
0.00000001
 40
0.0
 40
0.0
 40
0.0
 40
0.0
 40
1.0
 40
1.0
 40
1.0
 40
1.0
 10
250.629092665264
 20
43.4326567580714
 30
0.0
 10
250.5906107234278
 20
43.45632756786727
 30
0.0
 10
250.5445030716809
 20
43.47402111307672
 30
0.0
 10
250.4931633180319
 20
43.48518673988076
 30
0.0
  0
SPLINE
  5
18C
330
1F
100
AcDbEntity
  8
0
  6
Continuous
 62
     7
370
    15
100
AcDbSpline
210
0.0
220
0.0
230
1.0
 70
     8
 71
     3
 72
    10
 73
     6
 74
     0
 42
0.000000001
 43
0.00000001
 40
0.0
 40
0.0
 40
0.0
 40
0.0
 40
0.5
 40
0.5
 40
1.0
 40
1.0
 40
1.0
 40
1.0
 10
241.9658917865666
 20
45.65619710620914
 30
0.0
 10
241.9769423849167
 20
45.649821271665
 30
0.0
 10
241.9955623308561
 20
45.63907503015961
 30
0.0
 10
242.0488622809167
 20
45.60830955731966
 30
0.0
 10
242.082443053638
 20
45.5889248150487
 30
0.0
 10
242.1225887063775
 20
45.56574922302854
 30
0.0
  0
LINE
  5
18D
330
1F
100
AcDbEntity
  8
0
  6
Continuous
 62
     7
370
    15
100
AcDbLine
 10
241.9658917866
 20
45.6561971062
 30
0.0
 11
241.9902000433
 21
45.8078360934
 31
0.0
  0
SPLINE
  5
18E
330
1F
100
AcDbEntity
  8
0
  6
Continuous
 62
     7
370
    15
100
AcDbSpline
210
0.0
220
0.0
230
1.0
 70
     8
 71
     3
 72
     9
 73
     5
 74
     0
 42
0.000000001
 43
0.00000001
 40
0.0
 40
0.0
 40
0.0
 40
0.0
 40
0.5377956222894344
 40
1.0
 40
1.0
 40
1.0
 40
1.0
 10
250.629092665264
 20
32.9433006951283
 30
0.0
 10
250.8691588387115
 20
32.81653464758681
 30
0.0
 10
251.3155480681839
 20
32.58082047981088
 30
0.0
 10
251.7071542256269
 20
32.46517584079663
 30
0.0
 10
251.8881563059354
 20
32.41172438238549
 30
0.0
  0
SPLINE
  5
18F
330
1F
100
AcDbEntity
  8
0
  6
Continuous
 62
     7
370
    15
100
AcDbSpline
210
0.0
220
0.0
230
1.0
 70
     8
 71
     3
 72
     8
 73
     4
 74
     0
 42
0.000000001
 43
0.00000001
 40
0.0
 40
0.0
 40
0.0
 40
0.0
 40
1.0
 40
1.0
 40
1.0
 40
1.0
 10
250.4931633180324
 20
32.99263730714871
 30
0.0
 10
250.5444917000296
 20
32.98147415350842
 30
0.0
 10
250.5906122641338
 20
32.96476014920671
 30
0.0
 10
250.6290926652641
 20
32.94330069512832
 30
0.0
  0
SPLINE
  5
190
330
1F
100
AcDbEntity
  8
0
  6
Continuous
 62
     7
370
    15
100
AcDbSpline
210
0.0
220
0.0
230
1.0
 70
     8
 71
     3
 72
    12
 73
     8
 74
     0
 42
0.000000001
 43
0.00000001
 40
0.0
 40
0.0
 40
0.0
 40
0.0
 40
0.1882390091646456
 40
0.3552108137215437
 40
0.5009575804481068
 40
0.7563190982906866
 40
1.0
 40
1.0
 40
1.0
 40
1.0
 10
251.3090798343642
 20
31.32706229784699
 30
0.0
 10
251.3981233641462
 20
31.42134395040304
 30
0.0
 10
251.566150303997
 20
31.59925533376651
 30
0.0
 10
251.7460597000196
 20
31.9465723787221
 30
0.0
 10
251.9075835173671
 20
32.40722621390066
 30
0.0
 10
252.0333374374133
 20
33.02875456970854
 30
0.0
 10
252.0506400199569
 20
33.61205557561912
 30
0.0
 10
252.0590888185979
 20
33.89687968980139
 30
0.0
  0
SPLINE
  5
191
330
1F
100
AcDbEntity
  8
0
  6
Continuous
 62
     7
370
    15
100
AcDbSpline
210
0.0
220
0.0
230
1.0
 70
     8
 71
     3
 72
     9
 73
     5
 74
     0
 42
0.000000001
 43
0.00000001
 40
0.0
 40
0.0
 40
0.0
 40
0.0
 40
0.5048005003628353
 40
1.0
 40
1.0
 40
1.0
 40
1.0
 10
251.1983454223334
 20
30.60303777758588
 30
0.0
 10
251.2168903206671
 20
30.72475165363047
 30
0.0
 10
251.2536274045653
 20
30.96586448128636
 30
0.0
 10
251.2907245159212
 20
31.20737071453353
 30
0.0
 10
251.3090949869026
 20
31.32696448039679
 30
0.0
  0
LWPOLYLINE
  5
192
330
1F
100
AcDbEntity
  8
0
  6
Continuous
 62
     7
370
    15
100
AcDbPolyline
 90
       38
 70
   128
 43
0.0
 10
279.9899569544
 20
42.797230733
 10
279.255021954
 20
42.3007288312
 10
278.5412296955
 20
41.6740444714
 10
277.8691146826
 20
40.9352062215
 10
277.2580124404
 20
40.1054691129
 10
276.7255032678
 20
39.2087031714
 10
276.2869064842
 20
38.2707067205
 10
275.9548397206
 20
37.3184642102
 10
275.738855933
 20
36.3793699237
 10
275.6451685818
 20
35.4804398941
 10
275.6764728816
 20
34.6475347014
 10
275.8318682646
 20
33.9046155116
 10
276.1068842886
 20
33.2730547573
 10
276.4936092433
 20
32.7710212913
 10
276.9809177559
 20
32.4129577026
 10
277.5547908477
 20
32.2091648285
 10
278.1987192347
 20
32.165505419
 10
278.8941782695
 20
32.283235476
 10
279.6211608621
 20
32.5589681199
 10
280.3587530467
 20
32.9847710246
 10
281.0857356393
 20
33.5483946159
 10
281.7811946741
 20
34.2336244691
 10
282.4251230611
 20
35.0207477691
 10
282.9989961529
 20
35.8871204115
 10
283.4863046655
 20
36.8078184329
 10
283.8730296202
 20
37.7563550275
 10
284.1480456442
 20
38.7054425244
 10
284.3034410272
 20
39.6277774044
 10
284.334745327
 20
40.4968257723
 10
284.2410579758
 20
41.2875866888
 10
284.0250741882
 20
41.977311402
 10
283.6930074246
 20
42.5461577878
 10
283.254410641
 20
42.9777611713
 10
282.7219014684
 20
43.259705109
 10
282.1107992262
 20
43.3838785871
 10
281.4386842133
 20
43.3467093608
 10
280.7248919548
 20
43.149266721
 10
279.9899569544
 20
42.797230733
  0
LWPOLYLINE
  5
193
330
1F
100
AcDbEntity
  8
0
  6
Continuous
 62
     7
370
    15
100
AcDbPolyline
 90
       21
 70
   128
 43
0.0
 10
279.9192462763
 20
42.9197052198
 10
279.1918340829
 20
42.4301756465
 10
278.484263798
 20
41.814792259
 10
277.8158360944
 20
41.0903411118
 10
277.2047839373
 20
40.2765833438
 10
276.6677752368
 20
39.3957161455
 10
276.2194581903
 20
38.471767278
 10
275.8720617181
 20
37.5299396576
 10
275.6350618905
 20
36.5959238869
 10
275.5149234448
 20
35.6951974811
 10
275.5149234448
 20
34.8523299086
 10
275.6350618905
 20
34.0903123997
 10
275.8720617181
 20
33.4299308054
 10
276.2194581903
 20
32.8891986143
 10
276.6677752368
 20
32.4828655909
 10
277.2047839373
 20
32.2220154408
 10
277.8158360944
 20
32.1137634763
 10
278.484263798
 20
32.1610625285
 10
279.1918340829
 20
32.3626224028
 10
279.9192462763
 20
32.7129450712
 10
279.9199645559
 20
32.7133597926
  0
LWPOLYLINE
  5
194
330
1F
100
AcDbEntity
  8
0
  6
Continuous
 62
     7
370
    15
100
AcDbPolyline
 90
       11
 70
   128
 43
0.0
 10
284.3386636587
 20
40.3676004949
 10
284.3235691077
 20
40.7803203824
 10
284.2034306621
 20
41.5423378913
 10
283.9664308345
 20
42.2027194856
 10
283.6190343623
 20
42.7434516767
 10
283.1707173158
 20
43.1497847001
 10
282.6337086152
 20
43.4106348502
 10
282.0226564582
 20
43.5188868148
 10
281.3542287545
 20
43.4715877625
 10
280.6466584696
 20
43.2700278882
 10
279.9192462763
 20
42.9197052198
  0
SPLINE
  5
195
330
1F
100
AcDbEntity
  8
0
  6
Continuous
 62
     7
370
    15
100
AcDbSpline
210
0.0
220
0.0
230
1.0
 70
    11
 71
     3
 72
    64
 73
    60
 74
     0
 42
0.000000001
 43
0.00000001
 40
0.0
 40
0.0
 40
0.0
 40
0.0
 40
0.0312500000000002
 40
0.0312500000000002
 40
0.0625000000000005
 40
0.0625000000000005
 40
0.0937500000000007
 40
0.0937500000000007
 40
0.125000000000001
 40
0.125000000000001
 40
0.1562500000000012
 40
0.1562500000000012
 40
0.1875000000000015
 40
0.1875000000000015
 40
0.2187500000000017
 40
0.2187500000000017
 40
0.250000000000002
 40
0.250000000000002
 40
0.2812500000000022
 40
0.2812500000000022
 40
0.3125000000000025
 40
0.3125000000000025
 40
0.3437500000000028
 40
0.3437500000000028
 40
0.375000000000003
 40
0.375000000000003
 40
0.4062500000000032
 40
0.4062500000000032
 40
0.4375000000000035
 40
0.4375000000000035
 40
0.4687500000000037
 40
0.4687500000000037
 40
0.5000000000000039
 40
0.5000000000000039
 40
0.531250000000004
 40
0.531250000000004
 40
0.5625000000000041
 40
0.5625000000000041
 40
0.6250000000000044
 40
0.6250000000000044
 40
0.6875000000000047
 40
0.6875000000000047
 40
0.7187500000000043
 40
0.7187500000000043
 40
0.7500000000000039
 40
0.7500000000000039
 40
0.7812500000000034
 40
0.7812500000000034
 40
0.812500000000003
 40
0.812500000000003
 40
0.8437500000000027
 40
0.8437500000000027
 40
0.8750000000000022
 40
0.8750000000000022
 40
0.9062500000000018
 40
0.9062500000000018
 40
0.9375000000000013
 40
0.9375000000000013
 40
1.0
 40
1.0
 40
1.0
 40
1.0
 10
277.6667807353607
 20
44.96975273151431
 30
0.0
 10
277.7602396522153
 20
44.95658607810156
 30
0.0
 10
277.8513399739877
 20
44.93870441411173
 30
0.0
 10
278.0293250793293
 20
44.89512734917871
 30
0.0
 10
278.1168000807733
 20
44.8692082867825
 30
0.0
 10
278.2847492216656
 20
44.81099049205564
 30
0.0
 10
278.3641914490707
 20
44.77912050106059
 30
0.0
 10
278.5144016441144
 20
44.71049466782581
 30
0.0
 10
278.5857747125376
 20
44.67335053028025
 30
0.0
 10
278.7157815359615
 20
44.59618378266116
 30
0.0
 10
278.774458760861
 20
44.55626101847095
 30
0.0
 10
278.8792546737722
 20
44.47356507086354
 30
0.0
 10
278.9257104793044
 20
44.43034333378
 30
0.0
 10
279.0024498432646
 20
44.34321911539425
 30
0.0
 10
279.0330452610299
 20
44.29922594019856
 30
0.0
 10
279.078288220604
 20
44.20960023565053
 30
0.0
 10
279.0928998057183
 20
44.1634851327573
 30
0.0
 10
279.1037498770649
 20
44.07221580628364
 30
0.0
 10
279.100316598771
 20
44.02679025607193
 30
0.0
 10
279.074555183373
 20
43.9354231775679
 30
0.0
 10
279.0517541201345
 20
43.88913784111084
 30
0.0
 10
278.9878276339347
 20
43.79998233423358
 30
0.0
 10
278.9466995360827
 20
43.75654658172176
 30
0.0
 10
278.8445533979098
 20
43.67157916286962
 30
0.0
 10
278.7843546705284
 20
43.63094017574287
 30
0.0
 10
278.6499184866223
 20
43.55584551333876
 30
0.0
 10
278.5740044653853
 20
43.52054520493174
 30
0.0
 10
278.4128213712876
 20
43.45834344090903
 30
0.0
 10
278.3277270938838
 20
43.43130293170807
 30
0.0
 10
278.1488106157137
 20
43.38562680063101
 30
0.0
 10
278.0569722606799
 20
43.36756012618446
 30
0.0
 10
277.8718578389638
 20
43.34148574190315
 30
0.0
 10
277.7772170721061
 20
43.33338349947226
 30
0.0
 10
277.5917915036342
 20
43.32802435866969
 30
0.0
 10
277.500541024807
 20
43.33060702261022
 30
0.0
 10
277.3207561844862
 20
43.34672726252797
 30
0.0
 10
277.2329484698245
 20
43.36031320891798
 30
0.0
 10
276.9827103942379
 20
43.41663273587947
 30
0.0
 10
276.8284287363598
 20
43.4765083826918
 30
0.0
 10
276.5694548136134
 20
43.63217669631631
 30
0.0
 10
276.461498990588
 20
43.72998092074397
 30
0.0
 10
276.3466227830793
 20
43.89275735387743
 30
0.0
 10
276.3154758436203
 20
43.95039180578433
 30
0.0
 10
276.2698150902015
 20
44.06968553033508
 30
0.0
 10
276.2555890077705
 20
44.13026319878828
 30
0.0
 10
276.2446252296601
 20
44.25251684347614
 30
0.0
 10
276.2480417526141
 20
44.31488886969772
 30
0.0
 10
276.2741112978939
 20
44.43658616877036
 30
0.0
 10
276.296394713245
 20
44.49527897888245
 30
0.0
 10
276.3602640761287
 20
44.60742671144694
 30
0.0
 10
276.4026852464016
 20
44.66149924647411
 30
0.0
 10
276.5043671906942
 20
44.75797260043031
 30
0.0
 10
276.5636112796886
 20
44.80090907947974
 30
0.0
 10
276.6996049915802
 20
44.87557482928342
 30
0.0
 10
276.7750862604526
 20
44.90639868806531
 30
0.0
 10
276.9358687140671
 20
44.95403290923752
 30
0.0
 10
277.0228855710325
 20
44.97123763246506
 30
0.0
 10
277.2897696619689
 20
45.00214493592782
 30
0.0
 10
277.4798629016513
 20
44.99608603833981
 30
0.0
 10
277.6667807353606
 20
44.9697527315143
 30
0.0
  0
LINE
  5
196
330
1F
100
AcDbEntity
  8
0
  6
Continuous
 62
     7
370
    15
100
AcDbLine
 10
282.4086563518
 20
37.8202273093
 30
0.0
 11
283.2691646522
 21
38.8906914542
 31
0.0
  0
SPLINE
  5
197
330
1F
100
AcDbEntity
  8
0
  6
Continuous
 62
     7
370
    15
100
AcDbSpline
210
0.0
220
0.0
230
1.0
 70
     8
 71
     3
 72
    22
 73
    18
 74
     0
 42
0.000000001
 43
0.00000001
 40
0.0
 40
0.0
 40
0.0
 40
0.0
 40
0.0416666666666662
 40
0.0833333333333335
 40
0.1250000000000033
 40
0.1666666666666681
 40
0.2083333333333338
 40
0.2499999999999221
 40
0.2968749999997846
 40
0.34375
 40
0.390625
 40
0.4375
 40
0.4863049253904979
 40
0.4863049253904979
 40
0.53125
 40
0.6249999999999818
 40
0.82897913399167
 40
0.82897913399167
 40
0.82897913399167
 40
0.82897913399167
 10
283.269164652159
 20
38.89069145424288
 30
0.0
 10
283.3035763307523
 20
38.93349925526715
 30
0.0
 10
283.3708379660548
 20
39.0253316826119
 30
0.0
 10
283.4648771963255
 20
39.18142335119377
 30
0.0
 10
283.5477229956186
 20
39.35405926864935
 30
0.0
 10
283.6136653906793
 20
39.53777367753241
 30
0.0
 10
283.6569025989795
 20
39.72454311184011
 30
0.0
 10
283.6735583968741
 20
39.91262302859415
 30
0.0
 10
283.6566380225747
 20
40.08936865285131
 30
0.0
 10
283.6019296699912
 20
40.24051145154121
 30
0.0
 10
283.5156789146587
 20
40.35163516226498
 30
0.0
 10
283.4019509208226
 20
40.42203422062751
 30
0.0
 10
283.3181192647367
 20
40.44192876907268
 30
0.0
 10
283.2367217276721
 20
40.44972416109319
 30
0.0
 10
283.1294368422908
 20
40.45850389157077
 30
0.0
 10
282.9419856387198
 20
40.47594702448368
 30
0.0
 10
282.6338298515358
 20
40.50346606785933
 30
0.0
 10
282.4085581110313
 20
40.52353075039617
 30
0.0
  0
SPLINE
  5
198
330
1F
100
AcDbEntity
  8
0
  6
Continuous
 62
     7
370
    15
100
AcDbSpline
210
0.0
220
0.0
230
1.0
 70
     8
 71
     3
 72
    22
 73
    18
 74
     0
 42
0.000000001
 43
0.00000001
 40
0.0
 40
0.0
 40
0.0
 40
0.0
 40
0.0416666666666662
 40
0.0833333333333335
 40
0.1250000000000033
 40
0.1666666666666681
 40
0.2083333333333338
 40
0.2499999999999221
 40
0.2968749999997846
 40
0.34375
 40
0.390625
 40
0.4375
 40
0.4863049253904979
 40
0.4863049253904979
 40
0.53125
 40
0.6249999999999818
 40
0.8265829076565241
 40
0.8265829076565241
 40
0.8265829076565241
 40
0.8265829076565241
 10
276.7107492566444
 20
35.10459883565962
 30
0.0
 10
276.6771415876357
 20
35.1076038677032
 30
0.0
 10
276.6087028007803
 20
35.12188291920368
 30
0.0
 10
276.5151366949897
 20
35.16935689834676
 30
0.0
 10
276.4321641251053
 20
35.246352430085
 30
0.0
 10
276.3662556879298
 20
35.35392832291106
 30
0.0
 10
276.3230094186804
 20
35.49077799019924
 30
0.0
 10
276.3063560019437
 20
35.65962716009074
 30
0.0
 10
276.3232761262799
 20
35.8559093212043
 30
0.0
 10
276.3779827789788
 20
36.07021464665485
 30
0.0
 10
276.4642405934264
 20
36.28093021531376
 30
0.0
 10
276.5779416865009
 20
36.4826033376876
 30
0.0
 10
276.6618425201175
 20
36.59937391152059
 30
0.0
 10
276.7432636855748
 20
36.70117829426023
 30
0.0
 10
276.8505233715245
 20
36.83379517365741
 30
0.0
 10
277.0353129577584
 20
37.06434905861219
 30
0.0
 10
277.3473540064443
 20
37.45249571781808
 30
0.0
 10
277.5713573830392
 20
37.73107799139942
 30
0.0
  0
LINE
  5
199
330
1F
100
AcDbEntity
  8
0
  6
Continuous
 62
     7
370
    15
100
AcDbLine
 10
277.571257557
 20
35.0276564266
 30
0.0
 11
276.7107492566
 21
35.1045988357
 31
0.0
  0
LINE
  5
19A
330
1F
100
AcDbEntity
  8
0
  6
Continuous
 62
     7
370
    15
100
AcDbLine
 10
242.3999588867
 20
45.4055747732
 30
0.0
 11
241.9658917866
 21
45.6561971062
 31
0.0
  0
LINE
  5
19B
330
1F
100
AcDbEntity
  8
0
  6
Continuous
 62
     7
370
    15
100
AcDbLine
 10
246.7248251452
 20
42.9088826258
 30
0.0
 11
242.3999588867
 21
45.4055747732
 31
0.0
  0
SPLINE
  5
19C
330
1F
100
AcDbEntity
  8
0
  6
Continuous
 62
     7
370
    15
100
AcDbSpline
210
0.0
220
0.0
230
1.0
 70
     8
 71
     3
 72
    11
 73
     7
 74
     0
 42
0.000000001
 43
0.00000001
 40
0.0
 40
0.0
 40
0.0
 40
0.0
 40
0.3181896030990278
 40
0.6363835945670823
 40
0.954614030219678
 40
1.0
 40
1.0
 40
1.0
 40
1.0
 10
276.6400385785304
 20
35.36848906970917
 30
0.0
 10
276.5811629868091
 20
35.3829626214082
 30
0.0
 10
276.4634109913731
 20
35.41190992442086
 30
0.0
 10
276.3547801568539
 20
35.57275702809412
 30
0.0
 10
276.3031070534521
 20
35.72505359482552
 30
0.0
 10
276.3151876708915
 20
35.82538804988945
 30
0.0
 10
276.3166955526312
 20
35.8379116227465
 30
0.0
  0
SPLINE
  5
19D
330
1F
100
AcDbEntity
  8
0
  6
Continuous
 62
     7
370
    15
100
AcDbSpline
210
0.0
220
0.0
230
1.0
 70
     8
 71
     3
 72
    13
 73
     9
 74
     0
 42
0.000000001
 43
0.00000001
 40
0.0
 40
0.0
 40
0.0
 40
0.0
 40
0.0288402376854876
 40
0.1721961094577878
 40
0.4144071488382385
 40
0.6370626527581399
 40
0.8650557730763179
 40
1.0
 40
1.0
 40
1.0
 40
1.0
 10
277.6956294534609
 20
37.90672131554611
 30
0.0
 10
277.6955899605672
 20
37.90610439353711
 30
0.0
 10
277.6953541607545
 20
37.90242094366594
 30
0.0
 10
277.6835672930745
 20
37.88183029875905
 30
0.0
 10
277.6609080256432
 20
37.84756281539994
 30
0.0
 10
277.6279491178362
 20
37.80304067922839
 30
0.0
 10
277.5980187856011
 20
37.76440224940355
 30
0.0
 10
277.5785836041811
 20
37.74011009153632
 30
0.0
 10
277.5713573830392
 20
37.73107799139942
 30
0.0
  0
SPLINE
  5
19E
330
1F
100
AcDbEntity
  8
0
  6
Continuous
 62
     7
370
    15
100
AcDbSpline
210
0.0
220
0.0
230
1.0
 70
     8
 71
     3
 72
    16
 73
    12
 74
     0
 42
0.000000001
 43
0.00000001
 40
0.0
 40
0.0
 40
0.0
 40
0.0
 40
0.2500000000000077
 40
0.2500000000000077
 40
0.5000000000000153
 40
0.5000000000000153
 40
0.6250000000000191
 40
0.6250000000000191
 40
0.750000000000023
 40
0.750000000000023
 40
1.0
 40
1.0
 40
1.0
 40
1.0
 10
282.4085581110322
 20
40.52353075039611
 30
0.0
 10
282.3843499843368
 20
40.52568693907679
 30
0.0
 10
282.3580196429335
 20
40.52667041126945
 30
0.0
 10
282.2976188662192
 20
40.52436312364883
 30
0.0
 10
282.262236090725
 20
40.5210082266963
 30
0.0
 10
282.2052676866557
 20
40.50843979919165
 30
0.0
 10
282.1855258111224
 20
40.50282377573208
 30
0.0
 10
282.149984888392
 20
40.48974462807048
 30
0.0
 10
282.134602859347
 20
40.48251253770019
 30
0.0
 10
282.0964544418861
 20
40.46118654032045
 30
0.0
 10
282.0802925833666
 20
40.44729812586735
 30
0.0
 10
282.0679831755349
 20
40.43423795661779
 30
0.0
  0
SPLINE
  5
19F
330
1F
100
AcDbEntity
  8
0
  6
Continuous
 62
     7
370
    15
100
AcDbSpline
210
0.0
220
0.0
230
1.0
 70
     8
 71
     3
 72
     8
 73
     4
 74
     0
 42
0.000000001
 43
0.00000001
 40
0.0
 40
0.0
 40
0.0
 40
0.0
 40
1.0
 40
1.0
 40
1.0
 40
1.0
 10
282.0679831755391
 20
40.43423795661236
 30
0.0
 10
282.0355102931739
 20
40.44730031887799
 30
0.0
 10
282.0032395005354
 20
40.46219271126254
 30
0.0
 10
281.9779621845806
 20
40.47678499515771
 30
0.0
  0
LINE
  5
1A0
330
1F
100
AcDbEntity
  8
0
  6
Continuous
 62
     7
370
    15
100
AcDbLine
 10
281.5276827022
 20
40.929136975
 30
0.0
 11
281.4411141185
 21
40.9743957938
 31
0.0
  0
SPLINE
  5
1A1
330
1F
100
AcDbEntity
  8
0
  6
Continuous
 62
     7
370
    15
100
AcDbSpline
210
0.0
220
0.0
230
1.0
 70
     8
 71
     3
 72
    11
 73
     7
 74
     0
 42
0.000000001
 43
0.00000001
 40
0.0
 40
0.0
 40
0.0
 40
0.0
 40
0.0763291486414734
 40
0.4828240100966647
 40
0.8892344489868842
 40
0.9999999999999999
 40
0.9999999999999999
 40
0.9999999999999999
 40
0.9999999999999999
 10
246.2963188308627
 20
40.09284342753924
 30
0.0
 10
246.2958834515327
 20
40.17108256655926
 30
0.0
 10
246.2931294368768
 20
40.66598832039634
 30
0.0
 10
246.2484337796629
 20
41.59897436289368
 30
0.0
 10
246.2103586651012
 20
42.56445817117288
 30
0.0
 10
246.2223766842373
 20
43.08579693360785
 30
0.0
 10
246.2249506291568
 20
43.19745404146469
 30
0.0
  0
LINE
  5
1A2
330
1F
100
AcDbEntity
  8
0
  6
Continuous
 62
     7
370
    15
100
AcDbLine
 10
246.2963188309
 20
38.3170427985
 30
0.0
 11
246.2963188309
 21
40.0928434275
 31
0.0
  0
LINE
  5
1A3
330
1F
100
AcDbEntity
  8
0
  6
Continuous
 62
     7
370
    15
100
AcDbLine
 10
280.9798346463
 20
41.0529917581
 30
0.0
 11
281.9779621846
 21
40.4767849952
 31
0.0
  0
ARC
  5
1A4
330
1F
100
AcDbEntity
  8
0
  6
Continuous
 62
     7
370
    15
100
AcDbCircle
 10
275.7461807834
 20
40.6470969345
 30
0.0
 40
4.276778186802329
100
AcDbArc
 50
339.4410109081
 51
1.8025660262
  0
LINE
  5
1A5
330
1F
100
AcDbEntity
  8
0
  6
Continuous
 62
     7
370
    15
100
AcDbLine
 10
279.7505758238
 20
39.1452141098
 30
0.0
 11
281.9779621846
 21
37.8593713336
 31
0.0
  0
LINE
  5
1A6
330
1F
100
AcDbEntity
  8
0
  6
Continuous
 62
     7
370
    15
100
AcDbLine
 10
278.0279671379
 20
34.8667949384
 30
0.0
 11
278.1145691963
 21
34.821520361
 31
0.0
  0
LINE
  5
1A7
330
1F
100
AcDbEntity
  8
0
  6
Continuous
 62
     7
370
    15
100
AcDbLine
 10
276.3736961425
 20
36.0141964241
 30
0.0
 11
277.5776876555
 21
35.3191469182
 31
0.0
  0
LINE
  5
1A8
330
1F
100
AcDbEntity
  8
0
  6
Continuous
 62
     7
370
    15
100
AcDbLine
 10
245.3682411806
 20
43.5056691748
 30
0.0
 11
245.3692822078
 21
43.6914209067
 31
0.0
  0
ARC
  5
1A9
330
1F
100
AcDbEntity
  8
0
  6
Continuous
 62
     7
370
    15
100
AcDbCircle
 10
257.3253208998
 20
43.2441099974
 30
0.0
 40
11.9599401593445
100
AcDbArc
 50
178.7468639795
 51
202.7557767409
  0
LINE
  5
1AA
330
1F
100
AcDbEntity
  8
0
  6
Continuous
 62
     7
370
    15
100
AcDbLine
 10
277.6290880208
 20
35.2800531456
 30
0.0
 11
276.6400385785
 21
35.3684890697
 31
0.0
  0
SPLINE
  5
1AB
330
1F
100
AcDbEntity
  8
0
  6
Continuous
 62
     7
370
    15
100
AcDbSpline
210
0.0
220
0.0
230
1.0
 70
     8
 71
     3
 72
    16
 73
    12
 74
     0
 42
0.000000001
 43
0.00000001
 40
0.0
 40
0.0
 40
0.0
 40
0.0
 40
0.2499999999999963
 40
0.2499999999999963
 40
0.4999999999999927
 40
0.4999999999999927
 40
0.6250000000000019
 40
0.6250000000000019
 40
0.7500000000000112
 40
0.7500000000000112
 40
1.0
 40
1.0
 40
1.0
 40
1.0
 10
277.5712575569707
 20
35.02765642660471
 30
0.0
 10
277.5953103793547
 20
35.02550574183144
 30
0.0
 10
277.6188115594632
 20
35.02637429867468
 30
0.0
 10
277.6610610760752
 20
35.0392078892832
 30
0.0
 10
277.6810188536475
 20
35.0515006381902
 30
0.0
 10
277.6961941560089
 20
35.08796233677146
 30
0.0
 10
277.6985055384598
 20
35.10357323741268
 30
0.0
 10
277.6956665546895
 20
35.13872016213153
 30
0.0
 10
277.6906925427254
 20
35.1577942411141
 30
0.0
 10
277.6703276456517
 20
35.21294764377206
 30
0.0
 10
277.6501938328502
 20
35.24777908959005
 30
0.0
 10
277.6290880207869
 20
35.2800531455782
 30
0.0
  0
SPLINE
  5
1AC
330
1F
100
AcDbEntity
  8
0
  6
Continuous
 62
     7
370
    15
100
AcDbSpline
210
0.0
220
0.0
230
1.0
 70
     8
 71
     3
 72
     8
 73
     4
 74
     0
 42
0.000000001
 43
0.00000001
 40
0.0
 40
0.0
 40
0.0
 40
0.0
 40
1.0
 40
1.0
 40
1.0
 40
1.0
 10
277.5776876555103
 20
35.31914691821417
 30
0.0
 10
277.6030395843795
 20
35.30451156120029
 30
0.0
 10
277.6198443836079
 20
35.29111736010555
 30
0.0
 10
277.6290880207874
 20
35.280053145578
 30
0.0
  0
SPLINE
  5
1AD
330
1F
100
AcDbEntity
  8
0
  6
Continuous
 62
     7
370
    15
100
AcDbSpline
210
0.0
220
0.0
230
1.0
 70
     8
 71
     3
 72
     8
 73
     4
 74
     0
 42
0.000000001
 43
0.00000001
 40
0.0
 40
0.0
 40
0.0
 40
0.0
 40
1.0
 40
1.0
 40
1.0
 40
1.0
 10
281.9779621845811
 20
37.85937133364973
 30
0.0
 10
282.0033141134502
 20
37.84473597663595
 30
0.0
 10
282.0352580972527
 20
37.84008144076697
 30
0.0
 10
282.0679831755421
 20
37.84257277365418
 30
0.0
  0
SPLINE
  5
1AE
330
1F
100
AcDbEntity
  8
0
  6
Continuous
 62
     7
370
    15
100
AcDbSpline
210
0.0
220
0.0
230
1.0
 70
     8
 71
     3
 72
    16
 73
    12
 74
     0
 42
0.000000001
 43
0.00000001
 40
0.0
 40
0.0
 40
0.0
 40
0.0
 40
0.2500000000000005
 40
0.2500000000000005
 40
0.3750000000000012
 40
0.3750000000000012
 40
0.5000000000000019
 40
0.5000000000000019
 40
0.7500000000000009
 40
0.7500000000000009
 40
1.0
 40
1.0
 40
1.0
 40
1.0
 10
282.0679831755419
 20
37.84257277365477
 30
0.0
 10
282.080202394044
 20
37.80532705678324
 30
0.0
 10
282.0962710986573
 20
37.76821614903179
 30
0.0
 10
282.1345661868139
 20
37.72320917751776
 30
0.0
 10
282.1500232821663
 20
37.71024133970185
 30
0.0
 10
282.1853311119462
 20
37.6939589819507
 30
0.0
 10
282.2049144737913
 20
37.690962363435
 30
0.0
 10
282.262215249263
 20
37.69599612339103
 30
0.0
 10
282.2972855466167
 20
37.71563966914078
 30
0.0
 10
282.3578063051696
 20
37.76212242911475
 30
0.0
 10
282.3846314092314
 20
37.79034050914036
 30
0.0
 10
282.4086563518329
 20
37.82022730933581
 30
0.0
  0
SPLINE
  5
1AF
330
1F
100
AcDbEntity
  8
0
  6
Continuous
 62
     7
370
    15
100
AcDbSpline
210
0.0
220
0.0
230
1.0
 70
     8
 71
     3
 72
    22
 73
    18
 74
     0
 42
0.000000001
 43
0.00000001
 40
0.0
 40
0.0
 40
0.0
 40
0.0
 40
0.125
 40
0.125
 40
0.2499999999999999
 40
0.2499999999999999
 40
0.3749999999999999
 40
0.3749999999999999
 40
0.4999999999999999
 40
0.4999999999999999
 40
0.6249999999999999
 40
0.6249999999999999
 40
0.7499999999999998
 40
0.7499999999999998
 40
0.8749999999999999
 40
0.8749999999999999
 40
1.0
 40
1.0
 40
1.0
 40
1.0
 10
283.0570326177984
 20
39.07294087710471
 30
0.0
 10
283.10558159649
 20
39.13333534505069
 30
0.0
 10
283.1494757688793
 20
39.19754085360758
 30
0.0
 10
283.2270692319495
 20
39.33401074604204
 30
0.0
 10
283.2606281158572
 20
39.40597303284355
 30
0.0
 10
283.3138307026839
 20
39.54960871619574
 30
0.0
 10
283.3341222466586
 20
39.62331765222727
 30
0.0
 10
283.3601397581633
 20
39.76482755822762
 30
0.0
 10
283.3662274900371
 20
39.83383050084008
 30
0.0
 10
283.3645996626064
 20
39.96353537832785
 30
0.0
 10
283.3570741184855
 20
40.02283730441217
 30
0.0
 10
283.3290252155351
 20
40.13012763917224
 30
0.0
 10
283.3086183519507
 20
40.17689338157503
 30
0.0
 10
283.2562767533789
 20
40.25400642721605
 30
0.0
 10
283.2237224548787
 20
40.28491093001692
 30
0.0
 10
283.1487790707555
 20
40.3282769216906
 30
0.0
 10
283.1055867781877
 20
40.34146056143244
 30
0.0
 10
283.0570326137665
 20
40.34580203480799
 30
0.0
  0
LINE
  5
1B0
330
1F
100
AcDbEntity
  8
0
  6
Continuous
 62
     7
370
    15
100
AcDbLine
 10
283.0570326138
 20
40.3458020348
 30
0.0
 11
282.0679831755
 21
40.4342379566
 31
0.0
  0
LINE
  5
1B1
330
1F
100
AcDbEntity
  8
0
  6
Continuous
 62
     7
370
    15
100
AcDbLine
 10
282.0679831755
 20
37.8425727737
 30
0.0
 11
283.0570326178
 21
39.0729408771
 31
0.0
  0
ARC
  5
1B2
330
1F
100
AcDbEntity
  8
0
  6
Continuous
 62
     7
370
    15
100
AcDbCircle
 10
279.5990319129
 20
41.3367936159
 30
0.0
 40
1.491207826003984
100
AcDbArc
 50
321.0621655031
 51
347.3474134538
  0
LWPOLYLINE
  5
1B3
330
1F
100
AcDbEntity
  8
0
  6
Continuous
 62
     7
370
    15
100
AcDbPolyline
 90
       10
 70
   128
 43
0.0
 10
253.7058868287
 20
24.7435512942
 10
252.894493761
 20
24.9142872136
 10
251.7358604196
 20
25.3014691236
 10
250.6575603448
 20
25.8429646282
 10
249.6671115019
 20
26.5349983917
 10
248.7714193527
 20
27.3727455182
 10
247.9767287106
 20
28.3503651903
 10
247.2885802007
 20
29.4610413916
 10
246.711771631
 20
30.6970304288
 10
246.2503245416
 20
32.0497149207
  0
SPLINE
  5
1B4
330
1F
100
AcDbEntity
  8
0
  6
Continuous
 62
     7
370
    15
100
AcDbSpline
210
0.0
220
0.0
230
1.0
 70
     8
 71
     3
 72
     8
 73
     4
 74
     0
 42
0.000000001
 43
0.00000001
 40
0.0000000000000006
 40
0.0000000000000006
 40
0.0000000000000006
 40
0.0000000000000006
 40
0.001241704756042
 40
0.001241704756042
 40
0.001241704756042
 40
0.001241704756042
 10
246.7248251452064
 20
32.41633319303265
 30
0.0
 10
246.5667649876959
 20
32.29392998802815
 30
0.0
 10
246.4085956820147
 20
32.1717277580597
 30
0.0
 10
246.2503245415539
 20
32.04971492074858
 30
0.0
  0
SPLINE
  5
1B5
330
1F
100
AcDbEntity
  8
0
  6
Continuous
 62
     7
370
    15
100
AcDbSpline
210
0.0
220
0.0
230
1.0
 70
     8
 71
     3
 72
     8
 73
     4
 74
     0
 42
0.000000001
 43
0.00000001
 40
0.0
 40
0.0
 40
0.0
 40
0.0
 40
1.0
 40
1.0
 40
1.0
 40
1.0
 10
246.7248251452054
 20
32.41633319303457
 30
0.0
 10
247.8960577298805
 20
32.60861282336247
 30
0.0
 10
249.0666771044723
 20
32.80220049057262
 30
0.0
 10
250.2362862896542
 20
32.99775378224319
 30
0.0
  0
LINE
  5
1B6
330
1F
100
AcDbEntity
  8
0
  6
Continuous
 62
     7
370
    15
100
AcDbLine
 10
279.7505758238
 20
39.1452141098
 30
0.0
 11
280.7589355789
 21
40.3996040588
 31
0.0
  0
SPLINE
  5
1B7
330
1F
100
AcDbEntity
  8
0
  6
Continuous
 62
     7
370
    15
100
AcDbSpline
210
0.0
220
0.0
230
1.0
 70
     8
 71
     3
 72
    10
 73
     6
 74
     0
 42
0.000000001
 43
0.00000001
 40
0.0
 40
0.0
 40
0.0
 40
0.0
 40
0.5
 40
0.5
 40
1.0
 40
1.0
 40
1.0
 40
1.0
 10
250.2362862896542
 20
32.99775378224319
 30
0.0
 10
250.2780521506687
 20
33.00473684265713
 30
0.0
 10
250.3219494364827
 20
33.00802693366551
 30
0.0
 10
250.4095768192727
 20
33.00636395923647
 30
0.0
 10
250.4520821163333
 20
33.00157185268572
 30
0.0
 10
250.4931633180324
 20
32.99263730714871
 30
0.0
  0
LINE
  5
1B8
330
1F
100
AcDbEntity
  8
0
  6
Continuous
 62
     7
370
    15
100
AcDbLine
 10
242.3999588867
 20
34.9130253405
 30
0.0
 11
246.7248251452
 21
32.416333193
 31
0.0
  0
LINE
  5
1B9
330
1F
100
AcDbEntity
  8
0
  6
Continuous
 62
     7
370
    15
100
AcDbLine
 10
242.3999588867
 20
34.9130253405
 30
0.0
 11
245.9427654403
 21
36.9582440302
 31
0.0
  0
LINE
  5
1BA
330
1F
100
AcDbEntity
  8
0
  6
Continuous
 62
     7
370
    15
100
AcDbLine
 10
241.9658917866
 20
34.6624030075
 30
0.0
 11
242.3999588867
 21
34.9130253405
 31
0.0
  0
LINE
  5
1BB
330
1F
100
AcDbEntity
  8
0
  6
Continuous
 62
     7
370
    15
100
AcDbLine
 10
246.2503245416
 20
32.0497149207
 30
0.0
 11
242.1225887064
 21
34.4326060971
 31
0.0
  0
SPLINE
  5
1BC
330
1F
100
AcDbEntity
  8
0
  6
Continuous
 62
     7
370
    15
100
AcDbSpline
210
0.0
220
0.0
230
1.0
 70
     8
 71
     3
 72
     8
 73
     4
 74
     0
 42
0.000000001
 43
0.00000001
 40
0.0
 40
0.0
 40
0.0
 40
0.0
 40
1.0
 40
1.0
 40
1.0
 40
1.0
 10
242.1225887063775
 20
34.43260609713111
 30
0.0
 10
242.0423694772113
 20
34.47891567240172
 30
0.0
 10
241.9879797149255
 20
34.56257851341052
 30
0.0
 10
241.9658917865666
 20
34.66240300751755
 30
0.0
  0
ARC
  5
1BD
330
1F
100
AcDbEntity
  8
0
  6
Continuous
 62
     7
370
    15
100
AcDbCircle
 10
251.0407553284
 20
35.7367964552
 30
0.0
 40
8.76101988258063
100
AcDbArc
 50
214.8820148619
 51
239.7813472427
  0
ELLIPSE
  5
1BE
330
1F
100
AcDbEntity
  8
0
  6
Continuous
 62
     7
370
    15
100
AcDbEllipse
 10
245.6498722215
 20
37.9438684982
 30
0.0
 11
-7.507462981948265E-5
 21
1.066811201853405
 31
0.0
210
0.0
220
0.0
230
1.0
 40
0.7174342186
 41
3.534193645557445
 42
5.104989972352354
  0
ELLIPSE
  5
1BF
330
1F
100
AcDbEntity
  8
0
  6
Continuous
 62
     7
370
    15
100
AcDbEllipse
 10
245.5892120497
 20
37.9088387426
 30
0.0
 11
0.3250094736511926
 21
1.213179526238669
 31
0.0
210
0.0
220
0.0
230
1.0
 40
0.5176380889
 41
3.619174351347777
 42
5.189970678142604
  0
LWPOLYLINE
  5
1C0
330
1F
100
AcDbEntity
  8
0
  6
Continuous
 62
     7
370
     0
100
AcDbPolyline
 90
       76
 70
   128
 43
0.0
 10
253.8270060505
 20
32.877056069
 10
253.8877641642
 20
34.5861271476
 10
254.0696123307
 20
36.3533601455
 10
254.3712750158
 20
38.1663591929
 10
254.7906362726
 20
40.0124074041
 10
255.324754583
 20
41.8785560773
 10
255.969883491
 20
43.7517155203
 10
256.7214978808
 20
45.6187468656
 10
257.5743257174
 20
47.4665542298
 10
258.5223850264
 20
49.2821765717
 10
259.5590258528
 20
51.0528786053
 10
260.6769769061
 20
52.766240128
 10
261.8683965629
 20
54.4102431397
 10
263.1249278704
 20
55.9733561405
 10
264.4377571642
 20
57.4446150159
 10
265.7976758901
 20
58.8136999419
 10
267.1951451953
 20
60.0710077715
 10
268.6203628368
 20
61.2077193936
 10
270.0633319368
 20
62.2158615929
 10
271.5139311039
 20
63.0883629762
 10
272.9619854271
 20
63.8191035732
 10
274.3973378457
 20
64.4029577637
 10
275.809920394
 20
64.8358302299
 10
277.1898248202
 20
65.1146846827
 10
278.5273720863
 20
65.2375651583
 10
279.8131802591
 20
65.2036097386
 10
281.0382303183
 20
65.0130565963
 10
282.1939294178
 20
64.6672423248
 10
283.2721711589
 20
64.1685925629
 10
284.2653924504
 20
63.5206049802
 10
285.1666265586
 20
62.7278247442
 10
285.9695519738
 20
61.7958126385
 10
286.6685367511
 20
60.7311060585
 10
287.2586780145
 20
59.5411731558
 10
287.735836347
 20
58.2343604547
 10
288.0966648258
 20
56.8198343075
 10
288.3386324984
 20
55.3075165986
 10
288.4600421354
 20
53.7080151502
 10
288.4600421354
 20
52.0325493158
 10
288.3386324984
 20
50.2928712843
 10
288.0966648258
 20
48.5011836472
 10
287.735836347
 20
46.670053806
 10
287.2586780145
 20
44.8123258207
 10
286.6685367511
 20
42.9410303185
 10
285.9695519738
 20
41.0692930927
 10
285.1666265586
 20
39.2102430353
 10
284.2653924504
 20
37.3769200465
 10
283.2721711589
 20
35.5821835699
 10
282.1939294178
 20
33.8386223924
 10
281.0382303183
 20
32.1584663429
 10
279.8131802591
 20
30.5535005089
 10
278.5273720863
 20
29.0349825725
 10
277.1898248202
 20
27.6135638461
 10
275.809920394
 20
26.2992145607
 10
274.3973378457
 20
25.1011539321
 10
272.9619854271
 20
24.027785495
 10
271.5139311039
 20
23.0866381576
 10
270.0633319368
 20
22.2843133923
 10
268.6203628368
 20
21.6264389308
 10
267.1951451953
 20
21.1176292899
 10
265.7976758901
 20
20.7614534037
 10
264.4377571642
 20
20.5604095899
 10
263.1249278704
 20
20.5159080265
 10
261.8683965629
 20
20.6282608601
 10
260.6769769061
 20
20.8966800162
 10
259.5590258528
 20
21.3192827272
 10
258.5223850264
 20
21.8931047389
 10
257.5743257174
 20
22.6141211021
 10
256.7214978808
 20
23.4772744051
 10
255.969883491
 20
24.4765102475
 10
255.324754583
 20
25.604819708
 10
254.7906362726
 20
26.8542885063
 10
254.3712750158
 20
28.2161525166
 10
254.0696123307
 20
29.6808592413
 10
253.8877641642
 20
31.2381348152
 10
253.8270060505
 20
32.877056069
  0
LWPOLYLINE
  5
1C1
330
1F
100
AcDbEntity
  8
0
  6
Continuous
 62
     7
370
     0
100
AcDbPolyline
 90
       27
 70
   128
 43
0.0
 10
253.1198992693
 20
32.877056069
 10
253.1802774732
 20
34.5976468091
 10
253.3609996406
 20
36.3761953602
 10
253.6608312557
 20
38.2005524322
 10
254.0777241647
 20
40.0582558165
 10
254.6088305663
 20
41.9366155153
 10
255.2505224651
 20
43.8228004271
 10
255.9984164549
 20
45.7039259966
 10
256.8474036614
 20
47.5671422285
 10
257.791684641
 20
49.3997214668
 10
258.8248089972
 20
51.1891453371
 10
259.9397194431
 20
52.9231902598
 10
261.1288000098
 20
54.5900109499
 10
262.3839280714
 20
56.1782213319
 10
263.6965298304
 20
57.6769723184
 10
265.0576388859
 20
59.0760259206
 10
266.457957483
 20
60.3658251836
 10
267.8879200256
 20
61.5375594707
 10
269.3377584197
 20
62.5832246487
 10
270.797568799
 20
63.4956777639
 10
272.2573791782
 20
64.2686858365
 10
273.7072175723
 20
64.8969684374
 10
275.137180115
 20
65.3762337595
 10
276.537498712
 20
65.7032079346
 10
277.8986077676
 20
65.8756573976
 10
279.2112095266
 20
65.8924041438
 10
279.7321110703
 20
65.8543153408
  0
ARC
  5
1C2
330
1F
100
AcDbEntity
  8
0
  6
Continuous
 62
     7
370
     0
100
AcDbCircle
 10
268.5559926072
 20
32.2801928132
 30
0.0
 40
15.44762840315958
100
AcDbArc
 50
177.7856626784
 51
212.4268831467
  0
LWPOLYLINE
  5
1C3
330
1F
100
AcDbEntity
  8
0
  6
Continuous
 62
     7
370
     0
100
AcDbPolyline
 90
       22
 70
   128
 43
0.0
 10
265.3174912448
 20
39.5103719775
 10
265.3796581025
 20
40.5270968303
 10
265.5648336972
 20
41.5939282841
 10
265.8690713324
 20
42.6881286788
 10
266.2858867112
 20
43.7863770327
 10
266.8063961375
 20
44.8652660888
 10
267.4195058565
 20
45.9018011999
 10
268.1121484989
 20
46.8738904199
 10
268.8695615895
 20
47.7608153546
 10
269.6756021831
 20
48.5436727388
 10
270.5130909239
 20
49.2057773267
 10
271.3641781934
 20
49.7330175085
 10
272.2107245442
 20
50.114156075
 10
273.0346873103
 20
50.3410697193
 10
273.8185051561
 20
50.4089221712
 10
274.5454723649
 20
50.3162672734
 10
275.2000948928
 20
50.0650798042
 10
275.7684205972
 20
49.6607133884
 10
276.2383366023
 20
49.1117863941
 10
276.5998274644
 20
48.4299982472
 10
276.8451886333
 20
47.6298800784
 10
276.9686694339
 20
46.736339782
  0
LWPOLYLINE
  5
1C4
330
1F
100
AcDbEntity
  8
0
  6
Continuous
 62
     7
370
     0
100
AcDbPolyline
 90
       12
 70
   128
 43
0.0
 10
270.7191773549
 20
35.9107290023
 10
270.5130909239
 20
35.8136783317
 10
269.6756021831
 20
35.5088390014
 10
268.8695615895
 20
35.3610617254
 10
268.1121484989
 20
35.3734961198
 10
267.4195058565
 20
35.545877167
 10
266.8063961375
 20
35.8745308644
 10
266.2858867112
 20
36.3524525288
 10
265.8690713324
 20
36.9694560899
 10
265.5648336972
 20
37.7123911879
 10
265.3796581025
 20
38.565423451
 10
265.3174912448
 20
39.5103719775
  0
LWPOLYLINE
  5
1C5
330
1F
100
AcDbEntity
  8
0
  6
Continuous
 62
     7
370
     0
100
AcDbPolyline
 90
       21
 70
   128
 43
0.0
 10
250.2362862897
 20
43.490303215
 10
250.7059318014
 20
45.2497311454
 10
251.2901002903
 20
47.0201869484
 10
251.984013609
 20
48.7871893592
 10
252.7819959634
 20
50.5362853598
 10
253.6775203375
 20
52.2531683957
 10
254.6632618799
 20
53.9237953954
 10
255.731157817
 20
55.5345016337
 10
256.8724734017
 20
57.0721125015
 10
258.0778733582
 20
58.5240512655
 10
259.3374982393
 20
59.8784419392
 10
260.6410450701
 20
61.1242064206
 10
261.9778516208
 20
62.2511551047
 10
263.3369836171
 20
63.2500702285
 10
264.7073241757
 20
64.1127812663
 10
266.0776647344
 20
64.8322317603
 10
267.4367967306
 20
65.4025370376
 10
268.7736032814
 20
65.8190323438
 10
270.0771501122
 20
66.0783109975
 10
271.3367749932
 20
66.1782522551
 10
271.4932928568
 20
66.1794858306
  0
LWPOLYLINE
  5
1C6
330
1F
100
AcDbEntity
  8
0
  6
Continuous
 62
     7
370
     0
100
AcDbPolyline
 90
       23
 70
   128
 43
0.0
 10
242.1225887064
 20
45.565749223
 10
242.5840357959
 20
47.451209184
 10
243.1608443655
 20
49.3531672202
 10
243.8489928754
 20
51.2583627792
 10
244.6436835176
 20
53.1535127365
 10
245.5393756667
 20
55.0254040061
 10
246.5298245096
 20
56.8609856626
 10
247.6081245844
 20
58.6474599333
 10
248.7667579258
 20
60.372371425
 10
249.9976464806
 20
62.023693963
 10
251.2922084285
 20
63.5899144391
 10
252.6414180149
 20
65.060113081
 10
254.0358684789
 20
66.4240395857
 10
255.4658376381
 20
67.6721845853
 10
256.9213556714
 20
68.7958459466
 10
258.39227463
 20
69.787189443
 10
259.8683391888
 20
70.6393033751
 10
261.3392581474
 20
71.3462467592
 10
262.7947761807
 20
71.9030907486
 10
264.2247453399
 20
72.3059529974
 10
265.6191958039
 20
72.5520247288
 10
266.9684053903
 20
72.6395903174
 10
268.0671127013
 20
72.5894577035
  0
LWPOLYLINE
  5
1C7
330
1F
100
AcDbEntity
  8
0
  6
Continuous
 62
     7
370
     0
100
AcDbPolyline
 90
       20
 70
   128
 43
0.0
 10
250.6290926653
 20
43.4326567581
 10
251.0968206119
 20
45.1722902905
 10
251.6773670219
 20
46.9223811506
 10
252.3660047777
 20
48.6686791678
 10
253.1571266243
 20
50.3969650549
 10
254.044290827
 20
52.0931661891
 10
255.020273623
 20
53.7434711986
 10
256.0771280414
 20
55.3344424223
 10
257.2062486113
 20
56.8531253265
 10
258.3984414326
 20
58.2871539872
 10
259.6439990373
 20
59.6248517804
 10
260.932779433
 20
60.8553264593
 10
262.2542886842
 20
61.9685588445
 10
263.5977663597
 20
62.955484406
 10
264.95227315
 20
63.808067071
 10
266.3067799403
 20
64.5193646579
 10
267.6502576158
 20
65.0835854036
 10
268.971766867
 20
65.4961351226
 10
270.2605472627
 20
65.7536546157
 10
270.5607995992
 20
65.7917918963
  0
LINE
  5
1C8
330
1F
100
AcDbEntity
  8
0
  6
Continuous
 62
     7
370
     0
100
AcDbLine
 10
250.493163318
 20
32.9926373071
 30
0.0
 11
251.6526526984
 21
33.6619962787
 31
0.0
  0
LINE
  5
1C9
330
1F
100
AcDbEntity
  8
0
  6
Continuous
 62
     7
370
     0
100
AcDbLine
 10
252.0395412511
 20
33.4577077764
 30
0.0
 11
251.6526526984
 21
33.6619962787
 31
0.0
  0
ARC
  5
1CA
330
1F
100
AcDbEntity
  8
0
  6
Continuous
 62
     7
370
     0
100
AcDbCircle
 10
271.2165631679
 20
39.1760095242
 30
0.0
 40
3.088795514086543
100
AcDbArc
 50
173.7855481268
 51
234.9022714798
  0
LWPOLYLINE
  5
1CB
330
1F
100
AcDbEntity
  8
0
  6
Continuous
 62
     7
370
     0
100
AcDbPolyline
 90
       16
 70
   128
 43
0.0
 10
275.6900817914
 20
47.4744527169
 10
275.5585257024
 20
47.5442578512
 10
274.9825279492
 20
47.7294414042
 10
274.3405954941
 20
47.7600223097
 10
273.6502385809
 20
47.6351664002
 10
272.9302883468
 20
47.3582794194
 10
272.2003831571
 20
46.9369141225
 10
271.4804329229
 20
46.3825642562
 10
270.7900760098
 20
45.7103510399
 10
270.1481435547
 20
44.9386106978
 10
269.5721458015
 20
44.0883942946
 10
269.0777944675
 20
43.1828935174
 10
268.6785741685
 20
42.2468080671
 10
268.3853745934
 20
41.3056719144
 10
268.2061934623
 20
40.3851568003
 10
268.1459183695
 20
39.5103719775
  0
LWPOLYLINE
  5
1CC
330
1F
100
AcDbEntity
  8
0
  6
Continuous
 62
     7
370
     0
100
AcDbPolyline
 90
       11
 70
   128
 43
0.0
 10
277.571257557
 20
35.0276564266
 10
277.8917083108
 20
34.6259450431
 10
278.3170211072
 20
34.3816360075
 10
278.8259405203
 20
34.3069389046
 10
279.3930328011
 20
34.4055867955
 10
279.9899569544
 20
34.6726496547
 10
280.5868811077
 20
35.094780753
 10
281.1539733885
 20
35.6508836728
 10
281.6628928016
 20
36.313166623
 10
282.088205598
 20
37.0485313608
 10
282.4086563518
 20
37.8202273093
  0
LWPOLYLINE
  5
1CD
330
1F
100
AcDbEntity
  8
0
  6
Continuous
 62
     7
370
     0
100
AcDbPolyline
 90
       11
 70
   128
 43
0.0
 10
282.408558111
 20
40.5235307504
 10
282.0880931212
 20
40.925161859
 10
281.6627874835
 20
41.1694094296
 10
281.1538930686
 20
41.2440687855
 10
280.5868385504
 20
41.1454093133
 10
279.9899587738
 20
40.8783608754
 10
279.3930789062
 20
40.4562674729
 10
278.8260241198
 20
39.9002204662
 10
278.3171292728
 20
39.2380046717
 10
277.8918230608
 20
38.5027099975
 10
277.571357383
 20
37.7310779914
  0
ARC
  5
1CE
330
1F
100
AcDbEntity
  8
0
  6
Continuous
 62
     7
370
     0
100
AcDbCircle
 10
250.9275062374
 20
34.8379168319
 30
0.0
 40
1.381530505393119
100
AcDbArc
 50
301.6605905891
 51
324.2377952695
  0
LINE
  5
1CF
330
1F
100
AcDbEntity
  8
0
  6
Continuous
 62
     7
370
     0
100
AcDbLine
 10
276.6400385785
 20
35.3684890697
 30
0.0
 11
276.7107492566
 21
35.1045988357
 31
0.0
  0
LWPOLYLINE
  5
1D0
330
1F
100
AcDbEntity
  8
0
  6
Continuous
 62
     7
370
     0
100
AcDbPolyline
 90
        3
 70
   128
 43
0.0
 10
281.9779621846
 20
40.4767849952
 10
281.6400389011
 20
40.8553548152
 10
281.5276827022
 20
40.929136975
  0
LINE
  5
1D1
330
1F
100
AcDbEntity
  8
0
  6
Continuous
 62
     7
370
     0
100
AcDbLine
 10
246.3569790026
 20
38.3520725542
 30
0.0
 11
251.9319820698
 21
35.1336917886
 31
0.0
  0
LINE
  5
1D2
330
1F
100
AcDbEntity
  8
0
  6
Continuous
 62
     7
370
     0
100
AcDbLine
 10
246.2963188309
 20
38.3170427985
 30
0.0
 11
246.3569790026
 21
38.3520725542
 31
0.0
  0
LWPOLYLINE
  5
1D3
330
1F
100
AcDbEntity
  8
0
  6
Continuous
 62
     7
370
     0
100
AcDbPolyline
 90
        9
 70
   128
 43
0.0
 10
278.1145691963
 20
34.821520361
 10
278.3632817434
 20
34.736297719
 10
278.8943170852
 20
34.71834776
 10
279.4774209839
 20
34.887785082
 10
280.0782288562
 20
35.2346240841
 10
280.6613327549
 20
35.7384241931
 10
281.1923680967
 20
36.3694945072
 10
281.6400389011
 20
37.0906435953
 10
281.9779621846
 20
37.8593713336
  0
LINE
  5
1D4
330
1F
100
AcDbEntity
  8
0
  6
Continuous
 62
     7
370
     0
100
AcDbLine
 10
246.0753479617
 20
43.0974651189
 30
0.0
 11
246.076388989
 21
43.2832168508
 31
0.0
  0
LWPOLYLINE
  5
1D5
330
1F
100
AcDbEntity
  8
0
  6
Continuous
 62
     7
370
     0
100
AcDbPolyline
 90
        3
 70
   128
 43
0.0
 10
246.267053962
 20
40.7053168989
 10
246.1367072129
 20
41.7131646758
 10
246.0753479617
 20
43.0974651189
  0
LINE
  5
1D6
330
1F
100
AcDbEntity
  8
0
  6
Continuous
 62
     7
370
     0
100
AcDbLine
 10
276.4308895743
 20
35.4892282198
 30
0.0
 11
276.6400385785
 21
35.3684890697
 31
0.0
  0
LWPOLYLINE
  5
1D7
330
1F
100
AcDbEntity
  8
0
  6
Continuous
 62
     7
370
     0
100
AcDbPolyline
 90
       19
 70
   128
 43
0.0
 10
215.1421282781
 20
66.9130837101
 10
215.2036165943
 20
68.0318985414
 10
215.3870294609
 20
69.2025630396
 10
215.6892286328
 20
70.4050468104
 10
216.1050433984
 20
71.6187750233
 10
216.6273590519
 20
72.8229804519
 10
217.2472386274
 20
73.9970588076
 10
217.9540758138
 20
75.1209212841
 10
218.7357764306
 20
76.1753382828
 10
219.5789653637
 20
77.1422684367
 10
220.4692154166
 20
78.0051673025
 10
221.3912941641
 20
78.7492704417
 10
222.3294245832
 20
79.361846043
 10
223.2675550022
 20
79.8324127682
 10
224.1896337497
 20
80.1529190901
 10
225.0798838026
 20
80.3178810566
 10
225.9230727357
 20
80.3244761229
 10
226.7047733525
 20
80.1725914454
 10
226.8599430552
 20
80.1207187079
  0
ARC
  5
1D8
330
1F
100
AcDbEntity
  8
0
  6
Continuous
 62
     7
370
     0
100
AcDbCircle
 10
220.5167870629
 20
66.4689516826
 30
0.0
 40
5.392977870397674
100
AcDbArc
 50
175.2761269287
 51
225.7050394481
  0
LINE
  5
1D9
330
1F
100
AcDbEntity
  8
0
  6
Continuous
 62
     7
370
     0
100
AcDbLine
 10
283.2691646522
 20
38.8906914542
 30
0.0
 11
283.0570326178
 21
39.0729408771
 31
0.0
  0
LWPOLYLINE
  5
1DA
330
1F
100
AcDbEntity
  8
0
  6
Continuous
 62
     7
370
     0
100
AcDbPolyline
 90
        3
 70
   128
 43
0.0
 10
251.3018487194
 20
31.3236347114
 10
251.0968206119
 20
31.7436943551
 10
250.6290926653
 20
32.9433006951
  0
LINE
  5
1DB
330
1F
100
AcDbEntity
  8
0
  6
Continuous
 62
     7
370
     0
100
AcDbLine
 10
280.7589355789
 20
40.3996040588
 30
0.0
 11
283.0570326178
 21
39.0729408771
 31
0.0
  0
LWPOLYLINE
  5
1DC
330
1F
100
AcDbEntity
  8
0
  6
Continuous
 62
     7
370
     0
100
AcDbPolyline
 90
        3
 70
   128
 43
0.0
 10
251.1977686168
 20
30.8368102593
 10
250.7059318014
 20
31.7805670177
 10
250.2362862897
 20
32.9977537822
  0
LINE
  5
1DD
330
1F
100
AcDbEntity
  8
0
  6
Continuous
 62
     7
370
     0
100
AcDbLine
 10
251.6526526984
 20
33.6619962787
 30
0.0
 11
245.9427654403
 21
36.9582440302
 31
0.0
  0
ARC
  5
1DE
330
1F
100
AcDbEntity
  8
0
  6
Continuous
 62
     7
370
     0
100
AcDbCircle
 10
253.5665180765
 20
37.5209291824
 30
0.0
 40
11.8533226947899
100
AcDbArc
 50
195.1023985781
 51
214.9744635893
  0
OLE2FRAME
  5
1DF
330
1F
100
AcDbEntity
  8
0
100
AcDbOle2Frame
 70
     2
  3
Paintbrush-Bild
 10
13.8511154363
 20
38.264191557
 30
0.0
 11
51.6290888628
 21
31.9806341108
 31
0.0
 71
     2
 72
     0
 73
     1
 90
    12928
310
80552BED0767C5B32B40DDAF6807D121434000000000000000006FFBDDFB85D0
310
4940DDAF6807D121434000000000000000006FFBDDFB85D04940416F4BD60AFB
310
3F4000000000000000002BED0767C5B32B40416F4BD60AFB3F40000000000000
310
0000000000000100000000010000010000000100000000000100000000320000
310
D0CF11E0A1B11AE1000000000000000000000000000000003E000300FEFF0900
310
0600000000000000000000000100000001000000000000000010000002000000
310
01000000FEFFFFFF0000000000000000FFFFFFFFFFFFFFFFFFFFFFFFFFFFFFFF
310
FFFFFFFFFFFFFFFFFFFFFFFFFFFFFFFFFFFFFFFFFFFFFFFFFFFFFFFFFFFFFFFF
310
FFFFFFFFFFFFFFFFFFFFFFFFFFFFFFFFFFFFFFFFFFFFFFFFFFFFFFFFFFFFFFFF
310
FFFFFFFFFFFFFFFFFFFFFFFFFFFFFFFFFFFFFFFFFFFFFFFFFFFFFFFFFFFFFFFF
310
FFFFFFFFFFFFFFFFFFFFFFFFFFFFFFFFFFFFFFFFFFFFFFFFFFFFFFFFFFFFFFFF
310
FFFFFFFFFFFFFFFFFFFFFFFFFFFFFFFFFFFFFFFFFFFFFFFFFFFFFFFFFFFFFFFF
310
FFFFFFFFFFFFFFFFFFFFFFFFFFFFFFFFFFFFFFFFFFFFFFFFFFFFFFFFFFFFFFFF
310
FFFFFFFFFFFFFFFFFFFFFFFFFFFFFFFFFFFFFFFFFFFFFFFFFFFFFFFFFFFFFFFF
310
FFFFFFFFFFFFFFFFFFFFFFFFFFFFFFFFFFFFFFFFFFFFFFFFFFFFFFFFFFFFFFFF
310
FFFFFFFFFFFFFFFFFFFFFFFFFFFFFFFFFFFFFFFFFFFFFFFFFFFFFFFFFFFFFFFF
310
FFFFFFFFFFFFFFFFFFFFFFFFFFFFFFFFFFFFFFFFFFFFFFFFFFFFFFFFFFFFFFFF
310
FFFFFFFFFFFFFFFFFFFFFFFFFFFFFFFFFFFFFFFFFFFFFFFFFFFFFFFFFFFFFFFF
310
FFFFFFFFFFFFFFFFFFFFFFFFFFFFFFFFFFFFFFFFFFFFFFFFFFFFFFFFFFFFFFFF
310
FFFFFFFFFFFFFFFFFFFFFFFFFFFFFFFFFFFFFFFFFFFFFFFFFFFFFFFFFFFFFFFF
310
FDFFFFFFFEFFFFFFFEFFFFFFFEFFFFFF05000000060000000700000008000000
310
090000000A0000000B0000000C0000000D0000000E0000000F00000010000000
310
11000000120000001300000014000000150000001600000017000000FEFFFFFF
310
FFFFFFFFFFFFFFFFFFFFFFFFFFFFFFFFFFFFFFFFFFFFFFFFFFFFFFFFFFFFFFFF
310
FFFFFFFFFFFFFFFFFFFFFFFFFFFFFFFFFFFFFFFFFFFFFFFFFFFFFFFFFFFFFFFF
310
FFFFFFFFFFFFFFFFFFFFFFFFFFFFFFFFFFFFFFFFFFFFFFFFFFFFFFFFFFFFFFFF
310
FFFFFFFFFFFFFFFFFFFFFFFFFFFFFFFFFFFFFFFFFFFFFFFFFFFFFFFFFFFFFFFF
310
FFFFFFFFFFFFFFFFFFFFFFFFFFFFFFFFFFFFFFFFFFFFFFFFFFFFFFFFFFFFFFFF
310
FFFFFFFFFFFFFFFFFFFFFFFFFFFFFFFFFFFFFFFFFFFFFFFFFFFFFFFFFFFFFFFF
310
FFFFFFFFFFFFFFFFFFFFFFFFFFFFFFFFFFFFFFFFFFFFFFFFFFFFFFFFFFFFFFFF
310
FFFFFFFFFFFFFFFFFFFFFFFFFFFFFFFFFFFFFFFFFFFFFFFFFFFFFFFFFFFFFFFF
310
FFFFFFFFFFFFFFFFFFFFFFFFFFFFFFFFFFFFFFFFFFFFFFFFFFFFFFFFFFFFFFFF
310
FFFFFFFFFFFFFFFFFFFFFFFFFFFFFFFFFFFFFFFFFFFFFFFFFFFFFFFFFFFFFFFF
310
FFFFFFFFFFFFFFFFFFFFFFFFFFFFFFFFFFFFFFFFFFFFFFFFFFFFFFFFFFFFFFFF
310
FFFFFFFFFFFFFFFFFFFFFFFFFFFFFFFFFFFFFFFFFFFFFFFFFFFFFFFFFFFFFFFF
310
FFFFFFFFFFFFFFFFFFFFFFFFFFFFFFFFFFFFFFFFFFFFFFFFFFFFFFFFFFFFFFFF
310
52006F006F007400200045006E00740072007900000000000000000000000000
310
0000000000000000000000000000000000000000000000000000000000000000
310
16000500FFFFFFFFFFFFFFFF020000000A00030000000000C000000000000046
310
000000000000000000000000007C2D0E9A20D20103000000C000000000000000
310
01004F006C006500000000000000000000000000000000000000000000000000
310
0000000000000000000000000000000000000000000000000000000000000000
310
0A000200FFFFFFFFFFFFFFFFFFFFFFFF00000000000000000000000000000000
310
0000000000000000000000000000000000000000000000001400000000000000
310
010043006F006D0070004F0062006A0000000000000000000000000000000000
310
0000000000000000000000000000000000000000000000000000000000000000
310
120002010100000003000000FFFFFFFF00000000000000000000000000000000
310
0000000000000000000000000000000000000000010000004D00000000000000
310
01004F006C006500310030004E00610074006900760065000000000000000000
310
0000000000000000000000000000000000000000000000000000000000000000
310
1A000200FFFFFFFFFFFFFFFFFFFFFFFF00000000000000000000000000000000
310
0000000000000000000000000000000000000000040000002426000000000000
310
FEFFFFFF02000000FEFFFFFFFFFFFFFFFFFFFFFFFFFFFFFFFFFFFFFFFFFFFFFF
310
FFFFFFFFFFFFFFFFFFFFFFFFFFFFFFFFFFFFFFFFFFFFFFFFFFFFFFFFFFFFFFFF
310
FFFFFFFFFFFFFFFFFFFFFFFFFFFFFFFFFFFFFFFFFFFFFFFFFFFFFFFFFFFFFFFF
310
FFFFFFFFFFFFFFFFFFFFFFFFFFFFFFFFFFFFFFFFFFFFFFFFFFFFFFFFFFFFFFFF
310
FFFFFFFFFFFFFFFFFFFFFFFFFFFFFFFFFFFFFFFFFFFFFFFFFFFFFFFFFFFFFFFF
310
FFFFFFFFFFFFFFFFFFFFFFFFFFFFFFFFFFFFFFFFFFFFFFFFFFFFFFFFFFFFFFFF
310
FFFFFFFFFFFFFFFFFFFFFFFFFFFFFFFFFFFFFFFFFFFFFFFFFFFFFFFFFFFFFFFF
310
FFFFFFFFFFFFFFFFFFFFFFFFFFFFFFFFFFFFFFFFFFFFFFFFFFFFFFFFFFFFFFFF
310
FFFFFFFFFFFFFFFFFFFFFFFFFFFFFFFFFFFFFFFFFFFFFFFFFFFFFFFFFFFFFFFF
310
FFFFFFFFFFFFFFFFFFFFFFFFFFFFFFFFFFFFFFFFFFFFFFFFFFFFFFFFFFFFFFFF
310
FFFFFFFFFFFFFFFFFFFFFFFFFFFFFFFFFFFFFFFFFFFFFFFFFFFFFFFFFFFFFFFF
310
FFFFFFFFFFFFFFFFFFFFFFFFFFFFFFFFFFFFFFFFFFFFFFFFFFFFFFFFFFFFFFFF
310
FFFFFFFFFFFFFFFFFFFFFFFFFFFFFFFFFFFFFFFFFFFFFFFFFFFFFFFFFFFFFFFF
310
FFFFFFFFFFFFFFFFFFFFFFFFFFFFFFFFFFFFFFFFFFFFFFFFFFFFFFFFFFFFFFFF
310
FFFFFFFFFFFFFFFFFFFFFFFFFFFFFFFFFFFFFFFFFFFFFFFFFFFFFFFFFFFFFFFF
310
FFFFFFFFFFFFFFFFFFFFFFFFFFFFFFFFFFFFFFFFFFFFFFFFFFFFFFFFFFFFFFFF
310
0100000200000000000000000000000000000000000000000000000000000000
310
0000000000000000000000000000000000000000000000000000000000000000
310
0100FEFF030A0000FFFFFFFF0A00030000000000C00000000000004607000000
310
5042727573680007000000504272757368000700000050427275736800F439B2
310
7100000000000000000000000000000000000000000000000000000000000000
310
0000000000000000000000000000000000000000000000000000000000000000
310
0000000000000000000000000000000000000000000000000000000000000000
310
0000000000000000000000000000000000000000000000000000000000000000
310
0000000000000000000000000000000000000000000000000000000000000000
310
0000000000000000000000000000000000000000000000000000000000000000
310
0000000000000000000000000000000000000000000000000000000000000000
310
0000000000000000000000000000000000000000000000000000000000000000
310
0000000000000000000000000000000000000000000000000000000000000000
310
0000000000000000000000000000000000000000000000000000000000000000
310
0000000000000000000000000000000000000000000000000000000000000000
310
0000000000000000000000000000000000000000000000000000000000000000
310
20260000424D0E260000000000003E00000028000000B40200006E0000000100
310
01000000000000000000130B0000130B00000200000002000000000000FFFFFF
310
FFFFFFFFFFFFFFFFFFFFFFFFFFFFFFFFFFFFFFFFFFFFFFFFFFFFFFFFFFFFFFFF
310
FFFFFFFFFFFFFFFFFFFFFFFFFFFFFFFFFFFFFFFFFFFFFFFFFFFFFFFFFFFFFFFF
310
FFFFFFFFFFFFFFFFFFFFFFFFFFFFFFFFFFFFFFFFFFFFFFFFF000FFFFFFFFFFFF
310
FFFFFFFFFFFFFFFFFFFFFFFFFFFFFFFFFFFFFFFFFFFFFFFFFFFFFFFFFFFFFFFF
310
FFFFFFFFFFFFFFFFFFFFFFFFFFFFFFFFFFFFFFFFFFFFFFFFFFFFFFFFFFFFFFFF
310
FFFFFFFFFFFFFFFFFFFFFFFFFFFFFFFFF000FFFFFFFFFFFFFFFFFFFFFFFFFFFF
310
FFFFFFFFFFFFFFFFFFFFFFFFFFFFFFFFFFFFFFFFFFFFFFFFFFFFFFFFFFFFFFFF
310
FFFFFFFFFFFFFFFFFFFFFFFFFFFFFFFFFFFFFFFFFFFFFFFFFFFFFFFFFFFFFFFF
310
FFFFFFFFFFFFFFFFF000FFFFFFFFFFFFFFFFFFFFFFFFFFFFFFFFFFFFFFFFFFFF
310
FFFFFFFFFFFFFFFFFFFFFFFFFFFFFFFFFFFFFFFFFFFFFFFFFFFFFFFFFFFFFFFF
310
FFFFFFFFFFFFFFFFFFFFFFFFFFFFFFFFFFFFFFFFFFFFFFFFFFFFFFFFFFFFFFFF
310
F000FFFFFFFFFFFFFFFFFFFFFFFFFFFFFFFFFFFFFFFFFFFFFFFFFFFFFFFFFFFF
310
FFFFFFFFFFFFFFFFFFFFFFFFFFFFFFFFFFFFFFFFFFFFFFFFFFFFFFFFFFFFFFFF
310
FFFFFFFFFFFFFFFFFFFFFFFFFFFFFFFFFFFFFFFFFFFFFFFFF000FFFFFFFFFFFF
310
FFFFFFFFFFFFFFFFFFFFFFFFFFFFFFFFFFFFFFFFFFFFFFFFFFFFFFFFFFFFFFFF
310
FFFFFFFFFFFFFFFFFFFFFFFFFFFFFFFFFFFFFFFFFFFFFFFFFFFFFFFFFFFFFFFF
310
FFFFFFFFFFFFFFFFFFFFFFFFFFFFFFFFF000FFFFFFFFFFFFFFFFFFFFFFFFFFFF
310
FFFFFFFFFFFFFFFFFFFFFFFFFFFFFFFFFFFFFFFFFFFFFFFFFFFFFFFFFFFFFFFF
310
FFFFFFFFFFFFFFFFFFFFFFFFFFFFFFFFFFFFFFFFFFFFFFFFFFFFFFFFFFFFFFFF
310
FFFFFFFFFFFFFFFFF000FFFFFFFFFFFFFFFFFFFFFFFFFFFFFFFFFFFFFFFFFFFF
310
FFFFFFFFFFFFFFFFFFFFFFFFFFFFFFFFFFFFFFFFFFFFFFFFFFFFFFFFFFFFFFFF
310
FFFFFFFFFFFFFFFFFFFFFFFFFFFFFFFFFFFFFFFFFFFFFFFFFFFFFFFFFFFFFFFF
310
F000FFFFFFFFFFFFFFFFFFFFFFFFFFFFFFFFFFFFFFFFFFFFFFFFFFFFFFFFFFFF
310
FFFFFFFFFFFFFFFFFFFFFFFFFFFFFFFFFFFFFFFFFFFFFFFFFFFFFFFFFFFFFFFF
310
FFFFFFFFFFFFFFFFFFFFFFFFFFFFFFFFFFFFFFFFFFFFFFFFF000FFFFFFFFFFFF
310
FFFFFFFFFFFFFFFFFFFFFFFFFFFFFFFFFFFFFFFFFFFFFFFFFFFFFFFFFFFFFFFF
310
FFFFFFFFFFFFFFFFFFFFFFFFFFFFFFFFFFFFFFFFFFFFFFFFFFFFFFFFFFFFFFFF
310
FFFFFFFFFFFFFFFFFFFFFFFFFFFFFFFFF000FFFFFFFFFFFFFFFFFFFFFFFFFFFF
310
FFFFFFFFFFFFFFFFFFFFFFFFFFFFFFFFFFFFFFFFFFFFFFFFFFFFFFFFFFFFFFFF
310
FFFFFFFFFFFFFFFFFFFFFFFFFFFFFFFFFFFFFFFFFFFFFFFFFFFFFFFFFFFFFFFF
310
FFFFFFFFFFFFFFFFF000FFFFFFFFFFFFFFFFFFFFFFFFFFFFFFFFFFFFFFFFFFFF
310
FFFFFFFFFFFFFFFFFFFFFFFFFFFFFFFFFFFFFFFFFFFFFFFFFFFFFFFFFFFFFFFF
310
FFFFFFFFFFFFFFFFFFFFFFFFFFFFFFFFFFFFFFFFFFFFFFFFFFFFFFFFFFFFFFFF
310
F000FFFFFFFFFFFFFFFFFFFFFFFFFFFFFFFFFFFFFFFFFFFFFFFFFFFFFFFFFFFF
310
FFFFFFFFFFFFFFFFFFFFFFFFFFFFFFFFFFFFFFFFFFFFFFFFFFFFFFFFFFFFFFFF
310
FFFFFFFFFFFFFFFFFFFFFFFFFFFFFFFFFFFFFFFFFFFFFFFFF000FFFFFFFFFFFF
310
FFFFFFFFFFFFFFFFFFFFFFFFFFFFFFFFFFFFFFFFFFFFFFFFFFFFFFFFFFFFFFFF
310
FFFFFFFFFFFFFFFFFFFFFFFFFFFFFFFFFFFFFFFFFFFFFFFFFFFFFFFFFFFFFFFF
310
FFFFFFFFFFFFFFFFFFFFFFFFFFFFFFFFF000FFFFFFFFFFFFFFFFFFFFFFFFFFFF
310
FFFFFFFFFFFFFFFFFFFFFFFFFFFFFFFFFFFFFFFFFFFFFFFFFFFFFFFFFFFFFFFF
310
FFFFFFFFFFFFFFFFFFFFFFFFFFFFFFFFFFFFFFFFFFFFFFFFFFFFFFFFFFFFFFFF
310
FFFFFFFFFFFFFFFFF000FFFFFFFFFFFFFFFFFFFFFFFFFFFFFFFFFFFFFFFFFFFF
310
FFFFFFFFFFFFFFFFFFFFFFFFFFFFFFFFFFFFFFFFFFFFFFFFFFFFFFFFFFFFFFFF
310
FFFFFFFFFFFFFFFFFFFFFFFFFFFFFFFFFFFFFFFFFFFFFFFFFFFFFFFFFFFFFFFF
310
F000FFFFFFFFFFFFFFFFFFFFFFFFFFFFFFFFFFFFFFFFFFFFFFFFFFFFFFFFFFFF
310
FFFFFFFFFFFFFFFFFFFFFFFFFFFFFFFFFFFFFFFFFFFFFFFFFFFFFFFFFFFFFFFF
310
FFFFFFFFFFFFFFFFFFFFFFFFFFFFFFFFFFFFFFFFFFFFFFFFF000FFFFFFFFFFFF
310
FFFFFFFFFFFFFFFFFFFFFFFFFFFFFFFFFFFFFFFFFFFFFFFFFFFFFFFFFFFFFFFF
310
FFFFFFFFFFFFFFFFFFFFFFFFFFFFFFFFFFFFFFFFFFFFFFFFFFFFFFFFFFFFFFFF
310
FFFFFFFFFFFFFFFFFFFFFFFFFFFFFFFFF000FFFFFFFFFFFFFFFFFFFFFFFFFFFF
310
FFFFFFFFFFFFFFFFFFFFFFFFFFFFFFFFFFFFFFFFFFFFFFFFFFFFFFFFFFFFFFFF
310
FFFFFFFFFFFFFFFFFFFFFFFFFFFFFFFFFFFFFFFFFFFFFFFFFFFFFFFFFFFFFFFF
310
FFFFFFFFFFFFFFFFF000FFFFF80003FFFFFFFFFFFFFFFFFFFFFFFFFFFFFFFFFF
310
FFFFF00007FFFFFFFFFF00007FFFFFF800000000000000007FFFFFFFFFFFFFFF
310
FFFFFFFC001FFFFFFFFFFFFFFC001FFFFFFFFFFFFFFFFFFFFFFFFFFE0007FFFF
310
F000FFFF8000007FFFFFFFF8000FFFFFC0007FFFFF80007FFFFF0000007FFFFF
310
FFF8000007FFFFF800000000000000007FFFFFF0001FFFFFFFFFFFC00001FFFF
310
FFFFFFFFC00001FFFFFFFF000000000003FFFFE000007FFFF000FFFE0000000F
310
FFFFFFF0000FFFFF80007FFFFF80007FFFFC0000001FFFFFFFC0000001FFFFF8
310
00000000000000007FFFFFF0001FFFFFFFFFFE0000003FFFFFFFFFFE0000003F
310
FFFFFF000000000003FFFF0000000FFFF000FFF800000003FFFFFFF00007FFFF
310
80007FFFFF80007FFFF000000007FFFFFF000000003FFFF80000000000000000
310
7FFFFFF0001FFFFFFFFFF80000000FFFFFFFFFF80000000FFFFFFF0000000000
310
03FFFC00000003FFF000FFE000000000FFFFFFF00007FFFF80003FFFFF80007F
310
FFC000000001FFFFFC000000001FFFF800000000000000007FFFFFF0001FFFFF
310
FFFFE000000003FFFFFFFFE000000003FFFFFF000000000003FFF000000000FF
310
F000FF80000000007FFFFFF00007FFFF80003FFFFF80007FFF8000000000FFFF
310
F80000000007FFF800000000000000007FFFFFF0001FFFFFFFFFC000000001FF
310
FFFFFFC000000001FFFFFF000000000003FFC0000000007FF000FF0000000000
310
3FFFFFE00007FFFF00003FFFFF80007FFE00000000003FFFF00000000003FFF8
310
00000000000000007FFFFFF0001FFFFFFFFF8000000000FFFFFFFF8000000000
310
FFFFFF000000000003FF80000000003FF000FE00000000001FFFFFE00003FFFF
310
00003FFFFF80007FFC00000000001FFFE00000000001FFF8000001FFFE000000
310
7FFFFFF0001FFFFFFFFE00000000003FFFFFFE00000000003FFFFF0000000000
310
03FF00000000001FF000FC00000000000FFFFFE00003FFFF00001FFFFF80007F
310
F800000000001FFFC00000000000FFF8000001FFFE0000007FFFFFF0001FFFFF
310
FFFC00000000001FFFFFFC00000000001FFFFF000000000003FE00000000000F
310
F000F8000000000007FFFFE00003FFFF00001FFFFF80007FF800000000000FFF
310
800000000000FFF8000001FFFE0000007FFFFFF0001FFFFFFFF800000000000F
310
FFFFF800000000000FFFFF000000000003FC000000000007F000F80000000000
310
03FFFFC00003FFFE00001FFFFF80007FF0000000000007FF0000000000007FF8
310
000001FFFE0000007FFFFFF0001FFFFFFFF0000000000007FFFFF00000000000
310
07FFFF000000000003F8000000000003F000F0000000000003FFFFC00001FFFE
310
00001FFFFF80007FE0000000000007FE0000000000003FF8000001FFFE000000
310
7FFFFFF0001FFFFFFFF0000000000007FFFFF0000000000007FFFF0000000000
310
03F800001F800003F000E00001FFF00001FFFFC00001FFFE00000FFFFF80007F
310
E00001FFE00003FE00001FFF00003FF8000001FFFE0000007FFFFFF0001FFFFF
310
FFE000003E000003FFFFE000003E000003FFFF000000000003F00001FFF80001
310
F000E00007FFFC0001FFFFC00001FFFE00000FFFFF80007FC0000FFFFC0003FC
310
0000FFFFC0001FF8000001FFFE0000007FFFFFF0001FFFFFFFC00003FFE00001
310
FFFFC00003FFE00001FFFF0001FFFFFFFFF00007FFFE0001F000E0000FFFFF00
310
00FFFF800001FFFC00000FFFFF80007FC0001FFFFE0001FC0001FFFFE0001FF8
310
000001FFFE0000007FFFFFF0001FFFFFFF80000FFFF80000FFFF80000FFFF800
310
00FFFF0003FFFFFFFFE0000FFFFF8000F000C0003FFFFF8000FFFF800000FFFC
310
000007FFFF80007F80003FFFFF0001FC0003FFFFF0001FF8000001FFFE000000
310
7FFFFFF0001FFFFFFF80003FFFFE0000FFFF80003FFFFE0000FFFF0003FFFFFF
310
FFE0003FFFFF8000F000C0003FFFFF8000FFFF800000FFFC000007FFFF80007F
310
80007FFFFF8001F80007FFFFF8000FF8000001FFFE0000007FFFFFF0001FFFFF
310
FF00007FFFFF00007FFF00007FFFFF00007FFF0003FFFFFFFFE0003FFFFFC000
310
F000C0007FFFFFC000FFFF000000FFFC000007FFFF80007F8000FFFFFF8000F8
310
000FFFFFF8000FF8000001FFFE0000007FFFFFF0001FFFFFFF0000FFFFFF8000
310
7FFF0000FFFFFF80007FFF0003FFFFFFFFC0007FFFFFC00070008000FFFFFFC0
310
00FFFF000000FFF8000007FFFF80007F8000FFFFFF8000F8000FFFFFF8000FF8
310
000001FFFE0000007FFFFFF0001FFFFFFE0001FFFFFFC0003FFE0001FFFFFFC0
310
003FFF0003FFFFFFFFC0007FFFFFE00070008000FFFFFFC0007FFF0000007FF8
310
000003FFFF80007F0001FFFFFF8000F8000FFFFFF8000FF8000001FFFE000000
310
7FFFFFF0001FFFFFFE0001FFFFFFC0003FFE0001FFFFFFC0003FFF0003FFFFFF
310
FFC000FFFFFFE00070008000FFFFFFC0007FFF0000007FF8000003FFFF80007F
310
0001FFFFFF8000F8001FFFFFF8000FF8000001FFFE0000007FFFFFF0001FFFFF
310
FE0003FFFFFFE0003FFE0003FFFFFFE0003FFF0003FFFFFFFFC000FFFFFFE000
310
70008000FFFFFFC0007FFE0000007FF8000003FFFF80007F0001FFFFFF8000F0
310
001FFFFFF8000FF8000001FFFE0000007FFFFFF0001FFFFFFC0003FFFFFFE000
310
1FFC0003FFFFFFE0001FFF0003FFFFFFFFC000FFFFFFC00070008000FFFFFF80
310
007FFE0000007FF0000003FFFF80007F0001FFFFFF0000F0001FFFFFF8000FF8
310
000001FFFE0000007FFFFFF0001FFFFFFC0007FFFFFFF0001FFC0007FFFFFFF0
310
001FFF0003FFFFFFFFC000FFFFFFC00070008001FFFFFF0000FFFE0000003FF0
310
000001FFFF80007F0001FFFFFF0000F8001FFFFFF0000FF8000001FFFE000000
310
7FFFFFF0001FFFFFFC0007FFFFFFF0001FFC0007FFFFFFF0001FFF0003FFFFFF
310
FFC001FFFFFF80007000FFFFFFFFFE0000FFFE0008003FF0008001FFFF80007F
310
FFFFFFFFFC0000FFFFFFFFFFE0000FF8000001FFFE0000007FFFFFF0001FFFFF
310
F8000FFFFFFFF8000FF8000FFFFFFFF8000FFF0003FFFFFFFFFFFFFFFFFF0000
310
7000FFFFFFFFFC0000FFFC0008003FF0008001FFFF80007FFFFFFFFFF80001FF
310
FFFFFFFF80000FF8000001FFFE0000007FFFFFF0001FFFFFF8000FFFFFFFF800
310
0FF8000FFFFFFFF8000FFF0003FFFFFFFFFFFFFFFFFE0000F000FFFFFFFFE000
310
00FFFC000C003FE000C001FFFF80007FFFFFFFFFC00001FFFFFFFFFE00001FF8
310
000001FFFE0000007FFFFFF0001FFFFFF8000FFFFFFFF8000FF8000FFFFFFFF8
310
000FFF0003FFFFFFFFFFFFFFFFF00000F000FFFFFFFE000001FFFC000C001FE0
310
00C000FFFF80007FFFFFFFFE000001FFFFFFFFE000001FF80FFFFFFFFFFFFFC0
310
7FFFFFF0001FFFFFF8000FFFFFFFF8000FF8000FFFFFFFF8000FFF0003FFFFFF
310
FFFFFFFFFF800000F000FFFFFFC0000001FFFC001C001FE001C000FFFF80007F
310
FFFFFF80000003FFFFFFF80000001FF80FFFFFFFFFFFFFC07FFFFFF0001FFFFF
310
F8001FFFFFFFFC000FF8001FFFFFFFFC000FFF0003FFFFFFFFFFFFFFF0000001
310
F000FFFFF800000001FFF8001C001FE001C000FFFF80007FFFFFF800000003FF
310
FFFF800000003FF80FFFFFFFFFFFFFC07FFFFFF0001FFFFFF8001FFFFFFFFC00
310
0FF8001FFFFFFFFC000FFF0003FFFFFFFFFFFFFE00000001F000FFFFC0000000
310
03FFF8001E001FC001E000FFFF80007FFFFF8000000007FFFFFC000000003FF8
310
0FFFFFFFFFFFFFC07FFFFFF0001FFFFFF8001FFFFFFFFC000FF8001FFFFFFFFC
310
000FFF0003FFFFFFFFFFFFE000000003F000FFFE0000000007FFF8001E000FC0
310
01E0007FFF80007FFFFE0000000007FFFFE0000000007FF80FFFFFFFFFFFFFC0
310
7FFFFFF0001FFFFFF0001FFFFFFFFC0007F0001FFFFFFFFC0007FF0003FFFFFF
310
FFFFFF0000000003F000FFF80000000007FFF8001E000FC003E0007FFF80007F
310
FFF0000000000FFFFF8000000000FFF80FFFFFFFFFFFFFC07FFFFFF0001FFFFF
310
F0001FFFFFFFFC0007F0001FFFFFFFFC0007FF0003FFFFFFFFFFFC0000000007
310
F000FFE0000000000FFFF0003E000FC003E0007FFF80007FFFC0000000001FFF
310
FE0000000001FFF80FFFFFFFFFFFFFC07FFFFFF0001FFFFFF0001FFFFFFFFC00
310
07F0001FFFFFFFFC0007FF0003FFFFFFFFFFF0000000000FF000FFC000000000
310
1FFFF0003F000F8003F0003FFF80007FFF80000000003FFFF80000000003FFF8
310
0FFFFFFFFFFFFFC07FFFFFF0001FFFFFF0001FFFFFFFFC0007F0001FFFFFFFFC
310
0007FF0003FFFFFFFFFFE0000000001FF000FF00000000007FFFF0003F000780
310
03F0003FFF80007FFF00000000007FFFF00000000007FFF80FFFFFFFFFFFFFC0
310
7FFFFFF0001FFFFFF0001FFFFFFFFC0007F0001FFFFFFFFC0007FF0003FFFFFF
310
FFFF80000000007FF000FE0000000000FFFFE0003F00078007F0003FFF80007F
310
FE0000000001FFFFE0000000001FFFF80FFFFFFFFFFFFFC07FFFFFF0001FFFFF
310
F0001FFFFFFFFC0007F0001FFFFFFFFC0007FF0003FFFFFFFFFF0000000000FF
310
F000FC0000000003FFFFE0007F00078007F0003FFF80007FFC0000000007FFFF
310
C0000000007FFFF80FFFFFFFFFFFFFC07FFFFFF0001FFFFFF8001FFFFFFFFC00
310
0FF8001FFFFFFFFC000FFF0003FFFFFFFFFE0000000003FFF000FC000000000F
310
FFFFE0007F80070007F8001FFF80007FF8000000001FFFFF8000000001FFFFF8
310
0FFFFFFFFFFFFFC07FFFFFF0001FFFFFF8001FFFFFFFFC000FF8001FFFFFFFFC
310
000FFF0003FFFFFFFFFC000000000FFFF000F8000000007FFFFFE0007F800700
310
07F8001FFF80007FF000000000FFFFFF800000000FFFFFF80FFFFFFFFFFFFFC0
310
7FFFFFF0001FFFFFF8000FFFFFFFF8000FF8000FFFFFFFF8000FFF0003FFFFFF
310
FFFC000000007FFFF000F800000007FFFFFFC0007F8003000FF8001FFF80007F
310
F000000007FFFFFF000000007FFFFFF80FFFFFFFFFFFFFC07FFFFFF0001FFFFF
310
F8000FFFFFFFF8000FF8000FFFFFFFF8000FFF0003FFFFFFFFF80000000FFFFF
310
F000F0000000FFFFFFFFC000FF8003000FF8001FFF80007FE0000000FFFFFFFF
310
0000000FFFFFFFF8000001FFFE0000007FFFFFF0001FFFFFF8000FFFFFFFF800
310
0FF8000FFFFFFFF8000FFF0003FFFFFFFFF8000000FFFFFFF000F000000FFFFF
310
FFFFC000FFC002000FF8000FFF80007FE000001FFFFFFFFE000001FFFFFFFFF8
310
000001FFFE0000007FFFFFF0001FFFFFF8000FFFFFFFF8000FF8000FFFFFFFF8
310
000FFF0003FFFFFFFFF000001FFFFFFFF000E00000FFFFFFFFFFC000FFC00200
310
0FFC000FFF80007FE00001FFFFFFFFFE00001FFFFFFFFFF8000001FFFE000000
310
7FFFFFF0001FFFFFFC000FFFFFFFF8001FFC000FFFFFFFF8001FFF0003FFFFFF
310
FFF00001FFFFFFFFF000E00007FFFFFFFFFF8000FFC000001FFC000FFF80007F
310
C0000FFFFFFFFFFE0000FFFFFFFFFFF8000001FFFE0000007FFFFFF0001FFFFF
310
FC0007FFFFFFF0001FFC0007FFFFFFF0001FFF0003FFFFFFFFF00007FFFFFFFF
310
F000E0001FFFFFFFFFFF8000FFC000001FFC000FFF80007FC0003FFFFFFFFFFE
310
0001FFFFFFFFFFF8000001FFFE0000007FFFFFF0001FFFFFFC0007FFFFFFF000
310
1FFC0007FFFFFFF0001FFF0003FFFFFFFFF0001FFFFFFFFFF000E0003FFFFF00
310
03FF8001FFE000001FFC0007FF80007FC0007FFFFF0007FC0003FFFFF0003FF8
310
000001FFFE0000007FFFFFF0001FFFFFFC0003FFFFFFE0001FFC0003FFFFFFE0
310
001FFF0003FFFFFFFFF0003FFFFFFFFFF000E0003FFFFF0001FF8001FFE00000
310
1FFE0007FF80007FC0007FFFFE0003FC0007FFFFE0003FF8000001FFFE000000
310
7FFFFFF0001FFFFFFE0003FFFFFFE0003FFE0003FFFFFFE0003FFF0003FFFFFF
310
FFF0003FFFFF8001F000E0003FFFFF0001FF0001FFE000001FFE0007FF80007F
310
C0007FFFFE0003FC0007FFFFE0003FF8000001FFFE0000007FFFFFF0001FFFFF
310
FE0001FFFFFFC0003FFE0001FFFFFFC0003FFF0003FFFFFFFFF0003FFFFF0001
310
F000E0003FFFFF0003FF0001FFE000003FFE0007FF80007FC0007FFFFE0003FC
310
0007FFFFE0003FF8000001FFFE0000007FFFFFF0001FFFFFFF0001FFFFFFC000
310
7FFF0001FFFFFFC0007FFF0003FFFFFFFFF0003FFFFF0001F000E0003FFFFE00
310
03FF0003FFF000003FFE0003FF80007FC0007FFFFC0003FE0007FFFFE0003FF8
310
000001FFFE0000007FFFFFF0001FFFFFFF0000FFFFFF80007FFF0000FFFFFF80
310
007FFF0003FFFFFFFFF0003FFFFF0001F000E0003FFFFE0003FF0003FFF00000
310
3FFF0003FF80007FC0007FFFFC0007FE0007FFFFC0003FF8000001FFFE000000
310
7FFFFFF0001FFFFFFF80007FFFFF0000FFFF80007FFFFF0000FFFF0003FFFFFF
310
FFF0003FFFFF0003F000E0003FFFFC0003FE0003FFF000003FFF0003FF80007F
310
E0003FFFF80007FE0003FFFFC0007FF8000001FFFE0000007FFFFFF0001FFFFF
310
FF80003FFFFE0000FFFF80003FFFFE0000FFFF0003FFFFFFFFF0001FFFFE0003
310
F000F0001FFFF80003FE0003FFF000007FFF0001FF80007FE0003FFFF00007FE
310
0001FFFF80007FF8000001FFFE0000007FFFFFF0001FFFFFFFC0000FFFF80001
310
FFFFC0000FFFF80001FFFF0003FFFFFFFFF0001FFFFC0003F000F0000FFFF000
310
07FE0007FFF800007FFF0001FF80007FE0001FFFE00007FF0000FFFE00007FF8
310
000001FFFE0000007FFFFFF0001FFFFFFFC00003FFE00001FFFFC00003FFE000
310
01FFFF0003FFFFFFFFF8000FFFF80003F000F00003FFC00007FC0007FFF80000
310
7FFF8001FF80007FF00007FF80000FFF00007FF80000FFF8000001FFFE000000
310
7F80000000000001FFE000003E000003FFFFE000003E000003FFFF0003FFFFFF
310
FFF80003FFE00007F000F800000000000FFC0007FFF800007FFF8001FF80007F
310
F000000000000FFF000000000000FFF8000001FFFE0000007F80000000000001
310
FFF0000000000007FFFFF0000000000007FFFF0003FFFFFFFFFC00007E000007
310
F000F800000000000FFC0007FFF80000FFFF8000FF80007FF800000000001FFF
310
800000000001FFF8000001FFFE0000007F80000000000001FFF800000000000F
310
FFFFF800000000000FFFFF0003FFFFFFFFFC00000000000FF000FC0000000000
310
1FFC0007FFFC0000FFFF8000FF80007FF800000000003FFFC00000000001FFF8
310
000001FFFE0000007F80000000000001FFF800000000000FFFFFF80000000000
310
0FFFFF0003FFFFFFFFFE00000000001FF000FE00000000003FF8000FFFFC0000
310
FFFF8000FF80007FFC00000000003FFFC00000000003FFF8000001FFFE000000
310
7F80000000000001FFFC00000000001FFFFFFC00000000001FFFFF0003FFFFFF
310
FFFF00000000001FF000FF00000000003FF8000FFFFC0000FFFFC000FF80007F
310
FE00000000007FFFE00000000007FFF8000001FFFE0000007F80000000000001
310
FFFE00000000003FFFFFFE00000000003FFFFF0003FFFFFFFFFF80000000003F
310
F000FF80000000007FF8000FFFFC0001FFFFC0007F80007FFF0000000000FFFF
310
F0000000000FFFF800000000000000007F80000000000001FFFF8000000000FF
310
FFFFFF8000000000FFFFFF0003FFFFFFFFFFC0000000007FF000FFC000000000
310
FFF8000FFFFE0001FFFFC0007F80007FFF8000000001FFFFF8000000001FFFF8
310
00000000000000007F80000000000001FFFFC000000001FFFFFFFFC000000001
310
FFFFFF0003FFFFFFFFFFE000000000FFF000FFE000000003FFF0001FFFFE0001
310
FFFFC0007F80007FFFC000000007FFFFFE000000003FFFF80000000000000000
310
7F80000000000001FFFFE000000003FFFFFFFFE000000003FFFFFF0003FFFFFF
310
FFFFF000000003FFF000FFF80000000FFFF0001FFFFE0001FFFFE0007F80007F
310
FFF00000000FFFFFFF00000000FFFFF800000000000000007F80000000000001
310
FFFFF80000000FFFFFFFFFF80000000FFFFFFF0003FFFFFFFFFFFC0000000FFF
310
F000FFFE0000003FFFF0001FFFFE0003FFFFE0003F80007FFFFC0000003FFFFF
310
FFC0000003FFFFF800000000000000007F80000000000001FFFFFE0000003FFF
310
FFFFFFFE0000003FFFFFFF0003FFFFFFFFFFFF0000003FFFF000FFFF800000FF
310
FFF0001FFFFF0003FFFFE0003F80007FFFFF000001FFFFFFFFF800001FFFFFF8
310
00000000000000007F80000000000001FFFFFFC00001FFFFFFFFFFFFC00001FF
310
FFFFFF0003FFFFFFFFFFFFC00000FFFFF000FFFFF8000FFFFFFFFFFFFFFFFFFF
310
FFFFFFFFFFFFFFFFFFFFF0001FFFFFFFFFFF0000FFFFFFF80000000000000000
310
7FFFFFFFFFFFFFFFFFFFFFFC001FFFFFFFFFFFFFFC001FFFFFFFFFFFFFFFFFFF
310
FFFFFFFC001FFFFFF000FFFFFFFFFFFFFFFFFFFFFFFFFFFFFFFFFFFFFFFFFFFF
310
FFFFFFFFFFFFFFFFFFFFFFFFFFFFFFFFFFFFFFFFFFFFFFFFFFFFFFFFFFFFFFFF
310
FFFFFFFFFFFFFFFFFFFFFFFFFFFFFFFFFFFFFFFFFFFFFFFFFFFFFFFFFFFFFFFF
310
F000FFFFFFFFFFFFFFFFFFFFFFFFFFFFFFFFFFFFFFFFFFFFFFFFFFFFFFFFFFFF
310
FFFFFFFFFFFFFFFFFFFFFFFFFFFFFFFFFFFFFFFFFFFFFFFFFFFFFFFFFFFFFFFF
310
FFFFFFFFFFFFFFFFFFFFFFFFFFFFFFFFFFFFFFFFFFFFFFFFF000FFFFFFFFFFFF
310
FFFFFFFFFFFFFFFFFFFFFFFFFFFFFFFFFFFFFFFFFFFFFFFFFFFFFFFFFFFFFFFF
310
FFFFFFFFFFFFFFFFFFFFFFFFFFFFFFFFFFFFFFFFFFFFFFFFFFFFFFFFFFFFFFFF
310
FFFFFFFFFFFFFFFFFFFFFFFFFFFFFFFFF000FFFFFFFFFFFFFFFFFFFFFFFFFFFF
310
FFFFFFFFFFFFFFFFFFFFFFFFFFFFFFFFFFFFFFFFFFFFFFFFFFFFFFFFFFFFFFFF
310
FFFFFFFFFFFFFFFFFFFFFFFFFFFFFFFFFFFFFFFFFFFFFFFFFFFFFFFFFFFFFFFF
310
FFFFFFFFFFFFFFFFF000FFFFFFFFFFFFFFFFFFFFFFFFFFFFFFFFFFFFFFFFFFFF
310
FFFFFFFFFFFFFFFFFFFFFFFFFFFFFFFFFFFFFFFFFFFFFFFFFFFFFFFFFFFFFFFF
310
FFFFFFFFFFFFFFFFFFFFFFFFFFFFFFFFFFFFFFFFFFFFFFFFFFFFFFFFFFFFFFFF
310
F000FFFFFFFFFFFFFFFFFFFFFFFFFFFFFFFFFFFFFFFFFFFFFFFFFFFFFFFFFFFF
310
FFFFFFFFFFFFFFFFFFFFFFFFFFFFFFFFFFFFFFFFFFFFFFFFFFFFFFFFFFFFFFFF
310
FFFFFFFFFFFFFFFFFFFFFFFFFFFFFFFFFFFFFFFFFFFFFFFFF000FFFFFFFFFFFF
310
FFFFFFFFFFFFFFFFFFFFFFFFFFFFFFFFFFFFFFFFFFFFFFFFFFFFFFFFFFFFFFFF
310
FFFFFFFFFFFFFFFFFFFFFFFFFFFFFFFFFFFFFFFFFFFFFFFFFFFFFFFFFFFFFFFF
310
FFFFFFFFFFFFFFFFFFFFFFFFFFFFFFFFF000FFFFFFFFFFFFFFFFFFFFFFFFFFFF
310
FFFFFFFFFFFFFFFFFFFFFFFFFFFFFFFFFFFFFFFFFFFFFFFFFFFFFFFFFFFFFFFF
310
FFFFFFFFFFFFFFFFFFFFFFFFFFFFFFFFFFFFFFFFFFFFFFFFFFFFFFFFFFFFFFFF
310
FFFFFFFFFFFFFFFFF000FFFFFFFFFFFFFFFFFFFFFFFFFFFFFFFFFFFFFFFFFFFF
310
FFFFFFFFFFFFFFFFFFFFFFFFFFFFFFFFFFFFFFFFFFFFFFFFFFFFFFFFFFFFFFFF
310
FFFFFFFFFFFFFFFFFFFFFFFFFFFFFFFFFFFFFFFFFFFFFFFFFFFFFFFFFFFFFFFF
310
F000FFFFFFFFFFFFFFFFFFFFFFFFFFFFFFFFFFFFFFFFFFFFFFFFFFFFFFFFFFFF
310
FFFFFFFFFFFFFFFFFFFFFFFFFFFFFFFFFFFFFFFFFFFFFFFFFFFFFFFFFFFFFFFF
310
FFFFFFFFFFFFFFFFFFFFFFFFFFFFFFFFFFFFFFFFFFFFFFFFF000FFFFFFFFFFFF
310
FFFFFFFFFFFFFFFFFFFFFFFFFFFFFFFFFFFFFFFFFFFFFFFFFFFFFFFFFFFFFFFF
310
FFFFFFFFFFFFFFFFFFFFFFFFFFFFFFFFFFFFFFFFFFFFFFFFFFFFFFFFFFFFFFFF
310
FFFFFFFFFFFFFFFFFFFFFFFFFFFFFFFFF000FFFFFFFFFFFFFFFFFFFFFFFFFFFF
310
FFFFFFFFFFFFFFFFFFFFFFFFFFFFFFFFFFFFFFFFFFFFFFFFFFFFFFFFFFFFFFFF
310
FFFFFFFFFFFFFFFFFFFFFFFFFFFFFFFFFFFFFFFFFFFFFFFFFFFFFFFFFFFFFFFF
310
FFFFFFFFFFFFFFFFF000FFFFFFFFFFFFFFFFFFFFFFFFFFFFFFFFFFFFFFFFFFFF
310
FFFFFFFFFFFFFFFFFFFFFFFFFFFFFFFFFFFFFFFFFFFFFFFFFFFFFFFFFFFFFFFF
310
FFFFFFFFFFFFFFFFFFFFFFFFFFFFFFFFFFFFFFFFFFFFFFFFFFFFFFFFFFFFFFFF
310
F000FFFFFFFFFFFFFFFFFFFFFFFFFFFFFFFFFFFFFFFFFFFFFFFFFFFFFFFFFFFF
310
FFFFFFFFFFFFFFFFFFFFFFFFFFFFFFFFFFFFFFFFFFFFFFFFFFFFFFFFFFFFFFFF
310
FFFFFFFFFFFFFFFFFFFFFFFFFFFFFFFFFFFFFFFFFFFFFFFFF000FFFFFFFFFFFF
310
FFFFFFFFFFFFFFFFFFFFFFFFFFFFFFFFFFFFFFFFFFFFFFFFFFFFFFFFFFFFFFFF
310
FFFFFFFFFFFFFFFFFFFFFFFFFFFFFFFFFFFFFFFFFFFFFFFFFFFFFFFFFFFFFFFF
310
FFFFFFFFFFFFFFFFFFFFFFFFFFFFFFFFF000FFFFFFFFFFFFFFFFFFFFFFFFFFFF
310
FFFFFFFFFFFFFFFFFFFFFFFFFFFFFFFFFFFFFFFFFFFFFFFFFFFFFFFFFFFFFFFF
310
FFFFFFFFFFFFFFFFFFFFFFFFFFFFFFFFFFFFFFFFFFFFFFFFFFFFFFFFFFFFFFFF
310
FFFFFFFFFFFFFFFFF000FFFFFFFFFFFFFFFFFFFFFFFFFFFFFFFFFFFFFFFFFFFF
310
FFFFFFFFFFFFFFFFFFFFFFFFFFFFFFFFFFFFFFFFFFFFFFFFFFFFFFFFFFFFFFFF
310
FFFFFFFFFFFFFFFFFFFFFFFFFFFFFFFFFFFFFFFFFFFFFFFFFFFFFFFFFFFFFFFF
310
F000FFFFFFFFFFFFFFFFFFFFFFFFFFFFFFFFFFFFFFFFFFFFFFFFFFFFFFFFFFFF
310
FFFFFFFFFFFFFFFFFFFFFFFFFFFFFFFFFFFFFFFFFFFFFFFFFFFFFFFFFFFFFFFF
310
FFFFFFFFFFFFFFFFFFFFFFFFFFFFFFFFFFFFFFFFFFFFFFFFF000FFFFFFFFFFFF
310
FFFFFFFFFFFFFFFFFFFFFFFFFFFFFFFFFFFFFFFFFFFFFFFFFFFFFFFFFFFFFFFF
310
FFFFFFFFFFFFFFFFFFFFFFFFFFFFFFFFFFFFFFFFFFFFFFFFFFFFFFFFFFFFFFFF
310
FFFFFFFFFFFFFFFFFFFFFFFFFFFFFFFFF000FFFFFFFFFFFFFFFFFFFFFFFFFFFF
310
FFFFFFFFFFFFFFFFFFFFFFFFFFFFFFFFFFFFFFFFFFFFFFFFFFFFFFFFFFFFFFFF
310
FFFFFFFFFFFFFFFFFFFFFFFFFFFFFFFFFFFFFFFFFFFFFFFFFFFFFFFFFFFFFFFF
310
FFFFFFFFFFFFFFFFF000FFFFFFFFFFFFFFFFFFFFFFFFFFFFFFFFFFFFFFFFFFFF
310
FFFFFFFFFFFFFFFFFFFFFFFFFFFFFFFFFFFFFFFFFFFFFFFFFFFFFFFFFFFFFFFF
310
FFFFFFFFFFFFFFFFFFFFFFFFFFFFFFFFFFFFFFFFFFFFFFFFFFFFFFFFFFFFFFFF
310
F000FFFFFFFFFFFFFFFFFFFFFFFFFFFFFFFFFFFFFFFFFFFFFFFFFFFFFFFFFFFF
310
FFFFFFFFFFFFFFFFFFFFFFFFFFFFFFFFFFFFFFFFFFFFFFFFFFFFFFFFFFFFFFFF
310
FFFFFFFFFFFFFFFFFFFFFFFFFFFFFFFFFFFFFFFFFFFFFFFFF000FFFFFFFFFFFF
310
FFFFFFFFFFFFFFFFFFFFFFFFFFFFFFFFFFFFFFFFFFFFFFFFFFFFFFFFFFFFFFFF
310
FFFFFFFFFFFFFFFFFFFFFFFFFFFFFFFFFFFFFFFFFFFFFFFFFFFFFFFFFFFFFFFF
310
FFFFFFFFFFFFFFFFFFFFFFFFFFFFFFFFF0000000000000000000000000000000
310
0000000000000000000000000000000000000000000000000000000000000000
310
0000000000000000000000000000000000000000000000000000000000000000
310
0000000000000000000000000000000000000000000000000000000000000000
310
0000000000000000000000000000000000000000000000000000000000000000
310
0000000000000000000000000000000000000000000000000000000000000000
310
0000000000000000000000000000000000000000000000000000000000000000
310
0000000000000000000000000000000000000000000000000000000000000000
310
0000000000000000000000000000000000000000000000000000000000000000
310
0000000000000000000000000000000000000000000000000000000000000000
310
0000000000000000000000000000000000000000000000000000000000000000
310
0000000000000000000000000000000000000000000000000000000000000000
310
0000000000000000000000000000000000000000000000000000000000000000
310
0000000000000000000000000000000000000000000000000000000000000000
310
0000000000000000000000000000000000000000000000000000000000000000
310
0000000000000000000000000000000000000000000000000000000000000000
  1
OLE
  0
ENDSEC
  0
SECTION
  2
OBJECTS
  0
DICTIONARY
  5
C
330
0
100
AcDbDictionary
281
     1
  3
ACAD_GROUP
350
D
  3
ACAD_LAYOUT
350
1A
  3
ACAD_MLINESTYLE
350
17
  3
ACAD_PLOTSETTINGS
350
19
  3
ACAD_PLOTSTYLENAME
350
E
  3
ACAD_SCALELIST
350
47
  0
DICTIONARY
  5
D
102
{ACAD_REACTORS
330
C
102
}
330
C
100
AcDbDictionary
281
     1
  0
DICTIONARY
  5
1A
102
{ACAD_REACTORS
330
C
102
}
330
C
100
AcDbDictionary
281
     1
  3
Layout1
350
1E
  3
Layout2
350
26
  3
Model
350
22
  0
DICTIONARY
  5
17
102
{ACAD_REACTORS
330
C
102
}
330
C
100
AcDbDictionary
281
     1
  3
Standard
350
18
  0
DICTIONARY
  5
19
102
{ACAD_REACTORS
330
C
102
}
330
C
100
AcDbDictionary
281
     1
  0
ACDBDICTIONARYWDFLT
  5
E
102
{ACAD_REACTORS
330
C
102
}
330
C
100
AcDbDictionary
281
     1
  3
Normal
350
F
100
AcDbDictionaryWithDefault
340
F
  0
DICTIONARY
  5
47
102
{ACAD_REACTORS
330
C
102
}
330
C
100
AcDbDictionary
281
     1
  3
A0
350
48
  3
A1
350
49
  3
A2
350
4A
  3
A3
350
4B
  3
A4
350
4C
  3
A5
350
4D
  3
A6
350
4E
  3
A7
350
4F
  3
A8
350
50
  3
A9
350
51
  3
B0
350
52
  3
B1
350
53
  3
B2
350
54
  3
B3
350
55
  3
B4
350
56
  3
B5
350
57
  3
B6
350
58
  3
B7
350
59
  3
B8
350
5A
  3
B9
350
5B
  3
C0
350
5C
  3
C1
350
5D
  3
C2
350
5E
  3
C3
350
5F
  3
C4
350
60
  3
C5
350
61
  3
C6
350
62
  3
C7
350
63
  3
C8
350
64
  3
C9
350
65
  3
D0
350
66
  3
D1
350
67
  3
D2
350
68
  0
LAYOUT
  5
1E
102
{ACAD_REACTORS
330
1A
102
}
330
1A
100
AcDbPlotSettings
  1

  2
none_device
  4

  6

 40
0.0
 41
0.0
 42
0.0
 43
0.0
 44
0.0
 45
0.0
 46
0.0
 47
0.0
 48
0.0
 49
0.0
140
0.0
141
0.0
142
1.0
143
1.0
 70
   688
 72
     1
 73
     0
 74
     5
  7

 75
    16
147
1.0
148
0.0
149
0.0
100
AcDbLayout
  1
Layout1
 70
     1
 71
     1
 10
0.0
 20
0.0
 11
420.0
 21
297.0
 12
0.0
 22
0.0
 32
0.0
 14
1.0000000000E+20
 24
1.0000000000E+20
 34
1.0000000000E+20
 15
-1.0000000000E+20
 25
-1.0000000000E+20
 35
-1.0000000000E+20
146
0.0
 13
0.0
 23
0.0
 33
0.0
 16
1.0
 26
0.0
 36
0.0
 17
0.0
 27
1.0
 37
0.0
 76
     0
330
1B
  0
LAYOUT
  5
26
102
{ACAD_REACTORS
330
1A
102
}
330
1A
100
AcDbPlotSettings
  1

  2
none_device
  4

  6

 40
0.0
 41
0.0
 42
0.0
 43
0.0
 44
0.0
 45
0.0
 46
0.0
 47
0.0
 48
0.0
 49
0.0
140
0.0
141
0.0
142
1.0
143
1.0
 70
   688
 72
     1
 73
     0
 74
     5
  7

 75
    16
147
1.0
148
0.0
149
0.0
100
AcDbLayout
  1
Layout2
 70
     1
 71
     2
 10
0.0
 20
0.0
 11
0.0
 21
0.0
 12
0.0
 22
0.0
 32
0.0
 14
0.0
 24
0.0
 34
0.0
 15
0.0
 25
0.0
 35
0.0
146
0.0
 13
0.0
 23
0.0
 33
0.0
 16
1.0
 26
0.0
 36
0.0
 17
0.0
 27
1.0
 37
0.0
 76
     0
330
23
  0
LAYOUT
  5
22
102
{ACAD_REACTORS
330
1A
102
}
330
1A
100
AcDbPlotSettings
  1

  2
none_device
  4
Letter_(8.50_x_11.00_Inches)
  6

 40
6.35
 41
6.35
 42
6.35000508
 43
6.35000508
 44
215.9
 45
279.4
 46
0.0
 47
0.0
 48
0.0
 49
0.0
140
0.0
141
0.0
142
1.0
143
1.0
 70
  1712
 72
     1
 73
     0
 74
     0
  7

 75
     0
147
1.0
148
0.0
149
0.0
100
AcDbLayout
  1
Model
 70
     1
 71
     0
 10
0.0
 20
0.0
 11
297.0
 21
210.0
 12
0.0
 22
0.0
 32
0.0
 14
0.0
 24
0.0
 34
0.0
 15
297.0
 25
210.0
 35
0.0
146
0.0
 13
0.0
 23
0.0
 33
0.0
 16
1.0
 26
0.0
 36
0.0
 17
0.0
 27
1.0
 37
0.0
 76
     0
330
1F
331
29
  0
MLINESTYLE
  5
18
102
{ACAD_REACTORS
330
17
102
}
330
17
100
AcDbMlineStyle
  2
Standard
 70
     0
  3

 62
   256
 51
90.0
 52
90.0
 71
     2
 49
0.5
 62
   256
  6
BYLAYER
 49
-0.5
 62
   256
  6
BYLAYER
  0
ACDBPLACEHOLDER
  5
F
102
{ACAD_REACTORS
330
E
102
}
330
E
  0
SCALE
  5
48
102
{ACAD_REACTORS
330
47
102
}
330
47
100
AcDbScale
 70
     0
300
1:1
140
1.0
141
1.0
290
     1
  0
SCALE
  5
49
102
{ACAD_REACTORS
330
47
102
}
330
47
100
AcDbScale
 70
     0
300
1:2
140
1.0
141
2.0
290
     0
  0
SCALE
  5
4A
102
{ACAD_REACTORS
330
47
102
}
330
47
100
AcDbScale
 70
     0
300
1:4
140
1.0
141
4.0
290
     0
  0
SCALE
  5
4B
102
{ACAD_REACTORS
330
47
102
}
330
47
100
AcDbScale
 70
     0
300
1:5
140
1.0
141
5.0
290
     0
  0
SCALE
  5
4C
102
{ACAD_REACTORS
330
47
102
}
330
47
100
AcDbScale
 70
     0
300
1:8
140
1.0
141
8.0
290
     0
  0
SCALE
  5
4D
102
{ACAD_REACTORS
330
47
102
}
330
47
100
AcDbScale
 70
     0
300
1:10
140
1.0
141
10.0
290
     0
  0
SCALE
  5
4E
102
{ACAD_REACTORS
330
47
102
}
330
47
100
AcDbScale
 70
     0
300
1:16
140
1.0
141
16.0
290
     0
  0
SCALE
  5
4F
102
{ACAD_REACTORS
330
47
102
}
330
47
100
AcDbScale
 70
     0
300
1:20
140
1.0
141
20.0
290
     0
  0
SCALE
  5
50
102
{ACAD_REACTORS
330
47
102
}
330
47
100
AcDbScale
 70
     0
300
1:30
140
1.0
141
30.0
290
     0
  0
SCALE
  5
51
102
{ACAD_REACTORS
330
47
102
}
330
47
100
AcDbScale
 70
     0
300
1:40
140
1.0
141
40.0
290
     0
  0
SCALE
  5
52
102
{ACAD_REACTORS
330
47
102
}
330
47
100
AcDbScale
 70
     0
300
1:50
140
1.0
141
50.0
290
     0
  0
SCALE
  5
53
102
{ACAD_REACTORS
330
47
102
}
330
47
100
AcDbScale
 70
     0
300
1:100
140
1.0
141
100.0
290
     0
  0
SCALE
  5
54
102
{ACAD_REACTORS
330
47
102
}
330
47
100
AcDbScale
 70
     0
300
2:1
140
2.0
141
1.0
290
     0
  0
SCALE
  5
55
102
{ACAD_REACTORS
330
47
102
}
330
47
100
AcDbScale
 70
     0
300
4:1
140
4.0
141
1.0
290
     0
  0
SCALE
  5
56
102
{ACAD_REACTORS
330
47
102
}
330
47
100
AcDbScale
 70
     0
300
8:1
140
8.0
141
1.0
290
     0
  0
SCALE
  5
57
102
{ACAD_REACTORS
330
47
102
}
330
47
100
AcDbScale
 70
     0
300
10:1
140
10.0
141
1.0
290
     0
  0
SCALE
  5
58
102
{ACAD_REACTORS
330
47
102
}
330
47
100
AcDbScale
 70
     0
300
100:1
140
100.0
141
1.0
290
     0
  0
SCALE
  5
59
102
{ACAD_REACTORS
330
47
102
}
330
47
100
AcDbScale
 70
     0
300
1/128" = 1'-0"
140
0.0078125
141
12.0
290
     0
  0
SCALE
  5
5A
102
{ACAD_REACTORS
330
47
102
}
330
47
100
AcDbScale
 70
     0
300
1/64" = 1'-0"
140
0.015625
141
12.0
290
     0
  0
SCALE
  5
5B
102
{ACAD_REACTORS
330
47
102
}
330
47
100
AcDbScale
 70
     0
300
1/32" = 1'-0"
140
0.03125
141
12.0
290
     0
  0
SCALE
  5
5C
102
{ACAD_REACTORS
330
47
102
}
330
47
100
AcDbScale
 70
     0
300
1/16" = 1'-0"
140
0.0625
141
12.0
290
     0
  0
SCALE
  5
5D
102
{ACAD_REACTORS
330
47
102
}
330
47
100
AcDbScale
 70
     0
300
3/32" = 1'-0"
140
0.09375
141
12.0
290
     0
  0
SCALE
  5
5E
102
{ACAD_REACTORS
330
47
102
}
330
47
100
AcDbScale
 70
     0
300
1/8" = 1'-0"
140
0.125
141
12.0
290
     0
  0
SCALE
  5
5F
102
{ACAD_REACTORS
330
47
102
}
330
47
100
AcDbScale
 70
     0
300
3/16" = 1'-0"
140
0.1875
141
12.0
290
     0
  0
SCALE
  5
60
102
{ACAD_REACTORS
330
47
102
}
330
47
100
AcDbScale
 70
     0
300
1/4" = 1'-0"
140
0.25
141
12.0
290
     0
  0
SCALE
  5
61
102
{ACAD_REACTORS
330
47
102
}
330
47
100
AcDbScale
 70
     0
300
3/8" = 1'-0"
140
0.375
141
12.0
290
     0
  0
SCALE
  5
62
102
{ACAD_REACTORS
330
47
102
}
330
47
100
AcDbScale
 70
     0
300
1/2" = 1'-0"
140
0.5
141
12.0
290
     0
  0
SCALE
  5
63
102
{ACAD_REACTORS
330
47
102
}
330
47
100
AcDbScale
 70
     0
300
3/4" = 1'-0"
140
0.75
141
12.0
290
     0
  0
SCALE
  5
64
102
{ACAD_REACTORS
330
47
102
}
330
47
100
AcDbScale
 70
     0
300
1" = 1'-0"
140
1.0
141
12.0
290
     0
  0
SCALE
  5
65
102
{ACAD_REACTORS
330
47
102
}
330
47
100
AcDbScale
 70
     0
300
1-1/2" = 1'-0"
140
1.5
141
12.0
290
     0
  0
SCALE
  5
66
102
{ACAD_REACTORS
330
47
102
}
330
47
100
AcDbScale
 70
     0
300
3" = 1'-0"
140
3.0
141
12.0
290
     0
  0
SCALE
  5
67
102
{ACAD_REACTORS
330
47
102
}
330
47
100
AcDbScale
 70
     0
300
6" = 1'-0"
140
6.0
141
12.0
290
     0
  0
SCALE
  5
68
102
{ACAD_REACTORS
330
47
102
}
330
47
100
AcDbScale
 70
     0
300
1'-0" = 1'-0"
140
12.0
141
12.0
290
     0
  0
ENDSEC
  0
EOF
