  0
SECTION
  2
HEADER
  9
$ACADVER
  1
AC1015
  9
$ACADMAINTVER
 70
     6
  9
$DWGCODEPAGE
  3
ANSI_1252
  9
$INSBASE
 10
0.0
 20
0.0
 30
0.0
  9
$EXTMIN
 10
0.0
 20
0.0
 30
0.0
  9
$EXTMAX
 10
297.0
 20
210.0
 30
0.0
  9
$LIMMIN
 10
0.0
 20
0.0
  9
$LIMMAX
 10
297.0
 20
210.0
  9
$ORTHOMODE
 70
     0
  9
$REGENMODE
 70
     1
  9
$FILLMODE
 70
     1
  9
$QTEXTMODE
 70
     0
  9
$MIRRTEXT
 70
     1
  9
$LTSCALE
 40
1.0
  9
$ATTMODE
 70
     1
  9
$TEXTSIZE
 40
2.0
  9
$TRACEWID
 40
1.0
  9
$TEXTSTYLE
  7
Standard
  9
$CLAYER
  8
0
  9
$CELTYPE
  6
ByLayer
  9
$CECOLOR
 62
   256
  9
$CELTSCALE
 40
1.0
  9
$DISPSILH
 70
     0
  9
$DIMSCALE
 40
1.0
  9
$DIMASZ
 40
3.0
  9
$DIMEXO
 40
0.0
  9
$DIMDLI
 40
3.75
  9
$DIMRND
 40
0.0
  9
$DIMDLE
 40
0.0
  9
$DIMEXE
 40
1.0
  9
$DIMTP
 40
0.0
  9
$DIMTM
 40
0.0
  9
$DIMTXT
 40
2.0
  9
$DIMCEN
 40
2.5
  9
$DIMTSZ
 40
0.0
  9
$DIMTOL
 70
     0
  9
$DIMLIM
 70
     0
  9
$DIMTIH
 70
     1
  9
$DIMTOH
 70
     1
  9
$DIMSE1
 70
     0
  9
$DIMSE2
 70
     0
  9
$DIMTAD
 70
     1
  9
$DIMZIN
 70
     0
  9
$DIMBLK
  1

  9
$DIMASO
 70
     1
  9
$DIMSHO
 70
     1
  9
$DIMPOST
  1

  9
$DIMAPOST
  1

  9
$DIMALT
 70
     0
  9
$DIMALTD
 70
     3
  9
$DIMALTF
 40
0.0393700787
  9
$DIMLFAC
 40
1.0
  9
$DIMTOFL
 70
     1
  9
$DIMTVP
 40
0.0
  9
$DIMTIX
 70
     0
  9
$DIMSOXD
 70
     0
  9
$DIMSAH
 70
     0
  9
$DIMBLK1
  1

  9
$DIMBLK2
  1

  9
$DIMSTYLE
  2
ISO-25
  9
$DIMCLRD
 70
     0
  9
$DIMCLRE
 70
     0
  9
$DIMCLRT
 70
     0
  9
$DIMTFAC
 40
1.0
  9
$DIMGAP
 40
1.524
  9
$DIMJUST
 70
     0
  9
$DIMSD1
 70
     0
  9
$DIMSD2
 70
     0
  9
$DIMTOLJ
 70
     0
  9
$DIMTZIN
 70
     0
  9
$DIMALTZ
 70
     0
  9
$DIMALTTZ
 70
     0
  9
$DIMUPT
 70
     0
  9
$DIMDEC
 70
     2
  9
$DIMTDEC
 70
     3
  9
$DIMALTU
 70
     2
  9
$DIMALTTD
 70
     3
  9
$DIMTXSTY
  7
Standard
  9
$DIMAUNIT
 70
     0
  9
$DIMADEC
 70
     2
  9
$DIMALTRND
 40
0.0
  9
$DIMAZIN
 70
     0
  9
$DIMDSEP
 70
    44
  9
$DIMATFIT
 70
     3
  9
$DIMFRAC
 70
     0
  9
$DIMLDRBLK
  1

  9
$DIMLUNIT
 70
     2
  9
$DIMLWD
 70
    -2
  9
$DIMLWE
 70
    -2
  9
$DIMTMOVE
 70
     0
  9
$LUNITS
 70
     2
  9
$LUPREC
 70
     2
  9
$SKETCHINC
 40
1.0
  9
$FILLETRAD
 40
10.0
  9
$AUNITS
 70
     0
  9
$AUPREC
 70
     2
  9
$MENU
  1
.
  9
$ELEVATION
 40
0.0
  9
$PELEVATION
 40
0.0
  9
$THICKNESS
 40
0.0
  9
$LIMCHECK
 70
     0
  9
$CHAMFERA
 40
0.0
  9
$CHAMFERB
 40
0.0
  9
$CHAMFERC
 40
0.0
  9
$CHAMFERD
 40
0.0
  9
$SKPOLY
 70
     0
  9
$TDCREATE
 40
2457669.510631123
  9
$TDUCREATE
 40
2457669.427297789
  9
$TDUPDATE
 40
2457669.510632291
  9
$TDUUPDATE
 40
2457669.427298958
  9
$TDINDWG
 40
0.0000000116
  9
$TDUSRTIMER
 40
0.0000000116
  9
$USRTIMER
 70
     1
  9
$ANGBASE
 50
0.0
  9
$ANGDIR
 70
     0
  9
$PDMODE
 70
     0
  9
$PDSIZE
 40
-1.0
  9
$PLINEWID
 40
0.0
  9
$SPLFRAME
 70
     0
  9
$SPLINETYPE
 70
     6
  9
$SPLINESEGS
 70
     8
  9
$HANDSEED
  5
1E7
  9
$SURFTAB1
 70
     6
  9
$SURFTAB2
 70
     6
  9
$SURFTYPE
 70
     6
  9
$SURFU
 70
     6
  9
$SURFV
 70
     6
  9
$UCSBASE
  2

  9
$UCSNAME
  2

  9
$UCSORG
 10
0.0
 20
0.0
 30
0.0
  9
$UCSXDIR
 10
1.0
 20
0.0
 30
0.0
  9
$UCSYDIR
 10
0.0
 20
1.0
 30
0.0
  9
$UCSORTHOREF
  2

  9
$UCSORTHOVIEW
 70
     0
  9
$UCSORGTOP
 10
0.0
 20
0.0
 30
0.0
  9
$UCSORGBOTTOM
 10
0.0
 20
0.0
 30
0.0
  9
$UCSORGLEFT
 10
0.0
 20
0.0
 30
0.0
  9
$UCSORGRIGHT
 10
0.0
 20
0.0
 30
0.0
  9
$UCSORGFRONT
 10
0.0
 20
0.0
 30
0.0
  9
$UCSORGBACK
 10
0.0
 20
0.0
 30
0.0
  9
$PUCSBASE
  2

  9
$PUCSNAME
  2

  9
$PUCSORG
 10
0.0
 20
0.0
 30
0.0
  9
$PUCSXDIR
 10
1.0
 20
0.0
 30
0.0
  9
$PUCSYDIR
 10
0.0
 20
1.0
 30
0.0
  9
$PUCSORTHOREF
  2

  9
$PUCSORTHOVIEW
 70
     0
  9
$PUCSORGTOP
 10
0.0
 20
0.0
 30
0.0
  9
$PUCSORGBOTTOM
 10
0.0
 20
0.0
 30
0.0
  9
$PUCSORGLEFT
 10
0.0
 20
0.0
 30
0.0
  9
$PUCSORGRIGHT
 10
0.0
 20
0.0
 30
0.0
  9
$PUCSORGFRONT
 10
0.0
 20
0.0
 30
0.0
  9
$PUCSORGBACK
 10
0.0
 20
0.0
 30
0.0
  9
$USERI1
 70
     0
  9
$USERI2
 70
     0
  9
$USERI3
 70
     0
  9
$USERI4
 70
     0
  9
$USERI5
 70
     0
  9
$USERR1
 40
0.0
  9
$USERR2
 40
0.0
  9
$USERR3
 40
0.0
  9
$USERR4
 40
0.0
  9
$USERR5
 40
0.0
  9
$WORLDVIEW
 70
     1
  9
$SHADEDGE
 70
     3
  9
$SHADEDIF
 70
    70
  9
$TILEMODE
 70
     1
  9
$MAXACTVP
 70
    64
  9
$PINSBASE
 10
0.0
 20
0.0
 30
0.0
  9
$PLIMCHECK
 70
     0
  9
$PEXTMIN
 10
1.0000000000E+20
 20
1.0000000000E+20
 30
1.0000000000E+20
  9
$PEXTMAX
 10
-1.0000000000E+20
 20
-1.0000000000E+20
 30
-1.0000000000E+20
  9
$PLIMMIN
 10
0.0
 20
0.0
  9
$PLIMMAX
 10
420.0
 20
297.0
  9
$UNITMODE
 70
     0
  9
$VISRETAIN
 70
     1
  9
$PLINEGEN
 70
     0
  9
$PSLTSCALE
 70
     1
  9
$TREEDEPTH
 70
  3020
  9
$CMLSTYLE
  2
Standard
  9
$CMLJUST
 70
     0
  9
$CMLSCALE
 40
20.0
  9
$PROXYGRAPHICS
 70
     1
  9
$MEASUREMENT
 70
     1
  9
$CELWEIGHT
370
    -1
  9
$ENDCAPS
280
     0
  9
$JOINSTYLE
280
     0
  9
$LWDISPLAY
290
     1
  9
$INSUNITS
 70
     4
  9
$HYPERLINKBASE
  1

  9
$STYLESHEET
  1

  9
$XEDIT
290
     1
  9
$CEPSNTYPE
380
     0
  9
$PSTYLEMODE
290
     1
  9
$FINGERPRINTGUID
  2
{3591D1AE-709F-4A13-8134-D2923AF4183D}
  9
$VERSIONGUID
  2
{FAEB1C32-E019-11D5-929B-00C0DF256EC4}
  9
$EXTNAMES
290
     1
  9
$PSVPSCALE
 40
0.0
  9
$OLESTARTUP
290
     0
  0
ENDSEC
  0
SECTION
  2
CLASSES
  0
CLASS
  1
ACDBDICTIONARYWDFLT
  2
AcDbDictionaryWithDefault
  3
ObjectDBX Classes
 90
        0
280
     0
281
     0
  0
CLASS
  1
VISUALSTYLE
  2
AcDbVisualStyle
  3
ObjectDBX Classes
 90
     4095
280
     0
281
     0
  0
CLASS
  1
MATERIAL
  2
AcDbMaterial
  3
ObjectDBX Classes
 90
     1153
280
     0
281
     0
  0
CLASS
  1
SCALE
  2
AcDbScale
  3
ObjectDBX Classes
 90
     1153
280
     0
281
     0
  0
CLASS
  1
TABLESTYLE
  2
AcDbTableStyle
  3
ObjectDBX Classes
 90
     4095
280
     0
281
     0
  0
CLASS
  1
MLEADERSTYLE
  2
AcDbMLeaderStyle
  3
ACDB_MLEADERSTYLE_CLASS
 90
     4095
280
     0
281
     0
  0
CLASS
  1
SUN
  2
AcDbSun
  3
SCENEOE
 90
     1153
280
     0
281
     0
  0
CLASS
  1
ACDBPLACEHOLDER
  2
AcDbPlaceHolder
  3
ObjectDBX Classes
 90
        0
280
     0
281
     0
  0
CLASS
  1
LAYOUT
  2
AcDbLayout
  3
ObjectDBX Classes
 90
        0
280
     0
281
     0
  0
ENDSEC
  0
SECTION
  2
TABLES
  0
TABLE
  2
VPORT
  5
8
330
0
100
AcDbSymbolTable
 70
     1
  0
VPORT
  5
29
330
8
100
AcDbSymbolTableRecord
100
AcDbViewportTableRecord
  2
*Active
 70
     0
 10
0.0
 20
0.0
 11
1.0
 21
1.0
 12
148.5
 22
105.0
 13
0.0
 23
0.0
 14
10.0
 24
10.0
 15
10.0
 25
10.0
 16
0.0
 26
0.0
 36
1.0
 17
0.0
 27
0.0
 37
0.0
 40
210.0
 41
1.4142857143
 42
50.0
 43
0.0
 44
0.0
 50
0.0
 51
0.0
 71
     0
 72
  2000
 73
     1
 74
     3
 75
     0
 76
     0
 77
     0
 78
     0
281
     0
 65
     1
110
0.0
120
0.0
130
0.0
111
1.0
121
0.0
131
0.0
112
0.0
122
1.0
132
0.0
 79
     0
146
0.0
  0
ENDTAB
  0
TABLE
  2
LTYPE
  5
5
330
0
100
AcDbSymbolTable
 70
     6
  0
LTYPE
  5
14
330
5
100
AcDbSymbolTableRecord
100
AcDbLinetypeTableRecord
  2
ByBlock
 70
     0
  3

 72
    65
 73
     0
 40
0.0
  0
LTYPE
  5
15
330
5
100
AcDbSymbolTableRecord
100
AcDbLinetypeTableRecord
  2
ByLayer
 70
     0
  3

 72
    65
 73
     0
 40
0.0
  0
LTYPE
  5
16
330
5
100
AcDbSymbolTableRecord
100
AcDbLinetypeTableRecord
  2
Continuous
 70
     0
  3
Solid line
 72
    65
 73
     0
 40
0.0
  0
LTYPE
  5
6E
330
5
100
AcDbSymbolTableRecord
100
AcDbLinetypeTableRecord
  2
HIDDEN
 70
     0
  3
Hidden __ __ __ __ __ __ __ __ __ __ __ __ __ __
 72
    65
 73
     2
 40
1.905
 49
1.27
 74
     0
 49
-0.635
 74
     0
  0
LTYPE
  5
6F
330
5
100
AcDbSymbolTableRecord
100
AcDbLinetypeTableRecord
  2
PHANTOM
 70
     0
  3
Phantom ______  __  __  ______  __  __  ______
 72
    65
 73
     6
 40
12.7
 49
6.35
 74
     0
 49
-1.27
 74
     0
 49
1.27
 74
     0
 49
-1.27
 74
     0
 49
1.27
 74
     0
 49
-1.27
 74
     0
  0
LTYPE
  5
70
330
5
100
AcDbSymbolTableRecord
100
AcDbLinetypeTableRecord
  2
CENTER
 70
     0
  3
Center ____ _ ____ _ ____ _ ____ _ ____ _ ____
 72
    65
 73
     4
 40
10.16
 49
6.35
 74
     0
 49
-1.27
 74
     0
 49
1.27
 74
     0
 49
-1.27
 74
     0
  0
LTYPE
  5
71
330
5
100
AcDbSymbolTableRecord
100
AcDbLinetypeTableRecord
  2
CENTERX2
 70
     0
  3
Center (2x) ________  __  ________  __  _____
 72
    65
 73
     4
 40
20.32
 49
12.7
 74
     0
 49
-2.54
 74
     0
 49
2.54
 74
     0
 49
-2.54
 74
     0
  0
LTYPE
  5
72
330
5
100
AcDbSymbolTableRecord
100
AcDbLinetypeTableRecord
  2
DOT2
 70
     0
  3
Dot (.5x) ........................................
 72
    65
 73
     2
 40
0.635
 49
0.0
 74
     0
 49
-0.635
 74
     0
  0
ENDTAB
  0
TABLE
  2
LAYER
  5
2
330
0
100
AcDbSymbolTable
 70
     5
  0
LAYER
  5
10
330
2
100
AcDbSymbolTableRecord
100
AcDbLayerTableRecord
  2
0
 70
     0
 62
     7
  6
Continuous
370
    -3
390
F
  0
LAYER
  5
73
330
2
100
AcDbSymbolTableRecord
100
AcDbLayerTableRecord
  2
FORMAT
 70
     0
 62
     7
  6
Continuous
370
    -3
390
F
  0
LAYER
  5
74
330
2
100
AcDbSymbolTableRecord
100
AcDbLayerTableRecord
  2
VERMASSUNG
 70
     0
 62
     7
  6
Continuous
370
    -3
390
F
  0
LAYER
  5
75
330
2
100
AcDbSymbolTableRecord
100
AcDbLayerTableRecord
  2
KOPF_DÜNN
 70
     0
 62
     7
  6
Continuous
370
    -3
390
F
  0
LAYER
  5
76
330
2
100
AcDbSymbolTableRecord
100
AcDbLayerTableRecord
  2
KOPF_DICK
 70
     0
 62
     7
  6
Continuous
370
    15
390
F
  0
ENDTAB
  0
TABLE
  2
STYLE
  5
3
330
0
100
AcDbSymbolTable
 70
     3
  0
STYLE
  5
11
330
3
100
AcDbSymbolTableRecord
100
AcDbTextStyleTableRecord
  2
Standard
 70
     0
 40
0.0
 41
1.0
 50
0.0
 71
     0
 42
2.0
  3
txt
  4

  0
STYLE
  5
77
330
3
100
AcDbSymbolTableRecord
100
AcDbTextStyleTableRecord
  2
SLDTEXTSTYLE0
 70
     0
 40
0.0
 41
0.7
 50
0.0
 71
     0
 42
2.0
  3
TXT
  4

  0
STYLE
  5
7B
330
3
100
AcDbSymbolTableRecord
100
AcDbTextStyleTableRecord
  2
SLDTEXTSTYLE1
 70
     0
 40
0.0
 41
0.6538461538
 50
0.0
 71
     0
 42
2.0
  3
TXT
  4

  0
ENDTAB
  0
TABLE
  2
VIEW
  5
6
330
0
100
AcDbSymbolTable
 70
     0
  0
ENDTAB
  0
TABLE
  2
UCS
  5
7
330
0
100
AcDbSymbolTable
 70
     0
  0
ENDTAB
  0
TABLE
  2
APPID
  5
9
330
0
100
AcDbSymbolTable
 70
     1
  0
APPID
  5
12
330
9
100
AcDbSymbolTableRecord
100
AcDbRegAppTableRecord
  2
ACAD
 70
     0
  0
ENDTAB
  0
TABLE
  2
DIMSTYLE
  5
A
330
0
100
AcDbSymbolTable
 70
     2
100
AcDbDimStyleTable
  0
DIMSTYLE
105
27
330
A
100
AcDbSymbolTableRecord
100
AcDbDimStyleTableRecord
  2
ISO-25
 70
     0
 41
2.5
 42
0.625
 43
3.75
 44
1.25
 73
     0
 74
     0
 77
     1
 78
     8
140
2.5
141
2.5
143
0.0393700787
147
0.625
171
     3
172
     1
178
     0
271
     2
272
     2
274
     3
278
    44
283
     0
284
     8
340
11
  0
DIMSTYLE
105
11B
102
{ACAD_REACTORS
330
11A
330
126
330
132
330
13E
330
148
330
154
102
}
330
A
100
AcDbSymbolTableRecord
100
AcDbDimStyleTableRecord
  2
SLDDIMSTYLE0
 70
     0
 41
3.0
 44
0.0
 45
0.000000001
 73
     0
 74
     0
 77
     1
 78
    12
 79
     3
140
2.0
147
0.5
173
     1
178
     0
271
     2
272
     3
276
     2
284
    12
340
77
  0
ENDTAB
  0
TABLE
  2
BLOCK_RECORD
  5
1
330
0
100
AcDbSymbolTable
 70
     7
  0
BLOCK_RECORD
  5
1F
330
1
100
AcDbSymbolTableRecord
100
AcDbBlockTableRecord
  2
*Model_Space
340
22
  0
BLOCK_RECORD
  5
1B
330
1
100
AcDbSymbolTableRecord
100
AcDbBlockTableRecord
  2
*Paper_Space
340
1E
  0
BLOCK_RECORD
  5
23
330
1
100
AcDbSymbolTableRecord
100
AcDbBlockTableRecord
  2
*Paper_Space0
340
26
  0
BLOCK_RECORD
  5
11C
330
1
100
AcDbSymbolTableRecord
100
AcDbBlockTableRecord
  2
_D
340
0
  0
BLOCK_RECORD
  5
127
330
1
100
AcDbSymbolTableRecord
100
AcDbBlockTableRecord
  2
_D_1
340
0
  0
BLOCK_RECORD
  5
133
330
1
100
AcDbSymbolTableRecord
100
AcDbBlockTableRecord
  2
_D_2
340
0
  0
BLOCK_RECORD
  5
13F
330
1
100
AcDbSymbolTableRecord
100
AcDbBlockTableRecord
  2
_D_3
340
0
  0
BLOCK_RECORD
  5
149
330
1
100
AcDbSymbolTableRecord
100
AcDbBlockTableRecord
  2
_D_4
340
0
  0
BLOCK_RECORD
  5
155
330
1
100
AcDbSymbolTableRecord
100
AcDbBlockTableRecord
  2
_D_5
340
0
  0
ENDTAB
  0
ENDSEC
  0
SECTION
  2
BLOCKS
  0
BLOCK
  5
20
330
1F
100
AcDbEntity
  8
0
100
AcDbBlockBegin
  2
*Model_Space
 70
     0
 10
0.0
 20
0.0
 30
0.0
  3
*Model_Space
  1

  0
ENDBLK
  5
21
330
1F
100
AcDbEntity
  8
0
100
AcDbBlockEnd
  0
BLOCK
  5
1C
330
1B
100
AcDbEntity
 67
     1
  8
0
100
AcDbBlockBegin
  2
*Paper_Space
 70
     0
 10
0.0
 20
0.0
 30
0.0
  3
*Paper_Space
  1

  0
ENDBLK
  5
1D
330
1B
100
AcDbEntity
 67
     1
  8
0
100
AcDbBlockEnd
  0
BLOCK
  5
24
330
23
100
AcDbEntity
  8
0
100
AcDbBlockBegin
  2
*Paper_Space0
 70
     0
 10
0.0
 20
0.0
 30
0.0
  3
*Paper_Space0
  1

  0
ENDBLK
  5
25
330
23
100
AcDbEntity
  8
0
100
AcDbBlockEnd
  0
BLOCK
  5
11D
330
11C
100
AcDbEntity
  8
0
100
AcDbBlockBegin
  2
_D
 70
     0
 10
0.0
 20
0.0
 30
0.0
  3
_D
  1

  0
SOLID
  5
11F
330
11C
100
AcDbEntity
  8
VERMASSUNG
100
AcDbTrace
 10
212.8799186668
 20
117.8764336686
 30
0.0
 11
212.4299186668
 21
114.8764336686
 31
0.0
 12
213.3299186668
 22
114.8764336686
 32
0.0
 13
213.3299186668
 23
114.8764336686
 33
0.0
  0
SOLID
  5
120
330
11C
100
AcDbEntity
  8
VERMASSUNG
100
AcDbTrace
 10
212.8799186668
 20
103.8764336686
 30
0.0
 11
213.3299186668
 21
106.8764336686
 31
0.0
 12
212.4299186668
 22
106.8764336686
 32
0.0
 13
212.4299186668
 23
106.8764336686
 33
0.0
  0
LINE
  5
121
330
11C
100
AcDbEntity
  8
VERMASSUNG
100
AcDbLine
 10
197.16856253
 20
117.8764336686
 30
0.0
 11
213.8799186668
 21
117.8764336686
 31
0.0
  0
LINE
  5
122
330
11C
100
AcDbEntity
  8
VERMASSUNG
100
AcDbLine
 10
197.16856253
 20
103.8764336686
 30
0.0
 11
213.8799186668
 21
103.8764336686
 31
0.0
  0
LINE
  5
123
330
11C
100
AcDbEntity
  8
VERMASSUNG
100
AcDbLine
 10
212.8799186668
 20
117.8764336686
 30
0.0
 11
212.8799186668
 21
103.8764336686
 31
0.0
  0
MTEXT
  5
124
330
11C
100
AcDbEntity
  8
VERMASSUNG
100
AcDbMText
 10
210.301783129
 20
107.7726293431
 30
0.0
 40
2.0
 41
0.0
 71
     1
 72
     1
  1
%%c
  7
SLDTEXTSTYLE0
 11
-7.044195017643634E-15
 21
1.0
 31
0.0
 73
     1
 44
1.0
  0
MTEXT
  5
125
330
11C
100
AcDbEntity
  8
VERMASSUNG
100
AcDbMText
 10
210.3017830708
 20
111.3816015367
 30
0.0
 40
2.0
 41
0.0
 71
     1
 72
     1
  1
14
  7
SLDTEXTSTYLE0
 11
-7.044195017643634E-15
 21
1.0
 31
0.0
 73
     1
 44
1.0
  0
ENDBLK
  5
11E
330
11C
100
AcDbEntity
  8
0
100
AcDbBlockEnd
  0
BLOCK
  5
128
330
127
100
AcDbEntity
  8
0
100
AcDbBlockBegin
  2
_D_1
 70
     0
 10
0.0
 20
0.0
 30
0.0
  3
_D_1
  1

  0
SOLID
  5
12A
330
127
100
AcDbEntity
  8
VERMASSUNG
100
AcDbTrace
 10
219.0799186668
 20
123.3764336686
 30
0.0
 11
218.6299186668
 21
120.3764336686
 31
0.0
 12
219.5299186668
 22
120.3764336686
 32
0.0
 13
219.5299186668
 23
120.3764336686
 33
0.0
  0
SOLID
  5
12B
330
127
100
AcDbEntity
  8
VERMASSUNG
100
AcDbTrace
 10
219.0799186668
 20
98.3764336686
 30
0.0
 11
219.5299186668
 21
101.3764336686
 31
0.0
 12
218.6299186668
 22
101.3764336686
 32
0.0
 13
218.6299186668
 23
101.3764336686
 33
0.0
  0
LINE
  5
12C
330
127
100
AcDbEntity
  8
VERMASSUNG
100
AcDbLine
 10
203.86856253
 20
123.3764336686
 30
0.0
 11
220.0799186668
 21
123.3764336686
 31
0.0
  0
LINE
  5
12D
330
127
100
AcDbEntity
  8
VERMASSUNG
100
AcDbLine
 10
203.86856253
 20
98.3764336686
 30
0.0
 11
220.0799186668
 21
98.3764336686
 31
0.0
  0
LINE
  5
12E
330
127
100
AcDbEntity
  8
VERMASSUNG
100
AcDbLine
 10
219.0799186668
 20
123.3764336686
 30
0.0
 11
219.0799186668
 21
98.3764336686
 31
0.0
  0
MTEXT
  5
12F
330
127
100
AcDbEntity
  8
VERMASSUNG
100
AcDbMText
 10
216.3017834106
 20
104.7725057592
 30
0.0
 40
2.0
 41
0.0
 71
     1
 72
     1
  1
ST2
  7
SLDTEXTSTYLE0
 11
-7.044195017643634E-15
 21
1.0
 31
0.0
 73
     1
 44
1.0
  0
MTEXT
  5
130
330
127
100
AcDbEntity
  8
VERMASSUNG
100
AcDbMText
 10
216.5017833618
 20
110.5725056854
 30
0.0
 40
2.0
 41
0.0
 71
     1
 72
     1
  1
%%c
  7
SLDTEXTSTYLE0
 11
-7.044195017643634E-15
 21
1.0
 31
0.0
 73
     1
 44
1.0
  0
MTEXT
  5
131
330
127
100
AcDbEntity
  8
VERMASSUNG
100
AcDbMText
 10
216.5017830708
 20
114.1809815573
 30
0.0
 40
2.0
 41
0.0
 71
     1
 72
     1
  1
25
  7
SLDTEXTSTYLE0
 11
-7.044195017643634E-15
 21
1.0
 31
0.0
 73
     1
 44
1.0
  0
ENDBLK
  5
129
330
127
100
AcDbEntity
  8
0
100
AcDbBlockEnd
  0
BLOCK
  5
134
330
133
100
AcDbEntity
  8
0
100
AcDbBlockBegin
  2
_D_2
 70
     0
 10
0.0
 20
0.0
 30
0.0
  3
_D_2
  1

  0
ARC
  5
136
330
133
100
AcDbEntity
  8
VERMASSUNG
100
AcDbCircle
 10
197.5808019739
 20
148.6643160993
 30
0.0
 40
4.24705993853726
100
AcDbArc
 50
153.4349488229
 51
206.5650511771
  0
ARC
  5
137
330
133
100
AcDbEntity
  8
VERMASSUNG
100
AcDbCircle
 10
195.5563230861
 20
148.6643160993
 30
0.0
 40
4.24705993853726
100
AcDbArc
 50
333.4349488229
 51
26.5650511771
  0
SOLID
  5
138
330
133
100
AcDbEntity
  8
VERMASSUNG
100
AcDbTrace
 10
189.06856253
 20
146.7649731539
 30
0.0
 11
192.06856253
 21
146.3149731539
 31
0.0
 12
192.06856253
 22
147.2149731539
 32
0.0
 13
192.06856253
 23
147.2149731539
 33
0.0
  0
SOLID
  5
139
330
133
100
AcDbEntity
  8
VERMASSUNG
100
AcDbTrace
 10
204.06856253
 20
146.7649731539
 30
0.0
 11
201.06856253
 21
147.2149731539
 31
0.0
 12
201.06856253
 22
146.3149731539
 32
0.0
 13
201.06856253
 23
146.3149731539
 33
0.0
  0
LINE
  5
13A
330
133
100
AcDbEntity
  8
VERMASSUNG
100
AcDbLine
 10
189.06856253
 20
141.3764336686
 30
0.0
 11
189.06856253
 21
147.7649731539
 31
0.0
  0
LINE
  5
13B
330
133
100
AcDbEntity
  8
VERMASSUNG
100
AcDbLine
 10
204.06856253
 20
123.1764336686
 30
0.0
 11
204.06856253
 21
147.7649731539
 31
0.0
  0
LINE
  5
13C
330
133
100
AcDbEntity
  8
VERMASSUNG
100
AcDbLine
 10
189.06856253
 20
146.7649731539
 30
0.0
 11
204.06856253
 21
146.7649731539
 31
0.0
  0
MTEXT
  5
13D
330
133
100
AcDbEntity
  8
VERMASSUNG
100
AcDbMText
 10
195.369616083
 20
149.3431087498
 30
0.0
 40
2.0
 41
0.0
 71
     1
 72
     1
  1
15
  7
SLDTEXTSTYLE0
 73
     1
 44
1.0
  0
ENDBLK
  5
135
330
133
100
AcDbEntity
  8
0
100
AcDbBlockEnd
  0
BLOCK
  5
140
330
13F
100
AcDbEntity
  8
0
100
AcDbBlockBegin
  2
_D_3
 70
     0
 10
0.0
 20
0.0
 30
0.0
  3
_D_3
  1

  0
SOLID
  5
142
330
13F
100
AcDbEntity
  8
VERMASSUNG
100
AcDbTrace
 10
162.06856253
 20
152.7649731539
 30
0.0
 11
165.06856253
 21
152.3149731539
 31
0.0
 12
165.06856253
 22
153.2149731539
 32
0.0
 13
165.06856253
 23
153.2149731539
 33
0.0
  0
SOLID
  5
143
330
13F
100
AcDbEntity
  8
VERMASSUNG
100
AcDbTrace
 10
204.06856253
 20
152.7649731539
 30
0.0
 11
201.06856253
 21
153.2149731539
 31
0.0
 12
201.06856253
 22
152.3149731539
 32
0.0
 13
201.06856253
 23
152.3149731539
 33
0.0
  0
LINE
  5
144
330
13F
100
AcDbEntity
  8
VERMASSUNG
100
AcDbLine
 10
162.06856253
 20
133.1014336686
 30
0.0
 11
162.06856253
 21
153.7649731539
 31
0.0
  0
LINE
  5
145
330
13F
100
AcDbEntity
  8
VERMASSUNG
100
AcDbLine
 10
204.06856253
 20
123.1764336686
 30
0.0
 11
204.06856253
 21
153.7649731539
 31
0.0
  0
LINE
  5
146
330
13F
100
AcDbEntity
  8
VERMASSUNG
100
AcDbLine
 10
162.06856253
 20
152.7649731539
 30
0.0
 11
204.06856253
 21
152.7649731539
 31
0.0
  0
MTEXT
  5
147
330
13F
100
AcDbEntity
  8
VERMASSUNG
100
AcDbMText
 10
181.5696037246
 20
155.3431087498
 30
0.0
 40
2.0
 41
0.0
 71
     1
 72
     1
  1
42
  7
SLDTEXTSTYLE0
 73
     1
 44
1.0
  0
ENDBLK
  5
141
330
13F
100
AcDbEntity
  8
0
100
AcDbBlockEnd
  0
BLOCK
  5
14A
330
149
100
AcDbEntity
  8
0
100
AcDbBlockBegin
  2
_D_4
 70
     0
 10
0.0
 20
0.0
 30
0.0
  3
_D_4
  1

  0
ARC
  5
14C
330
149
100
AcDbEntity
  8
VERMASSUNG
100
AcDbCircle
 10
149.5807278235
 20
160.6643160993
 30
0.0
 40
4.247059938537221
100
AcDbArc
 50
153.4349488229
 51
206.5650511771
  0
ARC
  5
14D
330
149
100
AcDbEntity
  8
VERMASSUNG
100
AcDbCircle
 10
151.1563972365
 20
160.6643160993
 30
0.0
 40
4.247059938537221
100
AcDbArc
 50
333.4349488229
 51
26.5650511771
  0
SOLID
  5
14E
330
149
100
AcDbEntity
  8
VERMASSUNG
100
AcDbTrace
 10
96.66856253
 20
158.7649731539
 30
0.0
 11
99.66856253
 21
158.3149731539
 31
0.0
 12
99.66856253
 22
159.2149731539
 32
0.0
 13
99.66856253
 23
159.2149731539
 33
0.0
  0
SOLID
  5
14F
330
149
100
AcDbEntity
  8
VERMASSUNG
100
AcDbTrace
 10
204.06856253
 20
158.7649731539
 30
0.0
 11
201.06856253
 21
159.2149731539
 31
0.0
 12
201.06856253
 22
158.3149731539
 32
0.0
 13
201.06856253
 23
158.3149731539
 33
0.0
  0
LINE
  5
150
330
149
100
AcDbEntity
  8
VERMASSUNG
100
AcDbLine
 10
96.66856253
 20
122.6991892656
 30
0.0
 11
96.66856253
 21
159.7649731539
 31
0.0
  0
LINE
  5
151
330
149
100
AcDbEntity
  8
VERMASSUNG
100
AcDbLine
 10
204.06856253
 20
123.1764336686
 30
0.0
 11
204.06856253
 21
159.7649731539
 31
0.0
  0
LINE
  5
152
330
149
100
AcDbEntity
  8
VERMASSUNG
100
AcDbLine
 10
96.66856253
 20
158.7649731539
 30
0.0
 11
204.06856253
 21
158.7649731539
 31
0.0
  0
MTEXT
  5
153
330
149
100
AcDbEntity
  8
VERMASSUNG
100
AcDbMText
 10
147.3695419327
 20
161.3431087498
 30
0.0
 40
2.0
 41
0.0
 71
     1
 72
     1
  1
107.4
  7
SLDTEXTSTYLE0
 73
     1
 44
1.0
  0
ENDBLK
  5
14B
330
149
100
AcDbEntity
  8
0
100
AcDbBlockEnd
  0
BLOCK
  5
156
330
155
100
AcDbEntity
  8
0
100
AcDbBlockBegin
  2
_D_5
 70
     0
 10
0.0
 20
0.0
 30
0.0
  3
_D_5
  1

  0
SOLID
  5
158
330
155
100
AcDbEntity
  8
VERMASSUNG
100
AcDbTrace
 10
91.3625952971
 20
142.3764336686
 30
0.0
 11
90.9125952971
 21
139.3764336686
 31
0.0
 12
91.8125952971
 22
139.3764336686
 32
0.0
 13
91.8125952971
 23
139.3764336686
 33
0.0
  0
SOLID
  5
159
330
155
100
AcDbEntity
  8
VERMASSUNG
100
AcDbTrace
 10
91.3625952971
 20
79.3764336686
 30
0.0
 11
91.8125952971
 21
82.3764336686
 31
0.0
 12
90.9125952971
 22
82.3764336686
 32
0.0
 13
90.9125952971
 23
82.3764336686
 33
0.0
  0
LINE
  5
15A
330
155
100
AcDbEntity
  8
VERMASSUNG
100
AcDbLine
 10
186.0685583859
 20
142.3764336686
 30
0.0
 11
90.3625952971
 21
142.3764336686
 31
0.0
  0
LINE
  5
15B
330
155
100
AcDbEntity
  8
VERMASSUNG
100
AcDbLine
 10
186.0685633039
 20
79.3764336686
 30
0.0
 11
90.3625952971
 21
79.3764336686
 31
0.0
  0
LINE
  5
15C
330
155
100
AcDbEntity
  8
VERMASSUNG
100
AcDbLine
 10
91.3625952971
 20
142.3764336686
 30
0.0
 11
91.3625952971
 21
79.3764336686
 31
0.0
  0
MTEXT
  5
15D
330
155
100
AcDbEntity
  8
VERMASSUNG
100
AcDbMText
 10
88.5844600409
 20
100.1719486016
 30
0.0
 40
2.0
 41
0.0
 71
     1
 72
     1
  1
MAS BT 40
  7
SLDTEXTSTYLE0
 11
-7.044195017643634E-15
 21
1.0
 31
0.0
 73
     1
 44
1.0
  0
MTEXT
  5
15E
330
155
100
AcDbEntity
  8
VERMASSUNG
100
AcDbMText
 10
88.7844599922
 20
115.1719482664
 30
0.0
 40
2.0
 41
0.0
 71
     1
 72
     1
  1
%%c
  7
SLDTEXTSTYLE0
 11
-7.044195017643634E-15
 21
1.0
 31
0.0
 73
     1
 44
1.0
  0
MTEXT
  5
15F
330
155
100
AcDbEntity
  8
VERMASSUNG
100
AcDbMText
 10
88.7844597012
 20
118.7815387149
 30
0.0
 40
2.0
 41
0.0
 71
     1
 72
     1
  1
63
  7
SLDTEXTSTYLE0
 11
-7.044195017643634E-15
 21
1.0
 31
0.0
 73
     1
 44
1.0
  0
ENDBLK
  5
157
330
155
100
AcDbEntity
  8
0
100
AcDbBlockEnd
  0
ENDSEC
  0
SECTION
  2
ENTITIES
  0
MTEXT
  5
78
330
1F
100
AcDbEntity
  8
KOPF_DÜNN
100
AcDbMText
 10
13.8892156294
 20
23.8442973028
 30
0.0
 40
3.0
 41
0.0
 71
     1
 72
     1
  1
134.540.025.042
  7
SLDTEXTSTYLE0
 73
     1
 44
1.0
  0
MTEXT
  5
79
330
1F
100
AcDbEntity
  8
VERMASSUNG
100
AcDbMText
 10
13.9329988022
 20
28.8834360957
 30
0.0
 40
3.0
 41
0.0
 71
     1
 72
     1
  1
Aufnahme_Master shank ST2
  7
SLDTEXTSTYLE0
 73
     1
 44
1.0
  0
MTEXT
  5
7A
330
1F
100
AcDbEntity
  8
VERMASSUNG
100
AcDbMText
 10
98.8601118557
 20
13.8365368761
 30
0.0
 40
2.0
 41
0.0
 71
     1
 72
     1
  1
Datum: 05.06.2008
  7
SLDTEXTSTYLE0
 73
     1
 44
1.0
  0
MTEXT
  5
7C
330
1F
100
AcDbEntity
  8
VERMASSUNG
100
AcDbMText
 10
13.933048693
 20
18.0482802738
 30
0.0
 40
2.0
 41
0.0
 71
     1
 72
     1
  1
MAS BT 40 A/D
  7
SLDTEXTSTYLE1
 73
     1
 44
1.0
  0
MTEXT
  5
7D
330
1F
100
AcDbEntity
  8
VERMASSUNG
100
AcDbMText
 10
13.9808475933
 20
13.9090974274
 30
0.0
 40
2.0
 41
0.0
 71
     1
 72
     1
  1
Gewicht: 1026g
  7
SLDTEXTSTYLE0
 73
     1
 44
1.0
  0
LINE
  5
7E
330
1F
100
AcDbEntity
  8
0
  6
Continuous
 62
     7
370
    15
100
AcDbLine
 10
186.0687174426
 20
79.3764336686
 30
0.0
 11
188.06856253
 21
79.3764336686
 31
0.0
  0
LINE
  5
7F
330
1F
100
AcDbEntity
  8
0
  6
Continuous
 62
     7
370
    15
100
AcDbLine
 10
188.06856253
 20
142.3764336686
 30
0.0
 11
186.06806236
 21
142.3764336686
 31
0.0
  0
ARC
  5
80
330
1F
100
AcDbEntity
  8
0
  6
Continuous
 62
     7
370
    15
100
AcDbCircle
 10
188.06856253
 20
80.3764336686
 30
0.0
 40
1.0
100
AcDbArc
 50
270.0
 51
0.0
  0
ARC
  5
81
330
1F
100
AcDbEntity
  8
0
  6
Continuous
 62
     7
370
    15
100
AcDbCircle
 10
188.06856253
 20
141.3764336686
 30
0.0
 40
1.0
100
AcDbArc
 50
0.0
 51
90.0
  0
ARC
  5
82
330
1F
100
AcDbEntity
  8
0
  6
Continuous
 62
     7
370
    15
100
AcDbCircle
 10
163.06856253
 20
87.6514336686
 30
0.0
 40
1.000000000000014
100
AcDbArc
 50
46.4345794674
 51
90.0
  0
ARC
  5
83
330
1F
100
AcDbEntity
  8
0
  6
Continuous
 62
     7
370
    15
100
AcDbCircle
 10
163.06856253
 20
134.1014336686
 30
0.0
 40
1.000000000000007
100
AcDbArc
 50
270.0
 51
313.5376081075
  0
LINE
  5
84
330
1F
100
AcDbEntity
  8
0
  6
Continuous
 62
     7
370
    15
100
AcDbLine
 10
162.06856253
 20
88.6514336686
 30
0.0
 11
163.06856253
 21
88.6514336686
 31
0.0
  0
LINE
  5
85
330
1F
100
AcDbEntity
  8
0
  6
Continuous
 62
     7
370
    15
100
AcDbLine
 10
163.06856253
 20
133.1014336686
 30
0.0
 11
162.06856253
 21
133.1014336686
 31
0.0
  0
LINE
  5
86
330
1F
100
AcDbEntity
  8
0
  6
Continuous
 62
     7
370
    15
100
AcDbLine
 10
162.06856253
 20
133.1014336686
 30
0.0
 11
97.5242556369
 21
123.6887222467
 31
0.0
  0
LINE
  5
87
330
1F
100
AcDbEntity
  8
0
  6
Continuous
 62
     7
370
    15
100
AcDbLine
 10
97.5242556369
 20
98.0641450905
 30
0.0
 11
162.06856253
 21
88.6514336686
 31
0.0
  0
ARC
  5
88
330
1F
100
AcDbEntity
  8
0
  6
Continuous
 62
     7
370
    15
100
AcDbCircle
 10
193.06856253
 20
94.3764336686
 30
0.0
 40
4.0
100
AcDbArc
 50
90.0
 51
180.0
  0
ARC
  5
89
330
1F
100
AcDbEntity
  8
0
  6
Continuous
 62
     7
370
    15
100
AcDbCircle
 10
193.06856253
 20
127.3764336686
 30
0.0
 40
4.0
100
AcDbArc
 50
180.0
 51
270.0
  0
ARC
  5
8A
330
1F
100
AcDbEntity
  8
0
  6
Continuous
 62
     7
370
    15
100
AcDbCircle
 10
97.66856253
 20
99.0536780715
 30
0.0
 40
1.000000000000008
100
AcDbArc
 50
180.0
 51
261.7028550302
  0
ARC
  5
8B
330
1F
100
AcDbEntity
  8
0
  6
Continuous
 62
     7
370
    15
100
AcDbCircle
 10
97.66856253
 20
122.6991892656
 30
0.0
 40
1.0
100
AcDbArc
 50
98.2971449698
 51
180.0
  0
LINE
  5
8C
330
1F
100
AcDbEntity
  8
0
  6
Continuous
 62
     7
370
    15
100
AcDbLine
 10
203.86856253
 20
98.3764336686
 30
0.0
 11
204.06856253
 21
98.5764336686
 31
0.0
  0
LINE
  5
8D
330
1F
100
AcDbEntity
  8
0
  6
Continuous
 62
     7
370
    15
100
AcDbLine
 10
204.06856253
 20
123.1764336686
 30
0.0
 11
203.86856253
 21
123.3764336686
 31
0.0
  0
LINE
  5
8E
330
1F
100
AcDbEntity
  8
0
  6
Continuous
 62
     7
370
    15
100
AcDbLine
 10
203.86856253
 20
123.3764336686
 30
0.0
 11
193.06856253
 21
123.3764336686
 31
0.0
  0
LINE
  5
8F
330
1F
100
AcDbEntity
  8
0
  6
Continuous
 62
     7
370
    15
100
AcDbLine
 10
193.06856253
 20
98.3764336686
 30
0.0
 11
203.86856253
 21
98.3764336686
 31
0.0
  0
SPLINE
  5
90
330
1F
100
AcDbEntity
  8
0
  6
Continuous
 62
     7
370
    15
100
AcDbSpline
210
0.0
220
0.0
230
1.0
 70
    24
 71
     3
 72
    11
 73
     7
 74
     0
 42
0.000000001
 43
0.00000001
 40
0.0
 40
0.0
 40
0.0
 40
0.0
 40
0.1285561766306815
 40
0.480153579784285
 40
0.8150691831754918
 40
1.0
 40
1.0
 40
1.0
 40
1.0
 10
198.2402503664678
 20
109.6264336685687
 30
0.0
 10
198.1821213744762
 20
109.6264336685687
 30
0.0
 10
197.9650112804646
 20
109.6264336685687
 30
0.0
 10
197.55788122817
 20
109.6264336685688
 30
0.0
 10
197.117045261177
 20
109.6264336685687
 30
0.0
 10
196.8808862101731
 20
109.6264336685687
 30
0.0
 10
196.7968746934937
 20
109.6264336685687
 30
0.0
  0
SPLINE
  5
91
330
1F
100
AcDbEntity
  8
0
  6
Continuous
 62
     7
370
    15
100
AcDbSpline
210
0.0
220
0.0
230
1.0
 70
    24
 71
     3
 72
    10
 73
     6
 74
     0
 42
0.000000001
 43
0.00000001
 40
0.0
 40
0.0
 40
0.0
 40
0.0
 40
0.4391119879276911
 40
0.7513633230734758
 40
1.0
 40
1.0
 40
1.0
 40
1.0
 10
198.9619382029549
 20
110.8764336685687
 30
0.0
 10
198.8586241887265
 20
110.6974885467914
 30
0.0
 10
198.681843861191
 20
110.3912960377212
 30
0.0
 10
198.4248607392909
 20
109.9461882139025
 30
0.0
 10
198.2969514285215
 20
109.7246427888888
 30
0.0
 10
198.2402503664678
 20
109.6264336685687
 30
0.0
  0
SPLINE
  5
92
330
1F
100
AcDbEntity
  8
0
  6
Continuous
 62
     7
370
    15
100
AcDbSpline
210
0.0
220
0.0
230
1.0
 70
    24
 71
     3
 72
    10
 73
     6
 74
     0
 42
0.000000001
 43
0.00000001
 40
0.0
 40
0.0
 40
0.0
 40
0.0
 40
0.4391119879276947
 40
0.7513633230734872
 40
1.0
 40
1.0
 40
1.0
 40
1.0
 10
198.2402503664678
 20
112.1264336685687
 30
0.0
 10
198.3435643806961
 20
111.9474885467914
 30
0.0
 10
198.5203447082317
 20
111.6412960377211
 30
0.0
 10
198.7773278301318
 20
111.1961882139025
 30
0.0
 10
198.9052371409012
 20
110.9746427888888
 30
0.0
 10
198.9619382029549
 20
110.8764336685687
 30
0.0
  0
SPLINE
  5
93
330
1F
100
AcDbEntity
  8
0
  6
Continuous
 62
     7
370
    15
100
AcDbSpline
210
0.0
220
0.0
230
1.0
 70
    24
 71
     3
 72
    11
 73
     7
 74
     0
 42
0.000000001
 43
0.00000001
 40
0.0
 40
0.0
 40
0.0
 40
0.0
 40
0.1849308168245047
 40
0.519846420215713
 40
0.8714438233693179
 40
1.0
 40
1.0
 40
1.0
 40
1.0
 10
196.7968746934938
 20
112.1264336685687
 30
0.0
 10
196.8808862101731
 20
112.1264336685687
 30
0.0
 10
197.117045261177
 20
112.1264336685687
 30
0.0
 10
197.55788122817
 20
112.1264336685687
 30
0.0
 10
197.9650112804646
 20
112.1264336685687
 30
0.0
 10
198.1821213744761
 20
112.1264336685687
 30
0.0
 10
198.2402503664678
 20
112.1264336685687
 30
0.0
  0
SPLINE
  5
94
330
1F
100
AcDbEntity
  8
0
  6
Continuous
 62
     7
370
    15
100
AcDbSpline
210
0.0
220
0.0
230
1.0
 70
    24
 71
     3
 72
    10
 73
     6
 74
     0
 42
0.000000001
 43
0.00000001
 40
0.0
 40
0.0
 40
0.0
 40
0.0
 40
0.4391119879276965
 40
0.7513633230734765
 40
1.0
 40
1.0
 40
1.0
 40
1.0
 10
196.0751868570067
 20
110.8764336685687
 30
0.0
 10
196.178500871235
 20
111.055378790346
 30
0.0
 10
196.3552811987706
 20
111.3615712994163
 30
0.0
 10
196.6122643206707
 20
111.8066791232349
 30
0.0
 10
196.7401736314401
 20
112.0282245482486
 30
0.0
 10
196.7968746934938
 20
112.1264336685687
 30
0.0
  0
SPLINE
  5
95
330
1F
100
AcDbEntity
  8
0
  6
Continuous
 62
     7
370
    15
100
AcDbSpline
210
0.0
220
0.0
230
1.0
 70
    24
 71
     3
 72
    10
 73
     6
 74
     0
 42
0.000000001
 43
0.00000001
 40
0.0
 40
0.0
 40
0.0
 40
0.0
 40
0.4391119879276908
 40
0.7513633230734796
 40
1.0
 40
1.0
 40
1.0
 40
1.0
 10
196.7968746934938
 20
109.6264336685687
 30
0.0
 10
196.6935606792654
 20
109.805378790346
 30
0.0
 10
196.5167803517299
 20
110.1115712994163
 30
0.0
 10
196.2597972298298
 20
110.5566791232349
 30
0.0
 10
196.1318879190604
 20
110.7782245482486
 30
0.0
 10
196.0751868570067
 20
110.8764336685687
 30
0.0
  0
CIRCLE
  5
96
330
1F
100
AcDbEntity
  8
0
  6
Continuous
 62
     7
370
    15
100
AcDbCircle
 10
197.51856253
 20
110.8764336686
 30
0.0
 40
1.5
  0
CIRCLE
  5
97
330
1F
100
AcDbEntity
  8
0
  6
Continuous
 62
     7
370
    15
100
AcDbCircle
 10
197.51856253
 20
110.8764336686
 30
0.0
 40
2.25
  0
CIRCLE
  5
98
330
1F
100
AcDbEntity
  8
0
  6
Continuous
 62
     7
370
    15
100
AcDbCircle
 10
197.51856253
 20
110.8764336686
 30
0.0
 40
2.5
  0
ARC
  5
99
330
1F
100
AcDbEntity
  8
0
  6
Continuous
 62
     7
370
    15
100
AcDbCircle
 10
197.51856253
 20
110.8764336686
 30
0.0
 40
1.250000000000004
100
AcDbArc
 50
330.0
 51
30.0
  0
ARC
  5
9A
330
1F
100
AcDbEntity
  8
0
  6
Continuous
 62
     7
370
    15
100
AcDbCircle
 10
197.51856253
 20
110.8764336686
 30
0.0
 40
1.250000000000004
100
AcDbArc
 50
90.0
 51
150.0
  0
ARC
  5
9B
330
1F
100
AcDbEntity
  8
0
  6
Continuous
 62
     7
370
    15
100
AcDbCircle
 10
197.51856253
 20
110.8764336686
 30
0.0
 40
1.25
100
AcDbArc
 50
210.0
 51
270.0
  0
ARC
  5
9C
330
1F
100
AcDbEntity
  8
0
  6
Continuous
 62
     7
370
    15
100
AcDbCircle
 10
197.51856253
 20
110.8764336686
 30
0.0
 40
1.250000000000004
100
AcDbArc
 50
270.0
 51
330.0
  0
ARC
  5
9D
330
1F
100
AcDbEntity
  8
0
  6
Continuous
 62
     7
370
    15
100
AcDbCircle
 10
197.51856253
 20
110.8764336686
 30
0.0
 40
1.250000000000004
100
AcDbArc
 50
30.0
 51
90.0
  0
ARC
  5
9E
330
1F
100
AcDbEntity
  8
0
  6
Continuous
 62
     7
370
    15
100
AcDbCircle
 10
197.51856253
 20
110.8764336686
 30
0.0
 40
1.250000000000004
100
AcDbArc
 50
150.0
 51
210.0
  0
SPLINE
  5
9F
330
1F
100
AcDbEntity
  8
0
  6
Continuous
 62
     7
370
    15
100
AcDbSpline
210
0.0
220
0.0
230
1.0
 70
     8
 71
     3
 72
    10
 73
     6
 74
     0
 42
0.000000001
 43
0.00000001
 40
0.0
 40
0.0
 40
0.0
 40
0.0
 40
0.5
 40
0.5
 40
1.0
 40
1.0
 40
1.0
 40
1.0
 10
183.0451709340263
 20
140.7808943899228
 30
0.0
 10
182.7290671028868
 20
140.1610318316457
 30
0.0
 10
182.399288058542
 20
139.5151310963469
 30
0.0
 10
181.7270647861532
 20
138.2007124560463
 30
0.0
 10
181.3849316202227
 20
137.532790229034
 30
0.0
 10
181.0377512917085
 20
136.8564524965526
 30
0.0
  0
SPLINE
  5
A0
330
1F
100
AcDbEntity
  8
0
  6
Continuous
 62
     7
370
    15
100
AcDbSpline
210
0.0
220
0.0
230
1.0
 70
     8
 71
     3
 72
     9
 73
     5
 74
     0
 42
0.000000001
 43
0.00000001
 40
0.0
 40
0.0
 40
0.0
 40
0.0
 40
0.5067595796178751
 40
1.0
 40
1.0
 40
1.0
 40
1.0
 10
183.6941930729653
 20
141.7385687759177
 30
0.0
 10
183.5837927251833
 20
141.5764938375834
 30
0.0
 10
183.3659372524456
 20
141.2566677408443
 30
0.0
 10
183.151344150237
 20
140.9383197612071
 30
0.0
 10
183.0454981582926
 20
140.781297669903
 30
0.0
  0
LINE
  5
A1
330
1F
100
AcDbEntity
  8
0
  6
Continuous
 62
     7
370
    15
100
AcDbLine
 10
183.69356253
 20
80.015335649
 30
0.0
 11
183.69356253
 21
141.7375154231
 31
0.0
  0
SPLINE
  5
A2
330
1F
100
AcDbEntity
  8
0
  6
Continuous
 62
     7
370
    15
100
AcDbSpline
210
0.0
220
0.0
230
1.0
 70
     8
 71
     3
 72
     9
 73
     5
 74
     0
 42
0.000000001
 43
0.00000001
 40
0.0
 40
0.0
 40
0.0
 40
0.0
 40
0.4932426502230348
 40
1.0
 40
1.0
 40
1.0
 40
1.0
 10
183.0454842432698
 20
80.97156756686394
 30
0.0
 10
183.151330348281
 20
80.81454432720378
 30
0.0
 10
183.365922709593
 20
80.49619545857054
 30
0.0
 10
183.5837769975532
 20
80.17636941186701
 30
0.0
 10
183.6941762591574
 20
80.01429521204989
 30
0.0
  0
SPLINE
  5
A3
330
1F
100
AcDbEntity
  8
0
  6
Continuous
 62
     7
370
    15
100
AcDbSpline
210
0.0
220
0.0
230
1.0
 70
     8
 71
     3
 72
    10
 73
     6
 74
     0
 42
0.000000001
 43
0.00000001
 40
0.0
 40
0.0
 40
0.0
 40
0.0
 40
0.5
 40
0.5
 40
1.0
 40
1.0
 40
1.0
 40
1.0
 10
183.0451650143585
 20
80.97198455536368
 30
0.0
 10
182.7289859116844
 20
81.59199470737741
 30
0.0
 10
182.3985436845174
 20
82.23919277324511
 30
0.0
 10
181.7268321638346
 20
83.55260869783888
 30
0.0
 10
181.3848582888027
 20
84.22021996414166
 30
0.0
 10
181.0377512917085
 20
84.89641484058484
 30
0.0
  0
SPLINE
  5
A4
330
1F
100
AcDbEntity
  8
0
  6
Continuous
 62
     7
370
    15
100
AcDbSpline
210
0.0
220
0.0
230
1.0
 70
     8
 71
     3
 72
    11
 73
     7
 74
     0
 42
0.000000001
 43
0.00000001
 40
0.0
 40
0.0
 40
0.0
 40
0.0
 40
0.2488814606695658
 40
0.5011921284368381
 40
0.7520447562540515
 40
1.0
 40
1.0
 40
1.0
 40
1.0
 10
186.0680623599637
 20
142.3762839231622
 30
0.0
 10
186.0382840304642
 20
142.3671518970179
 30
0.0
 10
185.9783170714832
 20
142.3487620193312
 30
0.0
 10
185.4863950097364
 20
142.2047247708461
 30
0.0
 10
184.758325587117
 20
141.9953216927348
 30
0.0
 10
184.0475821159393
 20
141.8231174233859
 30
0.0
 10
183.6942745987897
 20
141.7375154230673
 30
0.0
  0
SPLINE
  5
A5
330
1F
100
AcDbEntity
  8
0
  6
Continuous
 62
     7
370
    15
100
AcDbSpline
210
0.0
220
0.0
230
1.0
 70
     8
 71
     3
 72
    24
 73
    20
 74
     0
 42
0.000000001
 43
0.00000001
 40
0.0
 40
0.0
 40
0.0
 40
0.0
 40
0.0452304145230468
 40
0.0903354254807773
 40
0.1353632524017138
 40
0.1803623629163211
 40
0.2253813173811786
 40
0.2704686120121845
 40
0.3156725230495646
 40
0.3610409544388638
 40
0.4066212913821985
 40
0.4524602619010737
 40
0.4986038082699224
 40
0.5832834063274132
 40
0.6671222514847349
 40
0.7504134308293638
 40
0.8334558303783486
 40
0.9165510206949746
 40
0.9999999999999999
 40
0.9999999999999999
 40
0.9999999999999999
 40
0.9999999999999999
 10
183.6941812233984
 20
80.01533564903323
 30
0.0
 10
183.7618849653012
 20
79.99957660801574
 30
0.0
 10
183.8971047371276
 20
79.9681022187028
 30
0.0
 10
184.0897664539656
 20
79.92164141536402
 30
0.0
 10
184.2745033256143
 20
79.87601043573197
 30
0.0
 10
184.4506212669054
 20
79.83138513829887
 30
0.0
 10
184.6183050595179
 20
79.78789785169946
 30
0.0
 10
184.7775045438071
 20
79.745696803903
 30
0.0
 10
184.9282326822994
 20
79.70493021158448
 30
0.0
 10
185.0704856357016
 20
79.66575045899975
 30
0.0
 10
185.2042643909278
 20
79.62831316710835
 30
0.0
 10
185.3295683013295
 20
79.592776583469
 30
0.0
 10
185.4786168511102
 20
79.55007456799427
 30
0.0
 10
185.6393824284776
 20
79.5035658769628
 30
0.0
 10
185.7953085132776
 20
79.45790598676759
 30
0.0
 10
185.9169335312041
 20
79.42187571805755
 30
0.0
 10
186.0034092604254
 20
79.3959941931084
 30
0.0
 10
186.0578281677725
 20
79.3795581165827
 30
0.0
 10
186.0649767093543
 20
79.37747675799457
 30
0.0
 10
186.0685585729516
 20
79.37643386799043
 30
0.0
  0
LINE
  5
A6
330
1F
100
AcDbEntity
  8
0
  6
Continuous
 62
     7
370
    15
100
AcDbLine
 10
164.06856253
 20
81.7500281231
 30
0.0
 11
164.06856253
 21
140.0028392141
 31
0.0
  0
SPLINE
  5
A7
330
1F
100
AcDbEntity
  8
0
  6
Continuous
 62
     7
370
    15
100
AcDbSpline
210
0.0
220
0.0
230
1.0
 70
     8
 71
     3
 72
    12
 73
     8
 74
     0
 42
0.000000001
 43
0.00000001
 40
0.0
 40
0.0
 40
0.0
 40
0.0
 40
0.2500000000000001
 40
0.2500000000000001
 40
0.5000000000000002
 40
0.5000000000000002
 40
1.0
 40
1.0
 40
1.0
 40
1.0
 10
164.4555953529463
 20
140.9434235683896
 30
0.0
 10
164.4037346017582
 20
140.8866109960753
 30
0.0
 10
164.3550028047393
 20
140.8246188098234
 30
0.0
 10
164.2648297948219
 20
140.6885657366995
 30
0.0
 10
164.2230525465369
 20
140.6136596341007
 30
0.0
 10
164.116963676691
 20
140.3755329988034
 30
0.0
 10
164.0685625299808
 20
140.1921262672346
 30
0.0
 10
164.0685625299808
 20
140.0028392140527
 30
0.0
  0
SPLINE
  5
A8
330
1F
100
AcDbEntity
  8
0
  6
Continuous
 62
     7
370
    15
100
AcDbSpline
210
0.0
220
0.0
230
1.0
 70
     8
 71
     3
 72
     8
 73
     4
 74
     0
 42
0.000000001
 43
0.00000001
 40
0.0
 40
0.0
 40
0.0
 40
0.0
 40
1.0
 40
1.0
 40
1.0
 40
1.0
 10
165.0685625299808
 20
141.1128237715706
 30
0.0
 10
164.842218216381
 20
141.1128237715706
 30
0.0
 10
164.6247660959758
 20
141.0494553025497
 30
0.0
 10
164.4555953529463
 20
140.9434235683897
 30
0.0
  0
SPLINE
  5
A9
330
1F
100
AcDbEntity
  8
0
  6
Continuous
 62
     7
370
    15
100
AcDbSpline
210
0.0
220
0.0
230
1.0
 70
     8
 71
     3
 72
     8
 73
     4
 74
     0
 42
0.000000001
 43
0.00000001
 40
0.0
 40
0.0
 40
0.0
 40
0.0
 40
1.0
 40
1.0
 40
1.0
 40
1.0
 10
164.4555953529463
 20
80.80944376874774
 30
0.0
 10
164.6251888585983
 20
80.70314705819055
 30
0.0
 10
164.8415575509315
 20
80.64004356556687
 30
0.0
 10
165.0685625299808
 20
80.64004356556687
 30
0.0
  0
SPLINE
  5
AA
330
1F
100
AcDbEntity
  8
0
  6
Continuous
 62
     7
370
    15
100
AcDbSpline
210
0.0
220
0.0
230
1.0
 70
     8
 71
     3
 72
    12
 73
     8
 74
     0
 42
0.000000001
 43
0.00000001
 40
0.0
 40
0.0
 40
0.0
 40
0.0
 40
0.2499999999999976
 40
0.2499999999999976
 40
0.4999999999999952
 40
0.4999999999999952
 40
1.0
 40
1.0
 40
1.0
 40
1.0
 10
164.4555953529463
 20
80.80944376874774
 30
0.0
 10
164.4037346017583
 20
80.86625634106213
 30
0.0
 10
164.3550028047393
 20
80.92824852731395
 30
0.0
 10
164.2648297948219
 20
81.06430160043794
 30
0.0
 10
164.2230525465369
 20
81.13920770303667
 30
0.0
 10
164.116963676691
 20
81.37733433833408
 30
0.0
 10
164.0685625299808
 20
81.56074106990286
 30
0.0
 10
164.0685625299808
 20
81.75002812308473
 30
0.0
  0
LINE
  5
AB
330
1F
100
AcDbEntity
  8
0
  6
Continuous
 62
     7
370
    15
100
AcDbLine
 10
189.06856253
 20
80.3764336686
 30
0.0
 11
189.06856253
 21
141.3764336625
 31
0.0
  0
LINE
  5
AC
330
1F
100
AcDbEntity
  8
0
  6
Continuous
 62
     7
370
    15
100
AcDbLine
 10
173.64356253
 20
141.1128237716
 30
0.0
 11
165.06856253
 21
141.1128237716
 31
0.0
  0
LINE
  5
AD
330
1F
100
AcDbEntity
  8
0
  6
Continuous
 62
     7
370
    15
100
AcDbLine
 10
173.64356253
 20
80.6400435656
 30
0.0
 11
173.64356253
 21
141.1128237716
 31
0.0
  0
LINE
  5
AE
330
1F
100
AcDbEntity
  8
0
  6
Continuous
 62
     7
370
    15
100
AcDbLine
 10
165.06856253
 20
80.6400435656
 30
0.0
 11
173.64356253
 21
80.6400435656
 31
0.0
  0
SPLINE
  5
AF
330
1F
100
AcDbEntity
  8
0
  6
Continuous
 62
     7
370
    15
100
AcDbSpline
210
0.0
220
0.0
230
1.0
 70
     8
 71
     3
 72
     8
 73
     4
 74
     0
 42
0.000000001
 43
0.00000001
 40
0.0
 40
0.0
 40
0.0
 40
0.0
 40
0.0012389803509652
 40
0.0012389803509652
 40
0.0012389803509652
 40
0.0012389803509652
 10
174.2011240735145
 20
140.3304563913552
 30
0.0
 10
174.0160041003817
 20
140.5915063727342
 30
0.0
 10
173.8301256526228
 20
140.8522879858532
 30
0.0
 10
173.6435625299808
 20
141.1128237715706
 30
0.0
  0
SPLINE
  5
B0
330
1F
100
AcDbEntity
  8
0
  6
Continuous
 62
     7
370
    15
100
AcDbSpline
210
0.0
220
0.0
230
1.0
 70
     8
 71
     3
 72
     8
 73
     4
 74
     0
 42
0.000000001
 43
0.00000001
 40
0.0
 40
0.0
 40
0.0
 40
0.0
 40
1.0
 40
1.0
 40
1.0
 40
1.0
 10
176.299373768253
 20
136.5436793330337
 30
0.0
 10
175.6030804022115
 20
137.8076177011486
 30
0.0
 10
174.9032852370204
 20
139.0696731466568
 30
0.0
 10
174.2011240735145
 20
140.3304563913552
 30
0.0
  0
SPLINE
  5
B1
330
1F
100
AcDbEntity
  8
0
  6
Continuous
 62
     7
370
    15
100
AcDbSpline
210
0.0
220
0.0
230
1.0
 70
     8
 71
     3
 72
     8
 73
     4
 74
     0
 42
0.000000001
 43
0.00000001
 40
0.0
 40
0.0
 40
0.0
 40
0.0
 40
1.0
 40
1.0
 40
1.0
 40
1.0
 10
176.299373768253
 20
85.20918800410365
 30
0.0
 10
175.6030556275951
 20
83.94520466415686
 30
0.0
 10
174.9032584354846
 20
82.68314606630489
 30
0.0
 10
174.2011240735145
 20
81.4224109457822
 30
0.0
  0
SPLINE
  5
B2
330
1F
100
AcDbEntity
  8
0
  6
Continuous
 62
     7
370
    15
100
AcDbSpline
210
0.0
220
0.0
230
1.0
 70
     8
 71
     3
 72
     8
 73
     4
 74
     0
 42
0.000000001
 43
0.00000001
 40
0.0
 40
0.0
 40
0.0
 40
0.0
 40
0.0012389803509652
 40
0.0012389803509652
 40
0.0012389803509652
 40
0.0012389803509652
 10
173.6435625299808
 20
80.64004356556687
 30
0.0
 10
173.8301256526227
 20
80.90057935128421
 30
0.0
 10
174.0160041003817
 20
81.16136096440322
 30
0.0
 10
174.2011240735145
 20
81.4224109457822
 30
0.0
  0
SPLINE
  5
B3
330
1F
100
AcDbEntity
  8
0
  6
Continuous
 62
     7
370
    15
100
AcDbSpline
210
0.0
220
0.0
230
1.0
 70
     8
 71
     3
 72
    12
 73
     8
 74
     0
 42
0.000000001
 43
0.00000001
 40
0.0
 40
0.0
 40
0.0
 40
0.0
 40
0.2499999999999968
 40
0.2499999999999968
 40
0.4999999999999936
 40
0.4999999999999936
 40
1.0
 40
1.0
 40
1.0
 40
1.0
 10
181.0377512917085
 20
136.8564524965526
 30
0.0
 10
181.001847141372
 20
136.7865080624044
 30
0.0
 10
180.9593155892424
 20
136.7232566993466
 30
0.0
 10
180.8625213124025
 20
136.6081980444307
 30
0.0
 10
180.8074316341381
 20
136.5558695107187
 30
0.0
 10
180.6292984005842
 20
136.4220846076336
 30
0.0
 10
180.4919213085816
 20
136.3615368404755
 30
0.0
 10
180.3449309686817
 20
136.3423368920915
 30
0.0
  0
SPLINE
  5
B4
330
1F
100
AcDbEntity
  8
0
  6
Continuous
 62
     7
370
    15
100
AcDbSpline
210
0.0
220
0.0
230
1.0
 70
     8
 71
     3
 72
    12
 73
     8
 74
     0
 42
0.000000001
 43
0.00000001
 40
0.0
 40
0.0
 40
0.0
 40
0.0
 40
0.2500000000000022
 40
0.2500000000000022
 40
0.5000000000000044
 40
0.5000000000000044
 40
1.0
 40
1.0
 40
1.0
 40
1.0
 10
181.0377512917085
 20
84.89641484058482
 30
0.0
 10
181.001847141372
 20
84.96635927473298
 30
0.0
 10
180.9593155892424
 20
85.02961063779082
 30
0.0
 10
180.8625213124025
 20
85.14466929270675
 30
0.0
 10
180.8074316341381
 20
85.19699782641874
 30
0.0
 10
180.6292984005842
 20
85.33078272950381
 30
0.0
 10
180.4919213085816
 20
85.39133049666198
 30
0.0
 10
180.3449309686817
 20
85.41053044504586
 30
0.0
  0
SPLINE
  5
B5
330
1F
100
AcDbEntity
  8
0
  6
Continuous
 62
     7
370
    15
100
AcDbSpline
210
0.0
220
0.0
230
1.0
 70
     8
 71
     3
 72
    10
 73
     6
 74
     0
 42
0.000000001
 43
0.00000001
 40
0.0
 40
0.0
 40
0.0
 40
0.0
 40
0.5
 40
0.5
 40
1.0
 40
1.0
 40
1.0
 40
1.0
 10
176.9921940912806
 20
136.1241563381482
 30
0.0
 10
176.8501767788336
 20
136.1241563381482
 30
0.0
 10
176.7097297319714
 20
136.1646461903577
 30
0.0
 10
176.4681398127101
 20
136.3125820202969
 30
0.0
 10
176.3674623704568
 20
136.4200822962764
 30
0.0
 10
176.2993737682532
 20
136.5436793330335
 30
0.0
  0
SPLINE
  5
B6
330
1F
100
AcDbEntity
  8
0
  6
Continuous
 62
     7
370
    15
100
AcDbSpline
210
0.0
220
0.0
230
1.0
 70
     8
 71
     3
 72
    10
 73
     6
 74
     0
 42
0.000000001
 43
0.00000001
 40
0.0
 40
0.0
 40
0.0
 40
0.0
 40
0.5
 40
0.5
 40
1.0
 40
1.0
 40
1.0
 40
1.0
 10
176.9921940912806
 20
85.62871099898918
 30
0.0
 10
176.8513367267699
 20
85.62871099898918
 30
0.0
 10
176.7085025952958
 20
85.58760709317048
 30
0.0
 10
176.4682409045224
 20
85.44020919986953
 30
0.0
 10
176.3675346354429
 20
85.33291621902988
 30
0.0
 10
176.299373768253
 20
85.20918800410367
 30
0.0
  0
LINE
  5
B7
330
1F
100
AcDbEntity
  8
0
  6
Continuous
 62
     7
370
    15
100
AcDbLine
 10
177.01856253
 20
85.628710999
 30
0.0
 11
176.9921940913
 21
85.628710999
 31
0.0
  0
LINE
  5
B8
330
1F
100
AcDbEntity
  8
0
  6
Continuous
 62
     7
370
    15
100
AcDbLine
 10
177.01856253
 20
136.1241563381
 30
0.0
 11
176.9921940913
 21
136.1241563381
 31
0.0
  0
SPLINE
  5
B9
330
1F
100
AcDbEntity
  8
0
  6
Continuous
 62
     7
370
    15
100
AcDbSpline
210
0.0
220
0.0
230
1.0
 70
     8
 71
     3
 72
    10
 73
     6
 74
     0
 42
0.000000001
 43
0.00000001
 40
0.0
 40
0.0
 40
0.0
 40
0.0
 40
0.5
 40
0.5
 40
1.0
 40
1.0
 40
1.0
 40
1.0
 10
180.344930968681
 20
136.3423368920945
 30
0.0
 10
179.823016244285
 20
136.2741641415863
 30
0.0
 10
179.2841650641757
 20
136.2195408766283
 30
0.0
 10
178.1728024221435
 20
136.144445023737
 30
0.0
 10
177.5959616449475
 20
136.1241563381482
 30
0.0
 10
177.0185625299808
 20
136.1241563381482
 30
0.0
  0
SPLINE
  5
BA
330
1F
100
AcDbEntity
  8
0
  6
Continuous
 62
     7
370
    15
100
AcDbSpline
210
0.0
220
0.0
230
1.0
 70
     8
 71
     3
 72
    10
 73
     6
 74
     0
 42
0.000000001
 43
0.00000001
 40
0.0
 40
0.0
 40
0.0
 40
0.0
 40
0.5
 40
0.5
 40
1.0
 40
1.0
 40
1.0
 40
1.0
 10
180.344930968681
 20
85.41053044504294
 30
0.0
 10
179.823016244285
 20
85.47870319555115
 30
0.0
 10
179.2841650641757
 20
85.53332646050907
 30
0.0
 10
178.1728024221435
 20
85.60842231340042
 30
0.0
 10
177.5959616449475
 20
85.62871099898919
 30
0.0
 10
177.0185625299808
 20
85.62871099898919
 30
0.0
  0
SPLINE
  5
BB
330
1F
100
AcDbEntity
  8
0
  6
Continuous
 62
     7
370
    15
100
AcDbSpline
210
0.0
220
0.0
230
1.0
 70
     8
 71
     3
 72
    10
 73
     6
 74
     0
 42
0.000000001
 43
0.00000001
 40
0.0
 40
0.0
 40
0.0
 40
0.0
 40
0.2999517731092972
 40
0.9999943050113873
 40
1.0
 40
1.0
 40
1.0
 40
1.0
 10
163.9203639955875
 20
133.3764336685687
 30
0.0
 10
163.8973632802883
 20
133.3764336685792
 30
0.0
 10
163.8206823389754
 20
133.3764336686141
 30
0.0
 10
163.7279030220023
 20
133.3764336682995
 30
0.0
 10
163.7573118741625
 20
133.3764336685687
 30
0.0
 10
163.7573121134075
 20
133.3764336685687
 30
0.0
  0
SPLINE
  5
BC
330
1F
100
AcDbEntity
  8
0
  6
Continuous
 62
     7
370
    15
100
AcDbSpline
210
0.0
220
0.0
230
1.0
 70
    24
 71
     3
 72
     9
 73
     5
 74
     0
 42
0.000000001
 43
0.00000001
 40
0.0
 40
0.0
 40
0.0
 40
0.0
 40
0.6712481822973848
 40
1.0
 40
1.0
 40
1.0
 40
1.0
 10
163.7573122163466
 20
88.37643366856871
 30
0.0
 10
163.7765403872348
 20
88.37643366856871
 30
0.0
 10
163.8051857845637
 20
88.37643366856872
 30
0.0
 10
163.8893582363091
 20
88.37643366856871
 30
0.0
 10
163.9170300828208
 20
88.37643366856871
 30
0.0
  0
LINE
  5
BD
330
1F
100
AcDbEntity
  8
0
  6
Continuous
 62
     7
370
    15
100
AcDbLine
 10
162.06856253
 20
88.6514336686
 30
0.0
 11
162.06856253
 21
133.1014336686
 31
0.0
  0
LINE
  5
BE
330
1F
100
AcDbEntity
  8
0
  6
Continuous
 62
     7
370
    15
100
AcDbLine
 10
96.66856253
 20
99.0536780715
 30
0.0
 11
96.66856253
 21
122.6991892626
 31
0.0
  0
LINE
  5
BF
330
1F
100
AcDbEntity
  8
0
  6
Continuous
 62
     7
370
    15
100
AcDbLine
 10
204.06856253
 20
110.8764336686
 30
0.0
 11
204.06856253
 21
98.5764336686
 31
0.0
  0
LINE
  5
C0
330
1F
100
AcDbEntity
  8
0
  6
Continuous
 62
     7
370
    15
100
AcDbLine
 10
204.06856253
 20
123.1764336686
 30
0.0
 11
204.06856253
 21
110.8764336686
 31
0.0
  0
LINE
  5
C1
330
1F
100
AcDbEntity
  8
0
  6
Continuous
 62
     7
370
    15
100
AcDbLine
 10
203.86856253
 20
110.8764336686
 30
0.0
 11
203.86856253
 21
98.3764336686
 31
0.0
  0
LINE
  5
C2
330
1F
100
AcDbEntity
  8
0
  6
Continuous
 62
     7
370
    15
100
AcDbLine
 10
203.86856253
 20
123.3764336686
 30
0.0
 11
203.86856253
 21
110.8764336686
 31
0.0
  0
SPLINE
  5
C3
330
1F
100
AcDbEntity
  8
0
  6
Continuous
 62
     7
370
    15
100
AcDbSpline
210
0.0
220
0.0
230
1.0
 70
    11
 71
     3
 72
    64
 73
    60
 74
     0
 42
0.000000001
 43
0.00000001
 40
0.0
 40
0.0
 40
0.0
 40
0.0
 40
0.03125
 40
0.03125
 40
0.0625
 40
0.0625
 40
0.09375
 40
0.09375
 40
0.1249999999999999
 40
0.1249999999999999
 40
0.1562499999999999
 40
0.1562499999999999
 40
0.1874999999999999
 40
0.1874999999999999
 40
0.2187499999999999
 40
0.2187499999999999
 40
0.2499999999999999
 40
0.2499999999999999
 40
0.2812499999999999
 40
0.2812499999999999
 40
0.3124999999999999
 40
0.3124999999999999
 40
0.3437499999999998
 40
0.3437499999999998
 40
0.3749999999999998
 40
0.3749999999999998
 40
0.4062499999999998
 40
0.4062499999999998
 40
0.4374999999999998
 40
0.4374999999999998
 40
0.4687499999999998
 40
0.4687499999999998
 40
0.4999999999999998
 40
0.4999999999999998
 40
0.5312499999999998
 40
0.5312499999999998
 40
0.5624999999999998
 40
0.5624999999999998
 40
0.6249999999999998
 40
0.6249999999999998
 40
0.6874999999999997
 40
0.6874999999999997
 40
0.7187499999999997
 40
0.7187499999999997
 40
0.7499999999999997
 40
0.7499999999999997
 40
0.7812499999999997
 40
0.7812499999999997
 40
0.8124999999999997
 40
0.8124999999999997
 40
0.8437499999999998
 40
0.8437499999999998
 40
0.8749999999999998
 40
0.8749999999999998
 40
0.9062499999999999
 40
0.9062499999999999
 40
0.9375
 40
0.9375
 40
1.0
 40
1.0
 40
1.0
 40
1.0
 10
195.5003598550878
 20
112.8737017099607
 30
0.0
 10
195.6454863737355
 20
112.9929169267941
 30
0.0
 10
195.7996340570462
 20
113.0964398646576
 30
0.0
 10
196.1245333224858
 20
113.2749584989669
 30
0.0
 10
196.2965725869558
 20
113.3503359013185
 30
0.0
 10
196.6519321508925
 20
113.4700082430593
 30
0.0
 10
196.8328714698921
 20
113.5137654749025
 30
0.0
 10
197.2010415537538
 20
113.5704539811159
 30
0.0
 10
197.3901031338015
 20
113.5832659237726
 30
0.0
 10
197.7644751498434
 20
113.5766087335051
 30
0.0
 10
197.9495146814722
 20
113.5575334563869
 30
0.0
 10
198.3153439798445
 20
113.4881117606552
 30
0.0
 10
198.4978724818062
 20
113.4369801191625
 30
0.0
 10
198.8466681598579
 20
113.3052361396717
 30
0.0
 10
199.0135509194461
 20
113.2248902895839
 30
0.0
 10
199.3320103257456
 20
113.0343972973474
 30
0.0
 10
199.4849384701256
 20
112.9227969566404
 30
0.0
 10
199.7622794372023
 20
112.6761446256657
 30
0.0
 10
199.8879163094895
 20
112.5407969759255
 30
0.0
 10
200.1115460551193
 20
112.2443029442119
 30
0.0
 10
200.209778694843
 20
112.0815791587514
 30
0.0
 10
200.3658211070601
 20
111.7447253389769
 30
0.0
 10
200.4252720775502
 20
111.5689465409332
 30
0.0
 10
200.5039395542211
 20
111.201366156366
 30
0.0
 10
200.5218725595266
 20
111.0131654376597
 30
0.0
 10
200.5142367075508
 20
110.640558340528
 30
0.0
 10
200.4882956864779
 20
110.4517820847859
 30
0.0
 10
200.3951190244404
 20
110.0890641114268
 30
0.0
 10
200.3286136770336
 20
109.9148864964641
 30
0.0
 10
200.1571393241539
 20
109.5803086294233
 30
0.0
 10
200.0539168727564
 20
109.4237729863513
 30
0.0
 10
199.8188341750261
 20
109.1352730325181
 30
0.0
 10
199.6849990296264
 20
109.0014236658305
 30
0.0
 10
199.3975932864847
 20
108.7643667014848
 30
0.0
 10
199.2436635025409
 20
108.6602011559678
 30
0.0
 10
198.9159651415152
 20
108.4793911980118
 30
0.0
 10
198.7432798552768
 20
108.403718762339
 30
0.0
 10
198.2144034893761
 20
108.2248149676064
 30
0.0
 10
197.8361636513268
 20
108.1666803796626
 30
0.0
 10
197.0913096448592
 20
108.1790455184325
 30
0.0
 10
196.7151961226987
 20
108.2498138624733
 30
0.0
 10
196.1939790322343
 20
108.4461119716322
 30
0.0
 10
196.0247525932699
 20
108.527241562178
 30
0.0
 10
195.7032000620339
 20
108.7196459799078
 30
0.0
 10
195.5535824439494
 20
108.8290261605656
 30
0.0
 10
195.2768769566784
 20
109.0747214004396
 30
0.0
 10
195.1485219066372
 20
109.2127398366762
 30
0.0
 10
194.9237061164238
 20
109.5112914358888
 30
0.0
 10
194.8280848136523
 20
109.6699397550711
 30
0.0
 10
194.6717593857317
 20
110.0069150214123
 30
0.0
 10
194.6107824666823
 20
110.1878771291249
 30
0.0
 10
194.5330464255906
 20
110.5532131395509
 30
0.0
 10
194.5151496568277
 20
110.7386774966066
 30
0.0
 10
194.5230348384096
 20
111.1154406185336
 30
0.0
 10
194.5491735301258
 20
111.3027951951063
 30
0.0
 10
194.6422704154024
 20
111.6644597628162
 30
0.0
 10
194.7104707147014
 20
111.8423803020686
 30
0.0
 10
194.9668454294913
 20
112.3408677892462
 30
0.0
 10
195.2101068177923
 20
112.6352712762939
 30
0.0
 10
195.5003598550878
 20
112.8737017099607
 30
0.0
  0
CIRCLE
  5
C4
330
1F
100
AcDbEntity
  8
0
  6
HIDDEN
 62
     7
370
     0
100
AcDbCircle
 10
197.51856253
 20
110.8764336686
 30
0.0
 40
1.776794919243102
  0
CIRCLE
  5
C5
330
1F
100
AcDbEntity
  8
0
  6
HIDDEN
 62
     7
370
     0
100
AcDbCircle
 10
197.51856253
 20
110.8764336686
 30
0.0
 40
1.676794919243108
  0
SPLINE
  5
C6
330
1F
100
AcDbEntity
  8
0
  6
HIDDEN
 62
     7
370
     0
100
AcDbSpline
210
0.0
220
0.0
230
1.0
 70
     8
 71
     3
 72
    17
 73
    13
 74
     0
 42
0.000000001
 43
0.00000001
 40
0.0
 40
0.0
 40
0.0
 40
0.0
 40
0.0004909084072919
 40
0.0005116394852635
 40
0.2498351754845136
 40
0.5021944977214489
 40
0.5865777378672907
 40
0.6700037584518806
 40
0.7527614182929998
 40
0.8351466077306873
 40
0.9174592349446918
 40
1.0
 40
1.0
 40
1.0
 40
1.0
 10
186.0685585729516
 20
79.37643386799043
 30
0.0
 10
186.0685602443183
 20
79.37643377144671
 30
0.0
 10
186.0685619862668
 20
79.37643367082595
 30
0.0
 10
186.0691810083778
 20
79.37643255958618
 30
0.0
 10
185.9650367124937
 20
79.40864917827147
 30
0.0
 10
185.5965519091471
 20
79.517010346201
 30
0.0
 10
185.2299393545964
 20
79.62184102301448
 30
0.0
 10
184.9804078209587
 20
79.69153372799363
 30
0.0
 10
184.7026220279216
 20
79.76667543685203
 30
0.0
 10
184.3959622530205
 20
79.84634043045264
 30
0.0
 10
184.0627754199126
 20
79.9294896118876
 30
0.0
 10
183.8177779778251
 20
79.98680209411737
 30
0.0
 10
183.6951097328584
 20
80.01549799212313
 30
0.0
  0
LINE
  5
C7
330
1F
100
AcDbEntity
  8
0
  6
HIDDEN
 62
     7
370
     0
100
AcDbLine
 10
164.06856253
 20
133.3764336686
 30
0.0
 11
164.4058208302
 21
133.3764336686
 31
0.0
  0
ELLIPSE
  5
C8
330
1F
100
AcDbEntity
  8
0
  6
HIDDEN
 62
     7
370
     0
100
AcDbEllipse
 10
164.4058208302
 20
134.9764336686
 30
0.0
 11
0.0
 21
1.599999999999994
 31
0.0
210
0.0
220
0.0
230
1.0
 40
0.4142135624
 41
3.141592653589793
 42
4.712388980384695
  0
ELLIPSE
  5
C9
330
1F
100
AcDbEntity
  8
0
  6
HIDDEN
 62
     7
370
     0
100
AcDbEllipse
 10
164.4058208302
 20
86.7764336686
 30
0.0
 11
0.0
 21
1.599999999999994
 31
0.0
210
0.0
220
0.0
230
1.0
 40
0.4142135624
 41
4.712388980384695
 42
6.283185307179586
  0
LINE
  5
CA
330
1F
100
AcDbEntity
  8
0
  6
HIDDEN
 62
     7
370
     0
100
AcDbLine
 10
164.4058208302
 20
88.3764336686
 30
0.0
 11
164.06856253
 21
88.3764336686
 31
0.0
  0
LINE
  5
CB
330
1F
100
AcDbEntity
  8
0
  6
HIDDEN
 62
     7
370
     0
100
AcDbLine
 10
165.06856253
 20
81.4224109458
 30
0.0
 11
164.4555953529
 21
80.8094437687
 31
0.0
  0
LINE
  5
CC
330
1F
100
AcDbEntity
  8
0
  6
HIDDEN
 62
     7
370
     0
100
AcDbLine
 10
164.4555953529
 20
140.9434235684
 30
0.0
 11
165.06856253
 21
140.3304563914
 31
0.0
  0
LINE
  5
CD
330
1F
100
AcDbEntity
  8
0
  6
HIDDEN
 62
     7
370
     0
100
AcDbLine
 10
103.66856253
 20
102.3764336686
 30
0.0
 11
103.66856253
 21
119.3764336686
 31
0.0
  0
LINE
  5
CE
330
1F
100
AcDbEntity
  8
0
  6
HIDDEN
 62
     7
370
     0
100
AcDbLine
 10
106.6644917443
 20
103.8764336686
 30
0.0
 11
106.6644917443
 21
117.8764336686
 31
0.0
  0
LINE
  5
CF
330
1F
100
AcDbEntity
  8
0
  6
HIDDEN
 62
     7
370
     0
100
AcDbLine
 10
165.06856253
 20
140.3304563914
 30
0.0
 11
174.2011240735
 21
140.3304563914
 31
0.0
  0
LINE
  5
D0
330
1F
100
AcDbEntity
  8
0
  6
HIDDEN
 62
     7
370
     0
100
AcDbLine
 10
165.06856253
 20
140.3304563914
 30
0.0
 11
165.06856253
 21
134.9764336686
 31
0.0
  0
LINE
  5
D1
330
1F
100
AcDbEntity
  8
0
  6
HIDDEN
 62
     7
370
     0
100
AcDbLine
 10
174.2011240735
 20
81.4224109458
 30
0.0
 11
165.06856253
 21
81.4224109458
 31
0.0
  0
LINE
  5
D2
330
1F
100
AcDbEntity
  8
0
  6
HIDDEN
 62
     7
370
     0
100
AcDbLine
 10
165.06856253
 20
81.4224109458
 30
0.0
 11
165.06856253
 21
86.7764336686
 31
0.0
  0
LINE
  5
D3
330
1F
100
AcDbEntity
  8
0
  6
HIDDEN
 62
     7
370
     0
100
AcDbLine
 10
177.01856253
 20
88.3764336686
 30
0.0
 11
164.4058208302
 21
88.3764336686
 31
0.0
  0
LINE
  5
D4
330
1F
100
AcDbEntity
  8
0
  6
HIDDEN
 62
     7
370
     0
100
AcDbLine
 10
164.4058208302
 20
133.3764336686
 30
0.0
 11
177.01856253
 21
133.3764336686
 31
0.0
  0
SPLINE
  5
D5
330
1F
100
AcDbEntity
  8
0
  6
HIDDEN
 62
     7
370
     0
100
AcDbSpline
210
0.0
220
0.0
230
1.0
 70
     8
 71
     3
 72
    13
 73
     9
 74
     0
 42
0.000000001
 43
0.00000001
 40
0.0
 40
0.0
 40
0.0
 40
0.0
 40
0.1850454653144679
 40
0.3520092965859432
 40
0.5010298177386109
 40
0.6766227814582007
 40
0.8430962614808595
 40
1.0
 40
1.0
 40
1.0
 40
1.0
 10
183.0448261605933
 20
140.7812944442798
 30
0.0
 10
183.2716162762133
 20
140.8401311158196
 30
0.0
 10
183.7030358137654
 20
140.9520552601213
 30
0.0
 10
184.190491284717
 20
141.0923213317496
 30
0.0
 10
184.5796004612612
 20
141.2116160910049
 30
0.0
 10
184.8605003816863
 20
141.3022839006293
 30
0.0
 10
185.0373851567514
 20
141.3641996609785
 30
0.0
 10
185.0582475365746
 20
141.3723889171362
 30
0.0
 10
185.0683700350099
 20
141.3763623723865
 30
0.0
  0
LINE
  5
D6
330
1F
100
AcDbEntity
  8
0
  6
HIDDEN
 62
     7
370
     0
100
AcDbLine
 10
183.7950567038
 20
140.9810075236
 30
0.0
 11
183.0448041426
 21
140.7814818705
 31
0.0
  0
LINE
  5
D7
330
1F
100
AcDbEntity
  8
0
  6
HIDDEN
 62
     7
370
     0
100
AcDbLine
 10
183.46856253
 20
88.3764336686
 30
0.0
 11
177.01856253
 21
88.3764336686
 31
0.0
  0
LINE
  5
D8
330
1F
100
AcDbEntity
  8
0
  6
HIDDEN
 62
     7
370
     0
100
AcDbLine
 10
183.0448042962
 20
80.9713857752
 30
0.0
 11
183.1387470258
 21
80.9464021038
 31
0.0
  0
SPLINE
  5
D9
330
1F
100
AcDbEntity
  8
0
  6
HIDDEN
 62
     7
370
     0
100
AcDbSpline
210
0.0
220
0.0
230
1.0
 70
     8
 71
     3
 72
    13
 73
     9
 74
     0
 42
0.000000001
 43
0.00000001
 40
0.0
 40
0.0
 40
0.0
 40
0.0
 40
0.0000730266253407
 40
0.1576811714019511
 40
0.3241446478108668
 40
0.4996852929261713
 40
0.7294244053126598
 40
1.0
 40
1.0
 40
1.0
 40
1.0
 10
185.0685412229286
 20
80.37644196962056
 30
0.0
 10
185.0685483246364
 20
80.37643905948565
 30
0.0
 10
185.0838825345364
 20
80.37015541320761
 30
0.0
 10
185.0244214624461
 20
80.39386710624892
 30
0.0
 10
184.8636710603466
 20
80.44934203680931
 30
0.0
 10
184.5289864240957
 20
80.55728910478965
 30
0.0
 10
183.9711121655618
 20
80.72856132247867
 30
0.0
 10
183.3699457600231
 20
80.8862917504617
 30
0.0
 10
183.0448284780707
 20
80.97159406867935
 30
0.0
  0
LINE
  5
DA
330
1F
100
AcDbEntity
  8
0
  6
HIDDEN
 62
     7
370
     0
100
AcDbLine
 10
177.01856253
 20
133.3764336686
 30
0.0
 11
183.46856253
 21
133.3764336686
 31
0.0
  0
SPLINE
  5
DB
330
1F
100
AcDbEntity
  8
0
  6
HIDDEN
 62
     7
370
     0
100
AcDbSpline
210
0.0
220
0.0
230
1.0
 70
     8
 71
     3
 72
    16
 73
    12
 74
     0
 42
0.000000001
 43
0.00000001
 40
0.0
 40
0.0
 40
0.0
 40
0.0
 40
0.2499999999999956
 40
0.2499999999999956
 40
0.4999999999999912
 40
0.4999999999999912
 40
0.6249999999999932
 40
0.6249999999999932
 40
0.7499999999999952
 40
0.7499999999999952
 40
1.0
 40
1.0
 40
1.0
 40
1.0
 10
204.0685625299808
 20
117.7172707839471
 30
0.0
 10
204.0685625299808
 20
117.6487998617634
 30
0.0
 10
204.0640173198055
 20
117.5788716201125
 30
0.0
 10
204.0383473546819
 20
117.4337023900253
 30
0.0
 10
204.0166204747996
 20
117.3553516679545
 30
0.0
 10
203.9576610443403
 20
117.2531801190937
 30
0.0
 10
203.9330109173569
 20
117.221991789826
 30
0.0
 10
203.87869392456
 20
117.1757838727261
 30
0.0
 10
203.8499239928449
 20
117.1610468562521
 30
0.0
 10
203.7672216228341
 20
117.1358492075373
 30
0.0
 10
203.7159321462272
 20
117.1414260451144
 30
0.0
 10
203.6685625299732
 20
117.1539793983634
 30
0.0
  0
SPLINE
  5
DC
330
1F
100
AcDbEntity
  8
0
  6
HIDDEN
 62
     7
370
     0
100
AcDbSpline
210
0.0
220
0.0
230
1.0
 70
     8
 71
     3
 72
     8
 73
     4
 74
     0
 42
0.000000001
 43
0.00000001
 40
0.0
 40
0.0
 40
0.0
 40
0.0
 40
1.0
 40
1.0
 40
1.0
 40
1.0
 10
203.6685625299757
 20
117.1539793983727
 30
0.0
 10
203.6096672053475
 20
117.1210275417004
 30
0.0
 10
203.5400575760681
 20
117.099361585744
 30
0.0
 10
203.4685625299809
 20
117.099361585744
 30
0.0
  0
SPLINE
  5
DD
330
1F
100
AcDbEntity
  8
0
  6
HIDDEN
 62
     7
370
     0
100
AcDbSpline
210
0.0
220
0.0
230
1.0
 70
     8
 71
     3
 72
     8
 73
     4
 74
     0
 42
0.000000001
 43
0.00000001
 40
0.0
 40
0.0
 40
0.0
 40
0.0
 40
1.0
 40
1.0
 40
1.0
 40
1.0
 10
203.6685625299905
 20
104.5988879387564
 30
0.0
 10
203.6096672053591
 20
104.6318397954332
 30
0.0
 10
203.5400575760741
 20
104.6535057513934
 30
0.0
 10
203.4685625299809
 20
104.6535057513934
 30
0.0
  0
SPLINE
  5
DE
330
1F
100
AcDbEntity
  8
0
  6
HIDDEN
 62
     7
370
     0
100
AcDbSpline
210
0.0
220
0.0
230
1.0
 70
     8
 71
     3
 72
    16
 73
    12
 74
     0
 42
0.000000001
 43
0.00000001
 40
0.0
 40
0.0
 40
0.0
 40
0.0
 40
0.2499999999999941
 40
0.2499999999999941
 40
0.3749999999999914
 40
0.3749999999999914
 40
0.4999999999999888
 40
0.4999999999999888
 40
0.7499999999999943
 40
0.7499999999999943
 40
1.0
 40
1.0
 40
1.0
 40
1.0
 10
203.6685625299905
 20
104.5988879387562
 30
0.0
 10
203.7159444947575
 20
104.6114446294384
 30
0.0
 10
203.7671257132879
 20
104.6170693872019
 30
0.0
 10
203.850080775205
 20
104.591768736546
 30
0.0
 10
203.8787631363668
 20
104.5770241798065
 30
0.0
 10
203.9328709412708
 20
104.5310126124321
 30
0.0
 10
203.9572666953889
 20
104.5002797968859
 30
0.0
 10
204.0165782581263
 20
104.397797856381
 30
0.0
 10
204.0381058120263
 20
104.3201402975707
 30
0.0
 10
204.063936066774
 20
104.1748541770227
 30
0.0
 10
204.0685625299808
 20
104.1041219102097
 30
0.0
 10
204.0685625299808
 20
104.0356010370053
 30
0.0
  0
LINE
  5
DF
330
1F
100
AcDbEntity
  8
0
  6
HIDDEN
 62
     7
370
     0
100
AcDbLine
 10
187.56856253
 20
110.8764336686
 30
0.0
 11
187.56856253
 21
104.1764336686
 31
0.0
  0
LINE
  5
E0
330
1F
100
AcDbEntity
  8
0
  6
HIDDEN
 62
     7
370
     0
100
AcDbLine
 10
187.56856253
 20
117.5764336686
 30
0.0
 11
187.56856253
 21
110.8764336686
 31
0.0
  0
LINE
  5
E1
330
1F
100
AcDbEntity
  8
0
  6
HIDDEN
 62
     7
370
     0
100
AcDbLine
 10
190.9345879338
 20
110.8764336686
 30
0.0
 11
190.9345879338
 21
103.8764336686
 31
0.0
  0
LINE
  5
E2
330
1F
100
AcDbEntity
  8
0
  6
HIDDEN
 62
     7
370
     0
100
AcDbLine
 10
190.9345879338
 20
117.8764336686
 30
0.0
 11
190.9345879338
 21
110.8764336686
 31
0.0
  0
LINE
  5
E3
330
1F
100
AcDbEntity
  8
0
  6
HIDDEN
 62
     7
370
     0
100
AcDbLine
 10
197.16856253
 20
117.0993615857
 30
0.0
 11
203.46856253
 21
117.0993615857
 31
0.0
  0
LINE
  5
E4
330
1F
100
AcDbEntity
  8
0
  6
HIDDEN
 62
     7
370
     0
100
AcDbLine
 10
197.16856253
 20
104.6535057514
 30
0.0
 11
203.46856253
 21
104.6535057514
 31
0.0
  0
LINE
  5
E5
330
1F
100
AcDbEntity
  8
0
  6
HIDDEN
 62
     7
370
     0
100
AcDbLine
 10
139.66856253
 20
103.8764336686
 30
0.0
 11
139.66856253
 21
117.8764336686
 31
0.0
  0
LINE
  5
E6
330
1F
100
AcDbEntity
  8
0
  6
HIDDEN
 62
     7
370
     0
100
AcDbLine
 10
142.3724353156
 20
108.3764336686
 30
0.0
 11
142.3724353156
 21
113.3764336686
 31
0.0
  0
SPLINE
  5
E7
330
1F
100
AcDbEntity
  8
0
  6
HIDDEN
 62
     7
370
     0
100
AcDbSpline
210
0.0
220
0.0
230
1.0
 70
     8
 71
     3
 72
     9
 73
     5
 74
     0
 42
0.000000001
 43
0.00000001
 40
0.0
 40
0.0
 40
0.0
 40
0.0
 40
0.4932365035776448
 40
1.0
 40
1.0
 40
1.0
 40
1.0
 10
183.0456220686783
 20
140.781265179741
 30
0.0
 10
183.1514700241869
 20
140.9382865680239
 30
0.0
 10
183.3660688114643
 20
141.2566356503485
 30
0.0
 10
183.5839286933485
 20
141.576461758026
 30
0.0
 10
183.6943321288223
 20
141.7385379545998
 30
0.0
  0
SPLINE
  5
E8
330
1F
100
AcDbEntity
  8
0
  6
HIDDEN
 62
     7
370
     0
100
AcDbSpline
210
0.0
220
0.0
230
1.0
 70
     8
 71
     3
 72
     9
 73
     5
 74
     0
 42
0.000000001
 43
0.00000001
 40
0.0
 40
0.0
 40
0.0
 40
0.0
 40
0.5067661695379747
 40
1.0
 40
1.0
 40
1.0
 40
1.0
 10
183.6943358141082
 20
80.01434351809156
 30
0.0
 10
183.5839309836342
 20
80.1764209326717
 30
0.0
 10
183.3660694981789
 20
80.49624775680222
 30
0.0
 10
183.1514697802933
 20
80.8145962730667
 30
0.0
 10
183.0456219394244
 20
80.97161653116574
 30
0.0
  0
SPLINE
  5
E9
330
1F
100
AcDbEntity
  8
0
  6
HIDDEN
 62
     7
370
     0
100
AcDbSpline
210
0.0
220
0.0
230
1.0
 70
     8
 71
     3
 72
    14
 73
    10
 74
     0
 42
0.000000001
 43
0.00000001
 40
0.0
 40
0.0
 40
0.0
 40
0.0
 40
0.25
 40
0.25
 40
0.5
 40
0.5
 40
0.75
 40
0.75
 40
1.0
 40
1.0
 40
1.0
 40
1.0
 10
203.6685625299808
 20
119.9514336685687
 30
0.0
 10
203.6685625299808
 20
120.0841062325055
 30
0.0
 10
203.6687301990057
 20
120.2043200312626
 30
0.0
 10
203.6663651615776
 20
120.4206128821911
 30
0.0
 10
203.6642982285886
 20
120.5161842492406
 30
0.0
 10
203.6588377374977
 20
120.6718198051405
 30
0.0
 10
203.6551397675618
 20
120.7340878853757
 30
0.0
 10
203.6479351719727
 20
120.8202380433123
 30
0.0
 10
203.6443960864523
 20
120.8448162086466
 30
0.0
 10
203.641810486585
 20
120.8502857974148
 30
0.0
  0
SPLINE
  5
EA
330
1F
100
AcDbEntity
  8
0
  6
HIDDEN
 62
     7
370
     0
100
AcDbSpline
210
0.0
220
0.0
230
1.0
 70
     8
 71
     3
 72
    14
 73
    10
 74
     0
 42
0.000000001
 43
0.00000001
 40
0.0
 40
0.0
 40
0.0
 40
0.0
 40
0.1124065737930723
 40
0.2781074408630904
 40
0.43857213844593
 40
0.6036781339277316
 40
0.764410275591544
 40
0.9297920765957749
 40
1.0
 40
1.0
 40
1.0
 40
1.0
 10
203.6407987944173
 20
120.8460068116115
 30
0.0
 10
203.6398603974269
 20
120.8447278067661
 30
0.0
 10
203.6375386899261
 20
120.8415633942907
 30
0.0
 10
203.6384624465395
 20
120.7780653736622
 30
0.0
 10
203.6436778118224
 20
120.6648888734238
 30
0.0
 10
203.6523641977274
 20
120.5057729613321
 30
0.0
 10
203.662137246613
 20
120.3041355594658
 30
0.0
 10
203.6678042752214
 20
120.113291680013
 30
0.0
 10
203.668388433878
 20
119.9885945654923
 30
0.0
 10
203.6685625185768
 20
119.9514336685687
 30
0.0
  0
LWPOLYLINE
  5
EB
330
1F
100
AcDbEntity
  8
0
  6
HIDDEN
 62
     7
370
     0
100
AcDbPolyline
 90
        4
 70
   128
 43
0.0
 10
203.6685625186
 20
119.9514336686
 10
203.6685625337
 20
119.4707735609
 10
203.6685625289
 20
117.5481331301
 10
203.66856253
 20
117.1539793984
  0
LINE
  5
EC
330
1F
100
AcDbEntity
  8
0
  6
HIDDEN
 62
     7
370
     0
100
AcDbLine
 10
203.6685625346
 20
101.8014336686
 30
0.0
 11
203.66856253
 21
104.5988879388
 31
0.0
  0
SPLINE
  5
ED
330
1F
100
AcDbEntity
  8
0
  6
HIDDEN
 62
     7
370
     0
100
AcDbSpline
210
0.0
220
0.0
230
1.0
 70
     8
 71
     3
 72
    11
 73
     7
 74
     0
 42
0.000000001
 43
0.00000001
 40
0.0
 40
0.0
 40
0.0
 40
0.0
 40
0.2791210403208578
 40
0.6041001967114601
 40
0.9296186745226671
 40
1.0
 40
1.0
 40
1.0
 40
1.0
 10
203.6414325973808
 20
100.9141304796126
 30
0.0
 10
203.6396683690528
 20
100.9258169482556
 30
0.0
 10
203.6358500589792
 20
100.9511099107566
 30
0.0
 10
203.6519363366621
 20
101.2318229838645
 30
0.0
 10
203.6674341487271
 20
101.5550588468964
 30
0.0
 10
203.6683922139458
 20
101.7642454028556
 30
0.0
 10
203.6685625345659
 20
101.8014336685686
 30
0.0
  0
LINE
  5
EE
330
1F
100
AcDbEntity
  8
0
  6
HIDDEN
 62
     7
370
     0
100
AcDbLine
 10
197.16856253
 20
101.8014336686
 30
0.0
 11
197.16856253
 21
104.6535057514
 31
0.0
  0
LINE
  5
EF
330
1F
100
AcDbEntity
  8
0
  6
HIDDEN
 62
     7
370
     0
100
AcDbLine
 10
197.16856253
 20
119.9514336686
 30
0.0
 11
197.16856253
 21
117.0993615857
 31
0.0
  0
LINE
  5
F0
330
1F
100
AcDbEntity
  8
0
  6
HIDDEN
 62
     7
370
     0
100
AcDbLine
 10
197.16856253
 20
120.8514336686
 30
0.0
 11
197.16856253
 21
119.9514336686
 31
0.0
  0
LINE
  5
F1
330
1F
100
AcDbEntity
  8
0
  6
HIDDEN
 62
     7
370
     0
100
AcDbLine
 10
197.16856253
 20
100.9014336686
 30
0.0
 11
197.16856253
 21
101.8014336686
 31
0.0
  0
ARC
  5
F2
330
1F
100
AcDbEntity
  8
0
  6
HIDDEN
 62
     7
370
     0
100
AcDbCircle
 10
97.46856253
 20
101.5764336686
 30
0.0
 40
0.7999999999999972
100
AcDbArc
 50
90.0
 51
180.0
  0
ARC
  5
F3
330
1F
100
AcDbEntity
  8
0
  6
HIDDEN
 62
     7
370
     0
100
AcDbCircle
 10
97.46856253
 20
120.1764336686
 30
0.0
 40
0.7999999999999972
100
AcDbArc
 50
180.0
 51
270.0
  0
LINE
  5
F4
330
1F
100
AcDbEntity
  8
0
  6
HIDDEN
 62
     7
370
     0
100
AcDbLine
 10
104.5609349607
 20
102.1514336686
 30
0.0
 11
105.4376224223
 21
102.1514336686
 31
0.0
  0
LINE
  5
F5
330
1F
100
AcDbEntity
  8
0
  6
HIDDEN
 62
     7
370
     0
100
AcDbLine
 10
105.4376224223
 20
119.6014336686
 30
0.0
 11
104.5609349607
 21
119.6014336686
 31
0.0
  0
ARC
  5
F6
330
1F
100
AcDbEntity
  8
0
  6
HIDDEN
 62
     7
370
     0
100
AcDbCircle
 10
105.4376224223
 20
102.5514336686
 30
0.0
 40
0.400000000000005
100
AcDbArc
 50
270.0
 51
330.0
  0
ARC
  5
F7
330
1F
100
AcDbEntity
  8
0
  6
HIDDEN
 62
     7
370
     0
100
AcDbCircle
 10
105.4376224223
 20
119.2014336686
 30
0.0
 40
0.400000000000005
100
AcDbArc
 50
30.0
 51
90.0
  0
ARC
  5
F8
330
1F
100
AcDbEntity
  8
0
  6
HIDDEN
 62
     7
370
     0
100
AcDbCircle
 10
104.5609349607
 20
102.5514336686
 30
0.0
 40
0.3999999999999915
100
AcDbArc
 50
255.0
 51
270.0
  0
ARC
  5
F9
330
1F
100
AcDbEntity
  8
0
  6
HIDDEN
 62
     7
370
     0
100
AcDbCircle
 10
104.5609349607
 20
119.2014336686
 30
0.0
 40
0.3999999999999915
100
AcDbArc
 50
90.0
 51
105.0
  0
LINE
  5
FA
330
1F
100
AcDbEntity
  8
0
  6
HIDDEN
 62
     7
370
     0
100
AcDbLine
 10
104.4574073427
 20
119.5878039991
 30
0.0
 11
103.66856253
 21
119.3764336686
 31
0.0
  0
LINE
  5
FB
330
1F
100
AcDbEntity
  8
0
  6
HIDDEN
 62
     7
370
     0
100
AcDbLine
 10
103.66856253
 20
102.3764336686
 30
0.0
 11
104.4574073427
 21
102.1650633381
 31
0.0
  0
LINE
  5
FC
330
1F
100
AcDbEntity
  8
0
  6
HIDDEN
 62
     7
370
     0
100
AcDbLine
 10
105.7840325838
 20
102.3514336686
 30
0.0
 11
106.6644917443
 21
103.8764336686
 31
0.0
  0
LINE
  5
FD
330
1F
100
AcDbEntity
  8
0
  6
HIDDEN
 62
     7
370
     0
100
AcDbLine
 10
106.6644917443
 20
117.8764336686
 30
0.0
 11
105.7840325838
 21
119.4014336686
 31
0.0
  0
LINE
  5
FE
330
1F
100
AcDbEntity
  8
0
  6
HIDDEN
 62
     7
370
     0
100
AcDbLine
 10
97.46856253
 20
102.3764336686
 30
0.0
 11
103.66856253
 21
102.3764336686
 31
0.0
  0
LINE
  5
FF
330
1F
100
AcDbEntity
  8
0
  6
HIDDEN
 62
     7
370
     0
100
AcDbLine
 10
103.66856253
 20
119.3764336686
 30
0.0
 11
97.46856253
 21
119.3764336686
 31
0.0
  0
LINE
  5
100
330
1F
100
AcDbEntity
  8
0
  6
HIDDEN
 62
     7
370
     0
100
AcDbLine
 10
185.06856253
 20
134.9764336686
 30
0.0
 11
185.06856253
 21
141.3763623724
 31
0.0
  0
ARC
  5
101
330
1F
100
AcDbEntity
  8
0
  6
HIDDEN
 62
     7
370
     0
100
AcDbCircle
 10
183.46856253
 20
86.7764336686
 30
0.0
 40
1.599999999999994
100
AcDbArc
 50
0.0
 51
90.0
  0
LINE
  5
102
330
1F
100
AcDbEntity
  8
0
  6
HIDDEN
 62
     7
370
     0
100
AcDbLine
 10
185.06856253
 20
80.3764419696
 30
0.0
 11
185.06856253
 21
86.7764336686
 31
0.0
  0
ARC
  5
103
330
1F
100
AcDbEntity
  8
0
  6
HIDDEN
 62
     7
370
     0
100
AcDbCircle
 10
183.46856253
 20
134.9764336686
 30
0.0
 40
1.599999999999994
100
AcDbArc
 50
270.0
 51
0.0
  0
ARC
  5
104
330
1F
100
AcDbEntity
  8
0
  6
HIDDEN
 62
     7
370
     0
100
AcDbCircle
 10
188.36856253
 20
117.5764336686
 30
0.0
 40
0.7999999999999972
100
AcDbArc
 50
90.0
 51
180.0
  0
ARC
  5
105
330
1F
100
AcDbEntity
  8
0
  6
HIDDEN
 62
     7
370
     0
100
AcDbCircle
 10
188.36856253
 20
104.1764336686
 30
0.0
 40
0.7999999999999972
100
AcDbArc
 50
180.0
 51
270.0
  0
LINE
  5
106
330
1F
100
AcDbEntity
  8
0
  6
HIDDEN
 62
     7
370
     0
100
AcDbLine
 10
188.9632405319
 20
118.3764336686
 30
0.0
 11
188.36856253
 21
118.3764336686
 31
0.0
  0
LINE
  5
107
330
1F
100
AcDbEntity
  8
0
  6
HIDDEN
 62
     7
370
     0
100
AcDbLine
 10
188.36856253
 20
103.3764336686
 30
0.0
 11
188.9632405319
 21
103.3764336686
 31
0.0
  0
ARC
  5
108
330
1F
100
AcDbEntity
  8
0
  6
HIDDEN
 62
     7
370
     0
100
AcDbCircle
 10
188.9632405319
 20
117.5764336686
 30
0.0
 40
0.7999999999999908
100
AcDbArc
 50
75.0
 51
90.0
  0
ARC
  5
109
330
1F
100
AcDbEntity
  8
0
  6
HIDDEN
 62
     7
370
     0
100
AcDbCircle
 10
188.9632405319
 20
104.1764336686
 30
0.0
 40
0.8000000000000046
100
AcDbArc
 50
270.0
 51
285.0
  0
LINE
  5
10A
330
1F
100
AcDbEntity
  8
0
  6
HIDDEN
 62
     7
370
     0
100
AcDbLine
 10
189.170295768
 20
103.4036930075
 30
0.0
 11
190.9345879338
 21
103.8764336686
 31
0.0
  0
LINE
  5
10B
330
1F
100
AcDbEntity
  8
0
  6
HIDDEN
 62
     7
370
     0
100
AcDbLine
 10
190.9345879338
 20
117.8764336686
 30
0.0
 11
189.170295768
 21
118.3491743296
 31
0.0
  0
LINE
  5
10C
330
1F
100
AcDbEntity
  8
0
  6
HIDDEN
 62
     7
370
     0
100
AcDbLine
 10
197.16856253
 20
117.8764336686
 30
0.0
 11
190.9345879338
 21
117.8764336686
 31
0.0
  0
LINE
  5
10D
330
1F
100
AcDbEntity
  8
0
  6
HIDDEN
 62
     7
370
     0
100
AcDbLine
 10
190.9345879338
 20
103.8764336686
 30
0.0
 11
197.16856253
 21
103.8764336686
 31
0.0
  0
LINE
  5
10E
330
1F
100
AcDbEntity
  8
0
  6
HIDDEN
 62
     7
370
     0
100
AcDbLine
 10
139.66856253
 20
103.8764336686
 30
0.0
 11
142.3724353156
 21
108.3764336686
 31
0.0
  0
LINE
  5
10F
330
1F
100
AcDbEntity
  8
0
  6
HIDDEN
 62
     7
370
     0
100
AcDbLine
 10
142.3724353156
 20
113.3764336686
 30
0.0
 11
139.66856253
 21
117.8764336686
 31
0.0
  0
LINE
  5
110
330
1F
100
AcDbEntity
  8
0
  6
HIDDEN
 62
     7
370
     0
100
AcDbLine
 10
106.6644917443
 20
103.8764336686
 30
0.0
 11
139.66856253
 21
103.8764336686
 31
0.0
  0
LINE
  5
111
330
1F
100
AcDbEntity
  8
0
  6
HIDDEN
 62
     7
370
     0
100
AcDbLine
 10
139.66856253
 20
117.8764336686
 30
0.0
 11
106.6644917443
 21
117.8764336686
 31
0.0
  0
LINE
  5
112
330
1F
100
AcDbEntity
  8
0
  6
HIDDEN
 62
     7
370
     0
100
AcDbLine
 10
185.06856162
 20
141.3764334566
 30
0.0
 11
186.0685609893
 21
142.3764332034
 31
0.0
  0
LINE
  5
113
330
1F
100
AcDbEntity
  8
0
  6
HIDDEN
 62
     7
370
     0
100
AcDbLine
 10
186.0685688914
 20
79.3764325309
 30
0.0
 11
185.0685686425
 21
80.3764323354
 31
0.0
  0
LINE
  5
114
330
1F
100
AcDbEntity
  8
0
  6
HIDDEN
 62
     7
370
     0
100
AcDbLine
 10
204.06856253
 20
121.2793820835
 30
0.0
 11
203.6345787997
 21
120.8453985014
 31
0.0
  0
LINE
  5
115
330
1F
100
AcDbEntity
  8
0
  6
HIDDEN
 62
     7
370
     0
100
AcDbLine
 10
203.6345782654
 20
100.9074697936
 30
0.0
 11
204.06856253
 21
100.4734856211
 31
0.0
  0
LINE
  5
116
330
1F
100
AcDbEntity
  8
0
  6
HIDDEN
 62
     7
370
     0
100
AcDbLine
 10
142.3724353156
 20
108.3764336686
 30
0.0
 11
187.56856253
 21
108.3764336686
 31
0.0
  0
LINE
  5
117
330
1F
100
AcDbEntity
  8
0
  6
HIDDEN
 62
     7
370
     0
100
AcDbLine
 10
187.56856253
 20
113.3764336686
 30
0.0
 11
142.3724353156
 21
113.3764336686
 31
0.0
  0
LINE
  5
118
330
1F
100
AcDbEntity
  8
0
  6
HIDDEN
 62
     7
370
     0
100
AcDbLine
 10
203.6410913601
 20
120.8514336686
 30
0.0
 11
197.16856253
 21
120.8514336686
 31
0.0
  0
LINE
  5
119
330
1F
100
AcDbEntity
  8
0
  6
HIDDEN
 62
     7
370
     0
100
AcDbLine
 10
197.16856253
 20
100.9014336686
 30
0.0
 11
203.6415342743
 21
100.9014336686
 31
0.0
  0
DIMENSION
  5
11A
330
1F
100
AcDbEntity
  8
VERMASSUNG
100
AcDbDimension
  2
_D
 10
212.8799186668
 20
103.8764336686
 30
0.0
 11
212.8799186668
 21
110.8764336686
 31
0.0
 70
   160
  1
%%c<>
 71
     2
 42
-1.0
  3
SLDDIMSTYLE0
100
AcDbAlignedDimension
 13
197.16856253
 23
117.8764336686
 33
0.0
 14
197.16856253
 24
103.8764336686
 34
0.0
 50
90.0
100
AcDbRotatedDimension
  0
DIMENSION
  5
126
330
1F
100
AcDbEntity
  8
VERMASSUNG
100
AcDbDimension
  2
_D_1
 10
219.0799186668
 20
98.3764336686
 30
0.0
 11
219.0799186668
 21
110.8764336686
 31
0.0
 70
   160
  1
ST2 %%c<>
 71
     2
 42
-1.0
  3
SLDDIMSTYLE0
100
AcDbAlignedDimension
 13
203.86856253
 23
123.3764336686
 33
0.0
 14
203.86856253
 24
98.3764336686
 34
0.0
 50
90.0
100
AcDbRotatedDimension
  0
DIMENSION
  5
132
330
1F
100
AcDbEntity
  8
VERMASSUNG
100
AcDbDimension
  2
_D_2
 10
204.06856253
 20
146.7649731539
 30
0.0
 11
196.56856253
 21
146.7649731539
 31
0.0
 70
   160
  1
(<>)
 71
     2
 42
-1.0
  3
SLDDIMSTYLE0
100
AcDbAlignedDimension
 13
189.06856253
 23
141.3764336686
 33
0.0
 14
204.06856253
 24
123.1764336686
 34
0.0
100
AcDbRotatedDimension
  0
DIMENSION
  5
13E
330
1F
100
AcDbEntity
  8
VERMASSUNG
100
AcDbDimension
  2
_D_3
 10
204.06856253
 20
152.7649731539
 30
0.0
 11
183.06856253
 21
152.7649731539
 31
0.0
 70
   160
  1
<>
 71
     2
 42
-1.0
  3
SLDDIMSTYLE0
100
AcDbAlignedDimension
 13
162.06856253
 23
133.1014336686
 33
0.0
 14
204.06856253
 24
123.1764336686
 34
0.0
100
AcDbRotatedDimension
  0
DIMENSION
  5
148
330
1F
100
AcDbEntity
  8
VERMASSUNG
100
AcDbDimension
  2
_D_4
 10
204.06856253
 20
158.7649731539
 30
0.0
 11
150.36856253
 21
158.7649731539
 31
0.0
 70
   160
  1
(<>)
 71
     2
 42
-1.0
  3
SLDDIMSTYLE0
100
AcDbAlignedDimension
 13
96.66856253
 23
122.6991892656
 33
0.0
 14
204.06856253
 24
123.1764336686
 34
0.0
100
AcDbRotatedDimension
  0
DIMENSION
  5
154
330
1F
100
AcDbEntity
  8
VERMASSUNG
100
AcDbDimension
  2
_D_5
 10
91.3625952971
 20
79.3764336686
 30
0.0
 11
91.3625952971
 21
110.8764336686
 31
0.0
 70
   160
  1
MAS BT 40 %%c<>
 71
     2
 42
-1.0
  3
SLDDIMSTYLE0
100
AcDbAlignedDimension
 13
186.0685583859
 23
142.3764336686
 33
0.0
 14
186.0685633039
 24
79.3764336686
 34
0.0
 50
90.0
100
AcDbRotatedDimension
  0
LINE
  5
160
330
1F
100
AcDbEntity
  8
VERMASSUNG
  6
CENTERX2
370
     0
100
AcDbLine
 10
95.5242556369
 20
110.8764336686
 30
0.0
 11
207.3993799096
 21
110.8764336686
 31
0.0
  0
LINE
  5
161
330
1F
100
AcDbEntity
  8
0
  6
Continuous
 62
     7
370
    15
100
AcDbLine
 10
268.4112270334
 20
41.6576929501
 30
0.0
 11
268.3228243236
 21
41.708743337
 31
0.0
  0
LINE
  5
162
330
1F
100
AcDbEntity
  8
0
  6
Continuous
 62
     7
370
    15
100
AcDbLine
 10
266.7315755483
 20
41.708743337
 30
0.0
 11
266.6431728386
 21
41.6576929501
 31
0.0
  0
LINE
  5
163
330
1F
100
AcDbEntity
  8
0
  6
Continuous
 62
     7
370
    15
100
AcDbLine
 10
268.777199936
 20
41.0454532027
 30
0.0
 11
268.777199936
 21
41.1475208042
 31
0.0
  0
LINE
  5
164
330
1F
100
AcDbEntity
  8
0
  6
Continuous
 62
     7
370
    15
100
AcDbLine
 10
266.277199936
 20
41.1475208042
 30
0.0
 11
266.277199936
 21
41.0454532027
 31
0.0
  0
SPLINE
  5
165
330
1F
100
AcDbEntity
  8
0
  6
Continuous
 62
     7
370
    15
100
AcDbSpline
210
0.0
220
0.0
230
1.0
 70
     8
 71
     3
 72
    22
 73
    18
 74
     0
 42
0.000000001
 43
0.00000001
 40
0.0
 40
0.0
 40
0.0
 40
0.0
 40
0.0340920374294183
 40
0.1036214054467213
 40
0.1735483108989592
 40
0.2439153562202769
 40
0.3146861377238017
 40
0.3857758098876685
 40
0.4570845918901294
 40
0.5285219036595121
 40
0.6000177148576775
 40
0.6715175992249145
 40
0.7429926266269369
 40
0.8144311213845657
 40
0.8858295643053238
 40
0.9571895676225854
 40
1.0
 40
1.0
 40
1.0
 40
1.0
 10
257.7450786764466
 20
23.86430186022869
 30
0.0
 10
257.864207103823
 20
23.83111133091144
 30
0.0
 10
258.2262932683406
 20
23.73023002387618
 30
0.0
 10
258.8711497781215
 20
23.65839292398735
 30
0.0
 10
259.6722919344941
 20
23.64422318233127
 30
0.0
 10
260.5041120835359
 20
23.72542230465444
 30
0.0
 10
261.3590937009677
 20
23.89584047333232
 30
0.0
 10
262.2323982249912
 20
24.15636701003831
 30
0.0
 10
263.1179840994863
 20
24.50495662912601
 30
0.0
 10
264.0099584350813
 20
24.9393410272532
 30
0.0
 10
264.9024012859969
 20
25.45643396283693
 30
0.0
 10
265.7896131703409
 20
26.05256063490401
 30
0.0
 10
266.6659131290359
 20
26.72384798946987
 30
0.0
 10
267.5264673248898
 20
27.46506345987717
 30
0.0
 10
268.3642301270842
 20
28.2743408152703
 30
0.0
 10
269.0723505053235
 20
29.02089909544101
 30
0.0
 10
269.4860837868405
 20
29.51764925094958
 30
0.0
 10
269.6412211528573
 20
29.70391541356405
 30
0.0
  0
SPLINE
  5
166
330
1F
100
AcDbEntity
  8
0
  6
Continuous
 62
     7
370
    15
100
AcDbSpline
210
0.0
220
0.0
230
1.0
 70
     8
 71
     3
 72
    22
 73
    18
 74
     0
 42
0.000000001
 43
0.00000001
 40
0.0
 40
0.0
 40
0.0
 40
0.0
 40
0.0702118428231094
 40
0.1416770024643914
 40
0.2131856994055444
 40
0.2847445718665468
 40
0.3563580928848333
 40
0.4280268942897711
 40
0.4997451769143016
 40
0.5714969513931665
 40
0.6432390937439375
 40
0.7149095613129893
 40
0.7864234732801598
 40
0.857674943563256
 40
0.9285541811098833
 40
0.9989793195779181
 40
1.0
 40
1.0
 40
1.0
 40
1.0
 10
274.1849778230823
 20
37.57751142956699
 30
0.0
 10
274.3145441978975
 20
37.95039507807395
 30
0.0
 10
274.5759897726879
 20
38.70281853634366
 30
0.0
 10
274.8886345213879
 20
39.83180734478285
 30
0.0
 10
275.141250600949
 20
40.95671398913154
 30
0.0
 10
275.3243642642321
 20
42.06456380093777
 30
0.0
 10
275.4381312555237
 20
43.14859448370434
 30
0.0
 10
275.481048314583
 20
44.20225205729373
 30
0.0
 10
275.452500815653
 20
45.21907423278001
 30
0.0
 10
275.3521210341934
 20
46.19268462788683
 30
0.0
 10
275.1799547843461
 20
47.11668000704964
 30
0.0
 10
274.9367922045664
 20
47.9850280096707
 30
0.0
 10
274.62322144808
 20
48.79068482245708
 30
0.0
 10
274.2437315635865
 20
49.53109787099197
 30
0.0
 10
273.7920730420797
 20
50.18833465962498
 30
0.0
 10
273.464459118219
 20
50.60288815139474
 30
0.0
 10
273.2725812882267
 20
50.77425153468675
 30
0.0
 10
273.2698401069015
 20
50.77669964506052
 30
0.0
  0
LINE
  5
167
330
1F
100
AcDbEntity
  8
0
  6
Continuous
 62
     7
370
    15
100
AcDbLine
 10
254.7649642915
 20
25.3276492854
 30
0.0
 11
256.3117603754
 21
24.4347029131
 31
0.0
  0
LINE
  5
168
330
1F
100
AcDbEntity
  8
0
  6
Continuous
 62
     7
370
    15
100
AcDbLine
 10
272.0604804144
 20
51.7152420781
 30
0.0
 11
270.5136843305
 21
52.6081884504
 31
0.0
  0
LINE
  5
169
330
1F
100
AcDbEntity
  8
0
  6
Continuous
 62
     7
370
    15
100
AcDbLine
 10
266.9604727551
 20
54.6594138314
 30
0.0
 11
263.9287524307
 21
56.4095887211
 31
0.0
  0
LINE
  5
16A
330
1F
100
AcDbEntity
  8
0
  6
Continuous
 62
     7
370
    15
100
AcDbLine
 10
269.7729822459
 20
29.747195101
 30
0.0
 11
269.8436814315
 21
29.7880221411
 31
0.0
  0
LINE
  5
16B
330
1F
100
AcDbEntity
  8
0
  6
Continuous
 62
     7
370
    15
100
AcDbLine
 10
274.1916813487
 20
37.3197949922
 30
0.0
 11
274.1916813487
 21
37.4014358034
 31
0.0
  0
LINE
  5
16C
330
1F
100
AcDbEntity
  8
0
  6
Continuous
 62
     7
370
    15
100
AcDbLine
 10
272.8970100057
 20
40.2629658438
 30
0.0
 11
269.0786333873
 21
42.4672677457
 31
0.0
  0
LINE
  5
16D
330
1F
100
AcDbEntity
  8
0
  6
Continuous
 62
     7
370
    15
100
AcDbLine
 10
262.8291413084
 20
31.6416569659
 30
0.0
 11
266.6475179268
 21
29.437355064
 31
0.0
  0
SPLINE
  5
16E
330
1F
100
AcDbEntity
  8
0
  6
Continuous
 62
     7
370
    15
100
AcDbSpline
210
0.0
220
0.0
230
1.0
 70
     8
 71
     3
 72
    32
 73
    28
 74
     0
 42
0.000000001
 43
0.00000001
 40
0.0
 40
0.0
 40
0.0
 40
0.0
 40
0.039686086866924
 40
0.0802084941032467
 40
0.1209757388025919
 40
0.1619966363227483
 40
0.2032388833410515
 40
0.2446484143183226
 40
0.2861677083573673
 40
0.3277474586022587
 40
0.3693510886556393
 40
0.4109492245256536
 40
0.4525300997714918
 40
0.4940886530680208
 40
0.535623943373902
 40
0.5771375821956114
 40
0.6186326922408746
 40
0.6601132530203758
 40
0.701583710261072
 40
0.7430487560308933
 40
0.7845132136057937
 40
0.8259811222184036
 40
0.8674566522760271
 40
0.9089447648187297
 40
0.9504503786323657
 40
0.9919782475168395
 40
1.0
 40
1.0
 40
1.0
 40
1.0
 10
262.6273906557308
 20
56.95596461753886
 30
0.0
 10
262.3859447030793
 20
57.01505642534881
 30
0.0
 10
261.897964713154
 20
57.13448530565561
 30
0.0
 10
261.1193103857698
 20
57.20081766036981
 30
0.0
 10
260.3076226941816
 20
57.18398614159704
 30
0.0
 10
259.467990273371
 20
57.07472628031093
 30
0.0
 10
258.6065634706441
 20
56.8755908429814
 30
0.0
 10
257.7287343457709
 20
56.58698235152359
 30
0.0
 10
256.8404817871682
 20
56.21092756086374
 30
0.0
 10
255.9477216075948
 20
55.74999135234149
 30
0.0
 10
255.0563217959997
 20
55.2074473777009
 30
0.0
 10
254.1719588071334
 20
54.58707223071373
 30
0.0
 10
253.3001186509509
 20
53.89307758668216
 30
0.0
 10
252.4460737978314
 20
53.13001602088723
 30
0.0
 10
251.6149500151682
 20
52.30279296141086
 30
0.0
 10
250.8117241432
 20
51.41664812316221
 30
0.0
 10
250.0412106261947
 20
50.47713499953317
 30
0.0
 10
249.3080411531928
 20
49.49009683984743
 30
0.0
 10
248.6166430070571
 20
48.46163904152988
 30
0.0
 10
247.9712075293533
 20
47.39809545100351
 30
0.0
 10
247.3756946227734
 20
46.30600609897857
 30
0.0
 10
246.83371402055
 20
45.19205682049309
 30
0.0
 10
246.3488471708061
 20
44.06311341873573
 30
0.0
 10
245.9233278157546
 20
42.92586510054279
 30
0.0
 10
245.5628804918474
 20
41.78792455468669
 30
0.0
 10
245.3404970841885
 20
40.95885113917928
 30
0.0
 10
245.2432995015116
 20
40.5126758208182
 30
0.0
 10
245.227563862597
 20
40.44044301925081
 30
0.0
  0
SPLINE
  5
16F
330
1F
100
AcDbEntity
  8
0
  6
Continuous
 62
     7
370
    15
100
AcDbSpline
210
0.0
220
0.0
230
1.0
 70
     8
 71
     3
 72
    20
 73
    16
 74
     0
 42
0.000000001
 43
0.00000001
 40
0.0
 40
0.0
 40
0.0
 40
0.0
 40
0.0142203051644412
 40
0.1028837716999606
 40
0.191709167755183
 40
0.2805526688487338
 40
0.3692677925376684
 40
0.4577352311235446
 40
0.5458502848526934
 40
0.6335519653454713
 40
0.7209129857959857
 40
0.8082371887481241
 40
0.8962946535623282
 40
0.9868621587903251
 40
1.0
 40
1.0
 40
1.0
 40
1.0
 10
267.5504713360546
 20
34.93943835498158
 30
0.0
 10
267.5605242857162
 20
34.96795172937679
 30
0.0
 10
267.6332572802571
 20
35.17424572009995
 30
0.0
 10
267.8087511476863
 20
35.55775339335758
 30
0.0
 10
268.0952986248147
 20
36.07175599323865
 30
0.0
 10
268.429140409396
 20
36.55312792570336
 30
0.0
 10
268.7969037632028
 20
36.98766424920998
 30
0.0
 10
269.18809832865
 20
37.36298351784945
 30
0.0
 10
269.5900208721011
 20
37.66875133989875
 30
0.0
 10
269.9897315375523
 20
37.89753769507023
 30
0.0
 10
270.3736227125611
 20
38.04432314639454
 30
0.0
 10
270.7307764916258
 20
38.11091664081844
 30
0.0
 10
271.0472082576466
 20
38.09127878120879
 30
0.0
 10
271.2527674477651
 20
38.0440872966219
 30
0.0
 10
271.3415721027439
 20
37.98026561876331
 30
0.0
 10
271.3528222600006
 20
37.97218041295432
 30
0.0
  0
LINE
  5
170
330
1F
100
AcDbEntity
  8
0
  6
Continuous
 62
     7
370
    15
100
AcDbLine
 10
267.4981377504
 20
32.2895329441
 30
0.0
 11
267.4618985397
 21
32.3527769646
 31
0.0
  0
SPLINE
  5
171
330
1F
100
AcDbEntity
  8
0
  6
Continuous
 62
     7
370
    15
100
AcDbSpline
210
0.0
220
0.0
230
1.0
 70
     8
 71
     3
 72
    10
 73
     6
 74
     0
 42
0.000000001
 43
0.00000001
 40
0.0
 40
0.0
 40
0.0
 40
0.0
 40
0.4680543378147877
 40
0.9647355213495363
 40
1.0
 40
1.0
 40
1.0
 40
1.0
 10
267.9088563144824
 20
31.89144761245814
 30
0.0
 10
267.8355003428159
 20
31.93614970041121
 30
0.0
 10
267.6843018475726
 20
32.02828791737159
 30
0.0
 10
267.5586047759508
 20
32.18318062243992
 30
0.0
 10
267.5018970945604
 20
32.28292082824606
 30
0.0
 10
267.4981377503983
 20
32.28953294412232
 30
0.0
  0
LINE
  5
172
330
1F
100
AcDbEntity
  8
0
  6
Continuous
 62
     7
370
    15
100
AcDbLine
 10
254.9186277379
 20
55.0970689223
 30
0.0
 11
235.0292547533
 21
62.2644105585
 31
0.0
  0
LINE
  5
173
330
1F
100
AcDbEntity
  8
0
  6
Continuous
 62
     7
370
    15
100
AcDbLine
 10
228.6577853419
 20
51.2275059475
 30
0.0
 11
247.6856594283
 21
35.1605263701
 31
0.0
  0
LINE
  5
174
330
1F
100
AcDbEntity
  8
0
  6
Continuous
 62
     7
370
    15
100
AcDbLine
 10
248.1800323917
 20
29.1290495561
 30
0.0
 11
251.2117527161
 21
27.3788746664
 31
0.0
  0
SPLINE
  5
175
330
1F
100
AcDbEntity
  8
0
  6
Continuous
 62
     7
370
    15
100
AcDbSpline
210
0.0
220
0.0
230
1.0
 70
     8
 71
     3
 72
    13
 73
     9
 74
     0
 42
0.000000001
 43
0.00000001
 40
0.0
 40
0.0
 40
0.0
 40
0.0
 40
0.0737735013221148
 40
0.2979980693714442
 40
0.5216271021273152
 40
0.7441065526486939
 40
0.9651709677155685
 40
1.0
 40
1.0
 40
1.0
 40
1.0
 10
245.2167072954819
 20
33.19567915920609
 30
0.0
 10
245.2441145532636
 20
33.10145444510526
 30
0.0
 10
245.3548224600233
 20
32.72084647088801
 30
0.0
 10
245.599436986514
 20
32.09721077659623
 30
0.0
 10
245.973882590708
 20
31.35231544015484
 30
0.0
 10
246.4212005160313
 20
30.68949984653961
 30
0.0
 10
246.7728911476752
 20
30.24692285524459
 30
0.0
 10
246.9919151486435
 20
30.05125831191694
 30
0.0
 10
247.0217259706077
 20
30.02462688869366
 30
0.0
  0
SPLINE
  5
176
330
1F
100
AcDbEntity
  8
0
  6
Continuous
 62
     7
370
    15
100
AcDbSpline
210
0.0
220
0.0
230
1.0
 70
     8
 71
     3
 72
    25
 73
    21
 74
     0
 42
0.000000001
 43
0.00000001
 40
0.0
 40
0.0
 40
0.0
 40
0.0
 40
0.0417133444629357
 40
0.095745955801648
 40
0.1507790166833663
 40
0.2069080436821817
 40
0.263881935363957
 40
0.3213220295400791
 40
0.3789075809115738
 40
0.4364375034427846
 40
0.4938660973713808
 40
0.551197450601301
 40
0.6084589326429781
 40
0.665687773351079
 40
0.722925255305239
 40
0.7802028742284502
 40
0.837562150351074
 40
0.8950467017984702
 40
0.9526954223409108
 40
1.0
 40
1.0
 40
1.0
 40
1.0
 10
234.8691244093418
 20
62.3077170450653
 30
0.0
 10
234.7441391493865
 20
62.34140073495656
 30
0.0
 10
234.4572565383273
 20
62.41871597124578
 30
0.0
 10
233.9720736294445
 20
62.43284044849497
 30
0.0
 10
233.4276523849905
 20
62.36905591823275
 30
0.0
 10
232.8625154689723
 20
62.21226260669103
 30
0.0
 10
232.2860158049184
 20
61.96720618550306
 30
0.0
 10
231.7074889845823
 20
61.63637835003328
 30
0.0
 10
231.1371459578814
 20
61.22604481822884
 30
0.0
 10
230.5842926657964
 20
60.7436563973112
 30
0.0
 10
230.0572736900603
 20
60.19754386372458
 30
0.0
 10
229.5635807601996
 20
59.59642080689122
 30
0.0
 10
229.1101838894641
 20
58.94950967952735
 30
0.0
 10
228.7035574993299
 20
58.26648930110704
 30
0.0
 10
228.3496138974486
 20
57.55743372195747
 30
0.0
 10
228.0537970100986
 20
56.8327468685255
 30
0.0
 10
227.8203273152112
 20
56.10265808929099
 30
0.0
 10
227.654802737799
 20
55.37829130777791
 30
0.0
 10
227.5605616822557
 20
54.71016429501092
 30
0.0
 10
227.5497786767774
 20
54.29835722039944
 30
0.0
 10
227.5449185577646
 20
54.11274742942256
 30
0.0
  0
SPLINE
  5
177
330
1F
100
AcDbEntity
  8
0
  6
Continuous
 62
     7
370
    15
100
AcDbSpline
210
0.0
220
0.0
230
1.0
 70
     8
 71
     3
 72
    13
 73
     9
 74
     0
 42
0.000000001
 43
0.00000001
 40
0.0
 40
0.0
 40
0.0
 40
0.0
 40
0.1036006027273755
 40
0.2994795789643288
 40
0.4954043829683596
 40
0.6899082311327374
 40
0.8813897955599084
 40
1.0
 40
1.0
 40
1.0
 40
1.0
 10
227.5449185577646
 20
54.11274742942256
 30
0.0
 10
227.5470175433607
 20
53.99492250708317
 30
0.0
 10
227.5530851076991
 20
53.65432450663948
 30
0.0
 10
227.6211500071999
 20
53.12079619230862
 30
0.0
 10
227.7737551721318
 20
52.5354275190375
 30
0.0
 10
228.0058191814572
 20
52.0152137944572
 30
0.0
 10
228.2636013679554
 20
51.6102079200121
 30
0.0
 10
228.4703621848176
 20
51.41531942664891
 30
0.0
 10
228.5494482658439
 20
51.34077451329868
 30
0.0
  0
LWPOLYLINE
  5
178
330
1F
100
AcDbEntity
  8
0
  6
Continuous
 62
     7
370
    15
100
AcDbPolyline
 90
       21
 70
   128
 43
0.0
 10
266.7317048072
 20
40.7903588428
 10
266.5248175963
 20
40.9547448767
 10
266.4160505528
 20
41.1479922495
 10
266.4160505528
 20
41.3511845619
 10
266.5248175963
 20
41.5444319347
 10
266.7317048072
 20
41.7088179686
 10
267.0164606238
 20
41.8282514132
 10
267.3512111628
 20
41.8910412909
 10
267.7031887092
 20
41.8910412909
 10
268.0379392482
 20
41.8282514132
 10
268.3226950648
 20
41.7088179686
 10
268.5295822757
 20
41.5444319347
 10
268.6383493192
 20
41.3511845619
 10
268.6383493192
 20
41.1479922495
 10
268.5295822757
 20
40.9547448767
 10
268.3226950648
 20
40.7903588428
 10
268.0379392482
 20
40.6709253982
 10
267.7031887092
 20
40.6081355205
 10
267.3512111628
 20
40.6081355205
 10
267.0164606238
 20
40.6709253982
 10
266.7317048072
 20
40.7903588428
  0
LWPOLYLINE
  5
179
330
1F
100
AcDbEntity
  8
0
  6
Continuous
 62
     7
370
    15
100
AcDbPolyline
 90
        7
 70
   128
 43
0.0
 10
266.6433164595
 20
40.6372657343
 10
266.4220556941
 20
40.8103352575
 10
266.2989918444
 20
41.0133651963
 10
266.2850596736
 20
41.2283154495
 10
266.3814971162
 20
41.436086744
 10
266.5797352821
 20
41.6182176883
 10
266.6431728386
 20
41.6576929501
  0
LWPOLYLINE
  5
17A
330
1F
100
AcDbEntity
  8
0
  6
Continuous
 62
     7
370
    15
100
AcDbPolyline
 90
       12
 70
   128
 43
0.0
 10
268.4112270334
 20
41.6576929501
 10
268.5329471607
 20
41.5760271746
 10
268.7070540989
 20
41.3858533593
 10
268.776325817
 20
41.1745026505
 10
268.7346072188
 20
40.9607544862
 10
268.585605185
 20
40.763601329
 10
268.3425592001
 20
40.6005611019
 10
268.0270649664
 20
40.4861206446
 10
267.6671555311
 20
40.4304484941
 10
267.294810427
 20
40.4384913651
 10
266.9431141506
 20
40.5095346133
 10
266.6433164595
 20
40.6372657343
  0
LWPOLYLINE
  5
17B
330
1F
100
AcDbEntity
  8
0
  6
Continuous
 62
     7
370
    15
100
AcDbPolyline
 90
       17
 70
   128
 43
0.0
 10
266.9968698501
 20
40.9434353638
 10
266.8342902866
 20
41.0838995734
 10
266.777199936
 20
41.2495884057
 10
266.8342902866
 20
41.4152772381
 10
266.9968698501
 20
41.5557414476
 10
267.2401873617
 20
41.6495966319
 10
267.527199936
 20
41.6825541898
 10
267.8142125103
 20
41.6495966319
 10
268.0575300219
 20
41.5557414476
 10
268.2201095854
 20
41.4152772381
 10
268.277199936
 20
41.2495884057
 10
268.2201095854
 20
41.0838995734
 10
268.0575300219
 20
40.9434353638
 10
267.8142125103
 20
40.8495801795
 10
267.527199936
 20
40.8166226216
 10
267.2401873617
 20
40.8495801795
 10
266.9968698501
 20
40.9434353638
  0
SPLINE
  5
17C
330
1F
100
AcDbEntity
  8
0
  6
Continuous
 62
     7
370
    15
100
AcDbSpline
210
0.0
220
0.0
230
1.0
 70
     8
 71
     3
 72
     9
 73
     5
 74
     0
 42
0.000000001
 43
0.00000001
 40
0.0
 40
0.0
 40
0.0
 40
0.0
 40
0.6300416123972693
 40
1.0
 40
1.0
 40
1.0
 40
1.0
 10
267.0853460203907
 20
40.89452803928855
 30
0.0
 10
267.029197577705
 20
40.93306342251302
 30
0.0
 10
266.9400789519176
 20
40.99422665755373
 30
0.0
 10
266.8598021079597
 20
41.0850426475405
 30
0.0
 10
266.8301030162072
 20
41.11864078476455
 30
0.0
  0
SPLINE
  5
17D
330
1F
100
AcDbEntity
  8
0
  6
Continuous
 62
     7
370
    15
100
AcDbSpline
210
0.0
220
0.0
230
1.0
 70
     8
 71
     3
 72
    10
 73
     6
 74
     0
 42
0.000000001
 43
0.00000001
 40
0.0
 40
0.0
 40
0.0
 40
0.0
 40
0.4391119879276947
 40
0.7513633230734872
 40
1.0
 40
1.0
 40
1.0
 40
1.0
 10
268.2242968557702
 20
41.33429995269785
 30
0.0
 10
268.1975572212619
 20
41.24173769044869
 30
0.0
 10
268.1518031056963
 20
41.0833546563554
 30
0.0
 10
268.0852909794786
 20
40.96663936430667
 30
0.0
 10
268.0521856138055
 20
40.94255212579344
 30
0.0
 10
268.0375102990685
 20
40.93187446677531
 30
0.0
  0
SPLINE
  5
17E
330
1F
100
AcDbEntity
  8
0
  6
Continuous
 62
     7
370
    15
100
AcDbSpline
210
0.0
220
0.0
230
1.0
 70
     8
 71
     3
 72
    11
 73
     7
 74
     0
 42
0.000000001
 43
0.00000001
 40
0.0
 40
0.0
 40
0.0
 40
0.0
 40
0.1849308168245048
 40
0.5198464202157129
 40
0.8714438233693179
 40
1.0
 40
1.0
 40
1.0
 40
1.0
 10
267.7139864926904
 20
41.62889585465374
 30
0.0
 10
267.7436890492612
 20
41.59582542121102
 30
0.0
 10
267.827183882463
 20
41.50286337878143
 30
0.0
 10
267.9830429332888
 20
41.37981707692729
 30
0.0
 10
268.1269851436899
 20
41.33721817523914
 30
0.0
 10
268.2037451535598
 20
41.3349162653633
 30
0.0
 10
268.2242968557702
 20
41.33429995269785
 30
0.0
  0
SPLINE
  5
17F
330
1F
100
AcDbEntity
  8
0
  6
Continuous
 62
     7
370
    15
100
AcDbSpline
210
0.0
220
0.0
230
1.0
 70
     8
 71
     3
 72
    10
 73
     6
 74
     0
 42
0.000000001
 43
0.00000001
 40
0.0
 40
0.0
 40
0.0
 40
0.0
 40
0.4391119879276965
 40
0.7513633230734765
 40
1.0
 40
1.0
 40
1.0
 40
1.0
 10
267.0168895729089
 20
41.52106627068709
 30
0.0
 10
267.1166832474696
 20
41.501550132933
 30
0.0
 10
267.287439931416
 20
41.46815612293184
 30
0.0
 10
267.5356665657797
 20
41.53313564988376
 30
0.0
 10
267.6592174724747
 20
41.59948415242974
 30
0.0
 10
267.7139864926904
 20
41.62889585465374
 30
0.0
  0
SPLINE
  5
180
330
1F
100
AcDbEntity
  8
0
  6
Continuous
 62
     7
370
    15
100
AcDbSpline
210
0.0
220
0.0
230
1.0
 70
     8
 71
     3
 72
    10
 73
     6
 74
     0
 42
0.000000001
 43
0.00000001
 40
0.0
 40
0.0
 40
0.0
 40
0.0
 40
0.4391119879276908
 40
0.7513633230734796
 40
1.0
 40
1.0
 40
1.0
 40
1.0
 10
266.8301030162072
 20
41.11864078476455
 30
0.0
 10
266.8568426507155
 20
41.14129784665093
 30
0.0
 10
266.9025967662811
 20
41.18006628335512
 30
0.0
 10
266.9691088924988
 20
41.34994736296743
 30
0.0
 10
267.0022142581718
 20
41.46850896495831
 30
0.0
 10
267.0168895729089
 20
41.52106627068709
 30
0.0
  0
LINE
  5
181
330
1F
100
AcDbEntity
  8
0
  6
Continuous
 62
     7
370
    15
100
AcDbLine
 10
267.0168895729
 20
40.932298909
 30
0.0
 11
267.0168895729
 21
41.5210662707
 31
0.0
  0
LINE
  5
182
330
1F
100
AcDbEntity
  8
0
  6
Continuous
 62
     7
370
    15
100
AcDbLine
 10
267.7139864927
 20
40.8302649614
 30
0.0
 11
267.7139864927
 21
41.6288958547
 31
0.0
  0
ARC
  5
183
330
1F
100
AcDbEntity
  8
0
  6
Continuous
 62
     7
370
    15
100
AcDbCircle
 10
269.3863679718
 20
47.0828567783
 30
0.0
 40
5.347587089896877
100
AcDbArc
 50
44.5002903952
 51
75.1436985711
  0
ARC
  5
184
330
1F
100
AcDbEntity
  8
0
  6
Continuous
 62
     7
370
    15
100
AcDbCircle
 10
258.9839311423
 20
29.063433339
 30
0.0
 40
5.343630994390174
100
AcDbArc
 50
224.5443236664
 51
255.6269378882
  0
ARC
  5
185
330
1F
100
AcDbEntity
  8
0
  6
Continuous
 62
     7
370
    15
100
AcDbCircle
 10
258.5467905873
 20
31.087994405
 30
0.0
 40
6.890847990550953
100
AcDbArc
 50
188.312493873
 51
236.7139908619
  0
SPLINE
  5
186
330
1F
100
AcDbEntity
  8
0
  6
Continuous
 62
     7
370
    15
100
AcDbSpline
210
0.0
220
0.0
230
1.0
 70
     8
 71
     3
 72
    29
 73
    25
 74
     0
 42
0.000000001
 43
0.00000001
 40
0.0
 40
0.0
 40
0.0
 40
0.0
 40
0.0226170105016674
 40
0.0451713142211041
 40
0.0676870228449807
 40
0.090188372120831
 40
0.1126996441629423
 40
0.1352450890127045
 40
0.1578488467149011
 40
0.1805348711521328
 40
0.2033268568146046
 40
0.2262481695760157
 40
0.2493217824052029
 40
0.3751991801868492
 40
0.499961424646005
 40
0.4999717960761217
 40
0.6247044141102638
 40
0.7509557879397657
 40
0.7931713871186022
 40
0.8349081045046313
 40
0.8763104515914815
 40
0.9175264576320521
 40
0.9587061619408423
 40
1.0
 40
1.0
 40
1.0
 40
1.0
 10
251.7284972099541
 20
35.24602426145126
 30
0.0
 10
251.7468624350763
 20
35.19718437165282
 30
0.0
 10
251.7835419668239
 20
35.09964000307031
 30
0.0
 10
251.835231795487
 20
34.95217739367278
 30
0.0
 10
251.8844131553081
 20
34.8042401041555
 30
0.0
 10
251.9309028252061
 20
34.65574823892653
 30
0.0
 10
251.9748129216646
 20
34.50675627279536
 30
0.0
 10
252.01617811312
 20
34.35728448421718
 30
0.0
 10
252.0550553998252
 20
34.20736438090724
 30
0.0
 10
252.0914972448487
 20
34.05702557092362
 30
0.0
 10
252.1255592259373
 20
33.90630311929503
 30
0.0
 10
252.1572962790369
 20
33.75522142255479
 30
0.0
 10
252.2304545509114
 20
33.37950021560328
 30
0.0
 10
252.3161310909507
 20
32.79072979388681
 30
0.0
 10
252.3418634527676
 20
32.28924618988038
 30
0.0
 10
252.3423006090028
 20
31.81879336463665
 30
0.0
 10
252.3168695522833
 20
31.37235083474901
 30
0.0
 10
252.2249022362452
 20
30.93632416325926
 30
0.0
 10
252.1323483422
 20
30.6681312806367
 30
0.0
 10
252.0687657183113
 20
30.52188016980222
 30
0.0
 10
251.9971202142757
 20
30.39095983795634
 30
0.0
 10
251.9168654399631
 20
30.27551350550574
 30
0.0
 10
251.828463780369
 20
30.17399150106079
 30
0.0
 10
251.7621071264571
 20
30.11899262409822
 30
0.0
 10
251.7288828845717
 20
30.09145512960579
 30
0.0
  0
LWPOLYLINE
  5
187
330
1F
100
AcDbEntity
  8
0
  6
Continuous
 62
     7
370
    15
100
AcDbPolyline
 90
       27
 70
   128
 43
0.0
 10
251.7282784688
 20
35.246150538
 10
251.9589164833
 20
36.4466468744
 10
252.2677025807
 20
37.6655912491
 10
252.6523773863
 20
38.8940646988
 10
253.1101262513
 20
40.1230785362
 10
253.637599847
 20
41.3436401202
 10
254.2309386718
 20
42.5468186544
 10
254.8858012912
 20
43.7238105334
 10
255.5973961037
 20
44.8660037585
 10
256.3605164008
 20
45.9650409512
 10
257.1695784641
 20
47.0128805037
 10
258.0186624217
 20
48.0018554194
 10
258.9015555627
 20
48.9247294115
 10
259.8117977962
 20
49.7747498509
 10
260.7427289192
 20
50.5456971747
 10
261.6875373487
 20
51.2319303946
 10
262.6393099623
 20
51.8284283717
 10
263.5910826809
 20
52.3308265563
 10
264.5358914246
 20
52.7354489224
 10
265.4668230686
 20
53.0393348657
 10
266.3770660264
 20
53.2402608658
 10
267.2599600894
 20
53.3367567558
 10
268.10904516
 20
53.3281164796
 10
268.9181085194
 20
53.2144032577
 10
269.6812302858
 20
52.9964491247
 10
270.3928267304
 20
52.6758488416
 10
270.5136843305
 20
52.6081884504
  0
SPLINE
  5
188
330
1F
100
AcDbEntity
  8
0
  6
Continuous
 62
     7
370
    15
100
AcDbSpline
210
0.0
220
0.0
230
1.0
 70
     8
 71
     3
 72
     8
 73
     4
 74
     0
 42
0.000000001
 43
0.00000001
 40
0.0
 40
0.0
 40
0.0
 40
0.0
 40
1.0
 40
1.0
 40
1.0
 40
1.0
 10
250.950342071779
 20
38.52492766495561
 30
0.0
 10
250.2572708367262
 20
38.4090660465809
 30
0.0
 10
249.5636500703299
 20
38.29430735342784
 30
0.0
 10
248.8696709095025
 20
38.18029580578968
 30
0.0
  0
SPLINE
  5
189
330
1F
100
AcDbEntity
  8
0
  6
Continuous
 62
     7
370
    15
100
AcDbSpline
210
0.0
220
0.0
230
1.0
 70
     8
 71
     3
 72
     8
 73
     4
 74
     0
 42
0.000000001
 43
0.00000001
 40
0.0
 40
0.0
 40
0.0
 40
0.0
 40
0.0012389803509652
 40
0.0012389803509652
 40
0.0012389803509652
 40
0.0012389803509652
 10
248.395934495357
 20
38.45382992654368
 30
0.0
 10
248.554007830338
 20
38.36255884609318
 30
0.0
 10
248.711926009304
 20
38.27137731899293
 30
0.0
 10
248.8696709095025
 20
38.18029580578969
 30
0.0
  0
LWPOLYLINE
  5
18A
330
1F
100
AcDbEntity
  8
0
  6
Continuous
 62
     7
370
    15
100
AcDbPolyline
 90
       28
 70
   128
 43
0.0
 10
248.3959344954
 20
38.4538299265
 10
248.702749973
 20
39.6752303136
 10
249.0859088952
 20
40.9065117981
 10
249.5425940944
 20
42.1386214102
 10
250.0694478028
 20
43.3625000913
 10
250.6625963402
 20
44.5691493005
 10
251.3176785951
 20
45.7496971763
 10
252.0298780898
 20
46.8954637665
 10
252.7939583933
 20
47.9980248478
 10
253.6043016221
 20
49.0492738642
 10
254.4549497455
 20
50.0414815307
 10
255.3396483922
 20
50.9673526624
 10
256.2518928349
 20
51.8200798122
 10
257.1849758165
 20
52.5933933228
 10
258.1320368652
 20
53.2816074238
 10
259.0861127356
 20
53.8796620361
 10
260.040188606
 20
54.3831599765
 10
260.9872496546
 20
54.7883992876
 10
261.9203326363
 20
55.0924004563
 10
262.832577079
 20
55.2929283208
 10
263.7172757256
 20
55.3885085043
 10
264.5679238491
 20
55.3784382558
 10
265.3782670778
 20
55.2627916165
 10
266.1423473813
 20
55.0424188757
 10
266.854546876
 20
54.7189403191
 10
267.509629131
 20
54.2947343157
 10
268.1027776684
 20
53.7729198306
 10
268.5341097537
 20
53.2822107902
  0
LINE
  5
18B
330
1F
100
AcDbEntity
  8
0
  6
Continuous
 62
     7
370
    15
100
AcDbLine
 10
245.364214171
 20
40.2040048163
 30
0.0
 11
248.3959344954
 21
38.4538299265
 31
0.0
  0
ARC
  5
18C
330
1F
100
AcDbEntity
  8
0
  6
Continuous
 62
     7
370
    15
100
AcDbCircle
 10
261.26247224
 20
51.7822574217
 30
0.0
 40
5.340528532815502
100
AcDbArc
 50
60.0493432146
 51
74.3504436768
  0
LINE
  5
18D
330
1F
100
AcDbEntity
  8
0
  6
Continuous
 62
     7
370
    15
100
AcDbLine
 10
251.3529374742
 20
38.4637652742
 30
0.0
 11
251.3436148233
 21
38.469147126
 31
0.0
  0
SPLINE
  5
18E
330
1F
100
AcDbEntity
  8
0
  6
Continuous
 62
     7
370
    15
100
AcDbSpline
210
0.0
220
0.0
230
1.0
 70
     8
 71
     3
 72
    13
 73
     9
 74
     0
 42
0.000000001
 43
0.00000001
 40
0.0
 40
0.0
 40
0.0
 40
0.0
 40
0.0087495529230502
 40
0.2395327472853208
 40
0.4752575969720386
 40
0.7127307848396727
 40
0.8561659539584652
 40
1.0
 40
1.0
 40
1.0
 40
1.0
 10
252.2737692210415
 20
37.67211191096304
 30
0.0
 10
252.2714160681117
 20
37.67509845549962
 30
0.0
 10
252.2069948124193
 20
37.75685980079658
 30
0.0
 10
252.0688011637228
 20
37.90229386218574
 30
0.0
 10
251.8585406425515
 20
38.10477282415879
 30
0.0
 10
251.6647071433413
 20
38.25985267717598
 30
0.0
 10
251.4953820330145
 20
38.37837313298462
 30
0.0
 10
251.4004629259554
 20
38.43527489088189
 30
0.0
 10
251.3529374742381
 20
38.46376527423422
 30
0.0
  0
SPLINE
  5
18F
330
1F
100
AcDbEntity
  8
0
  6
Continuous
 62
     7
370
    15
100
AcDbSpline
210
0.0
220
0.0
230
1.0
 70
     8
 71
     3
 72
    10
 73
     6
 74
     0
 42
0.000000001
 43
0.00000001
 40
0.0
 40
0.0
 40
0.0
 40
0.0
 40
0.5
 40
0.5
 40
1.0
 40
1.0
 40
1.0
 40
1.0
 10
251.3436148233309
 20
38.46914712604696
 30
0.0
 10
251.2938142245182
 20
38.49789639979608
 30
0.0
 10
251.2287823077742
 20
38.51865974515674
 30
0.0
 10
251.0917239474288
 20
38.53761343454452
 30
0.0
 10
251.018185107379
 20
38.53626907331671
 30
0.0
 10
250.950342071779
 20
38.52492766495561
 30
0.0
  0
LWPOLYLINE
  5
190
330
1F
100
AcDbEntity
  8
0
  6
Continuous
 62
     7
370
    15
100
AcDbPolyline
 90
       48
 70
   128
 43
0.0
 10
269.8429746444
 20
39.8310660414
 10
269.2633487679
 20
39.4516487357
 10
268.694066329
 20
38.9893893215
 10
268.1452861862
 20
38.4525368289
 10
267.6268013341
 20
37.8506714035
 10
267.1478641473
 20
37.194533348
 10
266.7170212711
 20
36.4958314616
 10
266.3419611069
 20
35.767034096
 10
266.0293766122
 20
35.0211466574
 10
265.7848458648
 20
34.2714795248
 10
265.6127325216
 20
33.531410526
 10
265.5161079493
 20
32.8141462098
 10
265.4966964156
 20
32.132486175
 10
265.5548443199
 20
31.4985946609
 10
265.6895140115
 20
30.9237834767
 10
265.8983023064
 20
30.4183101415
 10
266.1774833727
 20
29.9911948391
 10
266.5220752175
 20
29.6500594521
 10
266.9259285913
 20
29.4009915495
 10
267.381836721
 20
29.248435754
 10
267.8816639152
 20
29.1951144274
 10
268.4164907459
 20
29.24197909
 10
268.9767732156
 20
29.3881934408
 10
269.5525130702
 20
29.6311482813
 10
270.1334362185
 20
29.9665080765
 10
270.7091760732
 20
30.3882883229
 10
271.2694585428
 20
30.8889623422
 10
271.8042853735
 20
31.4595955945
 10
272.3041125678
 20
32.0900051159
 10
272.7600206975
 20
32.7689412336
 10
273.1638740713
 20
33.4842883165
 10
273.5084659161
 20
34.2232809789
 10
273.7876469823
 20
34.9727318793
 10
273.9964352773
 20
35.7192670487
 10
274.1311049688
 20
36.4495645491
 10
274.1892528731
 20
37.1505922045
 10
274.1698413395
 20
37.8098401597
 10
274.0732167672
 20
38.4155441193
 10
273.9011034239
 20
38.9568952818
 10
273.6565726765
 20
39.4242332229
 10
273.3439881818
 20
39.809218286
 10
272.9689280177
 20
40.1049804035
 10
272.5380851415
 20
40.3062416934
 10
272.0591479546
 20
40.4094106433
 10
271.5406631026
 20
40.4126462006
 10
270.9918829597
 20
40.315890627
 10
270.4226005208
 20
40.1208705278
 10
269.8429746444
 20
39.8310660414
  0
LWPOLYLINE
  5
191
330
1F
100
AcDbEntity
  8
0
  6
Continuous
 62
     7
370
    15
100
AcDbPolyline
 90
       25
 70
   128
 43
0.0
 10
269.7722639663
 20
39.9535405282
 10
269.1832132788
 20
39.5679538354
 10
268.6046742149
 20
39.0981780079
 10
268.0469708177
 20
38.5525962066
 10
267.5200553176
 20
37.9409443515
 10
267.0333305342
 20
37.2741373845
 10
266.5954820828
 20
36.5640744918
 10
266.2143233794
 20
35.8234267625
 10
265.89665621
 20
35.0654110729
 10
265.6481493529
 20
34.3035542308
 10
265.4732374187
 20
33.5514515898
 10
265.3750417151
 20
32.8225244392
 10
265.3553145468
 20
32.1297805013
 10
265.4144079455
 20
31.4855818081
 10
265.5512673881
 20
30.9014241006
 10
265.7634506147
 20
30.3877316868
 10
266.0471712105
 20
29.9536714201
 10
266.3973661747
 20
29.6069891163
 10
266.80778627
 20
29.3538713291
 10
267.27110754
 20
29.1988349516
 10
267.7790620057
 20
29.1446466115
 10
268.3225852077
 20
29.1922733012
 10
268.8919779614
 20
29.3408651211
 10
269.4770794397
 20
29.5877704468
 10
269.7729822459
 20
29.747195101
  0
LWPOLYLINE
  5
192
330
1F
100
AcDbEntity
  8
0
  6
Continuous
 62
     7
370
    15
100
AcDbPolyline
 90
       13
 70
   128
 43
0.0
 10
274.1916813487
 20
37.4014358034
 10
274.1694862174
 20
37.8994491849
 10
274.0712905138
 20
38.5150019894
 10
273.8963785796
 20
39.0651556099
 10
273.6478717225
 20
39.5400925419
 10
273.3302045531
 20
39.9313375248
 10
272.9490458497
 20
40.2319087824
 10
272.5111973983
 20
40.4364426136
 10
272.0244726149
 20
40.5412891073
 10
271.4975571148
 20
40.5445772754
 10
270.9398537176
 20
40.4462484404
 10
270.3613146537
 20
40.2480572827
 10
269.7722639663
 20
39.9535405282
  0
SPLINE
  5
193
330
1F
100
AcDbEntity
  8
0
  6
Continuous
 62
     7
370
    15
100
AcDbSpline
210
0.0
220
0.0
230
1.0
 70
    11
 71
     3
 72
    64
 73
    60
 74
     0
 42
0.000000001
 43
0.00000001
 40
0.0
 40
0.0
 40
0.0
 40
0.0
 40
0.03125
 40
0.03125
 40
0.0625
 40
0.0625
 40
0.09375
 40
0.09375
 40
0.1249999999999999
 40
0.1249999999999999
 40
0.1562499999999999
 40
0.1562499999999999
 40
0.1874999999999999
 40
0.1874999999999999
 40
0.2187499999999999
 40
0.2187499999999999
 40
0.2499999999999999
 40
0.2499999999999999
 40
0.2812499999999999
 40
0.2812499999999999
 40
0.3124999999999999
 40
0.3124999999999999
 40
0.3437499999999998
 40
0.3437499999999998
 40
0.3749999999999998
 40
0.3749999999999998
 40
0.4062499999999998
 40
0.4062499999999998
 40
0.4374999999999998
 40
0.4374999999999998
 40
0.4687499999999998
 40
0.4687499999999998
 40
0.4999999999999998
 40
0.4999999999999998
 40
0.5312499999999998
 40
0.5312499999999998
 40
0.5624999999999998
 40
0.5624999999999998
 40
0.6249999999999998
 40
0.6249999999999998
 40
0.6874999999999997
 40
0.6874999999999997
 40
0.7187499999999997
 40
0.7187499999999997
 40
0.7499999999999997
 40
0.7499999999999997
 40
0.7812499999999997
 40
0.7812499999999997
 40
0.8124999999999997
 40
0.8124999999999997
 40
0.8437499999999998
 40
0.8437499999999998
 40
0.8749999999999998
 40
0.8749999999999998
 40
0.9062499999999999
 40
0.9062499999999999
 40
0.9375
 40
0.9375
 40
1.0
 40
1.0
 40
1.0
 40
1.0
 10
267.5197984253335
 20
42.0035880399185
 30
0.0
 10
267.6132573421883
 20
41.99042138650575
 30
0.0
 10
267.7043576639606
 20
41.97253972251592
 30
0.0
 10
267.8823427693022
 20
41.92896265758289
 30
0.0
 10
267.9698177707463
 20
41.90304359518669
 30
0.0
 10
268.1377669116386
 20
41.84482580045982
 30
0.0
 10
268.2172091390436
 20
41.81295580946477
 30
0.0
 10
268.3674193340873
 20
41.74432997622998
 30
0.0
 10
268.4387924025105
 20
41.70718583868443
 30
0.0
 10
268.5687992259345
 20
41.63001909106533
 30
0.0
 10
268.627476450834
 20
41.59009632687512
 30
0.0
 10
268.7322723637452
 20
41.50740037926771
 30
0.0
 10
268.7787281692773
 20
41.46417864218418
 30
0.0
 10
268.8554675332376
 20
41.37705442379843
 30
0.0
 10
268.8860629510029
 20
41.33306124860274
 30
0.0
 10
268.9313059105769
 20
41.2434355440547
 30
0.0
 10
268.9459174956912
 20
41.19732044116148
 30
0.0
 10
268.9567675670378
 20
41.10605111468781
 30
0.0
 10
268.953334288744
 20
41.0606255644761
 30
0.0
 10
268.9275728733459
 20
40.96925848597207
 30
0.0
 10
268.9047718101074
 20
40.92297314951502
 30
0.0
 10
268.8408453239076
 20
40.83381764263774
 30
0.0
 10
268.7997172260557
 20
40.79038189012592
 30
0.0
 10
268.6975710878827
 20
40.70541447127379
 30
0.0
 10
268.6373723605013
 20
40.66477548414704
 30
0.0
 10
268.5029361765951
 20
40.58968082174293
 30
0.0
 10
268.4270221553583
 20
40.55438051333591
 30
0.0
 10
268.2658390612606
 20
40.4921787493132
 30
0.0
 10
268.1807447838568
 20
40.46513824011224
 30
0.0
 10
268.0018283056866
 20
40.41946210903518
 30
0.0
 10
267.9099899506529
 20
40.40139543458862
 30
0.0
 10
267.7248755289368
 20
40.37532105030731
 30
0.0
 10
267.6302347620791
 20
40.36721880787643
 30
0.0
 10
267.4448091936071
 20
40.36185966707385
 30
0.0
 10
267.3535587147799
 20
40.36444233101439
 30
0.0
 10
267.1737738744591
 20
40.38056257093214
 30
0.0
 10
267.0859661597974
 20
40.39414851732215
 30
0.0
 10
266.8357280842108
 20
40.45046804428364
 30
0.0
 10
266.6814464263327
 20
40.51034369109598
 30
0.0
 10
266.4224725035863
 20
40.66601200472046
 30
0.0
 10
266.3145166805609
 20
40.76381622914814
 30
0.0
 10
266.1996404730522
 20
40.92659266228161
 30
0.0
 10
266.1684935335932
 20
40.98422711418851
 30
0.0
 10
266.1228327801744
 20
41.10352083873926
 30
0.0
 10
266.1086066977434
 20
41.16409850719246
 30
0.0
 10
266.0976429196331
 20
41.28635215188032
 30
0.0
 10
266.101059442587
 20
41.3487241781019
 30
0.0
 10
266.1271289878669
 20
41.47042147717454
 30
0.0
 10
266.1494124032179
 20
41.52911428728663
 30
0.0
 10
266.2132817661016
 20
41.64126201985113
 30
0.0
 10
266.2557029363745
 20
41.6953345548783
 30
0.0
 10
266.3573848806671
 20
41.79180790883449
 30
0.0
 10
266.4166289696616
 20
41.83474438788393
 30
0.0
 10
266.5526226815531
 20
41.90941013768762
 30
0.0
 10
266.6281039504255
 20
41.9402339964695
 30
0.0
 10
266.78888640404
 20
41.9878682176417
 30
0.0
 10
266.8759032610055
 20
42.00507294086925
 30
0.0
 10
267.1427873519418
 20
42.03598024433199
 30
0.0
 10
267.3328805916242
 20
42.02992134674399
 30
0.0
 10
267.5197984253335
 20
42.0035880399185
 30
0.0
  0
LINE
  5
194
330
1F
100
AcDbEntity
  8
0
  6
Continuous
 62
     7
370
    15
100
AcDbLine
 10
272.2616740418
 20
34.8540626178
 30
0.0
 11
273.1221823421
 21
35.9245267627
 31
0.0
  0
SPLINE
  5
195
330
1F
100
AcDbEntity
  8
0
  6
Continuous
 62
     7
370
    15
100
AcDbSpline
210
0.0
220
0.0
230
1.0
 70
     8
 71
     3
 72
    22
 73
    18
 74
     0
 42
0.000000001
 43
0.00000001
 40
0.0
 40
0.0
 40
0.0
 40
0.0
 40
0.041666666666667
 40
0.0833333333333331
 40
0.1250000000000032
 40
0.166666666666668
 40
0.2083333333333339
 40
0.249999999999922
 40
0.2968749999997848
 40
0.34375
 40
0.3906249999999997
 40
0.4374999999999997
 40
0.4863049253904977
 40
0.4863049253904977
 40
0.53125
 40
0.6249999999999818
 40
0.8289791339914792
 40
0.8289791339914792
 40
0.8289791339914792
 40
0.8289791339914792
 10
273.1221823421269
 20
35.92452676265427
 30
0.0
 10
273.1565940207197
 20
35.96733456367795
 30
0.0
 10
273.2238556560214
 20
36.0591669910216
 30
0.0
 10
273.317894886291
 20
36.2152586596015
 30
0.0
 10
273.4007406855831
 20
36.3878945770549
 30
0.0
 10
273.4666830806428
 20
36.57160898593566
 30
0.0
 10
273.5099202889425
 20
36.75837842024091
 30
0.0
 10
273.5265760868368
 20
36.94645833699241
 30
0.0
 10
273.5096557125376
 20
37.12320396124716
 30
0.0
 10
273.454947359955
 20
37.27434675993494
 30
0.0
 10
273.3686966046236
 20
37.38547047065722
 30
0.0
 10
273.2549686107891
 20
37.45586952901886
 30
0.0
 10
273.1711369547039
 20
37.47576407746384
 30
0.0
 10
273.0897394176399
 20
37.48355946948426
 30
0.0
 10
272.982454532259
 20
37.49233919996186
 30
0.0
 10
272.7950033286862
 20
37.50978233287488
 30
0.0
 10
272.4868475415108
 20
37.53730137624976
 30
0.0
 10
272.2615758010132
 20
37.557366058786
 30
0.0
  0
SPLINE
  5
196
330
1F
100
AcDbEntity
  8
0
  6
Continuous
 62
     7
370
    15
100
AcDbSpline
210
0.0
220
0.0
230
1.0
 70
     8
 71
     3
 72
    22
 73
    18
 74
     0
 42
0.000000001
 43
0.00000001
 40
0.0
 40
0.0
 40
0.0
 40
0.0
 40
0.041666666666667
 40
0.0833333333333331
 40
0.1250000000000032
 40
0.166666666666668
 40
0.2083333333333339
 40
0.249999999999922
 40
0.2968749999997848
 40
0.34375
 40
0.3906249999999997
 40
0.4374999999999997
 40
0.4863049253904977
 40
0.4863049253904977
 40
0.53125
 40
0.6249999999999818
 40
0.8265829076568415
 40
0.8265829076568415
 40
0.8265829076568415
 40
0.8265829076568415
 10
266.5637669466224
 20
32.13843414407685
 30
0.0
 10
266.5301592776141
 20
32.1414391761204
 30
0.0
 10
266.4617204907597
 20
32.1557182276207
 30
0.0
 10
266.3681543849702
 20
32.20319220676321
 30
0.0
 10
266.2851818150868
 20
32.28018773850047
 30
0.0
 10
266.2192733779121
 20
32.38776363132519
 30
0.0
 10
266.1760271086633
 20
32.52461329861159
 30
0.0
 10
266.1593736919269
 20
32.69346246850081
 30
0.0
 10
266.1762938162629
 20
32.88974462961169
 30
0.0
 10
266.2310004689611
 20
33.10404995505924
 30
0.0
 10
266.3172582834075
 20
33.31476552371533
 30
0.0
 10
266.4309593764804
 20
33.51643864608648
 30
0.0
 10
266.5148602100963
 20
33.6332092199184
 30
0.0
 10
266.596281375553
 20
33.73501360265735
 30
0.0
 10
266.7035410615022
 20
33.86763048205401
 30
0.0
 10
266.8883306477384
 20
34.09818436701148
 30
0.0
 10
267.2003716964157
 20
34.48633102620679
 30
0.0
 10
267.4243750730043
 20
34.76491329978024
 30
0.0
  0
LINE
  5
197
330
1F
100
AcDbEntity
  8
0
  6
Continuous
 62
     7
370
    15
100
AcDbLine
 10
267.4242752469
 20
32.061491735
 30
0.0
 11
266.5637669466
 21
32.1384341441
 31
0.0
  0
SPLINE
  5
198
330
1F
100
AcDbEntity
  8
0
  6
Continuous
 62
     7
370
    15
100
AcDbSpline
210
0.0
220
0.0
230
1.0
 70
     8
 71
     3
 72
     8
 73
     4
 74
     0
 42
0.000000001
 43
0.00000001
 40
0.0
 40
0.0
 40
0.0
 40
0.0
 40
1.0
 40
1.0
 40
1.0
 40
1.0
 10
245.2073895634586
 20
40.29452649545247
 30
0.0
 10
245.2297683599781
 20
40.28161454400063
 30
0.0
 10
245.2839557909953
 20
40.25033699284361
 30
0.0
 10
245.3642141710197
 20
40.20400481626361
 30
0.0
  0
LINE
  5
199
330
1F
100
AcDbEntity
  8
0
  6
Continuous
 62
     7
370
    15
100
AcDbLine
 10
245.2073895635
 20
40.2945264955
 30
0.0
 11
245.2303571538
 21
40.4399119032
 31
0.0
  0
SPLINE
  5
19A
330
1F
100
AcDbEntity
  8
0
  6
Continuous
 62
     7
370
    15
100
AcDbSpline
210
0.0
220
0.0
230
1.0
 70
     8
 71
     3
 72
    11
 73
     7
 74
     0
 42
0.000000001
 43
0.00000001
 40
0.0
 40
0.0
 40
0.0
 40
0.0
 40
0.3105157409986116
 40
0.5915933465014848
 40
0.8435752121776465
 40
1.0
 40
1.0
 40
1.0
 40
1.0
 10
251.8369225592378
 20
30.8175838683663
 30
0.0
 10
251.9279219176903
 20
30.90905329995406
 30
0.0
 10
252.1012935310688
 20
31.08332049478795
 30
0.0
 10
252.2515830160406
 20
31.50184761719929
 30
0.0
 10
252.3256619488739
 20
31.9129828166311
 30
0.0
 10
252.3332030925399
 20
32.20772057429043
 30
0.0
 10
252.336091443618
 20
32.32060877238944
 30
0.0
  0
SPLINE
  5
19B
330
1F
100
AcDbEntity
  8
0
  6
Continuous
 62
     7
370
    15
100
AcDbSpline
210
0.0
220
0.0
230
1.0
 70
     8
 71
     3
 72
     9
 73
     5
 74
     0
 42
0.000000001
 43
0.00000001
 40
0.0
 40
0.0
 40
0.0
 40
0.0
 40
0.5067661695379747
 40
1.0
 40
1.0
 40
1.0
 40
1.0
 10
251.7282010947654
 20
30.09095310182214
 30
0.0
 10
251.7464701120768
 20
30.21340745565214
 30
0.0
 10
251.7825203032884
 20
30.45504622554406
 30
0.0
 10
251.8192010427252
 20
30.69719662367324
 30
0.0
 10
251.8372932243418
 20
30.81663339209039
 30
0.0
  0
SPLINE
  5
19C
330
1F
100
AcDbEntity
  8
0
  6
Continuous
 62
     7
370
    15
100
AcDbSpline
210
0.0
220
0.0
230
1.0
 70
     8
 71
     3
 72
    10
 73
     6
 74
     0
 42
0.000000001
 43
0.00000001
 40
0.0
 40
0.0
 40
0.0
 40
0.0
 40
0.4807908150150776
 40
0.9757817590329644
 40
0.9999999999999999
 40
0.9999999999999999
 40
0.9999999999999999
 40
0.9999999999999999
 10
251.3529374742381
 20
31.89061173855394
 30
0.0
 10
251.5027284211383
 20
31.8104413631919
 30
0.0
 10
251.8067343819197
 20
31.64773278505352
 30
0.0
 10
252.0963498261183
 20
31.53623135433205
 30
0.0
 10
252.230688256797
 20
31.50799973685277
 30
0.0
 10
252.2369544026577
 20
31.50668288781625
 30
0.0
  0
SPLINE
  5
19D
330
1F
100
AcDbEntity
  8
0
  6
Continuous
 62
     7
370
    15
100
AcDbSpline
210
0.0
220
0.0
230
1.0
 70
     8
 71
     3
 72
    11
 73
     7
 74
     0
 42
0.000000001
 43
0.00000001
 40
0.0
 40
0.0
 40
0.0
 40
0.0
 40
0.3181896031218406
 40
0.636383594612707
 40
0.954614030288116
 40
1.0
 40
1.0
 40
1.0
 40
1.0
 10
266.4930562685033
 20
32.40232437811335
 30
0.0
 10
266.4341806767819
 20
32.41679792981231
 30
0.0
 10
266.3164286813455
 20
32.44574523282484
 30
0.0
 10
266.2077978468283
 20
32.6065923364993
 30
0.0
 10
266.1561247434255
 20
32.75888890321191
 30
0.0
 10
266.1682053608602
 20
32.85922335825499
 30
0.0
 10
266.1697132425973
 20
32.87174693109212
 30
0.0
  0
SPLINE
  5
19E
330
1F
100
AcDbEntity
  8
0
  6
Continuous
 62
     7
370
    15
100
AcDbSpline
210
0.0
220
0.0
230
1.0
 70
     8
 71
     3
 72
    13
 73
     9
 74
     0
 42
0.000000001
 43
0.00000001
 40
0.0
 40
0.0
 40
0.0
 40
0.0
 40
0.0222195897384466
 40
0.1665527556661132
 40
0.4104150105224931
 40
0.6345884147609905
 40
0.8641358233131591
 40
1.0
 40
1.0
 40
1.0
 40
1.0
 10
267.5485886243406
 20
34.94009001262527
 30
0.0
 10
267.5485517180595
 20
34.93961094388108
 30
0.0
 10
267.5482750773612
 20
34.93601995860919
 30
0.0
 10
267.5365152967484
 20
34.91559277384994
 30
0.0
 10
267.5139462993259
 20
34.8814196370514
 30
0.0
 10
267.4809612805502
 20
34.83687021074983
 30
0.0
 10
267.4510372312856
 20
34.7982383476315
 30
0.0
 10
267.4316014989732
 20
34.7739456139938
 30
0.0
 10
267.4243750730043
 20
34.76491329978024
 30
0.0
  0
SPLINE
  5
19F
330
1F
100
AcDbEntity
  8
0
  6
Continuous
 62
     7
370
    15
100
AcDbSpline
210
0.0
220
0.0
230
1.0
 70
     8
 71
     3
 72
    16
 73
    12
 74
     0
 42
0.000000001
 43
0.00000001
 40
0.0
 40
0.0
 40
0.0
 40
0.0
 40
0.2499999999999956
 40
0.2499999999999956
 40
0.4999999999999912
 40
0.4999999999999912
 40
0.6249999999999932
 40
0.6249999999999932
 40
0.7499999999999952
 40
0.7499999999999952
 40
1.0
 40
1.0
 40
1.0
 40
1.0
 10
272.261575801013
 20
37.55736605878602
 30
0.0
 10
272.2373676743179
 20
37.55952224746667
 30
0.0
 10
272.2110373329155
 20
37.56050571965944
 30
0.0
 10
272.1506365562025
 20
37.55819843203989
 30
0.0
 10
272.1152537807096
 20
37.55484353508835
 30
0.0
 10
272.0582853766413
 20
37.54227510758696
 30
0.0
 10
272.0385435011083
 20
37.53665908412886
 30
0.0
 10
272.0030025783752
 20
37.52357993646943
 30
0.0
 10
271.9876205493285
 20
37.5163478461001
 30
0.0
 10
271.949472131863
 20
37.49502184872254
 30
0.0
 10
271.9333102733411
 20
37.48113343427048
 30
0.0
 10
271.9210008655079
 20
37.46807326502196
 30
0.0
  0
SPLINE
  5
1A0
330
1F
100
AcDbEntity
  8
0
  6
Continuous
 62
     7
370
    15
100
AcDbSpline
210
0.0
220
0.0
230
1.0
 70
     8
 71
     3
 72
     8
 73
     4
 74
     0
 42
0.000000001
 43
0.00000001
 40
0.0
 40
0.0
 40
0.0
 40
0.0
 40
1.0
 40
1.0
 40
1.0
 40
1.0
 10
271.921000865512
 20
37.46807326501653
 30
0.0
 10
271.8885279831468
 20
37.48113562728216
 30
0.0
 10
271.8562571905083
 20
37.49602801966671
 30
0.0
 10
271.8309798745536
 20
37.51062030356188
 30
0.0
  0
LINE
  5
1A1
330
1F
100
AcDbEntity
  8
0
  6
Continuous
 62
     7
370
    15
100
AcDbLine
 10
271.3807003921
 20
37.9629722834
 30
0.0
 11
271.350271894
 21
37.979937815
 31
0.0
  0
LINE
  5
1A2
330
1F
100
AcDbEntity
  8
0
  6
Continuous
 62
     7
370
    15
100
AcDbLine
 10
270.8229798785
 20
38.0925263151
 30
0.0
 11
271.8309798746
 21
37.5106203036
 31
0.0
  0
ARC
  5
1A3
330
1F
100
AcDbEntity
  8
0
  6
Continuous
 62
     7
370
    15
100
AcDbCircle
 10
265.6011260404
 20
37.6804366524
 30
0.0
 40
4.274799352338897
100
AcDbArc
 50
339.4381576473
 51
1.8508970724
  0
LINE
  5
1A4
330
1F
100
AcDbEntity
  8
0
  6
Continuous
 62
     7
370
    15
100
AcDbLine
 10
269.6035935138
 20
36.1790494182
 30
0.0
 11
271.8309798746
 21
34.8932066421
 31
0.0
  0
LINE
  5
1A5
330
1F
100
AcDbEntity
  8
0
  6
Continuous
 62
     7
370
    15
100
AcDbLine
 10
267.8809848279
 20
31.9006302468
 30
0.0
 11
267.9113925968
 21
31.8836758709
 31
0.0
  0
LINE
  5
1A6
330
1F
100
AcDbEntity
  8
0
  6
Continuous
 62
     7
370
    15
100
AcDbLine
 10
266.2267138325
 20
33.0480317325
 30
0.0
 11
267.4307053455
 21
32.3529822266
 31
0.0
  0
LINE
  5
1A7
330
1F
100
AcDbEntity
  8
0
  6
Continuous
 62
     7
370
    15
100
AcDbLine
 10
245.640822811
 20
40.0442701373
 30
0.0
 11
245.2073895635
 21
40.2945264955
 31
0.0
  0
LINE
  5
1A8
330
1F
100
AcDbEntity
  8
0
  6
Continuous
 62
     7
370
    15
100
AcDbLine
 10
248.8696709095
 20
38.1802958058
 30
0.0
 11
245.640822811
 21
40.0442701373
 31
0.0
  0
SPLINE
  5
1A9
330
1F
100
AcDbEntity
  8
0
  6
Continuous
 62
     7
370
    15
100
AcDbSpline
210
0.0
220
0.0
230
1.0
 70
     8
 71
     3
 72
    11
 73
     7
 74
     0
 42
0.000000001
 43
0.00000001
 40
0.0
 40
0.0
 40
0.0
 40
0.0
 40
0.2167959017936504
 40
0.5260805092056551
 40
0.8354028471249841
 40
1.0
 40
1.0
 40
1.0
 40
1.0
 10
247.745887732295
 20
36.03044419146774
 30
0.0
 10
247.7411688423333
 20
36.23683658629813
 30
0.0
 10
247.7297179061603
 20
36.73767177400336
 30
0.0
 10
247.6645657668331
 20
37.55644516095365
 30
0.0
 10
247.6238197955578
 20
38.31581949290801
 30
0.0
 10
247.6450636985082
 20
38.74835086415951
 30
0.0
 10
247.6524419262652
 20
38.89857349399436
 30
0.0
  0
LINE
  5
1AA
330
1F
100
AcDbEntity
  8
0
  6
Continuous
 62
     7
370
    15
100
AcDbLine
 10
247.7458877323
 20
35.6100888361
 30
0.0
 11
247.7458877323
 21
36.0304441915
 31
0.0
  0
LINE
  5
1AB
330
1F
100
AcDbEntity
  8
0
  6
Continuous
 62
     7
370
    15
100
AcDbLine
 10
267.4821057108
 20
32.313888454
 30
0.0
 11
266.4930562685
 21
32.4023243781
 31
0.0
  0
SPLINE
  5
1AC
330
1F
100
AcDbEntity
  8
0
  6
Continuous
 62
     7
370
    15
100
AcDbSpline
210
0.0
220
0.0
230
1.0
 70
     8
 71
     3
 72
    16
 73
    12
 74
     0
 42
0.000000001
 43
0.00000001
 40
0.0
 40
0.0
 40
0.0
 40
0.0
 40
0.2500000000000029
 40
0.2500000000000029
 40
0.5000000000000059
 40
0.5000000000000059
 40
0.6250000000000007
 40
0.6250000000000007
 40
0.7499999999999954
 40
0.7499999999999954
 40
1.0
 40
1.0
 40
1.0
 40
1.0
 10
267.4242752469357
 20
32.06149173502315
 30
0.0
 10
267.4483280693195
 20
32.05934105024988
 30
0.0
 10
267.4718292494275
 20
32.06020960709302
 30
0.0
 10
267.5140787660389
 20
32.07304319770017
 30
0.0
 10
267.5340365436108
 20
32.0853359466057
 30
0.0
 10
267.5492118459741
 20
32.12179764518195
 30
0.0
 10
267.5515232284263
 20
32.13740854582132
 30
0.0
 10
267.5486842446589
 20
32.17255547053663
 30
0.0
 10
267.543710232696
 20
32.19162954951895
 30
0.0
 10
267.5233453356244
 20
32.24678295217644
 30
0.0
 10
267.5032115228231
 20
32.28161439799446
 30
0.0
 10
267.4821057107599
 20
32.31388845398238
 30
0.0
  0
SPLINE
  5
1AD
330
1F
100
AcDbEntity
  8
0
  6
Continuous
 62
     7
370
    15
100
AcDbSpline
210
0.0
220
0.0
230
1.0
 70
     8
 71
     3
 72
     8
 73
     4
 74
     0
 42
0.000000001
 43
0.00000001
 40
0.0
 40
0.0
 40
0.0
 40
0.0
 40
1.0
 40
1.0
 40
1.0
 40
1.0
 10
267.4307053454833
 20
32.35298222661834
 30
0.0
 10
267.4560572743525
 20
32.33834686960446
 30
0.0
 10
267.4728620735808
 20
32.32495266850972
 30
0.0
 10
267.4821057107604
 20
32.31388845398218
 30
0.0
  0
SPLINE
  5
1AE
330
1F
100
AcDbEntity
  8
0
  6
Continuous
 62
     7
370
    15
100
AcDbSpline
210
0.0
220
0.0
230
1.0
 70
     8
 71
     3
 72
     8
 73
     4
 74
     0
 42
0.000000001
 43
0.00000001
 40
0.0
 40
0.0
 40
0.0
 40
0.0
 40
1.0
 40
1.0
 40
1.0
 40
1.0
 10
271.8309798745541
 20
34.89320664205391
 30
0.0
 10
271.8563318034232
 20
34.87857128504012
 30
0.0
 10
271.8882757872257
 20
34.87391674917113
 30
0.0
 10
271.921000865515
 20
34.87640808205835
 30
0.0
  0
SPLINE
  5
1AF
330
1F
100
AcDbEntity
  8
0
  6
Continuous
 62
     7
370
    15
100
AcDbSpline
210
0.0
220
0.0
230
1.0
 70
     8
 71
     3
 72
    16
 73
    12
 74
     0
 42
0.000000001
 43
0.00000001
 40
0.0
 40
0.0
 40
0.0
 40
0.0
 40
0.2500000000000163
 40
0.2500000000000163
 40
0.3750000000000164
 40
0.3750000000000164
 40
0.5000000000000167
 40
0.5000000000000167
 40
0.7500000000000083
 40
0.7500000000000083
 40
1.0
 40
1.0
 40
1.0
 40
1.0
 10
271.9210008655148
 20
34.87640808205894
 30
0.0
 10
271.9332200840185
 20
34.83916236518868
 30
0.0
 10
271.9492887886339
 20
34.80205145743848
 30
0.0
 10
271.9875838767951
 20
34.75704448592926
 30
0.0
 10
272.0030409721492
 20
34.74407664811566
 30
0.0
 10
272.0383488019311
 20
34.7277942903699
 30
0.0
 10
272.0579321637764
 20
34.724797671857
 30
0.0
 10
272.1152329392472
 20
34.72983143181857
 30
0.0
 10
272.1503032365995
 20
34.74947497756878
 30
0.0
 10
272.2108239951511
 20
34.79595773754305
 30
0.0
 10
272.2376490992124
 20
34.82417581756817
 30
0.0
 10
272.2616740418137
 20
34.85406261776334
 30
0.0
  0
LINE
  5
1B0
330
1F
100
AcDbEntity
  8
0
  6
Continuous
 62
     7
370
    15
100
AcDbLine
 10
247.1360081335
 20
38.8454576511
 30
0.0
 11
247.1411960282
 21
39.1781231154
 31
0.0
  0
ARC
  5
1B1
330
1F
100
AcDbEntity
  8
0
  6
Continuous
 62
     7
370
    15
100
AcDbCircle
 10
254.7171617998
 20
38.6764902914
 30
0.0
 40
7.583036389278549
100
AcDbArc
 50
178.7232135802
 51
203.1724163449
  0
LWPOLYLINE
  5
1B2
330
1F
100
AcDbEntity
  8
0
  6
Continuous
 62
     7
370
    15
100
AcDbPolyline
 90
        3
 70
   128
 43
0.0
 10
234.8921713413
 20
62.3088444215
 10
234.9314583018
 20
62.2971036008
 10
235.0292547533
 20
62.2644105585
  0
LWPOLYLINE
  5
1B3
330
1F
100
AcDbEntity
  8
0
  6
Continuous
 62
     7
370
    15
100
AcDbPolyline
 90
        3
 70
   128
 43
0.0
 10
228.6577853419
 20
51.2275059475
 10
228.5801194652
 20
51.296262072
 10
228.556833197
 20
51.3181728757
  0
SPLINE
  5
1B4
330
1F
100
AcDbEntity
  8
0
  6
Continuous
 62
     7
370
    15
100
AcDbSpline
210
0.0
220
0.0
230
1.0
 70
     8
 71
     3
 72
    22
 73
    18
 74
     0
 42
0.000000001
 43
0.00000001
 40
0.0
 40
0.0
 40
0.0
 40
0.0
 40
0.125
 40
0.125
 40
0.25
 40
0.25
 40
0.375
 40
0.375
 40
0.5
 40
0.5
 40
0.625
 40
0.625
 40
0.75
 40
0.75
 40
0.875
 40
0.875
 40
1.0
 40
1.0
 40
1.0
 40
1.0
 10
272.9100503077713
 20
36.10677618550888
 30
0.0
 10
272.958599286463
 20
36.16717065345486
 30
0.0
 10
273.0024934588523
 20
36.23137616201175
 30
0.0
 10
273.0800869219224
 20
36.36784605444625
 30
0.0
 10
273.11364580583
 20
36.4398083412478
 30
0.0
 10
273.1668483926566
 20
36.58344402460006
 30
0.0
 10
273.1871399366313
 20
36.65715296063165
 30
0.0
 10
273.2131574481357
 20
36.7986628666321
 30
0.0
 10
273.2192451800094
 20
36.86766580924462
 30
0.0
 10
273.2176173525786
 20
36.99737068673247
 30
0.0
 10
273.2100918084577
 20
37.05667261281679
 30
0.0
 10
273.1820429055073
 20
37.16396294757685
 30
0.0
 10
273.1616360419229
 20
37.21072868997958
 30
0.0
 10
273.1092944433515
 20
37.28784173562049
 30
0.0
 10
273.0767401448513
 20
37.31874623842127
 30
0.0
 10
273.0017967607283
 20
37.36211223009482
 30
0.0
 10
272.9586044681606
 20
37.37529586983662
 30
0.0
 10
272.9100503037394
 20
37.37963734321217
 30
0.0
  0
LINE
  5
1B5
330
1F
100
AcDbEntity
  8
0
  6
Continuous
 62
     7
370
    15
100
AcDbLine
 10
272.9100503037
 20
37.3796373432
 30
0.0
 11
271.9210008655
 21
37.468073265
 31
0.0
  0
LINE
  5
1B6
330
1F
100
AcDbEntity
  8
0
  6
Continuous
 62
     7
370
    15
100
AcDbLine
 10
251.3436148233
 20
31.8959935904
 30
0.0
 11
251.3529374742
 21
31.8906117386
 31
0.0
  0
ARC
  5
1B7
330
1F
100
AcDbEntity
  8
0
  6
Continuous
 62
     7
370
    15
100
AcDbCircle
 10
254.1708305894
 20
32.5428945763
 30
0.0
 40
5.91964222038575
100
AcDbArc
 50
192.6964501329
 51
260.4756565155
  0
SPLINE
  5
1B8
330
1F
100
AcDbEntity
  8
0
  6
Continuous
 62
     7
370
    15
100
AcDbSpline
210
0.0
220
0.0
230
1.0
 70
     8
 71
     3
 72
     8
 73
     4
 74
     0
 42
0.000000001
 43
0.00000001
 40
0.0
 40
0.0
 40
0.0
 40
0.0
 40
0.0012389803509652
 40
0.0012389803509652
 40
0.0012389803509652
 40
0.0012389803509652
 10
248.8696709095025
 20
31.6071422701094
 30
0.0
 10
248.7119260093041
 20
31.48506581957468
 30
0.0
 10
248.554007830338
 20
31.36330851657386
 30
0.0
 10
248.395934495357
 20
31.24184149502943
 30
0.0
  0
SPLINE
  5
1B9
330
1F
100
AcDbEntity
  8
0
  6
Continuous
 62
     7
370
    15
100
AcDbSpline
210
0.0
220
0.0
230
1.0
 70
     8
 71
     3
 72
     8
 73
     4
 74
     0
 42
0.000000001
 43
0.00000001
 40
0.0
 40
0.0
 40
0.0
 40
0.0
 40
1.0
 40
1.0
 40
1.0
 40
1.0
 10
248.8696709095025
 20
31.6071422701094
 30
0.0
 10
249.5636514924441
 20
31.72115405138201
 30
0.0
 10
250.2572845532061
 20
31.83591480390238
 30
0.0
 10
250.950342071779
 20
31.95177412927533
 30
0.0
  0
SPLINE
  5
1BA
330
1F
100
AcDbEntity
  8
0
  6
Continuous
 62
     7
370
    15
100
AcDbSpline
210
0.0
220
0.0
230
1.0
 70
     8
 71
     3
 72
    12
 73
     8
 74
     0
 42
0.000000001
 43
0.00000001
 40
0.0
 40
0.0
 40
0.0
 40
0.0
 40
0.2500000000000016
 40
0.2500000000000016
 40
0.5000000000000032
 40
0.5000000000000032
 40
1.0
 40
1.0
 40
1.0
 40
1.0
 10
250.950342071779
 20
31.95177412927533
 30
0.0
 10
250.9841305877031
 20
31.95742259935957
 30
0.0
 10
251.019702363772
 20
31.96068306287501
 30
0.0
 10
251.0902846101645
 20
31.96182065242314
 30
0.0
 10
251.1253075686134
 20
31.95980403596511
 30
0.0
 10
251.2295128638784
 20
31.94542829862553
 30
0.0
 10
251.293223295818
 20
31.92508399999312
 30
0.0
 10
251.3436148233309
 20
31.89599359036667
 30
0.0
  0
LINE
  5
1BB
330
1F
100
AcDbEntity
  8
0
  6
Continuous
 62
     7
370
    15
100
AcDbLine
 10
245.640822811
 20
33.4711166016
 30
0.0
 11
248.8696709095
 21
31.6071422701
 31
0.0
  0
LINE
  5
1BC
330
1F
100
AcDbEntity
  8
0
  6
Continuous
 62
     7
370
    15
100
AcDbLine
 10
245.640822811
 20
33.4711166016
 30
0.0
 11
247.5337556979
 21
34.563883497
 31
0.0
  0
LINE
  5
1BD
330
1F
100
AcDbEntity
  8
0
  6
Continuous
 62
     7
370
    15
100
AcDbLine
 10
245.2073895635
 20
33.2208602434
 30
0.0
 11
245.640822811
 21
33.4711166016
 31
0.0
  0
LINE
  5
1BE
330
1F
100
AcDbEntity
  8
0
  6
Continuous
 62
     7
370
    15
100
AcDbLine
 10
248.3959344954
 20
31.241841495
 30
0.0
 11
245.364214171
 21
32.9920163847
 31
0.0
  0
SPLINE
  5
1BF
330
1F
100
AcDbEntity
  8
0
  6
Continuous
 62
     7
370
    15
100
AcDbSpline
210
0.0
220
0.0
230
1.0
 70
     8
 71
     3
 72
     8
 73
     4
 74
     0
 42
0.000000001
 43
0.00000001
 40
0.0
 40
0.0
 40
0.0
 40
0.0
 40
1.0
 40
1.0
 40
1.0
 40
1.0
 10
245.3642141710197
 20
32.99201638474936
 30
0.0
 10
245.284189371505
 20
33.03821371817133
 30
0.0
 10
245.2297125741231
 20
33.12140124053602
 30
0.0
 10
245.2073895634586
 20
33.22086024337715
 30
0.0
  0
LINE
  5
1C0
330
1F
100
AcDbEntity
  8
0
  6
Continuous
 62
     7
370
    15
100
AcDbLine
 10
271.9210008655
 20
34.8764080821
 30
0.0
 11
272.9100503078
 21
36.1067761855
 31
0.0
  0
ARC
  5
1C1
330
1F
100
AcDbEntity
  8
0
  6
Continuous
 62
     7
370
    15
100
AcDbCircle
 10
269.4520496029
 20
38.3706289243
 30
0.0
 40
1.491207826004886
100
AcDbArc
 50
321.0621655031
 51
347.3474134538
  0
LINE
  5
1C2
330
1F
100
AcDbEntity
  8
0
  6
Continuous
 62
     7
370
    15
100
AcDbLine
 10
269.6035935138
 20
36.1790494182
 30
0.0
 11
270.6119532689
 21
37.4334393672
 31
0.0
  0
LWPOLYLINE
  5
1C3
330
1F
100
AcDbEntity
  8
0
  6
Continuous
 62
     7
370
    15
100
AcDbPolyline
 90
        3
 70
   128
 43
0.0
 10
248.1800323917
 20
29.1290495561
 10
247.6308760159
 20
29.4937290718
 10
247.0851015393
 20
29.9680032819
  0
ELLIPSE
  5
1C4
330
1F
100
AcDbEntity
  8
0
  6
Continuous
 62
     7
370
    15
100
AcDbEllipse
 10
247.2994411229
 20
35.3523830715
 30
0.0
 11
-6.005970382716441E-5
 21
0.8534489614827264
 31
0.0
210
0.0
220
0.0
230
1.0
 40
0.7174342186
 41
3.534193645557504
 42
5.104989972352385
  0
ELLIPSE
  5
1C5
330
1F
100
AcDbEntity
  8
0
  6
Continuous
 62
     7
370
    15
100
AcDbEllipse
 10
247.1802023073
 20
35.2835255913
 30
0.0
 11
0.2600075789209484
 21
0.9705436209909308
 31
0.0
210
0.0
220
0.0
230
1.0
 40
0.5176380889
 41
3.619174351347763
 42
5.189970678142629
  0
LWPOLYLINE
  5
1C6
330
1F
100
AcDbEntity
  8
0
  6
Continuous
 62
     7
370
     0
100
AcDbPolyline
 90
       44
 70
   128
 43
0.0
 10
253.7562953724
 20
31.645758615
 10
253.7951426167
 20
32.7242090027
 10
253.9114044542
 20
33.8397412043
 10
254.1042432159
 20
34.9843177845
 10
254.3722694939
 20
36.149692043
 10
254.7135521528
 20
37.3274674314
 10
255.1256322433
 20
38.5091580512
 10
255.6055407188
 20
39.6862497944
 10
256.1498198277
 20
40.8502616878
 10
256.7545480267
 20
41.9928069993
 10
257.4153682352
 20
43.1056536636
 10
258.1275192284
 20
44.180783595
 10
258.8858699421
 20
45.2104504578
 10
259.6849564421
 20
46.1872354785
 10
260.5190212918
 20
47.1041008987
 10
261.3820550348
 20
47.9544406822
 10
262.2678394933
 20
48.7321281111
 10
263.1699925699
 20
49.4315599299
 10
264.0820142311
 20
50.0476967161
 10
264.9973333398
 20
50.5760991902
 10
265.909355001
 20
51.0129602003
 10
266.8115080776
 20
51.3551321526
 10
267.6972925361
 20
51.6001496906
 10
268.5603262792
 20
51.7462474571
 10
269.3943911288
 20
51.7923728144
 10
270.1934776288
 20
51.7381934284
 10
270.9518283425
 20
51.5840996626
 10
271.6639793358
 20
51.3312017662
 10
272.3247995442
 20
50.9813218744
 10
272.9295277432
 20
50.5369808798
 10
273.4738068522
 20
50.0013802694
 10
273.9537153277
 20
49.378379058
 10
274.3657954181
 20
48.6724659834
 10
274.7070780771
 20
47.8887271657
 10
274.9751043551
 20
47.0328094608
 10
275.1679431167
 20
46.1108797756
 10
275.2842049543
 20
45.1295806345
 10
275.3230521986
 20
44.0959823203
 10
275.2842049543
 20
43.0175319326
 10
275.1679431167
 20
41.901999731
 10
274.9751043551
 20
40.7574231508
 10
274.7070780771
 20
39.5920488923
 10
274.3657954181
 20
38.4142735039
 10
274.1745179902
 20
37.840861801
  0
LWPOLYLINE
  5
1C7
330
1F
100
AcDbEntity
  8
0
  6
Continuous
 62
     7
370
     0
100
AcDbPolyline
 90
       25
 70
   128
 43
0.0
 10
269.383865714
 20
29.5423094917
 10
268.5603262792
 20
28.6376400366
 10
267.6972925361
 20
27.7873002531
 10
266.8115080776
 20
27.0096128242
 10
265.909355001
 20
26.3101810054
 10
264.9973333398
 20
25.6940442192
 10
264.0820142311
 20
25.1656417451
 10
263.1699925699
 20
24.728780735
 10
262.2678394933
 20
24.3866087827
 10
261.3820550348
 20
24.1415912448
 10
260.5190212918
 20
23.9954934782
 10
259.6849564421
 20
23.9493681209
 10
258.8858699421
 20
24.0035475069
 10
258.1275192284
 20
24.1576412727
 10
257.4153682352
 20
24.4105391691
 10
256.7545480267
 20
24.7604190609
 10
256.1498198277
 20
25.2047600555
 10
255.6055407188
 20
25.7403606659
 10
255.1256322433
 20
26.3633618773
 10
254.7135521528
 20
27.0692749519
 10
254.3722694939
 20
27.8530137696
 10
254.1042432159
 20
28.7089314745
 10
253.9114044542
 20
29.6308611597
 10
253.7951426167
 20
30.6121603008
 10
253.7562953724
 20
31.645758615
  0
LWPOLYLINE
  5
1C8
330
1F
100
AcDbEntity
  8
0
  6
Continuous
 62
     7
370
     0
100
AcDbPolyline
 90
       28
 70
   128
 43
0.0
 10
253.0491885912
 20
31.645758615
 10
253.0882473786
 20
32.7444471656
 10
253.2051497713
 20
33.8805255213
 10
253.3990757832
 20
35.0460249089
 10
253.6686651625
 20
36.2327701876
 10
254.0120269335
 20
37.4324371918
 10
254.4267526601
 20
38.6366111194
 10
254.9099333393
 20
39.8368455557
 10
255.4581798056
 20
41.0247217184
 10
256.0676465043
 20
42.1919075096
 10
256.7340584641
 20
43.3302159598
 10
257.4527412841
 20
44.4316626529
 10
258.2186539206
 20
45.4885217319
 10
259.0264240468
 20
46.4933800896
 10
259.8703857357
 20
47.4391893666
 10
260.7446192023
 20
48.3193153905
 10
261.6429923271
 20
49.1275847095
 10
262.5592036681
 20
49.8583278951
 10
263.486826661
 20
50.5064193089
 10
264.4193546969
 20
51.0673130553
 10
265.3502467618
 20
51.5370748677
 10
266.2729733167
 20
51.9124097044
 10
267.1810620977
 20
52.1906848613
 10
268.0681435146
 20
52.3699484381
 10
268.9279953285
 20
52.4489430296
 10
269.7545862967
 20
52.4271145454
 10
270.5421184776
 20
52.3046160968
 10
270.7574661943
 20
52.2516842419
  0
ARC
  5
1C9
330
1F
100
AcDbEntity
  8
0
  6
Continuous
 62
     7
370
     0
100
AcDbCircle
 10
261.8216157819
 20
31.069751122
 30
0.0
 40
8.791317503545887
100
AcDbArc
 50
176.2432869865
 51
220.8881985468
  0
LWPOLYLINE
  5
1CA
330
1F
100
AcDbEntity
  8
0
  6
Continuous
 62
     7
370
     0
100
AcDbPolyline
 90
       28
 70
   128
 43
0.0
 10
258.7060428407
 20
34.5031870064
 10
258.7454877662
 20
35.3080135466
 10
258.8632891178
 20
36.1474983301
 10
259.0578538343
 20
37.0102887654
 10
259.3265507616
 20
37.8847170919
 10
259.6657462348
 20
38.7589581666
 10
260.070853217
 20
39.6211893786
 10
260.5363933312
 20
40.45975053
 10
261.056070946
 20
41.2633015197
 10
261.6228583131
 20
42.0209756992
 10
262.2290906057
 20
42.7225268248
 10
262.8665695721
 20
43.3584676211
 10
263.5266744027
 20
43.9201980798
 10
264.2004783123
 20
44.40012176
 10
264.8788692587
 20
44.7917485174
 10
265.5526731682
 20
45.0897822718
 10
266.2127779989
 20
45.2901926279
 10
266.8502569652
 20
45.3902693796
 10
267.4564892579
 20
45.3886591604
 10
268.023276625
 20
45.2853837458
 10
268.5429542397
 20
45.0818397586
 10
269.0084943539
 20
44.780779782
 10
269.4136013361
 20
44.3862751358
 10
269.7527968093
 20
43.9036608185
 10
270.0214937367
 20
43.3394633608
 10
270.2160584532
 20
42.7013125656
 10
270.3338598048
 20
41.9978383275
 10
270.3572210298
 20
41.7291548109
  0
LWPOLYLINE
  5
1CB
330
1F
100
AcDbEntity
  8
0
  6
Continuous
 62
     7
370
     0
100
AcDbPolyline
 90
       14
 70
   128
 43
0.0
 10
264.1077289508
 20
30.9035440311
 10
263.5266744027
 20
30.6519586635
 10
262.8665695721
 20
30.4515483074
 10
262.2290906057
 20
30.3514715557
 10
261.6228583131
 20
30.3530817749
 10
261.056070946
 20
30.4563571895
 10
260.5363933312
 20
30.6599011767
 10
260.070853217
 20
30.9609611533
 10
259.6657462348
 20
31.3554657996
 10
259.3265507616
 20
31.8380801168
 10
259.0578538343
 20
32.4022775745
 10
258.8632891178
 20
33.0404283697
 10
258.7454877662
 20
33.7439026078
 10
258.7060428407
 20
34.5031870064
  0
LWPOLYLINE
  5
1CC
330
1F
100
AcDbEntity
  8
0
  6
Continuous
 62
     7
370
     0
100
AcDbPolyline
 90
       21
 70
   128
 43
0.0
 10
250.9503420718
 20
38.524927665
 10
251.2446693979
 20
39.6283761709
 10
251.6108481777
 20
40.7387698119
 10
252.0458819151
 20
41.8470220694
 10
252.5462106634
 20
42.9440639484
 10
253.1077401572
 20
44.0209181899
 10
253.725875316
 20
45.0687727334
 10
254.3955578467
 20
46.0790528273
 10
255.1113076363
 20
47.0434911976
 10
255.8672675964
 20
47.9541956996
 10
256.6572515928
 20
48.8037139014
 10
257.4747950675
 20
49.5850940674
 10
258.3132079391
 20
50.2919420461
 10
259.1656293487
 20
50.918473594
 10
260.0250838036
 20
51.4595617091
 10
260.8845382585
 20
51.9107785859
 10
261.7369596682
 20
52.2684318485
 10
262.5753725398
 20
52.5295947667
 10
263.3929160145
 20
52.6921302047
 10
264.1829000109
 20
52.7547081107
 10
264.5695891917
 20
52.748115748
  0
LWPOLYLINE
  5
1CD
330
1F
100
AcDbEntity
  8
0
  6
Continuous
 62
     7
370
     0
100
AcDbPolyline
 90
       24
 70
   128
 43
0.0
 10
245.364214171
 20
40.2040048163
 10
245.6710296487
 20
41.4254052033
 10
246.0541885709
 20
42.6566866878
 10
246.5108737701
 20
43.8887962999
 10
247.0377274785
 20
45.112674981
 10
247.6308760159
 20
46.3193241902
 10
248.2859582708
 20
47.499872066
 10
248.9981577655
 20
48.6456386562
 10
249.762238069
 20
49.7481997375
 10
250.5725812978
 20
50.799448754
 10
251.4232294212
 20
51.7916564204
 10
252.3079280678
 20
52.7175275521
 10
253.2201725105
 20
53.5702547019
 10
254.1532554922
 20
54.3435682126
 10
255.1003165409
 20
55.0317823135
 10
256.0543924112
 20
55.6298369258
 10
257.0084682816
 20
56.1333348662
 10
257.9555293303
 20
56.5385741773
 10
258.888612312
 20
56.842575346
 10
259.8008567546
 20
57.0431032105
 10
260.6855554013
 20
57.1386833941
 10
261.5362035247
 20
57.1286131455
 10
262.3465467535
 20
57.0129665062
 10
262.7030946555
 20
56.9248104905
  0
LWPOLYLINE
  5
1CE
330
1F
100
AcDbEntity
  8
0
  6
Continuous
 62
     7
370
     0
100
AcDbPolyline
 90
       19
 70
   128
 43
0.0
 10
251.3436148233
 20
38.469147126
 10
251.6482997168
 20
39.5929900556
 10
252.0282905885
 20
40.7233199785
 10
252.4802684325
 20
41.8502641
 10
253.0002854769
 20
42.9639791985
 10
253.5837996662
 20
44.0547376004
 10
254.2257143327
 20
45.1130121459
 10
254.9204227136
 20
46.1295594034
 10
255.6618569229
 20
47.0955004056
 10
256.4435409508
 20
48.0023982024
 10
257.2586472277
 20
48.8423315527
 10
258.10005626
 20
49.6079641122
 10
258.9604188139
 20
50.2926085121
 10
259.8322201076
 20
50.8902847693
 10
260.7078454482
 20
51.3957725188
 10
261.5796467419
 20
51.80465661
 10
262.4400092958
 20
52.1133656708
 10
263.2814183281
 20
52.3192033017
 10
263.7045239188
 20
52.3844034997
  0
ARC
  5
1CF
330
1F
100
AcDbEntity
  8
0
  6
Continuous
 62
     7
370
     0
100
AcDbCircle
 10
264.6676741077
 20
34.1971289177
 30
0.0
 40
3.148116857812507
100
AcDbArc
 50
174.4209254684
 51
234.2668941382
  0
LWPOLYLINE
  5
1D0
330
1F
100
AcDbEntity
  8
0
  6
Continuous
 62
     7
370
     0
100
AcDbPolyline
 90
       19
 70
   128
 43
0.0
 10
269.0786333873
 20
42.4672677457
 10
268.8071862976
 20
42.598844182
 10
268.3318978526
 20
42.7288582221
 10
267.8141737538
 20
42.7576125337
 10
267.2632528
 20
42.6845939951
 10
266.6889661887
 20
42.5111056241
 10
266.1015620781
 20
42.2402433247
 10
265.5115227084
 20
41.8768406411
 10
264.9293773462
 20
41.4273825027
 10
264.3655143892
 20
40.8998895007
 10
263.8299959853
 20
40.3037747602
 10
263.3323784731
 20
39.6496759628
 10
262.8815418489
 20
38.9492655172
 10
262.4855313028
 20
38.2150422643
 10
262.1514136526
 20
37.4601084354
 10
261.8851512356
 20
36.6979358426
 10
261.6914955108
 20
35.9421254738
 10
261.5739022694
 20
35.2061647831
 10
261.5344699654
 20
34.5031870064
  0
LWPOLYLINE
  5
1D1
330
1F
100
AcDbEntity
  8
0
  6
Continuous
 62
     7
370
     0
100
AcDbPolyline
 90
       14
 70
   128
 43
0.0
 10
267.4242752469
 20
32.061491735
 10
267.6607942964
 20
31.739122661
 10
267.9619542389
 20
31.5077000543
 10
268.3188340668
 20
31.3740791521
 10
268.720862229
 20
31.342218094
 10
269.1561297834
 20
31.4130606734
 10
269.6117431655
 20
31.58450838
 10
270.0742061232
 20
31.8514825628
 10
270.5298195053
 20
32.20607487
 10
270.9650870598
 20
32.637781512
 10
271.367115222
 20
33.133814406
 10
271.7239950498
 20
33.6794799868
 10
272.0251549923
 20
34.2586144619
 10
272.2616740418
 20
34.8540626178
  0
LWPOLYLINE
  5
1D2
330
1F
100
AcDbEntity
  8
0
  6
Continuous
 62
     7
370
     0
100
AcDbPolyline
 90
       14
 70
   128
 43
0.0
 10
272.261575801
 20
37.5573660588
 10
272.0250438082
 20
37.8796719383
 10
271.7238839559
 20
38.1110416637
 10
271.367015905
 20
38.2446225971
 10
270.9650092646
 20
38.276458379
 10
270.5297705448
 20
38.205606107
 10
270.0741905133
 20
38.0341642621
 10
269.6117624007
 20
37.7672105566
 10
269.1561822619
 20
37.4126515439
 10
268.7209433305
 20
36.9809884448
 10
268.3189363806
 20
36.4850061255
 10
267.9620679314
 20
35.939394439
 10
267.660907604
 20
35.360313146
 10
267.424375073
 20
34.7649132998
  0
LINE
  5
1D3
330
1F
100
AcDbEntity
  8
0
  6
Continuous
 62
     7
370
     0
100
AcDbLine
 10
251.3529374742
 20
31.8906117386
 30
0.0
 11
251.7587187155
 21
32.1248642629
 31
0.0
  0
LWPOLYLINE
  5
1D4
330
1F
100
AcDbEntity
  8
0
  6
Continuous
 62
     7
370
     0
100
AcDbPolyline
 90
        3
 70
   128
 43
0.0
 10
252.3058181119
 20
31.8703238304
 10
252.227172168
 20
31.8992564645
 10
251.7587187155
 20
32.1248642629
  0
LINE
  5
1D5
330
1F
100
AcDbEntity
  8
0
  6
Continuous
 62
     7
370
     0
100
AcDbLine
 10
266.4930562685
 20
32.4023243781
 30
0.0
 11
266.5637669466
 21
32.1384341441
 31
0.0
  0
LWPOLYLINE
  5
1D6
330
1F
100
AcDbEntity
  8
0
  6
Continuous
 62
     7
370
     0
100
AcDbPolyline
 90
        3
 70
   128
 43
0.0
 10
271.8309798746
 20
37.5106203036
 10
271.5887252133
 20
37.8101833514
 10
271.3807003921
 20
37.9629722834
  0
LWPOLYLINE
  5
1D7
330
1F
100
AcDbEntity
  8
0
  6
Continuous
 62
     7
370
     0
100
AcDbPolyline
 90
       12
 70
   128
 43
0.0
 10
267.9113925968
 20
31.8836758709
 10
267.9802594993
 20
31.8494818224
 10
268.3423947109
 20
31.7479453699
 10
268.7473347752
 20
31.7521830684
 10
269.1816267618
 20
31.8620541328
 10
269.63084261
 20
32.0739084235
 10
270.0800584583
 20
32.3807077113
 10
270.5143504449
 20
32.7722595015
 10
270.9192905091
 20
33.2355556495
 10
271.2814257207
 20
33.7552045175
 10
271.5887252133
 20
34.313942316
 10
271.8309798746
 20
34.8932066421
  0
ARC
  5
1D8
330
1F
100
AcDbEntity
  8
0
  6
Continuous
 62
     7
370
     0
100
AcDbCircle
 10
251.0712206415
 20
33.1811848692
 30
0.0
 40
1.26034393125054
100
AcDbArc
 50
303.0577786045
 51
346.2438194889
  0
LINE
  5
1D9
330
1F
100
AcDbEntity
  8
0
  6
Continuous
 62
     7
370
     0
100
AcDbLine
 10
266.2839072643
 20
32.5230635282
 30
0.0
 11
266.4930562685
 21
32.4023243781
 31
0.0
  0
LINE
  5
1DA
330
1F
100
AcDbEntity
  8
0
  6
Continuous
 62
     7
370
     0
100
AcDbLine
 10
247.8651265478
 20
35.6789463162
 30
0.0
 11
252.2527160549
 21
33.1460448081
 31
0.0
  0
LINE
  5
1DB
330
1F
100
AcDbEntity
  8
0
  6
Continuous
 62
     7
370
     0
100
AcDbLine
 10
247.7458877323
 20
35.6100888361
 30
0.0
 11
247.8651265478
 21
35.6789463162
 31
0.0
  0
LINE
  5
1DC
330
1F
100
AcDbEntity
  8
0
  6
Continuous
 62
     7
370
     0
100
AcDbLine
 10
247.4895615241
 20
38.6413556232
 30
0.0
 11
247.4947494188
 21
38.9740210874
 31
0.0
  0
ARC
  5
1DD
330
1F
100
AcDbEntity
  8
0
  6
Continuous
 62
     7
370
     0
100
AcDbCircle
 10
256.0936737085
 20
38.5677002199
 30
0.0
 40
8.604427441702846
100
AcDbArc
 50
179.5095321196
 51
192.163968291
  0
LWPOLYLINE
  5
1DE
330
1F
100
AcDbEntity
  8
0
  6
Continuous
 62
     7
370
     0
100
AcDbPolyline
 90
       18
 70
   128
 43
0.0
 10
227.6440456259
 20
53.9402350708
 10
227.6827989329
 20
54.6453734999
 10
227.7983957743
 20
55.3831904309
 10
227.9888582561
 20
56.1410616115
 10
228.2509275122
 20
56.9060196559
 10
228.5801194652
 20
57.6649759196
 10
228.9708015494
 20
58.4049444508
 10
229.4162890861
 20
59.1132641825
 10
229.9089596599
 20
59.7778155678
 10
230.4403835408
 20
60.3872279483
 10
231.0014679189
 20
60.9310741092
 10
231.5826124848
 20
61.4000486919
 10
232.1738736939
 20
61.7861274112
 10
232.7651349031
 20
62.0827043532
 10
233.346279469
 20
62.2847050042
 10
233.907363847
 20
62.3886730771
 10
234.4387877279
 20
62.3928296494
 10
234.8921713413
 20
62.3088444215
  0
ARC
  5
1DF
330
1F
100
AcDbEntity
  8
0
  6
Continuous
 62
     7
370
     0
100
AcDbCircle
 10
231.2406932739
 20
53.7223834948
 30
0.0
 40
3.603239322259006
100
AcDbArc
 50
176.5337875941
 51
221.8540867457
  0
LINE
  5
1E0
330
1F
100
AcDbEntity
  8
0
  6
Continuous
 62
     7
370
     0
100
AcDbLine
 10
273.1221823421
 20
35.9245267627
 30
0.0
 11
272.9100503078
 21
36.1067761855
 31
0.0
  0
LWPOLYLINE
  5
1E1
330
1F
100
AcDbEntity
  8
0
  6
Continuous
 62
     7
370
     0
100
AcDbPolyline
 90
        3
 70
   128
 43
0.0
 10
251.8106042618
 20
30.8015552986
 10
251.6482997168
 20
31.1239323509
 10
251.3436148233
 20
31.8959935904
  0
ARC
  5
1E2
330
1F
100
AcDbEntity
  8
0
  6
Continuous
 62
     7
370
     0
100
AcDbCircle
 10
256.992335203
 20
33.8291503868
 30
0.0
 40
6.326944176277042
100
AcDbArc
 50
197.2611351492
 51
214.0281525679
  0
LINE
  5
1E3
330
1F
100
AcDbEntity
  8
0
  6
Continuous
 62
     7
370
     0
100
AcDbLine
 10
251.7587187155
 20
32.1248642629
 30
0.0
 11
247.5337556979
 21
34.563883497
 31
0.0
  0
LINE
  5
1E4
330
1F
100
AcDbEntity
  8
0
  6
Continuous
 62
     7
370
     0
100
AcDbLine
 10
270.6119532689
 20
37.4334393672
 30
0.0
 11
272.9100503078
 21
36.1067761855
 31
0.0
  0
ARC
  5
1E5
330
1F
100
AcDbEntity
  8
0
  6
Continuous
 62
     7
370
     0
100
AcDbCircle
 10
252.0581740917
 20
34.7997125141
 30
0.0
 40
6.933748244316188
100
AcDbArc
 50
195.112183421
 51
224.1739785086
  0
OLE2FRAME
  5
1E6
330
1F
100
AcDbEntity
  8
0
100
AcDbOle2Frame
 70
     2
  3
Paintbrush-Bild
 10
13.8511154363
 20
38.264191557
 30
0.0
 11
51.6290888628
 21
31.9806341108
 31
0.0
 71
     2
 72
     0
 73
     1
 90
    12928
310
80552BED0767C5B32B40DDAF6807D121434000000000000000006FFBDDFB85D0
310
4940DDAF6807D121434000000000000000006FFBDDFB85D04940416F4BD60AFB
310
3F4000000000000000002BED0767C5B32B40416F4BD60AFB3F40000000000000
310
0000000000000100000000010000010000000100000000000100000000320000
310
D0CF11E0A1B11AE1000000000000000000000000000000003E000300FEFF0900
310
0600000000000000000000000100000001000000000000000010000002000000
310
01000000FEFFFFFF0000000000000000FFFFFFFFFFFFFFFFFFFFFFFFFFFFFFFF
310
FFFFFFFFFFFFFFFFFFFFFFFFFFFFFFFFFFFFFFFFFFFFFFFFFFFFFFFFFFFFFFFF
310
FFFFFFFFFFFFFFFFFFFFFFFFFFFFFFFFFFFFFFFFFFFFFFFFFFFFFFFFFFFFFFFF
310
FFFFFFFFFFFFFFFFFFFFFFFFFFFFFFFFFFFFFFFFFFFFFFFFFFFFFFFFFFFFFFFF
310
FFFFFFFFFFFFFFFFFFFFFFFFFFFFFFFFFFFFFFFFFFFFFFFFFFFFFFFFFFFFFFFF
310
FFFFFFFFFFFFFFFFFFFFFFFFFFFFFFFFFFFFFFFFFFFFFFFFFFFFFFFFFFFFFFFF
310
FFFFFFFFFFFFFFFFFFFFFFFFFFFFFFFFFFFFFFFFFFFFFFFFFFFFFFFFFFFFFFFF
310
FFFFFFFFFFFFFFFFFFFFFFFFFFFFFFFFFFFFFFFFFFFFFFFFFFFFFFFFFFFFFFFF
310
FFFFFFFFFFFFFFFFFFFFFFFFFFFFFFFFFFFFFFFFFFFFFFFFFFFFFFFFFFFFFFFF
310
FFFFFFFFFFFFFFFFFFFFFFFFFFFFFFFFFFFFFFFFFFFFFFFFFFFFFFFFFFFFFFFF
310
FFFFFFFFFFFFFFFFFFFFFFFFFFFFFFFFFFFFFFFFFFFFFFFFFFFFFFFFFFFFFFFF
310
FFFFFFFFFFFFFFFFFFFFFFFFFFFFFFFFFFFFFFFFFFFFFFFFFFFFFFFFFFFFFFFF
310
FFFFFFFFFFFFFFFFFFFFFFFFFFFFFFFFFFFFFFFFFFFFFFFFFFFFFFFFFFFFFFFF
310
FFFFFFFFFFFFFFFFFFFFFFFFFFFFFFFFFFFFFFFFFFFFFFFFFFFFFFFFFFFFFFFF
310
FDFFFFFFFEFFFFFFFEFFFFFFFEFFFFFF05000000060000000700000008000000
310
090000000A0000000B0000000C0000000D0000000E0000000F00000010000000
310
11000000120000001300000014000000150000001600000017000000FEFFFFFF
310
FFFFFFFFFFFFFFFFFFFFFFFFFFFFFFFFFFFFFFFFFFFFFFFFFFFFFFFFFFFFFFFF
310
FFFFFFFFFFFFFFFFFFFFFFFFFFFFFFFFFFFFFFFFFFFFFFFFFFFFFFFFFFFFFFFF
310
FFFFFFFFFFFFFFFFFFFFFFFFFFFFFFFFFFFFFFFFFFFFFFFFFFFFFFFFFFFFFFFF
310
FFFFFFFFFFFFFFFFFFFFFFFFFFFFFFFFFFFFFFFFFFFFFFFFFFFFFFFFFFFFFFFF
310
FFFFFFFFFFFFFFFFFFFFFFFFFFFFFFFFFFFFFFFFFFFFFFFFFFFFFFFFFFFFFFFF
310
FFFFFFFFFFFFFFFFFFFFFFFFFFFFFFFFFFFFFFFFFFFFFFFFFFFFFFFFFFFFFFFF
310
FFFFFFFFFFFFFFFFFFFFFFFFFFFFFFFFFFFFFFFFFFFFFFFFFFFFFFFFFFFFFFFF
310
FFFFFFFFFFFFFFFFFFFFFFFFFFFFFFFFFFFFFFFFFFFFFFFFFFFFFFFFFFFFFFFF
310
FFFFFFFFFFFFFFFFFFFFFFFFFFFFFFFFFFFFFFFFFFFFFFFFFFFFFFFFFFFFFFFF
310
FFFFFFFFFFFFFFFFFFFFFFFFFFFFFFFFFFFFFFFFFFFFFFFFFFFFFFFFFFFFFFFF
310
FFFFFFFFFFFFFFFFFFFFFFFFFFFFFFFFFFFFFFFFFFFFFFFFFFFFFFFFFFFFFFFF
310
FFFFFFFFFFFFFFFFFFFFFFFFFFFFFFFFFFFFFFFFFFFFFFFFFFFFFFFFFFFFFFFF
310
FFFFFFFFFFFFFFFFFFFFFFFFFFFFFFFFFFFFFFFFFFFFFFFFFFFFFFFFFFFFFFFF
310
52006F006F007400200045006E00740072007900000000000000000000000000
310
0000000000000000000000000000000000000000000000000000000000000000
310
16000500FFFFFFFFFFFFFFFF020000000A00030000000000C000000000000046
310
00000000000000000000000050F961B48320D20103000000C000000000000000
310
01004F006C006500000000000000000000000000000000000000000000000000
310
0000000000000000000000000000000000000000000000000000000000000000
310
0A000200FFFFFFFFFFFFFFFFFFFFFFFF00000000000000000000000000000000
310
0000000000000000000000000000000000000000000000001400000000000000
310
010043006F006D0070004F0062006A0000000000000000000000000000000000
310
0000000000000000000000000000000000000000000000000000000000000000
310
120002010100000003000000FFFFFFFF00000000000000000000000000000000
310
0000000000000000000000000000000000000000010000004D00000000000000
310
01004F006C006500310030004E00610074006900760065000000000000000000
310
0000000000000000000000000000000000000000000000000000000000000000
310
1A000200FFFFFFFFFFFFFFFFFFFFFFFF00000000000000000000000000000000
310
0000000000000000000000000000000000000000040000002426000000000000
310
FEFFFFFF02000000FEFFFFFFFFFFFFFFFFFFFFFFFFFFFFFFFFFFFFFFFFFFFFFF
310
FFFFFFFFFFFFFFFFFFFFFFFFFFFFFFFFFFFFFFFFFFFFFFFFFFFFFFFFFFFFFFFF
310
FFFFFFFFFFFFFFFFFFFFFFFFFFFFFFFFFFFFFFFFFFFFFFFFFFFFFFFFFFFFFFFF
310
FFFFFFFFFFFFFFFFFFFFFFFFFFFFFFFFFFFFFFFFFFFFFFFFFFFFFFFFFFFFFFFF
310
FFFFFFFFFFFFFFFFFFFFFFFFFFFFFFFFFFFFFFFFFFFFFFFFFFFFFFFFFFFFFFFF
310
FFFFFFFFFFFFFFFFFFFFFFFFFFFFFFFFFFFFFFFFFFFFFFFFFFFFFFFFFFFFFFFF
310
FFFFFFFFFFFFFFFFFFFFFFFFFFFFFFFFFFFFFFFFFFFFFFFFFFFFFFFFFFFFFFFF
310
FFFFFFFFFFFFFFFFFFFFFFFFFFFFFFFFFFFFFFFFFFFFFFFFFFFFFFFFFFFFFFFF
310
FFFFFFFFFFFFFFFFFFFFFFFFFFFFFFFFFFFFFFFFFFFFFFFFFFFFFFFFFFFFFFFF
310
FFFFFFFFFFFFFFFFFFFFFFFFFFFFFFFFFFFFFFFFFFFFFFFFFFFFFFFFFFFFFFFF
310
FFFFFFFFFFFFFFFFFFFFFFFFFFFFFFFFFFFFFFFFFFFFFFFFFFFFFFFFFFFFFFFF
310
FFFFFFFFFFFFFFFFFFFFFFFFFFFFFFFFFFFFFFFFFFFFFFFFFFFFFFFFFFFFFFFF
310
FFFFFFFFFFFFFFFFFFFFFFFFFFFFFFFFFFFFFFFFFFFFFFFFFFFFFFFFFFFFFFFF
310
FFFFFFFFFFFFFFFFFFFFFFFFFFFFFFFFFFFFFFFFFFFFFFFFFFFFFFFFFFFFFFFF
310
FFFFFFFFFFFFFFFFFFFFFFFFFFFFFFFFFFFFFFFFFFFFFFFFFFFFFFFFFFFFFFFF
310
FFFFFFFFFFFFFFFFFFFFFFFFFFFFFFFFFFFFFFFFFFFFFFFFFFFFFFFFFFFFFFFF
310
0100000200000000000000000000000000000000000000000000000000000000
310
0000000000000000000000000000000000000000000000000000000000000000
310
0100FEFF030A0000FFFFFFFF0A00030000000000C00000000000004607000000
310
5042727573680007000000504272757368000700000050427275736800F439B2
310
7100000000000000000000000000000000000000000000000000000000000000
310
0000000000000000000000000000000000000000000000000000000000000000
310
0000000000000000000000000000000000000000000000000000000000000000
310
0000000000000000000000000000000000000000000000000000000000000000
310
0000000000000000000000000000000000000000000000000000000000000000
310
0000000000000000000000000000000000000000000000000000000000000000
310
0000000000000000000000000000000000000000000000000000000000000000
310
0000000000000000000000000000000000000000000000000000000000000000
310
0000000000000000000000000000000000000000000000000000000000000000
310
0000000000000000000000000000000000000000000000000000000000000000
310
0000000000000000000000000000000000000000000000000000000000000000
310
0000000000000000000000000000000000000000000000000000000000000000
310
20260000424D0E260000000000003E00000028000000B40200006E0000000100
310
01000000000000000000130B0000130B00000200000002000000000000FFFFFF
310
FFFFFFFFFFFFFFFFFFFFFFFFFFFFFFFFFFFFFFFFFFFFFFFFFFFFFFFFFFFFFFFF
310
FFFFFFFFFFFFFFFFFFFFFFFFFFFFFFFFFFFFFFFFFFFFFFFFFFFFFFFFFFFFFFFF
310
FFFFFFFFFFFFFFFFFFFFFFFFFFFFFFFFFFFFFFFFFFFFFFFFF000FFFFFFFFFFFF
310
FFFFFFFFFFFFFFFFFFFFFFFFFFFFFFFFFFFFFFFFFFFFFFFFFFFFFFFFFFFFFFFF
310
FFFFFFFFFFFFFFFFFFFFFFFFFFFFFFFFFFFFFFFFFFFFFFFFFFFFFFFFFFFFFFFF
310
FFFFFFFFFFFFFFFFFFFFFFFFFFFFFFFFF000FFFFFFFFFFFFFFFFFFFFFFFFFFFF
310
FFFFFFFFFFFFFFFFFFFFFFFFFFFFFFFFFFFFFFFFFFFFFFFFFFFFFFFFFFFFFFFF
310
FFFFFFFFFFFFFFFFFFFFFFFFFFFFFFFFFFFFFFFFFFFFFFFFFFFFFFFFFFFFFFFF
310
FFFFFFFFFFFFFFFFF000FFFFFFFFFFFFFFFFFFFFFFFFFFFFFFFFFFFFFFFFFFFF
310
FFFFFFFFFFFFFFFFFFFFFFFFFFFFFFFFFFFFFFFFFFFFFFFFFFFFFFFFFFFFFFFF
310
FFFFFFFFFFFFFFFFFFFFFFFFFFFFFFFFFFFFFFFFFFFFFFFFFFFFFFFFFFFFFFFF
310
F000FFFFFFFFFFFFFFFFFFFFFFFFFFFFFFFFFFFFFFFFFFFFFFFFFFFFFFFFFFFF
310
FFFFFFFFFFFFFFFFFFFFFFFFFFFFFFFFFFFFFFFFFFFFFFFFFFFFFFFFFFFFFFFF
310
FFFFFFFFFFFFFFFFFFFFFFFFFFFFFFFFFFFFFFFFFFFFFFFFF000FFFFFFFFFFFF
310
FFFFFFFFFFFFFFFFFFFFFFFFFFFFFFFFFFFFFFFFFFFFFFFFFFFFFFFFFFFFFFFF
310
FFFFFFFFFFFFFFFFFFFFFFFFFFFFFFFFFFFFFFFFFFFFFFFFFFFFFFFFFFFFFFFF
310
FFFFFFFFFFFFFFFFFFFFFFFFFFFFFFFFF000FFFFFFFFFFFFFFFFFFFFFFFFFFFF
310
FFFFFFFFFFFFFFFFFFFFFFFFFFFFFFFFFFFFFFFFFFFFFFFFFFFFFFFFFFFFFFFF
310
FFFFFFFFFFFFFFFFFFFFFFFFFFFFFFFFFFFFFFFFFFFFFFFFFFFFFFFFFFFFFFFF
310
FFFFFFFFFFFFFFFFF000FFFFFFFFFFFFFFFFFFFFFFFFFFFFFFFFFFFFFFFFFFFF
310
FFFFFFFFFFFFFFFFFFFFFFFFFFFFFFFFFFFFFFFFFFFFFFFFFFFFFFFFFFFFFFFF
310
FFFFFFFFFFFFFFFFFFFFFFFFFFFFFFFFFFFFFFFFFFFFFFFFFFFFFFFFFFFFFFFF
310
F000FFFFFFFFFFFFFFFFFFFFFFFFFFFFFFFFFFFFFFFFFFFFFFFFFFFFFFFFFFFF
310
FFFFFFFFFFFFFFFFFFFFFFFFFFFFFFFFFFFFFFFFFFFFFFFFFFFFFFFFFFFFFFFF
310
FFFFFFFFFFFFFFFFFFFFFFFFFFFFFFFFFFFFFFFFFFFFFFFFF000FFFFFFFFFFFF
310
FFFFFFFFFFFFFFFFFFFFFFFFFFFFFFFFFFFFFFFFFFFFFFFFFFFFFFFFFFFFFFFF
310
FFFFFFFFFFFFFFFFFFFFFFFFFFFFFFFFFFFFFFFFFFFFFFFFFFFFFFFFFFFFFFFF
310
FFFFFFFFFFFFFFFFFFFFFFFFFFFFFFFFF000FFFFFFFFFFFFFFFFFFFFFFFFFFFF
310
FFFFFFFFFFFFFFFFFFFFFFFFFFFFFFFFFFFFFFFFFFFFFFFFFFFFFFFFFFFFFFFF
310
FFFFFFFFFFFFFFFFFFFFFFFFFFFFFFFFFFFFFFFFFFFFFFFFFFFFFFFFFFFFFFFF
310
FFFFFFFFFFFFFFFFF000FFFFFFFFFFFFFFFFFFFFFFFFFFFFFFFFFFFFFFFFFFFF
310
FFFFFFFFFFFFFFFFFFFFFFFFFFFFFFFFFFFFFFFFFFFFFFFFFFFFFFFFFFFFFFFF
310
FFFFFFFFFFFFFFFFFFFFFFFFFFFFFFFFFFFFFFFFFFFFFFFFFFFFFFFFFFFFFFFF
310
F000FFFFFFFFFFFFFFFFFFFFFFFFFFFFFFFFFFFFFFFFFFFFFFFFFFFFFFFFFFFF
310
FFFFFFFFFFFFFFFFFFFFFFFFFFFFFFFFFFFFFFFFFFFFFFFFFFFFFFFFFFFFFFFF
310
FFFFFFFFFFFFFFFFFFFFFFFFFFFFFFFFFFFFFFFFFFFFFFFFF000FFFFFFFFFFFF
310
FFFFFFFFFFFFFFFFFFFFFFFFFFFFFFFFFFFFFFFFFFFFFFFFFFFFFFFFFFFFFFFF
310
FFFFFFFFFFFFFFFFFFFFFFFFFFFFFFFFFFFFFFFFFFFFFFFFFFFFFFFFFFFFFFFF
310
FFFFFFFFFFFFFFFFFFFFFFFFFFFFFFFFF000FFFFFFFFFFFFFFFFFFFFFFFFFFFF
310
FFFFFFFFFFFFFFFFFFFFFFFFFFFFFFFFFFFFFFFFFFFFFFFFFFFFFFFFFFFFFFFF
310
FFFFFFFFFFFFFFFFFFFFFFFFFFFFFFFFFFFFFFFFFFFFFFFFFFFFFFFFFFFFFFFF
310
FFFFFFFFFFFFFFFFF000FFFFFFFFFFFFFFFFFFFFFFFFFFFFFFFFFFFFFFFFFFFF
310
FFFFFFFFFFFFFFFFFFFFFFFFFFFFFFFFFFFFFFFFFFFFFFFFFFFFFFFFFFFFFFFF
310
FFFFFFFFFFFFFFFFFFFFFFFFFFFFFFFFFFFFFFFFFFFFFFFFFFFFFFFFFFFFFFFF
310
F000FFFFFFFFFFFFFFFFFFFFFFFFFFFFFFFFFFFFFFFFFFFFFFFFFFFFFFFFFFFF
310
FFFFFFFFFFFFFFFFFFFFFFFFFFFFFFFFFFFFFFFFFFFFFFFFFFFFFFFFFFFFFFFF
310
FFFFFFFFFFFFFFFFFFFFFFFFFFFFFFFFFFFFFFFFFFFFFFFFF000FFFFFFFFFFFF
310
FFFFFFFFFFFFFFFFFFFFFFFFFFFFFFFFFFFFFFFFFFFFFFFFFFFFFFFFFFFFFFFF
310
FFFFFFFFFFFFFFFFFFFFFFFFFFFFFFFFFFFFFFFFFFFFFFFFFFFFFFFFFFFFFFFF
310
FFFFFFFFFFFFFFFFFFFFFFFFFFFFFFFFF000FFFFFFFFFFFFFFFFFFFFFFFFFFFF
310
FFFFFFFFFFFFFFFFFFFFFFFFFFFFFFFFFFFFFFFFFFFFFFFFFFFFFFFFFFFFFFFF
310
FFFFFFFFFFFFFFFFFFFFFFFFFFFFFFFFFFFFFFFFFFFFFFFFFFFFFFFFFFFFFFFF
310
FFFFFFFFFFFFFFFFF000FFFFF80003FFFFFFFFFFFFFFFFFFFFFFFFFFFFFFFFFF
310
FFFFF00007FFFFFFFFFF00007FFFFFF800000000000000007FFFFFFFFFFFFFFF
310
FFFFFFFC001FFFFFFFFFFFFFFC001FFFFFFFFFFFFFFFFFFFFFFFFFFE0007FFFF
310
F000FFFF8000007FFFFFFFF8000FFFFFC0007FFFFF80007FFFFF0000007FFFFF
310
FFF8000007FFFFF800000000000000007FFFFFF0001FFFFFFFFFFFC00001FFFF
310
FFFFFFFFC00001FFFFFFFF000000000003FFFFE000007FFFF000FFFE0000000F
310
FFFFFFF0000FFFFF80007FFFFF80007FFFFC0000001FFFFFFFC0000001FFFFF8
310
00000000000000007FFFFFF0001FFFFFFFFFFE0000003FFFFFFFFFFE0000003F
310
FFFFFF000000000003FFFF0000000FFFF000FFF800000003FFFFFFF00007FFFF
310
80007FFFFF80007FFFF000000007FFFFFF000000003FFFF80000000000000000
310
7FFFFFF0001FFFFFFFFFF80000000FFFFFFFFFF80000000FFFFFFF0000000000
310
03FFFC00000003FFF000FFE000000000FFFFFFF00007FFFF80003FFFFF80007F
310
FFC000000001FFFFFC000000001FFFF800000000000000007FFFFFF0001FFFFF
310
FFFFE000000003FFFFFFFFE000000003FFFFFF000000000003FFF000000000FF
310
F000FF80000000007FFFFFF00007FFFF80003FFFFF80007FFF8000000000FFFF
310
F80000000007FFF800000000000000007FFFFFF0001FFFFFFFFFC000000001FF
310
FFFFFFC000000001FFFFFF000000000003FFC0000000007FF000FF0000000000
310
3FFFFFE00007FFFF00003FFFFF80007FFE00000000003FFFF00000000003FFF8
310
00000000000000007FFFFFF0001FFFFFFFFF8000000000FFFFFFFF8000000000
310
FFFFFF000000000003FF80000000003FF000FE00000000001FFFFFE00003FFFF
310
00003FFFFF80007FFC00000000001FFFE00000000001FFF8000001FFFE000000
310
7FFFFFF0001FFFFFFFFE00000000003FFFFFFE00000000003FFFFF0000000000
310
03FF00000000001FF000FC00000000000FFFFFE00003FFFF00001FFFFF80007F
310
F800000000001FFFC00000000000FFF8000001FFFE0000007FFFFFF0001FFFFF
310
FFFC00000000001FFFFFFC00000000001FFFFF000000000003FE00000000000F
310
F000F8000000000007FFFFE00003FFFF00001FFFFF80007FF800000000000FFF
310
800000000000FFF8000001FFFE0000007FFFFFF0001FFFFFFFF800000000000F
310
FFFFF800000000000FFFFF000000000003FC000000000007F000F80000000000
310
03FFFFC00003FFFE00001FFFFF80007FF0000000000007FF0000000000007FF8
310
000001FFFE0000007FFFFFF0001FFFFFFFF0000000000007FFFFF00000000000
310
07FFFF000000000003F8000000000003F000F0000000000003FFFFC00001FFFE
310
00001FFFFF80007FE0000000000007FE0000000000003FF8000001FFFE000000
310
7FFFFFF0001FFFFFFFF0000000000007FFFFF0000000000007FFFF0000000000
310
03F800001F800003F000E00001FFF00001FFFFC00001FFFE00000FFFFF80007F
310
E00001FFE00003FE00001FFF00003FF8000001FFFE0000007FFFFFF0001FFFFF
310
FFE000003E000003FFFFE000003E000003FFFF000000000003F00001FFF80001
310
F000E00007FFFC0001FFFFC00001FFFE00000FFFFF80007FC0000FFFFC0003FC
310
0000FFFFC0001FF8000001FFFE0000007FFFFFF0001FFFFFFFC00003FFE00001
310
FFFFC00003FFE00001FFFF0001FFFFFFFFF00007FFFE0001F000E0000FFFFF00
310
00FFFF800001FFFC00000FFFFF80007FC0001FFFFE0001FC0001FFFFE0001FF8
310
000001FFFE0000007FFFFFF0001FFFFFFF80000FFFF80000FFFF80000FFFF800
310
00FFFF0003FFFFFFFFE0000FFFFF8000F000C0003FFFFF8000FFFF800000FFFC
310
000007FFFF80007F80003FFFFF0001FC0003FFFFF0001FF8000001FFFE000000
310
7FFFFFF0001FFFFFFF80003FFFFE0000FFFF80003FFFFE0000FFFF0003FFFFFF
310
FFE0003FFFFF8000F000C0003FFFFF8000FFFF800000FFFC000007FFFF80007F
310
80007FFFFF8001F80007FFFFF8000FF8000001FFFE0000007FFFFFF0001FFFFF
310
FF00007FFFFF00007FFF00007FFFFF00007FFF0003FFFFFFFFE0003FFFFFC000
310
F000C0007FFFFFC000FFFF000000FFFC000007FFFF80007F8000FFFFFF8000F8
310
000FFFFFF8000FF8000001FFFE0000007FFFFFF0001FFFFFFF0000FFFFFF8000
310
7FFF0000FFFFFF80007FFF0003FFFFFFFFC0007FFFFFC00070008000FFFFFFC0
310
00FFFF000000FFF8000007FFFF80007F8000FFFFFF8000F8000FFFFFF8000FF8
310
000001FFFE0000007FFFFFF0001FFFFFFE0001FFFFFFC0003FFE0001FFFFFFC0
310
003FFF0003FFFFFFFFC0007FFFFFE00070008000FFFFFFC0007FFF0000007FF8
310
000003FFFF80007F0001FFFFFF8000F8000FFFFFF8000FF8000001FFFE000000
310
7FFFFFF0001FFFFFFE0001FFFFFFC0003FFE0001FFFFFFC0003FFF0003FFFFFF
310
FFC000FFFFFFE00070008000FFFFFFC0007FFF0000007FF8000003FFFF80007F
310
0001FFFFFF8000F8001FFFFFF8000FF8000001FFFE0000007FFFFFF0001FFFFF
310
FE0003FFFFFFE0003FFE0003FFFFFFE0003FFF0003FFFFFFFFC000FFFFFFE000
310
70008000FFFFFFC0007FFE0000007FF8000003FFFF80007F0001FFFFFF8000F0
310
001FFFFFF8000FF8000001FFFE0000007FFFFFF0001FFFFFFC0003FFFFFFE000
310
1FFC0003FFFFFFE0001FFF0003FFFFFFFFC000FFFFFFC00070008000FFFFFF80
310
007FFE0000007FF0000003FFFF80007F0001FFFFFF0000F0001FFFFFF8000FF8
310
000001FFFE0000007FFFFFF0001FFFFFFC0007FFFFFFF0001FFC0007FFFFFFF0
310
001FFF0003FFFFFFFFC000FFFFFFC00070008001FFFFFF0000FFFE0000003FF0
310
000001FFFF80007F0001FFFFFF0000F8001FFFFFF0000FF8000001FFFE000000
310
7FFFFFF0001FFFFFFC0007FFFFFFF0001FFC0007FFFFFFF0001FFF0003FFFFFF
310
FFC001FFFFFF80007000FFFFFFFFFE0000FFFE0008003FF0008001FFFF80007F
310
FFFFFFFFFC0000FFFFFFFFFFE0000FF8000001FFFE0000007FFFFFF0001FFFFF
310
F8000FFFFFFFF8000FF8000FFFFFFFF8000FFF0003FFFFFFFFFFFFFFFFFF0000
310
7000FFFFFFFFFC0000FFFC0008003FF0008001FFFF80007FFFFFFFFFF80001FF
310
FFFFFFFF80000FF8000001FFFE0000007FFFFFF0001FFFFFF8000FFFFFFFF800
310
0FF8000FFFFFFFF8000FFF0003FFFFFFFFFFFFFFFFFE0000F000FFFFFFFFE000
310
00FFFC000C003FE000C001FFFF80007FFFFFFFFFC00001FFFFFFFFFE00001FF8
310
000001FFFE0000007FFFFFF0001FFFFFF8000FFFFFFFF8000FF8000FFFFFFFF8
310
000FFF0003FFFFFFFFFFFFFFFFF00000F000FFFFFFFE000001FFFC000C001FE0
310
00C000FFFF80007FFFFFFFFE000001FFFFFFFFE000001FF80FFFFFFFFFFFFFC0
310
7FFFFFF0001FFFFFF8000FFFFFFFF8000FF8000FFFFFFFF8000FFF0003FFFFFF
310
FFFFFFFFFF800000F000FFFFFFC0000001FFFC001C001FE001C000FFFF80007F
310
FFFFFF80000003FFFFFFF80000001FF80FFFFFFFFFFFFFC07FFFFFF0001FFFFF
310
F8001FFFFFFFFC000FF8001FFFFFFFFC000FFF0003FFFFFFFFFFFFFFF0000001
310
F000FFFFF800000001FFF8001C001FE001C000FFFF80007FFFFFF800000003FF
310
FFFF800000003FF80FFFFFFFFFFFFFC07FFFFFF0001FFFFFF8001FFFFFFFFC00
310
0FF8001FFFFFFFFC000FFF0003FFFFFFFFFFFFFE00000001F000FFFFC0000000
310
03FFF8001E001FC001E000FFFF80007FFFFF8000000007FFFFFC000000003FF8
310
0FFFFFFFFFFFFFC07FFFFFF0001FFFFFF8001FFFFFFFFC000FF8001FFFFFFFFC
310
000FFF0003FFFFFFFFFFFFE000000003F000FFFE0000000007FFF8001E000FC0
310
01E0007FFF80007FFFFE0000000007FFFFE0000000007FF80FFFFFFFFFFFFFC0
310
7FFFFFF0001FFFFFF0001FFFFFFFFC0007F0001FFFFFFFFC0007FF0003FFFFFF
310
FFFFFF0000000003F000FFF80000000007FFF8001E000FC003E0007FFF80007F
310
FFF0000000000FFFFF8000000000FFF80FFFFFFFFFFFFFC07FFFFFF0001FFFFF
310
F0001FFFFFFFFC0007F0001FFFFFFFFC0007FF0003FFFFFFFFFFFC0000000007
310
F000FFE0000000000FFFF0003E000FC003E0007FFF80007FFFC0000000001FFF
310
FE0000000001FFF80FFFFFFFFFFFFFC07FFFFFF0001FFFFFF0001FFFFFFFFC00
310
07F0001FFFFFFFFC0007FF0003FFFFFFFFFFF0000000000FF000FFC000000000
310
1FFFF0003F000F8003F0003FFF80007FFF80000000003FFFF80000000003FFF8
310
0FFFFFFFFFFFFFC07FFFFFF0001FFFFFF0001FFFFFFFFC0007F0001FFFFFFFFC
310
0007FF0003FFFFFFFFFFE0000000001FF000FF00000000007FFFF0003F000780
310
03F0003FFF80007FFF00000000007FFFF00000000007FFF80FFFFFFFFFFFFFC0
310
7FFFFFF0001FFFFFF0001FFFFFFFFC0007F0001FFFFFFFFC0007FF0003FFFFFF
310
FFFF80000000007FF000FE0000000000FFFFE0003F00078007F0003FFF80007F
310
FE0000000001FFFFE0000000001FFFF80FFFFFFFFFFFFFC07FFFFFF0001FFFFF
310
F0001FFFFFFFFC0007F0001FFFFFFFFC0007FF0003FFFFFFFFFF0000000000FF
310
F000FC0000000003FFFFE0007F00078007F0003FFF80007FFC0000000007FFFF
310
C0000000007FFFF80FFFFFFFFFFFFFC07FFFFFF0001FFFFFF8001FFFFFFFFC00
310
0FF8001FFFFFFFFC000FFF0003FFFFFFFFFE0000000003FFF000FC000000000F
310
FFFFE0007F80070007F8001FFF80007FF8000000001FFFFF8000000001FFFFF8
310
0FFFFFFFFFFFFFC07FFFFFF0001FFFFFF8001FFFFFFFFC000FF8001FFFFFFFFC
310
000FFF0003FFFFFFFFFC000000000FFFF000F8000000007FFFFFE0007F800700
310
07F8001FFF80007FF000000000FFFFFF800000000FFFFFF80FFFFFFFFFFFFFC0
310
7FFFFFF0001FFFFFF8000FFFFFFFF8000FF8000FFFFFFFF8000FFF0003FFFFFF
310
FFFC000000007FFFF000F800000007FFFFFFC0007F8003000FF8001FFF80007F
310
F000000007FFFFFF000000007FFFFFF80FFFFFFFFFFFFFC07FFFFFF0001FFFFF
310
F8000FFFFFFFF8000FF8000FFFFFFFF8000FFF0003FFFFFFFFF80000000FFFFF
310
F000F0000000FFFFFFFFC000FF8003000FF8001FFF80007FE0000000FFFFFFFF
310
0000000FFFFFFFF8000001FFFE0000007FFFFFF0001FFFFFF8000FFFFFFFF800
310
0FF8000FFFFFFFF8000FFF0003FFFFFFFFF8000000FFFFFFF000F000000FFFFF
310
FFFFC000FFC002000FF8000FFF80007FE000001FFFFFFFFE000001FFFFFFFFF8
310
000001FFFE0000007FFFFFF0001FFFFFF8000FFFFFFFF8000FF8000FFFFFFFF8
310
000FFF0003FFFFFFFFF000001FFFFFFFF000E00000FFFFFFFFFFC000FFC00200
310
0FFC000FFF80007FE00001FFFFFFFFFE00001FFFFFFFFFF8000001FFFE000000
310
7FFFFFF0001FFFFFFC000FFFFFFFF8001FFC000FFFFFFFF8001FFF0003FFFFFF
310
FFF00001FFFFFFFFF000E00007FFFFFFFFFF8000FFC000001FFC000FFF80007F
310
C0000FFFFFFFFFFE0000FFFFFFFFFFF8000001FFFE0000007FFFFFF0001FFFFF
310
FC0007FFFFFFF0001FFC0007FFFFFFF0001FFF0003FFFFFFFFF00007FFFFFFFF
310
F000E0001FFFFFFFFFFF8000FFC000001FFC000FFF80007FC0003FFFFFFFFFFE
310
0001FFFFFFFFFFF8000001FFFE0000007FFFFFF0001FFFFFFC0007FFFFFFF000
310
1FFC0007FFFFFFF0001FFF0003FFFFFFFFF0001FFFFFFFFFF000E0003FFFFF00
310
03FF8001FFE000001FFC0007FF80007FC0007FFFFF0007FC0003FFFFF0003FF8
310
000001FFFE0000007FFFFFF0001FFFFFFC0003FFFFFFE0001FFC0003FFFFFFE0
310
001FFF0003FFFFFFFFF0003FFFFFFFFFF000E0003FFFFF0001FF8001FFE00000
310
1FFE0007FF80007FC0007FFFFE0003FC0007FFFFE0003FF8000001FFFE000000
310
7FFFFFF0001FFFFFFE0003FFFFFFE0003FFE0003FFFFFFE0003FFF0003FFFFFF
310
FFF0003FFFFF8001F000E0003FFFFF0001FF0001FFE000001FFE0007FF80007F
310
C0007FFFFE0003FC0007FFFFE0003FF8000001FFFE0000007FFFFFF0001FFFFF
310
FE0001FFFFFFC0003FFE0001FFFFFFC0003FFF0003FFFFFFFFF0003FFFFF0001
310
F000E0003FFFFF0003FF0001FFE000003FFE0007FF80007FC0007FFFFE0003FC
310
0007FFFFE0003FF8000001FFFE0000007FFFFFF0001FFFFFFF0001FFFFFFC000
310
7FFF0001FFFFFFC0007FFF0003FFFFFFFFF0003FFFFF0001F000E0003FFFFE00
310
03FF0003FFF000003FFE0003FF80007FC0007FFFFC0003FE0007FFFFE0003FF8
310
000001FFFE0000007FFFFFF0001FFFFFFF0000FFFFFF80007FFF0000FFFFFF80
310
007FFF0003FFFFFFFFF0003FFFFF0001F000E0003FFFFE0003FF0003FFF00000
310
3FFF0003FF80007FC0007FFFFC0007FE0007FFFFC0003FF8000001FFFE000000
310
7FFFFFF0001FFFFFFF80007FFFFF0000FFFF80007FFFFF0000FFFF0003FFFFFF
310
FFF0003FFFFF0003F000E0003FFFFC0003FE0003FFF000003FFF0003FF80007F
310
E0003FFFF80007FE0003FFFFC0007FF8000001FFFE0000007FFFFFF0001FFFFF
310
FF80003FFFFE0000FFFF80003FFFFE0000FFFF0003FFFFFFFFF0001FFFFE0003
310
F000F0001FFFF80003FE0003FFF000007FFF0001FF80007FE0003FFFF00007FE
310
0001FFFF80007FF8000001FFFE0000007FFFFFF0001FFFFFFFC0000FFFF80001
310
FFFFC0000FFFF80001FFFF0003FFFFFFFFF0001FFFFC0003F000F0000FFFF000
310
07FE0007FFF800007FFF0001FF80007FE0001FFFE00007FF0000FFFE00007FF8
310
000001FFFE0000007FFFFFF0001FFFFFFFC00003FFE00001FFFFC00003FFE000
310
01FFFF0003FFFFFFFFF8000FFFF80003F000F00003FFC00007FC0007FFF80000
310
7FFF8001FF80007FF00007FF80000FFF00007FF80000FFF8000001FFFE000000
310
7F80000000000001FFE000003E000003FFFFE000003E000003FFFF0003FFFFFF
310
FFF80003FFE00007F000F800000000000FFC0007FFF800007FFF8001FF80007F
310
F000000000000FFF000000000000FFF8000001FFFE0000007F80000000000001
310
FFF0000000000007FFFFF0000000000007FFFF0003FFFFFFFFFC00007E000007
310
F000F800000000000FFC0007FFF80000FFFF8000FF80007FF800000000001FFF
310
800000000001FFF8000001FFFE0000007F80000000000001FFF800000000000F
310
FFFFF800000000000FFFFF0003FFFFFFFFFC00000000000FF000FC0000000000
310
1FFC0007FFFC0000FFFF8000FF80007FF800000000003FFFC00000000001FFF8
310
000001FFFE0000007F80000000000001FFF800000000000FFFFFF80000000000
310
0FFFFF0003FFFFFFFFFE00000000001FF000FE00000000003FF8000FFFFC0000
310
FFFF8000FF80007FFC00000000003FFFC00000000003FFF8000001FFFE000000
310
7F80000000000001FFFC00000000001FFFFFFC00000000001FFFFF0003FFFFFF
310
FFFF00000000001FF000FF00000000003FF8000FFFFC0000FFFFC000FF80007F
310
FE00000000007FFFE00000000007FFF8000001FFFE0000007F80000000000001
310
FFFE00000000003FFFFFFE00000000003FFFFF0003FFFFFFFFFF80000000003F
310
F000FF80000000007FF8000FFFFC0001FFFFC0007F80007FFF0000000000FFFF
310
F0000000000FFFF800000000000000007F80000000000001FFFF8000000000FF
310
FFFFFF8000000000FFFFFF0003FFFFFFFFFFC0000000007FF000FFC000000000
310
FFF8000FFFFE0001FFFFC0007F80007FFF8000000001FFFFF8000000001FFFF8
310
00000000000000007F80000000000001FFFFC000000001FFFFFFFFC000000001
310
FFFFFF0003FFFFFFFFFFE000000000FFF000FFE000000003FFF0001FFFFE0001
310
FFFFC0007F80007FFFC000000007FFFFFE000000003FFFF80000000000000000
310
7F80000000000001FFFFE000000003FFFFFFFFE000000003FFFFFF0003FFFFFF
310
FFFFF000000003FFF000FFF80000000FFFF0001FFFFE0001FFFFE0007F80007F
310
FFF00000000FFFFFFF00000000FFFFF800000000000000007F80000000000001
310
FFFFF80000000FFFFFFFFFF80000000FFFFFFF0003FFFFFFFFFFFC0000000FFF
310
F000FFFE0000003FFFF0001FFFFE0003FFFFE0003F80007FFFFC0000003FFFFF
310
FFC0000003FFFFF800000000000000007F80000000000001FFFFFE0000003FFF
310
FFFFFFFE0000003FFFFFFF0003FFFFFFFFFFFF0000003FFFF000FFFF800000FF
310
FFF0001FFFFF0003FFFFE0003F80007FFFFF000001FFFFFFFFF800001FFFFFF8
310
00000000000000007F80000000000001FFFFFFC00001FFFFFFFFFFFFC00001FF
310
FFFFFF0003FFFFFFFFFFFFC00000FFFFF000FFFFF8000FFFFFFFFFFFFFFFFFFF
310
FFFFFFFFFFFFFFFFFFFFF0001FFFFFFFFFFF0000FFFFFFF80000000000000000
310
7FFFFFFFFFFFFFFFFFFFFFFC001FFFFFFFFFFFFFFC001FFFFFFFFFFFFFFFFFFF
310
FFFFFFFC001FFFFFF000FFFFFFFFFFFFFFFFFFFFFFFFFFFFFFFFFFFFFFFFFFFF
310
FFFFFFFFFFFFFFFFFFFFFFFFFFFFFFFFFFFFFFFFFFFFFFFFFFFFFFFFFFFFFFFF
310
FFFFFFFFFFFFFFFFFFFFFFFFFFFFFFFFFFFFFFFFFFFFFFFFFFFFFFFFFFFFFFFF
310
F000FFFFFFFFFFFFFFFFFFFFFFFFFFFFFFFFFFFFFFFFFFFFFFFFFFFFFFFFFFFF
310
FFFFFFFFFFFFFFFFFFFFFFFFFFFFFFFFFFFFFFFFFFFFFFFFFFFFFFFFFFFFFFFF
310
FFFFFFFFFFFFFFFFFFFFFFFFFFFFFFFFFFFFFFFFFFFFFFFFF000FFFFFFFFFFFF
310
FFFFFFFFFFFFFFFFFFFFFFFFFFFFFFFFFFFFFFFFFFFFFFFFFFFFFFFFFFFFFFFF
310
FFFFFFFFFFFFFFFFFFFFFFFFFFFFFFFFFFFFFFFFFFFFFFFFFFFFFFFFFFFFFFFF
310
FFFFFFFFFFFFFFFFFFFFFFFFFFFFFFFFF000FFFFFFFFFFFFFFFFFFFFFFFFFFFF
310
FFFFFFFFFFFFFFFFFFFFFFFFFFFFFFFFFFFFFFFFFFFFFFFFFFFFFFFFFFFFFFFF
310
FFFFFFFFFFFFFFFFFFFFFFFFFFFFFFFFFFFFFFFFFFFFFFFFFFFFFFFFFFFFFFFF
310
FFFFFFFFFFFFFFFFF000FFFFFFFFFFFFFFFFFFFFFFFFFFFFFFFFFFFFFFFFFFFF
310
FFFFFFFFFFFFFFFFFFFFFFFFFFFFFFFFFFFFFFFFFFFFFFFFFFFFFFFFFFFFFFFF
310
FFFFFFFFFFFFFFFFFFFFFFFFFFFFFFFFFFFFFFFFFFFFFFFFFFFFFFFFFFFFFFFF
310
F000FFFFFFFFFFFFFFFFFFFFFFFFFFFFFFFFFFFFFFFFFFFFFFFFFFFFFFFFFFFF
310
FFFFFFFFFFFFFFFFFFFFFFFFFFFFFFFFFFFFFFFFFFFFFFFFFFFFFFFFFFFFFFFF
310
FFFFFFFFFFFFFFFFFFFFFFFFFFFFFFFFFFFFFFFFFFFFFFFFF000FFFFFFFFFFFF
310
FFFFFFFFFFFFFFFFFFFFFFFFFFFFFFFFFFFFFFFFFFFFFFFFFFFFFFFFFFFFFFFF
310
FFFFFFFFFFFFFFFFFFFFFFFFFFFFFFFFFFFFFFFFFFFFFFFFFFFFFFFFFFFFFFFF
310
FFFFFFFFFFFFFFFFFFFFFFFFFFFFFFFFF000FFFFFFFFFFFFFFFFFFFFFFFFFFFF
310
FFFFFFFFFFFFFFFFFFFFFFFFFFFFFFFFFFFFFFFFFFFFFFFFFFFFFFFFFFFFFFFF
310
FFFFFFFFFFFFFFFFFFFFFFFFFFFFFFFFFFFFFFFFFFFFFFFFFFFFFFFFFFFFFFFF
310
FFFFFFFFFFFFFFFFF000FFFFFFFFFFFFFFFFFFFFFFFFFFFFFFFFFFFFFFFFFFFF
310
FFFFFFFFFFFFFFFFFFFFFFFFFFFFFFFFFFFFFFFFFFFFFFFFFFFFFFFFFFFFFFFF
310
FFFFFFFFFFFFFFFFFFFFFFFFFFFFFFFFFFFFFFFFFFFFFFFFFFFFFFFFFFFFFFFF
310
F000FFFFFFFFFFFFFFFFFFFFFFFFFFFFFFFFFFFFFFFFFFFFFFFFFFFFFFFFFFFF
310
FFFFFFFFFFFFFFFFFFFFFFFFFFFFFFFFFFFFFFFFFFFFFFFFFFFFFFFFFFFFFFFF
310
FFFFFFFFFFFFFFFFFFFFFFFFFFFFFFFFFFFFFFFFFFFFFFFFF000FFFFFFFFFFFF
310
FFFFFFFFFFFFFFFFFFFFFFFFFFFFFFFFFFFFFFFFFFFFFFFFFFFFFFFFFFFFFFFF
310
FFFFFFFFFFFFFFFFFFFFFFFFFFFFFFFFFFFFFFFFFFFFFFFFFFFFFFFFFFFFFFFF
310
FFFFFFFFFFFFFFFFFFFFFFFFFFFFFFFFF000FFFFFFFFFFFFFFFFFFFFFFFFFFFF
310
FFFFFFFFFFFFFFFFFFFFFFFFFFFFFFFFFFFFFFFFFFFFFFFFFFFFFFFFFFFFFFFF
310
FFFFFFFFFFFFFFFFFFFFFFFFFFFFFFFFFFFFFFFFFFFFFFFFFFFFFFFFFFFFFFFF
310
FFFFFFFFFFFFFFFFF000FFFFFFFFFFFFFFFFFFFFFFFFFFFFFFFFFFFFFFFFFFFF
310
FFFFFFFFFFFFFFFFFFFFFFFFFFFFFFFFFFFFFFFFFFFFFFFFFFFFFFFFFFFFFFFF
310
FFFFFFFFFFFFFFFFFFFFFFFFFFFFFFFFFFFFFFFFFFFFFFFFFFFFFFFFFFFFFFFF
310
F000FFFFFFFFFFFFFFFFFFFFFFFFFFFFFFFFFFFFFFFFFFFFFFFFFFFFFFFFFFFF
310
FFFFFFFFFFFFFFFFFFFFFFFFFFFFFFFFFFFFFFFFFFFFFFFFFFFFFFFFFFFFFFFF
310
FFFFFFFFFFFFFFFFFFFFFFFFFFFFFFFFFFFFFFFFFFFFFFFFF000FFFFFFFFFFFF
310
FFFFFFFFFFFFFFFFFFFFFFFFFFFFFFFFFFFFFFFFFFFFFFFFFFFFFFFFFFFFFFFF
310
FFFFFFFFFFFFFFFFFFFFFFFFFFFFFFFFFFFFFFFFFFFFFFFFFFFFFFFFFFFFFFFF
310
FFFFFFFFFFFFFFFFFFFFFFFFFFFFFFFFF000FFFFFFFFFFFFFFFFFFFFFFFFFFFF
310
FFFFFFFFFFFFFFFFFFFFFFFFFFFFFFFFFFFFFFFFFFFFFFFFFFFFFFFFFFFFFFFF
310
FFFFFFFFFFFFFFFFFFFFFFFFFFFFFFFFFFFFFFFFFFFFFFFFFFFFFFFFFFFFFFFF
310
FFFFFFFFFFFFFFFFF000FFFFFFFFFFFFFFFFFFFFFFFFFFFFFFFFFFFFFFFFFFFF
310
FFFFFFFFFFFFFFFFFFFFFFFFFFFFFFFFFFFFFFFFFFFFFFFFFFFFFFFFFFFFFFFF
310
FFFFFFFFFFFFFFFFFFFFFFFFFFFFFFFFFFFFFFFFFFFFFFFFFFFFFFFFFFFFFFFF
310
F000FFFFFFFFFFFFFFFFFFFFFFFFFFFFFFFFFFFFFFFFFFFFFFFFFFFFFFFFFFFF
310
FFFFFFFFFFFFFFFFFFFFFFFFFFFFFFFFFFFFFFFFFFFFFFFFFFFFFFFFFFFFFFFF
310
FFFFFFFFFFFFFFFFFFFFFFFFFFFFFFFFFFFFFFFFFFFFFFFFF000FFFFFFFFFFFF
310
FFFFFFFFFFFFFFFFFFFFFFFFFFFFFFFFFFFFFFFFFFFFFFFFFFFFFFFFFFFFFFFF
310
FFFFFFFFFFFFFFFFFFFFFFFFFFFFFFFFFFFFFFFFFFFFFFFFFFFFFFFFFFFFFFFF
310
FFFFFFFFFFFFFFFFFFFFFFFFFFFFFFFFF000FFFFFFFFFFFFFFFFFFFFFFFFFFFF
310
FFFFFFFFFFFFFFFFFFFFFFFFFFFFFFFFFFFFFFFFFFFFFFFFFFFFFFFFFFFFFFFF
310
FFFFFFFFFFFFFFFFFFFFFFFFFFFFFFFFFFFFFFFFFFFFFFFFFFFFFFFFFFFFFFFF
310
FFFFFFFFFFFFFFFFF000FFFFFFFFFFFFFFFFFFFFFFFFFFFFFFFFFFFFFFFFFFFF
310
FFFFFFFFFFFFFFFFFFFFFFFFFFFFFFFFFFFFFFFFFFFFFFFFFFFFFFFFFFFFFFFF
310
FFFFFFFFFFFFFFFFFFFFFFFFFFFFFFFFFFFFFFFFFFFFFFFFFFFFFFFFFFFFFFFF
310
F000FFFFFFFFFFFFFFFFFFFFFFFFFFFFFFFFFFFFFFFFFFFFFFFFFFFFFFFFFFFF
310
FFFFFFFFFFFFFFFFFFFFFFFFFFFFFFFFFFFFFFFFFFFFFFFFFFFFFFFFFFFFFFFF
310
FFFFFFFFFFFFFFFFFFFFFFFFFFFFFFFFFFFFFFFFFFFFFFFFF000FFFFFFFFFFFF
310
FFFFFFFFFFFFFFFFFFFFFFFFFFFFFFFFFFFFFFFFFFFFFFFFFFFFFFFFFFFFFFFF
310
FFFFFFFFFFFFFFFFFFFFFFFFFFFFFFFFFFFFFFFFFFFFFFFFFFFFFFFFFFFFFFFF
310
FFFFFFFFFFFFFFFFFFFFFFFFFFFFFFFFF0000000000000000000000000000000
310
0000000000000000000000000000000000000000000000000000000000000000
310
0000000000000000000000000000000000000000000000000000000000000000
310
0000000000000000000000000000000000000000000000000000000000000000
310
0000000000000000000000000000000000000000000000000000000000000000
310
0000000000000000000000000000000000000000000000000000000000000000
310
0000000000000000000000000000000000000000000000000000000000000000
310
0000000000000000000000000000000000000000000000000000000000000000
310
0000000000000000000000000000000000000000000000000000000000000000
310
0000000000000000000000000000000000000000000000000000000000000000
310
0000000000000000000000000000000000000000000000000000000000000000
310
0000000000000000000000000000000000000000000000000000000000000000
310
0000000000000000000000000000000000000000000000000000000000000000
310
0000000000000000000000000000000000000000000000000000000000000000
310
0000000000000000000000000000000000000000000000000000000000000000
310
0000000000000000000000000000000000000000000000000000000000000000
  1
OLE
  0
ENDSEC
  0
SECTION
  2
OBJECTS
  0
DICTIONARY
  5
C
330
0
100
AcDbDictionary
281
     1
  3
ACAD_GROUP
350
D
  3
ACAD_LAYOUT
350
1A
  3
ACAD_MLINESTYLE
350
17
  3
ACAD_PLOTSETTINGS
350
19
  3
ACAD_PLOTSTYLENAME
350
E
  3
ACAD_SCALELIST
350
47
  0
DICTIONARY
  5
D
102
{ACAD_REACTORS
330
C
102
}
330
C
100
AcDbDictionary
281
     1
  0
DICTIONARY
  5
1A
102
{ACAD_REACTORS
330
C
102
}
330
C
100
AcDbDictionary
281
     1
  3
Layout1
350
1E
  3
Layout2
350
26
  3
Model
350
22
  0
DICTIONARY
  5
17
102
{ACAD_REACTORS
330
C
102
}
330
C
100
AcDbDictionary
281
     1
  3
Standard
350
18
  0
DICTIONARY
  5
19
102
{ACAD_REACTORS
330
C
102
}
330
C
100
AcDbDictionary
281
     1
  0
ACDBDICTIONARYWDFLT
  5
E
102
{ACAD_REACTORS
330
C
102
}
330
C
100
AcDbDictionary
281
     1
  3
Normal
350
F
100
AcDbDictionaryWithDefault
340
F
  0
DICTIONARY
  5
47
102
{ACAD_REACTORS
330
C
102
}
330
C
100
AcDbDictionary
281
     1
  3
A0
350
48
  3
A1
350
49
  3
A2
350
4A
  3
A3
350
4B
  3
A4
350
4C
  3
A5
350
4D
  3
A6
350
4E
  3
A7
350
4F
  3
A8
350
50
  3
A9
350
51
  3
B0
350
52
  3
B1
350
53
  3
B2
350
54
  3
B3
350
55
  3
B4
350
56
  3
B5
350
57
  3
B6
350
58
  3
B7
350
59
  3
B8
350
5A
  3
B9
350
5B
  3
C0
350
5C
  3
C1
350
5D
  3
C2
350
5E
  3
C3
350
5F
  3
C4
350
60
  3
C5
350
61
  3
C6
350
62
  3
C7
350
63
  3
C8
350
64
  3
C9
350
65
  3
D0
350
66
  3
D1
350
67
  3
D2
350
68
  0
LAYOUT
  5
1E
102
{ACAD_REACTORS
330
1A
102
}
330
1A
100
AcDbPlotSettings
  1

  2
none_device
  4

  6

 40
0.0
 41
0.0
 42
0.0
 43
0.0
 44
0.0
 45
0.0
 46
0.0
 47
0.0
 48
0.0
 49
0.0
140
0.0
141
0.0
142
1.0
143
1.0
 70
   688
 72
     1
 73
     0
 74
     5
  7

 75
    16
147
1.0
148
0.0
149
0.0
100
AcDbLayout
  1
Layout1
 70
     1
 71
     1
 10
0.0
 20
0.0
 11
420.0
 21
297.0
 12
0.0
 22
0.0
 32
0.0
 14
1.0000000000E+20
 24
1.0000000000E+20
 34
1.0000000000E+20
 15
-1.0000000000E+20
 25
-1.0000000000E+20
 35
-1.0000000000E+20
146
0.0
 13
0.0
 23
0.0
 33
0.0
 16
1.0
 26
0.0
 36
0.0
 17
0.0
 27
1.0
 37
0.0
 76
     0
330
1B
  0
LAYOUT
  5
26
102
{ACAD_REACTORS
330
1A
102
}
330
1A
100
AcDbPlotSettings
  1

  2
none_device
  4

  6

 40
0.0
 41
0.0
 42
0.0
 43
0.0
 44
0.0
 45
0.0
 46
0.0
 47
0.0
 48
0.0
 49
0.0
140
0.0
141
0.0
142
1.0
143
1.0
 70
   688
 72
     1
 73
     0
 74
     5
  7

 75
    16
147
1.0
148
0.0
149
0.0
100
AcDbLayout
  1
Layout2
 70
     1
 71
     2
 10
0.0
 20
0.0
 11
0.0
 21
0.0
 12
0.0
 22
0.0
 32
0.0
 14
0.0
 24
0.0
 34
0.0
 15
0.0
 25
0.0
 35
0.0
146
0.0
 13
0.0
 23
0.0
 33
0.0
 16
1.0
 26
0.0
 36
0.0
 17
0.0
 27
1.0
 37
0.0
 76
     0
330
23
  0
LAYOUT
  5
22
102
{ACAD_REACTORS
330
1A
102
}
330
1A
100
AcDbPlotSettings
  1

  2
none_device
  4
Letter_(8.50_x_11.00_Inches)
  6

 40
6.35
 41
6.35
 42
6.35000508
 43
6.35000508
 44
215.9
 45
279.4
 46
0.0
 47
0.0
 48
0.0
 49
0.0
140
0.0
141
0.0
142
1.0
143
1.0
 70
  1712
 72
     1
 73
     0
 74
     0
  7

 75
     0
147
1.0
148
0.0
149
0.0
100
AcDbLayout
  1
Model
 70
     1
 71
     0
 10
0.0
 20
0.0
 11
297.0
 21
210.0
 12
0.0
 22
0.0
 32
0.0
 14
0.0
 24
0.0
 34
0.0
 15
297.0
 25
210.0
 35
0.0
146
0.0
 13
0.0
 23
0.0
 33
0.0
 16
1.0
 26
0.0
 36
0.0
 17
0.0
 27
1.0
 37
0.0
 76
     0
330
1F
331
29
  0
MLINESTYLE
  5
18
102
{ACAD_REACTORS
330
17
102
}
330
17
100
AcDbMlineStyle
  2
Standard
 70
     0
  3

 62
   256
 51
90.0
 52
90.0
 71
     2
 49
0.5
 62
   256
  6
BYLAYER
 49
-0.5
 62
   256
  6
BYLAYER
  0
ACDBPLACEHOLDER
  5
F
102
{ACAD_REACTORS
330
E
102
}
330
E
  0
SCALE
  5
48
102
{ACAD_REACTORS
330
47
102
}
330
47
100
AcDbScale
 70
     0
300
1:1
140
1.0
141
1.0
290
     1
  0
SCALE
  5
49
102
{ACAD_REACTORS
330
47
102
}
330
47
100
AcDbScale
 70
     0
300
1:2
140
1.0
141
2.0
290
     0
  0
SCALE
  5
4A
102
{ACAD_REACTORS
330
47
102
}
330
47
100
AcDbScale
 70
     0
300
1:4
140
1.0
141
4.0
290
     0
  0
SCALE
  5
4B
102
{ACAD_REACTORS
330
47
102
}
330
47
100
AcDbScale
 70
     0
300
1:5
140
1.0
141
5.0
290
     0
  0
SCALE
  5
4C
102
{ACAD_REACTORS
330
47
102
}
330
47
100
AcDbScale
 70
     0
300
1:8
140
1.0
141
8.0
290
     0
  0
SCALE
  5
4D
102
{ACAD_REACTORS
330
47
102
}
330
47
100
AcDbScale
 70
     0
300
1:10
140
1.0
141
10.0
290
     0
  0
SCALE
  5
4E
102
{ACAD_REACTORS
330
47
102
}
330
47
100
AcDbScale
 70
     0
300
1:16
140
1.0
141
16.0
290
     0
  0
SCALE
  5
4F
102
{ACAD_REACTORS
330
47
102
}
330
47
100
AcDbScale
 70
     0
300
1:20
140
1.0
141
20.0
290
     0
  0
SCALE
  5
50
102
{ACAD_REACTORS
330
47
102
}
330
47
100
AcDbScale
 70
     0
300
1:30
140
1.0
141
30.0
290
     0
  0
SCALE
  5
51
102
{ACAD_REACTORS
330
47
102
}
330
47
100
AcDbScale
 70
     0
300
1:40
140
1.0
141
40.0
290
     0
  0
SCALE
  5
52
102
{ACAD_REACTORS
330
47
102
}
330
47
100
AcDbScale
 70
     0
300
1:50
140
1.0
141
50.0
290
     0
  0
SCALE
  5
53
102
{ACAD_REACTORS
330
47
102
}
330
47
100
AcDbScale
 70
     0
300
1:100
140
1.0
141
100.0
290
     0
  0
SCALE
  5
54
102
{ACAD_REACTORS
330
47
102
}
330
47
100
AcDbScale
 70
     0
300
2:1
140
2.0
141
1.0
290
     0
  0
SCALE
  5
55
102
{ACAD_REACTORS
330
47
102
}
330
47
100
AcDbScale
 70
     0
300
4:1
140
4.0
141
1.0
290
     0
  0
SCALE
  5
56
102
{ACAD_REACTORS
330
47
102
}
330
47
100
AcDbScale
 70
     0
300
8:1
140
8.0
141
1.0
290
     0
  0
SCALE
  5
57
102
{ACAD_REACTORS
330
47
102
}
330
47
100
AcDbScale
 70
     0
300
10:1
140
10.0
141
1.0
290
     0
  0
SCALE
  5
58
102
{ACAD_REACTORS
330
47
102
}
330
47
100
AcDbScale
 70
     0
300
100:1
140
100.0
141
1.0
290
     0
  0
SCALE
  5
59
102
{ACAD_REACTORS
330
47
102
}
330
47
100
AcDbScale
 70
     0
300
1/128" = 1'-0"
140
0.0078125
141
12.0
290
     0
  0
SCALE
  5
5A
102
{ACAD_REACTORS
330
47
102
}
330
47
100
AcDbScale
 70
     0
300
1/64" = 1'-0"
140
0.015625
141
12.0
290
     0
  0
SCALE
  5
5B
102
{ACAD_REACTORS
330
47
102
}
330
47
100
AcDbScale
 70
     0
300
1/32" = 1'-0"
140
0.03125
141
12.0
290
     0
  0
SCALE
  5
5C
102
{ACAD_REACTORS
330
47
102
}
330
47
100
AcDbScale
 70
     0
300
1/16" = 1'-0"
140
0.0625
141
12.0
290
     0
  0
SCALE
  5
5D
102
{ACAD_REACTORS
330
47
102
}
330
47
100
AcDbScale
 70
     0
300
3/32" = 1'-0"
140
0.09375
141
12.0
290
     0
  0
SCALE
  5
5E
102
{ACAD_REACTORS
330
47
102
}
330
47
100
AcDbScale
 70
     0
300
1/8" = 1'-0"
140
0.125
141
12.0
290
     0
  0
SCALE
  5
5F
102
{ACAD_REACTORS
330
47
102
}
330
47
100
AcDbScale
 70
     0
300
3/16" = 1'-0"
140
0.1875
141
12.0
290
     0
  0
SCALE
  5
60
102
{ACAD_REACTORS
330
47
102
}
330
47
100
AcDbScale
 70
     0
300
1/4" = 1'-0"
140
0.25
141
12.0
290
     0
  0
SCALE
  5
61
102
{ACAD_REACTORS
330
47
102
}
330
47
100
AcDbScale
 70
     0
300
3/8" = 1'-0"
140
0.375
141
12.0
290
     0
  0
SCALE
  5
62
102
{ACAD_REACTORS
330
47
102
}
330
47
100
AcDbScale
 70
     0
300
1/2" = 1'-0"
140
0.5
141
12.0
290
     0
  0
SCALE
  5
63
102
{ACAD_REACTORS
330
47
102
}
330
47
100
AcDbScale
 70
     0
300
3/4" = 1'-0"
140
0.75
141
12.0
290
     0
  0
SCALE
  5
64
102
{ACAD_REACTORS
330
47
102
}
330
47
100
AcDbScale
 70
     0
300
1" = 1'-0"
140
1.0
141
12.0
290
     0
  0
SCALE
  5
65
102
{ACAD_REACTORS
330
47
102
}
330
47
100
AcDbScale
 70
     0
300
1-1/2" = 1'-0"
140
1.5
141
12.0
290
     0
  0
SCALE
  5
66
102
{ACAD_REACTORS
330
47
102
}
330
47
100
AcDbScale
 70
     0
300
3" = 1'-0"
140
3.0
141
12.0
290
     0
  0
SCALE
  5
67
102
{ACAD_REACTORS
330
47
102
}
330
47
100
AcDbScale
 70
     0
300
6" = 1'-0"
140
6.0
141
12.0
290
     0
  0
SCALE
  5
68
102
{ACAD_REACTORS
330
47
102
}
330
47
100
AcDbScale
 70
     0
300
1'-0" = 1'-0"
140
12.0
141
12.0
290
     0
  0
ENDSEC
  0
EOF
